  0
SECTION
  2
HEADER
  9
$ACADVER
  1
AC1024
  9
$DWGCODEPAGE
  3
ANSI_1252
  9
$EXTMAX
 10
297.0
 20
210.0
 30
0.0
  9
$EXTMIN
 10
0.0
 20
0.0
 30
0.0
  9
$LIMMIN
 10
0.0
 20
0.0
  9
$LIMMAX
 10
297.0
 20
210.0
  9
$VIEWCTR
 10
148.5
 20
105.0
  9
$VIEWSIZE
 40
210.0
  9
$CLAYER
  8
0
  9
$LTSCALE
 40
16.335
  9
$CELTYPE
  6
BYLAYER
  9
$DIMSCALE
 40
1.0
  9
$DIMASZ
 40
3.0
  9
$DIMEXO
 40
0.5
  9
$DIMDLI
 40
11.286
  9
$DIMEXE
 40
1.5
  9
$DIMCEN
 40
2.673
  9
$DIMLFAC
 40
1.0
  9
$DIMBLK
  1
_FILLED
  9
$DIMALT
 70
0
  9
$DIMALTF
 40
0.0393700787
  9
$DIMTXT
 40
3.0
  9
$DIMTOL
 70
1
  9
$DIMLIM
 70
0
  9
$DIMTFAC
 40
1.0
  9
$DIMTP
 40
0.01
  9
$DIMTM
 40
0.01
  9
$DIMGAP
 40
0.625
  9
$DIMDSEP
 70
44
  9
$AUNITS
 70
0
  9
$PDMODE
 70
3
  9
$PDSIZE
 40
3.0
  9
$HANDSEED
  5
52F
  9
$TILEMODE
 70
1
  9
$MEASUREMENT
 70
1
  9
$INSUNITS
 70
4
  0
ENDSEC
  0
SECTION
  2
CLASSES
  0
CLASS
  1
ACDBDICTIONARYWDFLT
  2
AcDbDictionaryWithDefault
  3
AutoCAD 2000
 90
0
 91
1
280
0
281
0
  0
CLASS
  1
ACDBPLACEHOLDER
  2
AcDbPlaceHolder
  3
AutoCAD 2000
 90
0
 91
1
280
0
281
0
  0
CLASS
  1
LAYOUT
  2
AcDbLayout
  3
AutoCAD 2000
 90
0
 91
0
280
0
281
0
  0
ENDSEC
  0
SECTION
  2
TABLES
  0
TABLE
  2
VPORT
  5
8
100
AcDbSymbolTable
 70
2
  0
VPORT
  5
1F4
100
AcDbSymbolTableRecord
100
AcDbViewportTableRecord
  2
*ACTIVE
 70
0
 10
0.0
 20
0.0
 11
1.0
 21
1.0
 12
148.5
 22
105.0
 13
0.0
 23
0.0
 14
1.0
 24
1.0
 15
0.0
 25
0.0
 16
0.0
 26
0.0
 36
1.0
 17
0.0
 27
0.0
 37
0.0
 40
210.0
 41
1.4142857143
 42
50.0
 43
0.0
 44
0.0
 50
0.0
 51
0.0
 71
0
 72
100
 73
1
 74
1
 75
0
 76
0
 77
0
 78
0
  0
ENDTAB
  0
TABLE
  2
LTYPE
  5
5
100
AcDbSymbolTable
 70
6
  0
LTYPE
  5
14
100
AcDbSymbolTableRecord
100
AcDbLinetypeTableRecord
  2
BYBLOCK
 70
0
  3

 72
65
 73
0
 40
0.0
  0
LTYPE
  5
15
100
AcDbSymbolTableRecord
100
AcDbLinetypeTableRecord
  2
BYLAYER
 70
0
  3

 72
65
 73
0
 40
0.0
  0
LTYPE
  5
16
100
AcDbSymbolTableRecord
100
AcDbLinetypeTableRecord
  2
CONTINUOUS
 70
64
  3
Solid line
 72
65
 73
0
 40
0.0
  0
LTYPE
  5
1F5
100
AcDbSymbolTableRecord
100
AcDbLinetypeTableRecord
  2
CENTER
 70
64
  3
____ _ ____ _ ____ _ ____ _ ____ _ ____ _ ____
 72
65
 73
4
 40
0.6
 49
0.375
 74
0
 49
-0.075
 74
0
 49
0.075
 74
0
 49
-0.075
 74
0
  0
LTYPE
  5
1F6
100
AcDbSymbolTableRecord
100
AcDbLinetypeTableRecord
  2
HIDDEN
 70
64
  3
- - - - - - - - - - - - - - - - - - - -
 72
65
 73
2
 40
0.2
 49
0.1
 74
0
 49
-0.1
 74
0
  0
LTYPE
  5
1F7
100
AcDbSymbolTableRecord
100
AcDbLinetypeTableRecord
  2
PHANTOM
 70
64
  3
_____ _ _ _____ _ _ _____ _ _ _____
 72
65
 73
6
 40
0.8
 49
0.45
 74
0
 49
-0.05
 74
0
 49
0.1
 74
0
 49
-0.05
 74
0
 49
0.1
 74
0
 49
-0.05
 74
0
  0
LTYPE
  5
1F8
100
AcDbSymbolTableRecord
100
AcDbLinetypeTableRecord
  2
DOT
 70
64
  3
. . . . . . . . . . . . . . . . . . . .
 72
65
 73
2
 40
0.2
 49
0.1
 74
0
 49
-0.1
 74
0
  0
LTYPE
  5
1F9
100
AcDbSymbolTableRecord
100
AcDbLinetypeTableRecord
  2
DASHED
 70
64
  3
- - - - - - - - - - - - - - - - - - - -
 72
65
 73
2
 40
0.2
 49
0.1
 74
0
 49
-0.1
 74
0
  0
ENDTAB
  0
TABLE
  2
LAYER
  5
2
100
AcDbSymbolTable
 70
36
  0
LAYER
  5
10
100
AcDbSymbolTableRecord
100
AcDbLayerTableRecord
  2
0
 70
0
 62
7
  6
CONTINUOUS
370
-3
390
F
  0
LAYER
  5
1FA
100
AcDbSymbolTableRecord
100
AcDbLayerTableRecord
  2
DEFAULT_1
 70
0
 62
7
  6
CENTER
370
-3
390
F
  0
LAYER
  5
1FB
100
AcDbSymbolTableRecord
100
AcDbLayerTableRecord
  2
DEFAULT_2
 70
0
 62
7
  6
HIDDEN
370
-3
390
F
  0
LAYER
  5
1FC
100
AcDbSymbolTableRecord
100
AcDbLayerTableRecord
  2
DEFAULT_3
 70
0
 62
7
  6
PHANTOM
370
-3
390
F
  0
LAYER
  5
1FD
100
AcDbSymbolTableRecord
100
AcDbLayerTableRecord
  2
ASSI
 70
0
 62
7
  6
CONTINUOUS
370
-3
390
F
  0
LAYER
  5
1FE
100
AcDbSymbolTableRecord
100
AcDbLayerTableRecord
  2
COLOR5
 70
0
 62
7
  6
CONTINUOUS
370
-3
390
F
  0
LAYER
  5
1FF
100
AcDbSymbolTableRecord
100
AcDbLayerTableRecord
  2
COORDINATE
 70
0
 62
7
  6
CONTINUOUS
370
-3
390
F
  0
LAYER
  5
200
100
AcDbSymbolTableRecord
100
AcDbLayerTableRecord
  2
COORD_ORIGINE
 70
0
 62
7
  6
CONTINUOUS
370
-3
390
F
  0
LAYER
  5
201
100
AcDbSymbolTableRecord
100
AcDbLayerTableRecord
  2
CURVE
 70
0
 62
7
  6
CONTINUOUS
370
-3
390
F
  0
LAYER
  5
202
100
AcDbSymbolTableRecord
100
AcDbLayerTableRecord
  2
DRAFT
 70
0
 62
7
  6
CONTINUOUS
370
-3
390
F
  0
LAYER
  5
203
100
AcDbSymbolTableRecord
100
AcDbLayerTableRecord
  2
INCISIONI
 70
0
 62
7
  6
CONTINUOUS
370
-3
390
F
  0
LAYER
  5
204
100
AcDbSymbolTableRecord
100
AcDbLayerTableRecord
  2
INTF_YELLOW
 70
0
 62
7
  6
CONTINUOUS
370
-3
390
F
  0
LAYER
  5
205
100
AcDbSymbolTableRecord
100
AcDbLayerTableRecord
  2
PIANI
 70
0
 62
7
  6
CONTINUOUS
370
-3
390
F
  0
LAYER
  5
206
100
AcDbSymbolTableRecord
100
AcDbLayerTableRecord
  2
PIANI_ORIGINE
 70
0
 62
7
  6
CONTINUOUS
370
-3
390
F
  0
LAYER
  5
207
100
AcDbSymbolTableRecord
100
AcDbLayerTableRecord
  2
PUNTI
 70
0
 62
7
  6
CONTINUOUS
370
-3
390
F
  0
LAYER
  5
208
100
AcDbSymbolTableRecord
100
AcDbLayerTableRecord
  2
RACCORDO
 70
0
 62
7
  6
CONTINUOUS
370
-3
390
F
  0
LAYER
  5
209
100
AcDbSymbolTableRecord
100
AcDbLayerTableRecord
  2
SNAPLINE
 70
0
 62
7
  6
CONTINUOUS
370
-3
390
F
  0
LAYER
  5
20A
100
AcDbSymbolTableRecord
100
AcDbLayerTableRecord
  2
SUPERFICI
 70
0
 62
7
  6
CONTINUOUS
370
-3
390
F
  0
LAYER
  5
20B
100
AcDbSymbolTableRecord
100
AcDbLayerTableRecord
  2
TRASH
 70
0
 62
7
  6
CONTINUOUS
370
-3
390
F
  0
LAYER
  5
20C
100
AcDbSymbolTableRecord
100
AcDbLayerTableRecord
  2
XSEC_DATUMS
 70
0
 62
7
  6
CONTINUOUS
370
-3
390
F
  0
ENDTAB
  0
TABLE
  2
STYLE
  5
3
100
AcDbSymbolTable
 70
1
  0
STYLE
  5
11
100
AcDbSymbolTableRecord
100
AcDbTextStyleTableRecord
  2
STANDARD
 70
0
 40
0.0
 41
0.8
 50
0.0
 71
0
 42
0.2
  3
txt
  4

  0
STYLE
  5
20D
100
AcDbSymbolTableRecord
100
AcDbTextStyleTableRecord
  2
TEXTSTYLE_1
 70
0
 40
0.0
 41
0.8
 50
0.0
 71
0
 42
0.2
  3
gdt
  4

  0
ENDTAB
  0
TABLE
  2
VIEW
  5
6
100
AcDbSymbolTable
 70
0
  0
ENDTAB
  0
TABLE
  2
UCS
  5
7
100
AcDbSymbolTable
 70
0
  0
ENDTAB
  0
TABLE
  2
APPID
  5
9
100
AcDbSymbolTable
 70
1
  0
APPID
  5
20E
100
AcDbSymbolTableRecord
100
AcDbRegAppTableRecord
  2
ACAD
 70
0
  0
ENDTAB
  0
TABLE
  2
BLOCK_RECORD
  5
1
100
AcDbSymbolTable
 70
0
  0
BLOCK_RECORD
  5
20F
100
AcDbSymbolTableRecord
100
AcDbBlockTableRecord
  2
*Model_Space
  0
BLOCK_RECORD
  5
210
100
AcDbSymbolTableRecord
100
AcDbBlockTableRecord
  2
*Paper_Space
  0
BLOCK_RECORD
  5
211
100
AcDbSymbolTableRecord
100
AcDbBlockTableRecord
  2
_FILLED
  0
BLOCK_RECORD
  5
212
100
AcDbSymbolTableRecord
100
AcDbBlockTableRecord
  2
*D0
  0
BLOCK_RECORD
  5
213
100
AcDbSymbolTableRecord
100
AcDbBlockTableRecord
  2
*D1
  0
BLOCK_RECORD
  5
214
100
AcDbSymbolTableRecord
100
AcDbBlockTableRecord
  2
*D2
  0
ENDTAB
  0
TABLE
  2
DIMSTYLE
  5
A
100
AcDbSymbolTable
 70
1
100
AcDbDimStyleTable
 71
0
  0
DIMSTYLE
105
215
100
AcDbSymbolTableRecord
100
AcDbDimStyleTableRecord
  2
STANDARD
 70
0
  3

  4

 40
1.0
 41
3.0
 42
0.5
 43
0.38
 44
1.5
 45
0.0
 46
0.0
 47
0.01
 48
0.01
140
3.0
141
0.09
142
0.0
143
25.4
144
1.0
145
0.0
146
1.0
147
0.625
 71
1
 72
0
 73
0
 74
0
 75
0
 76
0
 77
1
 78
8
 79
2
170
0
171
1
172
0
173
0
174
0
175
0
176
0
177
0
178
0
270
2
179
2
271
2
272
2
273
2
274
2
275
0
280
0
281
0
282
0
283
1
284
8
285
0
286
0
287
3
288
0
340
11
278
44
341
211
342
211
343
211
344
211
  0
DIMSTYLE
105
216
100
AcDbSymbolTableRecord
100
AcDbDimStyleTableRecord
  2
DIMSTYLE_1
 70
0
  3

  4

 40
1.0
 41
3.0
 42
0.5
 43
0.38
 44
1.5
 45
0.0
 46
0.0
 47
0.0
 48
0.0
140
3.0
141
0.09
142
0.0
143
25.4
144
1.0
145
0.0
146
1.0
147
0.75
 71
0
 72
0
 73
0
 74
0
 75
0
 76
0
 77
1
 78
8
 79
2
170
0
171
1
172
0
173
0
174
0
175
0
176
0
177
0
178
0
270
2
179
2
271
2
272
2
273
2
274
2
275
0
280
0
281
0
282
0
283
1
284
8
285
0
286
0
287
3
288
0
340
11
278
44
341
211
342
211
343
211
344
211
  0
ENDTAB
  0
ENDSEC
  0
SECTION
  2
BLOCKS
  0
BLOCK
  5
20
100
AcDbEntity
  8
0
100
AcDbBlockBegin
  2
*Model_Space
 70
0
 10
0.0
 20
0.0
 30
0.0
  3
*Model_Space
  1

  0
ENDBLK
  5
21
100
AcDbEntity
  8
0
100
AcDbBlockEnd
  0
BLOCK
  5
1C
100
AcDbEntity
  8
0
100
AcDbBlockBegin
  2
*Paper_Space
 70
0
 10
0.0
 20
0.0
 30
0.0
  3
*Paper_Space
  1

  0
ENDBLK
  5
1D
100
AcDbEntity
  8
0
100
AcDbBlockEnd
  0
BLOCK
  5
217
100
AcDbEntity
  8
0
100
AcDbBlockBegin
  2
_FILLED
 70
64
 10
0.0
 20
0.0
  3
_FILLED
  1

  0
SOLID
  5
218
100
AcDbEntity
  8
0
  6
BYBLOCK
 62
0
100
AcDbTrace
 10
0.0
 20
0.0
 11
-1.0
 21
0.3166666667
 12
-1.0
 22
-0.3166666667
 13
-1.0
 23
-0.3166666667
  0
ENDBLK
  5
219
100
AcDbEntity
  8
0
  6
BYBLOCK
 62
0
100
AcDbBlockEnd
  0
BLOCK
  5
21A
100
AcDbEntity
  8
0
100
AcDbBlockBegin
 62
7
  6
CONTINUOUS
  2
*D0
 70
65
 10
0.0
 20
0.0
  3
*D0
  1

  0
LINE
  5
21B
100
AcDbEntity
  8
0
100
AcDbLine
 62
7
  6
CONTINUOUS
 10
-20.0
 20
68.3004264211
 11
-20.0
 21
78.0
  0
LINE
  5
21C
100
AcDbEntity
  8
0
100
AcDbLine
 62
7
  6
CONTINUOUS
 10
20.0
 20
68.3004264211
 11
20.0
 21
78.0
  0
LINE
  5
21D
100
AcDbEntity
  8
0
100
AcDbLine
 62
7
  6
CONTINUOUS
 10
-20.0
 20
76.5
 11
0.0
 21
76.5
  0
LINE
  5
21E
100
AcDbEntity
  8
0
100
AcDbLine
 62
7
  6
CONTINUOUS
 10
20.0
 20
76.5
 11
0.0
 21
76.5
  0
INSERT
  5
21F
100
AcDbEntity
  8
0
100
AcDbBlockReference
 62
7
  6
CONTINUOUS
  2
_FILLED
 10
-20.0
 20
76.5
 41
3.0
 42
3.0
 43
3.0
 50
180.0
  0
INSERT
  5
220
100
AcDbEntity
  8
0
100
AcDbBlockReference
 62
7
  6
CONTINUOUS
  2
_FILLED
 10
20.0
 20
76.5
 41
3.0
 42
3.0
 43
3.0
  0
ENDBLK
  5
221
100
AcDbEntity
  8
0
  6
BYBLOCK
 62
0
100
AcDbBlockEnd
  0
BLOCK
  5
222
100
AcDbEntity
  8
0
100
AcDbBlockBegin
 62
7
  6
CONTINUOUS
  2
*D1
 70
65
 10
0.0
 20
0.0
  3
*D1
  1

  0
LINE
  5
223
100
AcDbEntity
  8
0
100
AcDbLine
 62
7
  6
CONTINUOUS
 10
-43.9927064665
 20
29.8219240268
 11
-43.9927064665
 21
78.0
  0
LINE
  5
224
100
AcDbEntity
  8
0
100
AcDbLine
 62
7
  6
CONTINUOUS
 10
-35.0927064665
 20
69.0
 11
-35.0927064665
 21
78.0
  0
LINE
  5
225
100
AcDbEntity
  8
0
100
AcDbLine
 62
7
  6
CONTINUOUS
 10
-43.9927064665
 20
76.5
 11
-47.9927064665
 21
76.5
  0
LINE
  5
226
100
AcDbEntity
  8
0
100
AcDbLine
 62
7
  6
CONTINUOUS
 10
-47.9927064665
 20
76.5
 11
-39.5427064665
 21
76.5
  0
LINE
  5
227
100
AcDbEntity
  8
0
100
AcDbLine
 62
7
  6
CONTINUOUS
 10
-35.0927064665
 20
76.5
 11
-31.0927064665
 21
76.5
  0
LINE
  5
228
100
AcDbEntity
  8
0
100
AcDbLine
 62
7
  6
CONTINUOUS
 10
-31.0927064665
 20
76.5
 11
-39.5427064665
 21
76.5
  0
INSERT
  5
229
100
AcDbEntity
  8
0
100
AcDbBlockReference
 62
7
  6
CONTINUOUS
  2
_FILLED
 10
-43.9927064665
 20
76.5
 41
3.0
 42
3.0
 43
3.0
  0
INSERT
  5
22A
100
AcDbEntity
  8
0
100
AcDbBlockReference
 62
7
  6
CONTINUOUS
  2
_FILLED
 10
-35.0927064665
 20
76.5
 41
3.0
 42
3.0
 43
3.0
 50
180.0
  0
ENDBLK
  5
22B
100
AcDbEntity
  8
0
  6
BYBLOCK
 62
0
100
AcDbBlockEnd
  0
BLOCK
  5
22C
100
AcDbEntity
  8
0
100
AcDbBlockBegin
 62
7
  6
CONTINUOUS
  2
*D2
 70
65
 10
0.0
 20
0.0
  3
*D2
  1

  0
LINE
  5
22D
100
AcDbEntity
  8
0
100
AcDbLine
 62
7
  6
CONTINUOUS
 10
-35.5927064665
 20
68.5
 11
-53.4927064665
 21
68.5
  0
LINE
  5
22E
100
AcDbEntity
  8
0
100
AcDbLine
 62
7
  6
CONTINUOUS
 10
-35.5927064665
 20
-68.5
 11
-53.4927064665
 21
-68.5
  0
LINE
  5
22F
100
AcDbEntity
  8
0
100
AcDbLine
 62
7
  6
CONTINUOUS
 10
-51.9927064665
 20
68.5
 11
-51.9927064665
 21
0.0
  0
LINE
  5
230
100
AcDbEntity
  8
0
100
AcDbLine
 62
7
  6
CONTINUOUS
 10
-51.9927064665
 20
-68.5
 11
-51.9927064665
 21
0.0
  0
INSERT
  5
231
100
AcDbEntity
  8
0
100
AcDbBlockReference
 62
7
  6
CONTINUOUS
  2
_FILLED
 10
-51.9927064665
 20
68.5
 41
3.0
 42
3.0
 43
3.0
 50
90.0
  0
INSERT
  5
232
100
AcDbEntity
  8
0
100
AcDbBlockReference
 62
7
  6
CONTINUOUS
  2
_FILLED
 10
-51.9927064665
 20
-68.5
 41
3.0
 42
3.0
 43
3.0
 50
270.0
  0
ENDBLK
  5
233
100
AcDbEntity
  8
0
  6
BYBLOCK
 62
0
100
AcDbBlockEnd
  0
ENDSEC
  0
SECTION
  2
ENTITIES
  0
DIMENSION
  5
234
100
AcDbEntity
  8
0
100
AcDbDimension
 62
7
  6
CONTINUOUS
  2
*D0
 10
20.0
 20
76.5
 11
-2.3571428571
 21
76.5
 70
160
 71
2
 72
2
 41
0.9
 42
40.0
  3
DIMSTYLE_1
100
AcDbAlignedDimension
 13
-20.0
 23
67.8004264211
 14
20.0
 24
67.8004264211
100
AcDbRotatedDimension
  0
DIMENSION
  5
235
100
AcDbEntity
  8
0
100
AcDbDimension
 62
7
  6
CONTINUOUS
  2
*D1
 10
-35.0927064665
 20
76.5
 11
-42.7569921808
 21
76.5
 70
160
 71
2
 72
2
 41
0.9
 42
8.9
  3
DIMSTYLE_1
100
AcDbAlignedDimension
 13
-43.9927064665
 23
29.3219240268
 14
-35.0927064665
 24
68.5
100
AcDbRotatedDimension
  0
DIMENSION
  5
236
100
AcDbEntity
  8
0
100
AcDbDimension
 62
7
  6
CONTINUOUS
  2
*D2
 10
-51.9927064665
 20
-68.5
 11
-51.9927064665
 21
-3.1071428571
 70
160
 71
2
 72
2
 41
0.9
 42
137.0
  3
DIMSTYLE_1
100
AcDbAlignedDimension
 13
-35.0927064665
 23
68.5
 14
-35.0927064665
 24
-68.5
 50
270.0
100
AcDbRotatedDimension
  0
LWPOLYLINE
  5
237
100
AcDbEntity
  8
RACCORDO
100
AcDbPolyline
 62
250
  6
CONTINUOUS
 90
3
 70
0
 10
19.5061562809
 20
-67.6289208961
 10
19.420802495
 20
-67.6346920075
 10
19.3752059741
 20
-67.6370370594
  0
LWPOLYLINE
  5
238
100
AcDbEntity
  8
RACCORDO
100
AcDbPolyline
 62
250
  6
CONTINUOUS
 90
3
 70
0
 10
19.3752059741
 20
-67.6370370594
 10
19.2795657875
 20
-67.6409420271
 10
19.2299569286
 20
-67.6422998099
  0
LINE
  5
239
100
AcDbEntity
  8
RACCORDO
100
AcDbLine
 62
250
  6
CONTINUOUS
 10
19.2299569286
 20
-67.6422998099
 11
19.0773647801
 21
-67.6444291642
  0
LINE
  5
23A
100
AcDbEntity
  8
RACCORDO
100
AcDbLine
 62
7
  6
CONTINUOUS
 10
-19.3004264211
 20
-68.5
 11
-3.6749773271
 21
-68.5
  0
LINE
  5
23B
100
AcDbEntity
  8
RACCORDO
100
AcDbLine
 62
7
  6
CONTINUOUS
 10
3.6749773271
 20
-68.5
 11
19.3004264211
 21
-68.5
  0
LINE
  5
23C
100
AcDbEntity
  8
0
100
AcDbLine
 62
7
  6
CONTINUOUS
 10
-3.5
 20
-68.430158461
 11
3.5
 21
-68.430158461
  0
LINE
  5
23D
100
AcDbEntity
  8
RACCORDO
100
AcDbLine
 62
250
  6
CONTINUOUS
 10
-19.0773647801
 20
-68.2769383591
 11
19.0773647801
 21
-68.2769383591
  0
LINE
  5
23E
100
AcDbEntity
  8
RACCORDO
100
AcDbLine
 62
7
  6
CONTINUOUS
 10
13.3644037272
 20
-67.6444358353
 11
-13.3643956579
 21
-67.644429164
  0
LINE
  5
23F
100
AcDbEntity
  8
RACCORDO
100
AcDbLine
 62
250
  6
CONTINUOUS
 10
13.4934283723
 20
-67.6444291107
 11
19.0773647801
 21
-67.6444291641
  0
LINE
  5
240
100
AcDbEntity
  8
RACCORDO
100
AcDbLine
 62
250
  6
CONTINUOUS
 10
-13.3648149266
 20
-67.6444291641
 11
-19.0773647801
 21
-67.6444291641
  0
LWPOLYLINE
  5
241
100
AcDbEntity
  8
RACCORDO
100
AcDbPolyline
 62
7
  6
CONTINUOUS
 90
13
 70
0
 10
-13.3648149266
 20
-67.6444291641
 10
-13.3784734411
 20
-67.6440330191
 10
-13.3916412748
 20
-67.6429848635
 10
-13.4043184276
 20
-67.6412846968
 10
-13.416530727
 20
-67.6389133883
 10
-13.4282523455
 20
-67.6358900668
 10
-13.439405801
 20
-67.6322721205
 10
-13.4499896739
 20
-67.6280534153
 10
-13.4600053836
 20
-67.6232400819
 10
-13.4693797062
 20
-67.617907907
 10
-13.4780882337
 20
-67.6120821513
 10
-13.4861553739
 20
-67.6057375499
 10
-13.493581127
 20
-67.5988741004
  0
LINE
  5
242
100
AcDbEntity
  8
0
100
AcDbLine
 62
7
  6
CONTINUOUS
 10
3.5
 20
68.430158461
 11
3.6749773271
 21
68.5
  0
LWPOLYLINE
  5
243
100
AcDbEntity
  8
RACCORDO
100
AcDbPolyline
 62
250
  6
CONTINUOUS
 90
38
 70
0
 10
13.4935802396
 20
-67.5991388351
 10
13.485864892
 20
-67.5983821189
 10
13.4781586646
 20
-67.5963695435
 10
13.4704624911
 20
-67.5931011291
 10
13.4627559068
 20
-67.5885530506
 10
13.4550612568
 20
-67.582749133
 10
13.447443579
 20
-67.5757610765
 10
13.4399173558
 20
-67.5675607443
 10
13.4324695838
 20
-67.5581767532
 10
13.4251238325
 20
-67.5477662077
 10
13.4178918436
 20
-67.5363434827
 10
13.4107628982
 20
-67.5238948057
 10
13.4037267629
 20
-67.5105350957
 10
13.3967812414
 20
-67.4962647326
 10
13.3899293378
 20
-67.4810838315
 10
13.3831685954
 20
-67.4651068734
 10
13.3765053181
 20
-67.448356622
 10
13.3699337371
 20
-67.4308107936
 10
13.3634333398
 20
-67.4125162315
 10
13.357009166
 20
-67.3935031281
 10
13.3506567064
 20
-67.3737416427
 10
13.3443413865
 20
-67.3531884192
 10
13.3380613358
 20
-67.3318530091
 10
13.3318192603
 20
-67.3097260113
 10
13.325587816
 20
-67.286735476
 10
13.3193611774
 20
-67.2628665249
 10
13.3131463616
 20
-67.2381340368
 10
13.3069355356
 20
-67.2125106042
 10
13.3007240428
 20
-67.1859734029
 10
13.2945178823
 20
-67.1585452208
 10
13.2883252143
 20
-67.1302670675
 10
13.2821475188
 20
-67.1011390871
 10
13.2759845249
 20
-67.0711611554
 10
13.269841661
 20
-67.0403739133
 10
13.263724621
 20
-67.0088045085
 10
13.2576288025
 20
-66.976425851
 10
13.2515442497
 20
-66.9431972125
 10
13.245473855
 20
-66.9091374444
  0
LINE
  5
244
100
AcDbEntity
  8
0
100
AcDbLine
 62
7
  6
CONTINUOUS
 10
3.5
 20
-68.430158461
 11
3.6749773271
 21
-68.5
  0
LINE
  5
245
100
AcDbEntity
  8
RACCORDO
100
AcDbLine
 62
250
  6
CONTINUOUS
 10
-13.4269261536
 20
67.5110615089
 11
-13.3599790149
 21
67.5773647801
  0
LWPOLYLINE
  5
246
100
AcDbEntity
  8
RACCORDO
100
AcDbPolyline
 62
250
  6
CONTINUOUS
 90
13
 70
0
 10
-19.7769383591
 20
67.5773647801
 10
-19.7732864914
 20
67.5825504063
 10
-19.7659926779
 20
67.5873072604
 10
-19.7551194452
 20
67.5918435546
 10
-19.7406093545
 20
67.5965764128
 10
-19.7224349995
 20
67.6013984584
 10
-19.7007938068
 20
67.6057915793
 10
-19.675871828
 20
67.6100639339
 10
-19.647685928
 20
67.6144281673
 10
-19.6164074868
 20
67.6183126599
 10
-19.5822982578
 20
67.6219750174
 10
-19.5455142377
 20
67.6257028189
 10
-19.5061562807
 20
67.628920895
  0
LINE
  5
247
100
AcDbEntity
  8
RACCORDO
100
AcDbLine
 62
250
  6
CONTINUOUS
 10
13.3599790149
 20
67.5773647801
 11
13.4934283724
 21
67.6444291641
  0
LWPOLYLINE
  5
248
100
AcDbEntity
  8
RACCORDO
100
AcDbPolyline
 62
250
  6
CONTINUOUS
 90
4
 70
0
 10
12.2314724828
 20
-51.368900964
 10
12.1809393167
 20
-51.3824495385
 10
12.1295355821
 20
-51.3921815784
 10
12.0775487496
 20
-51.398042658
  0
LWPOLYLINE
  5
249
100
AcDbEntity
  8
RACCORDO
100
AcDbPolyline
 62
250
  6
CONTINUOUS
 90
3
 70
0
 10
12.1771477291
 20
-51.3825029317
 10
12.1386957028
 20
-51.3901434877
 10
12.0998721395
 20
-51.3956146643
  0
LINE
  5
24A
100
AcDbEntity
  8
RACCORDO
100
AcDbLine
 62
250
  6
CONTINUOUS
 10
12.0998721395
 20
-51.3956146643
 11
12.0607922136
 21
-51.3989029188
  0
LINE
  5
24B
100
AcDbEntity
  8
RACCORDO
100
AcDbLine
 62
250
  6
CONTINUOUS
 10
12.0775487496
 20
-51.398042658
 11
12.0252695506
 21
-51.4
  0
LINE
  5
24C
100
AcDbEntity
  8
RACCORDO
100
AcDbLine
 62
250
  6
CONTINUOUS
 10
-12.0730742524
 20
-51.9533993146
 11
12.0730742525
 21
-51.9533993212
  0
LWPOLYLINE
  5
24D
100
AcDbEntity
  8
RACCORDO
100
AcDbPolyline
 62
7
  6
CONTINUOUS
 90
17
 70
0
 10
-12.0215701812
 20
-51.3999930867
 10
-12.0592509545
 20
-51.3989834218
 10
-12.1126688391
 20
-51.3940514463
 10
-12.1657316484
 20
-51.3849920893
 10
-12.2181008724
 20
-51.3718188782
 10
-12.2694112264
 20
-51.3545701586
 10
-12.3193382944
 20
-51.3333249548
 10
-12.3675485904
 20
-51.3081798078
 10
-12.4136875108
 20
-51.2792834796
 10
-12.4574565073
 20
-51.2468089422
 10
-12.498572116
 20
-51.210929843
 10
-12.536760819
 20
-51.1718732677
 10
-12.5717707657
 20
-51.1298740754
 10
-12.6033777887
 20
-51.0851723936
 10
-12.6313841897
 20
-51.0380350745
 10
-12.6555964368
 20
-50.9887364093
 10
-12.6645831281
 20
-50.9674875777
  0
LINE
  5
24E
100
AcDbEntity
  8
RACCORDO
100
AcDbLine
 62
250
  6
CONTINUOUS
 10
-12.0775484105
 20
-51.3980426835
 11
-12.0252695506
 21
-51.4
  0
LWPOLYLINE
  5
24F
100
AcDbEntity
  8
RACCORDO
100
AcDbPolyline
 62
250
  6
CONTINUOUS
 90
8
 70
0
 10
-12.0607921997
 20
-51.3989029195
 10
-12.099872134
 20
-51.395614665
 10
-12.1386957028
 20
-51.3901434877
 10
-12.1771477309
 20
-51.3825029313
 10
-12.2151001031
 20
-51.3727157538
 10
-12.2524131374
 20
-51.3608177206
 10
-12.288954654
 20
-51.3468538901
 10
-12.3246262527
 20
-51.3308649419
  0
LWPOLYLINE
  5
250
100
AcDbEntity
  8
RACCORDO
100
AcDbPolyline
 62
250
  6
CONTINUOUS
 90
22
 70
0
 10
-19.7769383591
 20
-67.5773647801
 10
-19.7732906415
 20
-67.5822643235
 10
-19.7659212217
 20
-67.5871377607
 10
-19.7548695106
 20
-67.5919591776
 10
-19.7401946118
 20
-67.5967030087
 10
-19.7219750045
 20
-67.6013439232
 10
-19.7003081237
 20
-67.6058569296
 10
-19.6753098404
 20
-67.6102178979
 10
-19.6471138421
 20
-67.6144036076
 10
-19.6158709161
 20
-67.6183915965
 10
-19.5817481448
 20
-67.6221605196
 10
-19.5449280114
 20
-67.6256902692
 10
-19.5056074244
 20
-67.6289619688
 10
-19.4639966638
 20
-67.6319580738
 10
-19.4203182577
 20
-67.6346625796
 10
-19.3748057916
 20
-67.6370611004
 10
-19.3277026586
 20
-67.639140708
 10
-19.2792607589
 20
-67.6408902763
 10
-19.2297391529
 20
-67.6423006214
 10
-19.1794026741
 20
-67.6433641624
 10
-19.1285205134
 20
-67.6440749933
 10
-19.0773647801
 20
-67.6444291642
  0
LWPOLYLINE
  5
251
100
AcDbEntity
  8
RACCORDO
100
AcDbPolyline
 62
250
  6
CONTINUOUS
 90
10
 70
0
 10
-12.4022247535
 20
51.2848640832
 10
-12.3675088317
 20
51.3062424957
 10
-12.3316001617
 20
51.3255719264
 10
-12.2946201495
 20
51.3427855622
 10
-12.2566846982
 20
51.3578274979
 10
-12.2178920894
 20
51.3706527343
 10
-12.1784007523
 20
51.3812030133
 10
-12.1384243024
 20
51.389425734
 10
-12.0981272372
 20
51.3953008865
 10
-12.0579260096
 20
51.398799295
  0
LINE
  5
252
100
AcDbEntity
  8
RACCORDO
100
AcDbLine
 62
250
  6
CONTINUOUS
 10
12.7248431295
 20
-50.7
 11
12.7180697434
 21
-50.7000177049
  0
LINE
  5
253
100
AcDbEntity
  8
RACCORDO
100
AcDbLine
 62
7
  6
CONTINUOUS
 10
-12.0252701119
 20
-51.4
 11
12.0252701135
 21
-51.4
  0
LINE
  5
254
100
AcDbEntity
  8
0
100
AcDbLine
 62
7
  6
CONTINUOUS
 10
-12.6645831281
 20
-51.0
 11
12.6645831234
 21
-51.0
  0
LINE
  5
255
100
AcDbEntity
  8
RACCORDO
100
AcDbLine
 62
250
  6
CONTINUOUS
 10
-12.7177651569
 20
-50.7
 11
-12.7248431295
 21
-50.7
  0
LWPOLYLINE
  5
256
100
AcDbEntity
  8
RACCORDO
100
AcDbPolyline
 62
250
  6
CONTINUOUS
 90
7
 70
0
 10
-12.3593415466
 20
-51.3128889269
 10
-12.3929921699
 20
-51.2929778269
 10
-12.4254677974
 20
-51.2711927815
 10
-12.456679975
 20
-51.2475879933
 10
-12.486529641
 20
-51.2222293288
 10
-12.5149138015
 20
-51.1951950166
 10
-12.5417416462
 20
-51.1665636035
  0
LWPOLYLINE
  5
257
100
AcDbEntity
  8
RACCORDO
100
AcDbPolyline
 62
250
  6
CONTINUOUS
 90
5
 70
0
 10
-12.554081906
 20
51.1499234482
 10
-12.5269613004
 20
51.1803560142
 10
-12.4981066704
 20
51.2091682014
 10
-12.4676265625
 20
51.2362515629
 10
-12.4356318773
 20
51.2615097021
  0
LWPOLYLINE
  5
258
100
AcDbEntity
  8
RACCORDO
100
AcDbPolyline
 62
250
  6
CONTINUOUS
 90
52
 70
0
 10
13.3644037272
 20
-67.6444358353
 10
13.349725343
 20
-67.6333989345
 10
13.3352355373
 20
-67.621419643
 10
13.3209343103
 20
-67.6084979743
 10
13.3068237434
 20
-67.5945944458
 10
13.292901755
 20
-67.579748571
 10
13.2791621007
 20
-67.5640788573
 10
13.2656126054
 20
-67.547602364
 10
13.2522454441
 20
-67.5303020644
 10
13.2390308974
 20
-67.5122453342
 10
13.2259816015
 20
-67.4934653132
 10
13.2130849202
 20
-67.4739288966
 10
13.2002732265
 20
-67.4536040941
 10
13.187543564
 20
-67.4325049487
 10
13.1748988892
 20
-67.4106174598
 10
13.1622804443
 20
-67.3878675767
 10
13.1496755451
 20
-67.3642438772
 10
13.1370968759
 20
-67.3397578372
 10
13.1245237325
 20
-67.3143697585
 10
13.1119438938
 20
-67.2880556838
 10
13.0993695808
 20
-67.2608396355
 10
13.0868167527
 20
-67.2327538862
 10
13.0742848466
 20
-67.2037927668
 10
13.0617744252
 20
-67.1739620179
 10
13.0493031357
 20
-67.1433110267
 10
13.0368812756
 20
-67.1118654148
 10
13.0244985474
 20
-67.0795996364
 10
13.012141705
 20
-67.0464863278
 10
12.9998167692
 20
-67.0125491906
 10
12.9875177193
 20
-66.9777646112
 10
12.9752132469
 20
-66.9420342616
 10
12.9629004113
 20
-66.9053586352
 10
12.9505821532
 20
-66.8677373486
 10
12.9382359853
 20
-66.8290707724
 10
12.9258594798
 20
-66.7893585307
 10
12.9134550645
 20
-66.7486011352
 10
12.901007536
 20
-66.7067003032
 10
12.8885148766
 20
-66.6636551094
 10
12.875979104
 20
-66.6194666458
 10
12.8633910673
 20
-66.5740396739
 10
12.8507504642
 20
-66.5273787193
 10
12.838057597
 20
-66.4794794594
 10
12.8253042212
 20
-66.4302334048
 10
12.8124927825
 20
-66.3796579293
 10
12.7996208352
 20
-66.3277359072
 10
12.7866727984
 20
-66.2743071297
 10
12.773648028
 20
-66.2193793141
 10
12.7605471679
 20
-66.1629450565
 10
12.7473565696
 20
-66.1048215084
 10
12.73407389
 20
-66.0450091254
 10
12.7207014722
 20
-65.9835078503
 10
12.707232696
 20
-65.9201341172
  0
LWPOLYLINE
  5
259
100
AcDbEntity
  8
RACCORDO
100
AcDbPolyline
 62
250
  6
CONTINUOUS
 90
19
 70
0
 10
-12.8181430116
 20
-59.4898675295
 10
-12.8135308627
 20
-59.4973108923
 10
-12.8038601615
 20
-59.5047000757
 10
-12.7892013003
 20
-59.5119812944
 10
-12.7696609791
 20
-59.5191015494
 10
-12.7453814302
 20
-59.526009013
 10
-12.7165393817
 20
-59.5326534064
 10
-12.6833447719
 20
-59.5389863659
 10
-12.646039221
 20
-59.5449617945
 10
-12.6048942722
 20
-59.5505361976
 10
-12.5602094154
 20
-59.5556689998
 10
-12.5123099069
 20
-59.5603228399
 10
-12.4615444023
 20
-59.5644638431
 10
-12.4082824186
 20
-59.5680618675
 10
-12.352911644
 20
-59.5710907234
 10
-12.2958351168
 20
-59.573528364
 10
-12.2374682911
 20
-59.5753570462
 10
-12.178236013
 20
-59.576563459
 10
-12.1185694281
 20
-59.5771388211
  0
LWPOLYLINE
  5
25A
100
AcDbEntity
  8
RACCORDO
100
AcDbPolyline
 62
250
  6
CONTINUOUS
 90
19
 70
0
 10
-12.8200702473
 20
58.7524193607
 10
-12.8154608021
 20
58.7605062665
 10
-12.8057924619
 20
58.7685343047
 10
-12.7911356058
 20
58.7764450362
 10
-12.7715969265
 20
58.784180876
 10
-12.747318653
 20
58.7916855121
 10
-12.7184775158
 20
58.7989043154
 10
-12.6852834598
 20
58.8057847378
 10
-12.6479781166
 20
58.8122766942
 10
-12.6068330453
 20
58.8183329272
 10
-12.5621477557
 20
58.8239093514
 10
-12.5142475282
 20
58.828965374
 10
-12.4634810459
 20
58.8334641902
 10
-12.4102178563
 20
58.8373730517
 10
-12.3548456815
 20
58.8406635044
 10
-12.2977675955
 20
58.8433115959
 10
-12.2393990903
 20
58.8452980498
 10
-12.1801650515
 20
58.846608406
 10
-12.120496665
 20
58.8472331259
  0
LWPOLYLINE
  5
25B
100
AcDbEntity
  8
RACCORDO
100
AcDbPolyline
 62
250
  6
CONTINUOUS
 90
6
 70
0
 10
-12.5669220931
 20
-51.1364212302
 10
-12.5903693248
 20
-51.1048591172
 10
-12.6120066598
 20
-51.0719705681
 10
-12.6317592651
 20
-51.0378553052
 10
-12.6495549813
 20
-51.0026195846
 10
-12.6653290225
 20
-50.966372896
  0
LINE
  5
25C
100
AcDbEntity
  8
RACCORDO
100
AcDbLine
 62
7
  6
CONTINUOUS
 10
-12.6653255317
 20
-50.9663714588
 11
-12.6645713578
 21
-50.9675156866
  0
LWPOLYLINE
  5
25D
100
AcDbEntity
  8
RACCORDO
100
AcDbPolyline
 62
250
  6
CONTINUOUS
 90
14
 70
0
 10
-12.631116945
 20
-51.0500019008
 10
-12.6032830751
 20
-51.0943259366
 10
-12.5722167366
 20
-51.1364446961
 10
-12.5380916744
 20
-51.1761226393
 10
-12.5010987375
 20
-51.2131378789
 10
-12.4614448068
 20
-51.2472834229
 10
-12.4193516492
 20
-51.2783683226
 10
-12.3750546703
 20
-51.3062187473
 10
-12.3288015918
 20
-51.3306789588
 10
-12.2808510815
 20
-51.3516121727
 10
-12.2314712982
 20
-51.3689013297
 10
-12.1809383827
 20
-51.3824497518
 10
-12.1295349301
 20
-51.3921816767
 10
-12.0775484105
 20
-51.3980426835
  0
LINE
  5
25E
100
AcDbEntity
  8
RACCORDO
100
AcDbLine
 62
250
  6
CONTINUOUS
 10
-12.6607410062
 20
50.977244972
 11
-12.6435087272
 21
51.0141467203
  0
LWPOLYLINE
  5
25F
100
AcDbEntity
  8
RACCORDO
100
AcDbPolyline
 62
250
  6
CONTINUOUS
 90
4
 70
0
 10
-12.6435087272
 20
51.0141467203
 10
-12.6241587039
 20
51.0499827564
 10
-12.602755311
 20
51.0846342802
 10
-12.5793724805
 20
51.1179820813
  0
LINE
  5
260
100
AcDbEntity
  8
RACCORDO
100
AcDbLine
 62
250
  6
CONTINUOUS
 10
19.3004264211
 20
68.5
 11
19.0773647801
 21
68.2769383591
  0
LINE
  5
261
100
AcDbEntity
  8
RACCORDO
100
AcDbLine
 62
250
  6
CONTINUOUS
 10
20.0
 20
67.8004264211
 11
19.7769383958
 21
67.5773648169
  0
LINE
  5
262
100
AcDbEntity
  8
RACCORDO
100
AcDbLine
 62
250
  6
CONTINUOUS
 10
19.0773647801
 20
-68.2769383591
 11
19.3004264211
 21
-68.5
  0
LINE
  5
263
100
AcDbEntity
  8
RACCORDO
100
AcDbLine
 62
250
  6
CONTINUOUS
 10
19.7769383958
 20
-67.5773648169
 11
20.0
 21
-67.8004264211
  0
LINE
  5
264
100
AcDbEntity
  8
RACCORDO
100
AcDbLine
 62
250
  6
CONTINUOUS
 10
12.8579965648
 20
-29.3219240268
 11
19.7127965881
 21
-29.3219240268
  0
LINE
  5
265
100
AcDbEntity
  8
RACCORDO
100
AcDbLine
 62
250
  6
CONTINUOUS
 10
-12.8579965648
 20
-29.3219240268
 11
-19.7127965881
 21
-29.3219240268
  0
LWPOLYLINE
  5
266
100
AcDbEntity
  8
RACCORDO
100
AcDbPolyline
 62
250
  6
CONTINUOUS
 90
3
 70
0
 10
-12.6653290225
 20
-50.966372896
 10
-12.6763128326
 20
-50.9379807831
 10
-12.6860456463
 20
-50.9091530836
  0
LWPOLYLINE
  5
267
100
AcDbEntity
  8
RACCORDO
100
AcDbPolyline
 62
7
  6
CONTINUOUS
 90
7
 70
0
 10
-12.6645939
 20
-50.967461225
 10
-12.6822328676
 20
-50.9200698741
 10
-12.6956600776
 20
-50.8744340752
 10
-12.7059501503
 20
-50.8279975519
 10
-12.7130619973
 20
-50.7809698455
 10
-12.7169566773
 20
-50.7335611642
 10
-12.7177590113
 20
-50.7000000003
  0
LWPOLYLINE
  5
268
100
AcDbEntity
  8
RACCORDO
100
AcDbPolyline
 62
250
  6
CONTINUOUS
 90
19
 70
0
 10
-12.7726485369
 20
-51.8068664393
 10
-12.7680640097
 20
-51.8193709666
 10
-12.7584174271
 20
-51.8317844155
 10
-12.7437790513
 20
-51.8440163706
 10
-12.7242555032
 20
-51.8559777387
 10
-12.6999889853
 20
-51.8675813975
 10
-12.6711562464
 20
-51.8787428299
 10
-12.6379672941
 20
-51.8893807401
 10
-12.600663865
 20
-51.8994176452
 10
-12.5595176641
 20
-51.9087804399
 10
-12.5148283859
 20
-51.9174009289
 10
-12.4669215312
 20
-51.9252163237
 10
-12.4161460369
 20
-51.9321696997
 10
-12.3628717336
 20
-51.9382104108
 10
-12.3074866527
 20
-51.9432944588
 10
-12.2503941996
 20
-51.9473848132
 10
-12.1920102156
 20
-51.9504516812
 10
-12.132759949
 20
-51.952472725
 10
-12.073074958
 20
-51.9534332239
  0
LWPOLYLINE
  5
269
100
AcDbEntity
  8
RACCORDO
100
AcDbPolyline
 62
250
  6
CONTINUOUS
 90
19
 70
0
 10
-12.7729616185
 20
51.7601242456
 10
-12.7683930872
 20
51.7746251678
 10
-12.7587605645
 20
51.7890204531
 10
-12.7441342366
 20
51.8032052122
 10
-12.7246206767
 20
51.8170760895
 10
-12.7003620678
 20
51.8305320164
 10
-12.6715351675
 20
51.843474948
 10
-12.6383500195
 20
51.8558105772
 10
-12.6010484233
 20
51.8674490218
 10
-12.5599021727
 20
51.8783054798
 10
-12.5152110748
 20
51.8883008469
 10
-12.4673007659
 20
51.897362293
 10
-12.4165203388
 20
51.905423793
 10
-12.363239799
 20
51.9124266078
 10
-12.3078473687
 20
51.9183197122
 10
-12.2507466582
 20
51.9230601667
 10
-12.192353725
 20
51.9266134307
 10
-12.1330940423
 20
51.9289536138
 10
-12.0733993985
 20
51.9300636644
  0
LWPOLYLINE
  5
26A
100
AcDbEntity
  8
RACCORDO
100
AcDbPolyline
 62
250
  6
CONTINUOUS
 90
3
 70
0
 10
-12.6945109736
 20
-50.8799448712
 10
-12.7016961168
 20
-50.8504056914
 10
-12.7075875667
 20
-50.820597682
  0
LWPOLYLINE
  5
26B
100
AcDbEntity
  8
RACCORDO
100
AcDbPolyline
 62
250
  6
CONTINUOUS
 90
22
 70
0
 10
-19.7769383591
 20
-67.5773647801
 10
-19.7749444927
 20
-67.6293020648
 10
-19.7690882846
 20
-67.6810330221
 10
-19.7593841741
 20
-67.732269221
 10
-19.745860261
 20
-67.7827486475
 10
-19.72857847
 20
-67.8321582994
 10
-19.7076535836
 20
-67.8801424977
 10
-19.68321738
 20
-67.9264073182
 10
-19.6553956745
 20
-67.9707216279
 10
-19.6243396134
 20
-68.0128432425
 10
-19.5902184013
 20
-68.0525391976
 10
-19.5532242742
 20
-68.0895826896
 10
-19.5135684636
 20
-68.1237611146
 10
-19.4714748673
 20
-68.1548818764
 10
-19.427177063
 20
-68.1827726392
 10
-19.3809222107
 20
-68.207277702
 10
-19.3329685229
 20
-68.2282600459
 10
-19.2835845544
 20
-68.2456019492
 10
-19.2330471724
 20
-68.259206116
 10
-19.1816392896
 20
-68.2689964302
 10
-19.1296482241
 20
-68.2749182143
 10
-19.0773647801
 20
-68.2769383591
  0
LINE
  5
26C
100
AcDbEntity
  8
RACCORDO
100
AcDbLine
 62
250
  6
CONTINUOUS
 10
-19.7573504568
 20
61.2166160003
 11
-19.7769383958
 21
67.5773648169
  0
LINE
  5
26D
100
AcDbEntity
  8
RACCORDO
100
AcDbLine
 62
250
  6
CONTINUOUS
 10
-19.0577770592
 20
61.2728754712
 11
-19.0773647801
 21
67.6444291641
  0
LINE
  5
26E
100
AcDbEntity
  8
RACCORDO
100
AcDbLine
 62
250
  6
CONTINUOUS
 10
-19.7413176629
 20
54.8478932183
 11
-19.7573504568
 21
61.2166160003
  0
LINE
  5
26F
100
AcDbEntity
  8
RACCORDO
100
AcDbLine
 62
250
  6
CONTINUOUS
 10
-19.0417442738
 20
54.8926521867
 11
-19.0577770592
 21
61.2728754712
  0
LINE
  5
270
100
AcDbEntity
  8
RACCORDO
100
AcDbLine
 62
250
  6
CONTINUOUS
 10
-19.7288416248
 20
48.4718936838
 11
-19.7413176629
 21
54.8478932183
  0
LINE
  5
271
100
AcDbEntity
  8
RACCORDO
100
AcDbLine
 62
250
  6
CONTINUOUS
 10
-19.029268095
 20
48.505494208
 11
-19.0417442738
 21
54.8926521867
  0
LINE
  5
272
100
AcDbEntity
  8
RACCORDO
100
AcDbLine
 62
250
  6
CONTINUOUS
 10
-19.7199282604
 20
42.0909358217
 11
-19.7288416248
 21
48.4718936838
  0
LINE
  5
273
100
AcDbEntity
  8
RACCORDO
100
AcDbLine
 62
250
  6
CONTINUOUS
 10
-19.0203546852
 20
42.1133900296
 11
-19.029268095
 21
48.505494208
  0
LINE
  5
274
100
AcDbEntity
  8
RACCORDO
100
AcDbLine
 62
250
  6
CONTINUOUS
 10
-19.7145796518
 20
35.7073773889
 11
-19.7199282604
 21
42.0909358217
  0
LINE
  5
275
100
AcDbEntity
  8
RACCORDO
100
AcDbLine
 62
250
  6
CONTINUOUS
 10
-19.0150060623
 20
35.7182892689
 11
-19.0203546852
 21
42.1133900296
  0
LINE
  5
276
100
AcDbEntity
  8
RACCORDO
100
AcDbLine
 62
250
  6
CONTINUOUS
 10
-19.7127965881
 20
29.3219240268
 11
-19.7145796518
 21
35.7073773889
  0
LINE
  5
277
100
AcDbEntity
  8
RACCORDO
100
AcDbLine
 62
250
  6
CONTINUOUS
 10
-19.0132230092
 20
29.3219240268
 11
-19.0150060623
 21
35.7182892689
  0
LINE
  5
278
100
AcDbEntity
  8
RACCORDO
100
AcDbLine
 62
7
  6
CONTINUOUS
 10
-20.0
 20
-67.8004264211
 11
-20.0
 21
67.8004264211
  0
LINE
  5
279
100
AcDbEntity
  8
RACCORDO
100
AcDbLine
 62
250
  6
CONTINUOUS
 10
-19.0773647801
 20
68.2769383591
 11
-19.0773647801
 21
67.6444291641
  0
LINE
  5
27A
100
AcDbEntity
  8
RACCORDO
100
AcDbLine
 62
250
  6
CONTINUOUS
 10
-19.0773647801
 20
-67.6444291641
 11
-19.0773647801
 21
-68.2769383591
  0
LINE
  5
27B
100
AcDbEntity
  8
RACCORDO
100
AcDbLine
 62
250
  6
CONTINUOUS
 10
-19.714579649
 20
-35.7073730357
 11
-19.7127965881
 21
29.3219240268
  0
LINE
  5
27C
100
AcDbEntity
  8
RACCORDO
100
AcDbLine
 62
250
  6
CONTINUOUS
 10
-19.0150060594
 20
-35.7182848987
 11
-19.0132230092
 21
29.3219240268
  0
LINE
  5
27D
100
AcDbEntity
  8
RACCORDO
100
AcDbLine
 62
250
  6
CONTINUOUS
 10
-19.7199282524
 20
-42.0909286207
 11
-19.714579649
 21
-35.7073730357
  0
LINE
  5
27E
100
AcDbEntity
  8
RACCORDO
100
AcDbLine
 62
250
  6
CONTINUOUS
 10
-19.0203546771
 20
-42.1133826967
 11
-19.0150060594
 21
-35.7182848987
  0
LINE
  5
27F
100
AcDbEntity
  8
RACCORDO
100
AcDbLine
 62
250
  6
CONTINUOUS
 10
-19.7288416109
 20
-48.4718854045
 11
-19.7199282524
 21
-42.0909286207
  0
LINE
  5
280
100
AcDbEntity
  8
RACCORDO
100
AcDbLine
 62
250
  6
CONTINUOUS
 10
-19.0292680804
 20
-48.5054854837
 11
-19.0203546771
 21
-42.1133826967
  0
LINE
  5
281
100
AcDbEntity
  8
RACCORDO
100
AcDbLine
 62
250
  6
CONTINUOUS
 10
-19.7413176492
 20
-54.84788705
 11
-19.7288416109
 21
-48.4718854045
  0
LINE
  5
282
100
AcDbEntity
  8
RACCORDO
100
AcDbLine
 62
250
  6
CONTINUOUS
 10
-19.0417442559
 20
-54.8926442972
 11
-19.0292680804
 21
-48.5054854837
  0
LINE
  5
283
100
AcDbEntity
  8
RACCORDO
100
AcDbLine
 62
250
  6
CONTINUOUS
 10
-19.7573504479
 20
-61.2166127737
 11
-19.7413176492
 21
-54.84788705
  0
LINE
  5
284
100
AcDbEntity
  8
RACCORDO
100
AcDbLine
 62
250
  6
CONTINUOUS
 10
-19.0577770458
 20
-61.2728704957
 11
-19.0417442559
 21
-54.8926442972
  0
LINE
  5
285
100
AcDbEntity
  8
RACCORDO
100
AcDbLine
 62
250
  6
CONTINUOUS
 10
-19.7769383958
 20
-67.5773648169
 11
-19.7573504479
 21
-61.2166127737
  0
LINE
  5
286
100
AcDbEntity
  8
RACCORDO
100
AcDbLine
 62
250
  6
CONTINUOUS
 10
-19.0773647801
 20
-67.6444291641
 11
-19.0577770458
 21
-61.2728704957
  0
LWPOLYLINE
  5
287
100
AcDbEntity
  8
RACCORDO
100
AcDbPolyline
 62
250
  6
CONTINUOUS
 90
22
 70
0
 10
-19.7769383591
 20
67.5773647801
 10
-19.7749216149
 20
67.6296035568
 10
-19.7690098944
 20
67.6815506458
 10
-19.7592362071
 20
67.7329159879
 10
-19.7456551266
 20
67.7834127724
 10
-19.7283424864
 20
67.8327590384
 10
-19.7073949555
 20
67.8806792491
 10
-19.6829294997
 20
67.9269058306
 10
-19.6550827276
 20
67.9711806655
 10
-19.6240101285
 20
68.0132565348
 10
-19.5898852035
 20
68.0528984976
 10
-19.5528984976
 20
68.0898852035
 10
-19.5132565348
 20
68.1240101285
 10
-19.4711806655
 20
68.1550827276
 10
-19.4269058306
 20
68.1829294997
 10
-19.3806792491
 20
68.2073949555
 10
-19.3327590384
 20
68.2283424864
 10
-19.2834127724
 20
68.2456551266
 10
-19.2329159879
 20
68.2592362071
 10
-19.1815506458
 20
68.2690098944
 10
-19.1296035568
 20
68.2749216149
 10
-19.0773647801
 20
68.2769383591
  0
LWPOLYLINE
  5
288
100
AcDbEntity
  8
RACCORDO
100
AcDbPolyline
 62
250
  6
CONTINUOUS
 90
5
 70
0
 10
-12.7133555204
 20
50.7810428982
 10
-12.7074646297
 20
50.8212974875
 10
-12.6992225948
 20
50.8612228695
 10
-12.6886508892
 20
50.9006552306
 10
-12.6758034667
 20
50.9393829105
  0
LWPOLYLINE
  5
289
100
AcDbEntity
  8
RACCORDO
100
AcDbPolyline
 62
250
  6
CONTINUOUS
 90
3
 70
0
 10
-12.7121736787
 20
-50.7905959912
 10
-12.7154496309
 20
-50.760463911
 10
-12.7174147507
 20
-50.7302522426
  0
LWPOLYLINE
  5
28A
100
AcDbEntity
  8
RACCORDO
100
AcDbPolyline
 62
250
  6
CONTINUOUS
 90
8
 70
0
 10
-12.7248431295
 20
-50.7
 10
-12.7228869443
 20
-50.752311541
 10
-12.7170293367
 20
-50.8043304754
 10
-12.7073030776
 20
-50.8557658888
 10
-12.693762573
 20
-50.9063301312
 10
-12.6764835596
 20
-50.9557404273
 10
-12.6555626802
 20
-51.0037204578
 10
-12.631116945
 20
-51.0500019008
  0
LINE
  5
28B
100
AcDbEntity
  8
RACCORDO
100
AcDbLine
 62
250
  6
CONTINUOUS
 10
-13.5131236535
 20
-61.2343055064
 11
-13.493581127
 21
-67.5988741004
  0
LWPOLYLINE
  5
28C
100
AcDbEntity
  8
RACCORDO
100
AcDbPolyline
 62
250
  6
CONTINUOUS
 90
3
 70
0
 10
-13.5357851782
 20
-51.6727021803
 10
-13.529118277
 20
-54.8615990564
 10
-13.5131236535
 20
-61.2343055064
  0
LINE
  5
28D
100
AcDbEntity
  8
RACCORDO
100
AcDbLine
 62
250
  6
CONTINUOUS
 10
-13.5214783114
 20
58.0831031733
 11
-13.5357331466
 21
51.6993568632
  0
LWPOLYLINE
  5
28E
100
AcDbEntity
  8
RACCORDO
100
AcDbPolyline
 62
250
  6
CONTINUOUS
 90
3
 70
0
 10
-13.4934283727
 20
67.6444291641
 10
-13.5036675476
 20
64.4594981724
 10
-13.5214783114
 20
58.0831031733
  0
LWPOLYLINE
  5
28F
100
AcDbEntity
  8
RACCORDO
100
AcDbPolyline
 62
7
  6
CONTINUOUS
 90
23
 70
0
 10
-12.7177590164
 20
50.7000000004
 10
-12.7168608259
 20
50.7355050142
 10
-12.7123994943
 20
50.7864628148
 10
-12.7042249109
 20
50.8369398953
 10
-12.6923881276
 20
50.8866770005
 10
-12.6769447604
 20
50.9354182659
 10
-12.65798367
 20
50.9829066944
 10
-12.6356063949
 20
51.0288862796
 10
-12.6099236536
 20
51.0731107702
 10
-12.5810780489
 20
51.1153505281
 10
-12.5492205996
 20
51.1553755709
 10
-12.5145205094
 20
51.1929693658
 10
-12.4771693294
 20
51.2279355732
 10
-12.4373610352
 20
51.2600818708
 10
-12.3953097907
 20
51.2892389473
 10
-12.3512442992
 20
51.3152530589
 10
-12.3053930107
 20
51.3379797138
 10
-12.2579989847
 20
51.357307164
 10
-12.2093173382
 20
51.3731302796
 10
-12.1596045657
 20
51.3853575623
 10
-12.1091132776
 20
51.3939305573
 10
-12.0581017534
 20
51.3987941737
 10
-12.0259666208
 20
51.3997306265
  0
LINE
  5
290
100
AcDbEntity
  8
RACCORDO
100
AcDbLine
 62
250
  6
CONTINUOUS
 10
-12.7168608259
 20
50.7355050142
 11
-12.7168912809
 21
50.7405705801
  0
LWPOLYLINE
  5
291
100
AcDbEntity
  8
RACCORDO
100
AcDbPolyline
 62
250
  6
CONTINUOUS
 90
22
 70
0
 10
-12.7255464522
 20
50.7
 10
-12.7235903026
 20
50.7523110655
 10
-12.7177327933
 20
50.8043295863
 10
-12.708006682
 20
50.8557646538
 10
-12.694466361
 20
50.9063286221
 10
-12.6771875532
 20
50.9557387171
 10
-12.6562668887
 20
51.0037186174
 10
-12.6318213645
 20
51.05
 10
-12.6039876897
 20
51.0943240407
 10
-12.5729215216
 20
51.1364428613
 10
-12.5387965948
 20
51.1761209164
 10
-12.5018037497
 20
51.2131363103
 10
-12.4621498654
 20
51.2472820377
 10
-12.4200567024
 20
51.278367142
 10
-12.3757596628
 20
51.3062177826
 10
-12.3295064735
 20
51.3306782075
 10
-12.2815558013
 20
51.351611624
 10
-12.2321758056
 20
51.368900964
 10
-12.1816426395
 20
51.3824495385
 10
-12.1302389049
 20
51.3921815784
 10
-12.0782520723
 20
51.398042658
 10
-12.0259728733
 20
51.4
  0
LINE
  5
292
100
AcDbEntity
  8
RACCORDO
100
AcDbLine
 62
250
  6
CONTINUOUS
 10
13.4269261547
 20
67.5110615077
 11
13.4934283722
 21
67.6444291628
  0
LINE
  5
293
100
AcDbEntity
  8
RACCORDO
100
AcDbLine
 62
7
  6
CONTINUOUS
 10
-12.7177949307
 20
6.4317910361
 11
-12.7177906164
 21
6.4317515451
  0
LWPOLYLINE
  5
294
100
AcDbEntity
  8
RACCORDO
100
AcDbPolyline
 62
250
  6
CONTINUOUS
 90
5
 70
0
 10
-12.7203621498
 20
6.4843714575
 10
-12.7209808942
 20
6.4901940718
 10
-12.7216067631
 20
6.495647259
 10
-12.7222397565
 20
6.5007310191
 10
-12.7228802683
 20
6.5054516971
  0
LWPOLYLINE
  5
295
100
AcDbEntity
  8
RACCORDO
100
AcDbPolyline
 62
250
  6
CONTINUOUS
 90
6
 70
0
 10
-12.7416988787
 20
-6.4762101737
 10
-12.7409877661
 20
-6.4830075348
 10
-12.7402749136
 20
-6.4893519316
 10
-12.7395603206
 20
-6.4952440319
 10
-12.7388450361
 20
-6.5006851118
 10
-12.7381290573
 20
-6.505674514
  0
LINE
  5
296
100
AcDbEntity
  8
RACCORDO
100
AcDbLine
 62
250
  6
CONTINUOUS
 10
-12.7199888362
 20
6.4807046272
 11
-12.7203621498
 21
6.4843714575
  0
LINE
  5
297
100
AcDbEntity
  8
RACCORDO
100
AcDbLine
 62
250
  6
CONTINUOUS
 10
-12.7180697434
 20
6.4608040308
 11
-12.7199888362
 21
6.4807046272
  0
LINE
  5
298
100
AcDbEntity
  8
RACCORDO
100
AcDbLine
 62
250
  6
CONTINUOUS
 10
-12.7193662917
 20
6.4494547433
 11
-12.7177949307
 21
6.4317910361
  0
LWPOLYLINE
  5
299
100
AcDbEntity
  8
RACCORDO
100
AcDbPolyline
 62
250
  6
CONTINUOUS
 90
4
 70
0
 10
-12.743818619
 20
-6.4531058053
 10
-12.7431148307
 20
-6.4612592886
 10
-12.7424082506
 20
-6.4689605161
 10
-12.7416988787
 20
-6.4762101737
  0
LINE
  5
29A
100
AcDbEntity
  8
RACCORDO
100
AcDbLine
 62
250
  6
CONTINUOUS
 10
-12.7445196155
 20
-6.4445007521
 11
-12.743818619
 21
-6.4531058053
  0
LINE
  5
29B
100
AcDbEntity
  8
RACCORDO
100
AcDbLine
 62
250
  6
CONTINUOUS
 10
-12.7459100753
 20
-6.4259436304
 11
-12.7445196155
 21
-6.4445007521
  0
LINE
  5
29C
100
AcDbEntity
  8
RACCORDO
100
AcDbLine
 62
7
  6
CONTINUOUS
 10
-12.7163425866
 20
6.4224313016
 11
-12.7172058033
 21
6.4350141772
  0
LINE
  5
29D
100
AcDbEntity
  8
RACCORDO
100
AcDbLine
 62
250
  6
CONTINUOUS
 10
-12.7472841153
 20
-6.4055954671
 11
-12.7459100753
 21
-6.4259436304
  0
LINE
  5
29E
100
AcDbEntity
  8
RACCORDO
100
AcDbLine
 62
250
  6
CONTINUOUS
 10
-12.9949203856
 20
63.8756228494
 11
-12.9699769651
 21
63.4723029565
  0
LWPOLYLINE
  5
29F
100
AcDbEntity
  8
RACCORDO
100
AcDbPolyline
 62
250
  6
CONTINUOUS
 90
3
 70
0
 10
-12.7493074824
 20
-6.3717477847
 10
-12.7486386007
 20
-6.3834698907
 10
-12.7472841153
 20
-6.4055954671
  0
LINE
  5
2A0
100
AcDbEntity
  8
RACCORDO
100
AcDbLine
 62
250
  6
CONTINUOUS
 10
-12.9699769651
 20
63.4723029565
 11
-12.9442304294
 21
63.018308166
  0
LINE
  5
2A1
100
AcDbEntity
  8
RACCORDO
100
AcDbLine
 62
250
  6
CONTINUOUS
 10
-12.9442304294
 20
63.018308166
 11
-12.9179837149
 21
62.5053095982
  0
LINE
  5
2A2
100
AcDbEntity
  8
RACCORDO
100
AcDbLine
 62
250
  6
CONTINUOUS
 10
-12.7519207647
 20
-6.320508965
 11
-12.7493074824
 21
-6.3717477847
  0
LINE
  5
2A3
100
AcDbEntity
  8
RACCORDO
100
AcDbLine
 62
250
  6
CONTINUOUS
 10
-12.9179837149
 20
62.5053095982
 11
-12.8983243934
 21
62.0768003579
  0
LINE
  5
2A4
100
AcDbEntity
  8
RACCORDO
100
AcDbLine
 62
250
  6
CONTINUOUS
 10
-12.7538057268
 20
-6.2776012053
 11
-12.7519207647
 21
-6.320508965
  0
LINE
  5
2A5
100
AcDbEntity
  8
RACCORDO
100
AcDbLine
 62
250
  6
CONTINUOUS
 10
-12.7168301326
 20
6.4295381279
 11
-12.7180695964
 21
6.4608024439
  0
LWPOLYLINE
  5
2A6
100
AcDbEntity
  8
RACCORDO
100
AcDbPolyline
 62
250
  6
CONTINUOUS
 90
13
 70
0
 10
-12.7591505573
 20
51.0831554109
 10
-12.756846673
 20
51.0245971519
 10
-12.7544088902
 20
50.9700603201
 10
-12.7518667099
 20
50.920210733
 10
-12.7492192856
 20
50.8751126431
 10
-12.7464674638
 20
50.834701798
 10
-12.7436432852
 20
50.7994512583
 10
-12.740746184
 20
50.76941725
 10
-12.7377767261
 20
50.7445435473
 10
-12.7347686501
 20
50.7251345326
 10
-12.7317332022
 20
50.711291667
 10
-12.7286591362
 20
50.7029134894
 10
-12.7255464522
 20
50.7
  0
LINE
  5
2A7
100
AcDbEntity
  8
RACCORDO
100
AcDbLine
 62
250
  6
CONTINUOUS
 10
-12.8983243934
 20
62.0768003579
 11
-12.8791266468
 21
61.6068290275
  0
LINE
  5
2A8
100
AcDbEntity
  8
RACCORDO
100
AcDbLine
 62
250
  6
CONTINUOUS
 10
-12.7556164838
 20
-6.230963638
 11
-12.7538057268
 21
-6.2776012053
  0
LINE
  5
2A9
100
AcDbEntity
  8
RACCORDO
100
AcDbLine
 62
250
  6
CONTINUOUS
 10
-12.8791266468
 20
61.6068290275
 11
-12.8609709279
 21
61.0919013597
  0
LINE
  5
2AA
100
AcDbEntity
  8
RACCORDO
100
AcDbLine
 62
250
  6
CONTINUOUS
 10
-12.757900795
 20
-6.1631747972
 11
-12.7556164838
 21
-6.230963638
  0
LINE
  5
2AB
100
AcDbEntity
  8
RACCORDO
100
AcDbLine
 62
250
  6
CONTINUOUS
 10
-12.7633521769
 20
51.2123858227
 11
-12.7591505573
 21
51.0831554109
  0
LINE
  5
2AC
100
AcDbEntity
  8
RACCORDO
100
AcDbLine
 62
250
  6
CONTINUOUS
 10
-12.8609709279
 20
61.0919013597
 11
-12.849831969
 21
60.721883366
  0
LINE
  5
2AD
100
AcDbEntity
  8
RACCORDO
100
AcDbLine
 62
250
  6
CONTINUOUS
 10
-12.7203622456
 20
6.4843715444
 11
-12.7193662917
 21
6.4494547433
  0
LINE
  5
2AE
100
AcDbEntity
  8
RACCORDO
100
AcDbLine
 62
250
  6
CONTINUOUS
 10
-12.0696474703
 20
5.6569685238
 11
-12.0690245663
 21
5.6355522351
  0
LINE
  5
2AF
100
AcDbEntity
  8
RACCORDO
100
AcDbLine
 62
250
  6
CONTINUOUS
 10
-12.7600180952
 20
-6.0892769885
 11
-12.757900795
 21
-6.1631747972
  0
LINE
  5
2B0
100
AcDbEntity
  8
RACCORDO
100
AcDbLine
 62
250
  6
CONTINUOUS
 10
-12.849831969
 20
60.721883366
 11
-12.839814183
 21
60.3290251265
  0
LINE
  5
2B1
100
AcDbEntity
  8
RACCORDO
100
AcDbLine
 62
250
  6
CONTINUOUS
 10
-12.7669488899
 20
51.3555691544
 11
-12.7633521769
 21
51.2123858227
  0
LINE
  5
2B2
100
AcDbEntity
  8
RACCORDO
100
AcDbLine
 62
250
  6
CONTINUOUS
 10
-12.7624023355
 20
-5.9888439057
 11
-12.7600180952
 21
-6.0892769885
  0
LINE
  5
2B3
100
AcDbEntity
  8
RACCORDO
100
AcDbLine
 62
7
  6
CONTINUOUS
 10
-12.7172058033
 20
6.4350141772
 11
-12.717766723
 21
6.4608169835
  0
LWPOLYLINE
  5
2B4
100
AcDbEntity
  8
RACCORDO
100
AcDbPolyline
 62
250
  6
CONTINUOUS
 90
22
 70
0
 10
-12.0733991794
 20
51.9300529755
 10
-12.0725513572
 20
51.8876692915
 10
-12.0715263908
 20
51.8460909238
 10
-12.0703242804
 20
51.8054853054
 10
-12.0689382155
 20
51.7659990174
 10
-12.0673750066
 20
51.7278115022
 10
-12.0656550842
 20
51.6911279732
 10
-12.0637776672
 20
51.6561163634
 10
-12.0617435368
 20
51.6228872911
 10
-12.0595754678
 20
51.5915479084
 10
-12.0572711816
 20
51.5622145664
 10
-12.0548329569
 20
51.5350166265
 10
-12.0522904041
 20
51.5100710363
 10
-12.0496427895
 20
51.4874804443
 10
-12.0468908469
 20
51.4673298709
 10
-12.0440663892
 20
51.449695472
 10
-12.0411683316
 20
51.4346482073
 10
-12.0381977588
 20
51.4222499971
 10
-12.0351897375
 20
51.4125506299
 10
-12.0321559565
 20
51.4055907972
 10
-12.029084727
 20
51.4014009233
 10
-12.025976049
 20
51.4000000015
  0
LINE
  5
2B5
100
AcDbEntity
  8
RACCORDO
100
AcDbLine
 62
250
  6
CONTINUOUS
 10
-12.0690245663
 20
5.6355522351
 11
-12.0685627675
 21
5.613581492
  0
LINE
  5
2B6
100
AcDbEntity
  8
RACCORDO
100
AcDbLine
 62
250
  6
CONTINUOUS
 10
-12.839814183
 20
60.3290251265
 11
-12.8312829495
 21
59.9116234604
  0
LINE
  5
2B7
100
AcDbEntity
  8
RACCORDO
100
AcDbLine
 62
250
  6
CONTINUOUS
 10
-12.7698976044
 20
51.5109611808
 11
-12.7669488899
 21
51.3555691544
  0
LINE
  5
2B8
100
AcDbEntity
  8
RACCORDO
100
AcDbLine
 62
250
  6
CONTINUOUS
 10
-12.7644632194
 20
-5.8801918827
 11
-12.7624023355
 21
-5.9888439057
  0
LINE
  5
2B9
100
AcDbEntity
  8
RACCORDO
100
AcDbLine
 62
250
  6
CONTINUOUS
 10
-12.8312829495
 20
59.9116234604
 11
-12.8247454934
 21
59.4685939196
  0
LINE
  5
2BA
100
AcDbEntity
  8
RACCORDO
100
AcDbLine
 62
250
  6
CONTINUOUS
 10
-12.0685627675
 20
5.613581492
 11
-12.0682449132
 21
5.5910715136
  0
LINE
  5
2BB
100
AcDbEntity
  8
RACCORDO
100
AcDbLine
 62
250
  6
CONTINUOUS
 10
-12.7664668436
 20
-5.7401494467
 11
-12.7644632194
 21
-5.8801918827
  0
LINE
  5
2BC
100
AcDbEntity
  8
RACCORDO
100
AcDbLine
 62
250
  6
CONTINUOUS
 10
-12.7721248435
 20
51.6747926888
 11
-12.7698976044
 21
51.5109611808
  0
LINE
  5
2BD
100
AcDbEntity
  8
RACCORDO
100
AcDbLine
 62
250
  6
CONTINUOUS
 10
-12.7679136687
 20
-5.5910811743
 11
-12.7664668436
 21
-5.7401494467
  0
LINE
  5
2BE
100
AcDbEntity
  8
RACCORDO
100
AcDbLine
 62
250
  6
CONTINUOUS
 10
-12.7916240632
 20
54.0721883953
 11
-12.7721248435
 21
51.6747926888
  0
LINE
  5
2BF
100
AcDbEntity
  8
RACCORDO
100
AcDbLine
 62
250
  6
CONTINUOUS
 10
-12.1002690861
 20
55.3678436407
 11
-12.0733993266
 21
51.9300529755
  0
LINE
  5
2C0
100
AcDbEntity
  8
RACCORDO
100
AcDbLine
 62
250
  6
CONTINUOUS
 10
-12.0682449132
 20
5.5910715136
 11
-12.0680592697
 21
5.5680402369
  0
LWPOLYLINE
  5
2C1
100
AcDbEntity
  8
RACCORDO
100
AcDbPolyline
 62
250
  6
CONTINUOUS
 90
3
 70
0
 10
-12.8247454934
 20
59.4685939196
 10
-12.8208075642
 20
58.9979501632
 10
-12.8140656977
 20
57.5753488131
  0
LINE
  5
2C2
100
AcDbEntity
  8
RACCORDO
100
AcDbLine
 62
250
  6
CONTINUOUS
 10
-12.8140656977
 20
57.5753488131
 11
-12.7916240632
 21
54.0721883953
  0
LINE
  5
2C3
100
AcDbEntity
  8
RACCORDO
100
AcDbLine
 62
250
  6
CONTINUOUS
 10
-12.120496665
 20
58.8472331486
 11
-12.1002690861
 21
55.3678436407
  0
LINE
  5
2C4
100
AcDbEntity
  8
RACCORDO
100
AcDbLine
 62
250
  6
CONTINUOUS
 10
-12.0693135726
 20
-5.3406039202
 11
-12.0681253723
 21
-5.5080837959
  0
LINE
  5
2C5
100
AcDbEntity
  8
RACCORDO
100
AcDbLine
 62
250
  6
CONTINUOUS
 10
-12.7688436911
 20
-5.4080110892
 11
-12.7679136687
 21
-5.5910811743
  0
LINE
  5
2C6
100
AcDbEntity
  8
RACCORDO
100
AcDbLine
 62
250
  6
CONTINUOUS
 10
-12.840278309
 20
-49.4449989616
 11
-12.8181430069
 21
-59.4898675226
  0
LINE
  5
2C7
100
AcDbEntity
  8
RACCORDO
100
AcDbLine
 62
250
  6
CONTINUOUS
 10
-13.5464537478
 20
-45.2908371952
 11
-13.5357851782
 21
-51.6727021803
  0
LINE
  5
2C8
100
AcDbEntity
  8
RACCORDO
100
AcDbLine
 62
250
  6
CONTINUOUS
 10
-13.5535679665
 20
-38.9049006396
 11
-13.5464537478
 21
-45.2908371952
  0
LINE
  5
2C9
100
AcDbEntity
  8
RACCORDO
100
AcDbLine
 62
250
  6
CONTINUOUS
 10
-12.8535662613
 20
-39.3866799792
 11
-12.840278309
 21
-49.4449989616
  0
LINE
  5
2CA
100
AcDbEntity
  8
RACCORDO
100
AcDbLine
 62
250
  6
CONTINUOUS
 10
-13.5571252029
 20
-32.5165207867
 11
-13.5535679665
 21
-38.9049006396
  0
LINE
  5
2CB
100
AcDbEntity
  8
RACCORDO
100
AcDbLine
 62
250
  6
CONTINUOUS
 10
-12.8579965648
 20
-29.3219240268
 11
-12.8535662613
 21
-39.3866799792
  0
LINE
  5
2CC
100
AcDbEntity
  8
RACCORDO
100
AcDbLine
 62
7
  6
CONTINUOUS
 10
-12.7177651569
 20
-50.7
 11
-12.7177651569
 21
-6.4608770345
  0
LINE
  5
2CD
100
AcDbEntity
  8
RACCORDO
100
AcDbLine
 62
7
  6
CONTINUOUS
 10
-12.7177651569
 20
6.4608169811
 11
-12.7177651569
 21
50.7
  0
LINE
  5
2CE
100
AcDbEntity
  8
ASSI
100
AcDbLine
 62
7
  6
CONTINUOUS
 10
-12.7
 20
68.2773647801
 11
-12.7
 21
68.2769383591
  0
LINE
  5
2CF
100
AcDbEntity
  8
RACCORDO
100
AcDbLine
 62
250
  6
CONTINUOUS
 10
-13.5571241395
 20
32.5203344396
 11
-13.5571252029
 21
-32.5165207867
  0
LINE
  5
2D0
100
AcDbEntity
  8
RACCORDO
100
AcDbLine
 62
250
  6
CONTINUOUS
 10
-12.0680592697
 20
5.5680402369
 11
-12.0679883869
 21
5.5325542957
  0
LINE
  5
2D1
100
AcDbEntity
  8
RACCORDO
100
AcDbLine
 62
250
  6
CONTINUOUS
 10
-12.8556249868
 20
36.6860553649
 11
-12.8579965648
 21
-29.3219240268
  0
LINE
  5
2D2
100
AcDbEntity
  8
RACCORDO
100
AcDbLine
 62
250
  6
CONTINUOUS
 10
-12.0694159503
 20
-4.6503149975
 11
-12.0693135726
 21
-5.3406039202
  0
LINE
  5
2D3
100
AcDbEntity
  8
RACCORDO
100
AcDbLine
 62
250
  6
CONTINUOUS
 10
-12.0681253723
 20
-5.5080837959
 11
-12.0680789112
 21
-5.5442690648
  0
LINE
  5
2D4
100
AcDbEntity
  8
RACCORDO
100
AcDbLine
 62
250
  6
CONTINUOUS
 10
-13.5535584058
 20
38.9163386779
 11
-13.5571241395
 21
32.5203344396
  0
LINE
  5
2D5
100
AcDbEntity
  8
RACCORDO
100
AcDbLine
 62
250
  6
CONTINUOUS
 10
-13.5464271935
 20
45.3098908544
 11
-13.5535584058
 21
38.9163386779
  0
LINE
  5
2D6
100
AcDbEntity
  8
RACCORDO
100
AcDbLine
 62
250
  6
CONTINUOUS
 10
-12.845086685
 20
46.500312085
 11
-12.8556249868
 21
36.6860553649
  0
LINE
  5
2D7
100
AcDbEntity
  8
RACCORDO
100
AcDbLine
 62
250
  6
CONTINUOUS
 10
-12.768906662
 20
5.3813208526
 11
-12.7688436911
 21
-5.4080110892
  0
LINE
  5
2D8
100
AcDbEntity
  8
RACCORDO
100
AcDbLine
 62
250
  6
CONTINUOUS
 10
-13.5357331466
 20
51.6993568632
 11
-13.5464271935
 21
45.3098908544
  0
LWPOLYLINE
  5
2D9
100
AcDbEntity
  8
RACCORDO
100
AcDbPolyline
 62
250
  6
CONTINUOUS
 90
3
 70
0
 10
-12.8200702441
 20
58.752419404
 10
-12.8261255624
 20
56.3038099947
 10
-12.845086685
 20
46.500312085
  0
LINE
  5
2DA
100
AcDbEntity
  8
RACCORDO
100
AcDbLine
 62
250
  6
CONTINUOUS
 10
-12.0693102544
 20
5.3406597629
 11
-12.0694159503
 21
-4.6503149975
  0
LINE
  5
2DB
100
AcDbEntity
  8
RACCORDO
100
AcDbLine
 62
250
  6
CONTINUOUS
 10
-12.0680789112
 20
-5.5442690648
 11
-12.0681652119
 21
-5.5677938834
  0
LINE
  5
2DC
100
AcDbEntity
  8
RACCORDO
100
AcDbLine
 62
250
  6
CONTINUOUS
 10
-12.8055387443
 20
-56.9160509916
 11
-12.8187581114
 21
-59.7280845981
  0
LINE
  5
2DD
100
AcDbEntity
  8
RACCORDO
100
AcDbLine
 62
250
  6
CONTINUOUS
 10
-12.0679883869
 20
5.5325542957
 11
-12.0681911364
 21
5.4835909365
  0
LINE
  5
2DE
100
AcDbEntity
  8
RACCORDO
100
AcDbLine
 62
250
  6
CONTINUOUS
 10
-12.0907947183
 20
-54.4811542894
 11
-12.1185694281
 21
-59.5771388218
  0
LINE
  5
2DF
100
AcDbEntity
  8
RACCORDO
100
AcDbLine
 62
250
  6
CONTINUOUS
 10
-12.768096691
 20
5.5657918111
 11
-12.768906662
 21
5.3813208526
  0
LINE
  5
2E0
100
AcDbEntity
  8
RACCORDO
100
AcDbLine
 62
250
  6
CONTINUOUS
 10
-12.0730747196
 20
-51.9533993144
 11
-12.0907947183
 21
-54.4811542894
  0
LINE
  5
2E1
100
AcDbEntity
  8
RACCORDO
100
AcDbLine
 62
250
  6
CONTINUOUS
 10
-12.7719853595
 20
-51.7292767102
 11
-12.8055387443
 21
-56.9160509916
  0
LINE
  5
2E2
100
AcDbEntity
  8
RACCORDO
100
AcDbLine
 62
250
  6
CONTINUOUS
 10
-12.0681911364
 20
5.4835909365
 11
-12.0693102544
 21
5.3406597629
  0
LINE
  5
2E3
100
AcDbEntity
  8
RACCORDO
100
AcDbLine
 62
250
  6
CONTINUOUS
 10
-12.8187581114
 20
-59.7280845981
 11
-12.8221409518
 21
-60.1829724362
  0
LWPOLYLINE
  5
2E4
100
AcDbEntity
  8
RACCORDO
100
AcDbPolyline
 62
250
  6
CONTINUOUS
 90
8
 70
0
 10
-12.1185694281
 20
-59.5771388218
 10
-12.1207093934
 20
-59.8159074275
 10
-12.1240012123
 20
-60.0474796159
 10
-12.1284448847
 20
-60.2718469499
 10
-12.1341644242
 20
-60.488757407
 10
-12.1410358171
 20
-60.6984474753
 10
-12.1486870231
 20
-60.9016427855
 10
-12.1570787752
 20
-61.0983324994
  0
LINE
  5
2E5
100
AcDbEntity
  8
RACCORDO
100
AcDbLine
 62
250
  6
CONTINUOUS
 10
-12.0681652119
 20
-5.5677938834
 11
-12.068365839
 21
-5.5908173168
  0
LINE
  5
2E6
100
AcDbEntity
  8
RACCORDO
100
AcDbLine
 62
250
  6
CONTINUOUS
 10
-12.7667454211
 20
5.7163334151
 11
-12.768096691
 21
5.5657918111
  0
LINE
  5
2E7
100
AcDbEntity
  8
RACCORDO
100
AcDbLine
 62
250
  6
CONTINUOUS
 10
-12.7702235944
 20
-51.5792019536
 11
-12.7719853595
 21
-51.7292767102
  0
LINE
  5
2E8
100
AcDbEntity
  8
RACCORDO
100
AcDbLine
 62
250
  6
CONTINUOUS
 10
-12.8221409518
 20
-60.1829724362
 11
-12.8278257538
 21
-60.6086330559
  0
LINE
  5
2E9
100
AcDbEntity
  8
RACCORDO
100
AcDbLine
 62
250
  6
CONTINUOUS
 10
-12.7648298064
 20
5.8580861231
 11
-12.7667454211
 21
5.7163334151
  0
LINE
  5
2EA
100
AcDbEntity
  8
RACCORDO
100
AcDbLine
 62
250
  6
CONTINUOUS
 10
-12.068365839
 20
-5.5908173168
 11
-12.0686986176
 21
-5.6133217198
  0
LINE
  5
2EB
100
AcDbEntity
  8
RACCORDO
100
AcDbLine
 62
250
  6
CONTINUOUS
 10
-12.7678730549
 20
-51.4354888582
 11
-12.7702235944
 21
-51.5792019536
  0
LWPOLYLINE
  5
2EC
100
AcDbEntity
  8
RACCORDO
100
AcDbPolyline
 62
7
  6
CONTINUOUS
 90
3
 70
0
 10
-12.7177667207
 20
-6.4608770372
 10
-12.7173426847
 20
-6.4384380214
 10
-12.7163583673
 20
-6.4224794385
  0
LINE
  5
2ED
100
AcDbEntity
  8
RACCORDO
100
AcDbLine
 62
250
  6
CONTINUOUS
 10
-12.7628356173
 20
5.9683404591
 11
-12.7648298064
 21
5.8580861231
  0
LINE
  5
2EE
100
AcDbEntity
  8
RACCORDO
100
AcDbLine
 62
250
  6
CONTINUOUS
 10
-12.8278257538
 20
-60.6086330559
 11
-12.8353065779
 21
-61.0076683787
  0
LINE
  5
2EF
100
AcDbEntity
  8
RACCORDO
100
AcDbLine
 62
250
  6
CONTINUOUS
 10
-12.764978142
 20
-51.3006134346
 11
-12.7678730549
 21
-51.4354888582
  0
LINE
  5
2F0
100
AcDbEntity
  8
RACCORDO
100
AcDbLine
 62
250
  6
CONTINUOUS
 10
-12.0686986176
 20
-5.6133217198
 11
-12.0691751623
 21
-5.6352890433
  0
LINE
  5
2F1
100
AcDbEntity
  8
RACCORDO
100
AcDbLine
 62
250
  6
CONTINUOUS
 10
-12.7605119204
 20
6.0705106926
 11
-12.7628356173
 21
5.9683404591
  0
LINE
  5
2F2
100
AcDbEntity
  8
RACCORDO
100
AcDbLine
 62
250
  6
CONTINUOUS
 10
-12.8353065779
 20
-61.0076683787
 11
-12.844160043
 21
-61.38151411
  0
LINE
  5
2F3
100
AcDbEntity
  8
RACCORDO
100
AcDbLine
 62
250
  6
CONTINUOUS
 10
-12.7203621498
 20
-6.4843714544
 11
-12.7193652427
 21
-6.4494468128
  0
LINE
  5
2F4
100
AcDbEntity
  8
RACCORDO
100
AcDbLine
 62
250
  6
CONTINUOUS
 10
-12.7615660918
 20
-51.1758174979
 11
-12.764978142
 21
-51.3006134346
  0
LINE
  5
2F5
100
AcDbEntity
  8
RACCORDO
100
AcDbLine
 62
250
  6
CONTINUOUS
 10
-12.7584381541
 20
6.1458919713
 11
-12.7605119204
 21
6.0705106926
  0
LINE
  5
2F6
100
AcDbEntity
  8
RACCORDO
100
AcDbLine
 62
250
  6
CONTINUOUS
 10
-12.844160043
 20
-61.38151411
 11
-12.8593705202
 21
-61.8998985299
  0
LWPOLYLINE
  5
2F7
100
AcDbEntity
  8
RACCORDO
100
AcDbPolyline
 62
250
  6
CONTINUOUS
 90
66
 70
0
 10
-12.0691751623
 20
-5.6352890433
 10
-12.0698124624
 20
-5.6567039359
 10
-12.0701965943
 20
-5.6671996978
 10
-12.0706262498
 20
-5.6775518331
 10
-12.0711013213
 20
-5.6877581832
 10
-12.0716267707
 20
-5.697817932
 10
-12.0722027023
 20
-5.7077291093
 10
-12.0728290117
 20
-5.7174897671
 10
-12.0735103479
 20
-5.7270991658
 10
-12.074246809
 20
-5.7365555355
 10
-12.0750382969
 20
-5.7458571453
 10
-12.0758891658
 20
-5.7550033533
 10
-12.0767995134
 20
-5.7639926022
 10
-12.0777692421
 20
-5.7728233458
 10
-12.0788024124
 20
-5.7814949951
 10
-12.0798991152
 20
-5.7900061669
 10
-12.0810592596
 20
-5.7983555249
 10
-12.0822866338
 20
-5.806542584
 10
-12.0835813313
 20
-5.81456616
 10
-12.0849432585
 20
-5.822425083
 10
-12.0863759232
 20
-5.830118923
 10
-12.0878794124
 20
-5.8376466588
 10
-12.0894536391
 20
-5.8450073128
 10
-12.0911018497
 20
-5.8522005544
 10
-12.0928241337
 20
-5.8592255435
 10
-12.0946204015
 20
-5.8660814609
 10
-12.0964936317
 20
-5.8727680403
 10
-12.0984439111
 20
-5.8792845987
 10
-12.1004711528
 20
-5.8856304909
 10
-12.1025780748
 20
-5.8918055415
 10
-12.1047647611
 20
-5.8978092312
 10
-12.1070311278
 20
-5.90364107
 10
-12.10937964
 20
-5.9093009625
 10
-12.1118103832
 20
-5.9147885342
 10
-12.114323272
 20
-5.9201034611
 10
-12.1169205156
 20
-5.925245759
 10
-12.1196021957
 20
-5.9302152116
 10
-12.1223682305
 20
-5.9350116329
 10
-12.1252205841
 20
-5.9396351205
 10
-12.1281593692
 20
-5.9440856342
 10
-12.1311844732
 20
-5.9483630985
 10
-12.1342975213
 20
-5.9524676082
 10
-12.1374985784
 20
-5.9563992362
 10
-12.1407875796
 20
-5.9601581002
 10
-12.1441659565
 20
-5.9637444258
 10
-12.1476337438
 20
-5.9671583829
 10
-12.1511909068
 20
-5.970400289
 10
-12.1548387733
 20
-5.9734706306
 10
-12.1585773735
 20
-5.9763697022
 10
-12.1624066773
 20
-5.979097933
 10
-12.1663279212
 20
-5.9816560046
 10
-12.1703413436
 20
-5.9840444317
 10
-12.1744467062
 20
-5.9862635832
 10
-12.1786445307
 20
-5.9883139464
 10
-12.1829346238
 20
-5.9901959738
 10
-12.1873171788
 20
-5.9919104072
 10
-12.1917932975
 20
-5.9934581539
 10
-12.1963630903
 20
-5.9948398356
 10
-12.2010264467
 20
-5.9960560789
 10
-12.2057841373
 20
-5.997107705
 10
-12.2106374216
 20
-5.9979955476
 10
-12.2155850401
 20
-5.9987200566
 10
-12.2206239842
 20
-5.9992817177
 10
-12.225753251
 20
-5.9996814966
 10
-12.2309738434
 20
-5.9999205603
 10
-12.2362857614
 20
-6.0
  0
LINE
  5
2F8
100
AcDbEntity
  8
RACCORDO
100
AcDbLine
 62
250
  6
CONTINUOUS
 10
-12.7561930441
 20
6.2152321394
 11
-12.7584381541
 21
6.1458919713
  0
LINE
  5
2F9
100
AcDbEntity
  8
RACCORDO
100
AcDbLine
 62
250
  6
CONTINUOUS
 10
-12.8593705202
 20
-61.8998985299
 11
-12.8761997797
 21
-62.3722092389
  0
LINE
  5
2FA
100
AcDbEntity
  8
RACCORDO
100
AcDbLine
 62
250
  6
CONTINUOUS
 10
-12.7544083021
 20
6.2630794583
 11
-12.7561930441
 21
6.2152321394
  0
LINE
  5
2FB
100
AcDbEntity
  8
RACCORDO
100
AcDbLine
 62
250
  6
CONTINUOUS
 10
-12.7180695992
 20
-6.4608627604
 11
-12.7165590542
 21
-6.4227646101
  0
LINE
  5
2FC
100
AcDbEntity
  8
RACCORDO
100
AcDbLine
 62
250
  6
CONTINUOUS
 10
-12.8761997797
 20
-62.3722092389
 11
-12.8940255858
 21
-62.8021690991
  0
LINE
  5
2FD
100
AcDbEntity
  8
RACCORDO
100
AcDbLine
 62
250
  6
CONTINUOUS
 10
-12.7525465601
 20
6.3072279065
 11
-12.7544083021
 21
6.2630794583
  0
LINE
  5
2FE
100
AcDbEntity
  8
RACCORDO
100
AcDbLine
 62
250
  6
CONTINUOUS
 10
-12.751266832
 20
6.3345547484
 11
-12.7525465601
 21
6.3072279065
  0
LINE
  5
2FF
100
AcDbEntity
  8
RACCORDO
100
AcDbLine
 62
250
  6
CONTINUOUS
 10
-12.8940255858
 20
-62.8021690991
 11
-12.9123751946
 21
-63.1931631692
  0
LWPOLYLINE
  5
300
100
AcDbEntity
  8
RACCORDO
100
AcDbPolyline
 62
250
  6
CONTINUOUS
 90
3
 70
0
 10
-12.1570787752
 20
-61.0983324994
 10
-12.1759474782
 20
-61.4729346644
 10
-12.1861446992
 20
-61.651619731
  0
LINE
  5
301
100
AcDbEntity
  8
RACCORDO
100
AcDbLine
 62
250
  6
CONTINUOUS
 10
-12.9123751946
 20
-63.1931631692
 11
-12.930898606
 21
-63.5485185901
  0
LINE
  5
302
100
AcDbEntity
  8
RACCORDO
100
AcDbLine
 62
250
  6
CONTINUOUS
 10
-12.7492963581
 20
6.3723152177
 11
-12.751266832
 21
6.3345547484
  0
LINE
  5
303
100
AcDbEntity
  8
RACCORDO
100
AcDbLine
 62
250
  6
CONTINUOUS
 10
-12.930898606
 20
-63.5485185901
 11
-12.9493459164
 21
-63.8715288851
  0
LINE
  5
304
100
AcDbEntity
  8
RACCORDO
100
AcDbLine
 62
250
  6
CONTINUOUS
 10
-12.747952502
 20
6.395304377
 11
-12.7492963581
 21
6.3723152177
  0
LINE
  5
305
100
AcDbEntity
  8
RACCORDO
100
AcDbLine
 62
250
  6
CONTINUOUS
 10
-12.9493459164
 20
-63.8715288851
 11
-12.961514771
 21
-64.0704760888
  0
LINE
  5
306
100
AcDbEntity
  8
RACCORDO
100
AcDbLine
 62
250
  6
CONTINUOUS
 10
-12.7465881241
 20
6.416521711
 11
-12.747952502
 21
6.395304377
  0
LINE
  5
307
100
AcDbEntity
  8
RACCORDO
100
AcDbLine
 62
250
  6
CONTINUOUS
 10
-12.7193652427
 20
-6.4494468128
 11
-12.7177756066
 21
-6.431615082
  0
LINE
  5
308
100
AcDbEntity
  8
RACCORDO
100
AcDbLine
 62
250
  6
CONTINUOUS
 10
-12.7192323242
 20
-6.4730969416
 11
-12.7180697434
 21
-6.4608643144
  0
LINE
  5
309
100
AcDbEntity
  8
RACCORDO
100
AcDbLine
 62
250
  6
CONTINUOUS
 10
-12.7203621498
 20
-6.4843714544
 11
-12.7192323242
 21
-6.4730969416
  0
LINE
  5
30A
100
AcDbEntity
  8
RACCORDO
100
AcDbLine
 62
7
  6
CONTINUOUS
 10
-12.7177756066
 20
-6.431615082
 11
-12.717771776
 21
-6.4315801355
  0
LWPOLYLINE
  5
30B
100
AcDbEntity
  8
RACCORDO
100
AcDbPolyline
 62
7
  6
CONTINUOUS
 90
6
 70
0
 10
-12.717855494
 20
-6.4323211556
 10
-12.7178324653
 20
-6.432135555
 10
-12.7176659529
 20
-6.4308738664
 10
-12.7173403083
 20
-6.4285915341
 10
-12.7168256993
 20
-6.4252606782
 10
-12.7163583673
 20
-6.4224794385
  0
LWPOLYLINE
  5
30C
100
AcDbEntity
  8
RACCORDO
100
AcDbPolyline
 62
250
  6
CONTINUOUS
 90
5
 70
0
 10
-12.7228827682
 20
-6.5053965561
 10
-12.7222416741
 20
-6.5006901333
 10
-12.7216080688
 20
-6.4956202897
 10
-12.7209815607
 20
-6.49018073
 10
-12.7203621498
 20
-6.4843714544
  0
LWPOLYLINE
  5
30D
100
AcDbEntity
  8
RACCORDO
100
AcDbPolyline
 62
250
  6
CONTINUOUS
 90
12
 70
0
 10
-12.7381183537
 20
6.5060569585
 10
-12.7388341744
 20
6.5010814367
 10
-12.73954932
 20
6.4956540066
 10
-12.7402637932
 20
6.4897753266
 10
-12.7409765435
 20
6.4834440711
 10
-12.7416875714
 20
6.4766595746
 10
-12.7423968766
 20
6.4694225024
 10
-12.7431034072
 20
6.4617335254
 10
-12.7438071638
 20
6.4535919559
 10
-12.7445081459
 20
6.4449984815
 10
-12.745205301
 20
6.4359558356
 10
-12.7465881241
 20
6.416521711
  0
LINE
  5
30E
100
AcDbEntity
  8
RACCORDO
100
AcDbLine
 62
7
  6
CONTINUOUS
 10
-12.7163583673
 20
-6.4224794385
 11
-12.7149085305
 21
-6.4144257487
  0
LWPOLYLINE
  5
30F
100
AcDbEntity
  8
RACCORDO
100
AcDbPolyline
 62
7
  6
CONTINUOUS
 90
6
 70
0
 10
-12.7149085305
 20
-6.4144257487
 10
-12.7134071671
 20
-6.4069782678
 10
-12.7114664172
 20
-6.3982132161
 10
-12.7090017255
 20
-6.3880898961
 10
-12.7059793533
 20
-6.3768035238
 10
-12.7024316781
 20
-6.3647367797
  0
LWPOLYLINE
  5
310
100
AcDbEntity
  8
RACCORDO
100
AcDbPolyline
 62
7
  6
CONTINUOUS
 90
37
 70
0
 10
-12.7024316781
 20
-6.3647367797
 10
-12.6983235056
 20
-6.3519734882
 10
-12.6936157791
 20
-6.3385807146
 10
-12.6883776243
 20
-6.3248946303
 10
-12.6826229359
 20
-6.3110370057
 10
-12.6763123881
 20
-6.296989918
 10
-12.6694573897
 20
-6.2828499957
 10
-12.6620507082
 20
-6.2686614645
 10
-12.6540830967
 20
-6.2544608288
 10
-12.6455670965
 20
-6.2403173033
 10
-12.636497941
 20
-6.2262633032
 10
-12.626876488
 20
-6.2123373752
 10
-12.616729195
 20
-6.1986083035
 10
-12.6060639122
 20
-6.1851109771
 10
-12.5948848116
 20
-6.1718728907
 10
-12.5832188057
 20
-6.1589445042
 10
-12.5710955402
 20
-6.1463717065
 10
-12.5585118901
 20
-6.1341628417
 10
-12.5454463897
 20
-6.1223124939
 10
-12.5319133221
 20
-6.1108509427
 10
-12.5179297293
 20
-6.099808441
 10
-12.5034766103
 20
-6.0891874124
 10
-12.4885741587
 20
-6.0790215924
 10
-12.4732452907
 20
-6.0693438475
 10
-12.457477289
 20
-6.060164569
 10
-12.4413009506
 20
-6.0515209698
 10
-12.4247484012
 20
-6.0434474705
 10
-12.4078167959
 20
-6.0359606974
 10
-12.3905501598
 20
-6.0290984793
 10
-12.3729995911
 20
-6.0228966858
 10
-12.3551905729
 20
-6.0173788977
 10
-12.3371661323
 20
-6.0125731505
 10
-12.3190320023
 20
-6.0085179457
 10
-12.3009411032
 20
-6.0052471159
 10
-12.2829838248
 20
-6.0027678121
 10
-12.2652991976
 20
-6.0010829584
 10
-12.2481676797
 20
-6.0001845702
  0
LWPOLYLINE
  5
311
100
AcDbEntity
  8
RACCORDO
100
AcDbPolyline
 62
7
  6
CONTINUOUS
 90
7
 70
0
 10
-12.7036954219
 20
6.3690229033
 10
-12.7069674179
 20
6.3804876353
 10
-12.7097345966
 20
6.3911073324
 10
-12.7120330922
 20
6.4007896547
 10
-12.713901605
 20
6.4094492832
 10
-12.715350524
 20
6.4168494883
 10
-12.7163425866
 20
6.4224313016
  0
LWPOLYLINE
  5
312
100
AcDbEntity
  8
RACCORDO
100
AcDbPolyline
 62
7
  6
CONTINUOUS
 90
3
 70
0
 10
-12.7164108841
 20
6.4228155758
 10
-12.7171435612
 20
6.4273482477
 10
-12.7176104315
 20
6.4305190977
  0
LWPOLYLINE
  5
313
100
AcDbEntity
  8
RACCORDO
100
AcDbPolyline
 62
250
  6
CONTINUOUS
 90
23
 70
0
 10
-12.7381290573
 20
-6.505674514
 10
-12.737412387
 20
-6.5102128958
 10
-12.7366960834
 20
-6.5143035049
 10
-12.7359801519
 20
-6.5179456502
 10
-12.735264587
 20
-6.5211400227
 10
-12.7345504297
 20
-6.5238919428
 10
-12.7338376979
 20
-6.526200709
 10
-12.7331263737
 20
-6.5280670227
 10
-12.7324174453
 20
-6.5294983083
 10
-12.7317109319
 20
-6.5304939601
 10
-12.7310068143
 20
-6.5310545837
 10
-12.7303060222
 20
-6.5311894212
 10
-12.7296085396
 20
-6.5308978578
 10
-12.7289143825
 20
-6.5301805083
 10
-12.7282245294
 20
-6.5290484584
 10
-12.7275390349
 20
-6.5275012647
 10
-12.7268578442
 20
-6.5255393707
 10
-12.7261817713
 20
-6.5231751924
 10
-12.7255108193
 20
-6.5204083077
 10
-12.7248449851
 20
-6.5172391387
 10
-12.724185073
 20
-6.5136813685
 10
-12.7235309595
 20
-6.509733263
 10
-12.7228827682
 20
-6.5053965561
  0
LWPOLYLINE
  5
314
100
AcDbEntity
  8
RACCORDO
100
AcDbPolyline
 62
250
  6
CONTINUOUS
 90
23
 70
0
 10
-12.7228802683
 20
6.5054516971
 10
-12.7235279047
 20
6.5098029481
 10
-12.7241814841
 20
6.5137657364
 10
-12.7248408847
 20
6.5173383085
 10
-12.7255062285
 20
6.5205224181
 10
-12.7261766999
 20
6.523304291
 10
-12.7268522949
 20
6.5256834753
 10
-12.7275330176
 20
6.5276604231
 10
-12.7282180645
 20
6.5292227156
 10
-12.7289074947
 20
6.5303699279
 10
-12.7296012492
 20
6.531102485
 10
-12.7302983467
 20
6.5314092436
 10
-12.7309987699
 20
6.5312895856
 10
-12.7317025363
 20
6.5307441291
 10
-12.7324087166
 20
6.5297635847
 10
-12.7331173299
 20
6.52834735
 10
-12.7338283571
 20
6.5264960273
 10
-12.7345408118
 20
6.5242021345
 10
-12.735254712
 20
6.5214649705
 10
-12.7359700397
 20
6.5182852365
 10
-12.7366857539
 20
6.5146575539
 10
-12.7374018605
 20
6.5105812305
 10
-12.7381183537
 20
6.5060569585
  0
LINE
  5
315
100
AcDbEntity
  8
RACCORDO
100
AcDbLine
 62
7
  6
CONTINUOUS
 10
-12.7176104315
 20
6.4305190977
 11
-12.7177432549
 21
6.4314880417
  0
LINE
  5
316
100
AcDbEntity
  8
RACCORDO
100
AcDbLine
 62
250
  6
CONTINUOUS
 10
-12.3805311217
 20
63.1002666514
 11
-12.3536161844
 21
62.8525162475
  0
LINE
  5
317
100
AcDbEntity
  8
RACCORDO
100
AcDbLine
 62
250
  6
CONTINUOUS
 10
-13.1831233859
 20
66.1442961639
 11
-13.1680121257
 21
66.0033132665
  0
LINE
  5
318
100
AcDbEntity
  8
RACCORDO
100
AcDbLine
 62
250
  6
CONTINUOUS
 10
-12.3536161844
 20
62.8525162475
 11
-12.3265530815
 21
62.5888671114
  0
LINE
  5
319
100
AcDbEntity
  8
RACCORDO
100
AcDbLine
 62
250
  6
CONTINUOUS
 10
-13.1680121257
 20
66.0033132665
 11
-13.1518229641
 21
65.8449725942
  0
LINE
  5
31A
100
AcDbEntity
  8
RACCORDO
100
AcDbLine
 62
250
  6
CONTINUOUS
 10
-13.1518229641
 20
65.8449725942
 11
-13.1344990136
 21
65.6670705887
  0
LINE
  5
31B
100
AcDbEntity
  8
RACCORDO
100
AcDbLine
 62
250
  6
CONTINUOUS
 10
-12.3265530815
 20
62.5888671114
 11
-12.2994729372
 21
62.308537084
  0
LINE
  5
31C
100
AcDbEntity
  8
RACCORDO
100
AcDbLine
 62
250
  6
CONTINUOUS
 10
-13.1344990136
 20
65.6670705887
 11
-13.1160060776
 21
65.4672884449
  0
LINE
  5
31D
100
AcDbEntity
  8
RACCORDO
100
AcDbLine
 62
250
  6
CONTINUOUS
 10
-12.2994729372
 20
62.308537084
 11
-12.2725995955
 21
62.010346653
  0
LINE
  5
31E
100
AcDbEntity
  8
RACCORDO
100
AcDbLine
 62
250
  6
CONTINUOUS
 10
-13.1160060776
 20
65.4672884449
 11
-13.0963445739
 21
65.243400529
  0
LINE
  5
31F
100
AcDbEntity
  8
RACCORDO
100
AcDbLine
 62
250
  6
CONTINUOUS
 10
-13.0963445739
 20
65.243400529
 11
-13.0755443514
 21
64.9931682807
  0
LINE
  5
320
100
AcDbEntity
  8
RACCORDO
100
AcDbLine
 62
250
  6
CONTINUOUS
 10
-12.2725995955
 20
62.010346653
 11
-12.2462849552
 21
61.693125625
  0
LINE
  5
321
100
AcDbEntity
  8
RACCORDO
100
AcDbLine
 62
250
  6
CONTINUOUS
 10
-13.0755443514
 20
64.9931682807
 11
-13.0536614234
 21
64.7142325014
  0
LINE
  5
322
100
AcDbEntity
  8
RACCORDO
100
AcDbLine
 62
250
  6
CONTINUOUS
 10
-12.2462849552
 20
61.693125625
 11
-12.2208034902
 21
61.3561011875
  0
LINE
  5
323
100
AcDbEntity
  8
RACCORDO
100
AcDbLine
 62
250
  6
CONTINUOUS
 10
-13.0536614234
 20
64.7142325014
 11
-13.0307954306
 21
64.4043444395
  0
LINE
  5
324
100
AcDbEntity
  8
RACCORDO
100
AcDbLine
 62
250
  6
CONTINUOUS
 10
-13.0307954306
 20
64.4043444395
 11
-13.0070832149
 21
64.0611606588
  0
LWPOLYLINE
  5
325
100
AcDbEntity
  8
RACCORDO
100
AcDbPolyline
 62
250
  6
CONTINUOUS
 90
12
 70
0
 10
-12.2208034902
 20
61.3561011875
 10
-12.1966112675
 20
60.9981427916
 10
-12.185231504
 20
60.8108280667
 10
-12.1743727335
 20
60.6178345217
 10
-12.1640642929
 20
60.4191398696
 10
-12.1546124874
 20
60.214182881
 10
-12.1459715275
 20
60.0029727183
 10
-12.1381872027
 20
59.7855188247
 10
-12.1317031867
 20
59.5612625995
 10
-12.1266673707
 20
59.3300262294
 10
-12.1229318634
 20
59.0920119526
 10
-12.120496665
 20
58.8472331486
  0
LINE
  5
326
100
AcDbEntity
  8
RACCORDO
100
AcDbLine
 62
250
  6
CONTINUOUS
 10
-13.0070832149
 20
64.0611606588
 11
-12.9949203856
 21
63.8756228494
  0
LWPOLYLINE
  5
327
100
AcDbEntity
  8
RACCORDO
100
AcDbPolyline
 62
250
  6
CONTINUOUS
 90
3
 70
0
 10
-12.1861446992
 20
-61.651619731
 10
-12.2079380889
 20
-61.9923093685
 10
-12.2193433479
 20
-62.1550226625
  0
LINE
  5
328
100
AcDbEntity
  8
RACCORDO
100
AcDbLine
 62
250
  6
CONTINUOUS
 10
-12.961514771
 20
-64.0704760888
 11
-12.9795031988
 21
-64.346842831
  0
LINE
  5
329
100
AcDbEntity
  8
RACCORDO
100
AcDbLine
 62
250
  6
CONTINUOUS
 10
-12.9795031988
 20
-64.346842831
 11
-12.9971324594
 21
-64.5995688319
  0
LINE
  5
32A
100
AcDbEntity
  8
RACCORDO
100
AcDbLine
 62
250
  6
CONTINUOUS
 10
-12.9971324594
 20
-64.5995688319
 11
-13.0144243597
 21
-64.8320049677
  0
LINE
  5
32B
100
AcDbEntity
  8
RACCORDO
100
AcDbLine
 62
250
  6
CONTINUOUS
 10
-12.2193433479
 20
-62.1550226625
 11
-12.2430589179
 21
-62.4654467503
  0
LINE
  5
32C
100
AcDbEntity
  8
RACCORDO
100
AcDbLine
 62
250
  6
CONTINUOUS
 10
-13.0144243597
 20
-64.8320049677
 11
-13.031396072
 21
-65.0467033946
  0
LINE
  5
32D
100
AcDbEntity
  8
RACCORDO
100
AcDbLine
 62
250
  6
CONTINUOUS
 10
-13.031396072
 20
-65.0467033946
 11
-13.0480011267
 21
-65.2449662746
  0
LINE
  5
32E
100
AcDbEntity
  8
RACCORDO
100
AcDbLine
 62
250
  6
CONTINUOUS
 10
-12.2430589179
 20
-62.4654467503
 11
-12.2675899365
 21
-62.7570032177
  0
LINE
  5
32F
100
AcDbEntity
  8
RACCORDO
100
AcDbLine
 62
250
  6
CONTINUOUS
 10
-13.0480011267
 20
-65.2449662746
 11
-13.0641703647
 21
-65.4276263356
  0
LINE
  5
330
100
AcDbEntity
  8
RACCORDO
100
AcDbLine
 62
250
  6
CONTINUOUS
 10
-12.2675899365
 20
-62.7570032177
 11
-12.2926350465
 21
-63.0308048003
  0
LINE
  5
331
100
AcDbEntity
  8
RACCORDO
100
AcDbLine
 62
250
  6
CONTINUOUS
 10
-13.0641703647
 20
-65.4276263356
 11
-13.0798476895
 21
-65.5955483266
  0
LINE
  5
332
100
AcDbEntity
  8
RACCORDO
100
AcDbLine
 62
250
  6
CONTINUOUS
 10
-13.0798476895
 20
-65.5955483266
 11
-13.0949909743
 21
-65.7496362252
  0
LINE
  5
333
100
AcDbEntity
  8
RACCORDO
100
AcDbLine
 62
250
  6
CONTINUOUS
 10
-12.2926350465
 20
-63.0308048003
 11
-12.3180121122
 21
-63.2875973716
  0
LINE
  5
334
100
AcDbEntity
  8
RACCORDO
100
AcDbLine
 62
250
  6
CONTINUOUS
 10
-13.0949909743
 20
-65.7496362252
 11
-13.1095700205
 21
-65.8908066944
  0
LINE
  5
335
100
AcDbEntity
  8
RACCORDO
100
AcDbLine
 62
250
  6
CONTINUOUS
 10
-12.3180121122
 20
-63.2875973716
 11
-12.3434834502
 21
-63.5284997696
  0
LINE
  5
336
100
AcDbEntity
  8
RACCORDO
100
AcDbLine
 62
250
  6
CONTINUOUS
 10
-13.1095700205
 20
-65.8908066944
 11
-13.1235664462
 21
-66.0199850345
  0
LINE
  5
337
100
AcDbEntity
  8
RACCORDO
100
AcDbLine
 62
250
  6
CONTINUOUS
 10
-12.3434834502
 20
-63.5284997696
 11
-12.3688932431
 21
-63.7546156863
  0
LINE
  5
338
100
AcDbEntity
  8
RACCORDO
100
AcDbLine
 62
250
  6
CONTINUOUS
 10
-13.1235664462
 20
-66.0199850345
 11
-13.1369734643
 21
-66.1380992404
  0
LINE
  5
339
100
AcDbEntity
  8
RACCORDO
100
AcDbLine
 62
250
  6
CONTINUOUS
 10
-13.1369734643
 20
-66.1380992404
 11
-13.1497958742
 21
-66.2460757977
  0
LINE
  5
33A
100
AcDbEntity
  8
RACCORDO
100
AcDbLine
 62
250
  6
CONTINUOUS
 10
-12.3688932431
 20
-63.7546156863
 11
-12.3941507327
 21
-63.9666770401
  0
LINE
  5
33B
100
AcDbEntity
  8
RACCORDO
100
AcDbLine
 62
250
  6
CONTINUOUS
 10
-13.1497958742
 20
-66.2460757977
 11
-13.1620501805
 21
-66.3448364335
  0
LINE
  5
33C
100
AcDbEntity
  8
RACCORDO
100
AcDbLine
 62
250
  6
CONTINUOUS
 10
-12.3941507327
 20
-63.9666770401
 11
-12.419143483
 21
-64.1657839255
  0
LINE
  5
33D
100
AcDbEntity
  8
RACCORDO
100
AcDbLine
 62
250
  6
CONTINUOUS
 10
-13.1620501805
 20
-66.3448364335
 11
-13.1737656345
 21
-66.4353017082
  0
LINE
  5
33E
100
AcDbEntity
  8
RACCORDO
100
AcDbLine
 62
250
  6
CONTINUOUS
 10
-13.1737656345
 20
-66.4353017082
 11
-13.18129817
 21
-66.4914736849
  0
LINE
  5
33F
100
AcDbEntity
  8
RACCORDO
100
AcDbLine
 62
7
  6
CONTINUOUS
 10
-12.2481676797
 20
-6.0001845702
 11
-12.2363437255
 21
-5.9999999909
  0
LINE
  5
340
100
AcDbEntity
  8
RACCORDO
100
AcDbLine
 62
250
  6
CONTINUOUS
 10
12.3668138568
 20
-5.2981375173
 11
12.069415821
 21
-5.3
  0
LINE
  5
341
100
AcDbEntity
  8
RACCORDO
100
AcDbLine
 62
250
  6
CONTINUOUS
 10
12.7180697434
 20
-6.4608770254
 11
12.7177651626
 21
-6.4608770254
  0
LINE
  5
342
100
AcDbEntity
  8
RACCORDO
100
AcDbLine
 62
7
  6
CONTINUOUS
 10
12.2362857536
 20
-6.0
 11
-12.2362857614
 21
-6.0
  0
LINE
  5
343
100
AcDbEntity
  8
RACCORDO
100
AcDbLine
 62
250
  6
CONTINUOUS
 10
-12.7689884033
 20
-5.3000004601
 11
12.069415821
 21
-5.3
  0
LINE
  5
344
100
AcDbEntity
  8
RACCORDO
100
AcDbLine
 62
250
  6
CONTINUOUS
 10
12.5737324944
 20
-5.2977118356
 11
12.3668138568
 21
-5.2981375173
  0
LINE
  5
345
100
AcDbEntity
  8
RACCORDO
100
AcDbLine
 62
250
  6
CONTINUOUS
 10
-12.7180697434
 20
-6.4608770167
 11
-12.7177651618
 21
-6.4608770344
  0
LINE
  5
346
100
AcDbEntity
  8
RACCORDO
100
AcDbLine
 62
250
  6
CONTINUOUS
 10
12.6673010482
 20
-5.2979703827
 11
12.5737324944
 21
-5.2977118356
  0
LWPOLYLINE
  5
347
100
AcDbEntity
  8
RACCORDO
100
AcDbPolyline
 62
7
  6
CONTINUOUS
 90
6
 70
0
 10
12.2363400372
 20
-5.9999999921
 10
12.2474723662
 20
-6.000163719
 10
12.2643123122
 20
-6.0010113884
 10
12.2816870523
 20
-6.0026185812
 10
12.2993288116
 20
-6.0049931851
 10
12.3171035725
 20
-6.0081324641
  0
LWPOLYLINE
  5
348
100
AcDbEntity
  8
RACCORDO
100
AcDbPolyline
 62
250
  6
CONTINUOUS
 90
11
 70
0
 10
12.2362857536
 20
-6.0
 10
12.2309738354
 20
-5.9999205603
 10
12.2257532429
 20
-5.9996814966
 10
12.2206239759
 20
-5.9992817177
 10
12.2155850317
 20
-5.9987200566
 10
12.2106374131
 20
-5.9979955477
 10
12.2057841287
 20
-5.9971077051
 10
12.201026438
 20
-5.996056079
 10
12.1963630815
 20
-5.9948398358
 10
12.1917932886
 20
-5.9934581541
 10
12.1873171698
 20
-5.9919104075
  0
LINE
  5
349
100
AcDbEntity
  8
RACCORDO
100
AcDbLine
 62
250
  6
CONTINUOUS
 10
-13.2467461781
 20
66.6665426138
 11
-13.2379840746
 21
66.60144104
  0
LINE
  5
34A
100
AcDbEntity
  8
RACCORDO
100
AcDbLine
 62
250
  6
CONTINUOUS
 10
-13.2379840746
 20
66.60144104
 11
-13.2260730797
 21
66.5094469679
  0
LINE
  5
34B
100
AcDbEntity
  8
RACCORDO
100
AcDbLine
 62
250
  6
CONTINUOUS
 10
-12.4718572115
 20
63.8586587155
 11
-12.4463044929
 21
63.6576514698
  0
LINE
  5
34C
100
AcDbEntity
  8
RACCORDO
100
AcDbLine
 62
250
  6
CONTINUOUS
 10
-13.2260730797
 20
66.5094469679
 11
-13.213691036
 21
66.4095529844
  0
LINE
  5
34D
100
AcDbEntity
  8
RACCORDO
100
AcDbLine
 62
250
  6
CONTINUOUS
 10
-12.4463044929
 20
63.6576514698
 11
-12.4203000472
 21
63.4447032614
  0
LINE
  5
34E
100
AcDbEntity
  8
RACCORDO
100
AcDbLine
 62
250
  6
CONTINUOUS
 10
-13.213691036
 20
66.4095529844
 11
-13.2006330222
 21
66.2994851603
  0
LWPOLYLINE
  5
34F
100
AcDbEntity
  8
RACCORDO
100
AcDbPolyline
 62
250
  6
CONTINUOUS
 90
3
 70
0
 10
-12.4203000472
 20
63.4447032614
 10
-12.3938708501
 20
63.2186258005
 10
-12.3805311217
 20
63.1002666514
  0
LWPOLYLINE
  5
350
100
AcDbEntity
  8
RACCORDO
100
AcDbPolyline
 62
250
  6
CONTINUOUS
 90
3
 70
0
 10
-13.2006330222
 20
66.2994851603
 10
-13.1867406562
 20
66.1770651897
 10
-13.1831233859
 20
66.1442961639
  0
LWPOLYLINE
  5
351
100
AcDbEntity
  8
0
100
AcDbPolyline
 62
7
  6
CONTINUOUS
 90
2
 70
0
 43
0.3500000006
 10
-1.3571429071
 20
77.2499960632
 10
-1.3571429071
 20
78.749996521
  0
LWPOLYLINE
  5
352
100
AcDbEntity
  8
0
100
AcDbPolyline
 62
7
  6
CONTINUOUS
 90
13
 70
0
 43
0.3500000006
 10
0.0
 20
78.1071430664
 10
0.0
 20
79.3928590393
 10
0.2142857063
 20
79.821428009
 10
0.6428571367
 20
80.2499969788
 10
0.8571428254
 20
80.2499969788
 10
1.2857142735
 20
79.821428009
 10
1.5000000329
 20
79.3928590393
 10
1.5000000329
 20
78.1071430664
 10
1.2857142735
 20
77.6785740967
 10
0.8571428254
 20
77.2499960632
 10
0.6428571367
 20
77.2499960632
 10
0.2142857063
 20
77.6785740967
 10
0.0
 20
78.1071430664
  0
LINE
  5
353
100
AcDbEntity
  8
RACCORDO
100
AcDbLine
 62
250
  6
CONTINUOUS
 10
-12.419143483
 20
-64.1657839255
 11
-12.4438190221
 21
-64.3530302269
  0
LINE
  5
354
100
AcDbEntity
  8
RACCORDO
100
AcDbLine
 62
250
  6
CONTINUOUS
 10
-12.4438190221
 20
-64.3530302269
 11
-12.4681531908
 21
-64.5291440704
  0
LINE
  5
355
100
AcDbEntity
  8
RACCORDO
100
AcDbLine
 62
250
  6
CONTINUOUS
 10
-13.18129817
 20
-66.4914736849
 11
-13.1922132165
 21
-66.570124085
  0
LINE
  5
356
100
AcDbEntity
  8
RACCORDO
100
AcDbLine
 62
250
  6
CONTINUOUS
 10
-12.4681531908
 20
-64.5291440704
 11
-12.4921277697
 21
-64.6952206466
  0
LINE
  5
357
100
AcDbEntity
  8
RACCORDO
100
AcDbLine
 62
250
  6
CONTINUOUS
 10
-13.1922132165
 20
-66.570124085
 11
-13.2027287144
 21
-66.6428840018
  0
LINE
  5
358
100
AcDbEntity
  8
RACCORDO
100
AcDbLine
 62
250
  6
CONTINUOUS
 10
-12.4921277697
 20
-64.6952206466
 11
-12.5157822322
 21
-64.8523990329
  0
LINE
  5
359
100
AcDbEntity
  8
RACCORDO
100
AcDbLine
 62
250
  6
CONTINUOUS
 10
-13.2027287144
 20
-66.6428840018
 11
-13.2129233831
 21
-66.7106467112
  0
LINE
  5
35A
100
AcDbEntity
  8
RACCORDO
100
AcDbLine
 62
250
  6
CONTINUOUS
 10
-12.5157822322
 20
-64.8523990329
 11
-12.5391256176
 21
-65.0012770898
  0
LINE
  5
35B
100
AcDbEntity
  8
RACCORDO
100
AcDbLine
 62
250
  6
CONTINUOUS
 10
-13.2129233831
 20
-66.7106467112
 11
-13.2228910157
 21
-66.7742941162
  0
LINE
  5
35C
100
AcDbEntity
  8
RACCORDO
100
AcDbLine
 62
250
  6
CONTINUOUS
 10
-12.5391256176
 20
-65.0012770898
 11
-12.5621644006
 21
-65.1425960575
  0
LINE
  5
35D
100
AcDbEntity
  8
RACCORDO
100
AcDbLine
 62
250
  6
CONTINUOUS
 10
-13.2228910157
 20
-66.7742941162
 11
-13.2327424486
 21
-66.8347003024
  0
LINE
  5
35E
100
AcDbEntity
  8
RACCORDO
100
AcDbLine
 62
250
  6
CONTINUOUS
 10
-13.2327424486
 20
-66.8347003024
 11
-13.2393071977
 21
-66.873587062
  0
LINE
  5
35F
100
AcDbEntity
  8
RACCORDO
100
AcDbLine
 62
250
  6
CONTINUOUS
 10
-12.5621644006
 20
-65.1425960575
 11
-12.5848452466
 21
-65.2766028892
  0
LINE
  5
360
100
AcDbEntity
  8
RACCORDO
100
AcDbLine
 62
250
  6
CONTINUOUS
 10
-13.2393071977
 20
-66.873587062
 11
-13.2459199117
 21
-66.9116709584
  0
LINE
  5
361
100
AcDbEntity
  8
RACCORDO
100
AcDbLine
 62
250
  6
CONTINUOUS
 10
-12.5848452466
 20
-65.2766028892
 11
-12.6071392174
 21
-65.4034989928
  0
LINE
  5
362
100
AcDbEntity
  8
RACCORDO
100
AcDbLine
 62
250
  6
CONTINUOUS
 10
-13.2459199117
 20
-66.9116709584
 11
-13.252638534
 21
-66.9492403121
  0
LINE
  5
363
100
AcDbEntity
  8
RACCORDO
100
AcDbLine
 62
250
  6
CONTINUOUS
 10
-12.6071392174
 20
-65.4034989928
 11
-12.6290008642
 21
-65.5235561755
  0
LINE
  5
364
100
AcDbEntity
  8
RACCORDO
100
AcDbLine
 62
250
  6
CONTINUOUS
 10
-13.252638534
 20
-66.9492403121
 11
-13.2595034605
 21
-66.9864776161
  0
LINE
  5
365
100
AcDbEntity
  8
RACCORDO
100
AcDbLine
 62
250
  6
CONTINUOUS
 10
12.7298393908
 20
65.5318903262
 11
12.759876138
 21
65.6920739647
  0
LINE
  5
366
100
AcDbEntity
  8
RACCORDO
100
AcDbLine
 62
250
  6
CONTINUOUS
 10
-12.6290008642
 20
-65.5235561755
 11
-12.6503987659
 21
-65.6370775707
  0
LINE
  5
367
100
AcDbEntity
  8
RACCORDO
100
AcDbLine
 62
250
  6
CONTINUOUS
 10
-13.2595034605
 20
-66.9864776161
 11
-13.2665867919
 21
-67.0236927683
  0
LWPOLYLINE
  5
368
100
AcDbEntity
  8
RACCORDO
100
AcDbPolyline
 62
250
  6
CONTINUOUS
 90
3
 70
0
 10
-12.6503987659
 20
-65.6370775707
 10
-12.671313793
 20
-65.7442642849
 10
-12.681580454
 20
-65.7955964835
  0
LINE
  5
369
100
AcDbEntity
  8
RACCORDO
100
AcDbLine
 62
250
  6
CONTINUOUS
 10
12.759876138
 20
65.6920739647
 11
12.7890657247
 21
65.8415037368
  0
LINE
  5
36A
100
AcDbEntity
  8
RACCORDO
100
AcDbLine
 62
250
  6
CONTINUOUS
 10
-13.2665867919
 20
-67.0236927683
 11
-13.2739183025
 21
-67.0609033076
  0
LINE
  5
36B
100
AcDbEntity
  8
RACCORDO
100
AcDbLine
 62
250
  6
CONTINUOUS
 10
12.7890657247
 20
65.8415037368
 11
12.8174267747
 21
65.9809990765
  0
LINE
  5
36C
100
AcDbEntity
  8
RACCORDO
100
AcDbLine
 62
250
  6
CONTINUOUS
 10
-13.2739183025
 20
-67.0609033076
 11
-13.2815003647
 21
-67.0980334328
  0
LINE
  5
36D
100
AcDbEntity
  8
RACCORDO
100
AcDbLine
 62
250
  6
CONTINUOUS
 10
12.8174267747
 20
65.9809990765
 11
12.8449827371
 21
66.111263854
  0
LWPOLYLINE
  5
36E
100
AcDbEntity
  8
RACCORDO
100
AcDbPolyline
 62
250
  6
CONTINUOUS
 90
3
 70
0
 10
12.8449827371
 20
66.111263854
 10
12.8717495904
 20
66.2327484294
 10
12.8848464757
 20
66.2904411675
  0
LWPOLYLINE
  5
36F
100
AcDbEntity
  8
RACCORDO
100
AcDbPolyline
 62
250
  6
CONTINUOUS
 90
50
 70
0
 10
12.8848464757
 20
66.2904411675
 10
12.9104762495
 20
66.3999017497
 10
12.9230178773
 20
66.4518658963
 10
12.9353773735
 20
66.5019814699
 10
12.9475637244
 20
66.5504190145
 10
12.9595770825
 20
66.5971846308
 10
12.9714172952
 20
66.6422720476
 10
12.9830928914
 20
66.6858332741
 10
12.994603018
 20
66.7278702089
 10
13.005948528
 20
66.7683808315
 10
13.0171405087
 20
66.8075112893
 10
13.0281811926
 20
66.8452731448
 10
13.0390683472
 20
66.8816547492
 10
13.0498063619
 20
66.9167674451
 10
13.060392752
 20
66.9506067317
 10
13.0708300023
 20
66.9831770483
 10
13.0811299561
 20
67.0146031553
 10
13.0912939315
 20
67.0448927409
 10
13.1013206104
 20
67.0740380743
 10
13.1112178827
 20
67.1021407931
 10
13.1209853786
 20
67.1292028987
 10
13.1306234679
 20
67.1552223599
 10
13.1401411489
 20
67.1802947701
 10
13.149539047
 20
67.2044244882
 10
13.158816537
 20
67.2276071347
 10
13.1679807417
 20
67.2499251981
 10
13.1770318277
 20
67.271381342
 10
13.1859696285
 20
67.2919728889
 10
13.1948007675
 20
67.3117743168
 10
13.2035219487
 20
67.3307816344
 10
13.2121364681
 20
67.3489988238
 10
13.220660838
 20
67.366512324
 10
13.229097586
 20
67.3833306536
 10
13.2374441844
 20
67.3994452879
 10
13.2457095623
 20
67.4149171035
 10
13.2539055949
 20
67.4297661382
 10
13.262020407
 20
67.4439723502
 10
13.2700273021
 20
67.4575364964
 10
13.2779228896
 20
67.4704483699
 10
13.2857105602
 20
67.482718175
 10
13.2933737899
 20
67.4943772852
 10
13.3008818208
 20
67.5053867882
 10
13.3082654107
 20
67.5157855948
 10
13.3156003093
 20
67.525721814
 10
13.3228658279
 20
67.5351913419
 10
13.3300826551
 20
67.5441982817
 10
13.3373886059
 20
67.5529030535
 10
13.3448296187
 20
67.5613591308
 10
13.352359755
 20
67.5695130397
 10
13.3599790149
 20
67.5773647801
  0
LWPOLYLINE
  5
370
100
AcDbEntity
  8
RACCORDO
100
AcDbPolyline
 62
250
  6
CONTINUOUS
 90
7
 70
0
 10
12.7690113692
 20
-5.3000000351
 10
12.765347918
 20
-5.299605015
 10
12.7579636549
 20
-5.2992417547
 10
12.7468982931
 20
-5.2989122573
 10
12.7322112466
 20
-5.2986174266
 10
12.7139812379
 20
-5.2983597704
 10
12.6673010482
 20
-5.2979703827
  0
LWPOLYLINE
  5
371
100
AcDbEntity
  8
RACCORDO
100
AcDbPolyline
 62
7
  6
CONTINUOUS
 90
34
 70
0
 10
12.3171035725
 20
-6.0081324641
 10
12.3349236618
 20
-6.0120294602
 10
12.3526438557
 20
-6.0166526655
 10
12.3701622905
 20
-6.0219657839
 10
12.3874367895
 20
-6.0279421101
 10
12.4044439574
 20
-6.0345597993
 10
12.4211330424
 20
-6.0417844169
 10
12.4374622897
 20
-6.0495805317
 10
12.4534389094
 20
-6.0579349432
 10
12.4690316694
 20
-6.0668157395
 10
12.4842098573
 20
-6.0761879317
 10
12.4989888888
 20
-6.0860446117
 10
12.5133458043
 20
-6.0963554543
 10
12.5272600274
 20
-6.1070891193
 10
12.5407523722
 20
-6.1182467779
 10
12.5538057326
 20
-6.129801289
 10
12.5664042168
 20
-6.1417242168
 10
12.5785686191
 20
-6.1540227838
 10
12.5903026462
 20
-6.1666922886
 10
12.6015736352
 20
-6.17968773
 10
12.6123489806
 20
-6.1929558449
 10
12.6226260654
 20
-6.2064741649
 10
12.6323931188
 20
-6.2202061039
 10
12.6416116485
 20
-6.2340686232
 10
12.6502809824
 20
-6.2480237619
 10
12.6584062203
 20
-6.2620398962
 10
12.6659662729
 20
-6.2760330412
 10
12.6729710987
 20
-6.2899652127
 10
12.6794310404
 20
-6.3037961385
 10
12.6853329038
 20
-6.3174250922
 10
12.6907024146
 20
-6.3308286062
 10
12.6955477531
 20
-6.3439370437
 10
12.6998414228
 20
-6.3565581542
 10
12.7036123903
 20
-6.3686314795
  0
LWPOLYLINE
  5
372
100
AcDbEntity
  8
RACCORDO
100
AcDbPolyline
 62
250
  6
CONTINUOUS
 90
55
 70
0
 10
12.1873171698
 20
-5.9919104075
 10
12.1829346147
 20
-5.9901959741
 10
12.1786445215
 20
-5.9883139468
 10
12.174446697
 20
-5.9862635837
 10
12.1703413343
 20
-5.9840444322
 10
12.1663279119
 20
-5.9816560052
 10
12.1624066679
 20
-5.9790979337
 10
12.1585773641
 20
-5.976369703
 10
12.1548387638
 20
-5.9734706315
 10
12.1511908973
 20
-5.9704002899
 10
12.1476337343
 20
-5.9671583839
 10
12.144165947
 20
-5.9637444269
 10
12.14078757
 20
-5.9601581014
 10
12.1374985688
 20
-5.9563992375
 10
12.1342975117
 20
-5.9524676097
 10
12.1311844636
 20
-5.9483631
 10
12.1281593597
 20
-5.9440856359
 10
12.1252205745
 20
-5.9396351223
 10
12.122368221
 20
-5.9350116348
 10
12.1196021862
 20
-5.9302152136
 10
12.1169205062
 20
-5.9252457611
 10
12.1143232626
 20
-5.9201034633
 10
12.1118103739
 20
-5.9147885365
 10
12.1093796308
 20
-5.9093009649
 10
12.1070311186
 20
-5.9036410726
 10
12.104764752
 20
-5.8978092339
 10
12.1025780657
 20
-5.8918055444
 10
12.1004711438
 20
-5.8856304939
 10
12.0984439022
 20
-5.8792846018
 10
12.096493623
 20
-5.8727680435
 10
12.0946203929
 20
-5.8660814643
 10
12.0928241251
 20
-5.8592255471
 10
12.0911018413
 20
-5.8522005581
 10
12.0894536308
 20
-5.8450073166
 10
12.0878794043
 20
-5.8376466627
 10
12.0863759152
 20
-5.830118927
 10
12.0849432507
 20
-5.8224250871
 10
12.0835813236
 20
-5.8145661642
 10
12.0822866263
 20
-5.8065425884
 10
12.0810592522
 20
-5.7983555294
 10
12.0798991079
 20
-5.7900061715
 10
12.0788024053
 20
-5.7814949997
 10
12.0777692352
 20
-5.7728233506
 10
12.0767995067
 20
-5.7639926071
 10
12.0758891592
 20
-5.7550033583
 10
12.0750382905
 20
-5.7458571503
 10
12.0742468028
 20
-5.7365555406
 10
12.0735103419
 20
-5.727099171
 10
12.0728290059
 20
-5.7174897724
 10
12.0722026967
 20
-5.7077291146
 10
12.0716267653
 20
-5.6978179374
 10
12.0711013161
 20
-5.6877581886
 10
12.0706262448
 20
-5.6775518385
 10
12.0701965896
 20
-5.6671997033
 10
12.0698124578
 20
-5.6567039413
  0
LINE
  5
373
100
AcDbEntity
  8
RACCORDO
100
AcDbLine
 62
250
  6
CONTINUOUS
 10
12.707232696
 20
-65.9201341172
 11
12.6800011076
 21
-65.7877673546
  0
LINE
  5
374
100
AcDbEntity
  8
RACCORDO
100
AcDbLine
 62
250
  6
CONTINUOUS
 10
-13.3328871966
 20
67.189334487
 11
-13.3260584136
 21
67.1557404224
  0
LINE
  5
375
100
AcDbEntity
  8
RACCORDO
100
AcDbLine
 62
250
  6
CONTINUOUS
 10
-12.8043541296
 20
65.9173964702
 11
-12.7870446756
 21
65.8313482615
  0
LINE
  5
376
100
AcDbEntity
  8
RACCORDO
100
AcDbLine
 62
250
  6
CONTINUOUS
 10
-12.7870446756
 20
65.8313482615
 11
-12.7691398824
 21
65.7401378482
  0
LINE
  5
377
100
AcDbEntity
  8
RACCORDO
100
AcDbLine
 62
250
  6
CONTINUOUS
 10
12.6800011076
 20
-65.7877673546
 11
12.6523808609
 21
-65.6473545044
  0
LINE
  5
378
100
AcDbEntity
  8
RACCORDO
100
AcDbLine
 62
250
  6
CONTINUOUS
 10
-13.3260584136
 20
67.1557404224
 11
-13.3192504899
 21
67.1208938044
  0
LINE
  5
379
100
AcDbEntity
  8
RACCORDO
100
AcDbLine
 62
250
  6
CONTINUOUS
 10
-12.7691398824
 20
65.7401378482
 11
-12.7506340793
 21
65.6434489117
  0
LINE
  5
37A
100
AcDbEntity
  8
RACCORDO
100
AcDbLine
 62
250
  6
CONTINUOUS
 10
-13.3192504899
 20
67.1208938044
 11
-13.3124776273
 21
67.0848812912
  0
LINE
  5
37B
100
AcDbEntity
  8
RACCORDO
100
AcDbLine
 62
250
  6
CONTINUOUS
 10
12.6523808609
 20
-65.6473545044
 11
12.624390663
 21
-65.4986030451
  0
LINE
  5
37C
100
AcDbEntity
  8
RACCORDO
100
AcDbLine
 62
250
  6
CONTINUOUS
 10
-12.7506340793
 20
65.6434489117
 11
-12.7315250632
 21
65.5410705436
  0
LINE
  5
37D
100
AcDbEntity
  8
RACCORDO
100
AcDbLine
 62
250
  6
CONTINUOUS
 10
-12.7315250632
 20
65.5410705436
 11
-12.711811849
 21
65.4326854865
  0
LINE
  5
37E
100
AcDbEntity
  8
RACCORDO
100
AcDbLine
 62
250
  6
CONTINUOUS
 10
-13.3124776273
 20
67.0848812912
 11
-13.3057591132
 21
67.0478353793
  0
LINE
  5
37F
100
AcDbEntity
  8
RACCORDO
100
AcDbLine
 62
250
  6
CONTINUOUS
 10
-12.711811849
 20
65.4326854865
 11
-12.6915010591
 21
65.3179744781
  0
LINE
  5
380
100
AcDbEntity
  8
RACCORDO
100
AcDbLine
 62
250
  6
CONTINUOUS
 10
-13.3057591132
 20
67.0478353793
 11
-13.299111323
 21
67.0098964796
  0
LINE
  5
381
100
AcDbEntity
  8
RACCORDO
100
AcDbLine
 62
250
  6
CONTINUOUS
 10
-12.6915010591
 20
65.3179744781
 11
-12.670598869
 21
65.1967248144
  0
LINE
  5
382
100
AcDbEntity
  8
RACCORDO
100
AcDbLine
 62
250
  6
CONTINUOUS
 10
-13.299111323
 20
67.0098964796
 11
-13.2925448127
 21
66.9711597769
  0
LINE
  5
383
100
AcDbEntity
  8
RACCORDO
100
AcDbLine
 62
250
  6
CONTINUOUS
 10
-12.670598869
 20
65.1967248144
 11
-12.6491169799
 21
65.0686162023
  0
LINE
  5
384
100
AcDbEntity
  8
RACCORDO
100
AcDbLine
 62
250
  6
CONTINUOUS
 10
-13.2925448127
 20
66.9711597769
 11
-13.2860743315
 21
66.9317699505
  0
LINE
  5
385
100
AcDbEntity
  8
RACCORDO
100
AcDbLine
 62
250
  6
CONTINUOUS
 10
-12.6491169799
 20
65.0686162023
 11
-12.627075798
 21
64.9333260251
  0
LINE
  5
386
100
AcDbEntity
  8
RACCORDO
100
AcDbLine
 62
250
  6
CONTINUOUS
 10
-13.2860743315
 20
66.9317699505
 11
-13.2797136895
 21
66.8918821014
  0
LINE
  5
387
100
AcDbEntity
  8
RACCORDO
100
AcDbLine
 62
250
  6
CONTINUOUS
 10
-12.627075798
 20
64.9333260251
 11
-12.6044911566
 21
64.790639974
  0
LINE
  5
388
100
AcDbEntity
  8
RACCORDO
100
AcDbLine
 62
250
  6
CONTINUOUS
 10
-12.6044911566
 20
64.790639974
 11
-12.58138963
 21
64.6402346828
  0
LINE
  5
389
100
AcDbEntity
  8
RACCORDO
100
AcDbLine
 62
250
  6
CONTINUOUS
 10
-13.2797136895
 20
66.8918821014
 11
-13.2704019411
 21
66.8313855021
  0
LINE
  5
38A
100
AcDbEntity
  8
RACCORDO
100
AcDbLine
 62
250
  6
CONTINUOUS
 10
-12.58138963
 20
64.6402346828
 11
-12.5578110936
 21
64.4818011782
  0
LINE
  5
38B
100
AcDbEntity
  8
RACCORDO
100
AcDbLine
 62
250
  6
CONTINUOUS
 10
-13.2704019411
 20
66.8313855021
 11
-13.2613779781
 21
66.7703889163
  0
LINE
  5
38C
100
AcDbEntity
  8
RACCORDO
100
AcDbLine
 62
250
  6
CONTINUOUS
 10
-12.5578110936
 20
64.4818011782
 11
-12.5337789454
 21
64.3150893304
  0
LINE
  5
38D
100
AcDbEntity
  8
RACCORDO
100
AcDbLine
 62
250
  6
CONTINUOUS
 10
-13.2613779781
 20
66.7703889163
 11
-13.2525678959
 21
66.7085931216
  0
LINE
  5
38E
100
AcDbEntity
  8
RACCORDO
100
AcDbLine
 62
250
  6
CONTINUOUS
 10
-12.5337789454
 20
64.3150893304
 11
-12.5093356388
 21
64.1397606063
  0
LINE
  5
38F
100
AcDbEntity
  8
RACCORDO
100
AcDbLine
 62
250
  6
CONTINUOUS
 10
-13.2525678959
 20
66.7085931216
 11
-13.2467461781
 21
66.6665426138
  0
LWPOLYLINE
  5
390
100
AcDbEntity
  8
RACCORDO
100
AcDbPolyline
 62
250
  6
CONTINUOUS
 90
3
 70
0
 10
-12.5093356388
 20
64.1397606063
 10
-12.4844592746
 20
63.9548316486
 10
-12.4718572115
 20
63.8586587155
  0
LINE
  5
391
100
AcDbEntity
  8
RACCORDO
100
AcDbLine
 62
250
  6
CONTINUOUS
 10
12.3838191809
 20
63.1296842914
 11
12.4215435768
 21
63.455022808
  0
LINE
  5
392
100
AcDbEntity
  8
RACCORDO
100
AcDbLine
 62
250
  6
CONTINUOUS
 10
13.2041093114
 20
66.3292588046
 11
13.2163941193
 21
66.4317203198
  0
LINE
  5
393
100
AcDbEntity
  8
RACCORDO
100
AcDbLine
 62
250
  6
CONTINUOUS
 10
12.4215435768
 20
63.455022808
 11
12.4588112784
 21
63.7571882423
  0
LINE
  5
394
100
AcDbEntity
  8
RACCORDO
100
AcDbLine
 62
250
  6
CONTINUOUS
 10
13.2163941193
 20
66.4317203198
 11
13.2283406479
 21
66.5272805179
  0
LINE
  5
395
100
AcDbEntity
  8
RACCORDO
100
AcDbLine
 62
250
  6
CONTINUOUS
 10
13.2283406479
 20
66.5272805179
 11
13.2399534548
 21
66.616262991
  0
LINE
  5
396
100
AcDbEntity
  8
RACCORDO
100
AcDbLine
 62
250
  6
CONTINUOUS
 10
12.4588112784
 20
63.7571882423
 11
12.4955006492
 21
64.0377269513
  0
LINE
  5
397
100
AcDbEntity
  8
RACCORDO
100
AcDbLine
 62
250
  6
CONTINUOUS
 10
13.2399534548
 20
66.616262991
 11
13.2512462861
 21
66.6991219934
  0
LINE
  5
398
100
AcDbEntity
  8
RACCORDO
100
AcDbLine
 62
250
  6
CONTINUOUS
 10
12.4955006492
 20
64.0377269513
 11
12.5314737744
 21
64.2987600119
  0
LINE
  5
399
100
AcDbEntity
  8
RACCORDO
100
AcDbLine
 62
250
  6
CONTINUOUS
 10
13.2512462861
 20
66.6991219934
 11
13.2622377278
 21
66.7763045785
  0
LINE
  5
39A
100
AcDbEntity
  8
RACCORDO
100
AcDbLine
 62
250
  6
CONTINUOUS
 10
12.5314737744
 20
64.2987600119
 11
12.5666633689
 21
64.541965966
  0
LINE
  5
39B
100
AcDbEntity
  8
RACCORDO
100
AcDbLine
 62
250
  6
CONTINUOUS
 10
13.2622377278
 20
66.7763045785
 11
13.2729326576
 21
66.8480692143
  0
LINE
  5
39C
100
AcDbEntity
  8
RACCORDO
100
AcDbLine
 62
250
  6
CONTINUOUS
 10
12.5666633689
 20
64.541965966
 11
12.601031622
 21
64.7684040103
  0
LINE
  5
39D
100
AcDbEntity
  8
RACCORDO
100
AcDbLine
 62
250
  6
CONTINUOUS
 10
13.2729326576
 20
66.8480692143
 11
13.2833352653
 21
66.9147298239
  0
LINE
  5
39E
100
AcDbEntity
  8
RACCORDO
100
AcDbLine
 62
250
  6
CONTINUOUS
 10
12.601031622
 20
64.7684040103
 11
12.6345402254
 21
64.9795535679
  0
LINE
  5
39F
100
AcDbEntity
  8
RACCORDO
100
AcDbLine
 62
250
  6
CONTINUOUS
 10
13.2833352653
 20
66.9147298239
 11
13.2934663397
 21
66.9766783614
  0
LINE
  5
3A0
100
AcDbEntity
  8
RACCORDO
100
AcDbLine
 62
250
  6
CONTINUOUS
 10
12.6345402254
 20
64.9795535679
 11
12.6671792875
 21
65.1766220861
  0
LWPOLYLINE
  5
3A1
100
AcDbEntity
  8
RACCORDO
100
AcDbPolyline
 62
250
  6
CONTINUOUS
 90
32
 70
0
 10
13.2934663397
 20
66.9766783614
 10
13.3033336795
 20
67.03414219
 10
13.3081731218
 20
67.0613059804
 10
13.312948784
 20
67.0874232214
 10
13.3176663892
 20
67.1125895292
 10
13.3223257332
 20
67.1368093929
 10
13.3269257783
 20
67.1600785828
 10
13.3314711035
 20
67.1824796105
 10
13.3359613546
 20
67.2040152524
 10
13.3403958418
 20
67.2246829651
 10
13.3447787237
 20
67.2445572601
 10
13.3491080023
 20
67.2636342206
 10
13.3533847912
 20
67.281917975
 10
13.3576180031
 20
67.2994950741
 10
13.3618086098
 20
67.316374133
 10
13.3659549353
 20
67.3325467063
 10
13.3700619977
 20
67.3480737254
 10
13.374135429
 20
67.3629753664
 10
13.3781690154
 20
67.3772315954
 10
13.3821500055
 20
67.3908430393
 10
13.3860764164
 20
67.4037995632
 10
13.3899496332
 20
67.41611149
 10
13.3937619205
 20
67.4278101635
 10
13.3974977577
 20
67.4388566391
 10
13.4011720964
 20
67.4492900792
 10
13.4048229967
 20
67.4592589385
 10
13.4084401176
 20
67.4687590546
 10
13.4120334715
 20
67.477794679
 10
13.4156718724
 20
67.4865267247
 10
13.4193782965
 20
67.4950087401
 10
13.4231297372
 20
67.5031870233
 10
13.4269261547
 20
67.5110615077
  0
LINE
  5
3A2
100
AcDbEntity
  8
RACCORDO
100
AcDbLine
 62
250
  6
CONTINUOUS
 10
12.6671792875
 20
65.1766220861
 11
12.6989450842
 21
65.3603752072
  0
LINE
  5
3A3
100
AcDbEntity
  8
RACCORDO
100
AcDbLine
 62
250
  6
CONTINUOUS
 10
12.6989450842
 20
65.3603752072
 11
12.7298393908
 21
65.5318903262
  0
LINE
  5
3A4
100
AcDbEntity
  8
RACCORDO
100
AcDbLine
 62
250
  6
CONTINUOUS
 10
-12.681580454
 20
-65.7955964835
 11
-12.7017283865
 21
-65.8938421578
  0
LINE
  5
3A5
100
AcDbEntity
  8
RACCORDO
100
AcDbLine
 62
250
  6
CONTINUOUS
 10
-12.7017283865
 20
-65.8938421578
 11
-12.721346069
 21
-65.9864709212
  0
LWPOLYLINE
  5
3A6
100
AcDbEntity
  8
RACCORDO
100
AcDbPolyline
 62
250
  6
CONTINUOUS
 90
63
 70
0
 10
-13.2815003647
 20
-67.0980334328
 10
-13.2893040265
 20
-67.1347986844
 10
-13.2932736417
 20
-67.1529386179
 10
-13.2972843522
 20
-67.1708805687
 10
-13.3013355719
 20
-67.1886266049
 10
-13.3054110406
 20
-67.2060811764
 10
-13.3095118917
 20
-67.2232430073
 10
-13.3136368517
 20
-67.2401133036
 10
-13.3177658548
 20
-67.2566002997
 10
-13.3219003513
 20
-67.2727022684
 10
-13.3260385396
 20
-67.2884209361
 10
-13.3301552583
 20
-67.3036697958
 10
-13.3342491088
 20
-67.3184364259
 10
-13.3383209197
 20
-67.3327333376
 10
-13.3423486726
 20
-67.3465115036
 10
-13.3463255303
 20
-67.3597450267
 10
-13.3502576253
 20
-67.3724599717
 10
-13.3541423133
 20
-67.3846852946
 10
-13.3579761521
 20
-67.3964123782
 10
-13.3617619518
 20
-67.4076500064
 10
-13.3655064805
 20
-67.418453228
 10
-13.3692090146
 20
-67.4288234844
 10
-13.3728697677
 20
-67.4387594717
 10
-13.3764969766
 20
-67.4483120954
 10
-13.3800896822
 20
-67.457482586
 10
-13.3836484347
 20
-67.4662698221
 10
-13.3871837978
 20
-67.4747211517
 10
-13.3906960718
 20
-67.4828408223
 10
-13.3941846409
 20
-67.4906246609
 10
-13.3976587498
 20
-67.498107355
 10
-13.4011227961
 20
-67.5052992686
 10
-13.4045721368
 20
-67.5121900806
 10
-13.4080024727
 20
-67.5187834429
 10
-13.4114159648
 20
-67.5250814289
 10
-13.4148102051
 20
-67.5310820218
 10
-13.418174019
 20
-67.5367827597
 10
-13.4215059339
 20
-67.5421789286
 10
-13.4248071591
 20
-67.5472753321
 10
-13.4280705212
 20
-67.5520838091
 10
-13.4312952798
 20
-67.5566020133
 10
-13.4344819259
 20
-67.5608323965
 10
-13.4376251253
 20
-67.5647940106
 10
-13.4407246647
 20
-67.5684857383
 10
-13.4437805326
 20
-67.5719088117
 10
-13.4467876954
 20
-67.5750858177
 10
-13.4497456929
 20
-67.5780157409
 10
-13.4526547884
 20
-67.5806997189
 10
-13.4555110355
 20
-67.5831635771
 10
-13.4583116585
 20
-67.5854056694
 10
-13.4610592665
 20
-67.5874277687
 10
-13.4637579988
 20
-67.5892608268
 10
-13.4664053208
 20
-67.5909055598
 10
-13.4690036386
 20
-67.5923613622
 10
-13.4715645162
 20
-67.593657185
 10
-13.4740862672
 20
-67.5947956611
 10
-13.476570484
 20
-67.595774238
 10
-13.4790336629
 20
-67.5966140581
 10
-13.4814746529
 20
-67.5973187699
 10
-13.4838945349
 20
-67.5978847688
 10
-13.4863131636
 20
-67.598322281
 10
-13.488737139
 20
-67.5986347076
 10
-13.4911598032
 20
-67.5988186462
 10
-13.493581127
 20
-67.5988740985
  0
LINE
  5
3A7
100
AcDbEntity
  8
RACCORDO
100
AcDbLine
 62
250
  6
CONTINUOUS
 10
-12.721346069
 20
-65.9864709212
 11
-12.7404258696
 21
-66.0737947079
  0
LINE
  5
3A8
100
AcDbEntity
  8
RACCORDO
100
AcDbLine
 62
250
  6
CONTINUOUS
 10
-12.7404258696
 20
-66.0737947079
 11
-12.758964703
 21
-66.1560209995
  0
LINE
  5
3A9
100
AcDbEntity
  8
RACCORDO
100
AcDbLine
 62
250
  6
CONTINUOUS
 10
-12.758964703
 20
-66.1560209995
 11
-12.7769609612
 21
-66.2334618386
  0
LINE
  5
3AA
100
AcDbEntity
  8
RACCORDO
100
AcDbLine
 62
250
  6
CONTINUOUS
 10
-12.7769609612
 20
-66.2334618386
 11
-12.7944226371
 21
-66.3064280694
  0
LINE
  5
3AB
100
AcDbEntity
  8
RACCORDO
100
AcDbLine
 62
250
  6
CONTINUOUS
 10
-12.7944226371
 20
-66.3064280694
 11
-12.811357154
 21
-66.3751261724
  0
LINE
  5
3AC
100
AcDbEntity
  8
RACCORDO
100
AcDbLine
 62
250
  6
CONTINUOUS
 10
-12.811357154
 20
-66.3751261724
 11
-12.8277785822
 21
-66.4398651713
  0
LINE
  5
3AD
100
AcDbEntity
  8
RACCORDO
100
AcDbLine
 62
250
  6
CONTINUOUS
 10
-12.8277785822
 20
-66.4398651713
 11
-12.8437119681
 21
-66.5009545695
  0
LWPOLYLINE
  5
3AE
100
AcDbEntity
  8
RACCORDO
100
AcDbPolyline
 62
250
  6
CONTINUOUS
 90
3
 70
0
 10
-12.8437119681
 20
-66.5009545695
 10
-12.8591757738
 20
-66.5585979586
 10
-12.8667426098
 20
-66.5862404843
  0
LINE
  5
3AF
100
AcDbEntity
  8
RACCORDO
100
AcDbLine
 62
250
  6
CONTINUOUS
 10
-12.4123404837
 20
5.2979149721
 11
-12.1205655917
 21
5.2995765225
  0
LINE
  5
3B0
100
AcDbEntity
  8
RACCORDO
100
AcDbLine
 62
250
  6
CONTINUOUS
 10
-12.0694158209
 20
5.3
 11
12.7689884033
 21
5.300000461
  0
LINE
  5
3B1
100
AcDbEntity
  8
RACCORDO
100
AcDbLine
 62
250
  6
CONTINUOUS
 10
-12.6078902212
 20
5.2976941485
 11
-12.4123404837
 21
5.2979149721
  0
LINE
  5
3B2
100
AcDbEntity
  8
RACCORDO
100
AcDbLine
 62
250
  6
CONTINUOUS
 10
-12.6923318884
 20
5.2980938535
 11
-12.6078902212
 21
5.2976941485
  0
LWPOLYLINE
  5
3B3
100
AcDbEntity
  8
RACCORDO
100
AcDbPolyline
 62
250
  6
CONTINUOUS
 90
6
 70
0
 10
-12.76898075
 20
5.2999999906
 10
-12.7653292198
 20
5.2995945334
 10
-12.7579562515
 20
5.2992216437
 10
-12.7469012705
 20
5.2988833817
 10
-12.7322233866
 20
5.2985806755
 10
-12.6923318884
 20
5.2980938535
  0
LWPOLYLINE
  5
3B4
100
AcDbEntity
  8
RACCORDO
100
AcDbPolyline
 62
7
  6
CONTINUOUS
 90
34
 70
0
 10
-12.3170986076
 20
6.0081420421
 10
-12.3349226685
 20
6.0120436647
 10
-12.352648477
 20
6.0166725606
 10
-12.3701732272
 20
6.0219922525
 10
-12.3874546955
 20
6.0279760564
 10
-12.4044693224
 20
6.0346021159
 10
-12.4211660984
 20
6.0418359197
 10
-12.4375030084
 20
6.0496419268
 10
-12.4534872699
 20
6.0580069541
 10
-12.4690875182
 20
6.0668990206
 10
-12.4842728817
 20
6.0762830314
 10
-12.4990588126
 20
6.0861521058
 10
-12.5134222607
 20
6.0964758459
 10
-12.5273425655
 20
6.1072228297
 10
-12.5408406134
 20
6.118394292
 10
-12.5538992946
 20
6.1299630847
 10
-12.5665026013
 20
6.1419006568
 10
-12.5786712414
 20
6.1542141526
 10
-12.5904089147
 20
6.1668988513
 10
-12.6016828988
 20
6.1799096334
 10
-12.6124604505
 20
6.1931929888
 10
-12.6227388677
 20
6.2067262502
 10
-12.6325064803
 20
6.2204728473
 10
-12.6417249436
 20
6.2343498027
 10
-12.6503936052
 20
6.2483190939
 10
-12.6585175606
 20
6.2623489944
 10
-12.6660758072
 20
6.2763555084
 10
-12.673078346
 20
6.2903006256
 10
-12.6795354955
 20
6.3041438999
 10
-12.6854340384
 20
6.3177843052
 10
-12.690799743
 20
6.331198289
 10
-12.6956408008
 20
6.3443159601
 10
-12.69992967
 20
6.356944367
 10
-12.7036954219
 20
6.3690229033
  0
LWPOLYLINE
  5
3B5
100
AcDbEntity
  8
RACCORDO
100
AcDbPolyline
 62
250
  6
CONTINUOUS
 90
55
 70
0
 10
-12.1871927173
 20
5.9919253599
 10
-12.1827997413
 20
5.9902139688
 10
-12.1784995913
 20
5.988335232
 10
-12.1742920444
 20
5.986288385
 10
-12.1701773234
 20
5.9840729783
 10
-12.1661549343
 20
5.9816885249
 10
-12.1622251242
 20
5.9791346532
 10
-12.158387646
 20
5.9764108374
 10
-12.1546412644
 20
5.9735163839
 10
-12.1509860116
 20
5.9704508567
 10
-12.1474218554
 20
5.9672139518
 10
-12.143947464
 20
5.9638051642
 10
-12.1405628715
 20
5.9602241643
 10
-12.1372680439
 20
5.9564707741
 10
-12.1340615475
 20
5.952544753
 10
-12.1309434464
 20
5.9484459705
 10
-12.1279136766
 20
5.9441743447
 10
-12.1249706127
 20
5.9397297695
 10
-12.1221143677
 20
5.9351123091
 10
-12.1193448287
 20
5.930321993
 10
-12.1166600311
 20
5.9253587135
 10
-12.1140600593
 20
5.920222648
 10
-12.111544829
 20
5.9149139994
 10
-12.1091121232
 20
5.9094327338
 10
-12.1067620272
 20
5.9037791623
 10
-12.1044944557
 20
5.8979536489
 10
-12.1023069358
 20
5.8919562736
 10
-12.1001995531
 20
5.885787515
 10
-12.098172222
 20
5.8794478801
 10
-12.0962222127
 20
5.8729375272
 10
-12.0943496123
 20
5.8662570895
 10
-12.0925543336
 20
5.8594072378
 10
-12.0908333849
 20
5.8523882207
 10
-12.0891868575
 20
5.8452008465
 10
-12.0876146602
 20
5.8378459419
 10
-12.0861135276
 20
5.8303238155
 10
-12.0846835476
 20
5.8226354318
 10
-12.0833246324
 20
5.8147818005
 10
-12.0820332533
 20
5.8067633299
 10
-12.0808095052
 20
5.7985811779
 10
-12.0796532933
 20
5.7902365163
 10
-12.0785608041
 20
5.7817298069
 10
-12.0775321295
 20
5.7730623746
 10
-12.0765671776
 20
5.7642355899
 10
-12.075661859
 20
5.7552500161
 10
-12.074816273
 20
5.7461071864
 10
-12.0740303204
 20
5.7368086476
 10
-12.0732996137
 20
5.7273550188
 10
-12.0726242529
 20
5.7177480206
 10
-12.072004138
 20
5.7079894109
 10
-12.0714345825
 20
5.6980799027
 10
-12.0709156926
 20
5.6880214364
 10
-12.070447362
 20
5.6778159691
 10
-12.0700245847
 20
5.6674642815
 10
-12.0696474703
 20
5.6569685238
  0
LINE
  5
3B6
100
AcDbEntity
  8
RACCORDO
100
AcDbLine
 62
250
  6
CONTINUOUS
 10
-12.9968419247
 20
66.7359243834
 11
-12.9850402728
 21
66.6930096578
  0
LINE
  5
3B7
100
AcDbEntity
  8
RACCORDO
100
AcDbLine
 62
250
  6
CONTINUOUS
 10
-12.9850402728
 20
66.6930096578
 11
-12.9731401326
 21
66.6487678779
  0
LINE
  5
3B8
100
AcDbEntity
  8
RACCORDO
100
AcDbLine
 62
250
  6
CONTINUOUS
 10
-12.9731401326
 20
66.6487678779
 11
-12.9610920857
 21
66.6029944548
  0
LINE
  5
3B9
100
AcDbEntity
  8
RACCORDO
100
AcDbLine
 62
250
  6
CONTINUOUS
 10
-12.9610920857
 20
66.6029944548
 11
-12.9488259653
 21
66.5553819358
  0
LINE
  5
3BA
100
AcDbEntity
  8
RACCORDO
100
AcDbLine
 62
250
  6
CONTINUOUS
 10
-12.9488259653
 20
66.5553819358
 11
-12.9362821583
 21
66.5056215884
  0
LINE
  5
3BB
100
AcDbEntity
  8
RACCORDO
100
AcDbLine
 62
250
  6
CONTINUOUS
 10
-12.9362821583
 20
66.5056215884
 11
-12.9234228963
 21
66.4535074291
  0
LINE
  5
3BC
100
AcDbEntity
  8
RACCORDO
100
AcDbLine
 62
250
  6
CONTINUOUS
 10
-12.9234228963
 20
66.4535074291
 11
-12.910194745
 21
66.3987300805
  0
LINE
  5
3BD
100
AcDbEntity
  8
RACCORDO
100
AcDbLine
 62
250
  6
CONTINUOUS
 10
-12.910194745
 20
66.3987300805
 11
-12.8965534247
 21
66.3409791657
  0
LINE
  5
3BE
100
AcDbEntity
  8
RACCORDO
100
AcDbLine
 62
250
  6
CONTINUOUS
 10
-12.8965534247
 20
66.3409791657
 11
-12.8824712006
 21
66.2800476397
  0
LINE
  5
3BF
100
AcDbEntity
  8
RACCORDO
100
AcDbLine
 62
250
  6
CONTINUOUS
 10
-12.8824712006
 20
66.2800476397
 11
-12.8679093077
 21
66.2156245593
  0
LINE
  5
3C0
100
AcDbEntity
  8
RACCORDO
100
AcDbLine
 62
250
  6
CONTINUOUS
 10
-12.8679093077
 20
66.2156245593
 11
-12.8528372655
 21
66.1473979403
  0
LINE
  5
3C1
100
AcDbEntity
  8
RACCORDO
100
AcDbLine
 62
250
  6
CONTINUOUS
 10
-12.8528372655
 20
66.1473979403
 11
-12.837236399
 21
66.0751596776
  0
LINE
  5
3C2
100
AcDbEntity
  8
RACCORDO
100
AcDbLine
 62
250
  6
CONTINUOUS
 10
-12.837236399
 20
66.0751596776
 11
-12.821081276
 21
65.9985971545
  0
LINE
  5
3C3
100
AcDbEntity
  8
RACCORDO
100
AcDbLine
 62
250
  6
CONTINUOUS
 10
-13.3397147565
 20
67.2215487518
 11
-13.3328871966
 21
67.189334487
  0
LINE
  5
3C4
100
AcDbEntity
  8
RACCORDO
100
AcDbLine
 62
250
  6
CONTINUOUS
 10
-12.821081276
 20
65.9985971545
 11
-12.8043541296
 21
65.9173964702
  0
LINE
  5
3C5
100
AcDbEntity
  8
RACCORDO
100
AcDbLine
 62
250
  6
CONTINUOUS
 10
12.624390663
 20
-65.4986030451
 11
12.5960736246
 21
-65.3411014328
  0
LINE
  5
3C6
100
AcDbEntity
  8
RACCORDO
100
AcDbLine
 62
250
  6
CONTINUOUS
 10
12.5960736246
 20
-65.3411014328
 11
12.5675742231
 21
-65.1749984423
  0
LINE
  5
3C7
100
AcDbEntity
  8
RACCORDO
100
AcDbLine
 62
250
  6
CONTINUOUS
 10
13.245473855
 20
-66.9091374444
 11
13.2333545334
 21
-66.8383706267
  0
LINE
  5
3C8
100
AcDbEntity
  8
RACCORDO
100
AcDbLine
 62
250
  6
CONTINUOUS
 10
12.5675742231
 20
-65.1749984423
 11
12.5389723686
 21
-65.0003186897
  0
LINE
  5
3C9
100
AcDbEntity
  8
RACCORDO
100
AcDbLine
 62
250
  6
CONTINUOUS
 10
13.2333545334
 20
-66.8383706267
 11
13.2212215829
 21
-66.7638145387
  0
LINE
  5
3CA
100
AcDbEntity
  8
RACCORDO
100
AcDbLine
 62
250
  6
CONTINUOUS
 10
12.5389723686
 20
-65.0003186897
 11
12.5103991666
 21
-64.8172109088
  0
LINE
  5
3CB
100
AcDbEntity
  8
RACCORDO
100
AcDbLine
 62
250
  6
CONTINUOUS
 10
13.2212215829
 20
-66.7638145387
 11
13.2090437114
 21
-66.6851749464
  0
LINE
  5
3CC
100
AcDbEntity
  8
RACCORDO
100
AcDbLine
 62
250
  6
CONTINUOUS
 10
12.5103991666
 20
-64.8172109088
 11
12.4818637894
 21
-64.6249849336
  0
LINE
  5
3CD
100
AcDbEntity
  8
RACCORDO
100
AcDbLine
 62
250
  6
CONTINUOUS
 10
13.2090437114
 20
-66.6851749464
 11
13.1968057604
 21
-66.6022577197
  0
LWPOLYLINE
  5
3CE
100
AcDbEntity
  8
RACCORDO
100
AcDbPolyline
 62
7
  6
CONTINUOUS
 90
10
 70
0
 10
13.4933043475
 20
-67.6038208694
 10
13.493748583
 20
-67.6069282864
 10
13.4939886491
 20
-67.6104921787
 10
13.4940245456
 20
-67.614512545
 10
13.4937275313
 20
-67.619129809
 10
13.4932263476
 20
-67.624203544
 10
13.4929072178
 20
-67.6293124744
 10
13.4928988834
 20
-67.6343161755
 10
13.4930726031
 20
-67.6393550722
 10
13.4934283768
 20
-67.6444291641
  0
LINE
  5
3CF
100
AcDbEntity
  8
RACCORDO
100
AcDbLine
 62
250
  6
CONTINUOUS
 10
12.4818637894
 20
-64.6249849336
 11
12.4533705428
 21
-64.4230703356
  0
LINE
  5
3D0
100
AcDbEntity
  8
RACCORDO
100
AcDbLine
 62
250
  6
CONTINUOUS
 10
13.1968057604
 20
-66.6022577197
 11
13.1844854651
 21
-66.5147727654
  0
LINE
  5
3D1
100
AcDbEntity
  8
RACCORDO
100
AcDbLine
 62
250
  6
CONTINUOUS
 10
13.1844854651
 20
-66.5147727654
 11
13.1720707175
 21
-66.4224509313
  0
LINE
  5
3D2
100
AcDbEntity
  8
RACCORDO
100
AcDbLine
 62
250
  6
CONTINUOUS
 10
12.4533705428
 20
-64.4230703356
 11
12.4248920669
 21
-64.2103012786
  0
LINE
  5
3D3
100
AcDbEntity
  8
RACCORDO
100
AcDbLine
 62
250
  6
CONTINUOUS
 10
13.1720707175
 20
-66.4224509313
 11
13.1595562158
 21
-66.3250871046
  0
LINE
  5
3D4
100
AcDbEntity
  8
RACCORDO
100
AcDbLine
 62
250
  6
CONTINUOUS
 10
12.4248920669
 20
-64.2103012786
 11
12.3964736404
 21
-63.9855791066
  0
LWPOLYLINE
  5
3D5
100
AcDbEntity
  8
RACCORDO
100
AcDbPolyline
 62
250
  6
CONTINUOUS
 90
3
 70
0
 10
13.1595562158
 20
-66.3250871046
 10
13.1469299148
 20
-66.2223705522
 10
13.1405648046
 20
-66.1688323768
  0
LINE
  5
3D6
100
AcDbEntity
  8
RACCORDO
100
AcDbLine
 62
250
  6
CONTINUOUS
 10
12.3964736404
 20
-63.9855791066
 11
12.3681601219
 21
-63.7481760272
  0
LINE
  5
3D7
100
AcDbEntity
  8
RACCORDO
100
AcDbLine
 62
250
  6
CONTINUOUS
 10
12.3681601219
 20
-63.7481760272
 11
12.3400368362
 21
-63.4969798115
  0
LINE
  5
3D8
100
AcDbEntity
  8
RACCORDO
100
AcDbLine
 62
250
  6
CONTINUOUS
 10
13.1212482771
 20
-65.9990156833
 11
13.1081625597
 21
-65.8774918272
  0
LINE
  5
3D9
100
AcDbEntity
  8
RACCORDO
100
AcDbLine
 62
250
  6
CONTINUOUS
 10
12.3400368362
 20
-63.4969798115
 11
12.3122735304
 21
-63.2309842769
  0
LINE
  5
3DA
100
AcDbEntity
  8
RACCORDO
100
AcDbLine
 62
250
  6
CONTINUOUS
 10
13.1081625597
 20
-65.8774918272
 11
13.0948942362
 21
-65.7486766399
  0
LINE
  5
3DB
100
AcDbEntity
  8
RACCORDO
100
AcDbLine
 62
250
  6
CONTINUOUS
 10
13.0948942362
 20
-65.7486766399
 11
13.0814486884
 21
-65.6122154644
  0
LINE
  5
3DC
100
AcDbEntity
  8
RACCORDO
100
AcDbLine
 62
250
  6
CONTINUOUS
 10
12.3122735304
 20
-63.2309842769
 11
12.2850096254
 21
-62.9496274541
  0
LINE
  5
3DD
100
AcDbEntity
  8
RACCORDO
100
AcDbLine
 62
250
  6
CONTINUOUS
 10
13.0814486884
 20
-65.6122154644
 11
13.0609504702
 21
-65.3920439712
  0
LINE
  5
3DE
100
AcDbEntity
  8
RACCORDO
100
AcDbLine
 62
250
  6
CONTINUOUS
 10
12.2850096254
 20
-62.9496274541
 11
12.2584935724
 21
-62.6522255233
  0
LINE
  5
3DF
100
AcDbEntity
  8
RACCORDO
100
AcDbLine
 62
250
  6
CONTINUOUS
 10
13.0609504702
 20
-65.3920439712
 11
13.0401470211
 21
-65.1525913183
  0
LWPOLYLINE
  5
3E0
100
AcDbEntity
  8
RACCORDO
100
AcDbPolyline
 62
250
  6
CONTINUOUS
 90
3
 70
0
 10
12.2584935724
 20
-62.6522255233
 10
12.2330566009
 20
-62.338156868
 10
12.2207822342
 20
-62.1747974062
  0
LINE
  5
3E1
100
AcDbEntity
  8
RACCORDO
100
AcDbLine
 62
250
  6
CONTINUOUS
 10
13.0401470211
 20
-65.1525913183
 11
13.0192271671
 21
-64.8940632329
  0
LINE
  5
3E2
100
AcDbEntity
  8
RACCORDO
100
AcDbLine
 62
250
  6
CONTINUOUS
 10
13.0192271671
 20
-64.8940632329
 11
12.998349207
 21
-64.6164084441
  0
LINE
  5
3E3
100
AcDbEntity
  8
RACCORDO
100
AcDbLine
 62
250
  6
CONTINUOUS
 10
12.998349207
 20
-64.6164084441
 11
12.9775456642
 21
-64.3177225744
  0
LWPOLYLINE
  5
3E4
100
AcDbEntity
  8
RACCORDO
100
AcDbPolyline
 62
250
  6
CONTINUOUS
 90
12
 70
0
 10
12.2207822342
 20
-62.1747974062
 10
12.1975195516
 20
-61.8347432542
 10
12.1865312359
 20
-61.6580547945
 10
12.1761292241
 20
-61.4762361999
 10
12.166289886
 20
-61.2893594132
 10
12.1570368518
 20
-61.0973606774
 10
12.1485961122
 20
-60.8993898842
 10
12.1409279014
 20
-60.6954505848
 10
12.1340719851
 20
-60.4855502376
 10
12.1283736508
 20
-60.2688463454
 10
12.1239479945
 20
-60.0450632542
 10
12.1206799202
 20
-59.8144914143
  0
LINE
  5
3E5
100
AcDbEntity
  8
RACCORDO
100
AcDbLine
 62
250
  6
CONTINUOUS
 10
12.9775456642
 20
-64.3177225744
 11
12.9568054792
 21
-63.9947118511
  0
LINE
  5
3E6
100
AcDbEntity
  8
RACCORDO
100
AcDbLine
 62
250
  6
CONTINUOUS
 10
12.9568054792
 20
-63.9947118511
 11
12.9361951157
 21
-63.6441313456
  0
LINE
  5
3E7
100
AcDbEntity
  8
RACCORDO
100
AcDbLine
 62
250
  6
CONTINUOUS
 10
12.9361951157
 20
-63.6441313456
 11
12.9158619564
 21
-63.2627645229
  0
LWPOLYLINE
  5
3E8
100
AcDbEntity
  8
RACCORDO
100
AcDbPolyline
 62
250
  6
CONTINUOUS
 90
3
 70
0
 10
12.9158619564
 20
-63.2627645229
 10
12.8960561992
 20
-62.847704622
 10
12.8896331299
 20
-62.7014764923
  0
LINE
  5
3E9
100
AcDbEntity
  8
RACCORDO
100
AcDbLine
 62
250
  6
CONTINUOUS
 10
12.8999042824
 20
62.1128415106
 11
12.918157451
 21
62.5089041407
  0
LINE
  5
3EA
100
AcDbEntity
  8
RACCORDO
100
AcDbLine
 62
250
  6
CONTINUOUS
 10
12.918157451
 20
62.5089041407
 11
12.9458311258
 21
63.0478182465
  0
LINE
  5
3EB
100
AcDbEntity
  8
RACCORDO
100
AcDbLine
 62
250
  6
CONTINUOUS
 10
12.7540989439
 20
50.9901400814
 11
12.755460654
 21
51.0158255903
  0
LINE
  5
3EC
100
AcDbEntity
  8
RACCORDO
100
AcDbLine
 62
250
  6
CONTINUOUS
 10
12.9458311258
 20
63.0478182465
 11
12.97333517
 21
63.5285397981
  0
LINE
  5
3ED
100
AcDbEntity
  8
RACCORDO
100
AcDbLine
 62
250
  6
CONTINUOUS
 10
12.7527141477
 20
50.9663060843
 11
12.7540989439
 21
50.9901400814
  0
LINE
  5
3EE
100
AcDbEntity
  8
RACCORDO
100
AcDbLine
 62
250
  6
CONTINUOUS
 10
12.97333517
 20
63.5285397981
 11
13.0003171267
 21
63.958790238
  0
LINE
  5
3EF
100
AcDbEntity
  8
RACCORDO
100
AcDbLine
 62
250
  6
CONTINUOUS
 10
12.7513084
 20
50.9443352045
 11
12.7527141477
 21
50.9663060843
  0
LINE
  5
3F0
100
AcDbEntity
  8
RACCORDO
100
AcDbLine
 62
250
  6
CONTINUOUS
 10
13.0003171267
 20
63.958790238
 11
13.0265673746
 21
64.3448514887
  0
LINE
  5
3F1
100
AcDbEntity
  8
RACCORDO
100
AcDbLine
 62
250
  6
CONTINUOUS
 10
13.0265673746
 20
64.3448514887
 11
13.0519659752
 21
64.6919205149
  0
LINE
  5
3F2
100
AcDbEntity
  8
RACCORDO
100
AcDbLine
 62
250
  6
CONTINUOUS
 10
13.0519659752
 20
64.6919205149
 11
13.0764519242
 21
65.0043806181
  0
LINE
  5
3F3
100
AcDbEntity
  8
RACCORDO
100
AcDbLine
 62
250
  6
CONTINUOUS
 10
13.0764519242
 20
65.0043806181
 11
13.100000648
 21
65.285951278
  0
LINE
  5
3F4
100
AcDbEntity
  8
RACCORDO
100
AcDbLine
 62
250
  6
CONTINUOUS
 10
13.100000648
 20
65.285951278
 11
13.1226116611
 21
65.5398323332
  0
LINE
  5
3F5
100
AcDbEntity
  8
RACCORDO
100
AcDbLine
 62
250
  6
CONTINUOUS
 10
13.1226116611
 20
65.5398323332
 11
13.1443000695
 21
65.768804167
  0
LWPOLYLINE
  5
3F6
100
AcDbEntity
  8
RACCORDO
100
AcDbPolyline
 62
250
  6
CONTINUOUS
 90
3
 70
0
 10
12.2891847657
 20
62.197609665
 10
12.3269030938
 20
62.592451689
 10
12.3458440341
 20
62.7786975077
  0
LINE
  5
3F7
100
AcDbEntity
  8
RACCORDO
100
AcDbLine
 62
250
  6
CONTINUOUS
 10
13.1443000695
 20
65.768804167
 11
13.165090941
 21
65.9753037205
  0
LINE
  5
3F8
100
AcDbEntity
  8
RACCORDO
100
AcDbLine
 62
250
  6
CONTINUOUS
 10
13.165090941
 20
65.9753037205
 11
13.1850156555
 21
66.1614840113
  0
LINE
  5
3F9
100
AcDbEntity
  8
RACCORDO
100
AcDbLine
 62
250
  6
CONTINUOUS
 10
12.3458440341
 20
62.7786975077
 11
12.3838191809
 21
63.1296842914
  0
LWPOLYLINE
  5
3FA
100
AcDbEntity
  8
RACCORDO
100
AcDbPolyline
 62
250
  6
CONTINUOUS
 90
3
 70
0
 10
13.1850156555
 20
66.1614840113
 10
13.1978337945
 20
66.275252242
 10
13.2041093114
 20
66.3292588046
  0
LINE
  5
3FB
100
AcDbEntity
  8
RACCORDO
100
AcDbLine
 62
250
  6
CONTINUOUS
 10
-12.8667426098
 20
-66.5862404843
 11
-12.8815620584
 21
-66.6392679765
  0
LINE
  5
3FC
100
AcDbEntity
  8
RACCORDO
100
AcDbLine
 62
250
  6
CONTINUOUS
 10
-12.8815620584
 20
-66.6392679765
 11
-12.8959969827
 21
-66.6895546849
  0
LINE
  5
3FD
100
AcDbEntity
  8
RACCORDO
100
AcDbLine
 62
250
  6
CONTINUOUS
 10
-12.8959969827
 20
-66.6895546849
 11
-12.9100996082
 21
-66.7374016006
  0
LINE
  5
3FE
100
AcDbEntity
  8
RACCORDO
100
AcDbLine
 62
250
  6
CONTINUOUS
 10
-12.9100996082
 20
-66.7374016006
 11
-12.9239073378
 21
-66.78300804
  0
LINE
  5
3FF
100
AcDbEntity
  8
RACCORDO
100
AcDbLine
 62
250
  6
CONTINUOUS
 10
-12.9239073378
 20
-66.78300804
 11
-12.9374798767
 21
-66.8266713769
  0
LWPOLYLINE
  5
400
100
AcDbEntity
  8
RACCORDO
100
AcDbPolyline
 62
7
  6
CONTINUOUS
 90
37
 70
0
 10
12.7025400928
 20
6.3652037675
 10
12.6984395819
 20
6.3524347672
 10
12.6937381973
 20
6.3390312586
 10
12.6885056261
 20
6.3253324574
 10
12.6827559914
 20
6.3114612109
 10
12.6764496996
 20
6.2973991028
 10
12.6695982087
 20
6.2832432411
 10
12.6621942912
 20
6.2690380706
 10
12.6542286562
 20
6.2548201811
 10
12.6457138141
 20
6.2406589331
 10
12.6366449843
 20
6.2265868476
 10
12.6270230195
 20
6.2126425854
 10
12.6168743509
 20
6.1988950394
 10
12.6062067777
 20
6.1853791287
 10
12.5950245373
 20
6.1721225116
 10
12.5833547108
 20
6.1591759195
 10
12.5712270616
 20
6.1465854041
 10
12.5586384463
 20
6.1343592757
 10
12.5455673786
 20
6.122492081
 10
12.5320282329
 20
6.1110141989
 10
12.5180380858
 20
6.0999559211
 10
12.503577827
 20
6.0893195788
 10
12.4886677299
 20
6.0791389972
 10
12.4733308099
 20
6.069447131
 10
12.457554288
 20
6.0602543353
 10
12.4413691182
 20
6.0515979419
 10
12.4248075703
 20
6.0435124596
 10
12.4078667859
 20
6.0360145033
 10
12.390591083
 20
6.0291420389
 10
12.3730318044
 20
6.0229310175
 10
12.3552145266
 20
6.0174050206
 10
12.3371823208
 20
6.012592081
 10
12.3190419138
 20
6.0085309203
 10
12.3009480865
 20
6.0052555897
 10
12.2829918447
 20
6.0027730077
 10
12.2653134002
 20
6.0010858512
 10
12.2481964334
 20
6.0001858117
  0
LINE
  5
401
100
AcDbEntity
  8
RACCORDO
100
AcDbLine
 62
250
  6
CONTINUOUS
 10
-12.9374798767
 20
-66.8266713769
 11
-12.9508905787
 21
-66.8686858761
  0
LINE
  5
402
100
AcDbEntity
  8
RACCORDO
100
AcDbLine
 62
250
  6
CONTINUOUS
 10
-12.9508905787
 20
-66.8686858761
 11
-12.9641917248
 21
-66.9092468353
  0
LINE
  5
403
100
AcDbEntity
  8
RACCORDO
100
AcDbLine
 62
250
  6
CONTINUOUS
 10
-12.9641917248
 20
-66.9092468353
 11
-12.9774661456
 21
-66.9486461946
  0
LWPOLYLINE
  5
404
100
AcDbEntity
  8
RACCORDO
100
AcDbPolyline
 62
250
  6
CONTINUOUS
 90
52
 70
0
 10
-12.9774661456
 20
-66.9486461946
 10
-12.9908136234
 20
-66.9871709279
 10
-12.997526839
 20
-67.0061412752
 10
-13.0043062355
 20
-67.0250131237
 10
-13.011150406
 20
-67.0437895856
 10
-13.0180607575
 20
-67.0624675419
 10
-13.0250806784
 20
-67.0811338119
 10
-13.0322191382
 20
-67.0998175526
 10
-13.0394671675
 20
-67.1184896053
 10
-13.0468412466
 20
-67.1371493182
 10
-13.0543532104
 20
-67.155826677
 10
-13.061991224
 20
-67.1744916942
 10
-13.0697362635
 20
-67.1930537557
 10
-13.0775916401
 20
-67.2115167529
 10
-13.0855540426
 20
-67.2298767878
 10
-13.0935945133
 20
-67.2480315569
 10
-13.1017146516
 20
-67.2659789741
 10
-13.1099128582
 20
-67.2837211143
 10
-13.1181553766
 20
-67.3011619115
 10
-13.1264450163
 20
-67.3183001034
 10
-13.1347789678
 20
-67.3351369375
 10
-13.1431150472
 20
-67.3515801089
 10
-13.1514569393
 20
-67.3676277967
 10
-13.1598009592
 20
-67.3832818043
 10
-13.1680938692
 20
-67.3984552606
 10
-13.1763318011
 20
-67.4131325502
 10
-13.1845186229
 20
-67.4273292695
 10
-13.1926127008
 20
-67.4410053626
 10
-13.2006014341
 20
-67.4541362112
 10
-13.2084974234
 20
-67.4667464155
 10
-13.2162968368
 20
-67.4788697481
 10
-13.2239940337
 20
-67.4904989647
 10
-13.2315946546
 20
-67.5016412948
 10
-13.2391117901
 20
-67.5123522235
 10
-13.2465443539
 20
-67.5226331754
 10
-13.2538934322
 20
-67.5324827146
 10
-13.261175374
 20
-67.5419520357
 10
-13.268388463
 20
-67.5510423273
 10
-13.2755344155
 20
-67.5597523922
 10
-13.2826347292
 20
-67.5681298479
 10
-13.2896914769
 20
-67.5761801927
 10
-13.2967025858
 20
-67.5838979217
 10
-13.3036833348
 20
-67.591314149
 10
-13.3106426801
 20
-67.5984386284
 10
-13.3175716656
 20
-67.605261601
 10
-13.3244587025
 20
-67.6117849118
 10
-13.3313177488
 20
-67.6180168148
 10
-13.3381348465
 20
-67.6239490515
 10
-13.3448565325
 20
-67.629558699
 10
-13.351464986
 20
-67.6348381148
 10
-13.3579780278
 20
-67.6397949371
 10
-13.3643956579
 20
-67.644429164
  0
LINE
  5
405
100
AcDbEntity
  8
RACCORDO
100
AcDbLine
 62
7
  6
CONTINUOUS
 10
12.2481964334
 20
6.0001858117
 11
12.2363444891
 21
5.9999999907
  0
LINE
  5
406
100
AcDbEntity
  8
RACCORDO
100
AcDbLine
 62
250
  6
CONTINUOUS
 10
-12.1205655917
 20
5.2995765225
 11
-12.0694158209
 21
5.3
  0
LINE
  5
407
100
AcDbEntity
  8
RACCORDO
100
AcDbLine
 62
7
  6
CONTINUOUS
 10
-12.2362857584
 20
6.0
 11
12.2362857425
 21
6.0
  0
LINE
  5
408
100
AcDbEntity
  8
RACCORDO
100
AcDbLine
 62
250
  6
CONTINUOUS
 10
-12.7180697434
 20
6.4608169811
 11
-12.7177651626
 21
6.4608169811
  0
LINE
  5
409
100
AcDbEntity
  8
RACCORDO
100
AcDbLine
 62
250
  6
CONTINUOUS
 10
12.7180697434
 20
6.4608169965
 11
12.7177651617
 21
6.4608170139
  0
LWPOLYLINE
  5
40A
100
AcDbEntity
  8
RACCORDO
100
AcDbPolyline
 62
7
  6
CONTINUOUS
 90
6
 70
0
 10
-12.2363407496
 20
5.9999999919
 10
-12.2474961276
 20
6.0001647247
 10
-12.2643191371
 20
6.0010136065
 10
-12.2816851537
 20
6.0026224205
 10
-12.2993233476
 20
6.0049993897
 10
-12.3170986076
 20
6.0081420421
  0
LWPOLYLINE
  5
40B
100
AcDbEntity
  8
RACCORDO
100
AcDbPolyline
 62
250
  6
CONTINUOUS
 90
11
 70
0
 10
-12.2362857584
 20
6.0
 10
-12.2309601647
 20
5.9999207268
 10
-12.2257261356
 20
5.9996821541
 10
-12.2205836712
 20
5.9992831773
 10
-12.2155317365
 20
5.9987226139
 10
-12.2105713664
 20
5.9979994859
 10
-12.2057056654
 20
5.9971133042
 10
-12.2009358953
 20
5.9960636078
 10
-12.1962607943
 20
5.9948495561
 10
-12.1916796815
 20
5.9934703434
 10
-12.1871927173
 20
5.9919253599
  0
LINE
  5
40C
100
AcDbEntity
  8
RACCORDO
100
AcDbLine
 62
250
  6
CONTINUOUS
 10
-13.0828751448
 20
67.0198553879
 11
-13.0699093405
 21
66.9803402342
  0
LINE
  5
40D
100
AcDbEntity
  8
RACCORDO
100
AcDbLine
 62
250
  6
CONTINUOUS
 10
-13.0699093405
 20
66.9803402342
 11
-13.0571713601
 21
66.9403799947
  0
LINE
  5
40E
100
AcDbEntity
  8
RACCORDO
100
AcDbLine
 62
250
  6
CONTINUOUS
 10
-13.0571713601
 20
66.9403799947
 11
-13.0446906426
 21
66.9001469357
  0
LINE
  5
40F
100
AcDbEntity
  8
RACCORDO
100
AcDbLine
 62
250
  6
CONTINUOUS
 10
-13.0446906426
 20
66.9001469357
 11
-13.0324659641
 21
66.8596853848
  0
LINE
  5
410
100
AcDbEntity
  8
RACCORDO
100
AcDbLine
 62
250
  6
CONTINUOUS
 10
-13.0324659641
 20
66.8596853848
 11
-13.0204767336
 21
66.8190076686
  0
LINE
  5
411
100
AcDbEntity
  8
RACCORDO
100
AcDbLine
 62
250
  6
CONTINUOUS
 10
-13.0204767336
 20
66.8190076686
 11
-13.008622104
 21
66.777816763
  0
LINE
  5
412
100
AcDbEntity
  8
RACCORDO
100
AcDbLine
 62
250
  6
CONTINUOUS
 10
-13.008622104
 20
66.777816763
 11
-12.9968419247
 21
66.7359243834
  0
LWPOLYLINE
  5
413
100
AcDbEntity
  8
RACCORDO
100
AcDbPolyline
 62
250
  6
CONTINUOUS
 90
3
 70
0
 10
13.1405648046
 20
-66.1688323768
 10
13.1277285904
 20
-66.0572478879
 10
13.1212482771
 20
-65.9990156833
  0
LINE
  5
414
100
AcDbEntity
  8
RACCORDO
100
AcDbLine
 62
7
  6
CONTINUOUS
 10
12.7177749797
 20
-6.4316086605
 11
12.7177707728
 21
-6.4315702876
  0
LWPOLYLINE
  5
415
100
AcDbEntity
  8
RACCORDO
100
AcDbPolyline
 62
250
  6
CONTINUOUS
 90
5
 70
0
 10
12.7203621498
 20
-6.4843714622
 10
12.7209815607
 20
-6.490180738
 10
12.7216080688
 20
-6.4956202978
 10
12.722241674
 20
-6.5006901416
 10
12.7228827682
 20
-6.5053965646
  0
LWPOLYLINE
  5
416
100
AcDbEntity
  8
RACCORDO
100
AcDbPolyline
 62
250
  6
CONTINUOUS
 90
6
 70
0
 10
12.7416875713
 20
6.4766595803
 10
12.7409765433
 20
6.4834440771
 10
12.7402637929
 20
6.489775333
 10
12.7395493197
 20
6.4956540133
 10
12.7388341742
 20
6.5010814437
 10
12.7381183534
 20
6.5060569658
  0
LINE
  5
417
100
AcDbEntity
  8
RACCORDO
100
AcDbLine
 62
250
  6
CONTINUOUS
 10
12.7199891798
 20
-6.4807197725
 11
12.7203621498
 21
-6.4843714622
  0
LINE
  5
418
100
AcDbEntity
  8
RACCORDO
100
AcDbLine
 62
250
  6
CONTINUOUS
 10
12.7180697434
 20
-6.4608640091
 11
12.7199891798
 21
-6.4807197725
  0
LINE
  5
419
100
AcDbEntity
  8
RACCORDO
100
AcDbLine
 62
250
  6
CONTINUOUS
 10
12.7193653298
 20
-6.4494468891
 11
12.7177749797
 21
-6.4316086605
  0
LWPOLYLINE
  5
41A
100
AcDbEntity
  8
RACCORDO
100
AcDbPolyline
 62
250
  6
CONTINUOUS
 90
4
 70
0
 10
12.7438071637
 20
6.4535919606
 10
12.7431034071
 20
6.4617335304
 10
12.7423968764
 20
6.4694225078
 10
12.7416875713
 20
6.4766595803
  0
LINE
  5
41B
100
AcDbEntity
  8
RACCORDO
100
AcDbLine
 62
250
  6
CONTINUOUS
 10
12.7445081458
 20
6.4449984859
 11
12.7438071637
 21
6.4535919606
  0
LINE
  5
41C
100
AcDbEntity
  8
RACCORDO
100
AcDbLine
 62
250
  6
CONTINUOUS
 10
12.745898626
 20
6.4264633627
 11
12.7445081458
 21
6.4449984859
  0
LINE
  5
41D
100
AcDbEntity
  8
RACCORDO
100
AcDbLine
 62
7
  6
CONTINUOUS
 10
12.7163240951
 20
-6.4222405695
 11
12.7172049556
 21
-6.435063426
  0
LINE
  5
41E
100
AcDbEntity
  8
RACCORDO
100
AcDbLine
 62
250
  6
CONTINUOUS
 10
12.7472727507
 20
6.4061356048
 11
12.745898626
 21
6.4264633627
  0
LWPOLYLINE
  5
41F
100
AcDbEntity
  8
RACCORDO
100
AcDbPolyline
 62
250
  6
CONTINUOUS
 90
3
 70
0
 10
12.749296358
 20
6.3723152198
 10
12.7486273818
 20
6.3840286934
 10
12.7472727507
 20
6.4061356048
  0
LINE
  5
420
100
AcDbEntity
  8
RACCORDO
100
AcDbLine
 62
250
  6
CONTINUOUS
 10
12.7519101544
 20
6.3211059552
 11
12.749296358
 21
6.3723152198
  0
LWPOLYLINE
  5
421
100
AcDbEntity
  8
RACCORDO
100
AcDbPolyline
 62
250
  6
CONTINUOUS
 90
13
 70
0
 10
12.7555786615
 20
-51.0112739313
 10
12.7533792102
 20
-50.9632628041
 10
12.7510815701
 20
-50.9187402293
 10
12.7487075296
 20
-50.8781272712
 10
12.7462568025
 20
-50.8414624605
 10
12.7437296749
 20
-50.8087072664
 10
12.7411487936
 20
-50.7801671613
 10
12.7385119609
 20
-50.7558719078
 10
12.7358213744
 20
-50.7357917431
 10
12.733106274
 20
-50.7201428515
 10
12.7303764064
 20
-50.7089972946
 10
12.7276220249
 20
-50.7022830107
 10
12.7248431295
 20
-50.7
  0
LINE
  5
422
100
AcDbEntity
  8
RACCORDO
100
AcDbLine
 62
250
  6
CONTINUOUS
 10
12.753795634
 20
6.2782146589
 11
12.7519101544
 21
6.3211059552
  0
LINE
  5
423
100
AcDbEntity
  8
RACCORDO
100
AcDbLine
 62
250
  6
CONTINUOUS
 10
12.7168301366
 20
-6.4296071133
 11
12.7180695957
 21
-6.4608624168
  0
LINE
  5
424
100
AcDbEntity
  8
RACCORDO
100
AcDbLine
 62
250
  6
CONTINUOUS
 10
12.8896331299
 20
-62.7014764923
 11
12.8711395395
 21
-62.2383341656
  0
LINE
  5
425
100
AcDbEntity
  8
RACCORDO
100
AcDbLine
 62
250
  6
CONTINUOUS
 10
12.7556070072
 20
6.2315881987
 11
12.753795634
 21
6.2782146589
  0
LINE
  5
426
100
AcDbEntity
  8
RACCORDO
100
AcDbLine
 62
250
  6
CONTINUOUS
 10
12.7176512367
 20
50.9550120912
 11
12.718069477
 21
50.9436920559
  0
LINE
  5
427
100
AcDbEntity
  8
RACCORDO
100
AcDbLine
 62
250
  6
CONTINUOUS
 10
12.7596816129
 20
-51.1178445801
 11
12.7555786615
 21
-51.0112739313
  0
LINE
  5
428
100
AcDbEntity
  8
RACCORDO
100
AcDbLine
 62
250
  6
CONTINUOUS
 10
12.7578922705
 20
6.1638051163
 11
12.7556070072
 21
6.2315881987
  0
LINE
  5
429
100
AcDbEntity
  8
RACCORDO
100
AcDbLine
 62
250
  6
CONTINUOUS
 10
12.8711395395
 20
-62.2383341656
 11
12.8542206608
 21
-61.736891325
  0
LWPOLYLINE
  5
42A
100
AcDbEntity
  8
RACCORDO
100
AcDbPolyline
 62
250
  6
CONTINUOUS
 90
22
 70
0
 10
12.0706515897
 20
-51.839662994
 10
12.0695490546
 20
-51.8032710438
 10
12.068301134
 20
-51.7678368166
 10
12.066920457
 20
-51.733479905
 10
12.0654063082
 20
-51.7003176083
 10
12.0637594031
 20
-51.6684463253
 10
12.0619945172
 20
-51.6379500448
 10
12.0601099886
 20
-51.608919234
 10
12.0581074792
 20
-51.5814573423
 10
12.0560067504
 20
-51.5556616412
 10
12.0538071233
 20
-51.531617696
 10
12.0515092768
 20
-51.5093986178
 10
12.0491350091
 20
-51.4890735155
 10
12.0466840618
 20
-51.4707104717
 10
12.0441566934
 20
-51.454365058
 10
12.0415754774
 20
-51.4400822323
 10
12.0389380074
 20
-51.4279039417
 10
12.0362466898
 20
-51.4178836886
 10
12.0335313181
 20
-51.4100675801
 10
12.0308018233
 20
-51.4044770424
 10
12.0280482743
 20
-51.4011196054
 10
12.0252706711
 20
-51.4000000002
  0
LWPOLYLINE
  5
42B
100
AcDbEntity
  8
RACCORDO
100
AcDbPolyline
 62
250
  6
CONTINUOUS
 90
3
 70
0
 10
12.7257470562
 20
50.864602547
 10
12.7246078336
 20
50.9034897504
 10
12.721975504
 20
50.9307161368
  0
LINE
  5
42C
100
AcDbEntity
  8
RACCORDO
100
AcDbLine
 62
250
  6
CONTINUOUS
 10
12.7633310688
 20
-51.2367438382
 11
12.7596816129
 21
-51.1178445801
  0
LINE
  5
42D
100
AcDbEntity
  8
RACCORDO
100
AcDbLine
 62
250
  6
CONTINUOUS
 10
12.7203622453
 20
-6.4843715488
 11
12.7193653298
 21
-6.4494468891
  0
LINE
  5
42E
100
AcDbEntity
  8
RACCORDO
100
AcDbLine
 62
250
  6
CONTINUOUS
 10
12.0698124578
 20
-5.6567039413
 11
12.0691751582
 21
-5.6352890488
  0
LINE
  5
42F
100
AcDbEntity
  8
RACCORDO
100
AcDbLine
 62
250
  6
CONTINUOUS
 10
12.8542206608
 20
-61.736891325
 11
12.844117496
 21
-61.3798809569
  0
LINE
  5
430
100
AcDbEntity
  8
RACCORDO
100
AcDbLine
 62
250
  6
CONTINUOUS
 10
12.7600106371
 20
6.0899018589
 11
12.7578922705
 21
6.1638051163
  0
LINE
  5
431
100
AcDbEntity
  8
RACCORDO
100
AcDbLine
 62
250
  6
CONTINUOUS
 10
12.7664924228
 20
-51.3668516308
 11
12.7633310688
 21
-51.2367438382
  0
LINE
  5
432
100
AcDbEntity
  8
RACCORDO
100
AcDbLine
 62
250
  6
CONTINUOUS
 10
12.844117496
 20
-61.3798809569
 11
12.8351998601
 21
-61.0026565505
  0
LINE
  5
433
100
AcDbEntity
  8
RACCORDO
100
AcDbLine
 62
250
  6
CONTINUOUS
 10
12.7623963133
 20
5.9894448325
 11
12.7600106371
 21
6.0899018589
  0
LINE
  5
434
100
AcDbEntity
  8
RACCORDO
100
AcDbLine
 62
7
  6
CONTINUOUS
 10
12.7172049556
 20
-6.435063426
 11
12.7177667311
 21
-6.4608770278
  0
LINE
  5
435
100
AcDbEntity
  8
RACCORDO
100
AcDbLine
 62
250
  6
CONTINUOUS
 10
12.0691751582
 20
-5.6352890488
 11
12.0686986139
 21
-5.6133217251
  0
LINE
  5
436
100
AcDbEntity
  8
RACCORDO
100
AcDbLine
 62
250
  6
CONTINUOUS
 10
12.7691208939
 20
-51.5064946725
 11
12.7664924228
 21
-51.3668516308
  0
LINE
  5
437
100
AcDbEntity
  8
RACCORDO
100
AcDbLine
 62
250
  6
CONTINUOUS
 10
12.8351998601
 20
-61.0026565505
 11
12.8277283307
 21
-60.6025902887
  0
LWPOLYLINE
  5
438
100
AcDbEntity
  8
RACCORDO
100
AcDbPolyline
 62
250
  6
CONTINUOUS
 90
3
 70
0
 10
12.0730742525
 20
-51.9533993212
 10
12.0724120838
 20
-51.9148465079
 10
12.0706515897
 20
-51.839662994
  0
LINE
  5
439
100
AcDbEntity
  8
RACCORDO
100
AcDbLine
 62
250
  6
CONTINUOUS
 10
12.7644586828
 20
5.8807474354
 11
12.7623963133
 21
5.9894448325
  0
LINE
  5
43A
100
AcDbEntity
  8
RACCORDO
100
AcDbLine
 62
250
  6
CONTINUOUS
 10
12.0686986139
 20
-5.6133217251
 11
12.0683658357
 21
-5.590817322
  0
LINE
  5
43B
100
AcDbEntity
  8
RACCORDO
100
AcDbLine
 62
250
  6
CONTINUOUS
 10
12.7711770458
 20
-51.6533885798
 11
12.7691208939
 21
-51.5064946725
  0
LINE
  5
43C
100
AcDbEntity
  8
RACCORDO
100
AcDbLine
 62
250
  6
CONTINUOUS
 10
12.7664640301
 20
5.7406189601
 11
12.7644586828
 21
5.8807474354
  0
LINE
  5
43D
100
AcDbEntity
  8
RACCORDO
100
AcDbLine
 62
250
  6
CONTINUOUS
 10
12.8277283307
 20
-60.6025902887
 11
12.822089147
 21
-60.178035487
  0
LINE
  5
43E
100
AcDbEntity
  8
RACCORDO
100
AcDbLine
 62
250
  6
CONTINUOUS
 10
12.7679123335
 20
5.5914265223
 11
12.7664640301
 21
5.7406189601
  0
LINE
  5
43F
100
AcDbEntity
  8
RACCORDO
100
AcDbLine
 62
250
  6
CONTINUOUS
 10
12.0683658357
 20
-5.590817322
 11
12.068165209
 21
-5.5677938885
  0
LINE
  5
440
100
AcDbEntity
  8
RACCORDO
100
AcDbLine
 62
250
  6
CONTINUOUS
 10
12.7903703839
 20
-54.3545720076
 11
12.7711770458
 21
-51.6533885798
  0
LWPOLYLINE
  5
441
100
AcDbEntity
  8
RACCORDO
100
AcDbPolyline
 62
250
  6
CONTINUOUS
 90
3
 70
0
 10
12.822089147
 20
-60.178035487
 10
12.8187493143
 20
-59.7259874523
 10
12.7903703839
 20
-54.3545720076
  0
LINE
  5
442
100
AcDbEntity
  8
RACCORDO
100
AcDbLine
 62
250
  6
CONTINUOUS
 10
12.1059655684
 20
-57.0232603824
 11
12.0730747197
 21
-51.9533993211
  0
LINE
  5
443
100
AcDbEntity
  8
RACCORDO
100
AcDbLine
 62
250
  6
CONTINUOUS
 10
12.0693102548
 20
5.3406597628
 11
12.068055906
 21
5.5082997731
  0
LINE
  5
444
100
AcDbEntity
  8
RACCORDO
100
AcDbLine
 62
250
  6
CONTINUOUS
 10
12.1206799202
 20
-59.8144914143
 11
12.1059655684
 21
-57.0232603824
  0
LINE
  5
445
100
AcDbEntity
  8
RACCORDO
100
AcDbLine
 62
250
  6
CONTINUOUS
 10
12.7688434859
 20
5.4081568715
 11
12.7679123335
 21
5.5914265223
  0
LINE
  5
446
100
AcDbEntity
  8
RACCORDO
100
AcDbLine
 62
250
  6
CONTINUOUS
 10
13.513017925
 20
61.2721764967
 11
13.4934284716
 21
67.6444291641
  0
LINE
  5
447
100
AcDbEntity
  8
RACCORDO
100
AcDbLine
 62
250
  6
CONTINUOUS
 10
13.5290507321
 20
54.8918708921
 11
13.513017925
 21
61.2721764967
  0
LINE
  5
448
100
AcDbEntity
  8
RACCORDO
100
AcDbLine
 62
250
  6
CONTINUOUS
 10
12.8411353851
 20
48.9525693434
 11
12.8200702436
 21
58.7524192972
  0
LINE
  5
449
100
AcDbEntity
  8
RACCORDO
100
AcDbLine
 62
250
  6
CONTINUOUS
 10
13.5415256914
 20
48.5051178059
 11
13.5290507321
 21
54.8918708921
  0
LINE
  5
44A
100
AcDbEntity
  8
RACCORDO
100
AcDbLine
 62
250
  6
CONTINUOUS
 10
13.550438509
 20
42.1134441158
 11
13.5415256914
 21
48.5051178059
  0
LINE
  5
44B
100
AcDbEntity
  8
RACCORDO
100
AcDbLine
 62
250
  6
CONTINUOUS
 10
12.8537805812
 20
39.1402556428
 11
12.8411353851
 21
48.9525693434
  0
LINE
  5
44C
100
AcDbEntity
  8
RACCORDO
100
AcDbLine
 62
250
  6
CONTINUOUS
 10
13.5557869156
 20
35.7185011283
 11
13.550438509
 21
42.1134441158
  0
LINE
  5
44D
100
AcDbEntity
  8
RACCORDO
100
AcDbLine
 62
250
  6
CONTINUOUS
 10
12.068165209
 20
-5.5677938885
 11
12.0680721609
 21
-5.5323242691
  0
LINE
  5
44E
100
AcDbEntity
  8
RACCORDO
100
AcDbLine
 62
250
  6
CONTINUOUS
 10
13.5575701437
 20
29.3219240268
 11
13.5557869156
 21
35.7185011283
  0
LINE
  5
44F
100
AcDbEntity
  8
RACCORDO
100
AcDbLine
 62
250
  6
CONTINUOUS
 10
12.068055906
 20
5.5082997731
 11
12.0679878272
 21
5.5445051634
  0
LINE
  5
450
100
AcDbEntity
  8
ASSI
100
AcDbLine
 62
7
  6
CONTINUOUS
 10
12.7
 20
68.2773647801
 11
12.7
 21
68.2769383591
  0
LINE
  5
451
100
AcDbEntity
  8
RACCORDO
100
AcDbLine
 62
7
  6
CONTINUOUS
 10
12.7177651569
 20
50.9436669539
 11
12.7177651569
 21
6.460817014
  0
LINE
  5
452
100
AcDbEntity
  8
RACCORDO
100
AcDbLine
 62
7
  6
CONTINUOUS
 10
12.7177651569
 20
-6.4608770254
 11
12.7177651569
 21
-50.7000000001
  0
LINE
  5
453
100
AcDbEntity
  8
RACCORDO
100
AcDbLine
 62
250
  6
CONTINUOUS
 10
12.8579965648
 20
29.3219240268
 11
12.8537805812
 21
39.1402556428
  0
LINE
  5
454
100
AcDbEntity
  8
RACCORDO
100
AcDbLine
 62
250
  6
CONTINUOUS
 10
12.0693986981
 20
5.2473936195
 11
12.0693102548
 21
5.3406597628
  0
LINE
  5
455
100
AcDbEntity
  8
RACCORDO
100
AcDbLine
 62
250
  6
CONTINUOUS
 10
12.8555044293
 20
-36.8708972357
 11
12.8579965648
 21
29.3219240268
  0
LINE
  5
456
100
AcDbEntity
  8
RACCORDO
100
AcDbLine
 62
250
  6
CONTINUOUS
 10
13.5557911446
 20
-35.7109127914
 11
13.5575701437
 21
29.3219240268
  0
LINE
  5
457
100
AcDbEntity
  8
RACCORDO
100
AcDbLine
 62
250
  6
CONTINUOUS
 10
13.5504554195
 20
-42.0982732553
 11
13.5557911446
 21
-35.7109127914
  0
LINE
  5
458
100
AcDbEntity
  8
RACCORDO
100
AcDbLine
 62
250
  6
CONTINUOUS
 10
12.8444304376
 20
-46.931304601
 11
12.8555044293
 21
-36.8708972357
  0
LINE
  5
459
100
AcDbEntity
  8
RACCORDO
100
AcDbLine
 62
250
  6
CONTINUOUS
 10
13.5415637323
 20
-48.4823760463
 11
13.5504554195
 21
-42.0982732553
  0
LINE
  5
45A
100
AcDbEntity
  8
RACCORDO
100
AcDbLine
 62
250
  6
CONTINUOUS
 10
12.7689067811
 20
-5.381208982
 11
12.7688434859
 21
5.4081568715
  0
LINE
  5
45B
100
AcDbEntity
  8
RACCORDO
100
AcDbLine
 62
250
  6
CONTINUOUS
 10
12.068451329
 20
51.6715301629
 11
12.0684450722
 21
51.6916834953
  0
LINE
  5
45C
100
AcDbEntity
  8
RACCORDO
100
AcDbLine
 62
250
  6
CONTINUOUS
 10
13.5291387943
 20
-54.8612252536
 11
13.5415637323
 21
-48.4823760463
  0
LWPOLYLINE
  5
45D
100
AcDbEntity
  8
RACCORDO
100
AcDbPolyline
 62
250
  6
CONTINUOUS
 90
3
 70
0
 10
12.8181430069
 20
-59.4898675205
 10
12.8245058936
 20
-56.9801129739
 10
12.8444304376
 20
-46.931304601
  0
LINE
  5
45E
100
AcDbEntity
  8
RACCORDO
100
AcDbLine
 62
250
  6
CONTINUOUS
 10
13.5130621606
 20
-61.2354010322
 11
13.5291387943
 21
-54.8612252536
  0
LINE
  5
45F
100
AcDbEntity
  8
RACCORDO
100
AcDbLine
 62
250
  6
CONTINUOUS
 10
13.4933043475
 20
-67.6038208694
 11
13.5130621606
 21
-61.2354010322
  0
LINE
  5
460
100
AcDbEntity
  8
RACCORDO
100
AcDbLine
 62
250
  6
CONTINUOUS
 10
12.0693135724
 20
-5.3406039213
 11
12.0693986981
 21
5.2473936195
  0
LINE
  5
461
100
AcDbEntity
  8
RACCORDO
100
AcDbLine
 62
250
  6
CONTINUOUS
 10
12.0679878272
 20
5.5445051634
 11
12.0680592701
 21
5.5680402364
  0
LINE
  5
462
100
AcDbEntity
  8
RACCORDO
100
AcDbLine
 62
250
  6
CONTINUOUS
 10
12.0680721609
 20
-5.5323242691
 11
12.0682469496
 21
-5.4833916973
  0
LINE
  5
463
100
AcDbEntity
  8
RACCORDO
100
AcDbLine
 62
250
  6
CONTINUOUS
 10
12.7680978179
 20
-5.5654711095
 11
12.7689067811
 21
-5.381208982
  0
LINE
  5
464
100
AcDbEntity
  8
RACCORDO
100
AcDbLine
 62
250
  6
CONTINUOUS
 10
12.7982761127
 20
55.0050220837
 11
12.8209218951
 21
59.0199520252
  0
LINE
  5
465
100
AcDbEntity
  8
RACCORDO
100
AcDbLine
 62
250
  6
CONTINUOUS
 10
12.0682469496
 20
-5.4833916973
 11
12.0693135724
 21
-5.3406039213
  0
LWPOLYLINE
  5
466
100
AcDbEntity
  8
RACCORDO
100
AcDbPolyline
 62
250
  6
CONTINUOUS
 90
3
 70
0
 10
12.0734261817
 20
51.930062554
 10
12.0773946814
 20
52.3863707079
 10
12.120496665
 20
58.8472331486
  0
LWPOLYLINE
  5
467
100
AcDbEntity
  8
RACCORDO
100
AcDbPolyline
 62
250
  6
CONTINUOUS
 90
14
 70
0
 10
12.120496665
 20
58.8472331486
 10
12.1228620653
 20
59.1139711814
 10
12.1275147102
 20
59.385275641
 10
12.1344545997
 20
59.6611489671
 10
12.1439460893
 20
59.9456582504
 10
12.1557248234
 20
60.2347444129
 10
12.1689977354
 20
60.5162008546
 10
12.1837884871
 20
60.7871174152
 10
12.2000734166
 20
61.0503690208
 10
12.216988471
 20
61.3024047485
 10
12.234359715
 20
61.5412399127
 10
12.252361084
 20
61.7688250397
 10
12.2706503311
 20
61.9875122128
 10
12.2891847657
 20
62.197609665
  0
LINE
  5
468
100
AcDbEntity
  8
RACCORDO
100
AcDbLine
 62
250
  6
CONTINUOUS
 10
12.0684450722
 20
51.6916834953
 11
12.0686023501
 21
51.7125381042
  0
LINE
  5
469
100
AcDbEntity
  8
RACCORDO
100
AcDbLine
 62
250
  6
CONTINUOUS
 10
12.0680592701
 20
5.5680402364
 11
12.0682449136
 21
5.5910715131
  0
LINE
  5
46A
100
AcDbEntity
  8
RACCORDO
100
AcDbLine
 62
250
  6
CONTINUOUS
 10
12.7667479651
 20
-5.7158818339
 11
12.7680978179
 21
-5.5654711095
  0
LINE
  5
46B
100
AcDbEntity
  8
RACCORDO
100
AcDbLine
 62
250
  6
CONTINUOUS
 10
12.8209218951
 20
59.0199520252
 11
12.8259899403
 21
59.5687808612
  0
LINE
  5
46C
100
AcDbEntity
  8
RACCORDO
100
AcDbLine
 62
250
  6
CONTINUOUS
 10
12.7718969646
 20
51.6547051409
 11
12.7982761127
 21
55.0050220837
  0
LINE
  5
46D
100
AcDbEntity
  8
RACCORDO
100
AcDbLine
 62
250
  6
CONTINUOUS
 10
12.0686023501
 20
51.7125381042
 11
12.068900372
 21
51.7340865723
  0
LINE
  5
46E
100
AcDbEntity
  8
RACCORDO
100
AcDbLine
 62
250
  6
CONTINUOUS
 10
12.7648340466
 20
-5.8575424179
 11
12.7667479651
 21
-5.7158818339
  0
LINE
  5
46F
100
AcDbEntity
  8
RACCORDO
100
AcDbLine
 62
250
  6
CONTINUOUS
 10
12.0682449136
 20
5.5910715131
 11
12.0685627678
 21
5.6135814915
  0
LINE
  5
470
100
AcDbEntity
  8
RACCORDO
100
AcDbLine
 62
250
  6
CONTINUOUS
 10
12.7698050399
 20
51.5056755393
 11
12.7718969646
 21
51.6547051409
  0
LINE
  5
471
100
AcDbEntity
  8
RACCORDO
100
AcDbLine
 62
250
  6
CONTINUOUS
 10
12.8259899403
 20
59.5687808612
 11
12.8357490977
 21
60.1440999592
  0
LWPOLYLINE
  5
472
100
AcDbEntity
  8
RACCORDO
100
AcDbPolyline
 62
7
  6
CONTINUOUS
 90
3
 70
0
 10
12.7177667127
 20
6.4608170167
 10
12.7173433897
 20
6.43838905
 10
12.7163726632
 20
6.4226361612
  0
LINE
  5
473
100
AcDbEntity
  8
RACCORDO
100
AcDbLine
 62
250
  6
CONTINUOUS
 10
12.7628413441
 20
-5.9677468239
 11
12.7648340466
 21
-5.8575424179
  0
LWPOLYLINE
  5
474
100
AcDbEntity
  8
RACCORDO
100
AcDbPolyline
 62
7
  6
CONTINUOUS
 90
8
 70
0
 10
12.7177590164
 20
-50.7000000005
 10
12.717200763
 20
-50.7280050473
 10
12.7136842401
 20
-50.7754416466
 10
12.706946956
 20
-50.8225230755
 10
12.6970267782
 20
-50.869038826
 10
12.6839636595
 20
-50.914780257
 10
12.6678159971
 20
-50.9595393296
 10
12.664593945
 20
-50.9674611091
  0
LINE
  5
475
100
AcDbEntity
  8
RACCORDO
100
AcDbLine
 62
250
  6
CONTINUOUS
 10
12.7676577927
 20
51.390749377
 11
12.7698050399
 21
51.5056755393
  0
LWPOLYLINE
  5
476
100
AcDbEntity
  8
RACCORDO
100
AcDbPolyline
 62
250
  6
CONTINUOUS
 90
7
 70
0
 10
12.717200763
 20
-50.7280050473
 10
12.7174147526
 20
-50.7302521986
 10
12.7154496324
 20
-50.7604638935
 10
12.7121736787
 20
-50.7905959912
 10
12.7075875657
 20
-50.8205976878
 10
12.7016961162
 20
-50.8504056943
 10
12.6945109736
 20
-50.8799448712
  0
LINE
  5
477
100
AcDbEntity
  8
RACCORDO
100
AcDbLine
 62
250
  6
CONTINUOUS
 10
12.068900372
 20
51.7340865723
 11
12.0695610248
 21
51.7676901804
  0
LINE
  5
478
100
AcDbEntity
  8
RACCORDO
100
AcDbLine
 62
250
  6
CONTINUOUS
 10
12.0685627678
 20
5.6135814915
 11
12.0690245666
 21
5.6355522346
  0
LINE
  5
479
100
AcDbEntity
  8
RACCORDO
100
AcDbLine
 62
250
  6
CONTINUOUS
 10
12.072316201
 20
51.8773523659
 11
12.0734261867
 21
51.930062554
  0
LINE
  5
47A
100
AcDbEntity
  8
RACCORDO
100
AcDbLine
 62
250
  6
CONTINUOUS
 10
12.7605190987
 20
-6.0698890464
 11
12.7628413441
 21
-5.9677468239
  0
LINE
  5
47B
100
AcDbEntity
  8
RACCORDO
100
AcDbLine
 62
250
  6
CONTINUOUS
 10
12.7651793563
 20
51.2850226013
 11
12.7676577927
 21
51.390749377
  0
LINE
  5
47C
100
AcDbEntity
  8
RACCORDO
100
AcDbLine
 62
250
  6
CONTINUOUS
 10
12.8357490977
 20
60.1440999592
 11
12.8491785809
 21
60.6981024477
  0
LINE
  5
47D
100
AcDbEntity
  8
RACCORDO
100
AcDbLine
 62
250
  6
CONTINUOUS
 10
12.0695610248
 20
51.7676901804
 11
12.072316201
 21
51.8773523659
  0
LINE
  5
47E
100
AcDbEntity
  8
RACCORDO
100
AcDbLine
 62
250
  6
CONTINUOUS
 10
12.7203621498
 20
6.4843714733
 11
12.7193662042
 21
6.4494546893
  0
LINE
  5
47F
100
AcDbEntity
  8
RACCORDO
100
AcDbLine
 62
250
  6
CONTINUOUS
 10
12.7584464212
 20
-6.1452619497
 11
12.7605190987
 21
-6.0698890464
  0
LINE
  5
480
100
AcDbEntity
  8
RACCORDO
100
AcDbLine
 62
250
  6
CONTINUOUS
 10
12.7629826496
 20
51.2075196606
 11
12.7651793563
 21
51.2850226013
  0
LWPOLYLINE
  5
481
100
AcDbEntity
  8
RACCORDO
100
AcDbPolyline
 62
250
  6
CONTINUOUS
 90
66
 70
0
 10
12.0690245666
 20
5.6355522346
 10
12.0696474706
 20
5.6569685233
 10
12.0700245849
 20
5.667464281
 10
12.0704473622
 20
5.6778159686
 10
12.0709156927
 20
5.688021436
 10
12.0714345826
 20
5.6980799023
 10
12.0720041381
 20
5.7079894105
 10
12.0726242529
 20
5.7177480202
 10
12.0732996137
 20
5.7273550185
 10
12.0740303203
 20
5.7368086473
 10
12.0748162729
 20
5.7461071862
 10
12.0756618588
 20
5.7552500159
 10
12.0765671773
 20
5.7642355897
 10
12.0775321292
 20
5.7730623745
 10
12.0785608037
 20
5.7817298068
 10
12.0796532929
 20
5.7902365163
 10
12.0808095047
 20
5.7985811779
 10
12.0820332527
 20
5.80676333
 10
12.0833246317
 20
5.8147818007
 10
12.0846835469
 20
5.8226354321
 10
12.0861135268
 20
5.8303238159
 10
12.0876146593
 20
5.8378459424
 10
12.0891868565
 20
5.845200847
 10
12.0908333838
 20
5.8523882213
 10
12.0925543323
 20
5.8594072385
 10
12.0943496109
 20
5.8662570903
 10
12.0962222112
 20
5.8729375281
 10
12.0981722204
 20
5.8794478812
 10
12.1001995513
 20
5.8857875161
 10
12.1023069338
 20
5.8919562748
 10
12.1044944536
 20
5.8979536502
 10
12.1067620249
 20
5.9037791638
 10
12.1091121208
 20
5.9094327354
 10
12.1115448264
 20
5.9149140011
 10
12.1140600565
 20
5.9202226497
 10
12.1166600281
 20
5.9253587153
 10
12.1193448254
 20
5.9303219949
 10
12.1221143642
 20
5.9351123111
 10
12.1249706089
 20
5.9397297715
 10
12.1279136726
 20
5.9441743468
 10
12.1309434421
 20
5.9484459726
 10
12.1340615429
 20
5.9525447551
 10
12.137268039
 20
5.9564707762
 10
12.1405628663
 20
5.9602241664
 10
12.1439474586
 20
5.9638051663
 10
12.1474218496
 20
5.967213954
 10
12.1509860056
 20
5.970450859
 10
12.1546412581
 20
5.9735163861
 10
12.1583876394
 20
5.9764108396
 10
12.1622251172
 20
5.9791346554
 10
12.1661549269
 20
5.9816885269
 10
12.1701773154
 20
5.9840729802
 10
12.1742920358
 20
5.9862883868
 10
12.1784995821
 20
5.9883352335
 10
12.1827997314
 20
5.9902139701
 10
12.1871927067
 20
5.991925361
 10
12.1916796701
 20
5.9934703443
 10
12.1962607822
 20
5.9948495567
 10
12.2009358825
 20
5.9960636082
 10
12.205705652
 20
5.9971133045
 10
12.2105713524
 20
5.9979994861
 10
12.2155317219
 20
5.998722614
 10
12.2205836561
 20
5.9992831774
 10
12.2257261202
 20
5.9996821541
 10
12.230960149
 20
5.9999207268
 10
12.2362857425
 20
6.0
  0
LINE
  5
482
100
AcDbEntity
  8
RACCORDO
100
AcDbLine
 62
250
  6
CONTINUOUS
 10
12.8491785809
 20
60.6981024477
 11
12.8650317993
 21
61.2149314707
  0
LINE
  5
483
100
AcDbEntity
  8
RACCORDO
100
AcDbLine
 62
250
  6
CONTINUOUS
 10
12.7562022952
 20
-6.2146051412
 11
12.7584464212
 21
-6.1452619497
  0
LINE
  5
484
100
AcDbEntity
  8
RACCORDO
100
AcDbLine
 62
250
  6
CONTINUOUS
 10
12.7606168253
 20
51.1366442055
 11
12.7629826496
 21
51.2075196606
  0
LWPOLYLINE
  5
485
100
AcDbEntity
  8
RACCORDO
100
AcDbPolyline
 62
250
  6
CONTINUOUS
 90
8
 70
0
 10
12.7248431295
 20
-50.7
 10
12.7228869799
 20
-50.7523110655
 10
12.7170294706
 20
-50.8043295864
 10
12.7073033593
 20
-50.8557646538
 10
12.6937630382
 20
-50.9063286221
 10
12.6764842304
 20
-50.9557387171
 10
12.655563566
 20
-51.0037186174
 10
12.6311180417
 20
-51.05
  0
LINE
  5
486
100
AcDbEntity
  8
RACCORDO
100
AcDbLine
 62
250
  6
CONTINUOUS
 10
12.8650317993
 20
61.2149314707
 11
12.8820603547
 21
61.6827576835
  0
LINE
  5
487
100
AcDbEntity
  8
RACCORDO
100
AcDbLine
 62
250
  6
CONTINUOUS
 10
12.7544181994
 20
-6.2624616911
 11
12.7562022952
 21
-6.2146051412
  0
LINE
  5
488
100
AcDbEntity
  8
RACCORDO
100
AcDbLine
 62
250
  6
CONTINUOUS
 10
12.7180695998
 20
6.4608027963
 11
12.71655899
 21
6.4226927781
  0
LINE
  5
489
100
AcDbEntity
  8
RACCORDO
100
AcDbLine
 62
250
  6
CONTINUOUS
 10
12.7587437466
 20
51.0880018592
 11
12.7606168253
 21
51.1366442055
  0
LINE
  5
48A
100
AcDbEntity
  8
RACCORDO
100
AcDbLine
 62
250
  6
CONTINUOUS
 10
12.8820603547
 20
61.6827576835
 11
12.8999042824
 21
62.1128415106
  0
LINE
  5
48B
100
AcDbEntity
  8
RACCORDO
100
AcDbLine
 62
250
  6
CONTINUOUS
 10
12.7525570092
 20
-6.3066248632
 11
12.7544181994
 21
-6.2624616911
  0
LINE
  5
48C
100
AcDbEntity
  8
RACCORDO
100
AcDbLine
 62
250
  6
CONTINUOUS
 10
12.7567960901
 20
51.0433429868
 11
12.7587437466
 21
51.0880018592
  0
LINE
  5
48D
100
AcDbEntity
  8
RACCORDO
100
AcDbLine
 62
250
  6
CONTINUOUS
 10
12.7512775904
 20
-6.3339643741
 11
12.7525570092
 21
-6.3066248632
  0
LINE
  5
48E
100
AcDbEntity
  8
RACCORDO
100
AcDbLine
 62
250
  6
CONTINUOUS
 10
12.755460654
 20
51.0158255903
 11
12.7567960901
 21
51.0433429868
  0
LINE
  5
48F
100
AcDbEntity
  8
RACCORDO
100
AcDbLine
 62
250
  6
CONTINUOUS
 10
12.7493074823
 20
-6.3717477983
 11
12.7512775904
 21
-6.3339643741
  0
LINE
  5
490
100
AcDbEntity
  8
RACCORDO
100
AcDbLine
 62
250
  6
CONTINUOUS
 10
12.7479638012
 20
-6.3947547054
 11
12.7493074823
 21
-6.3717477983
  0
LINE
  5
491
100
AcDbEntity
  8
RACCORDO
100
AcDbLine
 62
250
  6
CONTINUOUS
 10
12.7465995385
 20
-6.4159915751
 11
12.7479638012
 21
-6.3947547054
  0
LINE
  5
492
100
AcDbEntity
  8
RACCORDO
100
AcDbLine
 62
250
  6
CONTINUOUS
 10
12.7193662042
 20
6.4494546893
 11
12.7177955122
 21
6.4317970898
  0
LINE
  5
493
100
AcDbEntity
  8
RACCORDO
100
AcDbLine
 62
250
  6
CONTINUOUS
 10
12.7192317057
 20
6.4730577117
 11
12.7180697434
 21
6.4608043465
  0
LINE
  5
494
100
AcDbEntity
  8
RACCORDO
100
AcDbLine
 62
250
  6
CONTINUOUS
 10
12.7203621498
 20
6.4843714733
 11
12.7192317057
 21
6.4730577117
  0
LINE
  5
495
100
AcDbEntity
  8
RACCORDO
100
AcDbLine
 62
7
  6
CONTINUOUS
 10
12.7177955122
 20
6.4317970898
 11
12.7177915671
 21
6.4317609731
  0
LWPOLYLINE
  5
496
100
AcDbEntity
  8
RACCORDO
100
AcDbPolyline
 62
7
  6
CONTINUOUS
 90
6
 70
0
 10
12.7178793698
 20
6.4325405235
 10
12.7178600866
 20
6.4323850702
 10
12.7176980891
 20
6.4311538749
 10
12.7173779041
 20
6.4289029423
 10
12.7168697411
 20
6.4256035972
 10
12.7163726632
 20
6.4226361612
  0
LWPOLYLINE
  5
497
100
AcDbEntity
  8
RACCORDO
100
AcDbPolyline
 62
250
  6
CONTINUOUS
 90
5
 70
0
 10
12.7228802682
 20
6.5054517118
 10
12.7222397565
 20
6.5007310342
 10
12.7216067631
 20
6.4956472744
 10
12.7209808942
 20
6.4901940875
 10
12.7203621498
 20
6.4843714733
  0
LWPOLYLINE
  5
498
100
AcDbEntity
  8
RACCORDO
100
AcDbPolyline
 62
250
  6
CONTINUOUS
 90
12
 70
0
 10
12.7381290571
 20
-6.5056745258
 10
12.738845036
 20
-6.5006851237
 10
12.7395603204
 20
-6.495244044
 10
12.7402749135
 20
-6.4893519438
 10
12.740987766
 20
-6.4830075471
 10
12.7416988785
 20
-6.4762101862
 10
12.7424082504
 20
-6.4689605287
 10
12.7431148305
 20
-6.4612593013
 10
12.7438186189
 20
-6.4531058181
 10
12.7445196153
 20
-6.4445007651
 10
12.7452167684
 20
-6.4354469264
 10
12.7465995385
 20
-6.4159915751
  0
LINE
  5
499
100
AcDbEntity
  8
RACCORDO
100
AcDbLine
 62
7
  6
CONTINUOUS
 10
12.7163726632
 20
6.4226361612
 11
12.714968653
 21
6.4148269492
  0
LWPOLYLINE
  5
49A
100
AcDbEntity
  8
RACCORDO
100
AcDbPolyline
 62
7
  6
CONTINUOUS
 90
6
 70
0
 10
12.714968653
 20
6.4148269492
 10
12.7134770064
 20
6.4074055477
 10
12.7115462389
 20
6.3986602466
 10
12.7090914303
 20
6.3885494727
 10
12.7060787766
 20
6.3772697601
 10
12.7025400928
 20
6.3652037675
  0
LWPOLYLINE
  5
49B
100
AcDbEntity
  8
RACCORDO
100
AcDbPolyline
 62
7
  6
CONTINUOUS
 90
7
 70
0
 10
12.7036123903
 20
-6.3686314795
 10
12.7068899972
 20
-6.3800935392
 10
12.7096632762
 20
-6.3907144765
 10
12.7119683606
 20
-6.4004029891
 10
12.7138436899
 20
-6.4090737559
 10
12.7152993218
 20
-6.4164897573
 10
12.7163240951
 20
-6.4222405695
  0
LWPOLYLINE
  5
49C
100
AcDbEntity
  8
RACCORDO
100
AcDbPolyline
 62
250
  6
CONTINUOUS
 90
23
 70
0
 10
12.7381183534
 20
6.5060569658
 10
12.7374018603
 20
6.5105812381
 10
12.7366857536
 20
6.5146575618
 10
12.7359700394
 20
6.5182852447
 10
12.7352547117
 20
6.521464979
 10
12.7345408114
 20
6.5242021433
 10
12.7338283567
 20
6.5264960364
 10
12.7331173294
 20
6.5283473594
 10
12.7324087161
 20
6.5297635945
 10
12.7317025358
 20
6.5307441391
 10
12.7309987694
 20
6.5312895959
 10
12.7302983462
 20
6.5314092541
 10
12.7296012487
 20
6.5311024958
 10
12.7289074942
 20
6.5303699389
 10
12.728218064
 20
6.529222727
 10
12.7275330172
 20
6.5276604347
 10
12.7268522945
 20
6.5256834874
 10
12.7261766995
 20
6.5233043034
 10
12.7255062282
 20
6.5205224309
 10
12.7248408845
 20
6.5173383218
 10
12.7241814839
 20
6.5137657502
 10
12.7235279045
 20
6.5098029623
 10
12.7228802682
 20
6.5054517118
  0
LINE
  5
49D
100
AcDbEntity
  8
RACCORDO
100
AcDbLine
 62
7
  6
CONTINUOUS
 10
12.7163240951
 20
-6.4222405695
 11
12.7175775875
 21
-6.4302358662
  0
LWPOLYLINE
  5
49E
100
AcDbEntity
  8
RACCORDO
100
AcDbPolyline
 62
250
  6
CONTINUOUS
 90
23
 70
0
 10
12.7228827682
 20
-6.5053965646
 10
12.7235309595
 20
-6.5097332715
 10
12.724185073
 20
-6.5136813772
 10
12.724844985
 20
-6.5172391476
 10
12.7255108193
 20
-6.5204083167
 10
12.7261817713
 20
-6.5231752016
 10
12.7268578441
 20
-6.52553938
 10
12.7275390348
 20
-6.5275012742
 10
12.7282245293
 20
-6.529048468
 10
12.7289143824
 20
-6.5301805181
 10
12.7296085395
 20
-6.5308978678
 10
12.7303060221
 20
-6.5311894313
 10
12.7310068142
 20
-6.531054594
 10
12.7317109318
 20
-6.5304939705
 10
12.7324174452
 20
-6.5294983189
 10
12.7331263736
 20
-6.5280670334
 10
12.7338376978
 20
-6.5262007199
 10
12.7345504296
 20
-6.5238919538
 10
12.7352645868
 20
-6.5211400339
 10
12.7359801517
 20
-6.5179456615
 10
12.7366960832
 20
-6.5143035163
 10
12.7374123869
 20
-6.5102129075
 10
12.7381290571
 20
-6.5056745258
  0
LINE
  5
49F
100
AcDbEntity
  8
RACCORDO
100
AcDbLine
 62
7
  6
CONTINUOUS
 10
12.7175775875
 20
-6.4302358662
 11
12.7177126106
 21
-6.4312180624
  0
LINE
  5
4A0
100
AcDbEntity
  8
RACCORDO
100
AcDbLine
 62
250
  6
CONTINUOUS
 10
12.7232881454
 20
50.8871493128
 11
12.7249383226
 21
50.8717064957
  0
LINE
  5
4A1
100
AcDbEntity
  8
RACCORDO
100
AcDbLine
 62
250
  6
CONTINUOUS
 10
12.7215948134
 20
50.9042141144
 11
12.7232881454
 21
50.8871493128
  0
LINE
  5
4A2
100
AcDbEntity
  8
RACCORDO
100
AcDbLine
 62
250
  6
CONTINUOUS
 10
12.7198555753
 20
50.92304835
 11
12.7215948134
 21
50.9042141144
  0
LINE
  5
4A3
100
AcDbEntity
  8
RACCORDO
100
AcDbLine
 62
250
  6
CONTINUOUS
 10
12.7180697434
 20
50.9436888819
 11
12.7198555753
 21
50.92304835
  0
LWPOLYLINE
  5
4A4
100
AcDbEntity
  8
RACCORDO
100
AcDbPolyline
 62
7
  6
CONTINUOUS
 90
3
 70
0
 10
12.7175988239
 20
50.9561590404
 10
12.7176701723
 20
50.9545977242
 10
12.7177659973
 20
50.943666953
  0
LINE
  5
4A5
100
AcDbEntity
  8
RACCORDO
100
AcDbLine
 62
250
  6
CONTINUOUS
 10
19.0577770458
 20
-61.2728704957
 11
19.0773647801
 21
-67.6444291641
  0
LINE
  5
4A6
100
AcDbEntity
  8
RACCORDO
100
AcDbLine
 62
250
  6
CONTINUOUS
 10
19.7573504479
 20
-61.2166127737
 11
19.7769383958
 21
-67.5773648169
  0
LINE
  5
4A7
100
AcDbEntity
  8
RACCORDO
100
AcDbLine
 62
250
  6
CONTINUOUS
 10
19.0417442559
 20
-54.8926442972
 11
19.0577770458
 21
-61.2728704957
  0
LINE
  5
4A8
100
AcDbEntity
  8
RACCORDO
100
AcDbLine
 62
250
  6
CONTINUOUS
 10
19.7413176492
 20
-54.84788705
 11
19.7573504479
 21
-61.2166127737
  0
LINE
  5
4A9
100
AcDbEntity
  8
RACCORDO
100
AcDbLine
 62
250
  6
CONTINUOUS
 10
19.0292680804
 20
-48.5054854837
 11
19.0417442559
 21
-54.8926442972
  0
LINE
  5
4AA
100
AcDbEntity
  8
RACCORDO
100
AcDbLine
 62
250
  6
CONTINUOUS
 10
19.7288416109
 20
-48.4718854045
 11
19.7413176492
 21
-54.84788705
  0
LINE
  5
4AB
100
AcDbEntity
  8
RACCORDO
100
AcDbLine
 62
250
  6
CONTINUOUS
 10
19.0203546771
 20
-42.1133826967
 11
19.0292680804
 21
-48.5054854837
  0
LINE
  5
4AC
100
AcDbEntity
  8
RACCORDO
100
AcDbLine
 62
250
  6
CONTINUOUS
 10
19.7199282524
 20
-42.0909286207
 11
19.7288416109
 21
-48.4718854045
  0
LINE
  5
4AD
100
AcDbEntity
  8
RACCORDO
100
AcDbLine
 62
250
  6
CONTINUOUS
 10
19.0150060594
 20
-35.7182848987
 11
19.0203546771
 21
-42.1133826967
  0
LINE
  5
4AE
100
AcDbEntity
  8
RACCORDO
100
AcDbLine
 62
250
  6
CONTINUOUS
 10
19.0132230092
 20
-29.3219240268
 11
19.0150060594
 21
-35.7182848987
  0
LINE
  5
4AF
100
AcDbEntity
  8
RACCORDO
100
AcDbLine
 62
250
  6
CONTINUOUS
 10
19.0773647801
 20
-68.2769383591
 11
19.0773647801
 21
-67.6444291641
  0
LINE
  5
4B0
100
AcDbEntity
  8
RACCORDO
100
AcDbLine
 62
250
  6
CONTINUOUS
 10
19.0773647801
 20
67.6444291641
 11
19.0773647801
 21
68.2769383591
  0
LINE
  5
4B1
100
AcDbEntity
  8
RACCORDO
100
AcDbLine
 62
250
  6
CONTINUOUS
 10
19.0150060623
 20
35.7182892689
 11
19.0132230092
 21
-29.3219240268
  0
LINE
  5
4B2
100
AcDbEntity
  8
RACCORDO
100
AcDbLine
 62
250
  6
CONTINUOUS
 10
19.0203546852
 20
42.1133900296
 11
19.0150060623
 21
35.7182892689
  0
LINE
  5
4B3
100
AcDbEntity
  8
RACCORDO
100
AcDbLine
 62
250
  6
CONTINUOUS
 10
19.029268095
 20
48.505494208
 11
19.0203546852
 21
42.1133900296
  0
LINE
  5
4B4
100
AcDbEntity
  8
RACCORDO
100
AcDbLine
 62
250
  6
CONTINUOUS
 10
19.7288416248
 20
48.4718936838
 11
19.7199282604
 21
42.0909358217
  0
LINE
  5
4B5
100
AcDbEntity
  8
RACCORDO
100
AcDbLine
 62
250
  6
CONTINUOUS
 10
19.0417442738
 20
54.8926521867
 11
19.029268095
 21
48.505494208
  0
LINE
  5
4B6
100
AcDbEntity
  8
RACCORDO
100
AcDbLine
 62
250
  6
CONTINUOUS
 10
19.7413176629
 20
54.8478932183
 11
19.7288416248
 21
48.4718936838
  0
LINE
  5
4B7
100
AcDbEntity
  8
RACCORDO
100
AcDbLine
 62
250
  6
CONTINUOUS
 10
19.0577770592
 20
61.2728754712
 11
19.0417442738
 21
54.8926521867
  0
LINE
  5
4B8
100
AcDbEntity
  8
RACCORDO
100
AcDbLine
 62
250
  6
CONTINUOUS
 10
19.7573504568
 20
61.2166160003
 11
19.7413176629
 21
54.8478932183
  0
LINE
  5
4B9
100
AcDbEntity
  8
RACCORDO
100
AcDbLine
 62
250
  6
CONTINUOUS
 10
19.0773647801
 20
67.6444291641
 11
19.0577770592
 21
61.2728754712
  0
LINE
  5
4BA
100
AcDbEntity
  8
RACCORDO
100
AcDbLine
 62
250
  6
CONTINUOUS
 10
19.7769383958
 20
67.5773648169
 11
19.7573504568
 21
61.2166160003
  0
LINE
  5
4BB
100
AcDbEntity
  8
RACCORDO
100
AcDbLine
 62
250
  6
CONTINUOUS
 10
-13.4934283727
 20
67.6444291635
 11
-13.4269261547
 21
67.5110615077
  0
LWPOLYLINE
  5
4BC
100
AcDbEntity
  8
RACCORDO
100
AcDbPolyline
 62
250
  6
CONTINUOUS
 90
29
 70
0
 10
-13.4269261547
 20
67.5110615077
 10
-13.4240576147
 20
67.5051805475
 10
-13.4211674574
 20
67.4989930587
 10
-13.4182557639
 20
67.4924990137
 10
-13.4153187347
 20
67.4856927947
 10
-13.4123603433
 20
67.4785799608
 10
-13.4093923166
 20
67.4711772637
 10
-13.4064184839
 20
67.4634920714
 10
-13.4034351602
 20
67.4555169915
 10
-13.4004427848
 20
67.44724665
 10
-13.3974438797
 20
67.4386889607
 10
-13.3944360749
 20
67.4298359851
 10
-13.3914124866
 20
67.4206585625
 10
-13.3883734516
 20
67.4111599014
 10
-13.3853188249
 20
67.4013367489
 10
-13.3822410326
 20
67.3911502332
 10
-13.3791404024
 20
67.3806037913
 10
-13.3760168486
 20
67.3696939213
 10
-13.3728622182
 20
67.3583713218
 10
-13.3696744223
 20
67.3466295041
 10
-13.366455862
 20
67.3344748667
 10
-13.3632051521
 20
67.3218774248
 10
-13.3599187614
 20
67.3088209641
 10
-13.3566005797
 20
67.2953216007
 10
-13.3532603388
 20
67.281397856
 10
-13.3498975346
 20
67.2670427152
 10
-13.3465130006
 20
67.2522631226
 10
-13.3431184161
 20
67.237098568
 10
-13.3397147565
 20
67.2215487518
  0
LINE
  5
4BD
100
AcDbEntity
  8
RACCORDO
100
AcDbLine
 62
7
  6
CONTINUOUS
 10
12.721975504
 20
50.9307161368
 11
12.7219341981
 21
50.9310471527
  0
LWPOLYLINE
  5
4BE
100
AcDbEntity
  8
RACCORDO
100
AcDbPolyline
 62
250
  6
CONTINUOUS
 90
36
 70
0
 10
12.7257470562
 20
50.864602547
 10
12.7263892747
 20
50.8592791036
 10
12.7270386952
 20
50.8543453229
 10
12.7276953178
 20
50.8498012048
 10
12.7283595817
 20
50.8456401547
 10
12.7290310476
 20
50.8418687674
 10
12.7297083977
 20
50.8385068264
 10
12.7303914966
 20
50.8355561332
 10
12.7310804797
 20
50.8330148865
 10
12.7317744357
 20
50.8308974657
 10
12.7324733552
 20
50.8292044134
 10
12.7331772475
 20
50.8279351871
 10
12.7338852289
 20
50.8271025385
 10
12.7345973491
 20
50.8267070153
 10
12.7353135583
 20
50.8267480699
 10
12.7360328248
 20
50.8272368107
 10
12.7367551411
 20
50.8281738871
 10
12.7374805146
 20
50.8295586498
 10
12.738207935
 20
50.8314002593
 10
12.7389374191
 20
50.833699391
 10
12.7396689502
 20
50.8364553696
 10
12.7404014681
 20
50.8396753298
 10
12.7411349756
 20
50.8433599396
 10
12.7418694698
 20
50.8475085311
 10
12.7426038821
 20
50.8521262356
 10
12.7433382173
 20
50.8572137388
 10
12.7440724704
 20
50.862770355
 10
12.7448055577
 20
50.8687991587
 10
12.745537481
 20
50.8753008289
 10
12.7462682385
 20
50.8822746866
 10
12.7469967405
 20
50.8897217683
 10
12.7477229873
 20
50.8976427468
 10
12.7484469788
 20
50.9060369495
 10
12.7491676247
 20
50.9149033947
 10
12.7498849236
 20
50.9242427415
 10
12.7513084
 20
50.9443352045
  0
LINE
  5
4BF
100
AcDbEntity
  8
RACCORDO
100
AcDbLine
 62
250
  6
CONTINUOUS
 10
12.7249383226
 20
50.8717064957
 11
12.7257470562
 21
50.864602547
  0
LWPOLYLINE
  5
4C0
100
AcDbEntity
  8
RACCORDO
100
AcDbPolyline
 62
250
  6
CONTINUOUS
 90
22
 70
0
 10
19.7769383591
 20
67.5773647801
 10
19.7749444927
 20
67.6293020648
 10
19.7690882846
 20
67.6810330221
 10
19.7593841741
 20
67.732269221
 10
19.745860261
 20
67.7827486475
 10
19.72857847
 20
67.8321582994
 10
19.7076535836
 20
67.8801424977
 10
19.68321738
 20
67.9264073182
 10
19.6553956745
 20
67.9707216279
 10
19.6243396134
 20
68.0128432425
 10
19.5902184013
 20
68.0525391976
 10
19.5532242742
 20
68.0895826896
 10
19.5135684636
 20
68.1237611146
 10
19.4714748673
 20
68.1548818764
 10
19.427177063
 20
68.1827726392
 10
19.3809222107
 20
68.207277702
 10
19.3329685229
 20
68.2282600459
 10
19.2835845544
 20
68.2456019492
 10
19.2330471724
 20
68.259206116
 10
19.1816392896
 20
68.2689964302
 10
19.1296482241
 20
68.2749182143
 10
19.0773647801
 20
68.2769383591
  0
LINE
  5
4C1
100
AcDbEntity
  8
RACCORDO
100
AcDbLine
 62
250
  6
CONTINUOUS
 10
19.714579649
 20
-35.7073730357
 11
19.7199282524
 21
-42.0909286207
  0
LINE
  5
4C2
100
AcDbEntity
  8
RACCORDO
100
AcDbLine
 62
250
  6
CONTINUOUS
 10
19.7127965881
 20
-29.3219240268
 11
19.714579649
 21
-35.7073730357
  0
LINE
  5
4C3
100
AcDbEntity
  8
RACCORDO
100
AcDbLine
 62
7
  6
CONTINUOUS
 10
20.0
 20
-67.8004264211
 11
20.0
 21
67.8004264211
  0
LINE
  5
4C4
100
AcDbEntity
  8
RACCORDO
100
AcDbLine
 62
250
  6
CONTINUOUS
 10
19.7145796518
 20
35.7073773889
 11
19.7127965881
 21
-29.3219240268
  0
LINE
  5
4C5
100
AcDbEntity
  8
RACCORDO
100
AcDbLine
 62
250
  6
CONTINUOUS
 10
19.7199282604
 20
42.0909358217
 11
19.7145796518
 21
35.7073773889
  0
LWPOLYLINE
  5
4C6
100
AcDbEntity
  8
RACCORDO
100
AcDbPolyline
 62
250
  6
CONTINUOUS
 90
22
 70
0
 10
19.7769383591
 20
-67.5773647801
 10
19.7749216149
 20
-67.6296035568
 10
19.7690098944
 20
-67.6815506458
 10
19.7592362071
 20
-67.7329159879
 10
19.7456551266
 20
-67.7834127724
 10
19.7283424864
 20
-67.8327590384
 10
19.7073949555
 20
-67.8806792491
 10
19.6829294997
 20
-67.9269058306
 10
19.6550827276
 20
-67.9711806655
 10
19.6240101285
 20
-68.0132565348
 10
19.5898852035
 20
-68.0528984976
 10
19.5528984976
 20
-68.0898852035
 10
19.5132565348
 20
-68.1240101285
 10
19.4711806655
 20
-68.1550827276
 10
19.4269058306
 20
-68.1829294997
 10
19.3806792491
 20
-68.2073949555
 10
19.3327590384
 20
-68.2283424864
 10
19.2834127724
 20
-68.2456551266
 10
19.2329159879
 20
-68.2592362071
 10
19.1815506458
 20
-68.2690098944
 10
19.1296035568
 20
-68.2749216149
 10
19.0773647801
 20
-68.2769383591
  0
LWPOLYLINE
  5
4C7
100
AcDbEntity
  8
RACCORDO
100
AcDbPolyline
 62
7
  6
CONTINUOUS
 90
4
 70
0
 10
12.7178543913
 20
50.9549577775
 10
12.719408422
 20
50.9468838703
 10
12.7205456251
 20
50.9403498326
 10
12.7209484471
 20
50.9378530368
  0
LINE
  5
4C8
100
AcDbEntity
  8
RACCORDO
100
AcDbLine
 62
7
  6
CONTINUOUS
 10
12.7209484471
 20
50.9378530368
 11
12.721975504
 21
50.9307161368
  0
LWPOLYLINE
  5
4C9
100
AcDbEntity
  8
RACCORDO
100
AcDbPolyline
 62
250
  6
CONTINUOUS
 90
3
 70
0
 10
12.6860456463
 20
-50.9091530836
 10
12.6763128326
 20
-50.9379807831
 10
12.6653290225
 20
-50.966372896
  0
LWPOLYLINE
  5
4CA
100
AcDbEntity
  8
RACCORDO
100
AcDbPolyline
 62
250
  6
CONTINUOUS
 90
22
 70
0
 10
12.7729720728
 20
51.7601309707
 10
12.7693666142
 20
51.7725638084
 10
12.7620350919
 20
51.7849300806
 10
12.7510167588
 20
51.7971635784
 10
12.736370607
 20
51.8091988037
 10
12.718175052
 20
51.8209713197
 10
12.6965275127
 20
51.8324180969
 10
12.6715438902
 20
51.8434778492
 10
12.6433579465
 20
51.8540913626
 10
12.6121205892
 20
51.8642018124
 10
12.5779990631
 20
51.8737550673
 10
12.5411760547
 20
51.8826999791
 10
12.5018487143
 20
51.8909886566
 10
12.4602276006
 20
51.8985767223
 10
12.4165355527
 20
51.9054235497
 10
12.3710064979
 20
51.911492481
 10
12.3238841987
 20
51.9167510229
 10
12.2754209477
 20
51.9211710213
 10
12.2258762171
 20
51.9247288121
 10
12.1755152692
 20
51.927405347
 10
12.1246077366
 20
51.9291862957
 10
12.073426178
 20
51.9300621229
  0
LWPOLYLINE
  5
4CB
100
AcDbEntity
  8
RACCORDO
100
AcDbPolyline
 62
250
  6
CONTINUOUS
 90
19
 70
0
 10
12.7726461081
 20
-51.8068664391
 10
12.7680618096
 20
-51.8193709748
 10
12.7584154464
 20
-51.8317844356
 10
12.7437772795
 20
-51.8440164057
 10
12.7242539288
 20
-51.8559777913
 10
12.6999875962
 20
-51.8675814695
 10
12.6711550299
 20
-51.8787429227
 10
12.6379662372
 20
-51.8893808545
 10
12.6006629547
 20
-51.8994177815
 10
12.5595168878
 20
-51.908780598
 10
12.5148277314
 20
-51.9174011081
 10
12.466920987
 20
-51.9252165228
 10
12.4161455923
 20
-51.9321699171
 10
12.3628713792
 20
-51.9382106446
 10
12.3074863801
 20
-51.9432947067
 10
12.2503940018
 20
-51.9473850726
 10
12.1920100871
 20
-51.9504519494
 10
12.1327598859
 20
-51.9524729989
 10
12.073074958
 20
-51.9534335006
  0
LWPOLYLINE
  5
4CC
100
AcDbEntity
  8
RACCORDO
100
AcDbPolyline
 62
7
  6
CONTINUOUS
 90
17
 70
0
 10
12.6645831234
 20
-50.9674875854
 10
12.6578346469
 20
-50.98362507
 10
12.6340236547
 20
-51.0331140749
 10
12.6064033202
 20
-51.080470351
 10
12.5751651348
 20
-51.1254189945
 10
12.540505488
 20
-51.1676933127
 10
12.5026442469
 20
-51.2070505887
 10
12.4618329342
 20
-51.243255789
 10
12.4183408717
 20
-51.2760796415
 10
12.3724486852
 20
-51.3053464933
 10
12.3244547488
 20
-51.3308817366
 10
12.2747104494
 20
-51.3525309501
 10
12.2235486287
 20
-51.3701968459
 10
12.1712937605
 20
-51.3837964478
 10
12.1183124033
 20
-51.393287099
 10
12.0649434028
 20
-51.3986545166
 10
12.0215701809
 20
-51.3999930842
  0
LWPOLYLINE
  5
4CD
100
AcDbEntity
  8
RACCORDO
100
AcDbPolyline
 62
250
  6
CONTINUOUS
 90
3
 70
0
 10
12.6653290225
 20
-50.966372896
 10
12.6495549814
 20
-51.0026195845
 10
12.6317592652
 20
-51.0378553051
  0
LINE
  5
4CE
100
AcDbEntity
  8
RACCORDO
100
AcDbLine
 62
250
  6
CONTINUOUS
 10
-20.0
 20
-67.8004264211
 11
-19.7769383958
 21
-67.5773648169
  0
LWPOLYLINE
  5
4CF
100
AcDbEntity
  8
RACCORDO
100
AcDbPolyline
 62
250
  6
CONTINUOUS
 90
15
 70
0
 10
-12.7248431295
 20
-50.7
 10
-12.7276220222
 20
-50.7022829975
 10
-12.7303764018
 20
-50.7089972703
 10
-12.7331062683
 20
-50.7201428186
 10
-12.7358213685
 20
-50.7357917045
 10
-12.7385119555
 20
-50.7558718657
 10
-12.7411487888
 20
-50.7801671155
 10
-12.7437296704
 20
-50.8087072147
 10
-12.7462567983
 20
-50.8414624025
 10
-12.7487075257
 20
-50.8781272083
 10
-12.7510815666
 20
-50.9187401638
 10
-12.753379207
 20
-50.9632627375
 10
-12.7555786586
 20
-51.0112738642
 10
-12.757679229
 20
-51.0628149126
 10
-12.7615660918
 20
-51.1758174979
  0
LINE
  5
4D0
100
AcDbEntity
  8
RACCORDO
100
AcDbLine
 62
250
  6
CONTINUOUS
 10
12.8579965648
 20
29.3219240268
 11
19.7127965881
 21
29.3219240268
  0
LINE
  5
4D1
100
AcDbEntity
  8
RACCORDO
100
AcDbLine
 62
250
  6
CONTINUOUS
 10
-12.8579965648
 20
29.3219240268
 11
-19.7127965881
 21
29.3219240268
  0
LINE
  5
4D2
100
AcDbEntity
  8
RACCORDO
100
AcDbLine
 62
250
  6
CONTINUOUS
 10
-19.7769383958
 20
67.5773648169
 11
-20.0
 21
67.8004264211
  0
LWPOLYLINE
  5
4D3
100
AcDbEntity
  8
RACCORDO
100
AcDbPolyline
 62
250
  6
CONTINUOUS
 90
10
 70
0
 10
12.6311180417
 20
-51.05
 10
12.6032843669
 20
-51.0943240407
 10
12.5722181989
 20
-51.1364428613
 10
12.5380932721
 20
-51.1761209164
 10
12.501100427
 20
-51.2131363103
 10
12.4614465427
 20
-51.2472820377
 10
12.4193533797
 20
-51.278367142
 10
12.37505634
 20
-51.3062177826
 10
12.3288031508
 20
-51.3306782075
 10
12.3244547488
 20
-51.3308817366
  0
LWPOLYLINE
  5
4D4
100
AcDbEntity
  8
RACCORDO
100
AcDbPolyline
 62
250
  6
CONTINUOUS
 90
7
 70
0
 10
12.6120066599
 20
-51.0719705681
 10
12.5903693249
 20
-51.1048591172
 10
12.5669220932
 20
-51.1364212301
 10
12.5417416462
 20
-51.1665636035
 10
12.5149138015
 20
-51.1951950166
 10
12.486529641
 20
-51.2222293288
 10
12.4566799751
 20
-51.2475879933
  0
LINE
  5
4D5
100
AcDbEntity
  8
RACCORDO
100
AcDbLine
 62
250
  6
CONTINUOUS
 10
-19.3004264211
 20
-68.5
 11
-19.0773647801
 21
-68.2769383591
  0
LINE
  5
4D6
100
AcDbEntity
  8
RACCORDO
100
AcDbLine
 62
250
  6
CONTINUOUS
 10
-19.0773647801
 20
68.2769383591
 11
-19.3004264211
 21
68.5
  0
LWPOLYLINE
  5
4D7
100
AcDbEntity
  8
RACCORDO
100
AcDbPolyline
 62
250
  6
CONTINUOUS
 90
44
 70
0
 10
-13.3599790149
 20
67.5773647801
 10
-13.3542217791
 20
67.5715004434
 10
-13.3484207335
 20
67.5653309263
 10
-13.3425758779
 20
67.5588562288
 10
-13.3366793155
 20
67.5520708455
 10
-13.3307389431
 20
67.544980282
 10
-13.324778452
 20
67.5376010551
 10
-13.3188053404
 20
67.5299404518
 10
-13.31281211
 20
67.5219911853
 10
-13.3067999573
 20
67.5137479115
 10
-13.3007737858
 20
67.5052185477
 10
-13.294728692
 20
67.496395177
 10
-13.2886511627
 20
67.4872487041
 10
-13.2825416405
 20
67.4777823615
 10
-13.2763996829
 20
67.4679929173
 10
-13.2702104491
 20
67.4578415799
 10
-13.2639742944
 20
67.4473318136
 10
-13.2576908635
 20
67.4364601552
 10
-13.2513442508
 20
67.4251774215
 10
-13.2449298915
 20
67.4134772106
 10
-13.2384523504
 20
67.4013659261
 10
-13.2319094159
 20
67.3888135935
 10
-13.2252936182
 20
67.3758041058
 10
-13.2186124271
 20
67.3623535725
 10
-13.211886041
 20
67.3484803436
 10
-13.2051131598
 20
67.3341774407
 10
-13.1982950836
 20
67.3194518455
 10
-13.1914559107
 20
67.3043428487
 10
-13.1845974003
 20
67.2888501581
 10
-13.1777177934
 20
67.2729740699
 10
-13.1708359103
 20
67.2567547568
 10
-13.1639528989
 20
67.240191591
 10
-13.1570676114
 20
67.2232852051
 10
-13.1501954257
 20
67.2060776621
 10
-13.1433371369
 20
67.1885682493
 10
-13.1364919499
 20
67.1707576848
 10
-13.1296728565
 20
67.152690178
 10
-13.1228804244
 20
67.1343650148
 10
-13.1161140859
 20
67.1157829151
 10
-13.1093851299
 20
67.0969902388
 10
-13.1026939733
 20
67.0779863192
 10
-13.0960401991
 20
67.058771829
 10
-13.089433845
 20
67.039395136
 10
-13.0828751448
 20
67.0198553879
  0
LWPOLYLINE
  5
4D8
100
AcDbEntity
  8
RACCORDO
100
AcDbPolyline
 62
250
  6
CONTINUOUS
 90
22
 70
0
 10
12.8200694632
 20
58.7524193607
 10
12.816429442
 20
58.7593532122
 10
12.809066904
 20
58.7662499762
 10
12.7980212311
 20
58.7730727621
 10
12.7833515059
 20
58.7797850751
 10
12.7651361958
 20
58.7863510113
 10
12.7434727332
 20
58.7927354497
 10
12.7184769947
 20
58.7989042403
 10
12.6902826811
 20
58.8048243863
 10
12.6590406017
 20
58.8104642211
 10
12.6249178687
 20
58.8157935775
 10
12.5880970027
 20
58.8207839487
 10
12.5487749561
 20
58.8254086416
 10
12.5071620603
 20
58.8296429187
 10
12.4634809006
 20
58.8334641308
 10
12.4179651248
 20
58.8368518385
 10
12.3708581945
 20
58.8397879209
 10
12.3224120824
 20
58.8422566727
 10
12.2728859242
 20
58.8442448888
 10
12.2225446328
 20
58.845741934
 10
12.1716574819
 20
58.8467398005
 10
12.120496665
 20
58.8472331506
  0
LWPOLYLINE
  5
4D9
100
AcDbEntity
  8
RACCORDO
100
AcDbPolyline
 62
250
  6
CONTINUOUS
 90
19
 70
0
 10
12.8181430049
 20
-59.4898675295
 10
12.8135308672
 20
-59.4973108933
 10
12.803860176
 20
-59.5047000778
 10
12.7892013232
 20
-59.5119812978
 10
12.7696610092
 20
-59.519101554
 10
12.7453814658
 20
-59.5260090189
 10
12.7165394215
 20
-59.5326534137
 10
12.6833448144
 20
-59.5389863745
 10
12.6460392649
 20
-59.5449618044
 10
12.6048943161
 20
-59.5505362088
 10
12.560209458
 20
-59.5556690122
 10
12.5123099471
 20
-59.5603228535
 10
12.461544439
 20
-59.5644638577
 10
12.4082824508
 20
-59.568061883
 10
12.3529116709
 20
-59.5710907398
 10
12.2958351377
 20
-59.5735283811
 10
12.2374683054
 20
-59.5753570638
 10
12.1782360203
 20
-59.576563477
 10
12.1185694281
 20
-59.5771388394
  0
LINE
  5
4DA
100
AcDbEntity
  8
RACCORDO
100
AcDbLine
 62
7
  6
CONTINUOUS
 10
12.6653256587
 20
-50.9663715111
 11
12.664609399
 21
-50.9674228112
  0
LWPOLYLINE
  5
4DB
100
AcDbEntity
  8
RACCORDO
100
AcDbPolyline
 62
250
  6
CONTINUOUS
 90
24
 70
0
 10
-12.0252706678
 20
-51.4000000002
 10
-12.0280482698
 20
-51.4011196018
 10
-12.0308018179
 20
-51.4044770338
 10
-12.0335313123
 20
-51.410067566
 10
-12.0362466841
 20
-51.4178836699
 10
-12.0389380022
 20
-51.4279039198
 10
-12.0415754727
 20
-51.4400822079
 10
-12.044156689
 20
-51.454365031
 10
-12.0466840577
 20
-51.4707104426
 10
-12.0491350053
 20
-51.4890734847
 10
-12.0515092733
 20
-51.5093985857
 10
-12.0538071201
 20
-51.5316176629
 10
-12.0560067475
 20
-51.5556616077
 10
-12.0581074765
 20
-51.5814573087
 10
-12.0601099861
 20
-51.6089192008
 10
-12.061994515
 20
-51.6379500122
 10
-12.0637594014
 20
-51.6684462938
 10
-12.0654063071
 20
-51.7003175782
 10
-12.0669204563
 20
-51.7334798765
 10
-12.0683011332
 20
-51.7678367898
 10
-12.0695490535
 20
-51.803271019
 10
-12.0706515885
 20
-51.839662972
 10
-12.0716045285
 20
-51.8768938214
 10
-12.0730742524
 20
-51.9533993146
  0
LWPOLYLINE
  5
4DC
100
AcDbEntity
  8
RACCORDO
100
AcDbPolyline
 62
250
  6
CONTINUOUS
 90
7
 70
0
 10
12.4254677974
 20
-51.2711927814
 10
12.39299217
 20
-51.2929778269
 10
12.3593415467
 20
-51.3128889269
 10
12.3246262527
 20
-51.3308649419
 10
12.288954654
 20
-51.3468538901
 10
12.2524131375
 20
-51.3608177206
 10
12.2151001022
 20
-51.3727157541
  0
LINE
  5
4DD
100
AcDbEntity
  8
RACCORDO
100
AcDbLine
 62
250
  6
CONTINUOUS
 10
12.2808524785
 20
-51.351611624
 11
12.2747104494
 21
-51.3525309501
  0
LINE
  5
4DE
100
AcDbEntity
  8
RACCORDO
100
AcDbLine
 62
250
  6
CONTINUOUS
 10
-12.7255464522
 20
50.7
 11
-12.7180697434
 21
50.7000177049
  0
LINE
  5
4DF
100
AcDbEntity
  8
RACCORDO
100
AcDbLine
 62
250
  6
CONTINUOUS
 10
12.7180697434
 20
50.943666954
 11
12.71776519
 21
50.9436669539
  0
LINE
  5
4E0
100
AcDbEntity
  8
0
100
AcDbLine
 62
7
  6
CONTINUOUS
 10
12.7155954206
 20
51.0
 11
-12.6496647259
 21
51.0
  0
LINE
  5
4E1
100
AcDbEntity
  8
RACCORDO
100
AcDbLine
 62
7
  6
CONTINUOUS
 10
-12.0259744706
 20
51.4
 11
12.1906758729
 21
51.4
  0
LINE
  5
4E2
100
AcDbEntity
  8
RACCORDO
100
AcDbLine
 62
250
  6
CONTINUOUS
 10
-12.0733991794
 20
51.9300529755
 11
12.0734261867
 21
51.930062554
  0
LWPOLYLINE
  5
4E3
100
AcDbEntity
  8
RACCORDO
100
AcDbPolyline
 62
250
  6
CONTINUOUS
 90
57
 70
0
 10
12.1906759383
 20
51.4
 10
12.1858692349
 20
51.4000783698
 10
12.1811649553
 20
51.4003145288
 10
12.1765630995
 20
51.4007100091
 10
12.1720627735
 20
51.4012664453
 10
12.1676648714
 20
51.4019852382
 10
12.1633720753
 20
51.4028672157
 10
12.1591855869
 20
51.4039132111
 10
12.1551042046
 20
51.4051244642
 10
12.1511270056
 20
51.4065020838
 10
12.1472541861
 20
51.4080470241
 10
12.1434855499
 20
51.4097602952
 10
12.1398195867
 20
51.4116431396
 10
12.1362562078
 20
51.4136966302
 10
12.1327955019
 20
51.4159215934
 10
12.1294362252
 20
51.4183189188
 10
12.1261785708
 20
51.4208893688
 10
12.1230223458
 20
51.4236337896
 10
12.1199657275
 20
51.4265531724
 10
12.1170087867
 20
51.4296482773
 10
12.1141514528
 20
51.4329197587
 10
12.1113916908
 20
51.4363684439
 10
12.1087296272
 20
51.4399949112
 10
12.1061651355
 20
51.4437997363
 10
12.1036958009
 20
51.4477837303
 10
12.1013217358
 20
51.4519473646
 10
12.0990428278
 20
51.4562910689
 10
12.0968563246
 20
51.460815586
 10
12.0947623461
 20
51.4655212436
 10
12.0927607723
 20
51.4704083426
 10
12.0908484905
 20
51.4754775825
 10
12.0890256235
 20
51.4807291484
 10
12.0872920484
 20
51.4861631984
 10
12.0856442839
 20
51.4917803925
 10
12.0840824568
 20
51.497580764
 10
12.0826064402
 20
51.5035643222
 10
12.0812123722
 20
51.5097316951
 10
12.0799003841
 20
51.5160827563
 10
12.0786703446
 20
51.5226173578
 10
12.0775179981
 20
51.5293361019
 10
12.076443481
 20
51.5362386934
 10
12.0754466569
 20
51.5433248179
 10
12.0745228608
 20
51.5505950568
 10
12.0736722355
 20
51.5580489358
 10
12.0728946382
 20
51.5656859637
 10
12.0721849754
 20
51.5735067075
 10
12.0715433977
 20
51.5815105014
 10
12.0709697544
 20
51.5896966662
 10
12.0704585012
 20
51.5980657594
 10
12.0700097972
 20
51.6066169112
 10
12.0696234832
 20
51.6153492407
 10
12.0692935364
 20
51.6242632983
 10
12.0690201269
 20
51.6333579944
 10
12.0688030846
 20
51.6426322318
 10
12.0686358766
 20
51.6520865562
 10
12.0685186857
 20
51.6617196447
 10
12.068451329
 20
51.6715301629
  0
LWPOLYLINE
  5
4E4
100
AcDbEntity
  8
RACCORDO
100
AcDbPolyline
 62
7
  6
CONTINUOUS
 90
7
 70
0
 10
12.1907345058
 20
51.4000000112
 10
12.2057184138
 20
51.3997509025
 10
12.226054309
 20
51.3986368774
 10
12.246673813
 20
51.3966143348
 10
12.2673605772
 20
51.393693285
 10
12.2879857624
 20
51.3898945329
 10
12.3084645407
 20
51.38524258
  0
LWPOLYLINE
  5
4E5
100
AcDbEntity
  8
RACCORDO
100
AcDbPolyline
 62
7
  6
CONTINUOUS
 90
36
 70
0
 10
12.3084645407
 20
51.38524258
 10
12.3287041005
 20
51.3797722164
 10
12.3486187929
 20
51.3735260263
 10
12.3681601732
 20
51.3665422928
 10
12.3873211789
 20
51.3588458287
 10
12.4060571642
 20
51.3504763697
 10
12.4243264699
 20
51.3414767072
 10
12.4421406953
 20
51.331864337
 10
12.4594698911
 20
51.3216772252
 10
12.4762864364
 20
51.3109551973
 10
12.4926109814
 20
51.2997070771
 10
12.5084221433
 20
51.2879677347
 10
12.5237010154
 20
51.2757728549
 10
12.5384723078
 20
51.2631223089
 10
12.5527234836
 20
51.2500438555
 10
12.5664361991
 20
51.2365727574
 10
12.5796242851
 20
51.2227129864
 10
12.5922936196
 20
51.2084725253
 10
12.6044128789
 20
51.1939021996
 10
12.6159429043
 20
51.1790723189
 10
12.6268806812
 20
51.164015662
 10
12.6372221327
 20
51.1487689768
 10
12.6469354844
 20
51.1334179263
 10
12.6560243358
 20
51.11800403
 10
12.6644967534
 20
51.1025642833
 10
12.6723360528
 20
51.0871886857
 10
12.6795588728
 20
51.0719135765
 10
12.6861757487
 20
51.0567912063
 10
12.692169259
 20
51.0419528885
 10
12.6975735733
 20
51.0274197581
 10
12.7023978134
 20
51.0132827591
 10
12.7066043953
 20
50.9998092434
 10
12.7102329444
 20
50.9870701756
 10
12.7133188425
 20
50.9751562062
 10
12.7158455492
 20
50.9644000881
 10
12.7175988239
 20
50.9561590404
  0
LWPOLYLINE
  5
4E6
100
AcDbEntity
  8
RACCORDO
100
AcDbPolyline
 62
250
  6
CONTINUOUS
 90
13
 70
0
 10
19.7769383591
 20
-67.5773647801
 10
19.7732864914
 20
-67.5825504065
 10
19.7659926779
 20
-67.5873072608
 10
19.7551194452
 20
-67.5918435552
 10
19.7406093545
 20
-67.5965764135
 10
19.7224349996
 20
-67.6013984592
 10
19.700793807
 20
-67.6057915802
 10
19.6758718281
 20
-67.6100639349
 10
19.6476859281
 20
-67.6144281684
 10
19.6164074869
 20
-67.618312661
 10
19.5822982579
 20
-67.6219750185
 10
19.5455142379
 20
-67.6257028201
 10
19.5061562809
 20
-67.6289208961
  0
LINE
  5
4E7
100
AcDbEntity
  8
RACCORDO
100
AcDbLine
 62
250
  6
CONTINUOUS
 10
-13.4934283724
 20
67.6444291641
 11
-13.3599790149
 21
67.5773647801
  0
LINE
  5
4E8
100
AcDbEntity
  8
RACCORDO
100
AcDbLine
 62
250
  6
CONTINUOUS
 10
13.4269260545
 20
67.5110616071
 11
13.359979015
 21
67.5773647802
  0
LWPOLYLINE
  5
4E9
100
AcDbEntity
  8
RACCORDO
100
AcDbPolyline
 62
250
  6
CONTINUOUS
 90
22
 70
0
 10
19.7769383591
 20
67.5773647801
 10
19.7732906415
 20
67.5822643233
 10
19.7659212217
 20
67.5871377603
 10
19.7548695106
 20
67.5919591771
 10
19.7401946118
 20
67.596703008
 10
19.7219750045
 20
67.6013439223
 10
19.7003081237
 20
67.6058569287
 10
19.6753098404
 20
67.6102178969
 10
19.6471138421
 20
67.6144036065
 10
19.6158709161
 20
67.6183915953
 10
19.5817481448
 20
67.6221605184
 10
19.5449280114
 20
67.6256902681
 10
19.5056074244
 20
67.6289619676
 10
19.4639966638
 20
67.6319580727
 10
19.4203182577
 20
67.6346625785
 10
19.3748057916
 20
67.6370610994
 10
19.3277026586
 20
67.6391407071
 10
19.2792607589
 20
67.6408902756
 10
19.2297391529
 20
67.6423006209
 10
19.1794026741
 20
67.6433641621
 10
19.1285205134
 20
67.6440749931
 10
19.0773647801
 20
67.6444291642
  0
LINE
  5
4EA
100
AcDbEntity
  8
0
100
AcDbLine
 62
7
  6
CONTINUOUS
 10
-3.6749773271
 20
-68.5
 11
-3.5
 21
-68.430158461
  0
LINE
  5
4EB
100
AcDbEntity
  8
0
100
AcDbLine
 62
7
  6
CONTINUOUS
 10
-3.6749773271
 20
68.5
 11
-3.5
 21
68.430158461
  0
LINE
  5
4EC
100
AcDbEntity
  8
RACCORDO
100
AcDbLine
 62
7
  6
CONTINUOUS
 10
13.4492730271
 20
-67.6206533092
 11
13.422542375
 21
-67.6349947237
  0
LWPOLYLINE
  5
4ED
100
AcDbEntity
  8
RACCORDO
100
AcDbPolyline
 62
7
  6
CONTINUOUS
 90
3
 70
0
 10
13.4928004377
 20
-67.5999080336
 10
13.4779422195
 20
-67.6069370733
 10
13.4492730271
 20
-67.6206533092
  0
LWPOLYLINE
  5
4EE
100
AcDbEntity
  8
RACCORDO
100
AcDbPolyline
 62
7
  6
CONTINUOUS
 90
5
 70
0
 10
13.422542375
 20
-67.6349947237
 10
13.4088873487
 20
-67.6403661423
 10
13.3944969741
 20
-67.6434579276
 10
13.3796423584
 20
-67.6448141465
 10
13.3643235018
 20
-67.6444357517
  0
LWPOLYLINE
  5
4EF
100
AcDbEntity
  8
RACCORDO
100
AcDbPolyline
 62
250
  6
CONTINUOUS
 90
3
 70
0
 10
-19.5061562807
 20
67.628920895
 10
-19.4208024948
 20
67.6346920064
 10
-19.3752059739
 20
67.6370370585
  0
LWPOLYLINE
  5
4F0
100
AcDbEntity
  8
RACCORDO
100
AcDbPolyline
 62
250
  6
CONTINUOUS
 90
3
 70
0
 10
-19.3752059739
 20
67.6370370585
 10
-19.2795657874
 20
67.6409420264
 10
-19.2299569285
 20
67.6422998094
  0
LINE
  5
4F1
100
AcDbEntity
  8
RACCORDO
100
AcDbLine
 62
250
  6
CONTINUOUS
 10
-19.2299569285
 20
67.6422998094
 11
-19.0773647801
 21
67.6444291642
  0
LINE
  5
4F2
100
AcDbEntity
  8
RACCORDO
100
AcDbLine
 62
250
  6
CONTINUOUS
 10
13.3599790149
 20
67.5773647801
 11
-13.3599790149
 21
67.5773647801
  0
LINE
  5
4F3
100
AcDbEntity
  8
RACCORDO
100
AcDbLine
 62
250
  6
CONTINUOUS
 10
-19.0773647801
 20
67.6444291641
 11
-13.4934283727
 21
67.6444291641
  0
LINE
  5
4F4
100
AcDbEntity
  8
RACCORDO
100
AcDbLine
 62
250
  6
CONTINUOUS
 10
13.4934284716
 20
67.6444291641
 11
19.0773647801
 21
67.6444291641
  0
LINE
  5
4F5
100
AcDbEntity
  8
RACCORDO
100
AcDbLine
 62
250
  6
CONTINUOUS
 10
-19.0773647801
 20
68.2769383591
 11
-12.7
 21
68.2769383591
  0
LINE
  5
4F6
100
AcDbEntity
  8
RACCORDO
100
AcDbLine
 62
250
  6
CONTINUOUS
 10
12.7
 20
68.2769383591
 11
19.0773647801
 21
68.2769383591
  0
LINE
  5
4F7
100
AcDbEntity
  8
ASSI
100
AcDbLine
 62
7
  6
CONTINUOUS
 10
-12.7
 20
68.2773647801
 11
12.7
 21
68.2773647801
  0
LINE
  5
4F8
100
AcDbEntity
  8
0
100
AcDbLine
 62
7
  6
CONTINUOUS
 10
-3.5
 20
68.430158461
 11
3.5
 21
68.430158461
  0
LINE
  5
4F9
100
AcDbEntity
  8
RACCORDO
100
AcDbLine
 62
7
  6
CONTINUOUS
 10
-19.3004264211
 20
68.5
 11
-3.6749773271
 21
68.5
  0
LINE
  5
4FA
100
AcDbEntity
  8
RACCORDO
100
AcDbLine
 62
7
  6
CONTINUOUS
 10
3.6749773271
 20
68.5
 11
19.3004264211
 21
68.5
  0
LWPOLYLINE
  5
4FB
100
AcDbEntity
  8
0
100
AcDbPolyline
 62
7
  6
CONTINUOUS
 90
3
 70
0
 43
0.3500000006
 10
-0.8571428254
 20
77.8928585815
 10
-2.3571427875
 20
77.8928585815
 10
-1.7142856507
 20
80.2499969788
  0
LINE
  5
4FC
100
AcDbEntity
  8
RACCORDO
100
AcDbLine
 62
7
  6
CONTINUOUS
 10
-41.4803561142
 20
-68.2769383591
 11
-35.0927064665
 21
-68.5
  0
LINE
  5
4FD
100
AcDbEntity
  8
RACCORDO
100
AcDbLine
 62
250
  6
CONTINUOUS
 10
-41.9386811761
 20
-67.6219750185
 11
-41.9740958588
 21
-67.6257028201
  0
LWPOLYLINE
  5
4FE
100
AcDbEntity
  8
RACCORDO
100
AcDbPolyline
 62
250
  6
CONTINUOUS
 90
3
 70
0
 10
-41.8174787848
 20
-67.6100639349
 10
-41.8601047606
 20
-67.6144281684
 10
-41.9386811761
 20
-67.6219750185
  0
LINE
  5
4FF
100
AcDbEntity
  8
RACCORDO
100
AcDbLine
 62
250
  6
CONTINUOUS
 10
-41.4803561142
 20
-67.5773647801
 11
-41.531199842
 21
-67.5825504065
  0
LWPOLYLINE
  5
500
100
AcDbEntity
  8
RACCORDO
100
AcDbPolyline
 62
250
  6
CONTINUOUS
 90
7
 70
0
 10
-42.0631859868
 20
-67.6346920075
 10
-42.1065931311
 20
-67.6390371088
 10
-42.1230641482
 20
-67.6409420271
 10
-42.1359993142
 20
-67.6422998099
 10
-42.1453157321
 20
-67.6430867585
 10
-42.1508963902
 20
-67.6437283083
 10
-42.1527064665
 20
-67.6444291642
  0
LWPOLYLINE
  5
501
100
AcDbEntity
  8
RACCORDO
100
AcDbPolyline
 62
250
  6
CONTINUOUS
 90
3
 70
0
 10
-41.9740958588
 20
-67.6257028201
 10
-42.036585642
 20
-67.6318199154
 10
-42.0631859868
 20
-67.6346920075
  0
LINE
  5
502
100
AcDbEntity
  8
RACCORDO
100
AcDbLine
 62
250
  6
CONTINUOUS
 10
-41.7266787412
 20
-67.6013984592
 11
-41.8174787848
 21
-67.6100639349
  0
LWPOLYLINE
  5
503
100
AcDbEntity
  8
RACCORDO
100
AcDbPolyline
 62
250
  6
CONTINUOUS
 90
3
 70
0
 10
-41.531199842
 20
-67.5825504065
 10
-41.6303941687
 20
-67.5918435552
 10
-41.7266787412
 20
-67.6013984592
  0
LINE
  5
504
100
AcDbEntity
  8
RACCORDO
100
AcDbLine
 62
250
  6
CONTINUOUS
 10
-41.4803550614
 20
-67.5773648169
 11
-35.0927064665
 21
-67.8004264211
  0
LWPOLYLINE
  5
505
100
AcDbEntity
  8
0
100
AcDbPolyline
 62
7
  6
CONTINUOUS
 90
10
 70
0
 43
0.3500000006
 10
-38.2569907379
 20
77.2499960632
 10
-37.3998482666
 20
78.1071430664
 10
-37.1855637817
 20
78.9642900696
 10
-37.1855637817
 20
79.821428009
 10
-37.6141350174
 20
80.2499969788
 10
-38.2569907379
 20
80.2499969788
 10
-38.6855642395
 20
79.821428009
 10
-38.6855642395
 20
78.9642900696
 10
-38.2569907379
 20
78.5357120361
 10
-37.3284216156
 20
78.5357120361
  0
LINE
  5
506
100
AcDbEntity
  8
RACCORDO
100
AcDbLine
 62
250
  6
CONTINUOUS
 10
-43.3171361142
 20
-29.3219240268
 11
-43.9927064665
 21
-29.3219240268
  0
LWPOLYLINE
  5
507
100
AcDbEntity
  8
0
100
AcDbPolyline
 62
7
  6
CONTINUOUS
 90
3
 70
0
 43
0.3500000006
 10
-39.6855645447
 20
77.535711731
 10
-39.7569911957
 20
77.3214272461
 10
-39.8998490295
 20
77.0357115784
  0
LWPOLYLINE
  5
508
100
AcDbEntity
  8
0
100
AcDbPolyline
 62
7
  6
CONTINUOUS
 90
6
 70
0
 43
0.3500000006
 10
-52.7427062073
 20
-1.3928574028
 10
-52.7427062073
 20
-0.3214293137
 10
-52.9569906921
 20
-0.1071425629
 10
-54.0284221802
 20
-0.1071425629
 10
-54.4569911499
 20
-0.5357137985
 10
-54.4569911499
 20
-0.9642850342
  0
LWPOLYLINE
  5
509
100
AcDbEntity
  8
0
100
AcDbPolyline
 62
7
  6
CONTINUOUS
 90
3
 70
0
 43
0.3500000006
 10
-54.8855646515
 20
-3.1071423454
 10
-55.7427071228
 20
-2.2499998741
 10
-52.7427062073
 20
-2.2499998741
  0
LWPOLYLINE
  5
50A
100
AcDbEntity
  8
0
100
AcDbPolyline
 62
7
  6
CONTINUOUS
 90
5
 70
0
 43
0.3500000006
 10
-54.4569911499
 20
-0.5357137985
 10
-54.6712756348
 20
-0.1785714798
 10
-55.3141336212
 20
-0.1785714798
 10
-55.7427071228
 20
-0.5357137985
 10
-55.7427071228
 20
-1.3928574028
  0
LINE
  5
50B
100
AcDbEntity
  8
RACCORDO
100
AcDbLine
 62
7
  6
CONTINUOUS
 10
-43.9927064665
 20
29.3219240268
 11
-43.9927064665
 21
-29.3219240268
  0
LWPOLYLINE
  5
50C
100
AcDbEntity
  8
RACCORDO
100
AcDbPolyline
 62
250
  6
CONTINUOUS
 90
13
 70
0
 10
-41.4803550626
 20
67.5773648169
 10
-41.7735453294
 20
64.3979581037
 10
-42.0412802438
 20
61.2166160003
 10
-42.2835598058
 20
58.0333385066
 10
-42.5003993924
 20
54.8478932183
 10
-42.6917836266
 20
51.6605125397
 10
-42.8576663773
 20
48.4718936838
 10
-42.9980397994
 20
45.2820338414
 10
-43.1129117382
 20
42.0909358217
 10
-43.2022595985
 20
38.8993052663
 10
-43.2660758488
 20
35.7073773889
 10
-43.3043680207
 20
32.5149169757
 10
-43.3171361142
 20
29.3219240268
  0
LINE
  5
50D
100
AcDbEntity
  8
RACCORDO
100
AcDbLine
 62
250
  6
CONTINUOUS
 10
-41.4803561142
 20
67.5773647801
 11
-41.4837021583
 21
67.6810330221
  0
LINE
  5
50E
100
AcDbEntity
  8
RACCORDO
100
AcDbLine
 62
250
  6
CONTINUOUS
 10
-41.4837021583
 20
67.6810330221
 11
-41.4864430058
 21
67.7827486475
  0
LINE
  5
50F
100
AcDbEntity
  8
RACCORDO
100
AcDbLine
 62
250
  6
CONTINUOUS
 10
-41.4864430058
 20
67.7827486475
 11
-41.4885098674
 21
67.8801424977
  0
LINE
  5
510
100
AcDbEntity
  8
RACCORDO
100
AcDbLine
 62
250
  6
CONTINUOUS
 10
-41.4885098674
 20
67.8801424977
 11
-41.4898480739
 21
67.9707216279
  0
LWPOLYLINE
  5
511
100
AcDbEntity
  8
RACCORDO
100
AcDbPolyline
 62
250
  6
CONTINUOUS
 90
13
 70
0
 10
-41.4898480739
 20
67.9707216279
 10
-41.4904291659
 20
68.0525391976
 10
-41.4904308897
 20
68.0895826896
 10
-41.4902396152
 20
68.1237611146
 10
-41.4898564354
 20
68.1548818764
 10
-41.4892834889
 20
68.1827726392
 10
-41.4885239695
 20
68.207277702
 10
-41.4875821094
 20
68.2282600459
 10
-41.4864631758
 20
68.2456019492
 10
-41.4851734395
 20
68.259206116
 10
-41.483720122
 20
68.2689964302
 10
-41.4821113473
 20
68.2749182143
 10
-41.4803561142
 20
68.2769383591
  0
LWPOLYLINE
  5
512
100
AcDbEntity
  8
RACCORDO
100
AcDbPolyline
 62
250
  6
CONTINUOUS
 90
13
 70
0
 10
-43.3171361142
 20
-29.3219240268
 10
-43.3043680553
 20
-32.5149146
 10
-43.2660759307
 20
-35.7073730357
 10
-43.2022597404
 20
-38.899299334
 10
-43.1129119686
 20
-42.0909286207
 10
-42.9980401311
 20
-45.2820257701
 10
-42.8576667752
 20
-48.4718854045
 10
-42.6917840385
 20
-51.6605049847
 10
-42.5003997836
 20
-54.84788705
 10
-42.2835601449
 20
-58.0333338417
 10
-42.0412805008
 20
-61.2166127737
 10
-41.773545473
 20
-64.3979564321
 10
-41.4803550614
 20
-67.5773648169
  0
LINE
  5
513
100
AcDbEntity
  8
RACCORDO
100
AcDbLine
 62
250
  6
CONTINUOUS
 10
-43.3171361142
 20
29.3219240268
 11
-43.3171361142
 21
-29.3219240268
  0
LWPOLYLINE
  5
514
100
AcDbEntity
  8
0
100
AcDbPolyline
 62
7
  6
CONTINUOUS
 90
4
 70
0
 43
0.3500000006
 10
-42.7569921112
 20
77.6785740967
 10
-42.7569921112
 20
78.5357120361
 10
-42.3284186096
 20
78.9642900696
 10
-41.685565155
 20
78.9642900696
  0
LWPOLYLINE
  5
515
100
AcDbEntity
  8
RACCORDO
100
AcDbPolyline
 62
250
  6
CONTINUOUS
 90
12
 70
0
 10
-41.4904300774
 20
-68.0528984976
 10
-41.4904300774
 20
-68.0898852035
 10
-41.4902374182
 20
-68.1240101285
 10
-41.4898531755
 20
-68.1550827276
 10
-41.4892794949
 20
-68.1829294997
 10
-41.4885195797
 20
-68.2073949555
 10
-41.4875776729
 20
-68.2283424864
 10
-41.4864590341
 20
-68.2456551266
 10
-41.4851699093
 20
-68.2592362071
 10
-41.4837174967
 20
-68.2690098944
 10
-41.4821099062
 20
-68.2749216149
 10
-41.4803561142
 20
-68.2769383591
  0
LINE
  5
516
100
AcDbEntity
  8
RACCORDO
100
AcDbLine
 62
250
  6
CONTINUOUS
 10
-41.4898531755
 20
-67.9711806655
 11
-41.4904300774
 21
-68.0528984976
  0
LINE
  5
517
100
AcDbEntity
  8
RACCORDO
100
AcDbLine
 62
250
  6
CONTINUOUS
 10
-41.4885195797
 20
-67.8806792491
 11
-41.4898531755
 21
-67.9711806655
  0
LINE
  5
518
100
AcDbEntity
  8
RACCORDO
100
AcDbLine
 62
250
  6
CONTINUOUS
 10
-41.4864590341
 20
-67.7834127724
 11
-41.4885195797
 21
-67.8806792491
  0
LINE
  5
519
100
AcDbEntity
  8
RACCORDO
100
AcDbLine
 62
250
  6
CONTINUOUS
 10
-41.4837174967
 20
-67.6815506458
 11
-41.4864590341
 21
-67.7834127724
  0
LINE
  5
51A
100
AcDbEntity
  8
RACCORDO
100
AcDbLine
 62
250
  6
CONTINUOUS
 10
-41.4803561142
 20
-67.5773647801
 11
-41.4837174967
 21
-67.6815506458
  0
LINE
  5
51B
100
AcDbEntity
  8
RACCORDO
100
AcDbLine
 62
7
  6
CONTINUOUS
 10
-35.0927064665
 20
-68.5
 11
-35.0927064665
 21
68.5
  0
LWPOLYLINE
  5
51C
100
AcDbEntity
  8
0
100
AcDbPolyline
 62
7
  6
CONTINUOUS
 90
4
 70
0
 43
0.3500000006
 10
-55.0998491364
 20
0.7499999084
 10
-55.7427071228
 20
0.7499999084
 10
-55.7427071228
 20
2.2500003662
 10
-52.7427062073
 20
1.3928578949
  0
LINE
  5
51D
100
AcDbEntity
  8
RACCORDO
100
AcDbLine
 62
250
  6
CONTINUOUS
 10
-43.3171361142
 20
29.3219240268
 11
-43.9927064665
 21
29.3219240268
  0
LWPOLYLINE
  5
51E
100
AcDbEntity
  8
0
100
AcDbPolyline
 62
7
  6
CONTINUOUS
 90
10
 70
0
 43
0.3500000006
 10
-39.7569911957
 20
77.7499962158
 10
-39.6855645447
 20
77.6071429138
 10
-39.6855645447
 20
77.535711731
 10
-39.8284223785
 20
77.392858429
 10
-39.8998490295
 20
77.392858429
 10
-39.9712756805
 20
77.4642896118
 10
-39.9712756805
 20
77.535711731
 10
-39.8998490295
 20
77.6785740967
 10
-39.8284223785
 20
77.7499962158
 10
-39.7569911957
 20
77.7499962158
  0
LINE
  5
51F
100
AcDbEntity
  8
RACCORDO
100
AcDbLine
 62
250
  6
CONTINUOUS
 10
-35.0927064665
 20
67.8004264211
 11
-41.4803550626
 21
67.5773648169
  0
LINE
  5
520
100
AcDbEntity
  8
RACCORDO
100
AcDbLine
 62
7
  6
CONTINUOUS
 10
-35.0927064665
 20
68.5
 11
-41.4803561142
 21
68.2769383591
  0
LINE
  5
521
100
AcDbEntity
  8
RACCORDO
100
AcDbLine
 62
250
  6
CONTINUOUS
 10
-41.4803561142
 20
67.5773647801
 11
-42.0072394157
 21
67.6289619676
  0
LINE
  5
522
100
AcDbEntity
  8
RACCORDO
100
AcDbLine
 62
250
  6
CONTINUOUS
 10
-42.0072394157
 20
67.6289619676
 11
-42.1067065226
 21
67.6391407071
  0
LWPOLYLINE
  5
523
100
AcDbEntity
  8
RACCORDO
100
AcDbPolyline
 62
250
  6
CONTINUOUS
 90
5
 70
0
 10
-42.1067065226
 20
67.6391407071
 10
-42.1360480638
 20
67.6423006209
 10
-42.1452974477
 20
67.6433641621
 10
-42.15086016
 20
67.6440749931
 10
-42.1527064665
 20
67.6444291642
  0
LWPOLYLINE
  5
524
100
AcDbEntity
  8
0
100
AcDbPolyline
 62
7
  6
CONTINUOUS
 90
13
 70
0
 43
0.3500000006
 10
-42.3284186096
 20
78.9642900696
 10
-42.6141342773
 20
79.1785745544
 10
-42.6141342773
 20
79.821428009
 10
-42.3284186096
 20
80.2499969788
 10
-41.685565155
 20
80.2499969788
 10
-41.3998494873
 20
79.821428009
 10
-41.3998494873
 20
79.1785745544
 10
-41.685565155
 20
78.9642900696
 10
-41.2569916534
 20
78.5357120361
 10
-41.2569916534
 20
77.6785740967
 10
-41.685565155
 20
77.2499960632
 10
-42.3284186096
 20
77.2499960632
 10
-42.7569921112
 20
77.6785740967
  0
ARC
  5
525
100
AcDbEntity
  8
RACCORDO
100
AcDbCircle
 62
7
  6
CONTINUOUS
 10
356.0072935335
 20
29.3219240268
 40
400.0
100
AcDbArc
 50
174.5022730522
 51
180.0
  0
ARC
  5
526
100
AcDbEntity
  8
RACCORDO
100
AcDbCircle
 62
7
  6
CONTINUOUS
 10
356.0072935335
 20
-29.3219240268
 40
400.0
100
AcDbArc
 50
180.0
 51
185.4977269478
  0
ARC
  5
527
100
AcDbEntity
  8
RACCORDO
100
AcDbCircle
 62
7
  6
CONTINUOUS
 10
-41.4559264665
 20
67.5773647801
 40
0.7
100
AcDbArc
 50
92.0
 51
174.5022730522
  0
ARC
  5
528
100
AcDbEntity
  8
RACCORDO
100
AcDbCircle
 62
7
  6
CONTINUOUS
 10
-41.4559264665
 20
-67.5773647801
 40
0.7
100
AcDbArc
 50
185.4977269478
 51
268.0
  0
ELLIPSE
  5
529
100
AcDbEntity
  8
RACCORDO
100
AcDbEllipse
 62
7
  6
CONTINUOUS
 10
19.299573319
 20
-67.799573319
 30
0.0
 11
-0.4955779812
 21
0.4955779812
 31
0.0
 40
0.998782766
 41
-3.9263818294
 42
-2.3568034778
  0
ELLIPSE
  5
52A
100
AcDbEntity
  8
RACCORDO
100
AcDbEllipse
 62
7
  6
CONTINUOUS
 10
19.299573319
 20
67.799573319
 30
0.0
 11
0.4955779812
 21
0.4955779812
 31
0.0
 40
0.998782766
 41
-0.7847891758
 42
0.7847891758
  0
ELLIPSE
  5
52B
100
AcDbEntity
  8
RACCORDO
100
AcDbEllipse
 62
7
  6
CONTINUOUS
 10
-19.299573319
 20
-67.799573319
 30
0.0
 11
0.4955779812
 21
0.4955779812
 31
0.0
 40
0.998782766
 41
-3.9263818294
 42
-2.3568034778
  0
ELLIPSE
  5
52C
100
AcDbEntity
  8
RACCORDO
100
AcDbEllipse
 62
7
  6
CONTINUOUS
 10
-19.299573319
 20
67.799573319
 30
0.0
 11
-0.4955779812
 21
0.4955779812
 31
0.0
 40
0.998782766
 41
-0.7847891758
 42
0.7847891758
  0
ENDSEC
  0
SECTION
  2
OBJECTS
  0
DICTIONARY
  5
C
100
AcDbDictionary
280
0
281
1
  3
ACAD_GROUP
350
D
  3
ACAD_MLINESTYLE
350
17
  3
ACAD_LAYOUT
350
1A
  3
ACAD_PLOTSETTINGS
350
19
  3
ACAD_PLOTSTYLENAME
350
E
  0
DICTIONARY
  5
D
102
{ACAD_REACTORS
330
C
102
}
100
AcDbDictionary
280
0
281
1
  0
ACDBDICTIONARYWDFLT
  5
E
102
{ACAD_REACTORS
330
C
102
}
100
AcDbDictionary
281
1
  3
Normal
350
F
100
AcDbDictionaryWithDefault
340
F
  0
DICTIONARY
  5
17
102
{ACAD_REACTORS
330
C
102
}
100
AcDbDictionary
280
0
281
1
  3
Standard
350
18
  0
DICTIONARY
  5
19
102
{ACAD_REACTORS
330
C
102
}
100
AcDbDictionary
281
1
  0
DICTIONARY
  5
1A
102
{ACAD_REACTORS
330
C
102
}
100
AcDbDictionary
281
1
  3
Model
350
52D
  3
Layout1
350
52E
  0
ACDBPLACEHOLDER
  5
F
102
{ACAD_REACTORS
330
E
102
}
  0
MLINESTYLE
  5
18
102
{ACAD_REACTORS
330
17
102
}
100
AcDbMlineStyle
  2
STANDARD
 70
0
  3

 62
256
 51
90.0
 52
90.0
 71
2
 49
0.5
 62
256
  6
BYLAYER
 49
-0.5
 62
256
  6
BYLAYER
  0
LAYOUT
  5
52D
102
{ACAD_REACTORS
330
1A
102
}
100
AcDbPlotSettings
  1

  2
none_device
  4
ISO_A4_(297.00_x_210.00_MM)
  6

 40
0.0
 41
0.0
 42
0.0
 43
0.0
 44
297.0
 45
210.0
 46
0.0
 47
0.0
 48
0.0
 49
0.0
140
0.0
141
0.0
142
1.0
143
1.0
 70
1024
 72
1
 73
0
 74
0
  7

 75
0
147
1.0
148
0.0
149
0.0
100
AcDbLayout
  1
Model
 70
0
 71
0
 10
0.0
 20
0.0
 11
297.0
 21
210.0
 12
0.0
 22
0.0
 32
0.0
 14
0.0
 24
0.0
 34
0.0
 15
0.0
 25
0.0
 35
0.0
146
0.0
 13
0.0
 23
0.0
 33
0.0
 16
1.0
 26
0.0
 36
0.0
 17
0.0
 27
1.0
 37
0.0
 76
0
330
20F
345
0
346
0
  0
LAYOUT
  5
52E
102
{ACAD_REACTORS
330
1A
102
}
100
AcDbPlotSettings
  1

  2
none_device
  4
ISO_A4_(297.00_x_210.00_MM)
  6

 40
0.0
 41
0.0
 42
0.0
 43
0.0
 44
297.0
 45
210.0
 46
0.0
 47
0.0
 48
0.0
 49
0.0
140
0.0
141
0.0
142
1.0
143
1.0
 70
0
 72
1
 73
0
 74
0
  7

 75
0
147
1.0
148
0.0
149
0.0
100
AcDbLayout
  1
Layout1
 70
0
 71
1
 10
0.0
 20
0.0
 11
297.0
 21
210.0
 12
0.0
 22
0.0
 32
0.0
 14
0.0
 24
0.0
 34
0.0
 15
0.0
 25
0.0
 35
0.0
146
0.0
 13
0.0
 23
0.0
 33
0.0
 16
1.0
 26
0.0
 36
0.0
 17
0.0
 27
1.0
 37
0.0
 76
0
330
210
345
0
346
0
  0
ENDSEC
  0
EOF
