0
SECTION
2
HEADER
9
$ACADVER
1
AC1014
9
$HANDSEED
5
       376
9
$EXTMAX
10
297.0000000000
20
210.0000000000
9
$EXTMIN
10
0.0000000000
20
0.0000000000
9
$LIMMIN
10
0.0000000000
20
0.0000000000
9
$LIMMAX
10
297.0000000000
20
210.0000000000
9
$VIEWCTR
10
148.5000000000
20
105.0000000000
9
$VIEWSIZE
40
210.0000000000
9
$CLAYER
8
0
9
$LTSCALE
40
16.3350000000
9
$CELTYPE
6
BYLAYER
9
$DIMSCALE
40
1
9
$DIMASZ
40
3.0000000000
9
$DIMEXO
40
1.8562500000
9
$DIMDLI
40
11.2860000000
9
$DIMEXE
40
5.3460000000
9
$DIMCEN
40
2.6730000000
9
$DIMLFAC
40
1.0000000000
9
$DIMTXT
40
3.0000000000
9
$DIMTOL
70
1
9
$DIMLIM
70
0
9
$DIMTFAC
40
1.0000000000
9
$DIMTP
40
0.0100000000
9
$DIMTM
40
0.0100000000
9
$MEASUREMENT
70
1
0
ENDSEC
0
SECTION
2
CLASSES
0
ENDSEC
0
SECTION
2
TABLES
0
TABLE
2
VPORT
5
8
100
AcDbSymbolTable
70
2
0
VPORT
5
1F4
100
AcDbSymbolTableRecord
100
AcDbViewportTableRecord
2
*ACTIVE
70
0
10
0.0
20
0.0
11
1.0
21
1.0
12
148.5000000000
22
105.0000000000
13
0.0
23
0.0
14
1.0
24
1.0
15
0.0
25
0.0
16
0.0
26
0.0
36
1.0
17
0.0
27
0.0
37
0.0
40
210.0000000000
41
1.4142857143
42
50.0
43
0.0
44
0.0
50
0.0
51
0.0
71
0
72
100
73
1
74
1
75
0
76
0
77
0
78
0
0
ENDTAB
0
TABLE
2
LTYPE
5
5
100
AcDbSymbolTable
70
6
0
LTYPE
5
14
100
AcDbSymbolTableRecord
100
AcDbLinetypeTableRecord
2
BYBLOCK
70
0
3

72
65
73
0
40
0.0
0
LTYPE
5
15
100
AcDbSymbolTableRecord
100
AcDbLinetypeTableRecord
2
BYLAYER
70
0
3

72
65
73
0
40
0.0
0
LTYPE
5
16
100
AcDbSymbolTableRecord
100
AcDbLinetypeTableRecord
2
CONTINUOUS
70
64
3
Solid line
72
65
73
0
40
0
0
LTYPE
5
1F5
100
AcDbSymbolTableRecord
100
AcDbLinetypeTableRecord
2
CENTER
70
64
3
____ _ ____ _ ____ _ ____ _ ____ _ ____ _ ____
72
65
73
4
40
0.6
49
0.375
74
0
49
-0.075
74
0
49
0.075
74
0
49
-0.075
74
0
0
LTYPE
5
1F6
100
AcDbSymbolTableRecord
100
AcDbLinetypeTableRecord
2
HIDDEN
70
64
3
- - - - - - - - - - - - - - - - - - - -
72
65
73
2
40
0.2
49
0.1
74
0
49
-0.1
74
0
0
LTYPE
5
1F7
100
AcDbSymbolTableRecord
100
AcDbLinetypeTableRecord
2
PHANTOM
70
64
3
_____ _ _ _____ _ _ _____ _ _ _____
72
65
73
6
40
0.8
49
0.45
74
0
49
-0.05
74
0
49
0.1
74
0
49
-0.05
74
0
49
0.1
74
0
49
-0.05
74
0
0
LTYPE
5
1F8
100
AcDbSymbolTableRecord
100
AcDbLinetypeTableRecord
2
DOT
70
64
3
. . . . . . . . . . . . . . . . . . . .
72
65
73
2
40
0.2
49
0.1
74
0
49
-0.1
74
0
0
LTYPE
5
1F9
100
AcDbSymbolTableRecord
100
AcDbLinetypeTableRecord
2
DASHED
70
64
3
- - - - - - - - - - - - - - - - - - - -
72
65
73
2
40
0.2
49
0.1
74
0
49
-0.1
74
0
0
ENDTAB
0
TABLE
2
LAYER
5
2
100
AcDbSymbolTable
70
36
0
LAYER
5
10
100
AcDbSymbolTableRecord
100
AcDbLayerTableRecord
2
0
70
0
62
7
6
CONTINUOUS
0
LAYER
5
1FA
100
AcDbSymbolTableRecord
100
AcDbLayerTableRecord
2
DEFAULT_1
70
0
62
7
6
CENTER
0
LAYER
5
1FB
100
AcDbSymbolTableRecord
100
AcDbLayerTableRecord
2
DEFAULT_2
70
0
62
8
6
HIDDEN
0
LAYER
5
1FC
100
AcDbSymbolTableRecord
100
AcDbLayerTableRecord
2
DEFAULT_3
70
0
62
7
6
PHANTOM
0
LAYER
5
1FD
100
AcDbSymbolTableRecord
100
AcDbLayerTableRecord
2
26216763_GEN
70
0
62
7
6
CONTINUOUS
0
LAYER
5
1FE
100
AcDbSymbolTableRecord
100
AcDbLayerTableRecord
2
ASSI
70
0
62
7
6
CONTINUOUS
0
LAYER
5
1FF
100
AcDbSymbolTableRecord
100
AcDbLayerTableRecord
2
COORDINATE
70
0
62
7
6
CONTINUOUS
0
LAYER
5
200
100
AcDbSymbolTableRecord
100
AcDbLayerTableRecord
2
COORD_ORIGINE
70
0
62
7
6
CONTINUOUS
0
LAYER
5
201
100
AcDbSymbolTableRecord
100
AcDbLayerTableRecord
2
CURVE
70
0
62
7
6
CONTINUOUS
0
LAYER
5
202
100
AcDbSymbolTableRecord
100
AcDbLayerTableRecord
2
DRAFT
70
0
62
7
6
CONTINUOUS
0
LAYER
5
203
100
AcDbSymbolTableRecord
100
AcDbLayerTableRecord
2
IGES_SCRITTE
70
0
62
7
6
CONTINUOUS
0
LAYER
5
204
100
AcDbSymbolTableRecord
100
AcDbLayerTableRecord
2
IMPORT
70
0
62
7
6
CONTINUOUS
0
LAYER
5
205
100
AcDbSymbolTableRecord
100
AcDbLayerTableRecord
2
NOTE
70
0
62
7
6
CONTINUOUS
0
LAYER
5
206
100
AcDbSymbolTableRecord
100
AcDbLayerTableRecord
2
PIANI
70
0
62
7
6
CONTINUOUS
0
LAYER
5
207
100
AcDbSymbolTableRecord
100
AcDbLayerTableRecord
2
PIANI_DI_RIFERIMENTO
70
0
62
7
6
CONTINUOUS
0
LAYER
5
208
100
AcDbSymbolTableRecord
100
AcDbLayerTableRecord
2
PIANI_ORIGINE
70
0
62
7
6
CONTINUOUS
0
LAYER
5
209
100
AcDbSymbolTableRecord
100
AcDbLayerTableRecord
2
PUNTI
70
0
62
7
6
CONTINUOUS
0
LAYER
5
20A
100
AcDbSymbolTableRecord
100
AcDbLayerTableRecord
2
RACCORDO
70
0
62
7
6
CONTINUOUS
0
LAYER
5
20B
100
AcDbSymbolTableRecord
100
AcDbLayerTableRecord
2
SCR_VIMAR
70
0
62
7
6
CONTINUOUS
0
LAYER
5
20C
100
AcDbSymbolTableRecord
100
AcDbLayerTableRecord
2
SNAPLINE
70
0
62
7
6
CONTINUOUS
0
LAYER
5
20D
100
AcDbSymbolTableRecord
100
AcDbLayerTableRecord
2
SOLIDO
70
0
62
7
6
CONTINUOUS
0
LAYER
5
20E
100
AcDbSymbolTableRecord
100
AcDbLayerTableRecord
2
SUPERFICI
70
0
62
7
6
CONTINUOUS
0
LAYER
5
20F
100
AcDbSymbolTableRecord
100
AcDbLayerTableRecord
2
TRASH
70
0
62
7
6
CONTINUOUS
0
LAYER
5
210
100
AcDbSymbolTableRecord
100
AcDbLayerTableRecord
2
XSEC_DATUMS
70
0
62
7
6
CONTINUOUS
0
ENDTAB
0
TABLE
2
STYLE
5
3
100
AcDbSymbolTable
70
1
0
STYLE
5
11
100
AcDbSymbolTableRecord
100
AcDbTextStyleTableRecord
2
STANDARD
70
0
40
0.0
41
0.8000000000
50
0.0
71
0
42
0.2
3
txt
4

0
ENDTAB
0
TABLE
2
VIEW
5
6
100
AcDbSymbolTable
70
0
0
ENDTAB
0
TABLE
2
UCS
5
7
100
AcDbSymbolTable
70
0
0
ENDTAB
0
TABLE
2
APPID
5
9
100
AcDbSymbolTable
70
1
0
APPID
5
211
100
AcDbSymbolTableRecord
100
AcDbRegAppTableRecord
2
ACAD
70
0
0
ENDTAB
0
TABLE
2
DIMSTYLE
5
A
100
AcDbSymbolTable
70
1
0
DIMSTYLE
105
212
100
AcDbSymbolTableRecord
100
AcDbDimStyleTableRecord
2
STANDARD
70
0
3

4

5

6

7

40
1.0
41
3.0000000000
42
0.0625
43
0.38
44
0.18
45
0.0
46
0.0
47
0.0100000000
48
0.0100000000
140
3.0000000000
141
0.09
142
0.0
143
25.4
144
1.0000000000
145
0.0
146
1.0000000000
147
0.09
71
1
72
0
73
0
74
0
75
0
76
0
77
1
78
8
170
0
171
2
172
0
173
0
174
0
175
0
176
0
177
0
178
0
270
2
271
2
272
2
273
2
274
2
340
11
275
0
280
0
281
0
282
0
283
1
284
8
285
0
286
0
287
3
288
0
0
DIMSTYLE
105
213
100
AcDbSymbolTableRecord
100
AcDbDimStyleTableRecord
2
DIMSTYLE_1
70
0
3

4

5

6

7

40
1.0
41
3.0000000000
42
0.0625
43
0.38
44
0.18
45
0.0
46
0.0
47
0.1000000000
48
0.1000000000
140
3.0000000000
141
0.09
142
0.0
143
25.4
144
1.0000000000
145
0.0
146
1.0000000000
147
0.09
71
0
72
0
73
0
74
0
75
0
76
0
77
1
78
8
170
0
171
2
172
0
173
0
174
0
175
0
176
0
177
0
178
0
270
2
271
2
272
2
273
2
274
2
340
11
275
0
280
0
281
0
282
0
283
1
284
8
285
0
286
0
287
3
288
0
0
ENDTAB
0
TABLE
2
BLOCK_RECORD
5
1
100
AcDbSymbolTable
70
0
0
BLOCK_RECORD
5
1B
100
AcDbSymbolTableRecord
100
AcDbBlockTableRecord
2
*MODEL_SPACE
0
BLOCK_RECORD
5
1C
100
AcDbSymbolTableRecord
100
AcDbBlockTableRecord
2
*PAPER_SPACE
0
BLOCK_RECORD
5
214
100
AcDbSymbolTableRecord
100
AcDbBlockTableRecord
2
*D0
0
BLOCK_RECORD
5
215
100
AcDbSymbolTableRecord
100
AcDbBlockTableRecord
2
*D1
0
BLOCK_RECORD
5
216
100
AcDbSymbolTableRecord
100
AcDbBlockTableRecord
2
*D2
0
ENDTAB
0
ENDSEC
0
SECTION
2
BLOCKS
0
BLOCK
5
1E
100
AcDbEntity
8
0
100
AcDbBlockBegin
2
*MODEL_SPACE
70
0
10
0.0
20
0.0
30
0.0
3
*MODEL_SPACE
1

0
ENDBLK
5
1F
100
AcDbEntity
8
0
100
AcDbBlockEnd
0
BLOCK
5
20
100
AcDbEntity
8
0
100
AcDbBlockBegin
2
*PAPER_SPACE
70
0
10
0.0
20
0.0
30
0.0
3
*PAPER_SPACE
1

0
ENDBLK
5
21
100
AcDbEntity
8
0
100
AcDbBlockEnd
0
BLOCK
5
217
100
AcDbEntity
8
0
100
AcDbBlockBegin
62
7
6
CONTINUOUS
2
*D0
70
65
10
0.0000000000
20
0.0000000000
3
*D0
1

0
TEXT
5
218
100
AcDbEntity
8
0
100
AcDbText
62
7
6
CONTINUOUS
10
-16.3960738277
20
-3.7622266076
7
STANDARD
40
3.0000000000
1
85
50
90.0000000000
41
0.7500000000
72
0
100
AcDbText
0
LINE
5
219
100
AcDbEntity
8
0
100
AcDbLine
62
7
6
CONTINUOUS
10
12.3539261723
20
40.9877733924
11
-17.1460738277
21
40.9877733924
0
LINE
5
21A
100
AcDbEntity
8
0
100
AcDbLine
62
7
6
CONTINUOUS
10
12.3539261723
20
-44.0122266076
11
-17.1460738277
21
-44.0122266076
0
LINE
5
21B
100
AcDbEntity
8
0
100
AcDbLine
62
7
6
CONTINUOUS
10
-15.6460738277
20
40.9877733924
11
-15.6460738277
21
-1.5122266076
0
LINE
5
21C
100
AcDbEntity
8
0
100
AcDbLine
62
7
6
CONTINUOUS
10
-15.6460738277
20
-44.0122266076
11
-15.6460738277
21
-1.5122266076
0
SOLID
5
21D
100
AcDbEntity
8
0
100
AcDbTrace
62
7
6
CONTINUOUS
10
-15.2460738277
20
37.9877733924
11
-15.6460738277
21
40.9877733924
12
-16.0460738277
22
37.9877733924
13
-16.0460738277
23
37.9877733924
0
SOLID
5
21E
100
AcDbEntity
8
0
100
AcDbTrace
62
7
6
CONTINUOUS
10
-16.0460738277
20
-41.0122266076
11
-15.6460738277
21
-44.0122266076
12
-15.2460738277
22
-41.0122266076
13
-15.2460738277
23
-41.0122266076
0
ENDBLK
5
21F
100
AcDbEntity
8
0
100
AcDbBlockEnd
0
BLOCK
5
220
100
AcDbEntity
8
0
100
AcDbBlockBegin
62
7
6
CONTINUOUS
2
*D1
70
65
10
0.0000000000
20
0.0000000000
3
*D1
1

0
TEXT
5
221
100
AcDbEntity
8
0
100
AcDbText
62
7
6
CONTINUOUS
10
10.8182118866
20
-51.1585132974
7
STANDARD
40
3.0000000000
1
41
41
0.6785714286
72
0
100
AcDbText
0
LINE
5
222
100
AcDbEntity
8
0
100
AcDbLine
62
7
6
CONTINUOUS
10
-7.6460738277
20
-37.3871424891
11
-7.6460738277
21
-53.4085132974
0
LINE
5
223
100
AcDbEntity
8
0
100
AcDbLine
62
7
6
CONTINUOUS
10
33.3539261723
20
-37.3871424891
11
33.3539261723
21
-53.4085132974
0
LINE
5
224
100
AcDbEntity
8
0
100
AcDbLine
62
7
6
CONTINUOUS
10
-7.6460738277
20
-51.9085132974
11
12.8539261723
21
-51.9085132974
0
LINE
5
225
100
AcDbEntity
8
0
100
AcDbLine
62
7
6
CONTINUOUS
10
33.3539261723
20
-51.9085132974
11
12.8539261723
21
-51.9085132974
0
SOLID
5
226
100
AcDbEntity
8
0
100
AcDbTrace
62
7
6
CONTINUOUS
10
-4.6460738277
20
-51.5085132974
11
-7.6460738277
21
-51.9085132974
12
-4.6460738277
22
-52.3085132974
13
-4.6460738277
23
-52.3085132974
0
SOLID
5
227
100
AcDbEntity
8
0
100
AcDbTrace
62
7
6
CONTINUOUS
10
30.3539261723
20
-52.3085132974
11
33.3539261723
21
-51.9085132974
12
30.3539261723
22
-51.5085132974
13
30.3539261723
23
-51.5085132974
0
ENDBLK
5
228
100
AcDbEntity
8
0
100
AcDbBlockEnd
0
BLOCK
5
229
100
AcDbEntity
8
0
100
AcDbBlockBegin
62
7
6
CONTINUOUS
2
*D2
70
65
10
0.0000000000
20
0.0000000000
3
*D2
1

0
TEXT
5
22A
100
AcDbEntity
8
0
100
AcDbText
62
7
6
CONTINUOUS
10
-40.6087335985
20
-51.1585132974
7
STANDARD
40
3.0000000000
1
9
41
0.7857142857
72
0
100
AcDbText
0
LINE
5
22B
100
AcDbEntity
8
0
100
AcDbLine
62
7
6
CONTINUOUS
10
-34.9301621700
20
-43.8352770163
11
-34.9301621700
21
-53.4085132974
0
LINE
5
22C
100
AcDbEntity
8
0
100
AcDbLine
62
7
6
CONTINUOUS
10
-43.9301621700
20
-11.5741227970
11
-43.9301621700
21
-53.4085132974
0
LINE
5
22D
100
AcDbEntity
8
0
100
AcDbLine
62
7
6
CONTINUOUS
10
-34.9301621700
20
-51.9085132974
11
-39.4301621700
21
-51.9085132974
0
LINE
5
22E
100
AcDbEntity
8
0
100
AcDbLine
62
7
6
CONTINUOUS
10
-43.9301621700
20
-51.9085132974
11
-39.4301621700
21
-51.9085132974
0
SOLID
5
22F
100
AcDbEntity
8
0
100
AcDbTrace
62
7
6
CONTINUOUS
10
-37.9301621700
20
-52.3085132974
11
-34.9301621700
21
-51.9085132974
12
-37.9301621700
22
-51.5085132974
13
-37.9301621700
23
-51.5085132974
0
SOLID
5
230
100
AcDbEntity
8
0
100
AcDbTrace
62
7
6
CONTINUOUS
10
-40.9301621700
20
-51.5085132974
11
-43.9301621700
21
-51.9085132974
12
-40.9301621700
22
-52.3085132974
13
-40.9301621700
23
-52.3085132974
0
ENDBLK
5
231
100
AcDbEntity
8
0
100
AcDbBlockEnd
0
ENDSEC
0
SECTION
2
ENTITIES
0
DIMENSION
5
232
100
AcDbEntity
8
0
100
AcDbDimension
62
7
6
CONTINUOUS
2
*D0
10
-15.6460738277
20
-44.0122266076
11
-17.8960738277
21
-1.5122266076
70
160
3
DIMSTYLE_1
100
AcDbAlignedDimension
13
12.3539261723
23
40.9877733924
14
12.3539261723
24
-44.0122266076
50
270.000000
100
AcDbRotatedDimension
0
DIMENSION
5
233
100
AcDbEntity
8
0
100
AcDbDimension
62
7
6
CONTINUOUS
2
*D1
10
33.3539261723
20
-51.9085132974
11
12.8539261723
21
-49.6585132974
70
160
3
DIMSTYLE_1
100
AcDbAlignedDimension
13
-7.6460738277
23
-37.3871424891
14
33.3539261723
24
-37.3871424891
100
AcDbRotatedDimension
0
DIMENSION
5
234
100
AcDbEntity
8
0
100
AcDbDimension
62
7
6
CONTINUOUS
2
*D2
10
-43.9301621700
20
-51.9085132974
11
-39.4301621700
21
-49.6585132974
70
160
3
DIMSTYLE_1
100
AcDbAlignedDimension
13
-34.9301621700
23
-43.8352770163
14
-43.9301621700
24
-11.5741227970
50
180.000000
100
AcDbRotatedDimension
0
LINE
5
235
100
AcDbEntity
8
0
100
AcDbLine
62
9
6
CONTINUOUS
10
33.3539261723
20
-36.8871424891
11
33.2508504742
21
-36.8871424891
0
LINE
5
236
100
AcDbEntity
8
0
100
AcDbLine
62
9
6
CONTINUOUS
10
-7.6460738277
20
-36.8871424891
11
-7.5429981295
21
-36.8871424891
0
LINE
5
237
100
AcDbEntity
8
0
100
AcDbLine
62
9
6
CONTINUOUS
10
19.1425961723
20
-35.5122036076
11
18.4667631723
21
-35.5122106076
0
LINE
5
238
100
AcDbEntity
8
0
100
AcDbLine
62
9
6
CONTINUOUS
10
14.4151591723
20
-35.5122106076
11
13.8151361723
21
-35.5122196076
0
LINE
5
239
100
AcDbEntity
8
0
100
AcDbLine
62
9
6
CONTINUOUS
10
13.4151231723
20
-35.5122196076
11
12.8151001723
21
-35.5122196076
0
LINE
5
23A
100
AcDbEntity
8
0
100
AcDbLine
62
9
6
CONTINUOUS
10
11.0805161723
20
-35.5122196076
11
10.4804931723
21
-35.5122196076
0
LINE
5
23B
100
AcDbEntity
8
0
100
AcDbLine
62
9
6
CONTINUOUS
10
17.3417101723
20
-35.5122106076
11
16.7416801723
21
-35.5122106076
0
LINE
5
23C
100
AcDbEntity
8
0
100
AcDbLine
62
9
6
CONTINUOUS
10
12.2478091723
20
-35.5122106076
11
11.6478001723
21
-35.5122196076
0
LINE
5
23D
100
AcDbEntity
8
0
100
AcDbLine
62
9
6
CONTINUOUS
10
9.8804861723
20
-35.5122196076
11
9.2804631723
21
-35.5122266076
0
LINE
5
23E
100
AcDbEntity
8
0
100
AcDbLine
62
9
6
CONTINUOUS
10
16.3416691723
20
-35.5122196076
11
15.7416391723
21
-35.5122106076
0
LINE
5
23F
100
AcDbEntity
8
0
100
AcDbLine
62
9
6
CONTINUOUS
10
7.9172101723
20
-35.5122196076
11
7.3171661723
21
-35.5122266076
0
LINE
5
240
100
AcDbEntity
8
0
100
AcDbLine
62
9
6
CONTINUOUS
10
15.5522191723
20
-34.9222166076
11
14.6045861723
21
-34.9222166076
0
LINE
5
241
100
AcDbEntity
8
0
100
AcDbLine
62
9
6
CONTINUOUS
10
14.7876091723
20
-34.3521936076
11
15.3691891723
21
-34.3521936076
0
LINE
5
242
100
AcDbEntity
8
0
100
AcDbLine
62
9
6
CONTINUOUS
10
17.8654661723
20
-34.3521936076
11
17.3417791723
21
-34.3521866076
0
LINE
5
243
100
AcDbEntity
8
0
100
AcDbLine
62
9
6
CONTINUOUS
10
17.3334391723
20
-33.7971636076
11
18.0634481723
21
-33.7971636076
0
LINE
5
244
100
AcDbEntity
8
0
100
AcDbLine
62
9
6
CONTINUOUS
10
26.3186843333
20
-33.6381491474
11
-0.6108319886
21
-33.6381491474
0
LINE
5
245
100
AcDbEntity
8
0
100
AcDbLine
62
9
6
CONTINUOUS
10
18.0634481723
20
-33.0670976076
11
17.3334301723
21
-33.0670976076
0
LINE
5
246
100
AcDbEntity
8
0
100
AcDbLine
62
9
6
CONTINUOUS
10
6.3539261723
20
-32.5120836076
11
6.9539561723
21
-32.5120836076
0
LINE
5
247
100
AcDbEntity
8
0
100
AcDbLine
62
9
6
CONTINUOUS
10
8.2804291723
20
-32.5120836076
11
8.8804591723
21
-32.5120836076
0
LINE
5
248
100
AcDbEntity
8
0
100
AcDbLine
62
9
6
CONTINUOUS
10
9.2804701723
20
-32.5120836076
11
9.8804931723
21
-32.5120836076
0
LINE
5
249
100
AcDbEntity
8
0
100
AcDbLine
62
9
6
CONTINUOUS
10
10.4804931723
20
-32.5120836076
11
11.3875661723
21
-32.5120836076
0
LINE
5
24A
100
AcDbEntity
8
0
100
AcDbLine
62
9
6
CONTINUOUS
10
12.5080501723
20
-32.5120836076
11
13.4151231723
21
-32.5120836076
0
LINE
5
24B
100
AcDbEntity
8
0
100
AcDbLine
62
9
6
CONTINUOUS
10
14.7783691723
20
-32.5120766076
11
15.3784201723
21
-32.5120766076
0
LINE
5
24C
100
AcDbEntity
8
0
100
AcDbLine
62
9
6
CONTINUOUS
10
16.7416801723
20
-32.5120766076
11
18.1467301723
21
-32.5120766076
0
LINE
5
24D
100
AcDbEntity
8
0
100
AcDbLine
62
9
6
CONTINUOUS
10
0.2964564107
20
-28.8806418630
11
25.4113959340
21
-28.8806418630
0
LINE
5
24E
100
AcDbEntity
8
0
100
AcDbLine
62
9
6
CONTINUOUS
10
0.8167654977
20
-24.3514435507
11
24.8910868470
21
-24.3514435507
0
LINE
5
24F
100
AcDbEntity
8
0
100
AcDbLine
62
9
6
CONTINUOUS
10
0.3704143000
20
-24.0954643869
11
25.3374380447
21
-24.0954643869
0
LINE
5
250
100
AcDbEntity
8
0
100
AcDbLine
62
9
6
CONTINUOUS
10
25.2817755607
20
-24.0398019028
11
0.4260767840
21
-24.0398019028
0
LINE
5
251
100
AcDbEntity
8
0
100
AcDbLine
62
7
6
CONTINUOUS
10
25.2817755607
20
-24.0391166702
11
0.4260767840
21
-24.0391166702
0
LINE
5
252
100
AcDbEntity
8
0
100
AcDbLine
62
7
6
CONTINUOUS
10
0.3260331649
20
-24.0122266076
11
25.3818315353
21
-24.0122266076
0
LINE
5
253
100
AcDbEntity
8
0
100
AcDbLine
62
9
6
CONTINUOUS
10
25.4815014676
20
-23.8400759959
11
25.4808162350
21
-23.8400759959
0
LINE
5
254
100
AcDbEntity
8
0
100
AcDbLine
62
9
6
CONTINUOUS
10
0.2263508771
20
-23.8400759959
11
0.2270361097
21
-23.8400759959
0
LINE
5
255
100
AcDbEntity
8
0
100
AcDbLine
62
7
6
CONTINUOUS
10
-7.6460738277
20
33.8626892740
11
-7.6460738277
21
-36.8871424891
0
LINE
5
256
100
AcDbEntity
8
0
100
AcDbLine
62
9
6
CONTINUOUS
10
0.2263508771
20
-23.8400759959
11
0.2263508771
21
20.8156227808
0
LINE
5
257
100
AcDbEntity
8
0
100
AcDbLine
62
7
6
CONTINUOUS
10
0.2270361097
20
-23.8400759959
11
0.2270361097
21
20.8156227808
0
LINE
5
258
100
AcDbEntity
8
0
100
AcDbLine
62
9
6
CONTINUOUS
10
0.4260767840
20
21.0153486877
11
0.4260767840
21
21.0146634551
0
LINE
5
259
100
AcDbEntity
8
0
100
AcDbLine
62
9
6
CONTINUOUS
10
0.4260767840
20
-24.0398019028
11
0.4260767840
21
-24.0391166702
0
LINE
5
25A
100
AcDbEntity
8
0
100
AcDbLine
62
9
6
CONTINUOUS
10
-2.5716057425
20
-42.8153286092
11
-2.5560429922
21
-42.7156466000
0
LINE
5
25B
100
AcDbEntity
8
0
100
AcDbLine
62
9
6
CONTINUOUS
10
25.2817755607
20
21.0153486877
11
25.3374297152
21
21.0710028422
0
LINE
5
25C
100
AcDbEntity
8
0
100
AcDbLine
62
9
6
CONTINUOUS
10
25.4815014676
20
20.8156227808
11
25.5371556221
21
20.8712769353
0
LINE
5
25D
100
AcDbEntity
8
0
100
AcDbLine
62
9
6
CONTINUOUS
10
25.3374380447
20
-24.0954643869
11
25.2817755607
21
-24.0398019028
0
LINE
5
25E
100
AcDbEntity
8
0
100
AcDbLine
62
9
6
CONTINUOUS
10
25.5371639517
20
-23.8957384799
11
25.4815014676
21
-23.8400759959
0
LINE
5
25F
100
AcDbEntity
8
0
100
AcDbLine
62
9
6
CONTINUOUS
10
-2.5716057425
20
39.7908753941
11
-2.5560429922
21
39.6911933849
0
LINE
5
260
100
AcDbEntity
8
0
100
AcDbLine
62
9
6
CONTINUOUS
10
9.2804653550
20
-35.5122266046
11
9.2804689313
21
-32.5120841641
0
LINE
5
261
100
AcDbEntity
8
0
100
AcDbLine
62
9
6
CONTINUOUS
10
9.8804919625
20
-32.5120835155
11
9.8804883862
21
-35.5122202248
0
LINE
5
262
100
AcDbEntity
8
0
100
AcDbLine
62
9
6
CONTINUOUS
10
10.4804930592
20
-35.5122190011
11
10.4804930592
21
-32.5120841641
0
LINE
5
263
100
AcDbEntity
8
0
100
AcDbLine
62
9
6
CONTINUOUS
10
11.0805162097
20
-33.5338291842
11
11.0805162097
21
-35.5122202248
0
LINE
5
264
100
AcDbEntity
8
0
100
AcDbLine
62
9
6
CONTINUOUS
10
12.8150968569
20
-35.5122190011
11
12.8150933551
21
-33.5338311638
0
LINE
5
265
100
AcDbEntity
8
0
100
AcDbLine
62
9
6
CONTINUOUS
10
13.4151231552
20
-32.5120835155
11
13.4151231552
21
-35.5122202248
0
LINE
5
266
100
AcDbEntity
8
0
100
AcDbLine
62
9
6
CONTINUOUS
10
16.7416801358
20
-35.5122113515
11
16.7416801358
21
-32.5120771641
0
LINE
5
267
100
AcDbEntity
8
0
100
AcDbLine
62
9
6
CONTINUOUS
10
17.3334336186
20
-33.0670971610
11
17.3334383870
21
-33.7971642251
0
LINE
5
268
100
AcDbEntity
8
0
100
AcDbLine
62
9
6
CONTINUOUS
10
28.2794580872
20
39.7908753941
11
28.2638953369
21
39.6911933849
0
LINE
5
269
100
AcDbEntity
8
0
100
AcDbLine
62
9
6
CONTINUOUS
10
0.2263508771
20
-23.8400759959
11
0.1706883930
21
-23.8957384799
0
LINE
5
26A
100
AcDbEntity
8
0
100
AcDbLine
62
9
6
CONTINUOUS
10
0.4260767840
20
-24.0398019028
11
0.3704143000
21
-24.0954643869
0
LINE
5
26B
100
AcDbEntity
8
0
100
AcDbLine
62
9
6
CONTINUOUS
10
0.1706967226
20
20.8712769353
11
0.2263508771
21
20.8156227808
0
LINE
5
26C
100
AcDbEntity
8
0
100
AcDbLine
62
9
6
CONTINUOUS
10
0.3704226295
20
21.0710028422
11
0.4260767840
21
21.0153486877
0
LINE
5
26D
100
AcDbEntity
8
0
100
AcDbLine
62
9
6
CONTINUOUS
10
28.2794580872
20
-42.8153286092
11
28.2638953369
21
-42.7156466000
0
LINE
5
26E
100
AcDbEntity
8
0
100
AcDbLine
62
9
6
CONTINUOUS
10
25.2817755607
20
21.0153486877
11
25.2817755607
21
21.0146634551
0
LINE
5
26F
100
AcDbEntity
8
0
100
AcDbLine
62
9
6
CONTINUOUS
10
25.2817755607
20
-24.0398019028
11
25.2817755607
21
-24.0391166702
0
LINE
5
270
100
AcDbEntity
8
0
100
AcDbLine
62
7
6
CONTINUOUS
10
25.4808162350
20
20.8156227808
11
25.4808162350
21
-23.8400759959
0
LINE
5
271
100
AcDbEntity
8
0
100
AcDbLine
62
9
6
CONTINUOUS
10
25.4815014676
20
20.8156227808
11
25.4815014676
21
-23.8400759959
0
LINE
5
272
100
AcDbEntity
8
0
100
AcDbLine
62
7
6
CONTINUOUS
10
33.3539261723
20
-36.8871424891
11
33.3539261723
21
33.8626892740
0
LINE
5
273
100
AcDbEntity
8
0
100
AcDbLine
62
9
6
CONTINUOUS
10
25.4815014676
20
20.8156227808
11
25.4808162350
21
20.8156227808
0
LINE
5
274
100
AcDbEntity
8
0
100
AcDbLine
62
9
6
CONTINUOUS
10
0.2263508771
20
20.8156227808
11
0.2270361097
21
20.8156227808
0
LINE
5
275
100
AcDbEntity
8
0
100
AcDbLine
62
7
6
CONTINUOUS
10
0.3260208094
20
20.9877733924
11
25.3818191798
21
20.9877733924
0
LINE
5
276
100
AcDbEntity
8
0
100
AcDbLine
62
7
6
CONTINUOUS
10
0.4260767840
20
21.0146634551
11
25.2817755607
21
21.0146634551
0
LINE
5
277
100
AcDbEntity
8
0
100
AcDbLine
62
9
6
CONTINUOUS
10
0.4260767840
20
21.0153486877
11
25.2817755607
21
21.0153486877
0
LINE
5
278
100
AcDbEntity
8
0
100
AcDbLine
62
9
6
CONTINUOUS
10
0.3704226295
20
21.0710028422
11
25.3374297152
21
21.0710028422
0
LINE
5
279
100
AcDbEntity
8
0
100
AcDbLine
62
9
6
CONTINUOUS
10
0.8167608298
20
21.3271337266
11
24.8910915149
21
21.3271337266
0
LINE
5
27A
100
AcDbEntity
8
0
100
AcDbLine
62
9
6
CONTINUOUS
10
0.3002809321
20
25.8448342539
11
25.4075714126
21
25.8448342539
0
LINE
5
27B
100
AcDbEntity
8
0
100
AcDbLine
62
9
6
CONTINUOUS
10
-0.6108319871
20
30.6136959323
11
26.3186843318
21
30.6136959323
0
LINE
5
27C
100
AcDbEntity
8
0
100
AcDbLine
62
9
6
CONTINUOUS
10
33.3539261723
20
33.8626892740
11
33.2508504742
21
33.8626892740
0
LINE
5
27D
100
AcDbEntity
8
0
100
AcDbLine
62
9
6
CONTINUOUS
10
-7.6460738277
20
33.8626892740
11
-7.5429981295
21
33.8626892740
0
LINE
5
27E
100
AcDbEntity
8
0
100
AcDbLine
62
9
6
CONTINUOUS
10
-34.9301621700
20
-42.8153286092
11
-36.8552495450
21
-42.7156466000
0
LINE
5
27F
100
AcDbEntity
8
0
100
AcDbLine
62
9
6
CONTINUOUS
10
-34.9301621700
20
-36.8871424891
11
-36.8969636548
21
-36.8871424891
0
LINE
5
280
100
AcDbEntity
8
0
100
AcDbLine
62
7
6
CONTINUOUS
10
-34.9301621700
20
-43.8492440691
11
-34.9301621700
21
40.8247921489
0
LINE
5
281
100
AcDbEntity
8
0
100
AcDbLine
62
9
6
CONTINUOUS
10
-34.9301621700
20
33.8626892740
11
-36.8969636548
21
33.8626892740
0
LINE
5
282
100
AcDbEntity
8
0
100
AcDbLine
62
9
6
CONTINUOUS
10
-34.9301621700
20
39.7908753941
11
-36.8552495450
21
39.6911933849
0
ARC
5
283
100
AcDbEntity
8
0
100
AcDbCircle
62
7
6
CONTINUOUS
10
12.8539261723
20
-59.0122266076
40
100.0000000000
100
AcDbArc
50
93.2716484397
51
98.8736097703
0
ARC
5
284
100
AcDbEntity
8
0
100
AcDbCircle
62
7
6
CONTINUOUS
10
-1.6460738277
20
33.8626892740
40
6.0000000000
100
AcDbArc
50
98.8736097703
51
180.0000000000
0
ARC
5
285
100
AcDbEntity
8
0
100
AcDbCircle
62
7
6
CONTINUOUS
10
-1.6460738277
20
-36.8871424891
40
6.0000000000
100
AcDbArc
50
180.0000000000
51
261.1263902297
0
ARC
5
286
100
AcDbEntity
8
0
100
AcDbCircle
62
7
6
CONTINUOUS
10
12.8539261723
20
55.9877733924
40
100.0000000000
100
AcDbArc
50
261.1263902297
51
266.7283702173
0
ARC
5
287
100
AcDbEntity
8
0
100
AcDbCircle
62
7
6
CONTINUOUS
10
12.8539261723
20
55.9877733924
40
100.0000000000
100
AcDbArc
50
273.2716418720
51
278.8736097703
0
ARC
5
288
100
AcDbEntity
8
0
100
AcDbCircle
62
7
6
CONTINUOUS
10
27.3539261723
20
-36.8871424891
40
6.0000000000
100
AcDbArc
50
278.8736097703
51
360.0000000000
0
ARC
5
289
100
AcDbEntity
8
0
100
AcDbCircle
62
7
6
CONTINUOUS
10
27.3539261723
20
33.8626892740
40
6.0000000000
100
AcDbArc
50
0.0000000000
51
81.1263902297
0
ARC
5
28A
100
AcDbEntity
8
0
100
AcDbCircle
62
7
6
CONTINUOUS
10
12.8539261723
20
-59.0122266076
40
100.0000000000
100
AcDbArc
50
81.1263902297
51
86.7283673976
0
ARC
5
28B
100
AcDbEntity
8
0
100
AcDbCircle
62
7
6
CONTINUOUS
10
-36.4468522163
20
35.4007391323
40
5.5000000000
100
AcDbArc
50
94.4632553617
51
173.8489833535
0
ARC
5
28C
100
AcDbEntity
8
0
100
AcDbCircle
62
7
6
CONTINUOUS
10
-36.4468522163
20
-38.4251923474
40
5.5000000000
100
AcDbArc
50
186.1510166465
51
265.5367446383
0
ARC
5
28D
100
AcDbEntity
8
0
100
AcDbCircle
62
7
6
CONTINUOUS
10
306.0698378300
20
-1.5122266076
40
350.0000000000
100
AcDbArc
50
173.8489835517
51
186.1510164483
0
SPLINE
5
28E
100
AcDbEntity
8
0
100
AcDbSpline
62
7
6
CONTINUOUS
70
0
71
3
72
14
73
10
74
8
42
0.0000001000
43
0.0000001000
44
0.0000000001
12
0.2658312454
22
-0.0151961949
32
0.0000000000
13
0.2662499123
23
0.0028564978
33
0.0000000000
40
0.0000000000
40
0.0000000000
40
0.0000000000
40
0.0000000000
40
0.1668351522
40
0.3314976247
40
0.4892935271
40
0.6368994740
40
0.7732834354
40
0.8953325986
40
1.0000000000
40
1.0000000000
40
1.0000000000
40
1.0000000000
10
7.1470080247
20
-43.8492492257
30
0.0000000000
10
7.1617913568
20
-43.8500943122
30
0.0000000000
10
7.1911714973
20
-43.8516704559
30
0.0000000000
10
7.2345522977
20
-43.8536871406
30
0.0000000000
10
7.2762415512
20
-43.8553147189
30
0.0000000000
10
7.3154338644
20
-43.8565311516
30
0.0000000000
10
7.3514637102
20
-43.8573259977
30
0.0000000000
10
7.3836891996
20
-43.8576989281
30
0.0000000000
10
7.4038123534
20
-43.8576678140
30
0.0000000000
10
7.4131015822
20
-43.8575681533
30
0.0000000000
11
7.1470080247
21
-43.8492492257
31
0.0000000000
11
7.1913667090
21
-43.8516276376
31
0.0000000000
11
7.2351634702
21
-43.8536600164
31
0.0000000000
11
7.2771473187
21
-43.8552921950
31
0.0000000000
11
7.3164310573
21
-43.8565009911
31
0.0000000000
11
7.3527368556
21
-43.8572870875
31
0.0000000000
11
7.3852323853
21
-43.8576402816
31
0.0000000000
11
7.4131015822
21
-43.8575681533
31
0.0000000000
0
SPLINE
5
28F
100
AcDbEntity
8
0
100
AcDbSpline
62
7
6
CONTINUOUS
70
0
71
3
72
13
73
9
74
7
42
0.0000001000
43
0.0000001000
44
0.0000000001
12
2.9548169285
22
-0.0623318394
32
0.0000000000
13
2.9553658184
23
-0.0253222923
33
0.0000000000
40
0.0000000000
40
0.0000000000
40
0.0000000000
40
0.0000000000
40
0.1594575628
40
0.3224017015
40
0.4883342480
40
0.6568507391
40
0.8274915645
40
1.0000000000
40
1.0000000000
40
1.0000000000
40
1.0000000000
10
8.1886810622
20
-43.8579581351
30
0.0000000000
10
8.3457370308
20
-43.8612712295
30
0.0000000000
10
8.6632881638
20
-43.8677299838
30
0.0000000000
10
9.1442918300
20
-43.8766685002
30
0.0000000000
10
9.6342354774
20
-43.8848086097
30
0.0000000000
10
10.1317771362
20
-43.8920104894
30
0.0000000000
10
10.6358116598
20
-43.8981644494
30
0.0000000000
10
10.9738520522
20
-43.9014826395
30
0.0000000000
10
11.1437938968
20
-43.9029387425
30
0.0000000000
11
8.1886810622
21
-43.8579581351
31
0.0000000000
11
8.6598567021
21
-43.8675237637
31
0.0000000000
11
9.1413510482
21
-43.8764572974
31
0.0000000000
11
9.6316929384
21
-43.8845928682
31
0.0000000000
11
10.1296870438
21
-43.8917933710
31
0.0000000000
11
10.6339741357
21
-43.8979419398
31
0.0000000000
11
11.1437938968
21
-43.9029387425
31
0.0000000000
0
SPLINE
5
290
100
AcDbEntity
8
0
100
AcDbSpline
62
7
6
CONTINUOUS
70
0
71
3
72
10
73
6
74
4
42
0.0000001000
43
0.0000001000
44
0.0000000001
12
0.3348680464
22
0.0035920648
32
0.0000000000
13
0.3348723853
23
0.0031618027
33
0.0000000000
40
0.0000000000
40
0.0000000000
40
0.0000000000
40
0.0000000000
40
0.3303665280
40
0.6637080944
40
1.0000000000
40
1.0000000000
40
1.0000000000
40
1.0000000000
10
7.4131015822
20
-43.8575681533
30
0.0000000000
10
7.4499779801
20
-43.8571725873
30
0.0000000000
10
7.5240630651
20
-43.8563971329
30
0.0000000000
10
7.6356865710
20
-43.8552789109
30
0.0000000000
10
7.7104337016
20
-43.8545601275
30
0.0000000000
10
7.7479719925
20
-43.8542056979
30
0.0000000000
11
7.4131015822
21
-43.8575681533
31
0.0000000000
11
7.5237310665
21
-43.8564088548
31
0.0000000000
11
7.6353573169
21
-43.8552896479
31
0.0000000000
11
7.7479719925
21
-43.8542056979
31
0.0000000000
0
SPLINE
5
291
100
AcDbEntity
8
0
100
AcDbSpline
62
7
6
CONTINUOUS
70
0
71
3
72
14
73
10
74
8
42
0.0000001000
43
0.0000001000
44
0.0000000001
12
0.2662499119
22
-0.0028497545
32
0.0000000000
13
0.2658312676
23
0.0151945333
33
0.0000000000
40
0.0000000000
40
0.0000000000
40
0.0000000000
40
0.0000000000
40
0.1046646074
40
0.2267145230
40
0.3630990671
40
0.5107054247
40
0.6685017004
40
0.8331645197
40
1.0000000000
40
1.0000000000
40
1.0000000000
40
1.0000000000
10
18.2947508374
20
-43.8575681535
30
0.0000000000
10
18.3040398183
20
-43.8576675763
30
0.0000000000
10
18.3241627812
20
-43.8576991673
30
0.0000000000
10
18.3563881341
20
-43.8573260010
30
0.0000000000
10
18.3924181241
20
-43.8565312141
30
0.0000000000
10
18.4316105480
20
-43.8553147518
30
0.0000000000
10
18.4732998893
20
-43.8536871554
30
0.0000000000
10
18.5166807738
20
-43.8516705176
30
0.0000000000
10
18.5460609576
20
-43.8500942215
30
0.0000000000
10
18.5608443200
20
-43.8492492257
30
0.0000000000
11
18.2947508374
21
-43.8575681535
31
0.0000000000
11
18.3226192826
21
-43.8576403529
31
0.0000000000
11
18.3551150037
21
-43.8572871462
31
0.0000000000
11
18.3914209469
21
-43.8565010373
31
0.0000000000
11
18.4307047839
21
-43.8552922302
31
0.0000000000
11
18.4726887200
21
-43.8536600416
31
0.0000000000
11
18.5164855612
21
-43.8516276535
31
0.0000000000
11
18.5608443200
21
-43.8492492257
31
0.0000000000
0
SPLINE
5
292
100
AcDbEntity
8
0
100
AcDbSpline
62
7
6
CONTINUOUS
70
0
71
3
72
10
73
6
74
4
42
0.0000001000
43
0.0000001000
44
0.0000000001
12
0.3348728253
22
-0.0031614589
32
0.0000000000
13
0.3348684682
23
-0.0035934573
33
0.0000000000
40
0.0000000000
40
0.0000000000
40
0.0000000000
40
0.0000000000
40
0.3362875611
40
0.6696290601
40
1.0000000000
40
1.0000000000
40
1.0000000000
40
1.0000000000
10
17.9598799904
20
-43.8542056962
30
0.0000000000
10
17.9974178456
20
-43.8545600826
30
0.0000000000
10
18.0721645809
20
-43.8552788956
30
0.0000000000
10
18.1837882316
20
-43.8563971894
30
0.0000000000
10
18.2578739006
20
-43.8571724289
30
0.0000000000
10
18.2947508374
20
-43.8575681535
30
0.0000000000
11
17.9598799904
21
-43.8542056962
31
0.0000000000
11
18.0724933580
21
-43.8552896315
31
0.0000000000
11
18.1841197314
21
-43.8564088389
31
0.0000000000
11
18.2947508374
21
-43.8575681535
31
0.0000000000
0
SPLINE
5
293
100
AcDbEntity
8
0
100
AcDbSpline
62
7
6
CONTINUOUS
70
0
71
3
72
13
73
9
74
7
42
0.0000001000
43
0.0000001000
44
0.0000000001
12
2.9553650269
22
0.0253222878
32
0.0000000000
13
2.9548161412
23
0.0623316297
33
0.0000000000
40
0.0000000000
40
0.0000000000
40
0.0000000000
40
0.0000000000
40
0.1724957686
40
0.3431284814
40
0.5116422409
40
0.6775760643
40
0.8405266193
40
1.0000000000
40
1.0000000000
40
1.0000000000
40
1.0000000000
10
14.5640585053
20
-43.9029387420
30
0.0000000000
10
14.7339878259
20
-43.9014827462
30
0.0000000000
10
15.0720076580
20
-43.8981647892
30
0.0000000000
10
15.5760188876
20
-43.8920112292
30
0.0000000000
10
16.0735509908
20
-43.8848096337
30
0.0000000000
10
16.5634993965
20
-43.8766695831
30
0.0000000000
10
17.0445260942
20
-43.8677307513
30
0.0000000000
10
17.3620990420
20
-43.8612715606
30
0.0000000000
10
17.5191705485
20
-43.8579581486
30
0.0000000000
11
14.5640585053
21
-43.9029387420
31
0.0000000000
11
15.0738406956
21
-43.8979423532
31
0.0000000000
11
15.5781036789
21
-43.8917941935
31
0.0000000000
11
16.0760895807
21
-43.8845939542
31
0.0000000000
11
16.5664351151
21
-43.8764584627
31
0.0000000000
11
17.0479482942
21
-43.8675246856
31
0.0000000000
11
17.5191705485
21
-43.8579581486
31
0.0000000000
0
SPLINE
5
294
100
AcDbEntity
8
0
100
AcDbSpline
62
7
6
CONTINUOUS
70
0
71
3
72
14
73
10
74
8
42
0.0000001000
43
0.0000001000
44
0.0000000001
12
-0.2662498428
22
0.0028491741
32
0.0000000000
13
-0.2658311782
23
-0.0151947779
33
0.0000000000
40
0.0000000000
40
0.0000000000
40
0.0000000000
40
0.0000000000
40
0.1046567686
40
0.2267085122
40
0.3630944361
40
0.5107017812
40
0.6684991293
40
0.8331632606
40
1.0000000000
40
1.0000000000
40
1.0000000000
40
1.0000000000
10
7.4131014233
20
40.8331149387
30
0.0000000000
10
7.4038131406
20
40.8332143338
30
0.0000000000
10
7.3836907181
20
40.8332463071
30
0.0000000000
10
7.3514657850
20
40.8328729425
30
0.0000000000
10
7.3154354334
20
40.8320781924
30
0.0000000000
10
7.2762427157
20
40.8308616918
30
0.0000000000
10
7.2345530881
20
40.8292340674
30
0.0000000000
10
7.1911718914
20
40.8272174404
30
0.0000000000
10
7.1617914937
20
40.8256410263
30
0.0000000000
10
7.1470080247
20
40.8247960106
30
0.0000000000
11
7.4131014233
21
40.8331149387
31
0.0000000000
11
7.3852350738
21
40.8331873602
31
0.0000000000
11
7.3527388754
21
40.8328341330
31
0.0000000000
11
7.3164325755
21
40.8320480014
31
0.0000000000
11
7.2771484872
21
40.8308391730
31
0.0000000000
11
7.2351642782
21
40.8292069610
31
0.0000000000
11
7.1913671009
21
40.8271745452
31
0.0000000000
11
7.1470080247
21
40.8247960106
31
0.0000000000
0
SPLINE
5
295
100
AcDbEntity
8
0
100
AcDbSpline
62
7
6
CONTINUOUS
70
0
71
3
72
10
73
6
74
4
42
0.0000001000
43
0.0000001000
44
0.0000000001
12
-0.3348726161
22
0.0031617352
32
0.0000000000
13
-0.3348682607
23
0.0035935516
33
0.0000000000
40
0.0000000000
40
0.0000000000
40
0.0000000000
40
0.0000000000
40
0.3362898912
40
0.6696300626
40
1.0000000000
40
1.0000000000
40
1.0000000000
40
1.0000000000
10
7.7479720638
20
40.8297524825
30
0.0000000000
10
7.7104339719
20
40.8301069023
30
0.0000000000
10
7.6356871704
20
40.8308256710
30
0.0000000000
10
7.5240635888
20
40.8319439889
30
0.0000000000
10
7.4499782254
20
40.8327192048
30
0.0000000000
10
7.4131014233
20
40.8331149387
30
0.0000000000
11
7.7479720638
21
40.8297524825
31
0.0000000000
11
7.6353579853
21
40.8308364263
31
0.0000000000
11
7.5237321254
21
40.8319556288
31
0.0000000000
11
7.4131014233
21
40.8331149387
31
0.0000000000
0
SPLINE
5
296
100
AcDbEntity
8
0
100
AcDbSpline
62
7
6
CONTINUOUS
70
0
71
3
72
13
73
9
74
7
42
0.0000001000
43
0.0000001000
44
0.0000000001
12
-2.9553655571
22
-0.0253222916
32
0.0000000000
13
-2.9548166673
23
-0.0623318331
33
0.0000000000
40
0.0000000000
40
0.0000000000
40
0.0000000000
40
0.0000000000
40
0.1725074353
40
0.3431489844
40
0.5116668766
40
0.6776005318
40
0.8405445639
40
1.0000000000
40
1.0000000000
40
1.0000000000
40
1.0000000000
10
11.1437938394
20
40.8784855269
30
0.0000000000
10
10.9738529952
20
40.8770294324
30
0.0000000000
10
10.6358129049
20
40.8737112477
30
0.0000000000
10
10.1317773180
20
40.8675572791
30
0.0000000000
10
9.6342325182
20
40.8603553511
30
0.0000000000
10
9.1442865471
20
40.8522151928
30
0.0000000000
10
8.6632840314
20
40.8432766864
30
0.0000000000
10
8.3457351262
20
40.8368179737
30
0.0000000000
10
8.1886812661
20
40.8335049238
30
0.0000000000
11
11.1437938394
21
40.8784855269
31
0.0000000000
11
10.6339770792
21
40.8734887572
31
0.0000000000
11
10.1296878930
21
40.8673401672
31
0.0000000000
11
9.6316896914
21
40.8601396026
31
0.0000000000
11
9.1413445685
21
40.8520039682
31
0.0000000000
11
8.6598505802
21
40.8430704294
31
0.0000000000
11
8.1886812661
21
40.8335049238
31
0.0000000000
0
SPLINE
5
297
100
AcDbEntity
8
0
100
AcDbSpline
62
7
6
CONTINUOUS
70
0
71
3
72
14
73
10
74
8
42
0.0000001000
43
0.0000001000
44
0.0000000001
12
-0.2658880114
22
0.0151996570
32
0.0000000000
13
-0.2663067808
23
-0.0028570426
33
0.0000000000
40
0.0000000000
40
0.0000000000
40
0.0000000000
40
0.0000000000
40
0.1670145841
40
0.3316431379
40
0.4894063628
40
0.6369817402
40
0.7733379497
40
0.8953628709
40
1.0000000000
40
1.0000000000
40
1.0000000000
40
1.0000000000
10
18.5609011915
20
40.8247929485
30
0.0000000000
10
18.5460987996
20
40.8256391366
30
0.0000000000
10
18.5166994928
20
40.8272164689
30
0.0000000000
10
18.4732994208
20
40.8292340565
30
0.0000000000
10
18.4316098829
20
40.8308616553
30
0.0000000000
10
18.3924172736
20
40.8320781277
30
0.0000000000
10
18.3563870606
20
40.8328729413
30
0.0000000000
10
18.3241619907
20
40.8332460585
30
0.0000000000
10
18.3040393795
20
40.8332145894
30
0.0000000000
10
18.2947508538
20
40.8331149385
30
0.0000000000
11
18.5609011915
21
40.8247929485
31
0.0000000000
11
18.5164853200
21
40.8271745268
31
0.0000000000
11
18.4726882284
21
40.8292069333
31
0.0000000000
11
18.4307041094
21
40.8308391354
31
0.0000000000
11
18.3914201181
21
40.8320479535
31
0.0000000000
11
18.3551139549
21
40.8328340734
31
0.0000000000
11
18.3226179405
21
40.8331872890
31
0.0000000000
11
18.2947508538
21
40.8331149385
31
0.0000000000
0
SPLINE
5
298
100
AcDbEntity
8
0
100
AcDbSpline
62
7
6
CONTINUOUS
70
0
71
3
72
13
73
9
74
7
42
0.0000001000
43
0.0000001000
44
0.0000000001
12
-2.9548167277
22
0.0623318290
32
0.0000000000
13
-2.9553656174
23
0.0253222913
33
0.0000000000
40
0.0000000000
40
0.0000000000
40
0.0000000000
40
0.0000000000
40
0.1594753617
40
0.3224260675
40
0.4883588180
40
0.6568712053
40
0.8275032162
40
1.0000000000
40
1.0000000000
40
1.0000000000
40
1.0000000000
10
17.5191710815
20
40.8335049237
30
0.0000000000
10
17.3620975927
20
40.8368183874
30
0.0000000000
10
17.0445224813
20
40.8432776033
30
0.0000000000
10
16.5634946445
20
40.8522164524
30
0.0000000000
10
16.0735484006
20
40.8603564559
30
0.0000000000
10
15.5760192978
20
40.8675580065
30
0.0000000000
10
15.0720090108
20
40.8737115595
30
0.0000000000
10
14.7339888026
20
40.8770295228
30
0.0000000000
10
14.5640584479
20
40.8784855274
30
0.0000000000
11
17.5191710815
21
40.8335049237
31
0.0000000000
11
17.0479428794
21
40.8430715759
31
0.0000000000
11
16.5664291583
21
40.8520053524
31
0.0000000000
11
16.0760866961
21
40.8601407840
31
0.0000000000
11
15.5781047500
21
40.8673409641
31
0.0000000000
11
15.0738437401
21
40.8734891046
31
0.0000000000
11
14.5640584479
21
40.8784855274
31
0.0000000000
0
SPLINE
5
299
100
AcDbEntity
8
0
100
AcDbSpline
62
7
6
CONTINUOUS
70
0
71
3
72
10
73
6
74
4
42
0.0000001000
43
0.0000001000
44
0.0000000001
12
-0.3348682376
22
-0.0035921155
32
0.0000000000
13
-0.3348725777
23
-0.0031617290
33
0.0000000000
40
0.0000000000
40
0.0000000000
40
0.0000000000
40
0.0000000000
40
0.3303699283
40
0.6637107405
40
1.0000000000
40
1.0000000000
40
1.0000000000
40
1.0000000000
10
18.2947508538
20
40.8331149385
30
0.0000000000
10
18.2578740553
20
40.8327193628
30
0.0000000000
10
18.1837886324
20
40.8319439129
30
0.0000000000
10
18.0721650626
20
40.8308256918
30
0.0000000000
10
17.9974182689
20
40.8301069008
30
0.0000000000
10
17.9598802518
20
40.8297524823
30
0.0000000000
11
18.2947508538
21
40.8331149385
31
0.0000000000
11
18.1841201675
21
40.8319556283
31
0.0000000000
11
18.0724941058
21
40.8308364238
31
0.0000000000
11
17.9598802518
21
40.8297524823
31
0.0000000000
0
SPLINE
5
29A
100
AcDbEntity
8
0
100
AcDbSpline
62
7
6
CONTINUOUS
70
0
71
3
72
15
73
11
74
9
42
0.0000001000
43
0.0000001000
44
0.0000000001
12
3.4201663251
22
-0.0293048159
32
0.0000000000
13
3.4201663250
23
0.0293048186
33
0.0000000000
40
0.0000000000
40
0.0000000000
40
0.0000000000
40
0.0000000000
40
0.1241910247
40
0.2490157294
40
0.3742530621
40
0.4996982264
40
0.6251527070
40
0.7504562932
40
0.8754596791
40
1.0000000000
40
1.0000000000
40
1.0000000000
40
1.0000000000
10
11.1437938987
20
-43.9029386401
30
0.0000000000
10
11.2853785522
20
-43.9041517718
30
0.0000000000
10
11.5692754157
20
-43.9059963515
30
0.0000000000
10
11.9959576962
20
-43.9075724221
30
0.0000000000
10
12.4240718969
20
-43.9083572319
30
0.0000000000
10
12.8529046677
20
-43.9085908223
30
0.0000000000
10
13.2818129750
20
-43.9083594853
30
0.0000000000
10
13.7102170513
20
-43.9075770779
30
0.0000000000
10
14.1375768209
20
-43.9060020480
30
0.0000000000
10
14.4220756327
20
-43.9041551836
30
0.0000000000
10
14.5640585033
20
-43.9029386398
30
0.0000000000
11
11.1437938987
21
-43.9029386401
31
0.0000000000
11
11.5685538554
21
-43.9057936904
31
0.0000000000
11
11.9954876096
21
-43.9074385111
31
0.0000000000
11
12.4238350428
21
-43.9082648886
31
0.0000000000
11
12.8528940464
21
-43.9085132974
31
0.0000000000
11
13.2819849157
21
-43.9082672996
31
0.0000000000
11
13.7105589608
21
-43.9074434969
31
0.0000000000
11
14.1381038654
21
-43.9057997774
31
0.0000000000
11
14.5640585033
21
-43.9029386398
31
0.0000000000
0
SPLINE
5
29B
100
AcDbEntity
8
0
100
AcDbSpline
62
7
6
CONTINUOUS
70
0
71
3
72
15
73
11
74
9
42
0.0000001000
43
0.0000001000
44
0.0000000001
12
-3.4201663251
22
0.0293048168
32
0.0000000000
13
-3.4201663250
23
-0.0293048177
33
0.0000000000
40
0.0000000000
40
0.0000000000
40
0.0000000000
40
0.0000000000
40
0.1245772009
40
0.2496358099
40
0.3749890257
40
0.5004654656
40
0.6258887944
40
0.7510764576
40
0.8758458488
40
1.0000000000
40
1.0000000000
40
1.0000000000
40
1.0000000000
10
14.5640584460
20
40.8784854250
30
0.0000000000
10
14.4220335302
20
40.8797023290
30
0.0000000000
10
14.1374297124
20
40.8815497027
30
0.0000000000
10
13.7099083525
20
40.8831247825
30
0.0000000000
10
13.2813596972
20
40.8839068254
30
0.0000000000
10
12.8523946658
20
40.8841376057
30
0.0000000000
10
12.4236183822
20
40.8839034580
30
0.0000000000
10
11.9956487680
20
40.8831182837
30
0.0000000000
10
11.5691282190
20
40.8815422649
30
0.0000000000
10
11.2853364571
20
40.8796981963
30
0.0000000000
10
11.1437938414
20
40.8784854247
30
0.0000000000
11
14.5640584460
21
40.8784854250
31
0.0000000000
11
14.1379776693
21
40.8813472048
31
0.0000000000
11
13.7102438851
21
40.8829911504
31
0.0000000000
11
13.2815000911
21
40.8838146579
31
0.0000000000
11
12.8523341143
21
40.8840600804
31
0.0000000000
11
12.4233497949
21
40.8838110957
31
0.0000000000
11
11.9951722467
21
40.8829844236
31
0.0000000000
11
11.5684276816
21
40.8813398319
31
0.0000000000
11
11.1437938414
21
40.8784854247
31
0.0000000000
0
SPLINE
5
29C
100
AcDbEntity
8
0
100
AcDbSpline
62
7
6
CONTINUOUS
70
0
71
3
72
18
73
14
74
12
42
0.0000001000
43
0.0000001000
44
0.0000000001
12
0.0000155237
22
0.3127441899
32
0.0000000000
13
0.3127275683
23
0.0000172407
33
0.0000000000
40
0.0000000000
40
0.0000000000
40
0.0000000000
40
0.0000000000
40
0.0658362753
40
0.1624095917
40
0.2586971922
40
0.3547925759
40
0.4507738633
40
0.5467137854
40
0.6426909272
40
0.7387779971
40
0.8350528901
40
0.9316096554
40
1.0000000000
40
1.0000000000
40
1.0000000000
40
1.0000000000
10
0.2270367691
20
20.8156227807
30
0.0000000000
10
0.2270371098
20
20.8224860849
30
0.0000000000
10
0.2279041553
20
20.8394281084
30
0.0000000000
10
0.2326944247
20
20.8660442447
30
0.0000000000
10
0.2424608221
20
20.8946362438
30
0.0000000000
10
0.2563964683
20
20.9213730454
30
0.0000000000
10
0.2741845564
20
20.9456730094
30
0.0000000000
10
0.2954279406
20
20.9670008182
30
0.0000000000
10
0.3196560781
20
20.9848844134
30
0.0000000000
10
0.3463350079
20
20.9989248789
30
0.0000000000
10
0.3748842525
20
21.0088035210
30
0.0000000000
10
0.4017406644
20
21.0137475412
30
0.0000000000
10
0.4189476020
20
21.0146624483
30
0.0000000000
10
0.4260767841
20
21.0146628414
30
0.0000000000
11
0.2270367691
21
20.8156227807
31
0.0000000000
11
0.2280917652
21
20.8361835233
31
0.0000000000
11
0.2334387240
21
20.8658832990
31
0.0000000000
11
0.2431674345
21
20.8943550100
31
0.0000000000
11
0.2570478431
21
20.9209822440
31
0.0000000000
11
0.2747644266
21
20.9451826184
31
0.0000000000
11
0.2959209385
21
20.9664231991
31
0.0000000000
11
0.3200497977
21
20.9842348777
31
0.0000000000
11
0.3466194260
21
20.9982196613
31
0.0000000000
11
0.3750485034
21
21.0080601268
31
0.0000000000
11
0.4047216654
21
21.0135243724
31
0.0000000000
11
0.4260767841
21
21.0146628414
31
0.0000000000
0
SPLINE
5
29D
100
AcDbEntity
8
0
100
AcDbSpline
62
7
6
CONTINUOUS
70
0
71
3
72
18
73
14
74
12
42
0.0000001000
43
0.0000001000
44
0.0000000001
12
-0.3127440951
22
0.0000158782
32
0.0000000000
13
-0.0000167998
23
0.3127276505
33
0.0000000000
40
0.0000000000
40
0.0000000000
40
0.0000000000
40
0.0000000000
40
0.0658101023
40
0.1623592169
40
0.2586278670
40
0.3547111631
40
0.4506867371
40
0.5466268241
40
0.6426099746
40
0.7387092999
40
0.8350030983
40
0.9315838458
40
1.0000000000
40
1.0000000000
40
1.0000000000
40
1.0000000000
10
0.4260767841
20
-24.0391160240
30
0.0000000000
10
0.4192162104
20
-24.0391156757
30
0.0000000000
10
0.4022794583
20
-24.0382492430
30
0.0000000000
10
0.3756702247
20
-24.0334618251
30
0.0000000000
10
0.3470827943
20
-24.0237000696
30
0.0000000000
10
0.3203477821
20
-24.0097693564
30
0.0000000000
10
0.2960469685
20
-23.9919855836
30
0.0000000000
10
0.2747161570
20
-23.9707451460
30
0.0000000000
10
0.2568282060
20
-23.9465178045
30
0.0000000000
10
0.2427828059
20
-23.9198370520
30
0.0000000000
10
0.2328995391
20
-23.8912832562
30
0.0000000000
10
0.2279526528
20
-23.8644200190
30
0.0000000000
10
0.2270371127
20
-23.8472078702
30
0.0000000000
10
0.2270367296
20
-23.8400759958
30
0.0000000000
11
0.4260767841
21
-24.0391160240
31
0.0000000000
11
0.4055242010
21
-24.0380618543
31
0.0000000000
11
0.3758315504
21
-24.0327180010
31
0.0000000000
11
0.3473645161
21
-24.0229939183
31
0.0000000000
11
0.3207389897
21
-24.0091184055
31
0.0000000000
11
0.2965377053
21
-23.9914060881
31
0.0000000000
11
0.2752941527
21
-23.9702524874
31
0.0000000000
11
0.2574781653
21
-23.9461244755
31
0.0000000000
11
0.2434884793
21
-23.9195531000
31
0.0000000000
11
0.2336434022
21
-23.8911193677
31
0.0000000000
11
0.2281760513
21
-23.8614391576
31
0.0000000000
11
0.2270367296
21
-23.8400759958
31
0.0000000000
0
SPLINE
5
29E
100
AcDbEntity
8
0
100
AcDbSpline
62
7
6
CONTINUOUS
70
0
71
3
72
18
73
14
74
12
42
0.0000001000
43
0.0000001000
44
0.0000000001
12
-0.0000155237
22
-0.3127441899
32
0.0000000000
13
-0.3127275683
23
-0.0000172407
33
0.0000000000
40
0.0000000000
40
0.0000000000
40
0.0000000000
40
0.0000000000
40
0.0658362753
40
0.1624095917
40
0.2586971922
40
0.3547925759
40
0.4507738633
40
0.5467137854
40
0.6426909272
40
0.7387779971
40
0.8350528901
40
0.9316096554
40
1.0000000000
40
1.0000000000
40
1.0000000000
40
1.0000000000
10
25.4808155756
20
-23.8400759958
30
0.0000000000
10
25.4808152349
20
-23.8469393000
30
0.0000000000
10
25.4799481894
20
-23.8638813235
30
0.0000000000
10
25.4751579199
20
-23.8904974598
30
0.0000000000
10
25.4653915226
20
-23.9190894589
30
0.0000000000
10
25.4514558764
20
-23.9458262605
30
0.0000000000
10
25.4336677883
20
-23.9701262245
30
0.0000000000
10
25.4124244041
20
-23.9914540333
30
0.0000000000
10
25.3881962666
20
-24.0093376285
30
0.0000000000
10
25.3615173368
20
-24.0233780940
30
0.0000000000
10
25.3329680922
20
-24.0332567361
30
0.0000000000
10
25.3061116803
20
-24.0382007563
30
0.0000000000
10
25.2889047427
20
-24.0391156635
30
0.0000000000
10
25.2817755606
20
-24.0391160565
30
0.0000000000
11
25.4808155756
21
-23.8400759958
31
0.0000000000
11
25.4797605795
21
-23.8606367384
31
0.0000000000
11
25.4744136207
21
-23.8903365142
31
0.0000000000
11
25.4646849102
21
-23.9188082251
31
0.0000000000
11
25.4508045016
21
-23.9454354591
31
0.0000000000
11
25.4330879181
21
-23.9696358335
31
0.0000000000
11
25.4119314062
21
-23.9908764142
31
0.0000000000
11
25.3878025470
21
-24.0086880928
31
0.0000000000
11
25.3612329187
21
-24.0226728764
31
0.0000000000
11
25.3328038413
21
-24.0325133419
31
0.0000000000
11
25.3031306792
21
-24.0379775875
31
0.0000000000
11
25.2817755606
21
-24.0391160565
31
0.0000000000
0
SPLINE
5
29F
100
AcDbEntity
8
0
100
AcDbSpline
62
7
6
CONTINUOUS
70
0
71
3
72
18
73
14
74
12
42
0.0000001000
43
0.0000001000
44
0.0000000001
12
0.3127440951
22
-0.0000158782
32
0.0000000000
13
0.0000167998
23
-0.3127276505
33
0.0000000000
40
0.0000000000
40
0.0000000000
40
0.0000000000
40
0.0000000000
40
0.0658101023
40
0.1623592169
40
0.2586278670
40
0.3547111631
40
0.4506867371
40
0.5466268241
40
0.6426099746
40
0.7387092999
40
0.8350030983
40
0.9315838458
40
1.0000000000
40
1.0000000000
40
1.0000000000
40
1.0000000000
10
25.2817755606
20
21.0146628089
30
0.0000000000
10
25.2886361343
20
21.0146624605
30
0.0000000000
10
25.3055728864
20
21.0137960279
30
0.0000000000
10
25.3321821200
20
21.0090086100
30
0.0000000000
10
25.3607695504
20
20.9992468544
30
0.0000000000
10
25.3875045625
20
20.9853161412
30
0.0000000000
10
25.4118053762
20
20.9675323684
30
0.0000000000
10
25.4331361877
20
20.9462919309
30
0.0000000000
10
25.4510241387
20
20.9220645894
30
0.0000000000
10
25.4650695388
20
20.8953838369
30
0.0000000000
10
25.4749528056
20
20.8668300411
30
0.0000000000
10
25.4798996919
20
20.8399668039
30
0.0000000000
10
25.4808152320
20
20.8227546551
30
0.0000000000
10
25.4808156151
20
20.8156227807
30
0.0000000000
11
25.2817755606
21
21.0146628089
31
0.0000000000
11
25.3023281437
21
21.0136086392
31
0.0000000000
11
25.3320207943
21
21.0082647859
31
0.0000000000
11
25.3604878286
21
20.9985407032
31
0.0000000000
11
25.3871133549
21
20.9846651904
31
0.0000000000
11
25.4113146394
21
20.9669528730
31
0.0000000000
11
25.4325581920
21
20.9457992722
31
0.0000000000
11
25.4503741794
21
20.9216712604
31
0.0000000000
11
25.4643638654
21
20.8950998849
31
0.0000000000
11
25.4742089425
21
20.8666661526
31
0.0000000000
11
25.4796762934
21
20.8369859425
31
0.0000000000
11
25.4808156151
21
20.8156227807
31
0.0000000000
0
SPLINE
5
2A0
100
AcDbEntity
8
0
100
AcDbSpline
62
7
6
CONTINUOUS
70
0
71
3
72
23
73
19
74
17
42
0.0000001000
43
0.0000001000
44
0.0000000001
12
-0.1578291140
22
0.1311591899
32
0.0000000000
13
-0.0878815855
23
0.1854370075
33
0.0000000000
40
0.0000000000
40
0.0000000000
40
0.0000000000
40
0.0000000000
40
0.0731995038
40
0.1447337571
40
0.2145074031
40
0.2825396218
40
0.3488891649
40
0.4136642589
40
0.4770278547
40
0.5391467961
40
0.6001747737
40
0.6601424404
40
0.7191627010
40
0.7773728071
40
0.8348244354
40
0.8914334983
40
0.9469142148
40
1.0000000000
40
1.0000000000
40
1.0000000000
40
1.0000000000
10
0.2993200780
20
-24.0733615823
30
0.0000000000
10
0.2954690737
20
-24.0701613198
30
0.0000000000
10
0.2879407460
20
-24.0637291897
30
0.0000000000
10
0.2770443108
20
-24.0538995473
30
0.0000000000
10
0.2666674905
20
-24.0440290365
30
0.0000000000
10
0.2568018806
20
-24.0341427119
30
0.0000000000
10
0.2474298206
20
-24.0242533999
30
0.0000000000
10
0.2385283237
20
-24.0143642221
30
0.0000000000
10
0.2300714894
20
-24.0044699518
30
0.0000000000
10
0.2220339282
20
-23.9945600965
30
0.0000000000
10
0.2143985018
20
-23.9846286311
30
0.0000000000
10
0.2071522831
20
-23.9746706831
30
0.0000000000
10
0.2002848150
20
-23.9646808638
30
0.0000000000
10
0.1937870609
20
-23.9546511143
30
0.0000000000
10
0.1876593709
20
-23.9445836262
30
0.0000000000
10
0.1819178450
20
-23.9345051978
30
0.0000000000
10
0.1766185373
20
-23.9245244807
30
0.0000000000
10
0.1733341053
20
-23.9178621214
30
0.0000000000
10
0.1717790177
20
-23.9145807651
30
0.0000000000
11
0.2993200780
21
-24.0733615823
31
0.0000000000
11
0.2878992020
21
-24.0636039791
31
0.0000000000
11
0.2769993561
21
-24.0537708385
31
0.0000000000
11
0.2666251584
21
-24.0439018882
31
0.0000000000
11
0.2567641476
21
-24.0340188497
31
0.0000000000
11
0.2473990339
21
-24.0241352241
31
0.0000000000
11
0.2385069251
21
-24.0142545527
31
0.0000000000
11
0.2300595189
21
-24.0043691207
31
0.0000000000
11
0.2220306845
21
-23.9944675562
31
0.0000000000
11
0.2143987476
21
-23.9845378582
31
0.0000000000
11
0.2071593998
21
-23.9745862535
31
0.0000000000
11
0.2002997194
21
-23.9646042693
31
0.0000000000
11
0.1938065269
21
-23.9545776035
31
0.0000000000
11
0.1876787420
21
-23.9445052945
31
0.0000000000
11
0.1819305844
21
-23.9344101148
31
0.0000000000
11
0.1765935903
21
-23.9243530673
31
0.0000000000
11
0.1717790177
21
-23.9145807651
31
0.0000000000
0
SPLINE
5
2A1
100
AcDbEntity
8
0
100
AcDbSpline
62
7
6
CONTINUOUS
70
0
71
3
72
13
73
9
74
7
42
0.0000001000
43
0.0000001000
44
0.0000000001
12
-0.0175949032
22
0.0371266197
32
0.0000000000
13
-0.0119368261
23
0.0386307784
33
0.0000000000
40
0.0000000000
40
0.0000000000
40
0.0000000000
40
0.0000000000
40
0.2427995845
40
0.4596746569
40
0.6502480151
40
0.8097498835
40
0.9356625474
40
1.0000000000
40
1.0000000000
40
1.0000000000
40
1.0000000000
10
0.1717790177
20
-23.9145807651
30
0.0000000000
10
0.1703550059
20
-23.9115759891
30
0.0000000000
10
0.1677398366
20
-23.9058497044
30
0.0000000000
10
0.1642709251
20
-23.8976403183
30
0.0000000000
10
0.1614471196
20
-23.8904249784
30
0.0000000000
10
0.1592164398
20
-23.8842462001
30
0.0000000000
10
0.1577218942
20
-23.8798224781
30
0.0000000000
10
0.1568941844
20
-23.8771671474
30
0.0000000000
10
0.1566381894
20
-23.8763386788
30
0.0000000000
11
0.1717790177
21
-23.9145807651
31
0.0000000000
11
0.1676378010
21
-23.9055052426
31
0.0000000000
11
0.1641714835
21
-23.8972965334
31
0.0000000000
11
0.1613228910
21
-23.8900031547
31
0.0000000000
11
0.1590958635
21
-23.8838398437
31
0.0000000000
11
0.1574523168
21
-23.8789345921
31
0.0000000000
11
0.1566381894
21
-23.8763386788
31
0.0000000000
0
SPLINE
5
2A2
100
AcDbEntity
8
0
100
AcDbSpline
62
7
6
CONTINUOUS
70
0
71
3
72
10
73
6
74
4
42
0.0000001000
43
0.0000001000
44
0.0000000001
12
-0.0014886875
22
0.0048177931
32
0.0000000000
13
-0.0000708104
23
-0.0000189413
33
0.0000000000
40
0.0000000000
40
0.0000000000
40
0.0000000000
40
0.0000000000
40
0.2396029102
40
0.7576625304
40
1.0000000000
40
1.0000000000
40
1.0000000000
40
1.0000000000
10
0.1566381894
20
-23.8763386788
30
0.0000000000
10
0.1565192914
20
-23.8759538930
30
0.0000000000
10
0.1561596298
20
-23.8747845425
30
0.0000000000
10
0.1557868627
20
-23.8735685602
30
0.0000000000
10
0.1552259466
20
-23.8714757036
30
0.0000000000
10
0.1552202266
20
-23.8714772337
30
0.0000000000
11
0.1566381894
21
-23.8763386788
31
0.0000000000
11
0.1562995365
21
-23.8752391096
31
0.0000000000
11
0.1555552911
21
-23.8726910291
31
0.0000000000
11
0.1552202266
21
-23.8714772337
31
0.0000000000
0
SPLINE
5
2A3
100
AcDbEntity
8
0
100
AcDbSpline
62
7
6
CONTINUOUS
70
0
71
3
72
16
73
12
74
10
42
0.0000001000
43
0.0000001000
44
0.0000000001
12
0.1272310287
22
-0.0652783339
32
0.0000000000
13
-0.0713351973
23
0.0592809935
33
0.0000000000
40
0.0000000000
40
0.0000000000
40
0.0000000000
40
0.0000000000
40
0.0224708807
40
0.0340923594
40
0.0852520274
40
0.1727829448
40
0.2959978577
40
0.4479571131
40
0.6189280739
40
0.8041769460
40
1.0000000000
40
1.0000000000
40
1.0000000000
40
1.0000000000
10
0.3721540644
20
-24.1241193305
30
0.0000000000
10
0.3731070622
20
-24.1246082843
30
0.0000000000
10
0.3744401688
20
-24.1252949551
30
0.0000000000
10
0.3713090810
20
-24.1236251368
30
0.0000000000
10
0.3679419928
20
-24.1217146969
30
0.0000000000
10
0.3605459566
20
-24.1173920426
30
0.0000000000
10
0.3512093692
20
-24.1115593469
30
0.0000000000
10
0.3396361632
20
-24.1039122308
30
0.0000000000
10
0.3268128913
20
-24.0948723236
30
0.0000000000
10
0.3131612598
20
-24.0846112350
30
0.0000000000
10
0.3039764367
20
-24.0772311107
30
0.0000000000
10
0.2993200780
20
-24.0733615823
30
0.0000000000
11
0.3721540644
21
-24.1241193305
31
0.0000000000
11
0.3737412925
21
-24.1249250636
31
0.0000000000
11
0.3727920377
21
-24.1244143595
31
0.0000000000
11
0.3686465473
21
-24.1221053550
31
0.0000000000
11
0.3616444560
21
-24.1179963916
31
0.0000000000
11
0.3519383185
21
-24.1119631423
31
0.0000000000
11
0.3401798680
21
-24.1041917347
31
0.0000000000
11
0.3272145731
21
-24.0950607733
31
0.0000000000
11
0.3134791887
21
-24.0847376064
31
0.0000000000
11
0.2993200780
21
-24.0733615823
31
0.0000000000
0
SPLINE
5
2A4
100
AcDbEntity
8
0
100
AcDbSpline
62
7
6
CONTINUOUS
70
0
71
3
72
11
73
7
74
5
42
0.0000001000
43
0.0000001000
44
0.0000000001
12
0.0010546704
22
0.0042548127
32
0.0000000000
13
-0.0017504690
23
-0.0056968432
33
0.0000000000
40
0.0000000000
40
0.0000000000
40
0.0000000000
40
0.0000000000
40
0.0236623328
40
0.2022131163
40
0.6068435198
40
1.0000000000
40
1.0000000000
40
1.0000000000
40
1.0000000000
10
25.5526600726
20
-23.8713780167
30
0.0000000000
10
25.5526683912
20
-23.8713444571
30
0.0000000000
10
25.5527201272
20
-23.8711319764
30
0.0000000000
10
25.5521796440
20
-23.8731543779
30
0.0000000000
10
25.5518132243
20
-23.8743589675
30
0.0000000000
10
25.5513691836
20
-23.8758254774
30
0.0000000000
10
25.5511397808
20
-23.8765720610
30
0.0000000000
11
25.5526600726
21
-23.8713780167
31
0.0000000000
11
25.5526773247
21
-23.8713068667
31
0.0000000000
11
25.5524091732
21
-23.8722861943
31
0.0000000000
11
25.5517717128
21
-23.8744971698
31
0.0000000000
11
25.5511397808
21
-23.8765720610
31
0.0000000000
0
SPLINE
5
2A5
100
AcDbEntity
8
0
100
AcDbSpline
62
7
6
CONTINUOUS
70
0
71
3
72
13
73
9
74
7
42
0.0000001000
43
0.0000001000
44
0.0000000001
12
-0.0118422883
22
-0.0385403331
32
0.0000000000
13
-0.0162397883
23
-0.0348736793
33
0.0000000000
40
0.0000000000
40
0.0000000000
40
0.0000000000
40
0.0000000000
40
0.0321180912
40
0.1585195389
40
0.3277300619
40
0.5427945678
40
0.8052657891
40
1.0000000000
40
1.0000000000
40
1.0000000000
40
1.0000000000
10
25.5511397808
20
-23.8765720610
30
0.0000000000
10
25.5510129969
20
-23.8769846749
30
0.0000000000
10
25.5503713094
20
-23.8790571316
30
0.0000000000
10
25.5490906879
20
-23.8829164215
30
0.0000000000
10
25.5468805208
20
-23.8891516748
30
0.0000000000
10
25.5438998257
20
-23.8968658276
30
0.0000000000
10
25.5405521433
20
-23.9048204883
30
0.0000000000
10
25.5381345278
20
-23.9101624393
30
0.0000000000
10
25.5370803803
20
-23.9124261388
30
0.0000000000
11
25.5511397808
21
-23.8765720610
31
0.0000000000
11
25.5507538827
21
-23.8778160407
31
0.0000000000
11
25.5492352462
21
-23.8824357650
31
0.0000000000
11
25.5470580483
21
-23.8885707838
31
0.0000000000
11
25.5440823859
21
-23.8962911670
31
0.0000000000
11
25.5401684051
21
-23.9055995951
31
0.0000000000
11
25.5370803803
21
-23.9124261388
31
0.0000000000
0
SPLINE
5
2A6
100
AcDbEntity
8
0
100
AcDbSpline
62
7
6
CONTINUOUS
70
0
71
3
72
27
73
23
74
21
42
0.0000001000
43
0.0000001000
44
0.0000000001
12
-0.1182078743
22
-0.2538421952
32
0.0000000000
13
-0.2407728446
23
-0.1483399384
33
0.0000000000
40
0.0000000000
40
0.0000000000
40
0.0000000000
40
0.0000000000
40
0.0140136783
40
0.0580915375
40
0.1045382716
40
0.1525514208
40
0.2016699770
40
0.2516417406
40
0.3022887818
40
0.3535259989
40
0.4053238117
40
0.4576731222
40
0.5105571718
40
0.5642800277
40
0.6192394449
40
0.6757797126
40
0.7341274063
40
0.7941595705
40
0.8544186891
40
0.9125461008
40
0.9655695183
40
1.0000000000
40
1.0000000000
40
1.0000000000
40
1.0000000000
10
25.5370803803
20
-23.9124261388
30
0.0000000000
10
25.5365282046
20
-23.9136118931
30
0.0000000000
10
25.5342114590
20
-23.9185141068
30
0.0000000000
10
25.5298401055
20
-23.9272411923
30
0.0000000000
10
25.5236598704
20
-23.9386031352
30
0.0000000000
10
25.5168627817
20
-23.9501569310
30
0.0000000000
10
25.5095144775
20
-23.9617594445
30
0.0000000000
10
25.5016613577
20
-23.9733247521
30
0.0000000000
10
25.4933366056
20
-23.9848004652
30
0.0000000000
10
25.4845641642
20
-23.9961537703
30
0.0000000000
10
25.4753592288
20
-24.0073656045
30
0.0000000000
10
25.4657326382
20
-24.0184221310
30
0.0000000000
10
25.4556734821
20
-24.0293322763
30
0.0000000000
10
25.4451408708
20
-24.0401291497
30
0.0000000000
10
25.4340629912
20
-24.0508624865
30
0.0000000000
10
25.4223650661
20
-24.0615669654
30
0.0000000000
10
25.4100006596
20
-24.0722354577
30
0.0000000000
10
25.3970528900
20
-24.0827442457
30
0.0000000000
10
25.3837969611
20
-24.0928429118
30
0.0000000000
10
25.3707995361
20
-24.1021346865
30
0.0000000000
10
25.3594394702
20
-24.1097358996
30
0.0000000000
10
25.3526636812
20
-24.1140403648
30
0.0000000000
10
25.3499003728
20
-24.1157428366
30
0.0000000000
11
25.5370803803
21
-23.9124261388
31
0.0000000000
11
25.5354039061
21
-23.9159739972
31
0.0000000000
11
25.5298791824
21
-23.9270119082
31
0.0000000000
11
25.5236673978
21
-23.9384394272
31
0.0000000000
11
25.5168531040
21
-23.9500300735
31
0.0000000000
11
25.5094964073
21
-23.9616523198
31
0.0000000000
11
25.5016378531
21
-23.9732312088
31
0.0000000000
11
25.4933120162
21
-23.9847132056
31
0.0000000000
11
25.4845411788
21
-23.9960685375
31
0.0000000000
11
25.4753387296
21
-24.0072808376
31
0.0000000000
11
25.4657138867
21
-24.0183382930
31
0.0000000000
11
25.4556765075
21
-24.0292272229
31
0.0000000000
11
25.4451721530
21
-24.0399970321
31
0.0000000000
11
25.4341195471
21
-24.0507072675
31
0.0000000000
11
25.4224391058
21
-24.0613964724
31
0.0000000000
11
25.4100681327
21
-24.0720704958
31
0.0000000000
11
25.3970149136
21
-24.0826642043
31
0.0000000000
11
25.3835916600
21
-24.0928901691
31
0.0000000000
11
25.3703454623
21
-24.1023507166
31
0.0000000000
11
25.3580064292
21
-24.1106104695
31
0.0000000000
11
25.3499003728
21
-24.1157428366
31
0.0000000000
0
SPLINE
5
2A7
100
AcDbEntity
8
0
100
AcDbSpline
62
7
6
CONTINUOUS
70
0
71
3
72
11
73
7
74
5
42
0.0000001000
43
0.0000001000
44
0.0000000001
12
-0.0151451192
22
-0.0093308947
32
0.0000000000
13
-0.0170842673
23
-0.0091831007
33
0.0000000000
40
0.0000000000
40
0.0000000000
40
0.0000000000
40
0.0000000000
40
0.1501023414
40
0.6565347425
40
0.9617727158
40
1.0000000000
40
1.0000000000
40
1.0000000000
40
1.0000000000
10
25.3499003728
20
-24.1157428366
30
0.0000000000
10
25.3491426002
20
-24.1162096997
30
0.0000000000
10
25.3457966938
20
-24.1182542873
30
0.0000000000
10
25.3406338875
20
-24.1212938708
30
0.0000000000
10
25.3370722456
20
-24.1233319685
30
0.0000000000
10
25.3347234980
20
-24.1245915549
30
0.0000000000
10
25.3345058029
20
-24.1247085699
30
0.0000000000
11
25.3499003728
21
-24.1157428366
31
0.0000000000
11
25.3476033392
21
-24.1171461853
31
0.0000000000
11
25.3399258924
21
-24.1216888369
31
0.0000000000
11
25.3352350586
21
-24.1243165741
31
0.0000000000
11
25.3345058029
21
-24.1247085699
31
0.0000000000
0
SPLINE
5
2A8
100
AcDbEntity
8
0
100
AcDbSpline
62
7
6
CONTINUOUS
70
0
71
3
72
11
73
7
74
5
42
0.0000001000
43
0.0000001000
44
0.0000000001
12
-0.0010224845
22
-0.0041260621
32
0.0000000000
13
0.0016630050
23
0.0054319526
33
0.0000000000
40
0.0000000000
40
0.0000000000
40
0.0000000000
40
0.0000000000
40
0.0272737524
40
0.1957880249
40
0.6018391140
40
1.0000000000
40
1.0000000000
40
1.0000000000
40
1.0000000000
10
0.1552283595
20
20.8471228651
30
0.0000000000
10
0.1552190639
20
20.8470853540
30
0.0000000000
10
0.1551724952
20
20.8468935109
30
0.0000000000
10
0.1556718880
20
20.8487608011
30
0.0000000000
10
0.1560233048
20
20.8499234912
30
0.0000000000
10
0.1564489247
20
20.8513342329
30
0.0000000000
10
0.1566696392
20
20.8520551633
30
0.0000000000
11
0.1552283595
21
20.8471228651
31
0.0000000000
11
0.1552101459
21
20.8470474162
31
0.0000000000
11
0.1554516299
21
20.8479295418
31
0.0000000000
11
0.1560605918
21
20.8500475068
31
0.0000000000
11
0.1566696392
21
20.8520551633
31
0.0000000000
0
SPLINE
5
2A9
100
AcDbEntity
8
0
100
AcDbSpline
62
7
6
CONTINUOUS
70
0
71
3
72
13
73
9
74
7
42
0.0000001000
43
0.0000001000
44
0.0000000001
12
0.0127200590
22
0.0415481350
32
0.0000000000
13
0.0178307441
23
0.0374860544
33
0.0000000000
40
0.0000000000
40
0.0000000000
40
0.0000000000
40
0.0000000000
40
0.0288166807
40
0.1417015962
40
0.2934796799
40
0.4875874109
40
0.7267129438
40
1.0000000000
40
1.0000000000
40
1.0000000000
40
1.0000000000
10
0.1566696392
20
20.8520551633
30
0.0000000000
10
0.1567918225
20
20.8524542564
30
0.0000000000
10
0.1574076980
20
20.8544506110
30
0.0000000000
10
0.1586401870
20
20.8581852419
30
0.0000000000
10
0.1607701831
20
20.8642320289
30
0.0000000000
10
0.1636607052
20
20.8717691279
30
0.0000000000
10
0.1674310678
20
20.8808004290
30
0.0000000000
10
0.1703734008
20
20.8872511596
30
0.0000000000
10
0.1719977047
20
20.8906659774
30
0.0000000000
11
0.1566696392
21
20.8520551633
31
0.0000000000
11
0.1570414538
21
20.8532582326
31
0.0000000000
11
0.1584981946
21
20.8577122232
31
0.0000000000
11
0.1605935099
21
20.8636543439
31
0.0000000000
11
0.1634726748
21
20.8711803587
31
0.0000000000
11
0.1672940248
21
20.8803421172
31
0.0000000000
11
0.1719977047
21
20.8906659774
31
0.0000000000
0
SPLINE
5
2AA
100
AcDbEntity
8
0
100
AcDbSpline
62
7
6
CONTINUOUS
70
0
71
3
72
26
73
22
74
20
42
0.0000001000
43
0.0000001000
44
0.0000000001
12
0.1190222205
22
0.2502236256
32
0.0000000000
13
0.2385278383
23
0.1468606705
33
0.0000000000
40
0.0000000000
40
0.0000000000
40
0.0000000000
40
0.0000000000
40
0.0444599209
40
0.0913760635
40
0.1399601044
40
0.1897110505
40
0.2403692410
40
0.2917374720
40
0.3437166420
40
0.3962671436
40
0.4493737469
40
0.5030123011
40
0.5574846781
40
0.6132091024
40
0.6705505758
40
0.7297561121
40
0.7907172552
40
0.8519177473
40
0.9108800803
40
0.9645661224
40
1.0000000000
40
1.0000000000
40
1.0000000000
40
1.0000000000
10
0.1719977047
20
20.8906659774
30
0.0000000000
10
0.1737616109
20
20.8943742849
30
0.0000000000
10
0.1775203150
20
20.9019337792
30
0.0000000000
10
0.1836664821
20
20.9133096107
30
0.0000000000
10
0.1904399639
20
20.9248936886
30
0.0000000000
10
0.1977761317
20
20.9365402758
30
0.0000000000
10
0.2056267566
20
20.9481581129
30
0.0000000000
10
0.2139573993
20
20.9596914606
30
0.0000000000
10
0.2227421275
20
20.9711040823
30
0.0000000000
10
0.2319640485
20
20.9823745856
30
0.0000000000
10
0.2416107558
20
20.9934874154
30
0.0000000000
10
0.2516916808
20
21.0044502579
30
0.0000000000
10
0.2622475451
20
21.0152966169
30
0.0000000000
10
0.2733516952
20
21.0260781451
30
0.0000000000
10
0.2850823472
20
21.0368326102
30
0.0000000000
10
0.2974897705
20
21.0475554678
30
0.0000000000
10
0.3104908336
20
21.0581214086
30
0.0000000000
10
0.3238020280
20
21.0682721760
30
0.0000000000
10
0.3368432777
20
21.0776018285
30
0.0000000000
10
0.3482754832
20
21.0852553621
30
0.0000000000
10
0.3551071358
20
21.0895955993
30
0.0000000000
10
0.3579244579
20
21.0913302136
30
0.0000000000
11
0.1719977047
21
20.8906659774
31
0.0000000000
11
0.1774794017
21
20.9016992020
31
0.0000000000
11
0.1836559115
21
20.9131388498
31
0.0000000000
11
0.1904480866
21
20.9247626162
31
0.0000000000
11
0.1977927503
21
20.9364293413
31
0.0000000000
11
0.2056496047
21
20.9480621069
31
0.0000000000
11
0.2139819556
21
20.9596027267
31
0.0000000000
11
0.2227655579
21
20.9710180879
31
0.0000000000
11
0.2319852860
21
20.9822894889
31
0.0000000000
11
0.2416306292
21
20.9934037521
31
0.0000000000
11
0.2516900990
21
21.0043457215
31
0.0000000000
11
0.2622166522
21
21.0151639088
31
0.0000000000
11
0.2732943863
21
21.0259212110
31
0.0000000000
11
0.2850063037
21
21.0366592599
31
0.0000000000
11
0.2974191526
21
21.0473866848
31
0.0000000000
11
0.3105286927
21
21.0580401136
31
0.0000000000
11
0.3240139778
21
21.0683234900
31
0.0000000000
11
0.3373065688
21
21.0778238457
31
0.0000000000
11
0.3496669603
21
21.0861022331
31
0.0000000000
11
0.3579244579
21
21.0913302136
31
0.0000000000
0
SPLINE
5
2AB
100
AcDbEntity
8
0
100
AcDbSpline
62
7
6
CONTINUOUS
70
0
71
3
72
11
73
7
74
5
42
0.0000001000
43
0.0000001000
44
0.0000000001
12
0.0149415690
22
0.0091994665
32
0.0000000000
13
0.0167843087
23
0.0090295867
33
0.0000000000
40
0.0000000000
40
0.0000000000
40
0.0000000000
40
0.0000000000
40
0.1417556875
40
0.6535814540
40
0.9614917170
40
1.0000000000
40
1.0000000000
40
1.0000000000
40
1.0000000000
10
0.3579244579
20
21.0913302136
30
0.0000000000
10
0.3586304753
20
21.0917649059
30
0.0000000000
10
0.3619149179
20
21.0937716963
30
0.0000000000
10
0.3669987207
20
21.0967665670
30
0.0000000000
10
0.3705466431
20
21.0987976386
30
0.0000000000
10
0.3728776279
20
21.1000486900
30
0.0000000000
10
0.3730930729
20
21.1001645947
30
0.0000000000
11
0.3579244579
21
21.0913302136
31
0.0000000000
11
0.3600632637
21
21.0926367780
31
0.0000000000
11
0.3677082843
21
21.0971625980
31
0.0000000000
11
0.3723705057
21
21.0997758821
31
0.0000000000
11
0.3730930729
21
21.1001645947
31
0.0000000000
0
SPLINE
5
2AC
100
AcDbEntity
8
0
100
AcDbSpline
62
7
6
CONTINUOUS
70
0
71
3
72
23
73
19
74
17
42
0.0000001000
43
0.0000001000
44
0.0000000001
12
0.1576203115
22
-0.1309951590
32
0.0000000000
13
0.0878423311
23
-0.1851614049
33
0.0000000000
40
0.0000000000
40
0.0000000000
40
0.0000000000
40
0.0000000000
40
0.0731790526
40
0.1446944933
40
0.2144526194
40
0.2824732965
40
0.3488156456
40
0.4135874198
40
0.4769506779
40
0.5390713365
40
0.6001025898
40
0.6600753309
40
0.7190999151
40
0.7773130569
40
0.8347670035
40
0.8913801307
40
0.9468725382
40
1.0000000000
40
1.0000000000
40
1.0000000000
40
1.0000000000
10
25.4086061321
20
21.0489219602
30
0.0000000000
10
25.4124509672
20
21.0457265930
30
0.0000000000
10
25.4199673666
20
21.0393043519
30
0.0000000000
10
25.4308469401
20
21.0294899474
30
0.0000000000
10
25.4412083203
20
21.0196346333
30
0.0000000000
10
25.4510600084
20
21.0097632474
30
0.0000000000
10
25.4604196374
20
20.9998885133
30
0.0000000000
10
25.4693100845
20
20.9900135448
30
0.0000000000
10
25.4777570858
20
20.9801331944
30
0.0000000000
10
25.4857858790
20
20.9702370710
30
0.0000000000
10
25.4934135208
20
20.9603191949
30
0.0000000000
10
25.5006528033
20
20.9503748322
30
0.0000000000
10
25.5075140695
20
20.9403987498
30
0.0000000000
10
25.5140062824
20
20.9303830443
30
0.0000000000
10
25.5201292235
20
20.9203297635
30
0.0000000000
10
25.5258671547
20
20.9102651362
30
0.0000000000
10
25.5311649981
20
20.9002957580
30
0.0000000000
10
25.5344493750
20
20.8936400079
30
0.0000000000
10
25.5360049884
20
20.8903609561
30
0.0000000000
11
25.4086061321
21
21.0489219602
31
0.0000000000
11
25.4200088236
21
21.0391794359
31
0.0000000000
11
25.4308917240
21
21.0293616133
31
0.0000000000
11
25.4412504562
21
21.0195078903
31
0.0000000000
11
25.4510975384
21
21.0096398045
31
0.0000000000
11
25.4604502568
21
20.9997707264
31
0.0000000000
11
25.4693313727
21
20.9899042075
31
0.0000000000
11
25.4777690028
21
20.9800326354
31
0.0000000000
11
25.4857891054
21
20.9701447648
31
0.0000000000
11
25.4934132568
21
20.9602286666
31
0.0000000000
11
25.5006457837
21
20.9502904974
31
0.0000000000
11
25.5074992975
21
20.9403222086
31
0.0000000000
11
25.5139869398
21
20.9303096151
31
0.0000000000
11
25.5201099002
21
20.9202516649
31
0.0000000000
11
25.5258542662
21
20.9101706590
31
0.0000000000
11
25.5311890711
21
20.9001264092
31
0.0000000000
11
25.5360049884
21
20.8903609561
31
0.0000000000
0
SPLINE
5
2AD
100
AcDbEntity
8
0
100
AcDbSpline
62
7
6
CONTINUOUS
70
0
71
3
72
13
73
9
74
7
42
0.0000001000
43
0.0000001000
44
0.0000000001
12
0.0176064781
22
-0.0371124055
32
0.0000000000
13
0.0119541953
23
-0.0386083957
33
0.0000000000
40
0.0000000000
40
0.0000000000
40
0.0000000000
40
0.0000000000
40
0.2428744707
40
0.4599321478
40
0.6506890116
40
0.8100915542
40
0.9357682344
40
1.0000000000
40
1.0000000000
40
1.0000000000
40
1.0000000000
10
25.5360049884
20
20.8903609561
30
0.0000000000
10
25.5374303764
20
20.8873564041
30
0.0000000000
10
25.5400488381
20
20.8816290993
30
0.0000000000
10
25.5435229068
20
20.8734169856
30
0.0000000000
10
25.5463504588
20
20.8662013364
30
0.0000000000
10
25.5485830926
20
20.8600252854
30
0.0000000000
10
25.5500768009
20
20.8556120748
30
0.0000000000
10
25.5509054567
20
20.8529575211
30
0.0000000000
10
25.5511614031
20
20.8521308926
30
0.0000000000
11
25.5360049884
21
20.8903609561
31
0.0000000000
11
25.5401504041
21
20.8812860507
31
0.0000000000
11
25.5436224193
21
20.8730734419
31
0.0000000000
11
25.5464763174
21
20.8657756392
31
0.0000000000
11
25.5487042688
21
20.8596183237
31
0.0000000000
11
25.5503468091
21
20.8547239947
31
0.0000000000
11
25.5511614031
21
20.8521308926
31
0.0000000000
0
SPLINE
5
2AE
100
AcDbEntity
8
0
100
AcDbSpline
62
7
6
CONTINUOUS
70
0
71
3
72
10
73
6
74
4
42
0.0000001000
43
0.0000001000
44
0.0000000001
12
0.0015000642
22
-0.0048447486
32
0.0000000000
13
0.0000737312
23
0.0000198449
33
0.0000000000
40
0.0000000000
40
0.0000000000
40
0.0000000000
40
0.0000000000
40
0.2388445321
40
0.7567272608
40
1.0000000000
40
1.0000000000
40
1.0000000000
40
1.0000000000
10
25.5511614031
20
20.8521308926
30
0.0000000000
10
25.5512808304
20
20.8517451787
30
0.0000000000
10
25.5516424300
20
20.8505722478
30
0.0000000000
10
25.5520146827
20
20.8493632126
30
0.0000000000
10
25.5525875757
20
20.8472272242
30
0.0000000000
10
25.5525935547
20
20.8472288335
30
0.0000000000
11
25.5511614031
21
20.8521308926
31
0.0000000000
11
25.5515011322
21
20.8510304627
31
0.0000000000
11
25.5522509490
21
20.8484684030
31
0.0000000000
11
25.5525935547
21
20.8472288335
31
0.0000000000
0
SPLINE
5
2AF
100
AcDbEntity
8
0
100
AcDbSpline
62
7
6
CONTINUOUS
70
0
71
3
72
16
73
12
74
10
42
0.0000001000
43
0.0000001000
44
0.0000000001
12
-0.1282205655
22
0.0658228576
32
0.0000000000
13
0.0711743509
23
-0.0591516113
33
0.0000000000
40
0.0000000000
40
0.0000000000
40
0.0000000000
40
0.0000000000
40
0.0229464343
40
0.0336637676
40
0.0840172643
40
0.1707581068
40
0.2937243393
40
0.4460192515
40
0.6175322246
40
0.8034428621
40
1.0000000000
40
1.0000000000
40
1.0000000000
40
1.0000000000
10
25.3360134279
20
21.0995435221
30
0.0000000000
10
25.3350326929
20
21.1000469887
30
0.0000000000
10
25.3337008486
20
21.1007334567
30
0.0000000000
10
25.3367215873
20
21.0991199301
30
0.0000000000
10
25.3400642858
20
21.0972266381
30
0.0000000000
10
25.3473696316
20
21.0929560103
30
0.0000000000
10
25.3566779399
20
21.0871445683
30
0.0000000000
10
25.3682396185
20
21.0795073443
30
0.0000000000
10
25.3810753679
20
21.0704613375
30
0.0000000000
10
25.3947448119
20
21.0601882341
30
0.0000000000
10
25.4039428566
20
21.0527975174
30
0.0000000000
10
25.4086061321
20
21.0489219602
30
0.0000000000
11
25.3360134279
21
21.0995435221
31
0.0000000000
11
25.3343981959
21
21.1003634963
31
0.0000000000
11
25.3352714290
21
21.0998931602
31
0.0000000000
11
25.3393426832
21
21.0976258993
31
0.0000000000
11
25.3462667244
21
21.0935640965
31
0.0000000000
11
25.3559328473
21
21.0875582411
31
0.0000000000
11
25.3676924310
21
21.0797890938
31
0.0000000000
11
25.3806710708
21
21.0706512517
31
0.0000000000
11
25.3944255631
21
21.0603152127
31
0.0000000000
11
25.4086061321
21
21.0489219602
31
0.0000000000
0
SPLINE
5
2B0
100
AcDbEntity
8
0
100
AcDbSpline
62
7
6
CONTINUOUS
70
0
71
3
72
12
73
8
74
6
42
0.0000001000
43
0.0000001000
44
0.0000000001
12
0.4406427975
22
0.0092952866
32
0.0000000000
13
0.4407211918
23
-0.0041603391
33
0.0000000000
40
0.0000000000
40
0.0000000000
40
0.0000000000
40
0.0000000000
40
0.2212703833
40
0.4343808982
40
0.6365196238
40
0.8257301734
40
1.0000000000
40
1.0000000000
40
1.0000000000
40
1.0000000000
10
17.5191705485
20
-43.8579581486
30
0.0000000000
10
17.5516709487
20
-43.8572725581
30
0.0000000000
10
17.6154761512
20
-43.8560604060
30
0.0000000000
10
17.7089803989
20
-43.8547260599
30
0.0000000000
10
17.7977807601
20
-43.8539353951
30
0.0000000000
10
17.8808781693
20
-43.8537126704
30
0.0000000000
10
17.9342785219
20
-43.8539640223
30
0.0000000000
10
17.9598799904
20
-43.8542056962
30
0.0000000000
11
17.5191705485
21
-43.8579581486
31
0.0000000000
11
17.6166760380
21
-43.8561158828
31
0.0000000000
11
17.7105931739
21
-43.8547892725
31
0.0000000000
11
17.7996805894
21
-43.8540139427
31
0.0000000000
11
17.8830731632
21
-43.8538136813
31
0.0000000000
11
17.9598799904
21
-43.8542056962
31
0.0000000000
0
SPLINE
5
2B1
100
AcDbEntity
8
0
100
AcDbSpline
62
7
6
CONTINUOUS
70
0
71
3
72
12
73
8
74
6
42
0.0000001000
43
0.0000001000
44
0.0000000001
12
-0.4407209020
22
-0.0041622219
32
0.0000000000
13
-0.4406425241
23
0.0092953501
33
0.0000000000
40
0.0000000000
40
0.0000000000
40
0.0000000000
40
0.0000000000
40
0.1742714961
40
0.3634850088
40
0.5656253677
40
0.7787348962
40
1.0000000000
40
1.0000000000
40
1.0000000000
40
1.0000000000
10
17.9598802518
20
40.8297524823
30
0.0000000000
10
17.9342785548
20
40.8295106968
30
0.0000000000
10
17.8808775529
20
40.8292595332
30
0.0000000000
10
17.7977792752
20
40.8294821923
30
0.0000000000
10
17.7089784383
20
40.8302728829
30
0.0000000000
10
17.6154749286
20
40.8316071923
30
0.0000000000
10
17.5516706861
20
40.8328193449
30
0.0000000000
10
17.5191710815
20
40.8335049237
30
0.0000000000
11
17.9598802518
21
40.8297524823
31
0.0000000000
11
17.8830727360
21
40.8293604836
31
0.0000000000
11
17.7996789078
21
40.8295607579
31
0.0000000000
11
17.7105908275
21
40.8303360921
31
0.0000000000
11
17.6166741842
21
40.8316626875
31
0.0000000000
11
17.5191710815
21
40.8335049237
31
0.0000000000
0
SPLINE
5
2B2
100
AcDbEntity
8
0
100
AcDbSpline
62
7
6
CONTINUOUS
70
0
71
3
72
12
73
8
74
6
42
0.0000001000
43
0.0000001000
44
0.0000000001
12
-0.4406425560
22
-0.0092953507
32
0.0000000000
13
-0.4407209354
23
0.0041620743
33
0.0000000000
40
0.0000000000
40
0.0000000000
40
0.0000000000
40
0.0000000000
40
0.2212866804
40
0.4343819089
40
0.6365154037
40
0.8257236420
40
1.0000000000
40
1.0000000000
40
1.0000000000
40
1.0000000000
10
8.1886812661
20
40.8335049238
30
0.0000000000
10
8.1561784899
20
40.8328192780
30
0.0000000000
10
8.0923731737
20
40.8316071182
30
0.0000000000
10
7.9988695962
20
40.8302728400
30
0.0000000000
10
7.9100726368
20
40.8294821964
30
0.0000000000
10
7.8269754221
20
40.8292595311
30
0.0000000000
10
7.7735744770
20
40.8295106987
30
0.0000000000
10
7.7479720638
20
40.8297524825
30
0.0000000000
11
8.1886812661
21
40.8335049238
31
0.0000000000
11
8.0911686479
21
40.8316625298
31
0.0000000000
11
7.9972582994
21
40.8303360549
31
0.0000000000
11
7.9081732377
21
40.8295607570
31
0.0000000000
11
7.8247817280
21
40.8293604822
31
0.0000000000
11
7.7479720638
21
40.8297524825
31
0.0000000000
0
SPLINE
5
2B3
100
AcDbEntity
8
0
100
AcDbSpline
62
7
6
CONTINUOUS
70
0
71
3
72
12
73
8
74
6
42
0.0000001000
43
0.0000001000
44
0.0000000001
12
0.4407207981
22
0.0041625638
32
0.0000000000
13
0.4406424232
23
-0.0092953576
33
0.0000000000
40
0.0000000000
40
0.0000000000
40
0.0000000000
40
0.0000000000
40
0.1742749443
40
0.3634834516
40
0.5656175222
40
0.7787130763
40
1.0000000000
40
1.0000000000
40
1.0000000000
40
1.0000000000
10
7.7479719925
20
-43.8542056979
30
0.0000000000
10
7.7735741900
20
-43.8539638877
30
0.0000000000
10
7.8269749513
20
-43.8537127693
30
0.0000000000
10
7.9100720572
20
-43.8539354103
30
0.0000000000
10
7.9988691619
20
-43.8547260497
30
0.0000000000
10
8.0923728795
20
-43.8560603271
30
0.0000000000
10
8.1561782601
20
-43.8572724881
30
0.0000000000
10
8.1886810622
20
-43.8579581351
30
0.0000000000
11
7.7479719925
21
-43.8542056979
31
0.0000000000
11
7.8247810105
21
-43.8538137037
31
0.0000000000
11
7.9081726136
21
-43.8540139744
31
0.0000000000
11
7.9972579024
21
-43.8547892658
31
0.0000000000
11
8.0911683662
21
-43.8561157395
31
0.0000000000
11
8.1886810622
21
-43.8579581351
31
0.0000000000
0
SPLINE
5
2B4
100
AcDbEntity
8
0
100
AcDbSpline
62
9
6
CONTINUOUS
70
0
71
3
72
13
73
9
74
7
42
0.0000001000
43
0.0000001000
44
0.0000000001
12
-13.7598371355
22
0.2368321707
32
0.0000000000
13
-13.5954526857
23
2.1337464104
33
0.0000000000
40
0.0000000000
40
0.0000000000
40
0.0000000000
40
0.0000000000
40
0.1666247184
40
0.3332611367
40
0.4999140367
40
0.6665863777
40
0.8332807922
40
1.0000000000
40
1.0000000000
40
1.0000000000
40
1.0000000000
10
11.1437938968
20
-43.9029387425
30
0.0000000000
10
10.3795509007
20
-43.8897847113
30
0.0000000000
10
8.8512561414
20
-43.8458367816
30
0.0000000000
10
6.5608900145
20
-43.7270333474
30
0.0000000000
10
4.2736454894
20
-43.5553946446
30
0.0000000000
10
1.9907059436
20
-43.3309952963
30
0.0000000000
10
-0.2867377145
20
-43.0539387299
30
0.0000000000
10
-1.8005019582
20
-42.8342254371
30
0.0000000000
10
-2.5560429922
20
-42.7156466000
30
0.0000000000
11
11.1437938968
21
-43.9029387425
31
0.0000000000
11
8.8516728241
21
-43.8370262378
31
0.0000000000
11
6.5615220711
21
-43.7182346305
31
0.0000000000
11
4.2744960087
21
-43.5466127804
31
0.0000000000
11
1.9917729655
21
-43.3222357489
31
0.0000000000
11
-0.2854659299
21
-43.0452047211
31
0.0000000000
11
-2.5560429922
21
-42.7156466000
31
0.0000000000
0
SPLINE
5
2B5
100
AcDbEntity
8
0
100
AcDbSpline
62
9
6
CONTINUOUS
70
0
71
3
72
19
73
15
74
13
42
0.0000001000
43
0.0000001000
44
0.0000000001
12
-28.8813909052
22
-4.6065747971
32
0.0000000000
13
-28.8813909106
23
4.6065747635
33
0.0000000000
40
0.0000000000
40
0.0000000000
40
0.0000000000
40
0.0000000000
40
0.0833775906
40
0.1667327014
40
0.2500686776
40
0.3333889709
40
0.4166975256
40
0.5000000052
40
0.5833024846
40
0.6666110388
40
0.7499313320
40
0.8332673087
40
0.9166224210
40
1.0000000000
40
1.0000000000
40
1.0000000000
40
1.0000000000
10
27.4166537901
20
-37.8601042665
30
0.0000000000
10
26.6139668615
20
-37.9881326356
30
0.0000000000
10
25.0053561143
20
-38.2230216386
30
0.0000000000
10
22.5843517826
20
-38.5116014744
30
0.0000000000
10
20.1571211878
20
-38.7362209620
30
0.0000000000
10
17.7252705045
20
-38.8967489038
30
0.0000000000
10
15.2903581793
20
-38.9930990373
30
0.0000000000
10
12.8539260231
20
-39.0252211027
30
0.0000000000
10
10.4174938711
20
-38.9930990295
30
0.0000000000
10
7.9825815536
20
-38.8967488885
30
0.0000000000
10
5.5507308705
20
-38.7362209395
30
0.0000000000
10
3.1235002582
20
-38.5116014420
30
0.0000000000
10
0.7024960199
20
-38.2230216103
30
0.0000000000
10
-0.9061146283
20
-37.9881326168
30
0.0000000000
10
-1.7088014454
20
-37.8601042665
30
0.0000000000
11
27.4166537901
21
-37.8601042665
31
0.0000000000
11
25.0037418107
21
-38.2124306743
31
0.0000000000
11
22.5830359957
21
-38.5009709973
31
0.0000000000
11
20.1561233602
21
-38.7255572534
31
0.0000000000
11
17.7245916076
21
-38.8860617086
31
0.0000000000
11
15.2900167403
21
-38.9823969351
31
0.0000000000
11
12.8539260214
21
-39.0145140065
31
0.0000000000
11
10.4178353079
21
-38.9823969273
31
0.0000000000
11
7.9832604530
21
-38.8860616936
31
0.0000000000
11
5.5517287056
21
-38.7255572314
31
0.0000000000
11
3.1248160531
21
-38.5009709659
31
0.0000000000
11
0.7041101975
21
-38.2124306299
31
0.0000000000
11
-1.7088014454
21
-37.8601042665
31
0.0000000000
0
SPLINE
5
2B6
100
AcDbEntity
8
0
100
AcDbSpline
62
9
6
CONTINUOUS
70
0
71
3
72
27
73
23
74
21
42
0.0000001000
43
0.0000001000
44
0.0000000001
12
-2.1680982578
22
4.4277197366
32
0.0000000000
13
-0.7727522206
23
4.8691073234
33
0.0000000000
40
0.0000000000
40
0.0000000000
40
0.0000000000
40
0.0000000000
40
0.0070357534
40
0.0195638288
40
0.0375536149
40
0.0609246698
40
0.0895641701
40
0.1233309349
40
0.1620572140
40
0.2055499558
40
0.2535919722
40
0.3059431287
40
0.3623416036
40
0.4225052338
40
0.4861329491
40
0.5529062942
40
0.6224910334
40
0.6945388312
40
0.7686890015
40
0.8445703182
40
0.9218028769
40
1.0000000000
40
1.0000000000
40
1.0000000000
40
1.0000000000
10
28.2638953366
20
-42.7156465983
30
0.0000000000
10
28.2588106017
20
-42.7052624836
30
0.0000000000
10
28.2497231167
20
-42.6741936681
30
0.0000000000
10
28.2341799077
20
-42.6146075043
30
0.0000000000
10
28.2148455486
20
-42.5281056078
30
0.0000000000
10
28.1911818238
20
-42.4155585484
30
0.0000000000
10
28.1636733162
20
-42.2772937306
30
0.0000000000
10
28.1323589267
20
-42.1140773920
30
0.0000000000
10
28.0974495811
20
-41.9266943990
30
0.0000000000
10
28.0591122992
20
-41.7160909664
30
0.0000000000
10
28.0175477282
20
-41.4833175679
30
0.0000000000
10
27.9729651422
20
-41.2295402747
30
0.0000000000
10
27.9255900089
20
-40.9560292869
30
0.0000000000
10
27.8756606667
20
-40.6641541739
30
0.0000000000
10
27.8234280803
20
-40.3553764428
30
0.0000000000
10
27.7691544639
20
-40.0312423443
30
0.0000000000
10
27.7131121056
20
-39.6933750644
30
0.0000000000
10
27.6555820288
20
-39.3434665963
30
0.0000000000
10
27.5968526207
20
-38.9832692565
30
0.0000000000
10
27.5372182067
20
-38.6145869017
30
0.0000000000
10
27.4769775904
20
-38.2392659023
30
0.0000000000
10
27.4367961236
20
-37.9870209948
30
0.0000000000
10
27.4166537901
20
-37.8601042665
30
0.0000000000
11
28.2638953366
21
-42.7156465983
31
0.0000000000
11
28.2524023831
21
-42.6829193720
31
0.0000000000
11
28.2367239162
21
-42.6231784679
31
0.0000000000
11
28.2169384551
21
-42.5367230744
31
0.0000000000
11
28.1931450874
21
-42.4239861689
31
0.0000000000
11
28.1654629728
21
-42.2855323492
31
0.0000000000
11
28.1340307460
21
-42.1220550062
31
0.0000000000
11
28.0990058229
21
-41.9343728508
31
0.0000000000
11
28.0605636117
21
-41.7234258142
31
0.0000000000
11
28.0188966350
21
-41.4902703406
31
0.0000000000
11
27.9742135653
21
-41.2360740962
31
0.0000000000
11
27.9267381797
21
-40.9621101214
31
0.0000000000
11
27.8767082400
21
-40.6697504557
31
0.0000000000
11
27.8243743010
21
-40.3604592656
31
0.0000000000
11
27.7699984565
21
-40.0357855129
31
0.0000000000
11
27.7138530261
21
-39.6973551965
31
0.0000000000
11
27.6562191919
21
-39.3468632097
31
0.0000000000
11
27.5973855899
21
-38.9860648518
31
0.0000000000
11
27.5376468648
21
-38.6167670374
31
0.0000000000
11
27.4773021941
21
-38.2408192475
31
0.0000000000
11
27.4166537901
21
-37.8601042665
31
0.0000000000
0
SPLINE
5
2B7
100
AcDbEntity
8
0
100
AcDbSpline
62
9
6
CONTINUOUS
70
0
71
3
72
13
73
9
74
7
42
0.0000001000
43
0.0000001000
44
0.0000000001
12
-13.5954526277
22
-2.1337464095
32
0.0000000000
13
-13.7598370780
23
-0.2368321756
33
0.0000000000
40
0.0000000000
40
0.0000000000
40
0.0000000000
40
0.0000000000
40
0.1667192039
40
0.3334136167
40
0.5000859575
40
0.6667388589
40
0.8333752793
40
1.0000000000
40
1.0000000000
40
1.0000000000
40
1.0000000000
10
28.2638953369
20
-42.7156466000
30
0.0000000000
10
27.5083543240
20
-42.8342254342
30
0.0000000000
10
25.9945901122
20
-43.0539387223
30
0.0000000000
10
23.7171464902
20
-43.3309952864
30
0.0000000000
10
21.4342069564
20
-43.5553946358
30
0.0000000000
10
19.1469624255
20
-43.7270333416
30
0.0000000000
10
16.8565962817
20
-43.8458367783
30
0.0000000000
10
15.3283015084
20
-43.8897847103
30
0.0000000000
10
14.5640585053
20
-43.9029387420
30
0.0000000000
11
28.2638953369
21
-42.7156466000
31
0.0000000000
11
25.9933183379
21
-43.0452047126
31
0.0000000000
11
23.7160794754
21
-43.3222357384
31
0.0000000000
11
21.4333564438
21
-43.5466127711
31
0.0000000000
11
19.1463303729
21
-43.7182346242
31
0.0000000000
11
16.8561795991
21
-43.8370262347
31
0.0000000000
11
14.5640585053
21
-43.9029387420
31
0.0000000000
0
SPLINE
5
2B8
100
AcDbEntity
8
0
100
AcDbSpline
62
9
6
CONTINUOUS
70
0
71
3
72
28
73
24
74
22
42
0.0000001000
43
0.0000001000
44
0.0000000001
12
-8.2498574983
22
1.2884961250
32
0.0000000000
13
0.0030739518
23
8.3498719485
33
0.0000000000
40
0.0000000000
40
0.0000000000
40
0.0000000000
40
0.0000000000
40
0.0476182264
40
0.0952363769
40
0.1428547886
40
0.1904732591
40
0.2380917442
40
0.2857103577
40
0.3333290528
40
0.3809478554
40
0.4285667283
40
0.4761857328
40
0.5238048186
40
0.5714240229
40
0.6190432900
40
0.6666626675
40
0.7142821338
40
0.7619016843
40
0.8095212361
40
0.8571408537
40
0.9047605728
40
0.9523802172
40
1.0000000000
40
1.0000000000
40
1.0000000000
40
1.0000000000
10
-2.5560429922
20
-42.7156466000
30
0.0000000000
10
-2.6869908528
20
-42.6951946333
30
0.0000000000
10
-2.9475922476
20
-42.6454413428
30
0.0000000000
10
-3.3325088531
20
-42.5446533063
30
0.0000000000
10
-3.7097775237
20
-42.4181514644
30
0.0000000000
10
-4.0776598480
20
-42.2665144754
30
0.0000000000
10
-4.4344891791
20
-42.0904307064
30
0.0000000000
10
-4.7786415994
20
-41.8907008813
30
0.0000000000
10
-5.1085530649
20
-41.6682326993
30
0.0000000000
10
-5.4227233511
20
-41.4240375814
30
0.0000000000
10
-5.7197241800
20
-41.1592255298
30
0.0000000000
10
-5.9982051144
20
-40.8750004224
30
0.0000000000
10
-6.2569000564
20
-40.5726542552
30
0.0000000000
10
-6.4946326393
20
-40.2535616675
30
0.0000000000
10
-6.7103219718
20
-39.9191732401
30
0.0000000000
10
-6.9029872851
20
-39.5710092518
30
0.0000000000
10
-7.0717525373
20
-39.2106524537
30
0.0000000000
10
-7.2158502324
20
-38.8397415427
30
0.0000000000
10
-7.3346250862
20
-38.4599624132
30
0.0000000000
10
-7.4275372072
20
-38.0730433819
30
0.0000000000
10
-7.4941636379
20
-37.6807373351
30
0.0000000000
10
-7.5342023804
20
-37.2848514856
30
0.0000000000
10
-7.5430469232
20
-37.0196821854
30
0.0000000000
10
-7.5429981295
20
-36.8871424891
30
0.0000000000
11
-2.5560429922
21
-42.7156466000
31
0.0000000000
11
-2.9465947721
21
-42.6410816390
31
0.0000000000
11
-3.3312333927
21
-42.5403679142
31
0.0000000000
11
-3.7082128326
21
-42.4139623811
31
0.0000000000
11
-4.0758175605
21
-42.2624400684
31
0.0000000000
11
-4.4323759544
21
-42.0864899161
31
0.0000000000
11
-4.7762677892
21
-41.8869113538
31
0.0000000000
11
-5.1059291951
21
-41.6646117894
31
0.0000000000
11
-5.4198615145
21
-41.4206016432
31
0.0000000000
11
-5.7166371710
21
-41.1559903641
31
0.0000000000
11
-5.9949071920
21
-40.8719805261
31
0.0000000000
11
-6.2534060477
21
-40.5698635379
31
0.0000000000
11
-6.4909585874
21
-40.2510126155
31
0.0000000000
11
-6.7064844153
21
-39.9168776817
31
0.0000000000
11
-6.8990037691
21
-39.5689774540
31
0.0000000000
11
-7.0676411526
21
-39.2088937239
31
0.0000000000
11
-7.2116297342
21
-38.8382635759
31
0.0000000000
11
-7.3303145627
21
-38.4587726820
31
0.0000000000
11
-7.4231561913
21
-38.0721458645
31
0.0000000000
11
-7.4897323747
21
-37.6801405713
31
0.0000000000
11
-7.5297403668
21
-37.2845405174
31
0.0000000000
11
-7.5429981295
21
-36.8871424891
31
0.0000000000
0
SPLINE
5
2B9
100
AcDbEntity
8
0
100
AcDbSpline
62
9
6
CONTINUOUS
70
0
71
3
72
28
73
24
74
22
42
0.0000001000
43
0.0000001000
44
0.0000000001
12
-0.5723217070
22
0.0912872087
32
0.0000000000
13
0.0030842468
23
0.5795480810
33
0.0000000000
40
0.0000000000
40
0.0000000000
40
0.0000000000
40
0.0000000000
40
0.0473142537
40
0.0946509526
40
0.1420115858
40
0.1894004295
40
0.2368213061
40
0.2842774988
40
0.3317713646
40
0.3793045112
40
0.4268776238
40
0.4744906052
40
0.5221423601
40
0.5698310087
40
0.6175537414
40
0.6653070575
40
0.7130866534
40
0.7608875829
40
0.8087042492
40
0.8565307263
40
0.9043606904
40
0.9521873414
40
1.0000000000
40
1.0000000000
40
1.0000000000
40
1.0000000000
10
-1.7088014454
20
-37.8601042665
30
0.0000000000
10
-1.7178277702
20
-37.8586645378
30
0.0000000000
10
-1.7357917122
20
-37.8551618431
30
0.0000000000
10
-1.7623146392
20
-37.8480683494
30
0.0000000000
10
-1.7883032161
20
-37.8391666994
30
0.0000000000
10
-1.8136353433
20
-37.8284989835
30
0.0000000000
10
-1.8381949170
20
-37.8161150809
30
0.0000000000
10
-1.8618690022
20
-37.8020729032
30
0.0000000000
10
-1.8845490849
20
-37.7864380188
30
0.0000000000
10
-1.9061313491
20
-37.7692833658
30
0.0000000000
10
-1.9265172557
20
-37.7506888525
30
0.0000000000
10
-1.9456139529
20
-37.7307409792
30
0.0000000000
10
-1.9633347258
20
-37.7095323887
30
0.0000000000
10
-1.9795993620
20
-37.6871614355
30
0.0000000000
10
-1.9943345350
20
-37.6637316706
30
0.0000000000
10
-2.0074741056
20
-37.6393513606
30
0.0000000000
10
-2.0189594151
20
-37.6141329433
30
0.0000000000
10
-2.0287395172
20
-37.5881925329
30
0.0000000000
10
-2.0367714005
20
-37.5616492797
30
0.0000000000
10
-2.0430201610
20
-37.5346249987
30
0.0000000000
10
-2.0474590836
20
-37.5072429309
30
0.0000000000
10
-2.0500697799
20
-37.4796305023
30
0.0000000000
10
-2.0505848437
20
-37.4611455037
30
0.0000000000
10
-2.0505356884
20
-37.4519089255
30
0.0000000000
11
-1.7088014454
21
-37.8601042665
31
0.0000000000
11
-1.7357158942
21
-37.8548565364
31
0.0000000000
11
-1.7622188609
21
-37.8477690435
31
0.0000000000
11
-1.7881861847
21
-37.8388752713
31
0.0000000000
11
-1.8134981752
21
-37.8282168461
31
0.0000000000
11
-1.8380383878
21
-37.8158436109
31
0.0000000000
11
-1.8616941619
21
-37.8018133299
31
0.0000000000
11
-1.8843569922
21
-37.7861914851
31
0.0000000000
11
-1.9059231576
21
-37.7690508844
31
0.0000000000
11
-1.9262941407
21
-37.7504713407
31
0.0000000000
11
-1.9453771539
21
-37.7305392141
31
0.0000000000
11
-1.9630854749
21
-37.7093470668
31
0.0000000000
11
-1.9793389210
21
-37.6869931255
31
0.0000000000
11
-1.9940641423
21
-37.6635808773
31
0.0000000000
11
-2.0071950085
21
-37.6392184752
31
0.0000000000
11
-2.0186728380
21
-37.6140182969
31
0.0000000000
11
-2.0284466732
21
-37.5880963641
31
0.0000000000
11
-2.0364734715
21
-37.5615718402
31
0.0000000000
11
-2.0427183157
21
-37.5345663415
31
0.0000000000
11
-2.0471544986
21
-37.5072034587
31
0.0000000000
11
-2.0497636260
21
-37.4796082947
31
0.0000000000
11
-2.0505356884
21
-37.4519089255
31
0.0000000000
0
SPLINE
5
2BA
100
AcDbEntity
8
0
100
AcDbSpline
62
9
6
CONTINUOUS
70
0
71
3
72
27
73
23
74
21
42
0.0000001000
43
0.0000001000
44
0.0000000001
12
2.1680982564
22
4.4277197336
32
0.0000000000
13
0.7727522204
23
4.8691073201
33
0.0000000000
40
0.0000000000
40
0.0000000000
40
0.0000000000
40
0.0000000000
40
0.0070357534
40
0.0195638288
40
0.0375536149
40
0.0609246698
40
0.0895641700
40
0.1233309349
40
0.1620572139
40
0.2055499557
40
0.2535919722
40
0.3059431287
40
0.3623416036
40
0.4225052337
40
0.4861329490
40
0.5529062941
40
0.6224910334
40
0.6945388312
40
0.7686890015
40
0.8445703182
40
0.9218028769
40
1.0000000000
40
1.0000000000
40
1.0000000000
40
1.0000000000
10
-2.5560429914
20
-42.7156465951
30
0.0000000000
10
-2.5509582565
20
-42.7052624804
30
0.0000000000
10
-2.5418707715
20
-42.6741936650
30
0.0000000000
10
-2.5263275626
20
-42.6146075012
30
0.0000000000
10
-2.5069932035
20
-42.5281056049
30
0.0000000000
10
-2.4833294788
20
-42.4155585456
30
0.0000000000
10
-2.4558209712
20
-42.2772937279
30
0.0000000000
10
-2.4245065817
20
-42.1140773894
30
0.0000000000
10
-2.3895972361
20
-41.9266943966
30
0.0000000000
10
-2.3512599542
20
-41.7160909640
30
0.0000000000
10
-2.3096953833
20
-41.4833175657
30
0.0000000000
10
-2.2651127973
20
-41.2295402727
30
0.0000000000
10
-2.2177376640
20
-40.9560292851
30
0.0000000000
10
-2.1678083218
20
-40.6641541723
30
0.0000000000
10
-2.1155757355
20
-40.3553764413
30
0.0000000000
10
-2.0613021191
20
-40.0312423431
30
0.0000000000
10
-2.0052597608
20
-39.6933750633
30
0.0000000000
10
-1.9477296840
20
-39.3434665955
30
0.0000000000
10
-1.8890002760
20
-38.9832692559
30
0.0000000000
10
-1.8293658620
20
-38.6145869013
30
0.0000000000
10
-1.7691252457
20
-38.2392659021
30
0.0000000000
10
-1.7289437789
20
-37.9870209947
30
0.0000000000
10
-1.7088014454
20
-37.8601042665
30
0.0000000000
11
-2.5560429914
21
-42.7156465951
31
0.0000000000
11
-2.5445500380
21
-42.6829193689
31
0.0000000000
11
-2.5288715710
21
-42.6231784648
31
0.0000000000
11
-2.5090861100
21
-42.5367230714
31
0.0000000000
11
-2.4852927423
21
-42.4239861660
31
0.0000000000
11
-2.4576106277
21
-42.2855323465
31
0.0000000000
11
-2.4261784010
21
-42.1220550036
31
0.0000000000
11
-2.3911534779
21
-41.9343728483
31
0.0000000000
11
-2.3527112668
21
-41.7234258119
31
0.0000000000
11
-2.3110442901
21
-41.4902703385
31
0.0000000000
11
-2.2663612204
21
-41.2360740942
31
0.0000000000
11
-2.2188858349
21
-40.9621101197
31
0.0000000000
11
-2.1688558952
21
-40.6697504541
31
0.0000000000
11
-2.1165219562
21
-40.3604592642
31
0.0000000000
11
-2.0621461117
21
-40.0357855117
31
0.0000000000
11
-2.0060006813
21
-39.6973551955
31
0.0000000000
11
-1.9483668471
21
-39.3468632089
31
0.0000000000
11
-1.8895332452
21
-38.9860648512
31
0.0000000000
11
-1.8297945201
21
-38.6167670370
31
0.0000000000
11
-1.7694498494
21
-38.2408192473
31
0.0000000000
11
-1.7088014454
21
-37.8601042665
31
0.0000000000
0
SPLINE
5
2BB
100
AcDbEntity
8
0
100
AcDbSpline
62
9
6
CONTINUOUS
70
0
71
3
72
21
73
17
74
15
42
0.0000001000
43
0.0000001000
44
0.0000000001
12
0.3827584643
22
70.7491382983
32
0.0000000000
13
-0.3827584640
23
70.7491382983
33
0.0000000000
40
0.0000000000
40
0.0000000000
40
0.0000000000
40
0.0000000000
40
0.0712286665
40
0.1425499819
40
0.2139480432
40
0.2854071734
40
0.3569123137
40
0.4284484010
40
0.5000000016
40
0.5715516020
40
0.6430876891
40
0.7145928296
40
0.7860519604
40
0.8574500214
40
0.9287713358
40
1.0000000000
40
1.0000000000
40
1.0000000000
40
1.0000000000
10
-7.5429981295
20
-36.8871424891
30
0.0000000000
10
-7.5339103379
20
-35.2073535634
30
0.0000000000
10
-7.5170320714
20
-31.8455835411
30
0.0000000000
10
-7.4956158457
20
-26.8000081082
30
0.0000000000
10
-7.4780872294
20
-21.7489824927
30
0.0000000000
10
-7.4644500076
20
-16.6936096518
30
0.0000000000
10
-7.4547070549
20
-11.6349726767
30
0.0000000000
10
-7.4488604357
20
-6.5741489324
30
0.0000000000
10
-7.4469114192
20
-1.5122264986
30
0.0000000000
10
-7.4488604358
20
3.5496959286
30
0.0000000000
10
-7.4547070552
20
8.6105196676
30
0.0000000000
10
-7.4644500081
20
13.6691566555
30
0.0000000000
10
-7.4780872301
20
18.7245295100
30
0.0000000000
10
-7.4956158466
20
23.7755551101
30
0.0000000000
10
-7.5170320720
20
28.8211304591
30
0.0000000000
10
-7.5339103382
20
32.1829004034
30
0.0000000000
10
-7.5429981295
20
33.8626892740
30
0.0000000000
11
-7.5429981295
21
-36.8871424891
31
0.0000000000
11
-7.5176944426
21
-31.8477654910
31
0.0000000000
11
-7.4962743047
21
-26.8018155059
31
0.0000000000
11
-7.4787425117
21
-21.7504206930
31
0.0000000000
11
-7.4651028608
21
-16.6946932180
31
0.0000000000
11
-7.4553581744
21
-11.6357015113
31
0.0000000000
11
-7.4495105054
21
-6.5745142879
31
0.0000000000
11
-7.4475611383
21
-1.5122264938
31
0.0000000000
11
-7.4495105056
21
3.5500612860
31
0.0000000000
11
-7.4553581747
21
8.6112484895
31
0.0000000000
11
-7.4651028613
21
13.6702402144
31
0.0000000000
11
-7.4787425124
21
18.7259677296
31
0.0000000000
11
-7.4962743056
21
23.7773625245
31
0.0000000000
11
-7.5176944433
21
28.8233124414
31
0.0000000000
11
-7.5429981295
21
33.8626892740
31
0.0000000000
0
SPLINE
5
2BC
100
AcDbEntity
8
0
100
AcDbSpline
62
9
6
CONTINUOUS
70
0
71
3
72
21
73
17
74
15
42
0.0000001000
43
0.0000001000
44
0.0000000001
12
0.3827585806
22
71.8786820680
32
0.0000000000
13
-0.3827585802
23
71.8786820680
33
0.0000000000
40
0.0000000000
40
0.0000000000
40
0.0000000000
40
0.0000000000
40
0.0712286684
40
0.1425499711
40
0.2139480264
40
0.2854071560
40
0.3569122995
40
0.4284483927
40
0.5000000006
40
0.5715516082
40
0.6430877012
40
0.7145928450
40
0.7860519751
40
0.8574500302
40
0.9287713320
40
1.0000000000
40
1.0000000000
40
1.0000000000
40
1.0000000000
10
-2.0505356884
20
-37.4519089255
30
0.0000000000
10
-2.0414478937
20
-35.7453013229
30
0.0000000000
10
-2.0245696249
20
-32.3298595238
30
0.0000000000
10
-2.0031533994
20
-27.2037303861
30
0.0000000000
10
-1.9856247850
20
-22.0720645924
30
0.0000000000
10
-1.9719875647
20
-16.9359821693
30
0.0000000000
10
-1.9622446131
20
-11.7965835001
30
0.0000000000
10
-1.9563979944
20
-6.6549631501
30
0.0000000000
10
-1.9544489781
20
-1.5122265699
30
0.0000000000
10
-1.9563979945
20
3.6305100036
30
0.0000000000
10
-1.9622446132
20
8.7721303484
30
0.0000000000
10
-1.9719875649
20
13.9115290308
30
0.0000000000
10
-1.9856247852
20
19.0476114678
30
0.0000000000
10
-2.0031533997
20
24.1792772463
30
0.0000000000
10
-2.0245696251
20
29.3054063472
30
0.0000000000
10
-2.0414478938
20
32.7208481155
30
0.0000000000
10
-2.0505356884
20
34.4274557104
30
0.0000000000
11
-2.0505356884
21
-37.4519089255
31
0.0000000000
11
-2.0252319951
21
-32.3320760572
31
0.0000000000
11
-2.0038118592
21
-27.2055668779
31
0.0000000000
11
-1.9862800678
21
-22.0735259441
31
0.0000000000
11
-1.9726404182
21
-16.9370831774
31
0.0000000000
11
-1.9628957326
21
-11.7973240657
31
0.0000000000
11
-1.9570480641
21
-6.6553343859
31
0.0000000000
11
-1.9550986972
21
-1.5122265651
31
0.0000000000
11
-1.9570480642
21
3.6308812414
31
0.0000000000
11
-1.9628957327
21
8.7728709010
31
0.0000000000
11
-1.9726404183
21
13.9126300315
31
0.0000000000
11
-1.9862800681
21
19.0490728393
31
0.0000000000
11
-2.0038118596
21
24.1811137551
31
0.0000000000
11
-2.0252319952
21
29.3076228654
31
0.0000000000
11
-2.0505356884
21
34.4274557104
31
0.0000000000
0
SPLINE
5
2BD
100
AcDbEntity
8
0
100
AcDbSpline
62
9
6
CONTINUOUS
70
0
71
3
72
29
73
25
74
23
42
0.0000001000
43
0.0000001000
44
0.0000000001
12
2.5129968817
22
-4.9635838501
32
0.0000000000
13
5.5634010327
23
-0.0297810852
33
0.0000000000
40
0.0000000000
40
0.0000000000
40
0.0000000000
40
0.0000000000
40
0.0091645163
40
0.0218352189
40
0.0385330500
40
0.0594268305
40
0.0845414134
40
0.1138279020
40
0.1471910423
40
0.1845016805
40
0.2256032944
40
0.2703159170
40
0.3184388236
40
0.3697526024
40
0.4240209112
40
0.4809920762
40
0.5404006164
40
0.6019687400
40
0.6654078369
40
0.7304199817
40
0.7966994518
40
0.8639342636
40
0.9318077247
40
1.0000000000
40
1.0000000000
40
1.0000000000
40
1.0000000000
10
-7.5429981295
20
-36.8871424891
30
0.0000000000
10
-7.5353213292
20
-36.9023054375
30
0.0000000000
10
-7.5065683782
20
-36.9326115907
30
0.0000000000
10
-7.4456197061
20
-36.9701295408
30
0.0000000000
10
-7.3600297953
20
-37.0077259339
30
0.0000000000
10
-7.2497504388
20
-37.0448245743
30
0.0000000000
10
-7.1149279314
20
-37.0814251416
30
0.0000000000
10
-6.9561202682
20
-37.1172219808
30
0.0000000000
10
-6.7740151782
20
-37.1520331314
30
0.0000000000
10
-6.5694551389
20
-37.1856572418
30
0.0000000000
10
-6.3433971825
20
-37.2179189573
30
0.0000000000
10
-6.0969090935
20
-37.2486511210
30
0.0000000000
10
-5.8311590464
20
-37.2776987037
30
0.0000000000
10
-5.5474092087
20
-37.3049167913
30
0.0000000000
10
-5.2470086883
20
-37.3301709845
30
0.0000000000
10
-4.9313867037
20
-37.3533373992
30
0.0000000000
10
-4.6020454809
20
-37.3743029677
30
0.0000000000
10
-4.2605529332
20
-37.3929657416
30
0.0000000000
10
-3.9085350850
20
-37.4092352267
30
0.0000000000
10
-3.5476682489
20
-37.4230327067
30
0.0000000000
10
-3.1796710200
20
-37.4342915425
30
0.0000000000
10
-2.8062959509
20
-37.4429574379
30
0.0000000000
10
-2.4293215764
20
-37.4489886602
30
0.0000000000
10
-2.1769960134
20
-37.4512319788
30
0.0000000000
10
-2.0505356884
20
-37.4519089255
30
0.0000000000
11
-7.5429981295
21
-36.8871424891
31
0.0000000000
11
-7.5101664145
21
-36.9261516276
31
0.0000000000
11
-7.4513272881
21
-36.9649749427
31
0.0000000000
11
-7.3667610355
21
-37.0034274964
31
0.0000000000
11
-7.2568704951
21
-37.0413261167
31
0.0000000000
11
-7.1221791400
21
-37.0784902702
31
0.0000000000
11
-6.9633285836
21
-37.1147429225
31
0.0000000000
11
-6.7810755239
21
-37.1499113809
31
0.0000000000
11
-6.5762881389
21
-37.1838281175
31
0.0000000000
11
-6.3499419505
21
-37.2163315671
31
0.0000000000
11
-6.1031151777
21
-37.2472668968
31
0.0000000000
11
-5.8369836009
21
-37.2764867435
31
0.0000000000
11
-5.5528149602
21
-37.3038519160
31
0.0000000000
11
-5.2519629168
21
-37.3292320581
31
0.0000000000
11
-4.9358606049
21
-37.3525062692
31
0.0000000000
11
-4.6060138044
21
-37.3735636806
31
0.0000000000
11
-4.2639937684
21
-37.3923039837
31
0.0000000000
11
-3.9114297383
21
-37.4086379075
31
0.0000000000
11
-3.5500011824
21
-37.4224876438
31
0.0000000000
11
-3.1814297962
21
-37.4337872184
31
0.0000000000
11
-2.8074713005
21
-37.4424828047
31
0.0000000000
11
-2.4299070783
21
-37.4485329805
31
0.0000000000
11
-2.0505356884
21
-37.4519089255
31
0.0000000000
0
SPLINE
5
2BE
100
AcDbEntity
8
0
100
AcDbSpline
62
9
6
CONTINUOUS
70
0
71
3
72
28
73
24
74
22
42
0.0000001000
43
0.0000001000
44
0.0000000001
12
-0.0030740117
22
8.3498719505
32
0.0000000000
13
8.2498574002
23
1.2884967662
33
0.0000000000
40
0.0000000000
40
0.0000000000
40
0.0000000000
40
0.0000000000
40
0.0476197833
40
0.0952394277
40
0.1428591467
40
0.1904787644
40
0.2380983160
40
0.2857178664
40
0.3333373328
40
0.3809567103
40
0.4285759773
40
0.4761951816
40
0.5238142674
40
0.5714332718
40
0.6190521447
40
0.6666709473
40
0.7142896424
40
0.7619082559
40
0.8095267409
40
0.8571452113
40
0.9047636232
40
0.9523817740
40
1.0000000000
40
1.0000000000
40
1.0000000000
40
1.0000000000
10
-7.5429981295
20
33.8626892740
30
0.0000000000
10
-7.5430469241
20
33.9952289716
30
0.0000000000
10
-7.5342023831
20
34.2603982732
30
0.0000000000
10
-7.4941636384
20
34.6562841236
30
0.0000000000
10
-7.4275372087
20
35.0485901706
30
0.0000000000
10
-7.3346250869
20
35.4355092016
30
0.0000000000
10
-7.2158502333
20
35.8152883308
30
0.0000000000
10
-7.0717525381
20
36.1861992413
30
0.0000000000
10
-6.9029872859
20
36.5465560393
30
0.0000000000
10
-6.7103219724
20
36.8947200276
30
0.0000000000
10
-6.4946326399
20
37.2291084548
30
0.0000000000
10
-6.2569000570
20
37.5482010423
30
0.0000000000
10
-5.9982051150
20
37.8505472093
30
0.0000000000
10
-5.7197241804
20
38.1347723166
30
0.0000000000
10
-5.4227233516
20
38.3995843679
30
0.0000000000
10
-5.1085530654
20
38.6437794855
30
0.0000000000
10
-4.7786415998
20
38.8662476674
30
0.0000000000
10
-4.4344891795
20
39.0659774924
30
0.0000000000
10
-4.0776598486
20
39.2420612608
30
0.0000000000
10
-3.7097775243
20
39.3936982505
30
0.0000000000
10
-3.3325088523
20
39.5202000905
30
0.0000000000
10
-2.9475922473
20
39.6209881336
30
0.0000000000
10
-2.6869908503
20
39.6707414081
30
0.0000000000
10
-2.5560429922
20
39.6911933849
30
0.0000000000
11
-7.5429981295
21
33.8626892740
31
0.0000000000
11
-7.5297403686
21
34.2600873064
31
0.0000000000
11
-7.4897323757
21
34.6556873599
31
0.0000000000
11
-7.4231561927
21
35.0476926527
31
0.0000000000
11
-7.3303145634
21
35.4343194710
31
0.0000000000
11
-7.2116297351
21
35.8138103640
31
0.0000000000
11
-7.0676411536
21
36.1844405113
31
0.0000000000
11
-6.8990037699
21
36.5445242415
31
0.0000000000
11
-6.7064844159
21
36.8924244694
31
0.0000000000
11
-6.4909585880
21
37.2265594029
31
0.0000000000
11
-6.2534060484
21
37.5454103249
31
0.0000000000
11
-5.9949071926
21
37.8475273130
31
0.0000000000
11
-5.7166371715
21
38.1315371509
31
0.0000000000
11
-5.4198615149
21
38.3961484298
31
0.0000000000
11
-5.1059291957
21
38.6401585755
31
0.0000000000
11
-4.7762677898
21
38.8624581398
31
0.0000000000
11
-4.4323759546
21
39.0620367021
31
0.0000000000
11
-4.0758175609
21
39.2379868541
31
0.0000000000
11
-3.7082128341
21
39.3895091663
31
0.0000000000
11
-3.3312333919
21
39.5159146999
31
0.0000000000
11
-2.9465947695
21
39.6166284251
31
0.0000000000
11
-2.5560429922
21
39.6911933849
31
0.0000000000
0
SPLINE
5
2BF
100
AcDbEntity
8
0
100
AcDbSpline
62
9
6
CONTINUOUS
70
0
71
3
72
29
73
25
74
23
42
0.0000001000
43
0.0000001000
44
0.0000000001
12
2.5129968753
22
4.9635838495
32
0.0000000000
13
5.5634010293
23
0.0297810850
33
0.0000000000
40
0.0000000000
40
0.0000000000
40
0.0000000000
40
0.0000000000
40
0.0091645163
40
0.0218352189
40
0.0385330500
40
0.0594268304
40
0.0845414134
40
0.1138279020
40
0.1471910423
40
0.1845016805
40
0.2256032944
40
0.2703159169
40
0.3184388235
40
0.3697526024
40
0.4240209112
40
0.4809920761
40
0.5404006163
40
0.6019687399
40
0.6654078369
40
0.7304199817
40
0.7966994518
40
0.8639342635
40
0.9318077247
40
1.0000000000
40
1.0000000000
40
1.0000000000
40
1.0000000000
10
-7.5429981260
20
33.8626892740
30
0.0000000000
10
-7.5353213257
20
33.8778522224
30
0.0000000000
10
-7.5065683748
20
33.9081583756
30
0.0000000000
10
-7.4456197026
20
33.9456763257
30
0.0000000000
10
-7.3600297920
20
33.9832727188
30
0.0000000000
10
-7.2497504355
20
34.0203713592
30
0.0000000000
10
-7.1149279283
20
34.0569719266
30
0.0000000000
10
-6.9561202652
20
34.0927687658
30
0.0000000000
10
-6.7740151753
20
34.1275799164
30
0.0000000000
10
-6.5694551362
20
34.1612040268
30
0.0000000000
10
-6.3433971800
20
34.1934657423
30
0.0000000000
10
-6.0969090911
20
34.2241979060
30
0.0000000000
10
-5.8311590442
20
34.2532454887
30
0.0000000000
10
-5.5474092067
20
34.2804635763
30
0.0000000000
10
-5.2470086865
20
34.3057177695
30
0.0000000000
10
-4.9313867021
20
34.3288841842
30
0.0000000000
10
-4.6020454796
20
34.3498497527
30
0.0000000000
10
-4.2605529321
20
34.3685125266
30
0.0000000000
10
-3.9085350840
20
34.3847820117
30
0.0000000000
10
-3.5476682482
20
34.3985794917
30
0.0000000000
10
-3.1796710194
20
34.4098383275
30
0.0000000000
10
-2.8062959506
20
34.4185042229
30
0.0000000000
10
-2.4293215762
20
34.4245354451
30
0.0000000000
10
-2.1769960133
20
34.4267787637
30
0.0000000000
10
-2.0505356884
20
34.4274557104
30
0.0000000000
11
-7.5429981260
21
33.8626892740
31
0.0000000000
11
-7.5101664110
21
33.9016984125
31
0.0000000000
11
-7.4513272846
21
33.9405217276
31
0.0000000000
11
-7.3667610321
21
33.9789742813
31
0.0000000000
11
-7.2568704919
21
34.0168729016
31
0.0000000000
11
-7.1221791368
21
34.0540370552
31
0.0000000000
11
-6.9633285806
21
34.0902897074
31
0.0000000000
11
-6.7810755211
21
34.1254581658
31
0.0000000000
11
-6.5762881362
21
34.1593749025
31
0.0000000000
11
-6.3499419479
21
34.1918783521
31
0.0000000000
11
-6.1031151754
21
34.2228136818
31
0.0000000000
11
-5.8369835988
21
34.2520335285
31
0.0000000000
11
-5.5528149582
21
34.2793987010
31
0.0000000000
11
-5.2519629150
21
34.3047788431
31
0.0000000000
11
-4.9358606033
21
34.3280530541
31
0.0000000000
11
-4.6060138031
21
34.3491104656
31
0.0000000000
11
-4.2639937673
21
34.3678507687
31
0.0000000000
11
-3.9114297373
21
34.3841846925
31
0.0000000000
11
-3.5500011817
21
34.3980344288
31
0.0000000000
11
-3.1814297956
21
34.4093340033
31
0.0000000000
11
-2.8074713002
21
34.4180295896
31
0.0000000000
11
-2.4299070781
21
34.4240797655
31
0.0000000000
11
-2.0505356884
21
34.4274557104
31
0.0000000000
0
SPLINE
5
2C0
100
AcDbEntity
8
0
100
AcDbSpline
62
9
6
CONTINUOUS
70
0
71
3
72
13
73
9
74
7
42
0.0000001000
43
0.0000001000
44
0.0000000001
12
13.7598371355
22
-0.2368321707
32
0.0000000000
13
13.5954526857
23
-2.1337464104
33
0.0000000000
40
0.0000000000
40
0.0000000000
40
0.0000000000
40
0.0000000000
40
0.1666247184
40
0.3332611367
40
0.4999140367
40
0.6665863777
40
0.8332807922
40
1.0000000000
40
1.0000000000
40
1.0000000000
40
1.0000000000
10
14.5640584479
20
40.8784855274
30
0.0000000000
10
15.3283014440
20
40.8653314962
30
0.0000000000
10
16.8565962033
20
40.8213835665
30
0.0000000000
10
19.1469623302
20
40.7025801323
30
0.0000000000
10
21.4342068553
20
40.5309414295
30
0.0000000000
10
23.7171464011
20
40.3065420812
30
0.0000000000
10
25.9945900592
20
40.0294855148
30
0.0000000000
10
27.5083543029
20
39.8097722219
30
0.0000000000
10
28.2638953369
20
39.6911933849
30
0.0000000000
11
14.5640584479
21
40.8784855274
31
0.0000000000
11
16.8561795206
21
40.8125730227
31
0.0000000000
11
19.1463302736
21
40.6937814154
31
0.0000000000
11
21.4333563360
21
40.5221595653
31
0.0000000000
11
23.7160793792
21
40.2977825338
31
0.0000000000
11
25.9933182746
21
40.0207515059
31
0.0000000000
11
28.2638953369
21
39.6911933849
31
0.0000000000
0
SPLINE
5
2C1
100
AcDbEntity
8
0
100
AcDbSpline
62
9
6
CONTINUOUS
70
0
71
3
72
19
73
15
74
13
42
0.0000001000
43
0.0000001000
44
0.0000000001
12
28.8813908659
22
4.6065747909
32
0.0000000000
13
28.8813908712
23
-4.6065747572
33
0.0000000000
40
0.0000000000
40
0.0000000000
40
0.0000000000
40
0.0000000000
40
0.0833775893
40
0.1667327003
40
0.2500686765
40
0.3333889700
40
0.4166975248
40
0.5000000045
40
0.5833024840
40
0.6666110384
40
0.7499313317
40
0.8332673085
40
0.9166224209
40
1.0000000000
40
1.0000000000
40
1.0000000000
40
1.0000000000
10
-1.7088014060
20
34.8356510571
30
0.0000000000
10
-0.9061144904
20
34.9636794242
30
0.0000000000
10
0.7024962436
20
35.1985684252
30
0.0000000000
10
3.1235005621
20
35.4871482592
30
0.0000000000
10
5.5507311570
20
35.7117677469
30
0.0000000000
10
7.9825818403
20
35.8722956887
30
0.0000000000
10
10.4174941654
20
35.9686458222
30
0.0000000000
10
12.8539263216
20
36.0007678875
30
0.0000000000
10
15.2903584736
20
35.9686458144
30
0.0000000000
10
17.7252707911
20
35.8722956734
30
0.0000000000
10
20.1571214742
20
35.7117677244
30
0.0000000000
10
22.5843520865
20
35.4871482269
30
0.0000000000
10
25.0053563248
20
35.1985683952
30
0.0000000000
10
26.6139669730
20
34.9636794017
30
0.0000000000
10
27.4166537901
20
34.8356510514
30
0.0000000000
11
-1.7088014060
21
34.8356510571
31
0.0000000000
11
0.7041105341
21
35.1879774592
31
0.0000000000
11
3.1248163491
21
35.4765177822
31
0.0000000000
11
5.5517289845
21
35.7011040383
31
0.0000000000
11
7.9832607371
21
35.8616084935
31
0.0000000000
11
10.4178356045
21
35.9579437200
31
0.0000000000
11
12.8539263233
21
35.9900607914
31
0.0000000000
11
15.2900170368
21
35.9579437122
31
0.0000000000
11
17.7245918917
21
35.8616084784
31
0.0000000000
11
20.1561236391
21
35.7011040163
31
0.0000000000
11
22.5830362916
21
35.4765177508
31
0.0000000000
11
25.0037421472
21
35.1879774147
31
0.0000000000
11
27.4166537901
21
34.8356510514
31
0.0000000000
0
SPLINE
5
2C2
100
AcDbEntity
8
0
100
AcDbSpline
62
9
6
CONTINUOUS
70
0
71
3
72
27
73
23
74
21
42
0.0000001000
43
0.0000001000
44
0.0000000001
12
2.1680982578
22
-4.4277197366
32
0.0000000000
13
0.7727522206
23
-4.8691073234
33
0.0000000000
40
0.0000000000
40
0.0000000000
40
0.0000000000
40
0.0000000000
40
0.0070357534
40
0.0195638288
40
0.0375536149
40
0.0609246698
40
0.0895641701
40
0.1233309349
40
0.1620572140
40
0.2055499558
40
0.2535919722
40
0.3059431287
40
0.3623416036
40
0.4225052338
40
0.4861329491
40
0.5529062942
40
0.6224910334
40
0.6945388312
40
0.7686890015
40
0.8445703182
40
0.9218028769
40
1.0000000000
40
1.0000000000
40
1.0000000000
40
1.0000000000
10
-2.5560429919
20
39.6911933832
30
0.0000000000
10
-2.5509582570
20
39.6808092684
30
0.0000000000
10
-2.5418707720
20
39.6497404530
30
0.0000000000
10
-2.5263275630
20
39.5901542892
30
0.0000000000
10
-2.5069932039
20
39.5036523927
30
0.0000000000
10
-2.4833294792
20
39.3911053333
30
0.0000000000
10
-2.4558209716
20
39.2528405155
30
0.0000000000
10
-2.4245065820
20
39.0896241769
30
0.0000000000
10
-2.3895972364
20
38.9022411839
30
0.0000000000
10
-2.3512599545
20
38.6916377512
30
0.0000000000
10
-2.3096953835
20
38.4588643528
30
0.0000000000
10
-2.2651127975
20
38.2050870596
30
0.0000000000
10
-2.2177376642
20
37.9315760718
30
0.0000000000
10
-2.1678083220
20
37.6397009588
30
0.0000000000
10
-2.1155757356
20
37.3309232276
30
0.0000000000
10
-2.0613021192
20
37.0067891292
30
0.0000000000
10
-2.0052597609
20
36.6689218493
30
0.0000000000
10
-1.9477296841
20
36.3190133812
30
0.0000000000
10
-1.8890002760
20
35.9588160414
30
0.0000000000
10
-1.8293658620
20
35.5901336866
30
0.0000000000
10
-1.7691252457
20
35.2148126872
30
0.0000000000
10
-1.7289437789
20
34.9625677797
30
0.0000000000
10
-1.7088014454
20
34.8356510514
30
0.0000000000
11
-2.5560429919
21
39.6911933832
31
0.0000000000
11
-2.5445500384
21
39.6584661569
31
0.0000000000
11
-2.5288715715
21
39.5987252528
31
0.0000000000
11
-2.5090861104
21
39.5122698593
31
0.0000000000
11
-2.4852927427
21
39.3995329538
31
0.0000000000
11
-2.4576106281
21
39.2610791341
31
0.0000000000
11
-2.4261784013
21
39.0976017911
31
0.0000000000
11
-2.3911534782
21
38.9099196356
31
0.0000000000
11
-2.3527112670
21
38.6989725991
31
0.0000000000
11
-2.3110442903
21
38.4658171255
31
0.0000000000
11
-2.2663612206
21
38.2116208811
31
0.0000000000
11
-2.2188858350
21
37.9376569063
31
0.0000000000
11
-2.1688558953
21
37.6452972406
31
0.0000000000
11
-2.1165219563
21
37.3360060505
31
0.0000000000
11
-2.0621461118
21
37.0113322978
31
0.0000000000
11
-2.0060006814
21
36.6729019814
31
0.0000000000
11
-1.9483668472
21
36.3224099946
31
0.0000000000
11
-1.8895332452
21
35.9616116367
31
0.0000000000
11
-1.8297945201
21
35.5923138223
31
0.0000000000
11
-1.7694498494
21
35.2163660324
31
0.0000000000
11
-1.7088014454
21
34.8356510514
31
0.0000000000
0
SPLINE
5
2C3
100
AcDbEntity
8
0
100
AcDbSpline
62
9
6
CONTINUOUS
70
0
71
3
72
13
73
9
74
7
42
0.0000001000
43
0.0000001000
44
0.0000000001
12
13.5954526277
22
2.1337464095
32
0.0000000000
13
13.7598370780
23
0.2368321756
33
0.0000000000
40
0.0000000000
40
0.0000000000
40
0.0000000000
40
0.0000000000
40
0.1667192039
40
0.3334136167
40
0.5000859575
40
0.6667388589
40
0.8333752793
40
1.0000000000
40
1.0000000000
40
1.0000000000
40
1.0000000000
10
-2.5560429922
20
39.6911933849
30
0.0000000000
10
-1.8005019793
20
39.8097722191
30
0.0000000000
10
-0.2867377675
20
40.0294855072
30
0.0000000000
10
1.9907058545
20
40.3065420713
30
0.0000000000
10
4.2736453883
20
40.5309414207
30
0.0000000000
10
6.5608899192
20
40.7025801264
30
0.0000000000
10
8.8512560630
20
40.8213835632
30
0.0000000000
10
10.3795508363
20
40.8653314952
30
0.0000000000
10
11.1437938394
20
40.8784855269
30
0.0000000000
11
-2.5560429922
21
39.6911933849
31
0.0000000000
11
-0.2854659932
21
40.0207514975
31
0.0000000000
11
1.9917728693
21
40.2977825232
31
0.0000000000
11
4.2744959009
21
40.5221595560
31
0.0000000000
11
6.5615219718
21
40.6937814091
31
0.0000000000
11
8.8516727456
21
40.8125730195
31
0.0000000000
11
11.1437938394
21
40.8784855269
31
0.0000000000
0
SPLINE
5
2C4
100
AcDbEntity
8
0
100
AcDbSpline
62
9
6
CONTINUOUS
70
0
71
3
72
28
73
24
74
22
42
0.0000001000
43
0.0000001000
44
0.0000000001
12
8.2498574983
22
-1.2884961250
32
0.0000000000
13
-0.0030739518
23
-8.3498719485
33
0.0000000000
40
0.0000000000
40
0.0000000000
40
0.0000000000
40
0.0000000000
40
0.0476182264
40
0.0952363769
40
0.1428547886
40
0.1904732591
40
0.2380917442
40
0.2857103577
40
0.3333290528
40
0.3809478554
40
0.4285667283
40
0.4761857328
40
0.5238048186
40
0.5714240229
40
0.6190432900
40
0.6666626675
40
0.7142821338
40
0.7619016843
40
0.8095212361
40
0.8571408537
40
0.9047605728
40
0.9523802172
40
1.0000000000
40
1.0000000000
40
1.0000000000
40
1.0000000000
10
28.2638953369
20
39.6911933849
30
0.0000000000
10
28.3948431974
20
39.6707414182
30
0.0000000000
10
28.6554445923
20
39.6209881277
30
0.0000000000
10
29.0403611978
20
39.5202000912
30
0.0000000000
10
29.4176298684
20
39.3936982493
30
0.0000000000
10
29.7855121926
20
39.2420612603
30
0.0000000000
10
30.1423415238
20
39.0659774913
30
0.0000000000
10
30.4864939441
20
38.8662476662
30
0.0000000000
10
30.8164054096
20
38.6437794842
30
0.0000000000
10
31.1305756958
20
38.3995843663
30
0.0000000000
10
31.4275765247
20
38.1347723147
30
0.0000000000
10
31.7060574591
20
37.8505472073
30
0.0000000000
10
31.9647524011
20
37.5482010401
30
0.0000000000
10
32.2024849840
20
37.2291084523
30
0.0000000000
10
32.4181743165
20
36.8947200250
30
0.0000000000
10
32.6108396298
20
36.5465560367
30
0.0000000000
10
32.7796048819
20
36.1861992386
30
0.0000000000
10
32.9237025771
20
35.8152883276
30
0.0000000000
10
33.0424774309
20
35.4355091981
30
0.0000000000
10
33.1353895519
20
35.0485901668
30
0.0000000000
10
33.2020159826
20
34.6562841200
30
0.0000000000
10
33.2420547251
20
34.2603982705
30
0.0000000000
10
33.2508992679
20
33.9952289702
30
0.0000000000
10
33.2508504742
20
33.8626892740
30
0.0000000000
11
28.2638953369
21
39.6911933849
31
0.0000000000
11
28.6544471168
21
39.6166284239
31
0.0000000000
11
29.0390857374
21
39.5159146991
31
0.0000000000
11
29.4160651772
21
39.3895091660
31
0.0000000000
11
29.7836699052
21
39.2379868533
31
0.0000000000
11
30.1402282991
21
39.0620367009
31
0.0000000000
11
30.4841201339
21
38.8624581386
31
0.0000000000
11
30.8137815398
21
38.6401585742
31
0.0000000000
11
31.1277138592
21
38.3961484281
31
0.0000000000
11
31.4244895157
21
38.1315371490
31
0.0000000000
11
31.7027595367
21
37.8475273110
31
0.0000000000
11
31.9612583924
21
37.5454103227
31
0.0000000000
11
32.1988109321
21
37.2265594004
31
0.0000000000
11
32.4143367600
21
36.8924244666
31
0.0000000000
11
32.6068561138
21
36.5445242389
31
0.0000000000
11
32.7754934973
21
36.1844405088
31
0.0000000000
11
32.9194820789
21
35.8138103608
31
0.0000000000
11
33.0381669073
21
35.4343194669
31
0.0000000000
11
33.1310085360
21
35.0476926494
31
0.0000000000
11
33.1975847194
21
34.6556873562
31
0.0000000000
11
33.2375927115
21
34.2600873023
31
0.0000000000
11
33.2508504742
21
33.8626892740
31
0.0000000000
0
SPLINE
5
2C5
100
AcDbEntity
8
0
100
AcDbSpline
62
9
6
CONTINUOUS
70
0
71
3
72
28
73
24
74
22
42
0.0000001000
43
0.0000001000
44
0.0000000001
12
0.5723217070
22
-0.0912872087
32
0.0000000000
13
-0.0030842468
23
-0.5795480810
33
0.0000000000
40
0.0000000000
40
0.0000000000
40
0.0000000000
40
0.0000000000
40
0.0473142538
40
0.0946509527
40
0.1420115858
40
0.1894004296
40
0.2368213062
40
0.2842774989
40
0.3317713646
40
0.3793045112
40
0.4268776238
40
0.4744906053
40
0.5221423601
40
0.5698310087
40
0.6175537414
40
0.6653070575
40
0.7130866534
40
0.7608875830
40
0.8087042492
40
0.8565307263
40
0.9043606904
40
0.9521873414
40
1.0000000000
40
1.0000000000
40
1.0000000000
40
1.0000000000
10
27.4166537901
20
34.8356510514
30
0.0000000000
10
27.4256801149
20
34.8342113227
30
0.0000000000
10
27.4436440569
20
34.8307086280
30
0.0000000000
10
27.4701669839
20
34.8236151342
30
0.0000000000
10
27.4961555608
20
34.8147134843
30
0.0000000000
10
27.5214876880
20
34.8040457684
30
0.0000000000
10
27.5460472617
20
34.7916618658
30
0.0000000000
10
27.5697213469
20
34.7776196881
30
0.0000000000
10
27.5924014296
20
34.7619848036
30
0.0000000000
10
27.6139836938
20
34.7448301506
30
0.0000000000
10
27.6343696004
20
34.7262356373
30
0.0000000000
10
27.6534662976
20
34.7062877641
30
0.0000000000
10
27.6711870705
20
34.6850791736
30
0.0000000000
10
27.6874517067
20
34.6627082204
30
0.0000000000
10
27.7021868797
20
34.6392784554
30
0.0000000000
10
27.7153264503
20
34.6148981455
30
0.0000000000
10
27.7268117597
20
34.5896797282
30
0.0000000000
10
27.7365918619
20
34.5637393178
30
0.0000000000
10
27.7446237451
20
34.5371960646
30
0.0000000000
10
27.7508725057
20
34.5101717836
30
0.0000000000
10
27.7553114283
20
34.4827897158
30
0.0000000000
10
27.7579221246
20
34.4551772872
30
0.0000000000
10
27.7584371884
20
34.4366922886
30
0.0000000000
10
27.7583880331
20
34.4274557104
30
0.0000000000
11
27.4166537901
21
34.8356510514
31
0.0000000000
11
27.4435682389
21
34.8304033213
31
0.0000000000
11
27.4700712056
21
34.8233158284
31
0.0000000000
11
27.4960385294
21
34.8144220562
31
0.0000000000
11
27.5213505199
21
34.8037636310
31
0.0000000000
11
27.5458907325
21
34.7913903957
31
0.0000000000
11
27.5695465066
21
34.7773601148
31
0.0000000000
11
27.5922093369
21
34.7617382700
31
0.0000000000
11
27.6137755023
21
34.7445976692
31
0.0000000000
11
27.6341464854
21
34.7260181256
31
0.0000000000
11
27.6532294986
21
34.7060859990
31
0.0000000000
11
27.6709378196
21
34.6848938517
31
0.0000000000
11
27.6871912657
21
34.6625399104
31
0.0000000000
11
27.7019164870
21
34.6391276622
31
0.0000000000
11
27.7150473532
21
34.6147652601
31
0.0000000000
11
27.7265251827
21
34.5895650818
31
0.0000000000
11
27.7362990179
21
34.5636431490
31
0.0000000000
11
27.7443258162
21
34.5371186250
31
0.0000000000
11
27.7505706604
21
34.5101131264
31
0.0000000000
11
27.7550068433
21
34.4827502436
31
0.0000000000
11
27.7576159707
21
34.4551550796
31
0.0000000000
11
27.7583880331
21
34.4274557104
31
0.0000000000
0
SPLINE
5
2C6
100
AcDbEntity
8
0
100
AcDbSpline
62
9
6
CONTINUOUS
70
0
71
3
72
27
73
23
74
21
42
0.0000001000
43
0.0000001000
44
0.0000000001
12
-2.1680982564
22
-4.4277197336
32
0.0000000000
13
-0.7727522204
23
-4.8691073201
33
0.0000000000
40
0.0000000000
40
0.0000000000
40
0.0000000000
40
0.0000000000
40
0.0070357534
40
0.0195638288
40
0.0375536149
40
0.0609246698
40
0.0895641700
40
0.1233309349
40
0.1620572139
40
0.2055499557
40
0.2535919722
40
0.3059431287
40
0.3623416036
40
0.4225052337
40
0.4861329490
40
0.5529062941
40
0.6224910334
40
0.6945388312
40
0.7686890015
40
0.8445703182
40
0.9218028769
40
1.0000000000
40
1.0000000000
40
1.0000000000
40
1.0000000000
10
28.2638953361
20
39.6911933800
30
0.0000000000
10
28.2588106012
20
39.6808092653
30
0.0000000000
10
28.2497231162
20
39.6497404498
30
0.0000000000
10
28.2341799073
20
39.5901542861
30
0.0000000000
10
28.2148455481
20
39.5036523898
30
0.0000000000
10
28.1911818235
20
39.3911053305
30
0.0000000000
10
28.1636733159
20
39.2528405127
30
0.0000000000
10
28.1323589264
20
39.0896241743
30
0.0000000000
10
28.0974495808
20
38.9022411815
30
0.0000000000
10
28.0591122989
20
38.6916377489
30
0.0000000000
10
28.0175477280
20
38.4588643506
30
0.0000000000
10
27.9729651420
20
38.2050870576
30
0.0000000000
10
27.9255900087
20
37.9315760700
30
0.0000000000
10
27.8756606665
20
37.6397009572
30
0.0000000000
10
27.8234280802
20
37.3309232262
30
0.0000000000
10
27.7691544638
20
37.0067891280
30
0.0000000000
10
27.7131121055
20
36.6689218482
30
0.0000000000
10
27.6555820287
20
36.3190133804
30
0.0000000000
10
27.5968526207
20
35.9588160408
30
0.0000000000
10
27.5372182067
20
35.5901336862
30
0.0000000000
10
27.4769775904
20
35.2148126870
30
0.0000000000
10
27.4367961236
20
34.9625677796
30
0.0000000000
10
27.4166537901
20
34.8356510514
30
0.0000000000
11
28.2638953361
21
39.6911933800
31
0.0000000000
11
28.2524023827
21
39.6584661538
31
0.0000000000
11
28.2367239157
21
39.5987252497
31
0.0000000000
11
28.2169384547
21
39.5122698563
31
0.0000000000
11
28.1931450870
21
39.3995329509
31
0.0000000000
11
28.1654629724
21
39.2610791314
31
0.0000000000
11
28.1340307457
21
39.0976017885
31
0.0000000000
11
28.0990058226
21
38.9099196332
31
0.0000000000
11
28.0605636115
21
38.6989725968
31
0.0000000000
11
28.0188966348
21
38.4658171234
31
0.0000000000
11
27.9742135651
21
38.2116208791
31
0.0000000000
11
27.9267381796
21
37.9376569045
31
0.0000000000
11
27.8767082399
21
37.6452972389
31
0.0000000000
11
27.8243743009
21
37.3360060491
31
0.0000000000
11
27.7699984564
21
37.0113322966
31
0.0000000000
11
27.7138530260
21
36.6729019804
31
0.0000000000
11
27.6562191918
21
36.3224099938
31
0.0000000000
11
27.5973855899
21
35.9616116361
31
0.0000000000
11
27.5376468648
21
35.5923138219
31
0.0000000000
11
27.4773021941
21
35.2163660322
31
0.0000000000
11
27.4166537901
21
34.8356510514
31
0.0000000000
0
SPLINE
5
2C7
100
AcDbEntity
8
0
100
AcDbSpline
62
9
6
CONTINUOUS
70
0
71
3
72
21
73
17
74
15
42
0.0000001000
43
0.0000001000
44
0.0000000001
12
-0.3827584643
22
-70.7491382983
32
0.0000000000
13
0.3827584640
23
-70.7491382983
33
0.0000000000
40
0.0000000000
40
0.0000000000
40
0.0000000000
40
0.0000000000
40
0.0712286661
40
0.1425499807
40
0.2139480419
40
0.2854071726
40
0.3569123131
40
0.4284484002
40
0.5000000006
40
0.5715516012
40
0.6430876885
40
0.7145928288
40
0.7860519591
40
0.8574500202
40
0.9287713355
40
1.0000000000
40
1.0000000000
40
1.0000000000
40
1.0000000000
10
33.2508504742
20
33.8626892740
30
0.0000000000
10
33.2417626826
20
32.1829003568
30
0.0000000000
10
33.2248844162
20
28.8211303624
30
0.0000000000
10
33.2034681907
20
23.7755549608
30
0.0000000000
10
33.1859395743
20
18.7245293555
30
0.0000000000
10
33.1723023524
20
13.6691565003
30
0.0000000000
10
33.1625593997
20
8.6105195138
30
0.0000000000
10
33.1567127804
20
3.5496957749
30
0.0000000000
10
33.1547637639
20
-1.5122266527
30
0.0000000000
10
33.1567127805
20
-6.5741490861
30
0.0000000000
10
33.1625593998
20
-11.6349728305
30
0.0000000000
10
33.1723023526
20
-16.6936098070
30
0.0000000000
10
33.1859395745
20
-21.7489826472
30
0.0000000000
10
33.2034681910
20
-26.8000082575
30
0.0000000000
10
33.2248844165
20
-31.8455836378
30
0.0000000000
10
33.2417626828
20
-35.2073536101
30
0.0000000000
10
33.2508504742
20
-36.8871424891
30
0.0000000000
11
33.2508504742
21
33.8626892740
31
0.0000000000
11
33.2255467874
21
28.8233123014
31
0.0000000000
11
33.2041266497
21
23.7773623746
31
0.0000000000
11
33.1865948567
21
18.7259675718
31
0.0000000000
11
33.1729552056
21
13.6702400588
31
0.0000000000
11
33.1632105192
21
8.6112483372
31
0.0000000000
11
33.1573628501
21
3.5500611324
31
0.0000000000
11
33.1554134830
21
-1.5122266490
31
0.0000000000
11
33.1573628502
21
-6.5745144415
31
0.0000000000
11
33.1632105193
21
-11.6357016636
31
0.0000000000
11
33.1729552059
21
-16.6946933736
31
0.0000000000
11
33.1865948568
21
-21.7504208508
31
0.0000000000
11
33.2041266500
21
-26.8018156558
31
0.0000000000
11
33.2255467879
21
-31.8477656310
31
0.0000000000
11
33.2508504742
21
-36.8871424891
31
0.0000000000
0
SPLINE
5
2C8
100
AcDbEntity
8
0
100
AcDbSpline
62
9
6
CONTINUOUS
70
0
71
3
72
21
73
17
74
15
42
0.0000001000
43
0.0000001000
44
0.0000000001
12
-0.3827585806
22
-71.8786820680
32
0.0000000000
13
0.3827585802
23
-71.8786820680
33
0.0000000000
40
0.0000000000
40
0.0000000000
40
0.0000000000
40
0.0000000000
40
0.0712286680
40
0.1425499699
40
0.2139480251
40
0.2854071552
40
0.3569122989
40
0.4284483919
40
0.4999999996
40
0.5715516074
40
0.6430877006
40
0.7145928442
40
0.7860519738
40
0.8574500290
40
0.9287713316
40
1.0000000000
40
1.0000000000
40
1.0000000000
40
1.0000000000
10
27.7583880331
20
34.4274557104
30
0.0000000000
10
27.7493002385
20
32.7208481164
30
0.0000000000
10
27.7324219698
20
29.3054063457
30
0.0000000000
10
27.7110057444
20
24.1792772398
30
0.0000000000
10
27.6934771299
20
19.0476114564
30
0.0000000000
10
27.6798399095
20
13.9115290188
30
0.0000000000
10
27.6700969578
20
8.7721303380
30
0.0000000000
10
27.6642503392
20
3.6305099935
30
0.0000000000
10
27.6623013228
20
-1.5122265804
30
0.0000000000
10
27.6642503391
20
-6.6549631602
30
0.0000000000
10
27.6700969578
20
-11.7965835105
30
0.0000000000
10
27.6798399094
20
-16.9359821813
30
0.0000000000
10
27.6934771297
20
-22.0720646038
30
0.0000000000
10
27.7110057442
20
-27.2037303926
30
0.0000000000
10
27.7324219696
20
-32.3298595254
30
0.0000000000
10
27.7493002384
20
-35.7453013220
30
0.0000000000
10
27.7583880331
20
-37.4519089255
30
0.0000000000
11
27.7583880331
21
34.4274557104
31
0.0000000000
11
27.7330843399
21
29.3076228680
31
0.0000000000
11
27.7116642043
21
24.1811137479
31
0.0000000000
11
27.6941324128
21
19.0490728244
31
0.0000000000
11
27.6804927630
21
13.9126300192
31
0.0000000000
11
27.6707480774
21
8.7728708922
31
0.0000000000
11
27.6649004089
21
3.6308812314
31
0.0000000000
11
27.6629510419
21
-1.5122265766
31
0.0000000000
11
27.6649004088
21
-6.6553343959
31
0.0000000000
11
27.6707480773
21
-11.7973240745
31
0.0000000000
11
27.6804927629
21
-16.9370831898
31
0.0000000000
11
27.6941324125
21
-22.0735259590
31
0.0000000000
11
27.7116642040
21
-27.2055668851
31
0.0000000000
11
27.7330843398
21
-32.3320760546
31
0.0000000000
11
27.7583880331
21
-37.4519089255
31
0.0000000000
0
SPLINE
5
2C9
100
AcDbEntity
8
0
100
AcDbSpline
62
9
6
CONTINUOUS
70
0
71
3
72
29
73
25
74
23
42
0.0000001000
43
0.0000001000
44
0.0000000001
12
-2.5129968817
22
4.9635838501
32
0.0000000000
13
-5.5634010327
23
0.0297810852
33
0.0000000000
40
0.0000000000
40
0.0000000000
40
0.0000000000
40
0.0000000000
40
0.0091645163
40
0.0218352189
40
0.0385330500
40
0.0594268305
40
0.0845414134
40
0.1138279020
40
0.1471910423
40
0.1845016805
40
0.2256032944
40
0.2703159170
40
0.3184388236
40
0.3697526024
40
0.4240209112
40
0.4809920762
40
0.5404006164
40
0.6019687400
40
0.6654078369
40
0.7304199817
40
0.7966994518
40
0.8639342636
40
0.9318077247
40
1.0000000000
40
1.0000000000
40
1.0000000000
40
1.0000000000
10
33.2508504742
20
33.8626892740
30
0.0000000000
10
33.2431736739
20
33.8778522224
30
0.0000000000
10
33.2144207229
20
33.9081583756
30
0.0000000000
10
33.1534720508
20
33.9456763257
30
0.0000000000
10
33.0678821400
20
33.9832727188
30
0.0000000000
10
32.9576027835
20
34.0203713592
30
0.0000000000
10
32.8227802761
20
34.0569719265
30
0.0000000000
10
32.6639726129
20
34.0927687657
30
0.0000000000
10
32.4818675229
20
34.1275799163
30
0.0000000000
10
32.2773074836
20
34.1612040267
30
0.0000000000
10
32.0512495272
20
34.1934657422
30
0.0000000000
10
31.8047614382
20
34.2241979059
30
0.0000000000
10
31.5390113911
20
34.2532454886
30
0.0000000000
10
31.2552615534
20
34.2804635762
30
0.0000000000
10
30.9548610330
20
34.3057177694
30
0.0000000000
10
30.6392390484
20
34.3288841841
30
0.0000000000
10
30.3098978256
20
34.3498497526
30
0.0000000000
10
29.9684052779
20
34.3685125265
30
0.0000000000
10
29.6163874297
20
34.3847820116
30
0.0000000000
10
29.2555205936
20
34.3985794916
30
0.0000000000
10
28.8875233647
20
34.4098383274
30
0.0000000000
10
28.5141482956
20
34.4185042228
30
0.0000000000
10
28.1371739211
20
34.4245354451
30
0.0000000000
10
27.8848483581
20
34.4267787637
30
0.0000000000
10
27.7583880331
20
34.4274557104
30
0.0000000000
11
33.2508504742
21
33.8626892740
31
0.0000000000
11
33.2180187592
21
33.9016984124
31
0.0000000000
11
33.1591796328
21
33.9405217276
31
0.0000000000
11
33.0746133802
21
33.9789742813
31
0.0000000000
11
32.9647228398
21
34.0168729016
31
0.0000000000
11
32.8300314847
21
34.0540370551
31
0.0000000000
11
32.6711809282
21
34.0902897074
31
0.0000000000
11
32.4889278686
21
34.1254581658
31
0.0000000000
11
32.2841404836
21
34.1593749024
31
0.0000000000
11
32.0577942951
21
34.1918783520
31
0.0000000000
11
31.8109675224
21
34.2228136817
31
0.0000000000
11
31.5448359456
21
34.2520335284
31
0.0000000000
11
31.2606673049
21
34.2793987009
31
0.0000000000
11
30.9598152615
21
34.3047788430
31
0.0000000000
11
30.6437129496
21
34.3280530540
31
0.0000000000
11
30.3138661491
21
34.3491104655
31
0.0000000000
11
29.9718461131
21
34.3678507686
31
0.0000000000
11
29.6192820830
21
34.3841846924
31
0.0000000000
11
29.2578535271
21
34.3980344287
31
0.0000000000
11
28.8892821409
21
34.4093340033
31
0.0000000000
11
28.5153236452
21
34.4180295896
31
0.0000000000
11
28.1377594230
21
34.4240797654
31
0.0000000000
11
27.7583880331
21
34.4274557104
31
0.0000000000
0
SPLINE
5
2CA
100
AcDbEntity
8
0
100
AcDbSpline
62
9
6
CONTINUOUS
70
0
71
3
72
28
73
24
74
22
42
0.0000001000
43
0.0000001000
44
0.0000000001
12
0.0030740117
22
-8.3498719505
32
0.0000000000
13
-8.2498574002
23
-1.2884967662
33
0.0000000000
40
0.0000000000
40
0.0000000000
40
0.0000000000
40
0.0000000000
40
0.0476197833
40
0.0952394277
40
0.1428591467
40
0.1904787644
40
0.2380983160
40
0.2857178664
40
0.3333373328
40
0.3809567103
40
0.4285759773
40
0.4761951816
40
0.5238142674
40
0.5714332718
40
0.6190521447
40
0.6666709473
40
0.7142896424
40
0.7619082559
40
0.8095267409
40
0.8571452113
40
0.9047636232
40
0.9523817740
40
1.0000000000
40
1.0000000000
40
1.0000000000
40
1.0000000000
10
33.2508504742
20
-36.8871424891
30
0.0000000000
10
33.2508992688
20
-37.0196821867
30
0.0000000000
10
33.2420547278
20
-37.2848514883
30
0.0000000000
10
33.2020159831
20
-37.6807373387
30
0.0000000000
10
33.1353895534
20
-38.0730433857
30
0.0000000000
10
33.0424774316
20
-38.4599624167
30
0.0000000000
10
32.9237025780
20
-38.8397415460
30
0.0000000000
10
32.7796048828
20
-39.2106524564
30
0.0000000000
10
32.6108396306
20
-39.5710092544
30
0.0000000000
10
32.4181743171
20
-39.9191732427
30
0.0000000000
10
32.2024849846
20
-40.2535616699
30
0.0000000000
10
31.9647524017
20
-40.5726542574
30
0.0000000000
10
31.7060574596
20
-40.8750004244
30
0.0000000000
10
31.4275765251
20
-41.1592255317
30
0.0000000000
10
31.1305756963
20
-41.4240375831
30
0.0000000000
10
30.8164054101
20
-41.6682327006
30
0.0000000000
10
30.4864939445
20
-41.8907008825
30
0.0000000000
10
30.1423415242
20
-42.0904307075
30
0.0000000000
10
29.7855121933
20
-42.2665144759
30
0.0000000000
10
29.4176298690
20
-42.4181514656
30
0.0000000000
10
29.0403611970
20
-42.5446533056
30
0.0000000000
10
28.6554445920
20
-42.6454413487
30
0.0000000000
10
28.3948431950
20
-42.6951946232
30
0.0000000000
10
28.2638953369
20
-42.7156466000
30
0.0000000000
11
33.2508504742
21
-36.8871424891
31
0.0000000000
11
33.2375927133
21
-37.2845405215
31
0.0000000000
11
33.1975847204
21
-37.6801405750
31
0.0000000000
11
33.1310085374
21
-38.0721458678
31
0.0000000000
11
33.0381669081
21
-38.4587726861
31
0.0000000000
11
32.9194820797
21
-38.8382635791
31
0.0000000000
11
32.7754934983
21
-39.2088937264
31
0.0000000000
11
32.6068561146
21
-39.5689774566
31
0.0000000000
11
32.4143367606
21
-39.9168776845
31
0.0000000000
11
32.1988109327
21
-40.2510126180
31
0.0000000000
11
31.9612583931
21
-40.5698635400
31
0.0000000000
11
31.7027595373
21
-40.8719805281
31
0.0000000000
11
31.4244895162
21
-41.1559903660
31
0.0000000000
11
31.1277138596
21
-41.4206016449
31
0.0000000000
11
30.8137815404
21
-41.6646117906
31
0.0000000000
11
30.4841201345
21
-41.8869113549
31
0.0000000000
11
30.1402282993
21
-42.0864899172
31
0.0000000000
11
29.7836699056
21
-42.2624400692
31
0.0000000000
11
29.4160651788
21
-42.4139623814
31
0.0000000000
11
29.0390857366
21
-42.5403679150
31
0.0000000000
11
28.6544471142
21
-42.6410816402
31
0.0000000000
11
28.2638953369
21
-42.7156466000
31
0.0000000000
0
SPLINE
5
2CB
100
AcDbEntity
8
0
100
AcDbSpline
62
9
6
CONTINUOUS
70
0
71
3
72
28
73
24
74
22
42
0.0000001000
43
0.0000001000
44
0.0000000001
12
0.0030843007
22
-0.5795480807
32
0.0000000000
13
-0.5723216975
23
-0.0912872680
33
0.0000000000
40
0.0000000000
40
0.0000000000
40
0.0000000000
40
0.0000000000
40
0.0478129772
40
0.0956396311
40
0.1434695981
40
0.1912960781
40
0.2391127471
40
0.2869136794
40
0.3346932781
40
0.3824465970
40
0.4301693324
40
0.4778579838
40
0.5255097385
40
0.5731227172
40
0.6206958269
40
0.6682289706
40
0.7157228336
40
0.7631790236
40
0.8105998974
40
0.8579887383
40
0.9053493691
40
0.9526860656
40
1.0000000000
40
1.0000000000
40
1.0000000000
40
1.0000000000
10
27.7583880331
20
-37.4519089255
30
0.0000000000
10
27.7584371896
20
-37.4611455652
30
0.0000000000
10
27.7579221182
20
-37.4796306262
30
0.0000000000
10
27.7553114051
20
-37.5072431160
30
0.0000000000
10
27.7508724693
20
-37.5346251835
30
0.0000000000
10
27.7446236964
20
-37.5616494632
30
0.0000000000
10
27.7365918004
20
-37.5881927143
30
0.0000000000
10
27.7268116857
20
-37.6141331216
30
0.0000000000
10
27.7153263638
20
-37.6393515350
30
0.0000000000
10
27.7021867808
20
-37.6637318402
30
0.0000000000
10
27.6874515958
20
-37.6871615995
30
0.0000000000
10
27.6711869482
20
-37.7095325457
30
0.0000000000
10
27.6534661649
20
-37.7307411274
30
0.0000000000
10
27.6343694587
20
-37.7506889906
30
0.0000000000
10
27.6139835444
20
-37.7692834929
30
0.0000000000
10
27.5924012732
20
-37.7864381345
30
0.0000000000
10
27.5697211843
20
-37.8020730071
30
0.0000000000
10
27.5460470938
20
-37.8161151728
30
0.0000000000
10
27.5214875157
20
-37.8284990629
30
0.0000000000
10
27.4961553849
20
-37.8391667666
30
0.0000000000
10
27.4701668051
20
-37.8480684032
30
0.0000000000
10
27.4436439356
20
-37.8551618699
30
0.0000000000
10
27.4256800538
20
-37.8586645466
30
0.0000000000
10
27.4166537901
20
-37.8601042665
30
0.0000000000
11
27.7583880331
21
-37.4519089255
31
0.0000000000
11
27.7576159593
21
-37.4796084791
31
0.0000000000
11
27.7550068198
21
-37.5072036437
31
0.0000000000
11
27.7505706242
21
-37.5345665261
31
0.0000000000
11
27.7443257673
21
-37.5615720236
31
0.0000000000
11
27.7362989564
21
-37.5880965454
31
0.0000000000
11
27.7265251087
21
-37.6140184751
31
0.0000000000
11
27.7150472667
21
-37.6392186495
31
0.0000000000
11
27.7019163882
21
-37.6635810469
31
0.0000000000
11
27.6871911548
21
-37.6869932893
31
0.0000000000
11
27.6709376969
21
-37.7093472241
31
0.0000000000
11
27.6532293657
21
-37.7305393627
31
0.0000000000
11
27.6341463439
21
-37.7504714788
31
0.0000000000
11
27.6137753531
21
-37.7690510115
31
0.0000000000
11
27.5922091807
21
-37.7861916008
31
0.0000000000
11
27.5695463442
21
-37.8018134338
31
0.0000000000
11
27.5458905648
21
-37.8158437027
31
0.0000000000
11
27.5213503478
21
-37.8282169256
31
0.0000000000
11
27.4960383538
21
-37.8388753383
31
0.0000000000
11
27.4700710271
21
-37.8477690977
31
0.0000000000
11
27.4435680585
21
-37.8548565782
31
0.0000000000
11
27.4166537901
21
-37.8601042665
31
0.0000000000
0
SPLINE
5
2CC
100
AcDbEntity
8
0
100
AcDbSpline
62
9
6
CONTINUOUS
70
0
71
3
72
29
73
25
74
23
42
0.0000001000
43
0.0000001000
44
0.0000000001
12
-2.5129968753
22
-4.9635838495
32
0.0000000000
13
-5.5634010293
23
-0.0297810850
33
0.0000000000
40
0.0000000000
40
0.0000000000
40
0.0000000000
40
0.0000000000
40
0.0091645163
40
0.0218352189
40
0.0385330500
40
0.0594268304
40
0.0845414134
40
0.1138279020
40
0.1471910423
40
0.1845016805
40
0.2256032944
40
0.2703159169
40
0.3184388235
40
0.3697526024
40
0.4240209112
40
0.4809920761
40
0.5404006163
40
0.6019687399
40
0.6654078369
40
0.7304199817
40
0.7966994518
40
0.8639342635
40
0.9318077247
40
1.0000000000
40
1.0000000000
40
1.0000000000
40
1.0000000000
10
33.2508504707
20
-36.8871424891
30
0.0000000000
10
33.2431736704
20
-36.9023054375
30
0.0000000000
10
33.2144207195
20
-36.9326115907
30
0.0000000000
10
33.1534720473
20
-36.9701295408
30
0.0000000000
10
33.0678821367
20
-37.0077259339
30
0.0000000000
10
32.9576027802
20
-37.0448245743
30
0.0000000000
10
32.8227802729
20
-37.0814251417
30
0.0000000000
10
32.6639726099
20
-37.1172219809
30
0.0000000000
10
32.4818675200
20
-37.1520331315
30
0.0000000000
10
32.2773074809
20
-37.1856572419
30
0.0000000000
10
32.0512495247
20
-37.2179189574
30
0.0000000000
10
31.8047614358
20
-37.2486511211
30
0.0000000000
10
31.5390113889
20
-37.2776987038
30
0.0000000000
10
31.2552615514
20
-37.3049167914
30
0.0000000000
10
30.9548610312
20
-37.3301709846
30
0.0000000000
10
30.6392390468
20
-37.3533373993
30
0.0000000000
10
30.3098978243
20
-37.3743029678
30
0.0000000000
10
29.9684052768
20
-37.3929657417
30
0.0000000000
10
29.6163874287
20
-37.4092352268
30
0.0000000000
10
29.2555205929
20
-37.4230327068
30
0.0000000000
10
28.8875233641
20
-37.4342915426
30
0.0000000000
10
28.5141482953
20
-37.4429574380
30
0.0000000000
10
28.1371739209
20
-37.4489886602
30
0.0000000000
10
27.8848483580
20
-37.4512319789
30
0.0000000000
10
27.7583880331
20
-37.4519089255
30
0.0000000000
11
33.2508504707
21
-36.8871424891
31
0.0000000000
11
33.2180187557
21
-36.9261516276
31
0.0000000000
11
33.1591796293
21
-36.9649749427
31
0.0000000000
11
33.0746133768
21
-37.0034274964
31
0.0000000000
11
32.9647228366
21
-37.0413261167
31
0.0000000000
11
32.8300314815
21
-37.0784902703
31
0.0000000000
11
32.6711809253
21
-37.1147429225
31
0.0000000000
11
32.4889278658
21
-37.1499113810
31
0.0000000000
11
32.2841404809
21
-37.1838281176
31
0.0000000000
11
32.0577942926
21
-37.2163315672
31
0.0000000000
11
31.8109675201
21
-37.2472668969
31
0.0000000000
11
31.5448359435
21
-37.2764867436
31
0.0000000000
11
31.2606673029
21
-37.3038519161
31
0.0000000000
11
30.9598152597
21
-37.3292320582
31
0.0000000000
11
30.6437129480
21
-37.3525062692
31
0.0000000000
11
30.3138661477
21
-37.3735636807
31
0.0000000000
11
29.9718461120
21
-37.3923039838
31
0.0000000000
11
29.6192820820
21
-37.4086379076
31
0.0000000000
11
29.2578535263
21
-37.4224876439
31
0.0000000000
11
28.8892821403
21
-37.4337872185
31
0.0000000000
11
28.5153236449
21
-37.4424828047
31
0.0000000000
11
28.1377594228
21
-37.4485329806
31
0.0000000000
11
27.7583880331
21
-37.4519089255
31
0.0000000000
0
SPLINE
5
2CD
100
AcDbEntity
8
0
100
AcDbSpline
62
9
6
CONTINUOUS
70
0
71
3
72
18
73
14
74
12
42
0.0000001000
43
0.0000001000
44
0.0000000001
12
-0.0030827515
22
0.5792569927
32
0.0000000000
13
0.5720342391
23
0.0912414174
33
0.0000000000
40
0.0000000000
40
0.0000000000
40
0.0000000000
40
0.0000000000
40
0.0924655096
40
0.1850191613
40
0.2772977405
40
0.3692468449
40
0.4607610230
40
0.5518134530
40
0.6423409490
40
0.7323975342
40
0.8219983964
40
0.9112817913
40
1.0000000000
40
1.0000000000
40
1.0000000000
40
1.0000000000
10
-2.0505356884
20
34.4274557104
30
0.0000000000
10
-2.0506307045
20
34.4453094747
30
0.0000000000
10
-2.0485238050
20
34.4810886619
30
0.0000000000
10
-2.0385226892
20
34.5338328342
30
0.0000000000
10
-2.0218663390
20
34.5847715610
30
0.0000000000
10
-1.9988953870
20
34.6329667311
30
0.0000000000
10
-1.9700523641
20
34.6776131314
30
0.0000000000
10
-1.9358869051
20
34.7179711306
30
0.0000000000
10
-1.8970219434
20
34.7534086974
30
0.0000000000
10
-1.8541494849
20
34.7833876843
30
0.0000000000
10
-1.8079839517
20
34.8074838125
30
0.0000000000
10
-1.7593493957
20
34.8253383238
30
0.0000000000
10
-1.7257180236
20
34.8329527988
30
0.0000000000
10
-1.7088014060
20
34.8356510571
30
0.0000000000
11
-2.0505356884
21
34.4274557104
31
0.0000000000
11
-2.0473843798
21
34.4809249784
31
0.0000000000
11
-2.0373952629
21
34.5335992892
31
0.0000000000
11
-2.0207775275
21
34.5844043708
31
0.0000000000
11
-1.9978562505
21
34.6324829864
31
0.0000000000
11
-1.9690847260
21
34.6770067238
31
0.0000000000
11
-1.9350006701
21
34.7172578643
31
0.0000000000
11
-1.8962465610
21
34.7525850862
31
0.0000000000
11
-1.8534912832
21
34.7824739657
31
0.0000000000
11
-1.8074768432
21
34.8064855780
31
0.0000000000
11
-1.7589243810
21
34.8243037959
31
0.0000000000
11
-1.7088014060
21
34.8356510571
31
0.0000000000
0
SPLINE
5
2CE
100
AcDbEntity
8
0
100
AcDbSpline
62
7
6
CONTINUOUS
70
0
71
3
72
8
73
4
74
2
42
0.0000001000
43
0.0000001000
44
0.0000000001
12
0.0000508846
22
-0.0185783277
32
0.0000000000
13
0.0017911200
23
-0.0185275421
33
0.0000000000
40
0.0000000000
40
0.0000000000
40
0.0000000000
40
0.0000000000
40
1.0000000000
40
1.0000000000
40
1.0000000000
40
1.0000000000
10
0.1706883465
20
-23.8957384801
30
0.0000000000
10
0.1707053080
20
-23.9019312560
30
0.0000000000
10
0.1710154759
20
-23.9081317799
30
0.0000000000
10
0.1716125159
20
-23.9143076272
30
0.0000000000
11
0.1706883465
21
-23.8957384801
31
0.0000000000
11
0.1716125159
21
-23.9143076272
31
0.0000000000
0
SPLINE
5
2CF
100
AcDbEntity
8
0
100
AcDbSpline
62
7
6
CONTINUOUS
70
0
71
3
72
9
73
5
74
3
42
0.0000001000
43
0.0000001000
44
0.0000000001
12
0.0503506000
22
-0.0135632362
32
0.0000000000
13
0.0520823109
23
-0.0001426528
33
0.0000000000
40
0.0000000000
40
0.0000000000
40
0.0000000000
40
0.0000000000
40
0.2493389692
40
1.0000000000
40
1.0000000000
40
1.0000000000
40
1.0000000000
10
0.3188598587
20
-24.0885472903
30
0.0000000000
10
0.3230446476
20
-24.0896745714
30
0.0000000000
10
0.3399757670
20
-24.0936514263
30
0.0000000000
10
0.3573822461
20
-24.0954287308
30
0.0000000000
10
0.3704142998
20
-24.0954644254
30
0.0000000000
11
0.3188598587
21
-24.0885472903
31
0.0000000000
11
0.3315173764
21
-24.0915209954
31
0.0000000000
11
0.3704142998
21
-24.0954644254
31
0.0000000000
0
SPLINE
5
2D0
100
AcDbEntity
8
0
100
AcDbSpline
62
9
6
CONTINUOUS
70
0
71
3
72
21
73
17
74
15
42
0.0000001000
43
0.0000001000
44
0.0000000001
12
-0.3143753817
22
-0.0021390278
32
0.0000000000
13
0.0021387714
23
0.3143753835
33
0.0000000000
40
0.0000000000
40
0.0000000000
40
0.0000000000
40
0.0000000000
40
0.0707994392
40
0.1422274488
40
0.2140859712
40
0.2859352472
40
0.3575247883
40
0.4288165556
40
0.4999474185
40
0.5710745304
40
0.6423551193
40
0.7139273900
40
0.7857736327
40
0.8576456974
40
0.9291466025
40
1.0000000000
40
1.0000000000
40
1.0000000000
40
1.0000000000
10
0.4260767840
20
-24.0398019028
30
0.0000000000
10
0.4186575838
20
-24.0398523835
30
0.0000000000
10
0.4037345164
20
-24.0391291529
30
0.0000000000
10
0.3815415147
20
-24.0355485648
30
0.0000000000
10
0.3597834273
20
-24.0294592759
30
0.0000000000
10
0.3388422569
20
-24.0209321036
30
0.0000000000
10
0.3190595093
20
-24.0101058541
30
0.0000000000
10
0.3006977135
20
-23.9971443117
30
0.0000000000
10
0.2839625284
20
-23.9822142695
30
0.0000000000
10
0.2690304031
20
-23.9654825232
30
0.0000000000
10
0.2560674582
20
-23.9471258749
30
0.0000000000
10
0.2452387455
20
-23.9273482737
30
0.0000000000
10
0.2367072220
20
-23.9064096441
30
0.0000000000
10
0.2306109623
20
-23.8846443981
30
0.0000000000
10
0.2270248569
20
-23.8624372488
30
0.0000000000
10
0.2263003640
20
-23.8475008505
30
0.0000000000
10
0.2263508771
20
-23.8400759959
30
0.0000000000
11
0.4260767840
21
-24.0398019028
31
0.0000000000
11
0.4038448748
21
-24.0387221185
31
0.0000000000
11
0.3816761375
21
-24.0351434611
31
0.0000000000
11
0.3599215562
21
-24.0290529121
31
0.0000000000
11
0.3390019103
21
-24.0205327198
31
0.0000000000
11
0.3192591405
21
-24.0097268859
31
0.0000000000
11
0.3009491000
21
-23.9968009317
31
0.0000000000
11
0.2842624010
21
-23.9819137904
31
0.0000000000
11
0.2693731856
21
-23.9652305226
31
0.0000000000
11
0.2564459070
21
-23.9469257192
31
0.0000000000
11
0.2456386281
21
-23.9271899305
31
0.0000000000
11
0.2371141802
21
-23.9062730481
31
0.0000000000
11
0.2310178824
21
-23.8845156556
31
0.0000000000
11
0.2274324205
21
-23.8623248033
31
0.0000000000
11
0.2263508771
21
-23.8400759959
31
0.0000000000
0
SPLINE
5
2D1
100
AcDbEntity
8
0
100
AcDbSpline
62
9
6
CONTINUOUS
70
0
71
3
72
11
73
7
74
5
42
0.0000001000
43
0.0000001000
44
0.0000000001
12
-0.7787378633
22
-4.7805523185
32
0.0000000000
13
-0.9714064462
23
-4.7451535956
33
0.0000000000
40
0.0000000000
40
0.0000000000
40
0.0000000000
40
0.0000000000
40
0.2383019855
40
0.4868633031
40
0.7420796812
40
1.0000000000
40
1.0000000000
40
1.0000000000
40
1.0000000000
10
0.2964564107
20
-28.8806418630
30
0.0000000000
10
0.2345981510
20
-29.2603802328
30
0.0000000000
10
0.1004213082
20
-30.0349435010
30
0.0000000000
10
-0.1214963365
20
-31.2123418832
30
0.0000000000
10
-0.3613969221
20
-32.4185058292
30
0.0000000000
10
-0.5273168352
20
-33.2301919714
30
0.0000000000
10
-0.6108319886
20
-33.6381491474
30
0.0000000000
11
0.2964564107
21
-28.8806418630
31
0.0000000000
11
0.1005130696
21
-30.0181194544
31
0.0000000000
11
-0.1214569336
21
-31.2014026496
31
0.0000000000
11
-0.3616102284
21
-32.4140073832
31
0.0000000000
11
-0.6108319886
21
-33.6381491474
31
0.0000000000
0
SPLINE
5
2D2
100
AcDbEntity
8
0
100
AcDbSpline
62
9
6
CONTINUOUS
70
0
71
3
72
13
73
9
74
7
42
0.0000001000
43
0.0000001000
44
0.0000000001
12
0.4612943422
22
-0.1013937503
32
0.0000000000
13
0.4664849454
23
-0.0739253575
33
0.0000000000
40
0.0000000000
40
0.0000000000
40
0.0000000000
40
0.0000000000
40
0.1433100795
40
0.2992081852
40
0.4653669332
40
0.6393011464
40
0.8184065817
40
1.0000000000
40
1.0000000000
40
1.0000000000
40
1.0000000000
10
-0.1679443598
20
-28.7949266247
30
0.0000000000
10
-0.1459083169
20
-28.7997702068
30
0.0000000000
10
-0.0998247949
20
-28.8095391330
30
0.0000000000
10
-0.0279776435
20
-28.8238908147
30
0.0000000000
10
0.0487490456
20
-28.8384069638
30
0.0000000000
10
0.1292010947
20
-28.8528672993
30
0.0000000000
10
0.2121682093
20
-28.8670529021
30
0.0000000000
10
0.2682195454
20
-28.8761670769
30
0.0000000000
10
0.2964564107
20
-28.8806418630
30
0.0000000000
11
-0.1679443598
21
-28.7949266247
31
0.0000000000
11
-0.1017381891
21
-28.8090039202
31
0.0000000000
11
-0.0295387093
21
-28.8234557090
31
0.0000000000
11
0.0475673902
21
-28.8380644743
31
0.0000000000
11
0.1284195698
21
-28.8526103367
31
0.0000000000
11
0.2118009065
21
-28.8668743631
31
0.0000000000
11
0.2964564107
21
-28.8806418630
31
0.0000000000
0
SPLINE
5
2D3
100
AcDbEntity
8
0
100
AcDbSpline
62
9
6
CONTINUOUS
70
0
71
3
72
11
73
7
74
5
42
0.0000001000
43
0.0000001000
44
0.0000000001
12
-0.3789161726
22
-4.8487220941
32
0.0000000000
13
-0.4736907767
23
-4.8403822638
33
0.0000000000
40
0.0000000000
40
0.0000000000
40
0.0000000000
40
0.0000000000
40
0.2384845516
40
0.4869784392
40
0.7420578950
40
1.0000000000
40
1.0000000000
40
1.0000000000
40
1.0000000000
10
-0.1679443598
20
-28.7949266247
30
0.0000000000
10
-0.1980662443
20
-29.1803750628
30
0.0000000000
10
-0.2634867871
20
-29.9671456557
30
0.0000000000
10
-0.3718861667
20
-31.1652589813
30
0.0000000000
10
-0.4891084689
20
-32.3942287765
30
0.0000000000
10
-0.5701037666
20
-33.2219698937
30
0.0000000000
10
-0.6108320319
20
-33.6381493570
30
0.0000000000
11
-0.1679443598
21
-28.7949266247
31
0.0000000000
11
-0.2635132314
21
-29.9508535376
31
0.0000000000
11
-0.3718871654
21
-31.1545359733
31
0.0000000000
11
-0.4891682775
21
-32.3895600864
31
0.0000000000
11
-0.6108320319
21
-33.6381493570
31
0.0000000000
0
SPLINE
5
2D4
100
AcDbEntity
8
0
100
AcDbSpline
62
9
6
CONTINUOUS
70
0
71
3
72
14
73
10
74
8
42
0.0000001000
43
0.0000001000
44
0.0000000001
12
-0.0722829747
22
-2.8043818584
32
0.0000000000
13
-0.4785108239
23
-2.7642014810
33
0.0000000000
40
0.0000000000
40
0.0000000000
40
0.0000000000
40
0.0000000000
40
0.1061239040
40
0.2255666961
40
0.3604996836
40
0.5117738600
40
0.6754685408
40
0.8462532683
40
1.0000000000
40
1.0000000000
40
1.0000000000
40
1.0000000000
10
0.7543784692
20
-26.1162142745
30
0.0000000000
10
0.7518214854
20
-26.2154182582
30
0.0000000000
10
0.7394863972
20
-26.4261260307
30
0.0000000000
10
0.7020369604
20
-26.7612629312
30
0.0000000000
10
0.6436180437
20
-27.1361585568
30
0.0000000000
10
0.5653745173
20
-27.5495698459
30
0.0000000000
10
0.4724801141
20
-27.9942067881
30
0.0000000000
10
0.3782512304
20
-28.4409142477
30
0.0000000000
10
0.3209795691
20
-28.7389795484
30
0.0000000000
10
0.2964564107
20
-28.8806418630
30
0.0000000000
11
0.7543784692
21
-26.1162142745
31
0.0000000000
11
0.7377583829
21
-26.4134607879
31
0.0000000000
11
0.7013953740
21
-26.7465562949
31
0.0000000000
11
0.6440693608
21
-27.1207195716
31
0.0000000000
11
0.5662758400
21
-27.5378997449
31
0.0000000000
11
0.4736946139
21
-27.9876852510
31
0.0000000000
11
0.3764482822
21
-28.4568168160
31
0.0000000000
11
0.2964564107
21
-28.8806418630
31
0.0000000000
0
SPLINE
5
2D5
100
AcDbEntity
8
0
100
AcDbSpline
62
9
6
CONTINUOUS
70
0
71
3
72
20
73
16
74
14
42
0.0000001000
43
0.0000001000
44
0.0000000001
12
0.0917926394
22
-0.7949508134
32
0.0000000000
13
0.8000778505
23
-0.0157517432
33
0.0000000000
40
0.0000000000
40
0.0000000000
40
0.0000000000
40
0.0000000000
40
0.0435869063
40
0.0910018800
40
0.1440028595
40
0.2036009519
40
0.2702047486
40
0.3437790626
40
0.4239655263
40
0.5101662511
40
0.6016024218
40
0.6973576466
40
0.7964124049
40
0.8976733914
40
1.0000000000
40
1.0000000000
40
1.0000000000
40
1.0000000000
10
0.0553381570
20
-25.8275702022
30
0.0000000000
10
0.0566718094
20
-25.8391200178
30
0.0000000000
10
0.0630039183
20
-25.8629132725
30
0.0000000000
10
0.0819453480
20
-25.8966800501
30
0.0000000000
10
0.1099864811
20
-25.9291628871
30
0.0000000000
10
0.1466583527
20
-25.9600645601
30
0.0000000000
10
0.1914788293
20
-25.9890954205
30
0.0000000000
10
0.2438775902
20
-26.0159158051
30
0.0000000000
10
0.3031755643
20
-26.0401868617
30
0.0000000000
10
0.3685892802
20
-26.0615863233
30
0.0000000000
10
0.4392430810
20
-26.0798242119
30
0.0000000000
10
0.5141832842
20
-26.0946506442
30
0.0000000000
10
0.5923942536
20
-26.1058615308
30
0.0000000000
10
0.6728098791
20
-26.1133021845
30
0.0000000000
10
0.7270887182
20
-26.1156774677
30
0.0000000000
10
0.7543784692
20
-26.1162147418
30
0.0000000000
11
0.0553381570
21
-25.8275702022
31
0.0000000000
11
0.0640309251
21
-25.8613493022
31
0.0000000000
11
0.0821891249
21
-25.8946652543
31
0.0000000000
11
0.1095637877
21
-25.9270612602
31
0.0000000000
11
0.1457795767
21
-25.9580931349
31
0.0000000000
11
0.1903399338
21
-25.9873353971
31
0.0000000000
11
0.2426338877
21
-26.0143871030
31
0.0000000000
11
0.3019444310
21
-26.0388773440
31
0.0000000000
11
0.3674583510
21
-26.0604703317
31
0.0000000000
11
0.4382773801
21
-26.0788700023
31
0.0000000000
11
0.5134305119
21
-26.0938240760
31
0.0000000000
11
0.5918873144
21
-26.1051275158
31
0.0000000000
11
0.6725720589
21
-26.1126253390
31
0.0000000000
11
0.7543784692
21
-26.1162147418
31
0.0000000000
0
SPLINE
5
2D6
100
AcDbEntity
8
0
100
AcDbSpline
62
9
6
CONTINUOUS
70
0
71
3
72
14
73
10
74
8
42
0.0000001000
43
0.0000001000
44
0.0000000001
12
-0.0305978340
22
-2.9763416790
32
0.0000000000
13
-0.2318971307
23
-2.9674517246
33
0.0000000000
40
0.0000000000
40
0.0000000000
40
0.0000000000
40
0.0000000000
40
0.1067428352
40
0.2265805529
40
0.3615359161
40
0.5124100584
40
0.6754779864
40
0.8458827323
40
1.0000000000
40
1.0000000000
40
1.0000000000
40
1.0000000000
10
0.0553381570
20
-25.8275702022
30
0.0000000000
10
0.0542494572
20
-25.9334712520
30
0.0000000000
10
0.0485012451
20
-26.1582360911
30
0.0000000000
10
0.0304543755
20
-26.5165133652
30
0.0000000000
10
0.0020048836
20
-26.9180185351
30
0.0000000000
10
-0.0362962842
20
-27.3617602719
30
0.0000000000
10
-0.0818831520
20
-27.8401472030
30
0.0000000000
10
-0.1281128573
20
-28.3217026096
30
0.0000000000
10
-0.1560312776
20
-28.6424814378
30
0.0000000000
10
-0.1679443950
20
-28.7949266217
30
0.0000000000
11
0.0553381570
21
-25.8275702022
31
0.0000000000
11
0.0475990203
21
-26.1451958690
31
0.0000000000
11
0.0300697329
21
-26.5014617259
31
0.0000000000
11
0.0021532003
21
-26.9021849925
31
0.0000000000
11
-0.0358937603
21
-27.3496470970
31
0.0000000000
11
-0.0812478183
21
-27.8328949828
31
0.0000000000
11
-0.1288711979
21
-28.3378638323
31
0.0000000000
11
-0.1679443950
21
-28.7949266217
31
0.0000000000
0
SPLINE
5
2D7
100
AcDbEntity
8
0
100
AcDbSpline
62
9
6
CONTINUOUS
70
0
71
3
72
12
73
8
74
6
42
0.0000001000
43
0.0000001000
44
0.0000000001
12
-0.0821930351
22
-1.7639892331
32
0.0000000000
13
-0.0455388892
23
-1.7653158129
33
0.0000000000
40
0.0000000000
40
0.0000000000
40
0.0000000000
40
0.0000000000
40
0.1866547763
40
0.3805237105
40
0.5810615742
40
0.7877244949
40
1.0000000000
40
1.0000000000
40
1.0000000000
40
1.0000000000
10
0.8167655390
20
-24.3514435507
30
0.0000000000
10
0.8116516315
20
-24.4611958893
30
0.0000000000
10
0.8017888346
20
-24.6849689773
30
0.0000000000
10
0.7882820358
20
-25.0267360132
30
0.0000000000
10
0.7758061593
20
-25.3803272938
30
0.0000000000
10
0.7643943435
20
-25.7447945687
30
0.0000000000
10
0.7576007328
20
-25.9913031725
30
0.0000000000
10
0.7543784692
20
-26.1162142745
30
0.0000000000
11
0.8167655390
21
-24.3514435507
31
0.0000000000
11
0.8022206418
21
-24.6807367283
31
0.0000000000
11
0.7886742377
21
-25.0228223674
31
0.0000000000
11
0.7761638394
21
-25.3767317528
31
0.0000000000
11
0.7647225776
21
-25.7414990535
31
0.0000000000
11
0.7543784692
21
-26.1162142745
31
0.0000000000
0
SPLINE
5
2D8
100
AcDbEntity
8
0
100
AcDbSpline
62
7
6
CONTINUOUS
70
0
71
3
72
21
73
17
74
15
42
0.0000001000
43
0.0000001000
44
0.0000000001
12
0.0572787110
22
-0.8957033683
32
0.0000000000
13
0.8972372425
23
-0.0230370443
33
0.0000000000
40
0.0000000000
40
0.0000000000
40
0.0000000000
40
0.0000000000
40
0.0543501607
40
0.1104502953
40
0.1687350389
40
0.2297805698
40
0.2941171743
40
0.3619330093
40
0.4328212138
40
0.5069480392
40
0.5844049568
40
0.6643763460
40
0.7463915418
40
0.8301295888
40
0.9150324474
40
1.0000000000
40
1.0000000000
40
1.0000000000
40
1.0000000000
10
0.1177248799
20
-23.9083822188
30
0.0000000000
10
0.1187625823
20
-23.9246094261
30
0.0000000000
10
0.1237436370
20
-23.9574650443
30
0.0000000000
10
0.1395236995
20
-24.0056352852
30
0.0000000000
10
0.1634536188
20
-24.0525667995
30
0.0000000000
10
0.1951604075
20
-24.0976462993
30
0.0000000000
10
0.2342586676
20
-24.1404087872
30
0.0000000000
10
0.2802237043
20
-24.1803081679
30
0.0000000000
10
0.3324635970
20
-24.2168943186
30
0.0000000000
10
0.3904093567
20
-24.2498239501
30
0.0000000000
10
0.4534588746
20
-24.2787244915
30
0.0000000000
10
0.5208514459
20
-24.3032296395
30
0.0000000000
10
0.5917160949
20
-24.3230438553
30
0.0000000000
10
0.6652772569
20
-24.3379464734
30
0.0000000000
10
0.7405764082
20
-24.3477361514
30
0.0000000000
10
0.7913535214
20
-24.3507912476
30
0.0000000000
10
0.8167655389
20
-24.3514437147
30
0.0000000000
11
0.1177248799
21
-23.9083822188
31
0.0000000000
11
0.1249597421
21
-23.9566237831
31
0.0000000000
11
0.1404994068
21
-24.0045175654
31
0.0000000000
11
0.1641082907
21
-24.0511996377
31
0.0000000000
11
0.1954762432
21
-24.0961222012
31
0.0000000000
11
0.2343065680
21
-24.1388609542
31
0.0000000000
11
0.2801604448
21
-24.1788885328
31
0.0000000000
11
0.3321888243
21
-24.2155099000
31
0.0000000000
11
0.3899706028
21
-24.2484898277
31
0.0000000000
11
0.4531235966
21
-24.2775543854
31
0.0000000000
11
0.5205500280
21
-24.3021634842
31
0.0000000000
11
0.5914255548
21
-24.3220453611
31
0.0000000000
11
0.6650783072
21
-24.3370101603
31
0.0000000000
11
0.7406423131
21
-24.3468587799
31
0.0000000000
11
0.8167655389
21
-24.3514437147
31
0.0000000000
0
SPLINE
5
2D9
100
AcDbEntity
8
0
100
AcDbSpline
62
9
6
CONTINUOUS
70
0
71
3
72
12
73
8
74
6
42
0.0000001000
43
0.0000001000
44
0.0000000001
12
-0.0821985000
22
-1.9184743618
32
0.0000000000
13
-0.0455369242
23
-1.9196944702
33
0.0000000000
40
0.0000000000
40
0.0000000000
40
0.0000000000
40
0.0000000000
40
0.1866425809
40
0.3805012384
40
0.5810360068
40
0.7876995912
40
1.0000000000
40
1.0000000000
40
1.0000000000
40
1.0000000000
10
0.1177250465
20
-23.9083770076
30
0.0000000000
10
0.1126111331
20
-24.0277333430
30
0.0000000000
10
0.1027484002
20
-24.2710850180
30
0.0000000000
10
0.0892418333
20
-24.6427490766
30
0.0000000000
10
0.0767661687
20
-25.0272711472
30
0.0000000000
10
0.0653540909
20
-25.4236353107
30
0.0000000000
10
0.0585602980
20
-25.6917195375
30
0.0000000000
10
0.0553377955
20
-25.8275701777
30
0.0000000000
11
0.1177250465
21
-23.9083770076
31
0.0000000000
11
0.1031803170
21
-24.2664792738
31
0.0000000000
11
0.0896342404
21
-24.6384868049
31
0.0000000000
11
0.0771239543
21
-25.0233573113
31
0.0000000000
11
0.0656827895
21
-25.4200348911
31
0.0000000000
11
0.0553377955
21
-25.8275701777
31
0.0000000000
0
SPLINE
5
2DA
100
AcDbEntity
8
0
100
AcDbSpline
62
9
6
CONTINUOUS
70
0
71
3
72
15
73
11
74
9
42
0.0000001000
43
0.0000001000
44
0.0000000001
12
-0.0055711521
22
-0.0055707767
32
0.0000000000
13
-0.0028738491
23
0.0073366887
33
0.0000000000
40
0.0000000000
40
0.0000000000
40
0.0000000000
40
0.0000000000
40
0.1340047382
40
0.1943007857
40
0.2619929970
40
0.3448962005
40
0.4479613176
40
0.7255635883
40
0.9040315067
40
1.0000000000
40
1.0000000000
40
1.0000000000
40
1.0000000000
10
0.1706883920
20
-23.8957384790
30
0.0000000000
10
0.1704395384
20
-23.8959873158
30
0.0000000000
10
0.1699797055
20
-23.8963091753
30
0.0000000000
10
0.1692711180
20
-23.8962754285
30
0.0000000000
10
0.1687619289
20
-23.8960322711
30
0.0000000000
10
0.1682560091
20
-23.8955913083
30
0.0000000000
10
0.1674921324
20
-23.8946381807
30
0.0000000000
10
0.1667955436
20
-23.8933348111
30
0.0000000000
10
0.1662087151
20
-23.8920100203
30
0.0000000000
10
0.1659392684
20
-23.8913415528
30
0.0000000000
10
0.1658473354
20
-23.8911068558
30
0.0000000000
11
0.1706883920
21
-23.8957384790
31
0.0000000000
11
0.1697740282
21
-23.8962662756
31
0.0000000000
11
0.1692993635
21
-23.8962472882
31
0.0000000000
11
0.1688114343
21
-23.8960319971
31
0.0000000000
11
0.1683090335
21
-23.8956146178
31
0.0000000000
11
0.1677909537
21
-23.8949893656
31
0.0000000000
11
0.1667029288
21
-23.8930921042
31
0.0000000000
11
0.1661304407
21
-23.8918078626
31
0.0000000000
11
0.1658473354
21
-23.8911068558
31
0.0000000000
0
SPLINE
5
2DB
100
AcDbEntity
8
0
100
AcDbSpline
62
9
6
CONTINUOUS
70
0
71
3
72
40
73
36
74
34
42
0.0000001000
43
0.0000001000
44
0.0000000001
12
-0.0883632504
22
0.2255837549
32
0.0000000000
13
-0.0103697431
23
-0.2420219427
33
0.0000000000
40
0.0000000000
40
0.0000000000
40
0.0000000000
40
0.0000000000
40
0.0036122790
40
0.0113267805
40
0.0200709757
40
0.0408340162
40
0.0662678669
40
0.0967127767
40
0.1324493762
40
0.1737038747
40
0.2205539017
40
0.2729908536
40
0.3307397166
40
0.3609028926
40
0.3890158953
40
0.4124583376
40
0.4310100807
40
0.4451229879
40
0.4555348179
40
0.4630829707
40
0.4686100695
40
0.4733109823
40
0.4784963285
40
0.4849263471
40
0.4928205490
40
0.5129621304
40
0.5388320440
40
0.5700960252
40
0.6062971516
40
0.6468562636
40
0.6908878619
40
0.7374865414
40
0.7859814834
40
0.8878744970
40
1.0000000000
40
1.0000000000
40
1.0000000000
40
1.0000000000
10
0.1658473354
20
-23.8911068558
30
0.0000000000
10
0.1657409379
20
-23.8908352320
30
0.0000000000
10
0.1654169347
20
-23.8899795775
30
0.0000000000
10
0.1648845227
20
-23.8884487125
30
0.0000000000
10
0.1639775733
20
-23.8855828356
30
0.0000000000
10
0.1627864599
20
-23.8813082007
30
0.0000000000
10
0.1612930300
20
-23.8753019900
30
0.0000000000
10
0.1596453939
20
-23.8680897285
30
0.0000000000
10
0.1578121261
20
-23.8596103023
30
0.0000000000
10
0.1557650612
20
-23.8498221404
30
0.0000000000
10
0.1534329673
20
-23.8387158459
30
0.0000000000
10
0.1507560275
20
-23.8263213895
30
0.0000000000
10
0.1481992334
20
-23.8152789777
30
0.0000000000
10
0.1458257016
20
-23.8062151814
30
0.0000000000
10
0.1440074627
20
-23.7998709287
30
0.0000000000
10
0.1422292352
20
-23.7944942096
30
0.0000000000
10
0.1405716496
20
-23.7902746024
30
0.0000000000
10
0.1390583115
20
-23.7871376624
30
0.0000000000
10
0.1376573480
20
-23.7849475512
30
0.0000000000
10
0.1363515809
20
-23.7835539048
30
0.0000000000
10
0.1350400249
20
-23.7828522829
30
0.0000000000
10
0.1337316428
20
-23.7829475244
30
0.0000000000
10
0.1326186904
20
-23.7837255672
30
0.0000000000
10
0.1316370183
20
-23.7849684990
30
0.0000000000
10
0.1302960805
20
-23.7874171321
30
0.0000000000
10
0.1288321044
20
-23.7915362411
30
0.0000000000
10
0.1273214280
20
-23.7975926901
30
0.0000000000
10
0.1259398268
20
-23.8050056112
30
0.0000000000
10
0.1246656025
20
-23.8136356405
30
0.0000000000
10
0.1234839140
20
-23.8233183710
30
0.0000000000
10
0.1224012383
20
-23.8338566590
30
0.0000000000
10
0.1214262737
20
-23.8450487158
30
0.0000000000
10
0.1202315499
20
-23.8609103031
30
0.0000000000
10
0.1189287470
20
-23.8820686870
30
0.0000000000
10
0.1181126132
20
-23.8993313967
30
0.0000000000
10
0.1177250423
20
-23.9083770074
30
0.0000000000
11
0.1658473354
21
-23.8911068558
31
0.0000000000
11
0.1655366735
21
-23.8902886291
31
0.0000000000
11
0.1649196485
21
-23.8885246387
31
0.0000000000
11
0.1642773869
21
-23.8865061261
31
0.0000000000
11
0.1629081963
21
-23.8816663515
31
0.0000000000
11
0.1614080575
21
-23.8756905721
31
0.0000000000
11
0.1597534526
21
-23.8685034774
31
0.0000000000
11
0.1579151411
21
-23.8600439352
31
0.0000000000
11
0.1558563202
21
-23.8502646518
31
0.0000000000
11
0.1535156593
21
-23.8391595075
31
0.0000000000
11
0.1508173631
21
-23.8267468674
31
0.0000000000
11
0.1476117326
21
-23.8131297873
31
0.0000000000
11
0.1457557696
21
-23.8060625792
31
0.0000000000
11
0.1438557990
21
-23.7995227766
31
0.0000000000
11
0.1420505000
21
-23.7941385811
31
0.0000000000
11
0.1403816328
21
-23.7899658899
31
0.0000000000
11
0.1388588564
21
-23.7869049881
31
0.0000000000
11
0.1374603450
21
-23.7848060181
31
0.0000000000
11
0.1361599732
21
-23.7835205509
31
0.0000000000
11
0.1349459007
21
-23.7829560169
31
0.0000000000
11
0.1338100380
21
-23.7830373085
31
0.0000000000
11
0.1327450122
21
-23.7837033075
31
0.0000000000
11
0.1317436292
21
-23.7848963934
31
0.0000000000
11
0.1307986952
21
-23.7865589453
31
0.0000000000
11
0.1290547623
21
-23.7911158156
31
0.0000000000
11
0.1274824788
21
-23.7971822064
31
0.0000000000
11
0.1260564731
21
-23.8046202563
31
0.0000000000
11
0.1247513738
21
-23.8132921039
31
0.0000000000
11
0.1235476404
21
-23.8230432886
31
0.0000000000
11
0.1224490560
21
-23.8336529536
31
0.0000000000
11
0.1214610914
21
-23.8448978866
31
0.0000000000
11
0.1205726452
21
-23.8566118511
31
0.0000000000
11
0.1190352882
21
-23.8812468985
31
0.0000000000
11
0.1177250423
21
-23.9083770074
31
0.0000000000
0
SPLINE
5
2DC
100
AcDbEntity
8
0
100
AcDbSpline
62
9
6
CONTINUOUS
70
0
71
3
72
11
73
7
74
5
42
0.0000001000
43
0.0000001000
44
0.0000000001
12
-0.9714063741
22
4.7451536103
32
0.0000000000
13
-0.7787379716
23
4.7805523008
33
0.0000000000
40
0.0000000000
40
0.0000000000
40
0.0000000000
40
0.0000000000
40
0.2579203188
40
0.5131366969
40
0.7616980145
40
1.0000000000
40
1.0000000000
40
1.0000000000
40
1.0000000000
10
26.3186843333
20
-33.6381491474
30
0.0000000000
10
26.2351691861
20
-33.2301919701
30
0.0000000000
10
26.0692492636
20
-32.4185058298
30
0.0000000000
10
25.8293486832
20
-31.2123418828
30
0.0000000000
10
25.6074310320
20
-30.0349435018
30
0.0000000000
10
25.4732542023
20
-29.2603802314
30
0.0000000000
10
25.4113959340
20
-28.8806418630
30
0.0000000000
11
26.3186843333
21
-33.6381491474
31
0.0000000000
11
26.0694625731
21
-32.4140073832
31
0.0000000000
11
25.8293092783
21
-31.2014026496
31
0.0000000000
11
25.6073392750
21
-30.0181194544
31
0.0000000000
11
25.4113959340
21
-28.8806418630
31
0.0000000000
0
SPLINE
5
2DD
100
AcDbEntity
8
0
100
AcDbSpline
62
9
6
CONTINUOUS
70
0
71
3
72
11
73
7
74
5
42
0.0000001000
43
0.0000001000
44
0.0000000001
12
-0.4736907562
22
4.8403822658
32
0.0000000000
13
-0.3789162077
23
4.8487220913
33
0.0000000000
40
0.0000000000
40
0.0000000000
40
0.0000000000
40
0.0000000000
40
0.2579421054
40
0.5130215618
40
0.7615154502
40
1.0000000000
40
1.0000000000
40
1.0000000000
40
1.0000000000
10
26.3186843766
20
-33.6381493570
30
0.0000000000
10
26.2779561130
20
-33.2219698929
30
0.0000000000
10
26.1969608127
20
-32.3942287744
30
0.0000000000
10
26.0797385112
20
-31.1652589763
30
0.0000000000
10
25.9713391301
20
-29.9671456514
30
0.0000000000
10
25.9059185918
20
-29.1803750597
30
0.0000000000
10
25.8757967047
20
-28.7949266246
30
0.0000000000
11
26.3186843766
21
-33.6381493570
31
0.0000000000
11
26.1970206220
21
-32.3895600846
31
0.0000000000
11
26.0797395095
21
-31.1545359687
31
0.0000000000
11
25.9713655754
21
-29.9508535291
31
0.0000000000
11
25.8757967047
21
-28.7949266246
31
0.0000000000
0
SPLINE
5
2DE
100
AcDbEntity
8
0
100
AcDbSpline
62
9
6
CONTINUOUS
70
0
71
3
72
14
73
10
74
8
42
0.0000001000
43
0.0000001000
44
0.0000000001
12
-0.4785114055
22
2.7642013803
32
0.0000000000
13
-0.0722830350
23
2.8043818568
33
0.0000000000
40
0.0000000000
40
0.0000000000
40
0.0000000000
40
0.0000000000
40
0.1537467318
40
0.3245314592
40
0.4882261400
40
0.6395003164
40
0.7744333039
40
0.8938760960
40
1.0000000000
40
1.0000000000
40
1.0000000000
40
1.0000000000
10
25.4113959340
20
-28.8806418630
30
0.0000000000
10
25.3868727458
20
-28.7389795536
30
0.0000000000
10
25.3296011297
20
-28.4409142450
30
0.0000000000
10
25.2353722276
20
-27.9942067886
30
0.0000000000
10
25.1424778272
20
-27.5495698459
30
0.0000000000
10
25.0642343023
20
-27.1361585566
30
0.0000000000
10
25.0058153821
20
-26.7612629315
30
0.0000000000
10
24.9683659490
20
-26.4261260305
30
0.0000000000
10
24.9560308615
20
-26.2154182581
30
0.0000000000
10
24.9534738755
20
-26.1162142745
30
0.0000000000
11
25.4113959340
21
-28.8806418630
31
0.0000000000
11
25.3314040626
21
-28.4568168160
31
0.0000000000
11
25.2341577313
21
-27.9876852509
31
0.0000000000
11
25.1415765043
21
-27.5378997449
31
0.0000000000
11
25.0637829843
21
-27.1207195715
31
0.0000000000
11
25.0064569697
21
-26.7465562950
31
0.0000000000
11
24.9700939630
21
-26.4134607878
31
0.0000000000
11
24.9534738755
21
-26.1162142745
31
0.0000000000
0
SPLINE
5
2DF
100
AcDbEntity
8
0
100
AcDbSpline
62
9
6
CONTINUOUS
70
0
71
3
72
13
73
9
74
7
42
0.0000001000
43
0.0000001000
44
0.0000000001
12
-0.4612943776
22
-0.1013937443
32
0.0000000000
13
-0.4664849786
23
-0.0739253605
33
0.0000000000
40
0.0000000000
40
0.0000000000
40
0.0000000000
40
0.0000000000
40
0.1433100947
40
0.2992082094
40
0.4653669602
40
0.6393011702
40
0.8184065963
40
1.0000000000
40
1.0000000000
40
1.0000000000
40
1.0000000000
10
25.8757967381
20
-28.7949266218
30
0.0000000000
10
25.8537606911
20
-28.7997702042
30
0.0000000000
10
25.8076771619
20
-28.8095391308
30
0.0000000000
10
25.7358300011
20
-28.8238908134
30
0.0000000000
10
25.6591033052
20
-28.8384069632
30
0.0000000000
10
25.5786512518
20
-28.8528672989
30
0.0000000000
10
25.4956841355
20
-28.8670529016
30
0.0000000000
10
25.4396327990
20
-28.8761670763
30
0.0000000000
10
25.4113959340
20
-28.8806418622
30
0.0000000000
11
25.8757967381
21
-28.7949266218
31
0.0000000000
11
25.8095905553
21
-28.8090039183
31
0.0000000000
11
25.7373910661
21
-28.8234557080
31
0.0000000000
11
25.6602849596
21
-28.8380644739
31
0.0000000000
11
25.5794327758
21
-28.8526103365
31
0.0000000000
11
25.4960514374
21
-28.8668743629
31
0.0000000000
11
25.4113959340
21
-28.8806418622
31
0.0000000000
0
SPLINE
5
2E0
100
AcDbEntity
8
0
100
AcDbSpline
62
9
6
CONTINUOUS
70
0
71
3
72
14
73
10
74
8
42
0.0000001000
43
0.0000001000
44
0.0000000001
12
-0.2318973408
22
2.9674517082
32
0.0000000000
13
-0.0305978374
23
2.9763416788
33
0.0000000000
40
0.0000000000
40
0.0000000000
40
0.0000000000
40
0.0000000000
40
0.1541173182
40
0.3245220723
40
0.4875900037
40
0.6384641510
40
0.7734195079
40
0.8932572470
40
1.0000000000
40
1.0000000000
40
1.0000000000
40
1.0000000000
10
25.8757967381
20
-28.7949266218
30
0.0000000000
10
25.8638836060
20
-28.6424813888
30
0.0000000000
10
25.8359651980
20
-28.3217025011
30
0.0000000000
10
25.7897354792
20
-27.8401470339
30
0.0000000000
10
25.7441486114
20
-27.3617600863
30
0.0000000000
10
25.7058474470
20
-26.9180183471
30
0.0000000000
10
25.6773979548
20
-26.5165131572
30
0.0000000000
10
25.6593510950
20
-26.1582359493
30
0.0000000000
10
25.6536028896
20
-25.9334711704
30
0.0000000000
10
25.6525141905
20
-25.8275702022
30
0.0000000000
11
25.8757967381
21
-28.7949266218
31
0.0000000000
11
25.8367235287
21
-28.3378636826
31
0.0000000000
11
25.7891001466
21
-27.8328948086
31
0.0000000000
11
25.7437460881
21
-27.3496469131
31
0.0000000000
11
25.7056991292
21
-26.9021847932
31
0.0000000000
11
25.6777826002
21
-26.5014615452
31
0.0000000000
11
25.6602533161
21
-26.1451956246
31
0.0000000000
11
25.6525141905
21
-25.8275702022
31
0.0000000000
0
SPLINE
5
2E1
100
AcDbEntity
8
0
100
AcDbSpline
62
7
6
CONTINUOUS
70
0
71
3
72
21
73
17
74
15
42
0.0000001000
43
0.0000001000
44
0.0000000001
12
-0.0572720415
22
-0.8957068562
32
0.0000000000
13
-0.8972401636
23
-0.0230423042
33
0.0000000000
40
0.0000000000
40
0.0000000000
40
0.0000000000
40
0.0000000000
40
0.0543531694
40
0.1104549555
40
0.1687404065
40
0.2297858259
40
0.2941218372
40
0.3619370053
40
0.4328241173
40
0.5069498368
40
0.5844060823
40
0.6643771029
40
0.7463922792
40
0.8301302066
40
0.9150327640
40
1.0000000000
40
1.0000000000
40
1.0000000000
40
1.0000000000
10
25.5901274648
20
-23.9083822188
30
0.0000000000
10
25.5890898258
20
-23.9246103876
30
0.0000000000
10
25.5841089952
20
-23.9574675617
30
0.0000000000
10
25.5683290191
20
-24.0056397196
30
0.0000000000
10
25.5443991126
20
-24.0525722157
30
0.0000000000
10
25.5126923242
20
-24.0976519640
30
0.0000000000
10
25.4735940686
20
-24.1404141823
30
0.0000000000
10
25.4276290825
20
-24.1803128767
30
0.0000000000
10
25.3753892919
20
-24.2168980632
30
0.0000000000
10
25.3174436663
20
-24.2498266479
30
0.0000000000
10
25.2543941926
20
-24.2787263013
30
0.0000000000
10
25.1870014492
20
-24.3032307560
30
0.0000000000
10
25.1161365248
20
-24.3230443459
30
0.0000000000
10
25.0425751375
20
-24.3379464502
30
0.0000000000
10
24.9672759220
20
-24.3477358569
30
0.0000000000
10
24.9164988386
20
-24.3507911004
30
0.0000000000
10
24.8910868330
20
-24.3514437140
30
0.0000000000
11
25.5901274648
21
-23.9083822188
31
0.0000000000
11
25.5828927214
21
-23.9566266994
31
0.0000000000
11
25.5673531249
21
-24.0045222425
31
0.0000000000
11
25.5437442523
21
-24.0512052314
31
0.0000000000
11
25.5123763614
21
-24.0961279434
31
0.0000000000
11
25.4735461348
21
-24.1388663319
31
0.0000000000
11
25.4276922424
21
-24.1788932975
31
0.0000000000
11
25.3756640808
21
-24.2155136470
31
0.0000000000
11
25.3178825655
21
-24.2484924901
31
0.0000000000
11
25.2547295769
21
-24.2775561822
31
0.0000000000
11
25.1873029810
21
-24.3021645782
31
0.0000000000
11
25.1164270513
21
-24.3220458811
31
0.0000000000
11
25.0427740480
21
-24.3370101915
31
0.0000000000
11
24.9672100216
21
-24.3468585693
31
0.0000000000
11
24.8910868330
21
-24.3514437140
31
0.0000000000
0
SPLINE
5
2E2
100
AcDbEntity
8
0
100
AcDbSpline
62
9
6
CONTINUOUS
70
0
71
3
72
12
73
8
74
6
42
0.0000001000
43
0.0000001000
44
0.0000000001
12
-0.0455388892
22
1.7653158117
32
0.0000000000
13
-0.0821930351
23
1.7639892319
33
0.0000000000
40
0.0000000000
40
0.0000000000
40
0.0000000000
40
0.0000000000
40
0.2122755052
40
0.4189384259
40
0.6194762897
40
0.8133452239
40
1.0000000000
40
1.0000000000
40
1.0000000000
40
1.0000000000
10
24.9534738755
20
-26.1162142745
30
0.0000000000
10
24.9502516119
20
-25.9913031726
30
0.0000000000
10
24.9434580015
20
-25.7447945689
30
0.0000000000
10
24.9320461843
20
-25.3803272942
30
0.0000000000
10
24.9195703126
20
-25.0267360136
30
0.0000000000
10
24.9060634970
20
-24.6849689786
30
0.0000000000
10
24.8962007405
20
-24.4611958891
30
0.0000000000
10
24.8910868330
20
-24.3514435507
30
0.0000000000
11
24.9534738755
21
-26.1162142745
31
0.0000000000
11
24.9431297671
21
-25.7414990537
31
0.0000000000
11
24.9316885053
21
-25.3767317531
31
0.0000000000
11
24.9191781070
21
-25.0228223679
31
0.0000000000
11
24.9056317030
21
-24.6807367289
31
0.0000000000
11
24.8910868330
21
-24.3514435507
31
0.0000000000
0
SPLINE
5
2E3
100
AcDbEntity
8
0
100
AcDbSpline
62
9
6
CONTINUOUS
70
0
71
3
72
20
73
16
74
14
42
0.0000001000
43
0.0000001000
44
0.0000000001
12
-0.0917925745
22
-0.7949509403
32
0.0000000000
13
-0.8000779727
23
-0.0157515635
33
0.0000000000
40
0.0000000000
40
0.0000000000
40
0.0000000000
40
0.0000000000
40
0.0435868541
40
0.0910017835
40
0.1440027307
40
0.2036008037
40
0.2702045939
40
0.3437789127
40
0.4239653906
40
0.5101661368
40
0.6016023334
40
0.6973575858
40
0.7964123702
40
0.8976733781
40
1.0000000000
40
1.0000000000
40
1.0000000000
40
1.0000000000
10
25.6525145055
20
-25.8275702022
30
0.0000000000
10
25.6511808556
20
-25.8391200058
30
0.0000000000
10
25.6448487480
20
-25.8629132388
30
0.0000000000
10
25.6259073133
20
-25.8966799813
30
0.0000000000
10
25.5978661692
20
-25.9291627835
30
0.0000000000
10
25.5611942807
20
-25.9600644233
30
0.0000000000
10
25.5163737810
20
-25.9890952522
30
0.0000000000
10
25.4639749915
20
-26.0159156069
30
0.0000000000
10
25.4046769841
20
-26.0401866353
30
0.0000000000
10
25.3392632316
20
-26.0615860703
30
0.0000000000
10
25.2686093925
20
-26.0798239336
30
0.0000000000
10
25.1936691514
20
-26.0946503420
30
0.0000000000
10
25.1154581468
20
-26.1058612061
30
0.0000000000
10
25.0350424911
20
-26.1133018389
30
0.0000000000
10
24.9807636343
20
-26.1156771095
30
0.0000000000
10
24.9534738755
20
-26.1162143776
30
0.0000000000
11
25.6525145055
21
-25.8275702022
31
0.0000000000
11
25.6438217417
21
-25.8613492655
31
0.0000000000
11
25.6256635393
21
-25.8946651823
31
0.0000000000
11
25.5982888669
21
-25.9270611544
31
0.0000000000
11
25.5620730612
21
-25.9580929968
31
0.0000000000
11
25.5175126808
21
-25.9873352282
31
0.0000000000
11
25.4652186977
21
-26.0143869049
31
0.0000000000
11
25.4059081204
21
-26.0388771181
31
0.0000000000
11
25.3403941628
21
-26.0604700793
31
0.0000000000
11
25.2695750945
21
-26.0788697248
31
0.0000000000
11
25.1944219239
21
-26.0938237746
31
0.0000000000
11
25.1159650851
21
-26.1051271919
31
0.0000000000
11
25.0352803094
21
-26.1126249940
31
0.0000000000
11
24.9534738755
21
-26.1162143776
31
0.0000000000
0
SPLINE
5
2E4
100
AcDbEntity
8
0
100
AcDbSpline
62
9
6
CONTINUOUS
70
0
71
3
72
12
73
8
74
6
42
0.0000001000
43
0.0000001000
44
0.0000000001
12
-0.0455369249
22
1.9196945010
32
0.0000000000
13
-0.0821985014
23
1.9184743926
33
0.0000000000
40
0.0000000000
40
0.0000000000
40
0.0000000000
40
0.0000000000
40
0.2123004054
40
0.4189639865
40
0.6194987516
40
0.8133574060
40
1.0000000000
40
1.0000000000
40
1.0000000000
40
1.0000000000
10
25.6525145492
20
-25.8275701777
30
0.0000000000
10
25.6492920467
20
-25.6917195375
30
0.0000000000
10
25.6424982538
20
-25.4236353107
30
0.0000000000
10
25.6310861760
20
-25.0272711472
30
0.0000000000
10
25.6186105114
20
-24.6427490766
30
0.0000000000
10
25.6051039441
20
-24.2710850077
30
0.0000000000
10
25.5952412108
20
-24.0277333224
30
0.0000000000
10
25.5901272970
20
-23.9083769767
30
0.0000000000
11
25.6525145492
21
-25.8275701777
31
0.0000000000
11
25.6421695552
21
-25.4200348911
31
0.0000000000
11
25.6307283903
21
-25.0233573113
31
0.0000000000
11
25.6182181043
21
-24.6384868049
31
0.0000000000
11
25.6046720277
21
-24.2664792738
31
0.0000000000
11
25.5901272970
21
-23.9083769767
31
0.0000000000
0
SPLINE
5
2E5
100
AcDbEntity
8
0
100
AcDbSpline
62
7
6
CONTINUOUS
70
0
71
3
72
8
73
4
74
2
42
0.0000001000
43
0.0000001000
44
0.0000000001
12
-0.0000508258
22
-0.0185592848
32
0.0000000000
13
-0.0017753448
23
-0.0184985975
33
0.0000000000
40
0.0000000000
40
0.0000000000
40
0.0000000000
40
0.0000000000
40
1.0000000000
40
1.0000000000
40
1.0000000000
40
1.0000000000
10
25.5371639517
20
-23.8957384799
30
0.0000000000
10
25.5371470098
20
-23.9019249082
30
0.0000000000
10
25.5368414550
20
-23.9081169860
30
0.0000000000
10
25.5362496734
20
-23.9142831852
30
0.0000000000
11
25.5371639517
21
-23.8957384799
31
0.0000000000
11
25.5362496734
21
-23.9142831852
31
0.0000000000
0
SPLINE
5
2E6
100
AcDbEntity
8
0
100
AcDbSpline
62
7
6
CONTINUOUS
70
0
71
3
72
9
73
5
74
3
42
0.0000001000
43
0.0000001000
44
0.0000000001
12
-0.0509484170
22
-0.0139322067
32
0.0000000000
13
-0.0527693042
23
-0.0001444956
33
0.0000000000
40
0.0000000000
40
0.0000000000
40
0.0000000000
40
0.0000000000
40
0.4086055377
40
1.0000000000
40
1.0000000000
40
1.0000000000
40
1.0000000000
10
25.3896304506
20
-24.0883814802
30
0.0000000000
10
25.3826911822
20
-24.0902790725
30
0.0000000000
10
25.3654573151
20
-24.0940078824
30
0.0000000000
10
25.3478405362
20
-24.0954359023
30
0.0000000000
10
25.3374380447
20
-24.0954643869
30
0.0000000000
11
25.3896304506
21
-24.0883814802
31
0.0000000000
11
25.3685435447
21
-24.0929421608
31
0.0000000000
11
25.3374380447
21
-24.0954643869
31
0.0000000000
0
SPLINE
5
2E7
100
AcDbEntity
8
0
100
AcDbSpline
62
9
6
CONTINUOUS
70
0
71
3
72
21
73
17
74
15
42
0.0000001000
43
0.0000001000
44
0.0000000001
12
0.0021387759
22
-0.3143753834
32
0.0000000000
13
-0.3143753818
23
0.0021390237
33
0.0000000000
40
0.0000000000
40
0.0000000000
40
0.0000000000
40
0.0000000000
40
0.0708533977
40
0.1423543026
40
0.2142263673
40
0.2860726100
40
0.3576448807
40
0.4289254696
40
0.5000525815
40
0.5711834444
40
0.6424752117
40
0.7140647528
40
0.7859140288
40
0.8577725512
40
0.9292005609
40
1.0000000000
40
1.0000000000
40
1.0000000000
40
1.0000000000
10
25.4815014676
20
-23.8400759959
30
0.0000000000
10
25.4815519808
20
-23.8475008506
30
0.0000000000
10
25.4808274876
20
-23.8624372488
30
0.0000000000
10
25.4772413824
20
-23.8846443982
30
0.0000000000
10
25.4711451226
20
-23.9064096441
30
0.0000000000
10
25.4626135992
20
-23.9273482737
30
0.0000000000
10
25.4517848865
20
-23.9471258749
30
0.0000000000
10
25.4388219416
20
-23.9654825232
30
0.0000000000
10
25.4238898163
20
-23.9822142695
30
0.0000000000
10
25.4071546312
20
-23.9971443117
30
0.0000000000
10
25.3887928354
20
-24.0101058541
30
0.0000000000
10
25.3690100878
20
-24.0209321036
30
0.0000000000
10
25.3480689174
20
-24.0294592759
30
0.0000000000
10
25.3263108299
20
-24.0355485648
30
0.0000000000
10
25.3041178283
20
-24.0391291530
30
0.0000000000
10
25.2891947609
20
-24.0398523834
30
0.0000000000
10
25.2817755607
20
-24.0398019028
30
0.0000000000
11
25.4815014676
21
-23.8400759959
31
0.0000000000
11
25.4804199242
21
-23.8623248033
31
0.0000000000
11
25.4768344623
21
-23.8845156556
31
0.0000000000
11
25.4707381645
21
-23.9062730481
31
0.0000000000
11
25.4622137166
21
-23.9271899305
31
0.0000000000
11
25.4514064377
21
-23.9469257192
31
0.0000000000
11
25.4384791591
21
-23.9652305226
31
0.0000000000
11
25.4235899437
21
-23.9819137904
31
0.0000000000
11
25.4069032447
21
-23.9968009317
31
0.0000000000
11
25.3885932041
21
-24.0097268859
31
0.0000000000
11
25.3688504344
21
-24.0205327198
31
0.0000000000
11
25.3479307885
21
-24.0290529121
31
0.0000000000
11
25.3261762072
21
-24.0351434611
31
0.0000000000
11
25.3040074699
21
-24.0387221185
31
0.0000000000
11
25.2817755607
21
-24.0398019028
31
0.0000000000
0
SPLINE
5
2E8
100
AcDbEntity
8
0
100
AcDbSpline
62
9
6
CONTINUOUS
70
0
71
3
72
39
73
35
74
33
42
0.0000001000
43
0.0000001000
44
0.0000000001
12
-0.0103696396
22
0.2420188286
32
0.0000000000
13
-0.0883277002
23
-0.2255942910
33
0.0000000000
40
0.0000000000
40
0.0000000000
40
0.0000000000
40
0.0000000000
40
0.1123432825
40
0.2143266945
40
0.3092491816
40
0.3930968184
40
0.4291022608
40
0.4604073286
40
0.4865226625
40
0.4974683330
40
0.5069369929
40
0.5149048962
40
0.5213755419
40
0.5265809558
40
0.5312805999
40
0.5367717467
40
0.5442572168
40
0.5545947308
40
0.5686062558
40
0.5870291716
40
0.6104195220
40
0.6386390465
40
0.6689511361
40
0.7267772672
40
0.7792556130
40
0.8261485182
40
0.8674374041
40
0.9032041606
40
0.9336750865
40
0.9591302311
40
0.9799107819
40
0.9886626883
40
0.9963842171
40
1.0000000000
40
1.0000000000
40
1.0000000000
40
1.0000000000
10
25.5901273010
20
-23.9083769766
30
0.0000000000
10
25.5897389812
20
-23.8993139134
30
0.0000000000
10
25.5889235720
20
-23.8820264790
30
0.0000000000
10
25.5873873865
20
-23.8571016146
30
0.0000000000
10
25.5855790218
20
-23.8345027786
30
0.0000000000
10
25.5837223161
20
-23.8172548552
30
0.0000000000
10
25.5819312199
20
-23.8051790087
30
0.0000000000
10
25.5805397936
20
-23.7977630510
30
0.0000000000
10
25.5792233861
20
-23.7923951615
30
0.0000000000
10
25.5780415521
20
-23.7888261970
30
0.0000000000
10
25.5771648609
20
-23.7867062263
30
0.0000000000
10
25.5762438380
20
-23.7850026705
30
0.0000000000
10
25.5752633633
20
-23.7837449368
30
0.0000000000
10
25.5741527106
20
-23.7829563034
30
0.0000000000
10
25.5728477474
20
-23.7828453439
30
0.0000000000
10
25.5715343868
20
-23.7835267767
30
0.0000000000
10
25.5702289086
20
-23.7849027972
30
0.0000000000
10
25.5688310775
20
-23.7870719045
30
0.0000000000
10
25.5673205427
20
-23.7901829387
30
0.0000000000
10
25.5656634065
20
-23.7943782043
30
0.0000000000
10
25.5638827501
20
-23.7997478042
30
0.0000000000
10
25.5620571002
20
-23.8061069191
30
0.0000000000
10
25.5596723833
20
-23.8151954516
30
0.0000000000
10
25.5571103956
20
-23.8262587314
30
0.0000000000
10
25.5544299879
20
-23.8386656046
30
0.0000000000
10
25.5520956804
20
-23.8497810791
30
0.0000000000
10
25.5500471675
20
-23.8595776677
30
0.0000000000
10
25.5482126467
20
-23.8680641904
30
0.0000000000
10
25.5465639414
20
-23.8752825259
30
0.0000000000
10
25.5450696614
20
-23.8812938359
30
0.0000000000
10
25.5438779332
20
-23.8855721388
30
0.0000000000
10
25.5429705246
20
-23.8884405609
30
0.0000000000
10
25.5424378316
20
-23.8899728655
30
0.0000000000
10
25.5421136563
20
-23.8908293515
30
0.0000000000
10
25.5420071983
20
-23.8911012515
30
0.0000000000
11
25.5901273010
21
-23.9083769766
31
0.0000000000
11
25.5888156752
21
-23.8811944676
31
0.0000000000
11
25.5872744734
21
-23.8565380375
31
0.0000000000
11
25.5853966151
21
-23.8336207388
31
0.0000000000
11
25.5831207673
21
-23.8134373189
31
0.0000000000
11
25.5818168931
21
-23.8048133395
31
0.0000000000
11
25.5803880554
21
-23.7973657977
31
0.0000000000
11
25.5788182202
21
-23.7912374667
31
0.0000000000
11
25.5779718219
21
-23.7887246987
31
0.0000000000
11
25.5770792407
21
-23.7866117997
31
0.0000000000
11
25.5761360851
21
-23.7849277736
31
0.0000000000
11
25.5751359858
21
-23.7837208286
31
0.0000000000
11
25.5740720787
21
-23.7830439742
31
0.0000000000
11
25.5729374999
21
-23.7829502195
31
0.0000000000
11
25.5717251020
21
-23.7834974589
31
0.0000000000
11
25.5704266049
21
-23.7847631264
31
0.0000000000
11
25.5690301154
21
-23.7868417502
31
0.0000000000
11
25.5675104219
21
-23.7898766936
31
0.0000000000
11
25.5658454301
21
-23.7940172535
31
0.0000000000
11
25.5640388321
21
-23.7993876242
31
0.0000000000
11
25.5621280942
21
-23.8059510772
31
0.0000000000
11
25.5602599920
21
-23.8130522957
31
0.0000000000
11
25.5570483820
21
-23.8266870124
31
0.0000000000
11
25.5543473827
21
-23.8391091591
31
0.0000000000
11
25.5520043816
21
-23.8502242760
31
0.0000000000
11
25.5499440891
21
-23.8600116309
31
0.0000000000
11
25.5481045326
21
-23.8684782643
31
0.0000000000
11
25.5464488559
21
-23.8756714820
31
0.0000000000
11
25.5449478756
21
-23.8816522867
31
0.0000000000
11
25.5435779842
21
-23.8864962040
31
0.0000000000
11
25.5429353886
21
-23.8885165420
31
0.0000000000
11
25.5423180378
21
-23.8902821964
31
0.0000000000
11
25.5420071983
21
-23.8911012515
31
0.0000000000
0
SPLINE
5
2E9
100
AcDbEntity
8
0
100
AcDbSpline
62
9
6
CONTINUOUS
70
0
71
3
72
15
73
11
74
9
42
0.0000001000
43
0.0000001000
44
0.0000000001
12
-0.0028749245
22
-0.0073427311
32
0.0000000000
13
-0.0055754082
23
0.0055750326
33
0.0000000000
40
0.0000000000
40
0.0000000000
40
0.0000000000
40
0.0000000000
40
0.0959790810
40
0.2744758554
40
0.5521171617
40
0.6551910222
40
0.7380945352
40
0.8057769554
40
0.8660527640
40
1.0000000000
40
1.0000000000
40
1.0000000000
40
1.0000000000
10
25.5420071983
20
-23.8911012515
30
0.0000000000
10
25.5419152208
20
-23.8913361677
30
0.0000000000
10
25.5416456360
20
-23.8920052849
30
0.0000000000
10
25.5410585152
20
-23.8933313830
30
0.0000000000
10
25.5403615995
20
-23.8946360764
30
0.0000000000
10
25.5395973673
20
-23.8955902729
30
0.0000000000
10
25.5390912402
20
-23.8960317683
30
0.0000000000
10
25.5385818504
20
-23.8962753156
30
0.0000000000
10
25.5378729549
20
-23.8963093714
30
0.0000000000
10
25.5374128895
20
-23.8959873991
30
0.0000000000
10
25.5371639527
20
-23.8957384790
30
0.0000000000
11
25.5420071983
21
-23.8911012515
31
0.0000000000
11
25.5417239574
21
-23.8918029165
31
0.0000000000
11
25.5411511736
21
-23.8930884514
31
0.0000000000
11
25.5400626186
21
-23.8949876897
31
0.0000000000
11
25.5395443017
21
-23.8956136404
31
0.0000000000
11
25.5390416794
21
-23.8960315378
31
0.0000000000
11
25.5385535425
21
-23.8962471760
31
0.0000000000
11
25.5380786817
21
-23.8962663493
31
0.0000000000
11
25.5371639527
21
-23.8957384790
31
0.0000000000
0
SPLINE
5
2EA
100
AcDbEntity
8
0
100
AcDbSpline
62
9
6
CONTINUOUS
70
0
71
3
72
10
73
6
74
4
42
0.0000001000
43
0.0000001000
44
0.0000000001
12
-0.0118483993
22
-0.0085086941
32
0.0000000000
13
0.0131123335
23
-0.0068046759
33
0.0000000000
40
0.0000000000
40
0.0000000000
40
0.0000000000
40
0.0000000000
40
0.1351886206
40
0.5344601111
40
1.0000000000
40
1.0000000000
40
1.0000000000
40
1.0000000000
10
0.3704143000
20
-24.0954643869
30
0.0000000000
10
0.3698803770
20
-24.0958478131
30
0.0000000000
10
0.3715287855
20
-24.0992742820
30
0.0000000000
10
0.3758861192
20
-24.1005681704
30
0.0000000000
10
0.3796491135
20
-24.1024653565
30
0.0000000000
10
0.3816838849
20
-24.1035213058
30
0.0000000000
11
0.3704143000
21
-24.0954643869
31
0.0000000000
11
0.3707578213
21
-24.0974062409
31
0.0000000000
11
0.3755962407
21
-24.1006483066
31
0.0000000000
11
0.3816838849
21
-24.1035213058
31
0.0000000000
0
SPLINE
5
2EB
100
AcDbEntity
8
0
100
AcDbSpline
62
9
6
CONTINUOUS
70
0
71
3
72
27
73
23
74
21
42
0.0000001000
43
0.0000001000
44
0.0000000001
12
0.4659727432
22
-0.2418176383
32
0.0000000000
13
-0.0349913646
23
-0.5171978876
33
0.0000000000
40
0.0000000000
40
0.0000000000
40
0.0000000000
40
0.0000000000
40
0.0078641816
40
0.0404923413
40
0.0864083311
40
0.1468509784
40
0.2227841666
40
0.3142038166
40
0.4056267328
40
0.4876913765
40
0.5612851306
40
0.6272120627
40
0.6864293593
40
0.7396407265
40
0.7874112915
40
0.8293051392
40
0.8661893974
40
0.8986243181
40
0.9262630983
40
0.9502458830
40
0.9740159179
40
1.0000000000
40
1.0000000000
40
1.0000000000
40
1.0000000000
10
0.3816838849
20
-24.1035213058
30
0.0000000000
10
0.3829053830
20
-24.1041552051
30
0.0000000000
10
0.3892117104
20
-24.1074834541
30
0.0000000000
10
0.4029846659
20
-24.1129567683
30
0.0000000000
10
0.4252091472
20
-24.1222081167
30
0.0000000000
10
0.4545144539
20
-24.1336986601
30
0.0000000000
10
0.4911427234
20
-24.1481326649
30
0.0000000000
10
0.5327724322
20
-24.1644450603
30
0.0000000000
10
0.5753953515
20
-24.1811418360
30
0.0000000000
10
0.6148500981
20
-24.1974564669
30
0.0000000000
10
0.6501409305
20
-24.2123132809
30
0.0000000000
10
0.6814514580
20
-24.2264236873
30
0.0000000000
10
0.7092307330
20
-24.2397876865
30
0.0000000000
10
0.7336407463
20
-24.2528482200
30
0.0000000000
10
0.7550196184
20
-24.2652315797
30
0.0000000000
10
0.7728326507
20
-24.2779850119
30
0.0000000000
10
0.7874729347
20
-24.2904270263
30
0.0000000000
10
0.7995410658
20
-24.3021529455
30
0.0000000000
10
0.8077640060
20
-24.3142029116
30
0.0000000000
10
0.8137701045
20
-24.3258273014
30
0.0000000000
10
0.8169519701
20
-24.3382948733
30
0.0000000000
10
0.8170685705
20
-24.3469639132
30
0.0000000000
10
0.8167654977
20
-24.3514435507
30
0.0000000000
11
0.3816838849
21
-24.1035213058
31
0.0000000000
11
0.3853605165
21
-24.1054191971
31
0.0000000000
11
0.4008735763
21
-24.1121587338
31
0.0000000000
11
0.4229032681
21
-24.1211712288
31
0.0000000000
11
0.4520251028
21
-24.1327310754
31
0.0000000000
11
0.4886552453
21
-24.1471401138
31
0.0000000000
11
0.5327730857
21
-24.1644444874
31
0.0000000000
11
0.5768425731
21
-24.1818762384
31
0.0000000000
11
0.6161846704
21
-24.1980598570
31
0.0000000000
11
0.6512952808
21
-24.2129807457
31
0.0000000000
11
0.6824462122
21
-24.2270365260
31
0.0000000000
11
0.7100607669
21
-24.2404434941
31
0.0000000000
11
0.7343929420
21
-24.2534360638
31
0.0000000000
11
0.7556731612
21
-24.2660999529
31
0.0000000000
11
0.7733346510
21
-24.2787370943
31
0.0000000000
11
0.7879178548
21
-24.2911026609
31
0.0000000000
11
0.7996714817
21
-24.3031255605
31
0.0000000000
11
0.8078529100
21
-24.3148873007
31
0.0000000000
11
0.8133472519
21
-24.3260395128
31
0.0000000000
11
0.8163930084
21
-24.3379790679
31
0.0000000000
11
0.8167654977
21
-24.3514435507
31
0.0000000000
0
SPLINE
5
2EC
100
AcDbEntity
8
0
100
AcDbSpline
62
9
6
CONTINUOUS
70
0
71
3
72
10
73
6
74
4
42
0.0000001000
43
0.0000001000
44
0.0000000001
12
0.0129102011
22
-0.0092699605
32
0.0000000000
13
-0.0143160582
23
-0.0074565418
33
0.0000000000
40
0.0000000000
40
0.0000000000
40
0.0000000000
40
0.0000000000
40
0.1242540212
40
0.4914752285
40
1.0000000000
40
1.0000000000
40
1.0000000000
40
1.0000000000
10
25.3374380447
20
-24.0954643869
30
0.0000000000
10
25.3379727595
20
-24.0958483302
30
0.0000000000
10
25.3363166581
20
-24.0992807068
30
0.0000000000
10
25.3315711891
20
-24.1006883890
30
0.0000000000
10
25.3274191864
20
-24.1028675539
30
0.0000000000
10
25.3249924963
20
-24.1041314993
30
0.0000000000
11
25.3374380447
21
-24.0954643869
31
0.0000000000
11
25.3370921540
21
-24.0974086993
31
0.0000000000
11
25.3322424129
21
-24.1006558851
31
0.0000000000
11
25.3249924963
21
-24.1041314993
31
0.0000000000
0
SPLINE
5
2ED
100
AcDbEntity
8
0
100
AcDbSpline
62
9
6
CONTINUOUS
70
0
71
3
72
27
73
23
74
21
42
0.0000001000
43
0.0000001000
44
0.0000000001
12
-0.4657539917
22
-0.2425887125
32
0.0000000000
13
0.0361000821
23
-0.5158144230
33
0.0000000000
40
0.0000000000
40
0.0000000000
40
0.0000000000
40
0.0000000000
40
0.0054344033
40
0.0382178111
40
0.0843563377
40
0.1450907601
40
0.2213689683
40
0.3122418778
40
0.3999698531
40
0.4818362596
40
0.5564819259
40
0.6231517136
40
0.6829515103
40
0.7365153899
40
0.7845894838
40
0.8272314210
40
0.8646882414
40
0.8972715333
40
0.9253988313
40
0.9498539964
40
0.9739775149
40
1.0000000000
40
1.0000000000
40
1.0000000000
40
1.0000000000
10
25.3249924963
20
-24.1041314993
30
0.0000000000
10
25.3241487979
20
-24.1045709409
30
0.0000000000
10
25.3182020676
20
-24.1076601170
30
0.0000000000
10
25.3047906469
20
-24.1129890457
30
0.0000000000
10
25.2825141257
20
-24.1222600973
30
0.0000000000
10
25.2531439157
20
-24.1337730960
30
0.0000000000
10
25.2165953933
20
-24.1481819032
30
0.0000000000
10
25.1756924242
20
-24.1641999868
30
0.0000000000
10
25.1338967351
20
-24.1805938941
30
0.0000000000
10
25.0949756129
20
-24.1966356280
30
0.0000000000
10
25.0595044065
20
-24.2115256108
30
0.0000000000
10
25.0278910835
20
-24.2257503795
30
0.0000000000
10
24.9998760439
20
-24.2391103216
30
0.0000000000
10
24.9753368547
20
-24.2522453918
30
0.0000000000
10
24.9538903908
20
-24.2648548872
30
0.0000000000
10
24.9356521887
20
-24.2773660617
30
0.0000000000
10
24.9206511052
20
-24.2897423962
30
0.0000000000
10
24.9088123733
20
-24.3019104355
30
0.0000000000
10
24.9002653612
20
-24.3138949652
30
0.0000000000
10
24.8940693520
20
-24.3256608194
30
0.0000000000
10
24.8909072595
20
-24.3382564556
30
0.0000000000
10
24.8907737090
20
-24.3469692930
30
0.0000000000
10
24.8910868470
20
-24.3514435507
30
0.0000000000
11
25.3249924963
21
-24.1041314993
31
0.0000000000
11
25.3224549853
21
-24.1054358291
31
0.0000000000
11
25.3069067764
21
-24.1121891365
31
0.0000000000
11
25.2848253605
21
-24.1212209571
31
0.0000000000
11
25.2556359714
21
-24.1328059010
31
0.0000000000
11
25.2189326663
21
-24.1472457928
31
0.0000000000
11
25.1751884486
21
-24.1644020047
31
0.0000000000
11
25.1330064544
21
-24.1810871568
31
0.0000000000
11
25.0938430122
21
-24.1971542774
31
0.0000000000
11
25.0583055326
21
-24.2122159511
31
0.0000000000
11
25.0268667158
21
-24.2263585502
31
0.0000000000
11
24.9990194268
21
-24.2397987775
31
0.0000000000
11
24.9745972098
21
-24.2528623602
31
0.0000000000
11
24.9532447304
21
-24.2655898950
31
0.0000000000
11
24.9351224636
21
-24.2781496524
31
0.0000000000
11
24.9202533031
21
-24.2905604776
31
0.0000000000
11
24.9086289372
21
-24.3027559957
31
0.0000000000
11
24.9001914516
21
-24.3146023224
31
0.0000000000
11
24.8945151778
21
-24.3259019043
31
0.0000000000
11
24.8914487402
21
-24.3379928120
31
0.0000000000
11
24.8910868470
21
-24.3514435507
31
0.0000000000
0
SPLINE
5
2EE
100
AcDbEntity
8
0
100
AcDbSpline
62
9
6
CONTINUOUS
70
0
71
3
72
11
73
7
74
5
42
0.0000001000
43
0.0000001000
44
0.0000000001
12
0.9761692360
22
-4.7563031588
32
0.0000000000
13
0.7806006223
23
-4.7922842971
33
0.0000000000
40
0.0000000000
40
0.0000000000
40
0.0000000000
40
0.0000000000
40
0.2580264452
40
0.5133074713
40
0.7618456674
40
1.0000000000
40
1.0000000000
40
1.0000000000
40
1.0000000000
10
-0.6108319871
20
30.6136959323
30
0.0000000000
10
-0.5268728278
20
30.2046119336
30
0.0000000000
10
-0.3600862143
20
29.3907470955
30
0.0000000000
10
-0.1190296360
20
28.1814940702
30
0.0000000000
10
0.1037606338
20
27.0014441943
30
0.0000000000
10
0.2383131253
20
26.2252686766
30
0.0000000000
10
0.3002809321
20
25.8448342539
30
0.0000000000
11
-0.6108319871
21
30.6136959323
31
0.0000000000
11
-0.3602984589
21
29.3861688747
31
0.0000000000
11
-0.1189843572
21
28.1703835972
31
0.0000000000
11
0.1038573397
21
26.9843740752
31
0.0000000000
11
0.3002809321
21
25.8448342539
31
0.0000000000
0
SPLINE
5
2EF
100
AcDbEntity
8
0
100
AcDbSpline
62
9
6
CONTINUOUS
70
0
71
3
72
11
73
7
74
5
42
0.0000001000
43
0.0000001000
44
0.0000000001
12
0.4760463627
22
-4.8522906737
32
0.0000000000
13
0.3798118291
23
-4.8607702986
33
0.0000000000
40
0.0000000000
40
0.0000000000
40
0.0000000000
40
0.0000000000
40
0.2580448258
40
0.5131859361
40
0.7616571932
40
1.0000000000
40
1.0000000000
40
1.0000000000
40
1.0000000000
10
-0.6108320319
20
30.6136961486
30
0.0000000000
10
-0.5698849316
20
30.1963266480
30
0.0000000000
10
-0.4884613757
20
29.3662831740
30
0.0000000000
10
-0.3706670051
20
28.1340558473
30
0.0000000000
10
-0.2618360187
20
26.9331484695
30
0.0000000000
10
-0.1962314168
20
26.1446930293
30
0.0000000000
10
-0.1660562777
20
25.7585164840
30
0.0000000000
11
-0.6108320319
21
30.6136961486
31
0.0000000000
11
-0.4885206482
21
29.3615357713
31
0.0000000000
11
-0.3706661984
21
28.1231686045
31
0.0000000000
11
-0.2618618337
21
26.9166214292
31
0.0000000000
11
-0.1660562777
21
25.7585164840
31
0.0000000000
0
SPLINE
5
2F0
100
AcDbEntity
8
0
100
AcDbSpline
62
9
6
CONTINUOUS
70
0
71
3
72
14
73
10
74
8
42
0.0000001000
43
0.0000001000
44
0.0000000001
12
0.4762111292
22
-2.7513126053
32
0.0000000000
13
0.0718627001
23
-2.7912960868
33
0.0000000000
40
0.0000000000
40
0.0000000000
40
0.0000000000
40
0.0000000000
40
0.1544945777
40
0.3249633007
40
0.4885466607
40
0.6396500313
40
0.7744884464
40
0.8938728555
40
1.0000000000
40
1.0000000000
40
1.0000000000
40
1.0000000000
10
0.3002809321
20
25.8448342539
30
0.0000000000
10
0.3248049445
20
25.7031466275
30
0.0000000000
10
0.3818076000
20
25.4060641383
30
0.0000000000
10
0.4753453566
20
24.9610839387
30
0.0000000000
10
0.5672981457
20
24.5189845981
30
0.0000000000
10
0.6447391047
20
24.1077771436
30
0.0000000000
10
0.7025473606
20
23.7348844897
30
0.0000000000
10
0.7396194326
20
23.4014306300
30
0.0000000000
10
0.7518418919
20
23.1917561848
30
0.0000000000
10
0.7543840862
20
23.0930120904
30
0.0000000000
11
0.3002809321
21
25.8448342539
31
0.0000000000
11
0.3801843089
21
25.4209159291
31
0.0000000000
11
0.4764958635
21
24.9547752984
31
0.0000000000
11
0.5681958148
21
24.5073139797
31
0.0000000000
11
0.6451734856
21
24.0924816459
31
0.0000000000
11
0.7019090697
21
23.7202823582
31
0.0000000000
11
0.7379067245
21
23.3888840678
31
0.0000000000
11
0.7543840862
21
23.0930120904
31
0.0000000000
0
SPLINE
5
2F1
100
AcDbEntity
8
0
100
AcDbSpline
62
9
6
CONTINUOUS
70
0
71
3
72
13
73
9
74
7
42
0.0000001000
43
0.0000001000
44
0.0000000001
12
0.4631253583
22
0.1024562808
32
0.0000000000
13
0.4684804883
23
0.0742187245
33
0.0000000000
40
0.0000000000
40
0.0000000000
40
0.0000000000
40
0.0000000000
40
0.1430701025
40
0.2988559246
40
0.4650086032
40
0.6390180779
40
0.8182526648
40
1.0000000000
40
1.0000000000
40
1.0000000000
40
1.0000000000
10
-0.1660562997
20
25.7585164822
30
0.0000000000
10
-0.1439698355
20
25.7634026257
30
0.0000000000
10
-0.0977552071
20
25.7732548023
30
0.0000000000
10
-0.0256690249
20
25.7877180138
30
0.0000000000
10
0.0513697866
20
25.8023417697
30
0.0000000000
10
0.1321904661
20
25.8169018203
30
0.0000000000
10
0.2155646976
20
25.8311754312
30
0.0000000000
10
0.2718992386
20
25.8403379014
30
0.0000000000
10
0.3002809321
20
25.8448342532
30
0.0000000000
11
-0.1660562997
21
25.7585164822
31
0.0000000000
11
-0.0996953357
21
25.7727079986
31
0.0000000000
11
-0.0272523386
21
25.7872737030
31
0.0000000000
11
0.0501711244
21
25.8019921094
31
0.0000000000
11
0.1313977528
21
25.8166394098
31
0.0000000000
11
0.2151924156
21
25.8309928773
31
0.0000000000
11
0.3002809321
21
25.8448342532
31
0.0000000000
0
SPLINE
5
2F2
100
AcDbEntity
8
0
100
AcDbSpline
62
9
6
CONTINUOUS
70
0
71
3
72
14
73
10
74
8
42
0.0000001000
43
0.0000001000
44
0.0000000001
12
0.2308134045
22
-2.9538912227
32
0.0000000000
13
0.0304147080
23
-2.9627391260
33
0.0000000000
40
0.0000000000
40
0.0000000000
40
0.0000000000
40
0.0000000000
40
0.1548558966
40
0.3249452176
40
0.4879098595
40
0.6386204969
40
0.7734834894
40
0.8932600132
40
1.0000000000
40
1.0000000000
40
1.0000000000
40
1.0000000000
10
-0.1660562997
20
25.7585164822
30
0.0000000000
10
-0.1541420275
20
25.6060406576
30
0.0000000000
10
-0.1263540196
20
25.2863084499
30
0.0000000000
10
-0.0804665130
20
24.8066240569
30
0.0000000000
10
-0.0353467143
20
24.3309764820
30
0.0000000000
10
0.0025571348
20
23.8895997675
30
0.0000000000
10
0.0307055337
20
23.4902316939
30
0.0000000000
10
0.0485674599
20
23.1337417295
30
0.0000000000
10
0.0542616106
20
22.9100671295
30
0.0000000000
10
0.0553437658
20
22.8046528844
30
0.0000000000
11
-0.1660562997
21
25.7585164822
31
0.0000000000
11
-0.1270269888
21
25.3013576961
31
0.0000000000
11
-0.0798642891
21
24.7996125665
31
0.0000000000
11
-0.0349457148
21
24.3188593002
31
0.0000000000
11
0.0026982698
21
23.8739090224
31
0.0000000000
11
0.0303235595
21
23.4752801849
31
0.0000000000
11
0.0476734648
21
23.1208192546
31
0.0000000000
11
0.0553437658
21
22.8046528844
31
0.0000000000
0
SPLINE
5
2F3
100
AcDbEntity
8
0
100
AcDbSpline
62
7
6
CONTINUOUS
70
0
71
3
72
21
73
17
74
15
42
0.0000001000
43
0.0000001000
44
0.0000000001
12
0.0572979723
22
0.8956008070
32
0.0000000000
13
0.8971360811
23
0.0230372534
33
0.0000000000
40
0.0000000000
40
0.0000000000
40
0.0000000000
40
0.0000000000
40
0.0543410775
40
0.1104318734
40
0.1687081518
40
0.2297466029
40
0.2940780134
40
0.3618909855
40
0.4327782240
40
0.5069061994
40
0.5843666248
40
0.6643434658
40
0.7463658028
40
0.8301119500
40
0.9150234665
40
1.0000000000
40
1.0000000000
40
1.0000000000
40
1.0000000000
10
0.1177202117
20
20.8842241145
30
0.0000000000
10
0.1187580896
20
20.9004467522
30
0.0000000000
10
0.1237394904
20
20.9332930367
30
0.0000000000
10
0.1395202409
20
20.9814486691
30
0.0000000000
10
0.1634507936
20
21.0283649081
30
0.0000000000
10
0.1951580487
20
21.0734289351
30
0.0000000000
10
0.2342565790
20
21.1161761981
30
0.0000000000
10
0.2802216521
20
21.1560609369
30
0.0000000000
10
0.3324613722
20
21.1926333655
30
0.0000000000
10
0.3904068093
20
21.2255505307
30
0.0000000000
10
0.4534559831
20
21.2544402317
30
0.0000000000
10
0.5208483316
20
21.2789363328
30
0.0000000000
10
0.5917127955
20
21.2987432722
30
0.0000000000
10
0.6652736732
20
21.3136405034
30
0.0000000000
10
0.7405723474
20
21.3234268799
30
0.0000000000
10
0.7913490056
20
21.3264813472
30
0.0000000000
10
0.8167608437
20
21.3271338892
30
0.0000000000
11
0.1177202117
21
20.8842241145
31
0.0000000000
11
0.1249555942
21
20.9324518006
31
0.0000000000
11
0.1404957253
21
20.9803306562
31
0.0000000000
11
0.1641050215
21
21.0269974013
31
0.0000000000
11
0.1954732258
21
21.0719045098
31
0.0000000000
11
0.2343036523
21
21.1146280813
31
0.0000000000
11
0.2801576318
21
21.1546412059
31
0.0000000000
11
0.3321857790
21
21.1912489411
31
0.0000000000
11
0.3899671851
21
21.2242164797
31
0.0000000000
11
0.4531199742
21
21.2532702753
31
0.0000000000
11
0.5205462903
21
21.2778703719
31
0.0000000000
11
0.5914218735
21
21.2977450678
31
0.0000000000
11
0.6650744867
21
21.3127045323
31
0.0000000000
11
0.7406380948
21
21.3225498917
31
0.0000000000
11
0.8167608437
21
21.3271338892
31
0.0000000000
0
SPLINE
5
2F4
100
AcDbEntity
8
0
100
AcDbSpline
62
9
6
CONTINUOUS
70
0
71
3
72
12
73
8
74
6
42
0.0000001000
43
0.0000001000
44
0.0000000001
12
0.0455141497
22
-1.7664234346
32
0.0000000000
13
0.0821992147
23
-1.7650967614
33
0.0000000000
40
0.0000000000
40
0.0000000000
40
0.0000000000
40
0.0000000000
40
0.2122745960
40
0.4189357424
40
0.6194730581
40
0.8133432080
40
1.0000000000
40
1.0000000000
40
1.0000000000
40
1.0000000000
10
0.7543840862
20
23.0930120904
30
0.0000000000
10
0.7576045855
20
22.9680231501
30
0.0000000000
10
0.7643950893
20
22.7213614478
30
0.0000000000
10
0.7758034960
20
22.3566673503
30
0.0000000000
10
0.7882772700
20
22.0028547909
30
0.0000000000
10
0.8017833411
20
21.6608716389
30
0.0000000000
10
0.8116464965
20
21.4369561597
30
0.0000000000
10
0.8167608437
20
21.3271337266
30
0.0000000000
11
0.7543840862
21
23.0930120904
31
0.0000000000
11
0.7647235008
21
22.7180633501
31
0.0000000000
11
0.7761613218
21
22.3530702693
31
0.0000000000
11
0.7886696245
21
21.9989397219
31
0.0000000000
11
0.8022153265
21
21.6566371986
31
0.0000000000
11
0.8167608437
21
21.3271337266
31
0.0000000000
0
SPLINE
5
2F5
100
AcDbEntity
8
0
100
AcDbSpline
62
9
6
CONTINUOUS
70
0
71
3
72
20
73
16
74
14
42
0.0000001000
43
0.0000001000
44
0.0000000001
12
0.0918818876
22
0.7947785735
32
0.0000000000
13
0.7999172703
23
0.0157360365
33
0.0000000000
40
0.0000000000
40
0.0000000000
40
0.0000000000
40
0.0000000000
40
0.0435552535
40
0.0909437800
40
0.1439250662
40
0.2035104019
40
0.2701079110
40
0.3436817132
40
0.4238726984
40
0.5100822441
40
0.6015308197
40
0.6973013346
40
0.7963735794
40
0.8976535644
40
1.0000000000
40
1.0000000000
40
1.0000000000
40
1.0000000000
10
0.0553434567
20
22.8046528844
30
0.0000000000
10
0.0566774364
20
22.8161918118
30
0.0000000000
10
0.0630111450
20
22.8399638671
30
0.0000000000
10
0.0819542098
20
22.8736971414
30
0.0000000000
10
0.1099961175
20
22.9061470897
30
0.0000000000
10
0.1466681723
20
22.9370173770
30
0.0000000000
10
0.1914885172
20
22.9660188840
30
0.0000000000
10
0.2438869886
20
22.9928122939
30
0.0000000000
10
0.3031845817
20
23.0170590625
30
0.0000000000
10
0.3685978516
20
23.0384372081
30
0.0000000000
10
0.4392511526
20
23.0566570150
30
0.0000000000
10
0.5141908096
20
23.0714688303
30
0.0000000000
10
0.5924011922
20
23.0826687551
30
0.0000000000
10
0.6728162037
20
23.0901022470
30
0.0000000000
10
0.7270945258
20
23.0924753520
30
0.0000000000
10
0.7543840862
20
23.0930121944
30
0.0000000000
11
0.0553434567
21
22.8046528844
31
0.0000000000
11
0.0640369249
21
22.8383984136
31
0.0000000000
11
0.0821957024
21
22.8716812620
31
0.0000000000
11
0.1095708158
21
22.9040450905
31
0.0000000000
11
0.1457869270
21
22.9350461605
31
0.0000000000
11
0.1903474798
21
22.9642594180
31
0.0000000000
11
0.2426415072
21
22.9912843215
31
0.0000000000
11
0.3019520094
21
23.0157503341
31
0.0000000000
11
0.3674657836
21
23.0373220034
31
0.0000000000
11
0.4382845743
21
23.0557035612
31
0.0000000000
11
0.5134373890
21
23.0706429789
31
0.0000000000
11
0.5918938116
21
23.0819354227
31
0.0000000000
11
0.6725781302
21
23.0894260625
31
0.0000000000
11
0.7543840862
21
23.0930121944
31
0.0000000000
0
SPLINE
5
2F6
100
AcDbEntity
8
0
100
AcDbSpline
62
9
6
CONTINUOUS
70
0
71
3
72
12
73
8
74
6
42
0.0000001000
43
0.0000001000
44
0.0000000001
12
0.0455121814
22
-1.9209352793
32
0.0000000000
13
0.0822046751
23
-1.9197151084
33
0.0000000000
40
0.0000000000
40
0.0000000000
40
0.0000000000
40
0.0000000000
40
0.2122995130
40
0.4189612989
40
0.6194954986
40
0.8133553981
40
1.0000000000
40
1.0000000000
40
1.0000000000
40
1.0000000000
10
0.0553434125
20
22.8046528602
30
0.0000000000
10
0.0585641505
20
22.6687149854
30
0.0000000000
10
0.0653548376
20
22.4004591958
30
0.0000000000
10
0.0767635046
20
22.0038408846
30
0.0000000000
10
0.0892370715
20
21.6190709239
30
0.0000000000
10
0.1027428939
20
21.2471648148
30
0.0000000000
10
0.1126060273
20
21.0036536765
30
0.0000000000
10
0.1177203803
20
20.8842188558
30
0.0000000000
11
0.0553434125
21
22.8046528602
31
0.0000000000
11
0.0656837135
21
22.3968558656
31
0.0000000000
11
0.0771214369
21
21.9999253008
31
0.0000000000
11
0.0896296264
21
21.6148070504
31
0.0000000000
11
0.1031750029
21
21.2425565862
31
0.0000000000
11
0.1177203803
21
20.8842188558
31
0.0000000000
0
SPLINE
5
2F7
100
AcDbEntity
8
0
100
AcDbSpline
62
7
6
CONTINUOUS
70
0
71
3
72
8
73
4
74
2
42
0.0000001000
43
0.0000001000
44
0.0000000001
12
0.0000512219
22
0.0187039143
32
0.0000000000
13
0.0018026668
23
0.0186415288
33
0.0000000000
40
0.0000000000
40
0.0000000000
40
0.0000000000
40
0.0000000000
40
1.0000000000
40
1.0000000000
40
1.0000000000
40
1.0000000000
10
0.1706967226
20
20.8712769353
30
0.0000000000
10
0.1707137965
20
20.8775115733
30
0.0000000000
10
0.1710239991
20
20.8837519493
30
0.0000000000
10
0.1716248880
20
20.8899657923
30
0.0000000000
11
0.1706967226
21
20.8712769353
31
0.0000000000
11
0.1716248880
21
20.8899657923
31
0.0000000000
0
SPLINE
5
2F8
100
AcDbEntity
8
0
100
AcDbSpline
62
7
6
CONTINUOUS
70
0
71
3
72
9
73
5
74
3
42
0.0000001000
43
0.0000001000
44
0.0000000001
12
0.0511203940
22
0.0140320217
32
0.0000000000
13
0.0529614017
23
0.0001450215
33
0.0000000000
40
0.0000000000
40
0.0000000000
40
0.0000000000
40
0.0000000000
40
0.4107505293
40
1.0000000000
40
1.0000000000
40
1.0000000000
40
1.0000000000
10
0.3180447792
20
21.0638691288
30
0.0000000000
10
0.3250440222
20
21.0657903489
30
0.0000000000
10
0.3423392271
20
21.0695411391
30
0.0000000000
10
0.3600201369
20
21.0709743576
30
0.0000000000
10
0.3704226295
20
21.0710028422
30
0.0000000000
11
0.3180447792
21
21.0638691288
31
0.0000000000
11
0.3393171259
21
21.0684806156
31
0.0000000000
11
0.3704226295
21
21.0710028422
31
0.0000000000
0
SPLINE
5
2F9
100
AcDbEntity
8
0
100
AcDbSpline
62
9
6
CONTINUOUS
70
0
71
3
72
21
73
17
74
15
42
0.0000001000
43
0.0000001000
44
0.0000000001
12
-0.0021387759
22
0.3143753834
32
0.0000000000
13
0.3143753818
23
-0.0021390237
33
0.0000000000
40
0.0000000000
40
0.0000000000
40
0.0000000000
40
0.0000000000
40
0.0708533977
40
0.1423543026
40
0.2142263673
40
0.2860726100
40
0.3576448807
40
0.4289254696
40
0.5000525815
40
0.5711834444
40
0.6424752117
40
0.7140647528
40
0.7859140288
40
0.8577725512
40
0.9292005609
40
1.0000000000
40
1.0000000000
40
1.0000000000
40
1.0000000000
10
0.2263508771
20
20.8156227808
30
0.0000000000
10
0.2263003639
20
20.8230476354
30
0.0000000000
10
0.2270248571
20
20.8379840337
30
0.0000000000
10
0.2306109623
20
20.8601911831
30
0.0000000000
10
0.2367072221
20
20.8819564290
30
0.0000000000
10
0.2452387455
20
20.9028950586
30
0.0000000000
10
0.2560674582
20
20.9226726598
30
0.0000000000
10
0.2690304031
20
20.9410293081
30
0.0000000000
10
0.2839625284
20
20.9577610543
30
0.0000000000
10
0.3006977135
20
20.9726910966
30
0.0000000000
10
0.3190595093
20
20.9856526390
30
0.0000000000
10
0.3388422569
20
20.9964788885
30
0.0000000000
10
0.3597834273
20
21.0050060608
30
0.0000000000
10
0.3815415148
20
21.0110953497
30
0.0000000000
10
0.4037345164
20
21.0146759379
30
0.0000000000
10
0.4186575838
20
21.0153991683
30
0.0000000000
10
0.4260767840
20
21.0153486877
30
0.0000000000
11
0.2263508771
21
20.8156227808
31
0.0000000000
11
0.2274324205
21
20.8378715882
31
0.0000000000
11
0.2310178824
21
20.8600624405
31
0.0000000000
11
0.2371141802
21
20.8818198330
31
0.0000000000
11
0.2456386281
21
20.9027367153
31
0.0000000000
11
0.2564459070
21
20.9224725041
31
0.0000000000
11
0.2693731856
21
20.9407773075
31
0.0000000000
11
0.2842624010
21
20.9574605753
31
0.0000000000
11
0.3009491000
21
20.9723477166
31
0.0000000000
11
0.3192591405
21
20.9852736708
31
0.0000000000
11
0.3390019103
21
20.9960795047
31
0.0000000000
11
0.3599215562
21
21.0045996970
31
0.0000000000
11
0.3816761375
21
21.0106902460
31
0.0000000000
11
0.4038448748
21
21.0142689034
31
0.0000000000
11
0.4260767840
21
21.0153486877
31
0.0000000000
0
SPLINE
5
2FA
100
AcDbEntity
8
0
100
AcDbSpline
62
9
6
CONTINUOUS
70
0
71
3
72
39
73
35
74
33
42
0.0000001000
43
0.0000001000
44
0.0000000001
12
0.0103758843
22
-0.2423083972
32
0.0000000000
13
0.0901599571
23
0.2251456432
33
0.0000000000
40
0.0000000000
40
0.0000000000
40
0.0000000000
40
0.0000000000
40
0.1122966679
40
0.2142284042
40
0.3091189148
40
0.3929552051
40
0.4289616950
40
0.4602747051
40
0.4864073691
40
0.4973653238
40
0.5068483888
40
0.5148320812
40
0.5213180410
40
0.5265339737
40
0.5312319130
40
0.5367053876
40
0.5441538189
40
0.5544339688
40
0.5683915424
40
0.5867813677
40
0.6101247873
40
0.6382517254
40
0.6684581780
40
0.7261371186
40
0.7784888673
40
0.8252844684
40
0.8665019325
40
0.9022102946
40
0.9326326531
40
0.9580482598
40
0.9787974286
40
0.9875364196
40
0.9952467240
40
1.0000000000
40
1.0000000000
40
1.0000000000
40
1.0000000000
10
0.1177203736
20
20.8842188555
30
0.0000000000
10
0.1181087660
20
20.8751487137
30
0.0000000000
10
0.1189242744
20
20.8578485282
30
0.0000000000
10
0.1204608724
20
20.8329043342
30
0.0000000000
10
0.1222698051
20
20.8102860631
30
0.0000000000
10
0.1241269907
20
20.7930207872
30
0.0000000000
10
0.1259184142
20
20.7809304412
30
0.0000000000
10
0.1273102801
20
20.7735032219
30
0.0000000000
10
0.1286271976
20
20.7681255728
30
0.0000000000
10
0.1298092582
20
20.7645482172
30
0.0000000000
10
0.1306862134
20
20.7624217036
30
0.0000000000
10
0.1316073222
20
20.7607114323
30
0.0000000000
10
0.1325877467
20
20.7594471413
30
0.0000000000
10
0.1336971052
20
20.7586513701
30
0.0000000000
10
0.1350019966
20
20.7585310105
30
0.0000000000
10
0.1363168493
20
20.7592041633
30
0.0000000000
10
0.1376227395
20
20.7605705836
30
0.0000000000
10
0.1390211341
20
20.7627288403
30
0.0000000000
10
0.1405319919
20
20.7658314398
30
0.0000000000
10
0.1421902369
20
20.7700204087
30
0.0000000000
10
0.1439723156
20
20.7753819683
30
0.0000000000
10
0.1457978110
20
20.7817287463
30
0.0000000000
10
0.1481815722
20
20.7908002689
30
0.0000000000
10
0.1507440394
20
20.8018458855
30
0.0000000000
10
0.1534243526
20
20.8142376153
30
0.0000000000
10
0.1557590144
20
20.8253424917
30
0.0000000000
10
0.1578083437
20
20.8351323737
30
0.0000000000
10
0.1596436635
20
20.8436145872
30
0.0000000000
10
0.1612930264
20
20.8508297021
30
0.0000000000
10
0.1627879073
20
20.8568385384
30
0.0000000000
10
0.1639801060
20
20.8611151847
30
0.0000000000
10
0.1648878636
20
20.8639825604
30
0.0000000000
10
0.1654511199
20
20.8656015909
30
0.0000000000
10
0.1658107711
20
20.8665432817
30
0.0000000000
10
0.1659536228
20
20.8669000082
30
0.0000000000
11
0.1177203736
21
20.8842188555
31
0.0000000000
11
0.1190322597
21
20.8570151085
31
0.0000000000
11
0.1205737069
21
20.8323416622
31
0.0000000000
11
0.1224520641
21
20.8094046068
31
0.0000000000
11
0.1247284928
21
20.7891995881
31
0.0000000000
11
0.1260326304
21
20.7805648471
31
0.0000000000
11
0.1274618242
21
20.7731061821
31
0.0000000000
11
0.1290321780
21
20.7669658393
31
0.0000000000
11
0.1298788323
21
20.7644466699
31
0.0000000000
11
0.1307716185
21
20.7623270897
31
0.0000000000
11
0.1317149102
21
20.7606361096
31
0.0000000000
11
0.1327151343
21
20.7594220193
31
0.0000000000
11
0.1337792311
21
20.7587379288
31
0.0000000000
11
0.1349141408
21
20.7586369476
31
0.0000000000
11
0.1361269507
21
20.7591766758
31
0.0000000000
11
0.1374253368
21
20.7604326744
31
0.0000000000
11
0.1388209518
21
20.7624987216
31
0.0000000000
11
0.1403407670
21
20.7655235045
31
0.0000000000
11
0.1420081639
21
20.7696601955
31
0.0000000000
11
0.1438168476
21
20.7750250005
31
0.0000000000
11
0.1457268843
21
20.7815737803
31
0.0000000000
11
0.1475934617
21
20.7886579836
31
0.0000000000
11
0.1508056589
21
20.8022730889
31
0.0000000000
11
0.1535066479
21
20.8146793675
31
0.0000000000
11
0.1558500839
21
20.8257841519
31
0.0000000000
11
0.1579113641
21
20.8355658151
31
0.0000000000
11
0.1597517729
21
20.8440283690
31
0.0000000000
11
0.1614081272
21
20.8512183977
31
0.0000000000
11
0.1629097122
21
20.8571967636
31
0.0000000000
11
0.1642801550
21
20.8620388687
31
0.0000000000
11
0.1649230061
21
20.8640584977
31
0.0000000000
11
0.1655406009
21
20.8658235516
31
0.0000000000
11
0.1659536228
21
20.8669000082
31
0.0000000000
0
SPLINE
5
2FB
100
AcDbEntity
8
0
100
AcDbSpline
62
9
6
CONTINUOUS
70
0
71
3
72
15
73
11
74
9
42
0.0000001000
43
0.0000001000
44
0.0000000001
12
0.0028279333
22
0.0070618586
32
0.0000000000
13
0.0053794786
23
-0.0053786471
33
0.0000000000
40
0.0000000000
40
0.0000000000
40
0.0000000000
40
0.0000000000
40
0.0630246904
40
0.2479900382
40
0.5357025479
40
0.6425232712
40
0.7284493655
40
0.7986119050
40
0.8611092626
40
1.0000000000
40
1.0000000000
40
1.0000000000
40
1.0000000000
10
0.1659536228
20
20.8669000082
30
0.0000000000
10
0.1660130327
20
20.8670483653
30
0.0000000000
10
0.1662506718
20
20.8676304826
30
0.0000000000
10
0.1668006316
20
20.8688717359
30
0.0000000000
10
0.1674978476
20
20.8701759753
30
0.0000000000
10
0.1682623810
20
20.8711297204
30
0.0000000000
10
0.1687687302
20
20.8715709661
30
0.0000000000
10
0.1692783366
20
20.8718142687
30
0.0000000000
10
0.1699874692
20
20.8718480239
30
0.0000000000
10
0.1704476706
20
20.8715259513
30
0.0000000000
10
0.1706967238
20
20.8712769365
30
0.0000000000
11
0.1659536228
21
20.8669000082
31
0.0000000000
11
0.1661349157
21
20.8673437612
31
0.0000000000
11
0.1667079265
21
20.8686288572
31
0.0000000000
11
0.1677969178
21
20.8705273774
31
0.0000000000
11
0.1683154435
21
20.8711530380
31
0.0000000000
11
0.1688182676
21
20.8715706852
31
0.0000000000
11
0.1693065989
21
20.8717861090
31
0.0000000000
11
0.1697816460
21
20.8718050992
31
0.0000000000
11
0.1706967238
21
20.8712769365
31
0.0000000000
0
SPLINE
5
2FC
100
AcDbEntity
8
0
100
AcDbSpline
62
7
6
CONTINUOUS
70
0
71
3
72
8
73
4
74
2
42
0.0000001000
43
0.0000001000
44
0.0000000001
12
-0.0000512622
22
0.0187162508
32
0.0000000000
13
-0.0018172892
23
0.0186639755
33
0.0000000000
40
0.0000000000
40
0.0000000000
40
0.0000000000
40
0.0000000000
40
1.0000000000
40
1.0000000000
40
1.0000000000
40
1.0000000000
10
25.5371556683
20
20.8712769354
30
0.0000000000
10
25.5371385809
20
20.8775156857
30
0.0000000000
10
25.5368239176
20
20.8837622994
30
0.0000000000
10
25.5362181545
20
20.8899836246
30
0.0000000000
11
25.5371556683
21
20.8712769354
31
0.0000000000
11
25.5362181545
21
20.8899836246
31
0.0000000000
0
SPLINE
5
2FD
100
AcDbEntity
8
0
100
AcDbSpline
62
7
6
CONTINUOUS
70
0
71
3
72
9
73
5
74
3
42
0.0000001000
43
0.0000001000
44
0.0000000001
12
-0.0503506017
22
0.0135632392
32
0.0000000000
13
-0.0520823134
23
0.0001426584
33
0.0000000000
40
0.0000000000
40
0.0000000000
40
0.0000000000
40
0.0000000000
40
0.2493391281
40
1.0000000000
40
1.0000000000
40
1.0000000000
40
1.0000000000
10
25.3889841582
20
21.0640857335
30
0.0000000000
10
25.3847993665
20
21.0652130156
30
0.0000000000
10
25.3678682465
20
21.0691898713
30
0.0000000000
10
25.3504617668
20
21.0709671768
30
0.0000000000
10
25.3374297152
20
21.0710028728
30
0.0000000000
11
25.3889841582
21
21.0640857335
31
0.0000000000
11
25.3763266320
21
21.0670594410
31
0.0000000000
11
25.3374297152
21
21.0710028728
31
0.0000000000
0
SPLINE
5
2FE
100
AcDbEntity
8
0
100
AcDbSpline
62
9
6
CONTINUOUS
70
0
71
3
72
21
73
17
74
15
42
0.0000001000
43
0.0000001000
44
0.0000000001
12
0.3143753817
22
0.0021390278
32
0.0000000000
13
-0.0021387714
23
-0.3143753835
33
0.0000000000
40
0.0000000000
40
0.0000000000
40
0.0000000000
40
0.0000000000
40
0.0707994392
40
0.1422274488
40
0.2140859712
40
0.2859352472
40
0.3575247883
40
0.4288165556
40
0.4999474185
40
0.5710745304
40
0.6423551193
40
0.7139273900
40
0.7857736327
40
0.8576456974
40
0.9291466025
40
1.0000000000
40
1.0000000000
40
1.0000000000
40
1.0000000000
10
25.2817755607
20
21.0153486877
30
0.0000000000
10
25.2891947609
20
21.0153991684
30
0.0000000000
10
25.3041178283
20
21.0146759378
30
0.0000000000
10
25.3263108299
20
21.0110953497
30
0.0000000000
10
25.3480689173
20
21.0050060608
30
0.0000000000
10
25.3690100878
20
20.9964788885
30
0.0000000000
10
25.3887928354
20
20.9856526390
30
0.0000000000
10
25.4071546312
20
20.9726910966
30
0.0000000000
10
25.4238898163
20
20.9577610543
30
0.0000000000
10
25.4388219416
20
20.9410293081
30
0.0000000000
10
25.4517848865
20
20.9226726598
30
0.0000000000
10
25.4626135992
20
20.9028950586
30
0.0000000000
10
25.4711451227
20
20.8819564290
30
0.0000000000
10
25.4772413824
20
20.8601911830
30
0.0000000000
10
25.4808274878
20
20.8379840337
30
0.0000000000
10
25.4815519807
20
20.8230476354
30
0.0000000000
10
25.4815014676
20
20.8156227808
30
0.0000000000
11
25.2817755607
21
21.0153486877
31
0.0000000000
11
25.3040074699
21
21.0142689034
31
0.0000000000
11
25.3261762072
21
21.0106902460
31
0.0000000000
11
25.3479307885
21
21.0045996970
31
0.0000000000
11
25.3688504344
21
20.9960795047
31
0.0000000000
11
25.3885932041
21
20.9852736708
31
0.0000000000
11
25.4069032447
21
20.9723477166
31
0.0000000000
11
25.4235899437
21
20.9574605753
31
0.0000000000
11
25.4384791591
21
20.9407773075
31
0.0000000000
11
25.4514064377
21
20.9224725041
31
0.0000000000
11
25.4622137166
21
20.9027367153
31
0.0000000000
11
25.4707381645
21
20.8818198329
31
0.0000000000
11
25.4768344623
21
20.8600624405
31
0.0000000000
11
25.4804199242
21
20.8378715881
31
0.0000000000
11
25.4815014676
21
20.8156227808
31
0.0000000000
0
SPLINE
5
2FF
100
AcDbEntity
8
0
100
AcDbSpline
62
9
6
CONTINUOUS
70
0
71
3
72
11
73
7
74
5
42
0.0000001000
43
0.0000001000
44
0.0000000001
12
0.7806005114
22
4.7922843152
32
0.0000000000
13
0.9761693115
23
4.7563031433
33
0.0000000000
40
0.0000000000
40
0.0000000000
40
0.0000000000
40
0.0000000000
40
0.2381543326
40
0.4866925287
40
0.7419735548
40
1.0000000000
40
1.0000000000
40
1.0000000000
40
1.0000000000
10
25.4075714126
20
25.8448342539
30
0.0000000000
10
25.4695392106
20
26.2252686781
30
0.0000000000
10
25.6040917155
20
27.0014441935
30
0.0000000000
10
25.8268819787
20
28.1814940706
30
0.0000000000
10
26.0679385623
20
29.3907470949
30
0.0000000000
10
26.2347251660
20
30.2046119349
30
0.0000000000
10
26.3186843318
20
30.6136959323
30
0.0000000000
11
25.4075714126
21
25.8448342539
31
0.0000000000
11
25.6039950051
21
26.9843740752
31
0.0000000000
11
25.8268367019
21
28.1703835972
31
0.0000000000
11
26.0681508036
21
29.3861688747
31
0.0000000000
11
26.3186843318
21
30.6136959323
31
0.0000000000
0
SPLINE
5
300
100
AcDbEntity
8
0
100
AcDbSpline
62
9
6
CONTINUOUS
70
0
71
3
72
13
73
9
74
7
42
0.0000001000
43
0.0000001000
44
0.0000000001
12
-0.4631253352
22
0.1024562827
32
0.0000000000
13
-0.4684804657
23
0.0742187259
33
0.0000000000
40
0.0000000000
40
0.0000000000
40
0.0000000000
40
0.0000000000
40
0.1430700939
40
0.2988559108
40
0.4650085877
40
0.6390180642
40
0.8182526563
40
1.0000000000
40
1.0000000000
40
1.0000000000
40
1.0000000000
10
25.8739086221
20
25.7585164840
30
0.0000000000
10
25.8518221603
20
25.7634026274
30
0.0000000000
10
25.8056075363
20
25.7732548035
30
0.0000000000
10
25.7335213599
20
25.7877180143
30
0.0000000000
10
25.6564825529
20
25.8023417697
30
0.0000000000
10
25.5756618764
20
25.8169018201
30
0.0000000000
10
25.4922876464
20
25.8311754312
30
0.0000000000
10
25.4359531060
20
25.8403379018
30
0.0000000000
10
25.4075714126
20
25.8448342539
30
0.0000000000
11
25.8739086221
21
25.7585164840
31
0.0000000000
11
25.8075476653
21
25.7727079997
31
0.0000000000
11
25.7351046741
21
25.7872737034
31
0.0000000000
11
25.6576812156
21
25.8019921093
31
0.0000000000
11
25.5764545902
21
25.8166394095
31
0.0000000000
11
25.4926599290
21
25.8309928772
31
0.0000000000
11
25.4075714126
21
25.8448342539
31
0.0000000000
0
SPLINE
5
301
100
AcDbEntity
8
0
100
AcDbSpline
62
9
6
CONTINUOUS
70
0
71
3
72
11
73
7
74
5
42
0.0000001000
43
0.0000001000
44
0.0000000001
12
0.3798117933
22
4.8607703014
32
0.0000000000
13
0.4760463843
23
4.8522906716
33
0.0000000000
40
0.0000000000
40
0.0000000000
40
0.0000000000
40
0.0000000000
40
0.2383428093
40
0.4868140653
40
0.7419551748
40
1.0000000000
40
1.0000000000
40
1.0000000000
40
1.0000000000
10
25.8739086221
20
25.7585164840
30
0.0000000000
10
25.9040837587
20
26.1446930337
30
0.0000000000
10
25.9696883653
20
26.9331484757
30
0.0000000000
10
26.0785193501
20
28.1340558546
30
0.0000000000
10
26.1963137214
20
29.3662831771
30
0.0000000000
10
26.2777372746
20
30.1963266491
30
0.0000000000
10
26.3186843766
20
30.6136961486
30
0.0000000000
11
25.8739086221
21
25.7585164840
31
0.0000000000
11
25.9697141794
21
26.9166214416
31
0.0000000000
11
26.0785185439
21
28.1231686112
31
0.0000000000
11
26.1963729930
21
29.3615357740
31
0.0000000000
11
26.3186843766
21
30.6136961486
31
0.0000000000
0
SPLINE
5
302
100
AcDbEntity
8
0
100
AcDbSpline
62
9
6
CONTINUOUS
70
0
71
3
72
14
73
10
74
8
42
0.0000001000
43
0.0000001000
44
0.0000000001
12
0.0718626450
22
2.7912960882
32
0.0000000000
13
0.4762106363
23
2.7513126906
33
0.0000000000
40
0.0000000000
40
0.0000000000
40
0.0000000000
40
0.0000000000
40
0.1061271446
40
0.2255115536
40
0.3603499687
40
0.5114533393
40
0.6750366993
40
0.8455054224
40
1.0000000000
40
1.0000000000
40
1.0000000000
40
1.0000000000
10
24.9534682584
20
23.0930120904
30
0.0000000000
10
24.9560104509
20
23.1917561849
30
0.0000000000
10
24.9682329105
20
23.4014306302
30
0.0000000000
10
25.0053049864
20
23.7348844894
30
0.0000000000
10
25.0631132386
20
24.1077771438
30
0.0000000000
10
25.1405541994
20
24.5189845980
30
0.0000000000
10
25.2325069901
20
24.9610839384
30
0.0000000000
10
25.3260447326
20
25.4060641403
30
0.0000000000
10
25.3830474256
20
25.7031466232
30
0.0000000000
10
25.4075714126
20
25.8448342539
30
0.0000000000
11
24.9534682584
21
23.0930120904
31
0.0000000000
11
24.9699456191
21
23.3888840678
31
0.0000000000
11
25.0059432760
21
23.7202823581
31
0.0000000000
11
25.0626788587
21
24.0924816460
31
0.0000000000
11
25.1396565302
21
24.5073139796
31
0.0000000000
11
25.2313564806
21
24.9547752985
31
0.0000000000
11
25.3276680362
21
25.4209159290
31
0.0000000000
11
25.4075714126
21
25.8448342539
31
0.0000000000
0
SPLINE
5
303
100
AcDbEntity
8
0
100
AcDbSpline
62
9
6
CONTINUOUS
70
0
71
3
72
20
73
16
74
14
42
0.0000001000
43
0.0000001000
44
0.0000000001
12
-0.0918819710
22
0.7947784444
32
0.0000000000
13
-0.7999171481
23
0.0157362128
33
0.0000000000
40
0.0000000000
40
0.0000000000
40
0.0000000000
40
0.0000000000
40
0.0435553051
40
0.0909438753
40
0.1439251937
40
0.2035105487
40
0.2701080645
40
0.3436818621
40
0.4238728335
40
0.5100823580
40
0.6015309079
40
0.6973013955
40
0.7963736143
40
0.8976535779
40
1.0000000000
40
1.0000000000
40
1.0000000000
40
1.0000000000
10
25.6525085762
20
22.8046528844
30
0.0000000000
10
25.6511745938
20
22.8161918236
30
0.0000000000
10
25.6448408833
20
22.8399639001
30
0.0000000000
10
25.6258978228
20
22.8736972087
30
0.0000000000
10
25.5978559253
20
22.9061471908
30
0.0000000000
10
25.5611838868
20
22.9370175107
30
0.0000000000
10
25.5163635642
20
22.9660190484
30
0.0000000000
10
25.4639651209
20
22.9928124873
30
0.0000000000
10
25.4046675605
20
23.0170592833
30
0.0000000000
10
25.3392543268
20
23.0384374548
30
0.0000000000
10
25.2686010636
20
23.0566572864
30
0.0000000000
10
25.1936614442
20
23.0714691250
30
0.0000000000
10
25.1154510967
20
23.0826690717
30
0.0000000000
10
25.0350361153
20
23.0901025841
30
0.0000000000
10
24.9807578111
20
23.0924757014
30
0.0000000000
10
24.9534682584
20
23.0930125497
30
0.0000000000
11
25.6525085762
21
22.8046528844
31
0.0000000000
11
25.6438151030
21
22.8383984495
31
0.0000000000
11
25.6256563273
21
22.8716813324
31
0.0000000000
11
25.5982812229
21
22.9040451940
31
0.0000000000
11
25.5620651275
21
22.9350462954
31
0.0000000000
11
25.5175045975
21
22.9642595828
31
0.0000000000
11
25.4652105986
21
22.9912845148
31
0.0000000000
11
25.4059001299
21
23.0157505545
31
0.0000000000
11
25.3403863928
21
23.0373222495
31
0.0000000000
11
25.2695676409
21
23.0557038318
31
0.0000000000
11
25.1944148647
21
23.0706432728
31
0.0000000000
11
25.1159584781
21
23.0819357386
31
0.0000000000
11
25.0352741907
21
23.0894263989
31
0.0000000000
11
24.9534682584
21
23.0930125497
31
0.0000000000
0
SPLINE
5
304
100
AcDbEntity
8
0
100
AcDbSpline
62
9
6
CONTINUOUS
70
0
71
3
72
14
73
10
74
8
42
0.0000001000
43
0.0000001000
44
0.0000000001
12
0.0304147054
22
2.9627391261
32
0.0000000000
13
0.2308132484
23
2.9538912350
33
0.0000000000
40
0.0000000000
40
0.0000000000
40
0.0000000000
40
0.0000000000
40
0.1067400662
40
0.2265165673
40
0.3613795642
40
0.5120901943
40
0.6750548317
40
0.8451441394
40
1.0000000000
40
1.0000000000
40
1.0000000000
40
1.0000000000
10
25.6525085762
20
22.8046528844
30
0.0000000000
10
25.6535907321
20
22.9100672078
30
0.0000000000
10
25.6592848891
20
23.1337418637
30
0.0000000000
10
25.6771468245
20
23.4902318881
30
0.0000000000
10
25.7052952224
20
23.8895999365
30
0.0000000000
10
25.7431990742
20
24.3309766435
30
0.0000000000
10
25.7883188715
20
24.8066241936
30
0.0000000000
10
25.8342063682
20
25.2863085340
30
0.0000000000
10
25.8619943839
20
25.6060406924
30
0.0000000000
10
25.8739086453
20
25.7585164821
30
0.0000000000
11
25.6525085762
21
22.8046528844
31
0.0000000000
11
25.6601788878
21
23.1208194895
31
0.0000000000
11
25.6775287959
21
23.4752803524
31
0.0000000000
11
25.7051540886
21
23.8739092029
31
0.0000000000
11
25.7427980739
21
24.3188594591
31
0.0000000000
11
25.7877166474
21
24.7996127117
31
0.0000000000
11
25.8348793435
21
25.3013578025
31
0.0000000000
11
25.8739086453
21
25.7585164821
31
0.0000000000
0
SPLINE
5
305
100
AcDbEntity
8
0
100
AcDbSpline
62
9
6
CONTINUOUS
70
0
71
3
72
12
73
8
74
6
42
0.0000001000
43
0.0000001000
44
0.0000000001
12
0.0821992148
22
1.7650967627
32
0.0000000000
13
0.0455141497
23
1.7664234358
33
0.0000000000
40
0.0000000000
40
0.0000000000
40
0.0000000000
40
0.0000000000
40
0.1866567922
40
0.3805269420
40
0.5810642577
40
0.7877254041
40
1.0000000000
40
1.0000000000
40
1.0000000000
40
1.0000000000
10
24.8910914731
20
21.3271337266
30
0.0000000000
10
24.8962058204
20
21.4369561599
30
0.0000000000
10
24.9060690170
20
21.6608716375
30
0.0000000000
10
24.9195750709
20
22.0028547906
30
0.0000000000
10
24.9320488497
20
22.3566673499
30
0.0000000000
10
24.9434572551
20
22.7213614477
30
0.0000000000
10
24.9502477592
20
22.9680231500
30
0.0000000000
10
24.9534682584
20
23.0930120904
30
0.0000000000
11
24.8910914731
21
21.3271337266
31
0.0000000000
11
24.9056370182
21
21.6566371980
31
0.0000000000
11
24.9191827202
21
21.9989397214
31
0.0000000000
11
24.9316910228
21
22.3530702690
31
0.0000000000
11
24.9431288439
21
22.7180633500
31
0.0000000000
11
24.9534682584
21
23.0930120904
31
0.0000000000
0
SPLINE
5
306
100
AcDbEntity
8
0
100
AcDbSpline
62
7
6
CONTINUOUS
70
0
71
3
72
21
73
17
74
15
42
0.0000001000
43
0.0000001000
44
0.0000000001
12
-0.0573045804
22
0.8955973933
32
0.0000000000
13
-0.8971332370
23
0.0230317329
33
0.0000000000
40
0.0000000000
40
0.0000000000
40
0.0000000000
40
0.0000000000
40
0.0543380958
40
0.1104272605
40
0.1687028458
40
0.2297414161
40
0.2940734204
40
0.3618870546
40
0.4327753737
40
0.5069044416
40
0.5843655279
40
0.6643427291
40
0.7463650846
40
0.8301113473
40
0.9150231552
40
1.0000000000
40
1.0000000000
40
1.0000000000
40
1.0000000000
10
25.5901321330
20
20.8842241145
30
0.0000000000
10
25.5890941924
20
20.9004458002
30
0.0000000000
10
25.5841125694
20
20.9332905461
30
0.0000000000
10
25.5683317351
20
20.9814442860
30
0.0000000000
10
25.5444011709
20
21.0283595630
30
0.0000000000
10
25.5126939158
20
21.0734233553
30
0.0000000000
10
25.4735953818
20
21.1161708965
30
0.0000000000
10
25.4276302595
20
21.1560563234
30
0.0000000000
10
25.3753904394
20
21.1926297122
30
0.0000000000
10
25.3174448722
20
21.2255479196
30
0.0000000000
10
25.2543956555
20
21.2544385015
30
0.0000000000
10
25.1870034756
20
21.2789352852
30
0.0000000000
10
25.1161392819
20
21.2987428384
30
0.0000000000
10
25.0425786249
20
21.3136405678
30
0.0000000000
10
24.9672800121
20
21.3234271960
30
0.0000000000
10
24.9165033238
20
21.3264815019
30
0.0000000000
10
24.8910914732
20
21.3271338899
30
0.0000000000
11
25.5901321330
21
20.8842241145
31
0.0000000000
11
25.5828966336
21
20.9324489131
31
0.0000000000
11
25.5673564362
21
20.9803260323
31
0.0000000000
11
25.5437471295
21
21.0269918800
31
0.0000000000
11
25.5123788638
21
21.0718988539
31
0.0000000000
11
25.4735483402
21
21.1146227977
31
0.0000000000
11
25.4276943774
21
21.1546365373
31
0.0000000000
11
25.3756660161
21
21.1912452858
31
0.0000000000
11
25.3178843515
21
21.2242139032
31
0.0000000000
11
25.2547315588
21
21.2532685569
31
0.0000000000
11
25.1873054053
21
21.2778693458
31
0.0000000000
11
25.1164302169
21
21.2977446043
31
0.0000000000
11
25.0427778491
21
21.3127045420
31
0.0000000000
11
24.9672142618
21
21.3225501236
31
0.0000000000
11
24.8910914732
21
21.3271338899
31
0.0000000000
0
SPLINE
5
307
100
AcDbEntity
8
0
100
AcDbSpline
62
9
6
CONTINUOUS
70
0
71
3
72
12
73
8
74
6
42
0.0000001000
43
0.0000001000
44
0.0000000001
12
0.0822046738
22
1.9197150771
32
0.0000000000
13
0.0455121807
23
1.9209352481
33
0.0000000000
40
0.0000000000
40
0.0000000000
40
0.0000000000
40
0.0000000000
40
0.1866445887
40
0.3805044914
40
0.5810386943
40
0.7877004835
40
1.0000000000
40
1.0000000000
40
1.0000000000
40
1.0000000000
10
25.5901319657
20
20.8842188871
30
0.0000000000
10
25.5952463182
20
21.0036536974
30
0.0000000000
10
25.6051094512
20
21.2471648252
30
0.0000000000
10
25.6186152732
20
21.6190709239
30
0.0000000000
10
25.6310888401
20
22.0038408846
30
0.0000000000
10
25.6424975071
20
22.4004591958
30
0.0000000000
10
25.6492881942
20
22.6687149854
30
0.0000000000
10
25.6525089322
20
22.8046528602
30
0.0000000000
11
25.5901319657
21
20.8842188871
31
0.0000000000
11
25.6046773418
21
21.2425565862
31
0.0000000000
11
25.6182227183
21
21.6148070504
31
0.0000000000
11
25.6307309078
21
21.9999253008
31
0.0000000000
11
25.6421686312
21
22.3968558656
31
0.0000000000
11
25.6525089322
21
22.8046528602
31
0.0000000000
0
SPLINE
5
308
100
AcDbEntity
8
0
100
AcDbSpline
62
9
6
CONTINUOUS
70
0
71
3
72
15
73
11
74
9
42
0.0000001000
43
0.0000001000
44
0.0000000001
12
0.0053754840
22
0.0053746519
32
0.0000000000
13
0.0028269234
23
-0.0070561774
33
0.0000000000
40
0.0000000000
40
0.0000000000
40
0.0000000000
40
0.0000000000
40
0.1389483847
40
0.2014661075
40
0.2716384874
40
0.3575640893
40
0.4643755272
40
0.7520464242
40
0.9369808426
40
1.0000000000
40
1.0000000000
40
1.0000000000
40
1.0000000000
10
25.5371556209
20
20.8712769365
30
0.0000000000
10
25.5374045925
20
20.8715258696
30
0.0000000000
10
25.5378645679
20
20.8718478308
30
0.0000000000
10
25.5385733994
20
20.8718143733
30
0.0000000000
10
25.5390828092
20
20.8715714500
30
0.0000000000
10
25.5395889556
20
20.8711307242
30
0.0000000000
10
25.5403531403
20
20.8701780262
30
0.0000000000
10
25.5410500360
20
20.8688750865
30
0.0000000000
10
25.5415997280
20
20.8676350343
30
0.0000000000
10
25.5418372483
20
20.8670534728
30
0.0000000000
10
25.5418966317
20
20.8669052480
30
0.0000000000
11
25.5371556209
21
20.8712769365
31
0.0000000000
11
25.5380703419
21
20.8718050242
31
0.0000000000
11
25.5385451977
21
20.8717862134
31
0.0000000000
11
25.5390333262
21
20.8715711269
31
0.0000000000
11
25.5395359340
21
20.8711539848
31
0.0000000000
11
25.5400542276
21
20.8705290075
31
0.0000000000
11
25.5411426988
21
20.8686324277
31
0.0000000000
11
25.5417154188
21
20.8673486035
31
0.0000000000
11
25.5418966317
21
20.8669052480
31
0.0000000000
0
SPLINE
5
309
100
AcDbEntity
8
0
100
AcDbSpline
62
9
6
CONTINUOUS
70
0
71
3
72
40
73
36
74
34
42
0.0000001000
43
0.0000001000
44
0.0000000001
12
0.0901957291
22
-0.2251341728
32
0.0000000000
13
0.0103760494
23
0.2423110399
33
0.0000000000
40
0.0000000000
40
0.0000000000
40
0.0000000000
40
0.0000000000
40
0.0047488048
40
0.0124522768
40
0.0211838322
40
0.0419161857
40
0.0673106309
40
0.0977062781
40
0.1333855724
40
0.1745726105
40
0.2213242859
40
0.2736333347
40
0.3312549936
40
0.3612988987
40
0.3893017522
40
0.4126941472
40
0.4312186377
40
0.4452829230
40
0.4556400123
40
0.4631508947
40
0.4686589816
40
0.4733576698
40
0.4785536760
40
0.4849991658
40
0.4929090939
40
0.5130768710
40
0.5389637800
40
0.5702362060
40
0.6064388082
40
0.6469942306
40
0.6910185622
40
0.7376073617
40
0.7860884848
40
0.8879376323
40
1.0000000000
40
1.0000000000
40
1.0000000000
40
1.0000000000
10
25.5418966317
20
20.8669052480
30
0.0000000000
10
25.5420394057
20
20.8665488752
30
0.0000000000
10
25.5423988711
20
20.8656080798
30
0.0000000000
10
25.5429618379
20
20.8639905327
30
0.0000000000
10
25.5438691520
20
20.8611256179
30
0.0000000000
10
25.5450607436
20
20.8568525629
30
0.0000000000
10
25.5465547672
20
20.8508488321
30
0.0000000000
10
25.5482030562
20
20.8436397690
30
0.0000000000
10
25.5500371842
20
20.8351643314
30
0.0000000000
10
25.5520851595
20
20.8253825957
30
0.0000000000
10
25.5544175844
20
20.8142867960
30
0.0000000000
10
25.5570947117
20
20.8019061260
30
0.0000000000
10
25.5596521566
20
20.7908810484
30
0.0000000000
10
25.5620244105
20
20.7818351646
30
0.0000000000
10
25.5638418630
20
20.7755059852
30
0.0000000000
10
25.5656211439
20
20.7701384551
30
0.0000000000
10
25.5672798485
20
20.7659244256
30
0.0000000000
10
25.5687939289
20
20.7627948383
30
0.0000000000
10
25.5701958039
20
20.7606150226
30
0.0000000000
10
25.5715019996
20
20.7592307914
30
0.0000000000
10
25.5728151229
20
20.7585376201
30
0.0000000000
10
25.5741233738
20
20.7586426155
30
0.0000000000
10
25.5752349545
20
20.7594278875
30
0.0000000000
10
25.5762166178
20
20.7606773784
30
0.0000000000
10
25.5775573977
20
20.7631351105
30
0.0000000000
10
25.5790217942
20
20.7672644630
30
0.0000000000
10
25.5805330194
20
20.7733327814
30
0.0000000000
10
25.5819151384
20
20.7807569403
30
0.0000000000
10
25.5831897963
20
20.7893979422
30
0.0000000000
10
25.5843718495
20
20.7990915794
30
0.0000000000
10
25.5854548512
20
20.8096408495
30
0.0000000000
10
25.5864301133
20
20.8208438248
30
0.0000000000
10
25.5876251291
20
20.8367189490
30
0.0000000000
10
25.5889281575
20
20.8578928779
30
0.0000000000
10
25.5897443843
20
20.8751675705
30
0.0000000000
10
25.5901319725
20
20.8842188868
30
0.0000000000
11
25.5418966317
21
20.8669052480
31
0.0000000000
11
25.5423094263
21
20.8658298522
31
0.0000000000
11
25.5429267035
21
20.8640664212
31
0.0000000000
11
25.5435692323
21
20.8620485578
31
0.0000000000
11
25.5449390022
21
20.8572104436
31
0.0000000000
11
25.5464397405
21
20.8512370875
31
0.0000000000
11
25.5480949719
21
20.8440533655
31
0.0000000000
11
25.5499341847
21
20.8355976695
31
0.0000000000
11
25.5519942007
21
20.8258231697
31
0.0000000000
11
25.5543352134
21
20.8147286354
31
0.0000000000
11
25.5570334202
21
20.8023322079
31
0.0000000000
11
25.5602407977
21
20.7887300829
31
0.0000000000
11
25.5620943791
21
20.7816831419
31
0.0000000000
11
25.5639925209
21
20.7751621648
31
0.0000000000
11
25.5657996164
21
20.7697842272
31
0.0000000000
11
25.5674712429
21
20.7656139832
31
0.0000000000
11
25.5689946574
21
20.7625620163
31
0.0000000000
11
25.5703926538
21
20.7604750489
31
0.0000000000
11
25.5716929318
21
20.7591992588
31
0.0000000000
11
25.5729072789
21
20.7586425072
31
0.0000000000
11
25.5740434061
21
20.7587312451
31
0.0000000000
11
25.5751086323
21
20.7594045993
31
0.0000000000
11
25.5761101784
21
20.7606048656
31
0.0000000000
11
25.5770552651
21
20.7622743397
31
0.0000000000
11
25.5787995400
21
20.7668441146
31
0.0000000000
11
25.5803722044
21
20.7729223905
31
0.0000000000
11
25.5817986016
21
20.7803716536
31
0.0000000000
11
25.5831040754
21
20.7890543904
31
0.0000000000
11
25.5843081467
21
20.7988164465
31
0.0000000000
11
25.5854070470
21
20.8094371046
31
0.0000000000
11
25.5863953168
21
20.8206931289
31
0.0000000000
11
25.5872840225
21
20.8324177729
31
0.0000000000
11
25.5888216610
21
20.8570716578
31
0.0000000000
11
25.5901319725
21
20.8842188868
31
0.0000000000
0
SPLINE
5
30A
100
AcDbEntity
8
0
100
AcDbSpline
62
9
6
CONTINUOUS
70
0
71
3
72
27
73
23
74
21
42
0.0000001000
43
0.0000001000
44
0.0000000001
12
0.0362402490
22
-0.5161371762
32
0.0000000000
13
-0.4658609120
23
-0.2427011260
33
0.0000000000
40
0.0000000000
40
0.0000000000
40
0.0000000000
40
0.0000000000
40
0.0260047209
40
0.0501311683
40
0.0748472776
40
0.1033127060
40
0.1363140411
40
0.1742615903
40
0.2174577789
40
0.2661838567
40
0.3203382499
40
0.3804535564
40
0.4467043667
40
0.5196639971
40
0.5989869982
40
0.6855345630
40
0.7762882454
40
0.8532888864
40
0.9144560237
40
0.9609050088
40
0.9938982182
40
1.0000000000
40
1.0000000000
40
1.0000000000
40
1.0000000000
10
0.8167608298
20
21.3271337266
30
0.0000000000
10
0.8170749689
20
21.3226597255
30
0.0000000000
10
0.8169420589
20
21.3139439244
30
0.0000000000
10
0.8137723155
20
21.3012977840
30
0.0000000000
10
0.8075154425
20
21.2894343239
30
0.0000000000
10
0.7988317985
20
21.2773185187
30
0.0000000000
10
0.7867922091
20
21.2650291719
30
0.0000000000
10
0.7715477650
20
21.2525323750
30
0.0000000000
10
0.7530233805
20
21.2398945208
30
0.0000000000
10
0.7312451796
20
21.2272069946
30
0.0000000000
10
0.7064431742
20
21.2139567847
30
0.0000000000
10
0.6783086849
20
21.2006049898
30
0.0000000000
10
0.6469457412
20
21.1865228369
30
0.0000000000
10
0.6121869866
20
21.1719432824
30
0.0000000000
10
0.5741003620
20
21.1562546640
30
0.0000000000
10
0.5328978695
20
21.1400849393
30
0.0000000000
10
0.4920780466
20
21.1240503596
30
0.0000000000
10
0.4553338835
20
21.1095815939
30
0.0000000000
10
0.4257136621
20
21.0979594643
30
0.0000000000
10
0.4032701304
20
21.0886192925
30
0.0000000000
10
0.3896615568
20
21.0832136140
30
0.0000000000
10
0.3835758764
20
21.0800395043
30
0.0000000000
10
0.3826283492
20
21.0795458679
30
0.0000000000
11
0.8167608298
21
21.3271337266
31
0.0000000000
11
0.8164015689
21
21.3136834756
31
0.0000000000
11
0.8133374486
21
21.3015821610
31
0.0000000000
11
0.8075911771
21
21.2901575715
31
0.0000000000
11
0.7990206084
21
21.2781798282
31
0.0000000000
11
0.7872001398
21
21.2658575992
31
0.0000000000
11
0.7720875133
21
21.2533229796
31
0.0000000000
11
0.7536812390
21
21.2406448971
31
0.0000000000
11
0.7319834867
21
21.2278068649
31
0.0000000000
11
0.7072555419
21
21.2146294538
31
0.0000000000
11
0.6792222146
21
21.2011535580
31
0.0000000000
11
0.6479474442
21
21.1871208274
31
0.0000000000
11
0.6131845359
21
21.1724036822
31
0.0000000000
11
0.5752113478
21
21.1568309079
31
0.0000000000
11
0.5335748141
21
21.1403481058
31
0.0000000000
11
0.4898708042
21
21.1231757840
31
0.0000000000
11
0.4527953777
21
21.1085916373
31
0.0000000000
11
0.4233809546
21
21.0969121497
31
0.0000000000
11
0.4011368578
21
21.0878133195
31
0.0000000000
11
0.3854787871
21
21.0810131676
31
0.0000000000
11
0.3826283492
21
21.0795458679
31
0.0000000000
0
SPLINE
5
30B
100
AcDbEntity
8
0
100
AcDbSpline
62
9
6
CONTINUOUS
70
0
71
3
72
10
73
6
74
4
42
0.0000001000
43
0.0000001000
44
0.0000000001
12
-0.0140721821
22
-0.0073312320
32
0.0000000000
13
0.0126942624
23
-0.0091175253
33
0.0000000000
40
0.0000000000
40
0.0000000000
40
0.0000000000
40
0.0000000000
40
0.4991694460
40
0.8734152092
40
1.0000000000
40
1.0000000000
40
1.0000000000
40
1.0000000000
10
0.3826283492
20
21.0795458679
30
0.0000000000
10
0.3802868814
20
21.0783260255
30
0.0000000000
10
0.3762145058
20
21.0762104836
30
0.0000000000
10
0.3715506006
20
21.0748261171
30
0.0000000000
10
0.3698869960
20
21.0713875555
30
0.0000000000
10
0.3704226295
20
21.0710028422
30
0.0000000000
11
0.3826283492
21
21.0795458679
31
0.0000000000
11
0.3756316624
21
21.0762039611
31
0.0000000000
11
0.3707708904
21
21.0729503747
31
0.0000000000
11
0.3704226295
21
21.0710028422
31
0.0000000000
0
SPLINE
5
30C
100
AcDbEntity
8
0
100
AcDbSpline
62
9
6
CONTINUOUS
70
0
71
3
72
27
73
23
74
21
42
0.0000001000
43
0.0000001000
44
0.0000000001
12
-0.0350281401
22
-0.5171194374
32
0.0000000000
13
0.4663467673
23
-0.2412102340
33
0.0000000000
40
0.0000000000
40
0.0000000000
40
0.0000000000
40
0.0000000000
40
0.0261473872
40
0.0500721130
40
0.0745133482
40
0.1026787474
40
0.1357512539
40
0.1731277189
40
0.2156326717
40
0.2641443469
40
0.3180702740
40
0.3778577597
40
0.4438132930
40
0.5164018723
40
0.5952346818
40
0.6810643488
40
0.7718050427
40
0.8496816135
40
0.9114800535
40
0.9584159001
40
0.9917543340
40
1.0000000000
40
1.0000000000
40
1.0000000000
40
1.0000000000
10
24.8910915149
20
21.3271337266
30
0.0000000000
10
24.8907862168
20
21.3226266192
30
0.0000000000
10
24.8909055094
20
21.3139016431
30
0.0000000000
10
24.8941534031
20
21.3013132248
30
0.0000000000
10
24.9002760237
20
21.2895270643
30
0.0000000000
10
24.9087386220
20
21.2772992040
30
0.0000000000
10
24.9210993045
20
21.2654690884
30
0.0000000000
10
24.9359889729
20
21.2528606087
30
0.0000000000
10
24.9541440842
20
21.2400386367
30
0.0000000000
10
24.9758964703
20
21.2276002523
30
0.0000000000
10
25.0006174891
20
21.2143874389
30
0.0000000000
10
25.0286358762
20
21.2010061870
30
0.0000000000
10
25.0598974273
20
21.1869718842
30
0.0000000000
10
25.0945214381
20
21.1724194476
30
0.0000000000
10
25.1324129688
20
21.1567856317
30
0.0000000000
10
25.1734963488
20
21.1406797100
30
0.0000000000
10
25.2143963221
20
21.1245732143
30
0.0000000000
10
25.2514545212
20
21.1100092963
30
0.0000000000
10
25.2814438460
20
21.0982374202
30
0.0000000000
10
25.3041659608
20
21.0887905691
30
0.0000000000
10
25.3182706014
20
21.0831968296
30
0.0000000000
10
25.3247542998
20
21.0797776510
30
0.0000000000
10
25.3260360797
20
21.0791146713
30
0.0000000000
11
24.8910915149
21
21.3271337266
31
0.0000000000
11
24.8914734279
21
21.3135868023
31
0.0000000000
11
24.8945618278
21
21.3015772639
31
0.0000000000
11
24.9001912203
21
21.2902287760
31
0.0000000000
11
24.9085981733
21
21.2782942849
31
0.0000000000
11
24.9206603943
21
21.2661148683
31
0.0000000000
11
24.9354805030
21
21.2536387402
31
0.0000000000
11
24.9534668836
21
21.2409173692
31
0.0000000000
11
24.9751370195
21
21.2281652437
31
0.0000000000
11
24.9998152358
21
21.2150430959
31
0.0000000000
11
25.0277217077
21
21.2015711870
31
0.0000000000
11
25.0589039791
21
21.1875610741
31
0.0000000000
11
25.0935418036
21
21.1728740081
31
0.0000000000
11
25.1313387580
21
21.1573536873
31
0.0000000000
11
25.1727015242
21
21.1409794216
31
0.0000000000
11
25.2164685651
21
21.1237634505
31
0.0000000000
11
25.2540348933
21
21.1089984564
31
0.0000000000
11
25.2838052210
21
21.0971800618
31
0.0000000000
11
25.3063243226
21
21.0879770309
31
0.0000000000
11
25.3221774156
21
21.0811025047
31
0.0000000000
11
25.3260360797
21
21.0791146713
31
0.0000000000
0
SPLINE
5
30D
100
AcDbEntity
8
0
100
AcDbSpline
62
9
6
CONTINUOUS
70
0
71
3
72
10
73
6
74
4
42
0.0000001000
43
0.0000001000
44
0.0000000001
12
0.0132487525
22
-0.0068527004
32
0.0000000000
13
-0.0119612111
23
-0.0085878224
33
0.0000000000
40
0.0000000000
40
0.0000000000
40
0.0000000000
40
0.0000000000
40
0.4628244877
40
0.8645798022
40
1.0000000000
40
1.0000000000
40
1.0000000000
40
1.0000000000
10
25.3260360797
20
21.0791146713
30
0.0000000000
10
25.3280800287
20
21.0780574721
30
0.0000000000
10
25.3318798679
20
21.0761538477
30
0.0000000000
10
25.3362634793
20
21.0748608989
30
0.0000000000
10
25.3379696450
20
21.0713904971
30
0.0000000000
10
25.3374297152
20
21.0710028422
30
0.0000000000
11
25.3260360797
21
21.0791146713
31
0.0000000000
11
25.3321454430
21
21.0762445591
31
0.0000000000
11
25.3370681868
21
21.0729638374
31
0.0000000000
11
25.3374297152
21
21.0710028422
31
0.0000000000
0
SPLINE
5
30E
100
AcDbEntity
8
0
100
AcDbSpline
62
9
6
CONTINUOUS
70
0
71
3
72
18
73
14
74
12
42
0.0000001000
43
0.0000001000
44
0.0000000001
12
0.1778503403
22
48.6320051363
32
0.0000000000
13
-0.1778616284
23
48.6320050950
33
0.0000000000
40
0.0000000000
40
0.0000000000
40
0.0000000000
40
0.0000000000
40
0.0907988196
40
0.1816644427
40
0.2725810030
40
0.3635339931
40
0.4545088995
40
0.5454911693
40
0.6364660722
40
0.7274190536
40
0.8183356000
40
0.9092012040
40
1.0000000000
40
1.0000000000
40
1.0000000000
40
1.0000000000
10
25.6525145492
20
-25.8275701777
30
0.0000000000
10
25.6578974162
20
-24.3556606242
30
0.0000000000
10
25.6676844967
20
-21.4107549002
30
0.0000000000
10
25.6794269074
20
-16.9920203978
30
0.0000000000
10
25.6882352851
20
-12.5707798243
30
0.0000000000
10
25.6941081571
20
-8.1477628136
30
0.0000000000
10
25.6970445775
20
-3.7236776763
30
0.0000000000
10
25.6970440666
20
0.7007636587
30
0.0000000000
10
25.6941066246
20
5.1248485972
30
0.0000000000
10
25.6882327309
20
9.5478651829
30
0.0000000000
10
25.6794233320
20
13.9691050776
30
0.0000000000
10
25.6676799005
20
18.3878386598
30
0.0000000000
10
25.6578921394
20
21.3327436896
30
0.0000000000
10
25.6525089322
20
22.8046528602
30
0.0000000000
11
25.6525145492
21
-25.8275701777
31
0.0000000000
11
25.6671909510
21
-21.4118363787
31
0.0000000000
11
25.6789349865
21
-16.9928449856
31
0.0000000000
11
25.6877445376
21
-12.5713695656
31
0.0000000000
11
25.6936181919
21
-8.1481176067
31
0.0000000000
11
25.6965550034
21
-3.7237968796
31
0.0000000000
11
25.6965544925
21
0.7008829191
31
0.0000000000
11
25.6936166591
21
5.1252034739
31
0.0000000000
11
25.6877419831
21
9.5484550089
31
0.0000000000
11
25.6789314106
21
13.9699297500
31
0.0000000000
11
25.6671863543
21
18.3889202094
31
0.0000000000
11
25.6525089322
21
22.8046528602
31
0.0000000000
0
SPLINE
5
30F
100
AcDbEntity
8
0
100
AcDbSpline
62
9
6
CONTINUOUS
70
0
71
3
72
23
73
19
74
17
42
0.0000001000
43
0.0000001000
44
0.0000000001
12
0.3097657232
22
64.2513454614
32
0.0000000000
13
-0.3097657241
23
64.2513454614
33
0.0000000000
40
0.0000000000
40
0.0000000000
40
0.0000000000
40
0.0000000000
40
0.0623560996
40
0.1247697483
40
0.1872327337
40
0.2497368367
40
0.3122738378
40
0.3748355174
40
0.4374136534
40
0.5000000192
40
0.5625863851
40
0.6251645210
40
0.6877262006
40
0.7502632017
40
0.8127673047
40
0.8752302900
40
0.9376439388
40
1.0000000000
40
1.0000000000
40
1.0000000000
40
1.0000000000
10
26.3186843776
20
-33.6381491474
30
0.0000000000
10
26.3251229717
20
-32.3026613825
30
0.0000000000
10
26.3371959866
20
-29.6304493385
30
0.0000000000
10
26.3528877890
20
-25.6204481869
30
0.0000000000
10
26.3661689625
20
-21.6072684517
30
0.0000000000
10
26.3770377549
20
-17.5914395707
30
0.0000000000
10
26.3854927427
20
-13.5734911071
30
0.0000000000
10
26.3915328110
20
-9.5539526953
30
0.0000000000
10
26.3951571677
20
-5.5333541168
30
0.0000000000
10
26.3963653388
20
-1.5122253718
30
0.0000000000
10
26.3951571662
20
2.5089033732
30
0.0000000000
10
26.3915328081
20
6.5295019512
30
0.0000000000
10
26.3854927383
20
10.5490403622
30
0.0000000000
10
26.3770377490
20
14.5669888247
30
0.0000000000
10
26.3661689551
20
18.5828177041
30
0.0000000000
10
26.3528877800
20
22.5959974369
30
0.0000000000
10
26.3371959797
20
26.6059977660
30
0.0000000000
10
26.3251229670
20
29.2782089881
30
0.0000000000
10
26.3186843769
20
30.6136959323
30
0.0000000000
11
26.3186843776
21
-33.6381491474
31
0.0000000000
11
26.3367867462
21
-29.6316801864
31
0.0000000000
11
26.3524802760
21
-25.6215033798
31
0.0000000000
11
26.3657629080
21
-21.6081478654
31
0.0000000000
11
26.3766328942
21
-17.5921431907
31
0.0000000000
11
26.3850888086
21
-13.5740189271
31
0.0000000000
11
26.3911295393
21
-9.5543046622
31
0.0000000000
11
26.3947542935
21
-5.5335301380
31
0.0000000000
11
26.3959625972
21
-1.5122253717
31
0.0000000000
11
26.3947542921
21
2.5090793945
31
0.0000000000
11
26.3911295363
21
6.5298539183
31
0.0000000000
11
26.3850888042
21
10.5495681824
31
0.0000000000
11
26.3766328883
21
14.5676924448
31
0.0000000000
11
26.3657629006
21
18.5836971179
31
0.0000000000
11
26.3524802671
21
22.5970526305
31
0.0000000000
11
26.3367867358
21
26.6072294334
31
0.0000000000
11
26.3186843769
21
30.6136959323
31
0.0000000000
0
SPLINE
5
310
100
AcDbEntity
8
0
100
AcDbSpline
62
9
6
CONTINUOUS
70
0
71
3
72
23
73
19
74
17
42
0.0000001000
43
0.0000001000
44
0.0000000001
12
-0.3097657241
22
-64.2513454614
32
0.0000000000
13
0.3097657232
23
-64.2513454614
33
0.0000000000
40
0.0000000000
40
0.0000000000
40
0.0000000000
40
0.0000000000
40
0.0623560995
40
0.1247697482
40
0.1872327335
40
0.2497368364
40
0.3122738375
40
0.3748355170
40
0.4374136529
40
0.5000000187
40
0.5625863845
40
0.6251645204
40
0.6877261999
40
0.7502632009
40
0.8127673038
40
0.8752302891
40
0.9376439378
40
1.0000000000
40
1.0000000000
40
1.0000000000
40
1.0000000000
10
-0.6108320329
20
30.6136959323
30
0.0000000000
10
-0.6172706270
20
29.2782081692
30
0.0000000000
10
-0.6293436418
20
26.6059961287
30
0.0000000000
10
-0.6450354443
20
22.5959949819
30
0.0000000000
10
-0.6583166178
20
18.5828152511
30
0.0000000000
10
-0.6691854102
20
14.5669863740
30
0.0000000000
10
-0.6776403980
20
10.5490379142
30
0.0000000000
10
-0.6836804663
20
6.5294995064
30
0.0000000000
10
-0.6873048229
20
2.5089009322
30
0.0000000000
10
-0.6885129941
20
-1.5122278088
30
0.0000000000
10
-0.6873048215
20
-5.5333565497
30
0.0000000000
10
-0.6836804634
20
-9.5539551238
30
0.0000000000
10
-0.6776403936
20
-13.5734935307
30
0.0000000000
10
-0.6691854044
20
-17.5914419889
30
0.0000000000
10
-0.6583166106
20
-21.6072708642
30
0.0000000000
10
-0.6450354355
20
-25.6204505932
30
0.0000000000
10
-0.6293436352
20
-29.6304509406
30
0.0000000000
10
-0.6172706224
20
-32.3026621824
30
0.0000000000
10
-0.6108320322
20
-33.6381491474
30
0.0000000000
11
-0.6108320329
21
30.6136959323
31
0.0000000000
11
-0.6289344015
21
26.6072269768
31
0.0000000000
11
-0.6446279313
21
22.5970501752
31
0.0000000000
11
-0.6579105632
21
18.5836946649
31
0.0000000000
11
-0.6687805495
21
14.5676899940
31
0.0000000000
11
-0.6772364639
21
10.5495657342
31
0.0000000000
11
-0.6832771945
21
6.5298514733
31
0.0000000000
11
-0.6869019488
21
2.5090769534
31
0.0000000000
11
-0.6881102525
21
-1.5122278087
31
0.0000000000
11
-0.6869019474
21
-5.5335325710
31
0.0000000000
11
-0.6832771917
21
-9.5543070909
31
0.0000000000
11
-0.6772364596
21
-13.5740213510
31
0.0000000000
11
-0.6687805437
21
-17.5921456091
31
0.0000000000
11
-0.6579105560
21
-21.6081502778
31
0.0000000000
11
-0.6446279226
21
-25.6215057865
31
0.0000000000
11
-0.6289343914
21
-29.6316825862
31
0.0000000000
11
-0.6108320322
21
-33.6381491474
31
0.0000000000
0
SPLINE
5
311
100
AcDbEntity
8
0
100
AcDbSpline
62
9
6
CONTINUOUS
70
0
71
3
72
18
73
14
74
12
42
0.0000001000
43
0.0000001000
44
0.0000000001
12
-0.1778616284
22
-48.6320050950
32
0.0000000000
13
0.1778503403
23
-48.6320051363
33
0.0000000000
40
0.0000000000
40
0.0000000000
40
0.0000000000
40
0.0000000000
40
0.0907987959
40
0.1816643999
40
0.2725809463
40
0.3635339277
40
0.4545088306
40
0.5454911004
40
0.6364660068
40
0.7274189969
40
0.8183355572
40
0.9092011803
40
1.0000000000
40
1.0000000000
40
1.0000000000
40
1.0000000000
10
0.0553434125
20
22.8046528602
30
0.0000000000
10
0.0499602053
20
21.3327436914
30
0.0000000000
10
0.0401724442
20
18.3878386632
30
0.0000000000
10
0.0284290127
20
13.9691050826
30
0.0000000000
10
0.0196196138
20
9.5478651877
30
0.0000000000
10
0.0137457201
20
5.1248486021
30
0.0000000000
10
0.0108082781
20
0.7007636635
30
0.0000000000
10
0.0108077672
20
-3.7236776715
30
0.0000000000
10
0.0137441875
20
-8.1477628088
30
0.0000000000
10
0.0196170596
20
-12.5707798195
30
0.0000000000
10
0.0284254373
20
-16.9920203927
30
0.0000000000
10
0.0401678480
20
-21.4107548968
30
0.0000000000
10
0.0499549285
20
-24.3556606224
30
0.0000000000
10
0.0553377955
20
-25.8275701777
30
0.0000000000
11
0.0553434125
21
22.8046528602
31
0.0000000000
11
0.0406659905
21
18.3889202150
31
0.0000000000
11
0.0289209341
21
13.9699297548
31
0.0000000000
11
0.0201103616
21
9.5484550137
31
0.0000000000
11
0.0142356856
21
5.1252034787
31
0.0000000000
11
0.0112978522
21
0.7008829239
31
0.0000000000
11
0.0112973413
21
-3.7237968748
31
0.0000000000
11
0.0142341528
21
-8.1481176019
31
0.0000000000
11
0.0201078071
21
-12.5713695608
31
0.0000000000
11
0.0289173582
21
-16.9928449808
31
0.0000000000
11
0.0406613937
21
-21.4118363731
31
0.0000000000
11
0.0553377955
21
-25.8275701777
31
0.0000000000
0
SPLINE
5
312
100
AcDbEntity
8
0
100
AcDbSpline
62
9
6
CONTINUOUS
70
0
71
3
72
8
73
4
74
2
42
0.0000001000
43
0.0000001000
44
0.0000000001
12
0.3609947874
22
1.1243807622
32
0.1036425782
13
0.3619912573
23
1.1274844401
33
0.0612594451
40
0.0000000000
40
0.0000000000
40
0.0000000000
40
0.0000000000
40
1.0000000000
40
1.0000000000
40
1.0000000000
40
1.0000000000
10
7.9188934686
20
-33.6381491474
30
3.0225263186
10
8.0392250644
20
-33.2633555600
30
3.0570738447
10
8.1597654199
20
-32.8879117543
30
3.0845672502
10
8.2804291723
20
-32.5120836076
30
3.1049870652
11
7.9188934686
21
-33.6381491474
31
3.0225263186
11
8.2804291723
21
-32.5120836076
31
3.1049870652
0
SPLINE
5
313
100
AcDbEntity
8
0
100
AcDbSpline
62
9
6
CONTINUOUS
70
0
71
3
72
8
73
4
74
2
42
0.0000001000
43
0.0000001000
44
0.0000000001
12
0.3016590652
22
0.9395693830
32
0.0891628913
13
0.3017351616
23
0.9398063985
33
0.0866289796
40
0.0000000000
40
0.0000000000
40
0.0000000000
40
0.0000000000
40
1.0000000000
40
1.0000000000
40
1.0000000000
40
1.0000000000
10
7.6171961723
20
-34.5778376076
30
2.9346303299
10
7.7177491941
20
-34.2646478132
30
2.9643512937
10
7.8183150814
20
-33.9514179469
30
2.9936499921
10
7.9188934686
20
-33.6381491474
30
3.0225263186
11
7.6171961723
21
-34.5778376076
31
2.9346303299
11
7.9188934686
21
-33.6381491474
31
3.0225263186
0
SPLINE
5
314
100
AcDbEntity
8
0
100
AcDbSpline
62
9
6
CONTINUOUS
70
0
71
3
72
8
73
4
74
2
42
0.0000001000
43
0.0000001000
44
0.0000000001
12
-0.0299171642
22
-0.1043349000
32
-0.0092500667
13
-0.0299077212
23
-0.1043019678
33
-0.0096142919
40
0.0000000000
40
0.0000000000
40
0.0000000000
40
0.0000000000
40
1.0000000000
40
1.0000000000
40
1.0000000000
40
1.0000000000
10
12.8150931723
20
-33.5338306076
30
3.0319585075
10
12.8051207843
20
-33.5686089076
30
3.0288751519
10
12.7951499396
20
-33.6033818248
30
3.0257310826
10
12.7851806992
20
-33.6381491474
30
3.0225263186
11
12.8150931723
21
-33.5338306076
31
3.0319585075
11
12.7851806992
21
-33.6381491474
31
3.0225263186
0
SPLINE
5
315
100
AcDbEntity
8
0
100
AcDbSpline
62
9
6
CONTINUOUS
70
0
71
3
72
8
73
4
74
2
42
0.0000001000
43
0.0000001000
44
0.0000000001
12
0.3224107570
22
1.1243807622
32
0.1036425782
13
0.3233007217
23
1.1274844401
33
0.0612594451
40
0.0000000000
40
0.0000000000
40
0.0000000000
40
0.0000000000
40
1.0000000000
40
1.0000000000
40
1.0000000000
40
1.0000000000
10
12.1851563135
20
-33.6381491474
30
3.0225263186
10
12.2926265658
20
-33.2633555600
30
3.0570738447
10
12.4002832651
20
-32.8879117543
30
3.0845672502
10
12.5080501723
20
-32.5120836076
30
3.1049870652
11
12.1851563135
21
-33.6381491474
31
3.0225263186
11
12.5080501723
21
-32.5120836076
31
3.1049870652
0
SPLINE
5
316
100
AcDbEntity
8
0
100
AcDbSpline
62
9
6
CONTINUOUS
70
0
71
3
72
8
73
4
74
2
42
0.0000001000
43
0.0000001000
44
0.0000000001
12
0.2373207092
22
0.8276362811
32
0.0782723861
13
0.2373733499
23
0.8278198609
33
0.0763063435
40
0.0000000000
40
0.0000000000
40
0.0000000000
40
0.0000000000
40
1.0000000000
40
1.0000000000
40
1.0000000000
40
1.0000000000
10
11.9478091723
20
-34.4658776076
30
2.9452369175
10
12.0269160754
20
-34.1899988472
30
2.9713277129
10
12.1060318635
20
-33.9140891010
30
2.9970908708
10
12.1851563135
20
-33.6381491474
30
3.0225263186
11
11.9478091723
21
-34.4658776076
31
2.9452369175
11
12.1851563135
21
-33.6381491474
31
3.0225263186
0
SPLINE
5
317
100
AcDbEntity
8
0
100
AcDbSpline
62
9
6
CONTINUOUS
70
0
71
3
72
8
73
4
74
2
42
0.0000001000
43
0.0000001000
44
0.0000000001
12
0.2373741972
22
-0.8278198609
32
-0.0763063435
13
0.2373215564
23
-0.8276362811
33
-0.0782723861
40
0.0000000000
40
0.0000000000
40
0.0000000000
40
0.0000000000
40
1.0000000000
40
1.0000000000
40
1.0000000000
40
1.0000000000
10
11.7104611839
20
-33.6381491474
30
3.0225263186
10
11.7895859163
20
-33.9140891010
30
2.9970908708
10
11.8687019869
20
-34.1899988472
30
2.9713277129
10
11.9478091723
20
-34.4658776076
30
2.9452369175
11
11.7104611839
21
-33.6381491474
31
3.0225263186
11
11.9478091723
21
-34.4658776076
31
2.9452369175
0
SPLINE
5
318
100
AcDbEntity
8
0
100
AcDbSpline
62
9
6
CONTINUOUS
70
0
71
3
72
8
73
4
74
2
42
0.0000001000
43
0.0000001000
44
0.0000000001
12
0.3233018758
22
-1.1274844401
32
-0.0612594451
13
0.3224119080
23
-1.1243807622
33
-0.1036425782
40
0.0000000000
40
0.0000000000
40
0.0000000000
40
0.0000000000
40
1.0000000000
40
1.0000000000
40
1.0000000000
40
1.0000000000
10
11.3875661723
20
-32.5120836076
30
3.1049870652
10
11.4953334643
20
-32.8879117543
30
3.0845672502
10
11.6029905479
20
-33.2633555600
30
3.0570738447
10
11.7104611839
20
-33.6381491474
30
3.0225263186
11
11.3875661723
21
-32.5120836076
31
3.1049870652
11
11.7104611839
21
-33.6381491474
31
3.0225263186
0
SPLINE
5
319
100
AcDbEntity
8
0
100
AcDbSpline
62
9
6
CONTINUOUS
70
0
71
3
72
8
73
4
74
2
42
0.0000001000
43
0.0000001000
44
0.0000000001
12
-0.0299075852
22
0.1043019678
32
0.0096142919
13
-0.0299170282
23
0.1043349000
33
0.0092500667
40
0.0000000000
40
0.0000000000
40
0.0000000000
40
0.0000000000
40
1.0000000000
40
1.0000000000
40
1.0000000000
40
1.0000000000
10
11.1104285094
20
-33.6381491474
30
3.0225263186
10
11.1004593143
20
-33.6033818248
30
3.0257310826
10
11.0904885151
20
-33.5686089076
30
3.0288751519
10
11.0805161723
20
-33.5338306076
30
3.0319585075
11
11.1104285094
21
-33.6381491474
31
3.0225263186
11
11.0805161723
21
-33.5338306076
31
3.0319585075
0
SPLINE
5
31A
100
AcDbEntity
8
0
100
AcDbSpline
62
9
6
CONTINUOUS
70
0
71
3
72
8
73
4
74
2
42
0.0000001000
43
0.0000001000
44
0.0000000001
12
-0.5372332379
22
1.8735877060
32
0.1828705206
13
-0.5375074971
23
1.8745441785
33
0.1727907468
40
0.0000000000
40
0.0000000000
40
0.0000000000
40
0.0000000000
40
1.0000000000
40
1.0000000000
40
1.0000000000
40
1.0000000000
10
11.6478001723
20
-35.5122196076
30
2.8446952562
10
11.4687224264
20
-34.8876903722
30
2.9056520964
10
11.2895976751
20
-34.2629972069
30
2.9649294030
10
11.1104285094
20
-33.6381491474
30
3.0225263186
11
11.6478001723
21
-35.5122196076
31
2.8446952562
11
11.1104285094
21
-33.6381491474
31
3.0225263186
0
SPLINE
5
31B
100
AcDbEntity
8
0
100
AcDbSpline
62
9
6
CONTINUOUS
70
0
71
3
72
8
73
4
74
2
42
0.0000001000
43
0.0000001000
44
0.0000000001
12
-0.5375073604
22
-1.8745351739
32
-0.1727899167
13
-0.5372331025
23
-1.8735787107
33
-0.1828695938
40
0.0000000000
40
0.0000000000
40
0.0000000000
40
0.0000000000
40
1.0000000000
40
1.0000000000
40
1.0000000000
40
1.0000000000
10
12.7851806992
20
-33.6381491474
30
3.0225263186
10
12.6060115791
20
-34.2629942054
30
2.9649296797
10
12.4268868732
20
-34.8876843706
30
2.9056526659
10
12.2478091723
20
-35.5122106076
30
2.8446961347
11
12.7851806992
21
-33.6381491474
31
3.0225263186
11
12.2478091723
21
-35.5122106076
31
2.8446961347
0
SPLINE
5
31C
100
AcDbEntity
8
0
100
AcDbSpline
62
9
6
CONTINUOUS
70
0
71
3
72
8
73
4
74
2
42
0.0000001000
43
0.0000001000
44
0.0000000001
12
-0.1894044363
22
0.5899455231
32
0.0575813002
13
-0.1894354732
23
0.5900421949
33
0.0565821050
40
0.0000000000
40
0.0000000000
40
0.0000000000
40
0.0000000000
40
1.0000000000
40
1.0000000000
40
1.0000000000
40
1.0000000000
10
15.7416391723
20
-35.5122106076
30
2.8446961347
10
15.6785043603
20
-35.3155620999
30
2.8638899014
10
15.6153643301
20
-35.1188973392
30
2.8829171492
10
15.5522191723
20
-34.9222166076
30
2.9017778509
11
15.7416391723
21
-35.5122106076
31
2.8446961347
11
15.5522191723
21
-34.9222166076
31
2.9017778509
0
SPLINE
5
31D
100
AcDbEntity
8
0
100
AcDbSpline
62
9
6
CONTINUOUS
70
0
71
3
72
8
73
4
74
2
42
0.0000001000
43
0.0000001000
44
0.0000000001
12
0.6018555800
22
-1.8745441785
32
-0.1727907468
13
0.6015484876
23
-1.8735877060
33
-0.1828705206
40
0.0000000000
40
0.0000000000
40
0.0000000000
40
0.0000000000
40
1.0000000000
40
1.0000000000
40
1.0000000000
40
1.0000000000
10
15.7399656880
20
-33.6381491474
30
3.0225263186
10
15.9405842147
20
-34.2629972069
30
2.9649294030
10
16.1411530098
20
-34.8876903722
30
2.9056520964
10
16.3416691723
20
-35.5122196076
30
2.8446952562
11
15.7399656880
21
-33.6381491474
31
3.0225263186
11
16.3416691723
21
-35.5122196076
31
2.8446952562
0
SPLINE
5
31E
100
AcDbEntity
8
0
100
AcDbSpline
62
9
6
CONTINUOUS
70
0
71
3
72
8
73
4
74
2
42
0.0000001000
43
0.0000001000
44
0.0000000001
12
0.3620010833
22
-1.1274914544
32
-0.0612595619
13
0.3610045818
23
-1.1243877429
33
-0.1036432216
40
0.0000000000
40
0.0000000000
40
0.0000000000
40
0.0000000000
40
1.0000000000
40
1.0000000000
40
1.0000000000
40
1.0000000000
10
15.3784201723
20
-32.5120766076
30
3.1049874455
10
15.4990872001
20
-32.8879070924
30
3.0845675916
10
15.6196308274
20
-33.2633532331
30
3.0570740592
10
15.7399656880
20
-33.6381491474
30
3.0225263186
11
15.3784201723
21
-32.5120766076
31
3.1049874455
11
15.7399656880
21
-33.6381491474
31
3.0225263186
0
SPLINE
5
31F
100
AcDbEntity
8
0
100
AcDbSpline
62
9
6
CONTINUOUS
70
0
71
3
72
8
73
4
74
2
42
0.0000001000
43
0.0000001000
44
0.0000000001
12
0.3609985853
22
1.1243877429
32
0.1036432216
13
0.3619950703
23
1.1274914544
33
0.0612595619
40
0.0000000000
40
0.0000000000
40
0.0000000000
40
0.0000000000
40
1.0000000000
40
1.0000000000
40
1.0000000000
40
1.0000000000
10
14.4168296621
20
-33.6381491474
30
3.0225263186
10
14.5371625239
20
-33.2633532331
30
3.0570740592
10
14.6577041489
20
-32.8879070924
30
3.0845675916
10
14.7783691723
20
-32.5120766076
30
3.1049874455
11
14.4168296621
21
-33.6381491474
31
3.0225263186
11
14.7783691723
21
-32.5120766076
31
3.1049874455
0
SPLINE
5
320
100
AcDbEntity
8
0
100
AcDbSpline
62
9
6
CONTINUOUS
70
0
71
3
72
8
73
4
74
2
42
0.0000001000
43
0.0000001000
44
0.0000000001
12
0.6015384956
22
1.8735877060
32
0.1828705206
13
0.6018455829
23
1.8745441785
33
0.1727907468
40
0.0000000000
40
0.0000000000
40
0.0000000000
40
0.0000000000
40
1.0000000000
40
1.0000000000
40
1.0000000000
40
1.0000000000
10
13.8151361723
20
-35.5122196076
30
2.8446952562
10
14.0156490042
20
-34.8876903722
30
2.9056520964
10
14.2162144678
20
-34.2629972069
30
2.9649294030
10
14.4168296621
20
-33.6381491474
30
3.0225263186
11
13.8151361723
21
-35.5122196076
31
2.8446952562
11
14.4168296621
21
-33.6381491474
31
3.0225263186
0
SPLINE
5
321
100
AcDbEntity
8
0
100
AcDbSpline
62
9
6
CONTINUOUS
70
0
71
3
72
8
73
4
74
2
42
0.0000001000
43
0.0000001000
44
0.0000000001
12
-0.1894424737
22
-0.5900421949
32
-0.0565821050
13
-0.1894114357
23
-0.5899455231
33
-0.0575813002
40
0.0000000000
40
0.0000000000
40
0.0000000000
40
0.0000000000
40
1.0000000000
40
1.0000000000
40
1.0000000000
40
1.0000000000
10
14.6045861723
20
-34.9222166076
30
2.9017778509
10
14.5414386811
20
-35.1188973392
30
2.8829171492
10
14.4782963176
20
-35.3155620999
30
2.8638899014
10
14.4151591723
20
-35.5122106076
30
2.8446961347
11
14.6045861723
21
-34.9222166076
31
2.9017778509
11
14.4151591723
21
-35.5122106076
31
2.8446961347
0
SPLINE
5
322
100
AcDbEntity
8
0
100
AcDbSpline
62
9
6
CONTINUOUS
70
0
71
3
72
8
73
4
74
2
42
0.0000001000
43
0.0000001000
44
0.0000000001
12
-0.2292629335
22
-0.7141123966
32
-0.0658250767
13
-0.2292191517
23
-0.7139760240
33
-0.0672881329
40
0.0000000000
40
0.0000000000
40
0.0000000000
40
0.0000000000
40
1.0000000000
40
1.0000000000
40
1.0000000000
40
1.0000000000
10
15.0168502952
20
-33.6381491474
30
3.0225263186
10
14.9404293173
20
-33.8761866130
30
3.0005846264
10
14.8640155562
20
-34.1142015995
30
2.9783990682
10
14.7876091723
20
-34.3521936076
30
2.9559696905
11
15.0168502952
21
-33.6381491474
31
3.0225263186
11
14.7876091723
21
-34.3521936076
31
2.9559696905
0
SPLINE
5
323
100
AcDbEntity
8
0
100
AcDbSpline
62
9
6
CONTINUOUS
70
0
71
3
72
8
73
4
74
2
42
0.0000001000
43
0.0000001000
44
0.0000000001
12
-0.0615572220
22
-0.1917395659
32
-0.0164343723
13
-0.0615221103
23
-0.1916301992
33
-0.0176639877
40
0.0000000000
40
0.0000000000
40
0.0000000000
40
0.0000000000
40
1.0000000000
40
1.0000000000
40
1.0000000000
40
1.0000000000
10
15.0783901723
20
-33.4464636076
30
3.0395755570
10
15.0578710983
20
-33.5103767962
30
3.0340974329
10
15.0373576653
20
-33.5742724143
30
3.0284143145
10
15.0168502952
20
-33.6381491474
30
3.0225263186
11
15.0783901723
21
-33.4464636076
31
3.0395755570
11
15.0168502952
21
-33.6381491474
31
3.0225263186
0
SPLINE
5
324
100
AcDbEntity
8
0
100
AcDbSpline
62
9
6
CONTINUOUS
70
0
71
3
72
8
73
4
74
2
42
0.0000001000
43
0.0000001000
44
0.0000000001
12
-0.0615259187
22
0.1916301992
32
0.0176639877
13
-0.0615610326
23
0.1917395659
33
0.0164343723
40
0.0000000000
40
0.0000000000
40
0.0000000000
40
0.0000000000
40
1.0000000000
40
1.0000000000
40
1.0000000000
40
1.0000000000
10
15.1399338590
20
-33.6381491474
30
3.0225263186
10
15.1194252194
20
-33.5742724143
30
3.0284143145
10
15.0989105165
20
-33.5103767962
30
3.0340974329
10
15.0783901723
20
-33.4464636076
30
3.0395755570
11
15.1399338590
21
-33.6381491474
31
3.0225263186
11
15.0783901723
21
-33.4464636076
31
3.0395755570
0
SPLINE
5
325
100
AcDbEntity
8
0
100
AcDbSpline
62
9
6
CONTINUOUS
70
0
71
3
72
8
73
4
74
2
42
0.0000001000
43
0.0000001000
44
0.0000000001
12
-0.2292333409
22
0.7139760240
32
0.0672881329
13
-0.2292771254
23
0.7141123966
33
0.0658250767
40
0.0000000000
40
0.0000000000
40
0.0000000000
40
0.0000000000
40
1.0000000000
40
1.0000000000
40
1.0000000000
40
1.0000000000
10
15.3691891723
20
-34.3521936076
30
2.9559696905
10
15.2927780587
20
-34.1142015995
30
2.9783990682
10
15.2163595675
20
-33.8761866130
30
3.0005846264
10
15.1399338590
20
-33.6381491474
30
3.0225263186
11
15.3691891723
21
-34.3521936076
31
2.9559696905
11
15.1399338590
21
-33.6381491474
31
3.0225263186
0
SPLINE
5
326
100
AcDbEntity
8
0
100
AcDbSpline
62
9
6
CONTINUOUS
70
0
71
3
72
23
73
19
74
17
42
0.0000001000
43
0.0000001000
44
0.0000000001
12
0.4501551718
22
0.6584428546
32
0.0606935989
13
-0.7954665649
23
0.0000000000
33
0.0000000000
40
0.0000000000
40
0.0000000000
40
0.0000000000
40
0.0000000000
40
0.0625000000
40
0.1250000000
40
0.1875000000
40
0.2500000000
40
0.3125000000
40
0.3750000000
40
0.4375000000
40
0.5000000000
40
0.5625000000
40
0.6250000000
40
0.6875000000
40
0.7500000000
40
0.8125000000
40
0.8750000000
40
0.9375000000
40
1.0000000000
40
1.0000000000
40
1.0000000000
40
1.0000000000
10
18.3647889701
20
-33.6381491474
30
3.0225263186
10
18.3741672029
20
-33.6244315879
30
3.0237907686
10
18.3908766361
20
-33.5960127447
30
3.0263914374
10
18.4100817756
20
-33.5501115514
30
3.0305231042
10
18.4228602621
20
-33.5020870244
30
3.0347692097
10
18.4290255533
20
-33.4527521568
30
3.0390497513
10
18.4284485091
20
-33.4030466246
30
3.0432789547
10
18.4211472504
20
-33.3538877363
30
3.0473792820
10
18.4072620888
20
-33.3061874909
30
3.0512796678
10
18.3870576790
20
-33.2608248427
30
3.0549174222
10
18.3609143000
20
-33.2186318439
30
3.0582384586
10
18.3293208084
20
-33.1803793068
30
3.0611972671
10
18.2928622617
20
-33.1467620764
30
3.0637566673
10
18.2522137708
20
-33.1183897578
30
3.0658870099
10
18.2081144319
20
-33.0957742563
30
3.0675656043
10
18.1613971092
20
-33.0793234068
30
3.0687757745
10
18.1128199227
20
-33.0693329913
30
3.0695062324
10
18.0800203924
20
-33.0670996076
30
3.0696690246
10
18.0634481723
20
-33.0670996076
30
3.0696690246
11
18.3647889701
21
-33.6381491474
31
3.0225263186
11
18.3899001344
21
-33.5954672566
31
3.0264298813
11
18.4090106668
21
-33.5497576624
31
3.0305421773
11
18.4217580629
21
-33.5018686343
31
3.0347749491
11
18.4279018307
21
-33.4526903794
31
3.0390411949
11
18.4273278067
21
-33.4031377319
31
3.0432574754
11
18.4200499333
21
-33.3541308435
31
3.0473459584
11
18.4062088807
21
-33.3065770905
31
3.0512358959
11
18.3860678508
21
-33.2613531176
31
3.0548646359
11
18.3600059479
21
-33.2192885875
31
3.0581780873
11
18.3285099659
21
-33.1811518579
31
3.0611306990
11
18.2921639377
21
-33.1476362284
31
3.0636851577
11
18.2516386295
21
-33.1193492273
31
3.0658117186
11
18.2076781012
21
-33.0968016983
31
3.0674875336
11
18.1610871319
21
-33.0804001458
31
3.0686958225
11
18.1127162379
21
-33.0704397146
31
3.0694251875
11
18.0634481723
21
-33.0670996076
31
3.0696690246
0
SPLINE
5
327
100
AcDbEntity
8
0
100
AcDbSpline
62
9
6
CONTINUOUS
70
0
71
3
72
14
73
10
74
8
42
0.0000001000
43
0.0000001000
44
0.0000000001
12
0.3557891279
22
0.0000000000
32
0.0000000000
13
0.2015811259
23
0.2948531091
33
0.0271788147
40
0.0000000000
40
0.0000000000
40
0.0000000000
40
0.0000000000
40
0.1428571429
40
0.2857142857
40
0.4285714286
40
0.5714285714
40
0.7142857143
40
0.8571428571
40
1.0000000000
40
1.0000000000
40
1.0000000000
40
1.0000000000
10
18.0634481723
20
-33.7971656076
30
3.0078319969
10
18.0803905118
20
-33.7971656076
30
3.0078319969
10
18.1139138557
20
-33.7948418024
30
3.0080472814
10
18.1637596551
20
-33.7843286232
30
3.0090210346
10
18.2112319201
20
-33.7671940232
30
3.0106073950
10
18.2563635268
20
-33.7434053390
30
3.0128083798
10
18.2973674033
20
-33.7138926829
30
3.0155366781
10
18.3342748402
20
-33.6786322922
30
3.0187929922
10
18.3551898689
20
-33.6521897717
30
3.0212320893
10
18.3647889701
20
-33.6381491474
30
3.0225263186
11
18.0634481723
21
-33.7971656076
31
3.0078319969
11
18.1138406529
21
-33.7936705571
31
3.0081557525
11
18.1633640660
21
-33.7832250531
31
3.0091231358
11
18.2108418104
21
-33.7660850092
31
3.0107098324
11
18.2556755718
21
-33.7424513437
31
3.0128962654
11
18.2966846634
21
-33.7129347271
31
3.0156246808
11
18.3333523579
21
-33.6778983938
31
3.0188600475
11
18.3647889701
21
-33.6381491474
31
3.0225263186
0
SPLINE
5
328
100
AcDbEntity
8
0
100
AcDbSpline
62
9
6
CONTINUOUS
70
0
71
3
72
24
73
20
74
18
42
0.0000001000
43
0.0000001000
44
0.0000000001
12
1.6572294976
22
0.0000000000
32
0.0000000000
13
-0.3722274158
23
-1.6201385185
33
-0.1493402757
40
0.0000000000
40
0.0000000000
40
0.0000000000
40
0.0000000000
40
0.0588235294
40
0.1176470588
40
0.1764705882
40
0.2352941176
40
0.2941176471
40
0.3529411765
40
0.4117647059
40
0.4705882353
40
0.5294117647
40
0.5882352941
40
0.6470588235
40
0.7058823529
40
0.7647058824
40
0.8235294118
40
0.8823529412
40
0.9411764706
40
1.0000000000
40
1.0000000000
40
1.0000000000
40
1.0000000000
10
18.1467301723
20
-32.5120734112
30
3.1049876192
10
18.1792248684
20
-32.5120734112
30
3.1049876192
10
18.2437994975
20
-32.5154908427
30
3.1048022412
10
18.3400086784
20
-32.5308525754
30
3.1039636150
10
18.4337905560
20
-32.5561997858
30
3.1025625833
10
18.5246547252
20
-32.5913997864
30
3.1005810387
10
18.6109984610
20
-32.6358174105
30
3.0980212821
10
18.6925114503
20
-32.6893119483
30
3.0948501995
10
18.7676032089
20
-32.7508254312
30
3.0910849562
10
18.8361228797
20
-32.8202501716
30
3.0866823306
10
18.8966561169
20
-32.8961524789
30
3.0816834131
10
18.9491158391
20
-32.9784325797
30
3.0760451270
10
18.9924088869
20
-33.0653991921
30
3.0698377493
10
19.0264515561
20
-33.1568837121
30
3.0630326047
10
19.0505547126
20
-33.2511042380
30
3.0557286661
10
19.0646358279
20
-33.3477228321
30
3.0479275418
10
19.0684199041
20
-33.4450261562
30
3.0397522213
10
19.0618763772
20
-33.5424934578
30
3.0312419000
10
19.0507260839
20
-33.6063817255
30
3.0254545593
10
19.0434275071
20
-33.6381491474
30
3.0225263186
11
18.1467301723
21
-32.5120734112
31
3.1049876192
11
18.2436907037
21
-32.5171967736
31
3.1047088146
11
18.3396041278
21
-32.5325168217
31
3.1038698807
11
18.4333042713
21
-32.5578419175
31
3.1024658311
11
18.5239013196
21
-32.5929360570
31
3.1004846700
11
18.6101933366
21
-32.6373302295
31
3.0979193944
11
18.6914412452
21
-32.6906484392
31
3.0947511727
11
18.7665078609
21
-32.7521439741
31
3.0909787258
11
18.8347918074
21
-32.8213297661
31
3.0865829486
11
18.8953105311
21
-32.8972154445
31
3.0815768516
11
18.9475880601
21
-32.9792136650
31
3.0759502784
11
18.9908671571
21
-33.0661521767
31
3.0697381215
11
19.0247949706
21
-33.1573397131
31
3.0629494723
11
19.0488843724
21
-33.2515039161
31
3.0556458018
11
19.0629196547
21
-33.3478369537
31
3.0478651758
11
19.0666986369
21
-33.4450534858
31
3.0396963878
11
19.0601793917
21
-33.5422209745
31
3.0312134517
11
19.0434275071
21
-33.6381491474
31
3.0225263186
0
SPLINE
5
329
100
AcDbEntity
8
0
100
AcDbSpline
62
9
6
CONTINUOUS
70
0
71
3
72
8
73
4
74
2
42
0.0000001000
43
0.0000001000
44
0.0000000001
12
-0.0000690110
22
-1.1602081759
32
-0.1093429226
13
-0.0000689889
23
-1.1598376807
33
-0.1132053029
40
0.0000000000
40
0.0000000000
40
0.0000000000
40
0.0000000000
40
1.0000000000
40
1.0000000000
40
1.0000000000
40
1.0000000000
10
17.3417791723
20
-34.3521866076
30
2.9559703502
10
17.3417561687
20
-34.7389226662
30
2.9195227094
10
17.3417331687
20
-35.1255980473
30
2.8824312356
10
17.3417101723
20
-35.5122106076
30
2.8446961347
11
17.3417791723
21
-34.3521866076
31
2.9559703502
11
17.3417101723
21
-35.5122106076
31
2.8446961347
0
SPLINE
5
32A
100
AcDbEntity
8
0
100
AcDbSpline
62
9
6
CONTINUOUS
70
0
71
3
72
8
73
4
74
2
42
0.0000001000
43
0.0000001000
44
0.0000000001
12
-0.6012004222
22
1.1598306830
32
0.1132046199
13
-0.6013924668
23
1.1602011737
33
0.1093422862
40
0.0000000000
40
0.0000000000
40
0.0000000000
40
0.0000000000
40
1.0000000000
40
1.0000000000
40
1.0000000000
40
1.0000000000
10
18.4667631723
20
-35.5122106076
30
2.8446961347
10
18.2663630316
20
-35.1256003799
30
2.8824310080
10
18.0659303279
20
-34.7389273321
30
2.9195222618
10
17.8654661723
20
-34.3521936076
30
2.9559696905
11
18.4667631723
21
-35.5122106076
31
2.8446961347
11
17.8654661723
21
-34.3521936076
31
2.9559696905
0
SPLINE
5
32B
100
AcDbEntity
8
0
100
AcDbSpline
62
9
6
CONTINUOUS
70
0
71
3
72
8
73
4
74
2
42
0.0000001000
43
0.0000001000
44
0.0000000001
12
0.6388017628
22
-1.2323768254
32
-0.1158869626
13
0.6385853244
23
-1.2319592722
33
-0.1202446652
40
0.0000000000
40
0.0000000000
40
0.0000000000
40
0.0000000000
40
1.0000000000
40
1.0000000000
40
1.0000000000
40
1.0000000000
10
18.5039019630
20
-34.2800342745
30
2.9627627549
10
18.7168358840
20
-34.6908265496
30
2.9241337673
10
18.9297343975
20
-35.1015505168
30
2.8847783730
10
19.1425961723
20
-35.5122036076
30
2.8446968179
11
18.5039019630
21
-34.2800342745
31
2.9627627549
11
19.1425961723
21
-35.5122036076
31
2.8446968179
0
SPLINE
5
32C
100
AcDbEntity
8
0
100
AcDbSpline
62
9
6
CONTINUOUS
70
0
71
3
72
16
73
12
74
10
42
0.0000001000
43
0.0000001000
44
0.0000000001
12
-0.1959627553
22
-0.8529377325
32
-0.0786216454
13
-0.8030209845
23
-0.3382661624
33
-0.0318089705
40
0.0000000000
40
0.0000000000
40
0.0000000000
40
0.0000000000
40
0.1111111111
40
0.2222222222
40
0.3333333333
40
0.4444444444
40
0.5555555556
40
0.6666666667
40
0.7777777778
40
0.8888888889
40
1.0000000000
40
1.0000000000
40
1.0000000000
40
1.0000000000
10
19.0434275071
20
-33.6381491474
30
3.0225263186
10
19.0361696273
20
-33.6697394338
30
3.0196144058
10
19.0184367503
20
-33.7317488680
30
3.0138899163
10
18.9820277005
20
-33.8219010183
30
3.0055434119
10
18.9365740250
20
-33.9073039580
30
2.9976148158
10
18.8821503071
20
-33.9878236986
30
2.9901201656
10
18.8199494483
20
-34.0617417114
30
2.9832234015
10
18.7499962640
20
-34.1290551417
30
2.9769290699
10
18.6737920009
20
-34.1883278024
30
2.9713756981
10
18.5914609879
20
-34.2394958324
30
2.9665734686
10
18.5336434810
20
-34.2675058981
30
2.9639408649
10
18.5039019630
20
-34.2800342745
30
2.9627627549
11
19.0434275071
21
-33.6381491474
31
3.0225263186
11
19.0168017946
21
-33.7312718679
31
3.0139299546
11
18.9805202629
21
-33.8211094832
31
3.0056130633
11
18.9350790179
21
-33.9064900915
31
2.9976871401
11
18.8808541169
21
-33.9867234106
31
2.9902198133
11
18.8186573940
21
-34.0606409477
31
2.9833238069
11
18.7489544175
21
-34.1277150134
31
2.9770525632
11
18.6727708759
21
-34.1869770306
31
2.9715008885
11
18.5907284467
21
-34.2379703438
31
2.9667156892
11
18.5039019630
21
-34.2800342745
31
2.9627627549
0
SPLINE
5
32D
100
AcDbEntity
8
0
100
AcDbSpline
62
9
6
CONTINUOUS
70
0
71
3
72
8
73
4
74
2
42
0.0000001000
43
0.0000001000
44
0.0000000001
12
0.3017383462
22
-0.9398063985
32
-0.0866289796
13
0.3016622490
23
-0.9395693830
33
-0.0891628913
40
0.0000000000
40
0.0000000000
40
0.0000000000
40
0.0000000000
40
1.0000000000
40
1.0000000000
40
1.0000000000
40
1.0000000000
10
7.3154956919
20
-33.6381491474
30
3.0225263186
10
7.4160751406
20
-33.9514179469
30
2.9936499921
10
7.5166420893
20
-34.2646478132
30
2.9643512937
10
7.6171961723
20
-34.5778376076
30
2.9346303299
11
7.3154956919
21
-33.6381491474
31
3.0225263186
11
7.6171961723
21
-34.5778376076
31
2.9346303299
0
SPLINE
5
32E
100
AcDbEntity
8
0
100
AcDbSpline
62
9
6
CONTINUOUS
70
0
71
3
72
8
73
4
74
2
42
0.0000001000
43
0.0000001000
44
0.0000000001
12
0.3619950779
22
-1.1274844401
32
-0.0612594451
13
0.3609985975
23
-1.1243807622
33
-0.1036425782
40
0.0000000000
40
0.0000000000
40
0.0000000000
40
0.0000000000
40
1.0000000000
40
1.0000000000
40
1.0000000000
40
1.0000000000
10
6.9539561723
20
-32.5120836076
30
3.1049870652
10
7.0746211983
20
-32.8879117543
30
3.0845672502
10
7.1951628261
20
-33.2633555600
30
3.0570738447
10
7.3154956919
20
-33.6381491474
30
3.0225263186
11
6.9539561723
21
-32.5120836076
31
3.1049870652
11
7.3154956919
21
-33.6381491474
31
3.0225263186
0
SPLINE
5
32F
100
AcDbEntity
8
0
100
AcDbSpline
62
9
6
CONTINUOUS
70
0
71
3
72
8
73
4
74
2
42
0.0000001000
43
0.0000001000
44
0.0000000001
12
-0.3609989675
22
1.1243807622
32
0.1036425782
13
-0.3619954489
23
1.1274844401
33
0.0612594451
40
0.0000000000
40
0.0000000000
40
0.0000000000
40
0.0000000000
40
1.0000000000
40
1.0000000000
40
1.0000000000
40
1.0000000000
10
6.7154660625
20
-33.6381491474
30
3.0225263186
10
6.5951330733
20
-33.2633555600
30
3.0570738447
10
6.4745913220
20
-32.8879117543
30
3.0845672502
10
6.3539261723
20
-32.5120836076
30
3.1049870652
11
6.7154660625
21
-33.6381491474
31
3.0225263186
11
6.3539261723
21
-32.5120836076
31
3.1049870652
0
SPLINE
5
330
100
AcDbEntity
8
0
100
AcDbSpline
62
9
6
CONTINUOUS
70
0
71
3
72
8
73
4
74
2
42
0.0000001000
43
0.0000001000
44
0.0000000001
12
-0.6015451134
22
1.8735947023
32
0.1828712415
13
-0.6018522053
23
1.8745511821
33
0.1727913923
40
0.0000000000
40
0.0000000000
40
0.0000000000
40
0.0000000000
40
1.0000000000
40
1.0000000000
40
1.0000000000
40
1.0000000000
10
7.3171661723
20
-35.5122266076
30
2.8446945730
10
7.1166511346
20
-34.8876950401
30
2.9056516535
10
6.9160834642
20
-34.2629995414
30
2.9649291878
10
6.7154660625
20
-33.6381491474
30
3.0225263186
11
7.3171661723
21
-35.5122266076
31
2.8446945730
11
6.7154660625
21
-33.6381491474
31
3.0225263186
0
SPLINE
5
331
100
AcDbEntity
8
0
100
AcDbSpline
62
9
6
CONTINUOUS
70
0
71
3
72
8
73
4
74
2
42
0.0000001000
43
0.0000001000
44
0.0000000001
12
-0.6018569843
22
-1.8745441785
32
-0.1727907468
13
-0.6015498911
23
-1.8735877060
33
-0.1828705206
40
0.0000000000
40
0.0000000000
40
0.0000000000
40
0.0000000000
40
1.0000000000
40
1.0000000000
40
1.0000000000
40
1.0000000000
10
8.5189150606
20
-33.6381491474
30
3.0225263186
10
8.3182960658
20
-34.2629972069
30
2.9649294030
10
8.1177268027
20
-34.8876903722
30
2.9056520964
10
7.9172101723
20
-35.5122196076
30
2.8446952562
11
8.5189150606
21
-33.6381491474
31
3.0225263186
11
7.9172101723
21
-35.5122196076
31
2.8446952562
0
SPLINE
5
332
100
AcDbEntity
8
0
100
AcDbSpline
62
9
6
CONTINUOUS
70
0
71
3
72
8
73
4
74
2
42
0.0000001000
43
0.0000001000
44
0.0000000001
12
-0.3619996758
22
-1.1274844401
32
-0.0612594451
13
-0.3610031828
23
-1.1243807622
33
-0.1036425782
40
0.0000000000
40
0.0000000000
40
0.0000000000
40
0.0000000000
40
1.0000000000
40
1.0000000000
40
1.0000000000
40
1.0000000000
10
8.8804591723
20
-32.5120836076
30
3.1049870652
10
8.7597926137
20
-32.8879117543
30
3.0845672502
10
8.6392494549
20
-33.2633555600
30
3.0570738447
10
8.5189150606
20
-33.6381491474
30
3.0225263186
11
8.8804591723
21
-32.5120836076
31
3.1049870652
11
8.5189150606
21
-33.6381491474
31
3.0225263186
0
SPLINE
5
333
100
AcDbEntity
8
0
100
AcDbSpline
62
7
6
CONTINUOUS
70
0
71
3
72
14
73
10
74
8
42
0.0000001000
43
0.0000001000
44
0.0000000001
12
0.1257881274
22
-0.0010838705
32
0.0000000000
13
0.0001584744
23
0.1257926972
33
0.0000000000
40
0.0000000000
40
0.0000000000
40
0.0000000000
40
0.0000000000
40
0.2415373314
40
0.4584332900
40
0.6434448351
40
0.7918266531
40
0.9018933342
40
0.9707532880
40
1.0000000000
40
1.0000000000
40
1.0000000000
40
1.0000000000
10
-35.0546895915
20
-43.8575681535
30
0.0000000000
10
-35.0445620820
20
-43.8576554186
30
0.0000000000
10
-35.0253324306
20
-43.8577139606
30
0.0000000000
10
-34.9983786475
20
-43.8574080478
30
0.0000000000
10
-34.9752394172
20
-43.8566492995
30
0.0000000000
10
-34.9568745492
20
-43.8556156090
30
0.0000000000
10
-34.9427455153
20
-43.8539533508
30
0.0000000000
10
-34.9350584087
20
-43.8526377450
30
0.0000000000
10
-34.9301637149
20
-43.8504755666
30
0.0000000000
10
-34.9301621700
20
-43.8492492257
30
0.0000000000
11
-35.0546895915
21
-43.8575681535
31
0.0000000000
11
-35.0243060208
21
-43.8576403529
31
0.0000000000
11
-34.9970243578
21
-43.8572871462
31
0.0000000000
11
-34.9737645183
21
-43.8565010373
31
0.0000000000
11
-34.9551383379
21
-43.8552922302
31
0.0000000000
11
-34.9413892842
21
-43.8536600416
31
0.0000000000
11
-34.9329690029
21
-43.8516276535
31
0.0000000000
11
-34.9301621700
21
-43.8492492257
31
0.0000000000
0
SPLINE
5
334
100
AcDbEntity
8
0
100
AcDbSpline
62
7
6
CONTINUOUS
70
0
71
3
72
10
73
6
74
4
42
0.0000001000
43
0.0000001000
44
0.0000000001
12
0.4010828335
22
-0.0032799506
32
0.0000000000
13
0.4010812911
23
-0.0034634292
33
0.0000000000
40
0.0000000000
40
0.0000000000
40
0.0000000000
40
0.0000000000
40
0.3281320112
40
0.6614486470
40
1.0000000000
40
1.0000000000
40
1.0000000000
40
1.0000000000
10
-35.4557717388
20
-43.8542056962
30
0.0000000000
10
-35.4119023665
20
-43.8545644485
30
0.0000000000
10
-35.3234705060
20
-43.8552923628
30
0.0000000000
10
-35.1897764382
20
-43.8564111199
30
0.0000000000
10
-35.0999517961
20
-43.8571773040
30
0.0000000000
10
-35.0546895915
20
-43.8575681535
30
0.0000000000
11
-35.4557717388
21
-43.8542056962
31
0.0000000000
11
-35.3241636850
21
-43.8552896315
31
0.0000000000
11
-35.1904763189
21
-43.8564088389
31
0.0000000000
11
-35.0546895915
21
-43.8575681535
31
0.0000000000
0
SPLINE
5
335
100
AcDbEntity
8
0
100
AcDbSpline
62
7
6
CONTINUOUS
70
0
71
3
72
13
73
9
74
7
42
0.0000001000
43
0.0000001000
44
0.0000000001
12
0.9407287037
22
0.0494035986
32
0.0000000000
13
0.9411479830
23
0.0406409122
33
0.0000000000
40
0.0000000000
40
0.0000000000
40
0.0000000000
40
0.0000000000
40
0.1020465433
40
0.2304323690
40
0.3849825188
40
0.5651284545
40
0.7703427849
40
1.0000000000
40
1.0000000000
40
1.0000000000
40
1.0000000000
10
-36.7361951279
20
-43.9029387420
30
0.0000000000
10
-36.7041957571
20
-43.9012582532
30
0.0000000000
10
-36.6319359484
20
-43.8974956754
30
0.0000000000
10
-36.5112044551
20
-43.8913509751
30
0.0000000000
10
-36.3659705676
20
-43.8841633055
30
0.0000000000
10
-36.1966290515
20
-43.8760355861
30
0.0000000000
10
-36.0037147154
20
-43.8671095164
30
0.0000000000
10
-35.8672949461
20
-43.8610693082
30
0.0000000000
10
-35.7952478045
20
-43.8579581486
30
0.0000000000
11
-36.7361951279
21
-43.9029387420
31
0.0000000000
11
-36.6401946588
21
-43.8979423532
31
0.0000000000
11
-36.5194083668
21
-43.8917941935
31
0.0000000000
11
-36.3739964079
21
-43.8845939542
31
0.0000000000
11
-36.2044895419
21
-43.8764584627
31
0.0000000000
11
-36.0113790394
21
-43.8675246856
31
0.0000000000
11
-35.7952478045
21
-43.8579581486
31
0.0000000000
0
SPLINE
5
336
100
AcDbEntity
8
0
100
AcDbSpline
62
7
6
CONTINUOUS
70
0
71
3
72
14
73
10
74
8
42
0.0000001000
43
0.0000001000
44
0.0000000001
12
0.0001140378
22
0.1257978563
32
0.0000000000
13
-0.1257932199
23
-0.0010860366
33
0.0000000000
40
0.0000000000
40
0.0000000000
40
0.0000000000
40
0.0000000000
40
0.0292748912
40
0.0981314254
40
0.2081931328
40
0.3565685161
40
0.5415726650
40
0.7584608592
40
1.0000000000
40
1.0000000000
40
1.0000000000
40
1.0000000000
10
-34.9301585732
20
40.8247929485
30
0.0000000000
10
-34.9301574604
20
40.8260205213
30
0.0000000000
10
-34.9350579909
20
40.8281851117
30
0.0000000000
10
-34.9427427734
20
40.8294998587
30
0.0000000000
10
-34.9568735212
20
40.8311626885
30
0.0000000000
10
-34.9752376054
20
40.8321961526
30
0.0000000000
10
-34.9983771473
20
40.8329550023
30
0.0000000000
10
-35.0253313687
20
40.8332608851
30
0.0000000000
10
-35.0445615780
20
40.8332023786
30
0.0000000000
10
-35.0546895734
20
40.8331149385
30
0.0000000000
11
-34.9301585732
21
40.8247929485
31
0.0000000000
11
-34.9329675786
21
40.8271745268
31
0.0000000000
11
-34.9413877749
21
40.8292069333
31
0.0000000000
11
-34.9551367635
21
40.8308391354
31
0.0000000000
11
-34.9737628920
21
40.8320479535
31
0.0000000000
11
-34.9970227463
21
40.8328340734
31
0.0000000000
11
-35.0243045410
21
40.8331872890
31
0.0000000000
11
-35.0546895734
21
40.8331149385
31
0.0000000000
0
SPLINE
5
337
100
AcDbEntity
8
0
100
AcDbSpline
62
7
6
CONTINUOUS
70
0
71
3
72
13
73
9
74
7
42
0.0000001000
43
0.0000001000
44
0.0000000001
12
-0.9411482707
22
0.0406411384
32
0.0000000000
13
-0.9407290007
23
0.0494036116
33
0.0000000000
40
0.0000000000
40
0.0000000000
40
0.0000000000
40
0.0000000000
40
0.2296599197
40
0.4348740759
40
0.6150185697
40
0.7695673913
40
0.8979527873
40
1.0000000000
40
1.0000000000
40
1.0000000000
40
1.0000000000
10
-35.7952475168
20
40.8335049237
30
0.0000000000
10
-35.8672955289
20
40.8366161372
30
0.0000000000
10
-36.0037161361
20
40.8426563567
30
0.0000000000
10
-36.1966308739
20
40.8515824591
30
0.0000000000
10
-36.3659715200
20
40.8597101370
30
0.0000000000
10
-36.5112044497
20
40.8668977602
30
0.0000000000
10
-36.6319356398
20
40.8730424442
30
0.0000000000
10
-36.7041955464
20
40.8768050271
30
0.0000000000
10
-36.7361951373
20
40.8784855274
30
0.0000000000
11
-35.7952475168
21
40.8335049237
31
0.0000000000
11
-36.0113813652
21
40.8430715759
31
0.0000000000
11
-36.2044917645
21
40.8520053524
31
0.0000000000
11
-36.3739973272
21
40.8601407840
31
0.0000000000
11
-36.5194080823
21
40.8673409641
31
0.0000000000
11
-36.6401940081
21
40.8734891046
31
0.0000000000
11
-36.7361951373
21
40.8784855274
31
0.0000000000
0
SPLINE
5
338
100
AcDbEntity
8
0
100
AcDbSpline
62
7
6
CONTINUOUS
70
0
71
3
72
10
73
6
74
4
42
0.0000001000
43
0.0000001000
44
0.0000000001
12
-0.4010810403
22
-0.0034623484
32
0.0000000000
13
-0.4010825714
23
-0.0032801869
33
0.0000000000
40
0.0000000000
40
0.0000000000
40
0.0000000000
40
0.0000000000
40
0.3385502994
40
0.6718662641
40
1.0000000000
40
1.0000000000
40
1.0000000000
40
1.0000000000
10
-35.0546895734
20
40.8331149385
30
0.0000000000
10
-35.0999516089
20
40.8327242121
30
0.0000000000
10
-35.1897759606
20
40.8319578564
30
0.0000000000
10
-35.3234699421
20
40.8308391561
30
0.0000000000
10
-35.4119018863
20
40.8301112623
30
0.0000000000
10
-35.4557714605
20
40.8297524823
30
0.0000000000
11
-35.0546895734
21
40.8331149385
31
0.0000000000
11
-35.1904757902
21
40.8319556283
31
0.0000000000
11
-35.3241628003
21
40.8308364238
31
0.0000000000
11
-35.4557714605
21
40.8297524823
31
0.0000000000
0
SPLINE
5
339
100
AcDbEntity
8
0
100
AcDbSpline
62
7
6
CONTINUOUS
70
0
71
3
72
11
73
7
74
5
42
0.0000001000
43
0.0000001000
44
0.0000000001
12
-0.1386077986
22
0.0072791695
32
0.0000000000
13
-0.0000000317
23
-0.0000005129
33
0.0000000000
40
0.0000000000
40
0.0000000000
40
0.0000000000
40
0.0000000000
40
0.4376465276
40
0.7501554951
40
0.9376116535
40
1.0000000000
40
1.0000000000
40
1.0000000000
40
1.0000000000
10
-36.7361951319
20
40.8784854250
30
0.0000000000
10
-36.7564155391
20
40.8795473261
30
0.0000000000
10
-36.7897836515
20
40.8811473319
30
0.0000000000
10
-36.8370811536
20
40.8829010040
30
0.0000000000
10
-36.8563165030
20
40.8835389756
30
0.0000000000
10
-36.8748607356
20
40.8840600927
30
0.0000000000
10
-36.8748607362
20
40.8840600820
30
0.0000000000
11
-36.7361951319
21
40.8784854250
31
0.0000000000
11
-36.7968724979
21
40.8813472048
31
0.0000000000
11
-36.8402172051
21
40.8829911504
31
0.0000000000
11
-36.8662228602
21
40.8838146579
31
0.0000000000
11
-36.8748607362
21
40.8840600820
31
0.0000000000
0
SPLINE
5
33A
100
AcDbEntity
8
0
100
AcDbSpline
62
7
6
CONTINUOUS
70
0
71
3
72
11
73
7
74
5
42
0.0000001000
43
0.0000001000
44
0.0000000001
12
-0.1385774969
22
-0.0072775779
32
0.0000000000
13
0.0000000129
23
-0.0000003454
33
0.0000000000
40
0.0000000000
40
0.0000000000
40
0.0000000000
40
0.0000000000
40
0.4365813791
40
0.7490800569
40
0.9370816377
40
1.0000000000
40
1.0000000000
40
1.0000000000
40
1.0000000000
10
-36.7361951225
20
-43.9029386397
30
0.0000000000
10
-36.7563619074
20
-43.9039977247
30
0.0000000000
10
-36.7896654930
20
-43.9055953159
30
0.0000000000
10
-36.8369599831
20
-43.9073498397
30
0.0000000000
10
-36.8561609564
20
-43.9079876917
30
0.0000000000
10
-36.8748607733
20
-43.9085132909
30
0.0000000000
10
-36.8748607730
20
-43.9085132982
30
0.0000000000
11
-36.7361951225
21
-43.9029386397
31
0.0000000000
11
-36.7967115374
21
-43.9057936904
31
0.0000000000
11
-36.8400452925
21
-43.9074385111
31
0.0000000000
11
-36.8661208909
21
-43.9082648886
31
0.0000000000
11
-36.8748607730
21
-43.9085132982
31
0.0000000000
0
SPLINE
5
33B
100
AcDbEntity
8
0
100
AcDbSpline
62
7
6
CONTINUOUS
70
0
71
3
72
12
73
8
74
6
42
0.0000001000
43
0.0000001000
44
0.0000000001
12
0.3392122111
22
0.0146478381
32
0.0000000000
13
0.3395169742
23
-0.0027762499
33
0.0000000000
40
0.0000000000
40
0.0000000000
40
0.0000000000
40
0.0000000000
40
0.1551035405
40
0.3346409614
40
0.5366108016
40
0.7591908129
40
1.0000000000
40
1.0000000000
40
1.0000000000
40
1.0000000000
10
-35.7952478045
20
-43.8579581486
30
0.0000000000
10
-35.7777101329
20
-43.8572008381
30
0.0000000000
10
-35.7398567509
20
-43.8559182088
30
0.0000000000
10
-35.6791376306
20
-43.8546379251
30
0.0000000000
10
-35.6107723639
20
-43.8538960898
30
0.0000000000
10
-35.5354690955
20
-43.8537198602
30
0.0000000000
10
-35.4830246743
20
-43.8539828474
30
0.0000000000
10
-35.4557717388
20
-43.8542056962
30
0.0000000000
11
-35.7952478045
21
-43.8579581486
31
0.0000000000
11
-35.7426179929
21
-43.8561158828
31
0.0000000000
11
-35.6816743902
21
-43.8547892725
31
0.0000000000
11
-35.6131042919
21
-43.8540139427
31
0.0000000000
11
-35.5375323389
21
-43.8538136813
31
0.0000000000
11
-35.4557717388
21
-43.8542056962
31
0.0000000000
0
SPLINE
5
33C
100
AcDbEntity
8
0
100
AcDbSpline
62
7
6
CONTINUOUS
70
0
71
3
72
12
73
8
74
6
42
0.0000001000
43
0.0000001000
44
0.0000000001
12
-0.3395169557
22
-0.0027773117
32
0.0000000000
13
-0.3392121928
23
0.0146480330
33
0.0000000000
40
0.0000000000
40
0.0000000000
40
0.0000000000
40
0.0000000000
40
0.2408102401
40
0.4633930085
40
0.6653643396
40
0.8449011530
40
1.0000000000
40
1.0000000000
40
1.0000000000
40
1.0000000000
10
-35.4557714605
20
40.8297524823
30
0.0000000000
10
-35.4830245137
20
40.8295295473
30
0.0000000000
10
-35.5354693658
20
40.8292667020
30
0.0000000000
10
-35.6107732315
20
40.8294428944
30
0.0000000000
10
-35.6791389082
20
40.8301847493
30
0.0000000000
10
-35.7398575963
20
40.8314649903
30
0.0000000000
10
-35.7777103768
20
40.8327476260
30
0.0000000000
10
-35.7952475168
20
40.8335049237
30
0.0000000000
11
-35.4557714605
21
40.8297524823
31
0.0000000000
11
-35.5375324159
21
40.8293604836
31
0.0000000000
11
-35.6131053028
21
40.8295607579
31
0.0000000000
11
-35.6816759053
21
40.8303360921
31
0.0000000000
11
-35.7426193002
21
40.8316626875
31
0.0000000000
11
-35.7952475168
21
40.8335049237
31
0.0000000000
0
SPLINE
5
33D
100
AcDbEntity
8
0
100
AcDbSpline
62
9
6
CONTINUOUS
70
0
71
3
72
27
73
23
74
21
42
0.0000001000
43
0.0000001000
44
0.0000000001
12
-7.7224455753
22
-0.3805281723
32
0.0000000000
13
-0.8029573625
23
-7.6900082463
33
0.0000000000
40
0.0000000000
40
0.0000000000
40
0.0000000000
40
0.0000000000
40
0.0503185774
40
0.1006182478
40
0.1508936936
40
0.2011400744
40
0.2513531236
40
0.3015292337
40
0.3516655289
40
0.4017599243
40
0.4518111694
40
0.5018188744
40
0.5517835211
40
0.6017064550
40
0.6515898607
40
0.7014367195
40
0.7512507514
40
0.8010363411
40
0.8507984503
40
0.9005425178
40
0.9502743493
40
1.0000000000
40
1.0000000000
40
1.0000000000
40
1.0000000000
10
-36.8552495448
20
39.6911933800
30
0.0000000000
10
-36.9847770366
20
39.6848108346
30
0.0000000000
10
-37.2434283396
20
39.6629799701
30
0.0000000000
10
-37.6280062829
20
39.6031988971
30
0.0000000000
10
-38.0072946101
20
39.5166823315
30
0.0000000000
10
-38.3793693165
20
39.4038642527
30
0.0000000000
10
-38.7423740200
20
39.2653087171
30
0.0000000000
10
-39.0944891618
20
39.1017090380
30
0.0000000000
10
-39.4339518408
20
38.9138838121
30
0.0000000000
10
-39.7590617651
20
38.7027729929
30
0.0000000000
10
-40.0681905400
20
38.4694331760
30
0.0000000000
10
-40.3597896259
20
38.2150323484
30
0.0000000000
10
-40.6323981646
20
37.9408440646
30
0.0000000000
10
-40.8846503026
20
37.6482410898
30
0.0000000000
10
-41.1152820599
20
37.3386885597
30
0.0000000000
10
-41.3231376957
20
37.0137365983
30
0.0000000000
10
-41.5071755067
20
36.6750127764
30
0.0000000000
10
-41.6664731619
20
36.3242131606
30
0.0000000000
10
-41.8002320433
20
35.9630967895
30
0.0000000000
10
-41.9077824365
20
35.5934657410
30
0.0000000000
10
-41.9885825847
20
35.2171975222
30
0.0000000000
10
-42.0243533128
20
34.9631146059
30
0.0000000000
10
-42.0376625053
20
34.8356510514
30
0.0000000000
11
-36.8552495448
21
39.6911933800
31
0.0000000000
11
-37.2429245385
21
39.6584661538
31
0.0000000000
11
-37.6272164459
21
39.5987252497
31
0.0000000000
11
-38.0062006943
21
39.5122698563
31
0.0000000000
11
-38.3779792922
21
39.3995329509
31
0.0000000000
11
-38.7406903348
21
39.2610791314
31
0.0000000000
11
-39.0925173286
21
39.0976017885
31
0.0000000000
11
-39.4316982882
21
38.9099196332
31
0.0000000000
11
-39.7565345612
21
38.6989725968
31
0.0000000000
11
-40.0653993346
21
38.4658171234
31
0.0000000000
11
-40.3567457825
21
38.2116208791
31
0.0000000000
11
-40.6291148123
21
37.9376569045
31
0.0000000000
11
-40.8811423724
21
37.6452972389
31
0.0000000000
11
-41.1115662833
21
37.3360060491
31
0.0000000000
11
-41.3192325587
21
37.0113322966
31
0.0000000000
11
-41.5031011849
21
36.6729019804
31
0.0000000000
11
-41.6622513291
21
36.3224099938
31
0.0000000000
11
-41.7958859515
21
35.9616116361
31
0.0000000000
11
-41.9033357963
21
35.5923138219
31
0.0000000000
11
-41.9840627438
21
35.2163660322
31
0.0000000000
11
-42.0376625053
21
34.8356510514
31
0.0000000000
0
SPLINE
5
33E
100
AcDbEntity
8
0
100
AcDbSpline
62
9
6
CONTINUOUS
70
0
71
3
72
21
73
17
74
15
42
0.0000001000
43
0.0000001000
44
0.0000000001
12
-7.2776938565
22
-70.4994763472
32
0.0000000000
13
7.2776938494
23
-70.4994763479
33
0.0000000000
40
0.0000000000
40
0.0000000000
40
0.0000000000
40
0.0000000000
40
0.0714288056
40
0.1428579244
40
0.2142868123
40
0.2857151686
40
0.3571433226
40
0.4285716093
40
0.5000000006
40
0.5714283921
40
0.6428566790
40
0.7142848328
40
0.7857131886
40
0.8571420765
40
0.9285711960
40
1.0000000000
40
1.0000000000
40
1.0000000000
40
1.0000000000
10
-36.8969636548
20
33.8626892740
30
0.0000000000
10
-37.0702426480
20
32.1841248099
30
0.0000000000
10
-37.3921393474
20
28.8243897702
30
0.0000000000
10
-37.8008726552
20
23.7782799254
30
0.0000000000
10
-38.1354110181
20
18.7267080191
30
0.0000000000
10
-38.3956807629
20
13.6707914097
30
0.0000000000
10
-38.5816274586
20
8.6116095267
30
0.0000000000
10
-38.6932116271
20
3.5502408702
30
0.0000000000
10
-38.7304090898
20
-1.5122266527
30
0.0000000000
10
-38.6932116258
20
-6.5746941814
30
0.0000000000
10
-38.5816274556
20
-11.6360628435
30
0.0000000000
10
-38.3956807587
20
-16.6952447164
30
0.0000000000
10
-38.1354110135
20
-21.7511613107
30
0.0000000000
10
-37.8008726492
20
-26.8027332221
30
0.0000000000
10
-37.3921393420
20
-31.8488430455
30
0.0000000000
10
-37.0702426439
20
-35.2085780631
30
0.0000000000
10
-36.8969636548
20
-36.8871424891
30
0.0000000000
11
-36.8969636548
21
33.8626892740
31
0.0000000000
11
-37.3797867626
21
28.8233123014
31
0.0000000000
11
-37.7885073370
21
23.7773623746
31
0.0000000000
11
-38.1230338769
21
18.7259675718
31
0.0000000000
11
-38.3832939222
21
13.6702400588
31
0.0000000000
11
-38.5692336167
21
8.6112483372
31
0.0000000000
11
-38.6808137889
21
3.5500611324
31
0.0000000000
11
-38.7180099293
21
-1.5122266490
31
0.0000000000
11
-38.6808137875
21
-6.5745144415
31
0.0000000000
11
-38.5692336135
21
-11.6357016636
31
0.0000000000
11
-38.3832939178
21
-16.6946933736
31
0.0000000000
11
-38.1230338731
21
-21.7504208508
31
0.0000000000
11
-37.7885073321
21
-26.8018156558
31
0.0000000000
11
-37.3797867525
21
-31.8477656310
31
0.0000000000
11
-36.8969636548
21
-36.8871424891
31
0.0000000000
0
SPLINE
5
33F
100
AcDbEntity
8
0
100
AcDbSpline
62
9
6
CONTINUOUS
70
0
71
3
72
28
73
24
74
22
42
0.0000001000
43
0.0000001000
44
0.0000000001
12
-0.0418612720
22
-5.8285030616
32
0.0000000000
13
-0.0410024395
23
-5.8285091666
33
0.0000000000
40
0.0000000000
40
0.0000000000
40
0.0000000000
40
0.0000000000
40
0.0127931630
40
0.0300726867
40
0.0517601723
40
0.0777569602
40
0.1079448486
40
0.1421866783
40
0.1803267642
40
0.2221917474
40
0.2675912785
40
0.3163190305
40
0.3681534351
40
0.4228588883
40
0.4801866254
40
0.5398760785
40
0.6016558585
40
0.6652450893
40
0.7303545590
40
0.7966883379
40
0.8639449016
40
0.9318182120
40
1.0000000000
40
1.0000000000
40
1.0000000000
40
1.0000000000
10
-36.8552495450
20
39.6911933849
30
0.0000000000
10
-36.8554280577
20
39.6663383884
30
0.0000000000
10
-36.8558531743
20
39.6079121792
30
0.0000000000
10
-36.8565781448
20
39.5073507578
30
0.0000000000
10
-36.8574916869
20
39.3811369116
30
0.0000000000
10
-36.8585839521
20
39.2298442409
30
0.0000000000
10
-36.8598526691
20
39.0541605685
30
0.0000000000
10
-36.8612902589
20
38.8548844752
30
0.0000000000
10
-36.8628904819
20
38.6329217190
30
0.0000000000
10
-36.8646453933
20
38.3892813899
30
0.0000000000
10
-36.8665467160
20
38.1250709699
30
0.0000000000
10
-36.8685853462
20
37.8414916024
30
0.0000000000
10
-36.8707516121
20
37.5398323539
30
0.0000000000
10
-36.8730352398
20
37.2214647400
30
0.0000000000
10
-36.8754254647
20
36.8878360464
30
0.0000000000
10
-36.8779109943
20
36.5404630831
30
0.0000000000
10
-36.8804803194
20
36.1809250492
30
0.0000000000
10
-36.8831210307
20
35.8108567906
30
0.0000000000
10
-36.8858219884
20
35.4319408430
30
0.0000000000
10
-36.8885676887
20
35.0458998293
30
0.0000000000
10
-36.8913527586
20
34.6544891366
30
0.0000000000
10
-36.8941480600
20
34.2594879580
30
0.0000000000
10
-36.8960317815
20
33.9951553327
30
0.0000000000
10
-36.8969636548
20
33.8626892740
30
0.0000000000
11
-36.8552495450
21
39.6911933849
31
0.0000000000
11
-36.8557890464
21
39.6166284239
31
0.0000000000
11
-36.8565168344
21
39.5159146991
31
0.0000000000
11
-36.8574307336
21
39.3895091660
31
0.0000000000
11
-36.8585252139
21
39.2379868533
31
0.0000000000
11
-36.8597955837
21
39.0620367009
31
0.0000000000
11
-36.8612354760
21
38.8624581386
31
0.0000000000
11
-36.8628380772
21
38.6401585742
31
0.0000000000
11
-36.8645956720
21
38.3961484281
31
0.0000000000
11
-36.8664998723
21
38.1315371490
31
0.0000000000
11
-36.8685416003
21
37.8475273110
31
0.0000000000
11
-36.8707111520
21
37.5454103227
31
0.0000000000
11
-36.8729982499
21
37.2265594004
31
0.0000000000
11
-36.8753920948
21
36.8924244666
31
0.0000000000
11
-36.8778814210
21
36.5445242389
31
0.0000000000
11
-36.8804545796
21
36.1844405088
31
0.0000000000
11
-36.8830994895
21
35.8138103608
31
0.0000000000
11
-36.8858040520
21
35.4343194669
31
0.0000000000
11
-36.8885551299
21
35.0476926494
31
0.0000000000
11
-36.8913417109
21
34.6556873562
31
0.0000000000
11
-36.8941470841
21
34.2600873023
31
0.0000000000
11
-36.8969636548
21
33.8626892740
31
0.0000000000
0
SPLINE
5
340
100
AcDbEntity
8
0
100
AcDbSpline
62
9
6
CONTINUOUS
70
0
71
3
72
29
73
25
74
23
42
0.0000001000
43
0.0000001000
44
0.0000000001
12
-5.1863055663
22
0.5368553333
32
0.0000000000
13
0.5354003873
23
5.1864559674
33
0.0000000000
40
0.0000000000
40
0.0000000000
40
0.0000000000
40
0.0000000000
40
0.0725315007
40
0.1444559185
40
0.2154306457
40
0.2851175992
40
0.3531848306
40
0.4193081084
40
0.4831724622
40
0.5444736836
40
0.6029197760
40
0.6582323459
40
0.7101479304
40
0.7584192530
40
0.8028164038
40
0.8431279381
40
0.8791618883
40
0.9107466878
40
0.9377320055
40
0.9599894981
40
0.9774135093
40
0.9899218345
40
0.9974572410
40
1.0000000000
40
1.0000000000
40
1.0000000000
40
1.0000000000
10
-36.8969636548
20
33.8626892740
30
0.0000000000
10
-37.0223538300
20
33.8756689150
30
0.0000000000
10
-37.2720798809
20
33.9015658941
30
0.0000000000
10
-37.6444878930
20
33.9403268010
30
0.0000000000
10
-38.0119638987
20
33.9787171712
30
0.0000000000
10
-38.3727573988
20
34.0165540954
30
0.0000000000
10
-38.7251497291
20
34.0536572869
30
0.0000000000
10
-39.0674622480
20
34.0898499375
30
0.0000000000
10
-39.3980643275
20
34.1249595585
30
0.0000000000
10
-39.7153811453
20
34.1588187832
30
0.0000000000
10
-40.0179011030
20
34.1912662031
30
0.0000000000
10
-40.3041833235
20
34.2221469555
30
0.0000000000
10
-40.5728635063
20
34.2513140170
30
0.0000000000
10
-40.8226638555
20
34.2786269197
30
0.0000000000
10
-41.0523877451
20
34.3039588813
30
0.0000000000
10
-41.2609629504
20
34.3271759349
30
0.0000000000
10
-41.4473260226
20
34.3482062296
30
0.0000000000
10
-41.6108069337
20
34.3668237430
30
0.0000000000
10
-41.7499747700
20
34.3833084877
30
0.0000000000
10
-41.8660404711
20
34.3965082847
30
0.0000000000
10
-41.9534114715
20
34.4092209058
30
0.0000000000
10
-42.0239799303
20
34.4143420589
30
0.0000000000
10
-42.0522099271
20
34.4261324672
30
0.0000000000
10
-42.0804963854
20
34.4230597412
30
0.0000000000
10
-42.0800425874
20
34.4274557104
30
0.0000000000
11
-36.8969636548
21
33.8626892740
31
0.0000000000
11
-37.2731269057
21
33.9016984124
31
0.0000000000
11
-37.6461270842
21
33.9405217276
31
0.0000000000
11
-38.0141873724
21
33.9789742813
31
0.0000000000
11
-38.3755544842
21
34.0168729016
31
0.0000000000
11
-38.7285070168
21
34.0540370551
31
0.0000000000
11
-39.0713636511
21
34.0902897074
31
0.0000000000
11
-39.4024911606
21
34.1254581658
31
0.0000000000
11
-39.7203121915
21
34.1593749024
31
0.0000000000
11
-40.0233127765
21
34.1918783520
31
0.0000000000
11
-40.3100495467
21
34.2228136817
31
0.0000000000
11
-40.5791566074
21
34.2520335284
31
0.0000000000
11
-40.8293520444
21
34.2793987009
31
0.0000000000
11
-41.0594440307
21
34.3047788430
31
0.0000000000
11
-41.2683365036
21
34.3280530540
31
0.0000000000
11
-41.4550343863
21
34.3491104655
31
0.0000000000
11
-41.6186483276
21
34.3678507686
31
0.0000000000
11
-41.7583989388
21
34.3841846924
31
0.0000000000
11
-41.8736205060
21
34.3980344287
31
0.0000000000
11
-41.9637641615
21
34.4093340033
31
0.0000000000
11
-42.0284004985
21
34.4180295896
31
0.0000000000
11
-42.0672216164
21
34.4240797654
31
0.0000000000
11
-42.0800425874
21
34.4274557104
31
0.0000000000
0
SPLINE
5
341
100
AcDbEntity
8
0
100
AcDbSpline
62
9
6
CONTINUOUS
70
0
71
3
72
27
73
23
74
21
42
0.0000001000
43
0.0000001000
44
0.0000000001
12
-7.7224455776
22
0.3805281735
32
0.0000000000
13
-0.8029573612
23
7.6900082487
33
0.0000000000
40
0.0000000000
40
0.0000000000
40
0.0000000000
40
0.0000000000
40
0.0503185774
40
0.1006182478
40
0.1508936936
40
0.2011400744
40
0.2513531236
40
0.3015292336
40
0.3516655288
40
0.4017599243
40
0.4518111693
40
0.5018188743
40
0.5517835210
40
0.6017064550
40
0.6515898607
40
0.7014367195
40
0.7512507514
40
0.8010363411
40
0.8507984503
40
0.9005425178
40
0.9502743493
40
1.0000000000
40
1.0000000000
40
1.0000000000
40
1.0000000000
10
-36.8552495450
20
-42.7156465983
30
0.0000000000
10
-36.9847770367
20
-42.7092640529
30
0.0000000000
10
-37.2434283398
20
-42.6874331884
30
0.0000000000
10
-37.6280062831
20
-42.6276521153
30
0.0000000000
10
-38.0072946104
20
-42.5411355496
30
0.0000000000
10
-38.3793693168
20
-42.4283174706
30
0.0000000000
10
-38.7423740203
20
-42.2897619350
30
0.0000000000
10
-39.0944891622
20
-42.1261622557
30
0.0000000000
10
-39.4339518411
20
-41.9383370297
30
0.0000000000
10
-39.7590617655
20
-41.7272262103
30
0.0000000000
10
-40.0681905403
20
-41.4938863933
30
0.0000000000
10
-40.3597896262
20
-41.2394855655
30
0.0000000000
10
-40.6323981649
20
-40.9652972815
30
0.0000000000
10
-40.8846503029
20
-40.6726943066
30
0.0000000000
10
-41.1152820603
20
-40.3631417762
30
0.0000000000
10
-41.3231376960
20
-40.0381898147
30
0.0000000000
10
-41.5071755069
20
-39.6994659926
30
0.0000000000
10
-41.6664731621
20
-39.3486663765
30
0.0000000000
10
-41.8002320435
20
-38.9875500052
30
0.0000000000
10
-41.9077824366
20
-38.6179189565
30
0.0000000000
10
-41.9885825848
20
-38.2416507376
30
0.0000000000
10
-42.0243533129
20
-37.9875678211
30
0.0000000000
10
-42.0376625053
20
-37.8601042665
30
0.0000000000
11
-36.8552495450
21
-42.7156465983
31
0.0000000000
11
-37.2429245387
21
-42.6829193720
31
0.0000000000
11
-37.6272164461
21
-42.6231784679
31
0.0000000000
11
-38.0062006946
21
-42.5367230744
31
0.0000000000
11
-38.3779792925
21
-42.4239861689
31
0.0000000000
11
-38.7406903351
21
-42.2855323492
31
0.0000000000
11
-39.0925173289
21
-42.1220550062
31
0.0000000000
11
-39.4316982885
21
-41.9343728508
31
0.0000000000
11
-39.7565345615
21
-41.7234258142
31
0.0000000000
11
-40.0653993350
21
-41.4902703406
31
0.0000000000
11
-40.3567457829
21
-41.2360740962
31
0.0000000000
11
-40.6291148127
21
-40.9621101214
31
0.0000000000
11
-40.8811423727
21
-40.6697504557
31
0.0000000000
11
-41.1115662836
21
-40.3604592656
31
0.0000000000
11
-41.3192325590
21
-40.0357855129
31
0.0000000000
11
-41.5031011851
21
-39.6973551965
31
0.0000000000
11
-41.6622513294
21
-39.3468632097
31
0.0000000000
11
-41.7958859517
21
-38.9860648518
31
0.0000000000
11
-41.9033357965
21
-38.6167670374
31
0.0000000000
11
-41.9840627439
21
-38.2408192475
31
0.0000000000
11
-42.0376625053
21
-37.8601042665
31
0.0000000000
0
SPLINE
5
342
100
AcDbEntity
8
0
100
AcDbSpline
62
9
6
CONTINUOUS
70
0
71
3
72
13
73
9
74
7
42
0.0000001000
43
0.0000001000
44
0.0000000001
12
0.1172087767
22
-1.1874762279
32
0.0000000000
13
0.1208858658
23
-1.1871075337
33
0.0000000000
40
0.0000000000
40
0.0000000000
40
0.0000000000
40
0.0000000000
40
0.2775399970
40
0.5108622907
40
0.6998505164
40
0.8444116697
40
0.9444765055
40
1.0000000000
40
1.0000000000
40
1.0000000000
40
1.0000000000
10
-36.8552495450
20
-42.7156466000
30
0.0000000000
10
-36.8444061705
20
-42.8255039829
30
0.0000000000
10
-36.8243600194
20
-43.0277076861
30
0.0000000000
10
-36.7966780219
20
-43.3046926426
30
0.0000000000
10
-36.7741102058
20
-43.5290329789
30
0.0000000000
10
-36.7567556549
20
-43.7006271980
30
0.0000000000
10
-36.7447043194
20
-43.8194015047
30
0.0000000000
10
-36.7384324631
20
-43.8809679558
30
0.0000000000
10
-36.7361951279
20
-43.9029387420
30
0.0000000000
11
-36.8552495450
21
-42.7156466000
31
0.0000000000
11
-36.8225775299
21
-43.0452047126
31
0.0000000000
11
-36.7948912961
21
-43.3222357384
31
0.0000000000
11
-36.7723188261
21
-43.5466127711
31
0.0000000000
11
-36.7549638353
21
-43.7182346242
31
0.0000000000
11
-36.7429056722
21
-43.8370262347
31
0.0000000000
11
-36.7361951279
21
-43.9029387420
31
0.0000000000
0
SPLINE
5
343
100
AcDbEntity
8
0
100
AcDbSpline
62
9
6
CONTINUOUS
70
0
71
3
72
29
73
25
74
23
42
0.0000001000
43
0.0000001000
44
0.0000000001
12
-5.1863055668
22
-0.5368553337
32
0.0000000000
13
0.5353999058
23
-5.1864560176
33
0.0000000000
40
0.0000000000
40
0.0000000000
40
0.0000000000
40
0.0000000000
40
0.0725315007
40
0.1444559184
40
0.2154306456
40
0.2851175991
40
0.3531848305
40
0.4193081083
40
0.4831724621
40
0.5444736834
40
0.6029197758
40
0.6582323458
40
0.7101479302
40
0.7584192528
40
0.8028164036
40
0.8431279379
40
0.8791618881
40
0.9107466876
40
0.9377320053
40
0.9599894980
40
0.9774135092
40
0.9899218344
40
0.9974572410
40
1.0000000000
40
1.0000000000
40
1.0000000000
40
1.0000000000
10
-36.8969636546
20
-36.8871424891
30
0.0000000000
10
-37.0223538298
20
-36.9001221301
30
0.0000000000
10
-37.2720798807
20
-36.9260191092
30
0.0000000000
10
-37.6444878926
20
-36.9647800161
30
0.0000000000
10
-38.0119638982
20
-37.0031703864
30
0.0000000000
10
-38.3727573983
20
-37.0410073105
30
0.0000000000
10
-38.7251497284
20
-37.0781105021
30
0.0000000000
10
-39.0674622474
20
-37.1143031527
30
0.0000000000
10
-39.3980643268
20
-37.1494127737
30
0.0000000000
10
-39.7153811445
20
-37.1832719984
30
0.0000000000
10
-40.0179011021
20
-37.2157194183
30
0.0000000000
10
-40.3041833227
20
-37.2466001707
30
0.0000000000
10
-40.5728635055
20
-37.2757672322
30
0.0000000000
10
-40.8226638547
20
-37.3030801349
30
0.0000000000
10
-41.0523877443
20
-37.3284120966
30
0.0000000000
10
-41.2609629496
20
-37.3516291501
30
0.0000000000
10
-41.4473260220
20
-37.3726594449
30
0.0000000000
10
-41.6108069332
20
-37.3912769582
30
0.0000000000
10
-41.7499747695
20
-37.4077617029
30
0.0000000000
10
-41.8660404707
20
-37.4209614999
30
0.0000000000
10
-41.9534114715
20
-37.4336741210
30
0.0000000000
10
-42.0239799299
20
-37.4387952740
30
0.0000000000
10
-42.0522099277
20
-37.4505856825
30
0.0000000000
10
-42.0804963853
20
-37.4475129562
30
0.0000000000
10
-42.0800425877
20
-37.4519089255
30
0.0000000000
11
-36.8969636546
21
-36.8871424891
31
0.0000000000
11
-37.2731269054
21
-36.9261516276
31
0.0000000000
11
-37.6461270838
21
-36.9649749427
31
0.0000000000
11
-38.0141873720
21
-37.0034274964
31
0.0000000000
11
-38.3755544837
21
-37.0413261167
31
0.0000000000
11
-38.7285070162
21
-37.0784902703
31
0.0000000000
11
-39.0713636505
21
-37.1147429225
31
0.0000000000
11
-39.4024911599
21
-37.1499113810
31
0.0000000000
11
-39.7203121907
21
-37.1838281176
31
0.0000000000
11
-40.0233127757
21
-37.2163315672
31
0.0000000000
11
-40.3100495459
21
-37.2472668969
31
0.0000000000
11
-40.5791566066
21
-37.2764867436
31
0.0000000000
11
-40.8293520436
21
-37.3038519161
31
0.0000000000
11
-41.0594440299
21
-37.3292320582
31
0.0000000000
11
-41.2683365029
21
-37.3525062692
31
0.0000000000
11
-41.4550343856
21
-37.3735636807
31
0.0000000000
11
-41.6186483270
21
-37.3923039838
31
0.0000000000
11
-41.7583989383
21
-37.4086379076
31
0.0000000000
11
-41.8736205056
21
-37.4224876439
31
0.0000000000
11
-41.9637641613
21
-37.4337872185
31
0.0000000000
11
-42.0284004985
21
-37.4424828047
31
0.0000000000
11
-42.0672216165
21
-37.4485329806
31
0.0000000000
11
-42.0800425877
21
-37.4519089255
31
0.0000000000
0
SPLINE
5
344
100
AcDbEntity
8
0
100
AcDbSpline
62
9
6
CONTINUOUS
70
0
71
3
72
28
73
24
74
22
42
0.0000001000
43
0.0000001000
44
0.0000000001
12
0.0409966803
22
-5.8285092071
32
0.0000000000
13
0.0418691568
23
-5.8285030049
33
0.0000000000
40
0.0000000000
40
0.0000000000
40
0.0000000000
40
0.0000000000
40
0.0681817887
40
0.1360550991
40
0.2033116627
40
0.2696454417
40
0.3347549113
40
0.3983441419
40
0.4601239219
40
0.5198133752
40
0.5771411122
40
0.6318465653
40
0.6836809699
40
0.7324087219
40
0.7778082529
40
0.8196732360
40
0.8578133219
40
0.8920551516
40
0.9222430400
40
0.9482398277
40
0.9699273135
40
0.9872068372
40
1.0000000000
40
1.0000000000
40
1.0000000000
40
1.0000000000
10
-36.8969636548
20
-36.8871424891
30
0.0000000000
10
-36.8960319124
20
-37.0196085502
30
0.0000000000
10
-36.8941479365
20
-37.2839411750
30
0.0000000000
10
-36.8913527585
20
-37.6789423556
30
0.0000000000
10
-36.8885676406
20
-38.0703530480
30
0.0000000000
10
-36.8858219581
20
-38.4563940617
30
0.0000000000
10
-36.8831209930
20
-38.8353100090
30
0.0000000000
10
-36.8804802839
20
-39.2053782670
30
0.0000000000
10
-36.8779109578
20
-39.5649163008
30
0.0000000000
10
-36.8754254284
20
-39.9122892641
30
0.0000000000
10
-36.8730352037
20
-40.2459179576
30
0.0000000000
10
-36.8707515763
20
-40.5642855712
30
0.0000000000
10
-36.8685853118
20
-40.8659448195
30
0.0000000000
10
-36.8665466841
20
-41.1495241868
30
0.0000000000
10
-36.8646453641
20
-41.4137346066
30
0.0000000000
10
-36.8628904551
20
-41.6573749355
30
0.0000000000
10
-36.8612902357
20
-41.8793376915
30
0.0000000000
10
-36.8598526466
20
-42.0786137846
30
0.0000000000
10
-36.8585839375
20
-42.2542974568
30
0.0000000000
10
-36.8574916642
20
-42.4055901273
30
0.0000000000
10
-36.8565781485
20
-42.5318039737
30
0.0000000000
10
-36.8558531340
20
-42.6323653947
30
0.0000000000
10
-36.8554280914
20
-42.6907916041
30
0.0000000000
10
-36.8552495450
20
-42.7156466000
30
0.0000000000
11
-36.8969636548
21
-36.8871424891
31
0.0000000000
11
-36.8941470446
21
-37.2845405215
31
0.0000000000
11
-36.8913416824
21
-37.6801405750
31
0.0000000000
11
-36.8885550927
21
-38.0721458678
31
0.0000000000
11
-36.8858040175
21
-38.4587726861
31
0.0000000000
11
-36.8830994534
21
-38.8382635791
31
0.0000000000
11
-36.8804545435
21
-39.2088937264
31
0.0000000000
11
-36.8778813847
21
-39.5689774566
31
0.0000000000
11
-36.8753920585
21
-39.9168776845
31
0.0000000000
11
-36.8729982137
21
-40.2510126180
31
0.0000000000
11
-36.8707111164
21
-40.5698635400
31
0.0000000000
11
-36.8685415661
21
-40.8719805281
31
0.0000000000
11
-36.8664998406
21
-41.1559903660
31
0.0000000000
11
-36.8645956429
21
-41.4206016449
31
0.0000000000
11
-36.8628380507
21
-41.6646117906
31
0.0000000000
11
-36.8612354524
21
-41.8869113549
31
0.0000000000
11
-36.8597955627
21
-42.0864899172
31
0.0000000000
11
-36.8585251966
21
-42.2624400692
31
0.0000000000
11
-36.8574307177
21
-42.4139623814
31
0.0000000000
11
-36.8565168247
21
-42.5403679150
31
0.0000000000
11
-36.8557890352
21
-42.6410816402
31
0.0000000000
11
-36.8552495450
21
-42.7156466000
31
0.0000000000
0
SPLINE
5
345
100
AcDbEntity
8
0
100
AcDbSpline
62
9
6
CONTINUOUS
70
0
71
3
72
13
73
9
74
7
42
0.0000001000
43
0.0000001000
44
0.0000000001
12
-0.1208858815
22
-1.1871075317
32
0.0000000000
13
-0.1172087719
23
-1.1874762279
33
0.0000000000
40
0.0000000000
40
0.0000000000
40
0.0000000000
40
0.0000000000
40
0.0555234914
40
0.1555883246
40
0.3001494755
40
0.4891377002
40
0.7224599957
40
1.0000000000
40
1.0000000000
40
1.0000000000
40
1.0000000000
10
-36.7361951373
20
40.8784855274
30
0.0000000000
10
-36.7384324727
20
40.8565147425
30
0.0000000000
10
-36.7447043111
20
40.7949482917
30
0.0000000000
10
-36.7567556581
20
40.6761739896
30
0.0000000000
10
-36.7741102031
20
40.5045797724
30
0.0000000000
10
-36.7966780215
20
40.2802394370
30
0.0000000000
10
-36.8243600181
20
40.0032544773
30
0.0000000000
10
-36.8444061707
20
39.8010507707
30
0.0000000000
10
-36.8552495450
20
39.6911933849
30
0.0000000000
11
-36.7361951373
21
40.8784855274
31
0.0000000000
11
-36.7429056719
21
40.8125730227
31
0.0000000000
11
-36.7549638346
21
40.6937814154
31
0.0000000000
11
-36.7723188250
21
40.5221595653
31
0.0000000000
11
-36.7948912949
21
40.2977825338
31
0.0000000000
11
-36.8225775289
21
40.0207515059
31
0.0000000000
11
-36.8552495450
21
39.6911933849
31
0.0000000000
0
SPLINE
5
346
100
AcDbEntity
8
0
100
AcDbSpline
62
9
6
CONTINUOUS
70
0
71
3
72
8
73
4
74
2
42
0.0000001000
43
0.0000001000
44
0.0000000001
12
-0.1430681078
22
1.4657944393
32
-0.4706148459
13
-0.1368989642
23
1.4663834749
33
-0.4708039645
40
0.0000000000
40
0.0000000000
40
0.0000000000
40
0.0000000000
40
1.0000000000
40
1.0000000000
40
1.0000000000
40
1.0000000000
10
-42.2748190832
20
-35.5122266076
30
-5.5367600000
10
-42.3225084525
20
-35.0236284611
30
-5.6936316153
10
-42.3691698377
20
-34.5349299788
30
-5.8505354449
10
-42.4148028258
20
-34.0461354872
30
-6.0074700997
11
-42.2748190832
21
-35.5122266076
31
-5.5367600000
11
-42.4148028258
21
-34.0461354872
31
-6.0074700997
0
SPLINE
5
347
100
AcDbEntity
8
0
100
AcDbSpline
62
9
6
CONTINUOUS
70
0
71
3
72
8
73
4
74
2
42
0.0000001000
43
0.0000001000
44
0.0000000001
12
-0.0010449421
22
0.0111928227
32
-0.0035936202
13
-0.0010445826
23
0.0111928563
33
-0.0035936310
40
0.0000000000
40
0.0000000000
40
0.0000000000
40
0.0000000000
40
1.0000000000
40
1.0000000000
40
1.0000000000
40
1.0000000000
10
-42.4148028258
20
-34.0461354872
30
-6.0074700997
10
-42.4151511398
20
-34.0424045463
30
-6.0086679732
10
-42.4154993939
20
-34.0386735998
30
-6.0098658484
10
-42.4158475881
20
-34.0349426477
30
-6.0110637254
11
-42.4148028258
21
-34.0461354872
31
-6.0074700997
11
-42.4158475881
21
-34.0349426477
31
-6.0110637254
0
SPLINE
5
348
100
AcDbEntity
8
0
100
AcDbSpline
62
9
6
CONTINUOUS
70
0
71
3
72
8
73
4
74
2
42
0.0000001000
43
0.0000001000
44
0.0000000001
12
-0.0370291237
22
0.3967725060
32
-0.1273896440
13
-0.0365773497
23
0.3968144088
33
-0.1274030975
40
0.0000000000
40
0.0000000000
40
0.0000000000
40
0.0000000000
40
1.0000000000
40
1.0000000000
40
1.0000000000
40
1.0000000000
10
-42.4158475881
20
-34.0349426477
30
-6.0110637254
10
-42.4281906294
20
-33.9026851457
30
-6.0535269400
10
-42.4404583789
20
-33.7704206170
30
-6.0959924107
10
-42.4526508288
20
-33.6381491474
30
-6.1384601099
11
-42.4158475881
21
-34.0349426477
31
-6.0110637254
11
-42.4526508288
21
-33.6381491474
31
-6.1384601099
0
SPLINE
5
349
100
AcDbEntity
8
0
100
AcDbSpline
62
9
6
CONTINUOUS
70
0
71
3
72
8
73
4
74
2
42
0.0000001000
43
0.0000001000
44
0.0000000001
12
-0.0575813002
22
0.5899455231
32
-0.1894044363
13
-0.0565821050
23
0.5900421949
33
-0.1894354732
40
0.0000000000
40
0.0000000000
40
0.0000000000
40
0.0000000000
40
1.0000000000
40
1.0000000000
40
1.0000000000
40
1.0000000000
10
-42.2748206449
20
-35.5122106076
30
2.8877130000
10
-42.2940144116
20
-35.3155620999
30
2.8245781879
10
-42.3130416594
20
-35.1188973392
30
2.7614381577
10
-42.3319023611
20
-34.9222166076
30
2.6982930000
11
-42.2748206449
21
-35.5122106076
31
2.8877130000
11
-42.3319023611
21
-34.9222166076
31
2.6982930000
0
SPLINE
5
34A
100
AcDbEntity
8
0
100
AcDbSpline
62
9
6
CONTINUOUS
70
0
71
3
72
8
73
4
74
2
42
0.0000001000
43
0.0000001000
44
0.0000000001
12
0.0365773301
22
-0.3968141954
32
0.1274042194
13
0.0370291035
23
-0.3967722926
33
0.1273907657
40
0.0000000000
40
0.0000000000
40
0.0000000000
40
0.0000000000
40
1.0000000000
40
1.0000000000
40
1.0000000000
40
1.0000000000
10
-42.4526508288
20
-33.6381491474
30
2.8860395156
10
-42.4404583855
20
-33.7704205459
30
2.9285075888
10
-42.4281906426
20
-33.9026850034
30
2.9709734334
10
-42.4158476080
20
-34.0349424343
30
3.0134370220
11
-42.4526508288
21
-33.6381491474
31
2.8860395156
11
-42.4158476080
21
-34.0349424343
31
3.0134370220
0
SPLINE
5
34B
100
AcDbEntity
8
0
100
AcDbSpline
62
9
6
CONTINUOUS
70
0
71
3
72
8
73
4
74
2
42
0.0000001000
43
0.0000001000
44
0.0000000001
12
0.0010446285
22
-0.0111933484
32
0.0035938226
13
0.0010449881
23
-0.0111933148
33
0.0035938118
40
0.0000000000
40
0.0000000000
40
0.0000000000
40
0.0000000000
40
1.0000000000
40
1.0000000000
40
1.0000000000
40
1.0000000000
10
-42.4158476080
20
-34.0349424343
30
3.0134370220
10
-42.4154993985
20
-34.0386735504
30
3.0146349628
10
-42.4151511291
20
-34.0424046609
30
3.0158329019
10
-42.4148027998
20
-34.0461357659
30
3.0170308391
11
-42.4158476080
21
-34.0349424343
31
3.0134370220
11
-42.4148027998
21
-34.0461357659
31
3.0170308391
0
SPLINE
5
34C
100
AcDbEntity
8
0
100
AcDbSpline
62
9
6
CONTINUOUS
70
0
71
3
72
8
73
4
74
2
42
0.0000001000
43
0.0000001000
44
0.0000000001
12
0.1368982856
22
-1.4663761933
32
0.4708060255
13
0.1430673680
23
-1.4657871636
33
0.4706169071
40
0.0000000000
40
0.0000000000
40
0.0000000000
40
0.0000000000
40
1.0000000000
40
1.0000000000
40
1.0000000000
40
1.0000000000
10
-42.4148027998
20
-34.0461357659
30
3.0170308391
10
-42.3691700379
20
-34.5349278303
30
3.1739661810
10
-42.3225088891
20
-35.0236238863
30
3.3308706976
10
-42.2748197664
20
-35.5122196076
30
3.4877430000
11
-42.4148027998
21
-34.0461357659
31
3.0170308391
11
-42.2748197664
21
-35.5122196076
31
3.4877430000
0
SPLINE
5
34D
100
AcDbEntity
8
0
100
AcDbSpline
62
9
6
CONTINUOUS
70
0
71
3
72
8
73
4
74
2
42
0.0000001000
43
0.0000001000
44
0.0000000001
12
-0.1430673680
22
1.4657871636
32
0.4706090900
13
-0.1368982856
23
1.4663761933
33
0.4707982052
40
0.0000000000
40
0.0000000000
40
0.0000000000
40
0.0000000000
40
1.0000000000
40
1.0000000000
40
1.0000000000
40
1.0000000000
10
-42.2748197664
20
-35.5122196076
30
0.9612100000
10
-42.3225088891
20
-35.0236238863
30
1.1180796967
10
-42.3691700379
20
-34.5349278303
30
1.2749816070
10
-42.4148027998
20
-34.0461357659
30
1.4319143421
11
-42.2748197664
21
-35.5122196076
31
0.9612100000
11
-42.4148027998
21
-34.0461357659
31
1.4319143421
0
SPLINE
5
34E
100
AcDbEntity
8
0
100
AcDbSpline
62
9
6
CONTINUOUS
70
0
71
3
72
8
73
4
74
2
42
0.0000001000
43
0.0000001000
44
0.0000000001
12
-0.0010449881
22
0.0111933148
32
0.0035937521
13
-0.0010446285
23
0.0111933484
33
0.0035937629
40
0.0000000000
40
0.0000000000
40
0.0000000000
40
0.0000000000
40
1.0000000000
40
1.0000000000
40
1.0000000000
40
1.0000000000
10
-42.4148027998
20
-34.0461357659
30
1.4319143421
10
-42.4151511291
20
-34.0424046609
30
1.4331122595
10
-42.4154993985
20
-34.0386735504
30
1.4343101786
10
-42.4158476080
20
-34.0349424343
30
1.4355080996
11
-42.4148027998
21
-34.0461357659
31
1.4319143421
11
-42.4158476080
21
-34.0349424343
31
1.4355080996
0
SPLINE
5
34F
100
AcDbEntity
8
0
100
AcDbSpline
62
9
6
CONTINUOUS
70
0
71
3
72
8
73
4
74
2
42
0.0000001000
43
0.0000001000
44
0.0000000001
12
-0.0370291035
22
0.3967722926
32
0.1273886497
13
-0.0365773301
23
0.3968141954
33
0.1274021031
40
0.0000000000
40
0.0000000000
40
0.0000000000
40
0.0000000000
40
1.0000000000
40
1.0000000000
40
1.0000000000
40
1.0000000000
10
-42.4158476080
20
-34.0349424343
30
1.4355080996
10
-42.4281906426
20
-33.9026850034
30
1.4779709828
10
-42.4404583855
20
-33.7704205459
30
1.5204361221
10
-42.4526508288
20
-33.6381491474
30
1.5629034898
11
-42.4158476080
21
-34.0349424343
31
1.4355080996
11
-42.4526508288
21
-33.6381491474
31
1.5629034898
0
SPLINE
5
350
100
AcDbEntity
8
0
100
AcDbSpline
62
9
6
CONTINUOUS
70
0
71
3
72
8
73
4
74
2
42
0.0000001000
43
0.0000001000
44
0.0000000001
12
0.0565821050
22
-0.5900421949
32
-0.1894424737
13
0.0575813002
23
-0.5899455231
33
-0.1894114357
40
0.0000000000
40
0.0000000000
40
0.0000000000
40
0.0000000000
40
1.0000000000
40
1.0000000000
40
1.0000000000
40
1.0000000000
10
-42.3319023611
20
-34.9222166076
30
1.7506600000
10
-42.3130416594
20
-35.1188973392
30
1.6875125088
10
-42.2940144116
20
-35.3155620999
30
1.6243701452
10
-42.2748206449
20
-35.5122106076
30
1.5612330000
11
-42.3319023611
21
-34.9222166076
31
1.7506600000
11
-42.2748206449
21
-35.5122106076
31
1.5612330000
0
SPLINE
5
351
100
AcDbEntity
8
0
100
AcDbSpline
62
9
6
CONTINUOUS
70
0
71
3
72
8
73
4
74
2
42
0.0000001000
43
0.0000001000
44
0.0000000001
12
0.0368172994
22
-0.3994175354
32
-0.1282314049
13
0.0372750199
23
-0.3993750794
33
-0.1282177746
40
0.0000000000
40
0.0000000000
40
0.0000000000
40
0.0000000000
40
1.0000000000
40
1.0000000000
40
1.0000000000
40
1.0000000000
10
-42.4526508288
20
-33.6381491474
30
2.1629241228
10
-42.4403783957
20
-33.7712883259
30
2.1201803212
10
-42.4280296718
20
-33.9044204721
30
2.0774387772
10
-42.4156046651
20
-34.0375454985
30
2.0346995190
11
-42.4526508288
21
-33.6381491474
31
2.1629241228
11
-42.4156046651
21
-34.0375454985
31
2.0346995190
0
SPLINE
5
352
100
AcDbEntity
8
0
100
AcDbSpline
62
9
6
CONTINUOUS
70
0
71
3
72
8
73
4
74
2
42
0.0000001000
43
0.0000001000
44
0.0000000001
12
0.0003439035
22
-0.0036846786
32
-0.0011829514
13
0.0003439424
23
-0.0036846750
33
-0.0011829502
40
0.0000000000
40
0.0000000000
40
0.0000000000
40
0.0000000000
40
1.0000000000
40
1.0000000000
40
1.0000000000
40
1.0000000000
10
-42.4156046651
20
-34.0375454985
30
2.0346995190
10
-42.4154900306
20
-34.0387737248
30
2.0343052019
10
-42.4153753896
20
-34.0400019504
30
2.0339108850
10
-42.4152607422
20
-34.0412301754
30
2.0335165683
11
-42.4156046651
21
-34.0375454985
31
2.0346995190
11
-42.4152607422
21
-34.0412301754
31
2.0335165683
0
SPLINE
5
353
100
AcDbEntity
8
0
100
AcDbSpline
62
9
6
CONTINUOUS
70
0
71
3
72
8
73
4
74
2
42
0.0000001000
43
0.0000001000
44
0.0000000001
12
0.0290277928
22
-0.3109764252
32
-0.0998377396
13
0.0293052862
23
-0.3109503979
33
-0.0998293837
40
0.0000000000
40
0.0000000000
40
0.0000000000
40
0.0000000000
40
1.0000000000
40
1.0000000000
40
1.0000000000
40
1.0000000000
10
-42.4152607422
20
-34.0412301754
30
2.0335165683
10
-42.4055848112
20
-34.1448889838
30
2.0002373217
10
-42.3958626295
20
-34.2485434749
30
1.9669594612
10
-42.3860942007
20
-34.3521936076
30
1.9336830000
11
-42.4152607422
21
-34.0412301754
31
2.0335165683
11
-42.3860942007
21
-34.3521936076
31
1.9336830000
0
SPLINE
5
354
100
AcDbEntity
8
0
100
AcDbSpline
62
9
6
CONTINUOUS
70
0
71
3
72
8
73
4
74
2
42
0.0000001000
43
0.0000001000
44
0.0000000001
12
-0.0293052862
22
0.3109503979
32
-0.0998355633
13
-0.0290277928
23
0.3109764252
33
-0.0998439198
40
0.0000000000
40
0.0000000000
40
0.0000000000
40
0.0000000000
40
1.0000000000
40
1.0000000000
40
1.0000000000
40
1.0000000000
10
-42.3860942007
20
-34.3521936076
30
2.5152630000
10
-42.3958626295
20
-34.2485434749
30
2.4819844789
10
-42.4055848112
20
-34.1448889838
30
2.4487045584
10
-42.4152607422
20
-34.0412301754
30
2.4154232518
11
-42.3860942007
21
-34.3521936076
31
2.5152630000
11
-42.4152607422
21
-34.0412301754
31
2.4154232518
0
SPLINE
5
355
100
AcDbEntity
8
0
100
AcDbSpline
62
9
6
CONTINUOUS
70
0
71
3
72
8
73
4
74
2
42
0.0000001000
43
0.0000001000
44
0.0000000001
12
-0.0003439424
22
0.0036846750
32
-0.0011830234
13
-0.0003439035
23
0.0036846786
33
-0.0011830246
40
0.0000000000
40
0.0000000000
40
0.0000000000
40
0.0000000000
40
1.0000000000
40
1.0000000000
40
1.0000000000
40
1.0000000000
10
-42.4152607422
20
-34.0412301754
30
2.4154232518
10
-42.4153753896
20
-34.0400019504
30
2.4150289107
10
-42.4154900306
20
-34.0387737248
30
2.4146345693
10
-42.4156046651
20
-34.0375454985
30
2.4142402278
11
-42.4152607422
21
-34.0412301754
31
2.4154232518
11
-42.4156046651
21
-34.0375454985
31
2.4142402278
0
SPLINE
5
356
100
AcDbEntity
8
0
100
AcDbSpline
62
9
6
CONTINUOUS
70
0
71
3
72
8
73
4
74
2
42
0.0000001000
43
0.0000001000
44
0.0000000001
12
-0.0372750199
22
0.3993750794
32
-0.1282257115
13
-0.0368172994
23
0.3994175354
33
-0.1282393427
40
0.0000000000
40
0.0000000000
40
0.0000000000
40
0.0000000000
40
1.0000000000
40
1.0000000000
40
1.0000000000
40
1.0000000000
10
-42.4156046651
20
-34.0375454985
30
2.4142402278
10
-42.4280296718
20
-33.9044204721
30
2.3714983240
10
-42.4403783957
20
-33.7712883259
30
2.3287541342
10
-42.4526508288
20
-33.6381491474
30
2.2860076866
11
-42.4156046651
21
-34.0375454985
31
2.4142402278
11
-42.4526508288
21
-33.6381491474
31
2.2860076866
0
SPLINE
5
357
100
AcDbEntity
8
0
100
AcDbSpline
62
9
6
CONTINUOUS
70
0
71
3
72
14
73
10
74
8
42
0.0000001000
43
0.0000001000
44
0.0000000001
12
0.0000000000
22
0.0000000000
32
0.3557891279
13
-0.0271788147
23
0.2948531091
33
0.2015811259
40
0.0000000000
40
0.0000000000
40
0.0000000000
40
0.0000000000
40
0.1428571429
40
0.2857142857
40
0.4285714286
40
0.5714285714
40
0.7142857143
40
0.8571428571
40
1.0000000000
40
1.0000000000
40
1.0000000000
40
1.0000000000
10
-42.4379565071
20
-33.7971656076
30
5.2095220000
10
-42.4379565071
20
-33.7971656076
30
5.2264643394
10
-42.4381717916
20
-33.7948418024
30
5.2599876834
10
-42.4391455448
20
-33.7843286232
30
5.3098334827
10
-42.4407319052
20
-33.7671940232
30
5.3573057477
10
-42.4429328900
20
-33.7434053390
30
5.4024373545
10
-42.4456611884
20
-33.7138926829
30
5.4434412309
10
-42.4489175024
20
-33.6786322922
30
5.4803486679
10
-42.4513565995
20
-33.6521897717
30
5.5012636965
10
-42.4526508288
20
-33.6381491474
30
5.5108627978
11
-42.4379565071
21
-33.7971656076
31
5.2095220000
11
-42.4382802627
21
-33.7936705571
31
5.2599144806
11
-42.4392476460
21
-33.7832250531
31
5.3094378937
11
-42.4408343426
21
-33.7660850092
31
5.3569156380
11
-42.4430207756
21
-33.7424513437
31
5.4017493994
11
-42.4457491910
21
-33.7129347271
31
5.4427584910
11
-42.4489845577
21
-33.6778983938
31
5.4794261856
11
-42.4526508288
21
-33.6381491474
31
5.5108627978
0
SPLINE
5
358
100
AcDbEntity
8
0
100
AcDbSpline
62
9
6
CONTINUOUS
70
0
71
3
72
8
73
4
74
2
42
0.0000001000
43
0.0000001000
44
0.0000000001
12
0.1093429226
22
-1.1602081759
32
-0.0000690110
13
0.1132053029
23
-1.1598376807
33
-0.0000689889
40
0.0000000000
40
0.0000000000
40
0.0000000000
40
0.0000000000
40
1.0000000000
40
1.0000000000
40
1.0000000000
40
1.0000000000
10
-42.3860948605
20
-34.3521866076
30
4.4878530000
10
-42.3496472196
20
-34.7389226662
30
4.4878299963
10
-42.3125557458
20
-35.1255980473
30
4.4878069963
10
-42.2748206449
20
-35.5122106076
30
4.4877840000
11
-42.3860948605
21
-34.3521866076
31
4.4878530000
11
-42.2748206449
21
-35.5122106076
31
4.4877840000
0
SPLINE
5
359
100
AcDbEntity
8
0
100
AcDbSpline
62
9
6
CONTINUOUS
70
0
71
3
72
8
73
4
74
2
42
0.0000001000
43
0.0000001000
44
0.0000000001
12
-0.1132046199
22
1.1598306830
32
-0.6012004222
13
-0.1093422862
23
1.1602011737
33
-0.6013924668
40
0.0000000000
40
0.0000000000
40
0.0000000000
40
0.0000000000
40
1.0000000000
40
1.0000000000
40
1.0000000000
40
1.0000000000
10
-42.2748206449
20
-35.5122106076
30
5.6128370000
10
-42.3125555182
20
-35.1256003799
30
5.4124368593
10
-42.3496467720
20
-34.7389273321
30
5.2120041556
10
-42.3860942007
20
-34.3521936076
30
5.0115400000
11
-42.2748206449
21
-35.5122106076
31
5.6128370000
11
-42.3860942007
21
-34.3521936076
31
5.0115400000
0
SPLINE
5
35A
100
AcDbEntity
8
0
100
AcDbSpline
62
9
6
CONTINUOUS
70
0
71
3
72
8
73
4
74
2
42
0.0000001000
43
0.0000001000
44
0.0000000001
12
0.1158869626
22
-1.2323768254
32
0.6388017628
13
0.1202446652
23
-1.2319592722
33
0.6385853244
40
0.0000000000
40
0.0000000000
40
0.0000000000
40
0.0000000000
40
1.0000000000
40
1.0000000000
40
1.0000000000
40
1.0000000000
10
-42.3928872651
20
-34.2800342745
30
5.6499757907
10
-42.3542582775
20
-34.6908265496
30
5.8629097116
10
-42.3149028832
20
-35.1015505168
30
6.0758082252
10
-42.2748213281
20
-35.5122036076
30
6.2886700000
11
-42.3928872651
21
-34.2800342745
31
5.6499757907
11
-42.2748213281
21
-35.5122036076
31
6.2886700000
0
SPLINE
5
35B
100
AcDbEntity
8
0
100
AcDbSpline
62
9
6
CONTINUOUS
70
0
71
3
72
12
73
8
74
6
42
0.0000001000
43
0.0000001000
44
0.0000000001
12
0.0410974927
22
-0.4458518015
32
-0.1024346141
13
0.0318654058
23
-0.3413936374
33
-0.3000795530
40
0.0000000000
40
0.0000000000
40
0.0000000000
40
0.0000000000
40
0.2125613463
40
0.4251226926
40
0.6376840389
40
0.8502453852
40
1.0000000000
40
1.0000000000
40
1.0000000000
40
1.0000000000
10
-42.4526508288
20
-33.6381491474
30
6.1895013348
10
-42.4497389160
20
-33.6697394338
30
6.1822434549
10
-42.4440144265
20
-33.7317488680
30
6.1645105779
10
-42.4356679221
20
-33.8219010183
30
6.1281015282
10
-42.4277393260
20
-33.9073039580
30
6.0826478526
10
-42.4209828383
20
-33.9798931540
30
6.0335844317
10
-42.4170140841
20
-34.0224456567
30
5.9988962956
10
-42.4154234203
20
-34.0394874143
30
5.9839168630
11
-42.4526508288
21
-33.6381491474
31
6.1895013348
11
-42.4440544648
21
-33.7312718679
31
6.1628756222
11
-42.4357375735
21
-33.8211094832
31
6.1265940905
11
-42.4278116503
21
-33.9064900915
31
6.0811528456
11
-42.4203443235
21
-33.9867234106
31
6.0269279446
11
-42.4154234203
21
-34.0394874143
31
5.9839168630
0
SPLINE
5
35C
100
AcDbEntity
8
0
100
AcDbSpline
62
9
6
CONTINUOUS
70
0
71
3
72
12
73
8
74
6
42
0.0000001000
43
0.0000001000
44
0.0000000001
12
0.0290947762
22
-0.3117101833
32
-0.2739882710
13
0.0151816292
23
-0.1614460123
33
-0.3832619108
40
0.0000000000
40
0.0000000000
40
0.0000000000
40
0.0000000000
40
0.0687876741
40
0.3015907556
40
0.5343938371
40
0.7671969185
40
1.0000000000
40
1.0000000000
40
1.0000000000
40
1.0000000000
10
-42.4154234203
20
-34.0394874143
30
5.9839168630
10
-42.4147562996
20
-34.0466346871
30
5.9776345244
10
-42.4118697421
20
-34.0775496919
30
5.9495953720
10
-42.4070535802
20
-34.1290551417
30
5.8960700916
10
-42.4015002083
20
-34.1883278024
30
5.8198658286
10
-42.3966979788
20
-34.2394958324
30
5.7375348156
10
-42.3940653751
20
-34.2675058981
30
5.6797173086
10
-42.3928872651
20
-34.2800342745
30
5.6499757907
11
-42.4154234203
21
-34.0394874143
31
5.9839168630
11
-42.4134483172
21
-34.0606409477
31
5.9647312217
11
-42.4071770735
21
-34.1277150134
31
5.8950282452
11
-42.4016253987
21
-34.1869770306
31
5.8188447036
11
-42.3968401994
21
-34.2379703438
31
5.7368022744
11
-42.3928872651
21
-34.2800342745
31
5.6499757907
0
SPLINE
5
35D
100
AcDbEntity
8
0
100
AcDbSpline
62
9
6
CONTINUOUS
70
0
71
3
72
8
73
4
74
2
42
0.0000001000
43
0.0000001000
44
0.0000000001
12
-0.0399468804
22
0.4223901836
32
0.1211183466
13
-0.0394348238
23
0.4224382974
33
0.1211321430
40
0.0000000000
40
0.0000000000
40
0.0000000000
40
0.0000000000
40
1.0000000000
40
1.0000000000
40
1.0000000000
40
1.0000000000
10
-42.3753614277
20
-34.4658776076
30
-0.9061170000
10
-42.3886770545
20
-34.3250808797
30
-0.8657442178
10
-42.4019073434
20
-34.1842760811
30
-0.8253691214
10
-42.4150522847
20
-34.0434633153
30
-0.7849917404
11
-42.3753614277
21
-34.4658776076
31
-0.9061170000
11
-42.4150522847
21
-34.0434633153
31
-0.7849917404
0
SPLINE
5
35E
100
AcDbEntity
8
0
100
AcDbSpline
62
9
6
CONTINUOUS
70
0
71
3
72
8
73
4
74
2
42
0.0000001000
43
0.0000001000
44
0.0000000001
12
-0.0007322744
22
0.0078443544
32
0.0022493308
13
-0.0007320978
23
0.0078443708
33
0.0022493355
40
0.0000000000
40
0.0000000000
40
0.0000000000
40
0.0000000000
40
1.0000000000
40
1.0000000000
40
1.0000000000
40
1.0000000000
10
-42.4150522847
20
-34.0434633153
30
-0.7849917404
10
-42.4152963761
20
-34.0408485305
30
-0.7842419635
10
-42.4155404382
20
-34.0382337430
30
-0.7834921857
10
-42.4157844707
20
-34.0356189527
30
-0.7827424073
11
-42.4150522847
21
-34.0434633153
31
-0.7849917404
11
-42.4157844707
21
-34.0356189527
31
-0.7827424073
0
SPLINE
5
35F
100
AcDbEntity
8
0
100
AcDbSpline
62
9
6
CONTINUOUS
70
0
71
3
72
8
73
4
74
2
42
0.0000001000
43
0.0000001000
44
0.0000000001
12
-0.0370930117
22
0.3974487391
32
0.1139665078
13
-0.0366396964
23
0.3974907853
33
0.1139785643
40
0.0000000000
40
0.0000000000
40
0.0000000000
40
0.0000000000
40
1.0000000000
40
1.0000000000
40
1.0000000000
40
1.0000000000
10
-42.4157844707
20
-34.0356189527
30
-0.7827424073
10
-42.4281488080
20
-33.9031360397
30
-0.7447535713
10
-42.4404375967
20
-33.7706460758
30
-0.7067627136
10
-42.4526508288
20
-33.6381491474
30
-0.6687698589
11
-42.4157844707
21
-34.0356189527
31
-0.7827424073
11
-42.4526508288
21
-33.6381491474
31
-0.6687698589
0
SPLINE
5
360
100
AcDbEntity
8
0
100
AcDbSpline
62
9
6
CONTINUOUS
70
0
71
3
72
8
73
4
74
2
42
0.0000001000
43
0.0000001000
44
0.0000000001
12
0.0367893584
22
-0.3991144143
32
0.1281414167
13
0.0372463845
23
-0.3990720229
33
0.1281278063
40
0.0000000000
40
0.0000000000
40
0.0000000000
40
0.0000000000
40
1.0000000000
40
1.0000000000
40
1.0000000000
40
1.0000000000
10
-42.4526508288
20
-33.6381491474
30
-5.5384304805
10
-42.4403877093
20
-33.7711872855
30
-5.4957166749
10
-42.4280484148
20
-33.9042184020
30
-5.4530051237
10
-42.4156329533
20
-34.0372424097
30
-5.4102958549
11
-42.4526508288
21
-33.6381491474
31
-5.5384304805
11
-42.4156329533
21
-34.0372424097
31
-5.4102958549
0
SPLINE
5
361
100
AcDbEntity
8
0
100
AcDbSpline
62
9
6
CONTINUOUS
70
0
71
3
72
8
73
4
74
2
42
0.0000001000
43
0.0000001000
44
0.0000000001
12
0.0004548501
22
-0.0048734383
32
0.0015646874
13
0.0004549183
23
-0.0048734319
33
0.0015646853
40
0.0000000000
40
0.0000000000
40
0.0000000000
40
0.0000000000
40
1.0000000000
40
1.0000000000
40
1.0000000000
40
1.0000000000
10
-42.4156329533
20
-34.0372424097
30
-5.4102958549
10
-42.4154813366
20
-34.0388668891
30
-5.4097742925
10
-42.4153297085
20
-34.0404913675
30
-5.4092527303
10
-42.4151780691
20
-34.0421158448
30
-5.4087311686
11
-42.4156329533
21
-34.0372424097
31
-5.4102958549
11
-42.4151780691
21
-34.0421158448
31
-5.4087311686
0
SPLINE
5
362
100
AcDbEntity
8
0
100
AcDbSpline
62
9
6
CONTINUOUS
70
0
71
3
72
8
73
4
74
2
42
0.0000001000
43
0.0000001000
44
0.0000000001
12
0.0500114101
22
-0.5357604176
32
0.1720135792
13
0.0508350280
23
-0.5356828970
33
0.1719886901
40
0.0000000000
40
0.0000000000
40
0.0000000000
40
0.0000000000
40
1.0000000000
40
1.0000000000
40
1.0000000000
40
1.0000000000
10
-42.4151780691
20
-34.0421158448
30
-5.4087311686
10
-42.3985075991
20
-34.2207026506
30
-5.3513933088
10
-42.3816998494
20
-34.3992766419
30
-5.2940595634
10
-42.3647548401
20
-34.5778376076
30
-5.2367300000
11
-42.4151780691
21
-34.0421158448
31
-5.4087311686
11
-42.3647548401
21
-34.5778376076
31
-5.2367300000
0
SPLINE
5
363
100
AcDbEntity
8
0
100
AcDbSpline
62
9
6
CONTINUOUS
70
0
71
3
72
8
73
4
74
2
42
0.0000001000
43
0.0000001000
44
0.0000000001
12
0.0366396964
22
-0.3974907853
32
0.1139789712
13
0.0370930117
23
-0.3974487391
33
0.1139669146
40
0.0000000000
40
0.0000000000
40
0.0000000000
40
0.0000000000
40
1.0000000000
40
1.0000000000
40
1.0000000000
40
1.0000000000
10
-42.4526508288
20
-33.6381491474
30
-1.1434649884
10
-42.4404375967
20
-33.7706460758
30
-1.1054719980
10
-42.4281488080
20
-33.9031360397
30
-1.0674810047
10
-42.4157844707
20
-34.0356189527
30
-1.0294920332
11
-42.4526508288
21
-33.6381491474
31
-1.1434649884
11
-42.4157844707
21
-34.0356189527
31
-1.0294920332
0
SPLINE
5
364
100
AcDbEntity
8
0
100
AcDbSpline
62
9
6
CONTINUOUS
70
0
71
3
72
8
73
4
74
2
42
0.0000001000
43
0.0000001000
44
0.0000000001
12
0.0007320978
22
-0.0078443708
32
0.0022493435
13
0.0007322744
23
-0.0078443544
33
0.0022493388
40
0.0000000000
40
0.0000000000
40
0.0000000000
40
0.0000000000
40
1.0000000000
40
1.0000000000
40
1.0000000000
40
1.0000000000
10
-42.4157844707
20
-34.0356189527
30
-1.0294920332
10
-42.4155404382
20
-34.0382337430
30
-1.0287422520
10
-42.4152963761
20
-34.0408485305
30
-1.0279924716
10
-42.4150522847
20
-34.0434633153
30
-1.0272426920
11
-42.4157844707
21
-34.0356189527
31
-1.0294920332
11
-42.4150522847
21
-34.0434633153
31
-1.0272426920
0
SPLINE
5
365
100
AcDbEntity
8
0
100
AcDbSpline
62
9
6
CONTINUOUS
70
0
71
3
72
8
73
4
74
2
42
0.0000001000
43
0.0000001000
44
0.0000000001
12
0.0394348238
22
-0.4224382974
32
0.1211325754
13
0.0399468804
23
-0.4223901836
33
0.1211187790
40
0.0000000000
40
0.0000000000
40
0.0000000000
40
0.0000000000
40
1.0000000000
40
1.0000000000
40
1.0000000000
40
1.0000000000
10
-42.4150522847
20
-34.0434633153
30
-1.0272426920
10
-42.4019073434
20
-34.1842760811
30
-0.9868651669
10
-42.3886770545
20
-34.3250808797
30
-0.9464899263
10
-42.3753614277
20
-34.4658776076
30
-0.9061170000
11
-42.4150522847
21
-34.0434633153
31
-1.0272426920
11
-42.3753614277
21
-34.4658776076
31
-0.9061170000
0
SPLINE
5
366
100
AcDbEntity
8
0
100
AcDbSpline
62
9
6
CONTINUOUS
70
0
71
3
72
8
73
4
74
2
42
0.0000001000
43
0.0000001000
44
0.0000000001
12
0.0365773301
22
-0.3968141954
32
-0.1274045166
13
0.0370291035
23
-0.3967722926
33
-0.1273910630
40
0.0000000000
40
0.0000000000
40
0.0000000000
40
0.0000000000
40
1.0000000000
40
1.0000000000
40
1.0000000000
40
1.0000000000
10
-42.4526508288
20
-33.6381491474
30
-4.3350111117
10
-42.4404583855
20
-33.7704205459
30
-4.3774792839
10
-42.4281906426
20
-33.9026850034
30
-4.4199452276
10
-42.4158476080
20
-34.0349424343
30
-4.4624089153
11
-42.4526508288
21
-33.6381491474
31
-4.3350111117
11
-42.4158476080
21
-34.0349424343
31
-4.4624089153
0
SPLINE
5
367
100
AcDbEntity
8
0
100
AcDbSpline
62
9
6
CONTINUOUS
70
0
71
3
72
8
73
4
74
2
42
0.0000001000
43
0.0000001000
44
0.0000000001
12
0.0010446285
22
-0.0111933484
32
-0.0035938309
13
0.0010449881
23
-0.0111933148
33
-0.0035938202
40
0.0000000000
40
0.0000000000
40
0.0000000000
40
0.0000000000
40
1.0000000000
40
1.0000000000
40
1.0000000000
40
1.0000000000
10
-42.4158476080
20
-34.0349424343
30
-4.4624089153
10
-42.4154993985
20
-34.0386735504
30
-4.4636068589
10
-42.4151511291
20
-34.0424046609
30
-4.4648048008
10
-42.4148027998
20
-34.0461357659
30
-4.4660027409
11
-42.4158476080
21
-34.0349424343
31
-4.4624089153
11
-42.4148027998
21
-34.0461357659
31
-4.4660027409
0
SPLINE
5
368
100
AcDbEntity
8
0
100
AcDbSpline
62
9
6
CONTINUOUS
70
0
71
3
72
8
73
4
74
2
42
0.0000001000
43
0.0000001000
44
0.0000000001
12
0.1368982856
22
-1.4663761933
32
-0.4708071240
13
0.1430673680
23
-1.4657871636
33
-0.4706180052
40
0.0000000000
40
0.0000000000
40
0.0000000000
40
0.0000000000
40
1.0000000000
40
1.0000000000
40
1.0000000000
40
1.0000000000
10
-42.4148027998
20
-34.0461357659
30
-4.4660027409
10
-42.3691700379
20
-34.5349278303
30
-4.6229384489
10
-42.3225088891
20
-35.0236238863
30
-4.7798433316
10
-42.2748197664
20
-35.5122196076
30
-4.9367160000
11
-42.4148027998
21
-34.0461357659
31
-4.4660027409
11
-42.2748197664
21
-35.5122196076
31
-4.9367160000
0
SPLINE
5
369
100
AcDbEntity
8
0
100
AcDbSpline
62
9
6
CONTINUOUS
70
0
71
3
72
8
73
4
74
2
42
0.0000001000
43
0.0000001000
44
0.0000000001
12
-0.0508350280
22
0.5356828970
32
0.1719868749
13
-0.0500114101
23
0.5357604176
33
0.1720117638
40
0.0000000000
40
0.0000000000
40
0.0000000000
40
0.0000000000
40
1.0000000000
40
1.0000000000
40
1.0000000000
40
1.0000000000
10
-42.3647548401
20
-34.5778376076
30
-5.2367300000
10
-42.3816998494
20
-34.3992766419
30
-5.1794010417
10
-42.3985075991
20
-34.2207026506
30
-5.1220679014
10
-42.4151780691
20
-34.0421158448
30
-5.0647306468
11
-42.3647548401
21
-34.5778376076
31
-5.2367300000
11
-42.4151780691
21
-34.0421158448
31
-5.0647306468
0
SPLINE
5
36A
100
AcDbEntity
8
0
100
AcDbSpline
62
9
6
CONTINUOUS
70
0
71
3
72
8
73
4
74
2
42
0.0000001000
43
0.0000001000
44
0.0000000001
12
-0.0004549183
22
0.0048734319
32
0.0015646688
13
-0.0004548501
23
0.0048734383
33
0.0015646709
40
0.0000000000
40
0.0000000000
40
0.0000000000
40
0.0000000000
40
1.0000000000
40
1.0000000000
40
1.0000000000
40
1.0000000000
10
-42.4151780691
20
-34.0421158448
30
-5.0647306468
10
-42.4153297085
20
-34.0404913675
30
-5.0642090905
10
-42.4154813366
20
-34.0388668891
30
-5.0636875339
10
-42.4156329533
20
-34.0372424097
30
-5.0631659769
11
-42.4151780691
21
-34.0421158448
31
-5.0647306468
11
-42.4156329533
21
-34.0372424097
31
-5.0631659769
0
SPLINE
5
36B
100
AcDbEntity
8
0
100
AcDbSpline
62
9
6
CONTINUOUS
70
0
71
3
72
8
73
4
74
2
42
0.0000001000
43
0.0000001000
44
0.0000000001
12
-0.0372463845
22
0.3990720229
32
0.1281264541
13
-0.0367893584
23
0.3991144143
33
0.1281400643
40
0.0000000000
40
0.0000000000
40
0.0000000000
40
0.0000000000
40
1.0000000000
40
1.0000000000
40
1.0000000000
40
1.0000000000
10
-42.4156329533
20
-34.0372424097
30
-5.0631659769
10
-42.4280484148
20
-33.9042184020
30
-5.0204571589
10
-42.4403877093
20
-33.7711872855
30
-4.9777460585
10
-42.4526508288
20
-33.6381491474
30
-4.9350327038
11
-42.4156329533
21
-34.0372424097
31
-5.0631659769
11
-42.4526508288
21
-33.6381491474
31
-4.9350327038
0
SPLINE
5
36C
100
AcDbEntity
8
0
100
AcDbSpline
62
9
6
CONTINUOUS
70
0
71
3
72
8
73
4
74
2
42
0.0000001000
43
0.0000001000
44
0.0000000001
12
-0.1430673680
22
1.4657871636
32
-0.4203003582
13
-0.1368982856
23
1.4663761933
33
-0.4204692568
40
0.0000000000
40
0.0000000000
40
0.0000000000
40
0.0000000000
40
1.0000000000
40
1.0000000000
40
1.0000000000
40
1.0000000000
10
-42.2748197664
20
-35.5122196076
30
-1.2061260000
10
-42.3225088891
20
-35.0236238863
30
-1.3462261194
10
-42.3691700379
20
-34.5349278303
30
-1.4863550088
10
-42.4148027998
20
-34.0461357659
30
-1.6265114278
11
-42.2748197664
21
-35.5122196076
31
-1.2061260000
11
-42.4148027998
21
-34.0461357659
31
-1.6265114278
0
SPLINE
5
36D
100
AcDbEntity
8
0
100
AcDbSpline
62
9
6
CONTINUOUS
70
0
71
3
72
8
73
4
74
2
42
0.0000001000
43
0.0000001000
44
0.0000000001
12
-0.0010449881
22
0.0111933148
32
-0.0032095753
13
-0.0010446285
23
0.0111933484
33
-0.0032095849
40
0.0000000000
40
0.0000000000
40
0.0000000000
40
0.0000000000
40
1.0000000000
40
1.0000000000
40
1.0000000000
40
1.0000000000
10
-42.4148027998
20
-34.0461357659
30
-1.6265114278
10
-42.4151511291
20
-34.0424046609
30
-1.6275812862
10
-42.4154993985
20
-34.0386735504
30
-1.6286511462
10
-42.4158476080
20
-34.0349424343
30
-1.6297210078
11
-42.4148027998
21
-34.0461357659
31
-1.6265114278
11
-42.4158476080
21
-34.0349424343
31
-1.6297210078
0
SPLINE
5
36E
100
AcDbEntity
8
0
100
AcDbSpline
62
9
6
CONTINUOUS
70
0
71
3
72
8
73
4
74
2
42
0.0000001000
43
0.0000001000
44
0.0000000001
12
-0.0370291035
22
0.3967722926
32
-0.1137706352
13
-0.0365773301
23
0.3968141954
33
-0.1137826504
40
0.0000000000
40
0.0000000000
40
0.0000000000
40
0.0000000000
40
1.0000000000
40
1.0000000000
40
1.0000000000
40
1.0000000000
10
-42.4158476080
20
-34.0349424343
30
-1.6297210078
10
-42.4281906426
20
-33.9026850034
30
-1.6676445529
10
-42.4404583855
20
-33.7704205459
30
-1.7055701128
10
-42.4526508288
20
-33.6381491474
30
-1.7434976630
11
-42.4158476080
21
-34.0349424343
31
-1.6297210078
11
-42.4526508288
21
-33.6381491474
31
-1.7434976630
0
SPLINE
5
36F
100
AcDbEntity
8
0
100
AcDbSpline
62
9
6
CONTINUOUS
70
0
71
3
72
8
73
4
74
2
42
0.0000001000
43
0.0000001000
44
0.0000000001
12
0.0365773048
22
-0.3968139209
32
-0.1137830894
13
0.0370290776
23
-0.3967720183
33
-0.1137710741
40
0.0000000000
40
0.0000000000
40
0.0000000000
40
0.0000000000
40
1.0000000000
40
1.0000000000
40
1.0000000000
40
1.0000000000
10
-42.4526508288
20
-33.6381491474
30
-0.0687454731
10
-42.4404583939
20
-33.7704204544
30
-0.1066731696
10
-42.4281906595
20
-33.9026848205
30
-0.1445988758
10
-42.4158476337
20
-34.0349421599
30
-0.1825225671
11
-42.4526508288
21
-33.6381491474
31
-0.0687454731
11
-42.4158476337
21
-34.0349421599
31
-0.1825225671
0
SPLINE
5
370
100
AcDbEntity
8
0
100
AcDbSpline
62
9
6
CONTINUOUS
70
0
71
3
72
8
73
4
74
2
42
0.0000001000
43
0.0000001000
44
0.0000000001
12
0.0010446876
22
-0.0111939811
32
-0.0032097809
13
0.0010450471
23
-0.0111939475
33
-0.0032097713
40
0.0000000000
40
0.0000000000
40
0.0000000000
40
0.0000000000
40
1.0000000000
40
1.0000000000
40
1.0000000000
40
1.0000000000
10
-42.4158476337
20
-34.0349421599
30
-0.1825225671
10
-42.4154994045
20
-34.0386734869
30
-0.1835924941
10
-42.4151511154
20
-34.0424048083
30
-0.1846624195
10
-42.4148027663
20
-34.0461361242
30
-0.1857323432
11
-42.4158476337
21
-34.0349421599
31
-0.1825225671
11
-42.4148027663
21
-34.0461361242
31
-0.1857323432
0
SPLINE
5
371
100
AcDbEntity
8
0
100
AcDbSpline
62
9
6
CONTINUOUS
70
0
71
3
72
8
73
4
74
2
42
0.0000001000
43
0.0000001000
44
0.0000000001
12
0.1368974131
22
-1.4663668312
32
-0.4204684851
13
0.1430664167
23
-1.4657778092
33
-0.4202995879
40
0.0000000000
40
0.0000000000
40
0.0000000000
40
0.0000000000
40
1.0000000000
40
1.0000000000
40
1.0000000000
40
1.0000000000
10
-42.4148027663
20
-34.0461361242
30
-0.1857323432
10
-42.3691702953
20
-34.5349250679
30
-0.3258885049
10
-42.3225094504
20
-35.0236180045
30
-0.4660171374
10
-42.2748206449
20
-35.5122106076
30
-0.6061170000
11
-42.4148027663
21
-34.0461361242
31
-0.1857323432
11
-42.2748206449
21
-35.5122106076
31
-0.6061170000
0
ENDSEC
0
SECTION
2
OBJECTS
0
DICTIONARY
5
372
100
AcDbDictionary
3
ACAD_GROUP
350
373
3
ACAD_MLINESTYLE
350
374
0
DICTIONARY
5
373
102
{ACAD_REACTORS
330
372
102
}
100
AcDbDictionary
0
DICTIONARY
5
374
102
{ACAD_REACTORS
330
372
102
}
100
AcDbDictionary
3
STANDARD
350
375
0
MLINESTYLE
5
375
102
{ACAD_REACTORS
330
374
102
}
100
AcDbMlineStyle
2
STANDARD
70
0
3

62
256
51
90.0
52
90.0
71
2
49
0.5
62
256
6
BYLAYER
49
-0.5
62
256
6
BYLAYER
0
ENDSEC
0
EOF
