  0
SECTION
  2
HEADER
  9
$ACADVER
  1
AC1024
  9
$DWGCODEPAGE
  3
ANSI_1252
  9
$EXTMAX
 10
297.0
 20
210.0
 30
0.0
  9
$EXTMIN
 10
0.0
 20
0.0
 30
0.0
  9
$LIMMIN
 10
0.0
 20
0.0
  9
$LIMMAX
 10
297.0
 20
210.0
  9
$VIEWCTR
 10
148.5
 20
105.0
  9
$VIEWSIZE
 40
210.0
  9
$CLAYER
  8
0
  9
$LTSCALE
 40
16.335
  9
$CELTYPE
  6
BYLAYER
  9
$DIMSCALE
 40
1.0
  9
$DIMASZ
 40
3.0
  9
$DIMEXO
 40
0.5
  9
$DIMDLI
 40
11.286
  9
$DIMEXE
 40
1.5
  9
$DIMCEN
 40
2.673
  9
$DIMLFAC
 40
1.0
  9
$DIMBLK
  1
_FILLED
  9
$DIMALT
 70
0
  9
$DIMALTF
 40
0.0393700787
  9
$DIMTXT
 40
3.0
  9
$DIMTOL
 70
1
  9
$DIMLIM
 70
0
  9
$DIMTFAC
 40
1.0
  9
$DIMTP
 40
0.01
  9
$DIMTM
 40
0.01
  9
$DIMGAP
 40
0.625
  9
$DIMDSEP
 70
44
  9
$AUNITS
 70
0
  9
$PDMODE
 70
3
  9
$PDSIZE
 40
3.0
  9
$HANDSEED
  5
3E3
  9
$TILEMODE
 70
1
  9
$MEASUREMENT
 70
1
  9
$INSUNITS
 70
4
  0
ENDSEC
  0
SECTION
  2
CLASSES
  0
CLASS
  1
ACDBDICTIONARYWDFLT
  2
AcDbDictionaryWithDefault
  3
AutoCAD 2000
 90
0
 91
1
280
0
281
0
  0
CLASS
  1
ACDBPLACEHOLDER
  2
AcDbPlaceHolder
  3
AutoCAD 2000
 90
0
 91
1
280
0
281
0
  0
CLASS
  1
LAYOUT
  2
AcDbLayout
  3
AutoCAD 2000
 90
0
 91
0
280
0
281
0
  0
ENDSEC
  0
SECTION
  2
TABLES
  0
TABLE
  2
VPORT
  5
8
100
AcDbSymbolTable
 70
2
  0
VPORT
  5
1F4
100
AcDbSymbolTableRecord
100
AcDbViewportTableRecord
  2
*ACTIVE
 70
0
 10
0.0
 20
0.0
 11
1.0
 21
1.0
 12
148.5
 22
105.0
 13
0.0
 23
0.0
 14
1.0
 24
1.0
 15
0.0
 25
0.0
 16
0.0
 26
0.0
 36
1.0
 17
0.0
 27
0.0
 37
0.0
 40
210.0
 41
1.4142857143
 42
50.0
 43
0.0
 44
0.0
 50
0.0
 51
0.0
 71
0
 72
100
 73
1
 74
1
 75
0
 76
0
 77
0
 78
0
  0
ENDTAB
  0
TABLE
  2
LTYPE
  5
5
100
AcDbSymbolTable
 70
6
  0
LTYPE
  5
14
100
AcDbSymbolTableRecord
100
AcDbLinetypeTableRecord
  2
BYBLOCK
 70
0
  3

 72
65
 73
0
 40
0.0
  0
LTYPE
  5
15
100
AcDbSymbolTableRecord
100
AcDbLinetypeTableRecord
  2
BYLAYER
 70
0
  3

 72
65
 73
0
 40
0.0
  0
LTYPE
  5
16
100
AcDbSymbolTableRecord
100
AcDbLinetypeTableRecord
  2
CONTINUOUS
 70
64
  3
Solid line
 72
65
 73
0
 40
0.0
  0
LTYPE
  5
1F5
100
AcDbSymbolTableRecord
100
AcDbLinetypeTableRecord
  2
CENTER
 70
64
  3
____ _ ____ _ ____ _ ____ _ ____ _ ____ _ ____
 72
65
 73
4
 40
0.6
 49
0.375
 74
0
 49
-0.075
 74
0
 49
0.075
 74
0
 49
-0.075
 74
0
  0
LTYPE
  5
1F6
100
AcDbSymbolTableRecord
100
AcDbLinetypeTableRecord
  2
HIDDEN
 70
64
  3
- - - - - - - - - - - - - - - - - - - -
 72
65
 73
2
 40
0.2
 49
0.1
 74
0
 49
-0.1
 74
0
  0
LTYPE
  5
1F7
100
AcDbSymbolTableRecord
100
AcDbLinetypeTableRecord
  2
PHANTOM
 70
64
  3
_____ _ _ _____ _ _ _____ _ _ _____
 72
65
 73
6
 40
0.8
 49
0.45
 74
0
 49
-0.05
 74
0
 49
0.1
 74
0
 49
-0.05
 74
0
 49
0.1
 74
0
 49
-0.05
 74
0
  0
LTYPE
  5
1F8
100
AcDbSymbolTableRecord
100
AcDbLinetypeTableRecord
  2
DOT
 70
64
  3
. . . . . . . . . . . . . . . . . . . .
 72
65
 73
2
 40
0.2
 49
0.1
 74
0
 49
-0.1
 74
0
  0
LTYPE
  5
1F9
100
AcDbSymbolTableRecord
100
AcDbLinetypeTableRecord
  2
DASHED
 70
64
  3
- - - - - - - - - - - - - - - - - - - -
 72
65
 73
2
 40
0.2
 49
0.1
 74
0
 49
-0.1
 74
0
  0
ENDTAB
  0
TABLE
  2
LAYER
  5
2
100
AcDbSymbolTable
 70
36
  0
LAYER
  5
10
100
AcDbSymbolTableRecord
100
AcDbLayerTableRecord
  2
0
 70
0
 62
7
  6
CONTINUOUS
370
-3
390
F
  0
LAYER
  5
1FA
100
AcDbSymbolTableRecord
100
AcDbLayerTableRecord
  2
DEFAULT_1
 70
0
 62
7
  6
CENTER
370
-3
390
F
  0
LAYER
  5
1FB
100
AcDbSymbolTableRecord
100
AcDbLayerTableRecord
  2
DEFAULT_2
 70
0
 62
7
  6
HIDDEN
370
-3
390
F
  0
LAYER
  5
1FC
100
AcDbSymbolTableRecord
100
AcDbLayerTableRecord
  2
DEFAULT_3
 70
0
 62
7
  6
PHANTOM
370
-3
390
F
  0
LAYER
  5
1FD
100
AcDbSymbolTableRecord
100
AcDbLayerTableRecord
  2
ASSI
 70
0
 62
7
  6
CONTINUOUS
370
-3
390
F
  0
LAYER
  5
1FE
100
AcDbSymbolTableRecord
100
AcDbLayerTableRecord
  2
COORDINATE
 70
0
 62
7
  6
CONTINUOUS
370
-3
390
F
  0
LAYER
  5
1FF
100
AcDbSymbolTableRecord
100
AcDbLayerTableRecord
  2
COORD_ORIGINE
 70
0
 62
7
  6
CONTINUOUS
370
-3
390
F
  0
LAYER
  5
200
100
AcDbSymbolTableRecord
100
AcDbLayerTableRecord
  2
COSMETICI
 70
0
 62
7
  6
CONTINUOUS
370
-3
390
F
  0
LAYER
  5
201
100
AcDbSymbolTableRecord
100
AcDbLayerTableRecord
  2
CURVE
 70
0
 62
7
  6
CONTINUOUS
370
-3
390
F
  0
LAYER
  5
202
100
AcDbSymbolTableRecord
100
AcDbLayerTableRecord
  2
DRAFT
 70
0
 62
7
  6
CONTINUOUS
370
-3
390
F
  0
LAYER
  5
203
100
AcDbSymbolTableRecord
100
AcDbLayerTableRecord
  2
IMPORT
 70
0
 62
7
  6
CONTINUOUS
370
-3
390
F
  0
LAYER
  5
204
100
AcDbSymbolTableRecord
100
AcDbLayerTableRecord
  2
LAY0001
 70
0
 62
7
  6
CONTINUOUS
370
-3
390
F
  0
LAYER
  5
205
100
AcDbSymbolTableRecord
100
AcDbLayerTableRecord
  2
NOTE
 70
0
 62
7
  6
CONTINUOUS
370
-3
390
F
  0
LAYER
  5
206
100
AcDbSymbolTableRecord
100
AcDbLayerTableRecord
  2
PIANI
 70
0
 62
7
  6
CONTINUOUS
370
-3
390
F
  0
LAYER
  5
207
100
AcDbSymbolTableRecord
100
AcDbLayerTableRecord
  2
PIANI_ORIGINE
 70
0
 62
7
  6
CONTINUOUS
370
-3
390
F
  0
LAYER
  5
208
100
AcDbSymbolTableRecord
100
AcDbLayerTableRecord
  2
PUNTI
 70
0
 62
7
  6
CONTINUOUS
370
-3
390
F
  0
LAYER
  5
209
100
AcDbSymbolTableRecord
100
AcDbLayerTableRecord
  2
RACCORDO
 70
0
 62
7
  6
CONTINUOUS
370
-3
390
F
  0
LAYER
  5
20A
100
AcDbSymbolTableRecord
100
AcDbLayerTableRecord
  2
SIMBOLI
 70
0
 62
7
  6
CONTINUOUS
370
-3
390
F
  0
LAYER
  5
20B
100
AcDbSymbolTableRecord
100
AcDbLayerTableRecord
  2
SNAPLINE
 70
0
 62
7
  6
CONTINUOUS
370
-3
390
F
  0
LAYER
  5
20C
100
AcDbSymbolTableRecord
100
AcDbLayerTableRecord
  2
SUPERFICI
 70
0
 62
7
  6
CONTINUOUS
370
-3
390
F
  0
LAYER
  5
20D
100
AcDbSymbolTableRecord
100
AcDbLayerTableRecord
  2
TRASH
 70
0
 62
7
  6
CONTINUOUS
370
-3
390
F
  0
LAYER
  5
20E
100
AcDbSymbolTableRecord
100
AcDbLayerTableRecord
  2
XSEC_DATUMS
 70
0
 62
7
  6
CONTINUOUS
370
-3
390
F
  0
ENDTAB
  0
TABLE
  2
STYLE
  5
3
100
AcDbSymbolTable
 70
1
  0
STYLE
  5
11
100
AcDbSymbolTableRecord
100
AcDbTextStyleTableRecord
  2
STANDARD
 70
0
 40
0.0
 41
0.8
 50
0.0
 71
0
 42
0.2
  3
txt
  4

  0
STYLE
  5
20F
100
AcDbSymbolTableRecord
100
AcDbTextStyleTableRecord
  2
TEXTSTYLE_1
 70
0
 40
0.0
 41
0.8
 50
0.0
 71
0
 42
0.2
  3
gdt
  4

  0
ENDTAB
  0
TABLE
  2
VIEW
  5
6
100
AcDbSymbolTable
 70
0
  0
ENDTAB
  0
TABLE
  2
UCS
  5
7
100
AcDbSymbolTable
 70
0
  0
ENDTAB
  0
TABLE
  2
APPID
  5
9
100
AcDbSymbolTable
 70
1
  0
APPID
  5
210
100
AcDbSymbolTableRecord
100
AcDbRegAppTableRecord
  2
ACAD
 70
0
  0
ENDTAB
  0
TABLE
  2
BLOCK_RECORD
  5
1
100
AcDbSymbolTable
 70
0
  0
BLOCK_RECORD
  5
211
100
AcDbSymbolTableRecord
100
AcDbBlockTableRecord
  2
*Model_Space
  0
BLOCK_RECORD
  5
212
100
AcDbSymbolTableRecord
100
AcDbBlockTableRecord
  2
*Paper_Space
  0
BLOCK_RECORD
  5
213
100
AcDbSymbolTableRecord
100
AcDbBlockTableRecord
  2
_FILLED
  0
BLOCK_RECORD
  5
214
100
AcDbSymbolTableRecord
100
AcDbBlockTableRecord
  2
*D0
  0
BLOCK_RECORD
  5
215
100
AcDbSymbolTableRecord
100
AcDbBlockTableRecord
  2
*D1
  0
BLOCK_RECORD
  5
216
100
AcDbSymbolTableRecord
100
AcDbBlockTableRecord
  2
*D2
  0
ENDTAB
  0
TABLE
  2
DIMSTYLE
  5
A
100
AcDbSymbolTable
 70
1
100
AcDbDimStyleTable
 71
0
  0
DIMSTYLE
105
217
100
AcDbSymbolTableRecord
100
AcDbDimStyleTableRecord
  2
STANDARD
 70
0
  3

  4

 40
1.0
 41
3.0
 42
0.5
 43
0.38
 44
1.5
 45
0.0
 46
0.0
 47
0.01
 48
0.01
140
3.0
141
0.09
142
0.0
143
25.4
144
1.0
145
0.0
146
1.0
147
0.625
 71
1
 72
0
 73
0
 74
0
 75
0
 76
0
 77
1
 78
8
 79
2
170
0
171
1
172
0
173
0
174
0
175
0
176
0
177
0
178
0
270
2
179
2
271
2
272
2
273
2
274
2
275
0
280
0
281
0
282
0
283
1
284
8
285
0
286
0
287
3
288
0
340
11
278
44
341
213
342
213
343
213
344
213
  0
DIMSTYLE
105
218
100
AcDbSymbolTableRecord
100
AcDbDimStyleTableRecord
  2
DIMSTYLE_1
 70
0
  3

  4

 40
1.0
 41
3.0
 42
0.5
 43
0.38
 44
1.5
 45
0.0
 46
0.0
 47
0.0
 48
0.0
140
3.0
141
0.09
142
0.0
143
25.4
144
1.0
145
0.0
146
1.0
147
0.75
 71
0
 72
0
 73
0
 74
0
 75
0
 76
0
 77
1
 78
8
 79
2
170
0
171
1
172
0
173
0
174
0
175
0
176
0
177
0
178
0
270
2
179
2
271
2
272
2
273
2
274
2
275
0
280
0
281
0
282
0
283
1
284
8
285
0
286
0
287
3
288
0
340
11
278
44
341
213
342
213
343
213
344
213
  0
ENDTAB
  0
ENDSEC
  0
SECTION
  2
BLOCKS
  0
BLOCK
  5
20
100
AcDbEntity
  8
0
100
AcDbBlockBegin
  2
*Model_Space
 70
0
 10
0.0
 20
0.0
 30
0.0
  3
*Model_Space
  1

  0
ENDBLK
  5
21
100
AcDbEntity
  8
0
100
AcDbBlockEnd
  0
BLOCK
  5
1C
100
AcDbEntity
  8
0
100
AcDbBlockBegin
  2
*Paper_Space
 70
0
 10
0.0
 20
0.0
 30
0.0
  3
*Paper_Space
  1

  0
ENDBLK
  5
1D
100
AcDbEntity
  8
0
100
AcDbBlockEnd
  0
BLOCK
  5
219
100
AcDbEntity
  8
0
100
AcDbBlockBegin
  2
_FILLED
 70
64
 10
0.0
 20
0.0
  3
_FILLED
  1

  0
SOLID
  5
21A
100
AcDbEntity
  8
0
  6
BYBLOCK
 62
0
100
AcDbTrace
 10
0.0
 20
0.0
 11
-1.0
 21
0.3166666667
 12
-1.0
 22
-0.3166666667
 13
-1.0
 23
-0.3166666667
  0
ENDBLK
  5
21B
100
AcDbEntity
  8
0
  6
BYBLOCK
 62
0
100
AcDbBlockEnd
  0
BLOCK
  5
21C
100
AcDbEntity
  8
0
100
AcDbBlockBegin
 62
7
  6
CONTINUOUS
  2
*D0
 70
65
 10
0.0
 20
0.0
  3
*D0
  1

  0
LINE
  5
21D
100
AcDbEntity
  8
0
100
AcDbLine
 62
7
  6
CONTINUOUS
 10
-20.0
 20
39.3016445583
 11
-20.0
 21
49.5
  0
LINE
  5
21E
100
AcDbEntity
  8
0
100
AcDbLine
 62
7
  6
CONTINUOUS
 10
20.0
 20
39.3016445583
 11
20.0
 21
49.5
  0
LINE
  5
21F
100
AcDbEntity
  8
0
100
AcDbLine
 62
7
  6
CONTINUOUS
 10
-20.0
 20
48.0
 11
-0.0
 21
48.0
  0
LINE
  5
220
100
AcDbEntity
  8
0
100
AcDbLine
 62
7
  6
CONTINUOUS
 10
20.0
 20
48.0
 11
-0.0
 21
48.0
  0
INSERT
  5
221
100
AcDbEntity
  8
0
100
AcDbBlockReference
 62
7
  6
CONTINUOUS
  2
_FILLED
 10
-20.0
 20
48.0
 41
3.0
 42
3.0
 43
3.0
 50
180.0
  0
INSERT
  5
222
100
AcDbEntity
  8
0
100
AcDbBlockReference
 62
7
  6
CONTINUOUS
  2
_FILLED
 10
20.0
 20
48.0
 41
3.0
 42
3.0
 43
3.0
  0
ENDBLK
  5
223
100
AcDbEntity
  8
0
  6
BYBLOCK
 62
0
100
AcDbBlockEnd
  0
BLOCK
  5
224
100
AcDbEntity
  8
0
100
AcDbBlockBegin
 62
7
  6
CONTINUOUS
  2
*D1
 70
65
 10
0.0
 20
0.0
  3
*D1
  1

  0
LINE
  5
225
100
AcDbEntity
  8
0
100
AcDbLine
 62
7
  6
CONTINUOUS
 10
-39.6526735113
 20
0.5
 11
-39.6526735113
 21
49.5
  0
LINE
  5
226
100
AcDbEntity
  8
0
100
AcDbLine
 62
7
  6
CONTINUOUS
 10
-30.7526735113
 20
40.5
 11
-30.7526735113
 21
49.5
  0
LINE
  5
227
100
AcDbEntity
  8
0
100
AcDbLine
 62
7
  6
CONTINUOUS
 10
-39.6526735113
 20
48.0
 11
-43.6526735113
 21
48.0
  0
LINE
  5
228
100
AcDbEntity
  8
0
100
AcDbLine
 62
7
  6
CONTINUOUS
 10
-43.6526735113
 20
48.0
 11
-35.2026735113
 21
48.0
  0
LINE
  5
229
100
AcDbEntity
  8
0
100
AcDbLine
 62
7
  6
CONTINUOUS
 10
-30.7526735113
 20
48.0
 11
-26.7526735113
 21
48.0
  0
LINE
  5
22A
100
AcDbEntity
  8
0
100
AcDbLine
 62
7
  6
CONTINUOUS
 10
-26.7526735113
 20
48.0
 11
-35.2026735113
 21
48.0
  0
INSERT
  5
22B
100
AcDbEntity
  8
0
100
AcDbBlockReference
 62
7
  6
CONTINUOUS
  2
_FILLED
 10
-39.6526735113
 20
48.0
 41
3.0
 42
3.0
 43
3.0
  0
INSERT
  5
22C
100
AcDbEntity
  8
0
100
AcDbBlockReference
 62
7
  6
CONTINUOUS
  2
_FILLED
 10
-30.7526735113
 20
48.0
 41
3.0
 42
3.0
 43
3.0
 50
180.0
  0
ENDBLK
  5
22D
100
AcDbEntity
  8
0
  6
BYBLOCK
 62
0
100
AcDbBlockEnd
  0
BLOCK
  5
22E
100
AcDbEntity
  8
0
100
AcDbBlockBegin
 62
7
  6
CONTINUOUS
  2
*D2
 70
65
 10
0.0
 20
0.0
  3
*D2
  1

  0
LINE
  5
22F
100
AcDbEntity
  8
0
100
AcDbLine
 62
7
  6
CONTINUOUS
 10
-31.2526735113
 20
40.0
 11
-49.0781965545
 21
40.0
  0
LINE
  5
230
100
AcDbEntity
  8
0
100
AcDbLine
 62
7
  6
CONTINUOUS
 10
-31.2526735113
 20
-40.0
 11
-49.0781965545
 21
-40.0
  0
LINE
  5
231
100
AcDbEntity
  8
0
100
AcDbLine
 62
7
  6
CONTINUOUS
 10
-47.5781965545
 20
40.0
 11
-47.5781965545
 21
0.0
  0
LINE
  5
232
100
AcDbEntity
  8
0
100
AcDbLine
 62
7
  6
CONTINUOUS
 10
-47.5781965545
 20
-40.0
 11
-47.5781965545
 21
0.0
  0
INSERT
  5
233
100
AcDbEntity
  8
0
100
AcDbBlockReference
 62
7
  6
CONTINUOUS
  2
_FILLED
 10
-47.5781965545
 20
40.0
 41
3.0
 42
3.0
 43
3.0
 50
90.0
  0
INSERT
  5
234
100
AcDbEntity
  8
0
100
AcDbBlockReference
 62
7
  6
CONTINUOUS
  2
_FILLED
 10
-47.5781965545
 20
-40.0
 41
3.0
 42
3.0
 43
3.0
 50
270.0
  0
ENDBLK
  5
235
100
AcDbEntity
  8
0
  6
BYBLOCK
 62
0
100
AcDbBlockEnd
  0
ENDSEC
  0
SECTION
  2
ENTITIES
  0
DIMENSION
  5
236
100
AcDbEntity
  8
0
100
AcDbDimension
 62
7
  6
CONTINUOUS
  2
*D0
 10
20.0
 20
48.0
 11
-2.3571428571
 21
48.0
 70
160
 71
2
 72
2
 41
0.9
 42
40.0
  3
DIMSTYLE_1
100
AcDbAlignedDimension
 13
-20.0
 23
38.8016445583
 14
20.0
 24
38.8016445583
100
AcDbRotatedDimension
  0
DIMENSION
  5
237
100
AcDbEntity
  8
0
100
AcDbDimension
 62
7
  6
CONTINUOUS
  2
*D1
 10
-30.7526735113
 20
48.0
 11
-38.4169592256
 21
48.0
 70
160
 71
2
 72
2
 41
0.9
 42
8.9
  3
DIMSTYLE_1
100
AcDbAlignedDimension
 13
-39.6526735113
 23
0.0
 14
-30.7526735113
 24
40.0
100
AcDbRotatedDimension
  0
DIMENSION
  5
238
100
AcDbEntity
  8
0
100
AcDbDimension
 62
7
  6
CONTINUOUS
  2
*D2
 10
-47.5781965545
 20
-40.0
 11
-47.5781965545
 21
-2.3571428571
 70
160
 71
2
 72
2
 41
0.9
 42
80.0
  3
DIMSTYLE_1
100
AcDbAlignedDimension
 13
-30.7526735113
 23
40.0
 14
-30.7526735113
 24
-40.0
 50
270.0
100
AcDbRotatedDimension
  0
LWPOLYLINE
  5
239
100
AcDbEntity
  8
RACCORDO
100
AcDbPolyline
 62
250
  6
CONTINUOUS
 90
16
 70
0
 10
-19.6907520401
 20
-38.4923965982
 10
-19.6782972506
 20
-38.5040938952
 10
-19.6536966125
 20
-38.5156720582
 10
-19.6172020897
 20
-38.5270138917
 10
-19.5691874642
 20
-38.5380050495
 10
-19.5101444979
 20
-38.5485333139
 10
-19.4406778947
 20
-38.5584895135
 10
-19.3614991213
 20
-38.567771327
 10
-19.2734191214
 20
-38.5762845244
 10
-19.1773400002
 20
-38.5839419144
 10
-19.0742457846
 20
-38.5906642379
 10
-18.9651923548
 20
-38.5963829967
 10
-18.8512966294
 20
-38.601040962
 10
-18.7337251128
 20
-38.6045900755
 10
-18.613681949
 20
-38.6069921718
 10
-18.4923965984
 20
-38.6082212623
  0
LWPOLYLINE
  5
23A
100
AcDbEntity
  8
RACCORDO
100
AcDbPolyline
 62
250
  6
CONTINUOUS
 90
7
 70
0
 10
-19.6907520401
 20
38.4923965982
 10
-19.678295897
 20
38.5056796458
 10
-19.6540232184
 20
38.5168001453
 10
-19.6182292589
 20
38.5267387358
 10
-19.5708308368
 20
38.537547656
 10
-19.5118345836
 20
38.5488914566
 10
-19.4421433012
 20
38.5583009336
  0
LWPOLYLINE
  5
23B
100
AcDbEntity
  8
RACCORDO
100
AcDbPolyline
 62
250
  6
CONTINUOUS
 90
3
 70
0
 10
19.4421433024
 20
-38.5583009525
 10
19.2751231328
 20
-38.5764260355
 10
19.1788228225
 20
-38.5838344092
  0
LWPOLYLINE
  5
23C
100
AcDbEntity
  8
RACCORDO
100
AcDbPolyline
 62
250
  6
CONTINUOUS
 90
3
 70
0
 10
19.1788228225
 20
-38.5838344092
 10
18.9664214877
 20
-38.5965647626
 10
18.8521597676
 20
-38.6010101517
  0
LWPOLYLINE
  5
23D
100
AcDbEntity
  8
RACCORDO
100
AcDbPolyline
 62
250
  6
CONTINUOUS
 90
3
 70
0
 10
18.8521597676
 20
-38.6010101517
 10
18.6134502324
 20
-38.6053505022
 10
18.4923965984
 20
-38.6082212623
  0
LINE
  5
23E
100
AcDbEntity
  8
RACCORDO
100
AcDbLine
 62
7
  6
CONTINUOUS
 10
18.8016445583
 20
-40.0
 11
3.6749773271
 21
-40.0
  0
LINE
  5
23F
100
AcDbEntity
  8
RACCORDO
100
AcDbLine
 62
7
  6
CONTINUOUS
 10
-3.6749773271
 20
-40.0
 11
-18.8016445583
 21
-40.0
  0
LINE
  5
240
100
AcDbEntity
  8
0
100
AcDbLine
 62
7
  6
CONTINUOUS
 10
-3.5
 20
-39.8951844414
 11
3.5
 21
-39.8951844414
  0
LINE
  5
241
100
AcDbEntity
  8
RACCORDO
100
AcDbLine
 62
250
  6
CONTINUOUS
 10
18.4923965984
 20
-39.6907520401
 11
-18.4923965984
 21
-39.6907520401
  0
LINE
  5
242
100
AcDbEntity
  8
RACCORDO
100
AcDbLine
 62
250
  6
CONTINUOUS
 10
18.4923917858
 20
-38.6082212622
 11
13.5151097369
 21
-38.6082247885
  0
LINE
  5
243
100
AcDbEntity
  8
RACCORDO
100
AcDbLine
 62
7
  6
CONTINUOUS
 10
13.514680135
 20
-38.6082212622
 11
-13.5146494838
 21
-38.6082212622
  0
LINE
  5
244
100
AcDbEntity
  8
RACCORDO
100
AcDbLine
 62
250
  6
CONTINUOUS
 10
-13.5244031896
 20
-38.6082212622
 11
-18.4923916048
 21
-38.6082212622
  0
LWPOLYLINE
  5
245
100
AcDbEntity
  8
RACCORDO
100
AcDbPolyline
 62
7
  6
CONTINUOUS
 90
13
 70
0
 10
-13.5244031896
 20
-38.6082212622
 10
-13.5436251882
 20
-38.6075773069
 10
-13.562756486
 20
-38.605932114
 10
-13.5817970829
 20
-38.6032856821
 10
-13.6008501918
 20
-38.5996754989
 10
-13.6198125999
 20
-38.5950640723
 10
-13.6383746683
 20
-38.5893389297
 10
-13.6565475081
 20
-38.5825208927
 10
-13.6743200082
 20
-38.5745891295
 10
-13.6913491969
 20
-38.5653686849
 10
-13.7075207503
 20
-38.5548012338
 10
-13.7229489923
 20
-38.5429450823
 10
-13.7376339229
 20
-38.5298002195
  0
LWPOLYLINE
  5
246
100
AcDbEntity
  8
RACCORDO
100
AcDbPolyline
 62
7
  6
CONTINUOUS
 90
13
 70
0
 10
-13.7376339308
 20
38.5298002284
 10
-13.7223352061
 20
38.5434047865
 10
-13.7062492313
 20
38.5556315983
 10
-13.6893760063
 20
38.566480676
 10
-13.6715933273
 20
38.5758952171
 10
-13.653023398
 20
38.5839320448
 10
-13.6340328305
 20
38.590761607
 10
-13.6146269178
 20
38.5963851736
 10
-13.5948003667
 20
38.6008014858
 10
-13.5749039096
 20
38.6041771949
 10
-13.5550544572
 20
38.6065678526
 10
-13.5351350988
 20
38.6079179115
 10
-13.5151458344
 20
38.6082273727
  0
LWPOLYLINE
  5
247
100
AcDbEntity
  8
RACCORDO
100
AcDbPolyline
 62
7
  6
CONTINUOUS
 90
7
 70
0
 10
-13.5147347674
 20
-38.6082212622
 10
-13.5163393032
 20
-38.6082531607
 10
-13.5179465861
 20
-38.6082722997
 10
-13.5195566162
 20
-38.6082786794
 10
-13.5211693935
 20
-38.6082722997
 10
-13.522784918
 20
-38.6082531607
 10
-13.5244031896
 20
-38.6082212622
  0
LINE
  5
248
100
AcDbEntity
  8
0
100
AcDbLine
 62
7
  6
CONTINUOUS
 10
5.337269
 20
-36.500063
 11
5.968046
 21
-36.500056
  0
LINE
  5
249
100
AcDbEntity
  8
0
100
AcDbLine
 62
7
  6
CONTINUOUS
 10
0.99575
 20
-36.50007
 11
1.555771
 21
-36.500063
  0
LINE
  5
24A
100
AcDbEntity
  8
0
100
AcDbLine
 62
7
  6
CONTINUOUS
 10
-2.116583
 20
-36.50007
 11
-1.556562
 21
-36.50007
  0
LINE
  5
24B
100
AcDbEntity
  8
0
100
AcDbLine
 62
7
  6
CONTINUOUS
 10
0.062384
 20
-36.50007
 11
0.622405
 21
-36.50007
  0
LINE
  5
24C
100
AcDbEntity
  8
0
100
AcDbLine
 62
7
  6
CONTINUOUS
 10
3.727192
 20
-36.500063
 11
4.28722
 21
-36.500063
  0
LINE
  5
24D
100
AcDbEntity
  8
0
100
AcDbLine
 62
7
  6
CONTINUOUS
 10
-1.027096
 20
-36.50007
 11
-0.467089
 21
-36.500063
  0
LINE
  5
24E
100
AcDbEntity
  8
0
100
AcDbLine
 62
7
  6
CONTINUOUS
 10
-3.236611
 20
-36.500077
 11
-2.67659
 21
-36.50007
  0
LINE
  5
24F
100
AcDbEntity
  8
0
100
AcDbLine
 62
7
  6
CONTINUOUS
 10
2.793819
 20
-36.500063
 11
3.353847
 21
-36.50007
  0
LINE
  5
250
100
AcDbEntity
  8
0
100
AcDbLine
 62
7
  6
CONTINUOUS
 10
-5.069022
 20
-36.500077
 11
-4.50898
 21
-36.50007
  0
LINE
  5
251
100
AcDbEntity
  8
0
100
AcDbLine
 62
7
  6
CONTINUOUS
 10
1.73257
 20
-35.949401
 11
2.617027
 21
-35.949401
  0
LINE
  5
252
100
AcDbEntity
  8
0
100
AcDbLine
 62
7
  6
CONTINUOUS
 10
1.903391
 20
-35.41738
 11
2.446199
 21
-35.41738
  0
LINE
  5
253
100
AcDbEntity
  8
0
100
AcDbLine
 62
7
  6
CONTINUOUS
 10
4.287283
 20
-35.417373
 11
4.776058
 21
-35.41738
  0
LWPOLYLINE
  5
254
100
AcDbEntity
  8
RACCORDO
100
AcDbPolyline
 62
250
  6
CONTINUOUS
 90
38
 70
0
 10
13.7376338072
 20
-38.5298664534
 10
13.7235413709
 20
-38.5286074855
 10
13.7094515398
 20
-38.5248423892
 10
13.6953662608
 20
-38.5185711657
 10
13.6811596834
 20
-38.5095892991
 10
13.666961716
 20
-38.4981010285
 10
13.6531572238
 20
-38.4847208008
 10
13.6398568469
 20
-38.4694263775
 10
13.6269514403
 20
-38.4522427708
 10
13.6144949154
 20
-38.4338567285
 10
13.6025654515
 20
-38.4144471252
 10
13.5910845219
 20
-38.3938378398
 10
13.5798711061
 20
-38.3721827257
 10
13.5689091031
 20
-38.349546707
 10
13.5582147185
 20
-38.3258662263
 10
13.5476563687
 20
-38.3011015499
 10
13.5372169888
 20
-38.2752686281
 10
13.5269143305
 20
-38.2483521362
 10
13.5166698439
 20
-38.2202648876
 10
13.5064737668
 20
-38.191009626
 10
13.4963370501
 20
-38.1605838425
 10
13.4862127965
 20
-38.1288921596
 10
13.4760929487
 20
-38.0959220067
 10
13.4659872039
 20
-38.0616859632
 10
13.455875672
 20
-38.0261262114
 10
13.4457532869
 20
-37.9892255303
 10
13.435627039
 20
-37.9510010617
 10
13.425495282
 20
-37.9114464774
 10
13.4153539478
 20
-37.8705379312
 10
13.4052091395
 20
-37.8282991892
 10
13.3950744102
 20
-37.7847953695
 10
13.3849486475
 20
-37.7400091913
 10
13.3748348546
 20
-37.6939579328
 10
13.3647525149
 20
-37.6467586303
 10
13.3547135356
 20
-37.5984625924
 10
13.3447075188
 20
-37.54901863
 10
13.3347204655
 20
-37.4983900443
 10
13.3247602987
 20
-37.4466232681
  0
LINE
  5
255
100
AcDbEntity
  8
0
100
AcDbLine
 62
7
  6
CONTINUOUS
 10
3.5
 20
39.8951844414
 11
3.6749773271
 21
40.0
  0
LINE
  5
256
100
AcDbEntity
  8
0
100
AcDbLine
 62
7
  6
CONTINUOUS
 10
4.279499
 20
-34.899352
 11
4.960842
 21
-34.899352
  0
LINE
  5
257
100
AcDbEntity
  8
0
100
AcDbLine
 62
7
  6
CONTINUOUS
 10
4.279492
 20
-34.217958
 11
4.960842
 21
-34.217958
  0
LINE
  5
258
100
AcDbEntity
  8
0
100
AcDbLine
 62
7
  6
CONTINUOUS
 10
-5.968046
 20
-33.699944
 11
-5.408018
 21
-33.699944
  0
LINE
  5
259
100
AcDbEntity
  8
0
100
AcDbLine
 62
7
  6
CONTINUOUS
 10
-4.169977
 20
-33.699944
 11
-3.609949
 21
-33.699944
  0
LINE
  5
25A
100
AcDbEntity
  8
0
100
AcDbLine
 62
7
  6
CONTINUOUS
 10
-3.236604
 20
-33.699944
 11
-2.676583
 21
-33.699944
  0
LINE
  5
25B
100
AcDbEntity
  8
0
100
AcDbLine
 62
7
  6
CONTINUOUS
 10
-2.116583
 20
-33.699944
 11
-1.269982
 21
-33.699944
  0
LINE
  5
25C
100
AcDbEntity
  8
0
100
AcDbLine
 62
7
  6
CONTINUOUS
 10
-0.224196
 20
-33.699944
 11
0.622405
 21
-33.699944
  0
LINE
  5
25D
100
AcDbEntity
  8
0
100
AcDbLine
 62
7
  6
CONTINUOUS
 10
1.894767
 20
-33.699937
 11
2.454816
 21
-33.699937
  0
LINE
  5
25E
100
AcDbEntity
  8
0
100
AcDbLine
 62
7
  6
CONTINUOUS
 10
3.727192
 20
-33.699937
 11
5.038572
 21
-33.699937
  0
LINE
  5
25F
100
AcDbEntity
  8
0
100
AcDbLine
 62
7
  6
CONTINUOUS
 10
3.5
 20
-39.8951844414
 11
3.6749773271
 21
-40.0
  0
LWPOLYLINE
  5
260
100
AcDbEntity
  8
RACCORDO
100
AcDbPolyline
 62
250
  6
CONTINUOUS
 90
4
 70
0
 10
-12.3057163027
 20
22.5
 10
-12.3049942092
 20
22.5008365649
 10
-12.301024162
 20
22.5034423581
 10
-12.2833271689
 20
22.5145583942
  0
LWPOLYLINE
  5
261
100
AcDbEntity
  8
RACCORDO
100
AcDbPolyline
 62
250
  6
CONTINUOUS
 90
18
 70
0
 10
-11.908685301
 20
22.7855848469
 10
-11.8581517348
 20
22.8248436358
 10
-11.8084458078
 20
22.8645716518
 10
-11.7602741315
 20
22.903735858
 10
-11.7129300944
 20
22.9427037596
 10
-11.6674846252
 20
22.9815705748
 10
-11.62412219
 20
23.0199720209
 10
-11.5826583225
 20
23.0578714186
 10
-11.5436105532
 20
23.095982637
 10
-11.5067884543
 20
23.1342730019
 10
-11.4723824535
 20
23.1725830355
 10
-11.4414813638
 20
23.2115479143
 10
-11.4139028039
 20
23.2514312202
 10
-11.3898291551
 20
23.291875018
 10
-11.3708963739
 20
23.3326115816
 10
-11.3576497791
 20
23.3735076459
 10
-11.349544052
 20
23.4145741309
 10
-11.3465791924
 20
23.4557528124
  0
LWPOLYLINE
  5
262
100
AcDbEntity
  8
RACCORDO
100
AcDbPolyline
 62
250
  6
CONTINUOUS
 90
12
 70
0
 10
-12.2833271689
 20
22.5145583942
 10
-12.2696002231
 20
22.523367904
 10
-12.2526644357
 20
22.5344603057
 10
-12.2325233883
 20
22.5479235345
 10
-12.2091734994
 20
22.5638652175
 10
-12.1826431363
 20
22.5823187709
 10
-12.1529370139
 20
22.6033324002
 10
-12.1200504174
 20
22.6269797319
 10
-12.0839975698
 20
22.65329787
 10
-12.044515503
 20
22.6824371875
 10
-12.0018671852
 20
22.7143349998
 10
-11.908685301
 20
22.7855848469
  0
LWPOLYLINE
  5
263
100
AcDbEntity
  8
RACCORDO
100
AcDbPolyline
 62
250
  6
CONTINUOUS
 90
36
 70
0
 10
-12.5056858417
 20
22.3
 10
-12.5060964699
 20
22.2998349451
 10
-12.5065193794
 20
22.2994183998
 10
-12.5069545704
 20
22.2987503642
 10
-12.5074012355
 20
22.2978128863
 10
-12.5078601821
 20
22.2966239181
 10
-12.5083338315
 20
22.2952373153
 10
-12.5088219663
 20
22.2936448539
 10
-12.509324804
 20
22.2918547578
 10
-12.5098454189
 20
22.2899455547
 10
-12.5103838511
 20
22.2879047204
 10
-12.5109400605
 20
22.2857447791
 10
-12.511517001
 20
22.2835818307
 10
-12.5121147048
 20
22.2813997581
 10
-12.5127331396
 20
22.2792146784
 10
-12.5133751628
 20
22.277191043
 10
-12.5140413395
 20
22.2753096369
 10
-12.5147311046
 20
22.2735896751
 10
-12.5154456196
 20
22.2722532531
 10
-12.5161833257
 20
22.2712779057
 10
-12.5169457816
 20
22.2706860981
 10
-12.5177388256
 20
22.270767322
 10
-12.5185633832
 20
22.2714858343
 10
-12.5194185288
 20
22.2728773781
 10
-12.5203073232
 20
22.2753386741
 10
-12.5212353357
 20
22.2788854188
 10
-12.522196997
 20
22.2835019158
 10
-12.5231786607
 20
22.2895377963
 10
-12.5241838004
 20
22.2970929142
 10
-12.5252089425
 20
22.3060674156
 10
-12.5262300196
 20
22.3165113711
 10
-12.5272465134
 20
22.3285446942
 10
-12.5282589423
 20
22.3420474713
 10
-12.5292447931
 20
22.3567100319
 10
-12.5301977691
 20
22.3725109296
 10
-12.5311241671
 20
22.3894716107
  0
LINE
  5
264
100
AcDbEntity
  8
RACCORDO
100
AcDbLine
 62
250
  6
CONTINUOUS
 10
11.3465769399
 20
-23.4557528124
 11
-11.3465769399
 21
-23.4557528124
  0
LWPOLYLINE
  5
265
100
AcDbEntity
  8
RACCORDO
100
AcDbPolyline
 62
250
  6
CONTINUOUS
 90
3
 70
0
 10
-12.3003285252
 20
-22.5038659476
 10
-12.3048131372
 20
-22.5009407075
 10
-12.3057163027
 20
-22.5
  0
LWPOLYLINE
  5
266
100
AcDbEntity
  8
RACCORDO
100
AcDbPolyline
 62
250
  6
CONTINUOUS
 90
9
 70
0
 10
-12.0999888853
 20
-22.6415238266
 10
-12.1364814843
 20
-22.6150857034
 10
-12.1694223978
 20
-22.5916328546
 10
-12.198673347
 20
-22.5711419623
 10
-12.2243726105
 20
-22.5534626665
 10
-12.246575612
 20
-22.5385031591
 10
-12.2653292205
 20
-22.5261422793
 10
-12.2805865668
 20
-22.5163078683
 10
-12.3003285252
 20
-22.5038659476
  0
LWPOLYLINE
  5
267
100
AcDbEntity
  8
RACCORDO
100
AcDbPolyline
 62
250
  6
CONTINUOUS
 90
4
 70
0
 10
-11.9224551741
 20
-22.7750154052
 10
-11.9695798583
 20
-22.7386213653
 10
-12.0165380722
 20
-22.7032684235
 10
-12.0999888853
 20
-22.6415238266
  0
LWPOLYLINE
  5
268
100
AcDbEntity
  8
RACCORDO
100
AcDbPolyline
 62
250
  6
CONTINUOUS
 90
19
 70
0
 10
-19.6907520401
 20
-38.4923965984
 10
-19.6859961313
 20
-38.5958353177
 10
-19.6722906991
 20
-38.6987265404
 10
-19.6496799323
 20
-38.800291198
 10
-19.6182501833
 20
-38.8998234594
 10
-19.5781962243
 20
-38.9964765593
 10
-19.5298823053
 20
-39.0892941874
 10
-19.47372386
 20
-39.1775021164
 10
-19.410112411
 20
-39.2605059023
 10
-19.3395166511
 20
-39.3376898627
 10
-19.2624588527
 20
-39.4084727082
 10
-19.179530011
 20
-39.4723021492
 10
-19.0913747334
 20
-39.5286787232
 10
-18.9986693048
 20
-39.5771708525
 10
-18.9021134534
 20
-39.617413396
 10
-18.802441834
 20
-39.6491001479
 10
-18.7004125851
 20
-39.6719901418
 10
-18.5968015202
 20
-39.6859093792
 10
-18.4923965984
 20
-39.6907520401
  0
LWPOLYLINE
  5
269
100
AcDbEntity
  8
RACCORDO
100
AcDbPolyline
 62
250
  6
CONTINUOUS
 90
19
 70
0
 10
-19.6907520401
 20
38.4923965984
 10
-19.6859222353
 20
38.5966588873
 10
-19.6720406104
 20
38.7001304404
 10
-19.6492124451
 20
38.8020265189
 10
-19.6176108704
 20
38.9015743325
 10
-19.577475556
 20
38.9980189005
 10
-19.5291108922
 20
39.0906287773
 10
-19.4728836815
 20
39.1787016004
 10
-19.4092203567
 20
39.2615694163
 10
-19.3386037472
 20
39.3386037472
 10
-19.2615694163
 20
39.4092203567
 10
-19.1787016004
 20
39.4728836815
 10
-19.0906287773
 20
39.5291108922
 10
-18.9980189005
 20
39.577475556
 10
-18.9015743325
 20
39.6176108704
 10
-18.8020265189
 20
39.6492124451
 10
-18.7001304404
 20
39.6720406104
 10
-18.5966588873
 20
39.6859222353
 10
-18.4923965984
 20
39.6907520401
  0
LWPOLYLINE
  5
26A
100
AcDbEntity
  8
RACCORDO
100
AcDbPolyline
 62
250
  6
CONTINUOUS
 90
16
 70
0
 10
-12.5554709222
 20
25.9166411512
 10
-12.5469092653
 20
25.9382167679
 10
-12.5255797513
 20
25.9595611522
 10
-12.4917109772
 20
25.980445535
 10
-12.4456659351
 20
26.0006460774
 10
-12.3879381242
 20
26.019946269
 10
-12.3191462636
 20
26.0381392484
 10
-12.2400276551
 20
26.0550300223
 10
-12.1514302855
 20
26.0704375536
 10
-12.0543037432
 20
26.0841967019
 10
-11.9496890272
 20
26.0961599951
 10
-11.8387073978
 20
26.106199209
 10
-11.7225483678
 20
26.1142067411
 10
-11.6024569367
 20
26.1200967654
 10
-11.4797202445
 20
26.1238061519
 10
-11.3556537876
 20
26.1252951426
  0
LINE
  5
26B
100
AcDbEntity
  8
RACCORDO
100
AcDbLine
 62
7
  6
CONTINUOUS
 10
12.3057163027
 20
-22.5
 11
-12.3057163027
 21
-22.5
  0
LINE
  5
26C
100
AcDbEntity
  8
RACCORDO
100
AcDbLine
 62
250
  6
CONTINUOUS
 10
12.5056858417
 20
-22.3
 11
12.5
 21
-22.3
  0
LINE
  5
26D
100
AcDbEntity
  8
RACCORDO
100
AcDbLine
 62
250
  6
CONTINUOUS
 10
-12.5
 20
-22.3
 11
-12.5056858417
 21
-22.3
  0
LWPOLYLINE
  5
26E
100
AcDbEntity
  8
RACCORDO
100
AcDbPolyline
 62
250
  6
CONTINUOUS
 90
52
 70
0
 10
13.514680135
 20
-38.6082212622
 10
13.4901097542
 20
-38.5897492942
 10
13.4661530803
 20
-38.5701759667
 10
13.4428101133
 20
-38.5495013062
 10
13.4201714338
 20
-38.527719124
 10
13.3981464611
 20
-38.5048356671
 10
13.3764634539
 20
-38.4808696186
 10
13.355093344
 20
-38.4558527908
 10
13.3340651996
 20
-38.4297534391
 10
13.3131944833
 20
-38.4024949154
 10
13.2924572252
 20
-38.3740858023
 10
13.2718773953
 20
-38.3445176031
 10
13.2513423669
 20
-38.3136880605
 10
13.2308317117
 20
-38.2815873472
 10
13.2103658581
 20
-38.2482254004
 10
13.1898934637
 20
-38.2135296214
 10
13.1693997634
 20
-38.1774824418
 10
13.1488995224
 20
-38.1401015663
 10
13.1283856944
 20
-38.1013673147
 10
13.1078492946
 20
-38.0612611784
 10
13.0872993079
 20
-38.0198018274
 10
13.0667556421
 20
-37.977025355
 10
13.0462067428
 20
-37.9328982508
 10
13.0256641644
 20
-37.8874542083
 10
13.0051824778
 20
-37.8408301223
 10
12.9847832428
 20
-37.7930706882
 10
12.9644448995
 20
-37.7441313974
 10
12.94415734
 20
-37.6940153355
 10
12.9239386826
 20
-37.6427782788
 10
12.9037708089
 20
-37.5903646613
 10
12.8835892552
 20
-37.5366105749
 10
12.8633921493
 20
-37.4815279963
 10
12.8431813634
 20
-37.4251052178
 10
12.8228980517
 20
-37.3671428446
 10
12.8025376724
 20
-37.3076430562
 10
12.7821047673
 20
-37.2466040194
 10
12.7615541149
 20
-37.1838203721
 10
12.7408837904
 20
-37.1193001079
 10
12.7200957185
 20
-37.0530356757
 10
12.6991504527
 20
-36.9847984587
 10
12.678046519
 20
-36.914597758
 10
12.6567853914
 20
-36.8424248405
 10
12.6353320453
 20
-36.7680241201
 10
12.6136865399
 20
-36.6914115158
 10
12.591848816
 20
-36.6125718407
 10
12.5697836708
 20
-36.5312029559
 10
12.5474934702
 20
-36.4473335367
 10
12.5249758483
 20
-36.3609358606
 10
12.5021885039
 20
-36.2716233427
 10
12.4791241304
 20
-36.1793887787
 10
12.4557900345
 20
-36.0842406444
 10
12.4321658351
 20
-35.9858160678
  0
LWPOLYLINE
  5
26F
100
AcDbEntity
  8
RACCORDO
100
AcDbPolyline
 62
250
  6
CONTINUOUS
 90
16
 70
0
 10
-12.555469988
 20
-25.9166412019
 10
-12.5469079368
 20
-25.9382168169
 10
-12.5255780614
 20
-25.9595611858
 10
-12.4917089745
 20
-25.9804455405
 10
-12.4456636832
 20
-26.0006460436
 10
-12.3879356986
 20
-26.0199461871
 10
-12.3191437463
 20
-26.038139113
 10
-12.240025135
 20
-26.0550298304
 10
-12.151427854
 20
-26.0704373054
 10
-12.0543014845
 20
-26.0841964014
 10
-11.949687022
 20
-26.0961596491
 10
-11.838705719
 20
-26.106198827
 10
-11.7225470677
 20
-26.1142063356
 10
-11.6024560504
 20
-26.1200963509
 10
-11.4797197968
 20
-26.1238057439
 10
-11.3556537877
 20
-26.1252947576
  0
LINE
  5
270
100
AcDbEntity
  8
RACCORDO
100
AcDbLine
 62
7
  6
CONTINUOUS
 10
-20.0
 20
38.8016445583
 11
-20.0
 21
-38.8016445583
  0
LINE
  5
271
100
AcDbEntity
  8
RACCORDO
100
AcDbLine
 62
250
  6
CONTINUOUS
 10
-18.4923965984
 20
39.6907520401
 11
-18.4923965984
 21
38.6082212622
  0
LINE
  5
272
100
AcDbEntity
  8
RACCORDO
100
AcDbLine
 62
250
  6
CONTINUOUS
 10
-18.4923965984
 20
-38.6082212622
 11
-18.4923965984
 21
-39.6907520401
  0
LWPOLYLINE
  5
273
100
AcDbEntity
  8
RACCORDO
100
AcDbPolyline
 62
250
  6
CONTINUOUS
 90
16
 70
0
 10
-19.6907510926
 20
-38.4923956509
 10
-19.666485158
 20
-33.375169502
 10
-19.6456807592
 20
-28.2529066544
 10
-19.628337896
 20
-23.125607108
 10
-19.614452664
 20
-17.9921373134
 10
-19.6040289678
 20
-12.85363082
 10
-19.5970785204
 20
-7.7134882764
 10
-19.5936052223
 20
-2.5717538022
 10
-19.5936051731
 20
2.5716167223
 10
-19.5970783846
 20
7.7133550077
 10
-19.6040287512
 20
12.8535040482
 10
-19.6144523786
 20
17.9920208497
 10
-19.6283375951
 20
23.1255081395
 10
-19.6456805102
 20
28.2528334934
 10
-19.6664850145
 20
33.3751293356
 10
-19.6907511079
 20
38.4923956662
  0
LWPOLYLINE
  5
274
100
AcDbEntity
  8
RACCORDO
100
AcDbPolyline
 62
250
  6
CONTINUOUS
 90
16
 70
0
 10
-18.4923916048
 20
-38.6082212622
 10
-18.4681263597
 20
-33.4766694326
 10
-18.4473226271
 20
-28.3384851685
 10
-18.4299804071
 20
-23.1945181662
 10
-18.4160958514
 20
-18.0453777164
 10
-18.4056728082
 20
-12.8921591019
 10
-18.3987228223
 20
-7.7364446667
 10
-18.3952497393
 20
-2.579099155
 10
-18.3952497135
 20
2.5790281001
 10
-18.3987227522
 20
7.7363759342
 10
-18.4056726913
 20
12.8920947769
 10
-18.4160956949
 20
18.0453201145
 10
-18.4299802622
 20
23.1944703006
 10
-18.4473225597
 20
28.3384502759
 10
-18.4681264209
 20
33.4766505008
 10
-18.4923918459
 20
38.6082212622
  0
LWPOLYLINE
  5
275
100
AcDbEntity
  8
RACCORDO
100
AcDbPolyline
 62
250
  6
CONTINUOUS
 90
16
 70
0
 10
-12.5463965821
 20
23.2115046942
 10
-12.5378469584
 20
23.236933329
 10
-12.5165279678
 20
23.2620410746
 10
-12.4826679506
 20
23.2865603065
 10
-12.4366295698
 20
23.3102131349
 10
-12.3789062352
 20
23.332762326
 10
-12.3101169325
 20
23.3540138274
 10
-12.2309991048
 20
23.3737536272
 10
-12.1424006824
 20
23.3917554438
 10
-12.0452713919
 20
23.4078309733
 10
-11.9406523869
 20
23.4218122128
 10
-11.8296650793
 20
23.433544343
 10
-11.7134991796
 20
23.4428924081
 10
-11.5933999184
 20
23.4497529433
 10
-11.470654692
 20
23.4540550308
 10
-11.3465792696
 20
23.4557521238
  0
LWPOLYLINE
  5
276
100
AcDbEntity
  8
RACCORDO
100
AcDbPolyline
 62
250
  6
CONTINUOUS
 90
16
 70
0
 10
-12.5463965823
 20
-23.211504699
 10
-12.537846154
 20
-23.2367966318
 10
-12.5165261305
 20
-23.2618040284
 10
-12.482665079
 20
-23.2862591043
 10
-12.4366260053
 20
-23.3098933389
 10
-12.3789024482
 20
-23.3324598273
 10
-12.3101131155
 20
-23.3537359084
 10
-12.2309953272
 20
-23.3735010282
 10
-12.1423971406
 20
-23.3915354274
 10
-12.0452681837
 20
-23.4076419086
 10
-11.9406495518
 20
-23.4216474999
 10
-11.8296626855
 20
-23.4334023861
 10
-11.7134973032
 20
-23.4427776875
 10
-11.5933986278
 20
-23.4496719646
 10
-11.4706540323
 20
-23.4540122867
 10
-11.3465792696
 20
-23.4557521203
  0
LINE
  5
277
100
AcDbEntity
  8
RACCORDO
100
AcDbLine
 62
250
  6
CONTINUOUS
 10
18.8016445583
 20
40.0
 11
18.4923965984
 21
39.6907520401
  0
LINE
  5
278
100
AcDbEntity
  8
RACCORDO
100
AcDbLine
 62
250
  6
CONTINUOUS
 10
18.4923965984
 20
-39.6907520401
 11
18.8016445583
 21
-40.0
  0
LINE
  5
279
100
AcDbEntity
  8
0
100
AcDbLine
 62
7
  6
CONTINUOUS
 10
-5.968046
 20
-33.699944
 11
-5.069022
 21
-36.500077
  0
LINE
  5
27A
100
AcDbEntity
  8
0
100
AcDbLine
 62
7
  6
CONTINUOUS
 10
-5.408018
 20
-33.699944
 11
-4.788994
 21
-35.627982
  0
LWPOLYLINE
  5
27B
100
AcDbEntity
  8
RACCORDO
100
AcDbPolyline
 62
250
  6
CONTINUOUS
 90
18
 70
0
 10
-11.3465791924
 20
-23.4557528124
 10
-11.34935304
 20
-23.4155812006
 10
-11.3570634822
 20
-23.3755016102
 10
-11.369710519
 20
-23.3355684623
 10
-11.3878143195
 20
-23.2957482475
 10
-11.4108547146
 20
-23.256189586
 10
-11.4372711973
 20
-23.21721137
 10
-11.4669505669
 20
-23.1791091105
 10
-11.500006024
 20
-23.1416716925
 10
-11.5352166642
 20
-23.1044716892
 10
-11.5724047576
 20
-23.0676297818
 10
-11.6117480339
 20
-23.0311709421
 10
-11.6525587782
 20
-22.994596
 10
-11.6947710653
 20
-22.9580579963
 10
-11.7384508203
 20
-22.9216691164
 10
-11.7831081028
 20
-22.8849849916
 10
-11.8289609317
 20
-22.8481033083
 10
-11.9224551741
 20
-22.7750154052
  0
LWPOLYLINE
  5
27C
100
AcDbEntity
  8
RACCORDO
100
AcDbPolyline
 62
250
  6
CONTINUOUS
 90
13
 70
0
 10
-12.5056858417
 20
-22.3
 10
-12.5039750739
 20
-22.3261052433
 10
-12.4988720423
 20
-22.3517638184
 10
-12.4904640613
 20
-22.3765367
 10
-12.4788949937
 20
-22.4000000169
 10
-12.4643627896
 20
-22.4217523051
 10
-12.4471160991
 20
-22.4414213769
 10
-12.4274500163
 20
-22.4586706901
 10
-12.4057010348
 20
-22.4732051024
 10
-12.3822412918
 20
-22.4847759232
 10
-12.3574721934
 20
-22.4931851745
 10
-12.3318175443
 20
-22.498288975
 10
-12.3057163027
 20
-22.5
  0
LINE
  5
27D
100
AcDbEntity
  8
RACCORDO
100
AcDbLine
 62
250
  6
CONTINUOUS
 10
-12.5328850012
 20
22.4261152332
 11
-12.5345241394
 21
22.4662135207
  0
LINE
  5
27E
100
AcDbEntity
  8
RACCORDO
100
AcDbLine
 62
250
  6
CONTINUOUS
 10
-12.5345241394
 20
22.4662135207
 11
-12.5360454159
 21
22.5092744589
  0
LINE
  5
27F
100
AcDbEntity
  8
RACCORDO
100
AcDbLine
 62
250
  6
CONTINUOUS
 10
-12.6263196944
 20
29.4125382624
 11
-12.6064808391
 21
28.8513004881
  0
LINE
  5
280
100
AcDbEntity
  8
RACCORDO
100
AcDbLine
 62
250
  6
CONTINUOUS
 10
-12.6064808391
 20
28.8513004881
 11
-12.5889523269
 21
28.260890141
  0
LINE
  5
281
100
AcDbEntity
  8
RACCORDO
100
AcDbLine
 62
250
  6
CONTINUOUS
 10
-12.5360454159
 20
22.5092744589
 11
-12.5380956727
 21
22.5779178869
  0
LINE
  5
282
100
AcDbEntity
  8
RACCORDO
100
AcDbLine
 62
250
  6
CONTINUOUS
 10
-12.5380956727
 20
22.5779178869
 11
-12.5398761068
 21
22.6501051622
  0
LINE
  5
283
100
AcDbEntity
  8
RACCORDO
100
AcDbLine
 62
250
  6
CONTINUOUS
 10
-12.5889523269
 20
28.260890141
 11
-12.5742493582
 21
27.6373450165
  0
LINE
  5
284
100
AcDbEntity
  8
RACCORDO
100
AcDbLine
 62
250
  6
CONTINUOUS
 10
-12.5398761068
 20
22.6501051622
 11
-12.5418565455
 21
22.7496836662
  0
LINE
  5
285
100
AcDbEntity
  8
RACCORDO
100
AcDbLine
 62
250
  6
CONTINUOUS
 10
-12.5742493582
 20
27.6373450165
 11
-12.5631542693
 21
26.9784591401
  0
LINE
  5
286
100
AcDbEntity
  8
RACCORDO
100
AcDbLine
 62
250
  6
CONTINUOUS
 10
-12.5418565455
 20
22.7496836662
 11
-12.5437498862
 21
22.8755836191
  0
LINE
  5
287
100
AcDbEntity
  8
RACCORDO
100
AcDbLine
 62
250
  6
CONTINUOUS
 10
-12.5437498862
 20
22.8755836191
 11
-12.5453312439
 21
23.0283328124
  0
LINE
  5
288
100
AcDbEntity
  8
RACCORDO
100
AcDbLine
 62
250
  6
CONTINUOUS
 10
-12.5631542693
 20
26.9784591401
 11
-12.5566195358
 21
26.2802199961
  0
LINE
  5
289
100
AcDbEntity
  8
RACCORDO
100
AcDbLine
 62
250
  6
CONTINUOUS
 10
-12.5566195358
 20
26.2802199961
 11
-12.5453312439
 21
23.0283328124
  0
LINE
  5
28A
100
AcDbEntity
  8
RACCORDO
100
AcDbLine
 62
250
  6
CONTINUOUS
 10
-13.7376339229
 20
-38.5298002195
 11
-13.7525886565
 21
-28.2773232034
  0
LINE
  5
28B
100
AcDbEntity
  8
RACCORDO
100
AcDbLine
 62
250
  6
CONTINUOUS
 10
-13.7525886565
 20
-28.2773232034
 11
-13.7629471237
 21
-18.0045695486
  0
LINE
  5
28C
100
AcDbEntity
  8
RACCORDO
100
AcDbLine
 62
250
  6
CONTINUOUS
 10
-13.7629471237
 20
-18.0045695486
 11
-13.7687069439
 21
-7.7185769943
  0
LINE
  5
28D
100
AcDbEntity
  8
RACCORDO
100
AcDbLine
 62
250
  6
CONTINUOUS
 10
-12.5648860106
 20
-15.5589110946
 11
-12.5695967863
 21
-5.1877863742
  0
LINE
  5
28E
100
AcDbEntity
  8
RACCORDO
100
AcDbLine
 62
250
  6
CONTINUOUS
 10
-13.7687069439
 20
-7.7185769943
 11
-13.7698585939
 21
2.5730303755
  0
LINE
  5
28F
100
AcDbEntity
  8
RACCORDO
100
AcDbLine
 62
7
  6
CONTINUOUS
 10
-12.5
 20
22.3
 11
-12.5
 21
-22.3
  0
LINE
  5
290
100
AcDbEntity
  8
RACCORDO
100
AcDbLine
 62
250
  6
CONTINUOUS
 10
-12.5695967863
 20
-5.1877863742
 11
-12.5695968478
 21
5.1875164225
  0
LINE
  5
291
100
AcDbEntity
  8
RACCORDO
100
AcDbLine
 62
250
  6
CONTINUOUS
 10
-13.7698585939
 20
2.5730303755
 11
-13.7664028687
 21
12.8626802617
  0
LINE
  5
292
100
AcDbEntity
  8
RACCORDO
100
AcDbLine
 62
250
  6
CONTINUOUS
 10
-12.5695968478
 20
5.1875164225
 11
-12.5648861432
 21
15.5587164838
  0
LINE
  5
293
100
AcDbEntity
  8
RACCORDO
100
AcDbLine
 62
250
  6
CONTINUOUS
 10
-13.7664028687
 20
12.8626802617
 11
-13.7583421464
 21
23.1430671156
  0
LINE
  5
294
100
AcDbEntity
  8
RACCORDO
100
AcDbLine
 62
250
  6
CONTINUOUS
 10
-12.5648861432
 20
15.5587164838
 11
-12.5554710205
 21
25.9166407672
  0
LWPOLYLINE
  5
295
100
AcDbEntity
  8
RACCORDO
100
AcDbPolyline
 62
250
  6
CONTINUOUS
 90
3
 70
0
 10
-13.7583421464
 20
23.1430671156
 10
-13.7456859373
 20
33.4065005341
 10
-13.7376339308
 20
38.5298002284
  0
LINE
  5
296
100
AcDbEntity
  8
RACCORDO
100
AcDbLine
 62
250
  6
CONTINUOUS
 10
-12.5648860106
 20
-15.5589110946
 11
-12.5566895136
 21
-26.293299403
  0
LINE
  5
297
100
AcDbEntity
  8
RACCORDO
100
AcDbLine
 62
250
  6
CONTINUOUS
 10
-12.5554710208
 20
-25.9166408473
 11
-12.5455556646
 21
-23.0572888192
  0
LINE
  5
298
100
AcDbEntity
  8
RACCORDO
100
AcDbLine
 62
250
  6
CONTINUOUS
 10
-12.5455556646
 20
-23.0572888192
 11
-12.5441181829
 21
-22.9056727584
  0
LINE
  5
299
100
AcDbEntity
  8
RACCORDO
100
AcDbLine
 62
250
  6
CONTINUOUS
 10
-12.5566895136
 20
-26.293299403
 11
-12.5636568211
 21
-27.0157416083
  0
LINE
  5
29A
100
AcDbEntity
  8
RACCORDO
100
AcDbLine
 62
250
  6
CONTINUOUS
 10
-12.5441181829
 20
-22.9056727584
 11
-12.5423449534
 21
-22.7785154454
  0
LINE
  5
29B
100
AcDbEntity
  8
RACCORDO
100
AcDbLine
 62
250
  6
CONTINUOUS
 10
-12.5636568211
 20
-27.0157416083
 11
-12.5754636129
 21
-27.6961339803
  0
LINE
  5
29C
100
AcDbEntity
  8
RACCORDO
100
AcDbLine
 62
250
  6
CONTINUOUS
 10
-12.5423449534
 20
-22.7785154454
 11
-12.5404838161
 21
-22.6781158433
  0
LINE
  5
29D
100
AcDbEntity
  8
RACCORDO
100
AcDbLine
 62
250
  6
CONTINUOUS
 10
-12.5404838161
 20
-22.6781158433
 11
-12.5388009326
 21
-22.6048910083
  0
LINE
  5
29E
100
AcDbEntity
  8
RACCORDO
100
AcDbLine
 62
250
  6
CONTINUOUS
 10
-12.5754636129
 20
-27.6961339803
 11
-12.591072086
 21
-28.3389609522
  0
LINE
  5
29F
100
AcDbEntity
  8
RACCORDO
100
AcDbLine
 62
250
  6
CONTINUOUS
 10
-12.5388009326
 20
-22.6048910083
 11
-12.5368487132
 21
-22.5345504353
  0
LWPOLYLINE
  5
2A0
100
AcDbEntity
  8
RACCORDO
100
AcDbPolyline
 62
250
  6
CONTINUOUS
 90
3
 70
0
 10
-12.591072086
 20
-28.3389609522
 10
-12.6096344953
 20
-28.9466239764
 10
-12.6198601073
 20
-29.2388691017
  0
LINE
  5
2A1
100
AcDbEntity
  8
RACCORDO
100
AcDbLine
 62
250
  6
CONTINUOUS
 10
-12.5368487132
 20
-22.5345504353
 11
-12.5353908459
 21
-22.4899715513
  0
LWPOLYLINE
  5
2A2
100
AcDbEntity
  8
RACCORDO
100
AcDbPolyline
 62
250
  6
CONTINUOUS
 90
3
 70
0
 10
-12.5353908459
 20
-22.4899715513
 10
-12.5338151336
 20
-22.4481447101
 10
-12.532983876
 20
-22.4283593854
  0
LWPOLYLINE
  5
2A3
100
AcDbEntity
  8
RACCORDO
100
AcDbPolyline
 62
250
  6
CONTINUOUS
 90
13
 70
0
 10
-12.5056858417
 20
22.3
 10
-12.5039750687
 20
22.3261052384
 10
-12.4988720342
 20
22.351763809
 10
-12.4904640525
 20
22.3765366865
 10
-12.4788949863
 20
22.4
 10
-12.4643627857
 20
22.4217522858
 10
-12.4471161005
 20
22.4414213562
 10
-12.4274500263
 20
22.4586706681
 10
-12.4057010552
 20
22.4732050808
 10
-12.3822413179
 20
22.4847759065
 10
-12.3574722172
 20
22.4931851653
 10
-12.3318175593
 20
22.4982889723
 10
-12.3057163027
 20
22.5
  0
LINE
  5
2A4
100
AcDbEntity
  8
RACCORDO
100
AcDbLine
 62
250
  6
CONTINUOUS
 10
20.0
 20
38.8016445583
 11
19.6907511099
 21
38.4923956682
  0
LINE
  5
2A5
100
AcDbEntity
  8
RACCORDO
100
AcDbLine
 62
250
  6
CONTINUOUS
 10
19.6907510909
 20
-38.4923956492
 11
20.0
 21
-38.8016445583
  0
LINE
  5
2A6
100
AcDbEntity
  8
0
100
AcDbLine
 62
7
  6
CONTINUOUS
 10
4.776058
 20
-35.41738
 11
5.337269
 21
-36.500063
  0
LINE
  5
2A7
100
AcDbEntity
  8
RACCORDO
100
AcDbLine
 62
250
  6
CONTINUOUS
 10
-13.0448997476
 20
35.4474896437
 11
-13.0204101452
 21
35.2188010128
  0
LINE
  5
2A8
100
AcDbEntity
  8
RACCORDO
100
AcDbLine
 62
250
  6
CONTINUOUS
 10
-13.0204101452
 20
35.2188010128
 11
-12.9830479769
 21
34.8509608906
  0
LINE
  5
2A9
100
AcDbEntity
  8
RACCORDO
100
AcDbLine
 62
250
  6
CONTINUOUS
 10
-12.9830479769
 20
34.8509608906
 11
-12.9452350258
 21
34.4539212558
  0
LINE
  5
2AA
100
AcDbEntity
  8
RACCORDO
100
AcDbLine
 62
250
  6
CONTINUOUS
 10
-12.9452350258
 20
34.4539212558
 11
-12.9073252588
 21
34.028715649
  0
LINE
  5
2AB
100
AcDbEntity
  8
RACCORDO
100
AcDbLine
 62
250
  6
CONTINUOUS
 10
-12.9073252588
 20
34.028715649
 11
-12.8695360852
 21
33.5749557509
  0
LINE
  5
2AC
100
AcDbEntity
  8
RACCORDO
100
AcDbLine
 62
250
  6
CONTINUOUS
 10
-12.8695360852
 20
33.5749557509
 11
-12.8318168382
 21
33.0884164886
  0
LINE
  5
2AD
100
AcDbEntity
  8
RACCORDO
100
AcDbLine
 62
250
  6
CONTINUOUS
 10
-12.8318168382
 20
33.0884164886
 11
-12.7940912192
 21
32.5628916994
  0
LINE
  5
2AE
100
AcDbEntity
  8
RACCORDO
100
AcDbLine
 62
250
  6
CONTINUOUS
 10
-12.7940912192
 20
32.5628916994
 11
-12.7564480402
 21
31.9921228192
  0
LINE
  5
2AF
100
AcDbEntity
  8
RACCORDO
100
AcDbLine
 62
250
  6
CONTINUOUS
 10
-12.7564480402
 20
31.9921228192
 11
-12.719165044
 21
31.3698168804
  0
LINE
  5
2B0
100
AcDbEntity
  8
RACCORDO
100
AcDbLine
 62
250
  6
CONTINUOUS
 10
-12.719165044
 20
31.3698168804
 11
-12.694728077
 21
30.9228903518
  0
LINE
  5
2B1
100
AcDbEntity
  8
RACCORDO
100
AcDbLine
 62
250
  6
CONTINUOUS
 10
-12.694728077
 20
30.9228903518
 11
-12.6708996268
 21
30.4485889124
  0
LINE
  5
2B2
100
AcDbEntity
  8
RACCORDO
100
AcDbLine
 62
250
  6
CONTINUOUS
 10
-12.5311241671
 20
22.3894716107
 11
-12.5328850012
 21
22.4261152332
  0
LINE
  5
2B3
100
AcDbEntity
  8
RACCORDO
100
AcDbLine
 62
250
  6
CONTINUOUS
 10
-12.6708996268
 20
30.4485889124
 11
-12.647950303
 21
29.9449043764
  0
LINE
  5
2B4
100
AcDbEntity
  8
RACCORDO
100
AcDbLine
 62
250
  6
CONTINUOUS
 10
-12.647950303
 20
29.9449043764
 11
-12.6263196944
 21
29.4125382624
  0
LINE
  5
2B5
100
AcDbEntity
  8
RACCORDO
100
AcDbLine
 62
250
  6
CONTINUOUS
 10
-11.3556537876
 20
26.1252944503
 11
-11.3465769381
 21
23.4557528124
  0
LINE
  5
2B6
100
AcDbEntity
  8
RACCORDO
100
AcDbLine
 62
250
  6
CONTINUOUS
 10
-11.3465769399
 20
-23.4557528124
 11
-11.3556537877
 21
-26.1252945003
  0
LWPOLYLINE
  5
2B7
100
AcDbEntity
  8
RACCORDO
100
AcDbPolyline
 62
250
  6
CONTINUOUS
 90
17
 70
0
 10
-11.3556537877
 20
-26.1252945003
 10
-11.3590754734
 20
-26.4988269157
 10
-11.3649240643
 20
-26.8622525904
 10
-11.3731995603
 20
-27.215543733
 10
-11.3841526342
 20
-27.558256693
 10
-11.3975326132
 20
-27.8907838416
 10
-11.4125874797
 20
-28.2143559723
 10
-11.4292299388
 20
-28.5289636543
 10
-11.4475472853
 20
-28.8345780909
 10
-11.4670493854
 20
-29.1324068103
 10
-11.4877000405
 20
-29.422687863
 10
-11.5095354491
 20
-29.705154715
 10
-11.5321740734
 20
-29.9802617098
 10
-11.5555904032
 20
-30.2480506929
 10
-11.5798099486
 20
-30.508456772
 10
-11.6045277018
 20
-30.7617761317
 10
-11.6297157478
 20
-31.0079444677
  0
LINE
  5
2B8
100
AcDbEntity
  8
RACCORDO
100
AcDbLine
 62
250
  6
CONTINUOUS
 10
-12.6198601073
 20
-29.2388691017
 11
-12.6417958078
 21
-29.8001051156
  0
LINE
  5
2B9
100
AcDbEntity
  8
RACCORDO
100
AcDbLine
 62
250
  6
CONTINUOUS
 10
-12.6417958078
 20
-29.8001051156
 11
-12.6653520343
 21
-30.3316065114
  0
LWPOLYLINE
  5
2BA
100
AcDbEntity
  8
RACCORDO
100
AcDbPolyline
 62
250
  6
CONTINUOUS
 90
37
 70
0
 10
-12.532983876
 20
-22.4283593854
 10
-12.5312281784
 20
-22.3914691849
 10
-12.5303037384
 20
-22.3743643091
 10
-12.5293518673
 20
-22.3584076533
 10
-12.5283664833
 20
-22.3435756804
 10
-12.5273536683
 20
-22.3298919276
 10
-12.5263348045
 20
-22.317672313
 10
-12.5253083704
 20
-22.307029133
 10
-12.5242758877
 20
-22.2978500913
 10
-12.5232633033
 20
-22.2901142169
 10
-12.5222745538
 20
-22.2839321376
 10
-12.5213057027
 20
-22.2791932256
 10
-12.5203708884
 20
-22.2755446275
 10
-12.5194757429
 20
-22.2730038023
 10
-12.5186146341
 20
-22.2715532909
 10
-12.5177848045
 20
-22.2707878629
 10
-12.5169873519
 20
-22.270671106
 10
-12.5162211784
 20
-22.2712394325
 10
-12.5154802333
 20
-22.2721968486
 10
-12.5147630872
 20
-22.273519163
 10
-12.5140711695
 20
-22.275230567
 10
-12.5134027171
 20
-22.277107641
 10
-12.5127580157
 20
-22.2791315674
 10
-12.5121367797
 20
-22.2813211638
 10
-12.5115363887
 20
-22.2835094629
 10
-12.510956939
 20
-22.2856801089
 10
-12.5103983344
 20
-22.2878494577
 10
-12.5098576653
 20
-22.2898996102
 10
-12.5093349923
 20
-22.2918177525
 10
-12.5088302548
 20
-22.2936166984
 10
-12.5083403612
 20
-22.2952169904
 10
-12.5078650473
 20
-22.2966102202
 10
-12.5074045772
 20
-22.297804796
 10
-12.5069566516
 20
-22.2987464852
 10
-12.5065205039
 20
-22.2994172101
 10
-12.5060969006
 20
-22.2998350484
 10
-12.5056858417
 20
-22.3
  0
LINE
  5
2BB
100
AcDbEntity
  8
RACCORDO
100
AcDbLine
 62
250
  6
CONTINUOUS
 10
-12.6653520343
 20
-30.3316065114
 11
-12.6901052456
 21
-30.8340665487
  0
LINE
  5
2BC
100
AcDbEntity
  8
RACCORDO
100
AcDbLine
 62
250
  6
CONTINUOUS
 10
-12.6901052456
 20
-30.8340665487
 11
-12.7156803382
 21
-31.3082245942
  0
LINE
  5
2BD
100
AcDbEntity
  8
RACCORDO
100
AcDbLine
 62
250
  6
CONTINUOUS
 10
-12.7156803382
 20
-31.3082245942
 11
-12.755026172
 21
-31.9695425756
  0
LINE
  5
2BE
100
AcDbEntity
  8
RACCORDO
100
AcDbLine
 62
250
  6
CONTINUOUS
 10
-12.755026172
 20
-31.9695425756
 11
-12.7949242348
 21
-32.5749767515
  0
LINE
  5
2BF
100
AcDbEntity
  8
RACCORDO
100
AcDbLine
 62
250
  6
CONTINUOUS
 10
-12.7949242348
 20
-32.5749767515
 11
-12.8348540301
 21
-33.1289546933
  0
LINE
  5
2C0
100
AcDbEntity
  8
RACCORDO
100
AcDbLine
 62
250
  6
CONTINUOUS
 10
-12.8348540301
 20
-33.1289546933
 11
-12.8744536809
 21
-33.6358206207
  0
LINE
  5
2C1
100
AcDbEntity
  8
RACCORDO
100
AcDbLine
 62
250
  6
CONTINUOUS
 10
-12.8744536809
 20
-33.6358206207
 11
-12.9134950065
 21
-34.0998849677
  0
LINE
  5
2C2
100
AcDbEntity
  8
RACCORDO
100
AcDbLine
 62
250
  6
CONTINUOUS
 10
-12.9134950065
 20
-34.0998849677
 11
-12.9517997525
 21
-34.5247307708
  0
LINE
  5
2C3
100
AcDbEntity
  8
RACCORDO
100
AcDbLine
 62
250
  6
CONTINUOUS
 10
-12.9517997525
 20
-34.5247307708
 11
-12.9891972914
 21
-34.9131293583
  0
LINE
  5
2C4
100
AcDbEntity
  8
RACCORDO
100
AcDbLine
 62
250
  6
CONTINUOUS
 10
-12.9891972914
 20
-34.9131293583
 11
-13.0255568842
 21
-35.2676582509
  0
LINE
  5
2C5
100
AcDbEntity
  8
RACCORDO
100
AcDbLine
 62
250
  6
CONTINUOUS
 10
-13.0255568842
 20
-35.2676582509
 11
-13.0608130937
 21
-35.5910313125
  0
LINE
  5
2C6
100
AcDbEntity
  8
RACCORDO
100
AcDbLine
 62
250
  6
CONTINUOUS
 10
-13.0608130937
 20
-35.5910313125
 11
-13.0836972952
 21
-35.7906575275
  0
LWPOLYLINE
  5
2C7
100
AcDbEntity
  8
RACCORDO
100
AcDbPolyline
 62
250
  6
CONTINUOUS
 90
3
 70
0
 10
-13.0836972952
 20
-35.7906575275
 10
-13.1061107872
 20
-35.9786371537
 10
-13.1171357289
 20
-36.0683786809
  0
LINE
  5
2C8
100
AcDbEntity
  8
0
100
AcDbLine
 62
7
  6
CONTINUOUS
 10
5.3719317907
 20
-35.3500306669
 11
5.968046
 21
-36.500056
  0
LINE
  5
2C9
100
AcDbEntity
  8
0
100
AcDbLine
 62
7
  6
CONTINUOUS
 10
-1.556562
 20
-34.653575
 11
-1.027096
 21
-36.50007
  0
LINE
  5
2CA
100
AcDbEntity
  8
0
100
AcDbLine
 62
7
  6
CONTINUOUS
 10
-1.269982
 20
-33.699944
 11
-0.747089
 21
-35.523486
  0
LINE
  5
2CB
100
AcDbEntity
  8
RACCORDO
100
AcDbLine
 62
250
  6
CONTINUOUS
 10
-13.1266564089
 20
36.1445093328
 11
-13.103969298
 21
35.9609752852
  0
LINE
  5
2CC
100
AcDbEntity
  8
RACCORDO
100
AcDbLine
 62
250
  6
CONTINUOUS
 10
-13.103969298
 20
35.9609752852
 11
-13.0807528703
 21
35.7654235541
  0
LWPOLYLINE
  5
2CD
100
AcDbEntity
  8
RACCORDO
100
AcDbPolyline
 62
250
  6
CONTINUOUS
 90
3
 70
0
 10
-13.0807528703
 20
35.7654235541
 10
-13.056974642
 20
35.55677399
 10
-13.0448997476
 20
35.4474896437
  0
LWPOLYLINE
  5
2CE
100
AcDbEntity
  8
RACCORDO
100
AcDbPolyline
 62
250
  6
CONTINUOUS
 90
18
 70
0
 10
-11.6694490992
 20
31.3740012546
 10
-11.6198770961
 20
30.9133151163
 10
-11.5956435538
 20
30.6722580488
 10
-11.5718077021
 20
30.4236554089
 10
-11.5484107228
 20
30.1677287585
 10
-11.5257878597
 20
29.9045146339
 10
-11.5039236987
 20
29.634125252
 10
-11.4828336538
 20
29.3564707266
 10
-11.4628992106
 20
29.0712857266
 10
-11.444091899
 20
28.7788826752
 10
-11.426440189
 20
28.4789761695
 10
-11.4104109762
 20
28.1704073962
 10
-11.3959224162
 20
27.8531936308
 10
-11.3830563533
 20
27.5273537989
 10
-11.3725252162
 20
27.1917369404
 10
-11.3645664809
 20
26.845976213
 10
-11.3589426714
 20
26.4904866848
 10
-11.3556537876
 20
26.1252944503
  0
LWPOLYLINE
  5
2CF
100
AcDbEntity
  8
RACCORDO
100
AcDbPolyline
 62
250
  6
CONTINUOUS
 90
3
 70
0
 10
-11.6297157478
 20
-31.0079444677
 10
-11.6813652008
 20
-31.4794270536
 10
-11.70758453
 20
-31.7051804723
  0
LWPOLYLINE
  5
2D0
100
AcDbEntity
  8
RACCORDO
100
AcDbPolyline
 62
250
  6
CONTINUOUS
 90
3
 70
0
 10
-11.70758453
 20
-31.7051804723
 10
-11.7606952077
 20
-32.1372251233
 10
-11.7874132151
 20
-32.3440282864
  0
LINE
  5
2D1
100
AcDbEntity
  8
RACCORDO
100
AcDbLine
 62
250
  6
CONTINUOUS
 10
-13.1171357289
 20
-36.0683786809
 11
-13.1388793049
 21
-36.2403158296
  0
LINE
  5
2D2
100
AcDbEntity
  8
RACCORDO
100
AcDbLine
 62
250
  6
CONTINUOUS
 10
-13.1388793049
 20
-36.2403158296
 11
-13.160215416
 21
-36.402507734
  0
LINE
  5
2D3
100
AcDbEntity
  8
RACCORDO
100
AcDbLine
 62
250
  6
CONTINUOUS
 10
-11.7874132151
 20
-32.3440282864
 11
-11.8410883717
 21
-32.7396551208
  0
LINE
  5
2D4
100
AcDbEntity
  8
RACCORDO
100
AcDbLine
 62
250
  6
CONTINUOUS
 10
-13.160215416
 20
-36.402507734
 11
-13.1812037653
 21
-36.5558992095
  0
LINE
  5
2D5
100
AcDbEntity
  8
RACCORDO
100
AcDbLine
 62
250
  6
CONTINUOUS
 10
-13.1812037653
 20
-36.5558992095
 11
-13.2019245681
 21
-36.7014296962
  0
LINE
  5
2D6
100
AcDbEntity
  8
RACCORDO
100
AcDbLine
 62
250
  6
CONTINUOUS
 10
-11.8410883717
 20
-32.7396551208
 11
-11.8947517147
 21
-33.1126178677
  0
LINE
  5
2D7
100
AcDbEntity
  8
RACCORDO
100
AcDbLine
 62
250
  6
CONTINUOUS
 10
-13.2019245681
 20
-36.7014296962
 11
-13.2224322471
 21
-36.8397228326
  0
LINE
  5
2D8
100
AcDbEntity
  8
RACCORDO
100
AcDbLine
 62
250
  6
CONTINUOUS
 10
-11.8947517147
 20
-33.1126178677
 11
-11.9481760817
 21
-33.4643382199
  0
LINE
  5
2D9
100
AcDbEntity
  8
RACCORDO
100
AcDbLine
 62
250
  6
CONTINUOUS
 10
-13.2224322471
 20
-36.8397228326
 11
-13.2428297759
 21
-36.971711901
  0
LINE
  5
2DA
100
AcDbEntity
  8
RACCORDO
100
AcDbLine
 62
250
  6
CONTINUOUS
 10
-11.9481760817
 20
-33.4643382199
 11
-12.0012306565
 21
-33.7957564921
  0
LINE
  5
2DB
100
AcDbEntity
  8
RACCORDO
100
AcDbLine
 62
250
  6
CONTINUOUS
 10
-13.2428297759
 20
-36.971711901
 11
-13.2632495581
 21
-37.0983028629
  0
LINE
  5
2DC
100
AcDbEntity
  8
RACCORDO
100
AcDbLine
 62
250
  6
CONTINUOUS
 10
-12.0012306565
 20
-33.7957564921
 11
-12.0537657835
 21
-34.1083440346
  0
LINE
  5
2DD
100
AcDbEntity
  8
RACCORDO
100
AcDbLine
 62
250
  6
CONTINUOUS
 10
-13.2632495581
 20
-37.0983028629
 11
-13.2837895189
 21
-37.2200984712
  0
LINE
  5
2DE
100
AcDbEntity
  8
RACCORDO
100
AcDbLine
 62
250
  6
CONTINUOUS
 10
-12.0537657835
 20
-34.1083440346
 11
-12.1056715836
 21
-34.4032676521
  0
LWPOLYLINE
  5
2DF
100
AcDbEntity
  8
RACCORDO
100
AcDbPolyline
 62
250
  6
CONTINUOUS
 90
33
 70
0
 10
-13.2837895189
 20
-37.2200984712
 10
-13.3046164539
 20
-37.3380054449
 10
-13.3152139951
 20
-37.3957832764
 10
-13.3259602497
 20
-37.4529169925
 10
-13.3368542215
 20
-37.5093616259
 10
-13.3479677367
 20
-37.5652690679
 10
-13.3593196713
 20
-37.6207579571
 10
-13.370892755
 20
-37.6757085042
 10
-13.3827054027
 20
-37.7299147074
 10
-13.3947816459
 20
-37.7834791521
 10
-13.4070988761
 20
-37.8362979083
 10
-13.4196050679
 20
-37.8878552919
 10
-13.4322983893
 20
-37.9381200906
 10
-13.4451803224
 20
-37.9871224654
 10
-13.4582027561
 20
-38.0344390903
 10
-13.471345037
 20
-38.0799902158
 10
-13.4846260297
 20
-38.1238548471
 10
-13.4980564595
 20
-38.1658479027
 10
-13.511590783
 20
-38.2058908304
 10
-13.5252723558
 20
-38.2440614062
 10
-13.5392461564
 20
-38.2804085222
 10
-13.5535097258
 20
-38.3150363214
 10
-13.5680646006
 20
-38.3478387671
 10
-13.5830632421
 20
-38.3785484432
 10
-13.5985316588
 20
-38.4073406611
 10
-13.6144430462
 20
-38.4340368775
 10
-13.6308712735
 20
-38.4578380132
 10
-13.6479400886
 20
-38.478783407
 10
-13.6655231175
 20
-38.4968293134
 10
-13.6833176835
 20
-38.511052931
 10
-13.7012201325
 20
-38.5211466542
 10
-13.7193268206
 20
-38.5274166587
 10
-13.7376338146
 20
-38.5298620862
  0
LINE
  5
2E0
100
AcDbEntity
  8
RACCORDO
100
AcDbLine
 62
250
  6
CONTINUOUS
 10
-12.1056715836
 20
-34.4032676521
 11
-12.1568716563
 21
-34.6812248211
  0
LINE
  5
2E1
100
AcDbEntity
  8
0
100
AcDbLine
 62
7
  6
CONTINUOUS
 10
2.174788
 20
-34.572032
 11
2.446199
 21
-35.41738
  0
LINE
  5
2E2
100
AcDbEntity
  8
0
100
AcDbLine
 62
7
  6
CONTINUOUS
 10
2.617027
 20
-35.949401
 11
2.793819
 21
-36.500063
  0
LINE
  5
2E3
100
AcDbEntity
  8
0
100
AcDbLine
 62
7
  6
CONTINUOUS
 10
2.454816
 20
-33.699937
 11
3.353847
 21
-36.50007
  0
LINE
  5
2E4
100
AcDbEntity
  8
RACCORDO
100
AcDbLine
 62
250
  6
CONTINUOUS
 10
-13.3239185289
 20
37.442188785
 11
-13.3040209419
 21
37.334680797
  0
LINE
  5
2E5
100
AcDbEntity
  8
RACCORDO
100
AcDbLine
 62
250
  6
CONTINUOUS
 10
-12.1558118709
 20
34.6756236033
 11
-12.1043380722
 21
34.3957591486
  0
LINE
  5
2E6
100
AcDbEntity
  8
RACCORDO
100
AcDbLine
 62
250
  6
CONTINUOUS
 10
-13.3040209419
 20
37.334680797
 11
-13.2840694138
 21
37.2217297021
  0
LINE
  5
2E7
100
AcDbEntity
  8
RACCORDO
100
AcDbLine
 62
250
  6
CONTINUOUS
 10
-12.1043380722
 20
34.3957591486
 11
-12.0528733639
 21
34.1032037881
  0
LINE
  5
2E8
100
AcDbEntity
  8
RACCORDO
100
AcDbLine
 62
250
  6
CONTINUOUS
 10
-13.2840694138
 20
37.2217297021
 11
-13.2639823959
 21
37.1027389057
  0
LINE
  5
2E9
100
AcDbEntity
  8
RACCORDO
100
AcDbLine
 62
250
  6
CONTINUOUS
 10
-12.0528733639
 20
34.1032037881
 11
-12.0015627002
 21
33.7978639504
  0
LINE
  5
2EA
100
AcDbEntity
  8
RACCORDO
100
AcDbLine
 62
250
  6
CONTINUOUS
 10
-13.2639823959
 20
37.1027389057
 11
-13.2437158883
 21
36.9773106879
  0
LINE
  5
2EB
100
AcDbEntity
  8
RACCORDO
100
AcDbLine
 62
250
  6
CONTINUOUS
 10
-12.0015627002
 20
33.7978639504
 11
-11.9502876197
 21
33.4777045896
  0
LINE
  5
2EC
100
AcDbEntity
  8
RACCORDO
100
AcDbLine
 62
250
  6
CONTINUOUS
 10
-13.2437158883
 20
36.9773106879
 11
-13.2232073662
 21
36.8448521678
  0
LINE
  5
2ED
100
AcDbEntity
  8
RACCORDO
100
AcDbLine
 62
250
  6
CONTINUOUS
 10
-11.9502876197
 20
33.4777045896
 11
-11.8990137761
 21
33.1414296508
  0
LINE
  5
2EE
100
AcDbEntity
  8
RACCORDO
100
AcDbLine
 62
250
  6
CONTINUOUS
 10
-13.2232073662
 20
36.8448521678
 11
-13.2023991239
 21
36.7046813774
  0
LINE
  5
2EF
100
AcDbEntity
  8
RACCORDO
100
AcDbLine
 62
250
  6
CONTINUOUS
 10
-11.8990137761
 20
33.1414296508
 11
-11.8476870467
 21
32.7868461767
  0
LINE
  5
2F0
100
AcDbEntity
  8
RACCORDO
100
AcDbLine
 62
250
  6
CONTINUOUS
 10
-13.2023991239
 20
36.7046813774
 11
-13.1812620398
 21
36.5563189703
  0
LINE
  5
2F1
100
AcDbEntity
  8
RACCORDO
100
AcDbLine
 62
250
  6
CONTINUOUS
 10
-13.1812620398
 20
36.5563189703
 11
-13.1597468039
 21
36.3990295973
  0
LINE
  5
2F2
100
AcDbEntity
  8
RACCORDO
100
AcDbLine
 62
250
  6
CONTINUOUS
 10
-11.8476870467
 20
32.7868461767
 11
-11.796413568
 21
32.4118431237
  0
LWPOLYLINE
  5
2F3
100
AcDbEntity
  8
RACCORDO
100
AcDbPolyline
 62
250
  6
CONTINUOUS
 90
3
 70
0
 10
-13.1597468039
 20
36.3990295973
 10
-13.1377953672
 20
36.2318873163
 10
-13.1266564089
 20
36.1445093328
  0
LINE
  5
2F4
100
AcDbEntity
  8
RACCORDO
100
AcDbLine
 62
250
  6
CONTINUOUS
 10
-11.796413568
 20
32.4118431237
 11
-11.7452992089
 21
32.0150022614
  0
LWPOLYLINE
  5
2F5
100
AcDbEntity
  8
RACCORDO
100
AcDbPolyline
 62
250
  6
CONTINUOUS
 90
3
 70
0
 10
-11.7452992089
 20
32.0150022614
 10
-11.6945478375
 20
31.5941717019
 10
-11.6694490992
 20
31.3740012546
  0
LINE
  5
2F6
100
AcDbEntity
  8
0
100
AcDbLine
 62
7
  6
CONTINUOUS
 10
-3.236604
 20
-33.699944
 11
-3.236611
 21
-36.500077
  0
LINE
  5
2F7
100
AcDbEntity
  8
0
100
AcDbLine
 62
7
  6
CONTINUOUS
 10
-2.676583
 20
-33.699944
 11
-2.67659
 21
-36.50007
  0
LINE
  5
2F8
100
AcDbEntity
  8
RACCORDO
100
AcDbLine
 62
250
  6
CONTINUOUS
 10
-12.1568716563
 20
-34.6812248211
 11
-12.2072488732
 21
-34.9431226214
  0
LINE
  5
2F9
100
AcDbEntity
  8
RACCORDO
100
AcDbLine
 62
250
  6
CONTINUOUS
 10
-12.2072488732
 20
-34.9431226214
 11
-12.2567167131
 21
-35.1897861199
  0
LWPOLYLINE
  5
2FA
100
AcDbEntity
  8
RACCORDO
100
AcDbPolyline
 62
250
  6
CONTINUOUS
 90
3
 70
0
 10
-12.2567167131
 20
-35.1897861199
 10
-12.3052313405
 20
-35.4217910791
 10
-12.3291117788
 20
-35.532629579
  0
LWPOLYLINE
  5
2FB
100
AcDbEntity
  8
RACCORDO
100
AcDbPolyline
 62
250
  6
CONTINUOUS
 90
3
 70
0
 10
-12.3291117788
 20
-35.532629579
 10
-12.3761272819
 20
-35.7442918747
 10
-12.3992572915
 20
-35.8454240306
  0
LWPOLYLINE
  5
2FC
100
AcDbEntity
  8
RACCORDO
100
AcDbPolyline
 62
250
  6
CONTINUOUS
 90
47
 70
0
 10
-12.3992572915
 20
-35.8454240306
 10
-12.4447818711
 20
-36.0386030551
 10
-12.4671840125
 20
-36.1309631147
 10
-12.4893487925
 20
-36.2205026746
 10
-12.5113002082
 20
-36.3075359279
 10
-12.5330340603
 20
-36.3920631371
 10
-12.5545545481
 20
-36.4740830073
 10
-12.5758982662
 20
-36.5539075445
 10
-12.5970605151
 20
-36.6315370936
 10
-12.6180459943
 20
-36.7069705167
 10
-12.6389053966
 20
-36.7805177206
 10
-12.6596333009
 20
-36.8521793918
 10
-12.6802351282
 20
-36.9219542396
 10
-12.7007778345
 20
-36.99014931
 10
-12.7212552051
 20
-37.0567667143
 10
-12.7416734546
 20
-37.1218038863
 10
-12.762118183
 20
-37.1855609424
 10
-12.7825809456
 20
-37.2480391786
 10
-12.803070187
 20
-37.3092369609
 10
-12.8236968415
 20
-37.3694500851
 10
-12.8444500334
 20
-37.4286824797
 10
-12.8653406383
 20
-37.486929971
 10
-12.8865122176
 20
-37.5444762648
 10
-12.9079630768
 20
-37.6013593396
 10
-12.9296949103
 20
-37.6575410464
 10
-12.9518563634
 20
-37.7131909457
 10
-12.9744796633
 20
-37.7684224773
 10
-12.9975325828
 20
-37.8231220764
 10
-13.0210670856
 20
-37.8771187991
 10
-13.0451338912
 20
-37.9305249997
 10
-13.0696822801
 20
-37.9832281822
 10
-13.0946120573
 20
-38.0347200787
 10
-13.1199233368
 20
-38.0849751855
 10
-13.1456160046
 20
-38.1340188014
 10
-13.1715895234
 20
-38.1814188018
 10
-13.1978123317
 20
-38.2271013389
 10
-13.224315991
 20
-38.2711400284
 10
-13.2510946487
 20
-38.3133239092
 10
-13.2780530082
 20
-38.3535646258
 10
-13.3052863661
 20
-38.3919503169
 10
-13.3330747602
 20
-38.4285347638
 10
-13.3614141837
 20
-38.46341351
 10
-13.3903086433
 20
-38.4964908438
 10
-13.4200501973
 20
-38.5275336658
 10
-13.4507361984
 20
-38.5564642211
 10
-13.4822692939
 20
-38.583360109
 10
-13.5146494838
 20
-38.6082212622
  0
LWPOLYLINE
  5
2FD
100
AcDbEntity
  8
RACCORDO
100
AcDbPolyline
 62
250
  6
CONTINUOUS
 90
3
 70
0
 10
-12.4307694447
 20
35.979937742
 10
-12.3826585117
 20
35.7730786755
 10
-12.358215432
 20
35.6646307084
  0
LINE
  5
2FE
100
AcDbEntity
  8
RACCORDO
100
AcDbLine
 62
250
  6
CONTINUOUS
 10
-12.358215432
 20
35.6646307084
 11
-12.3085711736
 21
35.4374537289
  0
LINE
  5
2FF
100
AcDbEntity
  8
RACCORDO
100
AcDbLine
 62
250
  6
CONTINUOUS
 10
-12.3085711736
 20
35.4374537289
 11
-12.2581733075
 21
35.1968025704
  0
LINE
  5
300
100
AcDbEntity
  8
RACCORDO
100
AcDbLine
 62
250
  6
CONTINUOUS
 10
-12.2581733075
 20
35.1968025704
 11
-12.2071755872
 21
34.9427886968
  0
LINE
  5
301
100
AcDbEntity
  8
RACCORDO
100
AcDbLine
 62
250
  6
CONTINUOUS
 10
-12.2071755872
 20
34.9427886968
 11
-12.1558118709
 21
34.6756236033
  0
LINE
  5
302
100
AcDbEntity
  8
0
100
AcDbLine
 62
7
  6
CONTINUOUS
 10
-2.116583
 20
-33.699944
 11
-2.116583
 21
-36.50007
  0
LINE
  5
303
100
AcDbEntity
  8
0
100
AcDbLine
 62
7
  6
CONTINUOUS
 10
-1.556562
 20
-34.653575
 11
-1.556562
 21
-36.50007
  0
LWPOLYLINE
  5
304
100
AcDbEntity
  8
0
100
AcDbPolyline
 62
7
  6
CONTINUOUS
 90
2
 70
0
 43
0.3500000006
 10
-1.3571429071
 20
48.7500009613
 10
-1.3571429071
 20
50.2500014191
  0
LWPOLYLINE
  5
305
100
AcDbEntity
  8
0
100
AcDbPolyline
 62
7
  6
CONTINUOUS
 90
13
 70
0
 43
0.3500000006
 10
-0.0
 20
49.6071434326
 10
-0.0
 20
50.8928594055
 10
0.2142857063
 20
51.3214283752
 10
0.6428571367
 20
51.7500018768
 10
0.8571428254
 20
51.7500018768
 10
1.2857142735
 20
51.3214283752
 10
1.5000000329
 20
50.8928594055
 10
1.5000000329
 20
49.6071434326
 10
1.2857142735
 20
49.178569931
 10
0.8571428254
 20
48.7500009613
 10
0.6428571367
 20
48.7500009613
 10
0.2142857063
 20
49.178569931
 10
-0.0
 20
49.6071434326
  0
LINE
  5
306
100
AcDbEntity
  8
0
100
AcDbLine
 62
7
  6
CONTINUOUS
 10
0.062377
 20
-34.653575
 11
0.062384
 21
-36.50007
  0
LINE
  5
307
100
AcDbEntity
  8
0
100
AcDbLine
 62
7
  6
CONTINUOUS
 10
0.622405
 20
-33.699944
 11
0.622405
 21
-36.50007
  0
LINE
  5
308
100
AcDbEntity
  8
0
100
AcDbLine
 62
7
  6
CONTINUOUS
 10
3.727192
 20
-33.699937
 11
3.727192
 21
-36.500063
  0
LINE
  5
309
100
AcDbEntity
  8
0
100
AcDbLine
 62
7
  6
CONTINUOUS
 10
4.279492
 20
-34.217958
 11
4.279499
 21
-34.899352
  0
LINE
  5
30A
100
AcDbEntity
  8
0
100
AcDbLine
 62
7
  6
CONTINUOUS
 10
4.287283
 20
-35.417373
 11
4.28722
 21
-36.500063
  0
LINE
  5
30B
100
AcDbEntity
  8
RACCORDO
100
AcDbLine
 62
250
  6
CONTINUOUS
 10
12.0067926538
 20
33.8295692764
 11
12.0596225015
 21
34.142287374
  0
LINE
  5
30C
100
AcDbEntity
  8
RACCORDO
100
AcDbLine
 62
250
  6
CONTINUOUS
 10
12.0596225015
 20
34.142287374
 11
12.111783043
 21
34.4371051534
  0
LINE
  5
30D
100
AcDbEntity
  8
RACCORDO
100
AcDbLine
 62
250
  6
CONTINUOUS
 10
12.111783043
 20
34.4371051534
 11
12.1631946641
 21
34.714720273
  0
LINE
  5
30E
100
AcDbEntity
  8
RACCORDO
100
AcDbLine
 62
250
  6
CONTINUOUS
 10
12.1631946641
 20
34.714720273
 11
12.2137364165
 21
34.9760484113
  0
LINE
  5
30F
100
AcDbEntity
  8
RACCORDO
100
AcDbLine
 62
250
  6
CONTINUOUS
 10
12.2137364165
 20
34.9760484113
 11
12.2633240357
 21
35.2219509944
  0
LWPOLYLINE
  5
310
100
AcDbEntity
  8
RACCORDO
100
AcDbPolyline
 62
250
  6
CONTINUOUS
 90
3
 70
0
 10
12.2633240357
 20
35.2219509944
 10
12.3119149641
 20
35.4530247248
 10
12.3358183363
 20
35.5633464679
  0
LWPOLYLINE
  5
311
100
AcDbEntity
  8
RACCORDO
100
AcDbPolyline
 62
250
  6
CONTINUOUS
 90
3
 70
0
 10
12.3358183363
 20
35.5633464679
 10
12.3828495067
 20
35.7738780126
 10
12.4059727204
 20
35.8744037143
  0
LWPOLYLINE
  5
312
100
AcDbEntity
  8
RACCORDO
100
AcDbPolyline
 62
250
  6
CONTINUOUS
 90
47
 70
0
 10
12.4059727204
 20
35.8744037143
 10
12.4514549046
 20
36.0662930782
 10
12.4738217789
 20
36.1579758491
 10
12.4959419978
 20
36.2468166163
 10
12.517840403
 20
36.3331362598
 10
12.5395126523
 20
36.4169348851
 10
12.5609630879
 20
36.4982113643
 10
12.5822295792
 20
36.5772848772
 10
12.6033075424
 20
36.6541565494
 10
12.6242015612
 20
36.7288244728
 10
12.6449632553
 20
36.8016034016
 10
12.6655872127
 20
36.8724943008
 10
12.6860788454
 20
36.9414956112
 10
12.7065060095
 20
37.0089184044
 10
12.7268620736
 20
37.0747637864
 10
12.7471536691
 20
37.1390302049
 10
12.7674685464
 20
37.202024832
 10
12.7877982379
 20
37.2637493952
 10
12.8081512112
 20
37.3242018371
 10
12.8286406194
 20
37.3836837269
 10
12.8492555038
 20
37.4421992643
 10
12.8700068231
 20
37.499744012
 10
12.8910406072
 20
37.556606646
 10
12.9123560269
 20
37.6128275578
 10
12.9339539114
 20
37.6683661925
 10
12.9559827776
 20
37.7233898511
 10
12.9784760872
 20
37.7780137681
 10
13.0014003786
 20
37.8321225895
 10
13.0248037842
 20
37.8855377356
 10
13.0487326781
 20
37.9383622798
 10
13.0731406863
 20
37.9904930103
 10
13.0979368188
 20
38.0414418731
 10
13.1231207277
 20
38.0911853213
 10
13.1486927611
 20
38.139746704
 10
13.1745629724
 20
38.1867082542
 10
13.2007070042
 20
38.2320106054
 10
13.2271492141
 20
38.2757129006
 10
13.2538727284
 20
38.3175751052
 10
13.280769857
 20
38.3574910106
 10
13.3079482901
 20
38.3955666116
 10
13.3357142248
 20
38.431880178
 10
13.3641629738
 20
38.4666314367
 10
13.3931992245
 20
38.4996205004
 10
13.4228432359
 20
38.5303262093
 10
13.4531017609
 20
38.5585747784
 10
13.4839680465
 20
38.5845398202
 10
13.5154420928
 20
38.6082212622
  0
LINE
  5
313
100
AcDbEntity
  8
0
100
AcDbLine
 62
7
  6
CONTINUOUS
 10
-4.169977
 20
-33.699944
 11
-4.788994
 21
-35.627982
  0
LWPOLYLINE
  5
314
100
AcDbEntity
  8
RACCORDO
100
AcDbPolyline
 62
250
  6
CONTINUOUS
 90
3
 70
0
 10
12.4321658351
 20
-35.9858160678
 10
12.3840063536
 20
-35.7789918858
 10
12.359532235
 20
-35.6705285278
  0
LINE
  5
315
100
AcDbEntity
  8
RACCORDO
100
AcDbLine
 62
250
  6
CONTINUOUS
 10
12.359532235
 20
-35.6705285278
 11
12.3098112064
 21
-35.4432454782
  0
LINE
  5
316
100
AcDbEntity
  8
RACCORDO
100
AcDbLine
 62
250
  6
CONTINUOUS
 10
12.3098112064
 20
-35.4432454782
 11
12.2593260483
 21
-35.2024193975
  0
LINE
  5
317
100
AcDbEntity
  8
RACCORDO
100
AcDbLine
 62
250
  6
CONTINUOUS
 10
12.2593260483
 20
-35.2024193975
 11
12.2082352107
 21
-34.9481793063
  0
LINE
  5
318
100
AcDbEntity
  8
RACCORDO
100
AcDbLine
 62
250
  6
CONTINUOUS
 10
12.2082352107
 20
-34.9481793063
 11
12.1567794572
 21
-34.6807649495
  0
LINE
  5
319
100
AcDbEntity
  8
RACCORDO
100
AcDbLine
 62
250
  6
CONTINUOUS
 10
13.3247602987
 20
-37.4466232681
 11
13.3048676936
 21
-37.3393599556
  0
LINE
  5
31A
100
AcDbEntity
  8
RACCORDO
100
AcDbLine
 62
250
  6
CONTINUOUS
 10
12.1567794572
 20
-34.6807649495
 11
12.1052221138
 21
-34.4006705362
  0
LINE
  5
31B
100
AcDbEntity
  8
RACCORDO
100
AcDbLine
 62
250
  6
CONTINUOUS
 10
12.1052221138
 20
-34.4006705362
 11
12.0536856893
 21
-34.1079262679
  0
LINE
  5
31C
100
AcDbEntity
  8
RACCORDO
100
AcDbLine
 62
250
  6
CONTINUOUS
 10
12.0536856893
 20
-34.1079262679
 11
12.0023188094
 21
-33.8024688461
  0
LWPOLYLINE
  5
31D
100
AcDbEntity
  8
RACCORDO
100
AcDbPolyline
 62
250
  6
CONTINUOUS
 90
3
 70
0
 10
13.0456931404
 20
-35.4547394735
 10
13.0211600027
 20
-35.2259460339
 10
13.0087546266
 20
-35.1065561736
  0
LWPOLYLINE
  5
31E
100
AcDbEntity
  8
RACCORDO
100
AcDbPolyline
 62
250
  6
CONTINUOUS
 90
18
 70
0
 10
11.6699838856
 20
-31.3787743027
 10
11.62036346
 20
-30.9180371437
 10
11.5961009549
 20
-30.6769051344
 10
11.5722317768
 20
-30.4281842566
 10
11.5487978444
 20
-30.1720986406
 10
11.5261352354
 20
-29.9086688538
 10
11.5042267536
 20
-29.6379815038
 10
11.4830895953
 20
-29.3599724944
 10
11.4631114266
 20
-29.0744375755
 10
11.4442658499
 20
-28.7817129947
 10
11.4265792627
 20
-28.4814895308
 10
11.4105185246
 20
-28.1725979257
 10
11.3960013612
 20
-27.8550561433
 10
11.3831100469
 20
-27.528882489
 10
11.3725582642
 20
-27.1929136409
 10
11.3645839071
 20
-26.8467786928
 10
11.3589490817
 20
-26.4908969217
 10
11.3556537877
 20
-26.1252945004
  0
LINE
  5
31F
100
AcDbEntity
  8
RACCORDO
100
AcDbLine
 62
250
  6
CONTINUOUS
 10
13.0065110337
 20
35.0846925573
 11
13.0313292952
 21
35.3219364788
  0
LINE
  5
320
100
AcDbEntity
  8
RACCORDO
100
AcDbLine
 62
250
  6
CONTINUOUS
 10
13.0313292952
 20
35.3219364788
 11
13.0556127352
 21
35.5445686452
  0
LWPOLYLINE
  5
321
100
AcDbEntity
  8
RACCORDO
100
AcDbPolyline
 62
250
  6
CONTINUOUS
 90
3
 70
0
 10
11.6325756473
 20
31.0351494005
 10
11.6846454473
 20
31.5081136094
 10
11.7110740071
 20
31.7345504126
  0
LINE
  5
322
100
AcDbEntity
  8
RACCORDO
100
AcDbLine
 62
250
  6
CONTINUOUS
 10
13.0556127352
 20
35.5445686452
 11
13.0793425448
 21
35.7532858694
  0
LINE
  5
323
100
AcDbEntity
  8
RACCORDO
100
AcDbLine
 62
250
  6
CONTINUOUS
 10
13.0793425448
 20
35.7532858694
 11
13.1025367327
 21
35.9491391687
  0
LINE
  5
324
100
AcDbEntity
  8
RACCORDO
100
AcDbLine
 62
250
  6
CONTINUOUS
 10
13.1025367327
 20
35.9491391687
 11
13.1252300202
 21
36.1331884772
  0
LWPOLYLINE
  5
325
100
AcDbEntity
  8
RACCORDO
100
AcDbPolyline
 62
250
  6
CONTINUOUS
 90
3
 70
0
 10
11.7110740071
 20
31.7345504126
 10
11.7645988703
 20
32.1678366167
 10
11.7915198068
 20
32.3751919333
  0
LINE
  5
326
100
AcDbEntity
  8
RACCORDO
100
AcDbLine
 62
250
  6
CONTINUOUS
 10
13.1252300202
 20
36.1331884772
 11
13.1474384593
 21
36.3061404835
  0
LINE
  5
327
100
AcDbEntity
  8
RACCORDO
100
AcDbLine
 62
250
  6
CONTINUOUS
 10
13.1474384593
 20
36.3061404835
 11
13.1692193644
 21
36.469056162
  0
LINE
  5
328
100
AcDbEntity
  8
RACCORDO
100
AcDbLine
 62
250
  6
CONTINUOUS
 10
11.7915198068
 20
32.3751919333
 11
11.8455907577
 21
32.7717829413
  0
LINE
  5
329
100
AcDbEntity
  8
RACCORDO
100
AcDbLine
 62
250
  6
CONTINUOUS
 10
13.1692193644
 20
36.469056162
 11
13.1906504924
 21
36.6229826367
  0
LINE
  5
32A
100
AcDbEntity
  8
RACCORDO
100
AcDbLine
 62
250
  6
CONTINUOUS
 10
13.1906504924
 20
36.6229826367
 11
13.2117831768
 21
36.7686136183
  0
LINE
  5
32B
100
AcDbEntity
  8
RACCORDO
100
AcDbLine
 62
250
  6
CONTINUOUS
 10
11.8455907577
 20
32.7717829413
 11
11.8996314232
 21
33.1455114304
  0
LINE
  5
32C
100
AcDbEntity
  8
RACCORDO
100
AcDbLine
 62
250
  6
CONTINUOUS
 10
13.2117831768
 20
36.7686136183
 11
13.2327181662
 21
36.9069798897
  0
LINE
  5
32D
100
AcDbEntity
  8
RACCORDO
100
AcDbLine
 62
250
  6
CONTINUOUS
 10
11.8996314232
 20
33.1455114304
 11
11.9534102308
 21
33.4977956799
  0
LINE
  5
32E
100
AcDbEntity
  8
RACCORDO
100
AcDbLine
 62
250
  6
CONTINUOUS
 10
13.2327181662
 20
36.9069798897
 11
13.2535899913
 21
37.0391085228
  0
LINE
  5
32F
100
AcDbEntity
  8
RACCORDO
100
AcDbLine
 62
250
  6
CONTINUOUS
 10
11.9534102308
 20
33.4977956799
 11
12.0067926538
 21
33.8295692764
  0
LINE
  5
330
100
AcDbEntity
  8
RACCORDO
100
AcDbLine
 62
250
  6
CONTINUOUS
 10
13.2535899913
 20
37.0391085228
 11
13.2744957939
 21
37.1656739714
  0
LWPOLYLINE
  5
331
100
AcDbEntity
  8
RACCORDO
100
AcDbPolyline
 62
250
  6
CONTINUOUS
 90
33
 70
0
 10
13.2744957939
 20
37.1656739714
 10
13.2956006347
 20
37.2876735825
 10
13.3063058843
 20
37.3472882295
 10
13.3171351252
 20
37.4061133076
 10
13.3280913669
 20
37.4641237619
 10
13.3392613798
 20
37.5215730604
 10
13.3506614719
 20
37.5785786485
 10
13.362276849
 20
37.6350219634
 10
13.3741488736
 20
37.6908021053
 10
13.3863061675
 20
37.7460544473
 10
13.3987219631
 20
37.8006421575
 10
13.4113543719
 20
37.8540560235
 10
13.4242058175
 20
37.9062847906
 10
13.437274036
 20
37.9573384742
 10
13.4505090675
 20
38.0067400425
 10
13.4638994708
 20
38.0544321386
 10
13.4774552442
 20
38.1004711778
 10
13.4911578492
 20
38.1445510012
 10
13.5049492716
 20
38.1865434317
 10
13.5188850464
 20
38.2265759066
 10
13.5331177334
 20
38.2647252335
 10
13.5476176606
 20
38.3010680268
 10
13.5624134294
 20
38.3355257812
 10
13.577747151
 20
38.3679412213
 10
13.5937180872
 20
38.3986177397
 10
13.6102272527
 20
38.4272477317
 10
13.6272198567
 20
38.4527566851
 10
13.6447302843
 20
38.4750897409
 10
13.6627206469
 20
38.4942977553
 10
13.6810261788
 20
38.5094656439
 10
13.6995892553
 20
38.5202877981
 10
13.7184599497
 20
38.5270673003
 10
13.7376339146
 20
38.529802789
  0
LINE
  5
332
100
AcDbEntity
  8
0
100
AcDbLine
 62
7
  6
CONTINUOUS
 10
-0.224196
 20
-33.699944
 11
-0.747089
 21
-35.523486
  0
LINE
  5
333
100
AcDbEntity
  8
0
100
AcDbLine
 62
7
  6
CONTINUOUS
 10
-3.609949
 20
-33.699944
 11
-4.50898
 21
-36.50007
  0
LINE
  5
334
100
AcDbEntity
  8
RACCORDO
100
AcDbLine
 62
250
  6
CONTINUOUS
 10
13.3048676936
 20
-37.3393599556
 11
13.2849228074
 21
-37.2266675579
  0
LINE
  5
335
100
AcDbEntity
  8
RACCORDO
100
AcDbLine
 62
250
  6
CONTINUOUS
 10
13.2849228074
 20
-37.2266675579
 11
13.2648428763
 21
-37.1079443569
  0
LINE
  5
336
100
AcDbEntity
  8
RACCORDO
100
AcDbLine
 62
250
  6
CONTINUOUS
 10
13.2648428763
 20
-37.1079443569
 11
13.2445832579
 21
-36.9827898436
  0
LINE
  5
337
100
AcDbEntity
  8
RACCORDO
100
AcDbLine
 62
250
  6
CONTINUOUS
 10
12.0023188094
 20
-33.8024688461
 11
11.9510006271
 21
-33.4822637241
  0
LINE
  5
338
100
AcDbEntity
  8
RACCORDO
100
AcDbLine
 62
250
  6
CONTINUOUS
 10
13.2445832579
 20
-36.9827898436
 11
13.224080653
 21
-36.8506072179
  0
LINE
  5
339
100
AcDbEntity
  8
RACCORDO
100
AcDbLine
 62
250
  6
CONTINUOUS
 10
11.9510006271
 20
-33.4822637241
 11
11.8996942407
 21
-33.1460066229
  0
LINE
  5
33A
100
AcDbEntity
  8
RACCORDO
100
AcDbLine
 62
250
  6
CONTINUOUS
 10
13.224080653
 20
-36.8506072179
 11
13.2032766472
 21
-36.7107096965
  0
LINE
  5
33B
100
AcDbEntity
  8
RACCORDO
100
AcDbLine
 62
250
  6
CONTINUOUS
 10
11.8996942407
 20
-33.1460066229
 11
11.8483387733
 21
-32.7914732412
  0
LINE
  5
33C
100
AcDbEntity
  8
RACCORDO
100
AcDbLine
 62
250
  6
CONTINUOUS
 10
13.2032766472
 20
-36.7107096965
 11
13.1821416701
 21
-36.5626146226
  0
LINE
  5
33D
100
AcDbEntity
  8
RACCORDO
100
AcDbLine
 62
250
  6
CONTINUOUS
 10
13.1821416701
 20
-36.5626146226
 11
13.1606258778
 21
-36.4055821554
  0
LINE
  5
33E
100
AcDbEntity
  8
RACCORDO
100
AcDbLine
 62
250
  6
CONTINUOUS
 10
11.8483387733
 20
-32.7914732412
 11
11.7970365578
 21
-32.4165307314
  0
LINE
  5
33F
100
AcDbEntity
  8
RACCORDO
100
AcDbLine
 62
250
  6
CONTINUOUS
 10
13.1606258778
 20
-36.4055821554
 11
13.1386703328
 21
-36.2386780789
  0
LINE
  5
340
100
AcDbEntity
  8
RACCORDO
100
AcDbLine
 62
250
  6
CONTINUOUS
 10
11.7970365578
 20
-32.4165307314
 11
11.7458911344
 21
-32.0197461369
  0
LINE
  5
341
100
AcDbEntity
  8
RACCORDO
100
AcDbLine
 62
250
  6
CONTINUOUS
 10
13.1386703328
 20
-36.2386780789
 11
13.1162465714
 21
-36.0612129881
  0
LINE
  5
342
100
AcDbEntity
  8
RACCORDO
100
AcDbLine
 62
250
  6
CONTINUOUS
 10
13.1162465714
 20
-36.0612129881
 11
13.0932844163
 21
-35.8719852672
  0
LWPOLYLINE
  5
343
100
AcDbEntity
  8
RACCORDO
100
AcDbPolyline
 62
250
  6
CONTINUOUS
 90
3
 70
0
 10
11.7458911344
 20
-32.0197461369
 10
11.6951035954
 20
-31.5989486638
 10
11.6699838856
 20
-31.3787743027
  0
LINE
  5
344
100
AcDbEntity
  8
RACCORDO
100
AcDbLine
 62
250
  6
CONTINUOUS
 10
13.0932844163
 20
-35.8719852672
 11
13.0697556779
 21
-35.6699718558
  0
LINE
  5
345
100
AcDbEntity
  8
RACCORDO
100
AcDbLine
 62
250
  6
CONTINUOUS
 10
13.0697556779
 20
-35.6699718558
 11
13.0456931404
 21
-35.4547394735
  0
LINE
  5
346
100
AcDbEntity
  8
RACCORDO
100
AcDbLine
 62
250
  6
CONTINUOUS
 10
13.0087546266
 20
-35.1065561736
 11
12.9711269943
 21
-34.7285724299
  0
LINE
  5
347
100
AcDbEntity
  8
RACCORDO
100
AcDbLine
 62
250
  6
CONTINUOUS
 10
12.9711269943
 20
-34.7285724299
 11
12.9331638117
 21
-34.3216048962
  0
LINE
  5
348
100
AcDbEntity
  8
RACCORDO
100
AcDbLine
 62
250
  6
CONTINUOUS
 10
12.9331638117
 20
-34.3216048962
 11
12.8952116638
 21
-33.8866765654
  0
LINE
  5
349
100
AcDbEntity
  8
RACCORDO
100
AcDbLine
 62
250
  6
CONTINUOUS
 10
12.8952116638
 20
-33.8866765654
 11
12.8574157997
 21
-33.4224995441
  0
LINE
  5
34A
100
AcDbEntity
  8
RACCORDO
100
AcDbLine
 62
250
  6
CONTINUOUS
 10
12.8574157997
 20
-33.4224995441
 11
12.8196626645
 21
-32.9236707452
  0
LINE
  5
34B
100
AcDbEntity
  8
RACCORDO
100
AcDbLine
 62
250
  6
CONTINUOUS
 10
12.8196626645
 20
-32.9236707452
 11
12.781913355
 21
-32.3837853465
  0
LINE
  5
34C
100
AcDbEntity
  8
RACCORDO
100
AcDbLine
 62
250
  6
CONTINUOUS
 10
12.781913355
 20
-32.3837853465
 11
12.7443157061
 21
-31.7965713111
  0
LINE
  5
34D
100
AcDbEntity
  8
RACCORDO
100
AcDbLine
 62
250
  6
CONTINUOUS
 10
12.7443157061
 20
-31.7965713111
 11
12.7072099931
 21
-31.1556027502
  0
LINE
  5
34E
100
AcDbEntity
  8
RACCORDO
100
AcDbLine
 62
250
  6
CONTINUOUS
 10
12.7072099931
 20
-31.1556027502
 11
12.6830194901
 21
-30.695116916
  0
LINE
  5
34F
100
AcDbEntity
  8
RACCORDO
100
AcDbLine
 62
250
  6
CONTINUOUS
 10
12.6830194901
 20
-30.695116916
 11
12.6595348216
 21
-30.2058447832
  0
LINE
  5
350
100
AcDbEntity
  8
RACCORDO
100
AcDbLine
 62
250
  6
CONTINUOUS
 10
12.5311225107
 20
-22.3894492496
 11
12.5328840646
 21
-22.4260828608
  0
LINE
  5
351
100
AcDbEntity
  8
RACCORDO
100
AcDbLine
 62
250
  6
CONTINUOUS
 10
12.6595348216
 20
-30.2058447832
 11
12.6371415453
 21
-29.6872611316
  0
LINE
  5
352
100
AcDbEntity
  8
RACCORDO
100
AcDbLine
 62
250
  6
CONTINUOUS
 10
12.5328840646
 20
-22.4260828608
 11
12.5345183913
 21
-22.4660612276
  0
LINE
  5
353
100
AcDbEntity
  8
RACCORDO
100
AcDbLine
 62
250
  6
CONTINUOUS
 10
12.6371415453
 20
-29.6872611316
 11
12.6163049169
 21
-29.139883734
  0
LINE
  5
354
100
AcDbEntity
  8
RACCORDO
100
AcDbLine
 62
250
  6
CONTINUOUS
 10
12.5345183913
 20
-22.4660612276
 11
12.5360411226
 21
-22.5091478523
  0
LINE
  5
355
100
AcDbEntity
  8
RACCORDO
100
AcDbLine
 62
250
  6
CONTINUOUS
 10
12.6163049169
 20
-29.139883734
 11
12.5974933573
 21
-28.5632678336
  0
LINE
  5
356
100
AcDbEntity
  8
RACCORDO
100
AcDbLine
 62
250
  6
CONTINUOUS
 10
12.5360411226
 20
-22.5091478523
 11
12.5380926367
 21
-22.5778046068
  0
LINE
  5
357
100
AcDbEntity
  8
RACCORDO
100
AcDbLine
 62
250
  6
CONTINUOUS
 10
12.5974933573
 20
-28.5632678336
 11
12.581264287
 21
-27.9560884904
  0
LINE
  5
358
100
AcDbEntity
  8
RACCORDO
100
AcDbLine
 62
250
  6
CONTINUOUS
 10
12.5380926367
 20
-22.5778046068
 11
12.5398733646
 21
-22.6499838516
  0
LINE
  5
359
100
AcDbEntity
  8
RACCORDO
100
AcDbLine
 62
250
  6
CONTINUOUS
 10
12.581264287
 20
-27.9560884904
 11
12.5682385345
 21
-27.3146108931
  0
LINE
  5
35A
100
AcDbEntity
  8
RACCORDO
100
AcDbLine
 62
250
  6
CONTINUOUS
 10
12.5398733646
 20
-22.6499838516
 11
12.541854235
 21
-22.7495552641
  0
LINE
  5
35B
100
AcDbEntity
  8
RACCORDO
100
AcDbLine
 62
250
  6
CONTINUOUS
 10
12.541854235
 20
-22.7495552641
 11
12.5437476417
 21
-22.8754127769
  0
LINE
  5
35C
100
AcDbEntity
  8
RACCORDO
100
AcDbLine
 62
250
  6
CONTINUOUS
 10
12.5682385345
 20
-27.3146108931
 11
12.5592437828
 21
-26.635149528
  0
LINE
  5
35D
100
AcDbEntity
  8
RACCORDO
100
AcDbLine
 62
250
  6
CONTINUOUS
 10
12.5437476417
 20
-22.8754127769
 11
12.5448735045
 21
-22.9766165336
  0
LINE
  5
35E
100
AcDbEntity
  8
RACCORDO
100
AcDbLine
 62
250
  6
CONTINUOUS
 10
11.3556537877
 20
-26.1252945004
 11
11.3465769399
 21
-23.4557528124
  0
LINE
  5
35F
100
AcDbEntity
  8
RACCORDO
100
AcDbLine
 62
250
  6
CONTINUOUS
 10
11.3465769381
 20
23.4557528124
 11
11.3556537876
 21
26.1252944502
  0
LWPOLYLINE
  5
360
100
AcDbEntity
  8
RACCORDO
100
AcDbPolyline
 62
250
  6
CONTINUOUS
 90
17
 70
0
 10
11.3556537876
 20
26.1252944502
 10
11.3591308826
 20
26.5020444676
 10
11.3650646326
 20
26.8684369749
 10
11.3734550376
 20
27.2244433222
 10
11.384559111
 20
27.5696011409
 10
11.3981198394
 20
27.9043199898
 10
11.4133661822
 20
28.2298838727
 10
11.4302078306
 20
28.5462866506
 10
11.4487350935
 20
28.8534952829
 10
11.468447857
 20
29.1527594499
 10
11.4893069012
 20
29.4443051465
 10
11.5113514459
 20
29.727877279
 10
11.5341990374
 20
30.004007802
 10
11.5578236061
 20
30.2727507972
 10
11.5822512216
 20
30.5340288639
 10
11.607177638
 20
30.788178848
 10
11.6325756473
 20
31.0351494005
  0
LINE
  5
361
100
AcDbEntity
  8
RACCORDO
100
AcDbLine
 62
250
  6
CONTINUOUS
 10
12.5450097682
 20
22.9911408008
 11
12.5433483459
 21
22.8453055824
  0
LINE
  5
362
100
AcDbEntity
  8
RACCORDO
100
AcDbLine
 62
250
  6
CONTINUOUS
 10
12.5597484859
 20
26.6872632334
 11
12.5699543761
 21
27.4128333311
  0
LINE
  5
363
100
AcDbEntity
  8
RACCORDO
100
AcDbLine
 62
250
  6
CONTINUOUS
 10
12.5433483459
 20
22.8453055824
 11
12.5413892598
 21
22.7238666665
  0
LINE
  5
364
100
AcDbEntity
  8
RACCORDO
100
AcDbLine
 62
250
  6
CONTINUOUS
 10
12.5413892598
 20
22.7238666665
 11
12.5393912611
 21
22.6290631251
  0
LINE
  5
365
100
AcDbEntity
  8
RACCORDO
100
AcDbLine
 62
250
  6
CONTINUOUS
 10
12.5699543761
 20
27.4128333311
 11
12.5846405465
 21
28.0946840065
  0
LINE
  5
366
100
AcDbEntity
  8
RACCORDO
100
AcDbLine
 62
250
  6
CONTINUOUS
 10
12.5393912611
 20
22.6290631251
 11
12.5376142496
 21
22.5605412046
  0
LINE
  5
367
100
AcDbEntity
  8
RACCORDO
100
AcDbLine
 62
250
  6
CONTINUOUS
 10
12.5846405465
 20
28.0946840065
 11
12.6028315434
 21
28.7375028806
  0
LINE
  5
368
100
AcDbEntity
  8
RACCORDO
100
AcDbLine
 62
250
  6
CONTINUOUS
 10
12.5376142496
 20
22.5605412046
 11
12.535581759
 21
22.4954855003
  0
LINE
  5
369
100
AcDbEntity
  8
RACCORDO
100
AcDbLine
 62
250
  6
CONTINUOUS
 10
12.6028315434
 20
28.7375028806
 11
12.6237934006
 21
29.3454297562
  0
LINE
  5
36A
100
AcDbEntity
  8
RACCORDO
100
AcDbLine
 62
250
  6
CONTINUOUS
 10
12.535581759
 20
22.4954855003
 11
12.5340849298
 21
22.4548633026
  0
LINE
  5
36B
100
AcDbEntity
  8
RACCORDO
100
AcDbLine
 62
250
  6
CONTINUOUS
 10
12.6237934006
 20
29.3454297562
 11
12.6468865806
 21
29.9202851501
  0
LINE
  5
36C
100
AcDbEntity
  8
RACCORDO
100
AcDbLine
 62
250
  6
CONTINUOUS
 10
12.5340849298
 20
22.4548633026
 11
12.5324833345
 21
22.4172249788
  0
LINE
  5
36D
100
AcDbEntity
  8
RACCORDO
100
AcDbLine
 62
250
  6
CONTINUOUS
 10
12.6468865806
 20
29.9202851501
 11
12.6716138246
 21
30.4634729785
  0
LINE
  5
36E
100
AcDbEntity
  8
RACCORDO
100
AcDbLine
 62
250
  6
CONTINUOUS
 10
12.6716138246
 20
30.4634729785
 11
12.6975293399
 21
30.9759015167
  0
LWPOLYLINE
  5
36F
100
AcDbEntity
  8
RACCORDO
100
AcDbPolyline
 62
250
  6
CONTINUOUS
 90
25
 70
0
 10
12.5324833345
 20
22.4172249788
 10
12.5307756422
 20
22.3828904076
 10
12.5298726523
 20
22.367000724
 10
12.5289402264
 20
22.3520088873
 10
12.527990036
 20
22.3382299287
 10
12.527018322
 20
22.3257099213
 10
12.5260288434
 20
22.3144027919
 10
12.5250445492
 20
22.3044853519
 10
12.5240664202
 20
22.2960703644
 10
12.5230934754
 20
22.2890450662
 10
12.5221457214
 20
22.2832479792
 10
12.5212276396
 20
22.2787451347
 10
12.5203347486
 20
22.2754705013
 10
12.5194736104
 20
22.2730645067
 10
12.5186481085
 20
22.2715172563
 10
12.5178543594
 20
22.2708386445
 10
12.517087275
 20
22.2706987828
 10
12.5163465446
 20
22.271066885
 10
12.5156324789
 20
22.2719737372
 10
12.5149409207
 20
22.2731818084
 10
12.5142709185
 20
22.2746738335
 10
12.5136234238
 20
22.2764670777
 10
12.5129971345
 20
22.2783758055
 10
12.5123924317
 20
22.2803841347
 10
12.5118089342
 20
22.2825079476
  0
LINE
  5
370
100
AcDbEntity
  8
RACCORDO
100
AcDbLine
 62
250
  6
CONTINUOUS
 10
12.6975293399
 20
30.9759015167
 11
12.7242389845
 21
31.4584435979
  0
LINE
  5
371
100
AcDbEntity
  8
RACCORDO
100
AcDbLine
 62
250
  6
CONTINUOUS
 10
12.7242389845
 20
31.4584435979
 11
12.7514727021
 21
31.9126927167
  0
LINE
  5
372
100
AcDbEntity
  8
RACCORDO
100
AcDbLine
 62
250
  6
CONTINUOUS
 10
12.7514727021
 20
31.9126927167
 11
12.7928146285
 21
32.544355825
  0
LINE
  5
373
100
AcDbEntity
  8
RACCORDO
100
AcDbLine
 62
250
  6
CONTINUOUS
 10
12.7928146285
 20
32.544355825
 11
12.8342209005
 21
33.1205199323
  0
LINE
  5
374
100
AcDbEntity
  8
RACCORDO
100
AcDbLine
 62
250
  6
CONTINUOUS
 10
12.8342209005
 20
33.1205199323
 11
12.8752736989
 21
33.6459077369
  0
LINE
  5
375
100
AcDbEntity
  8
RACCORDO
100
AcDbLine
 62
250
  6
CONTINUOUS
 10
12.8752736989
 20
33.6459077369
 11
12.9157053434
 21
34.1251793149
  0
LINE
  5
376
100
AcDbEntity
  8
RACCORDO
100
AcDbLine
 62
250
  6
CONTINUOUS
 10
12.9157053434
 20
34.1251793149
 11
12.9553104973
 21
34.5622533754
  0
LWPOLYLINE
  5
377
100
AcDbEntity
  8
RACCORDO
100
AcDbPolyline
 62
250
  6
CONTINUOUS
 90
3
 70
0
 10
12.9553104973
 20
34.5622533754
 10
12.9938979682
 20
34.9601987696
 10
13.0065110337
 20
35.0846925573
  0
LINE
  5
378
100
AcDbEntity
  8
0
100
AcDbLine
 62
7
  6
CONTINUOUS
 10
0.062377
 20
-34.653575
 11
-0.467089
 21
-36.500063
  0
LINE
  5
379
100
AcDbEntity
  8
0
100
AcDbLine
 62
7
  6
CONTINUOUS
 10
1.894767
 20
-33.699937
 11
0.99575
 21
-36.50007
  0
LWPOLYLINE
  5
37A
100
AcDbEntity
  8
RACCORDO
100
AcDbPolyline
 62
250
  6
CONTINUOUS
 90
13
 70
0
 10
12.5056858417
 20
22.3
 10
12.5039750745
 20
22.3261052384
 10
12.4988720449
 20
22.351763809
 10
12.4904640669
 20
22.3765366865
 10
12.4788950034
 20
22.4
 10
12.4643628044
 20
22.4217522858
 10
12.4471161198
 20
22.4414213562
 10
12.427450045
 20
22.4586706681
 10
12.4057010722
 20
22.4732050808
 10
12.3822413322
 20
22.4847759065
 10
12.3574722278
 20
22.4931851653
 10
12.3318175651
 20
22.4982889723
 10
12.3057163027
 20
22.5
  0
LINE
  5
37B
100
AcDbEntity
  8
RACCORDO
100
AcDbLine
 62
250
  6
CONTINUOUS
 10
12.5448735045
 20
-22.9766165336
 11
12.5461745761
 21
-23.1589725716
  0
LINE
  5
37C
100
AcDbEntity
  8
RACCORDO
100
AcDbLine
 62
250
  6
CONTINUOUS
 10
12.5592437828
 20
-26.635149528
 11
12.5461745761
 21
-23.1589725716
  0
LINE
  5
37D
100
AcDbEntity
  8
RACCORDO
100
AcDbLine
 62
250
  6
CONTINUOUS
 10
13.7376339192
 20
38.5298002373
 11
13.7525886457
 21
28.2773321516
  0
LINE
  5
37E
100
AcDbEntity
  8
RACCORDO
100
AcDbLine
 62
250
  6
CONTINUOUS
 10
13.7525886457
 20
28.2773321516
 11
13.7629471137
 21
18.0045816116
  0
LINE
  5
37F
100
AcDbEntity
  8
RACCORDO
100
AcDbLine
 62
250
  6
CONTINUOUS
 10
12.5554710206
 20
25.9166407907
 11
12.5648860091
 21
15.5589132431
  0
LINE
  5
380
100
AcDbEntity
  8
RACCORDO
100
AcDbLine
 62
250
  6
CONTINUOUS
 10
13.7629471137
 20
18.0045816116
 11
13.7687069405
 21
7.7185874949
  0
LINE
  5
381
100
AcDbEntity
  8
RACCORDO
100
AcDbLine
 62
7
  6
CONTINUOUS
 10
12.5
 20
22.3
 11
12.5
 21
-22.3
  0
LINE
  5
382
100
AcDbEntity
  8
RACCORDO
100
AcDbLine
 62
250
  6
CONTINUOUS
 10
13.7687069405
 20
7.7185874949
 11
13.7698585949
 21
-2.5730214395
  0
LINE
  5
383
100
AcDbEntity
  8
RACCORDO
100
AcDbLine
 62
250
  6
CONTINUOUS
 10
12.5648860091
 20
15.5589132431
 11
12.5695968483
 21
-5.187513505
  0
LINE
  5
384
100
AcDbEntity
  8
RACCORDO
100
AcDbLine
 62
250
  6
CONTINUOUS
 10
13.7698585949
 20
-2.5730214395
 11
13.7664028722
 21
-12.8626737676
  0
LINE
  5
385
100
AcDbEntity
  8
RACCORDO
100
AcDbLine
 62
250
  6
CONTINUOUS
 10
12.5695968483
 20
-5.187513505
 11
12.5648861447
 21
-15.558714366
  0
LINE
  5
386
100
AcDbEntity
  8
RACCORDO
100
AcDbLine
 62
250
  6
CONTINUOUS
 10
13.7664028722
 20
-12.8626737676
 11
13.75834215
 21
-23.1430636396
  0
LINE
  5
387
100
AcDbEntity
  8
RACCORDO
100
AcDbLine
 62
250
  6
CONTINUOUS
 10
12.5648861447
 20
-15.558714366
 11
12.5554710207
 21
-25.9166408276
  0
LWPOLYLINE
  5
388
100
AcDbEntity
  8
RACCORDO
100
AcDbPolyline
 62
250
  6
CONTINUOUS
 90
3
 70
0
 10
13.75834215
 20
-23.1430636396
 10
13.7456859386
 20
-33.4064994691
 10
13.7376339301
 20
-38.5298002141
  0
LINE
  5
389
100
AcDbEntity
  8
RACCORDO
100
AcDbLine
 62
250
  6
CONTINUOUS
 10
12.5454205287
 20
23.0394888071
 11
12.5597484859
 21
26.6872632334
  0
LINE
  5
38A
100
AcDbEntity
  8
RACCORDO
100
AcDbLine
 62
250
  6
CONTINUOUS
 10
12.5454205287
 20
23.0394888071
 11
12.5450097682
 21
22.9911408008
  0
LWPOLYLINE
  5
38B
100
AcDbEntity
  8
RACCORDO
100
AcDbPolyline
 62
250
  6
CONTINUOUS
 90
13
 70
0
 10
12.5056858417
 20
-22.3
 10
12.5039750694
 20
-22.3261052446
 10
12.4988720338
 20
-22.351763821
 10
12.4904640491
 20
-22.3765367037
 10
12.4788949783
 20
-22.4000000216
 10
12.4643627715
 20
-22.4217523105
 10
12.447116079
 20
-22.4414213826
 10
12.4274499943
 20
-22.4586706962
 10
12.4057010116
 20
-22.4732051084
 10
12.3822412698
 20
-22.4847759279
 10
12.3574721759
 20
-22.493185177
 10
12.3318175341
 20
-22.4982889758
 10
12.3057163027
 20
-22.5
  0
LWPOLYLINE
  5
38C
100
AcDbEntity
  8
RACCORDO
100
AcDbPolyline
 62
250
  6
CONTINUOUS
 90
17
 70
0
 10
11.3465791923
 20
-23.4557528124
 10
11.349332105
 20
-23.4156055664
 10
11.3570183771
 20
-23.3755565275
 10
11.3696380087
 20
-23.3356598203
 10
11.3877137007
 20
-23.2958820623
 10
11.4107227522
 20
-23.2563709829
 10
11.4370970604
 20
-23.2174436466
 10
11.46671961
 20
-23.1793951895
 10
11.4997074164
 20
-23.1420140358
 10
11.5348434228
 20
-23.1048708457
 10
11.5719495644
 20
-23.0680841484
 10
11.611203906
 20
-23.0316801449
 10
11.6519235854
 20
-22.9951624243
 10
11.6940443319
 20
-22.9586821068
 10
11.7376304162
 20
-22.9223512342
 10
11.7821917893
 20
-22.8857295676
 10
11.8279278552
 20
-22.8489295413
  0
LINE
  5
38D
100
AcDbEntity
  8
0
100
AcDbLine
 62
7
  6
CONTINUOUS
 10
2.174788
 20
-34.572032
 11
1.903391
 21
-35.41738
  0
LINE
  5
38E
100
AcDbEntity
  8
0
100
AcDbLine
 62
7
  6
CONTINUOUS
 10
1.73257
 20
-35.949401
 11
1.555771
 21
-36.500063
  0
LINE
  5
38F
100
AcDbEntity
  8
RACCORDO
100
AcDbLine
 62
250
  6
CONTINUOUS
 10
-20.0
 20
-38.8016445583
 11
-19.6907510926
 21
-38.4923956509
  0
LINE
  5
390
100
AcDbEntity
  8
RACCORDO
100
AcDbLine
 62
250
  6
CONTINUOUS
 10
-18.8016445583
 20
-40.0
 11
-18.4923965984
 21
-39.6907520401
  0
LINE
  5
391
100
AcDbEntity
  8
RACCORDO
100
AcDbLine
 62
250
  6
CONTINUOUS
 10
-19.6907511079
 20
38.4923956662
 11
-20.0
 21
38.8016445583
  0
LINE
  5
392
100
AcDbEntity
  8
RACCORDO
100
AcDbLine
 62
250
  6
CONTINUOUS
 10
-18.4923965984
 20
39.6907520401
 11
-18.8016445583
 21
40.0
  0
LWPOLYLINE
  5
393
100
AcDbEntity
  8
RACCORDO
100
AcDbPolyline
 62
250
  6
CONTINUOUS
 90
13
 70
0
 10
12.5118089342
 20
22.2825079476
 10
12.5106982811
 20
22.2866743479
 10
12.5101711256
 20
22.2887169353
 10
12.5096600978
 20
22.2906390562
 10
12.5091652329
 20
22.2924303661
 10
12.5086864957
 20
22.2941012094
 10
12.5082211478
 20
22.2955847584
 10
12.5077689772
 20
22.2968742634
 10
12.5073301959
 20
22.297976474
 10
12.5069027019
 20
22.2988448108
 10
12.5064857945
 20
22.2994637476
 10
12.5060801745
 20
22.2998488106
 10
12.5056858417
 20
22.3
  0
LINE
  5
394
100
AcDbEntity
  8
RACCORDO
100
AcDbLine
 62
250
  6
CONTINUOUS
 10
18.4923965984
 20
-39.6907520401
 11
18.4923965984
 21
-38.6082212622
  0
LINE
  5
395
100
AcDbEntity
  8
RACCORDO
100
AcDbLine
 62
250
  6
CONTINUOUS
 10
18.4923965984
 20
38.6082212622
 11
18.4923965984
 21
39.6907520401
  0
LINE
  5
396
100
AcDbEntity
  8
RACCORDO
100
AcDbLine
 62
7
  6
CONTINUOUS
 10
20.0
 20
38.8016445583
 11
20.0
 21
-38.8016445583
  0
LWPOLYLINE
  5
397
100
AcDbEntity
  8
RACCORDO
100
AcDbPolyline
 62
250
  6
CONTINUOUS
 90
16
 70
0
 10
18.4923916651
 20
38.6082212622
 10
18.4681263367
 20
33.4766547861
 10
18.4473225464
 20
28.3384580819
 10
18.4299802942
 20
23.1944808586
 10
18.4160957385
 20
18.0453325278
 10
18.4056727209
 20
12.8921082709
 10
18.3987227665
 20
7.7363901069
 10
18.3952497187
 20
2.5790426728
 10
18.3952497341
 20
-2.5790845852
 10
18.3987228079
 20
-7.7364305008
 10
18.4056727786
 20
-12.8921456135
 10
18.4160958077
 20
-18.0453653051
 10
18.429980375
 20
-23.1945076077
 10
18.4473226404
 20
-28.3384773613
 10
18.468126444
 20
-33.4766651463
 10
18.4923917858
 20
-38.6082212622
  0
LWPOLYLINE
  5
398
100
AcDbEntity
  8
RACCORDO
100
AcDbPolyline
 62
250
  6
CONTINUOUS
 90
16
 70
0
 10
19.6907511099
 20
38.4923956682
 10
19.6664850917
 20
33.3751494438
 10
19.6456806369
 20
28.2528700763
 10
19.6283377455
 20
23.1255575656
 10
19.6144525203
 20
17.9920788982
 10
19.6040288585
 20
12.8535670876
 10
19.5970784517
 20
7.7134211743
 10
19.5936051974
 20
2.5716847386
 10
19.5936051981
 20
-2.5716857998
 10
19.5970784533
 20
-7.7134221407
 10
19.6040288605
 20
-12.8535678057
 10
19.6144525223
 20
-17.9920792732
 10
19.6283377455
 20
-23.1255576778
 10
19.6456806325
 20
-28.2528700644
 10
19.6664850809
 20
-33.3751493882
 10
19.6907510909
 20
-38.4923956492
  0
LWPOLYLINE
  5
399
100
AcDbEntity
  8
RACCORDO
100
AcDbPolyline
 62
250
  6
CONTINUOUS
 90
16
 70
0
 10
12.5463965823
 20
-23.2115046953
 10
12.5378468944
 20
-23.2369333814
 10
12.5165277495
 20
-23.2620411858
 10
12.4826675117
 20
-23.2865604816
 10
12.4366288668
 20
-23.3102133913
 10
12.37890525
 20
-23.3327626669
 10
12.3101156777
 20
-23.3540142169
 10
12.2309976201
 20
-23.3737540202
 10
12.1423990284
 20
-23.3917558093
 10
12.0452696494
 20
-23.4078312787
 10
11.94065065
 20
-23.4218124112
 10
11.8296634545
 20
-23.4335444115
 10
11.7134977858
 20
-23.4428923801
 10
11.593398878
 20
-23.4497528755
 10
11.47065412
 20
-23.454054969
 10
11.3465792696
 20
-23.4557521202
  0
LWPOLYLINE
  5
39A
100
AcDbEntity
  8
RACCORDO
100
AcDbPolyline
 62
250
  6
CONTINUOUS
 90
16
 70
0
 10
12.5554709242
 20
-25.9166412019
 10
12.5469092595
 20
-25.9382168184
 10
12.5255797382
 20
-25.9595612023
 10
12.4917109573
 20
-25.9804455843
 10
12.4456659094
 20
-26.0006461258
 10
12.3879380939
 20
-26.0199463162
 10
12.3191462301
 20
-26.0381392944
 10
12.2400276199
 20
-26.0550300669
 10
12.1514302501
 20
-26.0704375968
 10
12.0543037092
 20
-26.0841967437
 10
11.9496889962
 20
-26.0961600356
 10
11.8387073712
 20
-26.1061992484
 10
11.7225483468
 20
-26.1142067795
 10
11.602456922
 20
-26.1200968031
 10
11.4797202369
 20
-26.1238061892
 10
11.3556537877
 20
-26.1252951797
  0
LWPOLYLINE
  5
39B
100
AcDbEntity
  8
RACCORDO
100
AcDbPolyline
 62
250
  6
CONTINUOUS
 90
16
 70
0
 10
12.5554698704
 20
25.9166411512
 10
12.5469078215
 20
25.9382167668
 10
12.5255779502
 20
25.9595611362
 10
12.491708869
 20
25.9804454917
 10
12.4456635849
 20
26.0006459957
 10
12.3879356087
 20
26.0199461402
 10
12.319143666
 20
26.0381390674
 10
12.2400250651
 20
26.0550297864
 10
12.151427795
 20
26.0704372632
 10
12.0543014365
 20
26.0841963613
 10
11.9496869848
 20
26.0961596114
 10
11.8387056921
 20
26.106198792
 10
11.7225470499
 20
26.1142063037
 10
11.6024560404
 20
26.1200963223
 10
11.4797197928
 20
26.1238057188
 10
11.3556537876
 20
26.1252947362
  0
LWPOLYLINE
  5
39C
100
AcDbEntity
  8
RACCORDO
100
AcDbPolyline
 62
250
  6
CONTINUOUS
 90
16
 70
0
 10
12.5463965821
 20
23.211504698
 10
12.5378461188
 20
23.2367963499
 10
12.5165260028
 20
23.2618035372
 10
12.4826648069
 20
23.2862584735
 10
12.4366255365
 20
23.3098926522
 10
12.3789017421
 20
23.3324591506
 10
12.3101121722
 20
23.35373526
 10
12.2309941785
 20
23.3735004193
 10
12.1423958305
 20
23.3915348802
 10
12.045266781
 20
23.4076414275
 10
11.9406481445
 20
23.4216470954
 10
11.8296613689
 20
23.4334020717
 10
11.7134961748
 20
23.4427774564
 10
11.5933977845
 20
23.4496718066
 10
11.4706535681
 20
23.4540122053
 10
11.3465792696
 20
23.4557521241
  0
LWPOLYLINE
  5
39D
100
AcDbEntity
  8
RACCORDO
100
AcDbPolyline
 62
250
  6
CONTINUOUS
 90
19
 70
0
 10
19.6907520401
 20
38.4923965984
 10
19.6859961313
 20
38.5958353177
 10
19.6722906991
 20
38.6987265404
 10
19.6496799323
 20
38.800291198
 10
19.6182501833
 20
38.8998234594
 10
19.5781962243
 20
38.9964765593
 10
19.5298823053
 20
39.0892941874
 10
19.47372386
 20
39.1775021164
 10
19.410112411
 20
39.2605059023
 10
19.3395166511
 20
39.3376898627
 10
19.2624588527
 20
39.4084727082
 10
19.179530011
 20
39.4723021492
 10
19.0913747334
 20
39.5286787232
 10
18.9986693048
 20
39.5771708525
 10
18.9021134534
 20
39.617413396
 10
18.802441834
 20
39.6491001479
 10
18.7004125851
 20
39.6719901418
 10
18.5968015202
 20
39.6859093792
 10
18.4923965984
 20
39.6907520401
  0
LWPOLYLINE
  5
39E
100
AcDbEntity
  8
RACCORDO
100
AcDbPolyline
 62
250
  6
CONTINUOUS
 90
19
 70
0
 10
19.6907520401
 20
-38.4923965984
 10
19.6859222353
 20
-38.5966588873
 10
19.6720406104
 20
-38.7001304404
 10
19.6492124451
 20
-38.8020265189
 10
19.6176108704
 20
-38.9015743325
 10
19.577475556
 20
-38.9980189005
 10
19.5291108922
 20
-39.0906287773
 10
19.4728836815
 20
-39.1787016004
 10
19.4092203567
 20
-39.2615694163
 10
19.3386037472
 20
-39.3386037472
 10
19.2615694163
 20
-39.4092203567
 10
19.1787016004
 20
-39.4728836815
 10
19.0906287773
 20
-39.5291108922
 10
18.9980189005
 20
-39.577475556
 10
18.9015743325
 20
-39.6176108704
 10
18.8020265189
 20
-39.6492124451
 10
18.7001304404
 20
-39.6720406104
 10
18.5966588873
 20
-39.6859222353
 10
18.4923965984
 20
-39.6907520401
  0
LINE
  5
39F
100
AcDbEntity
  8
RACCORDO
100
AcDbLine
 62
250
  6
CONTINUOUS
 10
-12.5056858417
 20
22.3
 11
-12.5
 21
22.3
  0
LINE
  5
3A0
100
AcDbEntity
  8
RACCORDO
100
AcDbLine
 62
250
  6
CONTINUOUS
 10
12.5
 20
22.3
 11
12.5056858417
 21
22.3
  0
LINE
  5
3A1
100
AcDbEntity
  8
RACCORDO
100
AcDbLine
 62
7
  6
CONTINUOUS
 10
12.3057163027
 20
22.5
 11
-12.3057163027
 21
22.5
  0
LINE
  5
3A2
100
AcDbEntity
  8
RACCORDO
100
AcDbLine
 62
250
  6
CONTINUOUS
 10
11.3465769381
 20
23.4557528124
 11
-11.3465769381
 21
23.4557528124
  0
LWPOLYLINE
  5
3A3
100
AcDbEntity
  8
RACCORDO
100
AcDbPolyline
 62
250
  6
CONTINUOUS
 90
52
 70
0
 10
-13.5146872782
 20
38.6082212622
 10
-13.4900141432
 20
38.5896708962
 10
-13.4659578346
 20
38.5700079083
 10
-13.4425183524
 20
38.5492323251
 10
-13.4197853491
 20
38.5273354771
 10
-13.3976691722
 20
38.5043260933
 10
-13.3759008638
 20
38.4802303009
 10
-13.3544525955
 20
38.4550816157
 10
-13.3333521957
 20
38.4288465904
 10
-13.3124141922
 20
38.4014509121
 10
-13.2916143483
 20
38.3729031047
 10
-13.2709769007
 20
38.3431947308
 10
-13.2503890867
 20
38.3122260458
 10
-13.2298306754
 20
38.2799876381
 10
-13.2093218977
 20
38.2464890297
 10
-13.1888106841
 20
38.2116588882
 10
-13.1682822912
 20
38.1754798507
 10
-13.1477514624
 20
38.1379694168
 10
-13.1272103572
 20
38.0991085574
 10
-13.1066497236
 20
38.0588783175
 10
-13.0860788137
 20
38.0172978139
 10
-13.065517543
 20
37.9744051305
 10
-13.044955044
 20
37.9301684274
 10
-13.0244021841
 20
37.8846197276
 10
-13.0039114819
 20
37.8378929048
 10
-12.9835045139
 20
37.7900333186
 10
-12.9631597035
 20
37.7409957963
 10
-12.94286484
 20
37.6907784104
 10
-12.9226372525
 20
37.6394352816
 10
-12.9024596119
 20
37.5869125005
 10
-12.8822677202
 20
37.5330461146
 10
-12.862059579
 20
37.4778476528
 10
-12.8418371867
 20
37.4213058566
 10
-12.8215423401
 20
37.3632226329
 10
-12.8011705518
 20
37.3036001699
 10
-12.7807263092
 20
37.2424366272
 10
-12.7601648712
 20
37.1795279193
 10
-12.7394843218
 20
37.1148819484
 10
-12.7186865769
 20
37.0484912564
 10
-12.6977326434
 20
36.9801287799
 10
-12.676621071
 20
36.9098037845
 10
-12.65535331
 20
36.8375075745
 10
-12.6338947181
 20
36.7629862251
 10
-12.6122452955
 20
36.6862553116
 10
-12.590405042
 20
36.6072999923
 10
-12.5683393148
 20
36.5258208246
 10
-12.546050317
 20
36.4418456224
 10
-12.5235358456
 20
36.3553475253
 10
-12.5007546478
 20
36.2659452286
 10
-12.4776992054
 20
36.1736301389
 10
-12.4543770367
 20
36.0784121199
 10
-12.4307694447
 20
35.979937742
  0
LWPOLYLINE
  5
3A4
100
AcDbEntity
  8
RACCORDO
100
AcDbPolyline
 62
250
  6
CONTINUOUS
 90
3
 70
0
 10
12.3057163027
 20
22.5
 10
12.3049308123
 20
22.5008734783
 10
12.3007783004
 20
22.5035925533
  0
LWPOLYLINE
  5
3A5
100
AcDbEntity
  8
RACCORDO
100
AcDbPolyline
 62
250
  6
CONTINUOUS
 90
4
 70
0
 10
11.8279278552
 20
-22.8489295413
 10
11.9212375927
 20
-22.7759544218
 10
11.9683769727
 20
-22.7395360807
 10
12.0154033808
 20
-22.7041226057
  0
LWPOLYLINE
  5
3A6
100
AcDbEntity
  8
RACCORDO
100
AcDbPolyline
 62
250
  6
CONTINUOUS
 90
9
 70
0
 10
12.0154033808
 20
-22.7041226057
 10
12.0990841099
 20
-22.6421793353
 10
12.1357384309
 20
-22.615616972
 10
12.1688274504
 20
-22.5920537187
 10
12.198198347
 20
-22.5714721491
 10
12.2240039423
 20
-22.5537140762
 10
12.2463005383
 20
-22.5386865806
 10
12.2651360669
 20
-22.5262681817
 10
12.2804625963
 20
-22.5163872009
  0
LWPOLYLINE
  5
3A7
100
AcDbEntity
  8
RACCORDO
100
AcDbPolyline
 62
250
  6
CONTINUOUS
 90
4
 70
0
 10
12.2804625963
 20
-22.5163872009
 10
12.3002970153
 20
-22.5038851267
 10
12.3048049049
 20
-22.5009454201
 10
12.3057163027
 20
-22.5
  0
LWPOLYLINE
  5
3A8
100
AcDbEntity
  8
RACCORDO
100
AcDbPolyline
 62
250
  6
CONTINUOUS
 90
36
 70
0
 10
12.5056858417
 20
-22.3
 10
12.5060958671
 20
-22.29983593
 10
12.5065183594
 20
-22.2994201559
 10
12.5069533184
 20
-22.298752678
 10
12.5073999968
 20
-22.2978155307
 10
12.507859142
 20
-22.2966266794
 10
12.5083329961
 20
-22.2952400202
 10
12.5088212886
 20
-22.2936472905
 10
12.50932429
 20
-22.2918567528
 10
12.5098450537
 20
-22.2899470913
 10
12.5103836266
 20
-22.2879057644
 10
12.5109399618
 20
-22.2857453137
 10
12.5115169728
 20
-22.2835820478
 10
12.512114719
 20
-22.281399903
 10
12.512733141
 20
-22.279214943
 10
12.5133749745
 20
-22.2771916668
 10
12.5140404999
 20
-22.2753111497
 10
12.5147294368
 20
-22.2735923165
 10
12.5154436784
 20
-22.2722564404
 10
12.5161823216
 20
-22.2712807001
 10
12.5169462696
 20
-22.2706879171
 10
12.5177401246
 20
-22.270767829
 10
12.5185642503
 20
-22.2714859048
 10
12.5194182831
 20
-22.2728766756
 10
12.5203057346
 20
-22.2753334722
 10
12.5212321377
 20
-22.2788700124
 10
12.5221919595
 20
-22.2834725784
 10
12.5231721138
 20
-22.2894933469
 10
12.5241762774
 20
-22.2970319681
 10
12.5252007735
 20
-22.3059887918
 10
12.5262214859
 20
-22.3164170438
 10
12.5272376858
 20
-22.3284322373
 10
12.528250102
 20
-22.3419188591
 10
12.529236805
 20
-22.3565835961
 10
12.5301925145
 20
-22.3724273653
 10
12.5311225107
 20
-22.3894492496
  0
LWPOLYLINE
  5
3A9
100
AcDbEntity
  8
RACCORDO
100
AcDbPolyline
 62
250
  6
CONTINUOUS
 90
12
 70
0
 10
12.3007783004
 20
22.5035925533
 10
12.2823521409
 20
22.5151797028
 10
12.2680784933
 20
22.5243540779
 10
12.2504980368
 20
22.5358960831
 10
12.2296149234
 20
22.5498924491
 10
12.2054250011
 20
22.5664506483
 10
12.1779760268
 20
22.5855987207
 10
12.1472708602
 20
22.6073805055
 10
12.1133066416
 20
22.6318669144
 10
12.0761225484
 20
22.6590897664
 10
12.0352825803
 20
22.6892925133
 10
11.9912227377
 20
22.7223235755
  0
LWPOLYLINE
  5
3AA
100
AcDbEntity
  8
RACCORDO
100
AcDbPolyline
 62
250
  6
CONTINUOUS
 90
19
 70
0
 10
11.9912227377
 20
22.7223235755
 10
11.8969403267
 20
22.7947476712
 10
11.8467177584
 20
22.8338928847
 10
11.7976035826
 20
22.8732845297
 10
11.7503427885
 20
22.9119018704
 10
11.7041903869
 20
22.9500948148
 10
11.659892499
 20
22.9881945131
 10
11.6175293982
 20
23.02595109
 10
11.5770208112
 20
23.0632533858
 10
11.5388720391
 20
23.1007816129
 10
11.5028920574
 20
23.1385035711
 10
11.4692718905
 20
23.1762737811
 10
11.4390899129
 20
23.2147052256
 10
11.4121788261
 20
23.2540634549
 10
11.3887059285
 20
23.2939956953
 10
11.3702514894
 20
23.3342132636
 10
11.3573422653
 20
23.3745772308
 10
11.3494514997
 20
23.41510903
 10
11.3465791925
 20
23.4557528124
  0
LINE
  5
3AB
100
AcDbEntity
  8
0
100
AcDbLine
 62
7
  6
CONTINUOUS
 10
-3.6749773271
 20
-40.0
 11
-3.5
 21
-39.8951844414
  0
LINE
  5
3AC
100
AcDbEntity
  8
0
100
AcDbLine
 62
7
  6
CONTINUOUS
 10
-3.6749773271
 20
40.0
 11
-3.5
 21
39.8951844414
  0
LWPOLYLINE
  5
3AD
100
AcDbEntity
  8
RACCORDO
100
AcDbPolyline
 62
7
  6
CONTINUOUS
 90
13
 70
0
 10
13.7376339301
 20
-38.5298002141
 10
13.7223310367
 20
-38.5434084168
 10
13.7062419571
 20
-38.5556375579
 10
13.6893666913
 20
-38.5664876498
 10
13.6715832835
 20
-38.5759012233
 10
13.6530136895
 20
-38.5839357681
 10
13.634023777
 20
-38.5907637318
 10
13.6146199319
 20
-38.5963875503
 10
13.5947957683
 20
-38.6008047985
 10
13.574897996
 20
-38.6041806294
 10
13.555042185
 20
-38.6065700951
 10
13.5351127652
 20
-38.6079181478
 10
13.5151097369
 20
-38.6082247885
  0
LWPOLYLINE
  5
3AE
100
AcDbEntity
  8
RACCORDO
100
AcDbPolyline
 62
250
  6
CONTINUOUS
 90
3
 70
0
 10
-18.8521597665
 20
38.6010101391
 10
-18.6134502319
 20
38.6053504974
 10
-18.4923965984
 20
38.6082212623
  0
LINE
  5
3AF
100
AcDbEntity
  8
RACCORDO
100
AcDbLine
 62
7
  6
CONTINUOUS
 10
-13.5146872782
 20
38.6082212622
 11
13.5154420928
 21
38.6082212622
  0
LINE
  5
3B0
100
AcDbEntity
  8
RACCORDO
100
AcDbLine
 62
250
  6
CONTINUOUS
 10
13.5212983883
 20
38.6082212622
 11
18.4923916651
 21
38.6082212622
  0
LINE
  5
3B1
100
AcDbEntity
  8
RACCORDO
100
AcDbLine
 62
250
  6
CONTINUOUS
 10
-18.4923918459
 20
38.6082212622
 11
-13.5151458344
 21
38.6082273727
  0
LWPOLYLINE
  5
3B2
100
AcDbEntity
  8
RACCORDO
100
AcDbPolyline
 62
7
  6
CONTINUOUS
 90
13
 70
0
 10
13.5212983883
 20
38.6082212622
 10
13.5407985417
 20
38.6077205587
 10
13.5602107979
 20
38.6061946656
 10
13.5795351568
 20
38.6036435817
 10
13.5988771664
 20
38.6001087172
 10
13.6181312788
 20
38.5955486574
 10
13.63698085
 20
38.5898391627
 10
13.6554431361
 20
38.5829904828
 10
13.673500881
 20
38.5749923574
 10
13.690785673
 20
38.5656897798
 10
13.7071747081
 20
38.5550310742
 10
13.7227907901
 20
38.5430678972
 10
13.7376339192
 20
38.5298002373
  0
LWPOLYLINE
  5
3B3
100
AcDbEntity
  8
RACCORDO
100
AcDbPolyline
 62
250
  6
CONTINUOUS
 90
38
 70
0
 10
-13.7376338153
 20
38.5298616781
 10
-13.7234344965
 20
38.5285658979
 10
-13.7092617335
 20
38.5247585745
 10
-13.6951174925
 20
38.5184397909
 10
-13.6808856032
 20
38.5094065579
 10
-13.6666862618
 20
38.4978617727
 10
-13.6528752871
 20
38.4844155625
 10
-13.639553372
 20
38.4690459191
 10
-13.6266213612
 20
38.4517775721
 10
-13.6141340758
 20
38.4332920868
 10
-13.6021681211
 20
38.4137635852
 10
-13.5906465795
 20
38.3930206788
 10
-13.5793940978
 20
38.3712262838
 10
-13.5683963444
 20
38.3484474535
 10
-13.5576677485
 20
38.324618517
 10
-13.5470770589
 20
38.299702454
 10
-13.5366073062
 20
38.2737154454
 10
-13.5262761405
 20
38.2466419471
 10
-13.5160050507
 20
38.2183968099
 10
-13.5057842345
 20
38.1889826622
 10
-13.4956246757
 20
38.15839712
 10
-13.485479626
 20
38.1265472024
 10
-13.4753411382
 20
38.0934206942
 10
-13.4652187876
 20
38.0590298295
 10
-13.4550924877
 20
38.023318136
 10
-13.4449571394
 20
37.9862683386
 10
-13.434819753
 20
37.9478976419
 10
-13.4246785663
 20
37.9082012384
 10
-13.4145295004
 20
37.8671552958
 10
-13.404378653
 20
37.8247835744
 10
-13.3942394686
 20
37.7811526818
 10
-13.3841112016
 20
37.7362472934
 10
-13.3739964661
 20
37.6900827394
 10
-13.3639135133
 20
37.642771686
 10
-13.3538741634
 20
37.5943656659
 10
-13.3438681026
 20
37.5448132671
 10
-13.3338803758
 20
37.4940727465
 10
-13.3239185289
 20
37.442188785
  0
LWPOLYLINE
  5
3B4
100
AcDbEntity
  8
RACCORDO
100
AcDbPolyline
 62
250
  6
CONTINUOUS
 90
7
 70
0
 10
19.6907520401
 20
-38.4923965982
 10
19.6782958971
 20
-38.5056796506
 10
19.6540232186
 20
-38.5168001543
 10
19.6182292591
 20
-38.5267387482
 10
19.5708308372
 20
-38.5375476712
 10
19.5118345845
 20
-38.548891474
 10
19.4421433024
 20
-38.5583009525
  0
LWPOLYLINE
  5
3B5
100
AcDbEntity
  8
RACCORDO
100
AcDbPolyline
 62
250
  6
CONTINUOUS
 90
3
 70
0
 10
-19.4421433012
 20
38.5583009336
 10
-19.2751231315
 20
38.5764260158
 10
-19.1788228212
 20
38.5838343902
  0
LWPOLYLINE
  5
3B6
100
AcDbEntity
  8
RACCORDO
100
AcDbPolyline
 62
250
  6
CONTINUOUS
 90
3
 70
0
 10
-19.1788228212
 20
38.5838343902
 10
-18.9664214865
 20
38.5965647472
 10
-18.8521597665
 20
38.6010101391
  0
LINE
  5
3B7
100
AcDbEntity
  8
RACCORDO
100
AcDbLine
 62
250
  6
CONTINUOUS
 10
18.4923965984
 20
39.6907520401
 11
-18.4923965984
 21
39.6907520401
  0
LINE
  5
3B8
100
AcDbEntity
  8
0
100
AcDbLine
 62
7
  6
CONTINUOUS
 10
-3.5
 20
39.8951844414
 11
3.5
 21
39.8951844414
  0
LINE
  5
3B9
100
AcDbEntity
  8
RACCORDO
100
AcDbLine
 62
7
  6
CONTINUOUS
 10
18.8016445583
 20
40.0
 11
3.6749773271
 21
40.0
  0
LINE
  5
3BA
100
AcDbEntity
  8
RACCORDO
100
AcDbLine
 62
7
  6
CONTINUOUS
 10
-3.6749773271
 20
40.0
 11
-18.8016445583
 21
40.0
  0
LWPOLYLINE
  5
3BB
100
AcDbEntity
  8
0
100
AcDbPolyline
 62
7
  6
CONTINUOUS
 90
3
 70
0
 43
0.3500000006
 10
-0.8571428254
 20
49.3928589478
 10
-2.3571427875
 20
49.3928589478
 10
-1.7142856507
 20
51.7500018768
  0
LWPOLYLINE
  5
3BC
100
AcDbEntity
  8
RACCORDO
100
AcDbPolyline
 62
250
  6
CONTINUOUS
 90
16
 70
0
 10
19.6907520401
 20
38.4923965982
 10
19.6782972506
 20
38.5040938908
 10
19.6536966124
 20
38.5156720495
 10
19.6172020896
 20
38.5270138791
 10
19.5691874641
 20
38.538005034
 10
19.5101444978
 20
38.5485332963
 10
19.4406778946
 20
38.5584894944
 10
19.3614991212
 20
38.5677713071
 10
19.2734191213
 20
38.5762845045
 10
19.1773400001
 20
38.5839418953
 10
19.0742457845
 20
38.5906642202
 10
18.9651923547
 20
38.5963829811
 10
18.8512966293
 20
38.6010409495
 10
18.7337251128
 20
38.6045900668
 10
18.613681949
 20
38.6069921673
 10
18.4923965984
 20
38.6082212623
  0
LINE
  5
3BD
100
AcDbEntity
  8
RACCORDO
100
AcDbLine
 62
250
  6
CONTINUOUS
 10
-37.413075768
 20
-38.5670645559
 11
-37.4963650826
 21
-38.5764260355
  0
LWPOLYLINE
  5
3BE
100
AcDbEntity
  8
RACCORDO
100
AcDbPolyline
 62
250
  6
CONTINUOUS
 90
7
 70
0
 10
-36.6534761047
 20
-38.4923965982
 10
-36.7736112361
 20
-38.5056796506
 10
-36.8907197231
 20
-38.5168001543
 10
-37.0045828951
 20
-38.5267387482
 10
-37.1150210983
 20
-38.5375476712
 10
-37.2211922047
 20
-38.548891474
 10
-37.413075768
 20
-38.5670645559
  0
LWPOLYLINE
  5
3BF
100
AcDbEntity
  8
RACCORDO
100
AcDbPolyline
 62
250
  6
CONTINUOUS
 90
7
 70
0
 10
-37.4963650826
 20
-38.5764260355
 10
-37.6349156454
 20
-38.5901038678
 10
-37.6881470561
 20
-38.5965647626
 10
-37.730310425
 20
-38.6010101517
 10
-37.760881228
 20
-38.6032614074
 10
-37.7791961725
 20
-38.6053505022
 10
-37.7850701471
 20
-38.6082212623
  0
LINE
  5
3C0
100
AcDbEntity
  8
RACCORDO
100
AcDbLine
 62
7
  6
CONTINUOUS
 10
-36.6534761047
 20
-39.6907520401
 11
-30.7526735113
 21
-40.0
  0
LINE
  5
3C1
100
AcDbEntity
  8
RACCORDO
100
AcDbLine
 62
250
  6
CONTINUOUS
 10
-36.653494217
 20
-38.4923956492
 11
-30.7526735113
 21
-38.8016445583
  0
LWPOLYLINE
  5
3C2
100
AcDbEntity
  8
0
100
AcDbPolyline
 62
7
  6
CONTINUOUS
 90
10
 70
0
 43
0.3500000006
 10
-33.9169595032
 20
48.7500009613
 10
-33.0598170319
 20
49.6071434326
 10
-32.8455302811
 20
50.4642859039
 10
-32.8455302811
 20
51.3214283752
 10
-33.2741015167
 20
51.7500018768
 10
-33.9169595032
 20
51.7500018768
 10
-34.3455307388
 20
51.3214283752
 10
-34.3455307388
 20
50.4642859039
 10
-33.9169595032
 20
50.0357124023
 10
-32.9883881149
 20
50.0357124023
  0
LWPOLYLINE
  5
3C3
100
AcDbEntity
  8
0
100
AcDbPolyline
 62
7
  6
CONTINUOUS
 90
3
 70
0
 43
0.3500000006
 10
-35.345531044
 20
49.0357120972
 10
-35.4169599609
 20
48.8214276123
 10
-35.5598155289
 20
48.5357164764
  0
LWPOLYLINE
  5
3C4
100
AcDbEntity
  8
0
100
AcDbPolyline
 62
7
  6
CONTINUOUS
 90
13
 70
0
 43
0.3500000006
 10
-50.0424833221
 20
-1.9285708809
 10
-50.256767807
 20
-2.2142854156
 10
-50.8996257935
 20
-2.2142854156
 10
-51.3281947632
 20
-1.9285708809
 10
-51.3281947632
 20
-1.2857140274
 10
-50.8996257935
 20
-1.0000006256
 10
-50.256767807
 20
-1.0000006256
 10
-50.0424833221
 20
-1.2857140274
 10
-49.6139098206
 20
-0.8571427917
 10
-48.7567673492
 20
-0.8571427917
 10
-48.3281983795
 20
-1.2857140274
 10
-48.3281983795
 20
-1.9285708809
 10
-48.7567673492
 20
-2.3571432495
  0
LINE
  5
3C5
100
AcDbEntity
  8
RACCORDO
100
AcDbLine
 62
7
  6
CONTINUOUS
 10
-37.7850701471
 20
38.6082212622
 11
-37.783767862
 21
38.6209444422
  0
LWPOLYLINE
  5
3C6
100
AcDbEntity
  8
0
100
AcDbPolyline
 62
7
  6
CONTINUOUS
 90
4
 70
0
 43
0.3500000006
 10
-38.4169608765
 20
49.178569931
 10
-38.4169608765
 20
50.0357124023
 10
-37.9883873749
 20
50.4642859039
 10
-37.3455316544
 20
50.4642859039
  0
LWPOLYLINE
  5
3C7
100
AcDbEntity
  8
RACCORDO
100
AcDbPolyline
 62
250
  6
CONTINUOUS
 90
16
 70
0
 10
-36.6534938543
 20
38.4923956682
 10
-37.116517064
 20
33.3751494438
 10
-37.5134897095
 20
28.2528700763
 10
-37.8444117907
 20
23.1255575656
 10
-38.1093576711
 20
17.9920788982
 10
-38.3082529873
 20
12.8535670876
 10
-38.4408746491
 20
7.7134211743
 10
-38.5071482896
 20
2.5716847386
 10
-38.5071482759
 20
-2.5716857998
 10
-38.4408746181
 20
-7.7134221407
 10
-38.3082529477
 20
-12.8535678057
 10
-38.1093576332
 20
-17.9920792732
 10
-37.8444117913
 20
-23.1255576778
 10
-37.513489794
 20
-28.2528700644
 10
-37.1165172693
 20
-33.3751493882
 10
-36.653494217
 20
-38.4923956492
  0
LWPOLYLINE
  5
3C8
100
AcDbEntity
  8
0
100
AcDbPolyline
 62
7
  6
CONTINUOUS
 90
4
 70
0
 43
0.3500000006
 10
-48.7567673492
 20
-2.3571432495
 10
-49.6139098206
 20
-2.3571432495
 10
-50.0424833221
 20
-1.9285708809
 10
-50.0424833221
 20
-1.2857140274
  0
LWPOLYLINE
  5
3C9
100
AcDbEntity
  8
0
100
AcDbPolyline
 62
7
  6
CONTINUOUS
 90
13
 70
0
 43
0.3500000006
 10
-49.1853408508
 20
-0.0000003204
 10
-50.4710522919
 20
-0.0000003204
 10
-50.8996257935
 20
0.2142864304
 10
-51.3281947632
 20
0.642857666
 10
-51.3281947632
 20
0.8571421509
 10
-50.8996257935
 20
1.2857133865
 10
-50.4710522919
 20
1.5000001373
 10
-49.1853408508
 20
1.5000001373
 10
-48.7567673492
 20
1.2857133865
 10
-48.3281983795
 20
0.8571421509
 10
-48.3281983795
 20
0.642857666
 10
-48.7567673492
 20
0.2142864304
 10
-49.1853408508
 20
-0.0000003204
  0
LWPOLYLINE
  5
3CA
100
AcDbEntity
  8
RACCORDO
100
AcDbPolyline
 62
250
  6
CONTINUOUS
 90
19
 70
0
 10
-36.6534761047
 20
38.4923965984
 10
-36.6586478516
 20
38.5958353177
 10
-36.6633218809
 20
38.6987265404
 10
-36.6674596789
 20
38.800291198
 10
-36.6710287804
 20
38.8998234594
 10
-36.6739950157
 20
38.9964765593
 10
-36.6763273562
 20
39.0892941874
 10
-36.6780069985
 20
39.1775021164
 10
-36.6790233078
 20
39.2605059023
 10
-36.6793685808
 20
39.3376898627
 10
-36.6790397244
 20
39.4084727082
 10
-36.6780387672
 20
39.4723021492
 10
-36.676373316
 20
39.5286787232
 10
-36.6740561951
 20
39.5771708525
 10
-36.6711049397
 20
39.617413396
 10
-36.6675420038
 20
39.6491001479
 10
-36.6633944912
 20
39.6719901418
 10
-36.6586939417
 20
39.6859093792
 10
-36.6534761047
 20
39.6907520401
  0
LWPOLYLINE
  5
3CB
100
AcDbEntity
  8
RACCORDO
100
AcDbPolyline
 62
250
  6
CONTINUOUS
 90
19
 70
0
 10
-36.6534761047
 20
-38.4923965984
 10
-36.6586871404
 20
-38.5966588873
 10
-36.6633823495
 20
-38.7001304404
 10
-36.6675261233
 20
-38.8020265189
 10
-36.6710870348
 20
-38.9015743325
 10
-36.6740380777
 20
-38.9980189005
 10
-36.6763568711
 20
-39.0906287773
 10
-36.6780258289
 20
-39.1787016004
 10
-36.6790322936
 20
-39.2615694163
 10
-36.6793686321
 20
-39.3386037472
 10
-36.6790322936
 20
-39.4092203567
 10
-36.6780258289
 20
-39.4728836815
 10
-36.6763568711
 20
-39.5291108922
 10
-36.6740380777
 20
-39.577475556
 10
-36.6710870348
 20
-39.6176108704
 10
-36.6675261233
 20
-39.6492124451
 10
-36.6633823495
 20
-39.6720406104
 10
-36.6586871404
 20
-39.6859222353
 10
-36.6534761047
 20
-39.6907520401
  0
LINE
  5
3CC
100
AcDbEntity
  8
RACCORDO
100
AcDbLine
 62
7
  6
CONTINUOUS
 10
-30.7526735113
 20
40.0
 11
-30.7526735113
 21
-40.0
  0
LWPOLYLINE
  5
3CD
100
AcDbEntity
  8
0
100
AcDbPolyline
 62
7
  6
CONTINUOUS
 90
10
 70
0
 43
0.3500000006
 10
-35.4169599609
 20
49.2500011139
 10
-35.345531044
 20
49.10714328
 10
-35.345531044
 20
49.0357120972
 10
-35.4883888779
 20
48.8928587952
 10
-35.5598155289
 20
48.8928587952
 10
-35.6312444458
 20
48.9642854462
 10
-35.6312444458
 20
49.0357120972
 10
-35.5598155289
 20
49.178569931
 10
-35.4883888779
 20
49.2500011139
 10
-35.4169599609
 20
49.2500011139
  0
LINE
  5
3CE
100
AcDbEntity
  8
RACCORDO
100
AcDbLine
 62
250
  6
CONTINUOUS
 10
-30.7526735113
 20
38.8016445583
 11
-36.6534938543
 21
38.4923956682
  0
LINE
  5
3CF
100
AcDbEntity
  8
RACCORDO
100
AcDbLine
 62
7
  6
CONTINUOUS
 10
-30.7526735113
 20
40.0
 11
-36.6534761047
 21
39.6907520401
  0
LINE
  5
3D0
100
AcDbEntity
  8
RACCORDO
100
AcDbLine
 62
250
  6
CONTINUOUS
 10
-36.6534761046
 20
38.4923965982
 11
-37.4146750556
 21
38.5677713071
  0
LINE
  5
3D1
100
AcDbEntity
  8
RACCORDO
100
AcDbLine
 62
250
  6
CONTINUOUS
 10
-37.4146750556
 20
38.5677713071
 11
-37.6355629031
 21
38.5906642202
  0
LWPOLYLINE
  5
3D2
100
AcDbEntity
  8
RACCORDO
100
AcDbPolyline
 62
250
  6
CONTINUOUS
 90
5
 70
0
 10
-37.6355629031
 20
38.5906642202
 10
-37.7305796081
 20
38.6010409495
 10
-37.7607896923
 20
38.6045900668
 10
-37.7790153823
 20
38.6069921673
 10
-37.7850701471
 20
38.6082212623
  0
LWPOLYLINE
  5
3D3
100
AcDbEntity
  8
0
100
AcDbPolyline
 62
7
  6
CONTINUOUS
 90
13
 70
0
 43
0.3500000006
 10
-37.9883873749
 20
50.4642859039
 10
-38.2741030426
 20
50.6785703888
 10
-38.2741030426
 20
51.3214283752
 10
-37.9883873749
 20
51.7500018768
 10
-37.3455316544
 20
51.7500018768
 10
-37.0598159866
 20
51.3214283752
 10
-37.0598159866
 20
50.6785703888
 10
-37.3455316544
 20
50.4642859039
 10
-36.9169581528
 20
50.0357124023
 10
-36.9169581528
 20
49.178569931
 10
-37.3455316544
 20
48.7500009613
 10
-37.9883873749
 20
48.7500009613
 10
-38.4169608765
 20
49.178569931
  0
ARC
  5
3D4
100
AcDbEntity
  8
0
100
AcDbCircle
 62
7
  6
CONTINUOUS
 10
5.038572
 20
-34.558656
 40
0.8587214994
100
AcDbArc
 50
292.8428415932
 51
90.0
  0
ARC
  5
3D5
100
AcDbEntity
  8
0
100
AcDbCircle
 62
7
  6
CONTINUOUS
 10
4.960842
 20
-34.558656
 40
0.340698
100
AcDbArc
 50
270.0
 51
90.0
  0
ARC
  5
3D6
100
AcDbEntity
  8
RACCORDO
100
AcDbCircle
 62
7
  6
CONTINUOUS
 10
360.3473264887
 20
0.0
 40
400.0
100
AcDbArc
 50
174.4611566797
 51
185.5388433203
  0
ARC
  5
3D7
100
AcDbEntity
  8
RACCORDO
100
AcDbCircle
 62
7
  6
CONTINUOUS
 10
-36.5906729572
 20
38.4923965984
 40
1.2
100
AcDbArc
 50
93.0
 51
173.8504927806
  0
ARC
  5
3D8
100
AcDbEntity
  8
RACCORDO
100
AcDbCircle
 62
7
  6
CONTINUOUS
 10
-36.5906729572
 20
-38.4923965984
 40
1.2
100
AcDbArc
 50
185.5388433203
 51
267.0
  0
ELLIPSE
  5
3D9
100
AcDbEntity
  8
RACCORDO
100
AcDbEllipse
 62
7
  6
CONTINUOUS
 10
-18.7983531848
 20
38.7983531848
 30
0.0
 11
0.8508554921
 21
-0.8508554921
 31
0.0
 40
0.9972646886
 41
2.3575640181
 42
3.9256212891
  0
ELLIPSE
  5
3DA
100
AcDbEntity
  8
RACCORDO
100
AcDbEllipse
 62
7
  6
CONTINUOUS
 10
-18.7983531848
 20
-38.7983531848
 30
0.0
 11
0.8508554921
 21
0.8508554921
 31
0.0
 40
0.9972646886
 41
-3.9256212891
 42
-2.3575640181
  0
ELLIPSE
  5
3DB
100
AcDbEntity
  8
RACCORDO
100
AcDbEllipse
 62
7
  6
CONTINUOUS
 10
18.7983531848
 20
-38.7983531848
 30
0.0
 11
0.8508554921
 21
-0.8508554921
 31
0.0
 40
0.9972646886
 41
-0.7840286355
 42
0.7840286355
  0
ELLIPSE
  5
3DC
100
AcDbEntity
  8
RACCORDO
100
AcDbEllipse
 62
7
  6
CONTINUOUS
 10
18.7983531848
 20
38.7983531848
 30
0.0
 11
0.8508554921
 21
0.8508554921
 31
0.0
 40
0.9972646886
 41
-0.7840286355
 42
0.7840286355
  0
ELLIPSE
  5
3DD
100
AcDbEntity
  8
RACCORDO
100
AcDbEllipse
 62
7
  6
CONTINUOUS
 10
-12.2999695344
 20
-22.3
 30
0.0
 11
0.2000304656
 21
0.0
 31
0.0
 40
0.9998476952
 41
3.1415926536
 42
4.7123889804
  0
ELLIPSE
  5
3DE
100
AcDbEntity
  8
RACCORDO
100
AcDbEllipse
 62
7
  6
CONTINUOUS
 10
12.2999695344
 20
-22.3
 30
0.0
 11
0.2000304656
 21
0.0
 31
0.0
 40
0.9998476952
 41
-1.5707963268
 42
0.0
  0
ELLIPSE
  5
3DF
100
AcDbEntity
  8
RACCORDO
100
AcDbEllipse
 62
7
  6
CONTINUOUS
 10
12.2999695344
 20
22.3
 30
0.0
 11
-0.2000304656
 21
-0.0
 31
0.0
 40
0.9998476952
 41
3.1415926536
 42
4.7123889804
  0
ELLIPSE
  5
3E0
100
AcDbEntity
  8
RACCORDO
100
AcDbEllipse
 62
7
  6
CONTINUOUS
 10
-12.2999695344
 20
22.3
 30
0.0
 11
-0.2000304656
 21
-0.0
 31
0.0
 40
0.9998476952
 41
-1.5707963268
 42
0.0
  0
ENDSEC
  0
SECTION
  2
OBJECTS
  0
DICTIONARY
  5
C
100
AcDbDictionary
280
0
281
1
  3
ACAD_GROUP
350
D
  3
ACAD_MLINESTYLE
350
17
  3
ACAD_LAYOUT
350
1A
  3
ACAD_PLOTSETTINGS
350
19
  3
ACAD_PLOTSTYLENAME
350
E
  0
DICTIONARY
  5
D
102
{ACAD_REACTORS
330
C
102
}
100
AcDbDictionary
280
0
281
1
  0
ACDBDICTIONARYWDFLT
  5
E
102
{ACAD_REACTORS
330
C
102
}
100
AcDbDictionary
281
1
  3
Normal
350
F
100
AcDbDictionaryWithDefault
340
F
  0
DICTIONARY
  5
17
102
{ACAD_REACTORS
330
C
102
}
100
AcDbDictionary
280
0
281
1
  3
Standard
350
18
  0
DICTIONARY
  5
19
102
{ACAD_REACTORS
330
C
102
}
100
AcDbDictionary
281
1
  0
DICTIONARY
  5
1A
102
{ACAD_REACTORS
330
C
102
}
100
AcDbDictionary
281
1
  3
Model
350
3E1
  3
Layout1
350
3E2
  0
ACDBPLACEHOLDER
  5
F
102
{ACAD_REACTORS
330
E
102
}
  0
MLINESTYLE
  5
18
102
{ACAD_REACTORS
330
17
102
}
100
AcDbMlineStyle
  2
STANDARD
 70
0
  3

 62
256
 51
90.0
 52
90.0
 71
2
 49
0.5
 62
256
  6
BYLAYER
 49
-0.5
 62
256
  6
BYLAYER
  0
LAYOUT
  5
3E1
102
{ACAD_REACTORS
330
1A
102
}
100
AcDbPlotSettings
  1

  2
none_device
  4
ISO_A4_(297.00_x_210.00_MM)
  6

 40
0.0
 41
0.0
 42
0.0
 43
0.0
 44
297.0
 45
210.0
 46
0.0
 47
0.0
 48
0.0
 49
0.0
140
0.0
141
0.0
142
1.0
143
1.0
 70
1024
 72
1
 73
0
 74
0
  7

 75
0
147
1.0
148
0.0
149
0.0
100
AcDbLayout
  1
Model
 70
0
 71
0
 10
0.0
 20
0.0
 11
297.0
 21
210.0
 12
0.0
 22
0.0
 32
0.0
 14
0.0
 24
0.0
 34
0.0
 15
0.0
 25
0.0
 35
0.0
146
0.0
 13
0.0
 23
0.0
 33
0.0
 16
1.0
 26
0.0
 36
0.0
 17
0.0
 27
1.0
 37
0.0
 76
0
330
211
345
0
346
0
  0
LAYOUT
  5
3E2
102
{ACAD_REACTORS
330
1A
102
}
100
AcDbPlotSettings
  1

  2
none_device
  4
ISO_A4_(297.00_x_210.00_MM)
  6

 40
0.0
 41
0.0
 42
0.0
 43
0.0
 44
297.0
 45
210.0
 46
0.0
 47
0.0
 48
0.0
 49
0.0
140
0.0
141
0.0
142
1.0
143
1.0
 70
0
 72
1
 73
0
 74
0
  7

 75
0
147
1.0
148
0.0
149
0.0
100
AcDbLayout
  1
Layout1
 70
0
 71
1
 10
0.0
 20
0.0
 11
297.0
 21
210.0
 12
0.0
 22
0.0
 32
0.0
 14
0.0
 24
0.0
 34
0.0
 15
0.0
 25
0.0
 35
0.0
146
0.0
 13
0.0
 23
0.0
 33
0.0
 16
1.0
 26
0.0
 36
0.0
 17
0.0
 27
1.0
 37
0.0
 76
0
330
212
345
0
346
0
  0
ENDSEC
  0
EOF
