  0
SECTION
  2
HEADER
  9
$ACADVER
  1
AC1024
  9
$DWGCODEPAGE
  3
ANSI_1252
  9
$EXTMAX
 10
297.0
 20
210.0
 30
0.0
  9
$EXTMIN
 10
0.0
 20
0.0
 30
0.0
  9
$LIMMIN
 10
0.0
 20
0.0
  9
$LIMMAX
 10
297.0
 20
210.0
  9
$VIEWCTR
 10
148.5
 20
105.0
  9
$VIEWSIZE
 40
210.0
  9
$CLAYER
  8
0
  9
$LTSCALE
 40
16.335
  9
$CELTYPE
  6
BYLAYER
  9
$DIMSCALE
 40
1.0
  9
$DIMASZ
 40
3.0
  9
$DIMEXO
 40
0.5
  9
$DIMDLI
 40
11.286
  9
$DIMEXE
 40
1.5
  9
$DIMCEN
 40
2.673
  9
$DIMLFAC
 40
1.0
  9
$DIMBLK
  1
_FILLED
  9
$DIMALT
 70
0
  9
$DIMALTF
 40
0.0393700787
  9
$DIMTXT
 40
3.0
  9
$DIMTOL
 70
1
  9
$DIMLIM
 70
0
  9
$DIMTFAC
 40
1.0
  9
$DIMTP
 40
0.01
  9
$DIMTM
 40
0.01
  9
$DIMGAP
 40
0.625
  9
$DIMDSEP
 70
44
  9
$AUNITS
 70
0
  9
$PDMODE
 70
3
  9
$PDSIZE
 40
3.0
  9
$HANDSEED
  5
441
  9
$TILEMODE
 70
1
  9
$MEASUREMENT
 70
1
  9
$INSUNITS
 70
4
  0
ENDSEC
  0
SECTION
  2
CLASSES
  0
CLASS
  1
ACDBDICTIONARYWDFLT
  2
AcDbDictionaryWithDefault
  3
AutoCAD 2000
 90
0
 91
1
280
0
281
0
  0
CLASS
  1
ACDBPLACEHOLDER
  2
AcDbPlaceHolder
  3
AutoCAD 2000
 90
0
 91
1
280
0
281
0
  0
CLASS
  1
LAYOUT
  2
AcDbLayout
  3
AutoCAD 2000
 90
0
 91
0
280
0
281
0
  0
ENDSEC
  0
SECTION
  2
TABLES
  0
TABLE
  2
VPORT
  5
8
100
AcDbSymbolTable
 70
2
  0
VPORT
  5
1F4
100
AcDbSymbolTableRecord
100
AcDbViewportTableRecord
  2
*ACTIVE
 70
0
 10
0.0
 20
0.0
 11
1.0
 21
1.0
 12
148.5
 22
105.0
 13
0.0
 23
0.0
 14
1.0
 24
1.0
 15
0.0
 25
0.0
 16
0.0
 26
0.0
 36
1.0
 17
0.0
 27
0.0
 37
0.0
 40
210.0
 41
1.4142857143
 42
50.0
 43
0.0
 44
0.0
 50
0.0
 51
0.0
 71
0
 72
100
 73
1
 74
1
 75
0
 76
0
 77
0
 78
0
  0
ENDTAB
  0
TABLE
  2
LTYPE
  5
5
100
AcDbSymbolTable
 70
6
  0
LTYPE
  5
14
100
AcDbSymbolTableRecord
100
AcDbLinetypeTableRecord
  2
BYBLOCK
 70
0
  3

 72
65
 73
0
 40
0.0
  0
LTYPE
  5
15
100
AcDbSymbolTableRecord
100
AcDbLinetypeTableRecord
  2
BYLAYER
 70
0
  3

 72
65
 73
0
 40
0.0
  0
LTYPE
  5
16
100
AcDbSymbolTableRecord
100
AcDbLinetypeTableRecord
  2
CONTINUOUS
 70
64
  3
Solid line
 72
65
 73
0
 40
0.0
  0
LTYPE
  5
1F5
100
AcDbSymbolTableRecord
100
AcDbLinetypeTableRecord
  2
CENTER
 70
64
  3
____ _ ____ _ ____ _ ____ _ ____ _ ____ _ ____
 72
65
 73
4
 40
0.6
 49
0.375
 74
0
 49
-0.075
 74
0
 49
0.075
 74
0
 49
-0.075
 74
0
  0
LTYPE
  5
1F6
100
AcDbSymbolTableRecord
100
AcDbLinetypeTableRecord
  2
HIDDEN
 70
64
  3
- - - - - - - - - - - - - - - - - - - -
 72
65
 73
2
 40
0.2
 49
0.1
 74
0
 49
-0.1
 74
0
  0
LTYPE
  5
1F7
100
AcDbSymbolTableRecord
100
AcDbLinetypeTableRecord
  2
PHANTOM
 70
64
  3
_____ _ _ _____ _ _ _____ _ _ _____
 72
65
 73
6
 40
0.8
 49
0.45
 74
0
 49
-0.05
 74
0
 49
0.1
 74
0
 49
-0.05
 74
0
 49
0.1
 74
0
 49
-0.05
 74
0
  0
LTYPE
  5
1F8
100
AcDbSymbolTableRecord
100
AcDbLinetypeTableRecord
  2
DOT
 70
64
  3
. . . . . . . . . . . . . . . . . . . .
 72
65
 73
2
 40
0.2
 49
0.1
 74
0
 49
-0.1
 74
0
  0
LTYPE
  5
1F9
100
AcDbSymbolTableRecord
100
AcDbLinetypeTableRecord
  2
DASHED
 70
64
  3
- - - - - - - - - - - - - - - - - - - -
 72
65
 73
2
 40
0.2
 49
0.1
 74
0
 49
-0.1
 74
0
  0
ENDTAB
  0
TABLE
  2
LAYER
  5
2
100
AcDbSymbolTable
 70
36
  0
LAYER
  5
10
100
AcDbSymbolTableRecord
100
AcDbLayerTableRecord
  2
0
 70
0
 62
7
  6
CONTINUOUS
370
-3
390
F
  0
LAYER
  5
1FA
100
AcDbSymbolTableRecord
100
AcDbLayerTableRecord
  2
DEFAULT_1
 70
0
 62
7
  6
CENTER
370
-3
390
F
  0
LAYER
  5
1FB
100
AcDbSymbolTableRecord
100
AcDbLayerTableRecord
  2
DEFAULT_2
 70
0
 62
7
  6
HIDDEN
370
-3
390
F
  0
LAYER
  5
1FC
100
AcDbSymbolTableRecord
100
AcDbLayerTableRecord
  2
DEFAULT_3
 70
0
 62
7
  6
PHANTOM
370
-3
390
F
  0
LAYER
  5
1FD
100
AcDbSymbolTableRecord
100
AcDbLayerTableRecord
  2
ASSI
 70
0
 62
7
  6
CONTINUOUS
370
-3
390
F
  0
LAYER
  5
1FE
100
AcDbSymbolTableRecord
100
AcDbLayerTableRecord
  2
COORDINATE
 70
0
 62
7
  6
CONTINUOUS
370
-3
390
F
  0
LAYER
  5
1FF
100
AcDbSymbolTableRecord
100
AcDbLayerTableRecord
  2
COORD_ORIGINE
 70
0
 62
7
  6
CONTINUOUS
370
-3
390
F
  0
LAYER
  5
200
100
AcDbSymbolTableRecord
100
AcDbLayerTableRecord
  2
COSMETICI
 70
0
 62
7
  6
CONTINUOUS
370
-3
390
F
  0
LAYER
  5
201
100
AcDbSymbolTableRecord
100
AcDbLayerTableRecord
  2
CURVE
 70
0
 62
7
  6
CONTINUOUS
370
-3
390
F
  0
LAYER
  5
202
100
AcDbSymbolTableRecord
100
AcDbLayerTableRecord
  2
DRAFT
 70
0
 62
7
  6
CONTINUOUS
370
-3
390
F
  0
LAYER
  5
203
100
AcDbSymbolTableRecord
100
AcDbLayerTableRecord
  2
IMPORT
 70
0
 62
7
  6
CONTINUOUS
370
-3
390
F
  0
LAYER
  5
204
100
AcDbSymbolTableRecord
100
AcDbLayerTableRecord
  2
LAY0001
 70
0
 62
7
  6
CONTINUOUS
370
-3
390
F
  0
LAYER
  5
205
100
AcDbSymbolTableRecord
100
AcDbLayerTableRecord
  2
NOTE
 70
0
 62
7
  6
CONTINUOUS
370
-3
390
F
  0
LAYER
  5
206
100
AcDbSymbolTableRecord
100
AcDbLayerTableRecord
  2
PIANI
 70
0
 62
7
  6
CONTINUOUS
370
-3
390
F
  0
LAYER
  5
207
100
AcDbSymbolTableRecord
100
AcDbLayerTableRecord
  2
PIANI_ORIGINE
 70
0
 62
7
  6
CONTINUOUS
370
-3
390
F
  0
LAYER
  5
208
100
AcDbSymbolTableRecord
100
AcDbLayerTableRecord
  2
PUNTI
 70
0
 62
7
  6
CONTINUOUS
370
-3
390
F
  0
LAYER
  5
209
100
AcDbSymbolTableRecord
100
AcDbLayerTableRecord
  2
RACCORDO
 70
0
 62
7
  6
CONTINUOUS
370
-3
390
F
  0
LAYER
  5
20A
100
AcDbSymbolTableRecord
100
AcDbLayerTableRecord
  2
SIMBOLI
 70
0
 62
7
  6
CONTINUOUS
370
-3
390
F
  0
LAYER
  5
20B
100
AcDbSymbolTableRecord
100
AcDbLayerTableRecord
  2
SNAPLINE
 70
0
 62
7
  6
CONTINUOUS
370
-3
390
F
  0
LAYER
  5
20C
100
AcDbSymbolTableRecord
100
AcDbLayerTableRecord
  2
SUPERFICI
 70
0
 62
7
  6
CONTINUOUS
370
-3
390
F
  0
LAYER
  5
20D
100
AcDbSymbolTableRecord
100
AcDbLayerTableRecord
  2
TRASH
 70
0
 62
7
  6
CONTINUOUS
370
-3
390
F
  0
LAYER
  5
20E
100
AcDbSymbolTableRecord
100
AcDbLayerTableRecord
  2
XSEC_DATUMS
 70
0
 62
7
  6
CONTINUOUS
370
-3
390
F
  0
ENDTAB
  0
TABLE
  2
STYLE
  5
3
100
AcDbSymbolTable
 70
1
  0
STYLE
  5
11
100
AcDbSymbolTableRecord
100
AcDbTextStyleTableRecord
  2
STANDARD
 70
0
 40
0.0
 41
0.8
 50
0.0
 71
0
 42
0.2
  3
txt
  4

  0
STYLE
  5
20F
100
AcDbSymbolTableRecord
100
AcDbTextStyleTableRecord
  2
TEXTSTYLE_1
 70
0
 40
0.0
 41
0.8
 50
0.0
 71
0
 42
0.2
  3
gdt
  4

  0
ENDTAB
  0
TABLE
  2
VIEW
  5
6
100
AcDbSymbolTable
 70
0
  0
ENDTAB
  0
TABLE
  2
UCS
  5
7
100
AcDbSymbolTable
 70
0
  0
ENDTAB
  0
TABLE
  2
APPID
  5
9
100
AcDbSymbolTable
 70
1
  0
APPID
  5
210
100
AcDbSymbolTableRecord
100
AcDbRegAppTableRecord
  2
ACAD
 70
0
  0
ENDTAB
  0
TABLE
  2
BLOCK_RECORD
  5
1
100
AcDbSymbolTable
 70
0
  0
BLOCK_RECORD
  5
211
100
AcDbSymbolTableRecord
100
AcDbBlockTableRecord
  2
*Model_Space
  0
BLOCK_RECORD
  5
212
100
AcDbSymbolTableRecord
100
AcDbBlockTableRecord
  2
*Paper_Space
  0
BLOCK_RECORD
  5
213
100
AcDbSymbolTableRecord
100
AcDbBlockTableRecord
  2
_FILLED
  0
BLOCK_RECORD
  5
214
100
AcDbSymbolTableRecord
100
AcDbBlockTableRecord
  2
*D0
  0
BLOCK_RECORD
  5
215
100
AcDbSymbolTableRecord
100
AcDbBlockTableRecord
  2
*D1
  0
BLOCK_RECORD
  5
216
100
AcDbSymbolTableRecord
100
AcDbBlockTableRecord
  2
*D2
  0
ENDTAB
  0
TABLE
  2
DIMSTYLE
  5
A
100
AcDbSymbolTable
 70
1
100
AcDbDimStyleTable
 71
0
  0
DIMSTYLE
105
217
100
AcDbSymbolTableRecord
100
AcDbDimStyleTableRecord
  2
STANDARD
 70
0
  3

  4

 40
1.0
 41
3.0
 42
0.5
 43
0.38
 44
1.5
 45
0.0
 46
0.0
 47
0.01
 48
0.01
140
3.0
141
0.09
142
0.0
143
25.4
144
1.0
145
0.0
146
1.0
147
0.625
 71
1
 72
0
 73
0
 74
0
 75
0
 76
0
 77
1
 78
8
 79
2
170
0
171
1
172
0
173
0
174
0
175
0
176
0
177
0
178
0
270
2
179
2
271
2
272
2
273
2
274
2
275
0
280
0
281
0
282
0
283
1
284
8
285
0
286
0
287
3
288
0
340
11
278
44
341
213
342
213
343
213
344
213
  0
DIMSTYLE
105
218
100
AcDbSymbolTableRecord
100
AcDbDimStyleTableRecord
  2
DIMSTYLE_1
 70
0
  3

  4

 40
1.0
 41
3.0
 42
0.5
 43
0.38
 44
1.5
 45
0.0
 46
0.0
 47
0.0
 48
0.0
140
3.0
141
0.09
142
0.0
143
25.4
144
1.0
145
0.0
146
1.0
147
0.75
 71
0
 72
0
 73
0
 74
0
 75
0
 76
0
 77
1
 78
8
 79
2
170
0
171
1
172
0
173
0
174
0
175
0
176
0
177
0
178
0
270
2
179
2
271
2
272
2
273
2
274
2
275
0
280
0
281
0
282
0
283
1
284
8
285
0
286
0
287
3
288
0
340
11
278
44
341
213
342
213
343
213
344
213
  0
ENDTAB
  0
ENDSEC
  0
SECTION
  2
BLOCKS
  0
BLOCK
  5
20
100
AcDbEntity
  8
0
100
AcDbBlockBegin
  2
*Model_Space
 70
0
 10
0.0
 20
0.0
 30
0.0
  3
*Model_Space
  1

  0
ENDBLK
  5
21
100
AcDbEntity
  8
0
100
AcDbBlockEnd
  0
BLOCK
  5
1C
100
AcDbEntity
  8
0
100
AcDbBlockBegin
  2
*Paper_Space
 70
0
 10
0.0
 20
0.0
 30
0.0
  3
*Paper_Space
  1

  0
ENDBLK
  5
1D
100
AcDbEntity
  8
0
100
AcDbBlockEnd
  0
BLOCK
  5
219
100
AcDbEntity
  8
0
100
AcDbBlockBegin
  2
_FILLED
 70
64
 10
0.0
 20
0.0
  3
_FILLED
  1

  0
SOLID
  5
21A
100
AcDbEntity
  8
0
  6
BYBLOCK
 62
0
100
AcDbTrace
 10
0.0
 20
0.0
 11
-1.0
 21
0.3166666667
 12
-1.0
 22
-0.3166666667
 13
-1.0
 23
-0.3166666667
  0
ENDBLK
  5
21B
100
AcDbEntity
  8
0
  6
BYBLOCK
 62
0
100
AcDbBlockEnd
  0
BLOCK
  5
21C
100
AcDbEntity
  8
0
100
AcDbBlockBegin
 62
7
  6
CONTINUOUS
  2
*D0
 70
65
 10
0.0
 20
0.0
  3
*D0
  1

  0
LINE
  5
21D
100
AcDbEntity
  8
0
100
AcDbLine
 62
7
  6
CONTINUOUS
 10
-20.0
 20
67.8016445583
 11
-20.0
 21
78.0
  0
LINE
  5
21E
100
AcDbEntity
  8
0
100
AcDbLine
 62
7
  6
CONTINUOUS
 10
20.0
 20
67.8016445583
 11
20.0
 21
78.0
  0
LINE
  5
21F
100
AcDbEntity
  8
0
100
AcDbLine
 62
7
  6
CONTINUOUS
 10
-20.0
 20
76.5
 11
0.0
 21
76.5
  0
LINE
  5
220
100
AcDbEntity
  8
0
100
AcDbLine
 62
7
  6
CONTINUOUS
 10
20.0
 20
76.5
 11
0.0
 21
76.5
  0
INSERT
  5
221
100
AcDbEntity
  8
0
100
AcDbBlockReference
 62
7
  6
CONTINUOUS
  2
_FILLED
 10
-20.0
 20
76.5
 41
3.0
 42
3.0
 43
3.0
 50
180.0
  0
INSERT
  5
222
100
AcDbEntity
  8
0
100
AcDbBlockReference
 62
7
  6
CONTINUOUS
  2
_FILLED
 10
20.0
 20
76.5
 41
3.0
 42
3.0
 43
3.0
  0
ENDBLK
  5
223
100
AcDbEntity
  8
0
  6
BYBLOCK
 62
0
100
AcDbBlockEnd
  0
BLOCK
  5
224
100
AcDbEntity
  8
0
100
AcDbBlockBegin
 62
7
  6
CONTINUOUS
  2
*D1
 70
65
 10
0.0
 20
0.0
  3
*D1
  1

  0
LINE
  5
225
100
AcDbEntity
  8
0
100
AcDbLine
 62
7
  6
CONTINUOUS
 10
-47.3269338684
 20
29.0
 11
-47.3269338684
 21
78.0
  0
LINE
  5
226
100
AcDbEntity
  8
0
100
AcDbLine
 62
7
  6
CONTINUOUS
 10
-38.4269338684
 20
69.0
 11
-38.4269338684
 21
78.0
  0
LINE
  5
227
100
AcDbEntity
  8
0
100
AcDbLine
 62
7
  6
CONTINUOUS
 10
-47.3269338684
 20
76.5
 11
-51.3269338684
 21
76.5
  0
LINE
  5
228
100
AcDbEntity
  8
0
100
AcDbLine
 62
7
  6
CONTINUOUS
 10
-51.3269338684
 20
76.5
 11
-42.8769338684
 21
76.5
  0
LINE
  5
229
100
AcDbEntity
  8
0
100
AcDbLine
 62
7
  6
CONTINUOUS
 10
-38.4269338684
 20
76.5
 11
-34.4269338684
 21
76.5
  0
LINE
  5
22A
100
AcDbEntity
  8
0
100
AcDbLine
 62
7
  6
CONTINUOUS
 10
-34.4269338684
 20
76.5
 11
-42.8769338684
 21
76.5
  0
INSERT
  5
22B
100
AcDbEntity
  8
0
100
AcDbBlockReference
 62
7
  6
CONTINUOUS
  2
_FILLED
 10
-47.3269338684
 20
76.5
 41
3.0
 42
3.0
 43
3.0
  0
INSERT
  5
22C
100
AcDbEntity
  8
0
100
AcDbBlockReference
 62
7
  6
CONTINUOUS
  2
_FILLED
 10
-38.4269338684
 20
76.5
 41
3.0
 42
3.0
 43
3.0
 50
180.0
  0
ENDBLK
  5
22D
100
AcDbEntity
  8
0
  6
BYBLOCK
 62
0
100
AcDbBlockEnd
  0
BLOCK
  5
22E
100
AcDbEntity
  8
0
100
AcDbBlockBegin
 62
7
  6
CONTINUOUS
  2
*D2
 70
65
 10
0.0
 20
0.0
  3
*D2
  1

  0
LINE
  5
22F
100
AcDbEntity
  8
0
100
AcDbLine
 62
7
  6
CONTINUOUS
 10
-38.9269338684
 20
68.5
 11
-56.8269338684
 21
68.5
  0
LINE
  5
230
100
AcDbEntity
  8
0
100
AcDbLine
 62
7
  6
CONTINUOUS
 10
-38.9269338684
 20
-68.5
 11
-56.8269338684
 21
-68.5
  0
LINE
  5
231
100
AcDbEntity
  8
0
100
AcDbLine
 62
7
  6
CONTINUOUS
 10
-55.3269338684
 20
68.5
 11
-55.3269338684
 21
0.0
  0
LINE
  5
232
100
AcDbEntity
  8
0
100
AcDbLine
 62
7
  6
CONTINUOUS
 10
-55.3269338684
 20
-68.5
 11
-55.3269338684
 21
0.0
  0
INSERT
  5
233
100
AcDbEntity
  8
0
100
AcDbBlockReference
 62
7
  6
CONTINUOUS
  2
_FILLED
 10
-55.3269338684
 20
68.5
 41
3.0
 42
3.0
 43
3.0
 50
90.0
  0
INSERT
  5
234
100
AcDbEntity
  8
0
100
AcDbBlockReference
 62
7
  6
CONTINUOUS
  2
_FILLED
 10
-55.3269338684
 20
-68.5
 41
3.0
 42
3.0
 43
3.0
 50
270.0
  0
ENDBLK
  5
235
100
AcDbEntity
  8
0
  6
BYBLOCK
 62
0
100
AcDbBlockEnd
  0
ENDSEC
  0
SECTION
  2
ENTITIES
  0
DIMENSION
  5
236
100
AcDbEntity
  8
0
100
AcDbDimension
 62
7
  6
CONTINUOUS
  2
*D0
 10
20.0
 20
76.5
 11
-2.3571428571
 21
76.5
 70
160
 71
2
 72
2
 41
0.9
 42
40.0
  3
DIMSTYLE_1
100
AcDbAlignedDimension
 13
-20.0
 23
67.3016445583
 14
20.0
 24
67.3016445583
100
AcDbRotatedDimension
  0
DIMENSION
  5
237
100
AcDbEntity
  8
0
100
AcDbDimension
 62
7
  6
CONTINUOUS
  2
*D1
 10
-38.4269338684
 20
76.5
 11
-46.0912195827
 21
76.5
 70
160
 71
2
 72
2
 41
0.9
 42
8.9
  3
DIMSTYLE_1
100
AcDbAlignedDimension
 13
-47.3269338684
 23
28.5
 14
-38.4269338684
 24
68.5
100
AcDbRotatedDimension
  0
DIMENSION
  5
238
100
AcDbEntity
  8
0
100
AcDbDimension
 62
7
  6
CONTINUOUS
  2
*D2
 10
-55.3269338684
 20
-68.5
 11
-55.3269338684
 21
-3.1071428571
 70
160
 71
2
 72
2
 41
0.9
 42
137.0
  3
DIMSTYLE_1
100
AcDbAlignedDimension
 13
-38.4269338684
 23
68.5
 14
-38.4269338684
 24
-68.5
 50
270.0
100
AcDbRotatedDimension
  0
LWPOLYLINE
  5
239
100
AcDbEntity
  8
RACCORDO
100
AcDbPolyline
 62
250
  6
CONTINUOUS
 90
3
 70
0
 10
19.1792649595
 20
-67.0835802744
 10
18.9667914944
 20
-67.0965177755
 10
18.8525374796
 20
-67.1010771207
  0
LWPOLYLINE
  5
23A
100
AcDbEntity
  8
RACCORDO
100
AcDbPolyline
 62
250
  6
CONTINUOUS
 90
3
 70
0
 10
18.8525374796
 20
-67.1010771207
 10
18.6136074928
 20
-67.1054158181
 10
18.4923965984
 20
-67.1082212627
  0
LINE
  5
23B
100
AcDbEntity
  8
RACCORDO
100
AcDbLine
 62
7
  6
CONTINUOUS
 10
18.8016445583
 20
-68.5
 11
3.6749773271
 21
-68.5
  0
LINE
  5
23C
100
AcDbEntity
  8
RACCORDO
100
AcDbLine
 62
7
  6
CONTINUOUS
 10
-3.6749773271
 20
-68.5
 11
-18.8016445583
 21
-68.5
  0
LINE
  5
23D
100
AcDbEntity
  8
0
100
AcDbLine
 62
7
  6
CONTINUOUS
 10
-3.5
 20
-68.3951844414
 11
3.5
 21
-68.3951844414
  0
LINE
  5
23E
100
AcDbEntity
  8
RACCORDO
100
AcDbLine
 62
250
  6
CONTINUOUS
 10
18.4923965984
 20
-68.1907520401
 11
-18.4923965984
 21
-68.1907520401
  0
LINE
  5
23F
100
AcDbEntity
  8
RACCORDO
100
AcDbLine
 62
7
  6
CONTINUOUS
 10
13.5146064275
 20
-67.1082212622
 11
-13.5145864982
 21
-67.1082212622
  0
LINE
  5
240
100
AcDbEntity
  8
RACCORDO
100
AcDbLine
 62
250
  6
CONTINUOUS
 10
18.492390646
 20
-67.1082212622
 11
13.5148927229
 21
-67.1082113777
  0
LINE
  5
241
100
AcDbEntity
  8
RACCORDO
100
AcDbLine
 62
250
  6
CONTINUOUS
 10
-13.5150201504
 20
-67.1082055012
 11
-18.4923906461
 21
-67.1082212622
  0
LWPOLYLINE
  5
242
100
AcDbEntity
  8
RACCORDO
100
AcDbPolyline
 62
7
  6
CONTINUOUS
 90
13
 70
0
 10
-13.5150201504
 20
-67.1082055012
 10
-13.5350022198
 20
-67.1079400465
 10
-13.5549215801
 20
-67.1066232786
 10
-13.5747782313
 20
-67.1042551966
 10
-13.5946892695
 20
-67.1008917266
 10
-13.6145375985
 20
-67.0964769382
 10
-13.6339719304
 20
-67.0908430434
 10
-13.6530065574
 20
-67.0839823419
 10
-13.6716271872
 20
-67.0759025229
 10
-13.6894396549
 20
-67.0664588792
 10
-13.7063125721
 20
-67.055603168
 10
-13.7223773272
 20
-67.0433836118
 10
-13.7376339202
 20
-67.0298001984
  0
LINE
  5
243
100
AcDbEntity
  8
0
100
AcDbLine
 62
7
  6
CONTINUOUS
 10
5.968046
 20
-65.000056
 11
5.337269
 21
-65.000063
  0
LINE
  5
244
100
AcDbEntity
  8
0
100
AcDbLine
 62
7
  6
CONTINUOUS
 10
1.555771
 20
-65.000063
 11
0.99575
 21
-65.00007
  0
LINE
  5
245
100
AcDbEntity
  8
0
100
AcDbLine
 62
7
  6
CONTINUOUS
 10
0.622405
 20
-65.00007
 11
0.062384
 21
-65.00007
  0
LINE
  5
246
100
AcDbEntity
  8
0
100
AcDbLine
 62
7
  6
CONTINUOUS
 10
-1.556562
 20
-65.00007
 11
-2.116583
 21
-65.00007
  0
LINE
  5
247
100
AcDbEntity
  8
0
100
AcDbLine
 62
7
  6
CONTINUOUS
 10
4.28722
 20
-65.000063
 11
3.727192
 21
-65.000063
  0
LINE
  5
248
100
AcDbEntity
  8
0
100
AcDbLine
 62
7
  6
CONTINUOUS
 10
-0.467089
 20
-65.000063
 11
-1.027096
 21
-65.00007
  0
LINE
  5
249
100
AcDbEntity
  8
0
100
AcDbLine
 62
7
  6
CONTINUOUS
 10
-2.67659
 20
-65.00007
 11
-3.236611
 21
-65.000077
  0
LINE
  5
24A
100
AcDbEntity
  8
0
100
AcDbLine
 62
7
  6
CONTINUOUS
 10
3.353847
 20
-65.00007
 11
2.793819
 21
-65.000063
  0
LINE
  5
24B
100
AcDbEntity
  8
0
100
AcDbLine
 62
7
  6
CONTINUOUS
 10
-4.50898
 20
-65.00007
 11
-5.069022
 21
-65.000077
  0
LINE
  5
24C
100
AcDbEntity
  8
0
100
AcDbLine
 62
7
  6
CONTINUOUS
 10
2.617027
 20
-64.449401
 11
1.73257
 21
-64.449401
  0
LINE
  5
24D
100
AcDbEntity
  8
0
100
AcDbLine
 62
7
  6
CONTINUOUS
 10
2.446199
 20
-63.91738
 11
1.903391
 21
-63.91738
  0
LINE
  5
24E
100
AcDbEntity
  8
0
100
AcDbLine
 62
7
  6
CONTINUOUS
 10
4.776058
 20
-63.91738
 11
4.287283
 21
-63.917373
  0
LINE
  5
24F
100
AcDbEntity
  8
0
100
AcDbLine
 62
7
  6
CONTINUOUS
 10
4.960842
 20
-63.399352
 11
4.279499
 21
-63.399352
  0
LINE
  5
250
100
AcDbEntity
  8
0
100
AcDbLine
 62
7
  6
CONTINUOUS
 10
4.960842
 20
-62.717958
 11
4.279492
 21
-62.717958
  0
LINE
  5
251
100
AcDbEntity
  8
0
100
AcDbLine
 62
7
  6
CONTINUOUS
 10
0.622405
 20
-62.199944
 11
-0.224196
 21
-62.199944
  0
LINE
  5
252
100
AcDbEntity
  8
0
100
AcDbLine
 62
7
  6
CONTINUOUS
 10
-1.269982
 20
-62.199944
 11
-2.116583
 21
-62.199944
  0
LINE
  5
253
100
AcDbEntity
  8
0
100
AcDbLine
 62
7
  6
CONTINUOUS
 10
-2.676583
 20
-62.199944
 11
-3.236604
 21
-62.199944
  0
LINE
  5
254
100
AcDbEntity
  8
0
100
AcDbLine
 62
7
  6
CONTINUOUS
 10
-3.609949
 20
-62.199944
 11
-4.169977
 21
-62.199944
  0
LINE
  5
255
100
AcDbEntity
  8
0
100
AcDbLine
 62
7
  6
CONTINUOUS
 10
-5.408018
 20
-62.199944
 11
-5.968046
 21
-62.199944
  0
LINE
  5
256
100
AcDbEntity
  8
0
100
AcDbLine
 62
7
  6
CONTINUOUS
 10
5.038572
 20
-62.199937
 11
3.727192
 21
-62.199937
  0
LINE
  5
257
100
AcDbEntity
  8
0
100
AcDbLine
 62
7
  6
CONTINUOUS
 10
2.454816
 20
-62.199937
 11
1.894767
 21
-62.199937
  0
LWPOLYLINE
  5
258
100
AcDbEntity
  8
RACCORDO
100
AcDbPolyline
 62
250
  6
CONTINUOUS
 90
35
 70
0
 10
13.7376338173
 20
-67.0298613202
 10
13.7205015627
 20
-67.02770116
 10
13.7035907453
 20
-67.0222386691
 10
13.6869045371
 20
-67.0134747376
 10
13.6703941053
 20
-67.0011932216
 10
13.6541139736
 20
-66.9856118931
 10
13.6382215846
 20
-66.9673831193
 10
13.6227619254
 20
-66.9464748044
 10
13.6076929219
 20
-66.922922025
 10
13.5930403929
 20
-66.8974785653
 10
13.5788080609
 20
-66.8701655062
 10
13.5649929961
 20
-66.8409646068
 10
13.551610404
 20
-66.8105707604
 10
13.5387056499
 20
-66.7791454325
 10
13.5262322071
 20
-66.7465299287
 10
13.5140676771
 20
-66.7129385277
 10
13.5022093639
 20
-66.678449145
 10
13.4906591878
 20
-66.6429855912
 10
13.4793028308
 20
-66.6065302735
 10
13.4681295463
 20
-66.5691072413
 10
13.4571500804
 20
-66.5306934251
 10
13.4462834738
 20
-66.4912000109
 10
13.4355222848
 20
-66.4506360026
 10
13.4248746715
 20
-66.4089929201
 10
13.4142839763
 20
-66.3661553607
 10
13.4037456318
 20
-66.3221261001
 10
13.3932655843
 20
-66.2769025928
 10
13.3828036794
 20
-66.2303612057
 10
13.372357224
 20
-66.1825013032
 10
13.3619309181
 20
-66.1333235542
 10
13.3514963059
 20
-66.0827061076
 10
13.3410519409
 20
-66.0306458428
 10
13.3306018824
 20
-65.9771457799
 10
13.320126443
 20
-65.9220931551
 10
13.3096250165
 20
-65.8654825289
  0
LWPOLYLINE
  5
259
100
AcDbEntity
  8
RACCORDO
100
AcDbPolyline
 62
250
  6
CONTINUOUS
 90
16
 70
0
 10
-19.6907520401
 20
-66.9923965978
 10
-19.6782971673
 20
-67.0040775641
 10
-19.6536964481
 20
-67.0156399308
 10
-19.6172018518
 20
-67.0269675467
 10
-19.5691871671
 20
-67.0379473198
 10
-19.510144158
 20
-67.0484674221
 10
-19.4406775256
 20
-67.0584180741
 10
-19.3614987363
 20
-67.0676968549
 10
-19.2734187366
 20
-67.0762100515
 10
-19.1773396314
 20
-67.0838704734
 10
-19.0742454442
 20
-67.0905983454
 10
-18.9651920561
 20
-67.0963252681
 10
-18.8512963894
 20
-67.1009946194
 10
-18.7337249466
 20
-67.1045579504
 10
-18.6136818647
 20
-67.1069758425
 10
-18.4923965985
 20
-67.1082212627
  0
LWPOLYLINE
  5
25A
100
AcDbEntity
  8
RACCORDO
100
AcDbPolyline
 62
250
  6
CONTINUOUS
 90
10
 70
0
 10
-19.6907520401
 20
66.9923965978
 10
-19.6783808282
 20
67.0054933333
 10
-19.6542883799
 20
67.0165329643
 10
-19.6187437667
 20
67.0264676555
 10
-19.5716563975
 20
67.0372985393
 10
-19.5129899664
 20
67.0486878842
 10
-19.4435140574
 20
67.0581751451
 10
-19.3643234258
 20
67.066968703
 10
-19.2759540178
 20
67.0762531811
 10
-19.179264955
 20
67.083580243
  0
LWPOLYLINE
  5
25B
100
AcDbEntity
  8
RACCORDO
100
AcDbPolyline
 62
7
  6
CONTINUOUS
 90
13
 70
0
 10
-13.7376339332
 20
67.0298001897
 10
-13.722161355
 20
67.0435040769
 10
-13.7059511781
 20
67.055800636
 10
-13.6890034024
 20
67.0666898796
 10
-13.6712165048
 20
67.0761081888
 10
-13.6526920084
 20
67.0841192037
 10
-13.6337344826
 20
67.0909138215
 10
-13.6143483601
 20
67.0964894801
 10
-13.5945292081
 20
67.1008487525
 10
-13.5745682979
 20
67.1041902352
 10
-13.55456272
 20
67.106580128
 10
-13.534415384
 20
67.1079522352
 10
-13.5141262898
 20
67.1083065577
  0
LINE
  5
25C
100
AcDbEntity
  8
0
100
AcDbLine
 62
7
  6
CONTINUOUS
 10
3.5
 20
68.3951844414
 11
3.6749773271
 21
68.5
  0
LINE
  5
25D
100
AcDbEntity
  8
0
100
AcDbLine
 62
7
  6
CONTINUOUS
 10
3.5
 20
-68.3951844414
 11
3.6749773271
 21
-68.5
  0
LINE
  5
25E
100
AcDbEntity
  8
RACCORDO
100
AcDbLine
 62
250
  6
CONTINUOUS
 10
11.3465766549
 20
-51.9557528124
 11
-11.3465766549
 21
-51.9557528124
  0
LWPOLYLINE
  5
25F
100
AcDbEntity
  8
RACCORDO
100
AcDbPolyline
 62
250
  6
CONTINUOUS
 90
18
 70
0
 10
-11.9783528294
 20
51.2321032131
 10
-11.9264664794
 20
51.271610139
 10
-11.8741515882
 20
51.3125505449
 10
-11.8216496086
 20
51.3541497806
 10
-11.7687190877
 20
51.3964982392
 10
-11.7176408497
 20
51.4388695891
 10
-11.6689599255
 20
51.4804623513
 10
-11.6221312841
 20
51.5214517754
 10
-11.5778006577
 20
51.5626561731
 10
-11.5357706677
 20
51.6039637926
 10
-11.4962386926
 20
51.645201925
 10
-11.4604425999
 20
51.6872696112
 10
-11.4280548684
 20
51.7304438519
 10
-11.3994030194
 20
51.774326174
 10
-11.3767074841
 20
51.818866068
 10
-11.3607084065
 20
51.8640005093
 10
-11.3506656427
 20
51.9096530995
 10
-11.3465791927
 20
51.9557528124
  0
LWPOLYLINE
  5
260
100
AcDbEntity
  8
RACCORDO
100
AcDbPolyline
 62
250
  6
CONTINUOUS
 90
9
 70
0
 10
-12.2761023731
 20
51.0191814086
 10
-12.258358952
 20
51.0306946184
 10
-12.2367114984
 20
51.045107318
 10
-12.2111732003
 20
51.0624897823
 10
-12.1817308697
 20
51.0829454853
 10
-12.1485558005
 20
51.1064717868
 10
-12.1116054192
 20
51.1330984871
 10
-12.0709222993
 20
51.1628635375
 10
-11.9783528294
 20
51.2321032131
  0
LWPOLYLINE
  5
261
100
AcDbEntity
  8
RACCORDO
100
AcDbPolyline
 62
250
  6
CONTINUOUS
 90
9
 70
0
 10
-12.5056858417
 20
50.8
 10
-12.506174605
 20
50.7997350432
 10
-12.5066704186
 20
50.799174188
 10
-12.5071732822
 20
50.7983174344
 10
-12.5076808725
 20
50.7971326015
 10
-12.5081955129
 20
50.7956518701
 10
-12.5087241743
 20
50.7939717835
 10
-12.5092662455
 20
50.7920915059
 10
-12.5104012557
 20
50.7878319358
  0
LINE
  5
262
100
AcDbEntity
  8
RACCORDO
100
AcDbLine
 62
7
  6
CONTINUOUS
 10
12.3057163027
 20
-51.0
 11
-12.3057163027
 21
-51.0
  0
LINE
  5
263
100
AcDbEntity
  8
RACCORDO
100
AcDbLine
 62
250
  6
CONTINUOUS
 10
12.5056858417
 20
-50.8
 11
12.5
 21
-50.8
  0
LINE
  5
264
100
AcDbEntity
  8
RACCORDO
100
AcDbLine
 62
250
  6
CONTINUOUS
 10
-12.5
 20
-50.8
 11
-12.5056858417
 21
-50.8
  0
LWPOLYLINE
  5
265
100
AcDbEntity
  8
RACCORDO
100
AcDbPolyline
 62
250
  6
CONTINUOUS
 90
3
 70
0
 10
-12.2980595867
 20
-51.005231269
 10
-12.3041929891
 20
-51.0012772839
 10
-12.3057163027
 20
-51.0
  0
LWPOLYLINE
  5
266
100
AcDbEntity
  8
RACCORDO
100
AcDbPolyline
 62
250
  6
CONTINUOUS
 90
9
 70
0
 10
-12.0394071272
 20
-51.1859908949
 10
-12.0859145529
 20
-51.1517135791
 10
-12.1282418434
 20
-51.1210687393
 10
-12.1655449502
 20
-51.094358908
 10
-12.1986679216
 20
-51.0711306274
 10
-12.2274250888
 20
-51.0513819083
 10
-12.2518359902
 20
-51.0350051077
 10
-12.2718810872
 20
-51.0219139579
 10
-12.2980595867
 20
-51.005231269
  0
LWPOLYLINE
  5
267
100
AcDbEntity
  8
RACCORDO
100
AcDbPolyline
 62
250
  6
CONTINUOUS
 90
4
 70
0
 10
-11.8414720294
 20
-51.338270818
 10
-11.891456395
 20
-51.2988676163
 10
-11.9421780482
 20
-51.2599500465
 10
-12.0394071272
 20
-51.1859908949
  0
LWPOLYLINE
  5
268
100
AcDbEntity
  8
RACCORDO
100
AcDbPolyline
 62
250
  6
CONTINUOUS
 90
4
 70
0
 10
-12.3057163027
 20
51.0
 10
-12.3045027264
 20
51.0011124257
 10
-12.2991742603
 20
51.0045631774
 10
-12.2761023731
 20
51.0191814086
  0
LWPOLYLINE
  5
269
100
AcDbEntity
  8
RACCORDO
100
AcDbPolyline
 62
250
  6
CONTINUOUS
 90
49
 70
0
 10
13.5146064275
 20
-67.1082212622
 10
13.4836268073
 20
-67.0844814344
 10
13.4534997471
 20
-67.0589648063
 10
13.424225247
 20
-67.0316714339
 10
13.3958021769
 20
-67.0023799668
 10
13.3682316668
 20
-66.9713118869
 10
13.3415171066
 20
-66.9391314807
 10
13.3157581259
 20
-66.9060256306
 10
13.2908550951
 20
-66.8718075477
 10
13.2665125156
 20
-66.8365809852
 10
13.2427059117
 20
-66.8003986241
 10
13.2194597591
 20
-66.7632078851
 10
13.1965519858
 20
-66.724954633
 10
13.1739590509
 20
-66.6856569451
 10
13.1517044954
 20
-66.6452968666
 10
13.1296368699
 20
-66.6037662274
 10
13.1077403135
 20
-66.5610718473
 10
13.0860306873
 20
-66.5172070592
 10
13.0644041244
 20
-66.4720434816
 10
13.0428496547
 20
-66.4255826441
 10
13.0213782483
 20
-66.3778232089
 10
12.9999189489
 20
-66.3286325173
 10
12.9784637659
 20
-66.2780089196
 10
12.9570206899
 20
-66.2259543058
 10
12.9355427354
 20
-66.172341354
 10
12.9140236815
 20
-66.1171658321
 10
12.8924697492
 20
-66.0604322709
 10
12.8708526163
 20
-66.0020265233
 10
12.8491669831
 20
-65.941941413
 10
12.8274181494
 20
-65.880184483
 10
12.8055936919
 20
-65.8166636974
 10
12.7836891473
 20
-65.751369741
 10
12.7617089789
 20
-65.6843123727
 10
12.7396541536
 20
-65.6154281996
 10
12.7175314813
 20
-65.5447442922
 10
12.6953341521
 20
-65.472234104
 10
12.6730427033
 20
-65.3977538613
 10
12.6506652138
 20
-65.3213441667
 10
12.6281936046
 20
-65.2429650599
 10
12.6055841762
 20
-65.1623520022
 10
12.5828338809
 20
-65.0795116964
 10
12.5599457663
 20
-64.9944382694
 10
12.5368852759
 20
-64.9068484355
 10
12.5136482937
 20
-64.8167436582
 10
12.4902389357
 20
-64.724123542
 10
12.4666349932
 20
-64.628702155
 10
12.4428329281
 20
-64.5304821766
 10
12.4188362785
 20
-64.429462294
 10
12.3946334501
 20
-64.3253507598
  0
LWPOLYLINE
  5
26A
100
AcDbEntity
  8
RACCORDO
100
AcDbPolyline
 62
250
  6
CONTINUOUS
 90
13
 70
0
 10
-12.5554709473
 20
54.4166512553
 10
-12.5427673248
 20
54.4435936279
 10
-12.5101932806
 20
54.4700850513
 10
-12.4582940282
 20
54.4956820998
 10
-12.3879382541
 20
54.5199563178
 10
-12.3003035845
 20
54.5425013895
 10
-12.1968568795
 20
54.5629399406
 10
-12.0793296634
 20
54.5809298587
 10
-11.9496891542
 20
54.5961700166
 10
-11.8101053509
 20
54.6084053124
 10
-11.6629146817
 20
54.6174309433
 10
-11.5105808906
 20
54.6230958325
 10
-11.3556538187
 20
54.6253051561
  0
LINE
  5
26B
100
AcDbEntity
  8
RACCORDO
100
AcDbLine
 62
250
  6
CONTINUOUS
 10
18.8016445583
 20
68.5
 11
18.4923965984
 21
68.1907520401
  0
LINE
  5
26C
100
AcDbEntity
  8
RACCORDO
100
AcDbLine
 62
250
  6
CONTINUOUS
 10
20.0
 20
67.3016445583
 11
19.6907501196
 21
66.9923946779
  0
LINE
  5
26D
100
AcDbEntity
  8
RACCORDO
100
AcDbLine
 62
250
  6
CONTINUOUS
 10
18.4923965984
 20
-68.1907520401
 11
18.8016445583
 21
-68.5
  0
LINE
  5
26E
100
AcDbEntity
  8
RACCORDO
100
AcDbLine
 62
250
  6
CONTINUOUS
 10
19.6907500769
 20
-66.9923946352
 11
20.0
 21
-67.3016445583
  0
LWPOLYLINE
  5
26F
100
AcDbEntity
  8
RACCORDO
100
AcDbPolyline
 62
250
  6
CONTINUOUS
 90
13
 70
0
 10
-12.5554700036
 20
-54.4166512563
 10
-12.5427658517
 20
-54.4435936162
 10
-12.5101913406
 20
-54.4700850048
 10
-12.4582917144
 20
-54.4956819994
 10
-12.3879356886
 20
-54.519956148
 10
-12.3003009085
 20
-54.5425011406
 10
-12.1968542378
 20
-54.5629396109
 10
-12.0793272054
 20
-54.5809294521
 10
-11.9496870228
 20
-54.5961695434
 10
-11.8101036556
 20
-54.6084047905
 10
-11.6629135022
 20
-54.6174303953
 10
-11.5105802866
 20
-54.6230952838
 10
-11.3556538187
 20
-54.6253046349
  0
LWPOLYLINE
  5
270
100
AcDbEntity
  8
RACCORDO
100
AcDbPolyline
 62
250
  6
CONTINUOUS
 90
16
 70
0
 10
-12.5463965954
 20
51.7115045964
 10
-12.5378572165
 20
51.7374841844
 10
-12.5165575056
 20
51.7629814859
 10
-12.4827196321
 20
51.7877297021
 10
-12.4366975908
 20
51.8113997074
 10
-12.3789805782
 20
51.8338063696
 10
-12.3101932997
 20
51.8549109643
 10
-12.2310765962
 20
51.8745456151
 10
-12.1424752997
 20
51.8924376103
 10
-12.0453403894
 20
51.9084150224
 10
-11.9407137647
 20
51.9223251766
 10
-11.8297167252
 20
51.9339976599
 10
-11.7135394027
 20
51.9432676194
 10
-11.5934274562
 20
51.950021623
 10
-11.4706686807
 20
51.9541986398
 10
-11.3465792764
 20
51.9557520679
  0
LINE
  5
271
100
AcDbEntity
  8
RACCORDO
100
AcDbLine
 62
250
  6
CONTINUOUS
 10
19.593168726
 20
-28.5
 11
12.5701858192
 21
-28.5
  0
LINE
  5
272
100
AcDbEntity
  8
RACCORDO
100
AcDbLine
 62
250
  6
CONTINUOUS
 10
-12.5701858192
 20
-28.5
 11
-19.593168726
 21
-28.5
  0
LWPOLYLINE
  5
273
100
AcDbEntity
  8
RACCORDO
100
AcDbPolyline
 62
250
  6
CONTINUOUS
 90
16
 70
0
 10
-12.546396596
 20
-51.7115046183
 10
-12.537846214
 20
-51.7367999282
 10
-12.5165262687
 20
-51.7618094664
 10
-12.4826653205
 20
-51.7862654546
 10
-12.4366263686
 20
-51.8098988389
 10
-12.3789029446
 20
-51.8324632601
 10
-12.3101137424
 20
-51.8537376745
 10
-12.2309960681
 20
-51.8735021562
 10
-12.1423979686
 20
-51.891536311
 10
-12.0452690585
 20
-51.9076426569
 10
-11.940650425
 20
-51.921648184
 10
-11.8296635032
 20
-51.9334031099
 10
-11.7134980058
 20
-51.9427783771
 10
-11.5933991542
 20
-51.949672485
 10
-11.4706543249
 20
-51.9540125579
 10
-11.3465792762
 20
-51.9557520592
  0
LWPOLYLINE
  5
274
100
AcDbEntity
  8
RACCORDO
100
AcDbPolyline
 62
250
  6
CONTINUOUS
 90
16
 70
0
 10
-19.6907520401
 20
-66.9923965984
 10
-19.6840167397
 20
-67.1160494198
 10
-19.6644768
 20
-67.238774014
 10
-19.6322196578
 20
-67.3592325409
 10
-19.5874194538
 20
-67.4762131594
 10
-19.5304760441
 20
-67.5882642881
 10
-19.4621391728
 20
-67.6937732056
 10
-19.3832575549
 20
-67.7914728433
 10
-19.2946221575
 20
-67.880421
 10
-19.1971734854
 20
-67.9596663792
 10
-19.0919505785
 20
-68.0283446192
 10
-18.9801198278
 20
-68.085676431
 10
-18.8629385751
 20
-68.1310111825
 10
-18.7417048863
 20
-68.1638492206
 10
-18.6177375569
 20
-68.1838357827
 10
-18.4923965984
 20
-68.1907520401
  0
LWPOLYLINE
  5
275
100
AcDbEntity
  8
RACCORDO
100
AcDbPolyline
 62
250
  6
CONTINUOUS
 90
16
 70
0
 10
-19.6907520401
 20
66.9923965984
 10
-19.683867672
 20
67.1174416927
 10
-19.6639747419
 20
67.2411215362
 10
-19.6312904422
 20
67.362085784
 10
-19.5861716221
 20
67.4790137402
 10
-19.5291108922
 20
67.5906287773
 10
-19.4607312452
 20
67.695712275
 10
-19.3817792549
 20
67.7931169244
 10
-19.2931169244
 20
67.8817792549
 10
-19.195712275
 20
67.9607312452
 10
-19.0906287773
 20
68.0291108922
 10
-18.9790137402
 20
68.0861716221
 10
-18.862085784
 20
68.1312904422
 10
-18.7411215362
 20
68.1639747419
 10
-18.6174416927
 20
68.183867672
 10
-18.4923965984
 20
68.1907520401
  0
LINE
  5
276
100
AcDbEntity
  8
RACCORDO
100
AcDbLine
 62
250
  6
CONTINUOUS
 10
-12.5104012557
 20
50.7878319358
 11
-12.5116295738
 21
50.7831272499
  0
LWPOLYLINE
  5
277
100
AcDbEntity
  8
RACCORDO
100
AcDbPolyline
 62
250
  6
CONTINUOUS
 90
23
 70
0
 10
-12.5116295738
 20
50.7831272499
 10
-12.5122837686
 20
50.7807893479
 10
-12.5129682846
 20
50.7784844762
 10
-12.5136814234
 20
50.7762441977
 10
-12.5144238875
 20
50.7743280984
 10
-12.5151947047
 20
50.7727104224
 10
-12.5159948471
 20
50.7714169257
 10
-12.5168279338
 20
50.7707844617
 10
-12.5176946185
 20
50.7707791956
 10
-12.5185942473
 20
50.7714349623
 10
-12.5195284784
 20
50.7731901197
 10
-12.5205005992
 20
50.7760379704
 10
-12.5215073222
 20
50.7799852119
 10
-12.5225404422
 20
50.7854902944
 10
-12.5236063489
 20
50.7926607555
 10
-12.5246986527
 20
50.8013890575
 10
-12.5257899799
 20
50.8118110378
 10
-12.5268788242
 20
50.8240485376
 10
-12.5279666919
 20
50.8379797155
 10
-12.5290307281
 20
50.8533748854
 10
-12.5300666816
 20
50.8702704048
 10
-12.5310788035
 20
50.8886299162
 10
-12.5320569925
 20
50.9081146599
  0
LINE
  5
278
100
AcDbEntity
  8
0
100
AcDbLine
 62
7
  6
CONTINUOUS
 10
5.337269
 20
-65.000063
 11
4.776058
 21
-63.91738
  0
LINE
  5
279
100
AcDbEntity
  8
0
100
AcDbLine
 62
7
  6
CONTINUOUS
 10
5.968046
 20
-65.000056
 11
5.3719317907
 21
-63.8500306669
  0
LINE
  5
27A
100
AcDbEntity
  8
0
100
AcDbLine
 62
7
  6
CONTINUOUS
 10
-5.069022
 20
-65.000077
 11
-5.968046
 21
-62.199944
  0
LINE
  5
27B
100
AcDbEntity
  8
0
100
AcDbLine
 62
7
  6
CONTINUOUS
 10
-4.788994
 20
-64.127982
 11
-5.408018
 21
-62.199944
  0
LWPOLYLINE
  5
27C
100
AcDbEntity
  8
RACCORDO
100
AcDbPolyline
 62
250
  6
CONTINUOUS
 90
8
 70
0
 10
-12.5092620063
 20
-50.7921062258
 10
-12.5087203758
 20
-50.7939842258
 10
-12.5081925193
 20
-50.7956611845
 10
-12.5076788401
 20
-50.7971384503
 10
-12.5071720605
 20
-50.7983205155
 10
-12.5066697546
 20
-50.7991755443
 10
-12.5061743484
 20
-50.7997353724
 10
-12.5056858417
 20
-50.8
  0
LINE
  5
27D
100
AcDbEntity
  8
RACCORDO
100
AcDbLine
 62
250
  6
CONTINUOUS
 10
-12.5103962864
 20
-50.7878507004
 11
-12.5092620063
 21
-50.7921062258
  0
LWPOLYLINE
  5
27E
100
AcDbEntity
  8
RACCORDO
100
AcDbPolyline
 62
250
  6
CONTINUOUS
 90
9
 70
0
 10
-19.5943859918
 20
32.7922754614
 10
-19.5980124945
 20
37.0809292212
 10
-19.6040482342
 20
41.3659612794
 10
-19.6124971566
 20
45.6476569402
 10
-19.6233553159
 20
49.9257308994
 10
-19.6366108755
 20
54.1993272441
 10
-19.6522598899
 20
58.4681606699
 10
-19.6703063046
 20
62.7325164811
 10
-19.6907501196
 20
66.9923946779
  0
LINE
  5
27F
100
AcDbEntity
  8
RACCORDO
100
AcDbLine
 62
7
  6
CONTINUOUS
 10
-20.0
 20
67.3016445583
 11
-20.0
 21
-67.3016445583
  0
LINE
  5
280
100
AcDbEntity
  8
RACCORDO
100
AcDbLine
 62
250
  6
CONTINUOUS
 10
-19.593168726
 20
-28.5
 11
-19.5943859918
 21
32.7922754614
  0
LINE
  5
281
100
AcDbEntity
  8
RACCORDO
100
AcDbLine
 62
250
  6
CONTINUOUS
 10
-18.4923965984
 20
68.1907520401
 11
-18.4923965984
 21
67.1082212622
  0
LINE
  5
282
100
AcDbEntity
  8
RACCORDO
100
AcDbLine
 62
250
  6
CONTINUOUS
 10
-18.4923965984
 20
-67.1082212622
 11
-18.4923965984
 21
-68.1907520401
  0
LINE
  5
283
100
AcDbEntity
  8
RACCORDO
100
AcDbLine
 62
250
  6
CONTINUOUS
 10
-18.3948132843
 20
-28.5
 11
-18.3948132843
 21
28.5
  0
LWPOLYLINE
  5
284
100
AcDbEntity
  8
RACCORDO
100
AcDbPolyline
 62
250
  6
CONTINUOUS
 90
10
 70
0
 10
-19.6907500769
 20
-66.9923946352
 10
-19.6703063414
 20
-62.7325338907
 10
-19.6522599791
 20
-58.468189632
 10
-19.63661099
 20
-54.1993618589
 10
-19.6233554174
 20
-49.9257632167
 10
-19.6124972181
 20
-45.6476810603
 10
-19.6040482622
 20
-41.3659774539
 10
-19.5980125067
 20
-37.0809397525
 10
-19.5943859946
 20
-32.7922806012
 10
-19.593168726
 20
-28.5
  0
LINE
  5
285
100
AcDbEntity
  8
0
100
AcDbLine
 62
7
  6
CONTINUOUS
 10
-1.027096
 20
-65.00007
 11
-1.556562
 21
-63.153575
  0
LWPOLYLINE
  5
286
100
AcDbEntity
  8
RACCORDO
100
AcDbPolyline
 62
250
  6
CONTINUOUS
 90
10
 70
0
 10
-12.5056858417
 20
-50.8
 10
-12.5026478532
 20
-50.8347296461
 10
-12.4936261964
 20
-50.8684040464
 10
-12.4788949912
 20
-50.9000000212
 10
-12.458901839
 20
-50.9285575432
 10
-12.4342542228
 20
-50.953208907
 10
-12.4057010494
 20
-50.9732050939
 10
-12.3741098937
 20
-50.9879385312
 10
-12.340440637
 20
-50.9969615527
 10
-12.3057163027
 20
-51.0
  0
LWPOLYLINE
  5
287
100
AcDbEntity
  8
RACCORDO
100
AcDbPolyline
 62
250
  6
CONTINUOUS
 90
15
 70
0
 10
-11.3465791921
 20
-51.9557528124
 10
-11.3503602194
 20
-51.9108971782
 10
-11.3598620165
 20
-51.8664486024
 10
-11.3750845835
 20
-51.8224730266
 10
-11.3967519223
 20
-51.7790015616
 10
-11.424140031
 20
-51.736134225
 10
-11.4550769036
 20
-51.6940346606
 10
-11.4893102382
 20
-51.6530256405
 10
-11.5270923368
 20
-51.6128872524
 10
-11.5670080991
 20
-51.573004054
 10
-11.6088453574
 20
-51.5335050075
 10
-11.6528162794
 20
-51.494463538
 10
-11.6981422674
 20
-51.455290693
 10
-11.7447697149
 20
-51.4162054424
 10
-11.8414720294
 20
-51.338270818
  0
LINE
  5
288
100
AcDbEntity
  8
RACCORDO
100
AcDbLine
 62
250
  6
CONTINUOUS
 10
-13.7376339202
 20
-67.0298001984
 11
-13.7497127756
 21
-59.0185613191
  0
LINE
  5
289
100
AcDbEntity
  8
RACCORDO
100
AcDbLine
 62
250
  6
CONTINUOUS
 10
-13.7497127756
 20
-59.0185613191
 11
-13.7589836578
 21
-50.9979836046
  0
LINE
  5
28A
100
AcDbEntity
  8
RACCORDO
100
AcDbLine
 62
250
  6
CONTINUOUS
 10
-13.7589836578
 20
-50.9979836046
 11
-13.7654473376
 21
-42.9691800423
  0
LINE
  5
28B
100
AcDbEntity
  8
RACCORDO
100
AcDbLine
 62
250
  6
CONTINUOUS
 10
-13.7654473376
 20
-42.9691800423
 11
-13.7691027207
 21
-34.9332173624
  0
LWPOLYLINE
  5
28C
100
AcDbEntity
  8
RACCORDO
100
AcDbPolyline
 62
250
  6
CONTINUOUS
 90
10
 70
0
 10
-18.3948132843
 20
28.5
 10
-18.3960289894
 20
32.8035994265
 10
-18.3996548782
 20
37.1049592658
 10
-18.4056909507
 20
41.4035829045
 10
-18.4141420401
 20
45.6990496479
 10
-18.4250033132
 20
49.9907909099
 10
-18.4382602711
 20
54.2780906567
 10
-18.4539080807
 20
58.5603839214
 10
-18.471951575
 20
62.8372564701
 10
-18.4923907541
 20
67.1082212622
  0
LINE
  5
28D
100
AcDbEntity
  8
RACCORDO
100
AcDbLine
 62
250
  6
CONTINUOUS
 10
-13.7691027207
 20
-34.9332173624
 11
-13.7700030534
 21
28.5
  0
LINE
  5
28E
100
AcDbEntity
  8
RACCORDO
100
AcDbLine
 62
250
  6
CONTINUOUS
 10
-13.7700030534
 20
28.5
 11
-13.767977724
 21
38.1483470419
  0
LINE
  5
28F
100
AcDbEntity
  8
RACCORDO
100
AcDbLine
 62
250
  6
CONTINUOUS
 10
-13.767977724
 20
38.1483470419
 11
-13.7605010548
 21
49.3927765784
  0
LINE
  5
290
100
AcDbEntity
  8
RACCORDO
100
AcDbLine
 62
250
  6
CONTINUOUS
 10
-13.7605010548
 20
49.3927765784
 11
-13.7452184702
 21
62.2241160141
  0
LINE
  5
291
100
AcDbEntity
  8
RACCORDO
100
AcDbLine
 62
250
  6
CONTINUOUS
 10
-13.7452184702
 20
62.2241160141
 11
-13.7376339332
 21
67.0298001897
  0
LWPOLYLINE
  5
292
100
AcDbEntity
  8
RACCORDO
100
AcDbPolyline
 62
250
  6
CONTINUOUS
 90
10
 70
0
 10
-18.4923906461
 20
-67.1082212622
 10
-18.4719515451
 20
-62.8372650888
 10
-18.4539081065
 20
-58.5603986316
 10
-18.4382603301
 20
-54.2781089228
 10
-18.425003375
 20
-49.9908096744
 10
-18.4141420822
 20
-45.6990663623
 10
-18.4056909744
 20
-41.4035965626
 10
-18.3996548927
 20
-37.1049693765
 10
-18.396028996
 20
-32.8036049842
 10
-18.3948132843
 20
-28.5
  0
LWPOLYLINE
  5
293
100
AcDbEntity
  8
RACCORDO
100
AcDbPolyline
 62
250
  6
CONTINUOUS
 90
10
 70
0
 10
-12.5056858417
 20
50.8
 10
-12.5026478289
 20
50.8347296767
 10
-12.4936261412
 20
50.8684041073
 10
-12.4788948982
 20
50.9000001087
 10
-12.4589016931
 20
50.9285576608
 10
-12.4342540158
 20
50.953209041
 10
-12.4057008123
 20
50.9732052063
 10
-12.3741096835
 20
50.9879385957
 10
-12.3404405062
 20
50.9969615724
 10
-12.3057163027
 20
51.0
  0
LINE
  5
294
100
AcDbEntity
  8
0
100
AcDbLine
 62
7
  6
CONTINUOUS
 10
2.446199
 20
-63.91738
 11
2.174788
 21
-63.072032
  0
LINE
  5
295
100
AcDbEntity
  8
0
100
AcDbLine
 62
7
  6
CONTINUOUS
 10
2.793819
 20
-65.000063
 11
2.617027
 21
-64.449401
  0
LINE
  5
296
100
AcDbEntity
  8
0
100
AcDbLine
 62
7
  6
CONTINUOUS
 10
3.353847
 20
-65.00007
 11
2.454816
 21
-62.199937
  0
LINE
  5
297
100
AcDbEntity
  8
0
100
AcDbLine
 62
7
  6
CONTINUOUS
 10
-0.747089
 20
-64.023486
 11
-1.269982
 21
-62.199944
  0
LWPOLYLINE
  5
298
100
AcDbEntity
  8
RACCORDO
100
AcDbPolyline
 62
250
  6
CONTINUOUS
 90
10
 70
0
 10
-12.5016845799
 20
6.2
 10
-12.4986465852
 20
6.1652703186
 10
-12.4896249105
 20
6.1315958871
 10
-12.4748936771
 20
6.0999998882
 10
-12.454900482
 20
6.0714423433
 10
-12.4302528151
 20
6.0467909705
 10
-12.4016996144
 20
6.026794806
 10
-12.3701084757
 20
6.0120614119
 10
-12.3364392772
 20
6.00303843
 10
-12.3017150409
 20
6.0
  0
LINE
  5
299
100
AcDbEntity
  8
RACCORDO
100
AcDbLine
 62
250
  6
CONTINUOUS
 10
-12.7615525482
 20
60.5726494043
 11
-12.7338785374
 21
60.1231510597
  0
LINE
  5
29A
100
AcDbEntity
  8
RACCORDO
100
AcDbLine
 62
250
  6
CONTINUOUS
 10
-12.7338785374
 20
60.1231510597
 11
-12.7067351554
 21
59.6469647066
  0
LINE
  5
29B
100
AcDbEntity
  8
RACCORDO
100
AcDbLine
 62
250
  6
CONTINUOUS
 10
-12.7067351554
 20
59.6469647066
 11
-12.6804515791
 21
59.1439326428
  0
LINE
  5
29C
100
AcDbEntity
  8
RACCORDO
100
AcDbLine
 62
250
  6
CONTINUOUS
 10
-12.6804515791
 20
59.1439326428
 11
-12.6554372931
 21
58.6151573681
  0
LINE
  5
29D
100
AcDbEntity
  8
RACCORDO
100
AcDbLine
 62
250
  6
CONTINUOUS
 10
-12.5239650679
 20
-6.0710552876
 11
-12.5260064935
 21
-6.0257615623
  0
LINE
  5
29E
100
AcDbEntity
  8
RACCORDO
100
AcDbLine
 62
250
  6
CONTINUOUS
 10
-12.5320569925
 20
50.9081146599
 11
-12.533906209
 21
50.9504252549
  0
LINE
  5
29F
100
AcDbEntity
  8
RACCORDO
100
AcDbLine
 62
250
  6
CONTINUOUS
 10
-12.6554372931
 20
58.6151573681
 11
-12.6320235781
 21
58.0596681289
  0
LINE
  5
2A0
100
AcDbEntity
  8
RACCORDO
100
AcDbLine
 62
250
  6
CONTINUOUS
 10
-12.5260064935
 20
-6.0257615623
 11
-12.5279572123
 21
-5.9746636468
  0
LINE
  5
2A1
100
AcDbEntity
  8
RACCORDO
100
AcDbLine
 62
250
  6
CONTINUOUS
 10
-12.533906209
 20
50.9504252549
 11
-12.5356129031
 21
50.9963683266
  0
LINE
  5
2A2
100
AcDbEntity
  8
RACCORDO
100
AcDbLine
 62
250
  6
CONTINUOUS
 10
-12.6320235781
 20
58.0596681289
 11
-12.6106279934
 21
57.4761328042
  0
LINE
  5
2A3
100
AcDbEntity
  8
RACCORDO
100
AcDbLine
 62
250
  6
CONTINUOUS
 10
-12.5279572123
 20
-5.9746636468
 11
-12.5298107091
 21
-5.9183447559
  0
LINE
  5
2A4
100
AcDbEntity
  8
RACCORDO
100
AcDbLine
 62
250
  6
CONTINUOUS
 10
-12.6106279934
 20
57.4761328042
 11
-12.5916883442
 21
56.8612662968
  0
LINE
  5
2A5
100
AcDbEntity
  8
RACCORDO
100
AcDbLine
 62
250
  6
CONTINUOUS
 10
-12.5356129031
 20
50.9963683266
 11
-12.5379012078
 21
51.0707650952
  0
LINE
  5
2A6
100
AcDbEntity
  8
RACCORDO
100
AcDbLine
 62
250
  6
CONTINUOUS
 10
-12.5298107091
 20
-5.9183447559
 11
-12.5323928148
 21
-5.8251402685
  0
LINE
  5
2A7
100
AcDbEntity
  8
RACCORDO
100
AcDbLine
 62
250
  6
CONTINUOUS
 10
-12.5379012078
 20
51.0707650952
 11
-12.5398645557
 21
51.1495391261
  0
LINE
  5
2A8
100
AcDbEntity
  8
RACCORDO
100
AcDbLine
 62
250
  6
CONTINUOUS
 10
-12.5916883442
 20
56.8612662968
 11
-12.5757854611
 21
56.2114521661
  0
LINE
  5
2A9
100
AcDbEntity
  8
RACCORDO
100
AcDbLine
 62
250
  6
CONTINUOUS
 10
-12.5323928148
 20
-5.8251402685
 11
-12.5354252346
 21
-5.6881469316
  0
LINE
  5
2AA
100
AcDbEntity
  8
RACCORDO
100
AcDbLine
 62
250
  6
CONTINUOUS
 10
-12.5398645557
 20
51.1495391261
 11
-12.5420007875
 21
51.2580228133
  0
LINE
  5
2AB
100
AcDbEntity
  8
RACCORDO
100
AcDbLine
 62
250
  6
CONTINUOUS
 10
-12.5757854611
 20
56.2114521661
 11
-12.5637756511
 21
55.5244112285
  0
LINE
  5
2AC
100
AcDbEntity
  8
RACCORDO
100
AcDbLine
 62
250
  6
CONTINUOUS
 10
-12.5354252346
 20
-5.6881469316
 11
-12.5384877751
 21
-5.5053585719
  0
LINE
  5
2AD
100
AcDbEntity
  8
RACCORDO
100
AcDbLine
 62
250
  6
CONTINUOUS
 10
-12.5420007875
 20
51.2580228133
 11
-12.5439998872
 21
51.3956825756
  0
LINE
  5
2AE
100
AcDbEntity
  8
RACCORDO
100
AcDbLine
 62
250
  6
CONTINUOUS
 10
-12.5384877751
 20
-5.5053585719
 11
-12.5410752959
 21
-5.2835097894
  0
LWPOLYLINE
  5
2AF
100
AcDbEntity
  8
RACCORDO
100
AcDbPolyline
 62
250
  6
CONTINUOUS
 90
3
 70
0
 10
-12.5637756511
 20
55.5244112285
 10
-12.5567044166
 20
54.7960335588
 10
-12.5456077647
 20
51.5644317141
  0
LINE
  5
2B0
100
AcDbEntity
  8
RACCORDO
100
AcDbLine
 62
250
  6
CONTINUOUS
 10
-12.5439998872
 20
51.3956825756
 11
-12.5456077647
 21
51.5644317141
  0
LINE
  5
2B1
100
AcDbEntity
  8
RACCORDO
100
AcDbLine
 62
250
  6
CONTINUOUS
 10
-12.5410752959
 20
-5.2835097894
 11
-12.5427505481
 21
-5.0368299334
  0
LINE
  5
2B2
100
AcDbEntity
  8
RACCORDO
100
AcDbLine
 62
250
  6
CONTINUOUS
 10
-11.3556538187
 20
54.6253044215
 11
-11.3465766548
 21
51.9557528124
  0
LINE
  5
2B3
100
AcDbEntity
  8
RACCORDO
100
AcDbLine
 62
250
  6
CONTINUOUS
 10
-12.5685494102
 20
-37.1467368987
 11
-12.5701858192
 21
28.5
  0
LINE
  5
2B4
100
AcDbEntity
  8
RACCORDO
100
AcDbLine
 62
250
  6
CONTINUOUS
 10
-12.5432721029
 20
4.8
 11
-12.5427505481
 21
-5.0368299334
  0
LINE
  5
2B5
100
AcDbEntity
  8
RACCORDO
100
AcDbLine
 62
7
  6
CONTINUOUS
 10
-12.5
 20
50.8
 11
-12.5
 21
6.2
  0
LINE
  5
2B6
100
AcDbEntity
  8
RACCORDO
100
AcDbLine
 62
7
  6
CONTINUOUS
 10
-12.5
 20
-6.2
 11
-12.5
 21
-50.8
  0
LINE
  5
2B7
100
AcDbEntity
  8
RACCORDO
100
AcDbLine
 62
250
  6
CONTINUOUS
 10
-11.3434548687
 20
4.8
 11
-11.3434548687
 21
-4.8
  0
LINE
  5
2B8
100
AcDbEntity
  8
RACCORDO
100
AcDbLine
 62
250
  6
CONTINUOUS
 10
-12.5701858192
 20
28.5
 11
-12.5665048879
 21
41.4674102018
  0
LINE
  5
2B9
100
AcDbEntity
  8
RACCORDO
100
AcDbLine
 62
250
  6
CONTINUOUS
 10
-12.5665048879
 20
41.4674102018
 11
-12.5570599118
 21
52.9788785252
  0
LINE
  5
2BA
100
AcDbEntity
  8
RACCORDO
100
AcDbLine
 62
250
  6
CONTINUOUS
 10
-12.5570599118
 20
52.9788785252
 11
-12.5554710522
 21
54.4166510277
  0
LINE
  5
2BB
100
AcDbEntity
  8
RACCORDO
100
AcDbLine
 62
250
  6
CONTINUOUS
 10
-12.5685494102
 20
-37.1467368987
 11
-12.5566443219
 21
-54.7849067912
  0
LINE
  5
2BC
100
AcDbEntity
  8
RACCORDO
100
AcDbLine
 62
250
  6
CONTINUOUS
 10
-11.3465766549
 20
-51.9557528124
 11
-11.3556538187
 21
-54.6253044224
  0
LINE
  5
2BD
100
AcDbEntity
  8
RACCORDO
100
AcDbLine
 62
250
  6
CONTINUOUS
 10
-12.5432721029
 20
4.8
 11
-12.5427526825
 21
5.0363445745
  0
LINE
  5
2BE
100
AcDbEntity
  8
RACCORDO
100
AcDbLine
 62
250
  6
CONTINUOUS
 10
-12.5554710522
 20
-54.4166510414
 11
-12.5456000517
 21
-51.5633784346
  0
LINE
  5
2BF
100
AcDbEntity
  8
RACCORDO
100
AcDbLine
 62
250
  6
CONTINUOUS
 10
-12.5427526825
 20
5.0363445745
 11
-12.5410780914
 21
5.2831951202
  0
LWPOLYLINE
  5
2C0
100
AcDbEntity
  8
RACCORDO
100
AcDbPolyline
 62
250
  6
CONTINUOUS
 90
17
 70
0
 10
-11.3556538187
 20
-54.6253044224
 10
-11.3589397077
 20
-54.990092118
 10
-11.3645492329
 20
-55.3450856285
 10
-11.3724823944
 20
-55.6902587253
 10
-11.3829825927
 20
-56.0252651934
 10
-11.3958064272
 20
-56.3504028808
 10
-11.4102236962
 20
-56.6666154999
 10
-11.4261546743
 20
-56.9738582359
 10
-11.4436790869
 20
-57.2721388979
 10
-11.4623059073
 20
-57.5624850122
 10
-11.4819795531
 20
-57.8448863177
 10
-11.5027556068
 20
-58.1193249118
 10
-11.5243097894
 20
-58.3868209468
 10
-11.5466238298
 20
-58.647569661
 10
-11.5697159991
 20
-58.9013546304
 10
-11.5933168319
 20
-59.1485811774
 10
-11.6174299602
 20
-59.3894417848
  0
LINE
  5
2C1
100
AcDbEntity
  8
RACCORDO
100
AcDbLine
 62
250
  6
CONTINUOUS
 10
-12.5566443219
 20
-54.7849067912
 11
-12.5633273036
 21
-55.4914400697
  0
LINE
  5
2C2
100
AcDbEntity
  8
RACCORDO
100
AcDbLine
 62
250
  6
CONTINUOUS
 10
-12.5456000517
 20
-51.5633784346
 11
-12.5439773383
 21
-51.3938274799
  0
LINE
  5
2C3
100
AcDbEntity
  8
RACCORDO
100
AcDbLine
 62
250
  6
CONTINUOUS
 10
-12.5410780914
 20
5.2831951202
 11
-12.5384896687
 21
5.5052128241
  0
LINE
  5
2C4
100
AcDbEntity
  8
RACCORDO
100
AcDbLine
 62
250
  6
CONTINUOUS
 10
-12.5439773383
 20
-51.3938274799
 11
-12.5419725282
 21
-51.2563658226
  0
LINE
  5
2C5
100
AcDbEntity
  8
RACCORDO
100
AcDbLine
 62
250
  6
CONTINUOUS
 10
-12.5633273036
 20
-55.4914400697
 11
-12.5746573448
 21
-56.1573149044
  0
LINE
  5
2C6
100
AcDbEntity
  8
RACCORDO
100
AcDbLine
 62
250
  6
CONTINUOUS
 10
-12.5384896687
 20
5.5052128241
 11
-12.5354262134
 21
5.6880917406
  0
LINE
  5
2C7
100
AcDbEntity
  8
RACCORDO
100
AcDbLine
 62
250
  6
CONTINUOUS
 10
-12.5419725282
 20
-51.2563658226
 11
-12.5398343926
 21
-51.1481836823
  0
LINE
  5
2C8
100
AcDbEntity
  8
RACCORDO
100
AcDbLine
 62
250
  6
CONTINUOUS
 10
-12.5354262134
 20
5.6880917406
 11
-12.5323913812
 21
5.8251939649
  0
LINE
  5
2C9
100
AcDbEntity
  8
RACCORDO
100
AcDbLine
 62
250
  6
CONTINUOUS
 10
-12.5746573448
 20
-56.1573149044
 11
-12.5896247974
 21
-56.7859214238
  0
LINE
  5
2CA
100
AcDbEntity
  8
RACCORDO
100
AcDbLine
 62
250
  6
CONTINUOUS
 10
-12.5398343926
 20
-51.1481836823
 11
-12.5378679375
 21
-51.0695516733
  0
LINE
  5
2CB
100
AcDbEntity
  8
RACCORDO
100
AcDbLine
 62
250
  6
CONTINUOUS
 10
-12.5323913812
 20
5.8251939649
 11
-12.5298089586
 21
5.9184022242
  0
LINE
  5
2CC
100
AcDbEntity
  8
RACCORDO
100
AcDbLine
 62
250
  6
CONTINUOUS
 10
-12.5378679375
 20
-51.0695516733
 11
-12.5363772964
 21
-51.0194963813
  0
LINE
  5
2CD
100
AcDbEntity
  8
RACCORDO
100
AcDbLine
 62
250
  6
CONTINUOUS
 10
-12.5896247974
 20
-56.7859214238
 11
-12.6073938594
 21
-57.3791988711
  0
LINE
  5
2CE
100
AcDbEntity
  8
RACCORDO
100
AcDbLine
 62
250
  6
CONTINUOUS
 10
-12.5298089586
 20
5.9184022242
 11
-12.5279558135
 21
5.9747047252
  0
LINE
  5
2CF
100
AcDbEntity
  8
RACCORDO
100
AcDbLine
 62
250
  6
CONTINUOUS
 10
-12.5363772964
 20
-51.0194963813
 11
-12.5347431202
 21
-50.9720390795
  0
LINE
  5
2D0
100
AcDbEntity
  8
RACCORDO
100
AcDbLine
 62
250
  6
CONTINUOUS
 10
-12.6073938594
 20
-57.3791988711
 11
-12.6273776273
 21
-57.9402528238
  0
LINE
  5
2D1
100
AcDbEntity
  8
RACCORDO
100
AcDbLine
 62
250
  6
CONTINUOUS
 10
-12.5279558135
 20
5.9747047252
 11
-12.5260046573
 21
6.025805507
  0
LWPOLYLINE
  5
2D2
100
AcDbEntity
  8
RACCORDO
100
AcDbPolyline
 62
250
  6
CONTINUOUS
 90
26
 70
0
 10
-12.5347431202
 20
-50.9720390795
 10
-12.5329653199
 20
-50.9279383911
 10
-12.532023898
 20
-50.9074188214
 10
-12.5310442132
 20
-50.8879761233
 10
-12.5300298798
 20
-50.8696436057
 10
-12.5289928388
 20
-50.852790188
 10
-12.5279297399
 20
-50.8374694295
 10
-12.5268439334
 20
-50.8236277709
 10
-12.5257574108
 20
-50.8114734537
 10
-12.5246687704
 20
-50.8011228092
 10
-12.5235794139
 20
-50.7924595061
 10
-12.5225155381
 20
-50.7853427913
 10
-12.5214825583
 20
-50.7798756076
 10
-12.5204750592
 20
-50.7759550122
 10
-12.519502992
 20
-50.7731314235
 10
-12.5185706072
 20
-50.7714018251
 10
-12.5176736544
 20
-50.7707692334
 10
-12.5168093332
 20
-50.7707931154
 10
-12.5159777062
 20
-50.7714386779
 10
-12.5151787108
 20
-50.7727407142
 10
-12.5144093591
 20
-50.7743630716
 10
-12.5136691551
 20
-50.7762789197
 10
-12.5129585949
 20
-50.778515089
 10
-12.5122761779
 20
-50.7808159178
 10
-12.5116232304
 20
-50.7831511189
 10
-12.5103962864
 20
-50.7878507004
  0
LINE
  5
2D3
100
AcDbEntity
  8
RACCORDO
100
AcDbLine
 62
250
  6
CONTINUOUS
 10
-12.6273776273
 20
-57.9402528238
 11
-12.6491362951
 21
-58.472322245
  0
LWPOLYLINE
  5
2D4
100
AcDbEntity
  8
RACCORDO
100
AcDbPolyline
 62
250
  6
CONTINUOUS
 90
23
 70
0
 10
-12.5260046573
 20
6.025805507
 10
-12.5239582959
 20
6.0711865658
 10
-12.5229156124
 20
6.0914242361
 10
-12.521861008
 20
6.1098770241
 10
-12.5207979338
 20
6.1265994371
 10
-12.5197503395
 20
6.14146959
 10
-12.5187229763
 20
6.154339122
 10
-12.5177110931
 20
6.165356394
 10
-12.5167243854
 20
6.1748446038
 10
-12.51576508
 20
6.182774232
 10
-12.5148309501
 20
6.1891747981
 10
-12.5139250119
 20
6.1944580586
 10
-12.5130498897
 20
6.1986337081
 10
-12.5122029591
 20
6.2016920521
 10
-12.5113793629
 20
6.204015763
 10
-12.5105772295
 20
6.2056321521
 10
-12.5097984305
 20
6.2065139081
 10
-12.5090437238
 20
6.2069617702
 10
-12.5083129526
 20
6.2069896259
 10
-12.5076062737
 20
6.2065835877
 10
-12.506924915
 20
6.2060027319
 10
-12.5062716488
 20
6.2052708647
 10
-12.5056437027
 20
6.20436418
  0
LINE
  5
2D5
100
AcDbEntity
  8
RACCORDO
100
AcDbLine
 62
250
  6
CONTINUOUS
 10
-12.6491362951
 20
-58.472322245
 11
-12.6722555279
 21
-58.9768009714
  0
LINE
  5
2D6
100
AcDbEntity
  8
RACCORDO
100
AcDbLine
 62
250
  6
CONTINUOUS
 10
-12.6722555279
 20
-58.9768009714
 11
-12.696419848
 21
-59.4550384679
  0
LINE
  5
2D7
100
AcDbEntity
  8
RACCORDO
100
AcDbLine
 62
250
  6
CONTINUOUS
 10
-12.696419848
 20
-59.4550384679
 11
-12.7337360105
 21
-60.1207943697
  0
LINE
  5
2D8
100
AcDbEntity
  8
RACCORDO
100
AcDbLine
 62
250
  6
CONTINUOUS
 10
-12.7337360105
 20
-60.1207943697
 11
-12.7589196311
 21
-60.5312446812
  0
LWPOLYLINE
  5
2D9
100
AcDbEntity
  8
RACCORDO
100
AcDbPolyline
 62
250
  6
CONTINUOUS
 90
10
 70
0
 10
-12.5016845799
 20
-6.2
 10
-12.4986465784
 20
-6.1652703664
 10
-12.4896249156
 20
-6.1315959744
 10
-12.4748937094
 20
-6.1000000034
 10
-12.4549005596
 20
-6.0714424809
 10
-12.4302529473
 20
-6.0467911132
 10
-12.4016997782
 20
-6.0267949202
 10
-12.3701086262
 20
-6.0120614763
 10
-12.3364393725
 20
-6.0030384495
 10
-12.3017150409
 20
-6.0
  0
LWPOLYLINE
  5
2DA
100
AcDbEntity
  8
RACCORDO
100
AcDbPolyline
 62
250
  6
CONTINUOUS
 90
14
 70
0
 10
-11.3434548688
 20
-4.8
 10
-11.3484888498
 20
-4.8553090584
 10
-11.3599207388
 20
-4.9108919019
 10
-11.3777505359
 20
-4.9666249067
 10
-11.4028394673
 20
-5.0223508283
 10
-11.4343263066
 20
-5.0779666505
 10
-11.4696273757
 20
-5.1334209181
 10
-11.508404243
 20
-5.1882843686
 10
-11.55099534
 20
-5.2427031186
 10
-11.5958322829
 20
-5.2974290079
 10
-11.6426937365
 20
-5.3522056103
 10
-11.691801036
 20
-5.4068312518
 10
-11.7422498032
 20
-5.4619766625
 10
-11.7940781143
 20
-5.5172287032
  0
LINE
  5
2DB
100
AcDbEntity
  8
RACCORDO
100
AcDbLine
 62
250
  6
CONTINUOUS
 10
-13.0476026837
 20
63.972161795
 11
-13.0219711979
 21
63.7336905362
  0
LINE
  5
2DC
100
AcDbEntity
  8
RACCORDO
100
AcDbLine
 62
250
  6
CONTINUOUS
 10
-13.0219711979
 20
63.7336905362
 11
-12.9958949619
 21
63.4801065438
  0
LINE
  5
2DD
100
AcDbEntity
  8
RACCORDO
100
AcDbLine
 62
250
  6
CONTINUOUS
 10
-12.9958949619
 20
63.4801065438
 11
-12.9694042991
 21
63.2106958111
  0
LINE
  5
2DE
100
AcDbEntity
  8
RACCORDO
100
AcDbLine
 62
250
  6
CONTINUOUS
 10
-12.9694042991
 20
63.2106958111
 11
-12.928921805
 21
62.7744562822
  0
LINE
  5
2DF
100
AcDbEntity
  8
RACCORDO
100
AcDbLine
 62
250
  6
CONTINUOUS
 10
-12.928921805
 20
62.7744562822
 11
-12.8876563122
 21
62.2965054157
  0
LINE
  5
2E0
100
AcDbEntity
  8
RACCORDO
100
AcDbLine
 62
250
  6
CONTINUOUS
 10
-12.8876563122
 20
62.2965054157
 11
-12.8457894411
 21
61.7728887882
  0
LINE
  5
2E1
100
AcDbEntity
  8
RACCORDO
100
AcDbLine
 62
250
  6
CONTINUOUS
 10
-12.8457894411
 20
61.7728887882
 11
-12.8036100256
 21
61.199564311
  0
LINE
  5
2E2
100
AcDbEntity
  8
RACCORDO
100
AcDbLine
 62
250
  6
CONTINUOUS
 10
-12.8036100256
 20
61.199564311
 11
-12.7615525482
 21
60.5726494043
  0
LINE
  5
2E3
100
AcDbEntity
  8
RACCORDO
100
AcDbLine
 62
250
  6
CONTINUOUS
 10
-12.7589196311
 20
-60.5312446812
 11
-12.7966189855
 21
-61.0994834487
  0
LINE
  5
2E4
100
AcDbEntity
  8
RACCORDO
100
AcDbLine
 62
250
  6
CONTINUOUS
 10
-12.7966189855
 20
-61.0994834487
 11
-12.8337745117
 21
-61.6145986378
  0
LINE
  5
2E5
100
AcDbEntity
  8
RACCORDO
100
AcDbLine
 62
250
  6
CONTINUOUS
 10
-12.8337745117
 20
-61.6145986378
 11
-12.8699957396
 21
-62.0806980491
  0
LINE
  5
2E6
100
AcDbEntity
  8
RACCORDO
100
AcDbLine
 62
250
  6
CONTINUOUS
 10
-12.8699957396
 20
-62.0806980491
 11
-12.9050205345
 21
-62.5019660698
  0
LINE
  5
2E7
100
AcDbEntity
  8
RACCORDO
100
AcDbLine
 62
250
  6
CONTINUOUS
 10
-12.9050205345
 20
-62.5019660698
 11
-12.9386956696
 21
-62.8826235619
  0
LINE
  5
2E8
100
AcDbEntity
  8
RACCORDO
100
AcDbLine
 62
250
  6
CONTINUOUS
 10
-12.9386956696
 20
-62.8826235619
 11
-12.9709631293
 21
-63.2269044632
  0
LINE
  5
2E9
100
AcDbEntity
  8
RACCORDO
100
AcDbLine
 62
250
  6
CONTINUOUS
 10
-12.9709631293
 20
-63.2269044632
 11
-13.0018506274
 21
-63.539040526
  0
LINE
  5
2EA
100
AcDbEntity
  8
RACCORDO
100
AcDbLine
 62
250
  6
CONTINUOUS
 10
-13.0018506274
 20
-63.539040526
 11
-13.0314654553
 21
-63.8232516183
  0
LWPOLYLINE
  5
2EB
100
AcDbEntity
  8
RACCORDO
100
AcDbPolyline
 62
250
  6
CONTINUOUS
 90
3
 70
0
 10
-11.6174299602
 20
-59.3894417848
 10
-11.6669018466
 20
-59.8512396568
 10
-11.6919477863
 20
-60.0717843529
  0
LINE
  5
2EC
100
AcDbEntity
  8
RACCORDO
100
AcDbLine
 62
250
  6
CONTINUOUS
 10
-13.0314654553
 20
-63.8232516183
 11
-13.0599910849
 21
-64.0837396743
  0
LINE
  5
2ED
100
AcDbEntity
  8
RACCORDO
100
AcDbLine
 62
250
  6
CONTINUOUS
 10
-13.0599910849
 20
-64.0837396743
 11
-13.0876863026
 21
-64.3246847448
  0
LINE
  5
2EE
100
AcDbEntity
  8
RACCORDO
100
AcDbLine
 62
250
  6
CONTINUOUS
 10
-11.6919477863
 20
-60.0717843529
 11
-11.7425415863
 21
-60.4928810371
  0
LINE
  5
2EF
100
AcDbEntity
  8
RACCORDO
100
AcDbLine
 62
250
  6
CONTINUOUS
 10
-13.0876863026
 20
-64.3246847448
 11
-13.1148870816
 21
-64.5502417834
  0
LINE
  5
2F0
100
AcDbEntity
  8
RACCORDO
100
AcDbLine
 62
250
  6
CONTINUOUS
 10
-13.1148870816
 20
-64.5502417834
 11
-13.1420119302
 21
-64.7645363495
  0
LINE
  5
2F1
100
AcDbEntity
  8
RACCORDO
100
AcDbLine
 62
250
  6
CONTINUOUS
 10
-13.1420119302
 20
-64.7645363495
 11
-13.1602953282
 21
-64.9031142704
  0
LINE
  5
2F2
100
AcDbEntity
  8
RACCORDO
100
AcDbLine
 62
250
  6
CONTINUOUS
 10
-13.1602953282
 20
-64.9031142704
 11
-13.1789439568
 21
-65.0397165509
  0
LWPOLYLINE
  5
2F3
100
AcDbEntity
  8
RACCORDO
100
AcDbPolyline
 62
250
  6
CONTINUOUS
 90
39
 70
0
 10
12.5321046629
 20
64.8884661043
 10
12.5706993334
 20
65.0346486354
 10
12.5902769978
 20
65.1068120085
 10
12.6100770693
 20
65.1785108149
 10
12.630109927
 20
65.2497397351
 10
12.650544409
 20
65.3209300617
 10
12.6714030486
 20
65.392200533
 10
12.6926633125
 20
65.4634323206
 10
12.7144264379
 20
65.5347004353
 10
12.7367436032
 20
65.6061830245
 10
12.7595636299
 20
65.677701874
 10
12.7828342205
 20
65.7487974041
 10
12.8065781445
 20
65.819517224
 10
12.8307726323
 20
65.8898135385
 10
12.8552970775
 20
65.9590835382
 10
12.8801593621
 20
66.0273108907
 10
12.9053516042
 20
66.0945116201
 10
12.9307295508
 20
66.1601313319
 10
12.956303369
 20
66.2241468325
 10
12.9820628919
 20
66.2865809329
 10
13.0078333658
 20
66.3469481555
 10
13.0335600849
 20
66.4050928401
 10
13.059297755
 20
66.4611702288
 10
13.0850357403
 20
66.5151611676
 10
13.1106877033
 20
66.5669299904
 10
13.1363399815
 20
66.6166120117
 10
13.1622409511
 20
66.6645945888
 10
13.1883387534
 20
66.7108891372
 10
13.2146852472
 20
66.7554840011
 10
13.241684385
 20
66.7987319876
 10
13.2693570176
 20
66.8408220001
 10
13.2976822942
 20
66.8815649746
 10
13.3270016144
 20
66.9207467824
 10
13.357737076
 20
66.9588292637
 10
13.3894665811
 20
66.9953504287
 10
13.421265236
 20
67.0287103285
 10
13.4528247428
 20
67.0583755336
 10
13.4844533993
 20
67.0848792121
 10
13.5161512056
 20
67.1082212622
  0
LWPOLYLINE
  5
2F4
100
AcDbEntity
  8
RACCORDO
100
AcDbPolyline
 62
250
  6
CONTINUOUS
 90
23
 70
0
 10
-12.505036911
 20
-6.2034750911
 10
-12.505646444
 20
-6.2043686147
 10
-12.5062740171
 20
-6.2052744586
 10
-12.5069272316
 20
-6.2060053016
 10
-12.507609404
 20
-6.2065847919
 10
-12.5083172179
 20
-6.2069892814
 10
-12.5090483255
 20
-6.2069605044
 10
-12.5098016646
 20
-6.2065133037
 10
-12.5105782974
 20
-6.2056328366
 10
-12.5113790624
 20
-6.2040163101
 10
-12.5122028323
 20
-6.2016909553
 10
-12.5130507344
 20
-6.198629541
 10
-12.5139269891
 20
-6.1944475809
 10
-12.514834042
 20
-6.1891546248
 10
-12.5157694476
 20
-6.1827411228
 10
-12.5167300887
 20
-6.1747939391
 10
-12.5177183742
 20
-6.1652797277
 10
-12.5187318952
 20
-6.1542318346
 10
-12.5197603085
 20
-6.1413371616
 10
-12.5208081792
 20
-6.1264468606
 10
-12.5218709421
 20
-6.1097097796
 10
-12.5229245589
 20
-6.0912593647
 10
-12.5239650679
 20
-6.0710552876
  0
LWPOLYLINE
  5
2F5
100
AcDbEntity
  8
RACCORDO
100
AcDbPolyline
 62
250
  6
CONTINUOUS
 90
11
 70
0
 10
-11.7940781143
 20
-5.5172287032
 10
-11.9007405328
 20
-5.6272840821
 10
-11.9553901489
 20
-5.6826476439
 10
-12.010362626
 20
-5.7365781481
 10
-12.0621370118
 20
-5.7868479864
 10
-12.1103748065
 20
-5.8330910487
 10
-12.1554145098
 20
-5.8746777429
 10
-12.1947506686
 20
-5.9099479247
 10
-12.2277061776
 20
-5.9387626401
 10
-12.254958142
 20
-5.9617268767
 10
-12.2760324243
 20
-5.9790070068
  0
LINE
  5
2F6
100
AcDbEntity
  8
RACCORDO
100
AcDbLine
 62
250
  6
CONTINUOUS
 10
-12.5016845799
 20
-6.2
 11
-12.5
 21
-6.2
  0
LINE
  5
2F7
100
AcDbEntity
  8
RACCORDO
100
AcDbLine
 62
250
  6
CONTINUOUS
 10
12.5
 20
-6.2
 11
12.5016845799
 21
-6.2
  0
LINE
  5
2F8
100
AcDbEntity
  8
RACCORDO
100
AcDbLine
 62
7
  6
CONTINUOUS
 10
-12.3017150409
 20
-6.0
 11
12.3017150409
 21
-6.0
  0
LINE
  5
2F9
100
AcDbEntity
  8
RACCORDO
100
AcDbLine
 62
250
  6
CONTINUOUS
 10
12.5432721029
 20
-4.8
 11
-12.5432721029
 21
-4.8
  0
LWPOLYLINE
  5
2FA
100
AcDbEntity
  8
RACCORDO
100
AcDbPolyline
 62
250
  6
CONTINUOUS
 90
15
 70
0
 10
-11.8971003153
 20
5.6235911926
 10
-11.7886791705
 20
5.5115255748
 10
-11.7364153986
 20
5.4556893145
 10
-11.6859034953
 20
5.4002753337
 10
-11.6370455137
 20
5.3457130743
 10
-11.5906157779
 20
5.2911971742
 10
-11.5464154458
 20
5.2369318007
 10
-11.5046433595
 20
5.1831819015
 10
-11.4666703695
 20
5.1290483541
 10
-11.4321349179
 20
5.0743551193
 10
-11.4013985624
 20
5.0195511543
 10
-11.3769168274
 20
4.9646062519
 10
-11.3595082208
 20
4.9095912075
 10
-11.3483542345
 20
4.8546828853
 10
-11.3434548687
 20
4.8
  0
LWPOLYLINE
  5
2FB
100
AcDbEntity
  8
RACCORDO
100
AcDbPolyline
 62
250
  6
CONTINUOUS
 90
7
 70
0
 10
-12.5050339881
 20
6.2034703361
 10
-12.504442357
 20
6.2026056728
 10
-12.5038689573
 20
6.2017538503
 10
-12.5033071442
 20
6.2010535079
 10
-12.5027547028
 20
6.2005508586
 10
-12.502213848
 20
6.2001996893
 10
-12.5016845799
 20
6.2
  0
LINE
  5
2FC
100
AcDbEntity
  8
RACCORDO
100
AcDbLine
 62
250
  6
CONTINUOUS
 10
-13.181173182
 20
65.0556894453
 11
-13.1577208478
 21
64.8838815023
  0
LINE
  5
2FD
100
AcDbEntity
  8
RACCORDO
100
AcDbLine
 62
250
  6
CONTINUOUS
 10
-13.1577208478
 20
64.8838815023
 11
-13.133942707
 21
64.701885203
  0
LINE
  5
2FE
100
AcDbEntity
  8
RACCORDO
100
AcDbLine
 62
250
  6
CONTINUOUS
 10
-13.133942707
 20
64.701885203
 11
-13.1097852229
 21
64.5087411215
  0
LINE
  5
2FF
100
AcDbEntity
  8
RACCORDO
100
AcDbLine
 62
250
  6
CONTINUOUS
 10
-13.1097852229
 20
64.5087411215
 11
-13.0852344771
 21
64.3038070868
  0
LWPOLYLINE
  5
300
100
AcDbEntity
  8
RACCORDO
100
AcDbPolyline
 62
250
  6
CONTINUOUS
 90
3
 70
0
 10
-13.0852344771
 20
64.3038070868
 10
-13.0602585323
 20
64.0861205551
 10
-13.0476026837
 20
63.972161795
  0
LINE
  5
301
100
AcDbEntity
  8
0
100
AcDbLine
 62
7
  6
CONTINUOUS
 10
-3.236611
 20
-65.000077
 11
-3.236604
 21
-62.199944
  0
LINE
  5
302
100
AcDbEntity
  8
0
100
AcDbLine
 62
7
  6
CONTINUOUS
 10
-2.67659
 20
-65.00007
 11
-2.676583
 21
-62.199944
  0
LINE
  5
303
100
AcDbEntity
  8
0
100
AcDbLine
 62
7
  6
CONTINUOUS
 10
-2.116583
 20
-65.00007
 11
-2.116583
 21
-62.199944
  0
LINE
  5
304
100
AcDbEntity
  8
0
100
AcDbLine
 62
7
  6
CONTINUOUS
 10
-1.556562
 20
-65.00007
 11
-1.556562
 21
-63.153575
  0
LWPOLYLINE
  5
305
100
AcDbEntity
  8
0
100
AcDbPolyline
 62
7
  6
CONTINUOUS
 90
2
 70
0
 43
0.3500000006
 10
-1.3571429071
 20
77.2499960632
 10
-1.3571429071
 20
78.749996521
  0
LWPOLYLINE
  5
306
100
AcDbEntity
  8
0
100
AcDbPolyline
 62
7
  6
CONTINUOUS
 90
13
 70
0
 43
0.3500000006
 10
0.0
 20
78.1071430664
 10
0.0
 20
79.3928590393
 10
0.2142857063
 20
79.821428009
 10
0.6428571367
 20
80.2499969788
 10
0.8571428254
 20
80.2499969788
 10
1.2857142735
 20
79.821428009
 10
1.5000000329
 20
79.3928590393
 10
1.5000000329
 20
78.1071430664
 10
1.2857142735
 20
77.6785740967
 10
0.8571428254
 20
77.2499960632
 10
0.6428571367
 20
77.2499960632
 10
0.2142857063
 20
77.6785740967
 10
0.0
 20
78.1071430664
  0
LINE
  5
307
100
AcDbEntity
  8
0
100
AcDbLine
 62
7
  6
CONTINUOUS
 10
0.062384
 20
-65.00007
 11
0.062377
 21
-63.153575
  0
LINE
  5
308
100
AcDbEntity
  8
0
100
AcDbLine
 62
7
  6
CONTINUOUS
 10
0.622405
 20
-65.00007
 11
0.622405
 21
-62.199944
  0
LINE
  5
309
100
AcDbEntity
  8
RACCORDO
100
AcDbLine
 62
250
  6
CONTINUOUS
 10
-11.7425415863
 20
-60.4928810371
 11
-11.7932830484
 21
-60.888231007
  0
LINE
  5
30A
100
AcDbEntity
  8
RACCORDO
100
AcDbLine
 62
250
  6
CONTINUOUS
 10
-11.7932830484
 20
-60.888231007
 11
-11.8437961563
 21
-61.2591897588
  0
LINE
  5
30B
100
AcDbEntity
  8
RACCORDO
100
AcDbLine
 62
250
  6
CONTINUOUS
 10
-13.1789439568
 20
-65.0397165509
 11
-13.1982033101
 21
-65.1757212114
  0
LINE
  5
30C
100
AcDbEntity
  8
RACCORDO
100
AcDbLine
 62
250
  6
CONTINUOUS
 10
-11.8437961563
 20
-61.2591897588
 11
-11.8938512501
 21
-61.6066269242
  0
LINE
  5
30D
100
AcDbEntity
  8
RACCORDO
100
AcDbLine
 62
250
  6
CONTINUOUS
 10
-13.1982033101
 20
-65.1757212114
 11
-13.2182299304
 21
-65.3118519237
  0
LINE
  5
30E
100
AcDbEntity
  8
RACCORDO
100
AcDbLine
 62
250
  6
CONTINUOUS
 10
-11.8938512501
 20
-61.6066269242
 11
-11.9431489938
 21
-61.9318773462
  0
LINE
  5
30F
100
AcDbEntity
  8
RACCORDO
100
AcDbLine
 62
250
  6
CONTINUOUS
 10
-13.2182299304
 20
-65.3118519237
 11
-13.239304099
 21
-65.4493233601
  0
LINE
  5
310
100
AcDbEntity
  8
RACCORDO
100
AcDbLine
 62
250
  6
CONTINUOUS
 10
-11.9431489938
 20
-61.9318773462
 11
-11.9914995878
 21
-62.2363082971
  0
LINE
  5
311
100
AcDbEntity
  8
RACCORDO
100
AcDbLine
 62
250
  6
CONTINUOUS
 10
-13.239304099
 20
-65.4493233601
 11
-13.2613500189
 21
-65.5867215779
  0
LINE
  5
312
100
AcDbEntity
  8
RACCORDO
100
AcDbLine
 62
250
  6
CONTINUOUS
 10
-11.9914995878
 20
-62.2363082971
 11
-12.0387940913
 21
-62.5208275978
  0
LWPOLYLINE
  5
313
100
AcDbEntity
  8
RACCORDO
100
AcDbPolyline
 62
250
  6
CONTINUOUS
 90
35
 70
0
 10
-13.2613500189
 20
-65.5867215779
 10
-13.2843060463
 20
-65.7230980732
 10
-13.2960604017
 20
-65.7902011503
 10
-13.3079974846
 20
-65.8565856082
 10
-13.320049798
 20
-65.9216863235
 10
-13.3322224233
 20
-65.9854942471
 10
-13.3445089979
 20
-66.0480178476
 10
-13.3568229309
 20
-66.1087187268
 10
-13.3691554619
 20
-66.1675192811
 10
-13.3815118631
 20
-66.2244970744
 10
-13.3938249309
 20
-66.2793469145
 10
-13.4060522403
 20
-66.3318880828
 10
-13.4182314034
 20
-66.3823017387
 10
-13.4304151826
 20
-66.4308255467
 10
-13.4425851328
 20
-66.4774381914
 10
-13.4547563095
 20
-66.5221610851
 10
-13.4670330831
 20
-66.5652955177
 10
-13.4794050136
 20
-66.6068807916
 10
-13.4918807828
 20
-66.6468770756
 10
-13.5045951387
 20
-66.6854662436
 10
-13.5175701178
 20
-66.7227840353
 10
-13.5307834046
 20
-66.7586932612
 10
-13.5443043819
 20
-66.7929657572
 10
-13.5581254219
 20
-66.8256476358
 10
-13.5722536166
 20
-66.8566908497
 10
-13.5867810366
 20
-66.8857254339
 10
-13.6017341129
 20
-66.9128613545
 10
-13.6170854607
 20
-66.9379858254
 10
-13.6328464983
 20
-66.9603943473
 10
-13.6489574561
 20
-66.9800898014
 10
-13.6654749779
 20
-66.9970663961
 10
-13.6825850938
 20
-67.010605786
 10
-13.7003483469
 20
-67.0204665567
 10
-13.718699152
 20
-67.026885052
 10
-13.7376338217
 20
-67.0298587049
  0
LINE
  5
314
100
AcDbEntity
  8
RACCORDO
100
AcDbLine
 62
250
  6
CONTINUOUS
 10
-12.0387940913
 20
-62.5208275978
 11
-12.0849008637
 21
-62.7868176205
  0
LINE
  5
315
100
AcDbEntity
  8
RACCORDO
100
AcDbLine
 62
250
  6
CONTINUOUS
 10
-12.0849008637
 20
-62.7868176205
 11
-12.129768166
 21
-63.0356661952
  0
LINE
  5
316
100
AcDbEntity
  8
RACCORDO
100
AcDbLine
 62
250
  6
CONTINUOUS
 10
12.1283979086
 20
63.0282097224
 11
12.172693734
 21
63.2647217451
  0
LINE
  5
317
100
AcDbEntity
  8
RACCORDO
100
AcDbLine
 62
250
  6
CONTINUOUS
 10
-12.129768166
 20
-63.0356661952
 11
-12.1733755959
 21
-63.268294488
  0
LINE
  5
318
100
AcDbEntity
  8
RACCORDO
100
AcDbLine
 62
250
  6
CONTINUOUS
 10
12.172693734
 20
63.2647217451
 11
12.2158540518
 21
63.4867898346
  0
LWPOLYLINE
  5
319
100
AcDbEntity
  8
RACCORDO
100
AcDbPolyline
 62
250
  6
CONTINUOUS
 90
3
 70
0
 10
-12.1733755959
 20
-63.268294488
 10
-12.2157163557
 20
-63.4860928807
 10
-12.2364336229
 20
-63.5898923532
  0
LINE
  5
31A
100
AcDbEntity
  8
RACCORDO
100
AcDbLine
 62
250
  6
CONTINUOUS
 10
12.2158540518
 20
63.4867898346
 11
12.2579417277
 21
63.6957756621
  0
LINE
  5
31B
100
AcDbEntity
  8
RACCORDO
100
AcDbLine
 62
250
  6
CONTINUOUS
 10
12.2579417277
 20
63.6957756621
 11
12.2990115112
 21
63.8925836173
  0
LINE
  5
31C
100
AcDbEntity
  8
RACCORDO
100
AcDbLine
 62
250
  6
CONTINUOUS
 10
12.2990115112
 20
63.8925836173
 11
12.3391653428
 21
64.0785725272
  0
LINE
  5
31D
100
AcDbEntity
  8
RACCORDO
100
AcDbLine
 62
250
  6
CONTINUOUS
 10
12.3391653428
 20
64.0785725272
 11
12.3785665765
 21
64.2550933976
  0
LINE
  5
31E
100
AcDbEntity
  8
RACCORDO
100
AcDbLine
 62
250
  6
CONTINUOUS
 10
12.3785665765
 20
64.2550933976
 11
12.4173378465
 21
64.4230442634
  0
LINE
  5
31F
100
AcDbEntity
  8
RACCORDO
100
AcDbLine
 62
250
  6
CONTINUOUS
 10
12.4173378465
 20
64.4230442634
 11
12.4556824349
 21
64.583772494
  0
LINE
  5
320
100
AcDbEntity
  8
RACCORDO
100
AcDbLine
 62
250
  6
CONTINUOUS
 10
12.4556824349
 20
64.583772494
 11
12.4938718277
 21
64.7386166747
  0
LINE
  5
321
100
AcDbEntity
  8
RACCORDO
100
AcDbLine
 62
250
  6
CONTINUOUS
 10
12.4938718277
 20
64.7386166747
 11
12.5321046629
 21
64.8884661043
  0
LWPOLYLINE
  5
322
100
AcDbEntity
  8
RACCORDO
100
AcDbPolyline
 62
250
  6
CONTINUOUS
 90
3
 70
0
 10
-12.2760324243
 20
-5.9790070068
 10
-12.2993318508
 20
-5.9977863255
 10
-12.3017150409
 20
-6.0
  0
LWPOLYLINE
  5
323
100
AcDbEntity
  8
RACCORDO
100
AcDbPolyline
 62
250
  6
CONTINUOUS
 90
6
 70
0
 10
12.5016845799
 20
6.2
 10
12.5022125461
 20
6.2001985606
 10
12.5027519539
 20
6.2005480526
 10
12.5033028034
 20
6.2010484759
 10
12.5038629015
 20
6.2017456136
 10
12.5044344412
 20
6.2025936827
  0
LWPOLYLINE
  5
324
100
AcDbEntity
  8
RACCORDO
100
AcDbPolyline
 62
250
  6
CONTINUOUS
 90
11
 70
0
 10
-12.2993318008
 20
5.9977877892
 10
-12.2760578672
 20
5.979026173
 10
-12.2549864106
 20
5.9617573213
 10
-12.2277458028
 20
5.9388100438
 10
-12.1948783337
 20
5.9100610349
 10
-12.155953422
 20
5.8750921602
 10
-12.1114016491
 20
5.8339473665
 10
-12.0630570485
 20
5.7877343693
 10
-12.0100714367
 20
5.7364365307
 10
-11.9532929973
 20
5.6806863805
 10
-11.8971003153
 20
5.6235911926
  0
LINE
  5
325
100
AcDbEntity
  8
RACCORDO
100
AcDbLine
 62
250
  6
CONTINUOUS
 10
-12.3017150409
 20
6.0
 11
-12.2993318008
 21
5.9977877892
  0
LINE
  5
326
100
AcDbEntity
  8
RACCORDO
100
AcDbLine
 62
250
  6
CONTINUOUS
 10
12.3946334501
 20
-64.3253507598
 11
12.3456027443
 21
-64.1078623864
  0
LWPOLYLINE
  5
327
100
AcDbEntity
  8
RACCORDO
100
AcDbPolyline
 62
250
  6
CONTINUOUS
 90
3
 70
0
 10
12.3456027443
 20
-64.1078623864
 10
12.2957386943
 20
-63.8771177372
 10
12.2704930865
 20
-63.7566644445
  0
LINE
  5
328
100
AcDbEntity
  8
RACCORDO
100
AcDbLine
 62
250
  6
CONTINUOUS
 10
12.2704930865
 20
-63.7566644445
 11
12.2193975039
 21
-63.5046573638
  0
LINE
  5
329
100
AcDbEntity
  8
RACCORDO
100
AcDbLine
 62
250
  6
CONTINUOUS
 10
12.2193975039
 20
-63.5046573638
 11
12.1675145564
 21
-63.2375214482
  0
LWPOLYLINE
  5
32A
100
AcDbEntity
  8
RACCORDO
100
AcDbPolyline
 62
250
  6
CONTINUOUS
 90
3
 70
0
 10
-12.2189299675
 20
63.5023984507
 10
-12.1652385511
 20
63.2254876447
 10
-12.1380855223
 20
63.0807314846
  0
LINE
  5
32B
100
AcDbEntity
  8
RACCORDO
100
AcDbLine
 62
250
  6
CONTINUOUS
 10
12.1675145564
 20
-63.2375214482
 11
12.1148924859
 21
-62.9542754996
  0
LWPOLYLINE
  5
32C
100
AcDbEntity
  8
RACCORDO
100
AcDbPolyline
 62
250
  6
CONTINUOUS
 90
3
 70
0
 10
-12.1380855223
 20
63.0807314846
 10
-12.0832413425
 20
62.7774225261
 10
-12.0555501914
 20
62.6188744327
  0
LINE
  5
32D
100
AcDbEntity
  8
RACCORDO
100
AcDbLine
 62
250
  6
CONTINUOUS
 10
-13.2954337202
 20
65.7867012601
 11
-13.2728994698
 21
65.6562175881
  0
LWPOLYLINE
  5
32E
100
AcDbEntity
  8
RACCORDO
100
AcDbPolyline
 62
250
  6
CONTINUOUS
 90
3
 70
0
 10
-12.0555501914
 20
62.6188744327
 10
-11.9997473926
 20
62.2866697536
 10
-11.9716357447
 20
62.113019218
  0
LINE
  5
32F
100
AcDbEntity
  8
RACCORDO
100
AcDbLine
 62
250
  6
CONTINUOUS
 10
-13.2728994698
 20
65.6562175881
 11
-13.250210011
 21
65.5180946847
  0
LINE
  5
330
100
AcDbEntity
  8
RACCORDO
100
AcDbLine
 62
250
  6
CONTINUOUS
 10
-13.250210011
 20
65.5180946847
 11
-13.2273669602
 21
65.3721674776
  0
LWPOLYLINE
  5
331
100
AcDbEntity
  8
RACCORDO
100
AcDbPolyline
 62
250
  6
CONTINUOUS
 90
3
 70
0
 10
-11.9716357447
 20
62.113019218
 10
-11.9151815062
 20
61.7492730747
 10
-11.8868389155
 20
61.5591852192
  0
LINE
  5
332
100
AcDbEntity
  8
RACCORDO
100
AcDbLine
 62
250
  6
CONTINUOUS
 10
-13.2273669602
 20
65.3721674776
 11
-13.2043770967
 21
65.2182734336
  0
LINE
  5
333
100
AcDbEntity
  8
RACCORDO
100
AcDbLine
 62
250
  6
CONTINUOUS
 10
-13.2043770967
 20
65.2182734336
 11
-13.181173182
 21
65.0556894453
  0
LWPOLYLINE
  5
334
100
AcDbEntity
  8
RACCORDO
100
AcDbPolyline
 62
250
  6
CONTINUOUS
 90
3
 70
0
 10
-11.8868389155
 20
61.5591852192
 10
-11.8302099395
 20
61.1612888793
 10
-11.8019235542
 20
60.9534902529
  0
LWPOLYLINE
  5
335
100
AcDbEntity
  8
RACCORDO
100
AcDbPolyline
 62
250
  6
CONTINUOUS
 90
22
 70
0
 10
-11.8019235542
 20
60.9534902529
 10
-11.7458079208
 20
60.5189694899
 10
-11.7179786727
 20
60.2922597926
 10
-11.690490209
 20
60.0589035279
 10
-11.6633099923
 20
59.8187300754
 10
-11.6364705599
 20
59.5719256732
 10
-11.6102525638
 20
59.3186715476
 10
-11.584656802
 20
59.0591424461
 10
-11.5596824765
 20
58.7931815325
 10
-11.5356078452
 20
58.5204736061
 10
-11.5124178361
 20
58.2412758844
 10
-11.4901275212
 20
57.9553529799
 10
-11.469060375
 20
57.6616534523
 10
-11.4491592253
 20
57.3602358643
 10
-11.4304812444
 20
57.0510706754
 10
-11.4135214226
 20
56.7329787592
 10
-11.3981921643
 20
56.4059676609
 10
-11.3845810652
 20
56.0700684287
 10
-11.3734459034
 20
55.7241428081
 10
-11.3650392713
 20
55.3678292151
 10
-11.3591085764
 20
55.001540495
 10
-11.3556538187
 20
54.6253044215
  0
LINE
  5
336
100
AcDbEntity
  8
0
100
AcDbLine
 62
7
  6
CONTINUOUS
 10
3.727192
 20
-65.000063
 11
3.727192
 21
-62.199937
  0
LINE
  5
337
100
AcDbEntity
  8
0
100
AcDbLine
 62
7
  6
CONTINUOUS
 10
4.279499
 20
-63.399352
 11
4.279492
 21
-62.717958
  0
LINE
  5
338
100
AcDbEntity
  8
0
100
AcDbLine
 62
7
  6
CONTINUOUS
 10
4.28722
 20
-65.000063
 11
4.287283
 21
-63.917373
  0
LWPOLYLINE
  5
339
100
AcDbEntity
  8
RACCORDO
100
AcDbPolyline
 62
250
  6
CONTINUOUS
 90
3
 70
0
 10
11.6150161569
 20
59.365843636
 10
11.6642665043
 20
59.8275654589
 10
11.6892154035
 20
60.0481548982
  0
LINE
  5
33A
100
AcDbEntity
  8
RACCORDO
100
AcDbLine
 62
250
  6
CONTINUOUS
 10
11.6892154035
 20
60.0481548982
 11
11.7396481074
 21
60.4695547809
  0
LINE
  5
33B
100
AcDbEntity
  8
RACCORDO
100
AcDbLine
 62
250
  6
CONTINUOUS
 10
13.0965768778
 20
64.3995956216
 11
13.1249024395
 21
64.6305922063
  0
LINE
  5
33C
100
AcDbEntity
  8
RACCORDO
100
AcDbLine
 62
250
  6
CONTINUOUS
 10
11.7396481074
 20
60.4695547809
 11
11.7902744242
 21
60.8654651442
  0
LINE
  5
33D
100
AcDbEntity
  8
RACCORDO
100
AcDbLine
 62
250
  6
CONTINUOUS
 10
13.1249024395
 20
64.6305922063
 11
13.1534418032
 21
64.8517347285
  0
LINE
  5
33E
100
AcDbEntity
  8
RACCORDO
100
AcDbLine
 62
250
  6
CONTINUOUS
 10
13.1534418032
 20
64.8517347285
 11
13.1728726618
 21
64.9957514773
  0
LINE
  5
33F
100
AcDbEntity
  8
RACCORDO
100
AcDbLine
 62
250
  6
CONTINUOUS
 10
11.7902744242
 20
60.8654651442
 11
11.8407380411
 21
61.2373402678
  0
LINE
  5
340
100
AcDbEntity
  8
RACCORDO
100
AcDbLine
 62
250
  6
CONTINUOUS
 10
13.1728726618
 20
64.9957514773
 11
13.1928161313
 21
65.1381793643
  0
LINE
  5
341
100
AcDbEntity
  8
RACCORDO
100
AcDbLine
 62
250
  6
CONTINUOUS
 10
11.8407380411
 20
61.2373402678
 11
11.890819556
 21
61.5860875538
  0
LINE
  5
342
100
AcDbEntity
  8
RACCORDO
100
AcDbLine
 62
250
  6
CONTINUOUS
 10
13.1928161313
 20
65.1381793643
 11
13.2135426575
 21
65.2805154233
  0
LINE
  5
343
100
AcDbEntity
  8
RACCORDO
100
AcDbLine
 62
250
  6
CONTINUOUS
 10
11.890819556
 20
61.5860875538
 11
11.9402339842
 21
61.913081024
  0
LINE
  5
344
100
AcDbEntity
  8
RACCORDO
100
AcDbLine
 62
250
  6
CONTINUOUS
 10
13.2135426575
 20
65.2805154233
 11
13.2352224001
 21
65.4231043947
  0
LINE
  5
345
100
AcDbEntity
  8
RACCORDO
100
AcDbLine
 62
250
  6
CONTINUOUS
 10
11.9402339842
 20
61.913081024
 11
11.9888019769
 21
62.2196939831
  0
LINE
  5
346
100
AcDbEntity
  8
RACCORDO
100
AcDbLine
 62
250
  6
CONTINUOUS
 10
13.2352224001
 20
65.4231043947
 11
13.2578993468
 21
65.5656648791
  0
LINE
  5
347
100
AcDbEntity
  8
RACCORDO
100
AcDbLine
 62
250
  6
CONTINUOUS
 10
11.9888019769
 20
62.2196939831
 11
12.0364210432
 21
62.5068359198
  0
LWPOLYLINE
  5
348
100
AcDbEntity
  8
RACCORDO
100
AcDbPolyline
 62
250
  6
CONTINUOUS
 90
33
 70
0
 10
13.2578993468
 20
65.5656648791
 10
13.2815222034
 20
65.7069452447
 10
13.293620105
 20
65.776446477
 10
13.3058908816
 20
65.8449676018
 10
13.3183326507
 20
65.9125262121
 10
13.33087755
 20
65.9785698718
 10
13.3435284934
 20
66.0430782158
 10
13.3562805793
 20
66.1060710909
 10
13.3690523569
 20
66.1670568304
 10
13.3818207143
 20
66.2259063142
 10
13.3946046564
 20
66.2827487042
 10
13.4073848213
 20
66.3374800643
 10
13.4201156131
 20
66.3899447766
 10
13.4328382241
 20
66.4402986835
 10
13.4456643615
 20
66.4889047522
 10
13.4585661948
 20
66.5357593452
 10
13.4715692892
 20
66.5808656104
 10
13.4848679216
 20
66.6245957355
 10
13.4984678845
 20
66.6671034187
 10
13.5123637151
 20
66.7082331205
 10
13.5267353432
 20
66.7478919336
 10
13.5416445427
 20
66.7863221615
 10
13.5570311535
 20
66.8232780896
 10
13.5728929546
 20
66.8579341203
 10
13.5892314549
 20
66.8903290371
 10
13.6060441752
 20
66.9204204743
 10
13.6233222088
 20
66.9472610887
 10
13.6410235452
 20
66.9708602273
 10
13.6591861917
 20
66.991204856
 10
13.6779208158
 20
67.0073135446
 10
13.6972621327
 20
67.0188572206
 10
13.7171684282
 20
67.0261597136
 10
13.7376349003
 20
67.0292183565
  0
LINE
  5
349
100
AcDbEntity
  8
RACCORDO
100
AcDbLine
 62
250
  6
CONTINUOUS
 10
12.0364210432
 20
62.5068359198
 11
12.0829681804
 21
62.7758841747
  0
LINE
  5
34A
100
AcDbEntity
  8
RACCORDO
100
AcDbLine
 62
250
  6
CONTINUOUS
 10
12.0829681804
 20
62.7758841747
 11
12.1283979086
 21
63.0282097224
  0
LINE
  5
34B
100
AcDbEntity
  8
RACCORDO
100
AcDbLine
 62
250
  6
CONTINUOUS
 10
-12.2364336229
 20
-63.5898923532
 11
-12.2769680796
 21
-63.7877535437
  0
LINE
  5
34C
100
AcDbEntity
  8
RACCORDO
100
AcDbLine
 62
250
  6
CONTINUOUS
 10
-12.2769680796
 20
-63.7877535437
 11
-12.3164149429
 21
-63.9740115622
  0
LINE
  5
34D
100
AcDbEntity
  8
RACCORDO
100
AcDbLine
 62
250
  6
CONTINUOUS
 10
-12.3164149429
 20
-63.9740115622
 11
-12.3548593619
 21
-64.149582874
  0
LINE
  5
34E
100
AcDbEntity
  8
RACCORDO
100
AcDbLine
 62
250
  6
CONTINUOUS
 10
-12.3548593619
 20
-64.149582874
 11
-12.3924482047
 21
-64.3158430323
  0
LINE
  5
34F
100
AcDbEntity
  8
RACCORDO
100
AcDbLine
 62
250
  6
CONTINUOUS
 10
-12.3924482047
 20
-64.3158430323
 11
-12.429389155
 21
-64.4741572504
  0
LINE
  5
350
100
AcDbEntity
  8
RACCORDO
100
AcDbLine
 62
250
  6
CONTINUOUS
 10
-12.429389155
 20
-64.4741572504
 11
-12.4658346329
 21
-64.6254324675
  0
LINE
  5
351
100
AcDbEntity
  8
RACCORDO
100
AcDbLine
 62
250
  6
CONTINUOUS
 10
-12.4658346329
 20
-64.6254324675
 11
-12.502032479
 21
-64.7710277843
  0
LINE
  5
352
100
AcDbEntity
  8
RACCORDO
100
AcDbLine
 62
250
  6
CONTINUOUS
 10
-12.502032479
 20
-64.7710277843
 11
-12.5383004995
 21
-64.9122884013
  0
LINE
  5
353
100
AcDbEntity
  8
RACCORDO
100
AcDbLine
 62
250
  6
CONTINUOUS
 10
-12.5383004995
 20
-64.9122884013
 11
-12.5748699918
 21
-65.0501085319
  0
LWPOLYLINE
  5
354
100
AcDbEntity
  8
RACCORDO
100
AcDbPolyline
 62
250
  6
CONTINUOUS
 90
39
 70
0
 10
-12.5748699918
 20
-65.0501085319
 10
-12.612110418
 20
-65.1858267928
 10
-12.6311458121
 20
-65.2533392286
 10
-12.650510539
 20
-65.3208126383
 10
-12.6702041478
 20
-65.3882023447
 10
-12.6903815696
 20
-65.4558171142
 10
-12.7110969346
 20
-65.5238611779
 10
-12.7322961125
 20
-65.592130298
 10
-12.7539716446
 20
-65.6603205387
 10
-12.7761555692
 20
-65.7285209521
 10
-12.7988158479
 20
-65.7966423955
 10
-12.8218489061
 20
-65.86411354
 10
-12.8452642677
 20
-65.9309307786
 10
-12.8690524087
 20
-65.9970974995
 10
-12.8930811831
 20
-66.0620527466
 10
-12.9173648585
 20
-66.1257897019
 10
-12.9418891672
 20
-66.1883148728
 10
-12.9664791596
 20
-66.2490871891
 10
-12.9911275513
 20
-66.3080392265
 10
-13.0158416268
 20
-66.3652380383
 10
-13.040468289
 20
-66.4203442043
 10
-13.0649322538
 20
-66.4731807204
 10
-13.0893088053
 20
-66.5239242191
 10
-13.1136706988
 20
-66.572765737
 10
-13.137978012
 20
-66.6196682739
 10
-13.1622706671
 20
-66.6646685508
 10
-13.1867411859
 20
-66.7080682299
 10
-13.2113654319
 20
-66.7498987452
 10
-13.2361675416
 20
-66.7901284641
 10
-13.2614124462
 20
-66.8289644864
 10
-13.2871399259
 20
-66.8665368214
 10
-13.3133102005
 20
-66.902715314
 10
-13.3400688611
 20
-66.9373168261
 10
-13.367415609
 20
-66.9703994426
 10
-13.3953507428
 20
-67.0019049384
 10
-13.4240207499
 20
-67.0314756943
 10
-13.4534744593
 20
-67.0589924519
 10
-13.4836630421
 20
-67.0845743281
 10
-13.5145864982
 20
-67.1082212622
  0
LWPOLYLINE
  5
355
100
AcDbEntity
  8
RACCORDO
100
AcDbPolyline
 62
250
  6
CONTINUOUS
 90
14
 70
0
 10
11.7919285266
 20
5.5149617324
 10
11.7393457396
 20
5.4588490131
 10
11.6885424112
 20
5.4031978339
 10
11.6393778062
 20
5.3483926343
 10
11.5926369675
 20
5.2936208033
 10
11.5481175086
 20
5.2390908676
 10
11.5060218161
 20
5.1850717684
 10
11.4677420926
 20
5.1306522173
 10
11.4329101329
 20
5.0756393468
 10
11.4018941422
 20
5.0205028298
 10
11.3771909386
 20
4.9652563556
 10
11.3596327949
 20
4.909987598
 10
11.3483874383
 20
4.854861981
 10
11.3434548688
 20
4.8
  0
LWPOLYLINE
  5
356
100
AcDbEntity
  8
RACCORDO
100
AcDbPolyline
 62
250
  6
CONTINUOUS
 90
3
 70
0
 10
12.3017150409
 20
6.0
 10
12.2993725048
 20
5.9978169201
 10
12.2764089459
 20
5.9793078418
  0
LWPOLYLINE
  5
357
100
AcDbEntity
  8
RACCORDO
100
AcDbPolyline
 62
250
  6
CONTINUOUS
 90
11
 70
0
 10
12.2764089459
 20
5.9793078418
 10
12.2556081748
 20
5.9622747118
 10
12.2287145748
 20
5.9396432832
 10
12.1962673904
 20
5.9112941084
 10
12.1578994989
 20
5.8768509102
 10
12.113978023
 20
5.8363317696
 10
12.0661435761
 20
5.7906949457
 10
12.0134948806
 20
5.7398116531
 10
11.9569332141
 20
5.6843253868
 10
11.9008030222
 20
5.6273495457
 10
11.7919285266
 20
5.5149617324
  0
LWPOLYLINE
  5
358
100
AcDbEntity
  8
RACCORDO
100
AcDbPolyline
 62
250
  6
CONTINUOUS
 90
6
 70
0
 10
-12.5016845799
 20
-6.2
 10
-12.5022145271
 20
-6.200200414
 10
-12.5027559842
 20
-6.2005523352
 10
-12.5033089511
 20
-6.2010557634
 10
-12.5038712512
 20
-6.2017570945
 10
-12.504445061
 20
-6.2026099326
  0
LINE
  5
359
100
AcDbEntity
  8
RACCORDO
100
AcDbLine
 62
250
  6
CONTINUOUS
 10
12.5432721029
 20
4.8
 11
-12.5432721029
 21
4.8
  0
LINE
  5
35A
100
AcDbEntity
  8
RACCORDO
100
AcDbLine
 62
250
  6
CONTINUOUS
 10
12.299331094
 20
-5.9977858766
 11
12.3017150409
 21
-6.0
  0
LWPOLYLINE
  5
35B
100
AcDbEntity
  8
RACCORDO
100
AcDbPolyline
 62
250
  6
CONTINUOUS
 90
11
 70
0
 10
11.9007033845
 20
-5.6272464366
 10
11.9553507821
 20
-5.6826079944
 10
12.0103215168
 20
-5.7365373
 10
12.0620968557
 20
-5.7868094254
 10
12.110340215
 20
-5.8330591101
 10
12.1553881784
 20
-5.8746539825
 10
12.1947317649
 20
-5.9099311263
 10
12.227692735
 20
-5.9387510538
 10
12.254949328
 20
-5.9617194982
 10
12.2760272814
 20
-5.9790028818
 10
12.299331094
 20
-5.9977858766
  0
LINE
  5
35C
100
AcDbEntity
  8
RACCORDO
100
AcDbLine
 62
250
  6
CONTINUOUS
 10
-12.3494247575
 20
64.1251025122
 11
-12.2978868426
 21
63.8873360824
  0
LWPOLYLINE
  5
35D
100
AcDbEntity
  8
RACCORDO
100
AcDbPolyline
 62
250
  6
CONTINUOUS
 90
3
 70
0
 10
-12.2978868426
 20
63.8873360824
 10
-12.2454683551
 20
63.6345494289
 10
-12.2189299675
 20
63.5023984507
  0
LINE
  5
35E
100
AcDbEntity
  8
RACCORDO
100
AcDbLine
 62
250
  6
CONTINUOUS
 10
13.3096250165
 20
-65.8654825289
 11
13.2885429732
 21
-65.7475062101
  0
LINE
  5
35F
100
AcDbEntity
  8
RACCORDO
100
AcDbLine
 62
250
  6
CONTINUOUS
 10
12.1148924859
 20
-62.9542754996
 11
12.0616198175
 21
-62.653847392
  0
LINE
  5
360
100
AcDbEntity
  8
RACCORDO
100
AcDbLine
 62
250
  6
CONTINUOUS
 10
13.2885429732
 20
-65.7475062101
 11
13.2673241999
 21
-65.6229083471
  0
LINE
  5
361
100
AcDbEntity
  8
RACCORDO
100
AcDbLine
 62
250
  6
CONTINUOUS
 10
12.0616198175
 20
-62.653847392
 11
12.0077611617
 21
-62.33546264
  0
LINE
  5
362
100
AcDbEntity
  8
RACCORDO
100
AcDbLine
 62
250
  6
CONTINUOUS
 10
13.2673241999
 20
-65.6229083471
 11
13.2459695828
 21
-65.4915312656
  0
LINE
  5
363
100
AcDbEntity
  8
RACCORDO
100
AcDbLine
 62
250
  6
CONTINUOUS
 10
12.0077611617
 20
-62.33546264
 11
11.953417676
 21
-61.9978693174
  0
LINE
  5
364
100
AcDbEntity
  8
RACCORDO
100
AcDbLine
 62
250
  6
CONTINUOUS
 10
13.2459695828
 20
-65.4915312656
 11
13.2244789537
 21
-65.3532245122
  0
LWPOLYLINE
  5
365
100
AcDbEntity
  8
RACCORDO
100
AcDbPolyline
 62
250
  6
CONTINUOUS
 90
3
 70
0
 10
11.953417676
 20
-61.9978693174
 10
11.8987505585
 20
-61.6396089704
 10
11.8713143775
 20
-61.4525568102
  0
LINE
  5
366
100
AcDbEntity
  8
RACCORDO
100
AcDbLine
 62
250
  6
CONTINUOUS
 10
13.2244789537
 20
-65.3532245122
 11
13.2028484535
 21
-65.207787603
  0
LINE
  5
367
100
AcDbEntity
  8
RACCORDO
100
AcDbLine
 62
250
  6
CONTINUOUS
 10
13.2028484535
 20
-65.207787603
 11
13.1810209812
 21
-65.0545990643
  0
LWPOLYLINE
  5
368
100
AcDbEntity
  8
RACCORDO
100
AcDbPolyline
 62
250
  6
CONTINUOUS
 90
3
 70
0
 10
11.8713143775
 20
-61.4525568102
 10
11.8164885975
 20
-61.0611807516
 10
11.7890989984
 20
-60.8568663804
  0
LINE
  5
369
100
AcDbEntity
  8
RACCORDO
100
AcDbLine
 62
250
  6
CONTINUOUS
 10
13.1810209812
 20
-65.0545990643
 11
13.1589676755
 21
-64.8932074995
  0
LINE
  5
36A
100
AcDbEntity
  8
RACCORDO
100
AcDbLine
 62
250
  6
CONTINUOUS
 10
13.1589676755
 20
-64.8932074995
 11
13.1366254058
 21
-64.7228160742
  0
LWPOLYLINE
  5
36B
100
AcDbEntity
  8
RACCORDO
100
AcDbPolyline
 62
250
  6
CONTINUOUS
 90
22
 70
0
 10
11.7890989984
 20
-60.8568663804
 10
11.7347358762
 20
-60.4296207212
 10
11.7077623531
 20
-60.2067015185
 10
11.6811058657
 20
-59.9771778704
 10
11.6547309398
 20
-59.7408508295
 10
11.6286730496
 20
-59.4979346405
 10
11.6032115471
 20
-59.2486364492
 10
11.5783484593
 20
-58.9931380521
 10
11.5540817592
 20
-58.7312750949
 10
11.5306847174
 20
-58.4627363884
 10
11.5081426087
 20
-58.187772111
 10
11.4864701584
 20
-57.9061533353
 10
11.4659848137
 20
-57.6168527983
 10
11.4466313976
 20
-57.3199275985
 10
11.4284650871
 20
-57.0153488399
 10
11.41196886
 20
-56.7019645836
 10
11.3970583531
 20
-56.3797835149
 10
11.3838179297
 20
-56.0488343853
 10
11.3729836577
 20
-55.7080007815
 10
11.3648008933
 20
-55.356927843
 10
11.3590242802
 20
-54.9960200925
 10
11.3556538187
 20
-54.6253044224
  0
LINE
  5
36C
100
AcDbEntity
  8
RACCORDO
100
AcDbLine
 62
250
  6
CONTINUOUS
 10
13.1366254058
 20
-64.7228160742
 11
13.1139487419
 21
-64.5426250816
  0
LINE
  5
36D
100
AcDbEntity
  8
RACCORDO
100
AcDbLine
 62
250
  6
CONTINUOUS
 10
13.1139487419
 20
-64.5426250816
 11
13.0909251674
 21
-64.3521003999
  0
LINE
  5
36E
100
AcDbEntity
  8
RACCORDO
100
AcDbLine
 62
250
  6
CONTINUOUS
 10
13.0437341458
 20
-63.9368263153
 11
13.0073231921
 21
-63.5926240705
  0
LINE
  5
36F
100
AcDbEntity
  8
RACCORDO
100
AcDbLine
 62
250
  6
CONTINUOUS
 10
13.0073231921
 20
-63.5926240705
 11
12.9700568282
 21
-63.2174717135
  0
LINE
  5
370
100
AcDbEntity
  8
RACCORDO
100
AcDbLine
 62
250
  6
CONTINUOUS
 10
12.9700568282
 20
-63.2174717135
 11
12.9319945957
 21
-62.8086514373
  0
LINE
  5
371
100
AcDbEntity
  8
RACCORDO
100
AcDbLine
 62
250
  6
CONTINUOUS
 10
12.9319945957
 20
-62.8086514373
 11
12.8932373834
 21
-62.3632445884
  0
LINE
  5
372
100
AcDbEntity
  8
RACCORDO
100
AcDbLine
 62
250
  6
CONTINUOUS
 10
12.8932373834
 20
-62.3632445884
 11
12.853924541
 21
-61.8779409643
  0
LINE
  5
373
100
AcDbEntity
  8
RACCORDO
100
AcDbLine
 62
250
  6
CONTINUOUS
 10
12.853924541
 20
-61.8779409643
 11
12.8142461416
 21
-61.3489207193
  0
LINE
  5
374
100
AcDbEntity
  8
RACCORDO
100
AcDbLine
 62
250
  6
CONTINUOUS
 10
12.8142461416
 20
-61.3489207193
 11
12.7744927793
 21
-60.7721655955
  0
LINE
  5
375
100
AcDbEntity
  8
RACCORDO
100
AcDbLine
 62
250
  6
CONTINUOUS
 10
12.7744927793
 20
-60.7721655955
 11
12.7351004381
 21
-60.1437618415
  0
LINE
  5
376
100
AcDbEntity
  8
RACCORDO
100
AcDbLine
 62
250
  6
CONTINUOUS
 10
12.7351004381
 20
-60.1437618415
 11
12.7093403108
 21
-59.6944005817
  0
LINE
  5
377
100
AcDbEntity
  8
RACCORDO
100
AcDbLine
 62
250
  6
CONTINUOUS
 10
12.7093403108
 20
-59.6944005817
 11
12.6842431773
 21
-59.2193992158
  0
LWPOLYLINE
  5
378
100
AcDbEntity
  8
RACCORDO
100
AcDbPolyline
 62
250
  6
CONTINUOUS
 90
3
 70
0
 10
12.6842431773
 20
-59.2193992158
 10
12.6601757063
 20
-58.719894223
 10
12.6486475048
 20
-58.4610547219
  0
LINE
  5
379
100
AcDbEntity
  8
RACCORDO
100
AcDbLine
 62
250
  6
CONTINUOUS
 10
12.6469281192
 20
58.4211933527
 11
12.6696261419
 21
58.9219989892
  0
LINE
  5
37A
100
AcDbEntity
  8
RACCORDO
100
AcDbLine
 62
250
  6
CONTINUOUS
 10
12.6696261419
 20
58.9219989892
 11
12.6934054457
 21
59.3976728598
  0
LINE
  5
37B
100
AcDbEntity
  8
RACCORDO
100
AcDbLine
 62
250
  6
CONTINUOUS
 10
12.6934054457
 20
59.3976728598
 11
12.7302120544
 21
60.0610792758
  0
LINE
  5
37C
100
AcDbEntity
  8
RACCORDO
100
AcDbLine
 62
250
  6
CONTINUOUS
 10
12.7302120544
 20
60.0610792758
 11
12.7675616118
 21
60.6660787459
  0
LINE
  5
37D
100
AcDbEntity
  8
RACCORDO
100
AcDbLine
 62
250
  6
CONTINUOUS
 10
12.7675616118
 20
60.6660787459
 11
12.8048170472
 21
61.2166792503
  0
LINE
  5
37E
100
AcDbEntity
  8
RACCORDO
100
AcDbLine
 62
250
  6
CONTINUOUS
 10
12.8048170472
 20
61.2166792503
 11
12.8415163788
 21
61.7170187508
  0
LINE
  5
37F
100
AcDbEntity
  8
RACCORDO
100
AcDbLine
 62
250
  6
CONTINUOUS
 10
12.8415163788
 20
61.7170187508
 11
12.8773309461
 21
62.1711832312
  0
LINE
  5
380
100
AcDbEntity
  8
RACCORDO
100
AcDbLine
 62
250
  6
CONTINUOUS
 10
12.8773309461
 20
62.1711832312
 11
12.9120467283
 21
62.5832609869
  0
LINE
  5
381
100
AcDbEntity
  8
RACCORDO
100
AcDbLine
 62
250
  6
CONTINUOUS
 10
12.9120467283
 20
62.5832609869
 11
12.9455482498
 21
62.9573348214
  0
LINE
  5
382
100
AcDbEntity
  8
RACCORDO
100
AcDbLine
 62
250
  6
CONTINUOUS
 10
12.9455482498
 20
62.9573348214
 11
12.9778072486
 21
63.2974755985
  0
LINE
  5
383
100
AcDbEntity
  8
RACCORDO
100
AcDbLine
 62
250
  6
CONTINUOUS
 10
12.9778072486
 20
63.2974755985
 11
13.0088753033
 21
63.6077396273
  0
LINE
  5
384
100
AcDbEntity
  8
RACCORDO
100
AcDbLine
 62
250
  6
CONTINUOUS
 10
13.0088753033
 20
63.6077396273
 11
13.0388795772
 21
63.8921675245
  0
LINE
  5
385
100
AcDbEntity
  8
RACCORDO
100
AcDbLine
 62
250
  6
CONTINUOUS
 10
13.0388795772
 20
63.8921675245
 11
13.0680212852
 21
64.1547836908
  0
LINE
  5
386
100
AcDbEntity
  8
RACCORDO
100
AcDbLine
 62
250
  6
CONTINUOUS
 10
13.0680212852
 20
64.1547836908
 11
13.0965768778
 21
64.3995956216
  0
LWPOLYLINE
  5
387
100
AcDbEntity
  8
RACCORDO
100
AcDbPolyline
 62
250
  6
CONTINUOUS
 90
23
 70
0
 10
12.5050240017
 20
6.2034553338
 10
12.5056313476
 20
6.2043465515
 10
12.5062567142
 20
6.2052513513
 10
12.5069073865
 20
6.20598443
 10
12.5075862237
 20
6.2065696313
 10
12.5082903666
 20
6.2069831114
 10
12.5090185232
 20
6.2069680366
 10
12.5097706167
 20
6.2065376917
 10
12.5105467238
 20
6.2056787918
 10
12.5113457828
 20
6.2040946483
 10
12.5121656931
 20
6.2018129153
 10
12.5130085552
 20
6.1988059387
 10
12.5138796096
 20
6.1946940677
 10
12.5147814697
 20
6.189488814
 10
12.515711522
 20
6.1831786658
 10
12.5166671662
 20
6.1753494371
 10
12.5176505095
 20
6.165976723
 10
12.5186594447
 20
6.1550849283
 10
12.5196850499
 20
6.1423330822
 10
12.5207329979
 20
6.127557663
 10
12.5217976159
 20
6.1109221924
 10
12.5228529638
 20
6.0925762639
 10
12.5238945802
 20
6.0724803933
  0
LINE
  5
388
100
AcDbEntity
  8
RACCORDO
100
AcDbLine
 62
7
  6
CONTINUOUS
 10
-12.3017150409
 20
6.0
 11
12.3017150409
 21
6.0
  0
LINE
  5
389
100
AcDbEntity
  8
RACCORDO
100
AcDbLine
 62
250
  6
CONTINUOUS
 10
12.5016845799
 20
6.2
 11
12.5
 21
6.2
  0
LINE
  5
38A
100
AcDbEntity
  8
RACCORDO
100
AcDbLine
 62
250
  6
CONTINUOUS
 10
-12.5
 20
6.2
 11
-12.5016845799
 21
6.2
  0
LWPOLYLINE
  5
38B
100
AcDbEntity
  8
RACCORDO
100
AcDbPolyline
 62
250
  6
CONTINUOUS
 90
7
 70
0
 10
12.5050389217
 20
-6.203478119
 10
12.5044465699
 20
-6.2026122601
 10
12.5038723404
 20
-6.2017586093
 10
12.5033096817
 20
-6.2010566132
 10
12.5027564102
 20
-6.2005527541
 10
12.5022147096
 20
-6.2002005497
 10
12.5016845799
 20
-6.2
  0
LINE
  5
38C
100
AcDbEntity
  8
RACCORDO
100
AcDbLine
 62
250
  6
CONTINUOUS
 10
13.0909251674
 20
-64.3521003999
 11
13.0675264382
 21
-64.1504416206
  0
LINE
  5
38D
100
AcDbEntity
  8
RACCORDO
100
AcDbLine
 62
250
  6
CONTINUOUS
 10
13.0675264382
 20
-64.1504416206
 11
13.0437341458
 21
-63.9368263153
  0
LWPOLYLINE
  5
38E
100
AcDbEntity
  8
RACCORDO
100
AcDbPolyline
 62
250
  6
CONTINUOUS
 90
15
 70
0
 10
11.3434548688
 20
-4.8
 10
11.3484880841
 20
-4.8553049873
 10
11.3599186424
 20
-4.9108840432
 10
11.3777465435
 20
-4.9666135667
 10
11.4028328032
 20
-5.022336368
 10
11.4343164058
 20
-5.0779494117
 10
11.469614304
 20
-5.1334011527
 10
11.5083882919
 20
-5.1882624379
 10
11.5509765755
 20
-5.2426792975
 10
11.5958107257
 20
-5.2974032137
 10
11.6426693617
 20
-5.3521777101
 10
11.6917738643
 20
-5.4068012553
 10
11.7422199466
 20
-5.4619445622
 10
11.7940455938
 20
-5.517194512
 10
11.9007033845
 20
-5.6272464366
  0
LWPOLYLINE
  5
38F
100
AcDbEntity
  8
RACCORDO
100
AcDbPolyline
 62
250
  6
CONTINUOUS
 90
10
 70
0
 10
12.5016845799
 20
-6.2
 10
12.4986465935
 20
-6.1652703658
 10
12.4896249419
 20
-6.1315959735
 10
12.4748937431
 20
-6.1000000024
 10
12.4549005967
 20
-6.0714424801
 10
12.4302529844
 20
-6.0467911127
 10
12.4016998116
 20
-6.0267949199
 10
12.3701086522
 20
-6.0120614762
 10
12.3364393874
 20
-6.0030384495
 10
12.3017150409
 20
-6.0
  0
LINE
  5
390
100
AcDbEntity
  8
RACCORDO
100
AcDbLine
 62
250
  6
CONTINUOUS
 10
12.5238945802
 20
6.0724803933
 11
12.525937447
 21
6.0274253247
  0
LINE
  5
391
100
AcDbEntity
  8
RACCORDO
100
AcDbLine
 62
250
  6
CONTINUOUS
 10
12.5320629565
 20
-50.9082355201
 11
12.5339107425
 21
-50.9505308984
  0
LINE
  5
392
100
AcDbEntity
  8
RACCORDO
100
AcDbLine
 62
250
  6
CONTINUOUS
 10
12.6486475048
 20
-58.4610547219
 11
12.6267638763
 21
-57.9242133633
  0
LINE
  5
393
100
AcDbEntity
  8
RACCORDO
100
AcDbLine
 62
250
  6
CONTINUOUS
 10
12.525937447
 20
6.0274253247
 11
12.5278867311
 21
5.976652128
  0
LINE
  5
394
100
AcDbEntity
  8
RACCORDO
100
AcDbLine
 62
250
  6
CONTINUOUS
 10
12.5339107425
 20
-50.9505308984
 11
12.5356162294
 21
-50.9964573226
  0
LINE
  5
395
100
AcDbEntity
  8
RACCORDO
100
AcDbLine
 62
250
  6
CONTINUOUS
 10
12.6267638763
 20
-57.9242133633
 11
12.6067897224
 21
-57.360780095
  0
LINE
  5
396
100
AcDbEntity
  8
RACCORDO
100
AcDbLine
 62
250
  6
CONTINUOUS
 10
12.5278867311
 20
5.976652128
 11
12.5297391945
 21
5.9206704577
  0
LINE
  5
397
100
AcDbEntity
  8
RACCORDO
100
AcDbLine
 62
250
  6
CONTINUOUS
 10
12.5356162294
 20
-50.9964573226
 11
12.5379039561
 21
-51.0708534628
  0
LINE
  5
398
100
AcDbEntity
  8
RACCORDO
100
AcDbLine
 62
250
  6
CONTINUOUS
 10
12.6067897224
 20
-57.360780095
 11
12.5891331691
 21
-56.7676619214
  0
LINE
  5
399
100
AcDbEntity
  8
RACCORDO
100
AcDbLine
 62
250
  6
CONTINUOUS
 10
12.5297391945
 20
5.9206704577
 11
12.532322031
 21
5.827949191
  0
LINE
  5
39A
100
AcDbEntity
  8
RACCORDO
100
AcDbLine
 62
250
  6
CONTINUOUS
 10
12.5379039561
 20
-51.0708534628
 11
12.539867566
 21
-51.1496584558
  0
LINE
  5
39B
100
AcDbEntity
  8
RACCORDO
100
AcDbLine
 62
250
  6
CONTINUOUS
 10
12.5891331691
 20
-56.7676619214
 11
12.5743356868
 21
-56.1416040568
  0
LINE
  5
39C
100
AcDbEntity
  8
RACCORDO
100
AcDbLine
 62
250
  6
CONTINUOUS
 10
12.532322031
 20
5.827949191
 11
12.5353589059
 21
5.6915291475
  0
LINE
  5
39D
100
AcDbEntity
  8
RACCORDO
100
AcDbLine
 62
250
  6
CONTINUOUS
 10
12.539867566
 20
-51.1496584558
 11
12.5420028759
 21
-51.2581299012
  0
LINE
  5
39E
100
AcDbEntity
  8
RACCORDO
100
AcDbLine
 62
250
  6
CONTINUOUS
 10
12.5743356868
 20
-56.1416040568
 11
12.5631817733
 21
-55.4805450267
  0
LINE
  5
39F
100
AcDbEntity
  8
RACCORDO
100
AcDbLine
 62
250
  6
CONTINUOUS
 10
12.5353589059
 20
5.6915291475
 11
12.5384310716
 21
5.5093094409
  0
LINE
  5
3A0
100
AcDbEntity
  8
RACCORDO
100
AcDbLine
 62
250
  6
CONTINUOUS
 10
12.5420028759
 20
-51.2581299012
 11
12.5440010937
 21
-51.3957870139
  0
LINE
  5
3A1
100
AcDbEntity
  8
RACCORDO
100
AcDbLine
 62
250
  6
CONTINUOUS
 10
12.5384310716
 20
5.5093094409
 11
12.5410351133
 21
5.2878501976
  0
LINE
  5
3A2
100
AcDbEntity
  8
RACCORDO
100
AcDbLine
 62
250
  6
CONTINUOUS
 10
12.5440010937
 20
-51.3957870139
 11
12.5456077996
 21
-51.5644588496
  0
LINE
  5
3A3
100
AcDbEntity
  8
RACCORDO
100
AcDbLine
 62
250
  6
CONTINUOUS
 10
12.5631817733
 20
-55.4805450267
 11
12.5566224674
 21
-54.7807750349
  0
LINE
  5
3A4
100
AcDbEntity
  8
RACCORDO
100
AcDbLine
 62
250
  6
CONTINUOUS
 10
12.5410351133
 20
5.2878501976
 11
12.5427226296
 21
5.0431288091
  0
LINE
  5
3A5
100
AcDbEntity
  8
RACCORDO
100
AcDbLine
 62
250
  6
CONTINUOUS
 10
11.3556538187
 20
-54.6253044224
 11
11.3465766549
 21
-51.9557528124
  0
LINE
  5
3A6
100
AcDbEntity
  8
RACCORDO
100
AcDbLine
 62
250
  6
CONTINUOUS
 10
12.5566224674
 20
-54.7807750349
 11
12.5456077996
 21
-51.5644588496
  0
LINE
  5
3A7
100
AcDbEntity
  8
RACCORDO
100
AcDbLine
 62
250
  6
CONTINUOUS
 10
13.7376339397
 20
67.0298001851
 11
13.7537581737
 21
55.8112393367
  0
LINE
  5
3A8
100
AcDbEntity
  8
RACCORDO
100
AcDbLine
 62
250
  6
CONTINUOUS
 10
13.7537581737
 20
55.8112393367
 11
13.7654473898
 21
42.9690972185
  0
LINE
  5
3A9
100
AcDbEntity
  8
RACCORDO
100
AcDbLine
 62
250
  6
CONTINUOUS
 10
12.5656418392
 20
42.9071942101
 11
12.5700038872
 21
31.3829884118
  0
LINE
  5
3AA
100
AcDbEntity
  8
RACCORDO
100
AcDbLine
 62
250
  6
CONTINUOUS
 10
13.7654473898
 20
42.9690972185
 11
13.7697778691
 21
31.717016775
  0
LINE
  5
3AB
100
AcDbEntity
  8
RACCORDO
100
AcDbLine
 62
250
  6
CONTINUOUS
 10
11.3434548687
 20
-4.8
 11
11.3434548687
 21
4.8
  0
LINE
  5
3AC
100
AcDbEntity
  8
RACCORDO
100
AcDbLine
 62
7
  6
CONTINUOUS
 10
12.5
 20
50.8
 11
12.5
 21
6.2
  0
LINE
  5
3AD
100
AcDbEntity
  8
RACCORDO
100
AcDbLine
 62
7
  6
CONTINUOUS
 10
12.5
 20
-6.2
 11
12.5
 21
-50.8
  0
LINE
  5
3AE
100
AcDbEntity
  8
RACCORDO
100
AcDbLine
 62
250
  6
CONTINUOUS
 10
12.5432721029
 20
-4.8
 11
12.5427226296
 21
5.0431288091
  0
LINE
  5
3AF
100
AcDbEntity
  8
RACCORDO
100
AcDbLine
 62
250
  6
CONTINUOUS
 10
12.5700038872
 20
31.3829884118
 11
12.5685494102
 21
-37.1467369356
  0
LINE
  5
3B0
100
AcDbEntity
  8
RACCORDO
100
AcDbLine
 62
250
  6
CONTINUOUS
 10
13.7697778691
 20
31.717016775
 11
13.7685964099
 21
-36.5409190584
  0
LINE
  5
3B1
100
AcDbEntity
  8
RACCORDO
100
AcDbLine
 62
250
  6
CONTINUOUS
 10
12.5685494102
 20
-37.1467369356
 11
12.5636434754
 21
-45.7860768504
  0
LINE
  5
3B2
100
AcDbEntity
  8
RACCORDO
100
AcDbLine
 62
250
  6
CONTINUOUS
 10
13.7685964099
 20
-36.5409190584
 11
13.7643792137
 21
-44.5755528156
  0
LINE
  5
3B3
100
AcDbEntity
  8
RACCORDO
100
AcDbLine
 62
250
  6
CONTINUOUS
 10
13.7643792137
 20
-44.5755528156
 11
13.7573540544
 21
-52.602793513
  0
LINE
  5
3B4
100
AcDbEntity
  8
RACCORDO
100
AcDbLine
 62
250
  6
CONTINUOUS
 10
12.5636434754
 20
-45.7860768504
 11
12.5554710522
 21
-54.4166510389
  0
LINE
  5
3B5
100
AcDbEntity
  8
RACCORDO
100
AcDbLine
 62
250
  6
CONTINUOUS
 10
13.7573540544
 20
-52.602793513
 11
13.7475217203
 21
-60.6215728615
  0
LINE
  5
3B6
100
AcDbEntity
  8
RACCORDO
100
AcDbLine
 62
250
  6
CONTINUOUS
 10
13.7475217203
 20
-60.6215728615
 11
13.7376339207
 21
-67.029800198
  0
LINE
  5
3B7
100
AcDbEntity
  8
RACCORDO
100
AcDbLine
 62
250
  6
CONTINUOUS
 10
12.5656418392
 20
42.9071942101
 11
12.5566121775
 21
54.7788312133
  0
LINE
  5
3B8
100
AcDbEntity
  8
RACCORDO
100
AcDbLine
 62
250
  6
CONTINUOUS
 10
11.3465766548
 20
51.9557528124
 11
11.3556538187
 21
54.6253044215
  0
LINE
  5
3B9
100
AcDbEntity
  8
RACCORDO
100
AcDbLine
 62
250
  6
CONTINUOUS
 10
12.5432721029
 20
-4.8
 11
12.5427526561
 21
-5.0363439891
  0
LINE
  5
3BA
100
AcDbEntity
  8
RACCORDO
100
AcDbLine
 62
250
  6
CONTINUOUS
 10
12.5554710522
 20
54.4166510335
 11
12.5453816366
 21
51.5345765189
  0
LWPOLYLINE
  5
3BB
100
AcDbEntity
  8
RACCORDO
100
AcDbPolyline
 62
250
  6
CONTINUOUS
 90
17
 70
0
 10
11.3556538187
 20
54.6253044215
 10
11.3588892931
 20
54.9870995876
 10
11.3644218698
 20
55.3393406399
 10
11.3722515487
 20
55.6820021292
 10
11.3826158945
 20
56.014755601
 10
11.3952773425
 20
56.3378825364
 10
11.409523199
 20
56.652276048
 10
11.4252765374
 20
56.95788905
 10
11.4426142843
 20
57.2547324973
 10
11.4610545261
 20
57.5437912171
 10
11.4805422207
 20
57.8250418871
 10
11.5011324101
 20
58.0984802046
 10
11.5225083063
 20
58.365123501
 10
11.5446518486
 20
58.6251648479
 10
11.5675810978
 20
58.8783903955
 10
11.5910334484
 20
59.1252097265
 10
11.6150161569
 20
59.365843636
  0
LINE
  5
3BC
100
AcDbEntity
  8
RACCORDO
100
AcDbLine
 62
250
  6
CONTINUOUS
 10
12.5427526561
 20
-5.0363439891
 11
12.5410792682
 21
-5.2830835551
  0
LINE
  5
3BD
100
AcDbEntity
  8
RACCORDO
100
AcDbLine
 62
250
  6
CONTINUOUS
 10
12.5566121775
 20
54.7788312133
 11
12.5631005521
 21
55.4744211944
  0
LINE
  5
3BE
100
AcDbEntity
  8
RACCORDO
100
AcDbLine
 62
250
  6
CONTINUOUS
 10
12.5453816366
 20
51.5345765189
 11
12.5436278957
 21
51.3661213061
  0
LINE
  5
3BF
100
AcDbEntity
  8
RACCORDO
100
AcDbLine
 62
250
  6
CONTINUOUS
 10
12.5410792682
 20
-5.2830835551
 11
12.5384901661
 21
-5.5051868661
  0
LINE
  5
3C0
100
AcDbEntity
  8
RACCORDO
100
AcDbLine
 62
250
  6
CONTINUOUS
 10
12.5436278957
 20
51.3661213061
 11
12.5414856666
 21
51.2290337319
  0
LINE
  5
3C1
100
AcDbEntity
  8
RACCORDO
100
AcDbLine
 62
250
  6
CONTINUOUS
 10
12.5631005521
 20
55.4744211944
 11
12.5741203518
 21
56.1310159428
  0
LINE
  5
3C2
100
AcDbEntity
  8
RACCORDO
100
AcDbLine
 62
250
  6
CONTINUOUS
 10
12.5384901661
 20
-5.5051868661
 11
12.5354289618
 21
-5.6879546194
  0
LINE
  5
3C3
100
AcDbEntity
  8
RACCORDO
100
AcDbLine
 62
250
  6
CONTINUOUS
 10
12.5414856666
 20
51.2290337319
 11
12.5392130032
 21
51.1216058302
  0
LINE
  5
3C4
100
AcDbEntity
  8
RACCORDO
100
AcDbLine
 62
250
  6
CONTINUOUS
 10
12.5354289618
 20
-5.6879546194
 11
12.5323937145
 21
-5.825102278
  0
LINE
  5
3C5
100
AcDbEntity
  8
RACCORDO
100
AcDbLine
 62
250
  6
CONTINUOUS
 10
12.5741203518
 20
56.1310159428
 11
12.5887071377
 21
56.7517304381
  0
LINE
  5
3C6
100
AcDbEntity
  8
RACCORDO
100
AcDbLine
 62
250
  6
CONTINUOUS
 10
12.5392130032
 20
51.1216058302
 11
12.5371394844
 21
51.0442028599
  0
LINE
  5
3C7
100
AcDbEntity
  8
RACCORDO
100
AcDbLine
 62
250
  6
CONTINUOUS
 10
12.5323937145
 20
-5.825102278
 11
12.5298098007
 21
-5.9183747735
  0
LINE
  5
3C8
100
AcDbEntity
  8
RACCORDO
100
AcDbLine
 62
250
  6
CONTINUOUS
 10
12.5887071377
 20
56.7517304381
 11
12.6060588925
 21
57.3383618666
  0
LINE
  5
3C9
100
AcDbEntity
  8
RACCORDO
100
AcDbLine
 62
250
  6
CONTINUOUS
 10
12.5371394844
 20
51.0442028599
 11
12.5355755993
 21
50.9952861265
  0
LINE
  5
3CA
100
AcDbEntity
  8
RACCORDO
100
AcDbLine
 62
250
  6
CONTINUOUS
 10
12.5298098007
 20
-5.9183747735
 11
12.5279557186
 21
-5.9747055808
  0
LINE
  5
3CB
100
AcDbEntity
  8
RACCORDO
100
AcDbLine
 62
250
  6
CONTINUOUS
 10
12.6060588925
 20
57.3383618666
 11
12.6256065166
 21
57.8937793168
  0
LINE
  5
3CC
100
AcDbEntity
  8
RACCORDO
100
AcDbLine
 62
250
  6
CONTINUOUS
 10
12.5355755993
 20
50.9952861265
 11
12.5338691236
 21
50.9494979336
  0
LINE
  5
3CD
100
AcDbEntity
  8
RACCORDO
100
AcDbLine
 62
250
  6
CONTINUOUS
 10
12.5279557186
 20
-5.9747055808
 11
12.5260047963
 21
-6.0258026175
  0
LINE
  5
3CE
100
AcDbEntity
  8
RACCORDO
100
AcDbLine
 62
250
  6
CONTINUOUS
 10
12.6256065166
 20
57.8937793168
 11
12.6469281192
 21
58.4211933527
  0
LWPOLYLINE
  5
3CF
100
AcDbEntity
  8
RACCORDO
100
AcDbPolyline
 62
250
  6
CONTINUOUS
 90
25
 70
0
 10
12.5338691236
 20
50.9494979336
 10
12.5320213247
 20
50.907369444
 10
12.531041204
 20
50.8879232682
 10
12.5300261402
 20
50.8695820474
 10
12.5289880908
 20
50.8527194637
 10
12.5279236275
 20
50.8373891204
 10
12.5268361787
 20
50.8235374141
 10
12.5257479873
 20
50.8113772175
 10
12.5246572339
 20
50.801025625
 10
12.523565738
 20
50.7923655423
 10
12.5225012007
 20
50.7852585591
 10
12.5214702263
 20
50.7798126343
 10
12.5204662106
 20
50.7759198091
 10
12.5194970419
 20
50.7731177962
 10
12.518566153
 20
50.771397748
 10
12.5176701112
 20
50.7707685122
 10
12.5168065067
 20
50.7707943445
 10
12.5159756017
 20
50.7714412973
 10
12.515177134
 20
50.7727433183
 10
12.5144079073
 20
50.7743665056
 10
12.5136671135
 20
50.7762854773
 10
12.5129555607
 20
50.7785256153
 10
12.5122724771
 20
50.7808291643
 10
12.5116195063
 20
50.7831649216
 10
12.5103932701
 20
50.7878625222
  0
LWPOLYLINE
  5
3D0
100
AcDbEntity
  8
RACCORDO
100
AcDbPolyline
 62
250
  6
CONTINUOUS
 90
23
 70
0
 10
12.5260047963
 20
-6.0258026175
 10
12.5239637516
 20
-6.0710782697
 10
12.5229245424
 20
-6.0912596767
 10
12.5218741015
 20
-6.1096643748
 10
12.5208155024
 20
-6.1263446309
 10
12.5197708651
 20
-6.1411967584
 10
12.518743956
 20
-6.1540869657
 10
12.5177310086
 20
-6.1651490445
 10
12.5167428437
 20
-6.1746806827
 10
12.5157819534
 20
-6.1826450669
 10
12.5148458457
 20
-6.1890790106
 10
12.5139378654
 20
-6.1943906421
 10
12.5130603518
 20
-6.1985881968
 10
12.5122109656
 20
-6.2016634393
 10
12.5113860346
 20
-6.2039997919
 10
12.5105847569
 20
-6.2056235276
 10
12.5098079344
 20
-6.2065083734
 10
12.5090543003
 20
-6.2069589329
 10
12.5083226176
 20
-6.206990569
 10
12.5076141233
 20
-6.2065879187
 10
12.5069312621
 20
-6.206009497
 10
12.5062773525
 20
-6.2052788159
 10
12.505649076
 20
-6.2043723634
  0
LWPOLYLINE
  5
3D1
100
AcDbEntity
  8
RACCORDO
100
AcDbPolyline
 62
250
  6
CONTINUOUS
 90
10
 70
0
 10
12.5016845799
 20
6.2
 10
12.4986465698
 20
6.1652703145
 10
12.4896248824
 20
6.1315958806
 10
12.4748936399
 20
6.099999881
 10
12.4549004403
 20
6.0714423373
 10
12.4302527739
 20
6.0467909668
 10
12.4016995779
 20
6.0267948041
 10
12.3701084476
 20
6.012061411
 10
12.3364392613
 20
6.0030384298
 10
12.3017150409
 20
6.0
  0
LWPOLYLINE
  5
3D2
100
AcDbEntity
  8
RACCORDO
100
AcDbPolyline
 62
250
  6
CONTINUOUS
 90
10
 70
0
 10
12.5056858417
 20
50.8
 10
12.5026478479
 20
50.8347296761
 10
12.4936261747
 20
50.8684041061
 10
12.4788949417
 20
50.900000107
 10
12.4589017421
 20
50.9285576587
 10
12.4342540659
 20
50.9532090387
 10
12.4057008582
 20
50.9732052043
 10
12.3741097196
 20
50.9879385946
 10
12.340440527
 20
50.9969615721
 10
12.3057163027
 20
51.0
  0
LWPOLYLINE
  5
3D3
100
AcDbEntity
  8
RACCORDO
100
AcDbPolyline
 62
250
  6
CONTINUOUS
 90
9
 70
0
 10
18.396028996
 20
-32.8036049842
 10
18.3996548928
 20
-37.1049693765
 10
18.4056909745
 20
-41.4035965626
 10
18.4141420823
 20
-45.6990663623
 10
18.425003375
 20
-49.9908096744
 10
18.43826033
 20
-54.2781089228
 10
18.4539081064
 20
-58.5603986316
 10
18.4719515451
 20
-62.8372650888
 10
18.492390646
 20
-67.1082212622
  0
LWPOLYLINE
  5
3D4
100
AcDbEntity
  8
RACCORDO
100
AcDbPolyline
 62
250
  6
CONTINUOUS
 90
9
 70
0
 10
19.5943859947
 20
-32.7922806012
 10
19.5980125068
 20
-37.0809397525
 10
19.6040482623
 20
-41.3659774539
 10
19.6124972182
 20
-45.6476810603
 10
19.6233554174
 20
-49.9257632167
 10
19.63661099
 20
-54.1993618589
 10
19.652259979
 20
-58.468189632
 10
19.6703063413
 20
-62.7325338907
 10
19.6907500769
 20
-66.9923946352
  0
LINE
  5
3D5
100
AcDbEntity
  8
RACCORDO
100
AcDbLine
 62
250
  6
CONTINUOUS
 10
18.3948132843
 20
28.5
 11
18.396028996
 21
-32.8036049842
  0
LINE
  5
3D6
100
AcDbEntity
  8
RACCORDO
100
AcDbLine
 62
250
  6
CONTINUOUS
 10
18.4923965984
 20
-68.1907520401
 11
18.4923965984
 21
-67.1082212622
  0
LINE
  5
3D7
100
AcDbEntity
  8
RACCORDO
100
AcDbLine
 62
250
  6
CONTINUOUS
 10
18.4923965984
 20
67.1082212622
 11
18.4923965984
 21
68.1907520401
  0
LINE
  5
3D8
100
AcDbEntity
  8
RACCORDO
100
AcDbLine
 62
250
  6
CONTINUOUS
 10
19.593168726
 20
28.5
 11
19.5943859947
 21
-32.7922806012
  0
LWPOLYLINE
  5
3D9
100
AcDbEntity
  8
RACCORDO
100
AcDbPolyline
 62
250
  6
CONTINUOUS
 90
10
 70
0
 10
18.4923907541
 20
67.1082212622
 10
18.4719515751
 20
62.8372564701
 10
18.4539080807
 20
58.5603839214
 10
18.4382602711
 20
54.2780906567
 10
18.4250033132
 20
49.9907909099
 10
18.41414204
 20
45.6990496479
 10
18.4056909506
 20
41.4035829045
 10
18.3996548781
 20
37.1049592658
 10
18.3960289893
 20
32.8035994265
 10
18.3948132843
 20
28.5
  0
LWPOLYLINE
  5
3DA
100
AcDbEntity
  8
RACCORDO
100
AcDbPolyline
 62
250
  6
CONTINUOUS
 90
10
 70
0
 10
19.6907501196
 20
66.9923946779
 10
19.6703063046
 20
62.7325164811
 10
19.6522598899
 20
58.4681606698
 10
19.6366108755
 20
54.199327244
 10
19.6233553159
 20
49.9257308994
 10
19.6124971565
 20
45.6476569402
 10
19.6040482341
 20
41.3659612794
 10
19.5980124944
 20
37.0809292213
 10
19.5943859917
 20
32.7922754615
 10
19.593168726
 20
28.5
  0
LWPOLYLINE
  5
3DB
100
AcDbEntity
  8
RACCORDO
100
AcDbPolyline
 62
250
  6
CONTINUOUS
 90
14
 70
0
 10
11.3465791921
 20
-51.9557528124
 10
11.3503700605
 20
-51.9108714461
 10
11.3598856526
 20
-51.8663970142
 10
11.3751259684
 20
-51.8223955944
 10
11.3968154003
 20
-51.7788981159
 10
11.4242295559
 20
-51.7360050725
 10
11.4551952578
 20
-51.6938811882
 10
11.4894605076
 20
-51.6528503174
 10
11.5272773038
 20
-51.6126915958
 10
11.5672284641
 20
-51.5727877186
 10
11.6091015956
 20
-51.5332676358
 10
11.6531090913
 20
-51.4942053469
 10
11.6984709476
 20
-51.4550112778
 10
11.7451337266
 20
-51.4159048463
  0
LWPOLYLINE
  5
3DC
100
AcDbEntity
  8
RACCORDO
100
AcDbPolyline
 62
250
  6
CONTINUOUS
 90
10
 70
0
 10
12.5056858417
 20
-50.8
 10
12.5026478374
 20
-50.8347296457
 10
12.4936261688
 20
-50.8684040458
 10
12.4788949559
 20
-50.9000000206
 10
12.4589017999
 20
-50.9285575426
 10
12.4342541839
 20
-50.9532089065
 10
12.4057010146
 20
-50.9732050935
 10
12.3741098667
 20
-50.987938531
 10
12.3404406216
 20
-50.9969615526
 10
12.3057163027
 20
-51.0
  0
LINE
  5
3DD
100
AcDbEntity
  8
0
100
AcDbLine
 62
7
  6
CONTINUOUS
 10
-0.747089
 20
-64.023486
 11
-0.224196
 21
-62.199944
  0
LINE
  5
3DE
100
AcDbEntity
  8
0
100
AcDbLine
 62
7
  6
CONTINUOUS
 10
-0.467089
 20
-65.000063
 11
0.062377
 21
-63.153575
  0
LINE
  5
3DF
100
AcDbEntity
  8
0
100
AcDbLine
 62
7
  6
CONTINUOUS
 10
-4.788994
 20
-64.127982
 11
-4.169977
 21
-62.199944
  0
LINE
  5
3E0
100
AcDbEntity
  8
0
100
AcDbLine
 62
7
  6
CONTINUOUS
 10
-4.50898
 20
-65.00007
 11
-3.609949
 21
-62.199944
  0
LWPOLYLINE
  5
3E1
100
AcDbEntity
  8
RACCORDO
100
AcDbPolyline
 62
250
  6
CONTINUOUS
 90
16
 70
0
 10
19.6907520401
 20
66.9923965984
 10
19.6840167397
 20
67.1160494198
 10
19.6644768
 20
67.238774014
 10
19.6322196578
 20
67.3592325409
 10
19.5874194538
 20
67.4762131594
 10
19.5304760441
 20
67.5882642881
 10
19.4621391728
 20
67.6937732056
 10
19.3832575549
 20
67.7914728433
 10
19.2946221575
 20
67.880421
 10
19.1971734854
 20
67.9596663792
 10
19.0919505785
 20
68.0283446192
 10
18.9801198278
 20
68.085676431
 10
18.8629385751
 20
68.1310111825
 10
18.7417048863
 20
68.1638492206
 10
18.6177375569
 20
68.1838357827
 10
18.4923965984
 20
68.1907520401
  0
LINE
  5
3E2
100
AcDbEntity
  8
RACCORDO
100
AcDbLine
 62
7
  6
CONTINUOUS
 10
20.0
 20
67.3016445583
 11
20.0
 21
-67.3016445583
  0
LWPOLYLINE
  5
3E3
100
AcDbEntity
  8
RACCORDO
100
AcDbPolyline
 62
250
  6
CONTINUOUS
 90
16
 70
0
 10
19.6907520401
 20
-66.9923965984
 10
19.683867672
 20
-67.1174416927
 10
19.6639747419
 20
-67.2411215362
 10
19.6312904422
 20
-67.362085784
 10
19.5861716221
 20
-67.4790137402
 10
19.5291108922
 20
-67.5906287773
 10
19.4607312452
 20
-67.695712275
 10
19.3817792549
 20
-67.7931169244
 10
19.2931169244
 20
-67.8817792549
 10
19.195712275
 20
-67.9607312452
 10
19.0906287773
 20
-68.0291108922
 10
18.9790137402
 20
-68.0861716221
 10
18.862085784
 20
-68.1312904422
 10
18.7411215362
 20
-68.1639747419
 10
18.6174416927
 20
-68.183867672
 10
18.4923965984
 20
-68.1907520401
  0
LINE
  5
3E4
100
AcDbEntity
  8
0
100
AcDbLine
 62
7
  6
CONTINUOUS
 10
0.99575
 20
-65.00007
 11
1.894767
 21
-62.199937
  0
LINE
  5
3E5
100
AcDbEntity
  8
0
100
AcDbLine
 62
7
  6
CONTINUOUS
 10
1.903391
 20
-63.91738
 11
2.174788
 21
-63.072032
  0
LINE
  5
3E6
100
AcDbEntity
  8
0
100
AcDbLine
 62
7
  6
CONTINUOUS
 10
1.555771
 20
-65.000063
 11
1.73257
 21
-64.449401
  0
LINE
  5
3E7
100
AcDbEntity
  8
RACCORDO
100
AcDbLine
 62
250
  6
CONTINUOUS
 10
12.5104046993
 20
-50.7878184757
 11
12.5116337546
 21
-50.7831117309
  0
LWPOLYLINE
  5
3E8
100
AcDbEntity
  8
RACCORDO
100
AcDbPolyline
 62
250
  6
CONTINUOUS
 90
23
 70
0
 10
12.5116337546
 20
-50.7831117309
 10
12.5122879574
 20
-50.7807743856
 10
12.5129719092
 20
-50.7784721345
 10
12.5136841814
 20
-50.7762357226
 10
12.5144261
 20
-50.774322848
 10
12.5151968754
 20
-50.7727063524
 10
12.5159972972
 20
-50.7714133941
 10
12.51683106
 20
-50.7707831459
 10
12.5176988663
 20
-50.7707811642
 10
12.5186000135
 20
-50.7714418926
 10
12.5195360895
 20
-50.773207834
 10
12.5205108519
 20
-50.7760769528
 10
12.5215205431
 20
-50.7800512845
 10
12.5225554772
 20
-50.7855794388
 10
12.5236212941
 20
-50.7927670956
 10
12.5247123539
 20
-50.8015085749
 10
12.5258020524
 20
-50.8119354466
 10
12.5268887617
 20
-50.8241625872
 10
12.5279741096
 20
-50.8380751202
 10
12.5290363751
 20
-50.8534599859
 10
12.5300720265
 20
-50.8703641132
 10
12.5310845955
 20
-50.8887405732
 10
12.5320629565
 20
-50.9082355201
  0
LWPOLYLINE
  5
3E9
100
AcDbEntity
  8
RACCORDO
100
AcDbPolyline
 62
250
  6
CONTINUOUS
 90
16
 70
0
 10
12.5463965959
 20
-51.7115045985
 10
12.5378570657
 20
-51.7374843982
 10
12.5165570514
 20
-51.7629818621
 10
12.482718861
 20
-51.7877301901
 10
12.4366966869
 20
-51.811400271
 10
12.378979817
 20
-51.833806976
 10
12.3101928014
 20
-51.8549115603
 10
12.2310764085
 20
-51.8745461094
 10
12.1424755011
 20
-51.8924379539
 10
12.0453408926
 20
-51.9084152453
 10
11.9407143235
 20
-51.9223253199
 10
11.8297171555
 20
-51.9339977307
 10
11.7135396876
 20
-51.9432676356
 10
11.5934276492
 20
-51.950021611
 10
11.4706687776
 20
-51.9541986196
 10
11.3465792762
 20
-51.9557520594
  0
LINE
  5
3EA
100
AcDbEntity
  8
RACCORDO
100
AcDbLine
 62
250
  6
CONTINUOUS
 10
19.593168726
 20
28.5
 11
12.5701858192
 21
28.5
  0
LINE
  5
3EB
100
AcDbEntity
  8
RACCORDO
100
AcDbLine
 62
250
  6
CONTINUOUS
 10
-12.5701858192
 20
28.5
 11
-19.593168726
 21
28.5
  0
LWPOLYLINE
  5
3EC
100
AcDbEntity
  8
RACCORDO
100
AcDbPolyline
 62
250
  6
CONTINUOUS
 90
16
 70
0
 10
12.5463965955
 20
51.7115046163
 10
12.5378462552
 20
51.7367990913
 10
12.5165264136
 20
51.7618080215
 10
12.4826656185
 20
51.7862636292
 10
12.4366268587
 20
51.8098969039
 10
12.3789036509
 20
51.8324614429
 10
12.3101146643
 20
51.8537360728
 10
12.2309971916
 20
51.8735008655
 10
12.1423992608
 20
51.8915354258
 10
12.0452704444
 20
51.9076421419
 10
11.9406517925
 20
51.9216479733
 10
11.8296647456
 20
51.933403158
 10
11.7134990419
 20
51.9427785849
 10
11.5933999154
 20
51.9496727338
 10
11.4706547379
 20
51.9540127416
 10
11.3465792764
 20
51.9557520678
  0
LWPOLYLINE
  5
3ED
100
AcDbEntity
  8
RACCORDO
100
AcDbPolyline
 62
250
  6
CONTINUOUS
 90
8
 70
0
 10
12.509260143
 20
50.7921134129
 10
12.5087189662
 20
50.793989255
 10
12.5081911904
 20
50.7956650058
 10
12.5076774178
 20
50.7971415214
 10
12.5071706924
 20
50.7983228717
 10
12.5066686951
 20
50.7991770798
 10
12.5061737449
 20
50.7997361226
 10
12.5056858417
 20
50.8
  0
LINE
  5
3EE
100
AcDbEntity
  8
RACCORDO
100
AcDbLine
 62
250
  6
CONTINUOUS
 10
12.5103932701
 20
50.7878625222
 11
12.509260143
 21
50.7921134129
  0
LINE
  5
3EF
100
AcDbEntity
  8
RACCORDO
100
AcDbLine
 62
250
  6
CONTINUOUS
 10
-20.0
 20
-67.3016445583
 11
-19.6907500769
 21
-66.9923946352
  0
LINE
  5
3F0
100
AcDbEntity
  8
RACCORDO
100
AcDbLine
 62
250
  6
CONTINUOUS
 10
-19.6907501196
 20
66.9923946779
 11
-20.0
 21
67.3016445583
  0
LWPOLYLINE
  5
3F1
100
AcDbEntity
  8
RACCORDO
100
AcDbPolyline
 62
250
  6
CONTINUOUS
 90
13
 70
0
 10
12.5554709507
 20
-54.4166512563
 10
12.5427673105
 20
-54.4435936286
 10
12.5101932495
 20
-54.470085051
 10
12.4582939824
 20
-54.4956820977
 10
12.387938197
 20
-54.5199563134
 10
12.3003035201
 20
-54.5425013823
 10
12.1968568122
 20
-54.5629399303
 10
12.0793295979
 20
-54.5809298453
 10
11.9496890953
 20
-54.5961700003
 10
11.8101053025
 20
-54.6084052935
 10
11.662914647
 20
-54.6174309224
 10
11.5105808723
 20
-54.6230958103
 10
11.3556538187
 20
-54.6253051334
  0
LINE
  5
3F2
100
AcDbEntity
  8
RACCORDO
100
AcDbLine
 62
250
  6
CONTINUOUS
 10
-18.8016445583
 20
-68.5
 11
-18.4923965984
 21
-68.1907520401
  0
LINE
  5
3F3
100
AcDbEntity
  8
RACCORDO
100
AcDbLine
 62
250
  6
CONTINUOUS
 10
-18.4923965984
 20
68.1907520401
 11
-18.8016445583
 21
68.5
  0
LWPOLYLINE
  5
3F4
100
AcDbEntity
  8
RACCORDO
100
AcDbPolyline
 62
250
  6
CONTINUOUS
 90
13
 70
0
 10
12.5554700023
 20
54.4166512553
 10
12.5427658504
 20
54.4435936152
 10
12.5101913393
 20
54.4700850037
 10
12.4582917132
 20
54.4956819983
 10
12.3879356875
 20
54.5199561468
 10
12.3003009075
 20
54.5425011395
 10
12.1968542369
 20
54.5629396097
 10
12.0793272047
 20
54.5809294509
 10
11.9496870222
 20
54.5961695422
 10
11.8101036552
 20
54.6084047894
 10
11.662913502
 20
54.6174303942
 10
11.5105802865
 20
54.6230952827
 10
11.3556538187
 20
54.6253046339
  0
LWPOLYLINE
  5
3F5
100
AcDbEntity
  8
RACCORDO
100
AcDbPolyline
 62
250
  6
CONTINUOUS
 90
3
 70
0
 10
11.7451337266
 20
-51.4159048463
 10
11.8419026766
 20
-51.3379300835
 10
11.8919242482
 20
-51.2985010054
  0
LWPOLYLINE
  5
3F6
100
AcDbEntity
  8
RACCORDO
100
AcDbPolyline
 62
250
  6
CONTINUOUS
 90
10
 70
0
 10
11.8919242482
 20
-51.2985010054
 10
11.9919464435
 20
-51.2219457622
 10
12.0398773303
 20
-51.1856427132
 10
12.0863179273
 20
-51.1514182113
 10
12.1285776036
 20
-51.1208263159
 10
12.1658186971
 20
-51.0941659642
 10
12.1988788698
 20
-51.0709847426
 10
12.2275804771
 20
-51.0512764331
 10
12.2519453651
 20
-51.0349326592
 10
12.2719516876
 20
-51.0218682138
  0
LWPOLYLINE
  5
3F7
100
AcDbEntity
  8
RACCORDO
100
AcDbPolyline
 62
250
  6
CONTINUOUS
 90
49
 70
0
 10
-13.5146552036
 20
67.1082212622
 10
-13.4816440211
 20
67.0827310149
 10
-13.4497366882
 20
67.0554619157
 10
-13.4189332049
 20
67.026414025
 10
-13.3892855728
 20
66.9953705651
 10
-13.3607417904
 20
66.9625484543
 10
-13.3331458526
 20
66.9285982785
 10
-13.3065662132
 20
66.8937133109
 10
-13.2809344185
 20
66.8577003793
 10
-13.2558891025
 20
66.8206303751
 10
-13.2313929722
 20
66.7825582139
 10
-13.2074833205
 20
66.7434290934
 10
-13.1839106599
 20
66.7031493335
 10
-13.1606459132
 20
66.6617322145
 10
-13.1377181576
 20
66.6191645973
 10
-13.114965137
 20
66.5753131899
 10
-13.0923671951
 20
66.5301797833
 10
-13.0699439883
 20
66.4837627652
 10
-13.0475922299
 20
66.435923762
 10
-13.0253022606
 20
66.3866676677
 10
-13.0030837396
 20
66.3359898132
 10
-12.980862358
 20
66.2837375087
 10
-12.9586287143
 20
66.2299064687
 10
-12.9363922098
 20
66.1745012635
 10
-12.9141067393
 20
66.1173825192
 10
-12.8917659294
 20
66.0585456002
 10
-12.8693761533
 20
65.9979954977
 10
-12.8469104253
 20
65.9356073148
 10
-12.8243608118
 20
65.8713652398
 10
-12.8017352464
 20
65.8052855237
 10
-12.7790305435
 20
65.7372914007
 10
-12.7562470361
 20
65.6673877801
 10
-12.7333843912
 20
65.5955702789
 10
-12.7104384239
 20
65.5217482317
 10
-12.6874200046
 20
65.445966976
 10
-12.6643182628
 20
65.3681818044
 10
-12.6410964028
 20
65.288167051
 10
-12.6177574749
 20
65.2059515749
 10
-12.5942984287
 20
65.1215073178
 10
-12.5706733172
 20
65.034523349
 10
-12.5468773033
 20
64.9450020236
 10
-12.5229152241
 20
64.8529420317
 10
-12.4987556438
 20
64.7580270948
 10
-12.4743941212
 20
64.6602592392
 10
-12.4498350976
 20
64.5596377912
 10
-12.4250604606
 20
64.4558426034
 10
-12.4000663968
 20
64.3488777147
 10
-12.3748567196
 20
64.2387408278
 10
-12.3494247575
 20
64.1251025122
  0
LWPOLYLINE
  5
3F8
100
AcDbEntity
  8
RACCORDO
100
AcDbPolyline
 62
250
  6
CONTINUOUS
 90
3
 70
0
 10
12.3057163027
 20
51.0
 10
12.3045011578
 20
51.0011132127
 10
12.2991689074
 20
51.0045663396
  0
LWPOLYLINE
  5
3F9
100
AcDbEntity
  8
RACCORDO
100
AcDbPolyline
 62
250
  6
CONTINUOUS
 90
4
 70
0
 10
12.2719516876
 20
-51.0218682138
 10
12.298078024
 20
-51.0052201724
 10
12.3041980379
 20
-51.0012745543
 10
12.3057163027
 20
-51.0
  0
LWPOLYLINE
  5
3FA
100
AcDbEntity
  8
RACCORDO
100
AcDbPolyline
 62
250
  6
CONTINUOUS
 90
9
 70
0
 10
12.5056858417
 20
-50.8
 10
12.50617523
 20
-50.7997342775
 10
12.5066715284
 20
-50.7991725739
 10
12.5071747371
 20
-50.798314889
 10
12.5076824265
 20
-50.7971291747
 10
12.5081970262
 20
-50.7956474792
 10
12.5087258244
 20
-50.7939659471
 10
12.5092684138
 20
-50.7920832224
 10
12.5104046993
 20
-50.7878184757
  0
LINE
  5
3FB
100
AcDbEntity
  8
RACCORDO
100
AcDbLine
 62
250
  6
CONTINUOUS
 10
-12.5056858417
 20
50.8
 11
-12.5
 21
50.8
  0
LINE
  5
3FC
100
AcDbEntity
  8
RACCORDO
100
AcDbLine
 62
250
  6
CONTINUOUS
 10
12.5
 20
50.8
 11
12.5056858417
 21
50.8
  0
LINE
  5
3FD
100
AcDbEntity
  8
RACCORDO
100
AcDbLine
 62
7
  6
CONTINUOUS
 10
12.3057163027
 20
51.0
 11
-12.3057163027
 21
51.0
  0
LINE
  5
3FE
100
AcDbEntity
  8
RACCORDO
100
AcDbLine
 62
250
  6
CONTINUOUS
 10
11.3465766548
 20
51.9557528124
 11
-11.3465766548
 21
51.9557528124
  0
LWPOLYLINE
  5
3FF
100
AcDbEntity
  8
RACCORDO
100
AcDbPolyline
 62
250
  6
CONTINUOUS
 90
28
 70
0
 10
12.2991689074
 20
51.0045663396
 10
12.2760825832
 20
51.0191941589
 10
12.2583285092
 20
51.0307145942
 10
12.2366688512
 20
51.0451360156
 10
12.2111169145
 20
51.0625285572
 10
12.1816593936
 20
51.082995649
 10
12.1484678942
 20
51.1065346425
 10
12.1114978822
 20
51.133176289
 10
12.0707938916
 20
51.1629576303
 10
12.0266611307
 20
51.1958243642
 10
11.978198875
 20
51.2322206923
 10
11.9263078489
 20
51.2717326322
 10
11.8739954343
 20
51.3126729074
 10
11.821506726
 20
51.3542640866
 10
11.7685966291
 20
51.3965980451
 10
11.7175372406
 20
51.4389553771
 10
11.6688704275
 20
51.4805379968
 10
11.6220543227
 20
51.5215189442
 10
11.5777354216
 20
51.5627158004
 10
11.5357165185
 20
51.6040172159
 10
11.4961948191
 20
51.6452504733
 10
11.4604084367
 20
51.6873129655
 10
11.428030403
 20
51.7304812148
 10
11.3993876864
 20
51.7743572626
 10
11.3766993052
 20
51.8188902964
 10
11.3607049323
 20
51.8640171983
 10
11.3506648948
 20
51.9096617034
 10
11.3465791928
 20
51.9557528124
  0
LINE
  5
400
100
AcDbEntity
  8
0
100
AcDbLine
 62
7
  6
CONTINUOUS
 10
-3.6749773271
 20
-68.5
 11
-3.5
 21
-68.3951844414
  0
LINE
  5
401
100
AcDbEntity
  8
0
100
AcDbLine
 62
7
  6
CONTINUOUS
 10
-3.6749773271
 20
68.5
 11
-3.5
 21
68.3951844414
  0
LWPOLYLINE
  5
402
100
AcDbEntity
  8
RACCORDO
100
AcDbPolyline
 62
250
  6
CONTINUOUS
 90
10
 70
0
 10
19.6907520401
 20
-66.9923965978
 10
19.6783808283
 20
-67.0054933413
 10
19.6542883802
 20
-67.0165329792
 10
19.6187437672
 20
-67.0264676761
 10
19.5716563985
 20
-67.0372985643
 10
19.5129899684
 20
-67.0486879126
 10
19.4435140605
 20
-67.0581751762
 10
19.3643234296
 20
-67.0669687354
 10
19.2759540222
 20
-67.0762532136
 10
19.1792649595
 20
-67.0835802744
  0
LWPOLYLINE
  5
403
100
AcDbEntity
  8
RACCORDO
100
AcDbPolyline
 62
7
  6
CONTINUOUS
 90
10
 70
0
 10
13.7376339207
 20
-67.029800198
 10
13.7194300325
 20
-67.0459346962
 10
13.6995027718
 20
-67.0602487791
 10
13.6778521388
 20
-67.0727424657
 10
13.6543620147
 20
-67.0834626486
 10
13.6291485182
 20
-67.0923624658
 10
13.6025600052
 20
-67.0993013014
 10
13.5747125943
 20
-67.1042322898
 10
13.5454901668
 20
-67.1072023138
 10
13.5148927229
 20
-67.1082113777
  0
LWPOLYLINE
  5
404
100
AcDbEntity
  8
RACCORDO
100
AcDbPolyline
 62
250
  6
CONTINUOUS
 90
16
 70
0
 10
19.6907520401
 20
66.9923965978
 10
19.6782971673
 20
67.0040775568
 10
19.653696448
 20
67.0156399164
 10
19.6172018517
 20
67.026967526
 10
19.569187167
 20
67.0379472941
 10
19.5101441578
 20
67.0484673928
 10
19.4406775254
 20
67.0584180424
 10
19.3614987362
 20
67.0676968219
 10
19.2734187365
 20
67.0762100184
 10
19.1773396312
 20
67.0838704417
 10
19.0742454441
 20
67.0905983162
 10
18.9651920559
 20
67.0963252424
 10
18.8512963893
 20
67.1009945987
 10
18.7337249465
 20
67.104557936
 10
18.6136818647
 20
67.1069758351
 10
18.4923965985
 20
67.1082212627
  0
LWPOLYLINE
  5
405
100
AcDbEntity
  8
RACCORDO
100
AcDbPolyline
 62
250
  6
CONTINUOUS
 90
3
 70
0
 10
-19.179264955
 20
67.083580243
 10
-18.9667914917
 20
67.0965177499
 10
-18.852537478
 20
67.1010770999
  0
LWPOLYLINE
  5
406
100
AcDbEntity
  8
RACCORDO
100
AcDbPolyline
 62
250
  6
CONTINUOUS
 90
3
 70
0
 10
-18.852537478
 20
67.1010770999
 10
-18.6136074924
 20
67.1054158101
 10
-18.4923965984
 20
67.1082212627
  0
LINE
  5
407
100
AcDbEntity
  8
RACCORDO
100
AcDbLine
 62
7
  6
CONTINUOUS
 10
-13.5146552036
 20
67.1082212622
 11
13.5161512056
 21
67.1082212622
  0
LINE
  5
408
100
AcDbEntity
  8
RACCORDO
100
AcDbLine
 62
250
  6
CONTINUOUS
 10
13.5278784961
 20
67.1082212622
 11
18.4923907541
 21
67.1082212622
  0
LINE
  5
409
100
AcDbEntity
  8
RACCORDO
100
AcDbLine
 62
250
  6
CONTINUOUS
 10
-18.4923907541
 20
67.1082212622
 11
-13.5141262898
 21
67.1083065577
  0
LINE
  5
40A
100
AcDbEntity
  8
RACCORDO
100
AcDbLine
 62
250
  6
CONTINUOUS
 10
18.4923965984
 20
68.1907520401
 11
-18.4923965984
 21
68.1907520401
  0
LINE
  5
40B
100
AcDbEntity
  8
0
100
AcDbLine
 62
7
  6
CONTINUOUS
 10
-3.5
 20
68.3951844414
 11
3.5
 21
68.3951844414
  0
LINE
  5
40C
100
AcDbEntity
  8
RACCORDO
100
AcDbLine
 62
7
  6
CONTINUOUS
 10
18.8016445583
 20
68.5
 11
3.6749773271
 21
68.5
  0
LINE
  5
40D
100
AcDbEntity
  8
RACCORDO
100
AcDbLine
 62
7
  6
CONTINUOUS
 10
-3.6749773271
 20
68.5
 11
-18.8016445583
 21
68.5
  0
LWPOLYLINE
  5
40E
100
AcDbEntity
  8
0
100
AcDbPolyline
 62
7
  6
CONTINUOUS
 90
3
 70
0
 43
0.3500000006
 10
-0.8571428254
 20
77.8928585815
 10
-2.3571427875
 20
77.8928585815
 10
-1.7142856507
 20
80.2499969788
  0
LWPOLYLINE
  5
40F
100
AcDbEntity
  8
RACCORDO
100
AcDbPolyline
 62
7
  6
CONTINUOUS
 90
10
 70
0
 10
13.5278784961
 20
67.1082212622
 10
13.5577291484
 20
67.1061833967
 10
13.586071748
 20
67.1023666171
 10
13.6129062949
 20
67.0967709183
 10
13.6384035494
 20
67.0892495795
 10
13.6623927512
 20
67.079949304
 10
13.6843616192
 20
67.0693102231
 10
13.7041393931
 20
67.0574790413
 10
13.7218968333
 20
67.0443090329
 10
13.7376339397
 20
67.0298001851
  0
LWPOLYLINE
  5
410
100
AcDbEntity
  8
RACCORDO
100
AcDbPolyline
 62
250
  6
CONTINUOUS
 90
34
 70
0
 10
-13.7376345583
 20
67.0294213828
 10
-13.7191923647
 20
67.0272289955
 10
-13.7009833905
 20
67.0211041855
 10
-13.683011603
 20
67.0110479602
 10
-13.6652038588
 20
66.9967283023
 10
-13.6476404854
 20
66.9784790127
 10
-13.6305545238
 20
66.957300798
 10
-13.6140081042
 20
66.9331960073
 10
-13.597942212
 20
66.9061662482
 10
-13.5824065107
 20
66.877212215
 10
-13.5674294432
 20
66.8464168943
 10
-13.552982486
 20
66.8137011823
 10
-13.5390291935
 20
66.7798226168
 10
-13.5256177092
 20
66.7450046834
 10
-13.5126979713
 20
66.7090271806
 10
-13.5000871031
 20
66.6719813442
 10
-13.4877677191
 20
66.6339267826
 10
-13.4757564941
 20
66.5948056412
 10
-13.4639234073
 20
66.5545319878
 10
-13.452254309
 20
66.5131227786
 10
-13.4407637086
 20
66.4705619768
 10
-13.4293659767
 20
66.426713538
 10
-13.4180518402
 20
66.3815779756
 10
-13.4068318616
 20
66.3351552056
 10
-13.3956512177
 20
66.2873079003
 10
-13.384506664
 20
66.2380421689
 10
-13.3734035081
 20
66.1873520445
 10
-13.3623005999
 20
66.1350818243
 10
-13.3511948998
 20
66.0812262941
 10
-13.3400923383
 20
66.0257905977
 10
-13.3289659377
 20
65.9686343836
 10
-13.3178148721
 20
65.9097536756
 10
-13.3066436135
 20
65.8491522504
 10
-13.2954337202
 20
65.7867012601
  0
LINE
  5
411
100
AcDbEntity
  8
RACCORDO
100
AcDbLine
 62
7
  6
CONTINUOUS
 10
-44.3277364618
 20
-68.1907520401
 11
-38.4269338684
 21
-68.5
  0
LWPOLYLINE
  5
412
100
AcDbEntity
  8
RACCORDO
100
AcDbPolyline
 62
250
  6
CONTINUOUS
 90
6
 70
0
 10
-45.3090086743
 20
-67.0899064512
 10
-45.3622519841
 20
-67.0965177755
 10
-45.4044450912
 20
-67.1010771207
 10
-45.4350744878
 20
-67.1033497083
 10
-45.4534342925
 20
-67.1054158181
 10
-45.4593305042
 20
-67.1082212627
  0
LWPOLYLINE
  5
413
100
AcDbEntity
  8
RACCORDO
100
AcDbPolyline
 62
250
  6
CONTINUOUS
 90
3
 70
0
 10
-45.0860195445
 20
-67.0669687354
 10
-45.1699227241
 20
-67.0762532136
 10
-45.3090086743
 20
-67.0899064512
  0
LWPOLYLINE
  5
414
100
AcDbEntity
  8
RACCORDO
100
AcDbPolyline
 62
250
  6
CONTINUOUS
 90
7
 70
0
 10
-44.3277364618
 20
-66.9923965978
 10
-44.4473336477
 20
-67.0054933413
 10
-44.5639733157
 20
-67.0165329792
 10
-44.6774635761
 20
-67.0264676761
 10
-44.7876015621
 20
-67.0372985643
 10
-44.8935989337
 20
-67.0486879126
 10
-45.0860195445
 20
-67.0669687354
  0
LINE
  5
415
100
AcDbEntity
  8
RACCORDO
100
AcDbLine
 62
250
  6
CONTINUOUS
 10
-44.3277739222
 20
-66.9923946352
 11
-38.4269338684
 21
-67.3016445583
  0
LWPOLYLINE
  5
416
100
AcDbEntity
  8
0
100
AcDbPolyline
 62
7
  6
CONTINUOUS
 90
10
 70
0
 43
0.3500000006
 10
-41.5912208862
 20
77.2499960632
 10
-40.7340784149
 20
78.1071430664
 10
-40.5197893982
 20
78.9642900696
 10
-40.5197893982
 20
79.821428009
 10
-40.9483628998
 20
80.2499969788
 10
-41.5912208862
 20
80.2499969788
 10
-42.019789856
 20
79.821428009
 10
-42.019789856
 20
78.9642900696
 10
-41.5912208862
 20
78.5357120361
 10
-40.6626472321
 20
78.5357120361
  0
LINE
  5
417
100
AcDbEntity
  8
RACCORDO
100
AcDbLine
 62
250
  6
CONTINUOUS
 10
-46.1897370159
 20
-28.5
 11
-47.3269338684
 21
-28.5
  0
LWPOLYLINE
  5
418
100
AcDbEntity
  8
0
100
AcDbPolyline
 62
7
  6
CONTINUOUS
 90
3
 70
0
 43
0.3500000006
 10
-43.0197901611
 20
77.535711731
 10
-43.091221344
 20
77.3214272461
 10
-43.234074646
 20
77.0357115784
  0
LWPOLYLINE
  5
419
100
AcDbEntity
  8
0
100
AcDbPolyline
 62
7
  6
CONTINUOUS
 90
6
 70
0
 43
0.3500000006
 10
-56.0769318237
 20
-1.3928574028
 10
-56.0769318237
 20
-0.3214293137
 10
-56.2912208405
 20
-0.1071425629
 10
-57.3626477966
 20
-0.1071425629
 10
-57.7912212982
 20
-0.5357137985
 10
-57.7912212982
 20
-0.9642850342
  0
LWPOLYLINE
  5
41A
100
AcDbEntity
  8
0
100
AcDbPolyline
 62
7
  6
CONTINUOUS
 90
3
 70
0
 43
0.3500000006
 10
-58.2197902679
 20
-3.1071423454
 10
-59.0769327393
 20
-2.2499998741
 10
-56.0769318237
 20
-2.2499998741
  0
LWPOLYLINE
  5
41B
100
AcDbEntity
  8
0
100
AcDbPolyline
 62
7
  6
CONTINUOUS
 90
5
 70
0
 43
0.3500000006
 10
-57.7912212982
 20
-0.5357137985
 10
-58.0055057831
 20
-0.1785714798
 10
-58.6483637695
 20
-0.1785714798
 10
-59.0769327393
 20
-0.5357137985
 10
-59.0769327393
 20
-1.3928574028
  0
LINE
  5
41C
100
AcDbEntity
  8
RACCORDO
100
AcDbLine
 62
7
  6
CONTINUOUS
 10
-47.3269338684
 20
28.5
 11
-47.3269338684
 21
-28.5
  0
LWPOLYLINE
  5
41D
100
AcDbEntity
  8
RACCORDO
100
AcDbPolyline
 62
250
  6
CONTINUOUS
 90
10
 70
0
 10
-44.3277731076
 20
66.9923946779
 10
-44.7178643354
 20
62.7325164811
 10
-45.0622104405
 20
58.4681606698
 10
-45.360811423
 20
54.199327244
 10
-45.613742569
 20
49.9257308994
 10
-45.8209285923
 20
45.6476569402
 10
-45.9821436346
 20
41.3659612794
 10
-46.0973124095
 20
37.0809292213
 10
-46.1665102033
 20
32.7922754615
 10
-46.1897370159
 20
28.5
  0
LWPOLYLINE
  5
41E
100
AcDbEntity
  8
RACCORDO
100
AcDbPolyline
 62
250
  6
CONTINUOUS
 90
10
 70
0
 10
-46.1897370159
 20
-28.5
 10
-46.1665101469
 20
-32.7922806012
 10
-46.0973121737
 20
-37.0809397525
 10
-45.9821430963
 20
-41.3659774539
 10
-45.8209274156
 20
-45.6476810603
 10
-45.6137406308
 20
-49.9257632167
 10
-45.3608092393
 20
-54.1993618589
 10
-45.0622087403
 20
-58.468189632
 10
-44.7178636346
 20
-62.7325338907
 10
-44.3277739222
 20
-66.9923946352
  0
LINE
  5
41F
100
AcDbEntity
  8
RACCORDO
100
AcDbLine
 62
250
  6
CONTINUOUS
 10
-46.1897370159
 20
28.5
 11
-46.1897370159
 21
-28.5
  0
LWPOLYLINE
  5
420
100
AcDbEntity
  8
0
100
AcDbPolyline
 62
7
  6
CONTINUOUS
 90
4
 70
0
 43
0.3500000006
 10
-46.0912177277
 20
77.6785740967
 10
-46.0912177277
 20
78.5357120361
 10
-45.6626487579
 20
78.9642900696
 10
-45.0197907715
 20
78.9642900696
  0
LWPOLYLINE
  5
421
100
AcDbEntity
  8
RACCORDO
100
AcDbPolyline
 62
250
  6
CONTINUOUS
 90
16
 70
0
 10
-44.3277364618
 20
66.9923965984
 10
-44.3338638494
 20
67.1160494198
 10
-44.339271528
 20
67.238774014
 10
-44.3438939667
 20
67.3592325409
 10
-44.347676782
 20
67.4762131594
 10
-44.3505648552
 20
67.5882642881
 10
-44.3525129595
 20
67.6937732056
 10
-44.3534991702
 20
67.7914728433
 10
-44.3535155612
 20
67.880421
 10
-44.352561567
 20
67.9596663792
 10
-44.3506463422
 20
68.0283446192
 10
-44.3477901738
 20
68.085676431
 10
-44.3440248583
 20
68.1310111825
 10
-44.3393922385
 20
68.1638492206
 10
-44.3339428374
 20
68.1838357827
 10
-44.3277364618
 20
68.1907520401
  0
LINE
  5
422
100
AcDbEntity
  8
RACCORDO
100
AcDbLine
 62
7
  6
CONTINUOUS
 10
-38.4269338684
 20
68.5
 11
-38.4269338684
 21
-68.5
  0
LWPOLYLINE
  5
423
100
AcDbEntity
  8
RACCORDO
100
AcDbPolyline
 62
250
  6
CONTINUOUS
 90
16
 70
0
 10
-44.3277364618
 20
-66.9923965984
 10
-44.3339290031
 20
-67.1174416927
 10
-44.3393682447
 20
-67.2411215362
 10
-44.3439948008
 20
-67.362085784
 10
-44.3477581581
 20
-67.4790137402
 10
-44.3506172282
 20
-67.5906287773
 10
-44.3525407955
 20
-67.695712275
 10
-44.3535078584
 20
-67.7931169244
 10
-44.3535078584
 20
-67.8817792549
 10
-44.3525407955
 20
-67.9607312452
 10
-44.3506172282
 20
-68.0291108922
 10
-44.3477581581
 20
-68.0861716221
 10
-44.3439948008
 20
-68.1312904422
 10
-44.3393682447
 20
-68.1639747419
 10
-44.3339290031
 20
-68.183867672
 10
-44.3277364618
 20
-68.1907520401
  0
LWPOLYLINE
  5
424
100
AcDbEntity
  8
0
100
AcDbPolyline
 62
7
  6
CONTINUOUS
 90
4
 70
0
 43
0.3500000006
 10
-58.4340747528
 20
0.7499999084
 10
-59.0769327393
 20
0.7499999084
 10
-59.0769327393
 20
2.2500003662
 10
-56.0769318237
 20
1.3928578949
  0
LINE
  5
425
100
AcDbEntity
  8
RACCORDO
100
AcDbLine
 62
250
  6
CONTINUOUS
 10
-46.1897370159
 20
28.5
 11
-47.3269338684
 21
28.5
  0
LWPOLYLINE
  5
426
100
AcDbEntity
  8
0
100
AcDbPolyline
 62
7
  6
CONTINUOUS
 90
10
 70
0
 43
0.3500000006
 10
-43.091221344
 20
77.7499962158
 10
-43.0197901611
 20
77.6071429138
 10
-43.0197901611
 20
77.535711731
 10
-43.162647995
 20
77.392858429
 10
-43.234074646
 20
77.392858429
 10
-43.3055058289
 20
77.4642896118
 10
-43.3055058289
 20
77.535711731
 10
-43.234074646
 20
77.6785740967
 10
-43.162647995
 20
77.7499962158
 10
-43.091221344
 20
77.7499962158
  0
LINE
  5
427
100
AcDbEntity
  8
RACCORDO
100
AcDbLine
 62
250
  6
CONTINUOUS
 10
-38.4269338684
 20
67.3016445583
 11
-44.3277731076
 21
66.9923946779
  0
LINE
  5
428
100
AcDbEntity
  8
RACCORDO
100
AcDbLine
 62
7
  6
CONTINUOUS
 10
-38.4269338684
 20
68.5
 11
-44.3277364618
 21
68.1907520401
  0
LINE
  5
429
100
AcDbEntity
  8
RACCORDO
100
AcDbLine
 62
250
  6
CONTINUOUS
 10
-44.3277364617
 20
66.9923965978
 11
-45.0889426289
 21
67.0676968219
  0
LINE
  5
42A
100
AcDbEntity
  8
RACCORDO
100
AcDbLine
 62
250
  6
CONTINUOUS
 10
-45.0889426289
 20
67.0676968219
 11
-45.3098296457
 21
67.0905983162
  0
LWPOLYLINE
  5
42B
100
AcDbEntity
  8
RACCORDO
100
AcDbPolyline
 62
250
  6
CONTINUOUS
 90
5
 70
0
 10
-45.3098296457
 20
67.0905983162
 10
-45.4048444575
 20
67.1009945987
 10
-45.435053164
 20
67.104557936
 10
-45.4532773229
 20
67.1069758351
 10
-45.4593305042
 20
67.1082212627
  0
LWPOLYLINE
  5
42C
100
AcDbEntity
  8
0
100
AcDbPolyline
 62
7
  6
CONTINUOUS
 90
13
 70
0
 43
0.3500000006
 10
-45.6626487579
 20
78.9642900696
 10
-45.9483644257
 20
79.1785745544
 10
-45.9483644257
 20
79.821428009
 10
-45.6626487579
 20
80.2499969788
 10
-45.0197907715
 20
80.2499969788
 10
-44.7340751038
 20
79.821428009
 10
-44.7340751038
 20
79.1785745544
 10
-45.0197907715
 20
78.9642900696
 10
-44.5912218018
 20
78.5357120361
 10
-44.5912218018
 20
77.6785740967
 10
-45.0197907715
 20
77.2499960632
 10
-45.6626487579
 20
77.2499960632
 10
-46.0912177277
 20
77.6785740967
  0
ARC
  5
42D
100
AcDbEntity
  8
0
100
AcDbCircle
 62
7
  6
CONTINUOUS
 10
5.038572
 20
-63.058656
 40
0.8587214994
100
AcDbArc
 50
292.8428415932
 51
90.0
  0
ARC
  5
42E
100
AcDbEntity
  8
0
100
AcDbCircle
 62
7
  6
CONTINUOUS
 10
4.960842
 20
-63.058656
 40
0.340698
100
AcDbArc
 50
270.0
 51
90.0
  0
ARC
  5
42F
100
AcDbEntity
  8
RACCORDO
100
AcDbCircle
 62
7
  6
CONTINUOUS
 10
352.6730661316
 20
-28.5
 40
400.0
100
AcDbArc
 50
180.0
 51
185.5388433203
  0
ARC
  5
430
100
AcDbEntity
  8
RACCORDO
100
AcDbCircle
 62
7
  6
CONTINUOUS
 10
352.6730661316
 20
28.5
 40
400.0
100
AcDbArc
 50
174.4611566797
 51
180.0
  0
ARC
  5
431
100
AcDbEntity
  8
RACCORDO
100
AcDbCircle
 62
7
  6
CONTINUOUS
 10
-44.2649333143
 20
-66.9923965984
 40
1.2
100
AcDbArc
 50
185.5388433203
 51
267.0
  0
ARC
  5
432
100
AcDbEntity
  8
RACCORDO
100
AcDbCircle
 62
7
  6
CONTINUOUS
 10
-44.2649333143
 20
66.9923965984
 40
1.2
100
AcDbArc
 50
93.0
 51
174.4611566797
  0
ELLIPSE
  5
433
100
AcDbEntity
  8
RACCORDO
100
AcDbEllipse
 62
7
  6
CONTINUOUS
 10
-12.2999695344
 20
-6.2
 30
0.0
 11
-0.2000304656
 21
-0.0
 31
0.0
 40
0.9998476952
 41
-1.5707963268
 42
0.0
  0
ELLIPSE
  5
434
100
AcDbEntity
  8
RACCORDO
100
AcDbEllipse
 62
7
  6
CONTINUOUS
 10
-12.2999695344
 20
6.2
 30
0.0
 11
0.2000304656
 21
0.0
 31
0.0
 40
0.9998476952
 41
3.1415926536
 42
4.7123889804
  0
ELLIPSE
  5
435
100
AcDbEntity
  8
RACCORDO
100
AcDbEllipse
 62
7
  6
CONTINUOUS
 10
12.2999695344
 20
6.2
 30
0.0
 11
0.2000304656
 21
0.0
 31
0.0
 40
0.9998476952
 41
-1.5707963268
 42
0.0
  0
ELLIPSE
  5
436
100
AcDbEntity
  8
RACCORDO
100
AcDbEllipse
 62
7
  6
CONTINUOUS
 10
12.2999695344
 20
-6.2
 30
0.0
 11
-0.2000304656
 21
-0.0
 31
0.0
 40
0.9998476952
 41
3.1415926536
 42
4.7123889804
  0
ELLIPSE
  5
437
100
AcDbEntity
  8
RACCORDO
100
AcDbEllipse
 62
7
  6
CONTINUOUS
 10
-12.2999695344
 20
-50.8
 30
0.0
 11
0.2000304656
 21
0.0
 31
0.0
 40
0.9998476952
 41
3.1415926536
 42
4.7123889804
  0
ELLIPSE
  5
438
100
AcDbEntity
  8
RACCORDO
100
AcDbEllipse
 62
7
  6
CONTINUOUS
 10
12.2999695344
 20
-50.8
 30
0.0
 11
0.2000304656
 21
0.0
 31
0.0
 40
0.9998476952
 41
-1.5707963268
 42
0.0
  0
ELLIPSE
  5
439
100
AcDbEntity
  8
RACCORDO
100
AcDbEllipse
 62
7
  6
CONTINUOUS
 10
12.2999695344
 20
50.8
 30
0.0
 11
-0.2000304656
 21
-0.0
 31
0.0
 40
0.9998476952
 41
3.1415926536
 42
4.7123889804
  0
ELLIPSE
  5
43A
100
AcDbEntity
  8
RACCORDO
100
AcDbEllipse
 62
7
  6
CONTINUOUS
 10
-12.2999695344
 20
50.8
 30
0.0
 11
-0.2000304656
 21
-0.0
 31
0.0
 40
0.9998476952
 41
-1.5707963268
 42
0.0
  0
ELLIPSE
  5
43B
100
AcDbEntity
  8
RACCORDO
100
AcDbEllipse
 62
7
  6
CONTINUOUS
 10
-18.7983531848
 20
-67.2983531848
 30
0.0
 11
0.8508554921
 21
0.8508554921
 31
0.0
 40
0.9972646886
 41
-3.9256212891
 42
-2.3575640181
  0
ELLIPSE
  5
43C
100
AcDbEntity
  8
RACCORDO
100
AcDbEllipse
 62
7
  6
CONTINUOUS
 10
-18.7983531848
 20
67.2983531848
 30
0.0
 11
0.8508554921
 21
-0.8508554921
 31
0.0
 40
0.9972646886
 41
2.3575640181
 42
3.9256212891
  0
ELLIPSE
  5
43D
100
AcDbEntity
  8
RACCORDO
100
AcDbEllipse
 62
7
  6
CONTINUOUS
 10
18.7983531848
 20
67.2983531848
 30
0.0
 11
0.8508554921
 21
0.8508554921
 31
0.0
 40
0.9972646886
 41
-0.7840286355
 42
0.7840286355
  0
ELLIPSE
  5
43E
100
AcDbEntity
  8
RACCORDO
100
AcDbEllipse
 62
7
  6
CONTINUOUS
 10
18.7983531848
 20
-67.2983531848
 30
0.0
 11
0.8508554921
 21
-0.8508554921
 31
0.0
 40
0.9972646886
 41
-0.7840286355
 42
0.7840286355
  0
ENDSEC
  0
SECTION
  2
OBJECTS
  0
DICTIONARY
  5
C
100
AcDbDictionary
280
0
281
1
  3
ACAD_GROUP
350
D
  3
ACAD_MLINESTYLE
350
17
  3
ACAD_LAYOUT
350
1A
  3
ACAD_PLOTSETTINGS
350
19
  3
ACAD_PLOTSTYLENAME
350
E
  0
DICTIONARY
  5
D
102
{ACAD_REACTORS
330
C
102
}
100
AcDbDictionary
280
0
281
1
  0
ACDBDICTIONARYWDFLT
  5
E
102
{ACAD_REACTORS
330
C
102
}
100
AcDbDictionary
281
1
  3
Normal
350
F
100
AcDbDictionaryWithDefault
340
F
  0
DICTIONARY
  5
17
102
{ACAD_REACTORS
330
C
102
}
100
AcDbDictionary
280
0
281
1
  3
Standard
350
18
  0
DICTIONARY
  5
19
102
{ACAD_REACTORS
330
C
102
}
100
AcDbDictionary
281
1
  0
DICTIONARY
  5
1A
102
{ACAD_REACTORS
330
C
102
}
100
AcDbDictionary
281
1
  3
Model
350
43F
  3
Layout1
350
440
  0
ACDBPLACEHOLDER
  5
F
102
{ACAD_REACTORS
330
E
102
}
  0
MLINESTYLE
  5
18
102
{ACAD_REACTORS
330
17
102
}
100
AcDbMlineStyle
  2
STANDARD
 70
0
  3

 62
256
 51
90.0
 52
90.0
 71
2
 49
0.5
 62
256
  6
BYLAYER
 49
-0.5
 62
256
  6
BYLAYER
  0
LAYOUT
  5
43F
102
{ACAD_REACTORS
330
1A
102
}
100
AcDbPlotSettings
  1

  2
none_device
  4
ISO_A4_(297.00_x_210.00_MM)
  6

 40
0.0
 41
0.0
 42
0.0
 43
0.0
 44
297.0
 45
210.0
 46
0.0
 47
0.0
 48
0.0
 49
0.0
140
0.0
141
0.0
142
1.0
143
1.0
 70
1024
 72
1
 73
0
 74
0
  7

 75
0
147
1.0
148
0.0
149
0.0
100
AcDbLayout
  1
Model
 70
0
 71
0
 10
0.0
 20
0.0
 11
297.0
 21
210.0
 12
0.0
 22
0.0
 32
0.0
 14
0.0
 24
0.0
 34
0.0
 15
0.0
 25
0.0
 35
0.0
146
0.0
 13
0.0
 23
0.0
 33
0.0
 16
1.0
 26
0.0
 36
0.0
 17
0.0
 27
1.0
 37
0.0
 76
0
330
211
345
0
346
0
  0
LAYOUT
  5
440
102
{ACAD_REACTORS
330
1A
102
}
100
AcDbPlotSettings
  1

  2
none_device
  4
ISO_A4_(297.00_x_210.00_MM)
  6

 40
0.0
 41
0.0
 42
0.0
 43
0.0
 44
297.0
 45
210.0
 46
0.0
 47
0.0
 48
0.0
 49
0.0
140
0.0
141
0.0
142
1.0
143
1.0
 70
0
 72
1
 73
0
 74
0
  7

 75
0
147
1.0
148
0.0
149
0.0
100
AcDbLayout
  1
Layout1
 70
0
 71
1
 10
0.0
 20
0.0
 11
297.0
 21
210.0
 12
0.0
 22
0.0
 32
0.0
 14
0.0
 24
0.0
 34
0.0
 15
0.0
 25
0.0
 35
0.0
146
0.0
 13
0.0
 23
0.0
 33
0.0
 16
1.0
 26
0.0
 36
0.0
 17
0.0
 27
1.0
 37
0.0
 76
0
330
212
345
0
346
0
  0
ENDSEC
  0
EOF
