  0
SECTION
  2
HEADER
  9
$ACADVER
  1
AC1024
  9
$DWGCODEPAGE
  3
ANSI_1252
  9
$EXTMAX
 10
558.8
 20
431.8
 30
0.0
  9
$EXTMIN
 10
0.0
 20
0.0
 30
0.0
  9
$LIMMIN
 10
0.0
 20
0.0
  9
$LIMMAX
 10
558.8
 20
431.8
  9
$VIEWCTR
 10
279.4
 20
215.9
  9
$VIEWSIZE
 40
431.8
  9
$CLAYER
  8
0
  9
$LTSCALE
 40
30.734
  9
$CELTYPE
  6
BYLAYER
  9
$DIMSCALE
 40
1.0
  9
$DIMASZ
 40
3.0
  9
$DIMEXO
 40
0.5
  9
$DIMDLI
 40
21.2344
  9
$DIMEXE
 40
1.5
  9
$DIMCEN
 40
5.0292
  9
$DIMLFAC
 40
1.0
  9
$DIMBLK
  1
_FILLED
  9
$DIMALT
 70
0
  9
$DIMALTF
 40
0.0393700787
  9
$DIMTXT
 40
3.0
  9
$DIMTOL
 70
1
  9
$DIMLIM
 70
0
  9
$DIMTFAC
 40
1.0
  9
$DIMTP
 40
0.01
  9
$DIMTM
 40
0.01
  9
$DIMGAP
 40
0.625
  9
$DIMDSEP
 70
44
  9
$AUNITS
 70
0
  9
$PDMODE
 70
3
  9
$PDSIZE
 40
3.0
  9
$HANDSEED
  5
775
  9
$TILEMODE
 70
1
  9
$MEASUREMENT
 70
1
  9
$INSUNITS
 70
4
  0
ENDSEC
  0
SECTION
  2
CLASSES
  0
CLASS
  1
ACDBDICTIONARYWDFLT
  2
AcDbDictionaryWithDefault
  3
AutoCAD 2000
 90
0
 91
1
280
0
281
0
  0
CLASS
  1
ACDBPLACEHOLDER
  2
AcDbPlaceHolder
  3
AutoCAD 2000
 90
0
 91
1
280
0
281
0
  0
CLASS
  1
LAYOUT
  2
AcDbLayout
  3
AutoCAD 2000
 90
0
 91
0
280
0
281
0
  0
ENDSEC
  0
SECTION
  2
TABLES
  0
TABLE
  2
VPORT
  5
8
100
AcDbSymbolTable
 70
2
  0
VPORT
  5
1F4
100
AcDbSymbolTableRecord
100
AcDbViewportTableRecord
  2
*ACTIVE
 70
0
 10
0.0
 20
0.0
 11
1.0
 21
1.0
 12
279.4
 22
215.9
 13
0.0
 23
0.0
 14
1.0
 24
1.0
 15
0.0
 25
0.0
 16
0.0
 26
0.0
 36
1.0
 17
0.0
 27
0.0
 37
0.0
 40
431.8
 41
1.2941176471
 42
50.0
 43
0.0
 44
0.0
 50
0.0
 51
0.0
 71
0
 72
100
 73
1
 74
1
 75
0
 76
0
 77
0
 78
0
  0
ENDTAB
  0
TABLE
  2
LTYPE
  5
5
100
AcDbSymbolTable
 70
6
  0
LTYPE
  5
14
100
AcDbSymbolTableRecord
100
AcDbLinetypeTableRecord
  2
BYBLOCK
 70
0
  3

 72
65
 73
0
 40
0.0
  0
LTYPE
  5
15
100
AcDbSymbolTableRecord
100
AcDbLinetypeTableRecord
  2
BYLAYER
 70
0
  3

 72
65
 73
0
 40
0.0
  0
LTYPE
  5
16
100
AcDbSymbolTableRecord
100
AcDbLinetypeTableRecord
  2
CONTINUOUS
 70
64
  3
Solid line
 72
65
 73
0
 40
0.0
  0
LTYPE
  5
1F5
100
AcDbSymbolTableRecord
100
AcDbLinetypeTableRecord
  2
CENTER
 70
64
  3
____ _ ____ _ ____ _ ____ _ ____ _ ____ _ ____
 72
65
 73
4
 40
0.6
 49
0.375
 74
0
 49
-0.075
 74
0
 49
0.075
 74
0
 49
-0.075
 74
0
  0
LTYPE
  5
1F6
100
AcDbSymbolTableRecord
100
AcDbLinetypeTableRecord
  2
HIDDEN
 70
64
  3
- - - - - - - - - - - - - - - - - - - -
 72
65
 73
2
 40
0.2
 49
0.1
 74
0
 49
-0.1
 74
0
  0
LTYPE
  5
1F7
100
AcDbSymbolTableRecord
100
AcDbLinetypeTableRecord
  2
PHANTOM
 70
64
  3
_____ _ _ _____ _ _ _____ _ _ _____
 72
65
 73
6
 40
0.8
 49
0.45
 74
0
 49
-0.05
 74
0
 49
0.1
 74
0
 49
-0.05
 74
0
 49
0.1
 74
0
 49
-0.05
 74
0
  0
LTYPE
  5
1F8
100
AcDbSymbolTableRecord
100
AcDbLinetypeTableRecord
  2
DOT
 70
64
  3
. . . . . . . . . . . . . . . . . . . .
 72
65
 73
2
 40
0.2
 49
0.1
 74
0
 49
-0.1
 74
0
  0
LTYPE
  5
1F9
100
AcDbSymbolTableRecord
100
AcDbLinetypeTableRecord
  2
DASHED
 70
64
  3
- - - - - - - - - - - - - - - - - - - -
 72
65
 73
2
 40
0.2
 49
0.1
 74
0
 49
-0.1
 74
0
  0
ENDTAB
  0
TABLE
  2
LAYER
  5
2
100
AcDbSymbolTable
 70
36
  0
LAYER
  5
10
100
AcDbSymbolTableRecord
100
AcDbLayerTableRecord
  2
0
 70
0
 62
7
  6
CONTINUOUS
370
-3
390
F
  0
LAYER
  5
1FA
100
AcDbSymbolTableRecord
100
AcDbLayerTableRecord
  2
DEFAULT_1
 70
0
 62
7
  6
CENTER
370
-3
390
F
  0
LAYER
  5
1FB
100
AcDbSymbolTableRecord
100
AcDbLayerTableRecord
  2
DEFAULT_2
 70
0
 62
7
  6
HIDDEN
370
-3
390
F
  0
LAYER
  5
1FC
100
AcDbSymbolTableRecord
100
AcDbLayerTableRecord
  2
DEFAULT_3
 70
0
 62
7
  6
PHANTOM
370
-3
390
F
  0
LAYER
  5
1FD
100
AcDbSymbolTableRecord
100
AcDbLayerTableRecord
  2
217
 70
0
 62
7
  6
CONTINUOUS
370
-3
390
F
  0
LAYER
  5
1FE
100
AcDbSymbolTableRecord
100
AcDbLayerTableRecord
  2
284
 70
0
 62
7
  6
CONTINUOUS
370
-3
390
F
  0
LAYER
  5
1FF
100
AcDbSymbolTableRecord
100
AcDbLayerTableRecord
  2
ALTRI_PIANI
 70
0
 62
7
  6
CONTINUOUS
370
-3
390
F
  0
LAYER
  5
200
100
AcDbSymbolTableRecord
100
AcDbLayerTableRecord
  2
ASSI
 70
0
 62
7
  6
CONTINUOUS
370
-3
390
F
  0
LAYER
  5
201
100
AcDbSymbolTableRecord
100
AcDbLayerTableRecord
  2
COLOR5
 70
0
 62
7
  6
CONTINUOUS
370
-3
390
F
  0
LAYER
  5
202
100
AcDbSymbolTableRecord
100
AcDbLayerTableRecord
  2
COORDINATE
 70
0
 62
7
  6
CONTINUOUS
370
-3
390
F
  0
LAYER
  5
203
100
AcDbSymbolTableRecord
100
AcDbLayerTableRecord
  2
COORD_ORIGINE
 70
0
 62
7
  6
CONTINUOUS
370
-3
390
F
  0
LAYER
  5
204
100
AcDbSymbolTableRecord
100
AcDbLayerTableRecord
  2
CURVE
 70
0
 62
7
  6
CONTINUOUS
370
-3
390
F
  0
LAYER
  5
205
100
AcDbSymbolTableRecord
100
AcDbLayerTableRecord
  2
DRAFT
 70
0
 62
7
  6
CONTINUOUS
370
-3
390
F
  0
LAYER
  5
206
100
AcDbSymbolTableRecord
100
AcDbLayerTableRecord
  2
IGES
 70
0
 62
7
  6
CONTINUOUS
370
-3
390
F
  0
LAYER
  5
207
100
AcDbSymbolTableRecord
100
AcDbLayerTableRecord
  2
NOTE
 70
0
 62
7
  6
CONTINUOUS
370
-3
390
F
  0
LAYER
  5
208
100
AcDbSymbolTableRecord
100
AcDbLayerTableRecord
  2
PIANI
 70
0
 62
7
  6
CONTINUOUS
370
-3
390
F
  0
LAYER
  5
209
100
AcDbSymbolTableRecord
100
AcDbLayerTableRecord
  2
PIANI_ORIGINE
 70
0
 62
7
  6
CONTINUOUS
370
-3
390
F
  0
LAYER
  5
20A
100
AcDbSymbolTableRecord
100
AcDbLayerTableRecord
  2
PIANI_SFORMI
 70
0
 62
7
  6
CONTINUOUS
370
-3
390
F
  0
LAYER
  5
20B
100
AcDbSymbolTableRecord
100
AcDbLayerTableRecord
  2
PUNTI
 70
0
 62
7
  6
CONTINUOUS
370
-3
390
F
  0
LAYER
  5
20C
100
AcDbSymbolTableRecord
100
AcDbLayerTableRecord
  2
RACCORDO
 70
0
 62
7
  6
CONTINUOUS
370
-3
390
F
  0
LAYER
  5
20D
100
AcDbSymbolTableRecord
100
AcDbLayerTableRecord
  2
SMUSSO
 70
0
 62
7
  6
CONTINUOUS
370
-3
390
F
  0
LAYER
  5
20E
100
AcDbSymbolTableRecord
100
AcDbLayerTableRecord
  2
SNAPLINE
 70
0
 62
7
  6
CONTINUOUS
370
-3
390
F
  0
LAYER
  5
20F
100
AcDbSymbolTableRecord
100
AcDbLayerTableRecord
  2
SUPERFICI
 70
0
 62
7
  6
CONTINUOUS
370
-3
390
F
  0
LAYER
  5
210
100
AcDbSymbolTableRecord
100
AcDbLayerTableRecord
  2
TRASH
 70
0
 62
7
  6
CONTINUOUS
370
-3
390
F
  0
LAYER
  5
211
100
AcDbSymbolTableRecord
100
AcDbLayerTableRecord
  2
XSEC_DATUMS
 70
0
 62
7
  6
CONTINUOUS
370
-3
390
F
  0
ENDTAB
  0
TABLE
  2
STYLE
  5
3
100
AcDbSymbolTable
 70
1
  0
STYLE
  5
11
100
AcDbSymbolTableRecord
100
AcDbTextStyleTableRecord
  2
STANDARD
 70
0
 40
0.0
 41
0.8
 50
0.0
 71
0
 42
0.2
  3
txt
  4

  0
STYLE
  5
212
100
AcDbSymbolTableRecord
100
AcDbTextStyleTableRecord
  2
TEXTSTYLE_1
 70
0
 40
0.0
 41
0.8
 50
0.0
 71
0
 42
0.2
  3
gdt
  4

  0
ENDTAB
  0
TABLE
  2
VIEW
  5
6
100
AcDbSymbolTable
 70
0
  0
ENDTAB
  0
TABLE
  2
UCS
  5
7
100
AcDbSymbolTable
 70
0
  0
ENDTAB
  0
TABLE
  2
APPID
  5
9
100
AcDbSymbolTable
 70
1
  0
APPID
  5
213
100
AcDbSymbolTableRecord
100
AcDbRegAppTableRecord
  2
ACAD
 70
0
  0
ENDTAB
  0
TABLE
  2
BLOCK_RECORD
  5
1
100
AcDbSymbolTable
 70
0
  0
BLOCK_RECORD
  5
214
100
AcDbSymbolTableRecord
100
AcDbBlockTableRecord
  2
*Model_Space
  0
BLOCK_RECORD
  5
215
100
AcDbSymbolTableRecord
100
AcDbBlockTableRecord
  2
*Paper_Space
  0
BLOCK_RECORD
  5
216
100
AcDbSymbolTableRecord
100
AcDbBlockTableRecord
  2
_FILLED
  0
BLOCK_RECORD
  5
217
100
AcDbSymbolTableRecord
100
AcDbBlockTableRecord
  2
*D0
  0
BLOCK_RECORD
  5
218
100
AcDbSymbolTableRecord
100
AcDbBlockTableRecord
  2
*D1
  0
BLOCK_RECORD
  5
219
100
AcDbSymbolTableRecord
100
AcDbBlockTableRecord
  2
*D2
  0
BLOCK_RECORD
  5
21A
100
AcDbSymbolTableRecord
100
AcDbBlockTableRecord
  2
*D3
  0
ENDTAB
  0
TABLE
  2
DIMSTYLE
  5
A
100
AcDbSymbolTable
 70
1
100
AcDbDimStyleTable
 71
0
  0
DIMSTYLE
105
21B
100
AcDbSymbolTableRecord
100
AcDbDimStyleTableRecord
  2
STANDARD
 70
0
  3

  4

 40
1.0
 41
3.0
 42
0.5
 43
0.38
 44
1.5
 45
0.0
 46
0.0
 47
0.01
 48
0.01
140
3.0
141
0.09
142
0.0
143
25.4
144
1.0
145
0.0
146
1.0
147
0.625
 71
1
 72
0
 73
0
 74
0
 75
0
 76
0
 77
1
 78
8
 79
2
170
0
171
1
172
0
173
0
174
0
175
0
176
0
177
0
178
0
270
2
179
2
271
2
272
2
273
2
274
2
275
0
280
0
281
0
282
0
283
1
284
8
285
0
286
0
287
3
288
0
340
11
278
44
341
216
342
216
343
216
344
216
  0
DIMSTYLE
105
21C
100
AcDbSymbolTableRecord
100
AcDbDimStyleTableRecord
  2
DIMSTYLE_1
 70
0
  3

  4

 40
1.0
 41
3.0
 42
0.5
 43
0.38
 44
1.5
 45
0.0
 46
0.0
 47
0.0
 48
0.0
140
3.0
141
0.09
142
0.0
143
25.4
144
1.0
145
0.0
146
1.0
147
0.75
 71
0
 72
0
 73
0
 74
0
 75
0
 76
0
 77
1
 78
8
 79
2
170
0
171
1
172
0
173
0
174
0
175
0
176
0
177
0
178
0
270
2
179
2
271
2
272
2
273
2
274
2
275
0
280
0
281
0
282
0
283
1
284
8
285
0
286
0
287
3
288
0
340
11
278
44
341
216
342
216
343
216
344
216
  0
ENDTAB
  0
ENDSEC
  0
SECTION
  2
BLOCKS
  0
BLOCK
  5
20
100
AcDbEntity
  8
0
100
AcDbBlockBegin
  2
*Model_Space
 70
0
 10
0.0
 20
0.0
 30
0.0
  3
*Model_Space
  1

  0
ENDBLK
  5
21
100
AcDbEntity
  8
0
100
AcDbBlockEnd
  0
BLOCK
  5
1C
100
AcDbEntity
  8
0
100
AcDbBlockBegin
  2
*Paper_Space
 70
0
 10
0.0
 20
0.0
 30
0.0
  3
*Paper_Space
  1

  0
ENDBLK
  5
1D
100
AcDbEntity
  8
0
100
AcDbBlockEnd
  0
BLOCK
  5
21D
100
AcDbEntity
  8
0
100
AcDbBlockBegin
  2
_FILLED
 70
64
 10
0.0
 20
0.0
  3
_FILLED
  1

  0
SOLID
  5
21E
100
AcDbEntity
  8
0
  6
BYBLOCK
 62
0
100
AcDbTrace
 10
0.0
 20
0.0
 11
-1.0
 21
0.3166666667
 12
-1.0
 22
-0.3166666667
 13
-1.0
 23
-0.3166666667
  0
ENDBLK
  5
21F
100
AcDbEntity
  8
0
  6
BYBLOCK
 62
0
100
AcDbBlockEnd
  0
BLOCK
  5
220
100
AcDbEntity
  8
0
100
AcDbBlockBegin
 62
7
  6
CONTINUOUS
  2
*D0
 70
65
 10
0.0
 20
0.0
  3
*D0
  1

  0
LINE
  5
221
100
AcDbEntity
  8
0
100
AcDbLine
 62
7
  6
CONTINUOUS
 10
-88.709315131
 20
23.7
 11
-88.709315131
 21
64.2
  0
LINE
  5
222
100
AcDbEntity
  8
0
100
AcDbLine
 62
7
  6
CONTINUOUS
 10
-120.509315131
 20
-0.8
 11
-120.509315131
 21
64.2
  0
LINE
  5
223
100
AcDbEntity
  8
0
100
AcDbLine
 62
7
  6
CONTINUOUS
 10
-88.709315131
 20
62.7
 11
-104.609315131
 21
62.7
  0
LINE
  5
224
100
AcDbEntity
  8
0
100
AcDbLine
 62
7
  6
CONTINUOUS
 10
-120.509315131
 20
62.7
 11
-104.609315131
 21
62.7
  0
INSERT
  5
225
100
AcDbEntity
  8
0
100
AcDbBlockReference
 62
7
  6
CONTINUOUS
  2
_FILLED
 10
-88.709315131
 20
62.7
 41
3.0
 42
3.0
 43
3.0
  0
INSERT
  5
226
100
AcDbEntity
  8
0
100
AcDbBlockReference
 62
7
  6
CONTINUOUS
  2
_FILLED
 10
-120.509315131
 20
62.7
 41
3.0
 42
3.0
 43
3.0
 50
180.0
  0
ENDBLK
  5
227
100
AcDbEntity
  8
0
  6
BYBLOCK
 62
0
100
AcDbBlockEnd
  0
BLOCK
  5
228
100
AcDbEntity
  8
0
100
AcDbBlockBegin
 62
7
  6
CONTINUOUS
  2
*D1
 70
65
 10
0.0
 20
0.0
  3
*D1
  1

  0
LINE
  5
229
100
AcDbEntity
  8
0
100
AcDbLine
 62
7
  6
CONTINUOUS
 10
-97.209315131
 20
45.2
 11
-97.209315131
 21
54.2
  0
LINE
  5
22A
100
AcDbEntity
  8
0
100
AcDbLine
 62
7
  6
CONTINUOUS
 10
-120.509315131
 20
-0.8
 11
-120.509315131
 21
54.2
  0
LINE
  5
22B
100
AcDbEntity
  8
0
100
AcDbLine
 62
7
  6
CONTINUOUS
 10
-97.209315131
 20
52.7
 11
-108.859315131
 21
52.7
  0
LINE
  5
22C
100
AcDbEntity
  8
0
100
AcDbLine
 62
7
  6
CONTINUOUS
 10
-120.509315131
 20
52.7
 11
-108.859315131
 21
52.7
  0
INSERT
  5
22D
100
AcDbEntity
  8
0
100
AcDbBlockReference
 62
7
  6
CONTINUOUS
  2
_FILLED
 10
-97.209315131
 20
52.7
 41
3.0
 42
3.0
 43
3.0
  0
INSERT
  5
22E
100
AcDbEntity
  8
0
100
AcDbBlockReference
 62
7
  6
CONTINUOUS
  2
_FILLED
 10
-120.509315131
 20
52.7
 41
3.0
 42
3.0
 43
3.0
 50
180.0
  0
ENDBLK
  5
22F
100
AcDbEntity
  8
0
  6
BYBLOCK
 62
0
100
AcDbBlockEnd
  0
BLOCK
  5
230
100
AcDbEntity
  8
0
100
AcDbBlockBegin
 62
7
  6
CONTINUOUS
  2
*D2
 70
65
 10
0.0
 20
0.0
  3
*D2
  1

  0
LINE
  5
231
100
AcDbEntity
  8
0
100
AcDbLine
 62
7
  6
CONTINUOUS
 10
-61.2
 20
45.2
 11
-61.2
 21
54.0947277091
  0
LINE
  5
232
100
AcDbEntity
  8
0
100
AcDbLine
 62
7
  6
CONTINUOUS
 10
61.2
 20
45.2
 11
61.2
 21
54.0947277091
  0
LINE
  5
233
100
AcDbEntity
  8
0
100
AcDbLine
 62
7
  6
CONTINUOUS
 10
-61.2
 20
52.5947277091
 11
0.0
 21
52.5947277091
  0
LINE
  5
234
100
AcDbEntity
  8
0
100
AcDbLine
 62
7
  6
CONTINUOUS
 10
61.2
 20
52.5947277091
 11
0.0
 21
52.5947277091
  0
INSERT
  5
235
100
AcDbEntity
  8
0
100
AcDbBlockReference
 62
7
  6
CONTINUOUS
  2
_FILLED
 10
-61.2
 20
52.5947277091
 41
3.0
 42
3.0
 43
3.0
 50
180.0
  0
INSERT
  5
236
100
AcDbEntity
  8
0
100
AcDbBlockReference
 62
7
  6
CONTINUOUS
  2
_FILLED
 10
61.2
 20
52.5947277091
 41
3.0
 42
3.0
 43
3.0
  0
ENDBLK
  5
237
100
AcDbEntity
  8
0
  6
BYBLOCK
 62
0
100
AcDbBlockEnd
  0
BLOCK
  5
238
100
AcDbEntity
  8
0
100
AcDbBlockBegin
 62
7
  6
CONTINUOUS
  2
*D3
 70
65
 10
0.0
 20
0.0
  3
*D3
  1

  0
LINE
  5
239
100
AcDbEntity
  8
0
100
AcDbLine
 62
7
  6
CONTINUOUS
 10
61.0082173135
 20
44.7
 11
70.7
 21
44.7
  0
LINE
  5
23A
100
AcDbEntity
  8
0
100
AcDbLine
 62
7
  6
CONTINUOUS
 10
61.7
 20
-43.5
 11
70.7
 21
-43.5
  0
LINE
  5
23B
100
AcDbEntity
  8
0
100
AcDbLine
 62
7
  6
CONTINUOUS
 10
69.2
 20
44.7
 11
69.2
 21
0.6
  0
LINE
  5
23C
100
AcDbEntity
  8
0
100
AcDbLine
 62
7
  6
CONTINUOUS
 10
69.2
 20
-43.5
 11
69.2
 21
0.6
  0
INSERT
  5
23D
100
AcDbEntity
  8
0
100
AcDbBlockReference
 62
7
  6
CONTINUOUS
  2
_FILLED
 10
69.2
 20
44.7
 41
3.0
 42
3.0
 43
3.0
 50
90.0
  0
INSERT
  5
23E
100
AcDbEntity
  8
0
100
AcDbBlockReference
 62
7
  6
CONTINUOUS
  2
_FILLED
 10
69.2
 20
-43.5
 41
3.0
 42
3.0
 43
3.0
 50
270.0
  0
ENDBLK
  5
23F
100
AcDbEntity
  8
0
  6
BYBLOCK
 62
0
100
AcDbBlockEnd
  0
ENDSEC
  0
SECTION
  2
ENTITIES
  0
DIMENSION
  5
240
100
AcDbEntity
  8
0
100
AcDbDimension
 62
7
  6
CONTINUOUS
  2
*D0
 10
-120.509315131
 20
62.7
 11
-108.5736008453
 21
62.7
 70
160
 71
2
 72
2
 41
0.9
 42
31.8
  3
DIMSTYLE_1
100
AcDbAlignedDimension
 13
-88.709315131
 23
23.2
 14
-120.509315131
 24
-1.3
 50
180.0
100
AcDbRotatedDimension
  0
DIMENSION
  5
241
100
AcDbEntity
  8
0
100
AcDbDimension
 62
7
  6
CONTINUOUS
  2
*D1
 10
-120.509315131
 20
52.7
 11
-113.0378865595
 21
52.7
 70
160
 71
2
 72
2
 41
0.9
 42
23.3
  3
DIMSTYLE_1
100
AcDbAlignedDimension
 13
-97.209315131
 23
44.7
 14
-120.509315131
 24
-1.3
 50
180.0
100
AcDbRotatedDimension
  0
DIMENSION
  5
242
100
AcDbEntity
  8
0
100
AcDbDimension
 62
7
  6
CONTINUOUS
  2
*D2
 10
61.2
 20
52.5947277091
 11
-5.25
 21
52.5947277091
 70
160
 71
2
 72
2
 41
0.9
 42
122.4
  3
DIMSTYLE_1
100
AcDbAlignedDimension
 13
-61.2
 23
44.7
 14
61.2
 24
44.7
100
AcDbRotatedDimension
  0
DIMENSION
  5
243
100
AcDbEntity
  8
0
100
AcDbDimension
 62
7
  6
CONTINUOUS
  2
*D3
 10
69.2
 20
-43.5
 11
69.2
 21
-3.7928571429
 70
160
 71
2
 72
2
 41
0.9
 42
88.2
  3
DIMSTYLE_1
100
AcDbAlignedDimension
 13
60.5082173135
 23
44.7
 14
61.2
 24
-43.5
 50
270.0
100
AcDbRotatedDimension
  0
LINE
  5
244
100
AcDbEntity
  8
284
100
AcDbLine
 62
7
  6
CONTINUOUS
 10
-61.2
 20
-43.5
 11
-61.2
 21
44.7
  0
LINE
  5
245
100
AcDbEntity
  8
284
100
AcDbLine
 62
7
  6
CONTINUOUS
 10
-60.5082173135
 20
44.7
 11
-60.5082173135
 21
42.1679486355
  0
LINE
  5
246
100
AcDbEntity
  8
284
100
AcDbLine
 62
7
  6
CONTINUOUS
 10
-60.5082173135
 20
22.2320513645
 11
-60.5082173135
 21
-42.8082173135
  0
LINE
  5
247
100
AcDbEntity
  8
217
100
AcDbLine
 62
7
  6
CONTINUOUS
 10
-60.4809503754
 20
41.9
 11
-60.4809503754
 21
22.4828759398
  0
LINE
  5
248
100
AcDbEntity
  8
217
100
AcDbLine
 62
250
  6
CONTINUOUS
 10
-55.788267846
 20
12.9479862865
 11
-55.8886696189
 21
18.7
  0
LINE
  5
249
100
AcDbEntity
  8
217
100
AcDbLine
 62
250
  6
CONTINUOUS
 10
-55.6587505744
 20
0.419062034
 11
-55.6775050441
 21
12.7
  0
LINE
  5
24A
100
AcDbEntity
  8
217
100
AcDbLine
 62
250
  6
CONTINUOUS
 10
-55.6866677659
 20
18.7
 11
-55.7117362727
 21
35.1155415746
  0
LINE
  5
24B
100
AcDbEntity
  8
284
100
AcDbLine
 62
7
  6
CONTINUOUS
 10
-59.0082214026
 20
22.2320513645
 11
-59.0082214026
 21
-41.3082214026
  0
LINE
  5
24C
100
AcDbEntity
  8
284
100
AcDbLine
 62
7
  6
CONTINUOUS
 10
-58.9
 20
22.4828759398
 11
-58.9
 21
-41.2
  0
LINE
  5
24D
100
AcDbEntity
  8
217
100
AcDbLine
 62
7
  6
CONTINUOUS
 10
-58.8034311225
 20
1.95
 11
-58.8034311225
 21
-4.55
  0
LINE
  5
24E
100
AcDbEntity
  8
217
100
AcDbLine
 62
7
  6
CONTINUOUS
 10
-58.8
 20
22.4828759398
 11
-58.8
 21
1.95
  0
LINE
  5
24F
100
AcDbEntity
  8
217
100
AcDbLine
 62
7
  6
CONTINUOUS
 10
-58.8
 20
-4.55
 11
-58.8
 21
-40.95
  0
LINE
  5
250
100
AcDbEntity
  8
217
100
AcDbLine
 62
7
  6
CONTINUOUS
 10
-58.3
 20
1.95
 11
-58.3
 21
-4.55
  0
LINE
  5
251
100
AcDbEntity
  8
217
100
AcDbLine
 62
7
  6
CONTINUOUS
 10
-57.4
 20
25.2
 11
-57.4
 21
6.2
  0
LINE
  5
252
100
AcDbEntity
  8
217
100
AcDbLine
 62
7
  6
CONTINUOUS
 10
-57.4
 20
-8.8
 11
-57.4
 21
-27.8
  0
LINE
  5
253
100
AcDbEntity
  8
217
100
AcDbLine
 62
7
  6
CONTINUOUS
 10
-56.9
 20
-15.3
 11
-56.9
 21
-21.3
  0
LINE
  5
254
100
AcDbEntity
  8
217
100
AcDbLine
 62
7
  6
CONTINUOUS
 10
-56.9
 20
12.7
 11
-56.9
 21
18.7
  0
LINE
  5
255
100
AcDbEntity
  8
284
100
AcDbLine
 62
7
  6
CONTINUOUS
 10
-56.0194178851
 20
25.2
 11
-56.0194178851
 21
18.7
  0
LINE
  5
256
100
AcDbEntity
  8
284
100
AcDbLine
 62
7
  6
CONTINUOUS
 10
-56.0194178851
 20
12.7
 11
-56.0194178851
 21
6.2
  0
LINE
  5
257
100
AcDbEntity
  8
284
100
AcDbLine
 62
7
  6
CONTINUOUS
 10
-56.0194178851
 20
-8.8
 11
-56.0194178851
 21
-15.3
  0
LINE
  5
258
100
AcDbEntity
  8
284
100
AcDbLine
 62
7
  6
CONTINUOUS
 10
-56.0194178851
 20
-21.3
 11
-56.0194178851
 21
-27.8
  0
LINE
  5
259
100
AcDbEntity
  8
217
100
AcDbLine
 62
7
  6
CONTINUOUS
 10
-56.0
 20
36.6999412971
 11
-56.0
 21
18.7
  0
LINE
  5
25A
100
AcDbEntity
  8
217
100
AcDbLine
 62
7
  6
CONTINUOUS
 10
-56.0
 20
12.7
 11
-56.0
 21
1.95
  0
LINE
  5
25B
100
AcDbEntity
  8
217
100
AcDbLine
 62
7
  6
CONTINUOUS
 10
-56.0
 20
-4.55
 11
-56.0
 21
-15.3
  0
LINE
  5
25C
100
AcDbEntity
  8
217
100
AcDbLine
 62
7
  6
CONTINUOUS
 10
-56.0
 20
-21.3
 11
-56.0
 21
-38.0038053019
  0
LINE
  5
25D
100
AcDbEntity
  8
217
100
AcDbLine
 62
7
  6
CONTINUOUS
 10
-55.9737534009
 20
35.3775587028
 11
-55.9737534009
 21
36.6470432028
  0
LINE
  5
25E
100
AcDbEntity
  8
217
100
AcDbLine
 62
7
  6
CONTINUOUS
 10
-55.9387579355
 20
1.95
 11
-55.9387579355
 21
-4.55
  0
LINE
  5
25F
100
AcDbEntity
  8
217
100
AcDbLine
 62
250
  6
CONTINUOUS
 10
-55.788267846
 20
-15.5479862866
 11
-55.788267846
 21
-15.3
  0
LINE
  5
260
100
AcDbEntity
  8
217
100
AcDbLine
 62
250
  6
CONTINUOUS
 10
-55.788267846
 20
12.7
 11
-55.788267846
 21
12.9479862865
  0
LINE
  5
261
100
AcDbEntity
  8
217
100
AcDbLine
 62
250
  6
CONTINUOUS
 10
-55.7117362727
 20
-37.7155415747
 11
-55.6866677659
 21
-21.3
  0
LINE
  5
262
100
AcDbEntity
  8
217
100
AcDbLine
 62
250
  6
CONTINUOUS
 10
-55.6775050441
 20
-15.3
 11
-55.6587505744
 21
-3.0190620341
  0
LINE
  5
263
100
AcDbEntity
  8
217
100
AcDbLine
 62
250
  6
CONTINUOUS
 10
-55.8886696189
 20
-21.3
 11
-55.788267846
 21
-15.5479862866
  0
LINE
  5
264
100
AcDbEntity
  8
217
100
AcDbLine
 62
250
  6
CONTINUOUS
 10
-54.727379217
 20
12.9610765882
 11
-54.8275524977
 21
18.7
  0
LINE
  5
265
100
AcDbEntity
  8
217
100
AcDbLine
 62
250
  6
CONTINUOUS
 10
-54.2166824076
 20
34.6428610173
 11
-54.2014856831
 21
24.6916315604
  0
LINE
  5
266
100
AcDbEntity
  8
217
100
AcDbLine
 62
250
  6
CONTINUOUS
 10
-54.1739161643
 20
6.638359145
 11
-54.1644585273
 21
0.4452406437
  0
LINE
  5
267
100
AcDbEntity
  8
217
100
AcDbLine
 62
7
  6
CONTINUOUS
 10
-54.3026557186
 20
7.1027932184
 11
-54.3032611278
 21
9.1017273824
  0
LINE
  5
268
100
AcDbEntity
  8
217
100
AcDbLine
 62
7
  6
CONTINUOUS
 10
-52.497439872
 20
-9.7026976132
 11
-52.492202628
 21
-26.892064345
  0
LINE
  5
269
100
AcDbEntity
  8
217
100
AcDbLine
 62
250
  6
CONTINUOUS
 10
-54.7276076742
 20
-15.5610765883
 11
-54.7276076742
 21
-15.3
  0
LINE
  5
26A
100
AcDbEntity
  8
217
100
AcDbLine
 62
250
  6
CONTINUOUS
 10
-54.7276076742
 20
12.7
 11
-54.7276076742
 21
12.9610765882
  0
LINE
  5
26B
100
AcDbEntity
  8
217
100
AcDbLine
 62
7
  6
CONTINUOUS
 10
-54.3034721404
 20
9.7983917341
 11
-54.3068963867
 21
21.0996987089
  0
LINE
  5
26C
100
AcDbEntity
  8
217
100
AcDbLine
 62
250
  6
CONTINUOUS
 10
-54.1644585273
 20
-3.0452406438
 11
-54.1644585273
 21
0.4452406437
  0
LINE
  5
26D
100
AcDbEntity
  8
RACCORDO
100
AcDbLine
 62
7
  6
CONTINUOUS
 10
-54.1
 20
-26.3
 11
-54.1
 21
-9.135035781
  0
LINE
  5
26E
100
AcDbEntity
  8
RACCORDO
100
AcDbLine
 62
7
  6
CONTINUOUS
 10
-54.1
 20
6.535049039
 11
-54.1
 21
23.7
  0
LINE
  5
26F
100
AcDbEntity
  8
RACCORDO
100
AcDbLine
 62
250
  6
CONTINUOUS
 10
-54.0440524024
 20
23.7
 11
-54.0440524024
 21
6.4586731584
  0
LINE
  5
270
100
AcDbEntity
  8
RACCORDO
100
AcDbLine
 62
250
  6
CONTINUOUS
 10
-54.0440524024
 20
-9.0715650123
 11
-54.0440524024
 21
-26.3
  0
LINE
  5
271
100
AcDbEntity
  8
RACCORDO
100
AcDbLine
 62
250
  6
CONTINUOUS
 10
-53.7440980938
 20
23.7
 11
-53.7440980938
 21
6.2674871175
  0
LINE
  5
272
100
AcDbEntity
  8
RACCORDO
100
AcDbLine
 62
250
  6
CONTINUOUS
 10
-53.7440980938
 20
-8.8683870531
 11
-53.7440980938
 21
-26.3
  0
LINE
  5
273
100
AcDbEntity
  8
RACCORDO
100
AcDbLine
 62
250
  6
CONTINUOUS
 10
-52.844303049
 20
-26.3
 11
-52.844303049
 21
-8.9929080108
  0
LINE
  5
274
100
AcDbEntity
  8
RACCORDO
100
AcDbLine
 62
250
  6
CONTINUOUS
 10
-52.844303049
 20
6.3855263851
 11
-52.844303049
 21
23.7
  0
LINE
  5
275
100
AcDbEntity
  8
RACCORDO
100
AcDbLine
 62
250
  6
CONTINUOUS
 10
-52.5443487405
 20
-26.3
 11
-52.5443487405
 21
-9.416173402
  0
LINE
  5
276
100
AcDbEntity
  8
RACCORDO
100
AcDbLine
 62
250
  6
CONTINUOUS
 10
-52.5443487405
 20
6.8157512638
 11
-52.5443487405
 21
23.7
  0
LINE
  5
277
100
AcDbEntity
  8
217
100
AcDbLine
 62
7
  6
CONTINUOUS
 10
-50.211998
 20
13.1883422304
 11
-50.211998
 21
12.9755923908
  0
LINE
  5
278
100
AcDbEntity
  8
217
100
AcDbLine
 62
7
  6
CONTINUOUS
 10
-50.081296
 20
-12.2001714536
 11
-50.081296
 21
-13.799248248
  0
LINE
  5
279
100
AcDbEntity
  8
217
100
AcDbLine
 62
7
  6
CONTINUOUS
 10
-49.871774
 20
-13.799248248
 11
-49.871774
 21
-12.4589216178
  0
LINE
  5
27A
100
AcDbEntity
  8
217
100
AcDbLine
 62
7
  6
CONTINUOUS
 10
-54.3026557186
 20
-9.7027932184
 11
-54.3032611278
 21
-11.7017273824
  0
LINE
  5
27B
100
AcDbEntity
  8
217
100
AcDbLine
 62
7
  6
CONTINUOUS
 10
-54.3071087757
 20
-24.4004182866
 11
-54.3078640467
 21
-26.8919976601
  0
LINE
  5
27C
100
AcDbEntity
  8
217
100
AcDbLine
 62
7
  6
CONTINUOUS
 10
-54.3068963867
 20
-23.699698709
 11
-54.3034721404
 21
-12.3983917341
  0
LINE
  5
27D
100
AcDbEntity
  8
217
100
AcDbLine
 62
7
  6
CONTINUOUS
 10
-52.4922108465
 20
24.2650898701
 11
-52.497439872
 21
7.1026976132
  0
LINE
  5
27E
100
AcDbEntity
  8
217
100
AcDbLine
 62
250
  6
CONTINUOUS
 10
-54.1644585273
 20
-3.0452406438
 11
-54.1739161643
 21
-9.2383591451
  0
LINE
  5
27F
100
AcDbEntity
  8
217
100
AcDbLine
 62
250
  6
CONTINUOUS
 10
-54.2015266861
 20
-27.3184814211
 11
-54.2166824076
 21
-37.2428610173
  0
LINE
  5
280
100
AcDbEntity
  8
217
100
AcDbLine
 62
250
  6
CONTINUOUS
 10
-54.8275524977
 20
-21.3
 11
-54.727379217
 21
-15.5610765883
  0
LINE
  5
281
100
AcDbEntity
  8
217
100
AcDbLine
 62
7
  6
CONTINUOUS
 10
-46.515278
 20
-18.3998285465
 11
-47.094796
 21
-16.7994581462
  0
LINE
  5
282
100
AcDbEntity
  8
217
100
AcDbLine
 62
7
  6
CONTINUOUS
 10
-46.909733
 20
-17.9340774512
 11
-46.751459
 21
-18.3998285465
  0
LINE
  5
283
100
AcDbEntity
  8
217
100
AcDbLine
 62
7
  6
CONTINUOUS
 10
-49.312374
 20
-13.5588604892
 11
-49.771477
 21
-12.2001714536
  0
LINE
  5
284
100
AcDbEntity
  8
217
100
AcDbLine
 62
7
  6
CONTINUOUS
 10
-49.871774
 20
-12.4589216178
 11
-49.42154
 21
-13.799248248
  0
LINE
  5
285
100
AcDbEntity
  8
217
100
AcDbLine
 62
7
  6
CONTINUOUS
 10
-47.226192
 20
-17.0325161382
 11
-46.98777
 21
-17.7426027895
  0
LINE
  5
286
100
AcDbEntity
  8
217
100
AcDbLine
 62
7
  6
CONTINUOUS
 10
-49.771399
 20
13.2409139913
 11
-49.771399
 21
11.838384
  0
LINE
  5
287
100
AcDbEntity
  8
217
100
AcDbLine
 62
7
  6
CONTINUOUS
 10
-49.751547
 20
-16.7994581462
 11
-49.751547
 21
-18.3998285465
  0
LINE
  5
288
100
AcDbEntity
  8
217
100
AcDbLine
 62
7
  6
CONTINUOUS
 10
-49.5511
 20
11.838384
 11
-49.5511
 21
13.638329
  0
LINE
  5
289
100
AcDbEntity
  8
217
100
AcDbLine
 62
7
  6
CONTINUOUS
 10
-49.535296
 20
-18.3998285465
 11
-49.535296
 21
-16.7994581462
  0
LINE
  5
28A
100
AcDbEntity
  8
217
100
AcDbLine
 62
7
  6
CONTINUOUS
 10
-49.303385
 20
-16.7994581462
 11
-49.303385
 21
-16.9909328078
  0
LINE
  5
28B
100
AcDbEntity
  8
217
100
AcDbLine
 62
7
  6
CONTINUOUS
 10
-48.761785
 20
-16.9909328078
 11
-48.761785
 21
-18.3998285465
  0
LINE
  5
28C
100
AcDbEntity
  8
217
100
AcDbLine
 62
7
  6
CONTINUOUS
 10
-48.757385
 20
-12.456334406
 11
-48.757385
 21
-13.799248248
  0
LINE
  5
28D
100
AcDbEntity
  8
217
100
AcDbLine
 62
7
  6
CONTINUOUS
 10
-48.547863
 20
-13.799248248
 11
-48.547863
 21
-12.2001714536
  0
LINE
  5
28E
100
AcDbEntity
  8
217
100
AcDbLine
 62
7
  6
CONTINUOUS
 10
-48.545663
 20
-18.3998285465
 11
-48.545663
 21
-16.9909328078
  0
LINE
  5
28F
100
AcDbEntity
  8
217
100
AcDbLine
 62
7
  6
CONTINUOUS
 10
-48.004063
 20
-16.9909328078
 11
-48.004063
 21
-16.7994581462
  0
LINE
  5
290
100
AcDbEntity
  8
217
100
AcDbLine
 62
7
  6
CONTINUOUS
 10
-47.93612
 20
-14.5004616028
 11
-47.93612
 21
-16.0995383972
  0
LINE
  5
291
100
AcDbEntity
  8
217
100
AcDbLine
 62
7
  6
CONTINUOUS
 10
-47.719868
 20
-16.0995383972
 11
-47.719868
 21
-14.5004616028
  0
LINE
  5
292
100
AcDbEntity
  8
217
100
AcDbLine
 62
7
  6
CONTINUOUS
 10
-47.350002
 20
-14.5004616028
 11
-47.350002
 21
-16.0995383972
  0
LINE
  5
293
100
AcDbEntity
  8
217
100
AcDbLine
 62
7
  6
CONTINUOUS
 10
-47.14035
 20
-16.0995383972
 11
-47.14035
 21
-14.8000903122
  0
LINE
  5
294
100
AcDbEntity
  8
217
100
AcDbLine
 62
7
  6
CONTINUOUS
 10
-46.72027
 20
-12.2001714536
 11
-46.72027
 21
-13.799248248
  0
LINE
  5
295
100
AcDbEntity
  8
217
100
AcDbLine
 62
7
  6
CONTINUOUS
 10
-46.504148
 20
-13.6142416157
 11
-46.504148
 21
-12.3851780859
  0
LINE
  5
296
100
AcDbEntity
  8
217
100
AcDbLine
 62
7
  6
CONTINUOUS
 10
-46.316885
 20
-16.7994581462
 11
-46.316885
 21
-18.3998285465
  0
LINE
  5
297
100
AcDbEntity
  8
217
100
AcDbLine
 62
7
  6
CONTINUOUS
 10
-46.288932
 20
-14.5004616028
 11
-46.288932
 21
-15.7989339852
  0
LINE
  5
298
100
AcDbEntity
  8
217
100
AcDbLine
 62
7
  6
CONTINUOUS
 10
-46.100763
 20
-18.2083528851
 11
-46.100763
 21
-16.7994581462
  0
LINE
  5
299
100
AcDbEntity
  8
217
100
AcDbLine
 62
7
  6
CONTINUOUS
 10
-46.079539
 20
-16.0995383972
 11
-46.079539
 21
-14.5004616028
  0
LINE
  5
29A
100
AcDbEntity
  8
217
100
AcDbLine
 62
7
  6
CONTINUOUS
 10
-46.036326
 20
13.1883426064
 11
-46.036326
 21
12.9755926858
  0
LINE
  5
29B
100
AcDbEntity
  8
217
100
AcDbLine
 62
7
  6
CONTINUOUS
 10
-45.595728
 20
13.2409138007
 11
-45.595728
 21
11.838384
  0
LINE
  5
29C
100
AcDbEntity
  8
217
100
AcDbLine
 62
7
  6
CONTINUOUS
 10
-45.375429
 20
11.838384
 11
-45.375429
 21
13.638329
  0
LINE
  5
29D
100
AcDbEntity
  8
217
100
AcDbLine
 62
7
  6
CONTINUOUS
 10
-45.289463
 20
-18.3998285465
 11
-45.289463
 21
-18.2083528851
  0
LINE
  5
29E
100
AcDbEntity
  8
217
100
AcDbLine
 62
7
  6
CONTINUOUS
 10
-45.1
 20
-12.2001714536
 11
-45.1
 21
-13.799248248
  0
LINE
  5
29F
100
AcDbEntity
  8
217
100
AcDbLine
 62
7
  6
CONTINUOUS
 10
-44.946126
 20
-17.7555398479
 11
-44.946126
 21
-18.3998285465
  0
LINE
  5
2A0
100
AcDbEntity
  8
217
100
AcDbLine
 62
7
  6
CONTINUOUS
 10
-44.883749
 20
-13.6077735864
 11
-44.883749
 21
-13.0734543824
  0
LINE
  5
2A1
100
AcDbEntity
  8
217
100
AcDbLine
 62
7
  6
CONTINUOUS
 10
-44.883749
 20
-12.881978721
 11
-44.883749
 21
-12.3916471149
  0
LINE
  5
2A2
100
AcDbEntity
  8
217
100
AcDbLine
 62
7
  6
CONTINUOUS
 10
-44.3506780226
 20
12.8823018218
 11
-44.3751640039
 21
12.6895399696
  0
LWPOLYLINE
  5
2A3
100
AcDbEntity
  8
RACCORDO
100
AcDbPolyline
 62
7
  6
CONTINUOUS
 90
39
 70
0
 10
4.5130706906
 20
-44.6999999535
 10
4.5384020211
 20
-44.6993581278
 10
4.5716998379
 20
-44.696552046
 10
4.6042221048
 20
-44.6916245011
 10
4.6358514474
 20
-44.6846966444
 10
4.6664998139
 20
-44.6758875565
 10
4.6960677012
 20
-44.6653233847
 10
4.724470537
 20
-44.6531323737
 10
4.7516594826
 20
-44.6394315928
 10
4.777577276
 20
-44.6243438865
 10
4.8021670444
 20
-44.607998011
 10
4.8253950471
 20
-44.5905139301
 10
4.8472314574
 20
-44.5720131699
 10
4.8676546622
 20
-44.5526161522
 10
4.8866567325
 20
-44.5324356199
 10
4.9042448576
 20
-44.5115706825
 10
4.920411298
 20
-44.4901421875
 10
4.9351436053
 20
-44.4682923838
 10
4.9485540911
 20
-44.4459692226
 10
4.9605708064
 20
-44.4234145214
 10
4.9709992956
 20
-44.4012445443
 10
4.9799909555
 20
-44.3794882966
 10
4.987627214
 20
-44.3583218983
 10
4.9937968716
 20
-44.3386286509
 10
4.9986610756
 20
-44.3207097212
 10
5.0024898996
 20
-44.3044050723
 10
5.0054337571
 20
-44.2899051864
 10
5.0076163574
 20
-44.2775224649
 10
5.0092456242
 20
-44.2669640656
 10
5.0105334184
 20
-44.257495661
 10
5.0115508701
 20
-44.2490538459
 10
5.0123469355
 20
-44.2416639787
 10
5.0130200121
 20
-44.2347263286
 10
5.0135995396
 20
-44.228124881
 10
5.014094674
 20
-44.2219302774
 10
5.0145408719
 20
-44.2158350539
 10
5.0149488002
 20
-44.2097765642
 10
5.0153218366
 20
-44.2037817602
 10
5.0160084174
 20
-44.1914691904
  0
LINE
  5
2A4
100
AcDbEntity
  8
217
100
AcDbLine
 62
7
  6
CONTINUOUS
 10
-45.550233
 20
-16.7994581462
 11
-44.946126
 21
-17.7555398479
  0
LINE
  5
2A5
100
AcDbEntity
  8
217
100
AcDbLine
 62
7
  6
CONTINUOUS
 10
-47.14035
 20
-14.8000903122
 11
-46.32245
 21
-16.0995383972
  0
LINE
  5
2A6
100
AcDbEntity
  8
217
100
AcDbLine
 62
7
  6
CONTINUOUS
 10
-46.288932
 20
-15.7989339852
 11
-47.093631
 21
-14.5004616028
  0
LINE
  5
2A7
100
AcDbEntity
  8
217
100
AcDbLine
 62
7
  6
CONTINUOUS
 10
-44.83923
 20
-17.5679460038
 11
-45.298393
 21
-16.7994581462
  0
LINE
  5
2A8
100
AcDbEntity
  8
217
100
AcDbLine
 62
7
  6
CONTINUOUS
 10
-46.929793
 20
-13.799248248
 11
-47.509311
 21
-12.2001714536
  0
LINE
  5
2A9
100
AcDbEntity
  8
217
100
AcDbLine
 62
7
  6
CONTINUOUS
 10
-47.324248
 20
-13.3334981524
 11
-47.165974
 21
-13.799248248
  0
LINE
  5
2AA
100
AcDbEntity
  8
217
100
AcDbLine
 62
7
  6
CONTINUOUS
 10
-47.640707
 20
-12.4319348401
 11
-47.402285
 21
-13.1420224911
  0
LINE
  5
2AB
100
AcDbEntity
  8
217
100
AcDbLine
 62
7
  6
CONTINUOUS
 10
-44.730004
 20
-18.3998285465
 11
-44.730004
 21
-17.7555398479
  0
LINE
  5
2AC
100
AcDbEntity
  8
217
100
AcDbLine
 62
7
  6
CONTINUOUS
 10
-44.007871
 20
-13.0734543824
 11
-44.007871
 21
-12.881978721
  0
LINE
  5
2AD
100
AcDbEntity
  8
217
100
AcDbLine
 62
7
  6
CONTINUOUS
 10
-43.934363
 20
-12.3916471149
 11
-43.934363
 21
-12.2001714536
  0
LINE
  5
2AE
100
AcDbEntity
  8
217
100
AcDbLine
 62
7
  6
CONTINUOUS
 10
-43.918704
 20
-13.799248248
 11
-43.918704
 21
-13.6077735864
  0
LINE
  5
2AF
100
AcDbEntity
  8
217
100
AcDbLine
 62
250
  6
CONTINUOUS
 10
-40.999695254
 20
0.4452406437
 11
-40.999695254
 21
-3.0452406438
  0
LINE
  5
2B0
100
AcDbEntity
  8
217
100
AcDbLine
 62
7
  6
CONTINUOUS
 10
-40.5
 20
33.2
 11
-40.5
 21
20.9
  0
LINE
  5
2B1
100
AcDbEntity
  8
217
100
AcDbLine
 62
7
  6
CONTINUOUS
 10
-40.5
 20
-35.8
 11
-40.5
 21
-23.5
  0
LINE
  5
2B2
100
AcDbEntity
  8
217
100
AcDbLine
 62
7
  6
CONTINUOUS
 10
-49.207618
 20
-13.799248248
 11
-48.757385
 21
-12.456334406
  0
LINE
  5
2B3
100
AcDbEntity
  8
217
100
AcDbLine
 62
7
  6
CONTINUOUS
 10
-48.855481
 20
-12.2001714536
 11
-49.312374
 21
-13.5588604892
  0
LINE
  5
2B4
100
AcDbEntity
  8
217
100
AcDbLine
 62
7
  6
CONTINUOUS
 10
-48.133348
 20
-13.799248248
 11
-47.966144
 21
-13.3334981524
  0
LINE
  5
2B5
100
AcDbEntity
  8
217
100
AcDbLine
 62
7
  6
CONTINUOUS
 10
-47.899237
 20
-13.1420224911
 11
-47.640707
 21
-12.4319348401
  0
LINE
  5
2B6
100
AcDbEntity
  8
217
100
AcDbLine
 62
7
  6
CONTINUOUS
 10
-47.754422
 20
-12.2001714536
 11
-48.3562
 21
-13.799248248
  0
LWPOLYLINE
  5
2B7
100
AcDbEntity
  8
0
100
AcDbPolyline
 62
7
  6
CONTINUOUS
 90
3
 70
0
 43
0.3500000087
 10
-5.2499997978
 20
55.4875820923
 10
-4.3928571314
 20
56.3447282227
 10
-4.3928571314
 20
53.344725293
  0
LINE
  5
2B8
100
AcDbEntity
  8
ASSI
100
AcDbLine
 62
7
  6
CONTINUOUS
 10
4.5130712279
 20
-44.7
 11
-4.5130712279
 21
-44.7
  0
LINE
  5
2B9
100
AcDbEntity
  8
RACCORDO
100
AcDbLine
 62
250
  6
CONTINUOUS
 10
-4.5043450729
 20
-44.449545417
 11
4.5043455241
 21
-44.449545417
  0
LINE
  5
2BA
100
AcDbEntity
  8
RACCORDO
100
AcDbLine
 62
250
  6
CONTINUOUS
 10
5.0043253562
 20
-43.9912878475
 11
-5.0043253562
 21
-43.9912878475
  0
LINE
  5
2BB
100
AcDbEntity
  8
284
100
AcDbLine
 62
7
  6
CONTINUOUS
 10
61.2
 20
-43.5
 11
5.0217981303
 21
-43.5
  0
LINE
  5
2BC
100
AcDbEntity
  8
284
100
AcDbLine
 62
7
  6
CONTINUOUS
 10
-5.0217981303
 20
-43.5
 11
-61.2
 21
-43.5
  0
LINE
  5
2BD
100
AcDbEntity
  8
284
100
AcDbLine
 62
7
  6
CONTINUOUS
 10
-13.0
 20
-43.223468713
 11
-5.0217981303
 21
-43.223468713
  0
LINE
  5
2BE
100
AcDbEntity
  8
284
100
AcDbLine
 62
7
  6
CONTINUOUS
 10
5.0217981303
 20
-43.223468713
 11
13.0
 21
-43.223468713
  0
LINE
  5
2BF
100
AcDbEntity
  8
284
100
AcDbLine
 62
7
  6
CONTINUOUS
 10
-60.5082173135
 20
-42.8082173135
 11
-13.0
 21
-42.8082173135
  0
LINE
  5
2C0
100
AcDbEntity
  8
284
100
AcDbLine
 62
7
  6
CONTINUOUS
 10
13.0
 20
-42.8082173135
 11
60.5082173135
 21
-42.8082173135
  0
LINE
  5
2C1
100
AcDbEntity
  8
217
100
AcDbLine
 62
7
  6
CONTINUOUS
 10
-12.7
 20
-42.8
 11
-5.0761806034
 21
-42.8
  0
LINE
  5
2C2
100
AcDbEntity
  8
217
100
AcDbLine
 62
7
  6
CONTINUOUS
 10
5.0761806034
 20
-42.8
 11
12.7
 21
-42.8
  0
LINE
  5
2C3
100
AcDbEntity
  8
217
100
AcDbLine
 62
7
  6
CONTINUOUS
 10
-5.05
 20
-42.7738193967
 11
-5.0217981303
 21
-42.7738193967
  0
LINE
  5
2C4
100
AcDbEntity
  8
217
100
AcDbLine
 62
7
  6
CONTINUOUS
 10
5.0217981303
 20
-42.7738193967
 11
5.05
 21
-42.7738193967
  0
LINE
  5
2C5
100
AcDbEntity
  8
284
100
AcDbLine
 62
7
  6
CONTINUOUS
 10
-59.0082214026
 20
-41.3082214026
 11
-13.0
 21
-41.3082214026
  0
LINE
  5
2C6
100
AcDbEntity
  8
284
100
AcDbLine
 62
7
  6
CONTINUOUS
 10
13.0
 20
-41.3082214026
 11
59.0082214026
 21
-41.3082214026
  0
LINE
  5
2C7
100
AcDbEntity
  8
284
100
AcDbLine
 62
7
  6
CONTINUOUS
 10
13.0
 20
-41.2051466838
 11
12.7
 21
-41.2051466838
  0
LINE
  5
2C8
100
AcDbEntity
  8
284
100
AcDbLine
 62
7
  6
CONTINUOUS
 10
-12.7
 20
-41.2051466838
 11
-13.0
 21
-41.2051466838
  0
LINE
  5
2C9
100
AcDbEntity
  8
284
100
AcDbLine
 62
7
  6
CONTINUOUS
 10
-58.9
 20
-41.2
 11
-13.0
 21
-41.2
  0
LINE
  5
2CA
100
AcDbEntity
  8
284
100
AcDbLine
 62
7
  6
CONTINUOUS
 10
13.0
 20
-41.2
 11
58.9
 21
-41.2
  0
LINE
  5
2CB
100
AcDbEntity
  8
217
100
AcDbLine
 62
7
  6
CONTINUOUS
 10
-58.8
 20
-40.95
 11
-12.7
 21
-40.95
  0
LINE
  5
2CC
100
AcDbEntity
  8
217
100
AcDbLine
 62
7
  6
CONTINUOUS
 10
12.7
 20
-40.95
 11
58.8
 21
-40.95
  0
LINE
  5
2CD
100
AcDbEntity
  8
RACCORDO
100
AcDbLine
 62
7
  6
CONTINUOUS
 10
-11.2
 20
-40.3
 11
-4.5043443947
 21
-40.3
  0
LINE
  5
2CE
100
AcDbEntity
  8
217
100
AcDbLine
 62
7
  6
CONTINUOUS
 10
11.3903359269
 20
-40.1
 11
5.0761806034
 21
-40.1
  0
LINE
  5
2CF
100
AcDbEntity
  8
217
100
AcDbLine
 62
7
  6
CONTINUOUS
 10
-5.0761806034
 20
-40.1
 11
-11.3903359269
 21
-40.1
  0
LINE
  5
2D0
100
AcDbEntity
  8
217
100
AcDbLine
 62
7
  6
CONTINUOUS
 10
-39.0
 20
-25.0370398884
 11
-38.9994992122
 21
-25.1997496252
  0
LINE
  5
2D1
100
AcDbEntity
  8
217
100
AcDbLine
 62
7
  6
CONTINUOUS
 10
-39.5
 20
20.9
 11
-39.5
 21
-23.5
  0
LINE
  5
2D2
100
AcDbEntity
  8
217
100
AcDbLine
 62
7
  6
CONTINUOUS
 10
-39.0
 20
-25.0370398884
 11
-39.0
 21
-23.5
  0
LINE
  5
2D3
100
AcDbEntity
  8
217
100
AcDbLine
 62
7
  6
CONTINUOUS
 10
-39.0
 20
20.9
 11
-39.0
 21
22.4370398883
  0
LINE
  5
2D4
100
AcDbEntity
  8
RACCORDO
100
AcDbLine
 62
250
  6
CONTINUOUS
 10
-37.9916262694
 20
21.5416262694
 11
-37.9916262694
 21
20.9
  0
LINE
  5
2D5
100
AcDbEntity
  8
RACCORDO
100
AcDbLine
 62
250
  6
CONTINUOUS
 10
-37.9916262694
 20
-23.5
 11
-37.9916262694
 21
-24.1416262694
  0
LINE
  5
2D6
100
AcDbEntity
  8
217
100
AcDbLine
 62
7
  6
CONTINUOUS
 10
-37.75
 20
20.9
 11
-37.75
 21
-23.5
  0
LINE
  5
2D7
100
AcDbEntity
  8
RACCORDO
100
AcDbLine
 62
250
  6
CONTINUOUS
 10
-37.6973933632
 20
20.5974238247
 11
-37.6973933632
 21
-23.1974238248
  0
LINE
  5
2D8
100
AcDbEntity
  8
RACCORDO
100
AcDbLine
 62
7
  6
CONTINUOUS
 10
-37.3974047863
 20
20.5974238247
 11
-37.3974047863
 21
-23.1974238248
  0
LINE
  5
2D9
100
AcDbEntity
  8
RACCORDO
100
AcDbLine
 62
250
  6
CONTINUOUS
 10
-36.8974238247
 20
21.3973933632
 11
-36.8974238247
 21
21.0974047862
  0
LINE
  5
2DA
100
AcDbEntity
  8
RACCORDO
100
AcDbLine
 62
250
  6
CONTINUOUS
 10
-36.8974238247
 20
-23.9973933632
 11
-36.8974238247
 21
-23.6974047863
  0
LINE
  5
2DB
100
AcDbEntity
  8
RACCORDO
100
AcDbLine
 62
250
  6
CONTINUOUS
 10
-36.3540978002
 20
20.1050623331
 11
-36.3540973027
 21
-22.7050623331
  0
LINE
  5
2DC
100
AcDbEntity
  8
217
100
AcDbLine
 62
7
  6
CONTINUOUS
 10
-39.0
 20
22.4370398883
 11
-38.9994992122
 21
22.5997496251
  0
LINE
  5
2DD
100
AcDbEntity
  8
217
100
AcDbLine
 62
7
  6
CONTINUOUS
 10
-47.718833
 20
-18.3998285465
 11
-47.55163
 21
-17.9340774512
  0
LINE
  5
2DE
100
AcDbEntity
  8
217
100
AcDbLine
 62
7
  6
CONTINUOUS
 10
-47.484852
 20
-17.7426027895
 11
-47.226192
 21
-17.0325161382
  0
LINE
  5
2DF
100
AcDbEntity
  8
217
100
AcDbLine
 62
7
  6
CONTINUOUS
 10
-47.339907
 20
-16.7994581462
 11
-47.941685
 21
-18.3998285465
  0
LWPOLYLINE
  5
2E0
100
AcDbEntity
  8
0
100
AcDbPolyline
 62
7
  6
CONTINUOUS
 90
17
 70
0
 10
-1.6593550893
 20
-39.3383310122
 10
-1.6595960663
 20
-39.3383959021
 10
-1.6597189575
 20
-39.3384282241
 10
-1.6590641736
 20
-39.3382718587
 10
-1.6577798982
 20
-39.337983394
 10
-1.6558705171
 20
-39.3375788797
 10
-1.6533075448
 20
-39.3370658521
 10
-1.6502001018
 20
-39.3364767522
 10
-1.6465597133
 20
-39.3358212649
 10
-1.6423631437
 20
-39.3351020072
 10
-1.6376715391
 20
-39.3343350467
 10
-1.6324886933
 20
-39.33352524
 10
-1.6267997836
 20
-39.3326741665
 10
-1.6206371429
 20
-39.3317899858
 10
-1.614000036
 20
-39.3308752859
 10
-1.6068778325
 20
-39.3299311061
 10
-1.5992865378
 20
-39.3289617745
  0
LWPOLYLINE
  5
2E1
100
AcDbEntity
  8
0
100
AcDbPolyline
 62
7
  6
CONTINUOUS
 90
29
 70
0
 10
1.1530232607
 20
-38.0
 10
1.1939403456
 20
-37.9895645463
 10
1.2517024013
 20
-37.9742942656
 10
1.30694621
 20
-37.9591142688
 10
1.3596329787
 20
-37.9440236058
 10
1.4097745989
 20
-37.9290090032
 10
1.4573849364
 20
-37.9140575669
 10
1.5024792488
 20
-37.89915714
 10
1.5450597046
 20
-37.8843018469
 10
1.5852271422
 20
-37.8694517041
 10
1.6231969563
 20
-37.8545160382
 10
1.659005962
 20
-37.8394648507
 10
1.6927668828
 20
-37.8242327722
 10
1.724840742
 20
-37.8086185774
 10
1.7552848282
 20
-37.7925317059
 10
1.7841572088
 20
-37.7758658508
 10
1.811817177
 20
-37.7582942414
 10
1.838385389
 20
-37.7395499836
 10
1.8636850769
 20
-37.719524405
 10
1.8876072365
 20
-37.6980375178
 10
1.9100625658
 20
-37.6748330097
 10
1.9308000332
 20
-37.6497406848
 10
1.9494373681
 20
-37.622721526
 10
1.9658856748
 20
-37.5933069494
 10
1.9795764345
 20
-37.5618154993
 10
1.9897670198
 20
-37.5297089809
 10
1.9963936107
 20
-37.4977332211
 10
1.999638318
 20
-37.4657042477
 10
1.9999994817
 20
-37.4506745
  0
LWPOLYLINE
  5
2E2
100
AcDbEntity
  8
0
100
AcDbPolyline
 62
7
  6
CONTINUOUS
 90
34
 70
0
 10
0.887627072
 20
-35.8813942396
 10
0.9524891609
 20
-35.8666077236
 10
1.0151987322
 20
-35.8519548881
 10
1.0757392129
 20
-35.8374257061
 10
1.1340729075
 20
-35.8230166075
 10
1.1901742051
 20
-35.8087227777
 10
1.2440639474
 20
-35.7945286725
 10
1.2957254938
 20
-35.7804292886
 10
1.3451615765
 20
-35.766415674
 10
1.3924399978
 20
-35.7524602998
 10
1.4375559857
 20
-35.7385561985
 10
1.4805390926
 20
-35.7246864973
 10
1.5215244044
 20
-35.71079722
 10
1.560521497
 20
-35.6968718873
 10
1.5975676721
 20
-35.68288316
 10
1.6328646932
 20
-35.6687343992
 10
1.6664649781
 20
-35.6543755346
 10
1.698389575
 20
-35.6397644375
 10
1.728836737
 20
-35.6247648783
 10
1.7578265523
 20
-35.6093058859
 10
1.7854260855
 20
-35.5932787192
 10
1.8119258061
 20
-35.5764034262
 10
1.8373707222
 20
-35.5584869505
 10
1.8616695983
 20
-35.5393933401
 10
1.8848650889
 20
-35.5188326311
 10
1.9068412077
 20
-35.4965636004
 10
1.9273440142
 20
-35.4724109369
 10
1.94610536
 20
-35.4461374214
 10
1.9629573888
 20
-35.417246973
 10
1.977264901
 20
-35.385985587
 10
1.9882553125
 20
-35.3534728733
 10
1.9956846461
 20
-35.3203118842
 10
1.9995045764
 20
-35.2864118751
 10
1.9999994633
 20
-35.2688518967
  0
LWPOLYLINE
  5
2E3
100
AcDbEntity
  8
0
100
AcDbPolyline
 62
7
  6
CONTINUOUS
 90
25
 70
0
 10
-0.8259612705
 20
-35.7339728091
 10
-0.8964189331
 20
-35.7497115773
 10
-0.9648343372
 20
-35.7653692243
 10
-1.0308937793
 20
-35.780895162
 10
-1.0944896704
 20
-35.7962809687
 10
-1.1556319075
 20
-35.8115440563
 10
-1.2142351202
 20
-35.8266762484
 10
-1.2702733621
 20
-35.8416813424
 10
-1.3237554535
 20
-35.856570452
 10
-1.3746880212
 20
-35.871352684
 10
-1.4230775688
 20
-35.8860353921
 10
-1.4689695327
 20
-35.9006364823
 10
-1.512463984
 20
-35.9151925718
 10
-1.553567114
 20
-35.9297103411
 10
-1.592374949
 20
-35.9442280799
 10
-1.6291525954
 20
-35.9588571756
 10
-1.6639352378
 20
-35.9736311058
 10
-1.6968135152
 20
-35.9886109104
 10
-1.7281531656
 20
-36.0040070976
 10
-1.7580272176
 20
-36.0199274089
 10
-1.7864426643
 20
-36.0364614298
 10
-1.8136725728
 20
-36.0538901109
 10
-1.8398022754
 20
-36.0724501235
 10
-1.8646951191
 20
-36.0922675611
 10
-1.8882747465
 20
-36.1135450719
  0
LWPOLYLINE
  5
2E4
100
AcDbEntity
  8
0
100
AcDbPolyline
 62
7
  6
CONTINUOUS
 90
7
 70
0
 10
-0.8261676345
 20
-37.915836586
 10
-0.8931209992
 20
-37.930784794
 10
-0.9578380559
 20
-37.9455675906
 10
-1.0202791545
 20
-37.9601890391
 10
-1.0804782084
 20
-37.9746689953
 10
-1.1384026933
 20
-37.9890104334
 10
-1.181433973
 20
-38.0
  0
LINE
  5
2E5
100
AcDbEntity
  8
0
100
AcDbLine
 62
7
  6
CONTINUOUS
 10
0.8012978887
 20
-35.3981458715
 11
0.6889344803
 21
-35.4232242759
  0
LINE
  5
2E6
100
AcDbEntity
  8
0
100
AcDbLine
 62
7
  6
CONTINUOUS
 10
0.751732413
 20
-35.911366594
 11
0.887627072
 21
-35.8813942396
  0
LINE
  5
2E7
100
AcDbEntity
  8
0
100
AcDbLine
 62
7
  6
CONTINUOUS
 10
-0.7352872584
 20
-36.2161286524
 11
-0.5991544747
 21
-36.1864715126
  0
LINE
  5
2E8
100
AcDbEntity
  8
0
100
AcDbLine
 62
7
  6
CONTINUOUS
 10
0.7255344532
 20
-37.5969764896
 11
0.5890914883
 21
-37.626617042
  0
LINE
  5
2E9
100
AcDbEntity
  8
0
100
AcDbLine
 62
7
  6
CONTINUOUS
 10
-0.6857652925
 20
-37.8854292739
 11
-0.8261676345
 21
-37.915836586
  0
LINE
  5
2EA
100
AcDbEntity
  8
0
100
AcDbLine
 62
7
  6
CONTINUOUS
 10
-0.679295104
 20
-35.7022360135
 11
-0.8259612705
 21
-35.7339728091
  0
LINE
  5
2EB
100
AcDbEntity
  8
0
100
AcDbLine
 62
7
  6
CONTINUOUS
 10
0.6889344803
 20
-35.4232242759
 11
0.5704971365
 21
-35.4487552632
  0
LINE
  5
2EC
100
AcDbEntity
  8
0
100
AcDbLine
 62
7
  6
CONTINUOUS
 10
0.6077142476
 20
-35.9419675462
 11
0.751732413
 21
-35.911366594
  0
LINE
  5
2ED
100
AcDbEntity
  8
0
100
AcDbLine
 62
7
  6
CONTINUOUS
 10
-0.5991544747
 20
-36.1864715126
 11
-0.4522148689
 21
-36.1555746378
  0
LINE
  5
2EE
100
AcDbEntity
  8
0
100
AcDbLine
 62
7
  6
CONTINUOUS
 10
0.5890914883
 20
-37.626617042
 11
0.4421363817
 21
-37.6574510436
  0
LINE
  5
2EF
100
AcDbEntity
  8
0
100
AcDbLine
 62
7
  6
CONTINUOUS
 10
0.5704971365
 20
-35.4487552632
 11
0.4452499142
 21
-35.47498888
  0
LINE
  5
2F0
100
AcDbEntity
  8
0
100
AcDbLine
 62
7
  6
CONTINUOUS
 10
-0.5370457595
 20
-37.8542925541
 11
-0.6857652925
 21
-37.8854292739
  0
LINE
  5
2F1
100
AcDbEntity
  8
0
100
AcDbLine
 62
7
  6
CONTINUOUS
 10
-0.5266327446
 20
-35.6703268581
 11
-0.679295104
 21
-35.7022360135
  0
LINE
  5
2F2
100
AcDbEntity
  8
0
100
AcDbLine
 62
7
  6
CONTINUOUS
 10
0.4560254113
 20
-35.9732635868
 11
0.6077142476
 21
-35.9419675462
  0
LINE
  5
2F3
100
AcDbEntity
  8
0
100
AcDbLine
 62
7
  6
CONTINUOUS
 10
0.4452499142
 20
-35.47498888
 11
0.3129264496
 21
-35.5020766053
  0
LINE
  5
2F4
100
AcDbEntity
  8
0
100
AcDbLine
 62
7
  6
CONTINUOUS
 10
-0.4522148689
 20
-36.1555746378
 11
-0.2946606339
 21
-36.1233451532
  0
LINE
  5
2F5
100
AcDbEntity
  8
0
100
AcDbLine
 62
7
  6
CONTINUOUS
 10
0.4421363817
 20
-37.6574510436
 11
0.285181216
 21
-37.6895117148
  0
LINE
  5
2F6
100
AcDbEntity
  8
0
100
AcDbLine
 62
7
  6
CONTINUOUS
 10
-0.3809286815
 20
-37.8224414945
 11
-0.5370457595
 21
-37.8542925541
  0
LINE
  5
2F7
100
AcDbEntity
  8
0
100
AcDbLine
 62
7
  6
CONTINUOUS
 10
-0.2902030992
 20
-35.6223837316
 11
-0.5266327446
 21
-35.6703268581
  0
LINE
  5
2F8
100
AcDbEntity
  8
0
100
AcDbLine
 62
7
  6
CONTINUOUS
 10
0.2150679666
 20
-36.0217418769
 11
0.4560254113
 21
-35.9732635868
  0
LINE
  5
2F9
100
AcDbEntity
  8
0
100
AcDbLine
 62
7
  6
CONTINUOUS
 10
0.3129264496
 20
-35.5020766053
 11
0.0998297214
 21
-35.544836575
  0
LINE
  5
2FA
100
AcDbEntity
  8
0
100
AcDbLine
 62
7
  6
CONTINUOUS
 10
0.285181216
 20
-37.6895117148
 11
0.033716919
 21
-37.7397982377
  0
LWPOLYLINE
  5
2FB
100
AcDbEntity
  8
0
100
AcDbPolyline
 62
7
  6
CONTINUOUS
 90
3
 70
0
 10
-0.2946606339
 20
-36.1233451532
 10
-0.039573244
 20
-36.0723046635
 10
0.2150679666
 20
-36.0217418769
  0
LINE
  5
2FC
100
AcDbEntity
  8
0
100
AcDbLine
 62
7
  6
CONTINUOUS
 10
0.033716919
 20
-37.7397982377
 11
-0.3809286815
 21
-37.8224414945
  0
LINE
  5
2FD
100
AcDbEntity
  8
0
100
AcDbLine
 62
7
  6
CONTINUOUS
 10
0.0998297214
 20
-35.544836575
 11
-0.2902030992
 21
-35.6223837316
  0
LINE
  5
2FE
100
AcDbEntity
  8
0
100
AcDbLine
 62
7
  6
CONTINUOUS
 10
-1.5992865378
 20
-39.3289617745
 11
-1.5826784939
 21
-39.3269528006
  0
LWPOLYLINE
  5
2FF
100
AcDbEntity
  8
0
100
AcDbPolyline
 62
7
  6
CONTINUOUS
 90
32
 70
0
 10
1.6222486318
 20
-39.1427528221
 10
1.6367082046
 20
-39.1411241353
 10
1.6505119468
 20
-39.139500439
 10
1.6636855251
 20
-39.1378796
 10
1.6762703957
 20
-39.1362571846
 10
1.6882800705
 20
-39.1346319769
 10
1.6997476034
 20
-39.1329999486
 10
1.7107475908
 20
-39.1313501454
 10
1.7212911273
 20
-39.1296798953
 10
1.7314141217
 20
-39.1279822063
 10
1.7412303341
 20
-39.1262348001
 10
1.7507396829
 20
-39.1244327794
 10
1.7599871711
 20
-39.1225618517
 10
1.7691548384
 20
-39.1205745718
 10
1.7782432937
 20
-39.1184551185
 10
1.7872879512
 20
-39.1161769956
 10
1.7965273573
 20
-39.1136514296
 10
1.8059480949
 20
-39.1108416799
 10
1.8155909496
 20
-39.1076880393
 10
1.825782195
 20
-39.1040128799
 10
1.836592312
 20
-39.0996884569
 10
1.847936799
 20
-39.094629649
 10
1.8598980236
 20
-39.0886591738
 10
1.8725474562
 20
-39.0815585498
 10
1.885673252
 20
-39.0732358085
 10
1.8989174736
 20
-39.0637206467
 10
1.9121557545
 20
-39.0529112586
 10
1.9252506812
 20
-39.0406987769
 10
1.9378401968
 20
-39.0272000648
 10
1.9496860049
 20
-39.0124724199
 10
1.9606969569
 20
-38.9963992743
 10
1.963656966
 20
-38.9912511337
  0
LINE
  5
300
100
AcDbEntity
  8
0
100
AcDbLine
 62
7
  6
CONTINUOUS
 10
-1.5826784939
 20
-39.3269528006
 11
-1.5641597362
 21
-39.3248597477
  0
LINE
  5
301
100
AcDbEntity
  8
0
100
AcDbLine
 62
7
  6
CONTINUOUS
 10
-1.5641597362
 20
-39.3248597477
 11
-1.5436981475
 21
-39.3226902167
  0
LINE
  5
302
100
AcDbEntity
  8
0
100
AcDbLine
 62
7
  6
CONTINUOUS
 10
1.5912928427
 20
-39.1460293409
 11
1.6222486318
 21
-39.1427528221
  0
LINE
  5
303
100
AcDbEntity
  8
0
100
AcDbLine
 62
7
  6
CONTINUOUS
 10
-1.5436981475
 20
-39.3226902167
 11
-1.521258124
 21
-39.3204500901
  0
LINE
  5
304
100
AcDbEntity
  8
0
100
AcDbLine
 62
7
  6
CONTINUOUS
 10
1.5575022786
 20
-39.1493383397
 11
1.5912928427
 21
-39.1460293409
  0
LINE
  5
305
100
AcDbEntity
  8
0
100
AcDbLine
 62
7
  6
CONTINUOUS
 10
-1.521258124
 20
-39.3204500901
 11
-1.4967981821
 21
-39.3181436213
  0
LINE
  5
306
100
AcDbEntity
  8
0
100
AcDbLine
 62
7
  6
CONTINUOUS
 10
1.5207165792
 20
-39.1526890025
 11
1.5575022786
 21
-39.1493383397
  0
LINE
  5
307
100
AcDbEntity
  8
0
100
AcDbLine
 62
7
  6
CONTINUOUS
 10
-1.4967981821
 20
-39.3181436213
 11
-1.4702867945
 21
-39.3157751167
  0
LINE
  5
308
100
AcDbEntity
  8
0
100
AcDbLine
 62
7
  6
CONTINUOUS
 10
1.480778111
 20
-39.1560892066
 11
1.5207165792
 21
-39.1526890025
  0
LINE
  5
309
100
AcDbEntity
  8
0
100
AcDbLine
 62
7
  6
CONTINUOUS
 10
-1.4702867945
 20
-39.3157751167
 11
-1.4266855446
 21
-39.3121199212
  0
LINE
  5
30A
100
AcDbEntity
  8
0
100
AcDbLine
 62
7
  6
CONTINUOUS
 10
1.4374781519
 20
-39.1595500153
 11
1.480778111
 21
-39.1560892066
  0
LINE
  5
30B
100
AcDbEntity
  8
0
100
AcDbLine
 62
7
  6
CONTINUOUS
 10
-1.4266855446
 20
-39.3121199212
 11
-1.3785246997
 21
-39.3083580614
  0
LINE
  5
30C
100
AcDbEntity
  8
0
100
AcDbLine
 62
7
  6
CONTINUOUS
 10
1.3658105065
 20
-39.1648726489
 11
1.4374781519
 21
-39.1595500153
  0
LINE
  5
30D
100
AcDbEntity
  8
0
100
AcDbLine
 62
7
  6
CONTINUOUS
 10
-1.3785246997
 20
-39.3083580614
 11
-1.325890981
 21
-39.3045057958
  0
LINE
  5
30E
100
AcDbEntity
  8
0
100
AcDbLine
 62
7
  6
CONTINUOUS
 10
1.2855411981
 20
-39.1703731404
 11
1.3658105065
 21
-39.1648726489
  0
LINE
  5
30F
100
AcDbEntity
  8
0
100
AcDbLine
 62
7
  6
CONTINUOUS
 10
-1.325890981
 20
-39.3045057958
 11
-1.248993074
 21
-39.2992540881
  0
LINE
  5
310
100
AcDbEntity
  8
0
100
AcDbLine
 62
7
  6
CONTINUOUS
 10
-1.248993074
 20
-39.2992540881
 11
-1.1424445807
 21
-39.2925312142
  0
LINE
  5
311
100
AcDbEntity
  8
0
100
AcDbLine
 62
7
  6
CONTINUOUS
 10
1.1641978723
 20
-39.1780146839
 11
1.2855411981
 21
-39.1703731404
  0
LINE
  5
312
100
AcDbEntity
  8
0
100
AcDbLine
 62
7
  6
CONTINUOUS
 10
1.0267760266
 20
-39.1859688949
 11
1.1641978723
 21
-39.1780146839
  0
LINE
  5
313
100
AcDbEntity
  8
0
100
AcDbLine
 62
7
  6
CONTINUOUS
 10
-1.1424445807
 20
-39.2925312142
 11
-0.9992966534
 21
-39.2842210456
  0
LINE
  5
314
100
AcDbEntity
  8
0
100
AcDbLine
 62
7
  6
CONTINUOUS
 10
-0.9992966534
 20
-39.2842210456
 11
-0.8393734728
 21
-39.2756162381
  0
LINE
  5
315
100
AcDbEntity
  8
0
100
AcDbLine
 62
7
  6
CONTINUOUS
 10
0.7962001418
 20
-39.1982091151
 11
1.0267760266
 21
-39.1859688949
  0
LINE
  5
316
100
AcDbEntity
  8
0
100
AcDbLine
 62
7
  6
CONTINUOUS
 10
-0.8393734728
 20
-39.2756162381
 11
-0.6317088015
 21
-39.2651573687
  0
LINE
  5
317
100
AcDbEntity
  8
0
100
AcDbLine
 62
7
  6
CONTINUOUS
 10
-0.6317088015
 20
-39.2651573687
 11
-0.3325442892
 21
-39.2509527239
  0
LINE
  5
318
100
AcDbEntity
  8
0
100
AcDbLine
 62
7
  6
CONTINUOUS
 10
0.2927239189
 20
-39.2223622888
 11
0.7962001418
 21
-39.1982091151
  0
LINE
  5
319
100
AcDbEntity
  8
0
100
AcDbLine
 62
7
  6
CONTINUOUS
 10
-0.3325442892
 20
-39.2509527239
 11
0.2927239189
 21
-39.2223622888
  0
LINE
  5
31A
100
AcDbEntity
  8
DRAFT
100
AcDbLine
 62
7
  6
CONTINUOUS
 10
-2.3366528447
 20
-39.3366528447
 11
2.3366528447
 21
-39.3366528447
  0
LINE
  5
31B
100
AcDbEntity
  8
DRAFT
100
AcDbLine
 62
7
  6
CONTINUOUS
 10
0.5
 20
-39.3198413784
 11
-0.5
 21
-39.3198413784
  0
LINE
  5
31C
100
AcDbEntity
  8
DRAFT
100
AcDbLine
 62
7
  6
CONTINUOUS
 10
-2.3
 20
-39.3
 11
-1.9153702816
 21
-39.3
  0
LINE
  5
31D
100
AcDbEntity
  8
DRAFT
100
AcDbLine
 62
7
  6
CONTINUOUS
 10
-1.2602205111
 20
-39.3
 11
-0.5
 21
-39.3
  0
LINE
  5
31E
100
AcDbEntity
  8
DRAFT
100
AcDbLine
 62
7
  6
CONTINUOUS
 10
0.5
 20
-39.3
 11
2.3
 21
-39.3
  0
LINE
  5
31F
100
AcDbEntity
  8
217
100
AcDbLine
 62
7
  6
CONTINUOUS
 10
-55.0038053019
 20
-39.0
 11
-11.3905034622
 21
-39.0
  0
LINE
  5
320
100
AcDbEntity
  8
217
100
AcDbLine
 62
7
  6
CONTINUOUS
 10
11.3905034622
 20
-39.0
 11
55.0038053019
 21
-39.0
  0
LINE
  5
321
100
AcDbEntity
  8
217
100
AcDbLine
 62
7
  6
CONTINUOUS
 10
11.3896322409
 20
-38.9912511337
 11
-11.3896322409
 21
-38.9912511337
  0
LINE
  5
322
100
AcDbEntity
  8
217
100
AcDbLine
 62
250
  6
CONTINUOUS
 10
54.7147797567
 20
-38.7109744548
 11
-54.7147797567
 21
-38.7109744548
  0
LINE
  5
323
100
AcDbEntity
  8
217
100
AcDbLine
 62
7
  6
CONTINUOUS
 10
2.25
 20
-38.0
 11
-2.25
 21
-38.0
  0
LINE
  5
324
100
AcDbEntity
  8
217
100
AcDbLine
 62
7
  6
CONTINUOUS
 10
11.3502370864
 20
-37.5265339713
 11
2.25
 21
-37.5265339713
  0
LINE
  5
325
100
AcDbEntity
  8
217
100
AcDbLine
 62
7
  6
CONTINUOUS
 10
-2.25
 20
-37.5265339713
 11
-11.3502370864
 21
-37.5265339713
  0
LINE
  5
326
100
AcDbEntity
  8
217
100
AcDbLine
 62
7
  6
CONTINUOUS
 10
-11.3502370864
 20
-37.5
 11
-2.25
 21
-37.5
  0
LINE
  5
327
100
AcDbEntity
  8
217
100
AcDbLine
 62
7
  6
CONTINUOUS
 10
2.25
 20
-37.5
 11
11.3502370864
 21
-37.5
  0
LINE
  5
328
100
AcDbEntity
  8
217
100
AcDbLine
 62
250
  6
CONTINUOUS
 10
54.2166824076
 20
-37.2428610173
 11
11.35
 21
-37.2428610173
  0
LINE
  5
329
100
AcDbEntity
  8
217
100
AcDbLine
 62
250
  6
CONTINUOUS
 10
-11.35
 20
-37.2428610173
 11
-54.2166824076
 21
-37.2428610173
  0
LINE
  5
32A
100
AcDbEntity
  8
217
100
AcDbLine
 62
7
  6
CONTINUOUS
 10
-40.5
 20
-35.8
 11
-11.35
 21
-35.8
  0
LINE
  5
32B
100
AcDbEntity
  8
217
100
AcDbLine
 62
7
  6
CONTINUOUS
 10
11.35
 20
-35.8
 11
40.5
 21
-35.8
  0
LINE
  5
32C
100
AcDbEntity
  8
217
100
AcDbLine
 62
7
  6
CONTINUOUS
 10
-11.0771403962
 20
-35.3
 11
-10.15
 21
-35.3
  0
LINE
  5
32D
100
AcDbEntity
  8
217
100
AcDbLine
 62
7
  6
CONTINUOUS
 10
11.0771403962
 20
-35.3
 11
10.15
 21
-35.3
  0
LINE
  5
32E
100
AcDbEntity
  8
217
100
AcDbLine
 62
7
  6
CONTINUOUS
 10
-11.3517557834
 20
-34.7615988572
 11
-11.231416724
 21
-34.7615988572
  0
LINE
  5
32F
100
AcDbEntity
  8
217
100
AcDbLine
 62
7
  6
CONTINUOUS
 10
11.3517557834
 20
-34.7615988572
 11
11.231416724
 21
-34.7615988572
  0
LINE
  5
330
100
AcDbEntity
  8
0
100
AcDbLine
 62
7
  6
CONTINUOUS
 10
0.3329608466
 20
-36.7218694128
 11
-0.2002331555
 21
-36.6156960172
  0
LINE
  5
331
100
AcDbEntity
  8
0
100
AcDbLine
 62
7
  6
CONTINUOUS
 10
-0.3927937732
 20
-37.0770097025
 11
0.1396588062
 21
-37.1831320044
  0
LINE
  5
332
100
AcDbEntity
  8
0
100
AcDbLine
 62
7
  6
CONTINUOUS
 10
0.1396588062
 20
-37.1831320044
 11
0.3168276926
 21
-37.2187455288
  0
LINE
  5
333
100
AcDbEntity
  8
0
100
AcDbLine
 62
7
  6
CONTINUOUS
 10
-0.2002331555
 20
-36.6156960172
 11
-0.3605821205
 21
-36.5832915153
  0
LINE
  5
334
100
AcDbEntity
  8
0
100
AcDbLine
 62
7
  6
CONTINUOUS
 10
-0.5546891782
 20
-37.0439091071
 11
-0.3927937732
 21
-37.0770097025
  0
LWPOLYLINE
  5
335
100
AcDbEntity
  8
0
100
AcDbPolyline
 62
7
  6
CONTINUOUS
 90
14
 70
0
 10
0.3168276926
 20
-37.2187455288
 10
0.488557919
 20
-37.2540375233
 10
0.5717688969
 20
-37.2715455881
 10
0.6528126882
 20
-37.2889326772
 10
0.7314881983
 20
-37.3061935114
 10
0.807619061
 20
-37.3233254048
 10
0.8809253922
 20
-37.3402984389
 10
0.9512473629
 20
-37.3571052193
 10
1.0184413789
 20
-37.3737383684
 10
1.0822627329
 20
-37.3901597756
 10
1.1426098123
 20
-37.4063608227
 10
1.1993591732
 20
-37.4223218043
 10
1.2522410443
 20
-37.4379714913
 10
1.2937161993
 20
-37.4509463339
  0
LINE
  5
336
100
AcDbEntity
  8
0
100
AcDbLine
 62
7
  6
CONTINUOUS
 10
-0.3605821205
 20
-36.5832915153
 11
-0.5119102274
 21
-36.5520203667
  0
LINE
  5
337
100
AcDbEntity
  8
0
100
AcDbLine
 62
7
  6
CONTINUOUS
 10
-0.7063717934
 20
-37.0120263555
 11
-0.5546891782
 21
-37.0439091071
  0
LWPOLYLINE
  5
338
100
AcDbEntity
  8
0
100
AcDbPolyline
 62
7
  6
CONTINUOUS
 90
14
 70
0
 10
-0.5119102274
 20
-36.5520203667
 10
-0.6540375379
 20
-36.5217416196
 10
-0.7215079819
 20
-36.506959356
 10
-0.7865201197
 20
-36.4924093058
 10
-0.8490097856
 20
-36.4780941056
 10
-0.9090158106
 20
-36.4639948678
 10
-0.9664902878
 20
-36.4501144212
 10
-1.0213877942
 20
-36.4364577069
 10
-1.0737386551
 20
-36.4230128477
 10
-1.1235293336
 20
-36.4097803365
 10
-1.1707088768
 20
-36.3967732335
 10
-1.2152391817
 20
-36.3840048085
 10
-1.2571280818
 20
-36.3714783314
 10
-1.2937115013
 20
-36.3600352976
  0
LWPOLYLINE
  5
339
100
AcDbEntity
  8
0
100
AcDbPolyline
 62
7
  6
CONTINUOUS
 90
14
 70
0
 10
1.4946599218
 20
-37.0000509088
 10
1.4406269612
 20
-36.9824442598
 10
1.3737997255
 20
-36.9619984096
 10
1.3028907998
 20
-36.9415992304
 10
1.2278514344
 20
-36.9211801082
 10
1.1488870632
 20
-36.9007445612
 10
1.0665662862
 20
-36.8803773102
 10
0.9810905817
 20
-36.8600595519
 10
0.8927043444
 20
-36.8397816568
 10
0.8022263627
 20
-36.8196584283
 10
0.7099751457
 20
-36.7996840977
 10
0.6162480355
 20
-36.7798493763
 10
0.5219514608
 20
-36.7602717666
 10
0.3329608466
 20
-36.7218694128
  0
LINE
  5
33A
100
AcDbEntity
  8
217
100
AcDbLine
 62
7
  6
CONTINUOUS
 10
2.25
 20
-34.3
 11
-2.25
 21
-34.3
  0
LINE
  5
33B
100
AcDbEntity
  8
DRAFT
100
AcDbLine
 62
7
  6
CONTINUOUS
 10
-9.85
 20
-33.8
 11
-11.231416724
 21
-33.8
  0
LINE
  5
33C
100
AcDbEntity
  8
DRAFT
100
AcDbLine
 62
7
  6
CONTINUOUS
 10
9.85
 20
-33.8
 11
11.231416724
 21
-33.8
  0
LINE
  5
33D
100
AcDbEntity
  8
217
100
AcDbLine
 62
7
  6
CONTINUOUS
 10
-25.042745
 20
-33.484068675
 11
-24.085646
 21
-33.484068675
  0
LINE
  5
33E
100
AcDbEntity
  8
217
100
AcDbLine
 62
7
  6
CONTINUOUS
 10
-22.972902115
 20
-33.484068675
 11
-21.220604
 21
-33.484068675
  0
LINE
  5
33F
100
AcDbEntity
  8
217
100
AcDbLine
 62
7
  6
CONTINUOUS
 10
-20.1954227447
 20
-33.484068675
 11
-18.704635
 21
-33.484068675
  0
LINE
  5
340
100
AcDbEntity
  8
217
100
AcDbLine
 62
7
  6
CONTINUOUS
 10
-17.3465006225
 20
-33.484068675
 11
-15.59758
 21
-33.484068675
  0
LINE
  5
341
100
AcDbEntity
  8
217
100
AcDbLine
 62
7
  6
CONTINUOUS
 10
9.85
 20
-33.2
 11
-9.85
 21
-33.2
  0
LINE
  5
342
100
AcDbEntity
  8
217
100
AcDbLine
 62
7
  6
CONTINUOUS
 10
9.85
 20
-33.1770021293
 11
-9.85
 21
-33.1770021293
  0
LINE
  5
343
100
AcDbEntity
  8
217
100
AcDbLine
 62
7
  6
CONTINUOUS
 10
26.099736
 20
-32.8518239256
 11
26.820624
 21
-32.8518161668
  0
LINE
  5
344
100
AcDbEntity
  8
217
100
AcDbLine
 62
7
  6
CONTINUOUS
 10
21.138
 20
-32.8518316844
 11
21.778024
 21
-32.8518239256
  0
LINE
  5
345
100
AcDbEntity
  8
217
100
AcDbLine
 62
7
  6
CONTINUOUS
 10
18.826176
 20
-32.8518316844
 11
19.466184
 21
-32.8518239256
  0
LINE
  5
346
100
AcDbEntity
  8
217
100
AcDbLine
 62
7
  6
CONTINUOUS
 10
16.301016
 20
-32.8518394431
 11
16.94104
 21
-32.8518316844
  0
LINE
  5
347
100
AcDbEntity
  8
217
100
AcDbLine
 62
7
  6
CONTINUOUS
 10
14.206832
 20
-32.8518394431
 11
14.84688
 21
-32.8518316844
  0
LINE
  5
348
100
AcDbEntity
  8
217
100
AcDbLine
 62
7
  6
CONTINUOUS
 10
17.581048
 20
-32.8518316844
 11
18.221072
 21
-32.8518316844
  0
LINE
  5
349
100
AcDbEntity
  8
217
100
AcDbLine
 62
7
  6
CONTINUOUS
 10
20.071296
 20
-32.8518316844
 11
20.71132
 21
-32.8518316844
  0
LINE
  5
34A
100
AcDbEntity
  8
217
100
AcDbLine
 62
7
  6
CONTINUOUS
 10
24.259648
 20
-32.8518239256
 11
24.89968
 21
-32.8518239256
  0
LINE
  5
34B
100
AcDbEntity
  8
217
100
AcDbLine
 62
7
  6
CONTINUOUS
 10
23.192936
 20
-32.8518239256
 11
23.832968
 21
-32.8518316844
  0
LINE
  5
34C
100
AcDbEntity
  8
217
100
AcDbLine
 62
7
  6
CONTINUOUS
 10
-11.3558530539
 20
-32.3384011429
 11
-10.65
 21
-32.3384011429
  0
LINE
  5
34D
100
AcDbEntity
  8
217
100
AcDbLine
 62
7
  6
CONTINUOUS
 10
11.3558530539
 20
-32.3384011429
 11
10.65
 21
-32.3384011429
  0
LINE
  5
34E
100
AcDbEntity
  8
217
100
AcDbLine
 62
7
  6
CONTINUOUS
 10
21.98008
 20
-32.2414724868
 11
22.990888
 21
-32.2414724868
  0
LINE
  5
34F
100
AcDbEntity
  8
217
100
AcDbLine
 62
7
  6
CONTINUOUS
 10
11.0568753812
 20
-31.7
 11
10.15
 21
-31.7
  0
LINE
  5
350
100
AcDbEntity
  8
217
100
AcDbLine
 62
7
  6
CONTINUOUS
 10
-10.15
 20
-31.7
 11
-11.0568753812
 21
-31.7
  0
LINE
  5
351
100
AcDbEntity
  8
217
100
AcDbLine
 62
7
  6
CONTINUOUS
 10
22.795656
 20
-31.6865122893
 11
22.175304
 21
-31.6865122893
  0
LINE
  5
352
100
AcDbEntity
  8
217
100
AcDbLine
 62
7
  6
CONTINUOUS
 10
22.795656
 20
-31.6517826537
 11
22.175304
 21
-31.6517826537
  0
LINE
  5
353
100
AcDbEntity
  8
217
100
AcDbLine
 62
7
  6
CONTINUOUS
 10
24.899752
 20
-31.651774895
 11
25.458352
 21
-31.6517826537
  0
LINE
  5
354
100
AcDbEntity
  8
217
100
AcDbLine
 62
7
  6
CONTINUOUS
 10
25.6695427626
 20
-31.1123322384
 11
24.890856
 21
-31.1123322384
  0
LINE
  5
355
100
AcDbEntity
  8
217
100
AcDbLine
 62
7
  6
CONTINUOUS
 10
25.6695426916
 20
-31.0776026029
 11
24.890856
 21
-31.0776026029
  0
LINE
  5
356
100
AcDbEntity
  8
217
100
AcDbLine
 62
7
  6
CONTINUOUS
 10
-15.3610016298
 20
-30.6103194214
 11
-16.7487587457
 21
-30.6103194214
  0
LINE
  5
357
100
AcDbEntity
  8
217
100
AcDbLine
 62
7
  6
CONTINUOUS
 10
-18.3159923193
 20
-30.6103194214
 11
-19.4947489364
 21
-30.6103194214
  0
LINE
  5
358
100
AcDbEntity
  8
217
100
AcDbLine
 62
7
  6
CONTINUOUS
 10
-21.361167
 20
-30.6103194214
 11
-22.1200604999
 21
-30.6103194214
  0
LINE
  5
359
100
AcDbEntity
  8
217
100
AcDbLine
 62
7
  6
CONTINUOUS
 10
-15.3610016297
 20
-30.5755897859
 11
-16.74873755
 21
-30.5755897859
  0
LINE
  5
35A
100
AcDbEntity
  8
217
100
AcDbLine
 62
7
  6
CONTINUOUS
 10
-18.3159923213
 20
-30.5755897859
 11
-19.4947489363
 21
-30.5755897859
  0
LINE
  5
35B
100
AcDbEntity
  8
217
100
AcDbLine
 62
7
  6
CONTINUOUS
 10
-21.361167
 20
-30.5755897859
 11
-22.1200605242
 21
-30.5755897859
  0
LINE
  5
35C
100
AcDbEntity
  8
217
100
AcDbLine
 62
7
  6
CONTINUOUS
 10
24.890848
 20
-30.3223483665
 11
25.669534
 21
-30.3223483665
  0
LINE
  5
35D
100
AcDbEntity
  8
217
100
AcDbLine
 62
7
  6
CONTINUOUS
 10
20.71132
 20
-29.7829134688
 11
19.743776
 21
-29.7829134688
  0
LINE
  5
35E
100
AcDbEntity
  8
217
100
AcDbLine
 62
7
  6
CONTINUOUS
 10
18.548592
 20
-29.7829134688
 11
17.581048
 21
-29.7829134688
  0
LINE
  5
35F
100
AcDbEntity
  8
217
100
AcDbLine
 62
7
  6
CONTINUOUS
 10
16.941048
 20
-29.7829134688
 11
16.301024
 21
-29.7829134688
  0
LINE
  5
360
100
AcDbEntity
  8
217
100
AcDbLine
 62
7
  6
CONTINUOUS
 10
15.874344
 20
-29.7829134688
 11
15.234312
 21
-29.7829134688
  0
LINE
  5
361
100
AcDbEntity
  8
217
100
AcDbLine
 62
7
  6
CONTINUOUS
 10
13.819408
 20
-29.7829134688
 11
13.179376
 21
-29.7829134688
  0
LINE
  5
362
100
AcDbEntity
  8
217
100
AcDbLine
 62
7
  6
CONTINUOUS
 10
25.758387117
 20
-29.78290571
 11
24.259648
 21
-29.78290571
  0
LINE
  5
363
100
AcDbEntity
  8
217
100
AcDbLine
 62
7
  6
CONTINUOUS
 10
22.805504
 20
-29.78290571
 11
22.165448
 21
-29.78290571
  0
LINE
  5
364
100
AcDbEntity
  8
217
100
AcDbLine
 62
7
  6
CONTINUOUS
 10
20.71132
 20
-29.7481838332
 11
19.743776
 21
-29.7481838332
  0
LINE
  5
365
100
AcDbEntity
  8
217
100
AcDbLine
 62
7
  6
CONTINUOUS
 10
18.548592
 20
-29.7481838332
 11
17.581048
 21
-29.7481838332
  0
LINE
  5
366
100
AcDbEntity
  8
217
100
AcDbLine
 62
7
  6
CONTINUOUS
 10
16.941048
 20
-29.7481838332
 11
16.301024
 21
-29.7481838332
  0
LINE
  5
367
100
AcDbEntity
  8
217
100
AcDbLine
 62
7
  6
CONTINUOUS
 10
15.874344
 20
-29.7481838332
 11
15.234312
 21
-29.7481838332
  0
LINE
  5
368
100
AcDbEntity
  8
217
100
AcDbLine
 62
7
  6
CONTINUOUS
 10
13.819408
 20
-29.7481838332
 11
13.179376
 21
-29.7481838332
  0
LINE
  5
369
100
AcDbEntity
  8
217
100
AcDbLine
 62
7
  6
CONTINUOUS
 10
25.758387277
 20
-29.7481760745
 11
24.259648
 21
-29.7481760745
  0
LINE
  5
36A
100
AcDbEntity
  8
217
100
AcDbLine
 62
7
  6
CONTINUOUS
 10
22.805504
 20
-29.7481760745
 11
22.165448
 21
-29.7481760745
  0
LINE
  5
36B
100
AcDbEntity
  8
0
100
AcDbLine
 62
7
  6
CONTINUOUS
 10
0.3323894038
 20
-34.5399363795
 11
-0.2185019975
 21
-34.4302135299
  0
LINE
  5
36C
100
AcDbEntity
  8
0
100
AcDbLine
 62
7
  6
CONTINUOUS
 10
-0.4156171372
 20
-34.8905697748
 11
0.1946779199
 21
-35.0123126338
  0
LWPOLYLINE
  5
36D
100
AcDbEntity
  8
0
100
AcDbPolyline
 62
7
  6
CONTINUOUS
 90
11
 70
0
 10
0.1946779199
 20
-35.0123126338
 10
0.3825853761
 20
-35.0503280992
 10
0.4749429207
 20
-35.0693833975
 10
0.5657925596
 20
-35.0884591132
 10
0.6531757356
 20
-35.1071932146
 10
0.736928719
 20
-35.1255846864
 10
0.8168945229
 20
-35.1436272087
 10
0.8914109782
 20
-35.1609514091
 10
0.9600531121
 20
-35.1774326332
 10
1.0234677334
 20
-35.1931899454
 10
1.0720306163
 20
-35.2056630644
  0
LINE
  5
36E
100
AcDbEntity
  8
0
100
AcDbLine
 62
7
  6
CONTINUOUS
 10
-0.2185019975
 20
-34.4302135299
 11
-0.3827150566
 21
-34.3969489145
  0
LINE
  5
36F
100
AcDbEntity
  8
0
100
AcDbLine
 62
7
  6
CONTINUOUS
 10
-0.5692129612
 20
-34.8590799168
 11
-0.4156171372
 21
-34.8905697748
  0
LINE
  5
370
100
AcDbEntity
  8
0
100
AcDbLine
 62
7
  6
CONTINUOUS
 10
-0.3827150566
 20
-34.3969489145
 11
-0.5365356649
 21
-34.3650281654
  0
LINE
  5
371
100
AcDbEntity
  8
0
100
AcDbLine
 62
7
  6
CONTINUOUS
 10
-0.7143035884
 20
-34.8285112144
 11
-0.5692129612
 21
-34.8590799168
  0
LWPOLYLINE
  5
372
100
AcDbEntity
  8
0
100
AcDbPolyline
 62
7
  6
CONTINUOUS
 90
5
 70
0
 10
-0.5365356649
 20
-34.3650281654
 10
-0.6799149364
 20
-34.334289103
 10
-0.7479279317
 20
-34.3192671749
 10
-0.8133675788
 20
-34.3044833629
 10
-0.8327272253
 20
-34.3
  0
LWPOLYLINE
  5
373
100
AcDbEntity
  8
0
100
AcDbPolyline
 62
7
  6
CONTINUOUS
 90
9
 70
0
 10
1.1222375099
 20
-34.7122371915
 10
1.0563600869
 20
-34.6960918092
 10
0.9758274202
 20
-34.6770144381
 10
0.8917608246
 20
-34.6577505164
 10
0.8039571795
 20
-34.6382198986
 10
0.7128926021
 20
-34.6184902372
 10
0.6198148988
 20
-34.5987786348
 10
0.5249895435
 20
-34.5790792502
 10
0.3323894038
 20
-34.5399363795
  0
LWPOLYLINE
  5
374
100
AcDbEntity
  8
0
100
AcDbPolyline
 62
7
  6
CONTINUOUS
 90
7
 70
0
 10
1.0720402191
 20
-35.2056655693
 10
1.1057827651
 20
-35.2145708486
 10
1.1482220326
 20
-35.2260873817
 10
1.1885989312
 20
-35.2374162666
 10
1.2269155714
 20
-35.2485546279
 10
1.2631529345
 20
-35.2594916319
 10
1.2937717471
 20
-35.2691079914
  0
LWPOLYLINE
  5
375
100
AcDbEntity
  8
0
100
AcDbPolyline
 62
7
  6
CONTINUOUS
 90
10
 70
0
 10
1.4946464337
 20
-34.8182281909
 10
1.4634059305
 20
-34.807918388
 10
1.4223900311
 20
-34.7949128421
 10
1.3803354957
 20
-34.7821231547
 10
1.3373322936
 20
-34.7695403705
 10
1.2934414482
 20
-34.7571487775
 10
1.2487043169
 20
-34.7449296299
 10
1.2031892443
 20
-34.7328737575
 10
1.1569823335
 20
-34.7209778431
 10
1.1222212717
 20
-34.7122331449
  0
LINE
  5
376
100
AcDbEntity
  8
0
100
AcDbLine
 62
7
  6
CONTINUOUS
 10
1.4946599218
 20
-37.0000509088
 11
1.4945607424
 21
-37.0000175833
  0
LINE
  5
377
100
AcDbEntity
  8
0
100
AcDbLine
 62
7
  6
CONTINUOUS
 10
1.4946464337
 20
-34.8182281909
 11
1.4945829705
 21
-34.8182068646
  0
LWPOLYLINE
  5
378
100
AcDbEntity
  8
0
100
AcDbPolyline
 62
7
  6
CONTINUOUS
 90
10
 70
0
 10
1.779584137
 20
-37.1232390546
 10
1.755033423
 20
-37.1091790493
 10
1.7230922812
 20
-37.0923467241
 10
1.6904637417
 20
-37.0765406146
 10
1.6574255538
 20
-37.0616974972
 10
1.6239891458
 20
-37.0476551108
 10
1.5899388125
 20
-37.0341998095
 10
1.5553025075
 20
-37.0212507992
 10
1.5203166318
 20
-37.008814041
 10
1.4945607424
 20
-37.0000175833
  0
LINE
  5
379
100
AcDbEntity
  8
0
100
AcDbLine
 62
7
  6
CONTINUOUS
 10
1.779584137
 20
-37.1232390546
 11
1.7793750839
 21
-37.1231145641
  0
LINE
  5
37A
100
AcDbEntity
  8
217
100
AcDbLine
 62
250
  6
CONTINUOUS
 10
-55.9737534009
 20
36.6470432028
 11
-56.0
 21
36.6999412971
  0
LINE
  5
37B
100
AcDbEntity
  8
217
100
AcDbLine
 62
250
  6
CONTINUOUS
 10
-54.9851258104
 20
37.6471019058
 11
-55.0113724094
 21
37.7
  0
LINE
  5
37C
100
AcDbEntity
  8
217
100
AcDbLine
 62
7
  6
CONTINUOUS
 10
-44.380067
 20
-16.7994581462
 11
-44.83923
 21
-17.5679460038
  0
LINE
  5
37D
100
AcDbEntity
  8
217
100
AcDbLine
 62
7
  6
CONTINUOUS
 10
-44.730004
 20
-17.7555398479
 11
-44.126026
 21
-16.7994581462
  0
LINE
  5
37E
100
AcDbEntity
  8
217
100
AcDbLine
 62
7
  6
CONTINUOUS
 10
-57.4
 20
-27.8
 11
-56.0
 21
-27.8
  0
LINE
  5
37F
100
AcDbEntity
  8
217
100
AcDbLine
 62
7
  6
CONTINUOUS
 10
56.0
 20
-27.8
 11
57.4
 21
-27.8
  0
LINE
  5
380
100
AcDbEntity
  8
217
100
AcDbLine
 62
7
  6
CONTINUOUS
 10
54.3076845948
 20
-26.3
 11
52.4923830177
 21
-26.3
  0
LINE
  5
381
100
AcDbEntity
  8
217
100
AcDbLine
 62
7
  6
CONTINUOUS
 10
-52.4923830177
 20
-26.3
 11
-54.3076845948
 21
-26.3
  0
LINE
  5
382
100
AcDbEntity
  8
217
100
AcDbLine
 62
7
  6
CONTINUOUS
 10
-38.9994992122
 20
-25.1997496252
 11
38.9994992122
 21
-25.1997496252
  0
LINE
  5
383
100
AcDbEntity
  8
RACCORDO
100
AcDbLine
 62
250
  6
CONTINUOUS
 10
38.491550117
 20
-25.1414739646
 11
-38.491550117
 21
-25.1414739646
  0
LINE
  5
384
100
AcDbEntity
  8
217
100
AcDbLine
 62
7
  6
CONTINUOUS
 10
40.5
 20
-25.0370398884
 11
39.0
 21
-25.0370398884
  0
LINE
  5
385
100
AcDbEntity
  8
217
100
AcDbLine
 62
7
  6
CONTINUOUS
 10
-39.0
 20
-25.0370398884
 11
-40.5
 21
-25.0370398884
  0
LINE
  5
386
100
AcDbEntity
  8
217
100
AcDbLine
 62
7
  6
CONTINUOUS
 10
5.0761806034
 20
-42.8
 11
5.05
 21
-42.7738193967
  0
LINE
  5
387
100
AcDbEntity
  8
DRAFT
100
AcDbLine
 62
7
  6
CONTINUOUS
 10
2.3366528447
 20
-39.3366528447
 11
2.3
 21
-39.3
  0
LINE
  5
388
100
AcDbEntity
  8
RACCORDO
100
AcDbLine
 62
7
  6
CONTINUOUS
 10
5.0095995546
 20
-40.3095995546
 11
5.0043253562
 21
-40.3043253563
  0
LINE
  5
389
100
AcDbEntity
  8
217
100
AcDbLine
 62
7
  6
CONTINUOUS
 10
-22.120063
 20
-30.5755897859
 11
-22.120063
 21
-30.6103194214
  0
LINE
  5
38A
100
AcDbEntity
  8
217
100
AcDbLine
 62
7
  6
CONTINUOUS
 10
-22.0749847593
 20
-33.1772423479
 11
-22.074985
 21
-33.2119728826
  0
LINE
  5
38B
100
AcDbEntity
  8
217
100
AcDbLine
 62
7
  6
CONTINUOUS
 10
-21.361167
 20
-30.5755897859
 11
-21.361167
 21
-30.6103194214
  0
LINE
  5
38C
100
AcDbEntity
  8
RACCORDO
100
AcDbLine
 62
250
  6
CONTINUOUS
 10
37.9916262694
 20
-24.1416262694
 11
-37.9916262694
 21
-24.1416262694
  0
LINE
  5
38D
100
AcDbEntity
  8
RACCORDO
100
AcDbLine
 62
250
  6
CONTINUOUS
 10
-36.8974238247
 20
-23.9973933632
 11
36.8974238247
 21
-23.9973933632
  0
LINE
  5
38E
100
AcDbEntity
  8
RACCORDO
100
AcDbLine
 62
7
  6
CONTINUOUS
 10
-36.8974238247
 20
-23.6974047863
 11
36.8974238247
 21
-23.6974047863
  0
LINE
  5
38F
100
AcDbEntity
  8
RACCORDO
100
AcDbLine
 62
7
  6
CONTINUOUS
 10
36.8534134913
 20
-23.6540598221
 11
-36.8534134913
 21
-23.6540598221
  0
LINE
  5
390
100
AcDbEntity
  8
217
100
AcDbLine
 62
7
  6
CONTINUOUS
 10
40.9491740511
 20
-23.4999993526
 11
37.75
 21
-23.5
  0
LINE
  5
391
100
AcDbEntity
  8
217
100
AcDbLine
 62
7
  6
CONTINUOUS
 10
-37.75
 20
-23.5
 11
-40.9491740548
 21
-23.4999993526
  0
LINE
  5
392
100
AcDbEntity
  8
RACCORDO
100
AcDbLine
 62
250
  6
CONTINUOUS
 10
-37.6973933632
 20
-23.1974238248
 11
-37.3974047863
 21
-23.1974238248
  0
LINE
  5
393
100
AcDbEntity
  8
RACCORDO
100
AcDbLine
 62
250
  6
CONTINUOUS
 10
37.6973933632
 20
-23.1974238248
 11
37.3974047863
 21
-23.1974238248
  0
LINE
  5
394
100
AcDbEntity
  8
RACCORDO
100
AcDbLine
 62
250
  6
CONTINUOUS
 10
36.3540978047
 20
-22.7050623331
 11
-36.3540973027
 21
-22.7050623331
  0
LINE
  5
395
100
AcDbEntity
  8
217
100
AcDbLine
 62
7
  6
CONTINUOUS
 10
54.3061691003
 20
-21.3
 11
56.9
 21
-21.3
  0
LINE
  5
396
100
AcDbEntity
  8
217
100
AcDbLine
 62
7
  6
CONTINUOUS
 10
-54.3061691003
 20
-21.3
 11
-56.9
 21
-21.3
  0
LINE
  5
397
100
AcDbEntity
  8
217
100
AcDbLine
 62
7
  6
CONTINUOUS
 10
-19.49475
 20
-30.5755897859
 11
-19.49475
 21
-30.6103194214
  0
LINE
  5
398
100
AcDbEntity
  8
217
100
AcDbLine
 62
7
  6
CONTINUOUS
 10
-19.476813
 20
-32.2168102649
 11
-19.476813
 21
-32.2515399005
  0
LINE
  5
399
100
AcDbEntity
  8
217
100
AcDbLine
 62
7
  6
CONTINUOUS
 10
-18.964844
 20
-32.0012367064
 11
-18.964844
 21
-32.035966342
  0
LINE
  5
39A
100
AcDbEntity
  8
217
100
AcDbLine
 62
250
  6
CONTINUOUS
 10
-18.315991
 20
-30.5755897859
 11
-18.315991
 21
-30.6103194214
  0
LINE
  5
39B
100
AcDbEntity
  8
217
100
AcDbLine
 62
250
  6
CONTINUOUS
 10
-16.745905
 20
-30.5755897859
 11
-16.745905
 21
-30.6103194214
  0
LINE
  5
39C
100
AcDbEntity
  8
217
100
AcDbLine
 62
7
  6
CONTINUOUS
 10
-16.5080941456
 20
-33.2043112315
 11
-16.508094
 21
-33.2390403232
  0
LINE
  5
39D
100
AcDbEntity
  8
217
100
AcDbLine
 62
7
  6
CONTINUOUS
 10
-16.098581
 20
-31.6746768457
 11
-16.098581
 21
-31.7094064813
  0
LINE
  5
39E
100
AcDbEntity
  8
217
100
AcDbLine
 62
7
  6
CONTINUOUS
 10
-15.361001
 20
-30.5755897859
 11
-15.361001
 21
-30.6103194214
  0
LINE
  5
39F
100
AcDbEntity
  8
217
100
AcDbLine
 62
7
  6
CONTINUOUS
 10
-16.842951
 20
-32.7923742865
 11
-16.8435820582
 21
-32.8132891511
  0
LINE
  5
3A0
100
AcDbEntity
  8
217
100
AcDbLine
 62
7
  6
CONTINUOUS
 10
-23.149695
 20
-29.9880510719
 11
-22.917751
 21
-29.1216766946
  0
LINE
  5
3A1
100
AcDbEntity
  8
217
100
AcDbLine
 62
7
  6
CONTINUOUS
 10
-24.085646
 20
-33.484068675
 11
-23.306991
 21
-30.5755897859
  0
LINE
  5
3A2
100
AcDbEntity
  8
217
100
AcDbLine
 62
7
  6
CONTINUOUS
 10
-24.375444
 20
-31.0254820923
 11
-25.042745
 21
-33.484068675
  0
LINE
  5
3A3
100
AcDbEntity
  8
217
100
AcDbLine
 62
7
  6
CONTINUOUS
 10
-23.966055
 20
-29.5630857554
 11
-24.201616
 21
-30.4309818216
  0
LWPOLYLINE
  5
3A4
100
AcDbEntity
  8
0
100
AcDbPolyline
 62
7
  6
CONTINUOUS
 90
3
 70
0
 43
0.3500000087
 10
1.8928570881
 20
53.630443512
 10
1.8214285992
 20
53.4161527161
 10
1.6785714881
 20
53.1304430237
  0
LINE
  5
3A5
100
AcDbEntity
  8
217
100
AcDbLine
 62
7
  6
CONTINUOUS
 10
-49.751547
 20
-18.3998285465
 11
-49.535296
 21
-18.3998285465
  0
LINE
  5
3A6
100
AcDbEntity
  8
217
100
AcDbLine
 62
7
  6
CONTINUOUS
 10
-48.761785
 20
-18.3998285465
 11
-48.545663
 21
-18.3998285465
  0
LINE
  5
3A7
100
AcDbEntity
  8
217
100
AcDbLine
 62
7
  6
CONTINUOUS
 10
-47.941685
 20
-18.3998285465
 11
-47.718833
 21
-18.3998285465
  0
LINE
  5
3A8
100
AcDbEntity
  8
217
100
AcDbLine
 62
7
  6
CONTINUOUS
 10
-46.751459
 20
-18.3998285465
 11
-46.515278
 21
-18.3998285465
  0
LINE
  5
3A9
100
AcDbEntity
  8
217
100
AcDbLine
 62
7
  6
CONTINUOUS
 10
-46.316885
 20
-18.3998285465
 11
-45.289463
 21
-18.3998285465
  0
LINE
  5
3AA
100
AcDbEntity
  8
217
100
AcDbLine
 62
7
  6
CONTINUOUS
 10
-44.946126
 20
-18.3998285465
 11
-44.730004
 21
-18.3998285465
  0
LINE
  5
3AB
100
AcDbEntity
  8
217
100
AcDbLine
 62
7
  6
CONTINUOUS
 10
-45.289463
 20
-18.2083528851
 11
-46.100763
 21
-18.2083528851
  0
LINE
  5
3AC
100
AcDbEntity
  8
217
100
AcDbLine
 62
7
  6
CONTINUOUS
 10
-47.55163
 20
-17.9340774512
 11
-46.909733
 21
-17.9340774512
  0
LINE
  5
3AD
100
AcDbEntity
  8
217
100
AcDbLine
 62
7
  6
CONTINUOUS
 10
-46.98777
 20
-17.7426027895
 11
-47.484852
 21
-17.7426027895
  0
LINE
  5
3AE
100
AcDbEntity
  8
217
100
AcDbLine
 62
7
  6
CONTINUOUS
 10
-49.303385
 20
-16.9909328078
 11
-48.761785
 21
-16.9909328078
  0
LINE
  5
3AF
100
AcDbEntity
  8
217
100
AcDbLine
 62
7
  6
CONTINUOUS
 10
-48.545663
 20
-16.9909328078
 11
-48.004063
 21
-16.9909328078
  0
LINE
  5
3B0
100
AcDbEntity
  8
217
100
AcDbLine
 62
7
  6
CONTINUOUS
 10
-44.126026
 20
-16.7994581462
 11
-44.380067
 21
-16.7994581462
  0
LINE
  5
3B1
100
AcDbEntity
  8
217
100
AcDbLine
 62
7
  6
CONTINUOUS
 10
-45.298393
 20
-16.7994581462
 11
-45.550233
 21
-16.7994581462
  0
LINE
  5
3B2
100
AcDbEntity
  8
217
100
AcDbLine
 62
7
  6
CONTINUOUS
 10
-46.100763
 20
-16.7994581462
 11
-46.316885
 21
-16.7994581462
  0
LINE
  5
3B3
100
AcDbEntity
  8
217
100
AcDbLine
 62
7
  6
CONTINUOUS
 10
-47.094796
 20
-16.7994581462
 11
-47.339907
 21
-16.7994581462
  0
LINE
  5
3B4
100
AcDbEntity
  8
217
100
AcDbLine
 62
7
  6
CONTINUOUS
 10
-48.004063
 20
-16.7994581462
 11
-49.303385
 21
-16.7994581462
  0
LINE
  5
3B5
100
AcDbEntity
  8
217
100
AcDbLine
 62
7
  6
CONTINUOUS
 10
-49.535296
 20
-16.7994581462
 11
-49.751547
 21
-16.7994581462
  0
LINE
  5
3B6
100
AcDbEntity
  8
217
100
AcDbLine
 62
7
  6
CONTINUOUS
 10
-47.93612
 20
-16.0995383972
 11
-47.719868
 21
-16.0995383972
  0
LINE
  5
3B7
100
AcDbEntity
  8
217
100
AcDbLine
 62
7
  6
CONTINUOUS
 10
-47.350002
 20
-16.0995383972
 11
-47.14035
 21
-16.0995383972
  0
LINE
  5
3B8
100
AcDbEntity
  8
217
100
AcDbLine
 62
7
  6
CONTINUOUS
 10
-46.32245
 20
-16.0995383972
 11
-46.079539
 21
-16.0995383972
  0
LINE
  5
3B9
100
AcDbEntity
  8
217
100
AcDbLine
 62
7
  6
CONTINUOUS
 10
41.354333
 20
-16.0235335543
 11
41.550224
 21
-16.0235335543
  0
LINE
  5
3BA
100
AcDbEntity
  8
217
100
AcDbLine
 62
7
  6
CONTINUOUS
 10
42.555893
 20
-16.0235335543
 11
42.757851
 21
-16.0235335543
  0
LINE
  5
3BB
100
AcDbEntity
  8
217
100
AcDbLine
 62
7
  6
CONTINUOUS
 10
43.634377
 20
-16.0235335543
 11
43.848356
 21
-16.0235335543
  0
LINE
  5
3BC
100
AcDbEntity
  8
217
100
AcDbLine
 62
7
  6
CONTINUOUS
 10
44.393552
 20
-16.0235335543
 11
44.589442
 21
-16.0235335543
  0
LINE
  5
3BD
100
AcDbEntity
  8
217
100
AcDbLine
 62
7
  6
CONTINUOUS
 10
45.28416
 20
-16.0235335543
 11
45.494132
 21
-16.0235335543
  0
LINE
  5
3BE
100
AcDbEntity
  8
217
100
AcDbLine
 62
7
  6
CONTINUOUS
 10
46.40489
 20
-16.0235335543
 11
46.60078
 21
-16.0235335543
  0
LINE
  5
3BF
100
AcDbEntity
  8
217
100
AcDbLine
 62
7
  6
CONTINUOUS
 10
47.75185
 20
-16.0235335543
 11
48.822206
 21
-16.0235335543
  0
LINE
  5
3C0
100
AcDbEntity
  8
217
100
AcDbLine
 62
7
  6
CONTINUOUS
 10
49.07866
 20
-16.0235335543
 11
49.268483
 21
-16.0235335543
  0
LINE
  5
3C1
100
AcDbEntity
  8
217
100
AcDbLine
 62
7
  6
CONTINUOUS
 10
50.009683
 20
-16.0235335543
 11
50.22973
 21
-16.0235335543
  0
LINE
  5
3C2
100
AcDbEntity
  8
217
100
AcDbLine
 62
7
  6
CONTINUOUS
 10
50.54675
 20
-16.0235335543
 11
51.13442258
 21
-16.0235335543
  0
LINE
  5
3C3
100
AcDbEntity
  8
217
100
AcDbLine
 62
7
  6
CONTINUOUS
 10
52.0169
 20
-16.0235335543
 11
52.226986
 21
-16.0235335543
  0
LINE
  5
3C4
100
AcDbEntity
  8
217
100
AcDbLine
 62
7
  6
CONTINUOUS
 10
51.108201634
 20
-15.8559736064
 11
50.74264
 21
-15.8559736064
  0
LINE
  5
3C5
100
AcDbEntity
  8
217
100
AcDbLine
 62
7
  6
CONTINUOUS
 10
48.822206
 20
-15.8499074546
 11
47.94774
 21
-15.8499074546
  0
LINE
  5
3C6
100
AcDbEntity
  8
217
100
AcDbLine
 62
7
  6
CONTINUOUS
 10
52.226986
 20
-15.8095047645
 11
52.0169
 21
-15.8095047645
  0
LINE
  5
3C7
100
AcDbEntity
  8
217
100
AcDbLine
 62
7
  6
CONTINUOUS
 10
45.494132
 20
-15.8095047645
 11
45.28416
 21
-15.8095047645
  0
LINE
  5
3C8
100
AcDbEntity
  8
217
100
AcDbLine
 62
7
  6
CONTINUOUS
 10
42.90932
 20
-15.6015421264
 11
43.490922
 21
-15.6015421264
  0
LINE
  5
3C9
100
AcDbEntity
  8
217
100
AcDbLine
 62
7
  6
CONTINUOUS
 10
54.7276076742
 20
-15.5610765883
 11
54.3043450547
 21
-15.5610765883
  0
LINE
  5
3CA
100
AcDbEntity
  8
217
100
AcDbLine
 62
7
  6
CONTINUOUS
 10
-54.3043450547
 20
-15.5610765883
 11
-54.7276076742
 21
-15.5610765883
  0
LINE
  5
3CB
100
AcDbEntity
  8
217
100
AcDbLine
 62
7
  6
CONTINUOUS
 10
43.420168
 20
-15.4279160267
 11
42.969884
 21
-15.4279160267
  0
LINE
  5
3CC
100
AcDbEntity
  8
217
100
AcDbLine
 62
7
  6
CONTINUOUS
 10
41.550224
 20
-15.4117779436
 11
42.0065759472
 21
-15.4117779436
  0
LINE
  5
3CD
100
AcDbEntity
  8
217
100
AcDbLine
 62
7
  6
CONTINUOUS
 10
46.60078
 20
-15.4117779436
 11
47.0571325973
 21
-15.4117779436
  0
LINE
  5
3CE
100
AcDbEntity
  8
217
100
AcDbLine
 62
7
  6
CONTINUOUS
 10
47.94774
 20
-15.3654240667
 11
48.741491
 21
-15.3654240667
  0
LINE
  5
3CF
100
AcDbEntity
  8
217
100
AcDbLine
 62
7
  6
CONTINUOUS
 10
54.3043511001
 20
-15.3
 11
56.9
 21
-15.3
  0
LINE
  5
3D0
100
AcDbEntity
  8
217
100
AcDbLine
 62
7
  6
CONTINUOUS
 10
-54.3043450547
 20
-15.3
 11
-56.9
 21
-15.3
  0
LINE
  5
3D1
100
AcDbEntity
  8
217
100
AcDbLine
 62
7
  6
CONTINUOUS
 10
46.9986330684
 20
-15.2442169959
 11
46.60078
 21
-15.2442169959
  0
LINE
  5
3D2
100
AcDbEntity
  8
217
100
AcDbLine
 62
7
  6
CONTINUOUS
 10
41.9480764407
 20
-15.2442169959
 11
41.550224
 21
-15.2442169959
  0
LINE
  5
3D3
100
AcDbEntity
  8
217
100
AcDbLine
 62
7
  6
CONTINUOUS
 10
48.741491
 20
-15.1917979669
 11
47.94774
 21
-15.1917979669
  0
LINE
  5
3D4
100
AcDbEntity
  8
217
100
AcDbLine
 62
7
  6
CONTINUOUS
 10
43.902853
 20
-14.7476023042
 11
44.393552
 21
-14.7476023042
  0
LINE
  5
3D5
100
AcDbEntity
  8
217
100
AcDbLine
 62
7
  6
CONTINUOUS
 10
44.589442
 20
-14.7476023042
 11
45.080141
 21
-14.7476023042
  0
LINE
  5
3D6
100
AcDbEntity
  8
217
100
AcDbLine
 62
7
  6
CONTINUOUS
 10
47.94774
 20
-14.7476023042
 11
48.808123
 21
-14.7476023042
  0
LINE
  5
3D7
100
AcDbEntity
  8
217
100
AcDbLine
 62
7
  6
CONTINUOUS
 10
41.550224
 20
-14.7415361524
 11
41.9480728299
 21
-14.7415361524
  0
LINE
  5
3D8
100
AcDbEntity
  8
217
100
AcDbLine
 62
7
  6
CONTINUOUS
 10
46.60078
 20
-14.7415361524
 11
46.9986294864
 21
-14.7415361524
  0
LINE
  5
3D9
100
AcDbEntity
  8
217
100
AcDbLine
 62
7
  6
CONTINUOUS
 10
50.74264
 20
-14.7415361524
 11
51.1082027703
 21
-14.7415361524
  0
LINE
  5
3DA
100
AcDbEntity
  8
217
100
AcDbLine
 62
7
  6
CONTINUOUS
 10
51.1344179327
 20
-14.5739752047
 11
50.54675
 21
-14.5739752047
  0
LINE
  5
3DB
100
AcDbEntity
  8
217
100
AcDbLine
 62
7
  6
CONTINUOUS
 10
50.22973
 20
-14.5739752047
 11
50.039908
 21
-14.5739752047
  0
LINE
  5
3DC
100
AcDbEntity
  8
217
100
AcDbLine
 62
7
  6
CONTINUOUS
 10
49.310958
 20
-14.5739752047
 11
49.07866
 21
-14.5739752047
  0
LINE
  5
3DD
100
AcDbEntity
  8
217
100
AcDbLine
 62
7
  6
CONTINUOUS
 10
48.808123
 20
-14.5739752047
 11
47.75185
 21
-14.5739752047
  0
LINE
  5
3DE
100
AcDbEntity
  8
217
100
AcDbLine
 62
7
  6
CONTINUOUS
 10
47.0571302251
 20
-14.5739752047
 11
46.40489
 21
-14.5739752047
  0
LINE
  5
3DF
100
AcDbEntity
  8
217
100
AcDbLine
 62
7
  6
CONTINUOUS
 10
45.080141
 20
-14.5739752047
 11
43.902853
 21
-14.5739752047
  0
LINE
  5
3E0
100
AcDbEntity
  8
217
100
AcDbLine
 62
7
  6
CONTINUOUS
 10
43.323311
 20
-14.5739752047
 11
43.101203
 21
-14.5739752047
  0
LINE
  5
3E1
100
AcDbEntity
  8
217
100
AcDbLine
 62
7
  6
CONTINUOUS
 10
42.0065736074
 20
-14.5739752047
 11
41.354333
 21
-14.5739752047
  0
LINE
  5
3E2
100
AcDbEntity
  8
217
100
AcDbLine
 62
7
  6
CONTINUOUS
 10
-46.079539
 20
-14.5004616028
 11
-46.288932
 21
-14.5004616028
  0
LINE
  5
3E3
100
AcDbEntity
  8
217
100
AcDbLine
 62
7
  6
CONTINUOUS
 10
-47.093631
 20
-14.5004616028
 11
-47.350002
 21
-14.5004616028
  0
LINE
  5
3E4
100
AcDbEntity
  8
217
100
AcDbLine
 62
7
  6
CONTINUOUS
 10
-47.719868
 20
-14.5004616028
 11
-47.93612
 21
-14.5004616028
  0
LINE
  5
3E5
100
AcDbEntity
  8
217
100
AcDbLine
 62
250
  6
CONTINUOUS
 10
-55.7117362727
 20
35.1155415746
 11
-55.9737534009
 21
35.3775587028
  0
LWPOLYLINE
  5
3E6
100
AcDbEntity
  8
0
100
AcDbPolyline
 62
7
  6
CONTINUOUS
 90
31
 70
0
 10
-1.9749628324
 20
-34.3
 10
-1.963575234
 20
-34.3251451287
 10
-1.9467889457
 20
-34.3541708513
 10
-1.9280128343
 20
-34.3806440102
 10
-1.9073930992
 20
-34.4050523289
 10
-1.8851999366
 20
-34.4276067344
 10
-1.8616662364
 20
-34.4484870765
 10
-1.8368989608
 20
-34.4679278415
 10
-1.8108831245
 20
-34.486190091
 10
-1.7837010148
 20
-34.5034142357
 10
-1.7552899016
 20
-34.5198016452
 10
-1.7253874388
 20
-34.5356141039
 10
-1.6939522073
 20
-34.5509497207
 10
-1.6609275079
 20
-34.5658997075
 10
-1.6260538745
 20
-34.5806248048
 10
-1.5892716042
 20
-34.5951779979
 10
-1.5505389943
 20
-34.609600112
 10
-1.5096679796
 20
-34.6239792415
 10
-1.4665886653
 20
-34.6383516887
 10
-1.4213096407
 20
-34.652725859
 10
-1.3738068003
 20
-34.6671212668
 10
-1.3240611844
 20
-34.6815553077
 10
-1.2720879427
 20
-34.6960357244
 10
-1.2179599183
 20
-34.7105561502
 10
-1.1617007269
 20
-34.7251256646
 10
-1.1033501906
 20
-34.7397500577
 10
-1.0430495462
 20
-34.7544119089
 10
-0.9809524859
 20
-34.769094428
 10
-0.9170385354
 20
-34.78382354
 10
-0.8512069523
 20
-34.7986419101
 10
-0.7143035884
 20
-34.8285112144
  0
LINE
  5
3E7
100
AcDbEntity
  8
217
100
AcDbLine
 62
7
  6
CONTINUOUS
 10
-11.35
 20
-35.8
 11
-11.3564251631
 21
-32.0000456897
  0
LINE
  5
3E8
100
AcDbEntity
  8
217
100
AcDbLine
 62
7
  6
CONTINUOUS
 10
-11.3903359269
 20
-40.1
 11
-11.3905034622
 21
-39.0
  0
LINE
  5
3E9
100
AcDbEntity
  8
284
100
AcDbLine
 62
7
  6
CONTINUOUS
 10
-13.0
 20
-41.2051466838
 11
-13.0
 21
-43.223468713
  0
LINE
  5
3EA
100
AcDbEntity
  8
217
100
AcDbLine
 62
7
  6
CONTINUOUS
 10
-12.7
 20
-40.95
 11
-12.7
 21
-42.8
  0
LINE
  5
3EB
100
AcDbEntity
  8
217
100
AcDbLine
 62
7
  6
CONTINUOUS
 10
-11.35
 20
-35.8
 11
-11.35
 21
-37.2428610173
  0
LINE
  5
3EC
100
AcDbEntity
  8
DRAFT
100
AcDbLine
 62
7
  6
CONTINUOUS
 10
-11.231416724
 20
-33.8
 11
-11.231416724
 21
-35.2566806377
  0
LINE
  5
3ED
100
AcDbEntity
  8
DRAFT
100
AcDbLine
 62
7
  6
CONTINUOUS
 10
-11.231416724
 20
-38.9912511337
 11
-11.231416724
 21
-40.1
  0
LINE
  5
3EE
100
AcDbEntity
  8
DRAFT
100
AcDbLine
 62
7
  6
CONTINUOUS
 10
-11.2
 20
-33.8
 11
-11.2
 21
-35.2731108682
  0
LINE
  5
3EF
100
AcDbEntity
  8
DRAFT
100
AcDbLine
 62
7
  6
CONTINUOUS
 10
-11.2
 20
-38.9912511337
 11
-11.2
 21
-40.3
  0
LINE
  5
3F0
100
AcDbEntity
  8
217
100
AcDbLine
 62
7
  6
CONTINUOUS
 10
-10.65
 20
-32.3384011429
 11
-10.65
 21
-33.8
  0
LINE
  5
3F1
100
AcDbEntity
  8
217
100
AcDbLine
 62
7
  6
CONTINUOUS
 10
-9.85
 20
-33.1770021293
 11
-9.85
 21
-32.0
  0
LINE
  5
3F2
100
AcDbEntity
  8
217
100
AcDbLine
 62
7
  6
CONTINUOUS
 10
-9.85
 20
-33.2
 11
-9.85
 21
-35.0
  0
LINE
  5
3F3
100
AcDbEntity
  8
217
100
AcDbLine
 62
7
  6
CONTINUOUS
 10
-22.8568848954
 20
-30.8842197071
 11
-23.39263
 21
-32.8853660602
  0
LINE
  5
3F4
100
AcDbEntity
  8
217
100
AcDbLine
 62
7
  6
CONTINUOUS
 10
-22.473061
 20
-32.8601898199
 11
-21.981874938
 21
-31.0254818608
  0
LINE
  5
3F5
100
AcDbEntity
  8
217
100
AcDbLine
 62
7
  6
CONTINUOUS
 10
-21.460137
 20
-30.8806268173
 11
-22.0749847593
 21
-33.1772423479
  0
LINE
  5
3F6
100
AcDbEntity
  8
217
100
AcDbLine
 62
7
  6
CONTINUOUS
 10
-21.220604
 20
-33.484068675
 11
-20.052708
 21
-29.1216766946
  0
LINE
  5
3F7
100
AcDbEntity
  8
217
100
AcDbLine
 62
7
  6
CONTINUOUS
 10
-20.0251532168
 20
-30.8408290138
 11
-20.603546
 21
-33.0012753023
  0
LINE
  5
3F8
100
AcDbEntity
  8
217
100
AcDbLine
 62
7
  6
CONTINUOUS
 10
-19.476813
 20
-32.2168102649
 11
-19.173658988
 21
-31.0844516126
  0
LINE
  5
3F9
100
AcDbEntity
  8
217
100
AcDbLine
 62
7
  6
CONTINUOUS
 10
-18.667068
 20
-30.888964586
 11
-18.964844
 21
-32.0012367064
  0
LINE
  5
3FA
100
AcDbEntity
  8
217
100
AcDbLine
 62
7
  6
CONTINUOUS
 10
-21.074773
 20
-29.5520362963
 11
-21.361167
 21
-30.5755897859
  0
LINE
  5
3FB
100
AcDbEntity
  8
217
100
AcDbLine
 62
250
  6
CONTINUOUS
 10
-55.7117362727
 20
-37.7155415747
 11
-56.0
 21
-38.0038053019
  0
LINE
  5
3FC
100
AcDbEntity
  8
284
100
AcDbLine
 62
7
  6
CONTINUOUS
 10
-61.2
 20
-43.5
 11
-60.5082173135
 21
-42.8082173135
  0
LINE
  5
3FD
100
AcDbEntity
  8
284
100
AcDbLine
 62
7
  6
CONTINUOUS
 10
-59.0082214026
 20
-41.3082214026
 11
-58.9
 21
-41.2
  0
LINE
  5
3FE
100
AcDbEntity
  8
217
100
AcDbLine
 62
250
  6
CONTINUOUS
 10
-54.7147797567
 20
-38.7109744548
 11
-55.0038053019
 21
-39.0
  0
LINE
  5
3FF
100
AcDbEntity
  8
RACCORDO
100
AcDbLine
 62
250
  6
CONTINUOUS
 10
-37.3542852004
 20
-23.1543042389
 11
-37.3974047863
 21
-23.1974238248
  0
LINE
  5
400
100
AcDbEntity
  8
RACCORDO
100
AcDbLine
 62
250
  6
CONTINUOUS
 10
-38.491550117
 20
-25.1414739646
 11
-38.5498257776
 21
-25.1997496252
  0
LINE
  5
401
100
AcDbEntity
  8
217
100
AcDbLine
 62
7
  6
CONTINUOUS
 10
-50.081296
 20
-13.799248248
 11
-49.871774
 21
-13.799248248
  0
LINE
  5
402
100
AcDbEntity
  8
217
100
AcDbLine
 62
7
  6
CONTINUOUS
 10
-49.42154
 20
-13.799248248
 11
-49.207618
 21
-13.799248248
  0
LINE
  5
403
100
AcDbEntity
  8
217
100
AcDbLine
 62
7
  6
CONTINUOUS
 10
-48.757385
 20
-13.799248248
 11
-48.547863
 21
-13.799248248
  0
LINE
  5
404
100
AcDbEntity
  8
217
100
AcDbLine
 62
7
  6
CONTINUOUS
 10
-48.3562
 20
-13.799248248
 11
-48.133348
 21
-13.799248248
  0
LINE
  5
405
100
AcDbEntity
  8
217
100
AcDbLine
 62
7
  6
CONTINUOUS
 10
-47.165974
 20
-13.799248248
 11
-46.929793
 21
-13.799248248
  0
LINE
  5
406
100
AcDbEntity
  8
217
100
AcDbLine
 62
7
  6
CONTINUOUS
 10
-46.72027
 20
-13.799248248
 11
-46.0717727854
 21
-13.799248248
  0
LINE
  5
407
100
AcDbEntity
  8
217
100
AcDbLine
 62
7
  6
CONTINUOUS
 10
-45.1
 20
-13.799248248
 11
-43.918704
 21
-13.799248248
  0
LINE
  5
408
100
AcDbEntity
  8
217
100
AcDbLine
 62
7
  6
CONTINUOUS
 10
-46.1007602626
 20
-13.6142416157
 11
-46.504148
 21
-13.6142416157
  0
LINE
  5
409
100
AcDbEntity
  8
217
100
AcDbLine
 62
7
  6
CONTINUOUS
 10
-43.918704
 20
-13.6077735864
 11
-44.883749
 21
-13.6077735864
  0
LINE
  5
40A
100
AcDbEntity
  8
217
100
AcDbLine
 62
7
  6
CONTINUOUS
 10
-47.966144
 20
-13.3334981524
 11
-47.324248
 21
-13.3334981524
  0
LINE
  5
40B
100
AcDbEntity
  8
217
100
AcDbLine
 62
7
  6
CONTINUOUS
 10
-47.402285
 20
-13.1420224911
 11
-47.899237
 21
-13.1420224911
  0
LINE
  5
40C
100
AcDbEntity
  8
217
100
AcDbLine
 62
7
  6
CONTINUOUS
 10
-44.883749
 20
-13.0734543824
 11
-44.007871
 21
-13.0734543824
  0
LINE
  5
40D
100
AcDbEntity
  8
217
100
AcDbLine
 62
7
  6
CONTINUOUS
 10
-44.007871
 20
-12.881978721
 11
-44.883749
 21
-12.881978721
  0
LINE
  5
40E
100
AcDbEntity
  8
217
100
AcDbLine
 62
7
  6
CONTINUOUS
 10
-44.883749
 20
-12.3916471149
 11
-43.934363
 21
-12.3916471149
  0
LINE
  5
40F
100
AcDbEntity
  8
217
100
AcDbLine
 62
7
  6
CONTINUOUS
 10
-46.504148
 20
-12.3851780859
 11
-46.1007640963
 21
-12.3851780859
  0
LINE
  5
410
100
AcDbEntity
  8
217
100
AcDbLine
 62
7
  6
CONTINUOUS
 10
-43.934363
 20
-12.2001714536
 11
-45.1
 21
-12.2001714536
  0
LINE
  5
411
100
AcDbEntity
  8
217
100
AcDbLine
 62
7
  6
CONTINUOUS
 10
-46.0717764426
 20
-12.2001714536
 11
-46.72027
 21
-12.2001714536
  0
LINE
  5
412
100
AcDbEntity
  8
217
100
AcDbLine
 62
7
  6
CONTINUOUS
 10
-47.509311
 20
-12.2001714536
 11
-47.754422
 21
-12.2001714536
  0
LINE
  5
413
100
AcDbEntity
  8
217
100
AcDbLine
 62
7
  6
CONTINUOUS
 10
-48.547863
 20
-12.2001714536
 11
-48.855481
 21
-12.2001714536
  0
LINE
  5
414
100
AcDbEntity
  8
217
100
AcDbLine
 62
7
  6
CONTINUOUS
 10
-49.771477
 20
-12.2001714536
 11
-50.081296
 21
-12.2001714536
  0
LINE
  5
415
100
AcDbEntity
  8
217
100
AcDbLine
 62
250
  6
CONTINUOUS
 10
-54.7147797567
 20
36.1109744548
 11
-54.9775587029
 21
36.3737534009
  0
LINE
  5
416
100
AcDbEntity
  8
RACCORDO
100
AcDbLine
 62
250
  6
CONTINUOUS
 10
-37.3974047863
 20
20.5974238247
 11
-37.3542852005
 21
20.5543042389
  0
LINE
  5
417
100
AcDbEntity
  8
RACCORDO
100
AcDbLine
 62
250
  6
CONTINUOUS
 10
-38.491550117
 20
22.5414739645
 11
-38.5498257776
 21
22.5997496251
  0
LINE
  5
418
100
AcDbEntity
  8
RACCORDO
100
AcDbLine
 62
250
  6
CONTINUOUS
 10
-36.8974238247
 20
21.0974047862
 11
-36.854304239
 21
21.0542852005
  0
LWPOLYLINE
  5
419
100
AcDbEntity
  8
RACCORDO
100
AcDbPolyline
 62
7
  6
CONTINUOUS
 90
38
 70
0
 10
-5.0154775569
 20
-44.2011403408
 10
-5.0150772325
 20
-44.2077639077
 10
-5.0146371215
 20
-44.2144495906
 10
-5.0141539533
 20
-44.2211500953
 10
-5.0136134515
 20
-44.2279582071
 10
-5.0129662246
 20
-44.2353076018
 10
-5.01219866
 20
-44.2431017284
 10
-5.011268868
 20
-44.2514947722
 10
-5.0100329339
 20
-44.2613163405
 10
-5.0083754255
 20
-44.2727706724
 10
-5.0062086526
 20
-44.2856996736
 10
-5.0033456432
 20
-44.3004005084
 10
-4.9995297103
 20
-44.317211793
 10
-4.9946195557
 20
-44.3357714573
 10
-4.9886255648
 20
-44.3553177264
 10
-4.9814077489
 20
-44.375776109
 10
-4.9728096295
 20
-44.3970883819
 10
-4.962982188
 20
-44.418530816
 10
-4.9519515881
 20
-44.4398671994
 10
-4.9395901833
 20
-44.4611774204
 10
-4.9259348676
 20
-44.4822377027
 10
-4.9109952924
 20
-44.5029117657
 10
-4.894720677
 20
-44.5231549681
 10
-4.8770849837
 20
-44.5428807679
 10
-4.8580675487
 20
-44.5619942423
 10
-4.8376779392
 20
-44.580372118
 10
-4.8159488036
 20
-44.5978804117
 10
-4.7929007022
 20
-44.6144046553
 10
-4.7685613508
 20
-44.6298296312
 10
-4.7429941657
 20
-44.6440246999
 10
-4.716254784
 20
-44.6568736057
 10
-4.6883996579
 20
-44.6682652083
 10
-4.6595121792
 20
-44.6780831223
 10
-4.6296742831
 20
-44.6862190378
 10
-4.5989807025
 20
-44.6925670841
 10
-4.5675516054
 20
-44.6970241017
 10
-4.5355080561
 20
-44.6994964725
 10
-4.5130707103
 20
-44.6999999535
  0
LINE
  5
41A
100
AcDbEntity
  8
RACCORDO
100
AcDbLine
 62
7
  6
CONTINUOUS
 10
-5.0162147461
 20
-44.1874149359
 11
-5.0154775569
 21
-44.2011403408
  0
LINE
  5
41B
100
AcDbEntity
  8
RACCORDO
100
AcDbLine
 62
7
  6
CONTINUOUS
 10
-5.0168909336
 20
-44.1728712434
 11
-5.0162147461
 21
-44.1874149359
  0
LINE
  5
41C
100
AcDbEntity
  8
RACCORDO
100
AcDbLine
 62
7
  6
CONTINUOUS
 10
-5.0175325763
 20
-44.1571578165
 11
-5.0168909336
 21
-44.1728712434
  0
LINE
  5
41D
100
AcDbEntity
  8
RACCORDO
100
AcDbLine
 62
7
  6
CONTINUOUS
 10
-5.0184517437
 20
-44.1311217496
 11
-5.0175325763
 21
-44.1571578165
  0
LINE
  5
41E
100
AcDbEntity
  8
RACCORDO
100
AcDbLine
 62
7
  6
CONTINUOUS
 10
-5.0196169981
 20
-44.0916551434
 11
-5.0184517437
 21
-44.1311217496
  0
LINE
  5
41F
100
AcDbEntity
  8
RACCORDO
100
AcDbLine
 62
7
  6
CONTINUOUS
 10
-5.0209767501
 20
-44.0356644764
 11
-5.0196169981
 21
-44.0916551434
  0
LINE
  5
420
100
AcDbEntity
  8
RACCORDO
100
AcDbLine
 62
7
  6
CONTINUOUS
 10
-5.0209767501
 20
-44.0356644764
 11
-5.0217055774
 21
-44.0009069658
  0
LINE
  5
421
100
AcDbEntity
  8
RACCORDO
100
AcDbLine
 62
7
  6
CONTINUOUS
 10
-5.0217981303
 20
-43.9912878475
 11
-5.0217055774
 21
-44.0009069658
  0
LINE
  5
422
100
AcDbEntity
  8
217
100
AcDbLine
 62
7
  6
CONTINUOUS
 10
-5.0761806034
 20
-42.8
 11
-5.0761806034
 21
-40.1
  0
LINE
  5
423
100
AcDbEntity
  8
217
100
AcDbLine
 62
7
  6
CONTINUOUS
 10
-5.05
 20
-40.3095995546
 11
-5.05
 21
-42.7738193967
  0
LINE
  5
424
100
AcDbEntity
  8
RACCORDO
100
AcDbLine
 62
7
  6
CONTINUOUS
 10
-5.0217981303
 20
-43.9912878475
 11
-5.0217981303
 21
-40.3095995546
  0
LINE
  5
425
100
AcDbEntity
  8
RACCORDO
100
AcDbLine
 62
250
  6
CONTINUOUS
 10
-5.0043253562
 20
-40.3043253563
 11
-5.0043253562
 21
-43.9912279677
  0
LINE
  5
426
100
AcDbEntity
  8
RACCORDO
100
AcDbLine
 62
250
  6
CONTINUOUS
 10
-4.5043443947
 20
-40.3
 11
-4.5043443947
 21
-44.449545417
  0
LINE
  5
427
100
AcDbEntity
  8
217
100
AcDbLine
 62
7
  6
CONTINUOUS
 10
-11.3905034622
 20
-39.0
 11
-11.3896322409
 21
-38.9912511337
  0
LINE
  5
428
100
AcDbEntity
  8
217
100
AcDbLine
 62
7
  6
CONTINUOUS
 10
-18.323953496
 20
-33.1371857421
 11
-18.165401
 21
-32.5449500053
  0
LINE
  5
429
100
AcDbEntity
  8
217
100
AcDbLine
 62
7
  6
CONTINUOUS
 10
-18.016228
 20
-31.9877509935
 11
-17.809203
 21
-31.2144585856
  0
LINE
  5
42A
100
AcDbEntity
  8
217
100
AcDbLine
 62
7
  6
CONTINUOUS
 10
-17.2985020586
 20
-30.9871986861
 11
-17.509215
 21
-31.7742635744
  0
LINE
  5
42B
100
AcDbEntity
  8
217
100
AcDbLine
 62
7
  6
CONTINUOUS
 10
-17.658387
 20
-32.3314625862
 11
-17.811032
 21
-32.9016284432
  0
LINE
  5
42C
100
AcDbEntity
  8
217
100
AcDbLine
 62
7
  6
CONTINUOUS
 10
-16.842951
 20
-32.7923742865
 11
-16.704358
 21
-32.274695542
  0
LINE
  5
42D
100
AcDbEntity
  8
217
100
AcDbLine
 62
7
  6
CONTINUOUS
 10
-15.884495902
 20
-30.8750129806
 11
-16.098581
 21
-31.6746768457
  0
LINE
  5
42E
100
AcDbEntity
  8
217
100
AcDbLine
 62
7
  6
CONTINUOUS
 10
-16.202663
 20
-32.063447498
 11
-16.5080941456
 21
-33.2043112315
  0
LINE
  5
42F
100
AcDbEntity
  8
217
100
AcDbLine
 62
7
  6
CONTINUOUS
 10
-15.59758
 20
-33.484068675
 11
-14.957255
 21
-31.0922899554
  0
LINE
  5
430
100
AcDbEntity
  8
RACCORDO
100
AcDbLine
 62
250
  6
CONTINUOUS
 10
-36.8543042389
 20
-23.6542852005
 11
-36.8974238247
 21
-23.6974047863
  0
LINE
  5
431
100
AcDbEntity
  8
217
100
AcDbLine
 62
7
  6
CONTINUOUS
 10
57.4
 20
-8.8
 11
56.0
 21
-8.8
  0
LINE
  5
432
100
AcDbEntity
  8
217
100
AcDbLine
 62
7
  6
CONTINUOUS
 10
-56.0
 20
-8.8
 11
-57.4
 21
-8.8
  0
LINE
  5
433
100
AcDbEntity
  8
217
100
AcDbLine
 62
7
  6
CONTINUOUS
 10
58.8034311225
 20
-4.55
 11
55.9387579355
 21
-4.55
  0
LINE
  5
434
100
AcDbEntity
  8
217
100
AcDbLine
 62
7
  6
CONTINUOUS
 10
-55.9387579355
 20
-4.55
 11
-58.8034311225
 21
-4.55
  0
LWPOLYLINE
  5
435
100
AcDbEntity
  8
0
100
AcDbPolyline
 62
7
  6
CONTINUOUS
 90
35
 70
0
 10
-1.999999533
 20
-36.359778118
 10
-1.9996496316
 20
-36.3745633755
 10
-1.9964791102
 20
-36.4062659955
 10
-1.9900185997
 20
-36.4378306528
 10
-1.9801340685
 20
-36.4694081774
 10
-1.9669084189
 20
-36.5003211074
 10
-1.9510203519
 20
-36.5292529566
 10
-1.9330014586
 20
-36.5558980083
 10
-1.9129380878
 20
-36.5806851863
 10
-1.891146308
 20
-36.603691052
 10
-1.8678308245
 20
-36.6250894535
 10
-1.8430927831
 20
-36.6450924483
 10
-1.8170496274
 20
-36.6638524028
 10
-1.7898428713
 20
-36.6814851147
 10
-1.761361514
 20
-36.6982393172
 10
-1.7313293927
 20
-36.7143932975
 10
-1.6996956534
 20
-36.7300529609
 10
-1.6663936045
 20
-36.7453162141
 10
-1.6311438357
 20
-36.7603541802
 10
-1.5938481267
 20
-36.7752341262
 10
-1.5544757407
 20
-36.7899901568
 10
-1.512907934
 20
-36.8046856578
 10
-1.469067525
 20
-36.8193623934
 10
-1.4229736099
 20
-36.834027734
 10
-1.374731515
 20
-36.8486652526
 10
-1.3243894179
 20
-36.8632802013
 10
-1.2719369725
 20
-36.8778951756
 10
-1.2174552807
 20
-36.892507286
 10
-1.1611197888
 20
-36.907091787
 10
-1.1028590611
 20
-36.9216894355
 10
-1.042390545
 20
-36.9363880351
 10
-0.9797635619
 20
-36.9511899936
 10
-0.9150200415
 20
-36.9661011521
 10
-0.8478388784
 20
-36.9812095169
 10
-0.7063717934
 20
-37.0120263555
  0
LINE
  5
436
100
AcDbEntity
  8
DRAFT
100
AcDbLine
 62
7
  6
CONTINUOUS
 10
-2.3366528447
 20
-38.9912511337
 11
-2.3366528447
 21
-39.3366528447
  0
LINE
  5
437
100
AcDbEntity
  8
DRAFT
100
AcDbLine
 62
7
  6
CONTINUOUS
 10
-2.3
 20
-38.9912511337
 11
-2.3
 21
-39.3
  0
LINE
  5
438
100
AcDbEntity
  8
217
100
AcDbLine
 62
7
  6
CONTINUOUS
 10
-2.25
 20
-38.0
 11
-2.25
 21
-33.2
  0
LINE
  5
439
100
AcDbEntity
  8
CURVE
100
AcDbLine
 62
250
  6
CONTINUOUS
 10
-2.0
 20
-34.3
 11
-2.0
 21
-36.9
  0
LINE
  5
43A
100
AcDbEntity
  8
DRAFT
100
AcDbLine
 62
7
  6
CONTINUOUS
 10
-1.0
 20
-39.3
 11
-1.0
 21
-39.2842605277
  0
LINE
  5
43B
100
AcDbEntity
  8
DRAFT
100
AcDbLine
 62
7
  6
CONTINUOUS
 10
-0.5
 20
-39.3198413784
 11
-0.5
 21
-39.2588101808
  0
LINE
  5
43C
100
AcDbEntity
  8
DRAFT
100
AcDbLine
 62
7
  6
CONTINUOUS
 10
0.5
 20
-39.3198413784
 11
0.5
 21
-39.2126934248
  0
LWPOLYLINE
  5
43D
100
AcDbEntity
  8
0
100
AcDbPolyline
 62
7
  6
CONTINUOUS
 90
4
 70
0
 43
0.3500000087
 10
68.0214298309
 20
-3.792857151
 10
67.1642837006
 20
-3.792857151
 10
66.7357148987
 20
-3.3642862175
 10
66.7357148987
 20
-2.7214287514
  0
LINE
  5
43E
100
AcDbEntity
  8
217
100
AcDbLine
 62
250
  6
CONTINUOUS
 10
-54.1644585273
 20
-3.0452406438
 11
-40.999695254
 21
-3.0452406438
  0
LINE
  5
43F
100
AcDbEntity
  8
217
100
AcDbLine
 62
250
  6
CONTINUOUS
 10
40.999695254
 20
-3.0452406438
 11
54.1644585273
 21
-3.0452406438
  0
LWPOLYLINE
  5
440
100
AcDbEntity
  8
0
100
AcDbPolyline
 62
7
  6
CONTINUOUS
 90
4
 70
0
 43
0.3500000087
 10
68.0214298309
 20
-1.4357148849
 10
67.1642837006
 20
-1.4357148849
 10
66.7357148987
 20
-1.0071418198
 10
66.7357148987
 20
-0.3642864853
  0
LINE
  5
441
100
AcDbEntity
  8
217
100
AcDbLine
 62
250
  6
CONTINUOUS
 10
-54.1644585273
 20
0.4452406437
 11
-40.999695254
 21
0.4452406437
  0
LINE
  5
442
100
AcDbEntity
  8
217
100
AcDbLine
 62
250
  6
CONTINUOUS
 10
40.999695254
 20
0.4452406437
 11
54.1644585273
 21
0.4452406437
  0
LWPOLYLINE
  5
443
100
AcDbEntity
  8
0
100
AcDbPolyline
 62
7
  6
CONTINUOUS
 90
16
 70
0
 10
1.9999996827
 20
-37.451120108
 10
1.9997988088
 20
-37.439903862
 10
1.997280137
 20
-37.4102782004
 10
1.991907343
 20
-37.380826104
 10
1.9836097313
 20
-37.3514208786
 10
1.972476032
 20
-37.3226098347
 10
1.9590447583
 20
-37.2954819994
 10
1.9437611736
 20
-37.2703277718
 10
1.9267116677
 20
-37.2468133628
 10
1.9081312508
 20
-37.2248785429
 10
1.8882123009
 20
-37.2043939223
 10
1.8670874355
 20
-37.1852126123
 10
1.8448725478
 20
-37.167208845
 10
1.8216369701
 20
-37.1502455602
 10
1.797394793
 20
-37.1341738024
 10
1.7793750839
 20
-37.1231145641
  0
LWPOLYLINE
  5
444
100
AcDbEntity
  8
0
100
AcDbPolyline
 62
7
  6
CONTINUOUS
 90
25
 70
0
 10
1.999999666
 20
-35.2693069683
 10
1.9998379549
 20
-35.2592197547
 10
1.9975228552
 20
-35.2303186128
 10
1.9924011011
 20
-35.201173462
 10
1.984265148
 20
-35.1715881993
 10
1.9731010206
 20
-35.1422186994
 10
1.9594573754
 20
-35.1144142967
 10
1.9437384597
 20
-35.0884755144
 10
1.9260051654
 20
-35.0640993502
 10
1.9066661919
 20
-35.04145851
 10
1.8860016831
 20
-35.0204579821
 10
1.8641162897
 20
-35.0008696189
 10
1.841199443
 20
-34.9825930146
 10
1.8174232162
 20
-34.965524355
 10
1.7927502694
 20
-34.9494384663
 10
1.7670424523
 20
-34.9341027401
 10
1.7402973089
 20
-34.9194085272
 10
1.7125047813
 20
-34.9052598931
 10
1.6835393833
 20
-34.8915224059
 10
1.6533675024
 20
-34.8781260883
 10
1.6220043574
 20
-34.8650306465
 10
1.5894660739
 20
-34.852200155
 10
1.5557919861
 20
-34.8396109273
 10
1.5209953598
 20
-34.8272315395
 10
1.4945829705
 20
-34.8182068646
  0
LINE
  5
445
100
AcDbEntity
  8
DRAFT
100
AcDbLine
 62
7
  6
CONTINUOUS
 10
1.0
 20
-39.3
 11
1.0
 21
-39.1874486195
  0
LINE
  5
446
100
AcDbEntity
  8
CURVE
100
AcDbLine
 62
2
  6
CONTINUOUS
 10
2.0
 20
-34.3
 11
2.0
 21
-36.9
  0
LINE
  5
447
100
AcDbEntity
  8
217
100
AcDbLine
 62
7
  6
CONTINUOUS
 10
2.25
 20
-33.2
 11
2.25
 21
-38.0
  0
LINE
  5
448
100
AcDbEntity
  8
DRAFT
100
AcDbLine
 62
7
  6
CONTINUOUS
 10
2.3
 20
-39.3
 11
2.3
 21
-38.9912511337
  0
LINE
  5
449
100
AcDbEntity
  8
DRAFT
100
AcDbLine
 62
7
  6
CONTINUOUS
 10
2.3366528447
 20
-38.9912511337
 11
2.3366528447
 21
-39.3366528447
  0
LWPOLYLINE
  5
44A
100
AcDbEntity
  8
0
100
AcDbPolyline
 62
7
  6
CONTINUOUS
 90
2
 70
0
 43
0.3500000087
 10
3.892857176
 20
53.344725293
 10
3.892857176
 20
54.8447267578
  0
LINE
  5
44B
100
AcDbEntity
  8
RACCORDO
100
AcDbLine
 62
250
  6
CONTINUOUS
 10
4.5043443947
 20
-44.449545417
 11
4.5043443947
 21
-40.3
  0
LINE
  5
44C
100
AcDbEntity
  8
RACCORDO
100
AcDbLine
 62
250
  6
CONTINUOUS
 10
5.0043253562
 20
-43.9912542966
 11
5.0043253562
 21
-40.3043253563
  0
LINE
  5
44D
100
AcDbEntity
  8
RACCORDO
100
AcDbLine
 62
7
  6
CONTINUOUS
 10
5.0217981303
 20
-40.3095995546
 11
5.0217981303
 21
-43.9912878475
  0
LINE
  5
44E
100
AcDbEntity
  8
217
100
AcDbLine
 62
7
  6
CONTINUOUS
 10
5.05
 20
-42.7738193967
 11
5.05
 21
-40.3095995546
  0
LINE
  5
44F
100
AcDbEntity
  8
217
100
AcDbLine
 62
7
  6
CONTINUOUS
 10
5.0761806034
 20
-42.8
 11
5.0761806034
 21
-40.1
  0
LINE
  5
450
100
AcDbEntity
  8
RACCORDO
100
AcDbLine
 62
250
  6
CONTINUOUS
 10
5.0216982663
 20
-44.001280543
 11
5.0217790918
 21
-43.9912878475
  0
LINE
  5
451
100
AcDbEntity
  8
217
100
AcDbLine
 62
7
  6
CONTINUOUS
 10
58.8034311225
 20
1.95
 11
55.9387579355
 21
1.95
  0
LINE
  5
452
100
AcDbEntity
  8
217
100
AcDbLine
 62
7
  6
CONTINUOUS
 10
-55.9387579355
 20
1.95
 11
-58.8034311225
 21
1.95
  0
LINE
  5
453
100
AcDbEntity
  8
217
100
AcDbLine
 62
7
  6
CONTINUOUS
 10
-44.787129802
 20
13.172695964
 11
-44.5668305422
 21
13.1326419167
  0
LINE
  5
454
100
AcDbEntity
  8
217
100
AcDbLine
 62
7
  6
CONTINUOUS
 10
13.179376
 20
-29.7481838332
 11
14.206832
 21
-32.8518394431
  0
LINE
  5
455
100
AcDbEntity
  8
217
100
AcDbLine
 62
7
  6
CONTINUOUS
 10
14.526864
 20
-31.8852130225
 11
13.819408
 21
-29.7481838332
  0
LINE
  5
456
100
AcDbEntity
  8
217
100
AcDbLine
 62
7
  6
CONTINUOUS
 10
11.3905034622
 20
-39.0
 11
11.3896322409
 21
-38.9912511337
  0
LINE
  5
457
100
AcDbEntity
  8
217
100
AcDbLine
 62
7
  6
CONTINUOUS
 10
9.85
 20
-32.0
 11
9.85
 21
-33.1770021293
  0
LINE
  5
458
100
AcDbEntity
  8
217
100
AcDbLine
 62
7
  6
CONTINUOUS
 10
9.85
 20
-33.2
 11
9.85
 21
-35.0
  0
LINE
  5
459
100
AcDbEntity
  8
217
100
AcDbLine
 62
7
  6
CONTINUOUS
 10
10.65
 20
-33.8
 11
10.65
 21
-32.3384011429
  0
LINE
  5
45A
100
AcDbEntity
  8
RACCORDO
100
AcDbLine
 62
7
  6
CONTINUOUS
 10
5.0201705522
 20
-44.0702043443
 11
5.0216982605
 21
-44.0012797846
  0
LINE
  5
45B
100
AcDbEntity
  8
RACCORDO
100
AcDbLine
 62
7
  6
CONTINUOUS
 10
5.0191537087
 20
-44.1082478191
 11
5.0201705522
 21
-44.0702043443
  0
LINE
  5
45C
100
AcDbEntity
  8
RACCORDO
100
AcDbLine
 62
7
  6
CONTINUOUS
 10
5.0180788861
 20
-44.1422028422
 11
5.0191537087
 21
-44.1082478191
  0
LINE
  5
45D
100
AcDbEntity
  8
RACCORDO
100
AcDbLine
 62
7
  6
CONTINUOUS
 10
5.0172305487
 20
-44.1647961169
 11
5.0180788861
 21
-44.1422028422
  0
LINE
  5
45E
100
AcDbEntity
  8
RACCORDO
100
AcDbLine
 62
7
  6
CONTINUOUS
 10
5.016636577
 20
-44.1785753366
 11
5.0172305487
 21
-44.1647961169
  0
LINE
  5
45F
100
AcDbEntity
  8
RACCORDO
100
AcDbLine
 62
7
  6
CONTINUOUS
 10
5.0160084174
 20
-44.1914691904
 11
5.016636577
 21
-44.1785753366
  0
LINE
  5
460
100
AcDbEntity
  8
217
100
AcDbLine
 62
7
  6
CONTINUOUS
 10
-57.4
 20
6.2
 11
-56.0
 21
6.2
  0
LINE
  5
461
100
AcDbEntity
  8
217
100
AcDbLine
 62
7
  6
CONTINUOUS
 10
56.0
 20
6.2
 11
57.4
 21
6.2
  0
LINE
  5
462
100
AcDbEntity
  8
217
100
AcDbLine
 62
7
  6
CONTINUOUS
 10
46.333113
 20
10.539734
 11
47.672991
 21
10.539734
  0
LINE
  5
463
100
AcDbEntity
  8
RACCORDO
100
AcDbLine
 62
250
  6
CONTINUOUS
 10
36.8974238247
 20
-23.6974047863
 11
36.8543042389
 21
-23.6542852005
  0
LINE
  5
464
100
AcDbEntity
  8
RACCORDO
100
AcDbLine
 62
250
  6
CONTINUOUS
 10
38.491550117
 20
-25.1414739646
 11
38.5498257776
 21
-25.1997496252
  0
LINE
  5
465
100
AcDbEntity
  8
RACCORDO
100
AcDbLine
 62
250
  6
CONTINUOUS
 10
37.3974047863
 20
-23.1974238248
 11
37.3542852004
 21
-23.1543042389
  0
LINE
  5
466
100
AcDbEntity
  8
217
100
AcDbLine
 62
7
  6
CONTINUOUS
 10
25.458352
 20
-31.6517826537
 11
26.099736
 21
-32.8518239256
  0
LINE
  5
467
100
AcDbEntity
  8
217
100
AcDbLine
 62
7
  6
CONTINUOUS
 10
26.8061863764
 20
-32.8595325692
 11
26.1393507229
 21
-31.611862769
  0
LINE
  5
468
100
AcDbEntity
  8
217
100
AcDbLine
 62
7
  6
CONTINUOUS
 10
26.820624
 20
-32.8518161668
 11
26.1393507907
 21
-31.5771332602
  0
LINE
  5
469
100
AcDbEntity
  8
217
100
AcDbLine
 62
7
  6
CONTINUOUS
 10
18.221072
 20
-30.8051844125
 11
18.826176
 21
-32.8518316844
  0
LINE
  5
46A
100
AcDbEntity
  8
217
100
AcDbLine
 62
7
  6
CONTINUOUS
 10
19.146184
 20
-31.7693900967
 11
18.548592
 21
-29.7481838332
  0
LINE
  5
46B
100
AcDbEntity
  8
DRAFT
100
AcDbLine
 62
7
  6
CONTINUOUS
 10
11.2
 20
-40.1
 11
11.2
 21
-38.9912511337
  0
LINE
  5
46C
100
AcDbEntity
  8
DRAFT
100
AcDbLine
 62
7
  6
CONTINUOUS
 10
11.2
 20
-35.2731222034
 11
11.2
 21
-33.8
  0
LINE
  5
46D
100
AcDbEntity
  8
DRAFT
100
AcDbLine
 62
7
  6
CONTINUOUS
 10
11.231416724
 20
-40.1
 11
11.231416724
 21
-38.9912511337
  0
LINE
  5
46E
100
AcDbEntity
  8
DRAFT
100
AcDbLine
 62
7
  6
CONTINUOUS
 10
11.231416724
 20
-35.2566786036
 11
11.231416724
 21
-33.8
  0
LINE
  5
46F
100
AcDbEntity
  8
217
100
AcDbLine
 62
7
  6
CONTINUOUS
 10
11.35
 20
-37.2428610173
 11
11.35
 21
-35.8
  0
LINE
  5
470
100
AcDbEntity
  8
217
100
AcDbLine
 62
7
  6
CONTINUOUS
 10
12.7
 20
-40.95
 11
12.7
 21
-42.8
  0
LINE
  5
471
100
AcDbEntity
  8
284
100
AcDbLine
 62
7
  6
CONTINUOUS
 10
13.0
 20
-41.2051466838
 11
13.0
 21
-43.223468713
  0
LINE
  5
472
100
AcDbEntity
  8
217
100
AcDbLine
 62
7
  6
CONTINUOUS
 10
14.526864
 20
-31.8852130225
 11
14.526864
 21
-31.919942658
  0
LINE
  5
473
100
AcDbEntity
  8
217
100
AcDbLine
 62
7
  6
CONTINUOUS
 10
11.3905034622
 20
-39.0
 11
11.3903359269
 21
-40.1
  0
LINE
  5
474
100
AcDbEntity
  8
217
100
AcDbLine
 62
7
  6
CONTINUOUS
 10
11.35
 20
-35.8
 11
11.3564251631
 21
-32.0000456897
  0
LINE
  5
475
100
AcDbEntity
  8
RACCORDO
100
AcDbLine
 62
250
  6
CONTINUOUS
 10
36.854304239
 20
21.0542852005
 11
36.8974238247
 21
21.0974047862
  0
LINE
  5
476
100
AcDbEntity
  8
RACCORDO
100
AcDbLine
 62
250
  6
CONTINUOUS
 10
38.5498257776
 20
22.5997496251
 11
38.491550117
 21
22.5414739645
  0
LINE
  5
477
100
AcDbEntity
  8
RACCORDO
100
AcDbLine
 62
250
  6
CONTINUOUS
 10
37.3542852005
 20
20.5543042389
 11
37.3974047863
 21
20.5974238247
  0
LINE
  5
478
100
AcDbEntity
  8
217
100
AcDbLine
 62
250
  6
CONTINUOUS
 10
54.7147797567
 20
36.1109744548
 11
54.9775587029
 21
36.3737534009
  0
LINE
  5
479
100
AcDbEntity
  8
217
100
AcDbLine
 62
250
  6
CONTINUOUS
 10
55.7117362727
 20
35.1155415746
 11
55.9737534009
 21
35.3775587028
  0
LINE
  5
47A
100
AcDbEntity
  8
217
100
AcDbLine
 62
7
  6
CONTINUOUS
 10
47.672991
 20
11.011955
 11
47.254665
 21
11.011955
  0
LINE
  5
47B
100
AcDbEntity
  8
217
100
AcDbLine
 62
7
  6
CONTINUOUS
 10
46.751602
 20
11.011955
 11
46.333113
 21
11.011955
  0
LINE
  5
47C
100
AcDbEntity
  8
217
100
AcDbLine
 62
7
  6
CONTINUOUS
 10
-49.771399
 20
11.838384
 11
-49.5511
 21
11.838384
  0
LINE
  5
47D
100
AcDbEntity
  8
217
100
AcDbLine
 62
7
  6
CONTINUOUS
 10
-45.595728
 20
11.838384
 11
-45.375429
 21
11.838384
  0
LINE
  5
47E
100
AcDbEntity
  8
217
100
AcDbLine
 62
7
  6
CONTINUOUS
 10
56.9
 20
12.7
 11
54.3043450547
 21
12.7
  0
LINE
  5
47F
100
AcDbEntity
  8
217
100
AcDbLine
 62
7
  6
CONTINUOUS
 10
-54.3043511001
 20
12.7
 11
-56.9
 21
12.7
  0
LINE
  5
480
100
AcDbEntity
  8
217
100
AcDbLine
 62
7
  6
CONTINUOUS
 10
54.7276076742
 20
12.9610765882
 11
54.3043450547
 21
12.9610765882
  0
LINE
  5
481
100
AcDbEntity
  8
217
100
AcDbLine
 62
7
  6
CONTINUOUS
 10
-54.3043450547
 20
12.9610765882
 11
-54.7276076742
 21
12.9610765882
  0
LINE
  5
482
100
AcDbEntity
  8
217
100
AcDbLine
 62
7
  6
CONTINUOUS
 10
-45.375429
 20
13.638329
 11
-45.5174182615
 21
13.638329
  0
LINE
  5
483
100
AcDbEntity
  8
217
100
AcDbLine
 62
7
  6
CONTINUOUS
 10
-49.5511
 20
13.638329
 11
-49.6930894615
 21
13.638329
  0
LINE
  5
484
100
AcDbEntity
  8
217
100
AcDbLine
 62
7
  6
CONTINUOUS
 10
46.348534
 20
14.366846
 11
46.751602
 21
14.366846
  0
LINE
  5
485
100
AcDbEntity
  8
217
100
AcDbLine
 62
7
  6
CONTINUOUS
 10
47.254665
 20
14.366846
 11
47.65757
 21
14.366846
  0
LINE
  5
486
100
AcDbEntity
  8
217
100
AcDbLine
 62
7
  6
CONTINUOUS
 10
47.65757
 20
14.841663
 11
46.348534
 21
14.841663
  0
LINE
  5
487
100
AcDbEntity
  8
217
100
AcDbLine
 62
250
  6
CONTINUOUS
 10
54.7147797567
 20
-38.7109744548
 11
55.0038053019
 21
-39.0
  0
LINE
  5
488
100
AcDbEntity
  8
284
100
AcDbLine
 62
7
  6
CONTINUOUS
 10
61.2
 20
-43.5
 11
60.5082173135
 21
-42.8082173135
  0
LINE
  5
489
100
AcDbEntity
  8
284
100
AcDbLine
 62
7
  6
CONTINUOUS
 10
59.0082214026
 20
-41.3082214026
 11
58.9
 21
-41.2
  0
LINE
  5
48A
100
AcDbEntity
  8
217
100
AcDbLine
 62
250
  6
CONTINUOUS
 10
55.7117362727
 20
-37.7155415747
 11
56.0
 21
-38.0038053019
  0
LINE
  5
48B
100
AcDbEntity
  8
217
100
AcDbLine
 62
7
  6
CONTINUOUS
 10
22.485472
 20
-30.7148024951
 11
22.795656
 21
-31.6517826537
  0
LINE
  5
48C
100
AcDbEntity
  8
217
100
AcDbLine
 62
7
  6
CONTINUOUS
 10
22.990888
 20
-32.2414724868
 11
23.192936
 21
-32.8518239256
  0
LINE
  5
48D
100
AcDbEntity
  8
217
100
AcDbLine
 62
7
  6
CONTINUOUS
 10
23.832968
 20
-32.8518316844
 11
22.805504
 21
-29.7481760745
  0
LINE
  5
48E
100
AcDbEntity
  8
217
100
AcDbLine
 62
7
  6
CONTINUOUS
 10
16.301024
 20
-29.7481838332
 11
16.301016
 21
-32.8518394431
  0
LINE
  5
48F
100
AcDbEntity
  8
217
100
AcDbLine
 62
7
  6
CONTINUOUS
 10
16.94104
 20
-32.8518316844
 11
16.941048
 21
-29.7481838332
  0
LINE
  5
490
100
AcDbEntity
  8
217
100
AcDbLine
 62
7
  6
CONTINUOUS
 10
17.581048
 20
-29.7481838332
 11
17.581048
 21
-32.8518316844
  0
LINE
  5
491
100
AcDbEntity
  8
217
100
AcDbLine
 62
7
  6
CONTINUOUS
 10
18.221072
 20
-32.8518316844
 11
18.221072
 21
-30.8051844125
  0
LINE
  5
492
100
AcDbEntity
  8
217
100
AcDbLine
 62
7
  6
CONTINUOUS
 10
19.146184
 20
-31.7693900967
 11
19.146184
 21
-31.8041197322
  0
LINE
  5
493
100
AcDbEntity
  8
217
100
AcDbLine
 62
7
  6
CONTINUOUS
 10
20.071288
 20
-30.8051844125
 11
20.071296
 21
-32.8518316844
  0
LINE
  5
494
100
AcDbEntity
  8
217
100
AcDbLine
 62
7
  6
CONTINUOUS
 10
20.71132
 20
-32.8518316844
 11
20.71132
 21
-29.7481838332
  0
LWPOLYLINE
  5
495
100
AcDbEntity
  8
0
100
AcDbPolyline
 62
7
  6
CONTINUOUS
 90
8
 70
0
 10
-1.9697426462
 20
-38.9912511337
 10
-1.9727571264
 20
-38.9966832147
 10
-1.9816197442
 20
-39.0163791684
 10
-1.9889103052
 20
-39.0370985452
 10
-1.9944585764
 20
-39.0585784123
 10
-1.9981480829
 20
-39.0806242746
 10
-1.9998786877
 20
-39.1031256491
 10
-1.9999999896
 20
-39.110848529
  0
LINE
  5
496
100
AcDbEntity
  8
217
100
AcDbLine
 62
7
  6
CONTINUOUS
 10
48.5796169933
 20
14.2793829943
 11
47.254665
 21
13.162838
  0
LINE
  5
497
100
AcDbEntity
  8
217
100
AcDbLine
 62
7
  6
CONTINUOUS
 10
47.254665
 20
12.582916
 11
48.5181413584
 21
13.647655302
  0
LINE
  5
498
100
AcDbEntity
  8
217
100
AcDbLine
 62
7
  6
CONTINUOUS
 10
-22.917751
 20
-29.1216766946
 11
-23.966055
 21
-29.5630857554
  0
LINE
  5
499
100
AcDbEntity
  8
217
100
AcDbLine
 62
7
  6
CONTINUOUS
 10
-22.917751
 20
-29.1564063301
 11
-23.966055
 21
-29.5978153909
  0
LINE
  5
49A
100
AcDbEntity
  8
217
100
AcDbLine
 62
7
  6
CONTINUOUS
 10
-24.201616
 20
-30.4309818216
 11
-23.149695
 21
-29.9880510719
  0
LINE
  5
49B
100
AcDbEntity
  8
217
100
AcDbLine
 62
7
  6
CONTINUOUS
 10
-20.052708
 20
-29.1216766946
 11
-21.074773
 21
-29.5520362963
  0
LINE
  5
49C
100
AcDbEntity
  8
217
100
AcDbLine
 62
7
  6
CONTINUOUS
 10
-20.052708
 20
-29.1564063301
 11
-21.074773
 21
-29.5867659319
  0
LINE
  5
49D
100
AcDbEntity
  8
217
100
AcDbLine
 62
7
  6
CONTINUOUS
 10
-23.306991
 20
-30.5755897859
 11
-24.375444
 21
-31.0254820923
  0
LINE
  5
49E
100
AcDbEntity
  8
217
100
AcDbLine
 62
7
  6
CONTINUOUS
 10
-23.306991
 20
-30.6103194214
 11
-24.375444
 21
-31.0602117279
  0
LINE
  5
49F
100
AcDbEntity
  8
217
100
AcDbLine
 62
7
  6
CONTINUOUS
 10
-44.5893612031
 20
12.3440709723
 11
-44.8096603609
 21
12.3140299508
  0
LINE
  5
4A0
100
AcDbEntity
  8
217
100
AcDbLine
 62
7
  6
CONTINUOUS
 10
-48.059073666
 20
13.1752000269
 11
-47.8412777178
 21
13.1927230227
  0
LINE
  5
4A1
100
AcDbEntity
  8
217
100
AcDbLine
 62
7
  6
CONTINUOUS
 10
54.3060935858
 20
18.7
 11
56.9
 21
18.7
  0
LINE
  5
4A2
100
AcDbEntity
  8
217
100
AcDbLine
 62
7
  6
CONTINUOUS
 10
-54.3061691003
 20
18.7
 11
-56.9
 21
18.7
  0
LINE
  5
4A3
100
AcDbEntity
  8
RACCORDO
100
AcDbLine
 62
250
  6
CONTINUOUS
 10
36.3540972881
 20
20.1050623331
 11
-36.3540978002
 21
20.1050623331
  0
LINE
  5
4A4
100
AcDbEntity
  8
RACCORDO
100
AcDbLine
 62
250
  6
CONTINUOUS
 10
-37.6973933632
 20
20.5974238247
 11
-37.3974047863
 21
20.5974238247
  0
LINE
  5
4A5
100
AcDbEntity
  8
RACCORDO
100
AcDbLine
 62
250
  6
CONTINUOUS
 10
37.6973933632
 20
20.5974238247
 11
37.3974047863
 21
20.5974238247
  0
LINE
  5
4A6
100
AcDbEntity
  8
217
100
AcDbLine
 62
7
  6
CONTINUOUS
 10
22.175304
 20
-31.6517826537
 11
22.175304
 21
-31.6865122893
  0
LINE
  5
4A7
100
AcDbEntity
  8
217
100
AcDbLine
 62
7
  6
CONTINUOUS
 10
22.795656
 20
-31.6517826537
 11
22.795656
 21
-31.6865122893
  0
LINE
  5
4A8
100
AcDbEntity
  8
217
100
AcDbLine
 62
7
  6
CONTINUOUS
 10
24.259648
 20
-29.7481760745
 11
24.259648
 21
-32.8518239256
  0
LINE
  5
4A9
100
AcDbEntity
  8
217
100
AcDbLine
 62
7
  6
CONTINUOUS
 10
24.890848
 20
-30.3223483665
 11
24.890856
 21
-31.1123322384
  0
LINE
  5
4AA
100
AcDbEntity
  8
217
100
AcDbLine
 62
250
  6
CONTINUOUS
 10
25.669536
 20
-31.0776026029
 11
25.669536
 21
-31.1123322384
  0
LINE
  5
4AB
100
AcDbEntity
  8
217
100
AcDbLine
 62
250
  6
CONTINUOUS
 10
25.758368
 20
-29.7481760745
 11
25.758368
 21
-29.78290571
  0
LINE
  5
4AC
100
AcDbEntity
  8
217
100
AcDbLine
 62
7
  6
CONTINUOUS
 10
24.89968
 20
-32.8518239256
 11
24.899752
 21
-31.651774895
  0
LINE
  5
4AD
100
AcDbEntity
  8
217
100
AcDbLine
 62
7
  6
CONTINUOUS
 10
15.234312
 20
-29.7481838332
 11
14.526864
 21
-31.8852130225
  0
LINE
  5
4AE
100
AcDbEntity
  8
217
100
AcDbLine
 62
7
  6
CONTINUOUS
 10
14.84688
 20
-32.8518316844
 11
15.874344
 21
-29.7481838332
  0
LWPOLYLINE
  5
4AF
100
AcDbEntity
  8
0
100
AcDbPolyline
 62
7
  6
CONTINUOUS
 90
10
 70
0
 10
-1.8882747465
 20
-36.1135450719
 10
-1.9104368586
 20
-36.1365246119
 10
-1.9309378383
 20
-36.1613811221
 10
-1.9494378385
 20
-36.1882191421
 10
-1.9658252697
 20
-36.2175114222
 10
-1.9795122372
 20
-36.2489533413
 10
-1.9897550693
 20
-36.2811852002
 10
-1.9964391529
 20
-36.3135034236
 10
-1.9996774656
 20
-36.3460617501
 10
-1.9999994343
 20
-36.3602766005
  0
LINE
  5
4B0
100
AcDbEntity
  8
RACCORDO
100
AcDbLine
 62
7
  6
CONTINUOUS
 10
-5.0095995546
 20
-40.3095995546
 11
-5.0043253562
 21
-40.3043253563
  0
LWPOLYLINE
  5
4B1
100
AcDbEntity
  8
0
100
AcDbPolyline
 62
7
  6
CONTINUOUS
 90
26
 70
0
 10
-1.5371518157
 20
-36.4621528654
 10
-1.5375814458
 20
-36.462554135
 10
-1.5374199861
 20
-36.4624405796
 10
-1.5345977399
 20
-36.4603136027
 10
-1.5290058271
 20
-36.4565051345
 10
-1.5203373926
 20
-36.4511425993
 10
-1.5084578419
 20
-36.4444298677
 10
-1.4936007222
 20
-36.4367111371
 10
-1.4756668748
 20
-36.4280907618
 10
-1.4545334279
 20
-36.4186443287
 10
-1.4304428298
 20
-36.4085825709
 10
-1.4033447709
 20
-36.3979587691
 10
-1.3731601112
 20
-36.3868069973
 10
-1.3401055843
 20
-36.3752568138
 10
-1.3041611144
 20
-36.3633354483
 10
-1.2652861651
 20
-36.3510581331
 10
-1.2236959924
 20
-36.3385118474
 10
-1.1794280656
 20
-36.3257175653
 10
-1.1324753939
 20
-36.3126795651
 10
-1.0830187892
 20
-36.2994493232
 10
-1.0312010254
 20
-36.2860601025
 10
-0.9769783201
 20
-36.2724935686
 10
-0.920244958
 20
-36.2587172071
 10
-0.8610791525
 20
-36.2447431199
 10
-0.7995025085
 20
-36.2305673126
 10
-0.7352872584
 20
-36.2161286524
  0
LINE
  5
4B2
100
AcDbEntity
  8
217
100
AcDbLine
 62
7
  6
CONTINUOUS
 10
-18.964844
 20
-32.0012367064
 11
-19.476813
 21
-32.2168102649
  0
LINE
  5
4B3
100
AcDbEntity
  8
217
100
AcDbLine
 62
7
  6
CONTINUOUS
 10
-18.964844
 20
-32.035966342
 11
-19.476813
 21
-32.2515399005
  0
LINE
  5
4B4
100
AcDbEntity
  8
217
100
AcDbLine
 62
7
  6
CONTINUOUS
 10
-17.509215
 20
-31.7742635744
 11
-16.5470636907
 21
-31.3691314846
  0
LINE
  5
4B5
100
AcDbEntity
  8
217
100
AcDbLine
 62
7
  6
CONTINUOUS
 10
-19.6043628905
 20
-32.6564648276
 11
-18.016228
 21
-31.9877509935
  0
LINE
  5
4B6
100
AcDbEntity
  8
217
100
AcDbLine
 62
7
  6
CONTINUOUS
 10
-16.098581
 20
-31.6746768457
 11
-17.658387
 21
-32.3314625862
  0
LINE
  5
4B7
100
AcDbEntity
  8
217
100
AcDbLine
 62
7
  6
CONTINUOUS
 10
-18.165401
 20
-32.5449500053
 11
-19.2104482694
 21
-32.984986847
  0
LINE
  5
4B8
100
AcDbEntity
  8
217
100
AcDbLine
 62
7
  6
CONTINUOUS
 10
-16.098581
 20
-31.7094064813
 11
-17.658387
 21
-32.3661922217
  0
LINE
  5
4B9
100
AcDbEntity
  8
217
100
AcDbLine
 62
7
  6
CONTINUOUS
 10
-18.165401
 20
-32.5796796408
 11
-19.2104482075
 21
-33.0197164564
  0
LINE
  5
4BA
100
AcDbEntity
  8
217
100
AcDbLine
 62
7
  6
CONTINUOUS
 10
-16.704358
 20
-32.274695542
 11
-16.202663
 21
-32.063447498
  0
LINE
  5
4BB
100
AcDbEntity
  8
217
100
AcDbLine
 62
7
  6
CONTINUOUS
 10
-40.9491740342
 20
20.8999993526
 11
-37.75
 21
20.9
  0
LINE
  5
4BC
100
AcDbEntity
  8
217
100
AcDbLine
 62
7
  6
CONTINUOUS
 10
40.9491740306
 20
20.8999993526
 11
37.75
 21
20.9
  0
LINE
  5
4BD
100
AcDbEntity
  8
RACCORDO
100
AcDbLine
 62
7
  6
CONTINUOUS
 10
36.853413491
 20
21.054059822
 11
-36.853413491
 21
21.054059822
  0
LINE
  5
4BE
100
AcDbEntity
  8
RACCORDO
100
AcDbLine
 62
7
  6
CONTINUOUS
 10
36.8974238247
 20
21.0974047862
 11
-36.8974238247
 21
21.0974047862
  0
LINE
  5
4BF
100
AcDbEntity
  8
RACCORDO
100
AcDbLine
 62
250
  6
CONTINUOUS
 10
36.8974238247
 20
21.3973933632
 11
-36.8974238247
 21
21.3973933632
  0
LINE
  5
4C0
100
AcDbEntity
  8
RACCORDO
100
AcDbLine
 62
250
  6
CONTINUOUS
 10
37.9916262694
 20
21.5416262694
 11
-37.9916262694
 21
21.5416262694
  0
LINE
  5
4C1
100
AcDbEntity
  8
284
100
AcDbLine
 62
7
  6
CONTINUOUS
 10
-60.5082173135
 20
22.2320513645
 11
-59.0082214026
 21
22.2320513645
  0
LINE
  5
4C2
100
AcDbEntity
  8
284
100
AcDbLine
 62
7
  6
CONTINUOUS
 10
60.5082173135
 20
22.2320513645
 11
59.0082214026
 21
22.2320513645
  0
LINE
  5
4C3
100
AcDbEntity
  8
217
100
AcDbLine
 62
7
  6
CONTINUOUS
 10
40.5
 20
22.4370398883
 11
39.0
 21
22.4370398883
  0
LINE
  5
4C4
100
AcDbEntity
  8
217
100
AcDbLine
 62
7
  6
CONTINUOUS
 10
-39.0
 20
22.4370398883
 11
-40.5
 21
22.4370398883
  0
LINE
  5
4C5
100
AcDbEntity
  8
217
100
AcDbLine
 62
7
  6
CONTINUOUS
 10
-60.4809503754
 20
22.4828759398
 11
-58.8
 21
22.4828759398
  0
LINE
  5
4C6
100
AcDbEntity
  8
217
100
AcDbLine
 62
7
  6
CONTINUOUS
 10
60.4809503754
 20
22.4828759398
 11
58.8
 21
22.4828759398
  0
LINE
  5
4C7
100
AcDbEntity
  8
RACCORDO
100
AcDbLine
 62
250
  6
CONTINUOUS
 10
38.491550117
 20
22.5414739645
 11
-38.491550117
 21
22.5414739645
  0
LINE
  5
4C8
100
AcDbEntity
  8
217
100
AcDbLine
 62
7
  6
CONTINUOUS
 10
38.9994992122
 20
22.5997496251
 11
-38.9994992122
 21
22.5997496251
  0
LINE
  5
4C9
100
AcDbEntity
  8
217
100
AcDbLine
 62
7
  6
CONTINUOUS
 10
-54.307684585
 20
23.7
 11
-52.4923830177
 21
23.7
  0
LINE
  5
4CA
100
AcDbEntity
  8
217
100
AcDbLine
 62
7
  6
CONTINUOUS
 10
52.4923830177
 20
23.7
 11
54.307684585
 21
23.7
  0
LINE
  5
4CB
100
AcDbEntity
  8
284
100
AcDbLine
 62
7
  6
CONTINUOUS
 10
-57.4
 20
25.0585715714
 11
-56.05
 21
25.0585715714
  0
LINE
  5
4CC
100
AcDbEntity
  8
284
100
AcDbLine
 62
7
  6
CONTINUOUS
 10
56.05
 20
25.0585715714
 11
57.4
 21
25.0585715714
  0
LINE
  5
4CD
100
AcDbEntity
  8
217
100
AcDbLine
 62
7
  6
CONTINUOUS
 10
57.4
 20
25.2
 11
56.0
 21
25.2
  0
LINE
  5
4CE
100
AcDbEntity
  8
217
100
AcDbLine
 62
7
  6
CONTINUOUS
 10
-56.0
 20
25.2
 11
-57.4
 21
25.2
  0
LINE
  5
4CF
100
AcDbEntity
  8
0
100
AcDbLine
 62
250
  6
CONTINUOUS
 10
7.2
 20
25.204140824
 11
6.8
 21
25.204140824
  0
LINE
  5
4D0
100
AcDbEntity
  8
0
100
AcDbLine
 62
250
  6
CONTINUOUS
 10
-5.6
 20
25.204140824
 11
-5.2
 21
25.204140824
  0
LWPOLYLINE
  5
4D1
100
AcDbEntity
  8
0
100
AcDbPolyline
 62
7
  6
CONTINUOUS
 90
3
 70
0
 43
0.3500000087
 10
68.1642846771
 20
1.6357133362
 10
68.3785712097
 20
1.5642859131
 10
68.6642851654
 20
1.4214289352
  0
LWPOLYLINE
  5
4D2
100
AcDbEntity
  8
0
100
AcDbPolyline
 62
7
  6
CONTINUOUS
 90
10
 70
0
 43
0.3500000087
 10
1.8214285992
 20
53.8447257813
 10
1.8928570881
 20
53.7018709351
 10
1.8928570881
 20
53.630443512
 10
1.749999977
 20
53.4875886658
 10
1.6785714881
 20
53.4875886658
 10
1.6071428659
 20
53.5590160889
 10
1.6071428659
 20
53.630443512
 10
1.6785714881
 20
53.7732983582
 10
1.749999977
 20
53.8447257813
 10
1.8214285992
 20
53.8447257813
  0
LINE
  5
4D3
100
AcDbEntity
  8
217
100
AcDbLine
 62
7
  6
CONTINUOUS
 10
19.743776
 20
-29.7481838332
 11
19.146184
 21
-31.7693900967
  0
LINE
  5
4D4
100
AcDbEntity
  8
217
100
AcDbLine
 62
7
  6
CONTINUOUS
 10
19.466184
 20
-32.8518239256
 11
20.071288
 21
-30.8051844125
  0
LINE
  5
4D5
100
AcDbEntity
  8
217
100
AcDbLine
 62
7
  6
CONTINUOUS
 10
22.165448
 20
-29.7481760745
 11
21.138
 21
-32.8518316844
  0
LINE
  5
4D6
100
AcDbEntity
  8
DRAFT
100
AcDbLine
 62
7
  6
CONTINUOUS
 10
-2.3366528447
 20
-39.3366528447
 11
-2.3
 21
-39.3
  0
LINE
  5
4D7
100
AcDbEntity
  8
217
100
AcDbLine
 62
7
  6
CONTINUOUS
 10
-5.0761806034
 20
-42.8
 11
-5.05
 21
-42.7738193967
  0
LWPOLYLINE
  5
4D8
100
AcDbEntity
  8
0
100
AcDbPolyline
 62
7
  6
CONTINUOUS
 90
26
 70
0
 10
1.5370561032
 20
-35.1670602035
 10
1.537516005
 20
-35.1666276451
 10
1.5348418327
 20
-35.1686319367
 10
1.529563654
 20
-35.1722522655
 10
1.5214241302
 20
-35.1773327542
 10
1.5103249498
 20
-35.1836740437
 10
1.4966090274
 20
-35.1908962047
 10
1.4802510252
 20
-35.1988874644
 10
1.4611627052
 20
-35.207584496
 10
1.4396372294
 20
-35.2167758962
 10
1.415686652
 20
-35.2264046469
 10
1.3892661871
 20
-35.2364444096
 10
1.3605894763
 20
-35.2467811995
 10
1.3296876629
 20
-35.2573829397
 10
1.2965327906
 20
-35.2682421899
 10
1.2612508844
 20
-35.2793058064
 10
1.2238703338
 20
-35.290558382
 10
1.1844006947
 20
-35.3019927715
 10
1.1429439202
 20
-35.3135782071
 10
1.0995369981
 20
-35.3253060538
 10
1.0542093134
 20
-35.3371715272
 10
1.0070550603
 20
-35.3491550402
 10
0.9581234371
 20
-35.3612509961
 10
0.9074573367
 20
-35.373456729
 10
0.8551445834
 20
-35.3857602603
 10
0.8012978887
 20
-35.3981458715
  0
LWPOLYLINE
  5
4D9
100
AcDbEntity
  8
0
100
AcDbPolyline
 62
7
  6
CONTINUOUS
 90
26
 70
0
 10
1.5372925642
 20
-37.3486539
 10
1.5376595814
 20
-37.3483146582
 10
1.5372711584
 20
-37.3486184248
 10
1.5341643726
 20
-37.3509365421
 10
1.5281795167
 20
-37.3549693358
 10
1.5189708126
 20
-37.3606013103
 10
1.5064123561
 20
-37.3676114095
 10
1.4907870842
 20
-37.3756256366
 10
1.4719981167
 20
-37.3845382959
 10
1.4499325192
 20
-37.3942694944
 10
1.4249275041
 20
-37.4045736013
 10
1.3969794376
 20
-37.415387436
 10
1.3660098317
 20
-37.4266852373
 10
1.3322776011
 20
-37.4383315818
 10
1.2958141051
 20
-37.4502905409
 10
1.2565774837
 20
-37.4625556786
 10
1.2147358512
 20
-37.4750611716
 10
1.1703573008
 20
-37.4877810979
 10
1.1234268215
 20
-37.5007171362
 10
1.0739914374
 20
-37.5138558831
 10
1.0221411978
 20
-37.52717635
 10
0.967867616
 20
-37.5406858597
 10
0.9110467926
 20
-37.5544200328
 10
0.8517228385
 20
-37.568373556
 10
0.7899378011
 20
-37.5825442437
 10
0.7255344532
 20
-37.5969764896
  0
LWPOLYLINE
  5
4DA
100
AcDbEntity
  8
0
100
AcDbPolyline
 62
7
  6
CONTINUOUS
 90
10
 70
0
 43
0.3500000087
 10
67.9499981445
 20
1.5642859131
 10
68.092857254
 20
1.6357133362
 10
68.1642846771
 20
1.6357133362
 10
68.3071437866
 20
1.4928563583
 10
68.3071437866
 20
1.4214289352
 10
68.2357163635
 20
1.3499993805
 10
68.1642846771
 20
1.3499993805
 10
68.0214298309
 20
1.4214289352
 10
67.9499981445
 20
1.4928563583
 10
67.9499981445
 20
1.5642859131
  0
LINE
  5
4DB
100
AcDbEntity
  8
217
100
AcDbLine
 62
7
  6
CONTINUOUS
 10
22.175304
 20
-31.6517826537
 11
22.485472
 21
-30.7148024951
  0
LINE
  5
4DC
100
AcDbEntity
  8
217
100
AcDbLine
 62
7
  6
CONTINUOUS
 10
21.778024
 20
-32.8518239256
 11
21.98008
 21
-32.2414724868
  0
LINE
  5
4DD
100
AcDbEntity
  8
217
100
AcDbLine
 62
250
  6
CONTINUOUS
 10
54.9851258104
 20
37.6471019058
 11
55.0113724094
 21
37.7
  0
LINE
  5
4DE
100
AcDbEntity
  8
217
100
AcDbLine
 62
250
  6
CONTINUOUS
 10
55.9737534009
 20
36.6470432028
 11
56.0
 21
36.6999412971
  0
LINE
  5
4DF
100
AcDbEntity
  8
217
100
AcDbLine
 62
7
  6
CONTINUOUS
 10
45.9067010727
 20
10.7520941295
 11
46.1240702271
 21
11.1393754046
  0
LINE
  5
4E0
100
AcDbEntity
  8
217
100
AcDbLine
 62
7
  6
CONTINUOUS
 10
48.710123
 20
9.040447
 11
48.956541
 21
9.389783
  0
LINE
  5
4E1
100
AcDbEntity
  8
217
100
AcDbLine
 62
7
  6
CONTINUOUS
 10
-40.5
 20
33.2
 11
40.5
 21
33.2
  0
LINE
  5
4E2
100
AcDbEntity
  8
217
100
AcDbLine
 62
250
  6
CONTINUOUS
 10
-54.2166824076
 20
34.6428610173
 11
54.2166824076
 21
34.6428610173
  0
LINE
  5
4E3
100
AcDbEntity
  8
217
100
AcDbLine
 62
7
  6
CONTINUOUS
 10
49.268483
 20
-14.8461912661
 11
50.009683
 21
-16.0235335543
  0
LINE
  5
4E4
100
AcDbEntity
  8
217
100
AcDbLine
 62
7
  6
CONTINUOUS
 10
50.039908
 20
-15.75142546
 11
49.310958
 21
-14.5739752047
  0
LINE
  5
4E5
100
AcDbEntity
  8
217
100
AcDbLine
 62
7
  6
CONTINUOUS
 10
43.848356
 20
-16.0235335543
 11
43.323311
 21
-14.5739752047
  0
LINE
  5
4E6
100
AcDbEntity
  8
217
100
AcDbLine
 62
7
  6
CONTINUOUS
 10
39.0
 20
22.4370398883
 11
38.9994992122
 21
22.5997496251
  0
LINE
  5
4E7
100
AcDbEntity
  8
RACCORDO
100
AcDbLine
 62
250
  6
CONTINUOUS
 10
36.3540978047
 20
-22.7050623331
 11
36.3540972881
 21
20.1050623331
  0
LINE
  5
4E8
100
AcDbEntity
  8
RACCORDO
100
AcDbLine
 62
250
  6
CONTINUOUS
 10
36.8974238247
 20
21.3973933632
 11
36.8974238247
 21
21.0974047862
  0
LINE
  5
4E9
100
AcDbEntity
  8
RACCORDO
100
AcDbLine
 62
250
  6
CONTINUOUS
 10
36.8974238247
 20
-23.9973933632
 11
36.8974238247
 21
-23.6974047863
  0
LINE
  5
4EA
100
AcDbEntity
  8
RACCORDO
100
AcDbLine
 62
7
  6
CONTINUOUS
 10
37.3974047863
 20
-23.1974238248
 11
37.3974047863
 21
20.5974238247
  0
LINE
  5
4EB
100
AcDbEntity
  8
RACCORDO
100
AcDbLine
 62
250
  6
CONTINUOUS
 10
37.6973933632
 20
-23.1974238248
 11
37.6973933632
 21
20.5974238247
  0
LINE
  5
4EC
100
AcDbEntity
  8
217
100
AcDbLine
 62
7
  6
CONTINUOUS
 10
37.75
 20
20.9
 11
37.75
 21
-23.5
  0
LINE
  5
4ED
100
AcDbEntity
  8
RACCORDO
100
AcDbLine
 62
250
  6
CONTINUOUS
 10
37.9916262694
 20
-24.1416262694
 11
37.9916262694
 21
-23.5
  0
LINE
  5
4EE
100
AcDbEntity
  8
RACCORDO
100
AcDbLine
 62
250
  6
CONTINUOUS
 10
37.9916262694
 20
20.9
 11
37.9916262694
 21
21.5416262694
  0
LINE
  5
4EF
100
AcDbEntity
  8
217
100
AcDbLine
 62
7
  6
CONTINUOUS
 10
39.0
 20
-25.0370398884
 11
39.0
 21
-23.5
  0
LINE
  5
4F0
100
AcDbEntity
  8
217
100
AcDbLine
 62
7
  6
CONTINUOUS
 10
39.0
 20
20.9
 11
39.0
 21
22.4370398883
  0
LINE
  5
4F1
100
AcDbEntity
  8
217
100
AcDbLine
 62
7
  6
CONTINUOUS
 10
39.5
 20
-23.5
 11
39.5
 21
20.9
  0
LINE
  5
4F2
100
AcDbEntity
  8
217
100
AcDbLine
 62
7
  6
CONTINUOUS
 10
40.5
 20
33.2
 11
40.5
 21
20.9
  0
LINE
  5
4F3
100
AcDbEntity
  8
217
100
AcDbLine
 62
7
  6
CONTINUOUS
 10
40.5
 20
-35.8
 11
40.5
 21
-23.5
  0
LINE
  5
4F4
100
AcDbEntity
  8
217
100
AcDbLine
 62
250
  6
CONTINUOUS
 10
40.999695254
 20
-3.0452406438
 11
40.999695254
 21
0.4452406437
  0
LINE
  5
4F5
100
AcDbEntity
  8
217
100
AcDbLine
 62
7
  6
CONTINUOUS
 10
39.0
 20
-25.0370398884
 11
38.9994992122
 21
-25.1997496252
  0
LINE
  5
4F6
100
AcDbEntity
  8
217
100
AcDbLine
 62
250
  6
CONTINUOUS
 10
-54.7147797567
 20
36.1109744548
 11
54.7147797567
 21
36.1109744548
  0
LINE
  5
4F7
100
AcDbEntity
  8
217
100
AcDbLine
 62
7
  6
CONTINUOUS
 10
54.9775587029
 20
36.3737534009
 11
-54.9775587029
 21
36.3737534009
  0
LINE
  5
4F8
100
AcDbEntity
  8
217
100
AcDbLine
 62
7
  6
CONTINUOUS
 10
54.9851258104
 20
37.6471019058
 11
-54.9851258104
 21
37.6471019058
  0
LINE
  5
4F9
100
AcDbEntity
  8
217
100
AcDbLine
 62
7
  6
CONTINUOUS
 10
55.0113724094
 20
37.7
 11
-55.0113724094
 21
37.7
  0
LINE
  5
4FA
100
AcDbEntity
  8
217
100
AcDbLine
 62
7
  6
CONTINUOUS
 10
45.481859
 20
13.647655
 11
46.751602
 21
12.577635
  0
LINE
  5
4FB
100
AcDbEntity
  8
217
100
AcDbLine
 62
7
  6
CONTINUOUS
 10
46.751602
 20
13.162838
 11
45.423252
 21
14.282247
  0
LINE
  5
4FC
100
AcDbEntity
  8
217
100
AcDbLine
 62
7
  6
CONTINUOUS
 10
43.490922
 20
-15.6015421264
 11
43.634377
 21
-16.0235335543
  0
LINE
  5
4FD
100
AcDbEntity
  8
217
100
AcDbLine
 62
7
  6
CONTINUOUS
 10
43.204152
 20
-14.7842221469
 11
43.420168
 21
-15.4279160267
  0
LINE
  5
4FE
100
AcDbEntity
  8
217
100
AcDbLine
 62
7
  6
CONTINUOUS
 10
41.354333
 20
-14.5739752047
 11
41.354333
 21
-16.0235335543
  0
LINE
  5
4FF
100
AcDbEntity
  8
217
100
AcDbLine
 62
7
  6
CONTINUOUS
 10
41.550224
 20
-16.0235335543
 11
41.550224
 21
-15.4117779436
  0
LINE
  5
500
100
AcDbEntity
  8
217
100
AcDbLine
 62
7
  6
CONTINUOUS
 10
41.550224
 20
-15.2442169959
 11
41.550224
 21
-14.7415361524
  0
LINE
  5
501
100
AcDbEntity
  8
217
100
AcDbLine
 62
7
  6
CONTINUOUS
 10
43.902853
 20
-14.5739752047
 11
43.902853
 21
-14.7476023042
  0
LINE
  5
502
100
AcDbEntity
  8
217
100
AcDbLine
 62
7
  6
CONTINUOUS
 10
44.393552
 20
-14.7476023042
 11
44.393552
 21
-16.0235335543
  0
LINE
  5
503
100
AcDbEntity
  8
217
100
AcDbLine
 62
7
  6
CONTINUOUS
 10
44.589442
 20
-16.0235335543
 11
44.589442
 21
-14.7476023042
  0
LINE
  5
504
100
AcDbEntity
  8
217
100
AcDbLine
 62
7
  6
CONTINUOUS
 10
45.080141
 20
-14.7476023042
 11
45.080141
 21
-14.5739752047
  0
LINE
  5
505
100
AcDbEntity
  8
217
100
AcDbLine
 62
7
  6
CONTINUOUS
 10
45.28416
 20
-15.8095047645
 11
45.28416
 21
-16.0235335543
  0
LINE
  5
506
100
AcDbEntity
  8
217
100
AcDbLine
 62
7
  6
CONTINUOUS
 10
45.494132
 20
-16.0235335543
 11
45.494132
 21
-15.8095047645
  0
LINE
  5
507
100
AcDbEntity
  8
217
100
AcDbLine
 62
7
  6
CONTINUOUS
 10
42.757851
 20
-16.0235335543
 11
42.90932
 21
-15.6015421264
  0
LINE
  5
508
100
AcDbEntity
  8
217
100
AcDbLine
 62
7
  6
CONTINUOUS
 10
42.969884
 20
-15.4279160267
 11
43.204152
 21
-14.7842221469
  0
LINE
  5
509
100
AcDbEntity
  8
217
100
AcDbLine
 62
7
  6
CONTINUOUS
 10
43.101203
 20
-14.5739752047
 11
42.555893
 21
-16.0235335543
  0
LINE
  5
50A
100
AcDbEntity
  8
217
100
AcDbLine
 62
7
  6
CONTINUOUS
 10
-60.4809503754
 20
41.9
 11
60.4809503754
 21
41.9
  0
LINE
  5
50B
100
AcDbEntity
  8
284
100
AcDbLine
 62
7
  6
CONTINUOUS
 10
-60.5082173135
 20
42.1679486355
 11
60.5082173135
 21
42.1679486355
  0
LINE
  5
50C
100
AcDbEntity
  8
284
100
AcDbLine
 62
7
  6
CONTINUOUS
 10
61.2
 20
44.7
 11
-61.2
 21
44.7
  0
LINE
  5
50D
100
AcDbEntity
  8
217
100
AcDbLine
 62
7
  6
CONTINUOUS
 10
46.333113
 20
11.011955
 11
46.333113
 21
10.539734
  0
LINE
  5
50E
100
AcDbEntity
  8
217
100
AcDbLine
 62
7
  6
CONTINUOUS
 10
46.348534
 20
14.841663
 11
46.348534
 21
14.366846
  0
LINE
  5
50F
100
AcDbEntity
  8
217
100
AcDbLine
 62
7
  6
CONTINUOUS
 10
46.40489
 20
-14.5739752047
 11
46.40489
 21
-16.0235335543
  0
LINE
  5
510
100
AcDbEntity
  8
217
100
AcDbLine
 62
7
  6
CONTINUOUS
 10
46.60078
 20
-16.0235335543
 11
46.60078
 21
-15.4117779436
  0
LINE
  5
511
100
AcDbEntity
  8
217
100
AcDbLine
 62
7
  6
CONTINUOUS
 10
46.60078
 20
-15.2442169959
 11
46.60078
 21
-14.7415361524
  0
LINE
  5
512
100
AcDbEntity
  8
217
100
AcDbLine
 62
7
  6
CONTINUOUS
 10
46.751602
 20
14.366846
 11
46.751602
 21
13.162838
  0
LINE
  5
513
100
AcDbEntity
  8
217
100
AcDbLine
 62
7
  6
CONTINUOUS
 10
46.751602
 20
12.577635
 11
46.751602
 21
11.011955
  0
LINE
  5
514
100
AcDbEntity
  8
217
100
AcDbLine
 62
250
  6
CONTINUOUS
 10
47.057132
 20
-15.4117779436
 11
47.057132
 21
-15.4082874623
  0
LINE
  5
515
100
AcDbEntity
  8
217
100
AcDbLine
 62
7
  6
CONTINUOUS
 10
47.254665
 20
11.011955
 11
47.254665
 21
12.582916
  0
LINE
  5
516
100
AcDbEntity
  8
217
100
AcDbLine
 62
7
  6
CONTINUOUS
 10
47.254665
 20
13.162838
 11
47.254665
 21
14.366846
  0
LINE
  5
517
100
AcDbEntity
  8
217
100
AcDbLine
 62
7
  6
CONTINUOUS
 10
47.65757
 20
14.366846
 11
47.65757
 21
14.841663
  0
LINE
  5
518
100
AcDbEntity
  8
217
100
AcDbLine
 62
7
  6
CONTINUOUS
 10
47.672991
 20
10.539734
 11
47.672991
 21
11.011955
  0
LINE
  5
519
100
AcDbEntity
  8
217
100
AcDbLine
 62
7
  6
CONTINUOUS
 10
47.75185
 20
-14.5739752047
 11
47.75185
 21
-16.0235335543
  0
LINE
  5
51A
100
AcDbEntity
  8
217
100
AcDbLine
 62
7
  6
CONTINUOUS
 10
47.94774
 20
-15.8499074546
 11
47.94774
 21
-15.3654240667
  0
LINE
  5
51B
100
AcDbEntity
  8
217
100
AcDbLine
 62
7
  6
CONTINUOUS
 10
47.94774
 20
-15.1917979669
 11
47.94774
 21
-14.7476023042
  0
LINE
  5
51C
100
AcDbEntity
  8
217
100
AcDbLine
 62
7
  6
CONTINUOUS
 10
48.741491
 20
-15.3654240667
 11
48.741491
 21
-15.1917979669
  0
LINE
  5
51D
100
AcDbEntity
  8
217
100
AcDbLine
 62
7
  6
CONTINUOUS
 10
48.808123
 20
-14.7476023042
 11
48.808123
 21
-14.5739752047
  0
LINE
  5
51E
100
AcDbEntity
  8
217
100
AcDbLine
 62
7
  6
CONTINUOUS
 10
48.822206
 20
-16.0235335543
 11
48.822206
 21
-15.8499074546
  0
LINE
  5
51F
100
AcDbEntity
  8
217
100
AcDbLine
 62
7
  6
CONTINUOUS
 10
49.07866
 20
-14.5739752047
 11
49.07866
 21
-16.0235335543
  0
LINE
  5
520
100
AcDbEntity
  8
217
100
AcDbLine
 62
7
  6
CONTINUOUS
 10
49.268483
 20
-16.0235335543
 11
49.268483
 21
-14.8461912661
  0
LINE
  5
521
100
AcDbEntity
  8
217
100
AcDbLine
 62
7
  6
CONTINUOUS
 10
50.039908
 20
-14.5739752047
 11
50.039908
 21
-15.75142546
  0
LINE
  5
522
100
AcDbEntity
  8
217
100
AcDbLine
 62
7
  6
CONTINUOUS
 10
50.22973
 20
-16.0235335543
 11
50.22973
 21
-14.5739752047
  0
LINE
  5
523
100
AcDbEntity
  8
217
100
AcDbLine
 62
7
  6
CONTINUOUS
 10
50.54675
 20
-14.5739752047
 11
50.54675
 21
-16.0235335543
  0
LINE
  5
524
100
AcDbEntity
  8
217
100
AcDbLine
 62
7
  6
CONTINUOUS
 10
50.74264
 20
-15.8559736064
 11
50.74264
 21
-14.7415361524
  0
LINE
  5
525
100
AcDbEntity
  8
217
100
AcDbLine
 62
7
  6
CONTINUOUS
 10
47.87593
 20
11.139375
 11
48.093299
 21
10.752094
  0
LINE
  5
526
100
AcDbEntity
  8
217
100
AcDbLine
 62
250
  6
CONTINUOUS
 10
54.727379217
 20
-15.5610765883
 11
54.8275524977
 21
-21.3
  0
LINE
  5
527
100
AcDbEntity
  8
217
100
AcDbLine
 62
250
  6
CONTINUOUS
 10
55.788267846
 20
-15.5479862866
 11
55.8886696189
 21
-21.3
  0
LINE
  5
528
100
AcDbEntity
  8
217
100
AcDbLine
 62
250
  6
CONTINUOUS
 10
54.2166824076
 20
-37.2428610173
 11
54.2015266861
 21
-27.3184814211
  0
LINE
  5
529
100
AcDbEntity
  8
217
100
AcDbLine
 62
250
  6
CONTINUOUS
 10
54.1739161643
 20
-9.2383591451
 11
54.1644585273
 21
-3.0452406438
  0
LINE
  5
52A
100
AcDbEntity
  8
217
100
AcDbLine
 62
250
  6
CONTINUOUS
 10
55.6587505744
 20
-3.0190620341
 11
55.6775050441
 21
-15.3
  0
LINE
  5
52B
100
AcDbEntity
  8
217
100
AcDbLine
 62
250
  6
CONTINUOUS
 10
55.6866677659
 20
-21.3
 11
55.7117362727
 21
-37.7155415747
  0
LINE
  5
52C
100
AcDbEntity
  8
217
100
AcDbLine
 62
7
  6
CONTINUOUS
 10
52.497439872
 20
7.1026976132
 11
52.4922108465
 21
24.2650898701
  0
LINE
  5
52D
100
AcDbEntity
  8
217
100
AcDbLine
 62
7
  6
CONTINUOUS
 10
54.3071087757
 20
-24.4004182866
 11
54.3078640467
 21
-26.8919976601
  0
LINE
  5
52E
100
AcDbEntity
  8
217
100
AcDbLine
 62
7
  6
CONTINUOUS
 10
54.3026557186
 20
-9.7027932184
 11
54.3032611278
 21
-11.7017273824
  0
LINE
  5
52F
100
AcDbEntity
  8
217
100
AcDbLine
 62
7
  6
CONTINUOUS
 10
52.0169
 20
-15.8095047645
 11
52.0169
 21
-16.0235335543
  0
LINE
  5
530
100
AcDbEntity
  8
217
100
AcDbLine
 62
7
  6
CONTINUOUS
 10
52.226986
 20
-16.0235335543
 11
52.226986
 21
-15.8095047645
  0
LINE
  5
531
100
AcDbEntity
  8
RACCORDO
100
AcDbLine
 62
250
  6
CONTINUOUS
 10
52.5443487405
 20
23.7
 11
52.5443487405
 21
6.8160750107
  0
LINE
  5
532
100
AcDbEntity
  8
RACCORDO
100
AcDbLine
 62
250
  6
CONTINUOUS
 10
52.5443487405
 20
-9.4157515901
 11
52.5443487405
 21
-26.3
  0
LINE
  5
533
100
AcDbEntity
  8
RACCORDO
100
AcDbLine
 62
250
  6
CONTINUOUS
 10
52.844303049
 20
23.7
 11
52.844303049
 21
6.385712464
  0
LINE
  5
534
100
AcDbEntity
  8
RACCORDO
100
AcDbLine
 62
250
  6
CONTINUOUS
 10
52.844303049
 20
-8.9855263873
 11
52.844303049
 21
-26.3
  0
LINE
  5
535
100
AcDbEntity
  8
RACCORDO
100
AcDbLine
 62
250
  6
CONTINUOUS
 10
53.7440980938
 20
-26.3
 11
53.7440980938
 21
-8.8674871177
  0
LINE
  5
536
100
AcDbEntity
  8
RACCORDO
100
AcDbLine
 62
250
  6
CONTINUOUS
 10
53.7440980938
 20
6.2673455757
 11
53.7440980938
 21
23.7
  0
LINE
  5
537
100
AcDbEntity
  8
RACCORDO
100
AcDbLine
 62
250
  6
CONTINUOUS
 10
54.0440524024
 20
-26.3
 11
54.0440524024
 21
-9.0586731577
  0
LINE
  5
538
100
AcDbEntity
  8
RACCORDO
100
AcDbLine
 62
250
  6
CONTINUOUS
 10
54.0440524024
 20
6.4585347028
 11
54.0440524024
 21
23.7
  0
LINE
  5
539
100
AcDbEntity
  8
RACCORDO
100
AcDbLine
 62
7
  6
CONTINUOUS
 10
54.1
 20
23.7
 11
54.1
 21
6.534994051
  0
LINE
  5
53A
100
AcDbEntity
  8
RACCORDO
100
AcDbLine
 62
7
  6
CONTINUOUS
 10
54.1
 20
-9.135049142
 11
54.1
 21
-26.3
  0
LINE
  5
53B
100
AcDbEntity
  8
217
100
AcDbLine
 62
250
  6
CONTINUOUS
 10
54.1644585273
 20
0.4452406437
 11
54.1644585273
 21
-3.0452406438
  0
LINE
  5
53C
100
AcDbEntity
  8
217
100
AcDbLine
 62
7
  6
CONTINUOUS
 10
54.3034721404
 20
-12.3983917341
 11
54.3068963867
 21
-23.699698709
  0
LINE
  5
53D
100
AcDbEntity
  8
217
100
AcDbLine
 62
250
  6
CONTINUOUS
 10
54.7276076742
 20
12.9610765882
 11
54.7276076742
 21
12.7
  0
LINE
  5
53E
100
AcDbEntity
  8
217
100
AcDbLine
 62
250
  6
CONTINUOUS
 10
54.7276076742
 20
-15.3
 11
54.7276076742
 21
-15.5610765883
  0
LINE
  5
53F
100
AcDbEntity
  8
217
100
AcDbLine
 62
250
  6
CONTINUOUS
 10
55.788267846
 20
12.9479862865
 11
55.788267846
 21
12.7
  0
LINE
  5
540
100
AcDbEntity
  8
217
100
AcDbLine
 62
250
  6
CONTINUOUS
 10
55.788267846
 20
-15.3
 11
55.788267846
 21
-15.5479862866
  0
LINE
  5
541
100
AcDbEntity
  8
217
100
AcDbLine
 62
7
  6
CONTINUOUS
 10
55.9387579355
 20
1.95
 11
55.9387579355
 21
-4.55
  0
LINE
  5
542
100
AcDbEntity
  8
217
100
AcDbLine
 62
7
  6
CONTINUOUS
 10
55.9737534009
 20
36.6470432028
 11
55.9737534009
 21
35.3775587028
  0
LINE
  5
543
100
AcDbEntity
  8
217
100
AcDbLine
 62
7
  6
CONTINUOUS
 10
56.0
 20
-38.0038053019
 11
56.0
 21
-21.3
  0
LINE
  5
544
100
AcDbEntity
  8
217
100
AcDbLine
 62
7
  6
CONTINUOUS
 10
56.0
 20
-15.3
 11
56.0
 21
-4.55
  0
LINE
  5
545
100
AcDbEntity
  8
217
100
AcDbLine
 62
7
  6
CONTINUOUS
 10
56.0
 20
1.95
 11
56.0
 21
12.7
  0
LINE
  5
546
100
AcDbEntity
  8
217
100
AcDbLine
 62
7
  6
CONTINUOUS
 10
56.0
 20
18.7
 11
56.0
 21
36.6999412971
  0
LINE
  5
547
100
AcDbEntity
  8
284
100
AcDbLine
 62
7
  6
CONTINUOUS
 10
56.0194178851
 20
-27.8
 11
56.0194178851
 21
-21.3
  0
LINE
  5
548
100
AcDbEntity
  8
284
100
AcDbLine
 62
7
  6
CONTINUOUS
 10
56.0194178851
 20
-15.3
 11
56.0194178851
 21
-8.8
  0
LINE
  5
549
100
AcDbEntity
  8
284
100
AcDbLine
 62
7
  6
CONTINUOUS
 10
56.0194178851
 20
6.2
 11
56.0194178851
 21
12.7
  0
LINE
  5
54A
100
AcDbEntity
  8
284
100
AcDbLine
 62
7
  6
CONTINUOUS
 10
56.0194178851
 20
18.7
 11
56.0194178851
 21
25.2
  0
LINE
  5
54B
100
AcDbEntity
  8
217
100
AcDbLine
 62
7
  6
CONTINUOUS
 10
52.492202628
 20
-26.892064345
 11
52.497439872
 21
-9.7026976132
  0
LINE
  5
54C
100
AcDbEntity
  8
217
100
AcDbLine
 62
7
  6
CONTINUOUS
 10
54.3026557186
 20
7.1027932184
 11
54.3032611278
 21
9.1017273824
  0
LINE
  5
54D
100
AcDbEntity
  8
217
100
AcDbLine
 62
7
  6
CONTINUOUS
 10
54.3034721404
 20
9.7983917341
 11
54.3060935858
 21
18.7
  0
LINE
  5
54E
100
AcDbEntity
  8
217
100
AcDbLine
 62
250
  6
CONTINUOUS
 10
54.1644585273
 20
0.4452406437
 11
54.1739161643
 21
6.638359145
  0
LINE
  5
54F
100
AcDbEntity
  8
217
100
AcDbLine
 62
250
  6
CONTINUOUS
 10
54.2014856831
 20
24.6916315604
 11
54.2166824076
 21
34.6428610173
  0
LINE
  5
550
100
AcDbEntity
  8
217
100
AcDbLine
 62
250
  6
CONTINUOUS
 10
55.7117362727
 20
35.1155415746
 11
55.6866677659
 21
18.7
  0
LINE
  5
551
100
AcDbEntity
  8
217
100
AcDbLine
 62
250
  6
CONTINUOUS
 10
55.6775050441
 20
12.7
 11
55.6587505744
 21
0.419062034
  0
LINE
  5
552
100
AcDbEntity
  8
217
100
AcDbLine
 62
250
  6
CONTINUOUS
 10
54.8275524977
 20
18.7
 11
54.727379217
 21
12.9610765882
  0
LINE
  5
553
100
AcDbEntity
  8
217
100
AcDbLine
 62
250
  6
CONTINUOUS
 10
55.8886696189
 20
18.7
 11
55.788267846
 21
12.9479862865
  0
LWPOLYLINE
  5
554
100
AcDbEntity
  8
0
100
AcDbPolyline
 62
7
  6
CONTINUOUS
 90
13
 70
0
 43
0.3500000087
 10
66.7357148987
 20
-1.0071418198
 10
66.5214283661
 20
-1.2928579071
 10
65.8785730316
 20
-1.2928579071
 10
65.4499999664
 20
-1.0071418198
 10
65.4499999664
 20
-0.3642864853
 10
65.8785730316
 20
-0.0785703979
 10
66.5214283661
 20
-0.0785703979
 10
66.7357148987
 20
-0.3642864853
 10
67.1642837006
 20
0.0642865799
 10
68.0214298309
 20
0.0642865799
 10
68.4499986328
 20
-0.3642864853
 10
68.4499986328
 20
-1.0071418198
 10
68.0214298309
 20
-1.4357148849
  0
LWPOLYLINE
  5
555
100
AcDbEntity
  8
0
100
AcDbPolyline
 62
7
  6
CONTINUOUS
 90
13
 70
0
 43
0.3500000087
 10
66.7357148987
 20
-3.3642862175
 10
66.5214283661
 20
-3.6500001732
 10
65.8785730316
 20
-3.6500001732
 10
65.4499999664
 20
-3.3642862175
 10
65.4499999664
 20
-2.7214287514
 10
65.8785730316
 20
-2.4357147957
 10
66.5214283661
 20
-2.4357147957
 10
66.7357148987
 20
-2.7214287514
 10
67.1642837006
 20
-2.292856752
 10
68.0214298309
 20
-2.292856752
 10
68.4499986328
 20
-2.7214287514
 10
68.4499986328
 20
-3.3642862175
 10
68.0214298309
 20
-3.792857151
  0
LWPOLYLINE
  5
556
100
AcDbEntity
  8
0
100
AcDbPolyline
 62
7
  6
CONTINUOUS
 90
7
 70
0
 43
0.3500000087
 10
0.3214285665
 20
53.344725293
 10
-1.1785713995
 20
53.344725293
 10
0.3214285665
 20
55.4875820923
 10
0.3214285665
 20
55.9161551575
 10
-0.1071428583
 20
56.3447282227
 10
-0.7499999997
 20
56.3447282227
 10
-1.1785713995
 20
55.7018728882
  0
LWPOLYLINE
  5
557
100
AcDbEntity
  8
0
100
AcDbPolyline
 62
7
  6
CONTINUOUS
 90
7
 70
0
 43
0.3500000087
 10
-2.0357143324
 20
53.344725293
 10
-3.5357141985
 20
53.344725293
 10
-2.0357143324
 20
55.4875820923
 10
-2.0357143324
 20
55.9161551575
 10
-2.4642857988
 20
56.3447282227
 10
-3.107142732
 20
56.3447282227
 10
-3.5357141985
 20
55.7018728882
  0
LWPOLYLINE
  5
558
100
AcDbEntity
  8
0
100
AcDbPolyline
 62
7
  6
CONTINUOUS
 90
3
 70
0
 43
0.3500000087
 10
4.3928571314
 20
53.9875806274
 10
2.8928572653
 20
53.9875806274
 10
3.5357141985
 20
56.3447282227
  0
LINE
  5
559
100
AcDbEntity
  8
217
100
AcDbLine
 62
7
  6
CONTINUOUS
 10
56.9
 20
-15.3
 11
56.9
 21
-21.3
  0
LINE
  5
55A
100
AcDbEntity
  8
217
100
AcDbLine
 62
7
  6
CONTINUOUS
 10
56.9
 20
12.7
 11
56.9
 21
18.7
  0
LINE
  5
55B
100
AcDbEntity
  8
217
100
AcDbLine
 62
7
  6
CONTINUOUS
 10
57.4
 20
-27.8
 11
57.4
 21
-8.8
  0
LINE
  5
55C
100
AcDbEntity
  8
217
100
AcDbLine
 62
7
  6
CONTINUOUS
 10
57.4
 20
6.2
 11
57.4
 21
25.2
  0
LINE
  5
55D
100
AcDbEntity
  8
217
100
AcDbLine
 62
7
  6
CONTINUOUS
 10
58.3
 20
1.95
 11
58.3
 21
-4.55
  0
LINE
  5
55E
100
AcDbEntity
  8
217
100
AcDbLine
 62
7
  6
CONTINUOUS
 10
58.8
 20
-40.95
 11
58.8
 21
-4.55
  0
LINE
  5
55F
100
AcDbEntity
  8
217
100
AcDbLine
 62
7
  6
CONTINUOUS
 10
58.8
 20
1.95
 11
58.8
 21
22.4828759398
  0
LINE
  5
560
100
AcDbEntity
  8
217
100
AcDbLine
 62
7
  6
CONTINUOUS
 10
58.8034311225
 20
1.95
 11
58.8034311225
 21
-4.55
  0
LINE
  5
561
100
AcDbEntity
  8
284
100
AcDbLine
 62
7
  6
CONTINUOUS
 10
58.9
 20
-41.2
 11
58.9
 21
22.4828759398
  0
LINE
  5
562
100
AcDbEntity
  8
284
100
AcDbLine
 62
7
  6
CONTINUOUS
 10
59.0082214026
 20
-41.3082214026
 11
59.0082214026
 21
22.2320513645
  0
LINE
  5
563
100
AcDbEntity
  8
217
100
AcDbLine
 62
7
  6
CONTINUOUS
 10
60.4809503754
 20
41.9
 11
60.4809503754
 21
22.4828759398
  0
LINE
  5
564
100
AcDbEntity
  8
284
100
AcDbLine
 62
7
  6
CONTINUOUS
 10
60.5082173135
 20
-42.8082173135
 11
60.5082173135
 21
22.2320513645
  0
LINE
  5
565
100
AcDbEntity
  8
284
100
AcDbLine
 62
7
  6
CONTINUOUS
 10
60.5082173135
 20
42.1679486355
 11
60.5082173135
 21
44.7
  0
LINE
  5
566
100
AcDbEntity
  8
284
100
AcDbLine
 62
7
  6
CONTINUOUS
 10
61.2
 20
44.7
 11
61.2
 21
-43.5
  0
LWPOLYLINE
  5
567
100
AcDbEntity
  8
0
100
AcDbPolyline
 62
7
  6
CONTINUOUS
 90
7
 70
0
 43
0.3500000087
 10
68.4499986328
 20
4.1357136459
 10
68.4499986328
 20
2.6357143127
 10
66.3071418335
 20
4.1357136459
 10
65.8785730316
 20
4.1357136459
 10
65.4499999664
 20
3.7071427124
 10
65.4499999664
 20
3.0642852463
 10
66.0928553009
 20
2.6357143127
  0
LWPOLYLINE
  5
568
100
AcDbEntity
  8
0
100
AcDbPolyline
 62
7
  6
CONTINUOUS
 90
3
 70
0
 43
0.3500000087
 10
-106.4307400208
 20
65.5928614014
 10
-105.573602417
 20
66.4499990051
 10
-105.573602417
 20
63.4499960754
  0
LWPOLYLINE
  5
569
100
AcDbEntity
  8
0
100
AcDbPolyline
 62
7
  6
CONTINUOUS
 90
5
 70
0
 43
0.3500000087
 10
-107.7164592163
 20
65.1642883362
 10
-107.3593135742
 20
65.3785706055
 10
-107.3593135742
 20
66.0214259399
 10
-107.7164592163
 20
66.4499990051
 10
-108.5735968201
 20
66.4499990051
  0
LWPOLYLINE
  5
56A
100
AcDbEntity
  8
0
100
AcDbPolyline
 62
7
  6
CONTINUOUS
 90
5
 70
0
 43
0.3500000087
 10
-109.8235980408
 20
55.1642870972
 10
-109.4664609253
 20
55.3785693665
 10
-109.4664609253
 20
56.0214247009
 10
-109.8235980408
 20
56.4499977661
 10
-110.6807441711
 20
56.4499977661
  0
LWPOLYLINE
  5
56B
100
AcDbEntity
  8
0
100
AcDbPolyline
 62
7
  6
CONTINUOUS
 90
5
 70
0
 43
0.3500000087
 10
-105.9664575073
 20
55.1642870972
 10
-105.6093118652
 20
55.3785693665
 10
-105.6093118652
 20
56.0214247009
 10
-105.9664575073
 20
56.4499977661
 10
-106.8236036377
 20
56.4499977661
  0
LINE
  5
56C
100
AcDbEntity
  8
RACCORDO
100
AcDbLine
 62
250
  6
CONTINUOUS
 10
-110.409315131
 20
-43.9912878475
 11
-109.9136783987
 21
-43.9912878475
  0
LINE
  5
56D
100
AcDbEntity
  8
RACCORDO
100
AcDbLine
 62
250
  6
CONTINUOUS
 10
-107.409315131
 20
-43.9912878475
 11
-107.9136783987
 21
-43.9912878475
  0
LWPOLYLINE
  5
56E
100
AcDbEntity
  8
RACCORDO
100
AcDbPolyline
 62
7
  6
CONTINUOUS
 90
19
 70
0
 10
-97.1690030519
 20
-41.2755620758
 10
-97.16733667
 20
-41.2752515721
 10
-97.1654137733
 20
-41.2748781261
 10
-97.1625733378
 20
-41.2742936156
 10
-97.158502499
 20
-41.2733822647
 10
-97.1535482913
 20
-41.2721505862
 10
-97.1480457519
 20
-41.2706194888
 10
-97.1420207892
 20
-41.2687400682
 10
-97.1354919327
 20
-41.2664559948
 10
-97.1287726352
 20
-41.2638260516
 10
-97.1219749041
 20
-41.2608641457
 10
-97.1150292312
 20
-41.2575085177
 10
-97.1079694082
 20
-41.2537362771
 10
-97.1007951879
 20
-41.2495038315
 10
-97.0935698586
 20
-41.2448023466
 10
-97.0864184504
 20
-41.2396758692
 10
-97.0793758781
 20
-41.2341200332
 10
-97.0724664753
 20
-41.2281230008
 10
-97.0657853173
 20
-41.2217421425
  0
LINE
  5
56F
100
AcDbEntity
  8
RACCORDO
100
AcDbLine
 62
7
  6
CONTINUOUS
 10
-97.1709599678
 20
-41.2759133649
 11
-97.1690030519
 21
-41.2755620758
  0
LINE
  5
570
100
AcDbEntity
  8
284
100
AcDbLine
 62
7
  6
CONTINUOUS
 10
-97.209315131
 20
-43.5
 11
-110.409315131
 21
-42.8082173135
  0
LINE
  5
571
100
AcDbEntity
  8
RACCORDO
100
AcDbLine
 62
250
  6
CONTINUOUS
 10
-97.0093151751
 20
-40.6218311802
 11
-97.1689404778
 21
-40.6218311802
  0
LINE
  5
572
100
AcDbEntity
  8
217
100
AcDbLine
 62
7
  6
CONTINUOUS
 10
-113.7128922296
 20
-38.7109744548
 11
-110.409315131
 21
-39.0
  0
LINE
  5
573
100
AcDbEntity
  8
217
100
AcDbLine
 62
250
  6
CONTINUOUS
 10
-113.7041846104
 20
-37.7155415747
 11
-110.409315131
 21
-38.0038053019
  0
LINE
  5
574
100
AcDbEntity
  8
284
100
AcDbLine
 62
7
  6
CONTINUOUS
 10
-89.009315131
 20
-27.3
 11
-97.009315131
 21
-27.3
  0
LINE
  5
575
100
AcDbEntity
  8
284
100
AcDbLine
 62
250
  6
CONTINUOUS
 10
-88.709315131
 20
-25.8
 11
-97.009315131
 21
-25.8
  0
LINE
  5
576
100
AcDbEntity
  8
284
100
AcDbLine
 62
7
  6
CONTINUOUS
 10
-89.009315131
 20
-25.05
 11
-97.009315131
 21
-25.05
  0
LINE
  5
577
100
AcDbEntity
  8
RACCORDO
100
AcDbLine
 62
250
  6
CONTINUOUS
 10
-118.9477123037
 20
-23.1543042389
 11
-118.9992819041
 21
-23.1554237417
  0
LINE
  5
578
100
AcDbEntity
  8
RACCORDO
100
AcDbLine
 62
7
  6
CONTINUOUS
 10
-115.3185668107
 20
-23.6859562734
 11
-118.9735381089
 21
-23.6540598221
  0
LINE
  5
579
100
AcDbEntity
  8
RACCORDO
100
AcDbLine
 62
250
  6
CONTINUOUS
 10
-115.3243081869
 20
-23.1859252076
 11
-118.9477123037
 21
-23.1543042389
  0
LWPOLYLINE
  5
57A
100
AcDbEntity
  8
0
100
AcDbPolyline
 62
7
  6
CONTINUOUS
 90
3
 70
0
 43
0.3500000087
 10
-107.8236046143
 20
53.7357130554
 10
-107.8950320374
 20
53.5214307861
 10
-108.0378868835
 20
53.2357125671
  0
LWPOLYLINE
  5
57B
100
AcDbEntity
  8
0
100
AcDbPolyline
 62
7
  6
CONTINUOUS
 90
3
 70
0
 43
0.3500000087
 10
-104.0021735291
 20
63.7357142944
 10
-104.0736009521
 20
63.5214320251
 10
-104.2164557983
 20
63.2357138062
  0
LINE
  5
57C
100
AcDbEntity
  8
217
100
AcDbLine
 62
7
  6
CONTINUOUS
 10
-110.409315131
 20
-21.3
 11
-115.3602138324
 21
-21.3
  0
LINE
  5
57D
100
AcDbEntity
  8
284
100
AcDbLine
 62
7
  6
CONTINUOUS
 10
-89.009315131
 20
-19.45
 11
-97.009315131
 21
-19.45
  0
LINE
  5
57E
100
AcDbEntity
  8
217
100
AcDbLine
 62
7
  6
CONTINUOUS
 10
-110.409315131
 20
-15.3
 11
-115.4603871132
 21
-15.3
  0
LINE
  5
57F
100
AcDbEntity
  8
217
100
AcDbLine
 62
7
  6
CONTINUOUS
 10
-115.0819301582
 20
-37.2428610173
 11
-115.2551608484
 21
-27.3184814211
  0
LINE
  5
580
100
AcDbEntity
  8
217
100
AcDbLine
 62
7
  6
CONTINUOUS
 10
-115.2626039862
 20
-26.892064345
 11
-115.4603871132
 21
-15.5610765883
  0
LINE
  5
581
100
AcDbEntity
  8
217
100
AcDbLine
 62
7
  6
CONTINUOUS
 10
-115.4649428339
 20
-15.3000795204
 11
-115.5626454986
 21
-9.7026976132
  0
LINE
  5
582
100
AcDbEntity
  8
217
100
AcDbLine
 62
7
  6
CONTINUOUS
 10
-115.5707505567
 20
-9.2383591451
 11
-115.6788518422
 21
-3.0452406438
  0
LINE
  5
583
100
AcDbEntity
  8
217
100
AcDbLine
 62
250
  6
CONTINUOUS
 10
-115.021047285
 20
-15.5479862866
 11
-114.9206455121
 21
-21.3
  0
LINE
  5
584
100
AcDbEntity
  8
217
100
AcDbLine
 62
250
  6
CONTINUOUS
 10
-114.3098139136
 20
-3.0190620341
 11
-114.095449344
 21
-15.3
  0
LINE
  5
585
100
AcDbEntity
  8
217
100
AcDbLine
 62
250
  6
CONTINUOUS
 10
-113.9907189545
 20
-21.3
 11
-113.7041846104
 21
-37.7155415747
  0
LINE
  5
586
100
AcDbEntity
  8
217
100
AcDbLine
 62
7
  6
CONTINUOUS
 10
-115.3020536426
 20
-24.4004182866
 11
-115.2587841954
 21
-26.8919976601
  0
LINE
  5
587
100
AcDbEntity
  8
217
100
AcDbLine
 62
7
  6
CONTINUOUS
 10
-115.3558876109
 20
-21.3
 11
-115.3142214024
 21
-23.699698709
  0
LINE
  5
588
100
AcDbEntity
  8
217
100
AcDbLine
 62
7
  6
CONTINUOUS
 10
-115.510396343
 20
-12.3983917341
 11
-115.4600407759
 21
-15.3
  0
LINE
  5
589
100
AcDbEntity
  8
217
100
AcDbLine
 62
7
  6
CONTINUOUS
 10
-115.5571691134
 20
-9.7027932184
 11
-115.5224852428
 21
-11.7017273824
  0
LINE
  5
58A
100
AcDbEntity
  8
217
100
AcDbLine
 62
7
  6
CONTINUOUS
 10
-115.4603871132
 20
12.9610765882
 11
-115.4603871132
 21
12.7
  0
LINE
  5
58B
100
AcDbEntity
  8
217
100
AcDbLine
 62
7
  6
CONTINUOUS
 10
-115.4603871132
 20
-15.3
 11
-115.4603871132
 21
-15.5610765883
  0
LINE
  5
58C
100
AcDbEntity
  8
217
100
AcDbLine
 62
250
  6
CONTINUOUS
 10
-115.021047285
 20
12.9479862865
 11
-115.021047285
 21
12.7
  0
LINE
  5
58D
100
AcDbEntity
  8
217
100
AcDbLine
 62
250
  6
CONTINUOUS
 10
-115.021047285
 20
-15.3
 11
-115.021047285
 21
-15.5479862866
  0
LINE
  5
58E
100
AcDbEntity
  8
217
100
AcDbLine
 62
7
  6
CONTINUOUS
 10
-113.909315131
 20
-15.3
 11
-113.909315131
 21
-21.3
  0
LINE
  5
58F
100
AcDbEntity
  8
217
100
AcDbLine
 62
7
  6
CONTINUOUS
 10
-113.909315131
 20
12.7
 11
-113.909315131
 21
18.7
  0
LINE
  5
590
100
AcDbEntity
  8
217
100
AcDbLine
 62
7
  6
CONTINUOUS
 10
-115.510396343
 20
9.7983917341
 11
-115.4603871132
 21
12.7
  0
LINE
  5
591
100
AcDbEntity
  8
217
100
AcDbLine
 62
7
  6
CONTINUOUS
 10
-115.6788518422
 20
0.4452406437
 11
-115.5707505567
 21
6.638359145
  0
LINE
  5
592
100
AcDbEntity
  8
217
100
AcDbLine
 62
7
  6
CONTINUOUS
 10
-115.5626454986
 20
7.1026976132
 11
-115.4649428339
 21
12.7000795204
  0
LINE
  5
593
100
AcDbEntity
  8
217
100
AcDbLine
 62
7
  6
CONTINUOUS
 10
-115.4603871132
 20
12.9610765882
 11
-115.2630748274
 21
24.2650898701
  0
LINE
  5
594
100
AcDbEntity
  8
217
100
AcDbLine
 62
7
  6
CONTINUOUS
 10
-115.2556295145
 20
24.6916315604
 11
-115.0819301582
 21
34.6428610173
  0
LINE
  5
595
100
AcDbEntity
  8
217
100
AcDbLine
 62
7
  6
CONTINUOUS
 10
-115.5571691134
 20
7.1027932184
 11
-115.5224852428
 21
9.1017273824
  0
LINE
  5
596
100
AcDbEntity
  8
217
100
AcDbLine
 62
250
  6
CONTINUOUS
 10
-114.9206455121
 20
18.7
 11
-115.021047285
 21
12.9479862865
  0
LINE
  5
597
100
AcDbEntity
  8
217
100
AcDbLine
 62
250
  6
CONTINUOUS
 10
-113.7041846104
 20
35.1155415746
 11
-113.9907189545
 21
18.7
  0
LINE
  5
598
100
AcDbEntity
  8
217
100
AcDbLine
 62
250
  6
CONTINUOUS
 10
-114.095449344
 20
12.7
 11
-114.3098139136
 21
0.419062034
  0
LINE
  5
599
100
AcDbEntity
  8
217
100
AcDbLine
 62
7
  6
CONTINUOUS
 10
-115.0819301582
 20
34.6428610173
 11
-115.0787164767
 21
34.7182430689
  0
LINE
  5
59A
100
AcDbEntity
  8
217
100
AcDbLine
 62
250
  6
CONTINUOUS
 10
-113.6164219122
 20
-21.3
 11
-113.6164219122
 21
-15.3
  0
LINE
  5
59B
100
AcDbEntity
  8
217
100
AcDbLine
 62
250
  6
CONTINUOUS
 10
-113.6164219122
 20
12.7
 11
-113.6164219122
 21
18.7
  0
LINE
  5
59C
100
AcDbEntity
  8
217
100
AcDbLine
 62
250
  6
CONTINUOUS
 10
-113.2628685216
 20
-21.3
 11
-113.2628685216
 21
-15.3
  0
LINE
  5
59D
100
AcDbEntity
  8
217
100
AcDbLine
 62
250
  6
CONTINUOUS
 10
-113.2628685216
 20
12.7
 11
-113.2628685216
 21
18.7
  0
LINE
  5
59E
100
AcDbEntity
  8
217
100
AcDbLine
 62
7
  6
CONTINUOUS
 10
-112.559315131
 20
-15.3
 11
-112.559315131
 21
-21.3
  0
LINE
  5
59F
100
AcDbEntity
  8
217
100
AcDbLine
 62
7
  6
CONTINUOUS
 10
-112.559315131
 20
12.7
 11
-112.559315131
 21
18.7
  0
LINE
  5
5A0
100
AcDbEntity
  8
217
100
AcDbLine
 62
7
  6
CONTINUOUS
 10
-111.109315131
 20
1.95
 11
-111.109315131
 21
-4.55
  0
LINE
  5
5A1
100
AcDbEntity
  8
217
100
AcDbLine
 62
7
  6
CONTINUOUS
 10
-110.709315131
 20
35.3775587028
 11
-110.709315131
 21
37.6471019058
  0
LINE
  5
5A2
100
AcDbEntity
  8
217
100
AcDbLine
 62
7
  6
CONTINUOUS
 10
-110.6058840084
 20
1.95
 11
-110.6058840084
 21
-4.55
  0
LINE
  5
5A3
100
AcDbEntity
  8
284
100
AcDbLine
 62
7
  6
CONTINUOUS
 10
-95.709315131
 20
-6.8
 11
-97.009315131
 21
-6.8
  0
LINE
  5
5A4
100
AcDbEntity
  8
RACCORDO
100
AcDbLine
 62
7
  6
CONTINUOUS
 10
-110.409315131
 20
-43.9912878475
 11
-110.409315131
 21
-42.8082173135
  0
LINE
  5
5A5
100
AcDbEntity
  8
217
100
AcDbLine
 62
7
  6
CONTINUOUS
 10
-110.409315131
 20
22.2320513645
 11
-110.409315131
 21
41.9
  0
LINE
  5
5A6
100
AcDbEntity
  8
284
100
AcDbLine
 62
7
  6
CONTINUOUS
 10
-110.409315131
 20
-42.8082173135
 11
-110.409315131
 21
22.2320513645
  0
LINE
  5
5A7
100
AcDbEntity
  8
284
100
AcDbLine
 62
7
  6
CONTINUOUS
 10
-110.409315131
 20
42.1679486355
 11
-110.409315131
 21
44.7
  0
LINE
  5
5A8
100
AcDbEntity
  8
RACCORDO
100
AcDbLine
 62
250
  6
CONTINUOUS
 10
-109.9136783987
 20
-43.9912542966
 11
-109.9136783987
 21
-42.834192534
  0
LINE
  5
5A9
100
AcDbEntity
  8
RACCORDO
100
AcDbLine
 62
250
  6
CONTINUOUS
 10
-107.9136783987
 20
-42.9390080925
 11
-107.9136783987
 21
-43.9912255795
  0
LINE
  5
5AA
100
AcDbEntity
  8
RACCORDO
100
AcDbLine
 62
7
  6
CONTINUOUS
 10
-107.409315131
 20
-42.9654406513
 11
-107.409315131
 21
-43.9912878475
  0
LINE
  5
5AB
100
AcDbEntity
  8
217
100
AcDbLine
 62
7
  6
CONTINUOUS
 10
-110.409315131
 20
-4.55
 11
-111.109315131
 21
-4.55
  0
LINE
  5
5AC
100
AcDbEntity
  8
217
100
AcDbLine
 62
7
  6
CONTINUOUS
 10
-104.509315131
 20
24.7802878243
 11
-104.509315131
 21
25.1167450984
  0
LWPOLYLINE
  5
5AD
100
AcDbEntity
  8
0
100
AcDbPolyline
 62
7
  6
CONTINUOUS
 90
4
 70
0
 43
0.3500000087
 10
-103.0021725525
 20
63.8785691406
 10
-103.0021725525
 20
64.735715271
 10
-102.5735994873
 20
65.1642883362
 10
-101.9307441528
 20
65.1642883362
  0
LINE
  5
5AE
100
AcDbEntity
  8
284
100
AcDbLine
 62
7
  6
CONTINUOUS
 10
-88.709315131
 20
11.2
 11
-95.709315131
 21
4.2
  0
LINE
  5
5AF
100
AcDbEntity
  8
217
100
AcDbLine
 62
7
  6
CONTINUOUS
 10
-110.409315131
 20
1.95
 11
-111.109315131
 21
1.95
  0
LINE
  5
5B0
100
AcDbEntity
  8
284
100
AcDbLine
 62
7
  6
CONTINUOUS
 10
-88.709315131
 20
-13.8
 11
-95.709315131
 21
-6.8
  0
LINE
  5
5B1
100
AcDbEntity
  8
284
100
AcDbLine
 62
7
  6
CONTINUOUS
 10
-95.709315131
 20
4.2
 11
-97.009315131
 21
4.2
  0
LWPOLYLINE
  5
5B2
100
AcDbEntity
  8
RACCORDO
100
AcDbPolyline
 62
7
  6
CONTINUOUS
 90
9
 70
0
 10
-97.0093198017
 20
42.0840785655
 10
-97.0097149849
 20
42.0976695862
 10
-97.0110549012
 20
42.111121508
 10
-97.0133167172
 20
42.1243704893
 10
-97.0164771835
 20
42.1373685471
 10
-97.0205036044
 20
42.1500435134
 10
-97.0253452041
 20
42.1623023721
 10
-97.0309622259
 20
42.1741073681
 10
-97.0373032879
 20
42.1854038204
  0
LINE
  5
5B3
100
AcDbEntity
  8
RACCORDO
100
AcDbLine
 62
7
  6
CONTINUOUS
 10
-97.0093990713
 20
-41.066139163
 11
-97.0093687244
 21
-41.0712341712
  0
LINE
  5
5B4
100
AcDbEntity
  8
RACCORDO
100
AcDbLine
 62
7
  6
CONTINUOUS
 10
-97.0092661374
 20
42.0708693601
 11
-97.0093404475
 21
42.0833355038
  0
LWPOLYLINE
  5
5B5
100
AcDbEntity
  8
RACCORDO
100
AcDbPolyline
 62
7
  6
CONTINUOUS
 90
3
 70
0
 10
-97.0093073233
 20
-41.0419936462
 10
-97.0094295471
 20
-41.019843705
 10
-97.0093497932
 20
41.9744777438
  0
LINE
  5
5B6
100
AcDbEntity
  8
RACCORDO
100
AcDbLine
 62
7
  6
CONTINUOUS
 10
-97.0093029427
 20
42.0519425749
 11
-97.0093823796
 21
42.0673140622
  0
LINE
  5
5B7
100
AcDbEntity
  8
RACCORDO
100
AcDbLine
 62
7
  6
CONTINUOUS
 10
-97.0093424118
 20
41.966522906
 11
-97.0094350571
 21
42.0176683943
  0
LINE
  5
5B8
100
AcDbEntity
  8
284
100
AcDbLine
 62
7
  6
CONTINUOUS
 10
-97.209315131
 20
44.7
 11
-97.209315131
 21
-43.5
  0
LINE
  5
5B9
100
AcDbEntity
  8
284
100
AcDbLine
 62
7
  6
CONTINUOUS
 10
-95.709315131
 20
4.2
 11
-95.709315131
 21
-6.8
  0
LINE
  5
5BA
100
AcDbEntity
  8
284
100
AcDbLine
 62
250
  6
CONTINUOUS
 10
-94.8313501975
 20
5.0779649334
 11
-94.8313501975
 21
-7.6779649335
  0
LINE
  5
5BB
100
AcDbEntity
  8
284
100
AcDbLine
 62
7
  6
CONTINUOUS
 10
-94.7727715538
 20
5.136496968
 11
-94.7727715538
 21
-7.7365435772
  0
LINE
  5
5BC
100
AcDbEntity
  8
RACCORDO
100
AcDbLine
 62
7
  6
CONTINUOUS
 10
-97.0093238066
 20
42.0794111755
 11
-97.0093153036
 21
42.0841862028
  0
LINE
  5
5BD
100
AcDbEntity
  8
RACCORDO
100
AcDbLine
 62
7
  6
CONTINUOUS
 10
-97.0093401704
 20
-41.083444574
 11
-97.0092923415
 21
-41.0712346086
  0
LINE
  5
5BE
100
AcDbEntity
  8
RACCORDO
100
AcDbLine
 62
7
  6
CONTINUOUS
 10
-97.0093990713
 20
-41.066139163
 11
-97.0093073233
 21
-41.0419936462
  0
LINE
  5
5BF
100
AcDbEntity
  8
RACCORDO
100
AcDbLine
 62
7
  6
CONTINUOUS
 10
-97.0094091259
 20
42.0085869242
 11
-97.0093029427
 21
42.0519425749
  0
LINE
  5
5C0
100
AcDbEntity
  8
RACCORDO
100
AcDbLine
 62
7
  6
CONTINUOUS
 10
-97.009335832
 20
-41.0814502522
 11
-97.009266086
 21
-41.070858449
  0
LINE
  5
5C1
100
AcDbEntity
  8
RACCORDO
100
AcDbLine
 62
7
  6
CONTINUOUS
 10
-97.0094021566
 20
42.0656521503
 11
-97.0093608544
 21
42.0709645492
  0
LINE
  5
5C2
100
AcDbEntity
  8
217
100
AcDbLine
 62
7
  6
CONTINUOUS
 10
-109.470632757
 20
41.7937210509
 11
-109.509315131
 21
41.9
  0
LINE
  5
5C3
100
AcDbEntity
  8
217
100
AcDbLine
 62
7
  6
CONTINUOUS
 10
-110.409315131
 20
12.7
 11
-115.4603871132
 21
12.7
  0
LWPOLYLINE
  5
5C4
100
AcDbEntity
  8
284
100
AcDbPolyline
 62
7
  6
CONTINUOUS
 90
5
 70
0
 10
-88.714972903
 20
-26.5086546201
 10
-88.7152437065
 20
-26.5059505865
 10
-88.7155686395
 20
-26.4999283023
 10
-88.7155553779
 20
-26.4931453568
 10
-88.7151424901
 20
-26.4854099482
  0
LWPOLYLINE
  5
5C5
100
AcDbEntity
  8
284
100
AcDbPolyline
 62
7
  6
CONTINUOUS
 90
5
 70
0
 10
-88.7092121372
 20
23.7322189601
 10
-88.7093189121
 20
23.7532768037
 10
-88.7105459895
 20
23.8084526113
 10
-88.7133427913
 20
23.8623182058
 10
-88.7150545351
 20
23.8847378244
  0
LINE
  5
5C6
100
AcDbEntity
  8
284
100
AcDbLine
 62
250
  6
CONTINUOUS
 10
-89.009315131
 20
24.7
 11
-89.009315131
 21
24.2124910059
  0
LINE
  5
5C7
100
AcDbEntity
  8
284
100
AcDbLine
 62
250
  6
CONTINUOUS
 10
-89.009315131
 20
23.8603845385
 11
-89.009315131
 21
22.45
  0
LINE
  5
5C8
100
AcDbEntity
  8
284
100
AcDbLine
 62
7
  6
CONTINUOUS
 10
-89.009315131
 20
22.45
 11
-89.009315131
 21
16.85
  0
LINE
  5
5C9
100
AcDbEntity
  8
284
100
AcDbLine
 62
250
  6
CONTINUOUS
 10
-89.009315131
 20
16.85
 11
-89.009315131
 21
10.9
  0
LINE
  5
5CA
100
AcDbEntity
  8
284
100
AcDbLine
 62
250
  6
CONTINUOUS
 10
-89.009315131
 20
-13.5
 11
-89.009315131
 21
-19.45
  0
LINE
  5
5CB
100
AcDbEntity
  8
284
100
AcDbLine
 62
7
  6
CONTINUOUS
 10
-89.009315131
 20
-19.45
 11
-89.009315131
 21
-25.05
  0
LINE
  5
5CC
100
AcDbEntity
  8
284
100
AcDbLine
 62
250
  6
CONTINUOUS
 10
-89.009315131
 20
-25.05
 11
-89.009315131
 21
-26.4603845386
  0
LINE
  5
5CD
100
AcDbEntity
  8
284
100
AcDbLine
 62
250
  6
CONTINUOUS
 10
-89.009315131
 20
-26.8124910059
 11
-89.009315131
 21
-27.3
  0
LINE
  5
5CE
100
AcDbEntity
  8
284
100
AcDbLine
 62
7
  6
CONTINUOUS
 10
-88.709315131
 20
24.4
 11
-88.709315131
 21
24.0099928047
  0
LINE
  5
5CF
100
AcDbEntity
  8
284
100
AcDbLine
 62
7
  6
CONTINUOUS
 10
-88.7093187019
 20
23.7317248325
 11
-88.709315131
 21
11.2
  0
LINE
  5
5D0
100
AcDbEntity
  8
284
100
AcDbLine
 62
7
  6
CONTINUOUS
 10
-88.709315131
 20
-26.6099928047
 11
-88.709315131
 21
-27.0
  0
LINE
  5
5D1
100
AcDbEntity
  8
284
100
AcDbLine
 62
7
  6
CONTINUOUS
 10
-88.7094181557
 20
-26.3517998466
 11
-88.709315131
 21
-13.8
  0
LINE
  5
5D2
100
AcDbEntity
  8
284
100
AcDbLine
 62
7
  6
CONTINUOUS
 10
-88.7150090278
 20
23.9089014914
 11
-88.7150256444
 21
23.9087540916
  0
LINE
  5
5D3
100
AcDbEntity
  8
284
100
AcDbLine
 62
7
  6
CONTINUOUS
 10
-88.7150306212
 20
23.8844491376
 11
-88.7150545351
 21
23.8847378244
  0
LWPOLYLINE
  5
5D4
100
AcDbEntity
  8
284
100
AcDbPolyline
 62
7
  6
CONTINUOUS
 90
5
 70
0
 10
-88.7150312256
 20
23.8844526926
 10
-88.7155303671
 20
23.893681165
 10
-88.7155011519
 20
23.9011953021
 10
-88.7150948882
 20
23.9075613052
 10
-88.7149656647
 20
23.9088068809
  0
LWPOLYLINE
  5
5D5
100
AcDbEntity
  8
284
100
AcDbPolyline
 62
7
  6
CONTINUOUS
 90
4
 70
0
 10
-88.7150383575
 20
-26.4846974769
 10
-88.7132082531
 20
-26.4601201981
 10
-88.7105588583
 20
-26.4064952269
 10
-88.7094181557
 20
-26.3517998466
  0
LINE
  5
5D6
100
AcDbEntity
  8
284
100
AcDbLine
 62
7
  6
CONTINUOUS
 10
-88.7150758134
 20
-26.4845761564
 11
-88.7150854963
 21
-26.4846927017
  0
LINE
  5
5D7
100
AcDbEntity
  8
284
100
AcDbLine
 62
7
  6
CONTINUOUS
 10
-89.009315131
 20
16.85
 11
-97.009315131
 21
16.85
  0
LINE
  5
5D8
100
AcDbEntity
  8
217
100
AcDbLine
 62
7
  6
CONTINUOUS
 10
-110.409315131
 20
18.7
 11
-115.3602138324
 21
18.7
  0
LINE
  5
5D9
100
AcDbEntity
  8
RACCORDO
100
AcDbLine
 62
250
  6
CONTINUOUS
 10
-118.9477122979
 20
20.5543042389
 11
-115.3243081869
 21
20.5859252076
  0
LINE
  5
5DA
100
AcDbEntity
  8
RACCORDO
100
AcDbLine
 62
7
  6
CONTINUOUS
 10
-118.9735381089
 20
21.054059822
 11
-115.3185668107
 21
21.0859562733
  0
LINE
  5
5DB
100
AcDbEntity
  8
284
100
AcDbLine
 62
7
  6
CONTINUOUS
 10
-89.009315131
 20
22.45
 11
-97.009315131
 21
22.45
  0
LINE
  5
5DC
100
AcDbEntity
  8
RACCORDO
100
AcDbLine
 62
250
  6
CONTINUOUS
 10
-118.9992819099
 20
20.5554237418
 11
-118.9477122979
 21
20.5543042389
  0
LWPOLYLINE
  5
5DD
100
AcDbEntity
  8
0
100
AcDbPolyline
 62
7
  6
CONTINUOUS
 90
10
 70
0
 43
0.3500000087
 10
-107.8950320374
 20
53.9500038513
 10
-107.8236046143
 20
53.8071404785
 10
-107.8236046143
 20
53.7357130554
 10
-107.9664594604
 20
53.5928582092
 10
-108.0378868835
 20
53.5928582092
 10
-108.1093143066
 20
53.6642856323
 10
-108.1093143066
 20
53.7357130554
 10
-108.0378868835
 20
53.8785679016
 10
-107.9664594604
 20
53.9500038513
 10
-107.8950320374
 20
53.9500038513
  0
LINE
  5
5DE
100
AcDbEntity
  8
284
100
AcDbLine
 62
250
  6
CONTINUOUS
 10
-88.709315131
 20
23.2
 11
-97.009315131
 21
23.2
  0
LINE
  5
5DF
100
AcDbEntity
  8
284
100
AcDbLine
 62
7
  6
CONTINUOUS
 10
-89.009315131
 20
24.7
 11
-97.009315131
 21
24.7
  0
LINE
  5
5E0
100
AcDbEntity
  8
284
100
AcDbLine
 62
250
  6
CONTINUOUS
 10
-102.9891375606
 20
26.9606673668
 11
-102.6901173442
 21
26.9632768767
  0
LINE
  5
5E1
100
AcDbEntity
  8
284
100
AcDbLine
 62
7
  6
CONTINUOUS
 10
-102.6895599257
 20
27.4632627027
 11
-102.4009569795
 21
27.4657813025
  0
LINE
  5
5E2
100
AcDbEntity
  8
284
100
AcDbLine
 62
7
  6
CONTINUOUS
 10
-101.860652125
 20
28.65
 11
-102.1136698033
 21
28.6946138433
  0
LWPOLYLINE
  5
5E3
100
AcDbEntity
  8
RACCORDO
100
AcDbPolyline
 62
7
  6
CONTINUOUS
 90
5
 70
0
 10
-97.0373032879
 20
42.1854038204
 10
-97.0442754275
 20
42.1960903557
 10
-97.0518161195
 20
42.2061416411
 10
-97.0598629087
 20
42.2155376476
 10
-97.0682990129
 20
42.224210694
  0
LWPOLYLINE
  5
5E4
100
AcDbEntity
  8
0
100
AcDbPolyline
 62
7
  6
CONTINUOUS
 90
10
 70
0
 43
0.3500000087
 10
-104.0736009521
 20
63.9499965637
 10
-104.0021735291
 20
63.8071417175
 10
-104.0021735291
 20
63.7357142944
 10
-104.1450283752
 20
63.5928594482
 10
-104.2164557983
 20
63.5928594482
 10
-104.2878832214
 20
63.6642868713
 10
-104.2878832214
 20
63.7357142944
 10
-104.2164557983
 20
63.8785691406
 10
-104.1450283752
 20
63.9499965637
 10
-104.0736009521
 20
63.9499965637
  0
LINE
  5
5E5
100
AcDbEntity
  8
217
100
AcDbLine
 62
250
  6
CONTINUOUS
 10
-110.709315131
 20
36.6470432028
 11
-110.409315131
 21
36.6999412971
  0
LINE
  5
5E6
100
AcDbEntity
  8
217
100
AcDbLine
 62
7
  6
CONTINUOUS
 10
-110.709315131
 20
37.6471019058
 11
-110.409315131
 21
37.7
  0
LINE
  5
5E7
100
AcDbEntity
  8
217
100
AcDbLine
 62
250
  6
CONTINUOUS
 10
-113.7041846104
 20
35.1155415746
 11
-110.709315131
 21
35.3775587028
  0
LINE
  5
5E8
100
AcDbEntity
  8
217
100
AcDbLine
 62
7
  6
CONTINUOUS
 10
-113.7128922296
 20
36.1109744548
 11
-110.709315131
 21
36.3737534009
  0
LWPOLYLINE
  5
5E9
100
AcDbEntity
  8
RACCORDO
100
AcDbPolyline
 62
7
  6
CONTINUOUS
 90
5
 70
0
 10
-97.0682990129
 20
42.224210694
 10
-97.0770568575
 20
42.2321641004
 10
-97.0860681615
 20
42.2394028926
 10
-97.0951991634
 20
42.2458917781
 10
-97.1016858698
 20
42.2499644655
  0
LINE
  5
5EA
100
AcDbEntity
  8
RACCORDO
100
AcDbLine
 62
7
  6
CONTINUOUS
 10
-107.702036211
 20
-44.4462993302
 11
-107.709315131
 21
-44.449545417
  0
LINE
  5
5EB
100
AcDbEntity
  8
RACCORDO
100
AcDbLine
 62
250
  6
CONTINUOUS
 10
-97.009315131
 20
41.6219254413
 11
-97.1689404778
 21
41.6218311802
  0
LINE
  5
5EC
100
AcDbEntity
  8
217
100
AcDbLine
 62
7
  6
CONTINUOUS
 10
-109.509315131
 20
41.9
 11
-110.409315131
 21
41.9
  0
LINE
  5
5ED
100
AcDbEntity
  8
284
100
AcDbLine
 62
7
  6
CONTINUOUS
 10
-97.209315131
 20
44.7
 11
-110.409315131
 21
44.7
  0
LWPOLYLINE
  5
5EE
100
AcDbEntity
  8
0
100
AcDbPolyline
 62
7
  6
CONTINUOUS
 90
6
 70
0
 43
0.3500000087
 10
-110.6807441711
 20
53.450003363
 10
-109.6093157715
 20
53.450003363
 10
-109.3950335022
 20
53.6642856323
 10
-109.3950335022
 20
54.735714032
 10
-109.8235980408
 20
55.1642870972
 10
-110.252171106
 20
55.1642870972
  0
LWPOLYLINE
  5
5EF
100
AcDbEntity
  8
0
100
AcDbPolyline
 62
7
  6
CONTINUOUS
 90
6
 70
0
 43
0.3500000087
 10
-106.8236036377
 20
53.450003363
 10
-105.752175238
 20
53.450003363
 10
-105.5378844421
 20
53.6642856323
 10
-105.5378844421
 20
54.735714032
 10
-105.9664575073
 20
55.1642870972
 10
-106.3950305725
 20
55.1642870972
  0
LWPOLYLINE
  5
5F0
100
AcDbEntity
  8
0
100
AcDbPolyline
 62
7
  6
CONTINUOUS
 90
7
 70
0
 43
0.3500000087
 10
-111.5378903015
 20
53.450003363
 10
-113.0378832397
 20
53.450003363
 10
-111.5378903015
 20
55.5928601624
 10
-111.5378903015
 20
56.0214247009
 10
-111.9664548401
 20
56.4499977661
 10
-112.6093187012
 20
56.4499977661
 10
-113.0378832397
 20
55.8071424316
  0
LWPOLYLINE
  5
5F1
100
AcDbEntity
  8
0
100
AcDbPolyline
 62
7
  6
CONTINUOUS
 90
6
 70
0
 43
0.3500000087
 10
-108.5735968201
 20
63.4499960754
 10
-107.5021684204
 20
63.4499960754
 10
-107.2878861511
 20
63.6642868713
 10
-107.2878861511
 20
64.735715271
 10
-107.7164592163
 20
65.1642883362
 10
-108.1450322815
 20
65.1642883362
  0
LWPOLYLINE
  5
5F2
100
AcDbEntity
  8
0
100
AcDbPolyline
 62
7
  6
CONTINUOUS
 90
13
 70
0
 43
0.3500000087
 10
-102.5735994873
 20
65.1642883362
 10
-102.8593177063
 20
65.3785706055
 10
-102.8593177063
 20
66.0214259399
 10
-102.5735994873
 20
66.4499990051
 10
-101.9307441528
 20
66.4499990051
 10
-101.6450259338
 20
66.0214259399
 10
-101.6450259338
 20
65.3785706055
 10
-101.9307441528
 20
65.1642883362
 10
-101.5021710876
 20
64.735715271
 10
-101.5021710876
 20
63.8785691406
 10
-101.9307441528
 20
63.4499960754
 10
-102.5735994873
 20
63.4499960754
 10
-103.0021725525
 20
63.8785691406
  0
ARC
  5
5F3
100
AcDbEntity
  8
217
100
AcDbCircle
 62
7
  6
CONTINUOUS
 10
-402.187509709
 20
-24.05
 40
347.8876821785
100
AcDbArc
 50
359.9429475531
 51
0.0570524469
  0
ARC
  5
5F4
100
AcDbEntity
  8
217
100
AcDbCircle
 62
7
  6
CONTINUOUS
 10
-267.8787894629
 20
-12.05
 40
213.5790703895
100
AcDbArc
 50
359.9070702532
 51
0.0929297468
  0
ARC
  5
5F5
100
AcDbEntity
  8
RACCORDO
100
AcDbCircle
 62
250
  6
CONTINUOUS
 10
-11.0356280049
 20
-43.6707254354
 40
16.0606053127
100
AcDbArc
 50
358.7011390256
 51
358.8565484144
  0
ARC
  5
5F6
100
AcDbEntity
  8
RACCORDO
100
AcDbCircle
 62
250
  6
CONTINUOUS
 10
-21.0570951795
 20
-43.6708244437
 40
16.0559670347
100
AcDbArc
 50
358.7011293311
 51
358.8565629062
  0
CIRCLE
  5
5F7
100
AcDbEntity
  8
217
100
AcDbCircle
 62
7
  6
CONTINUOUS
 10
-45.0
 20
-23.3
 40
3.5
  0
CIRCLE
  5
5F8
100
AcDbEntity
  8
217
100
AcDbCircle
 62
250
  6
CONTINUOUS
 10
-45.0
 20
-23.3
 40
2.9999933786
  0
ARC
  5
5F9
100
AcDbEntity
  8
217
100
AcDbCircle
 62
7
  6
CONTINUOUS
 10
-53.4000061177
 20
-26.8921882968
 40
0.9078253743
100
AcDbArc
 50
208.0065242132
 51
0.0078231889
  0
ARC
  5
5FA
100
AcDbEntity
  8
217
100
AcDbCircle
 62
7
  6
CONTINUOUS
 10
-22.8880739974
 20
-32.9629599261
 40
0.5104875785
100
AcDbArc
 50
171.2571806246
 51
179.8094106301
  0
ARC
  5
5FB
100
AcDbEntity
  8
RACCORDO
100
AcDbCircle
 62
250
  6
CONTINUOUS
 10
-38.4910866542
 20
-24.641459398
 40
0.5002985691
100
AcDbArc
 50
194.994565986
 51
209.9810078068
  0
ARC
  5
5FC
100
AcDbEntity
  8
RACCORDO
100
AcDbCircle
 62
250
  6
CONTINUOUS
 10
-38.5948884399
 20
-24.7446778221
 40
0.5002190699
100
AcDbArc
 50
238.3740179386
 51
245.5073808869
  0
ARC
  5
5FD
100
AcDbEntity
  8
RACCORDO
100
AcDbCircle
 62
250
  6
CONTINUOUS
 10
-36.8542582761
 20
-23.1542582762
 40
0.5000269264
100
AcDbArc
 50
180.0052666625
 51
269.9947333375
  0
ARC
  5
5FE
100
AcDbEntity
  8
RACCORDO
100
AcDbCircle
 62
250
  6
CONTINUOUS
 10
-36.8974628066
 20
-23.1974628067
 40
0.4999409456
100
AcDbArc
 50
179.995532485
 51
270.0044675149
  0
ARC
  5
5FF
100
AcDbEntity
  8
RACCORDO
100
AcDbCircle
 62
250
  6
CONTINUOUS
 10
-36.852628252
 20
-23.1542396308
 40
0.4998528196
100
AcDbArc
 50
180.1357226305
 51
269.9099859012
  0
ARC
  5
600
100
AcDbEntity
  8
217
100
AcDbCircle
 62
7
  6
CONTINUOUS
 10
-54.5
 20
-12.05
 40
0.4
100
AcDbArc
 50
299.4418120378
 51
60.5232195165
  0
ARC
  5
601
100
AcDbEntity
  8
217
100
AcDbCircle
 62
7
  6
CONTINUOUS
 10
-54.5
 20
-24.05
 40
0.4
100
AcDbArc
 50
298.8421787602
 51
61.1227798278
  0
ARC
  5
602
100
AcDbEntity
  8
217
100
AcDbCircle
 62
7
  6
CONTINUOUS
 10
-10.15
 20
-32.0
 40
0.3
100
AcDbArc
 50
0.0
 51
90.0
  0
ARC
  5
603
100
AcDbEntity
  8
217
100
AcDbCircle
 62
7
  6
CONTINUOUS
 10
-10.15
 20
-35.0
 40
0.3
100
AcDbArc
 50
270.0
 51
360.0
  0
ARC
  5
604
100
AcDbEntity
  8
217
100
AcDbCircle
 62
250
  6
CONTINUOUS
 10
-4737.4861667684
 20
-1.1297033138
 40
4778.4861215658
100
AcDbArc
 50
0.0188841489
 51
0.2641450505
  0
ARC
  5
605
100
AcDbEntity
  8
217
100
AcDbCircle
 62
250
  6
CONTINUOUS
 10
-4737.4856374017
 20
-1.4703027838
 40
4778.4855921971
100
AcDbArc
 50
359.7358549934
 51
359.9811159221
  0
ARC
  5
606
100
AcDbEntity
  8
217
100
AcDbCircle
 62
250
  6
CONTINUOUS
 10
-1181.3508222944
 20
-1.3
 40
1125.6933843225
100
AcDbArc
 50
359.9125027837
 51
0.0874972163
  0
ARC
  5
607
100
AcDbEntity
  8
217
100
AcDbCircle
 62
7
  6
CONTINUOUS
 10
-402.187509709
 20
21.45
 40
347.8876821785
100
AcDbArc
 50
359.9429475531
 51
0.0570524469
  0
ARC
  5
608
100
AcDbEntity
  8
217
100
AcDbCircle
 62
7
  6
CONTINUOUS
 10
-267.8787894629
 20
9.45
 40
213.5790703895
100
AcDbArc
 50
359.9070702532
 51
0.0929297468
  0
CIRCLE
  5
609
100
AcDbEntity
  8
217
100
AcDbCircle
 62
7
  6
CONTINUOUS
 10
-45.0
 20
20.7
 40
3.5
  0
CIRCLE
  5
60A
100
AcDbEntity
  8
217
100
AcDbCircle
 62
250
  6
CONTINUOUS
 10
-45.0
 20
20.7
 40
2.9999933786
  0
ARC
  5
60B
100
AcDbEntity
  8
217
100
AcDbCircle
 62
7
  6
CONTINUOUS
 10
-53.4000000967
 20
24.2653660868
 40
0.9077892922
100
AcDbArc
 50
359.9825663847
 51
151.9939798312
  0
ARC
  5
60C
100
AcDbEntity
  8
217
100
AcDbCircle
 62
7
  6
CONTINUOUS
 10
-53.3999814173
 20
-9.7025356798
 40
0.9024843697
100
AcDbArc
 50
359.9897200295
 51
149.0462776533
  0
ARC
  5
60D
100
AcDbEntity
  8
217
100
AcDbCircle
 62
7
  6
CONTINUOUS
 10
-53.39998134
 20
7.1025355242
 40
0.9024842952
100
AcDbArc
 50
210.9537113579
 51
0.0102898429
  0
ARC
  5
60E
100
AcDbEntity
  8
RACCORDO
100
AcDbCircle
 62
250
  6
CONTINUOUS
 10
-36.8960564341
 20
20.5972590408
 40
0.8013420915
100
AcDbArc
 50
168.3599403528
 51
177.1512222232
  0
ARC
  5
60F
100
AcDbEntity
  8
RACCORDO
100
AcDbCircle
 62
250
  6
CONTINUOUS
 10
-36.8974274382
 20
20.5974282033
 40
0.7999651598
100
AcDbArc
 50
89.9997411913
 51
168.3519949471
  0
ARC
  5
610
100
AcDbEntity
  8
RACCORDO
100
AcDbCircle
 62
250
  6
CONTINUOUS
 10
-36.8983518489
 20
20.5974200151
 40
0.7990415143
100
AcDbArc
 50
177.1545703839
 51
179.9997268323
  0
CIRCLE
  5
611
100
AcDbEntity
  8
217
100
AcDbCircle
 62
7
  6
CONTINUOUS
 10
-59.0
 20
24.3
 40
0.7
  0
ARC
  5
612
100
AcDbEntity
  8
RACCORDO
100
AcDbCircle
 62
250
  6
CONTINUOUS
 10
-38.4893627744
 20
22.0399437156
 40
0.5025493901
100
AcDbArc
 50
142.5073293873
 51
149.9675397295
  0
ARC
  5
613
100
AcDbEntity
  8
RACCORDO
100
AcDbCircle
 62
250
  6
CONTINUOUS
 10
-36.8974075313
 20
20.5967883499
 40
0.5006164366
100
AcDbArc
 50
90.0018647915
 51
97.6443507889
  0
ARC
  5
614
100
AcDbEntity
  8
RACCORDO
100
AcDbCircle
 62
250
  6
CONTINUOUS
 10
-38.4910867019
 20
22.0414594178
 40
0.5002985209
100
AcDbArc
 50
150.0190061883
 51
165.0054415297
  0
ARC
  5
615
100
AcDbEntity
  8
RACCORDO
100
AcDbCircle
 62
250
  6
CONTINUOUS
 10
-36.8542582759
 20
20.5542582759
 40
0.5000269267
100
AcDbArc
 50
90.0052666909
 51
179.9947333087
  0
ARC
  5
616
100
AcDbEntity
  8
RACCORDO
100
AcDbCircle
 62
250
  6
CONTINUOUS
 10
-36.8527905743
 20
20.5539677396
 40
0.4995900288
100
AcDbArc
 50
90.0714328243
 51
179.8330580415
  0
ARC
  5
617
100
AcDbEntity
  8
217
100
AcDbCircle
 62
7
  6
CONTINUOUS
 10
-54.5
 20
9.45
 40
0.4
100
AcDbArc
 50
299.4767804835
 51
60.5581879622
  0
ARC
  5
618
100
AcDbEntity
  8
217
100
AcDbCircle
 62
7
  6
CONTINUOUS
 10
-54.5
 20
21.45
 40
0.4
100
AcDbArc
 50
298.8772201722
 51
61.1578212398
  0
CIRCLE
  5
619
100
AcDbEntity
  8
217
100
AcDbCircle
 62
250
  6
CONTINUOUS
 10
-59.0
 20
24.3
 40
0.1999973377
  0
ARC
  5
61A
100
AcDbEntity
  8
217
100
AcDbCircle
 62
7
  6
CONTINUOUS
 10
402.187509693
 20
-24.05
 40
347.8876821625
100
AcDbArc
 50
179.9429475531
 51
180.0570524469
  0
ARC
  5
61B
100
AcDbEntity
  8
217
100
AcDbCircle
 62
7
  6
CONTINUOUS
 10
267.878789469
 20
-12.05
 40
213.5790703955
100
AcDbArc
 50
179.9070702532
 51
180.0929297468
  0
ARC
  5
61C
100
AcDbEntity
  8
RACCORDO
100
AcDbCircle
 62
250
  6
CONTINUOUS
 10
10.1376727038
 20
-43.6898510966
 40
15.1624477144
100
AcDbArc
 50
181.1390037287
 51
181.3034838245
  0
ARC
  5
61D
100
AcDbEntity
  8
RACCORDO
100
AcDbCircle
 62
250
  6
CONTINUOUS
 10
20.1585045271
 20
-43.689963015
 40
15.1571739707
100
AcDbArc
 50
181.1389890954
 51
181.3035183194
  0
CIRCLE
  5
61E
100
AcDbEntity
  8
217
100
AcDbCircle
 62
7
  6
CONTINUOUS
 10
45.0
 20
-23.3
 40
3.5
  0
CIRCLE
  5
61F
100
AcDbEntity
  8
217
100
AcDbCircle
 62
250
  6
CONTINUOUS
 10
45.0
 20
-23.3
 40
2.9999933786
  0
ARC
  5
620
100
AcDbEntity
  8
217
100
AcDbCircle
 62
7
  6
CONTINUOUS
 10
53.4000066331
 20
-26.8921874506
 40
0.9078257628
100
AcDbArc
 50
179.9922302271
 51
331.9934133584
  0
ARC
  5
621
100
AcDbEntity
  8
RACCORDO
100
AcDbCircle
 62
250
  6
CONTINUOUS
 10
36.8960564341
 20
-23.1972590408
 40
0.8013420915
100
AcDbArc
 50
348.3599403528
 51
357.1512222232
  0
ARC
  5
622
100
AcDbEntity
  8
RACCORDO
100
AcDbCircle
 62
250
  6
CONTINUOUS
 10
36.8974274382
 20
-23.1974282034
 40
0.7999651598
100
AcDbArc
 50
269.9997411913
 51
348.3519949471
  0
ARC
  5
623
100
AcDbEntity
  8
RACCORDO
100
AcDbCircle
 62
250
  6
CONTINUOUS
 10
36.8983518489
 20
-23.1974200152
 40
0.7990415143
100
AcDbArc
 50
357.1545703839
 51
359.9997268323
  0
ARC
  5
624
100
AcDbEntity
  8
RACCORDO
100
AcDbCircle
 62
250
  6
CONTINUOUS
 10
38.4893627735
 20
-24.6399437155
 40
0.5025493911
100
AcDbArc
 50
322.5073305319
 51
329.9675405992
  0
ARC
  5
625
100
AcDbEntity
  8
RACCORDO
100
AcDbCircle
 62
250
  6
CONTINUOUS
 10
36.8974075313
 20
-23.1967883499
 40
0.5006164366
100
AcDbArc
 50
270.0018647915
 51
277.6443507888
  0
ARC
  5
626
100
AcDbEntity
  8
RACCORDO
100
AcDbCircle
 62
250
  6
CONTINUOUS
 10
38.4910867015
 20
-24.6414594179
 40
0.5002985213
100
AcDbArc
 50
330.0190070541
 51
345.0054419286
  0
ARC
  5
627
100
AcDbEntity
  8
RACCORDO
100
AcDbCircle
 62
250
  6
CONTINUOUS
 10
36.8542582759
 20
-23.1542582759
 40
0.5000269267
100
AcDbArc
 50
270.0052666909
 51
359.9947333087
  0
ARC
  5
628
100
AcDbEntity
  8
RACCORDO
100
AcDbCircle
 62
7
  6
CONTINUOUS
 10
4.5217981303
 20
-43.9912878475
 40
0.5
100
AcDbArc
 50
358.8544030929
 51
360.0
  0
ARC
  5
629
100
AcDbEntity
  8
RACCORDO
100
AcDbCircle
 62
250
  6
CONTINUOUS
 10
36.8527923607
 20
-23.1539681745
 40
0.4995907365
100
AcDbArc
 50
270.0712237884
 51
359.8331073456
  0
ARC
  5
62A
100
AcDbEntity
  8
217
100
AcDbCircle
 62
7
  6
CONTINUOUS
 10
54.5
 20
-12.05
 40
0.4
100
AcDbArc
 50
119.4767804835
 51
240.5581879622
  0
ARC
  5
62B
100
AcDbEntity
  8
217
100
AcDbCircle
 62
7
  6
CONTINUOUS
 10
54.5
 20
-24.05
 40
0.4
100
AcDbArc
 50
118.8772201722
 51
241.1578212398
  0
ARC
  5
62C
100
AcDbEntity
  8
217
100
AcDbCircle
 62
7
  6
CONTINUOUS
 10
10.15
 20
-35.0
 40
0.3
100
AcDbArc
 50
180.0
 51
270.0
  0
ARC
  5
62D
100
AcDbEntity
  8
217
100
AcDbCircle
 62
7
  6
CONTINUOUS
 10
10.15
 20
-32.0
 40
0.3
100
AcDbArc
 50
90.0
 51
180.0
  0
ARC
  5
62E
100
AcDbEntity
  8
0
100
AcDbCircle
 62
250
  6
CONTINUOUS
 10
1.4396025926
 20
-34.9812524685
 40
0.1720637913
100
AcDbArc
 50
71.3653771605
 51
71.9903279948
  0
ARC
  5
62F
100
AcDbEntity
  8
0
100
AcDbCircle
 62
250
  6
CONTINUOUS
 10
1.439615432
 20
-37.1630320325
 40
0.1720230952
100
AcDbArc
 50
71.3731300236
 51
72.0364598194
  0
ARC
  5
630
100
AcDbEntity
  8
217
100
AcDbCircle
 62
250
  6
CONTINUOUS
 10
4737.4860761833
 20
-1.1297022669
 40
4778.4860309803
100
AcDbArc
 50
179.735854957
 51
179.9811158633
  0
ARC
  5
631
100
AcDbEntity
  8
217
100
AcDbCircle
 62
250
  6
CONTINUOUS
 10
4737.4855418516
 20
-1.4703038797
 40
4778.4854966467
100
AcDbArc
 50
180.0188840651
 51
180.2641449988
  0
ARC
  5
632
100
AcDbEntity
  8
217
100
AcDbCircle
 62
250
  6
CONTINUOUS
 10
1181.3508223078
 20
-1.3
 40
1125.6933843359
100
AcDbArc
 50
179.9125027837
 51
180.0874972163
  0
ARC
  5
633
100
AcDbEntity
  8
217
100
AcDbCircle
 62
7
  6
CONTINUOUS
 10
402.187509693
 20
21.45
 40
347.8876821625
100
AcDbArc
 50
179.9429475531
 51
180.0570524469
  0
ARC
  5
634
100
AcDbEntity
  8
217
100
AcDbCircle
 62
7
  6
CONTINUOUS
 10
267.8787894629
 20
9.45
 40
213.5790703895
100
AcDbArc
 50
179.9070702532
 51
180.0929297468
  0
CIRCLE
  5
635
100
AcDbEntity
  8
217
100
AcDbCircle
 62
7
  6
CONTINUOUS
 10
45.0
 20
20.7
 40
3.5
  0
CIRCLE
  5
636
100
AcDbEntity
  8
217
100
AcDbCircle
 62
250
  6
CONTINUOUS
 10
45.0
 20
20.7
 40
2.9999933786
  0
ARC
  5
637
100
AcDbEntity
  8
217
100
AcDbCircle
 62
7
  6
CONTINUOUS
 10
47.0
 20
12.7
 40
2.9735749324
100
AcDbArc
 50
292.0885434728
 51
273.4298223208
  0
ARC
  5
638
100
AcDbEntity
  8
217
100
AcDbCircle
 62
7
  6
CONTINUOUS
 10
46.910062
 20
7.094428
 40
2.6508884458
100
AcDbArc
 50
47.2312789315
 51
84.2011738916
  0
ARC
  5
639
100
AcDbEntity
  8
217
100
AcDbCircle
 62
7
  6
CONTINUOUS
 10
47.118685
 20
7.523813
 40
2.6190759282
100
AcDbArc
 50
45.4348969444
 51
67.5658550007
  0
CIRCLE
  5
63A
100
AcDbEntity
  8
217
100
AcDbCircle
 62
7
  6
CONTINUOUS
 10
47.0
 20
12.7
 40
2.497595
  0
ARC
  5
63B
100
AcDbEntity
  8
217
100
AcDbCircle
 62
7
  6
CONTINUOUS
 10
47.0
 20
12.7
 40
2.2337503191
100
AcDbArc
 50
299.3041411838
 51
44.9957558874
  0
ARC
  5
63C
100
AcDbEntity
  8
217
100
AcDbCircle
 62
7
  6
CONTINUOUS
 10
47.0
 20
12.7
 40
2.2337501706
100
AcDbArc
 50
134.9002628452
 51
240.6958588162
  0
ARC
  5
63D
100
AcDbEntity
  8
217
100
AcDbCircle
 62
7
  6
CONTINUOUS
 10
47.0
 20
12.7
 40
1.7896378839
100
AcDbArc
 50
299.3041347443
 51
31.9732647666
  0
ARC
  5
63E
100
AcDbEntity
  8
217
100
AcDbCircle
 62
7
  6
CONTINUOUS
 10
47.0
 20
12.7
 40
1.78963742
100
AcDbArc
 50
148.02673736
 51
240.6958652557
  0
ARC
  5
63F
100
AcDbEntity
  8
217
100
AcDbCircle
 62
7
  6
CONTINUOUS
 10
53.4000000121
 20
24.265366426
 40
0.9077892077
100
AcDbArc
 50
28.0059987593
 51
180.0174550248
  0
ARC
  5
640
100
AcDbEntity
  8
217
100
AcDbCircle
 62
7
  6
CONTINUOUS
 10
53.399981712
 20
7.1025369737
 40
0.9024856511
100
AcDbArc
 50
179.9898021786
 51
329.0461975773
  0
ARC
  5
641
100
AcDbEntity
  8
217
100
AcDbCircle
 62
7
  6
CONTINUOUS
 10
53.3999817344
 20
-9.7025354135
 40
0.9024842906
100
AcDbArc
 50
30.953718205
 51
180.0102968709
  0
CIRCLE
  5
642
100
AcDbEntity
  8
217
100
AcDbCircle
 62
7
  6
CONTINUOUS
 10
59.0
 20
24.3
 40
0.7
  0
ARC
  5
643
100
AcDbEntity
  8
RACCORDO
100
AcDbCircle
 62
250
  6
CONTINUOUS
 10
38.4893608981
 20
22.0399428666
 40
0.5025511994
100
AcDbArc
 50
30.0226598913
 51
37.4820108336
  0
ARC
  5
644
100
AcDbEntity
  8
RACCORDO
100
AcDbCircle
 62
250
  6
CONTINUOUS
 10
38.5947543636
 20
22.1444434302
 40
0.5004872348
100
AcDbArc
 50
56.3668520047
 51
65.4899478619
  0
ARC
  5
645
100
AcDbEntity
  8
RACCORDO
100
AcDbCircle
 62
250
  6
CONTINUOUS
 10
38.4910864069
 20
22.0414585084
 40
0.5002990678
100
AcDbArc
 50
14.9884427981
 51
29.9712459991
  0
ARC
  5
646
100
AcDbEntity
  8
RACCORDO
100
AcDbCircle
 62
250
  6
CONTINUOUS
 10
36.8542582762
 20
20.5542582762
 40
0.5000269264
100
AcDbArc
 50
0.0052666625
 51
89.9947333375
  0
ARC
  5
647
100
AcDbEntity
  8
RACCORDO
100
AcDbCircle
 62
250
  6
CONTINUOUS
 10
36.8974629895
 20
20.5974629894
 40
0.4999409456
100
AcDbArc
 50
359.9955115308
 51
90.0044884691
  0
ARC
  5
648
100
AcDbEntity
  8
RACCORDO
100
AcDbCircle
 62
250
  6
CONTINUOUS
 10
36.8526280413
 20
20.5542394159
 40
0.4998530562
100
AcDbArc
 50
0.1357472201
 51
89.9099618203
  0
ARC
  5
649
100
AcDbEntity
  8
217
100
AcDbCircle
 62
7
  6
CONTINUOUS
 10
54.5
 20
9.45
 40
0.4
100
AcDbArc
 50
119.4418120378
 51
240.5232195165
  0
ARC
  5
64A
100
AcDbEntity
  8
217
100
AcDbCircle
 62
7
  6
CONTINUOUS
 10
54.5
 20
21.45
 40
0.4
100
AcDbArc
 50
118.8421787602
 51
241.1227798278
  0
CIRCLE
  5
64B
100
AcDbEntity
  8
217
100
AcDbCircle
 62
250
  6
CONTINUOUS
 10
59.0
 20
24.3
 40
0.1999973377
  0
ARC
  5
64C
100
AcDbEntity
  8
RACCORDO
100
AcDbCircle
 62
7
  6
CONTINUOUS
 10
-108.909315131
 20
-41.7
 40
3.0
100
AcDbArc
 50
246.4218215218
 51
293.5781784782
  0
ARC
  5
64D
100
AcDbEntity
  8
RACCORDO
100
AcDbCircle
 62
250
  6
CONTINUOUS
 10
-108.91370129
 20
-41.700530491
 40
2.4994745837
100
AcDbArc
 50
246.4171306097
 51
293.5840945857
  0
ARC
  5
64E
100
AcDbEntity
  8
217
100
AcDbCircle
 62
7
  6
CONTINUOUS
 10
-113.5821586155
 20
-37.2166824077
 40
1.5
100
AcDbArc
 50
181.0
 51
265.0
  0
ARC
  5
64F
100
AcDbEntity
  8
RACCORDO
100
AcDbCircle
 62
7
  6
CONTINUOUS
 10
-107.909315131
 20
-43.9912878475
 40
0.5
100
AcDbArc
 50
293.5781784782
 51
360.0
  0
ARC
  5
650
100
AcDbEntity
  8
RACCORDO
100
AcDbCircle
 62
7
  6
CONTINUOUS
 10
-109.909315131
 20
-43.9912878475
 40
0.5
100
AcDbArc
 50
180.0
 51
246.4218215218
  0
ARC
  5
651
100
AcDbEntity
  8
RACCORDO
100
AcDbCircle
 62
250
  6
CONTINUOUS
 10
-97.2197677641
 20
-41.0772738079
 40
0.2039793162
100
AcDbArc
 50
280.0809918595
 51
290.0022062649
  0
ARC
  5
652
100
AcDbEntity
  8
RACCORDO
100
AcDbCircle
 62
7
  6
CONTINUOUS
 10
-97.2024815791
 20
-41.0852601432
 40
0.1931950408
100
AcDbArc
 50
279.9994276163
 51
1.8338496208
  0
ARC
  5
653
100
AcDbEntity
  8
RACCORDO
100
AcDbCircle
 62
7
  6
CONTINUOUS
 10
-99.259315131
 20
-31.1
 40
3.2043457495
100
AcDbArc
 50
314.624281104
 51
45.3757188957
  0
ARC
  5
654
100
AcDbEntity
  8
RACCORDO
100
AcDbCircle
 62
250
  6
CONTINUOUS
 10
-99.259315131
 20
-31.1
 40
3.2024430981
100
AcDbArc
 50
314.6576561804
 51
45.3423493231
  0
ARC
  5
655
100
AcDbEntity
  8
0
100
AcDbCircle
 62
7
  6
CONTINUOUS
 10
-99.259315131
 20
-31.1
 40
3.0750226729
100
AcDbArc
 50
317.0318913003
 51
42.9681086997
  0
ARC
  5
656
100
AcDbEntity
  8
RACCORDO
100
AcDbCircle
 62
7
  6
CONTINUOUS
 10
-118.9648115734
 20
-22.654097899
 40
1.0
100
AcDbArc
 50
182.9213125359
 51
269.5
  0
ARC
  5
657
100
AcDbEntity
  8
RACCORDO
100
AcDbCircle
 62
250
  6
CONTINUOUS
 10
-70.2856177026
 20
-23.5901403542
 40
48.6640463182
100
AcDbArc
 50
179.4868510595
 51
179.7811725352
  0
ARC
  5
658
100
AcDbEntity
  8
284
100
AcDbCircle
 62
250
  6
CONTINUOUS
 10
-90.8283719464
 20
-26.5044297021
 40
1.818324995
100
AcDbArc
 50
356.2066435347
 51
357.0405422528
  0
ARC
  5
659
100
AcDbEntity
  8
284
100
AcDbCircle
 62
250
  6
CONTINUOUS
 10
-89.9552640234
 20
-26.8125260538
 40
0.945948893
100
AcDbArc
 50
0.0021228355
 51
0.8324635331
  0
ARC
  5
65A
100
AcDbEntity
  8
284
100
AcDbCircle
 62
250
  6
CONTINUOUS
 10
-89.9401073485
 20
-26.8121594407
 40
0.930788503
100
AcDbArc
 50
0.823453719
 51
5.1729719573
  0
ARC
  5
65B
100
AcDbEntity
  8
284
100
AcDbCircle
 62
7
  6
CONTINUOUS
 10
-89.609315131
 20
-26.6099928047
 40
0.9
100
AcDbArc
 50
0.0
 51
6.4495631079
  0
ARC
  5
65C
100
AcDbEntity
  8
284
100
AcDbCircle
 62
250
  6
CONTINUOUS
 10
-88.2821638243
 20
-26.6731004218
 40
0.7334637245
100
AcDbArc
 50
176.2184678906
 51
177.5876663181
  0
ARC
  5
65D
100
AcDbEntity
  8
284
100
AcDbCircle
 62
250
  6
CONTINUOUS
 10
-88.3334035489
 20
-26.6713964269
 40
0.6821978379
100
AcDbArc
 50
177.5495166713
 51
181.9129093969
  0
ARC
  5
65E
100
AcDbEntity
  8
284
100
AcDbCircle
 62
250
  6
CONTINUOUS
 10
-89.0094309608
 20
-25.7961432131
 40
0.6642413391
100
AcDbArc
 50
270.0099911866
 51
274.5065399624
  0
ARC
  5
65F
100
AcDbEntity
  8
284
100
AcDbCircle
 62
250
  6
CONTINUOUS
 10
-88.3943115506
 20
-26.6730344943
 40
0.6212692259
100
AcDbArc
 50
181.9494278679
 51
183.5285111365
  0
ARC
  5
660
100
AcDbEntity
  8
284
100
AcDbCircle
 62
250
  6
CONTINUOUS
 10
-88.4286725801
 20
-26.6751603158
 40
0.5868425006
100
AcDbArc
 50
183.5278243309
 51
185.1891760555
  0
ARC
  5
661
100
AcDbEntity
  8
284
100
AcDbCircle
 62
250
  6
CONTINUOUS
 10
-88.9836191314
 20
-26.0994497228
 40
0.5262060874
100
AcDbArc
 50
266.6868075946
 51
272.7184578072
  0
ARC
  5
662
100
AcDbEntity
  8
284
100
AcDbCircle
 62
250
  6
CONTINUOUS
 10
-89.0467467045
 20
-26.2508128481
 40
0.4785957629
100
AcDbArc
 50
274.0302000087
 51
280.5670303509
  0
ARC
  5
663
100
AcDbEntity
  8
284
100
AcDbCircle
 62
250
  6
CONTINUOUS
 10
-89.0094994506
 20
-26.3772214934
 40
0.4352695573
100
AcDbArc
 50
270.024262526
 51
276.8964026981
  0
ARC
  5
664
100
AcDbEntity
  8
284
100
AcDbCircle
 62
7
  6
CONTINUOUS
 10
-89.009315131
 20
-27.0
 40
0.3
100
AcDbArc
 50
270.0
 51
360.0
  0
ARC
  5
665
100
AcDbEntity
  8
284
100
AcDbCircle
 62
250
  6
CONTINUOUS
 10
-88.8068804727
 20
-26.4764484616
 40
0.0920564176
100
AcDbArc
 50
348.5970772549
 51
354.8676378904
  0
ARC
  5
666
100
AcDbEntity
  8
217
100
AcDbCircle
 62
7
  6
CONTINUOUS
 10
-15.6940823266
 20
-1.3
 40
100.0
100
AcDbArc
 50
179.0
 51
181.0
  0
ARC
  5
667
100
AcDbEntity
  8
217
100
AcDbCircle
 62
250
  6
CONTINUOUS
 10
-15.8170748684
 20
-1.3
 40
98.5077398934
100
AcDbArc
 50
179.0000785794
 51
180.9999214206
  0
ARC
  5
668
100
AcDbEntity
  8
RACCORDO
100
AcDbCircle
 62
250
  6
CONTINUOUS
 10
-70.2854254829
 20
20.9901401193
 40
48.6642385226
100
AcDbArc
 50
180.2188257396
 51
180.5131466371
  0
ARC
  5
669
100
AcDbEntity
  8
284
100
AcDbCircle
 62
7
  6
CONTINUOUS
 10
-111.209315131
 20
32.2
 40
10.0
100
AcDbArc
 50
274.5885657358
 51
85.4114342642
  0
ARC
  5
66A
100
AcDbEntity
  8
217
100
AcDbCircle
 62
7
  6
CONTINUOUS
 10
-111.209315131
 20
32.2
 40
9.75
100
AcDbArc
 50
274.7064832719
 51
84.1949482559
  0
ARC
  5
66B
100
AcDbEntity
  8
284
100
AcDbCircle
 62
250
  6
CONTINUOUS
 10
-92.7883474379
 20
23.8614251427
 40
3.7790324502
100
AcDbArc
 50
359.9842228861
 51
0.3400598912
  0
ARC
  5
66C
100
AcDbEntity
  8
217
100
AcDbCircle
 62
7
  6
CONTINUOUS
 10
-113.5821586155
 20
34.6166824076
 40
1.5
100
AcDbArc
 50
95.0
 51
179.0
  0
ARC
  5
66D
100
AcDbEntity
  8
RACCORDO
100
AcDbCircle
 62
7
  6
CONTINUOUS
 10
-118.9648115734
 20
20.054097899
 40
1.0
100
AcDbArc
 50
90.5
 51
177.0786874641
  0
ARC
  5
66E
100
AcDbEntity
  8
284
100
AcDbCircle
 62
250
  6
CONTINUOUS
 10
-89.9455559203
 20
24.2124181258
 40
0.9362407921
100
AcDbArc
 50
355.731266189
 51
0.0044600914
  0
ARC
  5
66F
100
AcDbEntity
  8
284
100
AcDbCircle
 62
250
  6
CONTINUOUS
 10
-89.9286941772
 20
24.2113441191
 40
0.9193459004
100
AcDbArc
 50
354.813461802
 51
355.7197945764
  0
ARC
  5
670
100
AcDbEntity
  8
284
100
AcDbCircle
 62
7
  6
CONTINUOUS
 10
-89.609315131
 20
24.0099928047
 40
0.9
100
AcDbArc
 50
353.5509285135
 51
360.0
  0
ARC
  5
671
100
AcDbEntity
  8
284
100
AcDbCircle
 62
250
  6
CONTINUOUS
 10
-88.324152871
 20
24.071152361
 40
0.6914369965
100
AcDbArc
 50
178.0766224487
 51
182.3877866491
  0
ARC
  5
672
100
AcDbEntity
  8
284
100
AcDbCircle
 62
250
  6
CONTINUOUS
 10
-88.3305020829
 20
24.0706804807
 40
0.685073669
100
AcDbArc
 50
182.3704788804
 51
183.8464068877
  0
ARC
  5
673
100
AcDbEntity
  8
284
100
AcDbCircle
 62
250
  6
CONTINUOUS
 10
-89.0094315572
 20
23.1961436723
 40
0.6642408653
100
AcDbArc
 50
85.4930591053
 51
89.9899573602
  0
ARC
  5
674
100
AcDbEntity
  8
284
100
AcDbCircle
 62
250
  6
CONTINUOUS
 10
-88.4185971987
 20
24.0745924565
 40
0.5969304788
100
AcDbArc
 50
174.8440696543
 51
178.1023774167
  0
ARC
  5
675
100
AcDbEntity
  8
284
100
AcDbCircle
 62
250
  6
CONTINUOUS
 10
-88.9836703675
 20
23.4990462476
 40
0.526559074
100
AcDbArc
 50
87.2775158923
 51
93.3055989134
  0
ARC
  5
676
100
AcDbEntity
  8
284
100
AcDbCircle
 62
250
  6
CONTINUOUS
 10
-89.0466651398
 20
23.6500984254
 40
0.4790079838
100
AcDbArc
 50
79.4534329584
 51
85.9833340972
  0
ARC
  5
677
100
AcDbEntity
  8
284
100
AcDbCircle
 62
250
  6
CONTINUOUS
 10
-89.0094882252
 20
23.7772428219
 40
0.4352482137
100
AcDbArc
 50
83.1048833093
 51
89.9772139958
  0
ARC
  5
678
100
AcDbEntity
  8
284
100
AcDbCircle
 62
7
  6
CONTINUOUS
 10
-89.009315131
 20
24.4
 40
0.3
100
AcDbArc
 50
0.0
 51
90.0
  0
ARC
  5
679
100
AcDbEntity
  8
RACCORDO
100
AcDbCircle
 62
250
  6
CONTINUOUS
 10
-97.219732134
 20
42.0773921399
 40
0.2039776229
100
AcDbArc
 50
69.9982347351
 51
79.923084201
  0
ARC
  5
67A
100
AcDbEntity
  8
RACCORDO
100
AcDbCircle
 62
7
  6
CONTINUOUS
 10
-97.2024838789
 20
42.0852582134
 40
0.1931687479
100
AcDbArc
 50
349.9999998841
 51
80.0
  0
ARC
  5
67B
100
AcDbEntity
  8
284
100
AcDbCircle
 62
250
  6
CONTINUOUS
 10
-88.8067924783
 20
23.87643127
 40
0.0920047074
100
AcDbArc
 50
5.1741882788
 51
11.5299952536
  0
ARC
  5
67C
100
AcDbEntity
  8
RACCORDO
100
AcDbCircle
 62
7
  6
CONTINUOUS
 10
299.490684869
 20
-1.3
 40
420.0
100
AcDbArc
 50
177.0786874641
 51
182.9213125359
  0
SPLINE
  5
67D
100
AcDbEntity
  8
0
100
AcDbSpline
 62
7
  6
CONTINUOUS
 70
0
 71
3
 72
11
 73
7
 74
0
 42
0.0000001
 43
0.0000001
 44
0.0000000001
 40
0.0
 40
0.0
 40
0.0
 40
0.0
 40
0.2593210932
 40
0.5110597855
 40
0.7567492583
 40
1.0
 40
1.0
 40
1.0
 40
1.0
 10
-1.3716144372
 20
-39.3079497676
 30
0.0
 10
-1.3827047704
 20
-39.3233579935
 30
0.0
 10
-1.4082279866
 20
-39.3512896835
 30
0.0
 10
-1.454942968
 20
-39.382154284
 30
0.0
 10
-1.5070895788
 20
-39.3992908697
 30
0.0
 10
-1.5433863748
 20
-39.4006877367
 30
0.0
 10
-1.5611145286
 20
-39.3990037279
 30
0.0
  0
SPLINE
  5
67E
100
AcDbEntity
  8
0
100
AcDbSpline
 62
250
  6
CONTINUOUS
 70
0
 71
3
 72
11
 73
7
 74
0
 42
0.0000001
 43
0.0000001
 44
0.0000000001
 40
0.0
 40
0.0
 40
0.0
 40
0.0
 40
0.2600696436
 40
0.515770179
 40
0.7631132371
 40
1.0
 40
1.0
 40
1.0
 40
1.0
 10
1.2339229328
 20
-37.2409090909
 30
0.0
 10
1.2339229328
 20
-37.2604257967
 30
0.0
 10
1.237792111
 20
-37.2992218834
 30
0.0
 10
1.2542660754
 20
-37.3544451243
 30
0.0
 10
1.280966274
 20
-37.4036060383
 30
0.0
 10
1.3052595624
 20
-37.4311591091
 30
0.0
 10
1.3185751074
 20
-37.4429369181
 30
0.0
  0
SPLINE
  5
67F
100
AcDbEntity
  8
0
100
AcDbSpline
 62
250
  6
CONTINUOUS
 70
0
 71
3
 72
8
 73
4
 74
0
 42
0.0000001
 43
0.0000001
 44
0.0000000001
 40
0.0
 40
0.0
 40
0.0
 40
0.0
 40
1.0
 40
1.0
 40
1.0
 40
1.0
 10
1.4253456451
 20
-37.3409090909
 30
0.0
 10
1.4253456451
 20
-37.3612230516
 30
0.0
 10
1.4278096846
 20
-37.3816659553
 30
0.0
 10
1.4325121998
 20
-37.401428125
 30
0.0
  0
SPLINE
  5
680
100
AcDbEntity
  8
0
100
AcDbSpline
 62
250
  6
CONTINUOUS
 70
0
 71
3
 72
14
 73
10
 74
0
 42
0.0000001
 43
0.0000001
 44
0.0000000001
 40
0.0
 40
0.0
 40
0.0
 40
0.0
 40
0.0975099512
 40
0.1968086729
 40
0.3041342638
 40
0.4229170677
 40
0.6950998204
 40
0.8454723789
 40
1.0
 40
1.0
 40
1.0
 40
1.0
 10
1.1222221612
 20
-34.7122240627
 30
0.0
 10
1.1112677539
 20
-34.7094971136
 30
0.0
 10
1.0880370574
 20
-34.7076564967
 30
0.0
 10
1.0534448324
 20
-34.7171052115
 30
0.0
 10
1.0216681378
 20
-34.7383218987
 30
0.0
 10
0.9828492998
 20
-34.7815874613
 30
0.0
 10
0.9568563066
 20
-34.8403599961
 30
0.0
 10
0.9433384763
 20
-34.9058319301
 30
0.0
 10
0.9408736734
 20
-34.9412012512
 30
0.0
 10
0.9408736734
 20
-34.9590909091
 30
0.0
  0
SPLINE
  5
681
100
AcDbEntity
  8
0
100
AcDbSpline
 62
250
  6
CONTINUOUS
 70
0
 71
3
 72
15
 73
11
 74
0
 42
0.0000001
 43
0.0000001
 44
0.0000000001
 40
0.0
 40
0.0
 40
0.0
 40
0.0
 40
0.1146909818
 40
0.2290170122
 40
0.345644118
 40
0.4667960393
 40
0.5934024023
 40
0.7253675229
 40
0.8615885551
 40
1.0
 40
1.0
 40
1.0
 40
1.0
 10
1.4928008517
 20
-34.8176190566
 30
0.0
 10
1.4778295139
 20
-34.8127518685
 30
0.0
 10
1.446422414
 20
-34.8071698939
 30
0.0
 10
1.3986186659
 20
-34.8118177592
 30
0.0
 10
1.3531298959
 20
-34.8298748084
 30
0.0
 10
1.3125033235
 20
-34.859892168
 30
0.0
 10
1.2786002223
 20
-34.9000572267
 30
0.0
 10
1.2532238499
 20
-34.948396237
 30
0.0
 10
1.2375944875
 20
-35.0023110431
 30
0.0
 10
1.2339229328
 20
-35.0400923753
 30
0.0
 10
1.2339229328
 20
-35.0590909091
 30
0.0
  0
SPLINE
  5
682
100
AcDbEntity
  8
0
100
AcDbSpline
 62
250
  6
CONTINUOUS
 70
0
 71
3
 72
13
 73
9
 74
0
 42
0.0000001
 43
0.0000001
 44
0.0000000001
 40
0.0
 40
0.0
 40
0.0
 40
0.0
 40
0.291610048
 40
0.5623643469
 40
0.6853208752
 40
0.7987054765
 40
0.9030417365
 40
1.0
 40
1.0
 40
1.0
 40
1.0
 10
0.9408736734
 20
-34.9590909091
 30
0.0
 10
0.9408736734
 20
-34.9879652803
 30
0.0
 10
0.9469586876
 20
-35.0438013415
 30
0.0
 10
0.9695247938
 20
-35.1086836824
 30
0.0
 10
0.9963126622
 20
-35.1513908163
 30
0.0
 10
1.0189511777
 20
-35.1766567926
 30
0.0
 10
1.0441064328
 20
-35.1954403239
 30
0.0
 10
1.0627398756
 20
-35.2032495318
 30
0.0
 10
1.0720296695
 20
-35.2056722916
 30
0.0
  0
SPLINE
  5
683
100
AcDbEntity
  8
0
100
AcDbSpline
 62
250
  6
CONTINUOUS
 70
0
 71
3
 72
15
 73
11
 74
0
 42
0.0000001
 43
0.0000001
 44
0.0000000001
 40
0.0
 40
0.0
 40
0.0
 40
0.0
 40
0.1146833759
 40
0.2290084473
 40
0.3456397673
 40
0.466796751
 40
0.5934068643
 40
0.7253728472
 40
0.861592124
 40
1.0
 40
1.0
 40
1.0
 40
1.0
 10
1.4926693729
 20
-36.9993945532
 30
0.0
 10
1.4777000967
 20
-36.9945413681
 30
0.0
 10
1.4463008545
 20
-36.9889850122
 30
0.0
 10
1.3985169883
 20
-36.9936620421
 30
0.0
 10
1.3530527689
 20
-37.0117382902
 30
0.0
 10
1.3124503737
 20
-37.0417621042
 30
0.0
 10
1.2785692896
 20
-37.0819241387
 30
0.0
 10
1.2532103745
 20
-37.1302518135
 30
0.0
 10
1.2375919041
 20
-37.1841494105
 30
0.0
 10
1.2339229328
 20
-37.2219173719
 30
0.0
 10
1.2339229328
 20
-37.2409090909
 30
0.0
  0
SPLINE
  5
684
100
AcDbEntity
  8
0
100
AcDbSpline
 62
250
  6
CONTINUOUS
 70
0
 71
3
 72
11
 73
7
 74
0
 42
0.0000001
 43
0.0000001
 44
0.0000000001
 40
0.0
 40
0.0
 40
0.0
 40
0.0
 40
0.2600710824
 40
0.5157722781
 40
0.7631148785
 40
1.0
 40
1.0
 40
1.0
 40
1.0
 10
1.2339229328
 20
-35.0590909091
 30
0.0
 10
1.2339229328
 20
-35.0786091435
 30
0.0
 10
1.237792704
 20
-35.1174082264
 30
0.0
 10
1.2542691792
 20
-35.1726352917
 30
0.0
 10
1.2809733741
 20
-35.2217986363
 30
0.0
 10
1.3052701376
 20
-35.2493521
 30
0.0
 10
1.3185874626
 20
-35.2611296638
 30
0.0
  0
SPLINE
  5
685
100
AcDbEntity
  8
0
100
AcDbSpline
 62
250
  6
CONTINUOUS
 70
0
 71
3
 72
14
 73
10
 74
0
 42
0.0000001
 43
0.0000001
 44
0.0000000001
 40
0.0
 40
0.0
 40
0.0
 40
0.0
 40
0.1235954863
 40
0.2463748127
 40
0.3691731985
 40
0.4928514832
 40
0.617977388
 40
0.7447573736
 40
1.0
 40
1.0
 40
1.0
 40
1.0
 10
1.7793740685
 20
-37.1231164581
 30
0.0
 10
1.7615638614
 20
-37.1125426238
 30
0.0
 10
1.7230470312
 20
-37.0960344887
 30
0.0
 10
1.6609274404
 20
-37.0882634052
 30
0.0
 10
1.5988927113
 20
-37.0971253868
 30
0.0
 10
1.5413733774
 20
-37.1229419552
 30
0.0
 10
1.4920589072
 20
-37.1632501355
 30
0.0
 10
1.4417785262
 20
-37.2326401519
 30
0.0
 10
1.4253456451
 20
-37.2981346813
 30
0.0
 10
1.4253456451
 20
-37.3409090909
 30
0.0
  0
SPLINE
  5
686
100
AcDbEntity
  8
RACCORDO
100
AcDbSpline
 62
250
  6
CONTINUOUS
 70
0
 71
3
 72
18
 73
14
 74
0
 42
0.0000001
 43
0.0000001
 44
0.0000000001
 40
0.0
 40
0.0
 40
0.0
 40
0.0
 40
0.2314342573
 40
0.4334080701
 40
0.6052594648
 40
0.746463126
 40
0.8567080756
 40
0.9001322284
 40
0.935720373
 40
0.9634633375
 40
0.9833616847
 40
0.9954470196
 40
1.0
 40
1.0
 40
1.0
 40
1.0
 10
-4.5043450729
 20
-44.449545417
 30
0.0
 10
-4.5046674473
 20
-44.4688916031
 30
0.0
 10
-4.505310111
 20
-44.5051209011
 30
0.0
 10
-4.5063564423
 20
-44.5557115381
 30
0.0
 10
-4.5074142618
 20
-44.5987597197
 30
0.0
 10
-4.5084823228
 20
-44.6341266822
 30
0.0
 10
-4.5094241949
 20
-44.6587773493
 30
0.0
 10
-4.510220038
 20
-44.6745566754
 30
0.0
 10
-4.5107587899
 20
-44.6835153139
 30
0.0
 10
-4.5113121277
 20
-44.6903241953
 30
0.0
 10
-4.5118014798
 20
-44.6955850016
 30
0.0
 10
-4.512347818
 20
-44.698075262
 30
0.0
 10
-4.5126902637
 20
-44.6999991715
 30
0.0
 10
-4.513070911
 20
-44.6999999996
 30
0.0
  0
SPLINE
  5
687
100
AcDbEntity
  8
RACCORDO
100
AcDbSpline
 62
250
  6
CONTINUOUS
 70
0
 71
3
 72
18
 73
14
 74
0
 42
0.0000001
 43
0.0000001
 44
0.0000000001
 40
0.0
 40
0.0
 40
0.0
 40
0.0
 40
0.0045532043
 40
0.0166387623
 40
0.0365373046
 40
0.0642804322
 40
0.0998687057
 40
0.1432929524
 40
0.2535379886
 40
0.3947415827
 40
0.5665927491
 40
0.7685662077
 40
1.0
 40
1.0
 40
1.0
 40
1.0
 10
4.513070891
 20
-44.6999999996
 30
0.0
 10
4.5126902251
 20
-44.6999991242
 30
0.0
 10
4.5123478356
 20
-44.6980752295
 30
0.0
 10
4.5118014539
 20
-44.6955848554
 30
0.0
 10
4.5113121329
 20
-44.6903240365
 30
0.0
 10
4.5107587852
 20
-44.6835150982
 30
0.0
 10
4.5102200316
 20
-44.6745564351
 30
0.0
 10
4.5094241592
 20
-44.6587770827
 30
0.0
 10
4.5084822442
 20
-44.634126412
 30
0.0
 10
4.5074142007
 20
-44.5987594682
 30
0.0
 10
4.5063565664
 20
-44.5557113403
 30
0.0
 10
4.5053104824
 20
-44.5051207902
 30
0.0
 10
4.5046678978
 20
-44.4688915625
 30
0.0
 10
4.5043455241
 20
-44.449545417
 30
0.0
  0
SPLINE
  5
688
100
AcDbEntity
  8
RACCORDO
100
AcDbSpline
 62
250
  6
CONTINUOUS
 70
0
 71
3
 72
13
 73
9
 74
0
 42
0.0000001
 43
0.0000001
 44
0.0000000001
 40
0.0
 40
0.0
 40
0.0
 40
0.0
 40
0.2591661435
 40
0.5128289647
 40
0.6371781556
 40
0.7594798813
 40
0.8802505049
 40
1.0
 40
1.0
 40
1.0
 40
1.0
 10
-4.5043443947
 20
-44.449545417
 30
0.0
 10
-4.5690738911
 20
-44.4493386795
 30
0.0
 10
-4.6982386484
 20
-44.4258840662
 30
0.0
 10
-4.8376350415
 20
-44.3411248379
 30
0.0
 10
-4.9216466511
 20
-44.2476450788
 30
0.0
 10
-4.9684947227
 20
-44.1679620754
 30
0.0
 10
-4.9974862423
 20
-44.0814350105
 30
0.0
 10
-5.0042114556
 20
-44.0211964912
 30
0.0
 10
-5.0043253562
 20
-43.9912878475
 30
0.0
  0
SPLINE
  5
689
100
AcDbEntity
  8
RACCORDO
100
AcDbSpline
 62
250
  6
CONTINUOUS
 70
0
 71
3
 72
11
 73
7
 74
0
 42
0.0000001
 43
0.0000001
 44
0.0000000001
 40
0.0
 40
0.0
 40
0.0
 40
0.0
 40
0.259851595
 40
0.5141455308
 40
0.760121886
 40
1.0
 40
1.0
 40
1.0
 40
1.0
 10
4.5043443947
 20
-44.449545417
 30
0.0
 10
4.5690765241
 20
-44.4498136848
 30
0.0
 10
4.6982873375
 20
-44.4255200415
 30
0.0
 10
4.8638885829
 20
-44.3253611903
 30
0.0
 10
4.9768649091
 20
-44.1734137367
 30
0.0
 10
5.0040802661
 20
-44.0510443552
 30
0.0
 10
5.0043253562
 20
-43.9912878475
 30
0.0
  0
SPLINE
  5
68A
100
AcDbEntity
  8
RACCORDO
100
AcDbSpline
 62
250
  6
CONTINUOUS
 70
0
 71
3
 72
19
 73
15
 74
0
 42
0.0000001
 43
0.0000001
 44
0.0000000001
 40
0.0
 40
0.0
 40
0.0
 40
0.0
 40
0.2171291848
 40
0.3029957219
 40
0.3734841691
 40
0.4284852794
 40
0.4679071473
 40
0.4999898409
 40
0.5320859563
 40
0.5715186819
 40
0.6265339544
 40
0.6970337129
 40
0.7829009848
 40
1.0
 40
1.0
 40
1.0
 40
1.0
 10
-5.0052536243
 20
-44.0347751331
 30
0.0
 10
-5.0057996642
 20
-44.0587316355
 30
0.0
 10
-5.0066260934
 20
-44.0920659539
 30
0.0
 10
-5.008033045
 20
-44.1334707085
 30
0.0
 10
-5.0089209486
 20
-44.1563440931
 30
0.0
 10
-5.0100352386
 20
-44.1756413508
 30
0.0
 10
-5.0106164598
 20
-44.1868410332
 30
0.0
 10
-5.0130530909
 20
-44.2059056041
 30
0.0
 10
-5.0154882263
 20
-44.1868354221
 30
0.0
 10
-5.0160698836
 20
-44.1756333693
 30
0.0
 10
-5.0171839369
 20
-44.1563314097
 30
0.0
 10
-5.018071888
 20
-44.1334553373
 30
0.0
 10
-5.0194787504
 20
-44.0920525332
 30
0.0
 10
-5.0203053659
 20
-44.0587214805
 30
0.0
 10
-5.0208513936
 20
-44.0347683083
 30
0.0
  0
SPLINE
  5
68B
100
AcDbEntity
  8
RACCORDO
100
AcDbSpline
 62
250
  6
CONTINUOUS
 70
0
 71
3
 72
19
 73
15
 74
0
 42
0.0000001
 43
0.0000001
 44
0.0000000001
 40
0.0
 40
0.0
 40
0.0
 40
0.0
 40
0.2171342333
 40
0.3030011851
 40
0.3734882976
 40
0.4284873276
 40
0.467907187
 40
0.4999863793
 40
0.5320860483
 40
0.5715209746
 40
0.626538699
 40
0.6970401242
 40
0.7829069906
 40
1.0
 40
1.0
 40
1.0
 40
1.0
 10
5.0208506982
 20
-44.0347785468
 30
0.0
 10
5.0203046563
 20
-44.0587352819
 30
0.0
 10
5.0194782617
 20
-44.0920697566
 30
0.0
 10
5.0180713028
 20
-44.1334743935
 30
0.0
 10
5.0171834247
 20
-44.1563471781
 30
0.0
 10
5.0160690785
 20
-44.1756434378
 30
0.0
 10
5.0154879993
 20
-44.186842548
 30
0.0
 10
5.0130509684
 20
-44.2059055279
 30
0.0
 10
5.0106162588
 20
-44.1868342325
 30
0.0
 10
5.0100344697
 20
-44.1756318566
 30
0.0
 10
5.0089204868
 20
-44.156329316
 30
0.0
 10
5.0080325219
 20
-44.1334531867
 30
0.0
 10
5.0066256835
 20
-44.0920514559
 30
0.0
 10
5.0057990358
 20
-44.0587215668
 30
0.0
 10
5.0052530163
 20
-44.034769382
 30
0.0
  0
SPLINE
  5
68C
100
AcDbEntity
  8
RACCORDO
100
AcDbSpline
 62
250
  6
CONTINUOUS
 70
0
 71
3
 72
8
 73
4
 74
0
 42
0.0000001
 43
0.0000001
 44
0.0000000001
 40
0.0
 40
0.0
 40
0.0
 40
0.0
 40
1.0
 40
1.0
 40
1.0
 40
1.0
 10
37.6973933632
 20
20.5974238247
 30
0.0
 10
37.6973949528
 20
20.720176216
 30
0.0
 10
37.6676229107
 20
20.8460471955
 30
0.0
 10
37.6126339327
 20
20.9557940035
 30
0.0
  0
SPLINE
  5
68D
100
AcDbEntity
  8
RACCORDO
100
AcDbSpline
 62
250
  6
CONTINUOUS
 70
0
 71
3
 72
9
 73
5
 74
0
 42
0.0000001
 43
0.0000001
 44
0.0000000001
 40
0.0
 40
0.0
 40
0.0
 40
0.0
 40
0.5000470948
 40
1.0
 40
1.0
 40
1.0
 40
1.0
 10
37.6126339327
 20
20.9557940035
 30
0.0
 10
37.5473917135
 20
21.086004194
 30
0.0
 10
37.3401651237
 20
21.3145139438
 30
0.0
 10
37.0430371856
 20
21.3973958287
 30
0.0
 10
36.8974238247
 20
21.3973933632
 30
0.0
  0
SPLINE
  5
68E
100
AcDbEntity
  8
RACCORDO
100
AcDbSpline
 62
250
  6
CONTINUOUS
 70
0
 71
3
 72
8
 73
4
 74
0
 42
0.0000001
 43
0.0000001
 44
0.0000000001
 40
0.0
 40
0.0
 40
0.0
 40
0.0
 40
1.0
 40
1.0
 40
1.0
 40
1.0
 10
-37.6973933632
 20
-23.1974238248
 30
0.0
 10
-37.6973949528
 20
-23.320176216
 30
0.0
 10
-37.6676229107
 20
-23.4460471955
 30
0.0
 10
-37.6126339327
 20
-23.5557940035
 30
0.0
  0
SPLINE
  5
68F
100
AcDbEntity
  8
RACCORDO
100
AcDbSpline
 62
250
  6
CONTINUOUS
 70
0
 71
3
 72
9
 73
5
 74
0
 42
0.0000001
 43
0.0000001
 44
0.0000000001
 40
0.0
 40
0.0
 40
0.0
 40
0.0
 40
0.5000470948
 40
1.0
 40
1.0
 40
1.0
 40
1.0
 10
-37.6126339327
 20
-23.5557940035
 30
0.0
 10
-37.5473917135
 20
-23.6860041941
 30
0.0
 10
-37.3401651237
 20
-23.9145139439
 30
0.0
 10
-37.0430371856
 20
-23.9973958288
 30
0.0
 10
-36.8974238247
 20
-23.9973933632
 30
0.0
  0
LINE
  5
690
100
AcDbEntity
  8
RACCORDO
100
AcDbLine
 62
250
  6
CONTINUOUS
 10
36.853413491
 20
21.054059822
 11
36.854304239
 21
21.0542852005
  0
LINE
  5
691
100
AcDbEntity
  8
RACCORDO
100
AcDbLine
 62
250
  6
CONTINUOUS
 10
-36.854304239
 20
21.0542852005
 11
-36.853413491
 21
21.054059822
  0
LINE
  5
692
100
AcDbEntity
  8
RACCORDO
100
AcDbLine
 62
250
  6
CONTINUOUS
 10
-36.8534134913
 20
-23.6540598221
 11
-36.8543042389
 21
-23.6542852005
  0
LINE
  5
693
100
AcDbEntity
  8
RACCORDO
100
AcDbLine
 62
250
  6
CONTINUOUS
 10
36.8543042389
 20
-23.6542852005
 11
36.8534134913
 21
-23.6540598221
  0
SPLINE
  5
694
100
AcDbEntity
  8
RACCORDO
100
AcDbSpline
 62
250
  6
CONTINUOUS
 70
0
 71
3
 72
9
 73
5
 74
0
 42
0.0000001
 43
0.0000001
 44
0.0000000001
 40
0.0
 40
0.0
 40
0.0
 40
0.0
 40
0.2499136286
 40
1.0
 40
1.0
 40
1.0
 40
1.0
 10
37.3542852004
 20
-23.1543042389
 30
0.0
 10
37.352625592
 20
-19.5131788979
 30
0.0
 10
37.3476495718
 20
-4.9436432579
 30
0.0
 10
37.3493040814
 20
9.6258946506
 30
0.0
 10
37.3542852005
 20
20.5543042389
 30
0.0
  0
SPLINE
  5
695
100
AcDbEntity
  8
RACCORDO
100
AcDbSpline
 62
250
  6
CONTINUOUS
 70
0
 71
3
 72
9
 73
5
 74
0
 42
0.0000001
 43
0.0000001
 44
0.0000000001
 40
0.0
 40
0.0
 40
0.0
 40
0.0
 40
0.2499136286
 40
1.0
 40
1.0
 40
1.0
 40
1.0
 10
-37.3542852005
 20
20.5543042389
 30
0.0
 10
-37.3526255922
 20
16.9131788981
 30
0.0
 10
-37.3476495715
 20
2.3436432581
 30
0.0
 10
-37.3493040808
 20
-12.2258946505
 30
0.0
 10
-37.3542852004
 20
-23.1543042389
 30
0.0
  0
SPLINE
  5
696
100
AcDbEntity
  8
RACCORDO
100
AcDbSpline
 62
250
  6
CONTINUOUS
 70
0
 71
3
 72
8
 73
4
 74
0
 42
0.0000001
 43
0.0000001
 44
0.0000000001
 40
0.0
 40
0.0
 40
0.0
 40
0.0
 40
1.0
 40
1.0
 40
1.0
 40
1.0
 10
38.8881011499
 20
-24.9458253881
 30
0.0
 10
38.8355986552
 20
-25.0142608506
 30
0.0
 10
38.7625286063
 20
-25.0703956741
 30
0.0
 10
38.6828276787
 20
-25.1033757686
 30
0.0
  0
SPLINE
  5
697
100
AcDbEntity
  8
RACCORDO
100
AcDbSpline
 62
250
  6
CONTINUOUS
 70
0
 71
3
 72
8
 73
4
 74
0
 42
0.0000001
 43
0.0000001
 44
0.0000000001
 40
0.0
 40
0.0
 40
0.0
 40
0.0
 40
1.0
 40
1.0
 40
1.0
 40
1.0
 10
38.6828276787
 20
-25.1033757686
 30
0.0
 10
38.6227559687
 20
-25.1282333296
 30
0.0
 10
38.5565617182
 20
-25.1414541617
 30
0.0
 10
38.491550117
 20
-25.1414739646
 30
0.0
  0
SPLINE
  5
698
100
AcDbEntity
  8
RACCORDO
100
AcDbSpline
 62
250
  6
CONTINUOUS
 70
0
 71
3
 72
8
 73
4
 74
0
 42
0.0000001
 43
0.0000001
 44
0.0000000001
 40
0.0
 40
0.0
 40
0.0
 40
0.0
 40
1.0
 40
1.0
 40
1.0
 40
1.0
 10
38.8022396477
 20
-25.1998966059
 30
0.0
 10
38.8798350984
 20
-25.1645622582
 30
0.0
 10
38.9501923697
 20
-25.1069406091
 30
0.0
 10
39.0001365863
 20
-25.0378381828
 30
0.0
  0
SPLINE
  5
699
100
AcDbEntity
  8
RACCORDO
100
AcDbSpline
 62
250
  6
CONTINUOUS
 70
0
 71
3
 72
8
 73
4
 74
0
 42
0.0000001
 43
0.0000001
 44
0.0000000001
 40
0.0
 40
0.0
 40
0.0
 40
0.0
 40
1.0
 40
1.0
 40
1.0
 40
1.0
 10
39.0001469636
 20
22.4378234538
 30
0.0
 10
38.9654160452
 20
22.4858799817
 30
0.0
 10
38.9213251951
 20
22.5283039835
 30
0.0
 10
38.8719608981
 20
22.561149573
 30
0.0
  0
SPLINE
  5
69A
100
AcDbEntity
  8
RACCORDO
100
AcDbSpline
 62
250
  6
CONTINUOUS
 70
0
 71
3
 72
8
 73
4
 74
0
 42
0.0000001
 43
0.0000001
 44
0.0000000001
 40
0.0
 40
0.0
 40
0.0
 40
0.0
 40
1.0
 40
1.0
 40
1.0
 40
1.0
 10
38.8881576053
 20
22.3457514577
 30
0.0
 10
38.8356628574
 20
22.4142031852
 30
0.0
 10
38.762594027
 20
22.4703558433
 30
0.0
 10
38.6828899699
 20
22.5033497945
 30
0.0
  0
SPLINE
  5
69B
100
AcDbEntity
  8
RACCORDO
100
AcDbSpline
 62
250
  6
CONTINUOUS
 70
0
 71
3
 72
8
 73
4
 74
0
 42
0.0000001
 43
0.0000001
 44
0.0000000001
 40
0.0
 40
0.0
 40
0.0
 40
0.0
 40
1.0
 40
1.0
 40
1.0
 40
1.0
 10
38.6828899699
 20
22.5033497945
 30
0.0
 10
38.6228012254
 20
22.5282238746
 30
0.0
 10
38.5565837686
 20
22.5414541034
 30
0.0
 10
38.4915501106
 20
22.5414739582
 30
0.0
  0
SPLINE
  5
69C
100
AcDbEntity
  8
RACCORDO
100
AcDbSpline
 62
250
  6
CONTINUOUS
 70
0
 71
3
 72
8
 73
4
 74
0
 42
0.0000001
 43
0.0000001
 44
0.0000000001
 40
0.0
 40
0.0
 40
0.0
 40
0.0
 40
1.0
 40
1.0
 40
1.0
 40
1.0
 10
-38.8881011439
 20
22.3458253956
 30
0.0
 10
-38.8355986479
 20
22.414260857
 30
0.0
 10
-38.7625285978
 20
22.4703956789
 30
0.0
 10
-38.6828276697
 20
22.5033757718
 30
0.0
  0
SPLINE
  5
69D
100
AcDbEntity
  8
RACCORDO
100
AcDbSpline
 62
250
  6
CONTINUOUS
 70
0
 71
3
 72
8
 73
4
 74
0
 42
0.0000001
 43
0.0000001
 44
0.0000000001
 40
0.0
 40
0.0
 40
0.0
 40
0.0
 40
1.0
 40
1.0
 40
1.0
 40
1.0
 10
-38.6828276697
 20
22.5033757718
 30
0.0
 10
-38.6227559621
 20
22.5282333305
 30
0.0
 10
-38.556561715
 20
22.5414541615
 30
0.0
 10
-38.491550117
 20
22.5414739645
 30
0.0
  0
SPLINE
  5
69E
100
AcDbEntity
  8
RACCORDO
100
AcDbSpline
 62
250
  6
CONTINUOUS
 70
0
 71
3
 72
8
 73
4
 74
0
 42
0.0000001
 43
0.0000001
 44
0.0000000001
 40
0.0
 40
0.0
 40
0.0
 40
0.0
 40
1.0
 40
1.0
 40
1.0
 40
1.0
 10
-38.8022396477
 20
22.5998966058
 30
0.0
 10
-38.8798350984
 20
22.5645622582
 30
0.0
 10
-38.9501923697
 20
22.506940609
 30
0.0
 10
-39.0001365863
 20
22.4378381828
 30
0.0
  0
SPLINE
  5
69F
100
AcDbEntity
  8
RACCORDO
100
AcDbSpline
 62
250
  6
CONTINUOUS
 70
0
 71
3
 72
8
 73
4
 74
0
 42
0.0000001
 43
0.0000001
 44
0.0000000001
 40
0.0
 40
0.0
 40
0.0
 40
0.0
 40
1.0
 40
1.0
 40
1.0
 40
1.0
 10
-38.491550117
 20
-25.1414739646
 30
0.0
 10
-38.5565616624
 20
-25.1414541629
 30
0.0
 10
-38.6227558545
 20
-25.1282333554
 30
0.0
 10
-38.6828275214
 20
-25.1033758361
 30
0.0
  0
SPLINE
  5
6A0
100
AcDbEntity
  8
RACCORDO
100
AcDbSpline
 62
250
  6
CONTINUOUS
 70
0
 71
3
 72
9
 73
5
 74
0
 42
0.0000001
 43
0.0000001
 44
0.0000000001
 40
0.0
 40
0.0
 40
0.0
 40
0.0
 40
0.251871776
 40
1.0
 40
1.0
 40
1.0
 40
1.0
 10
-38.6828275214
 20
-25.1033758361
 30
0.0
 10
-38.7080118733
 20
-25.0929546085
 30
0.0
 10
-38.804530906
 20
-25.0435269337
 30
0.0
 10
-38.8839302665
 20
-24.9615560041
 30
0.0
 10
-38.9244408193
 20
-24.8914650497
 30
0.0
  0
SPLINE
  5
6A1
100
AcDbEntity
  8
RACCORDO
100
AcDbSpline
 62
250
  6
CONTINUOUS
 70
0
 71
3
 72
8
 73
4
 74
0
 42
0.0000001
 43
0.0000001
 44
0.0000000001
 40
0.0
 40
0.0
 40
0.0
 40
0.0
 40
1.0
 40
1.0
 40
1.0
 40
1.0
 10
-39.0000347678
 20
-25.0379793295
 30
0.0
 10
-38.9619577939
 20
-25.0906277763
 30
0.0
 10
-38.9125137829
 20
-25.1365366567
 30
0.0
 10
-38.8571893575
 20
-25.1706089745
 30
0.0
  0
SPLINE
  5
6A2
100
AcDbEntity
  8
RACCORDO
100
AcDbSpline
 62
250
  6
CONTINUOUS
 70
0
 71
3
 72
9
 73
5
 74
0
 42
0.0000001
 43
0.0000001
 44
0.0000000001
 40
0.0
 40
0.0
 40
0.0
 40
0.0
 40
0.3616119229
 40
1.0
 40
1.0
 40
1.0
 40
1.0
 10
37.9916262694
 20
-24.1416262694
 30
0.0
 10
38.1115669139
 20
-24.2030287437
 30
0.0
 10
38.4459336558
 20
-24.3675264125
 30
0.0
 10
38.779070926
 20
-24.5344501802
 30
0.0
 10
38.9914739646
 20
-24.641550117
 30
0.0
  0
SPLINE
  5
6A3
100
AcDbEntity
  8
RACCORDO
100
AcDbSpline
 62
250
  6
CONTINUOUS
 70
0
 71
3
 72
10
 73
6
 74
0
 42
0.0000001
 43
0.0000001
 44
0.0000000001
 40
0.0
 40
0.0
 40
0.0
 40
0.0
 40
0.089384671
 40
0.470493022
 40
1.0
 40
1.0
 40
1.0
 40
1.0
 10
38.9914739646
 20
22.041550117
 30
0.0
 10
38.9617329051
 20
22.0265567595
 30
0.0
 10
38.8047502423
 20
21.9485026524
 30
0.0
 10
38.472011332
 20
21.780783161
 30
0.0
 10
38.167230718
 20
21.631584904
 30
0.0
 10
37.9916262694
 20
21.5416262694
 30
0.0
  0
SPLINE
  5
6A4
100
AcDbEntity
  8
RACCORDO
100
AcDbSpline
 62
250
  6
CONTINUOUS
 70
0
 71
3
 72
11
 73
7
 74
0
 42
0.0000001
 43
0.0000001
 44
0.0000000001
 40
0.0
 40
0.0
 40
0.0
 40
0.0
 40
0.3616093537
 40
0.68116426
 40
0.9106325276
 40
1.0
 40
1.0
 40
1.0
 40
1.0
 10
37.9916262694
 20
-24.1416262694
 30
0.0
 10
38.0530283079
 20
-24.2615660626
 30
0.0
 10
38.164954232
 20
-24.4893861376
 30
0.0
 10
38.3167323261
 20
-24.7928728485
 30
0.0
 10
38.4242751869
 20
-25.005043323
 30
0.0
 10
38.476057095
 20
-25.1119973494
 30
0.0
 10
38.491550117
 20
-25.1414739646
 30
0.0
  0
SPLINE
  5
6A5
100
AcDbEntity
  8
RACCORDO
100
AcDbSpline
 62
250
  6
CONTINUOUS
 70
0
 71
3
 72
9
 73
5
 74
0
 42
0.0000001
 43
0.0000001
 44
0.0000000001
 40
0.0
 40
0.0
 40
0.0
 40
0.0
 40
0.3616395615
 40
1.0
 40
1.0
 40
1.0
 40
1.0
 10
-37.9916262694
 20
-24.1416262694
 30
0.0
 10
-38.0527460053
 20
-24.2617227937
 30
0.0
 10
-38.2177016268
 20
-24.5958552965
 30
0.0
 10
-38.3849135892
 20
-24.928849418
 30
0.0
 10
-38.491550117
 20
-25.1414739646
 30
0.0
  0
SPLINE
  5
6A6
100
AcDbEntity
  8
RACCORDO
100
AcDbSpline
 62
250
  6
CONTINUOUS
 70
0
 71
3
 72
9
 73
5
 74
0
 42
0.0000001
 43
0.0000001
 44
0.0000000001
 40
0.0
 40
0.0
 40
0.0
 40
0.0
 40
0.3616049064
 40
1.0
 40
1.0
 40
1.0
 40
1.0
 10
-37.9916262694
 20
21.5416262694
 30
0.0
 10
-38.1115579512
 20
21.6030405117
 30
0.0
 10
-38.4459389593
 20
21.7675102768
 30
0.0
 10
-38.7790596194
 20
21.9344667985
 30
0.0
 10
-38.9914739646
 20
22.041550117
 30
0.0
  0
SPLINE
  5
6A7
100
AcDbEntity
  8
RACCORDO
100
AcDbSpline
 62
250
  6
CONTINUOUS
 70
0
 71
3
 72
13
 73
9
 74
0
 42
0.0000001
 43
0.0000001
 44
0.0000000001
 40
0.0
 40
0.0
 40
0.0
 40
0.0
 40
0.3616384135
 40
0.6812214045
 40
0.8104978638
 40
0.9106320375
 40
0.9753977136
 40
1.0
 40
1.0
 40
1.0
 40
1.0
 10
-37.9916262694
 20
-24.1416262694
 30
0.0
 10
-38.1117224171
 20
-24.2027458137
 30
0.0
 10
-38.339414387
 20
-24.3149677797
 30
0.0
 10
-38.6093789243
 20
-24.4503570368
 30
0.0
 10
-38.792266397
 20
-24.5419920913
 30
0.0
 10
-38.8904615417
 20
-24.590740922
 30
0.0
 10
-38.9532198459
 20
-24.6230610026
 30
0.0
 10
-38.9835048146
 20
-24.6370188173
 30
0.0
 10
-38.9914739646
 20
-24.641550117
 30
0.0
  0
SPLINE
  5
6A8
100
AcDbEntity
  8
RACCORDO
100
AcDbSpline
 62
250
  6
CONTINUOUS
 70
0
 71
3
 72
11
 73
7
 74
0
 42
0.0000001
 43
0.0000001
 44
0.0000000001
 40
0.0
 40
0.0
 40
0.0
 40
0.0
 40
0.0893702287
 40
0.3188408189
 40
0.638397441
 40
1.0
 40
1.0
 40
1.0
 40
1.0
 10
38.491550117
 20
22.5414739645
 30
0.0
 10
38.4760057057
 20
22.5120232556
 30
0.0
 10
38.4243366682
 20
22.4050076539
 30
0.0
 10
38.3166978301
 20
22.1928848333
 30
0.0
 10
38.1649565133
 20
21.8893798944
 30
0.0
 10
38.0530594033
 20
21.6615472937
 30
0.0
 10
37.9916262694
 20
21.5416262694
 30
0.0
  0
SPLINE
  5
6A9
100
AcDbEntity
  8
RACCORDO
100
AcDbSpline
 62
250
  6
CONTINUOUS
 70
0
 71
3
 72
11
 73
7
 74
0
 42
0.0000001
 43
0.0000001
 44
0.0000000001
 40
0.0
 40
0.0
 40
0.0
 40
0.0
 40
0.3616024692
 40
0.6811592077
 40
0.9106298157
 40
1.0
 40
1.0
 40
1.0
 40
1.0
 10
-37.9916262694
 20
21.5416262694
 30
0.0
 10
-38.0530400983
 20
21.6615571437
 30
0.0
 10
-38.1649620701
 20
21.8893770301
 30
0.0
 10
-38.3166991803
 20
22.1928840658
 30
0.0
 10
-38.4243298971
 20
22.4050112662
 30
0.0
 10
-38.4760115738
 20
22.5120201779
 30
0.0
 10
-38.491550117
 20
22.5414739645
 30
0.0
  0
SPLINE
  5
6AA
100
AcDbEntity
  8
RACCORDO
100
AcDbSpline
 62
250
  6
CONTINUOUS
 70
0
 71
3
 72
9
 73
5
 74
0
 42
0.0000001
 43
0.0000001
 44
0.0000000001
 40
0.0
 40
0.0
 40
0.0
 40
0.0
 40
0.4999896954
 40
1.0
 40
1.0
 40
1.0
 40
1.0
 10
36.964001341
 20
-23.6929557422
 30
0.0
 10
37.0801633971
 20
-23.6773576113
 30
0.0
 10
37.3087650678
 20
-23.5571993173
 30
0.0
 10
37.3974114387
 20
-23.3146332842
 30
0.0
 10
37.3974047863
 20
-23.1974238248
 30
0.0
  0
SPLINE
  5
6AB
100
AcDbEntity
  8
RACCORDO
100
AcDbSpline
 62
250
  6
CONTINUOUS
 70
0
 71
3
 72
9
 73
5
 74
0
 42
0.0000001
 43
0.0000001
 44
0.0000000001
 40
0.0
 40
0.0
 40
0.0
 40
0.0
 40
0.4999896954
 40
1.0
 40
1.0
 40
1.0
 40
1.0
 10
-36.964001341
 20
21.0929557421
 30
0.0
 10
-37.0801633971
 20
21.0773576113
 30
0.0
 10
-37.3087650678
 20
20.9571993173
 30
0.0
 10
-37.3974114387
 20
20.7146332842
 30
0.0
 10
-37.3974047863
 20
20.5974238247
 30
0.0
  0
SPLINE
  5
6AC
100
AcDbEntity
  8
RACCORDO
100
AcDbSpline
 62
250
  6
CONTINUOUS
 70
0
 71
3
 72
18
 73
14
 74
0
 42
0.0000001
 43
0.0000001
 44
0.0000000001
 40
0.0
 40
0.0
 40
0.0
 40
0.0
 40
0.1851035253
 40
0.3643570989
 40
0.532115379
 40
0.6829921333
 40
0.8111844626
 40
0.8648330422
 40
0.9104945545
 40
0.9474111096
 40
0.9748707574
 40
0.9924599607
 40
1.0
 40
1.0
 40
1.0
 40
1.0
 10
36.3540979022
 20
20.1050623331
 30
0.0
 10
36.3842695102
 20
20.1639836684
 30
0.0
 10
36.4428149582
 20
20.2803945149
 30
0.0
 10
36.5281695296
 20
20.4504743372
 30
0.0
 10
36.609643013
 20
20.6088028324
 30
0.0
 10
36.6833853457
 20
20.750554034
 30
0.0
 10
36.738784135
 20
20.8558873915
 30
0.0
 10
36.7775822249
 20
20.9273588359
 30
0.0
 10
36.8011794938
 20
20.9700780649
 30
0.0
 10
36.8207679532
 20
21.0039470417
 30
0.0
 10
36.8354157167
 20
21.0299657909
 30
0.0
 10
36.8459503803
 20
21.0443786086
 30
0.0
 10
36.8508077281
 20
21.0533662687
 30
0.0
 10
36.853413491
 20
21.054059822
 30
0.0
  0
SPLINE
  5
6AD
100
AcDbEntity
  8
RACCORDO
100
AcDbSpline
 62
250
  6
CONTINUOUS
 70
0
 71
3
 72
18
 73
14
 74
0
 42
0.0000001
 43
0.0000001
 44
0.0000000001
 40
0.0
 40
0.0
 40
0.0
 40
0.0
 40
0.0075400051
 40
0.0251292019
 40
0.052588902
 40
0.0895055197
 40
0.1351670759
 40
0.1888156656
 40
0.3170079232
 40
0.4678845595
 40
0.6356427841
 40
0.8148965524
 40
1.0
 40
1.0
 40
1.0
 40
1.0
 10
-36.853413491
 20
21.054059822
 30
0.0
 10
-36.8508076094
 20
21.0533667617
 30
0.0
 10
-36.8459500681
 20
21.0443785251
 30
0.0
 10
-36.8354158105
 20
21.0299660294
 30
0.0
 10
-36.8207681005
 20
21.0039469046
 30
0.0
 10
-36.8011794727
 20
20.9700780813
 30
0.0
 10
-36.7775819708
 20
20.9273588846
 30
0.0
 10
-36.7387839231
 20
20.8558874372
 30
0.0
 10
-36.6833862711
 20
20.7505535322
 30
0.0
 10
-36.6096427742
 20
20.6088030442
 30
0.0
 10
-36.5281682218
 20
20.4504750328
 30
0.0
 10
-36.4428265904
 20
20.2803886947
 30
0.0
 10
-36.3842794772
 20
20.1639785365
 30
0.0
 10
-36.3540979022
 20
20.1050623331
 30
0.0
  0
SPLINE
  5
6AE
100
AcDbEntity
  8
RACCORDO
100
AcDbSpline
 62
250
  6
CONTINUOUS
 70
0
 71
3
 72
16
 73
12
 74
0
 42
0.0000001
 43
0.0000001
 44
0.0000000001
 40
0.0
 40
0.0
 40
0.0
 40
0.0
 40
0.3579307146
 40
0.5238024233
 40
0.6738634494
 40
0.802370413
 40
0.9031129494
 40
0.9412424161
 40
0.9703128775
 40
0.9899262279
 40
1.0
 40
1.0
 40
1.0
 40
1.0
 10
36.3540973119
 20
20.1050620246
 30
0.0
 10
36.4706292749
 20
20.1646407942
 30
0.0
 10
36.6432342081
 20
20.2477393499
 30
0.0
 10
36.8656171851
 20
20.3538219914
 30
0.0
 10
37.0130514277
 20
20.422236777
 30
0.0
 10
37.1397482081
 20
20.4785668103
 30
0.0
 10
37.2299183532
 20
20.5166651036
 30
0.0
 10
37.2871547705
 20
20.5385261699
 30
0.0
 10
37.3173600328
 20
20.5491526553
 30
0.0
 10
37.3376903089
 20
20.5543388048
 30
0.0
 10
37.3490367393
 20
20.5566661289
 30
0.0
 10
37.3525044203
 20
20.5554237418
 30
0.0
  0
SPLINE
  5
6AF
100
AcDbEntity
  8
RACCORDO
100
AcDbSpline
 62
250
  6
CONTINUOUS
 70
0
 71
3
 72
16
 73
12
 74
0
 42
0.0000001
 43
0.0000001
 44
0.0000000001
 40
0.0
 40
0.0
 40
0.0
 40
0.0
 40
0.0100686033
 40
0.0296849739
 40
0.0587600246
 40
0.096890284
 40
0.1976290069
 40
0.3261359802
 40
0.4761973258
 40
0.642068067
 40
1.0
 40
1.0
 40
1.0
 40
1.0
 10
37.352504421
 20
-23.1554237417
 30
0.0
 10
37.3490406092
 20
-23.1566712952
 30
0.0
 10
37.3376908328
 20
-23.1543357445
 30
0.0
 10
37.317364739
 20
-23.1491481474
 30
0.0
 10
37.2871560364
 20
-23.1385158111
 30
0.0
 10
37.229918705
 20
-23.1166592047
 30
0.0
 10
37.1397455882
 20
-23.0785688999
 30
0.0
 10
37.0130505692
 20
-23.0222392314
 30
0.0
 10
36.8656180383
 20
-22.9538214348
 30
0.0
 10
36.6432350236
 20
-22.8477400323
 30
0.0
 10
36.4706077973
 20
-22.7646848349
 30
0.0
 10
36.3540979023
 20
-22.7050623153
 30
0.0
  0
SPLINE
  5
6B0
100
AcDbEntity
  8
RACCORDO
100
AcDbSpline
 62
250
  6
CONTINUOUS
 70
0
 71
3
 72
9
 73
5
 74
0
 42
0.0000001
 43
0.0000001
 44
0.0000000001
 40
0.0
 40
0.0
 40
0.0
 40
0.0
 40
0.3701005519
 40
1.0
 40
1.0
 40
1.0
 40
1.0
 10
37.3542852004
 20
-23.1543042389
 30
0.0
 10
37.3541874133
 20
-23.1545488275
 30
0.0
 10
37.3535711568
 20
-23.1550122109
 30
0.0
 10
37.3529262862
 20
-23.1552720192
 30
0.0
 10
37.352504421
 20
-23.1554237417
 30
0.0
  0
SPLINE
  5
6B1
100
AcDbEntity
  8
RACCORDO
100
AcDbSpline
 62
250
  6
CONTINUOUS
 70
0
 71
3
 72
9
 73
5
 74
0
 42
0.0000001
 43
0.0000001
 44
0.0000000001
 40
0.0
 40
0.0
 40
0.0
 40
0.0
 40
0.6298994904
 40
1.0
 40
1.0
 40
1.0
 40
1.0
 10
37.3525044203
 20
20.5554237418
 30
0.0
 10
37.3529262857
 20
20.5552720192
 30
0.0
 10
37.3535711565
 20
20.555012211
 30
0.0
 10
37.3541874133
 20
20.5545488276
 30
0.0
 10
37.3542852005
 20
20.5543042389
 30
0.0
  0
SPLINE
  5
6B2
100
AcDbEntity
  8
RACCORDO
100
AcDbSpline
 62
250
  6
CONTINUOUS
 70
0
 71
3
 72
18
 73
14
 74
0
 42
0.0000001
 43
0.0000001
 44
0.0000000001
 40
0.0
 40
0.0
 40
0.0
 40
0.0
 40
0.1851034774
 40
0.3643563008
 40
0.5321116786
 40
0.682990231
 40
0.8111838395
 40
0.8648280725
 40
0.9104855874
 40
0.9474049308
 40
0.9748775072
 40
0.9924744933
 40
1.0
 40
1.0
 40
1.0
 40
1.0
 10
-36.3540979021
 20
-22.7050623331
 30
0.0
 10
-36.3842822664
 20
-22.7639774329
 30
0.0
 10
-36.4428332701
 20
-22.8803859161
 30
0.0
 10
-36.5281712591
 20
-23.0504733928
 30
0.0
 10
-36.6096347421
 20
-23.2088073445
 30
0.0
 10
-36.6833796194
 20
-23.3505575741
 30
0.0
 10
-36.7387887505
 20
-23.4558868589
 30
0.0
 10
-36.7775904941
 20
-23.5273516814
 30
0.0
 10
-36.8011873365
 20
-23.5700739657
 30
0.0
 10
-36.8207715122
 20
-23.6039369961
 30
0.0
 10
-36.8354139307
 20
-23.6300010728
 30
0.0
 10
-36.8459310193
 20
-23.6443652894
 30
0.0
 10
-36.8508001196
 20
-23.6534168869
 30
0.0
 10
-36.8534134913
 20
-23.6540598221
 30
0.0
  0
SPLINE
  5
6B3
100
AcDbEntity
  8
RACCORDO
100
AcDbSpline
 62
250
  6
CONTINUOUS
 70
0
 71
3
 72
18
 73
14
 74
0
 42
0.0000001
 43
0.0000001
 44
0.0000000001
 40
0.0
 40
0.0
 40
0.0
 40
0.0
 40
0.0075254315
 40
0.0251224125
 40
0.05259506
 40
0.0895144814
 40
0.1351720495
 40
0.1888162959
 40
0.317009827
 40
0.4678882538
 40
0.6356435755
 40
0.8148965991
 40
1.0
 40
1.0
 40
1.0
 40
1.0
 10
36.8534134913
 20
-23.6540598221
 30
0.0
 10
36.8508000158
 20
-23.6534174213
 30
0.0
 10
36.8459307328
 20
-23.6443651794
 30
0.0
 10
36.8354140811
 20
-23.6300013429
 30
0.0
 10
36.8207717096
 20
-23.6039368439
 30
0.0
 10
36.8011873368
 20
-23.5700739804
 30
0.0
 10
36.7775902256
 20
-23.5273517315
 30
0.0
 10
36.7387884914
 20
-23.4558869235
 30
0.0
 10
36.683380518
 20
-23.3505570828
 30
0.0
 10
36.6096345627
 20
-23.2088075285
 30
0.0
 10
36.5281700853
 20
-23.0504740236
 30
0.0
 10
36.4428448723
 20
-22.8803801138
 30
0.0
 10
36.3842921545
 20
-22.763972339
 30
0.0
 10
36.3540979021
 20
-22.7050623331
 30
0.0
  0
SPLINE
  5
6B4
100
AcDbEntity
  8
RACCORDO
100
AcDbSpline
 62
250
  6
CONTINUOUS
 70
0
 71
3
 72
9
 73
5
 74
0
 42
0.0000001
 43
0.0000001
 44
0.0000000001
 40
0.0
 40
0.0
 40
0.0
 40
0.0
 40
0.3701005216
 40
1.0
 40
1.0
 40
1.0
 40
1.0
 10
-37.3542852005
 20
20.5543042389
 30
0.0
 10
-37.3541874133
 20
20.5545488276
 30
0.0
 10
-37.3535711565
 20
20.555012211
 30
0.0
 10
-37.3529262857
 20
20.5552720193
 30
0.0
 10
-37.3525044203
 20
20.5554237418
 30
0.0
  0
SPLINE
  5
6B5
100
AcDbEntity
  8
RACCORDO
100
AcDbSpline
 62
250
  6
CONTINUOUS
 70
0
 71
3
 72
9
 73
5
 74
0
 42
0.0000001
 43
0.0000001
 44
0.0000000001
 40
0.0
 40
0.0
 40
0.0
 40
0.0
 40
0.6298994601
 40
1.0
 40
1.0
 40
1.0
 40
1.0
 10
-37.352504421
 20
-23.1554237417
 30
0.0
 10
-37.3529262861
 20
-23.1552720191
 30
0.0
 10
-37.3535711567
 20
-23.1550122109
 30
0.0
 10
-37.3541874133
 20
-23.1545488275
 30
0.0
 10
-37.3542852004
 20
-23.1543042389
 30
0.0
  0
SPLINE
  5
6B6
100
AcDbEntity
  8
RACCORDO
100
AcDbSpline
 62
250
  6
CONTINUOUS
 70
0
 71
3
 72
16
 73
12
 74
0
 42
0.0000001
 43
0.0000001
 44
0.0000000001
 40
0.0
 40
0.0
 40
0.0
 40
0.0
 40
0.3579318074
 40
0.5238026373
 40
0.6738640961
 40
0.8023710109
 40
0.9031096835
 40
0.9412399583
 40
0.9703150504
 40
0.9899314409
 40
1.0
 40
1.0
 40
1.0
 40
1.0
 10
-36.3540973251
 20
-22.7050620316
 30
0.0
 10
-36.4706170802
 20
-22.7646653423
 30
0.0
 10
-36.6432341743
 20
-22.8477403513
 30
0.0
 10
-36.865617441
 20
-22.9538219734
 30
0.0
 10
-37.0130504843
 20
-23.022238948
 30
0.0
 10
-37.1397454464
 20
-23.0785689401
 30
0.0
 10
-37.2299186241
 20
-23.1166591823
 30
0.0
 10
-37.287156013
 20
-23.1385157098
 30
0.0
 10
-37.3173647674
 20
-23.1491480994
 30
0.0
 10
-37.3376908269
 20
-23.1543357248
 30
0.0
 10
-37.3490406436
 20
-23.1566713495
 30
0.0
 10
-37.352504421
 20
-23.1554237417
 30
0.0
  0
SPLINE
  5
6B7
100
AcDbEntity
  8
RACCORDO
100
AcDbSpline
 62
250
  6
CONTINUOUS
 70
0
 71
3
 72
16
 73
12
 74
0
 42
0.0000001
 43
0.0000001
 44
0.0000000001
 40
0.0
 40
0.0
 40
0.0
 40
0.0
 40
0.010073827
 40
0.0296871549
 40
0.0587575682
 40
0.0968870167
 40
0.1976296041
 40
0.3261366238
 40
0.4761975366
 40
0.642069161
 40
1.0
 40
1.0
 40
1.0
 40
1.0
 10
-37.3525044203
 20
20.5554237418
 30
0.0
 10
-37.3490366985
 20
20.5566660682
 30
0.0
 10
-37.3376903107
 20
20.5543388234
 30
0.0
 10
-37.3173599974
 20
20.5491526924
 30
0.0
 10
-37.287154795
 20
20.5385262606
 30
0.0
 10
-37.2299184396
 20
20.5166651118
 30
0.0
 10
-37.1397483537
 20
20.4785667718
 30
0.0
 10
-37.0130514968
 20
20.4222371114
 30
0.0
 10
-36.8656177981
 20
20.3538214393
 30
0.0
 10
-36.6432351595
 20
20.2477388441
 30
0.0
 10
-36.4706199273
 20
20.16466045
 30
0.0
 10
-36.3540979024
 20
20.1050623148
 30
0.0
  0
SPLINE
  5
6B8
100
AcDbEntity
  8
217
100
AcDbSpline
 62
7
  6
CONTINUOUS
 70
0
 71
3
 72
8
 73
4
 74
0
 42
0.0000001
 43
0.0000001
 44
0.0000000001
 40
0.0
 40
0.0
 40
0.0
 40
0.0
 40
1.0
 40
1.0
 40
1.0
 40
1.0
 10
-17.7921127855
 20
-31.0865303759
 30
0.0
 10
-17.7922221864
 20
-31.1295518106
 30
0.0
 10
-17.7978539832
 20
-31.1729609275
 30
0.0
 10
-17.809203
 20
-31.2144585856
 30
0.0
  0
SPLINE
  5
6B9
100
AcDbEntity
  8
217
100
AcDbSpline
 62
7
  6
CONTINUOUS
 70
0
 71
3
 72
11
 73
7
 74
0
 42
0.0000001
 43
0.0000001
 44
0.0000000001
 40
0.0
 40
0.0
 40
0.0
 40
0.0
 40
0.2526689311
 40
0.5045437191
 40
0.7528569205
 40
1.0
 40
1.0
 40
1.0
 40
1.0
 10
-17.3465006225
 20
-33.484068788
 30
0.0
 10
-17.4088171594
 20
-33.4840687044
 30
0.0
 10
-17.5343668601
 20
-33.4593626023
 30
0.0
 10
-17.6945192789
 20
-33.3568643295
 30
0.0
 10
-17.8021062843
 20
-33.2010314281
 30
0.0
 10
-17.8262068535
 20
-33.0772422317
 30
0.0
 10
-17.826047582
 20
-33.0162887612
 30
0.0
  0
SPLINE
  5
6BA
100
AcDbEntity
  8
217
100
AcDbSpline
 62
7
  6
CONTINUOUS
 70
0
 71
3
 72
14
 73
10
 74
0
 42
0.0000001
 43
0.0000001
 44
0.0000000001
 40
0.0
 40
0.0
 40
0.0
 40
0.0
 40
0.251618049
 40
0.3771718536
 40
0.5023600274
 40
0.6267475505
 40
0.750859317
 40
0.8751074206
 40
1.0
 40
1.0
 40
1.0
 40
1.0
 10
-15.884495902
 20
-30.8750129806
 30
0.0
 10
-15.958800279
 20
-30.8556406777
 30
0.0
 10
-16.0806998871
 20
-30.8592581928
 30
0.0
 10
-16.2233216421
 20
-30.9148307511
 30
0.0
 10
-16.3226693195
 20
-30.9776854404
 30
0.0
 10
-16.379887222
 20
-31.0802994834
 30
0.0
 10
-16.4125939947
 20
-31.1884219034
 30
0.0
 10
-16.4567061673
 20
-31.2956281638
 30
0.0
 10
-16.5153775563
 20
-31.347948996
 30
0.0
 10
-16.5470636474
 20
-31.3691315474
 30
0.0
  0
SPLINE
  5
6BB
100
AcDbEntity
  8
217
100
AcDbSpline
 62
7
  6
CONTINUOUS
 70
0
 71
3
 72
9
 73
5
 74
0
 42
0.0000001
 43
0.0000001
 44
0.0000000001
 40
0.0
 40
0.0
 40
0.0
 40
0.0
 40
0.5041369742
 40
1.0
 40
1.0
 40
1.0
 40
1.0
 10
-20.1954227308
 20
-33.4840686305
 30
0.0
 10
-20.3015571123
 20
-33.4518189821
 30
0.0
 10
-20.4987019134
 20
-33.3256532058
 30
0.0
 10
-20.5916172035
 20
-33.109726572
 30
0.0
 10
-20.603546
 20
-33.0012753023
 30
0.0
  0
SPLINE
  5
6BC
100
AcDbEntity
  8
217
100
AcDbSpline
 62
7
  6
CONTINUOUS
 70
0
 71
3
 72
9
 73
5
 74
0
 42
0.0000001
 43
0.0000001
 44
0.0000000001
 40
0.0
 40
0.0
 40
0.0
 40
0.0
 40
0.4964443086
 40
1.0
 40
1.0
 40
1.0
 40
1.0
 10
-18.3239538017
 20
-33.1371856369
 30
0.0
 10
-18.3533155342
 20
-33.219914544
 30
0.0
 10
-18.4560035508
 20
-33.3738444083
 30
0.0
 10
-18.6186185626
 20
-33.4610531657
 30
0.0
 10
-18.704635
 20
-33.484068675
 30
0.0
  0
SPLINE
  5
6BD
100
AcDbEntity
  8
217
100
AcDbSpline
 62
7
  6
CONTINUOUS
 70
0
 71
3
 72
8
 73
4
 74
0
 42
0.0000001
 43
0.0000001
 44
0.0000000001
 40
0.0
 40
0.0
 40
0.0
 40
0.0
 40
1.0
 40
1.0
 40
1.0
 40
1.0
 10
-19.6043628905
 20
-32.6564648276
 30
0.0
 10
-19.6294299278
 20
-32.6947777513
 30
0.0
 10
-19.6425837802
 20
-32.7426218245
 30
0.0
 10
-19.6425404873
 20
-32.7884064792
 30
0.0
  0
SPLINE
  5
6BE
100
AcDbEntity
  8
217
100
AcDbSpline
 62
7
  6
CONTINUOUS
 70
0
 71
3
 72
9
 73
5
 74
0
 42
0.0000001
 43
0.0000001
 44
0.0000000001
 40
0.0
 40
0.0
 40
0.0
 40
0.0
 40
0.5031817662
 40
1.0
 40
1.0
 40
1.0
 40
1.0
 10
-18.667068
 20
-30.888964586
 30
0.0
 10
-18.7595234102
 20
-30.8627396693
 30
0.0
 10
-18.965728325
 20
-30.8703297361
 30
0.0
 10
-19.1246838552
 20
-31.0031800851
 30
0.0
 10
-19.1736589968
 20
-31.0844516074
 30
0.0
  0
SPLINE
  5
6BF
100
AcDbEntity
  8
217
100
AcDbSpline
 62
7
  6
CONTINUOUS
 70
0
 71
3
 72
9
 73
5
 74
0
 42
0.0000001
 43
0.0000001
 44
0.0000000001
 40
0.0
 40
0.0
 40
0.0
 40
0.0
 40
0.5044538825
 40
1.0
 40
1.0
 40
1.0
 40
1.0
 10
-22.9729021197
 20
-33.4840686952
 30
0.0
 10
-23.090206541
 20
-33.4576956505
 30
0.0
 10
-23.3131019766
 20
-33.3253366765
 30
0.0
 10
-23.3990119789
 20
-33.0793704177
 30
0.0
 10
-23.3985587516
 20
-32.9612618372
 30
0.0
  0
SPLINE
  5
6C0
100
AcDbEntity
  8
217
100
AcDbSpline
 62
7
  6
CONTINUOUS
 70
0
 71
3
 72
9
 73
5
 74
0
 42
0.0000001
 43
0.0000001
 44
0.0000000001
 40
0.0
 40
0.0
 40
0.0
 40
0.0
 40
0.5023730218
 40
1.0
 40
1.0
 40
1.0
 40
1.0
 10
-21.460137
 20
-30.8806268173
 30
0.0
 10
-21.5495876602
 20
-30.8477483433
 30
0.0
 10
-21.753260336
 20
-30.8380791352
 30
0.0
 10
-21.9235702097
 20
-30.9512378301
 30
0.0
 10
-21.9818749767
 20
-31.0254818313
 30
0.0
  0
SPLINE
  5
6C1
100
AcDbEntity
  8
217
100
AcDbSpline
 62
7
  6
CONTINUOUS
 70
0
 71
3
 72
9
 73
5
 74
0
 42
0.0000001
 43
0.0000001
 44
0.0000000001
 40
0.0
 40
0.0
 40
0.0
 40
0.0
 40
0.5040631532
 40
1.0
 40
1.0
 40
1.0
 40
1.0
 10
26.1393507907
 20
-31.5771332602
 30
0.0
 10
26.3123067034
 20
-31.5064739476
 30
0.0
 10
26.6230609193
 20
-31.2623314276
 30
0.0
 10
26.7396774433
 20
-30.8831488339
 30
0.0
 10
26.7396268645
 20
-30.6993281087
 30
0.0
  0
SPLINE
  5
6C2
100
AcDbEntity
  8
217
100
AcDbSpline
 62
7
  6
CONTINUOUS
 70
0
 71
3
 72
9
 73
5
 74
0
 42
0.0000001
 43
0.0000001
 44
0.0000000001
 40
0.0
 40
0.0
 40
0.0
 40
0.0
 40
0.5001362485
 40
1.0
 40
1.0
 40
1.0
 40
1.0
 10
42.006573604
 20
-14.5739755683
 30
0.0
 10
42.1166043985
 20
-14.575013672
 30
0.0
 10
42.3570671019
 20
-14.6410725825
 30
0.0
 10
42.4387942084
 20
-14.8829319728
 30
0.0
 10
42.4361859624
 20
-14.9928767782
 30
0.0
  0
SPLINE
  5
6C3
100
AcDbEntity
  8
217
100
AcDbSpline
 62
7
  6
CONTINUOUS
 70
0
 71
3
 72
10
 73
6
 74
0
 42
0.0000001
 43
0.0000001
 44
0.0000000001
 40
0.0
 40
0.0
 40
0.0
 40
0.0
 40
0.2500380406
 40
0.5000794462
 40
1.0
 40
1.0
 40
1.0
 40
1.0
 10
42.2343738459
 20
-14.9928767782
 30
0.0
 10
42.2343738459
 20
-15.0288956142
 30
0.0
 10
42.2295383014
 20
-15.1028327073
 30
0.0
 10
42.1401760018
 20
-15.2273502669
 30
0.0
 10
42.0200917085
 20
-15.2442170387
 30
0.0
 10
41.9480764407
 20
-15.2442174916
 30
0.0
  0
SPLINE
  5
6C4
100
AcDbEntity
  8
217
100
AcDbSpline
 62
7
  6
CONTINUOUS
 70
0
 71
3
 72
9
 73
5
 74
0
 42
0.0000001
 43
0.0000001
 44
0.0000000001
 40
0.0
 40
0.0
 40
0.0
 40
0.0
 40
0.4998637509
 40
1.0
 40
1.0
 40
1.0
 40
1.0
 10
47.4867426146
 20
-14.9928767782
 30
0.0
 10
47.4893508607
 20
-14.8829319675
 30
0.0
 10
47.4076237428
 20
-14.6410725641
 30
0.0
 10
47.1671610218
 20
-14.5750136651
 30
0.0
 10
47.0571302217
 20
-14.573975568
 30
0.0
  0
SPLINE
  5
6C5
100
AcDbEntity
  8
217
100
AcDbSpline
 62
7
  6
CONTINUOUS
 70
0
 71
3
 72
10
 73
6
 74
0
 42
0.0000001
 43
0.0000001
 44
0.0000000001
 40
0.0
 40
0.0
 40
0.0
 40
0.0
 40
0.4999205543
 40
0.7499619595
 40
1.0
 40
1.0
 40
1.0
 40
1.0
 10
46.9986330684
 20
-15.2442174916
 30
0.0
 10
47.0706483403
 20
-15.2442170412
 30
0.0
 10
47.1907326411
 20
-15.2273502765
 30
0.0
 10
47.2800949528
 20
-15.1028327138
 30
0.0
 10
47.2849304981
 20
-15.0288956162
 30
0.0
 10
47.2849304981
 20
-14.9928767782
 30
0.0
  0
SPLINE
  5
6C6
100
AcDbEntity
  8
217
100
AcDbSpline
 62
7
  6
CONTINUOUS
 70
0
 71
3
 72
11
 73
7
 74
0
 42
0.0000001
 43
0.0000001
 44
0.0000000001
 40
0.0
 40
0.0
 40
0.0
 40
0.0
 40
0.2534740689
 40
0.5031121969
 40
0.7515571656
 40
1.0
 40
1.0
 40
1.0
 40
1.0
 10
51.7435761511
 20
-15.2987547639
 30
0.0
 10
51.7435761511
 20
-15.209092528
 30
0.0
 10
51.7263315388
 20
-15.0303590646
 30
0.0
 10
51.6180223516
 20
-14.7787306818
 30
0.0
 10
51.40077488
 20
-14.6095100831
 30
0.0
 10
51.222300453
 20
-14.5739752753
 30
0.0
 10
51.1344179327
 20
-14.5739755891
 30
0.0
  0
SPLINE
  5
6C7
100
AcDbEntity
  8
217
100
AcDbSpline
 62
7
  6
CONTINUOUS
 70
0
 71
3
 72
11
 73
7
 74
0
 42
0.0000001
 43
0.0000001
 44
0.0000000001
 40
0.0
 40
0.0
 40
0.0
 40
0.0
 40
0.2500225637
 40
0.5000070908
 40
0.7500114358
 40
1.0
 40
1.0
 40
1.0
 40
1.0
 10
51.108201634
 20
-15.8559734631
 30
0.0
 10
51.1745050833
 20
-15.8559735521
 30
0.0
 10
51.3106352714
 20
-15.8308848297
 30
0.0
 10
51.4665329032
 20
-15.6909094158
 30
0.0
 10
51.5326444155
 20
-15.4978385271
 30
0.0
 10
51.542038495
 20
-15.3650491968
 30
0.0
 10
51.542038495
 20
-15.2987547639
 30
0.0
  0
SPLINE
  5
6C8
100
AcDbEntity
  8
217
100
AcDbSpline
 62
7
  6
CONTINUOUS
 70
0
 71
3
 72
11
 73
7
 74
0
 42
0.0000001
 43
0.0000001
 44
0.0000000001
 40
0.0
 40
0.0
 40
0.0
 40
0.0
 40
0.2499895564
 40
0.499988042
 40
0.749980966
 40
1.0
 40
1.0
 40
1.0
 40
1.0
 10
-45.6211906261
 20
-12.9997101307
 30
0.0
 10
-45.6211906261
 20
-13.0728989279
 30
0.0
 10
-45.6319384808
 20
-13.2197571628
 30
0.0
 10
-45.7068060533
 20
-13.4313996538
 30
0.0
 10
-45.8762260778
 20
-13.5894432135
 30
0.0
 10
-46.0275628354
 20
-13.6142417056
 30
0.0
 10
-46.1007602626
 20
-13.6142420137
 30
0.0
  0
SPLINE
  5
6C9
100
AcDbEntity
  8
217
100
AcDbSpline
 62
7
  6
CONTINUOUS
 70
0
 71
3
 72
12
 73
8
 74
0
 42
0.0000001
 43
0.0000001
 44
0.0000000001
 40
0.0
 40
0.0
 40
0.0
 40
0.0
 40
0.2500320791
 40
0.5000183153
 40
0.7500142248
 40
0.8750058588
 40
1.0
 40
1.0
 40
1.0
 40
1.0
 10
-46.0717764426
 20
-12.2001718072
 30
0.0
 10
-45.9740955235
 20
-12.2001715216
 30
0.0
 10
-45.7743494921
 20
-12.2363498855
 30
0.0
 10
-45.5378274051
 20
-12.430812586
 30
0.0
 10
-45.438456918
 20
-12.6607050459
 30
0.0
 10
-45.4006201514
 20
-12.8528272213
 30
0.0
 10
-45.3993652876
 20
-12.9508782263
 30
0.0
 10
-45.3993652876
 20
-12.9997101307
 30
0.0
  0
SPLINE
  5
6CA
100
AcDbEntity
  8
217
100
AcDbSpline
 62
7
  6
CONTINUOUS
 70
0
 71
3
 72
9
 73
5
 74
0
 42
0.0000001
 43
0.0000001
 44
0.0000000001
 40
0.0
 40
0.0
 40
0.0
 40
0.0
 40
0.4996607547
 40
1.0
 40
1.0
 40
1.0
 40
1.0
 10
-49.771399
 20
13.2409139913
 30
0.0
 10
-49.8336479376
 20
13.1816030361
 30
0.0
 10
-49.9779316131
 20
13.0849932143
 30
0.0
 10
-50.131216697
 20
13.0053781528
 30
0.0
 10
-50.211998
 20
12.9755923908
 30
0.0
  0
SPLINE
  5
6CB
100
AcDbEntity
  8
217
100
AcDbSpline
 62
7
  6
CONTINUOUS
 70
0
 71
3
 72
9
 73
5
 74
0
 42
0.0000001
 43
0.0000001
 44
0.0000000001
 40
0.0
 40
0.0
 40
0.0
 40
0.0
 40
0.5546825716
 40
1.0
 40
1.0
 40
1.0
 40
1.0
 10
-50.211998
 20
13.1883422304
 30
0.0
 10
-50.095698059
 20
13.2429962693
 30
0.0
 10
-49.8993656794
 20
13.3694719172
 30
0.0
 10
-49.7388774776
 20
13.5458812239
 30
0.0
 10
-49.6930894615
 20
13.638329
 30
0.0
  0
SPLINE
  5
6CC
100
AcDbEntity
  8
217
100
AcDbSpline
 62
7
  6
CONTINUOUS
 70
0
 71
3
 72
14
 73
10
 74
0
 42
0.0000001
 43
0.0000001
 44
0.0000000001
 40
0.0
 40
0.0
 40
0.0
 40
0.0
 40
0.1533743571
 40
0.2445951197
 40
0.3363674112
 40
0.4820727609
 40
0.579699904
 40
0.688500663
 40
1.0
 40
1.0
 40
1.0
 40
1.0
 10
-48.059073666
 20
13.1752000269
 30
0.0
 10
-48.0743272178
 20
13.2422549424
 30
0.0
 10
-48.1107925095
 20
13.3538687869
 30
0.0
 10
-48.2402739212
 20
13.4428149813
 30
0.0
 10
-48.388079246
 20
13.4707324967
 30
0.0
 10
-48.5420552863
 20
13.4229606283
 30
0.0
 10
-48.6515511935
 20
13.3055319073
 30
0.0
 10
-48.7642239658
 20
13.0998025748
 30
0.0
 10
-48.77626955
 20
12.9037544263
 30
0.0
 10
-48.7775493634
 20
12.7640943871
 30
0.0
  0
SPLINE
  5
6CD
100
AcDbEntity
  8
217
100
AcDbSpline
 62
7
  6
CONTINUOUS
 70
0
 71
3
 72
13
 73
9
 74
0
 42
0.0000001
 43
0.0000001
 44
0.0000000001
 40
0.0
 40
0.0
 40
0.0
 40
0.0
 40
0.1484169278
 40
0.2875010606
 40
0.5165107062
 40
0.7667412453
 40
0.9471923573
 40
1.0
 40
1.0
 40
1.0
 40
1.0
 10
-48.7775493634
 20
12.7640943871
 30
0.0
 10
-48.729012577
 20
12.8378893398
 30
0.0
 10
-48.5980840582
 20
12.9615053162
 30
0.0
 10
-48.288562178
 20
13.0371197849
 30
0.0
 10
-47.9071675451
 20
12.8747910983
 30
0.0
 10
-47.7770526585
 20
12.460403027
 30
0.0
 10
-47.841142048
 20
12.1725046912
 30
0.0
 10
-47.9154217319
 20
12.0519582416
 30
0.0
 10
-47.934279296
 20
12.026174849
 30
0.0
  0
SPLINE
  5
6CE
100
AcDbEntity
  8
217
100
AcDbSpline
 62
7
  6
CONTINUOUS
 70
0
 71
3
 72
15
 73
11
 74
0
 42
0.0000001
 43
0.0000001
 44
0.0000000001
 40
0.0
 40
0.0
 40
0.0
 40
0.0
 40
0.169207238
 40
0.3273407108
 40
0.4523065194
 40
0.5765018036
 40
0.7070480823
 40
0.8517974009
 40
0.9976681953
 40
1.0
 40
1.0
 40
1.0
 40
1.0
 10
-47.2541130957
 20
12.8102116869
 30
0.0
 10
-47.3319004984
 20
12.8386715784
 30
0.0
 10
-47.4808807248
 20
12.9300352774
 30
0.0
 10
-47.5385250654
 20
13.1606861944
 30
0.0
 10
-47.5009500607
 20
13.3607427778
 30
0.0
 10
-47.3894074608
 20
13.5166783567
 30
0.0
 10
-47.2172051548
 20
13.6209153061
 30
0.0
 10
-47.0088595348
 20
13.6477237717
 30
0.0
 10
-46.8640641376
 20
13.6284846959
 30
0.0
 10
-46.7958073245
 20
13.6034453874
 30
0.0
 10
-46.7947346462
 20
13.6030476379
 30
0.0
  0
SPLINE
  5
6CF
100
AcDbEntity
  8
217
100
AcDbSpline
 62
7
  6
CONTINUOUS
 70
0
 71
3
 72
16
 73
12
 74
0
 42
0.0000001
 43
0.0000001
 44
0.0000000001
 40
0.0
 40
0.0
 40
0.0
 40
0.0
 40
0.1726737032
 40
0.2556684177
 40
0.3442195995
 40
0.4663763072
 40
0.5872337778
 40
0.7129733898
 40
0.8505368257
 40
0.988114164
 40
1.0
 40
1.0
 40
1.0
 40
1.0
 10
-46.7525725388
 20
12.8102116869
 30
0.0
 10
-46.6561816128
 20
12.7786630698
 30
0.0
 10
-46.5180455407
 20
12.6905300476
 30
0.0
 10
-46.4295035494
 20
12.5043320086
 30
0.0
 10
-46.4077220925
 20
12.3312387047
 30
0.0
 10
-46.4421933171
 20
12.1339931596
 30
0.0
 10
-46.5712233425
 20
11.9520190419
 30
0.0
 10
-46.7684093327
 20
11.8292387316
 30
0.0
 10
-47.0064053056
 20
11.7973950971
 30
0.0
 10
-47.1767948117
 20
11.8202794655
 30
0.0
 10
-47.2586882336
 20
11.8526026773
 30
0.0
 10
-47.2651526164
 20
11.855299451
 30
0.0
  0
SPLINE
  5
6D0
100
AcDbEntity
  8
217
100
AcDbSpline
 62
7
  6
CONTINUOUS
 70
0
 71
3
 72
9
 73
5
 74
0
 42
0.0000001
 43
0.0000001
 44
0.0000000001
 40
0.0
 40
0.0
 40
0.0
 40
0.0
 40
0.4996613122
 40
1.0
 40
1.0
 40
1.0
 40
1.0
 10
-45.595728
 20
13.2409138007
 30
0.0
 10
-45.657976892
 20
13.1816029328
 30
0.0
 10
-45.8022602568
 20
13.0849933312
 30
0.0
 10
-45.9555449907
 20
13.0053784158
 30
0.0
 10
-46.036326
 20
12.9755926858
 30
0.0
  0
SPLINE
  5
6D1
100
AcDbEntity
  8
217
100
AcDbSpline
 62
7
  6
CONTINUOUS
 70
0
 71
3
 72
9
 73
5
 74
0
 42
0.0000001
 43
0.0000001
 44
0.0000000001
 40
0.0
 40
0.0
 40
0.0
 40
0.0
 40
0.5546820052
 40
1.0
 40
1.0
 40
1.0
 40
1.0
 10
-46.036326
 20
13.1883426064
 30
0.0
 10
-45.9200263595
 20
13.242996591
 30
0.0
 10
-45.7236942753
 20
13.3694721415
 30
0.0
 10
-45.5632062776
 20
13.5458812239
 30
0.0
 10
-45.5174182615
 20
13.638329
 30
0.0
  0
SPLINE
  5
6D2
100
AcDbEntity
  8
217
100
AcDbSpline
 62
7
  6
CONTINUOUS
 70
0
 71
3
 72
12
 73
8
 74
0
 42
0.0000001
 43
0.0000001
 44
0.0000000001
 40
0.0
 40
0.0
 40
0.0
 40
0.0
 40
0.249918966
 40
0.4483902177
 40
0.6858820865
 40
0.9256720867
 40
1.0
 40
1.0
 40
1.0
 40
1.0
 10
-44.5893612031
 20
12.3440709723
 30
0.0
 10
-44.5695790037
 20
12.2463019654
 30
0.0
 10
-44.5062796479
 20
12.0569866075
 30
0.0
 10
-44.2215091532
 20
11.9572450906
 30
0.0
 10
-43.9435890341
 20
12.0696735439
 30
0.0
 10
-43.8582549322
 20
12.2988965778
 30
0.0
 10
-43.8709641441
 20
12.4255406492
 30
0.0
 10
-43.8776845624
 20
12.4545216757
 30
0.0
  0
SPLINE
  5
6D3
100
AcDbEntity
  8
217
100
AcDbSpline
 62
7
  6
CONTINUOUS
 70
0
 71
3
 72
8
 73
4
 74
0
 42
0.0000001
 43
0.0000001
 44
0.0000000001
 40
0.0
 40
0.0
 40
0.0
 40
0.0
 40
1.0
 40
1.0
 40
1.0
 40
1.0
 10
-44.3506780226
 20
12.8823018218
 30
0.0
 10
-44.3388668717
 20
12.8810034289
 30
0.0
 10
-44.326996034
 20
12.879876117
 30
0.0
 10
-44.3151137256
 20
12.8798766086
 30
0.0
  0
SPLINE
  5
6D4
100
AcDbEntity
  8
217
100
AcDbSpline
 62
7
  6
CONTINUOUS
 70
0
 71
3
 72
14
 73
10
 74
0
 42
0.0000001
 43
0.0000001
 44
0.0000000001
 40
0.0
 40
0.0
 40
0.0
 40
0.0
 40
0.26479888
 40
0.3908385549
 40
0.5267854562
 40
0.639362339
 40
0.7483744811
 40
0.9751097402
 40
1.0
 40
1.0
 40
1.0
 40
1.0
 10
-44.3151137256
 20
12.8798766085
 30
0.0
 10
-44.227062191
 20
12.8798778783
 30
0.0
 10
-44.0904553981
 20
12.9117371587
 30
0.0
 10
-43.9631324463
 20
13.0428074144
 30
0.0
 10
-43.9415763268
 20
13.1713782424
 30
0.0
 10
-43.9607098322
 20
13.2908343661
 30
0.0
 10
-44.048206167
 20
13.4179562995
 30
0.0
 10
-44.1726403634
 20
13.4613260729
 30
0.0
 10
-44.2595615679
 20
13.4576975085
 30
0.0
 10
-44.2681300305
 20
13.4570122784
 30
0.0
  0
SPLINE
  5
6D5
100
AcDbEntity
  8
217
100
AcDbSpline
 62
7
  6
CONTINUOUS
 70
0
 71
3
 72
13
 73
9
 74
0
 42
0.0000001
 43
0.0000001
 44
0.0000000001
 40
0.0
 40
0.0
 40
0.0
 40
0.0
 40
0.2411348977
 40
0.4739619058
 40
0.6456827538
 40
0.8035436996
 40
0.9518338019
 40
1.0
 40
1.0
 40
1.0
 40
1.0
 10
-44.787129802
 20
13.172695964
 30
0.0
 10
-44.7638745905
 20
13.3004646457
 30
0.0
 10
-44.6441569894
 20
13.5579175697
 30
0.0
 10
-44.2790609447
 20
13.6664125211
 30
0.0
 10
-43.9748791981
 20
13.5999467159
 30
0.0
 10
-43.7707419379
 20
13.421800309
 30
0.0
 10
-43.7149403114
 20
13.2286412218
 30
0.0
 10
-43.7261461086
 20
13.1209365361
 30
0.0
 10
-43.7314181641
 20
13.0950927717
 30
0.0
  0
SPLINE
  5
6D6
100
AcDbEntity
  8
217
100
AcDbSpline
 62
7
  6
CONTINUOUS
 70
0
 71
3
 72
15
 73
11
 74
0
 42
0.0000001
 43
0.0000001
 44
0.0000000001
 40
0.0
 40
0.0
 40
0.0
 40
0.0
 40
0.1701803939
 40
0.2557864325
 40
0.3500987153
 40
0.4799082465
 40
0.6102619637
 40
0.7448433963
 40
0.8872005855
 40
1.0
 40
1.0
 40
1.0
 40
1.0
 10
-43.9701216903
 20
12.8115416385
 30
0.0
 10
-43.8759428341
 20
12.7897991287
 30
0.0
 10
-43.7363667597
 20
12.7093585221
 30
0.0
 10
-43.6478710376
 20
12.5264836583
 30
0.0
 10
-43.6262126102
 20
12.3498423251
 30
0.0
 10
-43.6627941231
 20
12.1458971223
 30
0.0
 10
-43.7988210515
 20
11.9594838383
 30
0.0
 10
-43.9990571196
 20
11.8318563131
 30
0.0
 10
-44.2229152744
 20
11.7984145966
 30
0.0
 10
-44.3690000896
 20
11.8165649803
 30
0.0
 10
-44.4303959768
 20
11.8351828574
 30
0.0
  0
SPLINE
  5
6D7
100
AcDbEntity
  8
217
100
AcDbSpline
 62
7
  6
CONTINUOUS
 70
0
 71
3
 72
8
 73
4
 74
0
 42
0.0000001
 43
0.0000001
 44
0.0000000001
 40
0.0
 40
0.0
 40
0.0
 40
0.0
 40
1.0
 40
1.0
 40
1.0
 40
1.0
 10
-54.1739161643
 20
6.638359145
 30
0.0
 10
-54.2565483685
 20
6.7761271266
 30
0.0
 10
-54.3026070663
 20
6.9421442359
 30
0.0
 10
-54.3026557186
 20
7.1027932184
 30
0.0
  0
SPLINE
  5
6D8
100
AcDbEntity
  8
217
100
AcDbSpline
 62
7
  6
CONTINUOUS
 70
0
 71
3
 72
8
 73
4
 74
0
 42
0.0000001
 43
0.0000001
 44
0.0000000001
 40
0.0
 40
0.0
 40
0.0
 40
0.0
 40
1.0
 40
1.0
 40
1.0
 40
1.0
 10
-54.3078558896
 20
24.2650898701
 30
0.0
 10
-54.3079003118
 20
24.4116248173
 30
0.0
 10
-54.2702932132
 20
24.5622560739
 30
0.0
 10
-54.2014856831
 20
24.6916315604
 30
0.0
  0
SPLINE
  5
6D9
100
AcDbEntity
  8
217
100
AcDbSpline
 62
7
  6
CONTINUOUS
 70
0
 71
3
 72
8
 73
4
 74
0
 42
0.0000001
 43
0.0000001
 44
0.0000000001
 40
0.0
 40
0.0
 40
0.0
 40
0.0
 40
1.0
 40
1.0
 40
1.0
 40
1.0
 10
-54.3026557186
 20
-9.7027932184
 30
0.0
 10
-54.3026070663
 20
-9.542144236
 30
0.0
 10
-54.2565483685
 20
-9.3761271267
 30
0.0
 10
-54.1739161643
 20
-9.2383591451
 30
0.0
  0
SPLINE
  5
6DA
100
AcDbEntity
  8
217
100
AcDbSpline
 62
7
  6
CONTINUOUS
 70
0
 71
3
 72
8
 73
4
 74
0
 42
0.0000001
 43
0.0000001
 44
0.0000000001
 40
0.0
 40
0.0
 40
0.0
 40
0.0
 40
1.0
 40
1.0
 40
1.0
 40
1.0
 10
-54.2015266861
 20
-27.3184814211
 30
0.0
 10
-54.2703221033
 20
-27.1891237139
 30
0.0
 10
-54.3079084625
 20
-27.0385112222
 30
0.0
 10
-54.3078640467
 20
-26.8919976601
 30
0.0
  0
SPLINE
  5
6DB
100
AcDbEntity
  8
217
100
AcDbSpline
 62
7
  6
CONTINUOUS
 70
0
 71
3
 72
8
 73
4
 74
0
 42
0.0000001
 43
0.0000001
 44
0.0000000001
 40
0.0
 40
0.0
 40
0.0
 40
0.0
 40
1.0
 40
1.0
 40
1.0
 40
1.0
 10
54.3078640467
 20
-26.8919976601
 30
0.0
 10
54.3079084625
 20
-27.0385112222
 30
0.0
 10
54.2703221033
 20
-27.1891237139
 30
0.0
 10
54.2015266861
 20
-27.3184814211
 30
0.0
  0
SPLINE
  5
6DC
100
AcDbEntity
  8
217
100
AcDbSpline
 62
7
  6
CONTINUOUS
 70
0
 71
3
 72
8
 73
4
 74
0
 42
0.0000001
 43
0.0000001
 44
0.0000000001
 40
0.0
 40
0.0
 40
0.0
 40
0.0
 40
1.0
 40
1.0
 40
1.0
 40
1.0
 10
54.1739161643
 20
-9.2383591451
 30
0.0
 10
54.2565483685
 20
-9.3761271267
 30
0.0
 10
54.3026070663
 20
-9.542144236
 30
0.0
 10
54.3026557186
 20
-9.7027932184
 30
0.0
  0
SPLINE
  5
6DD
100
AcDbEntity
  8
217
100
AcDbSpline
 62
7
  6
CONTINUOUS
 70
0
 71
3
 72
8
 73
4
 74
0
 42
0.0000001
 43
0.0000001
 44
0.0000000001
 40
0.0
 40
0.0
 40
0.0
 40
0.0
 40
1.0
 40
1.0
 40
1.0
 40
1.0
 10
54.3026557186
 20
7.1027932184
 30
0.0
 10
54.3026070663
 20
6.9421442359
 30
0.0
 10
54.2565483685
 20
6.7761271266
 30
0.0
 10
54.1739161643
 20
6.638359145
 30
0.0
  0
SPLINE
  5
6DE
100
AcDbEntity
  8
217
100
AcDbSpline
 62
7
  6
CONTINUOUS
 70
0
 71
3
 72
8
 73
4
 74
0
 42
0.0000001
 43
0.0000001
 44
0.0000000001
 40
0.0
 40
0.0
 40
0.0
 40
0.0
 40
1.0
 40
1.0
 40
1.0
 40
1.0
 10
54.2014856831
 20
24.6916315604
 30
0.0
 10
54.2702932132
 20
24.5622560739
 30
0.0
 10
54.3079003118
 20
24.4116248173
 30
0.0
 10
54.3078558896
 20
24.2650898701
 30
0.0
  0
LINE
  5
6DF
100
AcDbEntity
  8
217
100
AcDbLine
 62
7
  6
CONTINUOUS
 10
-54.3071087757
 20
21.8004182866
 11
-54.3078558896
 21
24.2650898701
  0
LINE
  5
6E0
100
AcDbEntity
  8
217
100
AcDbLine
 62
7
  6
CONTINUOUS
 10
54.3071087757
 20
21.8004182866
 11
54.3078558896
 21
24.2650898701
  0
LINE
  5
6E1
100
AcDbEntity
  8
217
100
AcDbLine
 62
7
  6
CONTINUOUS
 10
54.3060935858
 20
18.7
 11
54.3068963867
 21
21.0996987089
  0
SPLINE
  5
6E2
100
AcDbEntity
  8
217
100
AcDbSpline
 62
7
  6
CONTINUOUS
 70
0
 71
3
 72
19
 73
15
 74
0
 42
0.0000001
 43
0.0000001
 44
0.0000000001
 40
0.0
 40
0.0
 40
0.0
 40
0.0
 40
0.0816052924
 40
0.1404770049
 40
0.201957245
 40
0.3036548021
 40
0.4035090432
 40
0.5223313851
 40
0.5965198927
 40
0.6827469243
 40
0.7794212429
 40
0.8630816223
 40
0.9983380083
 40
1.0
 40
1.0
 40
1.0
 40
1.0
 10
-47.934279296
 20
12.026174849
 30
0.0
 10
-47.9751955142
 20
11.9702313074
 30
0.0
 10
-48.0621726961
 20
11.88614366
 30
0.0
 10
-48.2202808117
 20
11.8201466914
 30
0.0
 10
-48.4061173325
 20
11.7985772074
 30
0.0
 10
-48.6290206208
 20
11.8395612257
 30
0.0
 10
-48.8504806086
 20
12.0085498578
 30
0.0
 10
-48.9519772965
 20
12.2407752229
 30
0.0
 10
-48.9894914871
 20
12.4711492592
 30
0.0
 10
-48.9986676206
 20
12.6862173461
 30
0.0
 10
-48.9888404928
 20
12.9093054048
 30
0.0
 10
-48.9465374186
 20
13.1693958563
 30
0.0
 10
-48.8742548861
 20
13.3460458729
 30
0.0
 10
-48.8012452878
 20
13.4351374988
 30
0.0
 10
-48.8003549407
 20
13.4362158741
 30
0.0
  0
SPLINE
  5
6E3
100
AcDbEntity
  8
217
100
AcDbSpline
 62
7
  6
CONTINUOUS
 70
0
 71
3
 72
12
 73
8
 74
0
 42
0.0000001
 43
0.0000001
 44
0.0000000001
 40
0.0
 40
0.0
 40
0.0
 40
0.0
 40
0.197530671
 40
0.4066405946
 40
0.5633543829
 40
0.7065484685
 40
1.0
 40
1.0
 40
1.0
 40
1.0
 10
-48.8003549407
 20
13.4362158741
 30
0.0
 10
-48.7478148923
 20
13.4998516105
 30
0.0
 10
-48.6101501226
 20
13.6088557381
 30
0.0
 10
-48.3724399961
 20
13.6497112401
 30
0.0
 10
-48.1601445585
 20
13.6219715205
 30
0.0
 10
-47.9388898142
 20
13.4989764136
 30
0.0
 10
-47.8568655835
 20
13.3134674049
 30
0.0
 10
-47.8412777178
 20
13.1927230227
 30
0.0
  0
SPLINE
  5
6E4
100
AcDbEntity
  8
217
100
AcDbSpline
 62
7
  6
CONTINUOUS
 70
0
 71
3
 72
11
 73
7
 74
0
 42
0.0000001
 43
0.0000001
 44
0.0000000001
 40
0.0
 40
0.0
 40
0.0
 40
0.0
 40
0.1869333321
 40
0.5401557192
 40
0.7616659295
 40
1.0
 40
1.0
 40
1.0
 40
1.0
 10
-46.7947346462
 20
13.6030476379
 30
0.0
 10
-46.7348067493
 20
13.58082635
 30
0.0
 10
-46.5730729268
 20
13.4824929776
 30
0.0
 10
-46.4555636434
 20
13.2162920419
 30
0.0
 10
-46.5331184151
 20
12.9305607173
 30
0.0
 10
-46.6765092112
 20
12.8389342751
 30
0.0
 10
-46.7525725388
 20
12.8102116869
 30
0.0
  0
SPLINE
  5
6E5
100
AcDbEntity
  8
217
100
AcDbSpline
 62
7
  6
CONTINUOUS
 70
0
 71
3
 72
13
 73
9
 74
0
 42
0.0000001
 43
0.0000001
 44
0.0000000001
 40
0.0
 40
0.0
 40
0.0
 40
0.0
 40
0.1614787206
 40
0.3337929304
 40
0.5098555793
 40
0.6401123409
 40
0.7590590617
 40
1.0
 40
1.0
 40
1.0
 40
1.0
 10
-47.2651526164
 20
11.855299451
 30
0.0
 10
-47.3271489889
 20
11.8811627381
 30
0.0
 10
-47.4461625633
 20
11.958641146
 30
0.0
 10
-47.571142514
 20
12.1370821455
 30
0.0
 10
-47.604982291
 20
12.3380676987
 30
0.0
 10
-47.5834588609
 20
12.5151201865
 30
0.0
 10
-47.4927817536
 20
12.7019577281
 30
0.0
 10
-47.3507901096
 20
12.7850346571
 30
0.0
 10
-47.2541130957
 20
12.8102116869
 30
0.0
  0
SPLINE
  5
6E6
100
AcDbEntity
  8
217
100
AcDbSpline
 62
7
  6
CONTINUOUS
 70
0
 71
3
 72
12
 73
8
 74
0
 42
0.0000001
 43
0.0000001
 44
0.0000000001
 40
0.0
 40
0.0
 40
0.0
 40
0.0
 40
0.0832560537
 40
0.2999141023
 40
0.5172546648
 40
0.7459647233
 40
1.0
 40
1.0
 40
1.0
 40
1.0
 10
-43.8776845624
 20
12.4545216757
 30
0.0
 10
-43.88157968
 20
12.47131892
 30
0.0
 10
-43.9001044223
 20
12.5306345798
 30
0.0
 10
-43.9611928486
 20
12.622173683
 30
0.0
 10
-44.0787241824
 20
12.6995066936
 30
0.0
 10
-44.2255044097
 20
12.7229853276
 30
0.0
 10
-44.3244209647
 20
12.7028709648
 30
0.0
 10
-44.3751640039
 20
12.6895399696
 30
0.0
  0
SPLINE
  5
6E7
100
AcDbEntity
  8
217
100
AcDbSpline
 62
7
  6
CONTINUOUS
 70
0
 71
3
 72
9
 73
5
 74
0
 42
0.0000001
 43
0.0000001
 44
0.0000000001
 40
0.0
 40
0.0
 40
0.0
 40
0.0
 40
0.4328333201
 40
1.0
 40
1.0
 40
1.0
 40
1.0
 10
-44.2681300305
 20
13.4570122784
 30
0.0
 10
-44.3386568928
 20
13.4513721612
 30
0.0
 10
-44.496966453
 20
13.3872674416
 30
0.0
 10
-44.5535471063
 20
13.2209149955
 30
0.0
 10
-44.5668305422
 20
13.1326419167
 30
0.0
  0
SPLINE
  5
6E8
100
AcDbEntity
  8
217
100
AcDbSpline
 62
7
  6
CONTINUOUS
 70
0
 71
3
 72
9
 73
5
 74
0
 42
0.0000001
 43
0.0000001
 44
0.0000000001
 40
0.0
 40
0.0
 40
0.0
 40
0.0
 40
0.3733637821
 40
1.0
 40
1.0
 40
1.0
 40
1.0
 10
-43.7314181641
 20
13.0950927717
 30
0.0
 10
-43.7410493077
 20
13.0478806352
 30
0.0
 10
-43.7894116424
 20
12.9264599565
 30
0.0
 10
-43.8978330813
 20
12.8447134237
 30
0.0
 10
-43.9701216903
 20
12.8115416385
 30
0.0
  0
SPLINE
  5
6E9
100
AcDbEntity
  8
217
100
AcDbSpline
 62
7
  6
CONTINUOUS
 70
0
 71
3
 72
10
 73
6
 74
0
 42
0.0000001
 43
0.0000001
 44
0.0000000001
 40
0.0
 40
0.0
 40
0.0
 40
0.0
 40
0.0417886016
 40
0.363535211
 40
1.0
 40
1.0
 40
1.0
 40
1.0
 10
-44.4303959768
 20
11.8351828574
 30
0.0
 10
-44.4389103444
 20
11.8377647803
 30
0.0
 10
-44.5124472213
 20
11.8619983755
 30
0.0
 10
-44.7002603561
 20
11.9726107952
 30
0.0
 10
-44.7964238185
 20
12.1793607366
 30
0.0
 10
-44.8096603609
 20
12.3140299508
 30
0.0
  0
SPLINE
  5
6EA
100
AcDbEntity
  8
217
100
AcDbSpline
 62
7
  6
CONTINUOUS
 70
0
 71
3
 72
9
 73
5
 74
0
 42
0.0000001
 43
0.0000001
 44
0.0000000001
 40
0.0
 40
0.0
 40
0.0
 40
0.0
 40
0.5001362059
 40
1.0
 40
1.0
 40
1.0
 40
1.0
 10
47.0571325975
 20
-15.4117779659
 30
0.0
 10
47.1671630113
 20
-15.4107394118
 30
0.0
 10
47.407624521
 20
-15.3446797252
 30
0.0
 10
47.4893508521
 20
-15.1028212262
 30
0.0
 10
47.4867426146
 20
-14.9928767782
 30
0.0
  0
SPLINE
  5
6EB
100
AcDbEntity
  8
217
100
AcDbSpline
 62
7
  6
CONTINUOUS
 70
0
 71
3
 72
8
 73
4
 74
0
 42
0.0000001
 43
0.0000001
 44
0.0000000001
 40
0.0
 40
0.0
 40
0.0
 40
0.0
 40
1.0
 40
1.0
 40
1.0
 40
1.0
 10
-17.826047582
 20
-33.0162887612
 30
0.0
 10
-17.8259468604
 20
-32.9777424471
 30
0.0
 10
-17.8210005563
 20
-32.9388635926
 30
0.0
 10
-17.811032
 20
-32.9016284432
 30
0.0
  0
SPLINE
  5
6EC
100
AcDbEntity
  8
217
100
AcDbSpline
 62
7
  6
CONTINUOUS
 70
0
 71
3
 72
10
 73
6
 74
0
 42
0.0000001
 43
0.0000001
 44
0.0000000001
 40
0.0
 40
0.0
 40
0.0
 40
0.0
 40
0.2500380212
 40
0.5000793756
 40
1.0
 40
1.0
 40
1.0
 40
1.0
 10
47.2849304981
 20
-14.9928767782
 30
0.0
 10
47.2849304981
 20
-14.9568576466
 30
0.0
 10
47.2800948386
 20
-14.8829198896
 30
0.0
 10
47.1907307535
 20
-14.7584018774
 30
0.0
 10
47.0706453608
 20
-14.7415361448
 30
0.0
 10
46.9986294864
 20
-14.7415360647
 30
0.0
  0
SPLINE
  5
6ED
100
AcDbEntity
  8
217
100
AcDbSpline
 62
7
  6
CONTINUOUS
 70
0
 71
3
 72
11
 73
7
 74
0
 42
0.0000001
 43
0.0000001
 44
0.0000000001
 40
0.0
 40
0.0
 40
0.0
 40
0.0
 40
0.248442857
 40
0.4968877975
 40
0.746525957
 40
1.0
 40
1.0
 40
1.0
 40
1.0
 10
51.13442258
 20
-16.0235339387
 30
0.0
 10
51.2223047312
 20
-16.0235336266
 30
0.0
 10
51.4007781341
 20
-15.987997796
 30
0.0
 10
51.6180236694
 20
-15.8187767722
 30
0.0
 10
51.7263316567
 20
-15.5671492855
 30
0.0
 10
51.7435761511
 20
-15.3884166058
 30
0.0
 10
51.7435761511
 20
-15.2987547639
 30
0.0
  0
SPLINE
  5
6EE
100
AcDbEntity
  8
217
100
AcDbSpline
 62
7
  6
CONTINUOUS
 70
0
 71
3
 72
17
 73
13
 74
0
 42
0.0000001
 43
0.0000001
 44
0.0000000001
 40
0.0
 40
0.0
 40
0.0
 40
0.0
 40
0.1248699161
 40
0.2496427025
 40
0.3747613418
 40
0.5003636115
 40
0.563375356
 40
0.6265348114
 40
0.7503765573
 40
0.8126214165
 40
0.8756462586
 40
1.0
 40
1.0
 40
1.0
 40
1.0
 10
-19.6425404873
 20
-32.7884064792
 30
0.0
 10
-19.6425090183
 20
-32.8216867172
 30
0.0
 10
-19.6310063889
 20
-32.8876306937
 30
0.0
 10
-19.6073338384
 20
-32.9853763347
 30
0.0
 10
-19.5505170663
 20
-33.0706241229
 30
0.0
 10
-19.4845819464
 20
-33.1230795935
 30
0.0
 10
-19.4292912556
 20
-33.1608335526
 30
0.0
 10
-19.370575439
 20
-33.1937577378
 30
0.0
 10
-19.2938273643
 20
-33.1824149611
 30
0.0
 10
-19.2494316294
 20
-33.1298999108
 30
0.0
 10
-19.23004973
 20
-33.0656048395
 30
0.0
 10
-19.2251480784
 20
-33.0146912745
 30
0.0
 10
-19.2104482694
 20
-32.984986847
 30
0.0
  0
SPLINE
  5
6EF
100
AcDbEntity
  8
217
100
AcDbSpline
 62
7
  6
CONTINUOUS
 70
0
 71
3
 72
11
 73
7
 74
0
 42
0.0000001
 43
0.0000001
 44
0.0000000001
 40
0.0
 40
0.0
 40
0.0
 40
0.0
 40
0.2499885571
 40
0.4999929045
 40
0.749977433
 40
1.0
 40
1.0
 40
1.0
 40
1.0
 10
51.542038495
 20
-15.2987547639
 30
0.0
 10
51.542038495
 20
-15.2324604257
 30
0.0
 10
51.5326444353
 20
-15.0996712835
 30
0.0
 10
51.4665331744
 20
-14.9066006449
 30
0.0
 10
51.3106360681
 20
-14.7666251362
 30
0.0
 10
51.1745061276
 20
-14.7415361191
 30
0.0
 10
51.1082027703
 20
-14.7415360647
 30
0.0
  0
SPLINE
  5
6F0
100
AcDbEntity
  8
217
100
AcDbSpline
 62
7
  6
CONTINUOUS
 70
0
 71
3
 72
11
 73
7
 74
0
 42
0.0000001
 43
0.0000001
 44
0.0000000001
 40
0.0
 40
0.0
 40
0.0
 40
0.0
 40
0.2464487546
 40
0.4949352652
 40
0.74656369
 40
1.0
 40
1.0
 40
1.0
 40
1.0
 10
26.7396268645
 20
-30.6993281087
 30
0.0
 10
26.7395927802
 20
-30.5754540345
 30
0.0
 10
26.6877181416
 20
-30.3239234543
 30
0.0
 10
26.4683774042
 20
-30.0076029928
 30
0.0
 10
26.1422386404
 20
-29.7972971653
 30
0.0
 10
25.8857735546
 20
-29.7481751923
 30
0.0
 10
25.758387277
 20
-29.7481726752
 30
0.0
  0
SPLINE
  5
6F1
100
AcDbEntity
  8
217
100
AcDbSpline
 62
250
  6
CONTINUOUS
 70
0
 71
3
 72
18
 73
14
 74
0
 42
0.0000001
 43
0.0000001
 44
0.0000000001
 40
0.0
 40
0.0
 40
0.0
 40
0.0
 40
0.0068640355
 40
0.022914805
 40
0.0480774343
 40
0.0821835617
 40
0.1248910195
 40
0.1757811776
 40
0.3002616629
 40
0.4508664779
 40
0.6220404905
 40
0.8075953898
 40
1.0
 40
1.0
 40
1.0
 40
1.0
 10
-39.5
 20
0.419062034
 30
0.0
 10
-39.5025949648
 20
0.4213096324
 30
0.0
 10
-39.5151771426
 20
0.4215641173
 30
0.0
 10
-39.5380926793
 20
0.425094781
 30
0.0
 10
-39.5762350414
 20
0.4267190406
 30
0.0
 10
-39.6269594103
 20
0.4293123415
 30
0.0
 10
-39.6908760627
 20
0.4314436806
 30
0.0
 10
-39.799865502
 20
0.4345590794
 30
0.0
 10
-39.9628932642
 20
0.437814537
 30
0.0
 10
-40.186056242
 20
0.4409623062
 30
0.0
 10
-40.4397892866
 20
0.4433227076
 30
0.0
 10
-40.7144306834
 20
0.4448232815
 30
0.0
 10
-40.9034652116
 20
0.4452064713
 30
0.0
 10
-40.9996952538
 20
0.4452403031
 30
0.0
  0
SPLINE
  5
6F2
100
AcDbEntity
  8
217
100
AcDbSpline
 62
250
  6
CONTINUOUS
 70
0
 71
3
 72
18
 73
14
 74
0
 42
0.0000001
 43
0.0000001
 44
0.0000000001
 40
0.0
 40
0.0
 40
0.0
 40
0.0
 40
0.0068640217
 40
0.0229147641
 40
0.0480773548
 40
0.0821834341
 40
0.1248908376
 40
0.1757809378
 40
0.3002613117
 40
0.450866054
 40
0.6220400715
 40
0.8075950943
 40
1.0
 40
1.0
 40
1.0
 40
1.0
 10
-39.5
 20
-3.0190620341
 30
0.0
 10
-39.5025949521
 20
-3.0213096365
 30
0.0
 10
-39.5151771175
 20
-3.0215641241
 30
0.0
 10
-39.5380926064
 20
-3.0250947942
 30
0.0
 10
-39.5762349154
 20
-3.0267190584
 30
0.0
 10
-39.6269592119
 20
-3.0293123657
 30
0.0
 10
-39.6908757848
 20
-3.031443711
 30
0.0
 10
-39.7998651121
 20
-3.0345591203
 30
0.0
 10
-39.9628927537
 20
-3.0378145917
 30
0.0
 10
-40.1860556423
 20
-3.0409623793
 30
0.0
 10
-40.4397887155
 20
-3.043322802
 30
0.0
 10
-40.7144303252
 20
-3.0448234001
 30
0.0
 10
-40.9034650637
 20
-3.0452066071
 30
0.0
 10
-40.9996952539
 20
-3.0452404482
 30
0.0
  0
SPLINE
  5
6F3
100
AcDbEntity
  8
217
100
AcDbSpline
 62
250
  6
CONTINUOUS
 70
0
 71
3
 72
18
 73
14
 74
0
 42
0.0000001
 43
0.0000001
 44
0.0000000001
 40
0.0
 40
0.0
 40
0.0
 40
0.0
 40
0.0068640423
 40
0.0229148254
 40
0.0480774743
 40
0.0821836265
 40
0.1248911125
 40
0.1757813007
 40
0.3002618437
 40
0.450866697
 40
0.6220407072
 40
0.8075955413
 40
1.0
 40
1.0
 40
1.0
 40
1.0
 10
39.5
 20
-3.0190620341
 30
0.0
 10
39.5025949707
 20
-3.0213096307
 30
0.0
 10
39.5151771552
 20
-3.0215641138
 30
0.0
 10
39.5380927155
 20
-3.0250947747
 30
0.0
 10
39.576235105
 20
-3.0267190318
 30
0.0
 10
39.6269595111
 20
-3.0293123295
 30
0.0
 10
39.6908762047
 20
-3.0314436653
 30
0.0
 10
39.7998657022
 20
-3.0345590589
 30
0.0
 10
39.9628935272
 20
-3.0378145094
 30
0.0
 10
40.1860565516
 20
-3.0409622691
 30
0.0
 10
40.4397895811
 20
-3.0433226596
 30
0.0
 10
40.7144308679
 20
-3.0448232211
 30
0.0
 10
40.9034652875
 20
-3.0452064021
 30
0.0
 10
40.9996952537
 20
-3.0452402291
 30
0.0
  0
SPLINE
  5
6F4
100
AcDbEntity
  8
217
100
AcDbSpline
 62
250
  6
CONTINUOUS
 70
0
 71
3
 72
18
 73
14
 74
0
 42
0.0000001
 43
0.0000001
 44
0.0000000001
 40
0.0
 40
0.0
 40
0.0
 40
0.0
 40
0.0068640217
 40
0.0229147641
 40
0.0480773548
 40
0.0821834341
 40
0.1248908376
 40
0.1757809378
 40
0.3002613117
 40
0.450866054
 40
0.6220400715
 40
0.8075950943
 40
1.0
 40
1.0
 40
1.0
 40
1.0
 10
39.5
 20
0.419062034
 30
0.0
 10
39.5025949521
 20
0.4213096365
 30
0.0
 10
39.5151771175
 20
0.4215641241
 30
0.0
 10
39.5380926064
 20
0.4250947942
 30
0.0
 10
39.5762349154
 20
0.4267190584
 30
0.0
 10
39.6269592119
 20
0.4293123656
 30
0.0
 10
39.6908757848
 20
0.431443711
 30
0.0
 10
39.7998651121
 20
0.4345591202
 30
0.0
 10
39.9628927537
 20
0.4378145917
 30
0.0
 10
40.1860556423
 20
0.4409623793
 30
0.0
 10
40.4397887155
 20
0.4433228019
 30
0.0
 10
40.7144303252
 20
0.4448234001
 30
0.0
 10
40.9034650637
 20
0.4452066071
 30
0.0
 10
40.9996952539
 20
0.4452404482
 30
0.0
  0
SPLINE
  5
6F5
100
AcDbEntity
  8
217
100
AcDbSpline
 62
7
  6
CONTINUOUS
 70
0
 71
3
 72
9
 73
5
 74
0
 42
0.0000001
 43
0.0000001
 44
0.0000000001
 40
0.0
 40
0.0
 40
0.0
 40
0.0
 40
0.4959003673
 40
1.0
 40
1.0
 40
1.0
 40
1.0
 10
-17.8229664249
 20
-30.9458098192
 30
0.0
 10
-17.858742581
 20
-30.8489287768
 30
0.0
 10
-17.9977119465
 20
-30.673524726
 30
0.0
 10
-18.2110090512
 20
-30.6103193885
 30
0.0
 10
-18.3159923193
 20
-30.6103196619
 30
0.0
  0
SPLINE
  5
6F6
100
AcDbEntity
  8
217
100
AcDbSpline
 62
7
  6
CONTINUOUS
 70
0
 71
3
 72
9
 73
5
 74
0
 42
0.0000001
 43
0.0000001
 44
0.0000000001
 40
0.0
 40
0.0
 40
0.0
 40
0.0
 40
0.5039678761
 40
1.0
 40
1.0
 40
1.0
 40
1.0
 10
-15.3610016683
 20
-30.5755898888
 30
0.0
 10
-15.2531283207
 20
-30.6147514073
 30
0.0
 10
-15.0559931697
 20
-30.7542187484
 30
0.0
 10
-14.9670672166
 20
-30.9797621954
 30
0.0
 10
-14.957255
 20
-31.0922899554
 30
0.0
  0
SPLINE
  5
6F7
100
AcDbEntity
  8
217
100
AcDbSpline
 62
7
  6
CONTINUOUS
 70
0
 71
3
 72
11
 73
7
 74
0
 42
0.0000001
 43
0.0000001
 44
0.0000000001
 40
0.0
 40
0.0
 40
0.0
 40
0.0
 40
0.2526585804
 40
0.5045419509
 40
0.7528534027
 40
1.0
 40
1.0
 40
1.0
 40
1.0
 10
-18.3159923213
 20
-30.5755900263
 30
0.0
 10
-18.2479242112
 20
-30.5755898488
 30
0.0
 10
-18.1107845346
 20
-30.6025830826
 30
0.0
 10
-17.9358316722
 20
-30.7145198509
 30
0.0
 10
-17.8182822045
 20
-30.8847281558
 30
0.0
 10
-17.7919434693
 20
-31.0199474506
 30
0.0
 10
-17.7921127855
 20
-31.0865303759
 30
0.0
  0
SPLINE
  5
6F8
100
AcDbEntity
  8
217
100
AcDbSpline
 62
7
  6
CONTINUOUS
 70
0
 71
3
 72
11
 73
7
 74
0
 42
0.0000001
 43
0.0000001
 44
0.0000000001
 40
0.0
 40
0.0
 40
0.0
 40
0.0
 40
0.2500190448
 40
0.5000119373
 40
0.7500104253
 40
1.0
 40
1.0
 40
1.0
 40
1.0
 10
-46.1007640963
 20
-12.3851782478
 30
0.0
 10
-46.0275663523
 20
-12.385178123
 30
0.0
 10
-45.8762287827
 20
-12.4099755454
 30
0.0
 10
-45.7068069476
 20
-12.5680188158
 30
0.0
 10
-45.6319385629
 20
-12.7796621429
 30
0.0
 10
-45.6211906261
 20
-12.9265210146
 30
0.0
 10
-45.6211906261
 20
-12.9997101307
 30
0.0
  0
SPLINE
  5
6F9
100
AcDbEntity
  8
217
100
AcDbSpline
 62
7
  6
CONTINUOUS
 70
0
 71
3
 72
11
 73
7
 74
0
 42
0.0000001
 43
0.0000001
 44
0.0000000001
 40
0.0
 40
0.0
 40
0.0
 40
0.0
 40
0.2484273848
 40
0.498275218
 40
0.7487715659
 40
1.0
 40
1.0
 40
1.0
 40
1.0
 10
-20.0251531087
 20
-30.8408290654
 30
0.0
 10
-20.0026911598
 20
-30.7951725577
 30
0.0
 10
-19.9337282587
 20
-30.7142849996
 30
0.0
 10
-19.7953702344
 20
-30.6436611005
 30
0.0
 10
-19.6467392161
 20
-30.6020299836
 30
0.0
 10
-19.5454489958
 20
-30.5843802802
 30
0.0
 10
-19.4947489339
 20
-30.5755897995
 30
0.0
  0
SPLINE
  5
6FA
100
AcDbEntity
  8
217
100
AcDbSpline
 62
7
  6
CONTINUOUS
 70
0
 71
3
 72
12
 73
8
 74
0
 42
0.0000001
 43
0.0000001
 44
0.0000000001
 40
0.0
 40
0.0
 40
0.0
 40
0.0
 40
0.1249941357
 40
0.2499857598
 40
0.499981672
 40
0.749967911
 40
1.0
 40
1.0
 40
1.0
 40
1.0
 10
-45.3993652876
 20
-12.9997101307
 30
0.0
 10
-45.3993652876
 20
-13.0485418833
 30
0.0
 10
-45.4006201321
 20
-13.1465925783
 30
0.0
 10
-45.4384566374
 20
-13.3387141877
 30
0.0
 10
-45.5378264206
 20
-13.5686060349
 30
0.0
 10
-45.7743469166
 20
-13.7630690456
 30
0.0
 10
-45.9740921621
 20
-13.7992482879
 30
0.0
 10
-46.0717727854
 20
-13.7992484543
 30
0.0
  0
SPLINE
  5
6FB
100
AcDbEntity
  8
217
100
AcDbSpline
 62
7
  6
CONTINUOUS
 70
0
 71
3
 72
9
 73
5
 74
0
 42
0.0000001
 43
0.0000001
 44
0.0000000001
 40
0.0
 40
0.0
 40
0.0
 40
0.0
 40
0.4588045453
 40
1.0
 40
1.0
 40
1.0
 40
1.0
 10
-55.788267846
 20
12.9479862865
 30
0.0
 10
-55.6260331042
 20
12.9508176732
 30
0.0
 10
-55.2724015807
 20
12.9547483809
 30
0.0
 10
-54.9187767875
 20
12.9610765882
 30
0.0
 10
-54.727379217
 20
12.9610765882
 30
0.0
  0
SPLINE
  5
6FC
100
AcDbEntity
  8
217
100
AcDbSpline
 62
7
  6
CONTINUOUS
 70
0
 71
3
 72
9
 73
5
 74
0
 42
0.0000001
 43
0.0000001
 44
0.0000000001
 40
0.0
 40
0.0
 40
0.0
 40
0.0
 40
0.4588045453
 40
1.0
 40
1.0
 40
1.0
 40
1.0
 10
-55.788267846
 20
-15.5479862866
 30
0.0
 10
-55.6260331042
 20
-15.5508176733
 30
0.0
 10
-55.2724015807
 20
-15.5547483809
 30
0.0
 10
-54.9187767875
 20
-15.5610765883
 30
0.0
 10
-54.727379217
 20
-15.5610765883
 30
0.0
  0
SPLINE
  5
6FD
100
AcDbEntity
  8
217
100
AcDbSpline
 62
7
  6
CONTINUOUS
 70
0
 71
3
 72
9
 73
5
 74
0
 42
0.0000001
 43
0.0000001
 44
0.0000000001
 40
0.0
 40
0.0
 40
0.0
 40
0.0
 40
0.4588045453
 40
1.0
 40
1.0
 40
1.0
 40
1.0
 10
55.788267846
 20
12.9479862865
 30
0.0
 10
55.6260331042
 20
12.9508176732
 30
0.0
 10
55.2724015807
 20
12.9547483809
 30
0.0
 10
54.9187767875
 20
12.9610765882
 30
0.0
 10
54.727379217
 20
12.9610765882
 30
0.0
  0
SPLINE
  5
6FE
100
AcDbEntity
  8
217
100
AcDbSpline
 62
7
  6
CONTINUOUS
 70
0
 71
3
 72
9
 73
5
 74
0
 42
0.0000001
 43
0.0000001
 44
0.0000000001
 40
0.0
 40
0.0
 40
0.0
 40
0.0
 40
0.4588045453
 40
1.0
 40
1.0
 40
1.0
 40
1.0
 10
55.788267846
 20
-15.5479862866
 30
0.0
 10
55.6260331042
 20
-15.5508176733
 30
0.0
 10
55.2724015807
 20
-15.5547483809
 30
0.0
 10
54.9187767875
 20
-15.5610765883
 30
0.0
 10
54.727379217
 20
-15.5610765883
 30
0.0
  0
SPLINE
  5
6FF
100
AcDbEntity
  8
217
100
AcDbSpline
 62
7
  6
CONTINUOUS
 70
0
 71
3
 72
9
 73
5
 74
0
 42
0.0000001
 43
0.0000001
 44
0.0000000001
 40
0.0
 40
0.0
 40
0.0
 40
0.0
 40
0.4952688869
 40
1.0
 40
1.0
 40
1.0
 40
1.0
 10
-16.8435820582
 20
-32.8132891511
 30
0.0
 10
-16.84378025
 20
-32.9038595244
 30
0.0
 10
-16.7746153175
 20
-33.092720825
 30
0.0
 10
-16.599006184
 20
-33.1883591503
 30
0.0
 10
-16.5080941456
 20
-33.2043112315
 30
0.0
  0
SPLINE
  5
700
100
AcDbEntity
  8
217
100
AcDbSpline
 62
250
  6
CONTINUOUS
 70
0
 71
3
 72
14
 73
10
 74
0
 42
0.0000001
 43
0.0000001
 44
0.0000000001
 40
0.0
 40
0.0
 40
0.0
 40
0.0
 40
0.3569453542
 40
0.521446773
 40
0.6695121729
 40
0.7960687378
 40
0.8961535122
 40
0.9651207241
 40
1.0
 40
1.0
 40
1.0
 40
1.0
 10
54.2166824076
 20
-37.2428610173
 30
0.0
 10
54.2779901519
 20
-37.4168087828
 30
0.0
 10
54.359592552
 20
-37.6736525594
 30
0.0
 10
54.471179929
 20
-38.001098458
 30
0.0
 10
54.5436614026
 20
-38.2161112267
 30
0.0
 10
54.6054207912
 20
-38.3996003549
 30
0.0
 10
54.6555009428
 20
-38.5439296359
 30
0.0
 10
54.6908649617
 20
-38.6431327158
 30
0.0
 10
54.707050967
 20
-38.6943972885
 30
0.0
 10
54.7141221057
 20
-38.7109744548
 30
0.0
  0
SPLINE
  5
701
100
AcDbEntity
  8
217
100
AcDbSpline
 62
250
  6
CONTINUOUS
 70
0
 71
3
 72
13
 73
9
 74
0
 42
0.0000001
 43
0.0000001
 44
0.0000000001
 40
0.0
 40
0.0
 40
0.0
 40
0.0
 40
0.3569199412
 40
0.6695116896
 40
0.7960612992
 40
0.8960355277
 40
0.9650880734
 40
1.0
 40
1.0
 40
1.0
 40
1.0
 10
-54.2166824076
 20
-37.2428610173
 30
0.0
 10
-54.278024872
 20
-37.4167998827
 30
0.0
 10
-54.3831179232
 20
-37.7464956181
 30
0.0
 10
-54.5169449995
 20
-38.1354880932
 30
0.0
 10
-54.6060471441
 20
-38.3994369601
 30
0.0
 10
-54.6554910278
 20
-38.543966496
 30
0.0
 10
-54.6904318631
 20
-38.6433638893
 30
0.0
 10
-54.7077433017
 20
-38.6942616578
 30
0.0
 10
-54.7145368066
 20
-38.7109744548
 30
0.0
  0
LINE
  5
702
100
AcDbEntity
  8
217
100
AcDbLine
 62
250
  6
CONTINUOUS
 10
-55.711736263
 20
35.1155352025
 11
-55.7092241196
 21
35.1149873182
  0
SPLINE
  5
703
100
AcDbEntity
  8
217
100
AcDbSpline
 62
250
  6
CONTINUOUS
 70
0
 71
3
 72
13
 73
9
 74
0
 42
0.0000001
 43
0.0000001
 44
0.0000000001
 40
0.0
 40
0.0
 40
0.0
 40
0.0
 40
0.3541296656
 40
0.6656592299
 40
0.7924107885
 40
0.8930886108
 40
0.96336034
 40
1.0
 40
1.0
 40
1.0
 40
1.0
 10
-54.2166824076
 20
34.6428610173
 30
0.0
 10
-54.3910886865
 20
34.7040065587
 30
0.0
 10
-54.72269464
 20
34.807813777
 30
0.0
 10
-55.1154371747
 20
34.9373533066
 30
0.0
 10
-55.3839964129
 20
35.0209012528
 30
0.0
 10
-55.5324708583
 20
35.0668252043
 30
0.0
 10
-55.6365255926
 20
35.0966590183
 30
0.0
 10
-55.6903763242
 20
35.1117628793
 30
0.0
 10
-55.7092241196
 20
35.1149873182
 30
0.0
  0
SPLINE
  5
704
100
AcDbEntity
  8
217
100
AcDbSpline
 62
250
  6
CONTINUOUS
 70
0
 71
3
 72
13
 73
9
 74
0
 42
0.0000001
 43
0.0000001
 44
0.0000000001
 40
0.0
 40
0.0
 40
0.0
 40
0.0
 40
0.0334358546
 40
0.0998960437
 40
0.1972752415
 40
0.3220203604
 40
0.6362905919
 40
1.0
 40
1.0
 40
1.0
 40
1.0
 10
-55.6587505744
 20
0.419062034
 30
0.0
 10
-55.6424175655
 20
0.4223456128
 30
0.0
 10
-55.5924459241
 20
0.4246068117
 30
0.0
 10
-55.4944634816
 20
0.4297616192
 30
0.0
 10
-55.3506201398
 20
0.4333712776
 30
0.0
 10
-55.0834627066
 20
0.4389711691
 30
0.0
 10
-54.6834791757
 20
0.4433467616
 30
0.0
 10
-54.3456807646
 20
0.4449639798
 30
0.0
 10
-54.1644585273
 20
0.4452406437
 30
0.0
  0
SPLINE
  5
705
100
AcDbEntity
  8
217
100
AcDbSpline
 62
250
  6
CONTINUOUS
 70
0
 71
3
 72
13
 73
9
 74
0
 42
0.0000001
 43
0.0000001
 44
0.0000000001
 40
0.0
 40
0.0
 40
0.0
 40
0.0
 40
0.0334358546
 40
0.0998960437
 40
0.1972752415
 40
0.3220203604
 40
0.6362905919
 40
1.0
 40
1.0
 40
1.0
 40
1.0
 10
-55.6587505744
 20
-3.0190620341
 30
0.0
 10
-55.6424175655
 20
-3.0223456128
 30
0.0
 10
-55.5924459241
 20
-3.0246068117
 30
0.0
 10
-55.4944634816
 20
-3.0297616192
 30
0.0
 10
-55.3506201398
 20
-3.0333712777
 30
0.0
 10
-55.0834627066
 20
-3.0389711691
 30
0.0
 10
-54.6834791757
 20
-3.0433467616
 30
0.0
 10
-54.3456807646
 20
-3.0449639799
 30
0.0
 10
-54.1644585273
 20
-3.0452406438
 30
0.0
  0
SPLINE
  5
706
100
AcDbEntity
  8
217
100
AcDbSpline
 62
250
  6
CONTINUOUS
 70
0
 71
3
 72
11
 73
7
 74
0
 42
0.0000001
 43
0.0000001
 44
0.0000000001
 40
0.0
 40
0.0
 40
0.0
 40
0.0
 40
0.3541466419
 40
0.665648644
 40
0.8931698335
 40
1.0
 40
1.0
 40
1.0
 40
1.0
 10
-54.2166824076
 20
-37.2428610173
 30
0.0
 10
-54.3910757732
 20
-37.304039829
 30
0.0
 10
-54.7225863011
 20
-37.4079427699
 30
0.0
 10
-55.165550453
 20
-37.5534556568
 30
0.0
 10
-55.4875007599
 20
-37.6520620871
 30
0.0
 10
-55.654487173
 20
-37.7042188974
 30
0.0
 10
-55.7092246648
 20
-37.7147948742
 30
0.0
  0
SPLINE
  5
707
100
AcDbEntity
  8
217
100
AcDbSpline
 62
250
  6
CONTINUOUS
 70
0
 71
3
 72
9
 73
5
 74
0
 42
0.0000001
 43
0.0000001
 44
0.0000000001
 40
0.0
 40
0.0
 40
0.0
 40
0.0
 40
0.5368531574
 40
1.0
 40
1.0
 40
1.0
 40
1.0
 10
-55.7092246648
 20
-37.7147948742
 30
0.0
 10
-55.7096907716
 20
-37.7148723831
 30
0.0
 10
-55.710438511
 20
-37.7154364531
 30
0.0
 10
-55.7113365316
 20
-37.7154899932
 30
0.0
 10
-55.7117363156
 20
-37.7155696129
 30
0.0
  0
SPLINE
  5
708
100
AcDbEntity
  8
217
100
AcDbSpline
 62
250
  6
CONTINUOUS
 70
0
 71
3
 72
14
 73
10
 74
0
 42
0.0000001
 43
0.0000001
 44
0.0000000001
 40
0.0
 40
0.0
 40
0.0
 40
0.0
 40
0.3569453542
 40
0.521446773
 40
0.6695121729
 40
0.7960687378
 40
0.8961535122
 40
0.9651207241
 40
1.0
 40
1.0
 40
1.0
 40
1.0
 10
-54.2166824076
 20
34.6428610173
 30
0.0
 10
-54.2779901519
 20
34.8168087827
 30
0.0
 10
-54.359592552
 20
35.0736525594
 30
0.0
 10
-54.471179929
 20
35.401098458
 30
0.0
 10
-54.5436614026
 20
35.6161112267
 30
0.0
 10
-54.6054207912
 20
35.7996003549
 30
0.0
 10
-54.6555009428
 20
35.9439296359
 30
0.0
 10
-54.6908649617
 20
36.0431327157
 30
0.0
 10
-54.707050967
 20
36.0943972885
 30
0.0
 10
-54.7141221057
 20
36.1109744548
 30
0.0
  0
SPLINE
  5
709
100
AcDbEntity
  8
217
100
AcDbSpline
 62
250
  6
CONTINUOUS
 70
0
 71
3
 72
13
 73
9
 74
0
 42
0.0000001
 43
0.0000001
 44
0.0000000001
 40
0.0
 40
0.0
 40
0.0
 40
0.0
 40
0.3569199412
 40
0.6695116896
 40
0.7960612992
 40
0.8960355277
 40
0.9650880734
 40
1.0
 40
1.0
 40
1.0
 40
1.0
 10
54.2166824076
 20
34.6428610173
 30
0.0
 10
54.278024872
 20
34.8167998827
 30
0.0
 10
54.3831179232
 20
35.146495618
 30
0.0
 10
54.5169449995
 20
35.5354880931
 30
0.0
 10
54.6060471441
 20
35.79943696
 30
0.0
 10
54.6554910278
 20
35.9439664959
 30
0.0
 10
54.6904318631
 20
36.0433638893
 30
0.0
 10
54.7077433017
 20
36.0942616578
 30
0.0
 10
54.7145368066
 20
36.1109744548
 30
0.0
  0
SPLINE
  5
70A
100
AcDbEntity
  8
217
100
AcDbSpline
 62
250
  6
CONTINUOUS
 70
0
 71
3
 72
13
 73
9
 74
0
 42
0.0000001
 43
0.0000001
 44
0.0000000001
 40
0.0
 40
0.0
 40
0.0
 40
0.0
 40
0.0334358546
 40
0.0998960437
 40
0.1972752415
 40
0.3220203604
 40
0.6362905919
 40
1.0
 40
1.0
 40
1.0
 40
1.0
 10
55.6587505744
 20
-3.0190620341
 30
0.0
 10
55.6424175655
 20
-3.0223456128
 30
0.0
 10
55.5924459241
 20
-3.0246068117
 30
0.0
 10
55.4944634816
 20
-3.0297616192
 30
0.0
 10
55.3506201398
 20
-3.0333712777
 30
0.0
 10
55.0834627066
 20
-3.0389711692
 30
0.0
 10
54.6834791757
 20
-3.0433467616
 30
0.0
 10
54.3456807646
 20
-3.0449639799
 30
0.0
 10
54.1644585273
 20
-3.0452406438
 30
0.0
  0
SPLINE
  5
70B
100
AcDbEntity
  8
217
100
AcDbSpline
 62
7
  6
CONTINUOUS
 70
0
 71
3
 72
11
 73
7
 74
0
 42
0.0000001
 43
0.0000001
 44
0.0000000001
 40
0.0
 40
0.0
 40
0.0
 40
0.0
 40
0.2464984528
 40
0.4951158901
 40
0.7468005584
 40
1.0
 40
1.0
 40
1.0
 40
1.0
 10
26.7362573798
 20
-30.6552111228
 30
0.0
 10
26.7262508574
 20
-30.5381042855
 30
0.0
 10
26.6593315354
 20
-30.3045933745
 30
0.0
 10
26.4365931364
 20
-30.016421949
 30
0.0
 10
26.1220351959
 20
-29.8270316318
 30
0.0
 10
25.8791158107
 20
-29.7829046765
 30
0.0
 10
25.7583871171
 20
-29.7829023107
 30
0.0
  0
LINE
  5
70C
100
AcDbEntity
  8
217
100
AcDbLine
 62
250
  6
CONTINUOUS
 10
55.711736263
 20
-37.7155352025
 11
55.7092241224
 21
-37.7149873188
  0
SPLINE
  5
70D
100
AcDbEntity
  8
217
100
AcDbSpline
 62
250
  6
CONTINUOUS
 70
0
 71
3
 72
13
 73
9
 74
0
 42
0.0000001
 43
0.0000001
 44
0.0000000001
 40
0.0
 40
0.0
 40
0.0
 40
0.0
 40
0.3541296691
 40
0.6656592354
 40
0.7924107939
 40
0.8930886154
 40
0.9633603427
 40
1.0
 40
1.0
 40
1.0
 40
1.0
 10
54.2166824076
 20
-37.2428610173
 30
0.0
 10
54.3910886885
 20
-37.3040065594
 30
0.0
 10
54.7226946453
 20
-37.4078137787
 30
0.0
 10
55.1154371835
 20
-37.5373533095
 30
0.0
 10
55.3839964228
 20
-37.6209012558
 30
0.0
 10
55.5324708671
 20
-37.6668252071
 30
0.0
 10
55.6365255989
 20
-37.69665902
 30
0.0
 10
55.6903763284
 20
-37.7117628806
 30
0.0
 10
55.7092241224
 20
-37.7149873188
 30
0.0
  0
SPLINE
  5
70E
100
AcDbEntity
  8
217
100
AcDbSpline
 62
250
  6
CONTINUOUS
 70
0
 71
3
 72
13
 73
9
 74
0
 42
0.0000001
 43
0.0000001
 44
0.0000000001
 40
0.0
 40
0.0
 40
0.0
 40
0.0
 40
0.0334358546
 40
0.0998960437
 40
0.1972752415
 40
0.3220203604
 40
0.6362905919
 40
1.0
 40
1.0
 40
1.0
 40
1.0
 10
55.6587505744
 20
0.419062034
 30
0.0
 10
55.6424175655
 20
0.4223456128
 30
0.0
 10
55.5924459241
 20
0.4246068117
 30
0.0
 10
55.4944634816
 20
0.4297616192
 30
0.0
 10
55.3506201398
 20
0.4333712776
 30
0.0
 10
55.0834627066
 20
0.4389711691
 30
0.0
 10
54.6834791757
 20
0.4433467616
 30
0.0
 10
54.3456807646
 20
0.4449639798
 30
0.0
 10
54.1644585273
 20
0.4452406437
 30
0.0
  0
SPLINE
  5
70F
100
AcDbEntity
  8
217
100
AcDbSpline
 62
250
  6
CONTINUOUS
 70
0
 71
3
 72
11
 73
7
 74
0
 42
0.0000001
 43
0.0000001
 44
0.0000000001
 40
0.0
 40
0.0
 40
0.0
 40
0.0
 40
0.3541466441
 40
0.6656486474
 40
0.8931698363
 40
1.0
 40
1.0
 40
1.0
 40
1.0
 10
54.2166824076
 20
34.6428610173
 30
0.0
 10
54.3910757745
 20
34.7040398294
 30
0.0
 10
54.7225863045
 20
34.8079427707
 30
0.0
 10
55.1655504582
 20
34.953455659
 30
0.0
 10
55.4875007647
 20
35.0520620873
 30
0.0
 10
55.654487176
 20
35.1042188992
 30
0.0
 10
55.7092246665
 20
35.1147948745
 30
0.0
  0
SPLINE
  5
710
100
AcDbEntity
  8
217
100
AcDbSpline
 62
250
  6
CONTINUOUS
 70
0
 71
3
 72
9
 73
5
 74
0
 42
0.0000001
 43
0.0000001
 44
0.0000000001
 40
0.0
 40
0.0
 40
0.0
 40
0.0
 40
0.5368531583
 40
1.0
 40
1.0
 40
1.0
 40
1.0
 10
55.7092246665
 20
35.1147948745
 30
0.0
 10
55.7096907731
 20
35.1148723833
 30
0.0
 10
55.7104385118
 20
35.1154364532
 30
0.0
 10
55.7113365319
 20
35.1154899932
 30
0.0
 10
55.7117363156
 20
35.1155696129
 30
0.0
  0
SPLINE
  5
711
100
AcDbEntity
  8
217
100
AcDbSpline
 62
250
  6
CONTINUOUS
 70
0
 71
3
 72
11
 73
7
 74
0
 42
0.0000001
 43
0.0000001
 44
0.0000000001
 40
0.0
 40
0.0
 40
0.0
 40
0.0
 40
0.2499209259
 40
0.5002730884
 40
0.7504707407
 40
1.0
 40
1.0
 40
1.0
 40
1.0
 10
-55.7091013271
 20
35.1149994787
 30
0.0
 10
-55.7078970595
 20
35.2438007443
 30
0.0
 10
-55.6542820092
 20
35.5038760458
 30
0.0
 10
-55.4330839725
 20
35.8325569627
 30
0.0
 10
-55.1051745359
 20
36.0545474446
 30
0.0
 10
-54.8454895154
 20
36.1087109975
 30
0.0
 10
-54.7168927729
 20
36.1101713453
 30
0.0
  0
SPLINE
  5
712
100
AcDbEntity
  8
217
100
AcDbSpline
 62
250
  6
CONTINUOUS
 70
0
 71
3
 72
11
 73
7
 74
0
 42
0.0000001
 43
0.0000001
 44
0.0000000001
 40
0.0
 40
0.0
 40
0.0
 40
0.0
 40
0.2498042857
 40
0.5000346798
 40
0.7502468037
 40
1.0
 40
1.0
 40
1.0
 40
1.0
 10
-55.7117362727
 20
35.1155415746
 30
0.0
 10
-55.7107760406
 20
35.2447073596
 30
0.0
 10
-55.6573421269
 20
35.5056427418
 30
0.0
 10
-55.4352988178
 20
35.835278327
 30
0.0
 10
-55.1057707838
 20
36.057435192
 30
0.0
 10
-54.8448855629
 20
36.1109475938
 30
0.0
 10
-54.7157464482
 20
36.1119411462
 30
0.0
  0
SPLINE
  5
713
100
AcDbEntity
  8
217
100
AcDbSpline
 62
250
  6
CONTINUOUS
 70
0
 71
3
 72
11
 73
7
 74
0
 42
0.0000001
 43
0.0000001
 44
0.0000000001
 40
0.0
 40
0.0
 40
0.0
 40
0.0
 40
0.2495357744
 40
0.4997293398
 40
0.7500852749
 40
1.0
 40
1.0
 40
1.0
 40
1.0
 10
-54.7146155921
 20
-38.7108487741
 30
0.0
 10
-54.8432197657
 20
-38.7096817414
 30
0.0
 10
-55.1030394945
 20
-38.6559895631
 30
0.0
 10
-55.4312355214
 20
-38.434381799
 30
0.0
 10
-55.6528167979
 20
-38.1059775292
 30
0.0
 10
-55.7068945886
 20
-37.8460292779
 30
0.0
 10
-55.7083860096
 20
-37.7172331347
 30
0.0
  0
SPLINE
  5
714
100
AcDbEntity
  8
217
100
AcDbSpline
 62
250
  6
CONTINUOUS
 70
0
 71
3
 72
11
 73
7
 74
0
 42
0.0000001
 43
0.0000001
 44
0.0000000001
 40
0.0
 40
0.0
 40
0.0
 40
0.0
 40
0.2498099931
 40
0.5000467692
 40
0.7502593097
 40
1.0
 40
1.0
 40
1.0
 40
1.0
 10
-54.7152638971
 20
-38.7114585952
 30
0.0
 10
-54.8444322975
 20
-38.7104944866
 30
0.0
 10
-55.1053662797
 20
-38.657066631
 30
0.0
 10
-55.4350530682
 20
-38.4350810079
 30
0.0
 10
-55.6571927189
 20
-38.10554002
 30
0.0
 10
-55.7107269996
 20
-37.8446737938
 30
0.0
 10
-55.7117362727
 20
-37.7155415747
 30
0.0
  0
SPLINE
  5
715
100
AcDbEntity
  8
217
100
AcDbSpline
 62
250
  6
CONTINUOUS
 70
0
 71
3
 72
11
 73
7
 74
0
 42
0.0000001
 43
0.0000001
 44
0.0000000001
 40
0.0
 40
0.0
 40
0.0
 40
0.0
 40
0.2499209257
 40
0.500273088
 40
0.7504707404
 40
1.0
 40
1.0
 40
1.0
 40
1.0
 10
55.70910133
 20
-37.7149994792
 30
0.0
 10
55.7078970625
 20
-37.8438007449
 30
0.0
 10
55.6542820125
 20
-38.1038760467
 30
0.0
 10
55.4330839749
 20
-38.4325569639
 30
0.0
 10
55.105174537
 20
-38.6545474452
 30
0.0
 10
54.8454895158
 20
-38.7087109977
 30
0.0
 10
54.7168927729
 20
-38.7101713454
 30
0.0
  0
SPLINE
  5
716
100
AcDbEntity
  8
217
100
AcDbSpline
 62
250
  6
CONTINUOUS
 70
0
 71
3
 72
11
 73
7
 74
0
 42
0.0000001
 43
0.0000001
 44
0.0000000001
 40
0.0
 40
0.0
 40
0.0
 40
0.0
 40
0.2498084144
 40
0.5000400019
 40
0.7502504933
 40
1.0
 40
1.0
 40
1.0
 40
1.0
 10
55.7117362727
 20
-37.7155415747
 30
0.0
 10
55.7107792329
 20
-37.8447095389
 30
0.0
 10
55.6573518526
 20
-38.1056494326
 30
0.0
 10
55.4353148136
 20
-38.4352911736
 30
0.0
 10
55.1057971138
 20
-38.6574591869
 30
0.0
 10
54.8449150765
 20
-38.7109770925
 30
0.0
 10
54.7157778638
 20
-38.7119725619
 30
0.0
  0
SPLINE
  5
717
100
AcDbEntity
  8
217
100
AcDbSpline
 62
250
  6
CONTINUOUS
 70
0
 71
3
 72
11
 73
7
 74
0
 42
0.0000001
 43
0.0000001
 44
0.0000000001
 40
0.0
 40
0.0
 40
0.0
 40
0.0
 40
0.2495357746
 40
0.4997293401
 40
0.750085275
 40
1.0
 40
1.0
 40
1.0
 40
1.0
 10
54.7146155921
 20
36.110848774
 30
0.0
 10
54.8432197659
 20
36.1096817415
 30
0.0
 10
55.1030394952
 20
36.0559895635
 30
0.0
 10
55.4312355229
 20
35.8343817996
 30
0.0
 10
55.6528167999
 20
35.5059775297
 30
0.0
 10
55.7068945906
 20
35.2460292782
 30
0.0
 10
55.7083860114
 20
35.117233135
 30
0.0
  0
SPLINE
  5
718
100
AcDbEntity
  8
217
100
AcDbSpline
 62
250
  6
CONTINUOUS
 70
0
 71
3
 72
11
 73
7
 74
0
 42
0.0000001
 43
0.0000001
 44
0.0000000001
 40
0.0
 40
0.0
 40
0.0
 40
0.0
 40
0.2497912806
 40
0.5000200271
 40
0.7502383385
 40
1.0
 40
1.0
 40
1.0
 40
1.0
 10
54.7154227496
 20
36.1116174476
 30
0.0
 10
54.8445814999
 20
36.1106436462
 30
0.0
 10
55.1054994637
 20
36.057187954
 30
0.0
 10
55.4351339856
 20
35.8351459555
 30
0.0
 10
55.6572419083
 20
35.5055738203
 30
0.0
 10
55.7107431448
 20
35.2446848619
 30
0.0
 10
55.7117362727
 20
35.1155415746
 30
0.0
  0
SPLINE
  5
719
100
AcDbEntity
  8
217
100
AcDbSpline
 62
7
  6
CONTINUOUS
 70
0
 71
3
 72
9
 73
5
 74
0
 42
0.0000001
 43
0.0000001
 44
0.0000000001
 40
0.0
 40
0.0
 40
0.0
 40
0.0
 40
0.4998637941
 40
1.0
 40
1.0
 40
1.0
 40
1.0
 10
42.4361859624
 20
-14.9928767782
 30
0.0
 10
42.4387941999
 20
-15.1028212258
 30
0.0
 10
42.3570678695
 20
-15.3446797241
 30
0.0
 10
42.1166063609
 20
-15.4107394114
 30
0.0
 10
42.0065759474
 20
-15.4117779659
 30
0.0
  0
SPLINE
  5
71A
100
AcDbEntity
  8
217
100
AcDbSpline
 62
7
  6
CONTINUOUS
 70
0
 71
3
 72
10
 73
6
 74
0
 42
0.0000001
 43
0.0000001
 44
0.0000000001
 40
0.0
 40
0.0
 40
0.0
 40
0.0
 40
0.4999206245
 40
0.7499619789
 40
1.0
 40
1.0
 40
1.0
 40
1.0
 10
41.9480728299
 20
-14.7415360647
 30
0.0
 10
42.020088705
 20
-14.7415361444
 30
0.0
 10
42.140174099
 20
-14.7584018757
 30
0.0
 10
42.2295381863
 20
-14.8829198884
 30
0.0
 10
42.2343738459
 20
-14.9568576463
 30
0.0
 10
42.2343738459
 20
-14.9928767782
 30
0.0
  0
SPLINE
  5
71B
100
AcDbEntity
  8
217
100
AcDbSpline
 62
7
  6
CONTINUOUS
 70
0
 71
3
 72
11
 73
7
 74
0
 42
0.0000001
 43
0.0000001
 44
0.0000000001
 40
0.0
 40
0.0
 40
0.0
 40
0.0
 40
0.2484125726
 40
0.4984357263
 40
0.7491665091
 40
1.0
 40
1.0
 40
1.0
 40
1.0
 10
-22.8568849428
 20
-30.8842196851
 30
0.0
 10
-22.8266331946
 20
-30.8211490204
 30
0.0
 10
-22.7378641924
 20
-30.7050072849
 30
0.0
 10
-22.5427273974
 20
-30.6107117585
 30
0.0
 10
-22.3318267699
 20
-30.5806415754
 30
0.0
 10
-22.1906381662
 20
-30.5783664164
 30
0.0
 10
-22.1200605232
 20
-30.575589812
 30
0.0
  0
SPLINE
  5
71C
100
AcDbEntity
  8
217
100
AcDbSpline
 62
7
  6
CONTINUOUS
 70
0
 71
3
 72
9
 73
5
 74
0
 42
0.0000001
 43
0.0000001
 44
0.0000000001
 40
0.0
 40
0.0
 40
0.0
 40
0.0
 40
0.4947252425
 40
1.0
 40
1.0
 40
1.0
 40
1.0
 10
-22.473061
 20
-32.8601898199
 30
0.0
 10
-22.4637030214
 20
-32.950421016
 30
0.0
 10
-22.3644639671
 20
-33.1312518745
 30
0.0
 10
-22.1672374833
 20
-33.1858084326
 30
0.0
 10
-22.0749847593
 20
-33.1772423479
 30
0.0
  0
SPLINE
  5
71D
100
AcDbEntity
  8
217
100
AcDbSpline
 62
7
  6
CONTINUOUS
 70
0
 71
3
 72
9
 73
5
 74
0
 42
0.0000001
 43
0.0000001
 44
0.0000000001
 40
0.0
 40
0.0
 40
0.0
 40
0.0
 40
0.5052747576
 40
1.0
 40
1.0
 40
1.0
 40
1.0
 10
-22.0749847812
 20
-33.2119719854
 30
0.0
 10
-22.1672375023
 20
-33.2205380642
 30
0.0
 10
-22.3644639747
 20
-33.1659815001
 30
0.0
 10
-22.4637030218
 20
-32.9851506481
 30
0.0
 10
-22.473061
 20
-32.8949194554
 30
0.0
  0
SPLINE
  5
71E
100
AcDbEntity
  8
217
100
AcDbSpline
 62
7
  6
CONTINUOUS
 70
0
 71
3
 72
11
 73
7
 74
0
 42
0.0000001
 43
0.0000001
 44
0.0000000001
 40
0.0
 40
0.0
 40
0.0
 40
0.0
 40
0.2508334909
 40
0.5015642739
 40
0.7515874275
 40
1.0
 40
1.0
 40
1.0
 40
1.0
 10
-22.1200604988
 20
-30.6103194466
 30
0.0
 10
-22.1906381443
 20
-30.6130960515
 30
0.0
 10
-22.3318267528
 20
-30.6153712098
 30
0.0
 10
-22.542727388
 20
-30.6454413907
 30
0.0
 10
-22.7378641911
 20
-30.739736918
 30
0.0
 10
-22.8266331963
 20
-30.855878658
 30
0.0
 10
-22.8568849449
 20
-30.918949325
 30
0.0
  0
SPLINE
  5
71F
100
AcDbEntity
  8
217
100
AcDbSpline
 62
7
  6
CONTINUOUS
 70
0
 71
3
 72
11
 73
7
 74
0
 42
0.0000001
 43
0.0000001
 44
0.0000000001
 40
0.0
 40
0.0
 40
0.0
 40
0.0
 40
0.2512284341
 40
0.501724782
 40
0.7515726152
 40
1.0
 40
1.0
 40
1.0
 40
1.0
 10
-19.494748934
 20
-30.6103194351
 30
0.0
 10
-19.5454489959
 20
-30.6191099157
 30
0.0
 10
-19.6467392162
 20
-30.6367596191
 30
0.0
 10
-19.7953702345
 20
-30.678390736
 30
0.0
 10
-19.9337282587
 20
-30.7490146351
 30
0.0
 10
-20.0026911598
 20
-30.8299021932
 30
0.0
 10
-20.0251531087
 20
-30.8755587009
 30
0.0
  0
SPLINE
  5
720
100
AcDbEntity
  8
217
100
AcDbSpline
 62
7
  6
CONTINUOUS
 70
0
 71
3
 72
17
 73
13
 74
0
 42
0.0000001
 43
0.0000001
 44
0.0000000001
 40
0.0
 40
0.0
 40
0.0
 40
0.0
 40
0.124353476
 40
0.1873783344
 40
0.249623029
 40
0.3734652769
 40
0.4366243097
 40
0.4996362928
 40
0.625238307
 40
0.7503574483
 40
0.8751294844
 40
1.0
 40
1.0
 40
1.0
 40
1.0
 10
-19.2104482471
 20
-33.0197164374
 30
0.0
 10
-19.2251472886
 20
-33.0494192867
 30
0.0
 10
-19.2300496016
 20
-33.100330069
 30
0.0
 10
-19.2494284872
 20
-33.1646219947
 30
0.0
 10
-19.2938166417
 20
-33.2171382287
 30
0.0
 10
-19.3705592929
 20
-33.2284901608
 30
0.0
 10
-19.4292759444
 20
-33.19557353
 30
0.0
 10
-19.4845641098
 20
-33.1578219872
 30
0.0
 10
-19.5504980251
 20
-33.105372551
 30
0.0
 10
-19.6073213585
 20
-33.0201357155
 30
0.0
 10
-19.63099955
 20
-32.9223958786
 30
0.0
 10
-19.6425040602
 20
-32.8564564214
 30
0.0
 10
-19.6425404449
 20
-32.8231777197
 30
0.0
  0
SPLINE
  5
721
100
AcDbEntity
  8
217
100
AcDbSpline
 62
7
  6
CONTINUOUS
 70
0
 71
3
 72
9
 73
5
 74
0
 42
0.0000001
 43
0.0000001
 44
0.0000000001
 40
0.0
 40
0.0
 40
0.0
 40
0.0
 40
0.5047312403
 40
1.0
 40
1.0
 40
1.0
 40
1.0
 10
-16.5080941449
 20
-33.2390408671
 30
0.0
 10
-16.5990082083
 20
-33.2230884308
 30
0.0
 10
-16.7746212404
 20
-33.1274463141
 30
0.0
 10
-16.8437833224
 20
-32.9385782477
 30
0.0
 10
-16.8435820298
 20
-32.8480059099
 30
0.0
  0
SPLINE
  5
722
100
AcDbEntity
  8
217
100
AcDbSpline
 62
7
  6
CONTINUOUS
 70
0
 71
3
 72
9
 73
5
 74
0
 42
0.0000001
 43
0.0000001
 44
0.0000000001
 40
0.0
 40
0.0
 40
0.0
 40
0.0
 40
0.4968159779
 40
1.0
 40
1.0
 40
1.0
 40
1.0
 10
-14.9900259537
 20
-30.9783273958
 30
0.0
 10
-15.0200004426
 20
-30.8948853062
 30
0.0
 10
-15.1198033792
 20
-30.7388223263
 30
0.0
 10
-15.2765927719
 20
-30.6409626872
 30
0.0
 10
-15.3610016683
 20
-30.6103195243
 30
0.0
  0
SPLINE
  5
723
100
AcDbEntity
  8
RACCORDO
100
AcDbSpline
 62
250
  6
CONTINUOUS
 70
0
 71
3
 72
22
 73
18
 74
0
 42
0.0000001
 43
0.0000001
 44
0.0000000001
 40
0.0
 40
0.0
 40
0.0
 40
0.0
 40
0.0012311928
 40
0.0048499852
 40
0.0108744491
 40
0.0192789814
 40
0.0300383658
 40
0.0431307828
 40
0.0761785902
 40
0.1180917128
 40
0.1685034843
 40
0.2269227369
 40
0.2927789086
 40
0.4442608621
 40
0.6170778676
 40
0.8048260925
 40
1.0
 40
1.0
 40
1.0
 40
1.0
 10
-110.109315131
 20
-44.449545417
 30
0.0
 10
-110.1091276919
 20
-44.4496272221
 30
0.0
 10
-110.1087996404
 20
-44.4483851521
 30
0.0
 10
-110.1082041468
 20
-44.4471614243
 30
0.0
 10
-110.1072521089
 20
-44.4440451679
 30
0.0
 10
-110.1058958676
 20
-44.440207353
 30
0.0
 10
-110.1040787332
 20
-44.4351200468
 30
0.0
 10
-110.1006810279
 20
-44.4263215728
 30
0.0
 10
-110.095107179
 20
-44.4127833231
 30
0.0
 10
-110.0870014071
 20
-44.3936063541
 30
0.0
 10
-110.0772340784
 20
-44.3705475853
 30
0.0
 10
-110.0659191359
 20
-44.3438281211
 30
0.0
 10
-110.0480102507
 20
-44.3016679583
 30
0.0
 10
-110.0225832884
 20
-44.242055867
 30
0.0
 10
-109.9884547368
 20
-44.1641438389
 30
0.0
 10
-109.9522736354
 20
-44.0792247003
 30
0.0
 10
-109.9274682982
 20
-44.0206291193
 30
0.0
 10
-109.9136783987
 20
-43.9912878475
 30
0.0
  0
SPLINE
  5
724
100
AcDbEntity
  8
RACCORDO
100
AcDbSpline
 62
250
  6
CONTINUOUS
 70
0
 71
3
 72
13
 73
9
 74
0
 42
0.0000001
 43
0.0000001
 44
0.0000000001
 40
0.0
 40
0.0
 40
0.0
 40
0.0
 40
0.0168287283
 40
0.064488953
 40
0.143329291
 40
0.2532485246
 40
0.5656920051
 40
1.0
 40
1.0
 40
1.0
 40
1.0
 10
-107.709315131
 20
-44.449545417
 30
0.0
 10
-107.7094711619
 20
-44.4496135145
 30
0.0
 10
-107.709856241
 20
-44.4487108592
 30
0.0
 10
-107.7105583918
 20
-44.4477893714
 30
0.0
 10
-107.7116690168
 20
-44.4454769219
 30
0.0
 10
-107.7139225125
 20
-44.4410519602
 30
0.0
 10
-107.7176543082
 20
-44.4331411973
 30
0.0
 10
-107.7208438808
 20
-44.4263249332
 30
0.0
 10
-107.7226893131
 20
-44.4223377244
 30
0.0
  0
SPLINE
  5
725
100
AcDbEntity
  8
RACCORDO
100
AcDbSpline
 62
250
  6
CONTINUOUS
 70
0
 71
3
 72
9
 73
5
 74
0
 42
0.0000001
 43
0.0000001
 44
0.0000000001
 40
0.0
 40
0.0
 40
0.0
 40
0.0
 40
0.3898687708
 40
1.0
 40
1.0
 40
1.0
 40
1.0
 10
-107.7226893131
 20
-44.4223377244
 30
0.0
 10
-107.7484247793
 20
-44.3667341258
 30
0.0
 10
-107.8120054116
 20
-44.2230012228
 30
0.0
 10
-107.8753285097
 20
-44.0791710375
 30
0.0
 10
-107.9136783987
 20
-43.9912878475
 30
0.0
  0
SPLINE
  5
726
100
AcDbEntity
  8
RACCORDO
100
AcDbSpline
 62
250
  6
CONTINUOUS
 70
0
 71
3
 72
10
 73
6
 74
0
 42
0.0000001
 43
0.0000001
 44
0.0000000001
 40
0.0
 40
0.0
 40
0.0
 40
0.0
 40
0.0941810164
 40
0.3009109711
 40
1.0
 40
1.0
 40
1.0
 40
1.0
 10
-97.0093985064
 20
41.785686715
 30
0.0
 10
-97.00948017
 20
41.7913291053
 30
0.0
 10
-97.030660618
 20
41.8014707776
 30
0.0
 10
-97.0863908612
 20
41.7999750883
 30
0.0
 10
-97.1429648792
 20
41.793830057
 30
0.0
 10
-97.184065654
 20
41.7857532591
 30
0.0
  0
SPLINE
  5
727
100
AcDbEntity
  8
RACCORDO
100
AcDbSpline
 62
250
  6
CONTINUOUS
 70
0
 71
3
 72
10
 73
6
 74
0
 42
0.0000001
 43
0.0000001
 44
0.0000000001
 40
0.0
 40
0.0
 40
0.0
 40
0.0
 40
0.0940000315
 40
0.3006058022
 40
1.0
 40
1.0
 40
1.0
 40
1.0
 10
-97.0093395006
 20
-40.7857492294
 30
0.0
 10
-97.0093870762
 20
-40.7913839517
 30
0.0
 10
-97.0305450195
 20
-40.8016110964
 30
0.0
 10
-97.0863150557
 20
-40.8000097192
 30
0.0
 10
-97.1429190061
 20
-40.7938692802
 30
0.0
 10
-97.1840518269
 20
-40.7857533008
 30
0.0
  0
SPLINE
  5
728
100
AcDbEntity
  8
RACCORDO
100
AcDbSpline
 62
250
  6
CONTINUOUS
 70
0
 71
3
 72
9
 73
5
 74
0
 42
0.0000001
 43
0.0000001
 44
0.0000000001
 40
0.0
 40
0.0
 40
0.0
 40
0.0
 40
0.4984823474
 40
1.0
 40
1.0
 40
1.0
 40
1.0
 10
-97.0094109252
 20
-41.0712356425
 30
0.0
 10
-97.0097576168
 20
-41.1134637887
 30
0.0
 10
-97.0376059211
 20
-41.1998866007
 30
0.0
 10
-97.1100568622
 20
-41.2544562995
 30
0.0
 10
-97.1499953483
 20
-41.2689489795
 30
0.0
  0
SPLINE
  5
729
100
AcDbEntity
  8
RACCORDO
100
AcDbSpline
 62
250
  6
CONTINUOUS
 70
0
 71
3
 72
8
 73
4
 74
0
 42
0.0000001
 43
0.0000001
 44
0.0000000001
 40
0.0
 40
0.0
 40
0.0
 40
0.0
 40
1.0
 40
1.0
 40
1.0
 40
1.0
 10
-97.0093077111
 20
42.0708708908
 30
0.0
 10
-97.0095515356
 20
42.1089264442
 30
0.0
 10
-97.021006539
 20
42.1481902756
 30
0.0
 10
-97.0410563406
 20
42.1805366826
 30
0.0
  0
SPLINE
  5
72A
100
AcDbEntity
  8
RACCORDO
100
AcDbSpline
 62
250
  6
CONTINUOUS
 70
0
 71
3
 72
8
 73
4
 74
0
 42
0.0000001
 43
0.0000001
 44
0.0000000001
 40
0.0
 40
0.0
 40
0.0
 40
0.0
 40
1.0
 40
1.0
 40
1.0
 40
1.0
 10
-97.0410563406
 20
42.1805366826
 30
0.0
 10
-97.0657037682
 20
42.2203004539
 30
0.0
 10
-97.1059844561
 20
42.2531085377
 30
0.0
 10
-97.1499617727
 20
42.2690662574
 30
0.0
  0
SPLINE
  5
72B
100
AcDbEntity
  8
RACCORDO
100
AcDbSpline
 62
250
  6
CONTINUOUS
 70
0
 71
3
 72
14
 73
10
 74
0
 42
0.0000001
 43
0.0000001
 44
0.0000000001
 40
0.0
 40
0.0
 40
0.0
 40
0.0
 40
0.0173500465
 40
0.0684278065
 40
0.1524508895
 40
0.268285128
 40
0.4136519653
 40
0.5859866262
 40
1.0
 40
1.0
 40
1.0
 40
1.0
 10
-118.9477123037
 20
-23.6542852005
 30
0.0
 10
-118.9491583764
 20
-23.6542725808
 30
0.0
 10
-118.9469045302
 20
-23.6451951034
 30
0.0
 10
-118.949748846
 20
-23.6357135877
 30
0.0
 10
-118.9486774736
 20
-23.6129942157
 30
0.0
 10
-118.9495153265
 20
-23.5850013914
 30
0.0
 10
-118.9494339363
 20
-23.5485733033
 30
0.0
 10
-118.9495997932
 20
-23.4877187211
 30
0.0
 10
-118.9494362274
 20
-23.4387879859
 30
0.0
 10
-118.9493090963
 20
-23.4042801725
 30
0.0
  0
SPLINE
  5
72C
100
AcDbEntity
  8
RACCORDO
100
AcDbSpline
 62
250
  6
CONTINUOUS
 70
0
 71
3
 72
11
 73
7
 74
0
 42
0.0000001
 43
0.0000001
 44
0.0000000001
 40
0.0
 40
0.0
 40
0.0
 40
0.0
 40
0.0783673397
 40
0.2707985632
 40
0.5803825186
 40
1.0
 40
1.0
 40
1.0
 40
1.0
 10
-118.9735346321
 20
-23.6535406053
 30
0.0
 10
-118.9762904658
 20
-23.6535118566
 30
0.0
 10
-118.9801711135
 20
-23.641367128
 30
0.0
 10
-118.9838337427
 20
-23.624047984
 30
0.0
 10
-118.987877192
 20
-23.5903556438
 30
0.0
 10
-118.9898941235
 20
-23.5652702566
 30
0.0
 10
-118.9909243488
 20
-23.5505493628
 30
0.0
  0
SPLINE
  5
72D
100
AcDbEntity
  8
RACCORDO
100
AcDbSpline
 62
250
  6
CONTINUOUS
 70
0
 71
3
 72
9
 73
5
 74
0
 42
0.0000001
 43
0.0000001
 44
0.0000000001
 40
0.0
 40
0.0
 40
0.0
 40
0.0
 40
0.200328805
 40
1.0
 40
1.0
 40
1.0
 40
1.0
 10
-118.9909243488
 20
-23.5505493628
 30
0.0
 10
-118.9927670262
 20
-23.5242193396
 30
0.0
 10
-118.9993410995
 20
-23.3926094051
 30
0.0
 10
-119.0001781371
 20
-23.2607806541
 30
0.0
 10
-118.9992754277
 20
-23.1554234373
 30
0.0
  0
SPLINE
  5
72E
100
AcDbEntity
  8
RACCORDO
100
AcDbSpline
 62
250
  6
CONTINUOUS
 70
0
 71
3
 72
11
 73
7
 74
0
 42
0.0000001
 43
0.0000001
 44
0.0000000001
 40
0.0
 40
0.0
 40
0.0
 40
0.0
 40
0.0783106102
 40
0.2707449377
 40
0.5803622121
 40
1.0
 40
1.0
 40
1.0
 40
1.0
 10
-118.9735381089
 20
21.054059822
 30
0.0
 10
-118.9762943405
 20
21.0540359971
 30
0.0
 10
-118.9801774208
 20
21.04187287
 30
0.0
 10
-118.9838369717
 20
21.0245478606
 30
0.0
 10
-118.9878811466
 20
20.9908192573
 30
0.0
 10
-118.9898972538
 20
20.9657120637
 30
0.0
 10
-118.9909272861
 20
20.9509778391
 30
0.0
  0
SPLINE
  5
72F
100
AcDbEntity
  8
RACCORDO
100
AcDbSpline
 62
250
  6
CONTINUOUS
 70
0
 71
3
 72
9
 73
5
 74
0
 42
0.0000001
 43
0.0000001
 44
0.0000000001
 40
0.0
 40
0.0
 40
0.0
 40
0.0
 40
0.2003772102
 40
1.0
 40
1.0
 40
1.0
 40
1.0
 10
-118.9909272861
 20
20.9509778391
 30
0.0
 10
-118.9927703996
 20
20.924612792
 30
0.0
 10
-118.9993437755
 20
20.7928599694
 30
0.0
 10
-119.0001821631
 20
20.6608887161
 30
0.0
 10
-118.9992821735
 20
20.5554237536
 30
0.0
  0
SPLINE
  5
730
100
AcDbEntity
  8
RACCORDO
100
AcDbSpline
 62
250
  6
CONTINUOUS
 70
0
 71
3
 72
14
 73
10
 74
0
 42
0.0000001
 43
0.0000001
 44
0.0000000001
 40
0.0
 40
0.0
 40
0.0
 40
0.0
 40
0.0173500402
 40
0.0684277873
 40
0.1524508554
 40
0.2682850783
 40
0.4136519032
 40
0.5859865637
 40
1.0
 40
1.0
 40
1.0
 40
1.0
 10
-118.9477122979
 20
21.0542852005
 30
0.0
 10
-118.9491583672
 20
21.0542725808
 30
0.0
 10
-118.9469045221
 20
21.0451951236
 30
0.0
 10
-118.9497488333
 20
21.0357136293
 30
0.0
 10
-118.9486774607
 20
21.0129943059
 30
0.0
 10
-118.9495153121
 20
20.9850015409
 30
0.0
 10
-118.9494339218
 20
20.9485735275
 30
0.0
 10
-118.9495997792
 20
20.8877190621
 30
0.0
 10
-118.9494362149
 20
20.8387884189
 30
0.0
 10
-118.9493090851
 20
20.8042806688
 30
0.0
  0
SPLINE
  5
731
100
AcDbEntity
  8
RACCORDO
100
AcDbSpline
 62
250
  6
CONTINUOUS
 70
0
 71
3
 72
13
 73
9
 74
0
 42
0.0000001
 43
0.0000001
 44
0.0000000001
 40
0.0
 40
0.0
 40
0.0
 40
0.0
 40
0.0793831774
 40
0.1656478363
 40
0.2654172342
 40
0.381617301
 40
0.6645996097
 40
1.0
 40
1.0
 40
1.0
 40
1.0
 10
-119.9635116934
 20
20.1050620246
 30
0.0
 10
-119.9618580182
 20
20.1354010463
 30
0.0
 10
-119.9467592206
 20
20.1985821007
 30
0.0
 10
-119.8905622151
 20
20.2849730206
 30
0.0
 10
-119.8039928748
 20
20.3631944139
 30
0.0
 10
-119.6385484334
 20
20.4605560491
 30
0.0
 10
-119.3652668199
 20
20.541014151
 30
0.0
 10
-119.1276271623
 20
20.5581924435
 30
0.0
 10
-118.9992819099
 20
20.5554237418
 30
0.0
  0
SPLINE
  5
732
100
AcDbEntity
  8
RACCORDO
100
AcDbSpline
 62
250
  6
CONTINUOUS
 70
0
 71
3
 72
13
 73
9
 74
0
 42
0.0000001
 43
0.0000001
 44
0.0000000001
 40
0.0
 40
0.0
 40
0.0
 40
0.0
 40
0.3354003264
 40
0.6183802964
 40
0.7345822187
 40
0.8343486121
 40
0.9205972805
 40
1.0
 40
1.0
 40
1.0
 40
1.0
 10
-118.9992819041
 20
-23.1554237417
 30
0.0
 10
-119.1276269862
 20
-23.1582017657
 30
0.0
 10
-119.3652631613
 20
-23.1409932577
 30
0.0
 10
-119.6385513729
 20
-23.0605611684
 30
0.0
 10
-119.8039919197
 20
-22.9631939259
 30
0.0
 10
-119.8905590418
 20
-22.8849817894
 30
0.0
 10
-119.9467624095
 20
-22.7985920625
 30
0.0
 10
-119.9618511646
 20
-22.7354084671
 30
0.0
 10
-119.9635116871
 20
-22.7050623153
 30
0.0
  0
SPLINE
  5
733
100
AcDbEntity
  8
RACCORDO
100
AcDbSpline
 62
250
  6
CONTINUOUS
 70
0
 71
3
 72
9
 73
5
 74
0
 42
0.0000001
 43
0.0000001
 44
0.0000000001
 40
0.0
 40
0.0
 40
0.0
 40
0.0
 40
0.2500412845
 40
1.0
 40
1.0
 40
1.0
 40
1.0
 10
-118.9477123037
 20
-23.1543042389
 30
0.0
 10
-119.1377712853
 20
-19.5153484148
 30
0.0
 10
-119.7081125173
 20
-4.9526327549
 30
0.0
 10
-119.5177636542
 20
9.6398400837
 30
0.0
 10
-118.9477122979
 20
20.5543042389
 30
0.0
  0
SPLINE
  5
734
100
AcDbEntity
  8
217
100
AcDbSpline
 62
7
  6
CONTINUOUS
 70
0
 71
3
 72
9
 73
5
 74
0
 42
0.0000001
 43
0.0000001
 44
0.0000000001
 40
0.0
 40
0.0
 40
0.0
 40
0.0
 40
0.2593465967
 40
1.0
 40
1.0
 40
1.0
 40
1.0
 10
-115.2587841954
 20
-26.8919976601
 30
0.0
 10
-115.2581439425
 20
-26.9288625983
 30
0.0
 10
-115.2562748466
 20
-27.071018887
 30
0.0
 10
-115.2569985238
 20
-27.2132010718
 30
0.0
 10
-115.2551608484
 20
-27.3184814211
 30
0.0
  0
SPLINE
  5
735
100
AcDbEntity
  8
217
100
AcDbSpline
 62
7
  6
CONTINUOUS
 70
0
 71
3
 72
9
 73
5
 74
0
 42
0.0000001
 43
0.0000001
 44
0.0000000001
 40
0.0
 40
0.0
 40
0.0
 40
0.0
 40
0.2333729944
 40
1.0
 40
1.0
 40
1.0
 40
1.0
 10
-115.5707505567
 20
-9.2383591451
 30
0.0
 10
-115.5701197522
 20
-9.2744979085
 30
0.0
 10
-115.5654319371
 20
-9.4293092042
 30
0.0
 10
-115.5592288485
 20
-9.5840776721
 30
0.0
 10
-115.5571691134
 20
-9.7027932184
 30
0.0
  0
SPLINE
  5
736
100
AcDbEntity
  8
217
100
AcDbSpline
 62
7
  6
CONTINUOUS
 70
0
 71
3
 72
9
 73
5
 74
0
 42
0.0000001
 43
0.0000001
 44
0.0000000001
 40
0.0
 40
0.0
 40
0.0
 40
0.0
 40
0.2614855275
 40
1.0
 40
1.0
 40
1.0
 40
1.0
 10
-115.5571691134
 20
7.1027932184
 30
0.0
 10
-115.5578716636
 20
7.0623008148
 30
0.0
 10
-115.5614156451
 20
6.9074594442
 30
0.0
 10
-115.5687543496
 20
6.7527217707
 30
0.0
 10
-115.5707505567
 20
6.638359145
 30
0.0
  0
SPLINE
  5
737
100
AcDbEntity
  8
217
100
AcDbSpline
 62
7
  6
CONTINUOUS
 70
0
 71
3
 72
9
 73
5
 74
0
 42
0.0000001
 43
0.0000001
 44
0.0000000001
 40
0.0
 40
0.0
 40
0.0
 40
0.0
 40
0.2364452717
 40
1.0
 40
1.0
 40
1.0
 40
1.0
 10
-115.2556295145
 20
24.6916315604
 30
0.0
 10
-115.2562162496
 20
24.6580175258
 30
0.0
 10
-115.2573458453
 20
24.5158338671
 30
0.0
 10
-115.2573662701
 20
24.3736401235
 30
0.0
 10
-115.2592515168
 20
24.2650898701
 30
0.0
  0
SPLINE
  5
738
100
AcDbEntity
  8
217
100
AcDbSpline
 62
7
  6
CONTINUOUS
 70
0
 71
3
 72
10
 73
6
 74
0
 42
0.0000001
 43
0.0000001
 44
0.0000000001
 40
0.0
 40
0.0
 40
0.0
 40
0.0
 40
0.2499999953
 40
0.4999991559
 40
1.0
 40
1.0
 40
1.0
 40
1.0
 10
-115.3602138324
 20
18.7
 30
0.0
 10
-115.3567417659
 20
18.8999820621
 30
0.0
 10
-115.3457966372
 20
19.2998645814
 30
0.0
 10
-115.3304136678
 20
20.0997679552
 30
0.0
 10
-115.3211676823
 20
20.699733939
 30
0.0
 10
-115.3142214024
 20
21.0996987089
 30
0.0
  0
LINE
  5
739
100
AcDbEntity
  8
217
100
AcDbLine
 62
7
  6
CONTINUOUS
 10
-115.3020536426
 20
21.8004182866
 11
-115.2592515168
 21
24.2650898701
  0
SPLINE
  5
73A
100
AcDbEntity
  8
217
100
AcDbSpline
 62
250
  6
CONTINUOUS
 70
0
 71
3
 72
14
 73
10
 74
0
 42
0.0000001
 43
0.0000001
 44
0.0000000001
 40
0.0
 40
0.0
 40
0.0
 40
0.0
 40
0.0252533312
 40
0.0836501014
 40
0.1760644118
 40
0.2996121277
 40
0.4497094163
 40
0.6208484968
 40
1.0
 40
1.0
 40
1.0
 40
1.0
 10
-113.7055427874
 20
36.1116174476
 30
0.0
 10
-113.7139570897
 20
36.1108812916
 30
0.0
 10
-113.7261533113
 20
36.0768598935
 30
0.0
 10
-113.73341249
 20
36.0246798634
 30
0.0
 10
-113.7398512513
 20
35.9297992609
 30
0.0
 10
-113.7410775134
 20
35.8086840563
 30
0.0
 10
-113.7384422038
 20
35.659445626
 30
0.0
 10
-113.7284897844
 20
35.4255851508
 30
0.0
 10
-113.7152885814
 20
35.2418687322
 30
0.0
 10
-113.7041846104
 20
35.1155415746
 30
0.0
  0
SPLINE
  5
73B
100
AcDbEntity
  8
217
100
AcDbSpline
 62
250
  6
CONTINUOUS
 70
0
 71
3
 72
14
 73
10
 74
0
 42
0.0000001
 43
0.0000001
 44
0.0000000001
 40
0.0
 40
0.0
 40
0.0
 40
0.0
 40
0.0275476511
 40
0.0866718076
 40
0.1791794091
 40
0.3024318046
 40
0.4519749278
 40
0.6223968079
 40
1.0
 40
1.0
 40
1.0
 40
1.0
 10
-113.7128720308
 20
36.110848774
 30
0.0
 10
-113.7220559682
 20
36.1100493935
 30
0.0
 10
-113.7384410126
 20
36.0779279363
 30
0.0
 10
-113.7478661454
 20
36.0233039647
 30
0.0
 10
-113.7577240723
 20
35.929410642
 30
0.0
 10
-113.7614242578
 20
35.8081107424
 30
0.0
 10
-113.7611112138
 20
35.6594378821
 30
0.0
 10
-113.7535441243
 20
35.4262382542
 30
0.0
 10
-113.7412359353
 20
35.2431281996
 30
0.0
 10
-113.7303746324
 20
35.117233135
 30
0.0
  0
SPLINE
  5
73C
100
AcDbEntity
  8
217
100
AcDbSpline
 62
250
  6
CONTINUOUS
 70
0
 71
3
 72
14
 73
10
 74
0
 42
0.0000001
 43
0.0000001
 44
0.0000000001
 40
0.0
 40
0.0
 40
0.0
 40
0.0
 40
0.378924222
 40
0.5499719435
 40
0.7000049633
 40
0.8235307983
 40
0.9159829928
 40
0.9744885521
 40
1.0
 40
1.0
 40
1.0
 40
1.0
 10
-113.7041846104
 20
-37.7155415747
 30
0.0
 10
-113.7148865414
 20
-37.8419100422
 30
0.0
 10
-113.7275623856
 20
-38.0256711464
 30
0.0
 10
-113.7369822954
 20
-38.2595863065
 30
0.0
 10
-113.7391689672
 20
-38.4088526193
 30
0.0
 10
-113.7374532563
 20
-38.5300772397
 30
0.0
 10
-113.7303581494
 20
-38.6249064931
 30
0.0
 10
-113.7227120272
 20
-38.6774009531
 30
0.0
 10
-113.7099896595
 20
-38.7112283968
 30
0.0
 10
-113.7014838132
 20
-38.7119725619
 30
0.0
  0
SPLINE
  5
73D
100
AcDbEntity
  8
217
100
AcDbSpline
 62
250
  6
CONTINUOUS
 70
0
 71
3
 72
14
 73
10
 74
0
 42
0.0000001
 43
0.0000001
 44
0.0000000001
 40
0.0
 40
0.0
 40
0.0
 40
0.0
 40
0.3772268659
 40
0.5475341953
 40
0.697014935
 40
0.8202778311
 40
0.9128860973
 40
0.9722197854
 40
1.0
 40
1.0
 40
1.0
 40
1.0
 10
-113.7302553122
 20
-37.7149994792
 30
0.0
 10
-113.7411444278
 20
-37.8409442558
 30
0.0
 10
-113.753492408
 20
-38.0241450979
 30
0.0
 10
-113.7611027026
 20
-38.2574886133
 30
0.0
 10
-113.7614659845
 20
-38.406309979
 30
0.0
 10
-113.7577547406
 20
-38.5278114447
 30
0.0
 10
-113.7480253197
 20
-38.6219191969
 30
0.0
 10
-113.7384243078
 20
-38.6768536124
 30
0.0
 10
-113.7223054183
 20
-38.7091616853
 30
0.0
 10
-113.7130507458
 20
-38.7101713454
 30
0.0
  0
LINE
  5
73E
100
AcDbEntity
  8
217
100
AcDbLine
 62
250
  6
CONTINUOUS
 10
-113.7302694012
 20
35.1147948745
 11
-113.704184121
 21
35.1155696129
  0
SPLINE
  5
73F
100
AcDbEntity
  8
217
100
AcDbSpline
 62
250
  6
CONTINUOUS
 70
0
 71
3
 72
11
 73
7
 74
0
 42
0.0000001
 43
0.0000001
 44
0.0000000001
 40
0.0
 40
0.0
 40
0.0
 40
0.0
 40
0.1799422252
 40
0.392667703
 40
0.664471241
 40
1.0
 40
1.0
 40
1.0
 40
1.0
 10
-115.0819301582
 20
34.6428610173
 30
0.0
 10
-115.0812827944
 20
34.672791257
 30
0.0
 10
-115.0615376007
 20
34.7383718219
 30
0.0
 10
-114.9849821195
 20
34.8210050631
 30
0.0
 10
-114.8707597565
 20
34.896805998
 30
0.0
 10
-114.7777326708
 20
34.9374746224
 30
0.0
 10
-114.7254317105
 20
34.9569874049
 30
0.0
  0
SPLINE
  5
740
100
AcDbEntity
  8
217
100
AcDbSpline
 62
250
  6
CONTINUOUS
 70
0
 71
3
 72
9
 73
5
 74
0
 42
0.0000001
 43
0.0000001
 44
0.0000000001
 40
0.0
 40
0.0
 40
0.0
 40
0.0
 40
0.4514624671
 40
1.0
 40
1.0
 40
1.0
 40
1.0
 10
-114.7254317105
 20
34.9569874049
 30
0.0
 10
-114.5828964353
 20
35.0101653924
 30
0.0
 10
-114.251943955
 20
35.0864216958
 30
0.0
 10
-113.9150750084
 20
35.1110181602
 30
0.0
 10
-113.7302694012
 20
35.1147948745
 30
0.0
  0
SPLINE
  5
741
100
AcDbEntity
  8
217
100
AcDbSpline
 62
250
  6
CONTINUOUS
 70
0
 71
3
 72
21
 73
17
 74
0
 42
0.0000001
 43
0.0000001
 44
0.0000000001
 40
0.0
 40
0.0
 40
0.0
 40
0.0
 40
0.1992016972
 40
0.3890368026
 40
0.5619458909
 40
0.7121885961
 40
0.7771892272
 40
0.8347266822
 40
0.8843257812
 40
0.9255113515
 40
0.9578610781
 40
0.9811640538
 40
0.9893736488
 40
0.9952623653
 40
0.9988106275
 40
1.0
 40
1.0
 40
1.0
 40
1.0
 10
-114.3098139136
 20
0.419062034
 30
0.0
 10
-114.4007217805
 20
0.4206609826
 30
0.0
 10
-114.5782624778
 20
0.4238089437
 30
0.0
 10
-114.8347108259
 20
0.4284312941
 30
0.0
 10
-115.0688140536
 20
0.4327332892
 30
0.0
 10
-115.2459494384
 20
0.4360610256
 30
0.0
 10
-115.3704292224
 20
0.4384617725
 30
0.0
 10
-115.4489898522
 20
0.439999164
 30
0.0
 10
-115.5166541403
 20
0.4413798983
 30
0.0
 10
-115.5729033483
 20
0.4424990886
 30
0.0
 10
-115.616939485
 20
0.4435945915
 30
0.0
 10
-115.6464014167
 20
0.4440059862
 30
0.0
 10
-115.6630317329
 20
0.4448241361
 30
0.0
 10
-115.6718030598
 20
0.444454361
 30
0.0
 10
-115.6753714804
 20
0.4457091727
 30
0.0
 10
-115.6788613165
 20
0.4446978593
 30
0.0
 10
-115.6788518422
 20
0.4452406437
 30
0.0
  0
SPLINE
  5
742
100
AcDbEntity
  8
217
100
AcDbSpline
 62
250
  6
CONTINUOUS
 70
0
 71
3
 72
14
 73
10
 74
0
 42
0.0000001
 43
0.0000001
 44
0.0000000001
 40
0.0
 40
0.0
 40
0.0
 40
0.0
 40
0.0614574478
 40
0.1349208811
 40
0.2294424014
 40
0.3464748643
 40
0.4852390405
 40
0.6433834951
 40
1.0
 40
1.0
 40
1.0
 40
1.0
 10
-115.0819301582
 20
-37.2428610173
 30
0.0
 10
-115.081263164
 20
-37.2737992473
 30
0.0
 10
-115.0599319039
 20
-37.3419366347
 30
0.0
 10
-114.9783026568
 20
-37.4267850217
 30
0.0
 10
-114.8568379615
 20
-37.5044865788
 30
0.0
 10
-114.6935294279
 20
-37.5729750221
 30
0.0
 10
-114.4928427223
 20
-37.6304056219
 30
0.0
 10
-114.1693821648
 20
-37.6925886784
 30
0.0
 10
-113.9098106295
 20
-37.7117577535
 30
0.0
 10
-113.7302740147
 20
-37.7149873188
 30
0.0
  0
LINE
  5
743
100
AcDbEntity
  8
217
100
AcDbLine
 62
250
  6
CONTINUOUS
 10
-113.7041847217
 20
-37.7155352025
 11
-113.7302740147
 21
-37.7149873188
  0
SPLINE
  5
744
100
AcDbEntity
  8
217
100
AcDbSpline
 62
250
  6
CONTINUOUS
 70
0
 71
3
 72
21
 73
17
 74
0
 42
0.0000001
 43
0.0000001
 44
0.0000000001
 40
0.0
 40
0.0
 40
0.0
 40
0.0
 40
0.1992016972
 40
0.3890368026
 40
0.5619458909
 40
0.7121885961
 40
0.7771892273
 40
0.8347266822
 40
0.8843257812
 40
0.9255113515
 40
0.9578610781
 40
0.9811640538
 40
0.9893736488
 40
0.9952623653
 40
0.9988106275
 40
1.0
 40
1.0
 40
1.0
 40
1.0
 10
-114.3098139136
 20
-3.0190620341
 30
0.0
 10
-114.4007217805
 20
-3.0206609826
 30
0.0
 10
-114.5782624778
 20
-3.0238089438
 30
0.0
 10
-114.8347108259
 20
-3.0284312942
 30
0.0
 10
-115.0688140536
 20
-3.0327332892
 30
0.0
 10
-115.2459494385
 20
-3.0360610257
 30
0.0
 10
-115.3704292224
 20
-3.0384617726
 30
0.0
 10
-115.4489898522
 20
-3.039999164
 30
0.0
 10
-115.5166541403
 20
-3.0413798983
 30
0.0
 10
-115.5729033483
 20
-3.0424990886
 30
0.0
 10
-115.616939485
 20
-3.0435945915
 30
0.0
 10
-115.6464014167
 20
-3.0440059862
 30
0.0
 10
-115.6630317329
 20
-3.0448241362
 30
0.0
 10
-115.6718030598
 20
-3.044454361
 30
0.0
 10
-115.6753714804
 20
-3.0457091728
 30
0.0
 10
-115.6788613165
 20
-3.0446978594
 30
0.0
 10
-115.6788518422
 20
-3.0452406438
 30
0.0
  0
SPLINE
  5
745
100
AcDbEntity
  8
217
100
AcDbSpline
 62
7
  6
CONTINUOUS
 70
0
 71
3
 72
9
 73
5
 74
0
 42
0.0000001
 43
0.0000001
 44
0.0000000001
 40
0.0
 40
0.0
 40
0.0
 40
0.0
 40
0.7400084254
 40
1.0
 40
1.0
 40
1.0
 40
1.0
 10
-115.021047285
 20
12.9479862865
 30
0.0
 10
-115.1294615906
 20
12.9498783771
 30
0.0
 10
-115.2760443635
 20
12.9508245855
 30
0.0
 10
-115.4223697719
 20
12.9584368627
 30
0.0
 10
-115.4603871132
 20
12.9610765882
 30
0.0
  0
SPLINE
  5
746
100
AcDbEntity
  8
217
100
AcDbSpline
 62
7
  6
CONTINUOUS
 70
0
 71
3
 72
9
 73
5
 74
0
 42
0.0000001
 43
0.0000001
 44
0.0000000001
 40
0.0
 40
0.0
 40
0.0
 40
0.0
 40
0.7400084254
 40
1.0
 40
1.0
 40
1.0
 40
1.0
 10
-115.021047285
 20
-15.5479862866
 30
0.0
 10
-115.1294615906
 20
-15.5498783771
 30
0.0
 10
-115.2760443635
 20
-15.5508245855
 30
0.0
 10
-115.4223697719
 20
-15.5584368627
 30
0.0
 10
-115.4603871132
 20
-15.5610765883
 30
0.0
  0
SPLINE
  5
747
100
AcDbEntity
  8
284
100
AcDbSpline
 62
250
  6
CONTINUOUS
 70
0
 71
3
 72
9
 73
5
 74
0
 42
0.0000001
 43
0.0000001
 44
0.0000000001
 40
0.0
 40
0.0
 40
0.0
 40
0.0
 40
0.2269998173
 40
1.0
 40
1.0
 40
1.0
 40
1.0
 10
-88.7150463601
 20
-26.5088977811
 30
0.0
 10
-88.7137870117
 20
-26.5200511239
 30
0.0
 10
-88.7159391588
 20
-26.5702453559
 30
0.0
 10
-88.74813026
 20
-26.6147602192
 30
0.0
 10
-88.7769502226
 20
-26.6398661685
 30
0.0
  0
SPLINE
  5
748
100
AcDbEntity
  8
284
100
AcDbSpline
 62
250
  6
CONTINUOUS
 70
0
 71
3
 72
8
 73
4
 74
0
 42
0.0000001
 43
0.0000001
 44
0.0000000001
 40
0.0
 40
0.0
 40
0.0
 40
0.0
 40
1.0
 40
1.0
 40
1.0
 40
1.0
 10
-88.7769502226
 20
-26.6398661685
 30
0.0
 10
-88.8008947657
 20
-26.6607249911
 30
0.0
 10
-88.828761172
 20
-26.6773808558
 30
0.0
 10
-88.8577635519
 20
-26.6903150579
 30
0.0
  0
SPLINE
  5
749
100
AcDbEntity
  8
284
100
AcDbSpline
 62
250
  6
CONTINUOUS
 70
0
 71
3
 72
8
 73
4
 74
0
 42
0.0000001
 43
0.0000001
 44
0.0000000001
 40
0.0
 40
0.0
 40
0.0
 40
0.0
 40
1.0
 40
1.0
 40
1.0
 40
1.0
 10
-88.8577635519
 20
-26.6903150579
 30
0.0
 10
-88.8899875067
 20
-26.704685987
 30
0.0
 10
-88.9242908142
 20
-26.7148399103
 30
0.0
 10
-88.9589790804
 20
-26.7212921233
 30
0.0
  0
SPLINE
  5
74A
100
AcDbEntity
  8
284
100
AcDbSpline
 62
250
  6
CONTINUOUS
 70
0
 71
3
 72
8
 73
4
 74
0
 42
0.0000001
 43
0.0000001
 44
0.0000000001
 40
0.0
 40
0.0
 40
0.0
 40
0.0
 40
1.0
 40
1.0
 40
1.0
 40
1.0
 10
-88.709315131
 20
-26.3283076309
 30
0.0
 10
-88.709315131
 20
-26.3491502839
 30
0.0
 10
-88.7223947965
 20
-26.3697607001
 30
0.0
 10
-88.7374982476
 20
-26.3841239153
 30
0.0
  0
SPLINE
  5
74B
100
AcDbEntity
  8
284
100
AcDbSpline
 62
250
  6
CONTINUOUS
 70
0
 71
3
 72
9
 73
5
 74
0
 42
0.0000001
 43
0.0000001
 44
0.0000000001
 40
0.0
 40
0.0
 40
0.0
 40
0.0
 40
0.1980031069
 40
1.0
 40
1.0
 40
1.0
 40
1.0
 10
-88.7374982476
 20
-26.3841239153
 30
0.0
 10
-88.7487075235
 20
-26.394783813
 30
0.0
 10
-88.8145100294
 20
-26.4385905608
 30
0.0
 10
-88.8947776925
 20
-26.4534170477
 30
0.0
 10
-88.9572396009
 20
-26.4583309648
 30
0.0
  0
SPLINE
  5
74C
100
AcDbEntity
  8
284
100
AcDbSpline
 62
250
  6
CONTINUOUS
 70
0
 71
3
 72
8
 73
4
 74
0
 42
0.0000001
 43
0.0000001
 44
0.0000000001
 40
0.0
 40
0.0
 40
0.0
 40
0.0
 40
1.0
 40
1.0
 40
1.0
 40
1.0
 10
-88.709315131
 20
-26.6099928047
 30
0.0
 10
-88.709315131
 20
-26.6218109744
 30
0.0
 10
-88.7109544485
 20
-26.6337145769
 30
0.0
 10
-88.7139785834
 20
-26.6451392757
 30
0.0
  0
SPLINE
  5
74D
100
AcDbEntity
  8
284
100
AcDbSpline
 62
250
  6
CONTINUOUS
 70
0
 71
3
 72
8
 73
4
 74
0
 42
0.0000001
 43
0.0000001
 44
0.0000000001
 40
0.0
 40
0.0
 40
0.0
 40
0.0
 40
1.0
 40
1.0
 40
1.0
 40
1.0
 10
-88.7139785834
 20
-26.6451392757
 30
0.0
 10
-88.7171063856
 20
-26.6569556132
 30
0.0
 10
-88.7217494899
 20
-26.6684429206
 30
0.0
 10
-88.7275277812
 20
-26.679214194
 30
0.0
  0
SPLINE
  5
74E
100
AcDbEntity
  8
284
100
AcDbSpline
 62
250
  6
CONTINUOUS
 70
0
 71
3
 72
9
 73
5
 74
0
 42
0.0000001
 43
0.0000001
 44
0.0000000001
 40
0.0
 40
0.0
 40
0.0
 40
0.0
 40
0.2193502243
 40
1.0
 40
1.0
 40
1.0
 40
1.0
 10
-88.7275277812
 20
-26.679214194
 30
0.0
 10
-88.7368590152
 20
-26.6966084839
 30
0.0
 10
-88.7937256386
 20
-26.7683315311
 30
0.0
 10
-88.8874903091
 20
-26.8009285907
 30
0.0
 10
-88.9572346724
 20
-26.8093418245
 30
0.0
  0
SPLINE
  5
74F
100
AcDbEntity
  8
284
100
AcDbSpline
 62
250
  6
CONTINUOUS
 70
0
 71
3
 72
8
 73
4
 74
0
 42
0.0000001
 43
0.0000001
 44
0.0000000001
 40
0.0
 40
0.0
 40
0.0
 40
0.0
 40
1.0
 40
1.0
 40
1.0
 40
1.0
 10
-88.709315131
 20
24.0099928047
 30
0.0
 10
-88.709315131
 20
24.0218118815
 30
0.0
 10
-88.7109545942
 20
24.0337164015
 30
0.0
 10
-88.7139790098
 20
24.0451419644
 30
0.0
  0
SPLINE
  5
750
100
AcDbEntity
  8
284
100
AcDbSpline
 62
250
  6
CONTINUOUS
 70
0
 71
3
 72
8
 73
4
 74
0
 42
0.0000001
 43
0.0000001
 44
0.0000000001
 40
0.0
 40
0.0
 40
0.0
 40
0.0
 40
1.0
 40
1.0
 40
1.0
 40
1.0
 10
-88.7139790098
 20
24.0451419644
 30
0.0
 10
-88.7171070388
 20
24.0569589556
 30
0.0
 10
-88.7217504586
 20
24.0684468939
 30
0.0
 10
-88.7275291512
 20
24.0792187349
 30
0.0
  0
SPLINE
  5
751
100
AcDbEntity
  8
284
100
AcDbSpline
 62
250
  6
CONTINUOUS
 70
0
 71
3
 72
9
 73
5
 74
0
 42
0.0000001
 43
0.0000001
 44
0.0000000001
 40
0.0
 40
0.0
 40
0.0
 40
0.0
 40
0.2193532002
 40
1.0
 40
1.0
 40
1.0
 40
1.0
 10
-88.7275291512
 20
24.0792187349
 30
0.0
 10
-88.7368605755
 20
24.0966130876
 30
0.0
 10
-88.7937270033
 20
24.1683355482
 30
0.0
 10
-88.8874918551
 20
24.2009315509
 30
0.0
 10
-88.9572357083
 20
24.2093431367
 30
0.0
  0
SPLINE
  5
752
100
AcDbEntity
  8
284
100
AcDbSpline
 62
250
  6
CONTINUOUS
 70
0
 71
3
 72
9
 73
5
 74
0
 42
0.0000001
 43
0.0000001
 44
0.0000000001
 40
0.0
 40
0.0
 40
0.0
 40
0.0
 40
0.2269529783
 40
1.0
 40
1.0
 40
1.0
 40
1.0
 10
-88.714955651
 20
23.9088965126
 30
0.0
 10
-88.7137068866
 20
23.9200409485
 30
0.0
 10
-88.7159114101
 20
23.9701997487
 30
0.0
 10
-88.7481301382
 20
24.01464458
 30
0.0
 10
-88.7769532024
 20
24.03971045
 30
0.0
  0
SPLINE
  5
753
100
AcDbEntity
  8
284
100
AcDbSpline
 62
250
  6
CONTINUOUS
 70
0
 71
3
 72
8
 73
4
 74
0
 42
0.0000001
 43
0.0000001
 44
0.0000000001
 40
0.0
 40
0.0
 40
0.0
 40
0.0
 40
1.0
 40
1.0
 40
1.0
 40
1.0
 10
-88.7769532024
 20
24.03971045
 30
0.0
 10
-88.8009090352
 20
24.0605435506
 30
0.0
 10
-88.8287788994
 20
24.0771743549
 30
0.0
 10
-88.8577808844
 20
24.0900888768
 30
0.0
  0
SPLINE
  5
754
100
AcDbEntity
  8
284
100
AcDbSpline
 62
250
  6
CONTINUOUS
 70
0
 71
3
 72
8
 73
4
 74
0
 42
0.0000001
 43
0.0000001
 44
0.0000000001
 40
0.0
 40
0.0
 40
0.0
 40
0.0
 40
1.0
 40
1.0
 40
1.0
 40
1.0
 10
-88.8577808844
 20
24.0900888768
 30
0.0
 10
-88.8900064591
 20
24.1044388562
 30
0.0
 10
-88.9243064891
 20
24.1145756026
 30
0.0
 10
-88.9589901032
 20
24.121014274
 30
0.0
  0
SPLINE
  5
755
100
AcDbEntity
  8
284
100
AcDbSpline
 62
250
  6
CONTINUOUS
 70
0
 71
3
 72
8
 73
4
 74
0
 42
0.0000001
 43
0.0000001
 44
0.0000000001
 40
0.0
 40
0.0
 40
0.0
 40
0.0
 40
1.0
 40
1.0
 40
1.0
 40
1.0
 10
-88.709315131
 20
23.7283076308
 30
0.0
 10
-88.709315131
 20
23.749054722
 30
0.0
 10
-88.7222764606
 20
23.7695822207
 30
0.0
 10
-88.7372779596
 20
23.7839138926
 30
0.0
  0
SPLINE
  5
756
100
AcDbEntity
  8
284
100
AcDbSpline
 62
250
  6
CONTINUOUS
 70
0
 71
3
 72
9
 73
5
 74
0
 42
0.0000001
 43
0.0000001
 44
0.0000000001
 40
0.0
 40
0.0
 40
0.0
 40
0.0
 40
0.1978523049
 40
1.0
 40
1.0
 40
1.0
 40
1.0
 10
-88.7372779596
 20
23.7839138926
 30
0.0
 10
-88.7484681895
 20
23.794604471
 30
0.0
 10
-88.8142962388
 20
23.8385647352
 30
0.0
 10
-88.8946845294
 20
23.8534092162
 30
0.0
 10
-88.9572356009
 20
23.8583305865
 30
0.0
  0
SPLINE
  5
757
100
AcDbEntity
  8
284
100
AcDbSpline
 62
250
  6
CONTINUOUS
 70
0
 71
3
 72
9
 73
5
 74
0
 42
0.0000001
 43
0.0000001
 44
0.0000000001
 40
0.0
 40
0.0
 40
0.0
 40
0.0
 40
0.1925141286
 40
1.0
 40
1.0
 40
1.0
 40
1.0
 10
-88.7166411484
 20
-26.4946486915
 30
0.0
 10
-88.7202765269
 20
-26.5126989011
 30
0.0
 10
-88.7698077363
 20
-26.6000960376
 30
0.0
 10
-88.8815181562
 20
-26.6214082528
 30
0.0
 10
-88.9586621027
 20
-26.625063643
 30
0.0
  0
SPLINE
  5
758
100
AcDbEntity
  8
284
100
AcDbSpline
 62
250
  6
CONTINUOUS
 70
0
 71
3
 72
8
 73
4
 74
0
 42
0.0000001
 43
0.0000001
 44
0.0000000001
 40
0.0
 40
0.0
 40
0.0
 40
0.0
 40
1.0
 40
1.0
 40
1.0
 40
1.0
 10
-89.009315131
 20
-26.4603845386
 30
0.0
 10
-89.0093190982
 20
-26.5063712601
 30
0.0
 10
-89.0100910891
 20
-26.5523835351
 30
0.0
 10
-89.0124720197
 20
-26.5983085799
 30
0.0
  0
SPLINE
  5
759
100
AcDbEntity
  8
284
100
AcDbSpline
 62
250
  6
CONTINUOUS
 70
0
 71
3
 72
8
 73
4
 74
0
 42
0.0000001
 43
0.0000001
 44
0.0000000001
 40
0.0
 40
0.0
 40
0.0
 40
0.0
 40
1.0
 40
1.0
 40
1.0
 40
1.0
 10
-89.0140325975
 20
24.024724334
 30
0.0
 10
-89.0109049115
 20
23.9778462562
 30
0.0
 10
-89.0096644895
 20
23.9308356401
 30
0.0
 10
-89.0093815479
 20
23.8838541912
 30
0.0
  0
SPLINE
  5
75A
100
AcDbEntity
  8
284
100
AcDbSpline
 62
250
  6
CONTINUOUS
 70
0
 71
3
 72
9
 73
5
 74
0
 42
0.0000001
 43
0.0000001
 44
0.0000000001
 40
0.0
 40
0.0
 40
0.0
 40
0.0
 40
0.1925066511
 40
1.0
 40
1.0
 40
1.0
 40
1.0
 10
-88.7166444076
 20
23.8948212549
 30
0.0
 10
-88.7203173646
 20
23.9128523521
 30
0.0
 10
-88.7699840978
 20
24.0000884389
 30
0.0
 10
-88.8815594645
 20
24.0213522582
 30
0.0
 10
-88.9586596365
 20
24.025011001
 30
0.0
  0
ELLIPSE
  5
75B
100
AcDbEntity
  8
217
100
AcDbEllipse
 62
7
  6
CONTINUOUS
 10
-11.0564138169
 20
-32.0
 30
0.0
 11
-0.2149895137
 21
0.2095747026
 31
0.0
 40
0.9984621943
 41
-0.7973820221
 42
0.7735666038
  0
ELLIPSE
  5
75C
100
AcDbEntity
  8
217
100
AcDbEllipse
 62
7
  6
CONTINUOUS
 10
-11.0771403962
 20
-35.0
 30
0.0
 11
0.30001142
 21
0.0
 31
0.0
 40
0.9999619347
 41
-2.7254250176
 42
-1.5707963268
  0
ELLIPSE
  5
75D
100
AcDbEntity
  8
217
100
AcDbEllipse
 62
7
  6
CONTINUOUS
 10
11.0771403962
 20
-35.0
 30
0.0
 11
0.30001142
 21
-0.0
 31
0.0
 40
0.9999619347
 41
-1.5707963268
 42
-0.4160514161
  0
ELLIPSE
  5
75E
100
AcDbEntity
  8
217
100
AcDbEllipse
 62
7
  6
CONTINUOUS
 10
11.0564138169
 20
-32.0
 30
0.0
 11
0.2149895137
 21
0.2095747026
 31
0.0
 40
0.9984621943
 41
-0.7735666038
 42
0.7973820221
  0
ELLIPSE
  5
75F
100
AcDbEntity
  8
217
100
AcDbEllipse
 62
7
  6
CONTINUOUS
 10
11.3630903017
 20
-37.2166824077
 30
0.0
 11
0.0002284747
 21
1.5
 31
0.0
 40
0.0087255384
 41
-4.6949343588
 42
-4.5043219481
  0
ELLIPSE
  5
760
100
AcDbEntity
  8
217
100
AcDbEllipse
 62
7
  6
CONTINUOUS
 10
-11.3630903017
 20
-37.2166824077
 30
0.0
 11
-0.0002284747
 21
1.5
 31
0.0
 40
0.0087255384
 41
-1.7788633591
 42
-1.5882509484
  0
ELLIPSE
  5
761
100
AcDbEntity
  8
217
100
AcDbEllipse
 62
7
  6
CONTINUOUS
 10
-60.439024152
 20
32.2
 30
0.0
 11
0.0
 21
9.75
 31
0.0
 40
0.0524077793
 41
0.1013172662
 42
3.0594490243
  0
ELLIPSE
  5
762
100
AcDbEntity
  8
217
100
AcDbEllipse
 62
7
  6
CONTINUOUS
 10
60.439024152
 20
32.2
 30
0.0
 11
-0.0
 21
9.75
 31
0.0
 40
0.0524077793
 41
-3.0594490243
 42
-0.1013172662
  0
ELLIPSE
  5
763
100
AcDbEntity
  8
217
100
AcDbEllipse
 62
7
  6
CONTINUOUS
 10
25.669534
 20
-30.7347060901
 30
0.0
 11
0.389369
 21
0.0
 31
0.0
 40
0.9698463104
 41
-1.5707738221
 42
-0.2243994753
  0
ELLIPSE
  5
764
100
AcDbEntity
  8
217
100
AcDbEllipse
 62
7
  6
CONTINUOUS
 10
25.669534
 20
-30.6999764546
 30
0.0
 11
0.389369
 21
0.0
 31
0.0
 40
0.9698463104
 41
-1.5707740043
 42
1.5707963268
  0
ELLIPSE
  5
765
100
AcDbEntity
  8
217
100
AcDbEllipse
 62
7
  6
CONTINUOUS
 10
-54.9961801625
 20
36.6845733881
 30
0.0
 11
-0.4529975832
 21
0.9129833843
 31
0.0
 40
0.981172638
 41
-0.4530572104
 42
1.1026041026
  0
ELLIPSE
  5
766
100
AcDbEntity
  8
217
100
AcDbEllipse
 62
7
  6
CONTINUOUS
 10
54.9961801625
 20
36.6845733881
 30
0.0
 11
0.4529975832
 21
0.9129833843
 31
0.0
 40
0.981172638
 41
-1.1026041026
 42
0.4530572104
  0
ELLIPSE
  5
767
100
AcDbEntity
  8
217
100
AcDbEllipse
 62
7
  6
CONTINUOUS
 10
-16.745905
 20
-31.1305668798
 30
0.0
 11
0.572706
 21
0.0
 31
0.0
 40
0.9698463104
 41
1.5757461673
 42
2.8801931505
  0
ELLIPSE
  5
768
100
AcDbEntity
  8
217
100
AcDbEllipse
 62
7
  6
CONTINUOUS
 10
-54.9699335634
 20
35.3699335634
 30
0.0
 11
0.7124986079
 21
-0.7124986079
 31
0.0
 40
0.9924325091
 41
2.3599925885
 42
3.9231927187
  0
ELLIPSE
  5
769
100
AcDbEntity
  8
217
100
AcDbEllipse
 62
7
  6
CONTINUOUS
 10
-54.9961801625
 20
-37.9961801625
 30
0.0
 11
0.7124986079
 21
0.7124986079
 31
0.0
 40
0.9924325091
 41
-3.9231927187
 42
-2.3599925885
  0
ELLIPSE
  5
76A
100
AcDbEntity
  8
217
100
AcDbEllipse
 62
7
  6
CONTINUOUS
 10
54.9961801625
 20
-37.9961801625
 30
0.0
 11
0.7124986079
 21
-0.7124986079
 31
0.0
 40
0.9924325091
 41
-0.7816000651
 42
0.7816000651
  0
ELLIPSE
  5
76B
100
AcDbEntity
  8
217
100
AcDbEllipse
 62
7
  6
CONTINUOUS
 10
54.9699335634
 20
35.3699335634
 30
0.0
 11
0.7124986079
 21
0.7124986079
 31
0.0
 40
0.9924325091
 41
-0.7816000651
 42
0.7816000651
  0
ELLIPSE
  5
76C
100
AcDbEntity
  8
217
100
AcDbEllipse
 62
7
  6
CONTINUOUS
 10
54.9699335634
 20
36.6316752939
 30
0.0
 11
0.4529975832
 21
0.9129833843
 31
0.0
 40
0.981172638
 41
-1.1026041026
 42
0.4530572104
  0
ELLIPSE
  5
76D
100
AcDbEntity
  8
217
100
AcDbEllipse
 62
7
  6
CONTINUOUS
 10
-54.9699335634
 20
36.6316752939
 30
0.0
 11
-0.4529975832
 21
0.9129833843
 31
0.0
 40
0.981172638
 41
-0.4530572104
 42
1.1026041026
  0
ELLIPSE
  5
76E
100
AcDbEntity
  8
217
100
AcDbEllipse
 62
7
  6
CONTINUOUS
 10
-16.745905
 20
-31.1652965153
 30
0.0
 11
0.572706
 21
-0.0
 31
0.0
 40
0.9698463104
 41
1.575783206
 42
2.8802462355
  0
ELLIPSE
  5
76F
100
AcDbEntity
  8
284
100
AcDbEllipse
 62
7
  6
CONTINUOUS
 10
59.0221854545
 20
32.2
 30
0.0
 11
-0.0
 21
10.0
 31
0.0
 40
0.0174550649
 41
-3.3785680977
 42
-3.2216782336
  0
ELLIPSE
  5
770
100
AcDbEntity
  8
284
100
AcDbEllipse
 62
7
  6
CONTINUOUS
 10
-59.0221854545
 20
32.2
 30
0.0
 11
-0.0
 21
10.0
 31
0.0
 40
0.0174550649
 41
-3.0615070736
 42
-2.9046172095
  0
ELLIPSE
  5
771
100
AcDbEntity
  8
284
100
AcDbEllipse
 62
7
  6
CONTINUOUS
 10
60.46629109
 20
32.2
 30
0.0
 11
0.0
 21
10.0
 31
0.0
 40
0.0524077793
 41
3.2216782336
 42
6.2030997271
  0
ELLIPSE
  5
772
100
AcDbEntity
  8
284
100
AcDbEllipse
 62
7
  6
CONTINUOUS
 10
-60.46629109
 20
32.2
 30
0.0
 11
-0.0
 21
10.0
 31
0.0
 40
0.0524077793
 41
0.08008558
 42
3.0615070736
  0
ENDSEC
  0
SECTION
  2
OBJECTS
  0
DICTIONARY
  5
C
100
AcDbDictionary
280
0
281
1
  3
ACAD_GROUP
350
D
  3
ACAD_MLINESTYLE
350
17
  3
ACAD_LAYOUT
350
1A
  3
ACAD_PLOTSETTINGS
350
19
  3
ACAD_PLOTSTYLENAME
350
E
  0
DICTIONARY
  5
D
102
{ACAD_REACTORS
330
C
102
}
100
AcDbDictionary
280
0
281
1
  0
ACDBDICTIONARYWDFLT
  5
E
102
{ACAD_REACTORS
330
C
102
}
100
AcDbDictionary
281
1
  3
Normal
350
F
100
AcDbDictionaryWithDefault
340
F
  0
DICTIONARY
  5
17
102
{ACAD_REACTORS
330
C
102
}
100
AcDbDictionary
280
0
281
1
  3
Standard
350
18
  0
DICTIONARY
  5
19
102
{ACAD_REACTORS
330
C
102
}
100
AcDbDictionary
281
1
  0
DICTIONARY
  5
1A
102
{ACAD_REACTORS
330
C
102
}
100
AcDbDictionary
281
1
  3
Model
350
773
  3
Layout1
350
774
  0
ACDBPLACEHOLDER
  5
F
102
{ACAD_REACTORS
330
E
102
}
  0
MLINESTYLE
  5
18
102
{ACAD_REACTORS
330
17
102
}
100
AcDbMlineStyle
  2
STANDARD
 70
0
  3

 62
256
 51
90.0
 52
90.0
 71
2
 49
0.5
 62
256
  6
BYLAYER
 49
-0.5
 62
256
  6
BYLAYER
  0
LAYOUT
  5
773
102
{ACAD_REACTORS
330
1A
102
}
100
AcDbPlotSettings
  1

  2
none_device
  4
ANSI_C_(22.00_x_17.00_Inches)
  6

 40
0.0
 41
0.0
 42
0.0
 43
0.0
 44
558.8
 45
431.8
 46
0.0
 47
0.0
 48
0.0
 49
0.0
140
0.0
141
0.0
142
1.0
143
1.0
 70
1024
 72
1
 73
0
 74
0
  7

 75
0
147
1.0
148
0.0
149
0.0
100
AcDbLayout
  1
Model
 70
0
 71
0
 10
0.0
 20
0.0
 11
558.8
 21
431.8
 12
0.0
 22
0.0
 32
0.0
 14
0.0
 24
0.0
 34
0.0
 15
0.0
 25
0.0
 35
0.0
146
0.0
 13
0.0
 23
0.0
 33
0.0
 16
1.0
 26
0.0
 36
0.0
 17
0.0
 27
1.0
 37
0.0
 76
0
330
214
345
0
346
0
  0
LAYOUT
  5
774
102
{ACAD_REACTORS
330
1A
102
}
100
AcDbPlotSettings
  1

  2
none_device
  4
ANSI_C_(22.00_x_17.00_Inches)
  6

 40
0.0
 41
0.0
 42
0.0
 43
0.0
 44
558.8
 45
431.8
 46
0.0
 47
0.0
 48
0.0
 49
0.0
140
0.0
141
0.0
142
1.0
143
1.0
 70
0
 72
1
 73
0
 74
0
  7

 75
0
147
1.0
148
0.0
149
0.0
100
AcDbLayout
  1
Layout1
 70
0
 71
1
 10
0.0
 20
0.0
 11
558.8
 21
431.8
 12
0.0
 22
0.0
 32
0.0
 14
0.0
 24
0.0
 34
0.0
 15
0.0
 25
0.0
 35
0.0
146
0.0
 13
0.0
 23
0.0
 33
0.0
 16
1.0
 26
0.0
 36
0.0
 17
0.0
 27
1.0
 37
0.0
 76
0
330
215
345
0
346
0
  0
ENDSEC
  0
EOF
