  0
SECTION
  2
HEADER
  9
$ACADVER
  1
AC1015
  9
$DWGCODEPAGE
  3
ANSI_1252
  9
$EXTMAX
 10
297.0
 20
210.0
 30
0.0
  9
$EXTMIN
 10
0.0
 20
0.0
 30
0.0
  9
$LIMMIN
 10
0.0
 20
0.0
  9
$LIMMAX
 10
297.0
 20
210.0
  9
$VIEWCTR
 10
148.5
 20
105.0
  9
$VIEWSIZE
 40
210.0
  9
$CLAYER
  8
0
  9
$LTSCALE
 40
16.335
  9
$CELTYPE
  6
BYLAYER
  9
$DIMSCALE
 40
1.0
  9
$DIMASZ
 40
3.0
  9
$DIMEXO
 40
1.85625
  9
$DIMDLI
 40
11.286
  9
$DIMEXE
 40
5.346
  9
$DIMCEN
 40
2.673
  9
$DIMLFAC
 40
1.0
  9
$DIMBLK
  1
_FILLED
  9
$DIMTXT
 40
3.0
  9
$DIMTOL
 70
1
  9
$DIMLIM
 70
0
  9
$DIMTFAC
 40
1.0
  9
$DIMTP
 40
0.01
  9
$DIMTM
 40
0.01
  9
$PDMODE
 70
3
  9
$PDSIZE
 40
3.0
  9
$HANDSEED
  5
29C
  9
$TILEMODE
 70
1
  9
$MEASUREMENT
 70
1
  9
$INSUNITS
 70
4
  0
ENDSEC
  0
SECTION
  2
CLASSES
  0
CLASS
  1
ACDBDICTIONARYWDFLT
  2
AcDbDictionaryWithDefault
  3
AutoCAD 2000
 90
0
280
0
281
0
  0
CLASS
  1
ACDBPLACEHOLDER
  2
AcDbPlaceHolder
  3
AutoCAD 2000
 90
0
280
0
281
0
  0
CLASS
  1
LAYOUT
  2
AcDbLayout
  3
AutoCAD 2000
 90
0
280
0
281
0
  0
ENDSEC
  0
SECTION
  2
TABLES
  0
TABLE
  2
VPORT
  5
8
100
AcDbSymbolTable
 70
2
  0
VPORT
  5
1F4
100
AcDbSymbolTableRecord
100
AcDbViewportTableRecord
  2
*ACTIVE
 70
0
 10
0.0
 20
0.0
 11
1.0
 21
1.0
 12
148.5
 22
105.0
 13
0.0
 23
0.0
 14
1.0
 24
1.0
 15
0.0
 25
0.0
 16
0.0
 26
0.0
 36
1.0
 17
0.0
 27
0.0
 37
0.0
 40
210.0
 41
1.4142857143
 42
50.0
 43
0.0
 44
0.0
 50
0.0
 51
0.0
 71
0
 72
100
 73
1
 74
1
 75
0
 76
0
 77
0
 78
0
  0
ENDTAB
  0
TABLE
  2
LTYPE
  5
5
100
AcDbSymbolTable
 70
6
  0
LTYPE
  5
14
100
AcDbSymbolTableRecord
100
AcDbLinetypeTableRecord
  2
BYBLOCK
 70
0
  3

 72
65
 73
0
 40
0.0
  0
LTYPE
  5
15
100
AcDbSymbolTableRecord
100
AcDbLinetypeTableRecord
  2
BYLAYER
 70
0
  3

 72
65
 73
0
 40
0.0
  0
LTYPE
  5
16
100
AcDbSymbolTableRecord
100
AcDbLinetypeTableRecord
  2
CONTINUOUS
 70
64
  3
Solid line
 72
65
 73
0
 40
0.0
  0
LTYPE
  5
1F5
100
AcDbSymbolTableRecord
100
AcDbLinetypeTableRecord
  2
CENTER
 70
64
  3
____ _ ____ _ ____ _ ____ _ ____ _ ____ _ ____
 72
65
 73
4
 40
0.6
 49
0.375
 74
0
 49
-0.075
 74
0
 49
0.075
 74
0
 49
-0.075
 74
0
  0
LTYPE
  5
1F6
100
AcDbSymbolTableRecord
100
AcDbLinetypeTableRecord
  2
HIDDEN
 70
64
  3
- - - - - - - - - - - - - - - - - - - -
 72
65
 73
2
 40
0.2
 49
0.1
 74
0
 49
-0.1
 74
0
  0
LTYPE
  5
1F7
100
AcDbSymbolTableRecord
100
AcDbLinetypeTableRecord
  2
PHANTOM
 70
64
  3
_____ _ _ _____ _ _ _____ _ _ _____
 72
65
 73
6
 40
0.8
 49
0.45
 74
0
 49
-0.05
 74
0
 49
0.1
 74
0
 49
-0.05
 74
0
 49
0.1
 74
0
 49
-0.05
 74
0
  0
LTYPE
  5
1F8
100
AcDbSymbolTableRecord
100
AcDbLinetypeTableRecord
  2
DOT
 70
64
  3
. . . . . . . . . . . . . . . . . . . .
 72
65
 73
2
 40
0.2
 49
0.1
 74
0
 49
-0.1
 74
0
  0
LTYPE
  5
1F9
100
AcDbSymbolTableRecord
100
AcDbLinetypeTableRecord
  2
DASHED
 70
64
  3
- - - - - - - - - - - - - - - - - - - -
 72
65
 73
2
 40
0.2
 49
0.1
 74
0
 49
-0.1
 74
0
  0
ENDTAB
  0
TABLE
  2
LAYER
  5
2
100
AcDbSymbolTable
 70
36
  0
LAYER
  5
10
100
AcDbSymbolTableRecord
100
AcDbLayerTableRecord
  2
0
 70
0
 62
7
  6
CONTINUOUS
370
-3
390
F
  0
LAYER
  5
1FA
100
AcDbSymbolTableRecord
100
AcDbLayerTableRecord
  2
DEFAULT_1
 70
0
 62
7
  6
CENTER
370
-3
390
F
  0
LAYER
  5
1FB
100
AcDbSymbolTableRecord
100
AcDbLayerTableRecord
  2
DEFAULT_2
 70
0
 62
7
  6
HIDDEN
370
-3
390
F
  0
LAYER
  5
1FC
100
AcDbSymbolTableRecord
100
AcDbLayerTableRecord
  2
DEFAULT_3
 70
0
 62
7
  6
PHANTOM
370
-3
390
F
  0
LAYER
  5
1FD
100
AcDbSymbolTableRecord
100
AcDbLayerTableRecord
  2
ASSI
 70
0
 62
7
  6
CONTINUOUS
370
-3
390
F
  0
LAYER
  5
1FE
100
AcDbSymbolTableRecord
100
AcDbLayerTableRecord
  2
COORDINATE
 70
0
 62
7
  6
CONTINUOUS
370
-3
390
F
  0
LAYER
  5
1FF
100
AcDbSymbolTableRecord
100
AcDbLayerTableRecord
  2
COORD_ORIGINE
 70
0
 62
7
  6
CONTINUOUS
370
-3
390
F
  0
LAYER
  5
200
100
AcDbSymbolTableRecord
100
AcDbLayerTableRecord
  2
COPY_PUBLISH
 70
0
 62
7
  6
CONTINUOUS
370
-3
390
F
  0
LAYER
  5
201
100
AcDbSymbolTableRecord
100
AcDbLayerTableRecord
  2
COSMETIC
 70
0
 62
7
  6
CONTINUOUS
370
-3
390
F
  0
LAYER
  5
202
100
AcDbSymbolTableRecord
100
AcDbLayerTableRecord
  2
CURVE
 70
0
 62
7
  6
CONTINUOUS
370
-3
390
F
  0
LAYER
  5
203
100
AcDbSymbolTableRecord
100
AcDbLayerTableRecord
  2
DRAFT
 70
0
 62
7
  6
CONTINUOUS
370
-3
390
F
  0
LAYER
  5
204
100
AcDbSymbolTableRecord
100
AcDbLayerTableRecord
  2
IGES
 70
0
 62
7
  6
CONTINUOUS
370
-3
390
F
  0
LAYER
  5
205
100
AcDbSymbolTableRecord
100
AcDbLayerTableRecord
  2
IMPORT_IGES
 70
0
 62
7
  6
CONTINUOUS
370
-3
390
F
  0
LAYER
  5
206
100
AcDbSymbolTableRecord
100
AcDbLayerTableRecord
  2
NOTE
 70
0
 62
7
  6
CONTINUOUS
370
-3
390
F
  0
LAYER
  5
207
100
AcDbSymbolTableRecord
100
AcDbLayerTableRecord
  2
PIANI
 70
0
 62
7
  6
CONTINUOUS
370
-3
390
F
  0
LAYER
  5
208
100
AcDbSymbolTableRecord
100
AcDbLayerTableRecord
  2
PIANI_ORIGINE
 70
0
 62
7
  6
CONTINUOUS
370
-3
390
F
  0
LAYER
  5
209
100
AcDbSymbolTableRecord
100
AcDbLayerTableRecord
  2
RACCORDO
 70
0
 62
7
  6
CONTINUOUS
370
-3
390
F
  0
LAYER
  5
20A
100
AcDbSymbolTableRecord
100
AcDbLayerTableRecord
  2
SMUSSO
 70
0
 62
7
  6
CONTINUOUS
370
-3
390
F
  0
LAYER
  5
20B
100
AcDbSymbolTableRecord
100
AcDbLayerTableRecord
  2
SNAPLINE
 70
0
 62
7
  6
CONTINUOUS
370
-3
390
F
  0
LAYER
  5
20C
100
AcDbSymbolTableRecord
100
AcDbLayerTableRecord
  2
SUPERFICI
 70
0
 62
7
  6
CONTINUOUS
370
-3
390
F
  0
LAYER
  5
20D
100
AcDbSymbolTableRecord
100
AcDbLayerTableRecord
  2
TRASH
 70
0
 62
7
  6
CONTINUOUS
370
-3
390
F
  0
ENDTAB
  0
TABLE
  2
STYLE
  5
3
100
AcDbSymbolTable
 70
1
  0
STYLE
  5
11
100
AcDbSymbolTableRecord
100
AcDbTextStyleTableRecord
  2
STANDARD
 70
0
 40
0.0
 41
0.8
 50
0.0
 71
0
 42
0.2
  3
txt
  4

  0
STYLE
  5
20E
100
AcDbSymbolTableRecord
100
AcDbTextStyleTableRecord
  2
TEXTSTYLE_1
 70
0
 40
0.0
 41
0.8
 50
0.0
 71
0
 42
0.2
  3
gdt
  4

  0
ENDTAB
  0
TABLE
  2
VIEW
  5
6
100
AcDbSymbolTable
 70
0
  0
ENDTAB
  0
TABLE
  2
UCS
  5
7
100
AcDbSymbolTable
 70
0
  0
ENDTAB
  0
TABLE
  2
APPID
  5
9
100
AcDbSymbolTable
 70
1
  0
APPID
  5
20F
100
AcDbSymbolTableRecord
100
AcDbRegAppTableRecord
  2
ACAD
 70
0
  0
ENDTAB
  0
TABLE
  2
BLOCK_RECORD
  5
1
100
AcDbSymbolTable
 70
0
  0
BLOCK_RECORD
  5
210
100
AcDbSymbolTableRecord
100
AcDbBlockTableRecord
  2
*Model_Space
  0
BLOCK_RECORD
  5
211
100
AcDbSymbolTableRecord
100
AcDbBlockTableRecord
  2
*Paper_Space
  0
BLOCK_RECORD
  5
212
100
AcDbSymbolTableRecord
100
AcDbBlockTableRecord
  2
_FILLED
  0
BLOCK_RECORD
  5
213
100
AcDbSymbolTableRecord
100
AcDbBlockTableRecord
  2
*D0
  0
BLOCK_RECORD
  5
214
100
AcDbSymbolTableRecord
100
AcDbBlockTableRecord
  2
*D1
  0
BLOCK_RECORD
  5
215
100
AcDbSymbolTableRecord
100
AcDbBlockTableRecord
  2
*D2
  0
ENDTAB
  0
TABLE
  2
DIMSTYLE
  5
A
100
AcDbSymbolTable
 70
1
100
AcDbDimStyleTable
 71
0
  0
DIMSTYLE
105
216
100
AcDbSymbolTableRecord
100
AcDbDimStyleTableRecord
  2
STANDARD
 70
0
  3

  4

 40
1.0
 41
3.0
 42
0.0625
 43
0.38
 44
0.18
 45
0.0
 46
0.0
 47
0.01
 48
0.01
140
3.0
141
0.09
142
0.0
143
25.4
144
1.0
145
0.0
146
1.0
147
0.09
 71
1.0
 72
0.0
 73
0
 74
0
 75
0
 76
0
 77
1
 78
8
170
0
171
2
172
0
173
0
174
0
175
0
176
0
177
0
178
0
270
2
271
2
272
2
273
2
274
2
275
0
280
0
281
0
282
0
283
1
284
8
285
0
286
0
287
3
288
0
340
11
341
212
342
212
343
212
344
212
  0
DIMSTYLE
105
217
100
AcDbSymbolTableRecord
100
AcDbDimStyleTableRecord
  2
DIMSTYLE_1
 70
0
  3

  4

 40
1.0
 41
3.0
 42
0.0625
 43
0.38
 44
0.18
 45
0.0
 46
0.0
 47
0.0
 48
0.0
140
3.0
141
0.09
142
0.0
143
25.4
144
1.0
145
0.0
146
1.0
147
0.09
 71
0.0
 72
0.0
 73
0
 74
0
 75
0
 76
0
 77
1
 78
8
170
0
171
2
172
0
173
0
174
0
175
0
176
0
177
0
178
0
270
2
271
2
272
2
273
2
274
2
275
0
280
0
281
0
282
0
283
1
284
8
285
0
286
0
287
3
288
0
340
11
341
212
342
212
343
212
344
212
  0
DIMSTYLE
105
218
100
AcDbSymbolTableRecord
100
AcDbDimStyleTableRecord
  2
DIMSTYLE_2
 70
0
  3

  4

 40
1.0
 41
3.0
 42
0.0625
 43
0.38
 44
0.18
 45
0.0
 46
0.0
 47
0.0
 48
0.0
140
3.0
141
0.09
142
0.0
143
25.4
144
1.0
145
0.0
146
1.0
147
0.09
 71
0.0
 72
0.0
 73
0
 74
0
 75
0
 76
0
 77
1
 78
8
170
0
171
2
172
0
173
0
174
0
175
0
176
0
177
0
178
0
270
2
271
1
272
1
273
2
274
2
275
0
280
0
281
0
282
0
283
1
284
8
285
0
286
0
287
3
288
0
340
11
341
212
342
212
343
212
344
212
  0
ENDTAB
  0
ENDSEC
  0
SECTION
  2
BLOCKS
  0
BLOCK
  5
20
100
AcDbEntity
  8
0
100
AcDbBlockBegin
  2
*Model_Space
 70
0
 10
0.0
 20
0.0
 30
0.0
  3
*Model_Space
  1

  0
ENDBLK
  5
21
100
AcDbEntity
  8
0
100
AcDbBlockEnd
  0
BLOCK
  5
1C
100
AcDbEntity
  8
0
100
AcDbBlockBegin
  2
*Paper_Space
 70
0
 10
0.0
 20
0.0
 30
0.0
  3
*Paper_Space
  1

  0
ENDBLK
  5
1D
100
AcDbEntity
  8
0
100
AcDbBlockEnd
  0
BLOCK
  5
219
100
AcDbEntity
  8
0
100
AcDbBlockBegin
  2
_FILLED
 70
64
 10
0.0
 20
0.0
  3
_FILLED
  1

  0
SOLID
  5
21A
100
AcDbEntity
  8
0
  6
BYBLOCK
 62
0
100
AcDbTrace
 10
0.0
 20
0.0
 11
-1.0
 21
0.3166666667
 12
-1.0
 22
-0.3166666667
 13
-1.0
 23
-0.3166666667
  0
ENDBLK
  5
21B
100
AcDbEntity
  8
0
  6
BYBLOCK
 62
0
100
AcDbBlockEnd
  0
BLOCK
  5
21C
100
AcDbEntity
  8
0
100
AcDbBlockBegin
 62
7
  6
CONTINUOUS
  2
*D0
 70
65
 10
0.0
 20
0.0
  3
*D0
  1

  0
MTEXT
  5
21D
100
AcDbEntity
  8
0
100
AcDbMText
 62
7
  6
CONTINUOUS
  7
STANDARD
 71
2
 72
1
 10
-15.499264
 20
20.951086859
 30
0.0
 11
1.0
 21
0.0
 31
0.0
 44
0.9
  1
6,5
 40
3.0
 41
6.2142857143
  0
LINE
  5
21E
100
AcDbEntity
  8
0
100
AcDbLine
 62
7
  6
CONTINUOUS
 10
-12.2494188801
 20
6.2080688849
 11
-12.2494188801
 21
18.701086859
  0
LINE
  5
21F
100
AcDbEntity
  8
0
100
AcDbLine
 62
7
  6
CONTINUOUS
 10
-18.7491091199
 20
9.3573456279
 11
-18.7491091199
 21
18.701086859
  0
LINE
  5
220
100
AcDbEntity
  8
0
100
AcDbLine
 62
7
  6
CONTINUOUS
 10
-12.2494188801
 20
17.201086859
 11
-8.2494188801
 21
17.201086859
  0
LINE
  5
221
100
AcDbEntity
  8
0
100
AcDbLine
 62
7
  6
CONTINUOUS
 10
-8.2494188801
 20
17.201086859
 11
-15.499264
 21
17.201086859
  0
LINE
  5
222
100
AcDbEntity
  8
0
100
AcDbLine
 62
7
  6
CONTINUOUS
 10
-18.7491091199
 20
17.201086859
 11
-22.7491091199
 21
17.201086859
  0
LINE
  5
223
100
AcDbEntity
  8
0
100
AcDbLine
 62
7
  6
CONTINUOUS
 10
-22.7491091199
 20
17.201086859
 11
-15.499264
 21
17.201086859
  0
INSERT
  5
224
100
AcDbEntity
  8
0
100
AcDbBlockReference
 62
7
  6
CONTINUOUS
  2
_FILLED
 10
-12.2494188801
 20
17.201086859
 41
3.0
 42
3.0
 43
3.0
 50
180.0
  0
INSERT
  5
225
100
AcDbEntity
  8
0
100
AcDbBlockReference
 62
7
  6
CONTINUOUS
  2
_FILLED
 10
-18.7491091199
 20
17.201086859
 41
3.0
 42
3.0
 43
3.0
  0
ENDBLK
  5
226
100
AcDbEntity
  8
0
  6
BYBLOCK
 62
0
100
AcDbBlockEnd
  0
BLOCK
  5
227
100
AcDbEntity
  8
0
100
AcDbBlockBegin
 62
7
  6
CONTINUOUS
  2
*D1
 70
65
 10
0.0
 20
0.0
  3
*D1
  1

  0
MTEXT
  5
228
100
AcDbEntity
  8
0
100
AcDbMText
 62
7
  6
CONTINUOUS
  7
STANDARD
 71
2
 72
1
 10
10.8785208889
 20
20.951086859
 30
0.0
 11
1.0
 21
0.0
 31
0.0
 44
0.9
  1
24,6
 40
3.0
 41
8.7857142857
  0
LINE
  5
229
100
AcDbEntity
  8
0
100
AcDbLine
 62
7
  6
CONTINUOUS
 10
-1.4214791111
 20
8.4487216642
 11
-1.4214791111
 21
18.701086859
  0
LINE
  5
22A
100
AcDbEntity
  8
0
100
AcDbLine
 62
7
  6
CONTINUOUS
 10
23.1785208889
 20
8.4487216642
 11
23.1785208889
 21
18.701086859
  0
LINE
  5
22B
100
AcDbEntity
  8
0
100
AcDbLine
 62
7
  6
CONTINUOUS
 10
-1.4214791111
 20
17.201086859
 11
10.8785208889
 21
17.201086859
  0
LINE
  5
22C
100
AcDbEntity
  8
0
100
AcDbLine
 62
7
  6
CONTINUOUS
 10
23.1785208889
 20
17.201086859
 11
10.8785208889
 21
17.201086859
  0
INSERT
  5
22D
100
AcDbEntity
  8
0
100
AcDbBlockReference
 62
7
  6
CONTINUOUS
  2
_FILLED
 10
-1.4214791111
 20
17.201086859
 41
3.0
 42
3.0
 43
3.0
 50
180.0
  0
INSERT
  5
22E
100
AcDbEntity
  8
0
100
AcDbBlockReference
 62
7
  6
CONTINUOUS
  2
_FILLED
 10
23.1785208889
 20
17.201086859
 41
3.0
 42
3.0
 43
3.0
  0
ENDBLK
  5
22F
100
AcDbEntity
  8
0
  6
BYBLOCK
 62
0
100
AcDbBlockEnd
  0
BLOCK
  5
230
100
AcDbEntity
  8
0
100
AcDbBlockBegin
 62
7
  6
CONTINUOUS
  2
*D2
 70
65
 10
0.0
 20
0.0
  3
*D2
  1

  0
MTEXT
  5
231
100
AcDbEntity
  8
0
100
AcDbMText
 62
7
  6
CONTINUOUS
  7
STANDARD
 71
2
 72
1
 10
27.4285208889
 20
-0.0419337801
 30
0.0
 11
0.0
 21
1.0
 31
0.0
 44
0.9
  1
18,5
 40
3.0
 41
7.9285714286
  0
LINE
  5
232
100
AcDbEntity
  8
0
100
AcDbLine
 62
7
  6
CONTINUOUS
 10
23.4215769391
 20
9.201086859
 11
32.6785208889
 21
9.201086859
  0
LINE
  5
233
100
AcDbEntity
  8
0
100
AcDbLine
 62
7
  6
CONTINUOUS
 10
22.5645664343
 20
-9.2849544192
 11
32.6785208889
 21
-9.2849544192
  0
LINE
  5
234
100
AcDbEntity
  8
0
100
AcDbLine
 62
7
  6
CONTINUOUS
 10
31.1785208889
 20
9.201086859
 11
31.1785208889
 21
-0.0419337801
  0
LINE
  5
235
100
AcDbEntity
  8
0
100
AcDbLine
 62
7
  6
CONTINUOUS
 10
31.1785208889
 20
-9.2849544192
 11
31.1785208889
 21
-0.0419337801
  0
INSERT
  5
236
100
AcDbEntity
  8
0
100
AcDbBlockReference
 62
7
  6
CONTINUOUS
  2
_FILLED
 10
31.1785208889
 20
9.201086859
 41
3.0
 42
3.0
 43
3.0
 50
90.0
  0
INSERT
  5
237
100
AcDbEntity
  8
0
100
AcDbBlockReference
 62
7
  6
CONTINUOUS
  2
_FILLED
 10
31.1785208889
 20
-9.2849544192
 41
3.0
 42
3.0
 43
3.0
 50
270.0
  0
ENDBLK
  5
238
100
AcDbEntity
  8
0
  6
BYBLOCK
 62
0
100
AcDbBlockEnd
  0
ENDSEC
  0
SECTION
  2
ENTITIES
  0
DIMENSION
  5
239
100
AcDbEntity
  8
0
100
AcDbDimension
 62
7
  6
CONTINUOUS
  2
*D0
 10
-18.7491091199
 20
17.201086859
 11
-18.6064068571
 21
19.451086859
 70
160
 71
2
 42
6.4996902397
  3
DIMSTYLE_1
100
AcDbAlignedDimension
 13
-12.2494188801
 23
6.2080688849
 14
-18.7491091199
 24
9.3573456279
 50
180.0
100
AcDbRotatedDimension
  0
DIMENSION
  5
23A
100
AcDbEntity
  8
0
100
AcDbDimension
 62
7
  6
CONTINUOUS
  2
*D1
 10
23.1785208889
 20
17.201086859
 11
6.485663746
 21
19.451086859
 70
160
 71
2
 42
24.6
  3
DIMSTYLE_1
100
AcDbAlignedDimension
 13
-1.4214791111
 23
8.4487216642
 14
23.1785208889
 24
8.4487216642
100
AcDbRotatedDimension
  0
DIMENSION
  5
23B
100
AcDbEntity
  8
0
100
AcDbDimension
 62
7
  6
CONTINUOUS
  2
*D2
 10
31.1785208889
 20
-9.2849544192
 11
30.7048127243
 21
-3.5859919822
 70
160
 71
2
 42
18.4860412781
  3
DIMSTYLE_2
100
AcDbAlignedDimension
 13
23.4215769391
 23
9.201086859
 14
22.5645664343
 24
-9.2849544192
 50
270.0
100
AcDbRotatedDimension
  0
LINE
  5
23C
100
AcDbEntity
  8
RACCORDO
100
AcDbLine
 62
7
  6
CONTINUOUS
 10
-1.4214791111
 20
7.9487216642
 11
-1.4196422148
 21
7.9505585605
  0
LINE
  5
23D
100
AcDbEntity
  8
RACCORDO
100
AcDbLine
 62
7
  6
CONTINUOUS
 10
-1.4079860334
 20
-9.0352136466
 11
-1.4214791111
 21
-1.6804395517
  0
LINE
  5
23E
100
AcDbEntity
  8
DRAFT
100
AcDbLine
 62
7
  6
CONTINUOUS
 10
-1.4214791111
 20
7.9487216642
 11
-1.4214791111
 21
-1.6804395517
  0
LINE
  5
23F
100
AcDbEntity
  8
RACCORDO
100
AcDbLine
 62
7
  6
CONTINUOUS
 10
-1.4144970851
 20
8.9511249352
 11
-1.4144970851
 21
8.2505128691
  0
LINE
  5
240
100
AcDbEntity
  8
RACCORDO
100
AcDbLine
 62
7
  6
CONTINUOUS
 10
-1.3952965137
 20
-9.02886937
 11
-1.3952965137
 21
-8.7388437946
  0
LINE
  5
241
100
AcDbEntity
  8
RACCORDO
100
AcDbLine
 62
253
  6
CONTINUOUS
 10
-1.071079809
 20
8.8573456279
 11
-1.071079809
 21
9.1076315066
  0
LINE
  5
242
100
AcDbEntity
  8
RACCORDO
100
AcDbLine
 62
253
  6
CONTINUOUS
 10
-1.3952965137
 20
-8.7388437946
 11
-1.3376836095
 21
-8.1568517202
  0
LINE
  5
243
100
AcDbEntity
  8
RACCORDO
100
AcDbLine
 62
253
  6
CONTINUOUS
 10
-1.1460161918
 20
-8.9919311151
 11
-1.0877216857
 21
-8.4030536585
  0
LINE
  5
244
100
AcDbEntity
  8
RACCORDO
100
AcDbLine
 62
7
  6
CONTINUOUS
 10
-1.1575278542
 20
-9.2849560186
 11
-0.3075278557
 21
-9.2849560186
  0
LINE
  5
245
100
AcDbEntity
  8
RACCORDO
100
AcDbLine
 62
7
  6
CONTINUOUS
 10
22.0645696335
 20
-9.2849560186
 11
22.914569632
 21
-9.2849560186
  0
LINE
  5
246
100
AcDbEntity
  8
DRAFT
100
AcDbLine
 62
7
  6
CONTINUOUS
 10
22.0645664343
 20
-9.2849544192
 11
-0.3075246566
 21
-9.2849544192
  0
LINE
  5
247
100
AcDbEntity
  8
RACCORDO
100
AcDbLine
 62
7
  6
CONTINUOUS
 10
22.90233829
 20
-9.2788408134
 11
-1.1452965123
 21
-9.2788408134
  0
LINE
  5
248
100
AcDbEntity
  8
RACCORDO
100
AcDbLine
 62
7
  6
CONTINUOUS
 10
22.9030579695
 20
-8.9919311151
 11
-1.1460161918
 21
-8.9919311151
  0
LINE
  5
249
100
AcDbEntity
  8
RACCORDO
100
AcDbLine
 62
253
  6
CONTINUOUS
 10
-1.0877216857
 20
-8.4030536585
 11
22.8447634635
 21
-8.4030536585
  0
LINE
  5
24A
100
AcDbEntity
  8
RACCORDO
100
AcDbLine
 62
253
  6
CONTINUOUS
 10
-1.0769139798
 20
-7.4579306101
 11
22.8339557576
 21
-7.4579306101
  0
LINE
  5
24B
100
AcDbEntity
  8
RACCORDO
100
AcDbLine
 62
253
  6
CONTINUOUS
 10
22.90233829
 20
-9.2788408134
 11
22.914569632
 21
-9.2849560186
  0
LINE
  5
24C
100
AcDbEntity
  8
RACCORDO
100
AcDbLine
 62
253
  6
CONTINUOUS
 10
23.1523382915
 20
-9.02886937
 11
23.1650278111
 21
-9.0352136466
  0
LINE
  5
24D
100
AcDbEntity
  8
RACCORDO
100
AcDbLine
 62
253
  6
CONTINUOUS
 10
-1.3210417328
 20
8.8576695829
 11
-1.4144970851
 21
8.9511249352
  0
LINE
  5
24E
100
AcDbEntity
  8
RACCORDO
100
AcDbLine
 62
253
  6
CONTINUOUS
 10
-1.071079809
 20
9.1076315066
 11
-1.1645351614
 21
9.201086859
  0
LINE
  5
24F
100
AcDbEntity
  8
RACCORDO
100
AcDbLine
 62
253
  6
CONTINUOUS
 10
22.9215769391
 20
9.201086859
 11
22.8281215868
 21
9.1076315066
  0
LINE
  5
250
100
AcDbEntity
  8
RACCORDO
100
AcDbLine
 62
253
  6
CONTINUOUS
 10
23.1715388629
 20
8.9511249352
 11
23.0780835106
 21
8.8576695828
  0
LINE
  5
251
100
AcDbEntity
  8
RACCORDO
100
AcDbLine
 62
253
  6
CONTINUOUS
 10
-1.4079860334
 20
-9.0352136466
 11
-1.3952965137
 21
-9.02886937
  0
LINE
  5
252
100
AcDbEntity
  8
RACCORDO
100
AcDbLine
 62
253
  6
CONTINUOUS
 10
-1.1575278542
 20
-9.2849560186
 11
-1.1452965123
 21
-9.2788408134
  0
LINE
  5
253
100
AcDbEntity
  8
DRAFT
100
AcDbLine
 62
7
  6
CONTINUOUS
 10
19.3909868795
 20
9.201086859
 11
19.1285208889
 21
9.1487216642
  0
LINE
  5
254
100
AcDbEntity
  8
DRAFT
100
AcDbLine
 62
7
  6
CONTINUOUS
 10
2.3660548983
 20
9.201086859
 11
2.6285208889
 21
9.1487216642
  0
LINE
  5
255
100
AcDbEntity
  8
RACCORDO
100
AcDbLine
 62
253
  6
CONTINUOUS
 10
23.0780835106
 20
8.8576695828
 11
-1.0710798091
 21
8.8573456279
  0
LINE
  5
256
100
AcDbEntity
  8
RACCORDO
100
AcDbLine
 62
253
  6
CONTINUOUS
 10
22.8281215868
 20
9.1076315066
 11
-1.071079809
 21
9.1076315066
  0
LINE
  5
257
100
AcDbEntity
  8
DRAFT
100
AcDbLine
 62
7
  6
CONTINUOUS
 10
19.1285208889
 20
9.1487216642
 11
2.6285208889
 21
9.1487216642
  0
LINE
  5
258
100
AcDbEntity
  8
RACCORDO
100
AcDbLine
 62
7
  6
CONTINUOUS
 10
22.9215769391
 20
9.201086859
 11
19.3909868795
 21
9.201086859
  0
LINE
  5
259
100
AcDbEntity
  8
RACCORDO
100
AcDbLine
 62
7
  6
CONTINUOUS
 10
2.3660548983
 20
9.201086859
 11
-1.1645351614
 21
9.201086859
  0
LINE
  5
25A
100
AcDbEntity
  8
RACCORDO
100
AcDbLine
 62
253
  6
CONTINUOUS
 10
-1.071079809
 20
8.8573456279
 11
-1.3210417328
 21
8.8576695828
  0
LINE
  5
25B
100
AcDbEntity
  8
RACCORDO
100
AcDbLine
 62
253
  6
CONTINUOUS
 10
22.8447634635
 20
-8.4030536585
 11
22.9030579695
 21
-8.9919311151
  0
LINE
  5
25C
100
AcDbEntity
  8
RACCORDO
100
AcDbLine
 62
253
  6
CONTINUOUS
 10
23.0947253873
 20
-8.1568517202
 11
23.1523382915
 21
-8.7388437946
  0
LINE
  5
25D
100
AcDbEntity
  8
RACCORDO
100
AcDbLine
 62
253
  6
CONTINUOUS
 10
22.8281215868
 20
8.8573456279
 11
22.8281215868
 21
9.1076315066
  0
LINE
  5
25E
100
AcDbEntity
  8
RACCORDO
100
AcDbLine
 62
7
  6
CONTINUOUS
 10
23.1523382915
 20
-8.7388437946
 11
23.1523382915
 21
-9.02886937
  0
LINE
  5
25F
100
AcDbEntity
  8
RACCORDO
100
AcDbLine
 62
7
  6
CONTINUOUS
 10
23.1715388629
 20
8.2505128691
 11
23.1715388629
 21
8.9511249352
  0
LINE
  5
260
100
AcDbEntity
  8
DRAFT
100
AcDbLine
 62
7
  6
CONTINUOUS
 10
23.1785208889
 20
7.9487216642
 11
23.1785208889
 21
-1.6804395517
  0
LINE
  5
261
100
AcDbEntity
  8
RACCORDO
100
AcDbLine
 62
7
  6
CONTINUOUS
 10
23.1650278111
 20
-9.0352136466
 11
23.1785208889
 21
-1.6804395517
  0
LINE
  5
262
100
AcDbEntity
  8
RACCORDO
100
AcDbLine
 62
7
  6
CONTINUOUS
 10
23.1785208889
 20
7.9487216642
 11
23.1766839925
 21
7.9505585605
  0
LINE
  5
263
100
AcDbEntity
  8
RACCORDO
100
AcDbLine
 62
7
  6
CONTINUOUS
 10
-14.2494188801
 20
-9.2788408134
 11
-13.548685768
 21
-9.2849560186
  0
LINE
  5
264
100
AcDbEntity
  8
RACCORDO
100
AcDbLine
 62
253
  6
CONTINUOUS
 10
-14.2494188801
 20
-9.02886937
 11
-13.5224367869
 21
-9.0352136466
  0
LINE
  5
265
100
AcDbEntity
  8
RACCORDO
100
AcDbLine
 62
7
  6
CONTINUOUS
 10
-17.5891088939
 20
-8.4030536585
 11
-14.2494188801
 21
-8.9919311151
  0
LINE
  5
266
100
AcDbEntity
  8
RACCORDO
100
AcDbLine
 62
253
  6
CONTINUOUS
 10
-17.550059951
 20
-8.1568517202
 11
-14.2494188801
 21
-8.7388437946
  0
LINE
  5
267
100
AcDbEntity
  8
RACCORDO
100
AcDbLine
 62
253
  6
CONTINUOUS
 10
-18.1692330067
 20
-7.448009434
 11
-18.4146640435
 21
-7.4579302535
  0
LINE
  5
268
100
AcDbEntity
  8
RACCORDO
100
AcDbLine
 62
7
  6
CONTINUOUS
 10
-14.2494188801
 20
-9.2788408134
 11
-14.2494188801
 21
-8.7388437946
  0
LINE
  5
269
100
AcDbEntity
  8
RACCORDO
100
AcDbLine
 62
7
  6
CONTINUOUS
 10
-13.1494188801
 20
8.2505128691
 11
-13.1494188801
 21
9.201086859
  0
LINE
  5
26A
100
AcDbEntity
  8
DRAFT
100
AcDbLine
 62
7
  6
CONTINUOUS
 10
-12.7494188801
 20
7.9487216642
 11
-12.7494188801
 21
-1.6804395517
  0
LINE
  5
26B
100
AcDbEntity
  8
0
100
AcDbLine
 62
7
  6
CONTINUOUS
 10
-12.2494188801
 20
5.7080688849
 11
-12.2494188801
 21
3.9080688849
  0
LINE
  5
26C
100
AcDbEntity
  8
RACCORDO
100
AcDbLine
 62
7
  6
CONTINUOUS
 10
-13.548685768
 20
-9.2849560186
 11
-12.7494188801
 21
-1.6804395517
  0
LINE
  5
26D
100
AcDbEntity
  8
0
100
AcDbLine
 62
7
  6
CONTINUOUS
 10
-12.7494188801
 20
3.8830688849
 11
-12.2494188801
 21
3.9080688849
  0
LINE
  5
26E
100
AcDbEntity
  8
0
100
AcDbLine
 62
7
  6
CONTINUOUS
 10
-12.7494188801
 20
5.7330688849
 11
-12.2494188801
 21
5.7080688849
  0
LINE
  5
26F
100
AcDbEntity
  8
RACCORDO
100
AcDbLine
 62
7
  6
CONTINUOUS
 10
-12.7494188801
 20
7.9487216642
 11
-12.8546546021
 21
7.9505585605
  0
LINE
  5
270
100
AcDbEntity
  8
RACCORDO
100
AcDbLine
 62
253
  6
CONTINUOUS
 10
-13.1494188801
 20
8.9511249352
 11
-18.5034724293
 21
8.8576695828
  0
LINE
  5
271
100
AcDbEntity
  8
RACCORDO
100
AcDbLine
 62
7
  6
CONTINUOUS
 10
-13.1494188801
 20
9.201086859
 11
-18.5034724314
 21
9.1076315066
  0
LINE
  5
272
100
AcDbEntity
  8
RACCORDO
100
AcDbLine
 62
253
  6
CONTINUOUS
 10
-18.5034724314
 20
8.8576695828
 11
-18.7491091199
 21
8.8573456279
  0
CIRCLE
  5
273
100
AcDbEntity
  8
DRAFT
100
AcDbCircle
 62
7
  6
CONTINUOUS
 10
10.8785205448
 20
4.8082894307
 40
1.3135386721
  0
CIRCLE
  5
274
100
AcDbEntity
  8
DRAFT
100
AcDbCircle
 62
7
  6
CONTINUOUS
 10
10.8785208889
 20
4.8080688849
 40
1.3
  0
CIRCLE
  5
275
100
AcDbEntity
  8
DRAFT
100
AcDbCircle
 62
7
  6
CONTINUOUS
 10
10.8785208889
 20
4.8080688849
 40
1.225
  0
CIRCLE
  5
276
100
AcDbEntity
  8
RACCORDO
100
AcDbCircle
 62
253
  6
CONTINUOUS
 10
10.8785208889
 20
4.8080688849
 40
1.2068524201
  0
CIRCLE
  5
277
100
AcDbEntity
  8
RACCORDO
100
AcDbCircle
 62
253
  6
CONTINUOUS
 10
10.8785208889
 20
4.8080688849
 40
1.1180464865
  0
ARC
  5
278
100
AcDbEntity
  8
RACCORDO
100
AcDbCircle
 62
253
  6
CONTINUOUS
 10
-1.070988988
 20
8.8575787618
 40
0.2500532007
100
AcDbArc
 50
90.0208102483
 51
179.9791897517
  0
ARC
  5
279
100
AcDbEntity
  8
RACCORDO
100
AcDbCircle
 62
253
  6
CONTINUOUS
 10
22.8280307622
 20
8.8575787584
 40
0.2500531776
100
AcDbArc
 50
0.0208110208
 51
89.9791889339
  0
ARC
  5
27A
100
AcDbEntity
  8
RACCORDO
100
AcDbCircle
 62
7
  6
CONTINUOUS
 10
406.250534061
 20
9.4080688849
 40
425.0
100
AcDbArc
 50
180.074245005
 51
182.2743633301
  0
ARC
  5
27B
100
AcDbEntity
  8
RACCORDO
100
AcDbCircle
 62
253
  6
CONTINUOUS
 10
406.2461806929
 20
9.4080690311
 40
424.7500097316
100
AcDbArc
 50
180.074245023
 51
182.2743632977
  0
ARC
  5
27C
100
AcDbEntity
  8
RACCORDO
100
AcDbCircle
 62
7
  6
CONTINUOUS
 10
-17.4154607162
 20
-7.4182459054
 40
1.0
100
AcDbArc
 50
182.2743633301
 51
260.0
  0
ARC
  5
27D
100
AcDbEntity
  8
RACCORDO
100
AcDbCircle
 62
253
  6
CONTINUOUS
 10
-17.4198231497
 20
-7.4182453219
 40
0.7500006907
100
AcDbArc
 50
182.2744058521
 51
259.999957478
  0
ARC
  5
27E
100
AcDbEntity
  8
RACCORDO
100
AcDbCircle
 62
7
  6
CONTINUOUS
 10
-12.8494188801
 20
8.2505128691
 40
0.3
100
AcDbArc
 50
180.0
 51
269.0
  0
ARC
  5
27F
100
AcDbEntity
  8
RACCORDO
100
AcDbCircle
 62
7
  6
CONTINUOUS
 10
-18.4991093298
 20
8.8576695828
 40
0.25
100
AcDbArc
 50
91.0
 51
180.074245005
  0
SPLINE
  5
280
100
AcDbEntity
  8
RACCORDO
100
AcDbSpline
 62
253
  6
CONTINUOUS
 70
0
 71
3
 72
11
 73
7
 74
5
 42
0.0000001
 43
0.0000001
 44
0.0000000001
 12
0.0011902478
 22
-0.3868382137
 32
0.0
 13
0.3868383214
 23
-0.0011547111
 33
0.0
 40
0.0
 40
0.0
 40
0.0
 40
0.0
 40
0.2481425819
 40
0.4975232625
 40
0.7483526478
 40
1.0
 40
1.0
 40
1.0
 40
1.0
 10
-1.3376836095
 20
-8.1568517202
 30
0.0
 10
-1.3375851591
 20
-8.1888487312
 30
0.0
 10
-1.3243410029
 20
-8.2536697528
 30
0.0
 10
-1.2685420723
 20
-8.3353657906
 30
0.0
 10
-1.1856115519
 20
-8.3900468892
 30
0.0
 10
-1.1201706322
 20
-8.402956799
 30
0.0
 10
-1.0877216858
 20
-8.403053659
 30
0.0
 11
-1.3376836095
 21
-8.1568517202
 31
0.0
 11
-1.3184405163
 21
-8.2508946308
 31
0.0
 11
-1.26420675
 21
-8.3306771048
 31
0.0
 11
-1.1832055954
 21
-8.3840980645
 31
0.0
 11
-1.0877216858
 21
-8.403053659
 31
0.0
  0
SPLINE
  5
281
100
AcDbEntity
  8
RACCORDO
100
AcDbSpline
 62
253
  6
CONTINUOUS
 70
0
 71
3
 72
11
 73
7
 74
5
 42
0.0000001
 43
0.0000001
 44
0.0000000001
 12
0.1007369336
 22
-0.2292793437
 32
0.0
 13
0.2504334586
 23
-0.0001733424
 33
0.0
 40
0.0
 40
0.0
 40
0.0
 40
0.0
 40
0.0822915139
 40
0.3001698808
 40
0.6219901233
 40
1.0
 40
1.0
 40
1.0
 40
1.0
 10
-1.3268759036
 20
-7.448009434
 30
0.0
 10
-1.3241126387
 20
-7.4542986821
 30
0.0
 10
-1.2905283851
 20
-7.4481747078
 30
0.0
 10
-1.2461460961
 20
-7.4582516468
 30
0.0
 10
-1.1658428635
 20
-7.4563917391
 30
0.0
 10
-1.1084694201
 20
-7.4579087684
 30
0.0
 10
-1.0769139798
 20
-7.4579306101
 30
0.0
 11
-1.3268759036
 21
-7.448009434
 31
0.0
 11
-1.3066127449
 21
-7.4517666764
 31
0.0
 11
-1.2521424798
 21
-7.454964384
 31
0.0
 11
-1.1715769069
 21
-7.4571263493
 31
0.0
 11
-1.0769139798
 21
-7.4579306101
 31
0.0
  0
SPLINE
  5
282
100
AcDbEntity
  8
RACCORDO
100
AcDbSpline
 62
253
  6
CONTINUOUS
 70
0
 71
3
 72
11
 73
7
 74
5
 42
0.0000001
 43
0.0000001
 44
0.0000000001
 12
-0.0011902476
 22
-0.3868382125
 32
0.0
 13
-0.3868383202
 23
-0.0011547048
 33
0.0
 40
0.0
 40
0.0
 40
0.0
 40
0.0
 40
0.2481496322
 40
0.4975322055
 40
0.7483586193
 40
1.0
 40
1.0
 40
1.0
 40
1.0
 10
23.0947253873
 20
-8.1568517202
 30
0.0
 10
23.0946269341
 20
-8.1888496403
 30
0.0
 10
23.0813821435
 20
-8.2536718708
 30
0.0
 10
23.0255816953
 20
-8.3353678628
 30
0.0
 10
22.9426513599
 20
-8.3900474407
 30
0.0
 10
22.8772116398
 20
-8.4029568013
 30
0.0
 10
22.8447634635
 20
-8.4030536585
 30
0.0
 11
23.0947253873
 21
-8.1568517202
 31
0.0
 11
23.0754812114
 21
-8.2508971928
 31
0.0
 11
23.0212460155
 21
-8.33067958
 31
0.0
 11
22.9402451953
 21
-8.3840989582
 31
0.0
 11
22.8447634635
 21
-8.4030536585
 31
0.0
  0
SPLINE
  5
283
100
AcDbEntity
  8
RACCORDO
100
AcDbSpline
 62
253
  6
CONTINUOUS
 70
0
 71
3
 72
11
 73
7
 74
5
 42
0.0000001
 43
0.0000001
 44
0.0000000001
 12
-0.1008819843
 22
-0.2292154883
 32
0.0
 13
-0.2504333939
 23
-0.000173313
 33
0.0
 40
0.0
 40
0.0
 40
0.0
 40
0.0
 40
0.082299687
 40
0.3001800223
 40
0.6219967759
 40
1.0
 40
1.0
 40
1.0
 40
1.0
 10
23.0839176813
 20
-7.448009434
 30
0.0
 10
23.0811501627
 20
-7.4542975549
 30
0.0
 10
23.0475734775
 20
-7.4481761677
 30
0.0
 10
23.0031829347
 20
-7.4582503578
 30
0.0
 10
22.9228843361
 20
-7.4563918268
 30
0.0
 10
22.8655106344
 20
-7.4579084159
 30
0.0
 10
22.8339557576
 20
-7.4579302535
 30
0.0
 11
23.0839176813
 21
-7.448009434
 31
0.0
 11
23.0636524266
 21
-7.4517665703
 31
0.0
 11
23.0091816749
 21
-7.4549641616
 31
0.0
 11
22.9286169945
 21
-7.457126035
 31
0.0
 11
22.8339557576
 21
-7.4579302535
 31
0.0
  0
SPLINE
  5
284
100
AcDbEntity
  8
RACCORDO
100
AcDbSpline
 62
253
  6
CONTINUOUS
 70
0
 71
3
 72
13
 73
9
 74
7
 42
0.0000001
 43
0.0000001
 44
0.0000000001
 12
0.0699504283
 22
0.942650268
 32
0.0
 13
0.0004957988
 23
0.9452419502
 33
0.0
 40
0.0
 40
0.0
 40
0.0
 40
0.0
 40
0.0677735974
 40
0.1851013747
 40
0.3460122137
 40
0.5423316971
 40
0.7640939911
 40
1.0
 40
1.0
 40
1.0
 40
1.0
 10
-1.0877216857
 20
-8.4030536585
 30
0.0
 10
-1.0861414217
 20
-8.3817580585
 30
0.0
 10
-1.0843478064
 20
-8.3234378086
 30
0.0
 10
-1.0818483325
 20
-8.2144596677
 30
0.0
 10
-1.0798941174
 20
-8.0649396083
 30
0.0
 10
-1.0782718147
 20
-7.8825199127
 30
0.0
 10
-1.0772380604
 20
-7.6764621885
 30
0.0
 10
-1.0769529672
 20
-7.5322600288
 30
0.0
 10
-1.0769139798
 20
-7.4579306101
 30
0.0
 11
-1.0877216857
 21
-8.4030536585
 31
0.0
 11
-1.0848891814
 21
-8.3390538521
 31
0.0
 11
-1.0823168151
 21
-8.2281805364
 31
0.0
 11
-1.0801353157
 21
-8.0760964852
 31
0.0
 11
-1.0784556859
 21
-7.8905346499
 31
0.0
 11
-1.0773633338
 21
-7.680918444
 31
0.0
 11
-1.0769139798
 21
-7.4579306101
 31
0.0
  0
SPLINE
  5
285
100
AcDbEntity
  8
RACCORDO
100
AcDbSpline
 62
253
  6
CONTINUOUS
 70
0
 71
3
 72
13
 73
9
 74
7
 42
0.0000001
 43
0.0000001
 44
0.0000000001
 12
0.0004957988
 22
-0.9452419502
 32
0.0
 13
0.0699504281
 23
-0.9426502681
 33
0.0
 40
0.0
 40
0.0
 40
0.0
 40
0.0
 40
0.2359060089
 40
0.4576683029
 40
0.6539877863
 40
0.8148986253
 40
0.9322264026
 40
1.0
 40
1.0
 40
1.0
 40
1.0
 10
22.8339557576
 20
-7.4579306101
 30
0.0
 10
22.8339947449
 20
-7.5322600288
 30
0.0
 10
22.8342798382
 20
-7.6764621885
 30
0.0
 10
22.8353135925
 20
-7.8825199127
 30
0.0
 10
22.8369358952
 20
-8.0649396083
 30
0.0
 10
22.8388901103
 20
-8.2144596677
 30
0.0
 10
22.8413895841
 20
-8.3234378086
 30
0.0
 10
22.8431831995
 20
-8.3817580585
 30
0.0
 10
22.8447634635
 20
-8.4030536585
 30
0.0
 11
22.8339557576
 21
-7.4579306101
 31
0.0
 11
22.8344051116
 21
-7.680918444
 31
0.0
 11
22.8354974637
 21
-7.8905346499
 31
0.0
 11
22.8371770934
 21
-8.0760964852
 31
0.0
 11
22.8393585929
 21
-8.2281805364
 31
0.0
 11
22.8419309592
 21
-8.3390538521
 31
0.0
 11
22.8447634635
 21
-8.4030536585
 31
0.0
  0
SPLINE
  5
286
100
AcDbEntity
  8
RACCORDO
100
AcDbSpline
 62
253
  6
CONTINUOUS
 70
0
 71
3
 72
13
 73
9
 74
7
 42
0.0000001
 43
0.0000001
 44
0.0000000001
 12
0.069752494
 22
0.7055614738
 32
0.0
 13
0.0004946771
 23
0.7090008173
 33
0.0
 40
0.0
 40
0.0
 40
0.0
 40
0.0
 40
0.067477859
 40
0.1848343948
 40
0.3459357263
 40
0.5426158844
 40
0.7647547131
 40
1.0
 40
1.0
 40
1.0
 40
1.0
 10
-1.3376836095
 20
-8.1568517202
 30
0.0
 10
-1.3361146932
 20
-8.1409817943
 30
0.0
 10
-1.3343120309
 20
-8.0973023286
 30
0.0
 10
-1.3318156069
 20
-8.0156038029
 30
0.0
 10
-1.3298557682
 20
-7.9033182994
 30
0.0
 10
-1.3282320073
 20
-7.7662764795
 30
0.0
 10
-1.3271991505
 20
-7.6117006884
 30
0.0
 10
-1.3269146938
 20
-7.5036058009
 30
0.0
 10
-1.3268759036
 20
-7.448009434
 30
0.0
 11
-1.3376836095
 21
-8.1568517202
 31
0.0
 11
-1.3348609729
 21
-8.1090931907
 31
0.0
 11
-1.3322842024
 21
-8.0259271997
 31
0.0
 11
-1.3300986249
 21
-7.9117271083
 31
0.0
 11
-1.3284160501
 21
-7.7722908329
 31
0.0
 11
-1.3273231182
 21
-7.6147979757
 31
0.0
 11
-1.3268759036
 21
-7.448009434
 31
0.0
  0
SPLINE
  5
287
100
AcDbEntity
  8
RACCORDO
100
AcDbSpline
 62
253
  6
CONTINUOUS
 70
0
 71
3
 72
10
 73
6
 74
4
 42
0.0000001
 43
0.0000001
 44
0.0000000001
 12
0.0113038298
 22
16.305676414
 32
0.0
 13
0.0003688181
 23
16.305680328
 33
0.0
 40
0.0
 40
0.0
 40
0.0
 40
0.0
 40
0.3332437898
 40
0.6665833822
 40
1.0
 40
1.0
 40
1.0
 40
1.0
 10
-1.3268759036
 20
-7.448009434
 30
0.0
 10
-1.3256202599
 20
-5.6367542995
 30
0.0
 10
-1.3235140632
 20
-2.0137230274
 30
0.0
 10
-1.3215695019
 20
3.4215034429
 30
0.0
 10
-1.3210827229
 20
7.045474654
 30
0.0
 10
-1.3210417328
 20
8.8576695829
 30
0.0
 11
-1.3268759036
 21
-7.448009434
 31
0.0
 11
-1.3237168038
 21
-2.0142436432
 31
0.0
 11
-1.3217720472
 21
3.421084844
 31
0.0
 11
-1.3210417328
 21
8.8576695829
 31
0.0
  0
SPLINE
  5
288
100
AcDbEntity
  8
RACCORDO
100
AcDbSpline
 62
253
  6
CONTINUOUS
 70
0
 71
3
 72
10
 73
6
 74
4
 42
0.0000001
 43
0.0000001
 44
0.0000000001
 12
0.0113038298
 22
16.3152736367
 32
0.0
 13
0.0003688181
 23
16.3152775484
 33
0.0
 40
0.0
 40
0.0
 40
0.0
 40
0.0
 40
0.3332434383
 40
0.6665824571
 40
1.0
 40
1.0
 40
1.0
 40
1.0
 10
-1.0769139798
 20
-7.4579306101
 30
0.0
 10
-1.0756583375
 20
-5.6456113158
 30
0.0
 10
-1.0735521432
 20
-2.0204526252
 30
0.0
 10
-1.0716075796
 20
3.4179729187
 30
0.0
 10
-1.0711207992
 20
7.0440790438
 30
0.0
 10
-1.0710798091
 20
8.8573456279
 30
0.0
 11
-1.0769139798
 21
-7.4579306101
 31
0.0
 11
-1.0737548827
 21
-2.0209723399
 31
0.0
 11
-1.0718101272
 21
3.417545923
 31
0.0
 11
-1.0710798091
 21
8.8573456279
 31
0.0
  0
SPLINE
  5
289
100
AcDbEntity
  8
RACCORDO
100
AcDbSpline
 62
253
  6
CONTINUOUS
 70
0
 71
3
 72
10
 73
6
 74
4
 42
0.0000001
 43
0.0000001
 44
0.0000000001
 12
0.0003688181
 22
-16.3056803279
 32
0.0
 13
0.0113038298
 23
-16.3056764139
 33
0.0
 40
0.0
 40
0.0
 40
0.0
 40
0.0
 40
0.3334166178
 40
0.6667562102
 40
1.0
 40
1.0
 40
1.0
 40
1.0
 10
23.0780835106
 20
8.8576695828
 30
0.0
 10
23.0781245006
 20
7.045474654
 30
0.0
 10
23.0786112797
 20
3.4215034428
 30
0.0
 10
23.080555841
 20
-2.0137230274
 30
0.0
 10
23.0826620377
 20
-5.6367542995
 30
0.0
 10
23.0839176814
 20
-7.448009434
 30
0.0
 11
23.0780835106
 21
8.8576695828
 31
0.0
 11
23.078813825
 21
3.4210848439
 31
0.0
 11
23.0807585816
 21
-2.0142436432
 31
0.0
 11
23.0839176814
 21
-7.448009434
 31
0.0
  0
SPLINE
  5
28A
100
AcDbEntity
  8
RACCORDO
100
AcDbSpline
 62
253
  6
CONTINUOUS
 70
0
 71
3
 72
13
 73
9
 74
7
 42
0.0000001
 43
0.0000001
 44
0.0000000001
 12
0.0004946771
 22
-0.7090008173
 32
0.0
 13
0.0697524934
 23
-0.7055614738
 33
0.0
 40
0.0
 40
0.0
 40
0.0
 40
0.0
 40
0.2352452869
 40
0.4573841156
 40
0.6540642737
 40
0.8151656051
 40
0.9325221411
 40
1.0
 40
1.0
 40
1.0
 40
1.0
 10
23.0839176814
 20
-7.448009434
 30
0.0
 10
23.0839564716
 20
-7.5036058009
 30
0.0
 10
23.0842409283
 20
-7.6117006884
 30
0.0
 10
23.0852737851
 20
-7.7662764795
 30
0.0
 10
23.0868975459
 20
-7.9033182994
 30
0.0
 10
23.0888573846
 20
-8.0156038029
 30
0.0
 10
23.0913538086
 20
-8.0973023286
 30
0.0
 10
23.093156471
 20
-8.1409817943
 30
0.0
 10
23.0947253873
 20
-8.1568517202
 30
0.0
 11
23.0839176814
 21
-7.448009434
 31
0.0
 11
23.084364896
 21
-7.6147979757
 31
0.0
 11
23.0854578279
 21
-7.7722908329
 31
0.0
 11
23.0871404027
 21
-7.9117271083
 31
0.0
 11
23.0893259802
 21
-8.0259271997
 31
0.0
 11
23.0919027506
 21
-8.1090931908
 31
0.0
 11
23.0947253873
 21
-8.1568517202
 31
0.0
  0
SPLINE
  5
28B
100
AcDbEntity
  8
ASSI
100
AcDbSpline
 62
7
  6
CONTINUOUS
 70
0
 71
3
 72
26
 73
22
 74
20
 42
0.0000001
 43
0.0000001
 44
0.0000000001
 12
7.5245273328
 22
0.0
 32
0.0
 13
-7.5245273328
 23
0.0
 33
0.0
 40
0.0
 40
0.0
 40
0.0
 40
0.0
 40
0.0525110766
 40
0.1050659475
 40
0.1576757335
 40
0.2102146508
 40
0.2628696807
 40
0.3154318125
 40
0.3681645664
 40
0.4207860678
 40
0.473590599
 40
0.5262369109
 40
0.5790389163
 40
0.6316790221
 40
0.6844572014
 40
0.7370664067
 40
0.7897607685
 40
0.8423102194
 40
0.8949163168
 40
0.9474619409
 40
1.0
 40
1.0
 40
1.0
 40
1.0
 10
10.8785208889
 20
7.2005823489
 30
0.0
 10
11.0102278994
 20
7.2005823489
 30
0.0
 10
11.2742610096
 20
7.1789205796
 30
0.0
 10
11.6594816599
 20
7.0822156588
 30
0.0
 10
12.0238784975
 20
6.9237578692
 30
0.0
 10
12.3575797497
 20
6.7076178807
 30
0.0
 10
12.6511934159
 20
6.4396836286
 30
0.0
 10
12.8969980906
 20
6.1266925319
 30
0.0
 10
13.0877336396
 20
5.7774715439
 30
0.0
 10
13.2182473743
 20
5.4009308888
 30
0.0
 10
13.284481143
 20
5.0081538233
 30
0.0
 10
13.2845985691
 20
4.6093915194
 30
0.0
 10
13.2185889506
 20
4.2165356793
 30
0.0
 10
13.088230228
 20
3.8397755647
 30
0.0
 10
12.8975074756
 20
3.4902243388
 30
0.0
 10
12.6515763567
 20
3.1769055369
 30
0.0
 10
12.3578082968
 20
2.9087734999
 30
0.0
 10
12.02401294
 20
2.6925635274
 30
0.0
 10
11.6596235722
 20
2.5341045914
 30
0.0
 10
11.2743738739
 20
2.4373752128
 30
0.0
 10
11.0102955761
 20
2.4157012072
 30
0.0
 10
10.8785208889
 20
2.4157012072
 30
0.0
 11
10.8785208889
 21
7.2005823489
 31
0.0
 11
11.2723163713
 21
7.1682443294
 31
0.0
 11
11.6558682018
 21
7.0719679537
 31
0.0
 11
12.0188834355
 21
6.914081707
 31
0.0
 11
12.3506829775
 21
6.6991508273
 31
0.0
 11
12.6433301635
 21
6.4320639459
 31
0.0
 11
12.8875912653
 21
6.1209998442
 31
0.0
 11
13.0777690778
 21
5.7727557512
 31
0.0
 11
13.2074275229
 21
5.3986346282
 31
0.0
 11
13.2734876674
 21
5.0068355703
 31
0.0
 11
13.2736039786
 21
4.610696975
 31
0.0
 11
13.2077766248
 21
4.2188780104
 31
0.0
 11
13.078276885
 21
3.8445537893
 31
0.0
 11
12.8880836047
 21
3.495928732
 31
0.0
 11
12.6436844938
 21
3.1845226605
 31
0.0
 11
12.3508473773
 21
2.9172048626
 31
0.0
 11
12.0189858033
 21
2.7022239577
 31
0.0
 11
11.6559978915
 21
2.544344483
 31
0.0
 11
11.2725176721
 21
2.4480686049
 31
0.0
 11
10.8785208889
 21
2.4157012072
 31
0.0
  0
SPLINE
  5
28C
100
AcDbEntity
  8
ASSI
100
AcDbSpline
 62
7
  6
CONTINUOUS
 70
0
 71
3
 72
26
 73
22
 74
20
 42
0.0000001
 43
0.0000001
 44
0.0000000001
 12
-7.5245273329
 22
0.0
 32
0.0
 13
7.5245273329
 23
0.0
 33
0.0
 40
0.0
 40
0.0
 40
0.0
 40
0.0
 40
0.0525110341
 40
0.1050655381
 40
0.1576743928
 40
0.2102117292
 40
0.262864617
 40
0.3154243168
 40
0.3681547145
 40
0.420774355
 40
0.473577854
 40
0.5262241639
 40
0.5790271981
 40
0.6316691632
 40
0.6844497002
 40
0.7370613399
 40
0.7897578459
 40
0.8423088783
 40
0.8949159072
 40
0.9474618983
 40
1.0
 40
1.0
 40
1.0
 40
1.0
 10
10.8785208889
 20
2.4157012072
 30
0.0
 10
10.7468139852
 20
2.4157012072
 30
0.0
 10
10.4827820193
 20
2.4373601567
 30
0.0
 10
10.0975621725
 20
2.5340530204
 30
0.0
 10
9.7331654879
 20
2.6924924233
 30
0.0
 10
9.3994637106
 20
2.9086099599
 30
0.0
 10
9.1058491016
 20
3.1765203592
 30
0.0
 10
8.8600434683
 20
3.4894888125
 30
0.0
 10
8.6693073297
 20
3.8386907229
 30
0.0
 10
8.5387935744
 20
4.2152176434
 30
0.0
 10
8.4725602919
 20
4.607987545
 30
0.0
 10
8.4724435491
 20
5.0067498361
 30
0.0
 10
8.5384536556
 20
5.3996128174
 30
0.0
 10
8.6688123603
 20
5.7763866533
 30
0.0
 10
8.8595345234
 20
6.1259569573
 30
0.0
 10
9.1054646816
 20
6.4392984169
 30
0.0
 10
9.3992317973
 20
6.7074543231
 30
0.0
 10
9.7330266298
 20
6.923686757
 30
0.0
 10
10.0974161512
 20
7.0821640817
 30
0.0
 10
10.482666652
 20
7.1789055214
 30
0.0
 10
10.7467460948
 20
7.2005823489
 30
0.0
 10
10.8785208889
 20
7.2005823489
 30
0.0
 11
10.8785208889
 21
2.4157012072
 31
0.0
 11
10.4847254065
 21
2.4480353125
 31
0.0
 11
10.101173576
 21
2.5443003499
 31
0.0
 11
9.7381583423
 21
2.7021690248
 31
0.0
 11
9.4063588003
 21
2.9170780246
 31
0.0
 11
9.1137116143
 21
3.1841409953
 31
0.0
 11
8.8694505125
 21
3.4951818294
 31
0.0
 11
8.6792727
 21
3.8434057211
 31
0.0
 11
8.5496142549
 21
4.2175120247
 31
0.0
 11
8.4835541103
 21
4.6093032058
 31
0.0
 11
8.4834377991
 21
5.0054417871
 31
0.0
 11
8.549265153
 21
5.3972686014
 31
0.0
 11
8.6787648927
 21
5.7716076266
 31
0.0
 11
8.8689581731
 21
6.1202528916
 31
0.0
 11
9.113357284
 21
6.4316822491
 31
0.0
 11
9.4061944004
 21
6.6990239771
 31
0.0
 11
9.7380559744
 21
6.9140267683
 31
0.0
 11
10.1010438863
 21
7.0719238156
 31
0.0
 11
10.4845241056
 21
7.168211033
 31
0.0
 11
10.8785208889
 21
7.2005823489
 31
0.0
  0
SPLINE
  5
28D
100
AcDbEntity
  8
RACCORDO
100
AcDbSpline
 62
253
  6
CONTINUOUS
 70
0
 71
3
 72
10
 73
6
 74
4
 42
0.0000001
 43
0.0000001
 44
0.0000000001
 12
0.0003688181
 22
-16.3152775484
 32
0.0
 13
0.0113038298
 23
-16.3152736367
 33
0.0
 40
0.0
 40
0.0
 40
0.0
 40
0.0
 40
0.3334174783
 40
0.6667565294
 40
1.0
 40
1.0
 40
1.0
 40
1.0
 10
22.828121587
 20
8.8573456279
 30
0.0
 10
22.8281625771
 20
7.0440793954
 30
0.0
 10
22.8286493572
 20
3.4179734462
 30
0.0
 10
22.8305939207
 20
-2.0204520977
 30
0.0
 10
22.8327001151
 20
-5.64561114
 30
0.0
 10
22.8339557576
 20
-7.4579306101
 30
0.0
 11
22.828121587
 21
8.8573456279
 31
0.0
 11
22.8288519047
 21
3.417546978
 31
0.0
 11
22.8307966602
 21
-2.0209718125
 31
0.0
 11
22.8339557576
 21
-7.4579306101
 31
0.0
  0
SPLINE
  5
28E
100
AcDbEntity
  8
RACCORDO
100
AcDbSpline
 62
253
  6
CONTINUOUS
 70
0
 71
3
 72
11
 73
7
 74
5
 42
0.0000001
 43
0.0000001
 44
0.0000000001
 12
-0.0432841549
 22
-0.2455514343
 32
0.0
 13
0.2455491793
 23
-0.0432969454
 33
0.0
 40
0.0
 40
0.0
 40
0.0
 40
0.0
 40
0.3827689169
 40
0.7070452555
 40
0.9236831927
 40
1.0
 40
1.0
 40
1.0
 40
1.0
 10
-17.550059951
 20
-8.1568517202
 30
0.0
 10
-17.5555825607
 20
-8.188181539
 30
0.0
 10
-17.5636863842
 20
-8.2444684935
 30
0.0
 10
-17.5829654361
 20
-8.3259013116
 30
0.0
 10
-17.5774834679
 20
-8.365358759
 30
0.0
 10
-17.5953554037
 20
-8.4019522302
 30
0.0
 10
-17.5891088939
 20
-8.4030536585
 30
0.0
 11
-17.550059951
 21
-8.1568517202
 31
0.0
 11
-17.5663067963
 21
-8.2508971928
 31
0.0
 11
-17.5794279033
 21
-8.33067958
 31
0.0
 11
-17.5874333047
 21
-8.3840989582
 31
0.0
 11
-17.5891088939
 21
-8.4030536585
 31
0.0
  0
SPLINE
  5
28F
100
AcDbEntity
  8
RACCORDO
100
AcDbSpline
 62
253
  6
CONTINUOUS
 70
0
 71
3
 72
12
 73
8
 74
6
 42
0.0000001
 43
0.0000001
 44
0.0000000001
 12
-0.0043623064
 22
0.2499925102
 32
0.0
 13
0.2499924871
 23
0.0043636351
 33
0.0
 40
0.0
 40
0.0
 40
0.0
 40
0.0
 40
0.3098605754
 40
0.5892143267
 40
0.8103234085
 40
0.9518389381
 40
1.0
 40
1.0
 40
1.0
 40
1.0
 10
-18.5034724314
 20
8.8576695828
 30
0.0
 10
-18.5039230003
 20
8.8834905238
 30
0.0
 10
-18.5050324762
 20
8.9330599996
 30
0.0
 10
-18.504168686
 20
8.9987911916
 30
0.0
 10
-18.5080055589
 20
9.0568959014
 30
0.0
 10
-18.5004635234
 20
9.0823892249
 30
0.0
 10
-18.5074857326
 20
9.1075614542
 30
0.0
 10
-18.5034724314
 20
9.1076315066
 30
0.0
 11
-18.5034724314
 21
8.8576695828
 31
0.0
 11
-18.5046093817
 21
8.9351358555
 31
0.0
 11
-18.5052047731
 21
9.004980295
 31
0.0
 11
-18.5052001799
 21
9.0602643241
 31
0.0
 11
-18.504596941
 21
9.0956423897
 31
0.0
 11
-18.5034724314
 21
9.1076315066
 31
0.0
  0
ELLIPSE
  5
290
100
AcDbEntity
  8
RACCORDO
100
AcDbEllipse
 62
7
  6
CONTINUOUS
 10
-1.4197336046
 20
8.2505128691
 30
0.0
 11
0.0
 21
0.3
 31
0.0
 40
0.0174550649
 41
-3.1241393611
 42
-1.5707963268
  0
ELLIPSE
  5
291
100
AcDbEntity
  8
RACCORDO
100
AcDbEllipse
 62
7
  6
CONTINUOUS
 10
23.1767753824
 20
8.2505128691
 30
0.0
 11
0.0
 21
0.3
 31
0.0
 40
0.0174550649
 41
-4.7123889804
 42
-3.1590459461
  0
ELLIPSE
  5
292
100
AcDbEntity
  8
RACCORDO
100
AcDbEllipse
 62
7
  6
CONTINUOUS
 10
-1.1644590031
 20
8.9510487769
 30
0.0
 11
0.1768305473
 21
-0.1768305473
 31
0.0
 40
0.9996954599
 41
2.3563467834
 42
3.9268385237
  0
ELLIPSE
  5
293
100
AcDbEntity
  8
RACCORDO
100
AcDbEllipse
 62
7
  6
CONTINUOUS
 10
22.9215007809
 20
8.9510487769
 30
0.0
 11
0.1768305473
 21
0.1768305473
 31
0.0
 40
0.9996954599
 41
-0.7852458701
 42
0.7852458702
  0
ELLIPSE
  5
294
100
AcDbEntity
  8
RACCORDO
100
AcDbEllipse
 62
7
  6
CONTINUOUS
 10
22.9149897989
 20
-9.0351756053
 30
0.0
 11
0.2183310446
 21
0.1221043275
 31
0.0
 40
0.9980297029
 41
-2.0815635429
 42
-0.5109195152
  0
ELLIPSE
  5
295
100
AcDbEntity
  8
RACCORDO
100
AcDbEllipse
 62
7
  6
CONTINUOUS
 10
-1.1579480211
 20
-9.0351756053
 30
0.0
 11
0.2183310446
 21
-0.1221043275
 31
0.0
 40
0.9980297029
 41
-2.6306731384
 42
-1.0600291107
  0
ELLIPSE
  5
296
100
AcDbEntity
  8
RACCORDO
100
AcDbEllipse
 62
7
  6
CONTINUOUS
 10
-1.1452584317
 20
-8.7380744621
 30
0.0
 11
0.0250113895
 21
0.2526592035
 31
0.0
 40
0.9846622838
 41
-4.6121910857
 42
-3.0444253421
  0
ELLIPSE
  5
297
100
AcDbEntity
  8
RACCORDO
100
AcDbEllipse
 62
7
  6
CONTINUOUS
 10
-1.1452584317
 20
-9.0288312938
 30
0.0
 11
0.2236527791
 21
0.1118178731
 31
0.0
 40
0.9998096356
 41
2.6780516535
 42
4.2486956813
  0
ELLIPSE
  5
298
100
AcDbEntity
  8
RACCORDO
100
AcDbEllipse
 62
7
  6
CONTINUOUS
 10
22.9023002095
 20
-9.0288312938
 30
0.0
 11
0.2236527791
 21
-0.1118178731
 31
0.0
 40
0.9998096356
 41
-1.1071030277
 42
0.4635410001
  0
ELLIPSE
  5
299
100
AcDbEntity
  8
RACCORDO
100
AcDbEllipse
 62
7
  6
CONTINUOUS
 10
22.9023002095
 20
-8.7380744621
 30
0.0
 11
-0.0250113895
 21
0.2526592035
 31
0.0
 40
0.9846622838
 41
-3.2387599651
 42
-1.6709942215
  0
ENDSEC
  0
SECTION
  2
OBJECTS
  0
DICTIONARY
  5
C
100
AcDbDictionary
280
0
281
1
  3
ACAD_GROUP
350
D
  3
ACAD_MLINESTYLE
350
17
  3
ACAD_LAYOUT
350
1A
  3
ACAD_PLOTSETTINGS
350
19
  3
ACAD_PLOTSTYLENAME
350
E
  0
DICTIONARY
  5
D
102
{ACAD_REACTORS
330
C
102
}
100
AcDbDictionary
280
0
281
1
  0
ACDBDICTIONARYWDFLT
  5
E
102
{ACAD_REACTORS
330
C
102
}
100
AcDbDictionary
281
1
  3
Normal
350
F
100
AcDbDictionaryWithDefault
340
F
  0
DICTIONARY
  5
17
102
{ACAD_REACTORS
330
C
102
}
100
AcDbDictionary
280
0
281
1
  3
Standard
350
18
  0
DICTIONARY
  5
19
102
{ACAD_REACTORS
330
C
102
}
100
AcDbDictionary
281
1
  0
DICTIONARY
  5
1A
102
{ACAD_REACTORS
330
C
102
}
100
AcDbDictionary
281
1
  3
Model
350
29A
  3
Layout1
350
29B
  0
ACDBPLACEHOLDER
  5
F
102
{ACAD_REACTORS
330
E
102
}
  0
MLINESTYLE
  5
18
102
{ACAD_REACTORS
330
17
102
}
100
AcDbMlineStyle
  2
STANDARD
 70
0
  3

 62
256
 51
90.0
 52
90.0
 71
2
 49
0.5
 62
256
  6
BYLAYER
 49
-0.5
 62
256
  6
BYLAYER
  0
LAYOUT
  5
29A
102
{ACAD_REACTORS
330
1A
102
}
100
AcDbPlotSettings
  1

  2
none_device
  4
ISO_A4_(297.00_x_210.00_MM)
  6

 40
0.0
 41
0.0
 42
0.0
 43
0.0
 44
297.0
 45
210.0
 46
0.0
 47
0.0
 48
0.0
 49
0.0
140
0.0
141
0.0
142
1.0
143
1.0
 70
1024
 72
1
 73
0
 74
0
  7

 75
0
147
1.0
148
0.0
149
0.0
100
AcDbLayout
  1
Model
 70
0
 71
0
 10
0.0
 20
0.0
 11
297.0
 21
210.0
 12
0.0
 22
0.0
 32
0.0
 14
0.0
 24
0.0
 34
0.0
 15
0.0
 25
0.0
 35
0.0
146
0.0
 13
0.0
 23
0.0
 33
0.0
 16
1.0
 26
0.0
 36
0.0
 17
0.0
 27
1.0
 37
0.0
 76
0
330
210
345
0
346
0
  0
LAYOUT
  5
29B
102
{ACAD_REACTORS
330
1A
102
}
100
AcDbPlotSettings
  1

  2
none_device
  4
ISO_A4_(297.00_x_210.00_MM)
  6

 40
0.0
 41
0.0
 42
0.0
 43
0.0
 44
297.0
 45
210.0
 46
0.0
 47
0.0
 48
0.0
 49
0.0
140
0.0
141
0.0
142
1.0
143
1.0
 70
0
 72
1
 73
0
 74
0
  7

 75
0
147
1.0
148
0.0
149
0.0
100
AcDbLayout
  1
Layout1
 70
0
 71
1
 10
0.0
 20
0.0
 11
297.0
 21
210.0
 12
0.0
 22
0.0
 32
0.0
 14
0.0
 24
0.0
 34
0.0
 15
0.0
 25
0.0
 35
0.0
146
0.0
 13
0.0
 23
0.0
 33
0.0
 16
1.0
 26
0.0
 36
0.0
 17
0.0
 27
1.0
 37
0.0
 76
0
330
211
345
0
346
0
  0
ENDSEC
  0
EOF
