  0
SECTION
  2
HEADER
  9
$ACADVER
  1
AC1015
  9
$DWGCODEPAGE
  3
ANSI_1252
  9
$EXTMAX
 10
297.0
 20
210.0
 30
0.0
  9
$EXTMIN
 10
0.0
 20
0.0
 30
0.0
  9
$LIMMIN
 10
0.0
 20
0.0
  9
$LIMMAX
 10
297.0
 20
210.0
  9
$VIEWCTR
 10
148.5
 20
105.0
  9
$VIEWSIZE
 40
210.0
  9
$CLAYER
  8
0
  9
$LTSCALE
 40
16.335
  9
$CELTYPE
  6
BYLAYER
  9
$DIMSCALE
 40
1.0
  9
$DIMASZ
 40
3.0
  9
$DIMEXO
 40
1.85625
  9
$DIMDLI
 40
11.286
  9
$DIMEXE
 40
5.346
  9
$DIMCEN
 40
2.673
  9
$DIMLFAC
 40
1.0
  9
$DIMBLK
  1
_FILLED
  9
$DIMTXT
 40
3.0
  9
$DIMTOL
 70
1
  9
$DIMLIM
 70
0
  9
$DIMTFAC
 40
1.0
  9
$DIMTP
 40
0.01
  9
$DIMTM
 40
0.01
  9
$PDMODE
 70
3
  9
$PDSIZE
 40
3.0
  9
$HANDSEED
  5
2F5
  9
$TILEMODE
 70
1
  9
$MEASUREMENT
 70
1
  9
$INSUNITS
 70
4
  0
ENDSEC
  0
SECTION
  2
CLASSES
  0
CLASS
  1
ACDBDICTIONARYWDFLT
  2
AcDbDictionaryWithDefault
  3
AutoCAD 2000
 90
0
280
0
281
0
  0
CLASS
  1
ACDBPLACEHOLDER
  2
AcDbPlaceHolder
  3
AutoCAD 2000
 90
0
280
0
281
0
  0
CLASS
  1
LAYOUT
  2
AcDbLayout
  3
AutoCAD 2000
 90
0
280
0
281
0
  0
ENDSEC
  0
SECTION
  2
TABLES
  0
TABLE
  2
VPORT
  5
8
100
AcDbSymbolTable
 70
2
  0
VPORT
  5
1F4
100
AcDbSymbolTableRecord
100
AcDbViewportTableRecord
  2
*ACTIVE
 70
0
 10
0.0
 20
0.0
 11
1.0
 21
1.0
 12
148.5
 22
105.0
 13
0.0
 23
0.0
 14
1.0
 24
1.0
 15
0.0
 25
0.0
 16
0.0
 26
0.0
 36
1.0
 17
0.0
 27
0.0
 37
0.0
 40
210.0
 41
1.4142857143
 42
50.0
 43
0.0
 44
0.0
 50
0.0
 51
0.0
 71
0
 72
100
 73
1
 74
1
 75
0
 76
0
 77
0
 78
0
  0
ENDTAB
  0
TABLE
  2
LTYPE
  5
5
100
AcDbSymbolTable
 70
6
  0
LTYPE
  5
14
100
AcDbSymbolTableRecord
100
AcDbLinetypeTableRecord
  2
BYBLOCK
 70
0
  3

 72
65
 73
0
 40
0.0
  0
LTYPE
  5
15
100
AcDbSymbolTableRecord
100
AcDbLinetypeTableRecord
  2
BYLAYER
 70
0
  3

 72
65
 73
0
 40
0.0
  0
LTYPE
  5
16
100
AcDbSymbolTableRecord
100
AcDbLinetypeTableRecord
  2
CONTINUOUS
 70
64
  3
Solid line
 72
65
 73
0
 40
0.0
  0
LTYPE
  5
1F5
100
AcDbSymbolTableRecord
100
AcDbLinetypeTableRecord
  2
CENTER
 70
64
  3
____ _ ____ _ ____ _ ____ _ ____ _ ____ _ ____
 72
65
 73
4
 40
0.6
 49
0.375
 74
0
 49
-0.075
 74
0
 49
0.075
 74
0
 49
-0.075
 74
0
  0
LTYPE
  5
1F6
100
AcDbSymbolTableRecord
100
AcDbLinetypeTableRecord
  2
HIDDEN
 70
64
  3
- - - - - - - - - - - - - - - - - - - -
 72
65
 73
2
 40
0.2
 49
0.1
 74
0
 49
-0.1
 74
0
  0
LTYPE
  5
1F7
100
AcDbSymbolTableRecord
100
AcDbLinetypeTableRecord
  2
PHANTOM
 70
64
  3
_____ _ _ _____ _ _ _____ _ _ _____
 72
65
 73
6
 40
0.8
 49
0.45
 74
0
 49
-0.05
 74
0
 49
0.1
 74
0
 49
-0.05
 74
0
 49
0.1
 74
0
 49
-0.05
 74
0
  0
LTYPE
  5
1F8
100
AcDbSymbolTableRecord
100
AcDbLinetypeTableRecord
  2
DOT
 70
64
  3
. . . . . . . . . . . . . . . . . . . .
 72
65
 73
2
 40
0.2
 49
0.1
 74
0
 49
-0.1
 74
0
  0
LTYPE
  5
1F9
100
AcDbSymbolTableRecord
100
AcDbLinetypeTableRecord
  2
DASHED
 70
64
  3
- - - - - - - - - - - - - - - - - - - -
 72
65
 73
2
 40
0.2
 49
0.1
 74
0
 49
-0.1
 74
0
  0
ENDTAB
  0
TABLE
  2
LAYER
  5
2
100
AcDbSymbolTable
 70
36
  0
LAYER
  5
10
100
AcDbSymbolTableRecord
100
AcDbLayerTableRecord
  2
0
 70
0
 62
7
  6
CONTINUOUS
370
-3
390
F
  0
LAYER
  5
1FA
100
AcDbSymbolTableRecord
100
AcDbLayerTableRecord
  2
DEFAULT_1
 70
0
 62
7
  6
CENTER
370
-3
390
F
  0
LAYER
  5
1FB
100
AcDbSymbolTableRecord
100
AcDbLayerTableRecord
  2
DEFAULT_2
 70
0
 62
7
  6
HIDDEN
370
-3
390
F
  0
LAYER
  5
1FC
100
AcDbSymbolTableRecord
100
AcDbLayerTableRecord
  2
DEFAULT_3
 70
0
 62
7
  6
PHANTOM
370
-3
390
F
  0
LAYER
  5
1FD
100
AcDbSymbolTableRecord
100
AcDbLayerTableRecord
  2
ASSI
 70
0
 62
7
  6
CONTINUOUS
370
-3
390
F
  0
LAYER
  5
1FE
100
AcDbSymbolTableRecord
100
AcDbLayerTableRecord
  2
COORDINATE
 70
0
 62
7
  6
CONTINUOUS
370
-3
390
F
  0
LAYER
  5
1FF
100
AcDbSymbolTableRecord
100
AcDbLayerTableRecord
  2
COORD_ORIGINE
 70
0
 62
7
  6
CONTINUOUS
370
-3
390
F
  0
LAYER
  5
200
100
AcDbSymbolTableRecord
100
AcDbLayerTableRecord
  2
COPY_PUBLISH
 70
0
 62
7
  6
CONTINUOUS
370
-3
390
F
  0
LAYER
  5
201
100
AcDbSymbolTableRecord
100
AcDbLayerTableRecord
  2
COSMETIC
 70
0
 62
7
  6
CONTINUOUS
370
-3
390
F
  0
LAYER
  5
202
100
AcDbSymbolTableRecord
100
AcDbLayerTableRecord
  2
CURVE
 70
0
 62
7
  6
CONTINUOUS
370
-3
390
F
  0
LAYER
  5
203
100
AcDbSymbolTableRecord
100
AcDbLayerTableRecord
  2
DRAFT
 70
0
 62
7
  6
CONTINUOUS
370
-3
390
F
  0
LAYER
  5
204
100
AcDbSymbolTableRecord
100
AcDbLayerTableRecord
  2
IGES
 70
0
 62
7
  6
CONTINUOUS
370
-3
390
F
  0
LAYER
  5
205
100
AcDbSymbolTableRecord
100
AcDbLayerTableRecord
  2
IMPORT_IGES
 70
0
 62
7
  6
CONTINUOUS
370
-3
390
F
  0
LAYER
  5
206
100
AcDbSymbolTableRecord
100
AcDbLayerTableRecord
  2
INTF_12
 70
0
 62
7
  6
CONTINUOUS
370
-3
390
F
  0
LAYER
  5
207
100
AcDbSymbolTableRecord
100
AcDbLayerTableRecord
  2
INTF_9
 70
0
 62
7
  6
CONTINUOUS
370
-3
390
F
  0
LAYER
  5
208
100
AcDbSymbolTableRecord
100
AcDbLayerTableRecord
  2
NOTE
 70
0
 62
7
  6
CONTINUOUS
370
-3
390
F
  0
LAYER
  5
209
100
AcDbSymbolTableRecord
100
AcDbLayerTableRecord
  2
PIANI
 70
0
 62
7
  6
CONTINUOUS
370
-3
390
F
  0
LAYER
  5
20A
100
AcDbSymbolTableRecord
100
AcDbLayerTableRecord
  2
PIANI_ORIGINE
 70
0
 62
7
  6
CONTINUOUS
370
-3
390
F
  0
LAYER
  5
20B
100
AcDbSymbolTableRecord
100
AcDbLayerTableRecord
  2
RACCORDO
 70
0
 62
7
  6
CONTINUOUS
370
-3
390
F
  0
LAYER
  5
20C
100
AcDbSymbolTableRecord
100
AcDbLayerTableRecord
  2
SMUSSO
 70
0
 62
7
  6
CONTINUOUS
370
-3
390
F
  0
LAYER
  5
20D
100
AcDbSymbolTableRecord
100
AcDbLayerTableRecord
  2
SNAPLINE
 70
0
 62
7
  6
CONTINUOUS
370
-3
390
F
  0
LAYER
  5
20E
100
AcDbSymbolTableRecord
100
AcDbLayerTableRecord
  2
SUPERFICI
 70
0
 62
7
  6
CONTINUOUS
370
-3
390
F
  0
LAYER
  5
20F
100
AcDbSymbolTableRecord
100
AcDbLayerTableRecord
  2
TRASH
 70
0
 62
7
  6
CONTINUOUS
370
-3
390
F
  0
ENDTAB
  0
TABLE
  2
STYLE
  5
3
100
AcDbSymbolTable
 70
1
  0
STYLE
  5
11
100
AcDbSymbolTableRecord
100
AcDbTextStyleTableRecord
  2
STANDARD
 70
0
 40
0.0
 41
0.8
 50
0.0
 71
0
 42
0.2
  3
txt
  4

  0
STYLE
  5
210
100
AcDbSymbolTableRecord
100
AcDbTextStyleTableRecord
  2
TEXTSTYLE_1
 70
0
 40
0.0
 41
0.8
 50
0.0
 71
0
 42
0.2
  3
gdt
  4

  0
ENDTAB
  0
TABLE
  2
VIEW
  5
6
100
AcDbSymbolTable
 70
0
  0
ENDTAB
  0
TABLE
  2
UCS
  5
7
100
AcDbSymbolTable
 70
0
  0
ENDTAB
  0
TABLE
  2
APPID
  5
9
100
AcDbSymbolTable
 70
1
  0
APPID
  5
211
100
AcDbSymbolTableRecord
100
AcDbRegAppTableRecord
  2
ACAD
 70
0
  0
ENDTAB
  0
TABLE
  2
BLOCK_RECORD
  5
1
100
AcDbSymbolTable
 70
0
  0
BLOCK_RECORD
  5
212
100
AcDbSymbolTableRecord
100
AcDbBlockTableRecord
  2
*Model_Space
  0
BLOCK_RECORD
  5
213
100
AcDbSymbolTableRecord
100
AcDbBlockTableRecord
  2
*Paper_Space
  0
BLOCK_RECORD
  5
214
100
AcDbSymbolTableRecord
100
AcDbBlockTableRecord
  2
_FILLED
  0
BLOCK_RECORD
  5
215
100
AcDbSymbolTableRecord
100
AcDbBlockTableRecord
  2
*D0
  0
BLOCK_RECORD
  5
216
100
AcDbSymbolTableRecord
100
AcDbBlockTableRecord
  2
*D1
  0
BLOCK_RECORD
  5
217
100
AcDbSymbolTableRecord
100
AcDbBlockTableRecord
  2
*D2
  0
ENDTAB
  0
TABLE
  2
DIMSTYLE
  5
A
100
AcDbSymbolTable
 70
1
100
AcDbDimStyleTable
 71
0
  0
DIMSTYLE
105
218
100
AcDbSymbolTableRecord
100
AcDbDimStyleTableRecord
  2
STANDARD
 70
0
  3

  4

 40
1.0
 41
3.0
 42
0.0625
 43
0.38
 44
0.18
 45
0.0
 46
0.0
 47
0.01
 48
0.01
140
3.0
141
0.09
142
0.0
143
25.4
144
1.0
145
0.0
146
1.0
147
0.09
 71
1.0
 72
0.0
 73
0
 74
0
 75
0
 76
0
 77
1
 78
8
170
0
171
2
172
0
173
0
174
0
175
0
176
0
177
0
178
0
270
2
271
2
272
2
273
2
274
2
275
0
280
0
281
0
282
0
283
1
284
8
285
0
286
0
287
3
288
0
340
11
341
214
342
214
343
214
344
214
  0
DIMSTYLE
105
219
100
AcDbSymbolTableRecord
100
AcDbDimStyleTableRecord
  2
DIMSTYLE_1
 70
0
  3

  4

 40
1.0
 41
3.0
 42
0.0625
 43
0.38
 44
0.18
 45
0.0
 46
0.0
 47
0.0
 48
0.0
140
3.0
141
0.09
142
0.0
143
25.4
144
1.0
145
0.0
146
1.0
147
0.09
 71
0.0
 72
0.0
 73
0
 74
0
 75
0
 76
0
 77
1
 78
8
170
0
171
2
172
0
173
0
174
0
175
0
176
0
177
0
178
0
270
2
271
2
272
2
273
2
274
2
275
0
280
0
281
0
282
0
283
1
284
8
285
0
286
0
287
3
288
0
340
11
341
214
342
214
343
214
344
214
  0
DIMSTYLE
105
21A
100
AcDbSymbolTableRecord
100
AcDbDimStyleTableRecord
  2
DIMSTYLE_2
 70
0
  3

  4

 40
1.0
 41
3.0
 42
0.0625
 43
0.38
 44
0.18
 45
0.0
 46
0.0
 47
0.0
 48
0.0
140
3.0
141
0.09
142
0.0
143
25.4
144
1.0
145
0.0
146
1.0
147
0.09
 71
0.0
 72
0.0
 73
0
 74
0
 75
0
 76
0
 77
1
 78
8
170
0
171
2
172
0
173
0
174
0
175
0
176
0
177
0
178
0
270
2
271
1
272
1
273
2
274
2
275
0
280
0
281
0
282
0
283
1
284
8
285
0
286
0
287
3
288
0
340
11
341
214
342
214
343
214
344
214
  0
ENDTAB
  0
ENDSEC
  0
SECTION
  2
BLOCKS
  0
BLOCK
  5
20
100
AcDbEntity
  8
0
100
AcDbBlockBegin
  2
*Model_Space
 70
0
 10
0.0
 20
0.0
 30
0.0
  3
*Model_Space
  1

  0
ENDBLK
  5
21
100
AcDbEntity
  8
0
100
AcDbBlockEnd
  0
BLOCK
  5
1C
100
AcDbEntity
  8
0
100
AcDbBlockBegin
  2
*Paper_Space
 70
0
 10
0.0
 20
0.0
 30
0.0
  3
*Paper_Space
  1

  0
ENDBLK
  5
1D
100
AcDbEntity
  8
0
100
AcDbBlockEnd
  0
BLOCK
  5
21B
100
AcDbEntity
  8
0
100
AcDbBlockBegin
  2
_FILLED
 70
64
 10
0.0
 20
0.0
  3
_FILLED
  1

  0
SOLID
  5
21C
100
AcDbEntity
  8
0
  6
BYBLOCK
 62
0
100
AcDbTrace
 10
0.0
 20
0.0
 11
-1.0
 21
0.3166666667
 12
-1.0
 22
-0.3166666667
 13
-1.0
 23
-0.3166666667
  0
ENDBLK
  5
21D
100
AcDbEntity
  8
0
  6
BYBLOCK
 62
0
100
AcDbBlockEnd
  0
BLOCK
  5
21E
100
AcDbEntity
  8
0
100
AcDbBlockBegin
 62
7
  6
CONTINUOUS
  2
*D0
 70
65
 10
0.0
 20
0.0
  3
*D0
  1

  0
MTEXT
  5
21F
100
AcDbEntity
  8
0
100
AcDbMText
 62
7
  6
CONTINUOUS
  7
STANDARD
 71
2
 72
1
 10
9.4844582116
 20
20.977509387
 30
0.0
 11
1.0
 21
0.0
 31
0.0
 44
0.9
  1
24,6
 40
3.0
 41
8.7857142857
  0
LINE
  5
220
100
AcDbEntity
  8
0
100
AcDbLine
 62
7
  6
CONTINUOUS
 10
21.7844582116
 20
8.4751441922
 11
21.7844582116
 21
18.727509387
  0
LINE
  5
221
100
AcDbEntity
  8
0
100
AcDbLine
 62
7
  6
CONTINUOUS
 10
-2.8155417884
 20
8.4751441922
 11
-2.8155417884
 21
18.727509387
  0
LINE
  5
222
100
AcDbEntity
  8
0
100
AcDbLine
 62
7
  6
CONTINUOUS
 10
21.7844582116
 20
17.227509387
 11
9.4844582116
 21
17.227509387
  0
LINE
  5
223
100
AcDbEntity
  8
0
100
AcDbLine
 62
7
  6
CONTINUOUS
 10
-2.8155417884
 20
17.227509387
 11
9.4844582116
 21
17.227509387
  0
INSERT
  5
224
100
AcDbEntity
  8
0
100
AcDbBlockReference
 62
7
  6
CONTINUOUS
  2
_FILLED
 10
21.7844582116
 20
17.227509387
 41
3.0
 42
3.0
 43
3.0
  0
INSERT
  5
225
100
AcDbEntity
  8
0
100
AcDbBlockReference
 62
7
  6
CONTINUOUS
  2
_FILLED
 10
-2.8155417884
 20
17.227509387
 41
3.0
 42
3.0
 43
3.0
 50
180.0
  0
ENDBLK
  5
226
100
AcDbEntity
  8
0
  6
BYBLOCK
 62
0
100
AcDbBlockEnd
  0
BLOCK
  5
227
100
AcDbEntity
  8
0
100
AcDbBlockBegin
 62
7
  6
CONTINUOUS
  2
*D1
 70
65
 10
0.0
 20
0.0
  3
*D1
  1

  0
MTEXT
  5
228
100
AcDbEntity
  8
0
100
AcDbMText
 62
7
  6
CONTINUOUS
  7
STANDARD
 71
2
 72
1
 10
26.0344582116
 20
-0.0155112521
 30
0.0
 11
0.0
 21
1.0
 31
0.0
 44
0.9
  1
18,5
 40
3.0
 41
7.9285714286
  0
LINE
  5
229
100
AcDbEntity
  8
0
100
AcDbLine
 62
7
  6
CONTINUOUS
 10
22.0275142618
 20
9.227509387
 11
31.2844582116
 21
9.227509387
  0
LINE
  5
22A
100
AcDbEntity
  8
0
100
AcDbLine
 62
7
  6
CONTINUOUS
 10
21.170503757
 20
-9.2585318912
 11
31.2844582116
 21
-9.2585318912
  0
LINE
  5
22B
100
AcDbEntity
  8
0
100
AcDbLine
 62
7
  6
CONTINUOUS
 10
29.7844582116
 20
9.227509387
 11
29.7844582116
 21
-0.0155112521
  0
LINE
  5
22C
100
AcDbEntity
  8
0
100
AcDbLine
 62
7
  6
CONTINUOUS
 10
29.7844582116
 20
-9.2585318912
 11
29.7844582116
 21
-0.0155112521
  0
INSERT
  5
22D
100
AcDbEntity
  8
0
100
AcDbBlockReference
 62
7
  6
CONTINUOUS
  2
_FILLED
 10
29.7844582116
 20
9.227509387
 41
3.0
 42
3.0
 43
3.0
 50
90.0
  0
INSERT
  5
22E
100
AcDbEntity
  8
0
100
AcDbBlockReference
 62
7
  6
CONTINUOUS
  2
_FILLED
 10
29.7844582116
 20
-9.2585318912
 41
3.0
 42
3.0
 43
3.0
 50
270.0
  0
ENDBLK
  5
22F
100
AcDbEntity
  8
0
  6
BYBLOCK
 62
0
100
AcDbBlockEnd
  0
BLOCK
  5
230
100
AcDbEntity
  8
0
100
AcDbBlockBegin
 62
7
  6
CONTINUOUS
  2
*D2
 70
65
 10
0.0
 20
0.0
  3
*D2
  1

  0
MTEXT
  5
231
100
AcDbEntity
  8
0
100
AcDbMText
 62
7
  6
CONTINUOUS
  7
STANDARD
 71
2
 72
1
 10
-13.8245124551
 20
20.977509387
 30
0.0
 11
1.0
 21
0.0
 31
0.0
 44
0.9
  1
6,5
 40
3.0
 41
6.2142857143
  0
LINE
  5
232
100
AcDbEntity
  8
0
100
AcDbLine
 62
7
  6
CONTINUOUS
 10
-10.5746673352
 20
6.2344914129
 11
-10.5746673352
 21
18.727509387
  0
LINE
  5
233
100
AcDbEntity
  8
0
100
AcDbLine
 62
7
  6
CONTINUOUS
 10
-17.074357575
 20
9.3837681559
 11
-17.074357575
 21
18.727509387
  0
LINE
  5
234
100
AcDbEntity
  8
0
100
AcDbLine
 62
7
  6
CONTINUOUS
 10
-10.5746673352
 20
17.227509387
 11
-6.5746673352
 21
17.227509387
  0
LINE
  5
235
100
AcDbEntity
  8
0
100
AcDbLine
 62
7
  6
CONTINUOUS
 10
-6.5746673352
 20
17.227509387
 11
-13.8245124551
 21
17.227509387
  0
LINE
  5
236
100
AcDbEntity
  8
0
100
AcDbLine
 62
7
  6
CONTINUOUS
 10
-17.074357575
 20
17.227509387
 11
-21.074357575
 21
17.227509387
  0
LINE
  5
237
100
AcDbEntity
  8
0
100
AcDbLine
 62
7
  6
CONTINUOUS
 10
-21.074357575
 20
17.227509387
 11
-13.8245124551
 21
17.227509387
  0
INSERT
  5
238
100
AcDbEntity
  8
0
100
AcDbBlockReference
 62
7
  6
CONTINUOUS
  2
_FILLED
 10
-10.5746673352
 20
17.227509387
 41
3.0
 42
3.0
 43
3.0
 50
180.0
  0
INSERT
  5
239
100
AcDbEntity
  8
0
100
AcDbBlockReference
 62
7
  6
CONTINUOUS
  2
_FILLED
 10
-17.074357575
 20
17.227509387
 41
3.0
 42
3.0
 43
3.0
  0
ENDBLK
  5
23A
100
AcDbEntity
  8
0
  6
BYBLOCK
 62
0
100
AcDbBlockEnd
  0
ENDSEC
  0
SECTION
  2
ENTITIES
  0
DIMENSION
  5
23B
100
AcDbEntity
  8
0
100
AcDbDimension
 62
7
  6
CONTINUOUS
  2
*D0
 10
-2.8155417884
 20
17.227509387
 11
5.0916010687
 21
19.477509387
 70
160
 71
2
 42
24.6
  3
DIMSTYLE_1
100
AcDbAlignedDimension
 13
21.7844582116
 23
8.4751441922
 14
-2.8155417884
 24
8.4751441922
 50
180.0
100
AcDbRotatedDimension
  0
DIMENSION
  5
23C
100
AcDbEntity
  8
0
100
AcDbDimension
 62
7
  6
CONTINUOUS
  2
*D1
 10
29.7844582116
 20
-9.2585318912
 11
29.3107500469
 21
-3.5595694542
 70
160
 71
2
 42
18.4860412781
  3
DIMSTYLE_2
100
AcDbAlignedDimension
 13
22.0275142618
 23
9.227509387
 14
21.170503757
 24
-9.2585318912
 50
270.0
100
AcDbRotatedDimension
  0
DIMENSION
  5
23D
100
AcDbEntity
  8
0
100
AcDbDimension
 62
7
  6
CONTINUOUS
  2
*D2
 10
-17.074357575
 20
17.227509387
 11
-16.9316553123
 21
19.477509387
 70
160
 71
2
 42
6.4996902397
  3
DIMSTYLE_1
100
AcDbAlignedDimension
 13
-10.5746673352
 23
6.2344914129
 14
-17.074357575
 24
9.3837681559
 50
180.0
100
AcDbRotatedDimension
  0
LINE
  5
23E
100
AcDbEntity
  8
RACCORDO
100
AcDbLine
 62
7
  6
CONTINUOUS
 10
-2.8155417884
 20
7.9751441922
 11
-2.8137048921
 21
7.9769810885
  0
LINE
  5
23F
100
AcDbEntity
  8
ASSI
100
AcDbLine
 62
7
  6
CONTINUOUS
 10
-2.8155417884
 20
7.9751441922
 11
-2.8137048921
 21
7.9769810885
  0
LINE
  5
240
100
AcDbEntity
  8
RACCORDO
100
AcDbLine
 62
7
  6
CONTINUOUS
 10
-2.8020487107
 20
-9.0087911186
 11
-2.8155417884
 21
-1.6540170237
  0
LINE
  5
241
100
AcDbEntity
  8
ASSI
100
AcDbLine
 62
7
  6
CONTINUOUS
 10
-2.8020487107
 20
-9.0087911186
 11
-2.8155417884
 21
-1.6540170237
  0
LINE
  5
242
100
AcDbEntity
  8
DRAFT
100
AcDbLine
 62
7
  6
CONTINUOUS
 10
-2.8155417884
 20
7.9751441922
 11
-2.8155417884
 21
-1.6540170237
  0
LINE
  5
243
100
AcDbEntity
  8
ASSI
100
AcDbLine
 62
7
  6
CONTINUOUS
 10
-2.8155417884
 20
7.9751441922
 11
-2.8155417884
 21
-1.6540170237
  0
LINE
  5
244
100
AcDbEntity
  8
RACCORDO
100
AcDbLine
 62
7
  6
CONTINUOUS
 10
-2.8085597625
 20
8.9775474632
 11
-2.8085597625
 21
8.2769353971
  0
LINE
  5
245
100
AcDbEntity
  8
ASSI
100
AcDbLine
 62
7
  6
CONTINUOUS
 10
-2.8085597625
 20
8.9775474632
 11
-2.8085597625
 21
8.2769353971
  0
LINE
  5
246
100
AcDbEntity
  8
RACCORDO
100
AcDbLine
 62
7
  6
CONTINUOUS
 10
-2.7893591911
 20
-9.002446842
 11
-2.7893591911
 21
-8.7124212666
  0
LINE
  5
247
100
AcDbEntity
  8
ASSI
100
AcDbLine
 62
7
  6
CONTINUOUS
 10
-2.7893591911
 20
-9.002446842
 11
-2.7893591911
 21
-8.7124212666
  0
LINE
  5
248
100
AcDbEntity
  8
RACCORDO
100
AcDbLine
 62
253
  6
CONTINUOUS
 10
-2.4651424863
 20
8.8837681559
 11
-2.4651424863
 21
9.1340540346
  0
LINE
  5
249
100
AcDbEntity
  8
ASSI
100
AcDbLine
 62
253
  6
CONTINUOUS
 10
-2.4709766572
 20
-7.4315080821
 11
-2.4651424863
 21
9.1340540346
  0
LINE
  5
24A
100
AcDbEntity
  8
RACCORDO
100
AcDbLine
 62
253
  6
CONTINUOUS
 10
-2.7893591911
 20
-8.7124212666
 11
-2.7317462869
 21
-8.1304291922
  0
LINE
  5
24B
100
AcDbEntity
  8
ASSI
100
AcDbLine
 62
253
  6
CONTINUOUS
 10
-2.7893591911
 20
-8.7124212666
 11
-2.7317462869
 21
-8.1304291922
  0
LINE
  5
24C
100
AcDbEntity
  8
RACCORDO
100
AcDbLine
 62
253
  6
CONTINUOUS
 10
-2.5400788691
 20
-8.9655085871
 11
-2.4817843631
 21
-8.3766311305
  0
LINE
  5
24D
100
AcDbEntity
  8
ASSI
100
AcDbLine
 62
253
  6
CONTINUOUS
 10
-2.5400788691
 20
-8.9655085871
 11
-2.4817843631
 21
-8.3766311305
  0
LINE
  5
24E
100
AcDbEntity
  8
RACCORDO
100
AcDbLine
 62
7
  6
CONTINUOUS
 10
-2.5515905316
 20
-9.2585334906
 11
-1.701590533
 21
-9.2585334906
  0
LINE
  5
24F
100
AcDbEntity
  8
RACCORDO
100
AcDbLine
 62
7
  6
CONTINUOUS
 10
20.6705069561
 20
-9.2585334906
 11
21.5205069547
 21
-9.2585334906
  0
LINE
  5
250
100
AcDbEntity
  8
DRAFT
100
AcDbLine
 62
7
  6
CONTINUOUS
 10
20.670503757
 20
-9.2585318912
 11
-1.7015873339
 21
-9.2585318912
  0
LINE
  5
251
100
AcDbEntity
  8
ASSI
100
AcDbLine
 62
7
  6
CONTINUOUS
 10
21.5205069547
 20
-9.2585334906
 11
-2.5515905316
 21
-9.2585334906
  0
LINE
  5
252
100
AcDbEntity
  8
RACCORDO
100
AcDbLine
 62
7
  6
CONTINUOUS
 10
21.5082756127
 20
-9.2524182854
 11
-2.5393591896
 21
-9.2524182854
  0
LINE
  5
253
100
AcDbEntity
  8
ASSI
100
AcDbLine
 62
7
  6
CONTINUOUS
 10
21.5082756127
 20
-9.2524182854
 11
-2.5393591896
 21
-9.2524182854
  0
LINE
  5
254
100
AcDbEntity
  8
RACCORDO
100
AcDbLine
 62
7
  6
CONTINUOUS
 10
21.5089952922
 20
-8.9655085871
 11
-2.5400788691
 21
-8.9655085871
  0
LINE
  5
255
100
AcDbEntity
  8
ASSI
100
AcDbLine
 62
7
  6
CONTINUOUS
 10
21.5089952922
 20
-8.9655085871
 11
-2.5400788691
 21
-8.9655085871
  0
LINE
  5
256
100
AcDbEntity
  8
RACCORDO
100
AcDbLine
 62
253
  6
CONTINUOUS
 10
-2.4817843631
 20
-8.3766311305
 11
21.4507007862
 21
-8.3766311305
  0
LINE
  5
257
100
AcDbEntity
  8
ASSI
100
AcDbLine
 62
253
  6
CONTINUOUS
 10
-2.4817843631
 20
-8.3766311305
 11
21.4507007862
 21
-8.3766311305
  0
LINE
  5
258
100
AcDbEntity
  8
RACCORDO
100
AcDbLine
 62
253
  6
CONTINUOUS
 10
-2.4709766572
 20
-7.4315080821
 11
21.4398930803
 21
-7.4315080821
  0
LINE
  5
259
100
AcDbEntity
  8
ASSI
100
AcDbLine
 62
253
  6
CONTINUOUS
 10
-2.4709766572
 20
-7.4315080821
 11
21.4398930803
 21
-7.4315080821
  0
LINE
  5
25A
100
AcDbEntity
  8
ASSI
100
AcDbLine
 62
253
  6
CONTINUOUS
 10
21.5082756127
 20
-9.2524182854
 11
21.5205069547
 21
-9.2585334906
  0
LINE
  5
25B
100
AcDbEntity
  8
RACCORDO
100
AcDbLine
 62
253
  6
CONTINUOUS
 10
21.7582756142
 20
-9.002446842
 11
21.7709651338
 21
-9.0087911186
  0
LINE
  5
25C
100
AcDbEntity
  8
ASSI
100
AcDbLine
 62
253
  6
CONTINUOUS
 10
21.7582756142
 20
-9.002446842
 11
21.7709651338
 21
-9.0087911186
  0
LINE
  5
25D
100
AcDbEntity
  8
RACCORDO
100
AcDbLine
 62
253
  6
CONTINUOUS
 10
-2.7151044102
 20
8.8840921109
 11
-2.8085597625
 21
8.9775474632
  0
LINE
  5
25E
100
AcDbEntity
  8
ASSI
100
AcDbLine
 62
253
  6
CONTINUOUS
 10
-2.7151044102
 20
8.8840921109
 11
-2.8085597625
 21
8.9775474632
  0
LINE
  5
25F
100
AcDbEntity
  8
RACCORDO
100
AcDbLine
 62
253
  6
CONTINUOUS
 10
-2.4651424863
 20
9.1340540346
 11
-2.5585978387
 21
9.227509387
  0
LINE
  5
260
100
AcDbEntity
  8
ASSI
100
AcDbLine
 62
253
  6
CONTINUOUS
 10
-2.4651424863
 20
9.1340540346
 11
-2.5585978387
 21
9.227509387
  0
LINE
  5
261
100
AcDbEntity
  8
RACCORDO
100
AcDbLine
 62
253
  6
CONTINUOUS
 10
21.5275142618
 20
9.227509387
 11
21.4340589094
 21
9.1340540346
  0
LINE
  5
262
100
AcDbEntity
  8
ASSI
100
AcDbLine
 62
253
  6
CONTINUOUS
 10
21.5275142618
 20
9.227509387
 11
21.4340589094
 21
9.1340540346
  0
LINE
  5
263
100
AcDbEntity
  8
RACCORDO
100
AcDbLine
 62
253
  6
CONTINUOUS
 10
21.7774761856
 20
8.9775474632
 11
21.6840208333
 21
8.8840921108
  0
LINE
  5
264
100
AcDbEntity
  8
ASSI
100
AcDbLine
 62
253
  6
CONTINUOUS
 10
21.7774761856
 20
8.9775474632
 11
21.6840208333
 21
8.8840921108
  0
LINE
  5
265
100
AcDbEntity
  8
RACCORDO
100
AcDbLine
 62
253
  6
CONTINUOUS
 10
-2.8020487107
 20
-9.0087911186
 11
-2.7893591911
 21
-9.002446842
  0
LINE
  5
266
100
AcDbEntity
  8
ASSI
100
AcDbLine
 62
253
  6
CONTINUOUS
 10
-2.8020487107
 20
-9.0087911186
 11
-2.7893591911
 21
-9.002446842
  0
LINE
  5
267
100
AcDbEntity
  8
ASSI
100
AcDbLine
 62
253
  6
CONTINUOUS
 10
-2.5515905316
 20
-9.2585334906
 11
-2.5393591896
 21
-9.2524182854
  0
LINE
  5
268
100
AcDbEntity
  8
DRAFT
100
AcDbLine
 62
7
  6
CONTINUOUS
 10
17.9969242021
 20
9.227509387
 11
17.7344582116
 21
9.1751441922
  0
LINE
  5
269
100
AcDbEntity
  8
ASSI
100
AcDbLine
 62
7
  6
CONTINUOUS
 10
17.9969242021
 20
9.227509387
 11
17.7344582116
 21
9.1751441922
  0
LINE
  5
26A
100
AcDbEntity
  8
DRAFT
100
AcDbLine
 62
7
  6
CONTINUOUS
 10
0.971992221
 20
9.227509387
 11
1.2344582116
 21
9.1751441922
  0
LINE
  5
26B
100
AcDbEntity
  8
ASSI
100
AcDbLine
 62
7
  6
CONTINUOUS
 10
0.971992221
 20
9.227509387
 11
1.2344582116
 21
9.1751441922
  0
LINE
  5
26C
100
AcDbEntity
  8
RACCORDO
100
AcDbLine
 62
253
  6
CONTINUOUS
 10
21.6840208332
 20
8.8840921108
 11
-2.4651424864
 21
8.8837681559
  0
LINE
  5
26D
100
AcDbEntity
  8
ASSI
100
AcDbLine
 62
253
  6
CONTINUOUS
 10
21.6840208332
 20
8.8840921108
 11
-2.4651424864
 21
8.8837681559
  0
LINE
  5
26E
100
AcDbEntity
  8
RACCORDO
100
AcDbLine
 62
253
  6
CONTINUOUS
 10
21.4340589094
 20
9.1340540346
 11
-2.4651424863
 21
9.1340540346
  0
LINE
  5
26F
100
AcDbEntity
  8
ASSI
100
AcDbLine
 62
253
  6
CONTINUOUS
 10
21.4340589094
 20
9.1340540346
 11
-2.4651424863
 21
9.1340540346
  0
LINE
  5
270
100
AcDbEntity
  8
DRAFT
100
AcDbLine
 62
7
  6
CONTINUOUS
 10
17.7344582116
 20
9.1751441922
 11
1.2344582116
 21
9.1751441922
  0
LINE
  5
271
100
AcDbEntity
  8
ASSI
100
AcDbLine
 62
7
  6
CONTINUOUS
 10
17.7344582116
 20
9.1751441922
 11
1.2344582116
 21
9.1751441922
  0
LINE
  5
272
100
AcDbEntity
  8
RACCORDO
100
AcDbLine
 62
7
  6
CONTINUOUS
 10
21.5275142618
 20
9.227509387
 11
17.9969242021
 21
9.227509387
  0
LINE
  5
273
100
AcDbEntity
  8
ASSI
100
AcDbLine
 62
7
  6
CONTINUOUS
 10
21.5275142618
 20
9.227509387
 11
17.9969242021
 21
9.227509387
  0
LINE
  5
274
100
AcDbEntity
  8
RACCORDO
100
AcDbLine
 62
7
  6
CONTINUOUS
 10
0.971992221
 20
9.227509387
 11
-2.5585978387
 21
9.227509387
  0
LINE
  5
275
100
AcDbEntity
  8
ASSI
100
AcDbLine
 62
7
  6
CONTINUOUS
 10
0.971992221
 20
9.227509387
 11
-2.5585978387
 21
9.227509387
  0
LINE
  5
276
100
AcDbEntity
  8
RACCORDO
100
AcDbLine
 62
253
  6
CONTINUOUS
 10
-2.4651424863
 20
8.8837681559
 11
-2.7151044101
 21
8.8840921108
  0
LINE
  5
277
100
AcDbEntity
  8
ASSI
100
AcDbLine
 62
253
  6
CONTINUOUS
 10
-2.4651424863
 20
8.8837681559
 11
-2.7151044101
 21
8.8840921108
  0
LINE
  5
278
100
AcDbEntity
  8
RACCORDO
100
AcDbLine
 62
253
  6
CONTINUOUS
 10
21.4507007862
 20
-8.3766311305
 11
21.5089952922
 21
-8.9655085871
  0
LINE
  5
279
100
AcDbEntity
  8
ASSI
100
AcDbLine
 62
253
  6
CONTINUOUS
 10
21.4507007862
 20
-8.3766311305
 11
21.5089952922
 21
-8.9655085871
  0
LINE
  5
27A
100
AcDbEntity
  8
RACCORDO
100
AcDbLine
 62
253
  6
CONTINUOUS
 10
21.70066271
 20
-8.1304291922
 11
21.7582756142
 21
-8.7124212666
  0
LINE
  5
27B
100
AcDbEntity
  8
ASSI
100
AcDbLine
 62
253
  6
CONTINUOUS
 10
21.70066271
 20
-8.1304291922
 11
21.7582756142
 21
-8.7124212666
  0
LINE
  5
27C
100
AcDbEntity
  8
RACCORDO
100
AcDbLine
 62
253
  6
CONTINUOUS
 10
21.4340589094
 20
8.8837681559
 11
21.4340589094
 21
9.1340540346
  0
LINE
  5
27D
100
AcDbEntity
  8
ASSI
100
AcDbLine
 62
253
  6
CONTINUOUS
 10
21.4398930803
 20
-7.4315080821
 11
21.4340589094
 21
9.1340540346
  0
LINE
  5
27E
100
AcDbEntity
  8
RACCORDO
100
AcDbLine
 62
7
  6
CONTINUOUS
 10
21.7582756142
 20
-8.7124212666
 11
21.7582756142
 21
-9.002446842
  0
LINE
  5
27F
100
AcDbEntity
  8
ASSI
100
AcDbLine
 62
7
  6
CONTINUOUS
 10
21.7582756142
 20
-8.7124212666
 11
21.7582756142
 21
-9.002446842
  0
LINE
  5
280
100
AcDbEntity
  8
RACCORDO
100
AcDbLine
 62
7
  6
CONTINUOUS
 10
21.7774761856
 20
8.2769353971
 11
21.7774761856
 21
8.9775474632
  0
LINE
  5
281
100
AcDbEntity
  8
ASSI
100
AcDbLine
 62
7
  6
CONTINUOUS
 10
21.7774761856
 20
8.2769353971
 11
21.7774761856
 21
8.9775474632
  0
LINE
  5
282
100
AcDbEntity
  8
DRAFT
100
AcDbLine
 62
7
  6
CONTINUOUS
 10
21.7844582116
 20
7.9751441922
 11
21.7844582116
 21
-1.6540170237
  0
LINE
  5
283
100
AcDbEntity
  8
ASSI
100
AcDbLine
 62
7
  6
CONTINUOUS
 10
21.7844582116
 20
7.9751441922
 11
21.7844582116
 21
-1.6540170237
  0
LINE
  5
284
100
AcDbEntity
  8
RACCORDO
100
AcDbLine
 62
7
  6
CONTINUOUS
 10
21.7709651338
 20
-9.0087911186
 11
21.7844582116
 21
-1.6540170237
  0
LINE
  5
285
100
AcDbEntity
  8
ASSI
100
AcDbLine
 62
7
  6
CONTINUOUS
 10
21.7709651338
 20
-9.0087911186
 11
21.7844582116
 21
-1.6540170237
  0
LINE
  5
286
100
AcDbEntity
  8
RACCORDO
100
AcDbLine
 62
7
  6
CONTINUOUS
 10
21.7844582116
 20
7.9751441922
 11
21.7826213152
 21
7.9769810885
  0
LINE
  5
287
100
AcDbEntity
  8
ASSI
100
AcDbLine
 62
7
  6
CONTINUOUS
 10
21.7844582116
 20
7.9751441922
 11
21.7826213152
 21
7.9769810885
  0
LINE
  5
288
100
AcDbEntity
  8
RACCORDO
100
AcDbLine
 62
7
  6
CONTINUOUS
 10
-12.5746673352
 20
-9.2524182854
 11
-11.8739342231
 21
-9.2585334906
  0
LINE
  5
289
100
AcDbEntity
  8
ASSI
100
AcDbLine
 62
7
  6
CONTINUOUS
 10
-12.5746673352
 20
-9.2524182854
 11
-11.8739342231
 21
-9.2585334906
  0
LINE
  5
28A
100
AcDbEntity
  8
RACCORDO
100
AcDbLine
 62
253
  6
CONTINUOUS
 10
-12.5746673352
 20
-9.002446842
 11
-11.847685242
 21
-9.0087911186
  0
LINE
  5
28B
100
AcDbEntity
  8
ASSI
100
AcDbLine
 62
253
  6
CONTINUOUS
 10
-12.5746673352
 20
-9.002446842
 11
-11.847685242
 21
-9.0087911186
  0
LINE
  5
28C
100
AcDbEntity
  8
RACCORDO
100
AcDbLine
 62
7
  6
CONTINUOUS
 10
-15.914357349
 20
-8.3766311305
 11
-12.5746673352
 21
-8.9655085871
  0
LINE
  5
28D
100
AcDbEntity
  8
ASSI
100
AcDbLine
 62
7
  6
CONTINUOUS
 10
-15.914357349
 20
-8.3766311305
 11
-12.5746673352
 21
-8.9655085871
  0
LINE
  5
28E
100
AcDbEntity
  8
RACCORDO
100
AcDbLine
 62
253
  6
CONTINUOUS
 10
-15.8753084062
 20
-8.1304291922
 11
-12.5746673352
 21
-8.7124212666
  0
LINE
  5
28F
100
AcDbEntity
  8
ASSI
100
AcDbLine
 62
253
  6
CONTINUOUS
 10
-15.8753084062
 20
-8.1304291922
 11
-12.5746673352
 21
-8.7124212666
  0
LINE
  5
290
100
AcDbEntity
  8
RACCORDO
100
AcDbLine
 62
253
  6
CONTINUOUS
 10
-16.4944814618
 20
-7.421586906
 11
-16.7399124986
 21
-7.4315077255
  0
LINE
  5
291
100
AcDbEntity
  8
ASSI
100
AcDbLine
 62
253
  6
CONTINUOUS
 10
-16.4944814618
 20
-7.421586906
 11
-16.7399124986
 21
-7.4315077255
  0
LINE
  5
292
100
AcDbEntity
  8
CURVE
100
AcDbLine
 62
253
  6
CONTINUOUS
 10
-16.9659324723
 20
-0.1807431021
 11
-16.9751301443
 21
0.2346537955
  0
LINE
  5
293
100
AcDbEntity
  8
RACCORDO
100
AcDbLine
 62
7
  6
CONTINUOUS
 10
-12.5746673352
 20
-9.2524182854
 11
-12.5746673352
 21
-8.7124212666
  0
LINE
  5
294
100
AcDbEntity
  8
ASSI
100
AcDbLine
 62
7
  6
CONTINUOUS
 10
-12.5746673352
 20
-9.2524182854
 11
-12.5746673352
 21
-8.7124212666
  0
LINE
  5
295
100
AcDbEntity
  8
RACCORDO
100
AcDbLine
 62
7
  6
CONTINUOUS
 10
-11.4746673352
 20
8.2769353971
 11
-11.4746673352
 21
9.227509387
  0
LINE
  5
296
100
AcDbEntity
  8
ASSI
100
AcDbLine
 62
7
  6
CONTINUOUS
 10
-11.4746673352
 20
8.2769353971
 11
-11.4746673352
 21
9.227509387
  0
LINE
  5
297
100
AcDbEntity
  8
DRAFT
100
AcDbLine
 62
7
  6
CONTINUOUS
 10
-11.0746673352
 20
7.9751441922
 11
-11.0746673352
 21
-1.6540170237
  0
LINE
  5
298
100
AcDbEntity
  8
ASSI
100
AcDbLine
 62
7
  6
CONTINUOUS
 10
-11.0746673352
 20
7.9751441922
 11
-11.0746673352
 21
-1.6540170237
  0
LINE
  5
299
100
AcDbEntity
  8
0
100
AcDbLine
 62
7
  6
CONTINUOUS
 10
-10.5746673352
 20
5.7344914129
 11
-10.5746673352
 21
3.9344914129
  0
LINE
  5
29A
100
AcDbEntity
  8
RACCORDO
100
AcDbLine
 62
7
  6
CONTINUOUS
 10
-11.8739342231
 20
-9.2585334906
 11
-11.0746673352
 21
-1.6540170237
  0
LINE
  5
29B
100
AcDbEntity
  8
ASSI
100
AcDbLine
 62
7
  6
CONTINUOUS
 10
-11.8739342231
 20
-9.2585334906
 11
-11.0746673352
 21
-1.6540170237
  0
LINE
  5
29C
100
AcDbEntity
  8
0
100
AcDbLine
 62
7
  6
CONTINUOUS
 10
-11.0746673352
 20
3.9094914129
 11
-10.5746673352
 21
3.9344914129
  0
LINE
  5
29D
100
AcDbEntity
  8
0
100
AcDbLine
 62
7
  6
CONTINUOUS
 10
-11.0746673352
 20
5.7594914129
 11
-10.5746673352
 21
5.7344914129
  0
LINE
  5
29E
100
AcDbEntity
  8
RACCORDO
100
AcDbLine
 62
7
  6
CONTINUOUS
 10
-11.0746673352
 20
7.9751441922
 11
-11.1799030572
 21
7.9769810885
  0
LINE
  5
29F
100
AcDbEntity
  8
ASSI
100
AcDbLine
 62
7
  6
CONTINUOUS
 10
-11.0746673352
 20
7.9751441922
 11
-11.1799030572
 21
7.9769810885
  0
LINE
  5
2A0
100
AcDbEntity
  8
RACCORDO
100
AcDbLine
 62
253
  6
CONTINUOUS
 10
-11.4746673352
 20
8.9775474632
 11
-16.8287208844
 21
8.8840921108
  0
LINE
  5
2A1
100
AcDbEntity
  8
ASSI
100
AcDbLine
 62
253
  6
CONTINUOUS
 10
-11.4746673352
 20
8.9775474632
 11
-16.8287208844
 21
8.8840921108
  0
LINE
  5
2A2
100
AcDbEntity
  8
RACCORDO
100
AcDbLine
 62
7
  6
CONTINUOUS
 10
-11.4746673352
 20
9.227509387
 11
-16.8287208865
 21
9.1340540346
  0
LINE
  5
2A3
100
AcDbEntity
  8
ASSI
100
AcDbLine
 62
7
  6
CONTINUOUS
 10
-11.4746673352
 20
9.227509387
 11
-16.8287208865
 21
9.1340540346
  0
LINE
  5
2A4
100
AcDbEntity
  8
RACCORDO
100
AcDbLine
 62
253
  6
CONTINUOUS
 10
-16.8287208865
 20
8.8840921108
 11
-17.074357575
 21
8.8837681559
  0
LINE
  5
2A5
100
AcDbEntity
  8
ASSI
100
AcDbLine
 62
253
  6
CONTINUOUS
 10
-16.8287208865
 20
8.8840921108
 11
-17.074357575
 21
8.8837681559
  0
CIRCLE
  5
2A6
100
AcDbEntity
  8
CURVE
100
AcDbCircle
 62
253
  6
CONTINUOUS
 10
9.4844582116
 20
-2.6655085871
 40
2.9
  0
CIRCLE
  5
2A7
100
AcDbEntity
  8
DRAFT
100
AcDbCircle
 62
7
  6
CONTINUOUS
 10
9.4844578675
 20
4.8347119587
 40
1.3135386721
  0
CIRCLE
  5
2A8
100
AcDbEntity
  8
ASSI
100
AcDbCircle
 62
7
  6
CONTINUOUS
 10
9.4844578675
 20
4.8347119587
 40
1.3135386721
  0
CIRCLE
  5
2A9
100
AcDbEntity
  8
DRAFT
100
AcDbCircle
 62
7
  6
CONTINUOUS
 10
9.4844582116
 20
4.8344914129
 40
1.3
  0
CIRCLE
  5
2AA
100
AcDbEntity
  8
ASSI
100
AcDbCircle
 62
7
  6
CONTINUOUS
 10
9.4844582116
 20
4.8344914129
 40
1.3
  0
CIRCLE
  5
2AB
100
AcDbEntity
  8
DRAFT
100
AcDbCircle
 62
7
  6
CONTINUOUS
 10
9.4844582116
 20
4.8344914129
 40
1.225
  0
CIRCLE
  5
2AC
100
AcDbEntity
  8
RACCORDO
100
AcDbCircle
 62
253
  6
CONTINUOUS
 10
9.4844582116
 20
4.8344914129
 40
1.2068524201
  0
CIRCLE
  5
2AD
100
AcDbEntity
  8
RACCORDO
100
AcDbCircle
 62
253
  6
CONTINUOUS
 10
9.4844582116
 20
4.8344914129
 40
1.1180464865
  0
ARC
  5
2AE
100
AcDbEntity
  8
RACCORDO
100
AcDbCircle
 62
253
  6
CONTINUOUS
 10
-2.4650516653
 20
8.8840012898
 40
0.2500532007
100
AcDbArc
 50
90.0208102483
 51
179.9791897517
  0
ARC
  5
2AF
100
AcDbEntity
  8
ASSI
100
AcDbCircle
 62
253
  6
CONTINUOUS
 10
-2.4650516653
 20
8.8840012898
 40
0.2500532007
100
AcDbArc
 50
90.0208102483
 51
179.9791897517
  0
ARC
  5
2B0
100
AcDbEntity
  8
RACCORDO
100
AcDbCircle
 62
253
  6
CONTINUOUS
 10
21.4339680849
 20
8.8840012864
 40
0.2500531776
100
AcDbArc
 50
0.0208110208
 51
89.979188934
  0
ARC
  5
2B1
100
AcDbEntity
  8
ASSI
100
AcDbCircle
 62
253
  6
CONTINUOUS
 10
21.4339680849
 20
8.8840012864
 40
0.2500531776
100
AcDbArc
 50
0.0208110208
 51
89.979188934
  0
ARC
  5
2B2
100
AcDbEntity
  8
RACCORDO
100
AcDbCircle
 62
7
  6
CONTINUOUS
 10
407.9252856059
 20
9.4344914129
 40
425.0
100
AcDbArc
 50
180.074245005
 51
182.2743633301
  0
ARC
  5
2B3
100
AcDbEntity
  8
ASSI
100
AcDbCircle
 62
7
  6
CONTINUOUS
 10
407.9252856059
 20
9.4344914129
 40
425.0
100
AcDbArc
 50
180.074245005
 51
182.2743633301
  0
ARC
  5
2B4
100
AcDbEntity
  8
CURVE
100
AcDbCircle
 62
253
  6
CONTINUOUS
 10
407.859631725
 20
9.4325748927
 40
424.9343181687
100
AcDbArc
 50
181.6314587257
 51
181.7852600042
  0
ARC
  5
2B5
100
AcDbEntity
  8
RACCORDO
100
AcDbCircle
 62
253
  6
CONTINUOUS
 10
407.9209322378
 20
9.4344915591
 40
424.7500097316
100
AcDbArc
 50
180.074245023
 51
182.2743632977
  0
ARC
  5
2B6
100
AcDbEntity
  8
ASSI
100
AcDbCircle
 62
253
  6
CONTINUOUS
 10
407.9209322378
 20
9.4344915591
 40
424.7500097316
100
AcDbArc
 50
180.074245023
 51
182.2743632977
  0
ARC
  5
2B7
100
AcDbEntity
  8
RACCORDO
100
AcDbCircle
 62
7
  6
CONTINUOUS
 10
-15.7407091713
 20
-7.3918233774
 40
1.0
100
AcDbArc
 50
182.2743633301
 51
260.0
  0
ARC
  5
2B8
100
AcDbEntity
  8
ASSI
100
AcDbCircle
 62
7
  6
CONTINUOUS
 10
-15.7407091713
 20
-7.3918233774
 40
1.0
100
AcDbArc
 50
182.2743633301
 51
260.0
  0
ARC
  5
2B9
100
AcDbEntity
  8
RACCORDO
100
AcDbCircle
 62
253
  6
CONTINUOUS
 10
-15.7450716048
 20
-7.3918227939
 40
0.7500006907
100
AcDbArc
 50
182.2744058521
 51
259.999957478
  0
ARC
  5
2BA
100
AcDbEntity
  8
ASSI
100
AcDbCircle
 62
253
  6
CONTINUOUS
 10
-15.7450716048
 20
-7.3918227939
 40
0.7500006907
100
AcDbArc
 50
182.2744058521
 51
259.999957478
  0
ARC
  5
2BB
100
AcDbEntity
  8
RACCORDO
100
AcDbCircle
 62
7
  6
CONTINUOUS
 10
-11.1746673352
 20
8.2769353971
 40
0.3
100
AcDbArc
 50
180.0
 51
269.0
  0
ARC
  5
2BC
100
AcDbEntity
  8
ASSI
100
AcDbCircle
 62
7
  6
CONTINUOUS
 10
-11.1746673352
 20
8.2769353971
 40
0.3
100
AcDbArc
 50
180.0
 51
269.0
  0
ARC
  5
2BD
100
AcDbEntity
  8
RACCORDO
100
AcDbCircle
 62
7
  6
CONTINUOUS
 10
-16.8243577849
 20
8.8840921108
 40
0.25
100
AcDbArc
 50
91.0
 51
180.074245005
  0
ARC
  5
2BE
100
AcDbEntity
  8
ASSI
100
AcDbCircle
 62
7
  6
CONTINUOUS
 10
-16.8243577849
 20
8.8840921108
 40
0.25
100
AcDbArc
 50
91.0
 51
180.074245005
  0
SPLINE
  5
2BF
100
AcDbEntity
  8
RACCORDO
100
AcDbSpline
 62
253
  6
CONTINUOUS
 70
0
 71
3
 72
11
 73
7
 74
5
 42
0.0000001
 43
0.0000001
 44
0.0000000001
 12
0.0011902478
 22
-0.3868382137
 32
0.0
 13
0.3868383214
 23
-0.0011547111
 33
0.0
 40
0.0
 40
0.0
 40
0.0
 40
0.0
 40
0.2481425819
 40
0.4975232625
 40
0.7483526478
 40
1.0
 40
1.0
 40
1.0
 40
1.0
 10
-2.7317462869
 20
-8.1304291922
 30
0.0
 10
-2.7316478365
 20
-8.1624262032
 30
0.0
 10
-2.7184036802
 20
-8.2272472248
 30
0.0
 10
-2.6626047496
 20
-8.3089432626
 30
0.0
 10
-2.5796742292
 20
-8.3636243612
 30
0.0
 10
-2.5142333095
 20
-8.376534271
 30
0.0
 10
-2.4817843631
 20
-8.376631131
 30
0.0
 11
-2.7317462869
 21
-8.1304291922
 31
0.0
 11
-2.7125031937
 21
-8.2244721028
 31
0.0
 11
-2.6582694273
 21
-8.3042545768
 31
0.0
 11
-2.5772682727
 21
-8.3576755365
 31
0.0
 11
-2.4817843631
 21
-8.376631131
 31
0.0
  0
SPLINE
  5
2C0
100
AcDbEntity
  8
RACCORDO
100
AcDbSpline
 62
253
  6
CONTINUOUS
 70
0
 71
3
 72
11
 73
7
 74
5
 42
0.0000001
 43
0.0000001
 44
0.0000000001
 12
0.1007369336
 22
-0.2292793437
 32
0.0
 13
0.2504334586
 23
-0.0001733424
 33
0.0
 40
0.0
 40
0.0
 40
0.0
 40
0.0
 40
0.0822915139
 40
0.3001698808
 40
0.6219901233
 40
1.0
 40
1.0
 40
1.0
 40
1.0
 10
-2.720938581
 20
-7.421586906
 30
0.0
 10
-2.718175316
 20
-7.4278761541
 30
0.0
 10
-2.6845910624
 20
-7.4217521798
 30
0.0
 10
-2.6402087734
 20
-7.4318291188
 30
0.0
 10
-2.5599055408
 20
-7.4299692111
 30
0.0
 10
-2.5025320974
 20
-7.4314862404
 30
0.0
 10
-2.4709766572
 20
-7.4315080821
 30
0.0
 11
-2.720938581
 21
-7.421586906
 31
0.0
 11
-2.7006754222
 21
-7.4253441484
 31
0.0
 11
-2.6462051571
 21
-7.428541856
 31
0.0
 11
-2.5656395842
 21
-7.4307038213
 31
0.0
 11
-2.4709766572
 21
-7.4315080821
 31
0.0
  0
SPLINE
  5
2C1
100
AcDbEntity
  8
RACCORDO
100
AcDbSpline
 62
253
  6
CONTINUOUS
 70
0
 71
3
 72
11
 73
7
 74
5
 42
0.0000001
 43
0.0000001
 44
0.0000000001
 12
-0.0011902476
 22
-0.3868382125
 32
0.0
 13
-0.3868383202
 23
-0.0011547048
 33
0.0
 40
0.0
 40
0.0
 40
0.0
 40
0.0
 40
0.2481496322
 40
0.4975322055
 40
0.7483586193
 40
1.0
 40
1.0
 40
1.0
 40
1.0
 10
21.70066271
 20
-8.1304291922
 30
0.0
 10
21.7005642568
 20
-8.1624271123
 30
0.0
 10
21.6873194662
 20
-8.2272493428
 30
0.0
 10
21.631519018
 20
-8.3089453348
 30
0.0
 10
21.5485886826
 20
-8.3636249127
 30
0.0
 10
21.4831489625
 20
-8.3765342733
 30
0.0
 10
21.4507007862
 20
-8.3766311305
 30
0.0
 11
21.70066271
 21
-8.1304291922
 31
0.0
 11
21.681418534
 21
-8.2244746648
 31
0.0
 11
21.6271833382
 21
-8.304257052
 31
0.0
 11
21.5461825179
 21
-8.3576764302
 31
0.0
 11
21.4507007862
 21
-8.3766311305
 31
0.0
  0
SPLINE
  5
2C2
100
AcDbEntity
  8
RACCORDO
100
AcDbSpline
 62
253
  6
CONTINUOUS
 70
0
 71
3
 72
11
 73
7
 74
5
 42
0.0000001
 43
0.0000001
 44
0.0000000001
 12
-0.1008819843
 22
-0.2292154883
 32
0.0
 13
-0.2504333939
 23
-0.000173313
 33
0.0
 40
0.0
 40
0.0
 40
0.0
 40
0.0
 40
0.082299687
 40
0.3001800223
 40
0.6219967759
 40
1.0
 40
1.0
 40
1.0
 40
1.0
 10
21.689855004
 20
-7.421586906
 30
0.0
 10
21.6870874854
 20
-7.4278750269
 30
0.0
 10
21.6535108002
 20
-7.4217536397
 30
0.0
 10
21.6091202574
 20
-7.4318278298
 30
0.0
 10
21.5288216588
 20
-7.4299692988
 30
0.0
 10
21.4714479571
 20
-7.4314858879
 30
0.0
 10
21.4398930803
 20
-7.4315077255
 30
0.0
 11
21.689855004
 21
-7.421586906
 31
0.0
 11
21.6695897493
 21
-7.4253440423
 31
0.0
 11
21.6151189976
 21
-7.4285416336
 31
0.0
 11
21.5345543171
 21
-7.430703507
 31
0.0
 11
21.4398930803
 21
-7.4315077255
 31
0.0
  0
SPLINE
  5
2C3
100
AcDbEntity
  8
RACCORDO
100
AcDbSpline
 62
253
  6
CONTINUOUS
 70
0
 71
3
 72
13
 73
9
 74
7
 42
0.0000001
 43
0.0000001
 44
0.0000000001
 12
0.0699504283
 22
0.942650268
 32
0.0
 13
0.0004957988
 23
0.9452419502
 33
0.0
 40
0.0
 40
0.0
 40
0.0
 40
0.0
 40
0.0677735974
 40
0.1851013747
 40
0.3460122137
 40
0.5423316971
 40
0.7640939911
 40
1.0
 40
1.0
 40
1.0
 40
1.0
 10
-2.4817843631
 20
-8.3766311305
 30
0.0
 10
-2.480204099
 20
-8.3553355305
 30
0.0
 10
-2.4784104837
 20
-8.2970152806
 30
0.0
 10
-2.4759110098
 20
-8.1880371397
 30
0.0
 10
-2.4739567947
 20
-8.0385170803
 30
0.0
 10
-2.4723344921
 20
-7.8560973847
 30
0.0
 10
-2.4713007378
 20
-7.6500396605
 30
0.0
 10
-2.4710156445
 20
-7.5058375008
 30
0.0
 10
-2.4709766572
 20
-7.4315080821
 30
0.0
 11
-2.4817843631
 21
-8.3766311305
 31
0.0
 11
-2.4789518588
 21
-8.3126313241
 31
0.0
 11
-2.4763794924
 21
-8.2017580084
 31
0.0
 11
-2.474197993
 21
-8.0496739572
 31
0.0
 11
-2.4725183633
 21
-7.8641121219
 31
0.0
 11
-2.4714260111
 21
-7.654495916
 31
0.0
 11
-2.4709766572
 21
-7.4315080821
 31
0.0
  0
SPLINE
  5
2C4
100
AcDbEntity
  8
RACCORDO
100
AcDbSpline
 62
253
  6
CONTINUOUS
 70
0
 71
3
 72
13
 73
9
 74
7
 42
0.0000001
 43
0.0000001
 44
0.0000000001
 12
0.0004957988
 22
-0.9452419502
 32
0.0
 13
0.0699504281
 23
-0.9426502681
 33
0.0
 40
0.0
 40
0.0
 40
0.0
 40
0.0
 40
0.2359060089
 40
0.4576683029
 40
0.6539877863
 40
0.8148986253
 40
0.9322264026
 40
1.0
 40
1.0
 40
1.0
 40
1.0
 10
21.4398930803
 20
-7.4315080821
 30
0.0
 10
21.4399320676
 20
-7.5058375008
 30
0.0
 10
21.4402171609
 20
-7.6500396605
 30
0.0
 10
21.4412509152
 20
-7.8560973847
 30
0.0
 10
21.4428732178
 20
-8.0385170803
 30
0.0
 10
21.444827433
 20
-8.1880371397
 30
0.0
 10
21.4473269068
 20
-8.2970152806
 30
0.0
 10
21.4491205221
 20
-8.3553355305
 30
0.0
 10
21.4507007862
 20
-8.3766311305
 30
0.0
 11
21.4398930803
 21
-7.4315080821
 31
0.0
 11
21.4403424342
 21
-7.654495916
 31
0.0
 11
21.4414347864
 21
-7.8641121219
 31
0.0
 11
21.4431144161
 21
-8.0496739572
 31
0.0
 11
21.4452959155
 21
-8.2017580084
 31
0.0
 11
21.4478682819
 21
-8.3126313241
 31
0.0
 11
21.4507007862
 21
-8.3766311305
 31
0.0
  0
SPLINE
  5
2C5
100
AcDbEntity
  8
RACCORDO
100
AcDbSpline
 62
253
  6
CONTINUOUS
 70
0
 71
3
 72
13
 73
9
 74
7
 42
0.0000001
 43
0.0000001
 44
0.0000000001
 12
0.069752494
 22
0.7055614738
 32
0.0
 13
0.0004946771
 23
0.7090008173
 33
0.0
 40
0.0
 40
0.0
 40
0.0
 40
0.0
 40
0.067477859
 40
0.1848343948
 40
0.3459357263
 40
0.5426158844
 40
0.7647547131
 40
1.0
 40
1.0
 40
1.0
 40
1.0
 10
-2.7317462869
 20
-8.1304291922
 30
0.0
 10
-2.7301773705
 20
-8.1145592663
 30
0.0
 10
-2.7283747082
 20
-8.0708798006
 30
0.0
 10
-2.7258782842
 20
-7.9891812749
 30
0.0
 10
-2.7239184455
 20
-7.8768957714
 30
0.0
 10
-2.7222946846
 20
-7.7398539515
 30
0.0
 10
-2.7212618279
 20
-7.5852781604
 30
0.0
 10
-2.7209773711
 20
-7.4771832729
 30
0.0
 10
-2.720938581
 20
-7.421586906
 30
0.0
 11
-2.7317462869
 21
-8.1304291922
 31
0.0
 11
-2.7289236502
 21
-8.0826706627
 31
0.0
 11
-2.7263468797
 21
-7.9995046717
 31
0.0
 11
-2.7241613023
 21
-7.8853045803
 31
0.0
 11
-2.7224787274
 21
-7.7458683049
 31
0.0
 11
-2.7213857956
 21
-7.5883754477
 31
0.0
 11
-2.720938581
 21
-7.421586906
 31
0.0
  0
SPLINE
  5
2C6
100
AcDbEntity
  8
RACCORDO
100
AcDbSpline
 62
253
  6
CONTINUOUS
 70
0
 71
3
 72
10
 73
6
 74
4
 42
0.0000001
 43
0.0000001
 44
0.0000000001
 12
0.0113038298
 22
16.305676414
 32
0.0
 13
0.0003688181
 23
16.305680328
 33
0.0
 40
0.0
 40
0.0
 40
0.0
 40
0.0
 40
0.3332437898
 40
0.6665833822
 40
1.0
 40
1.0
 40
1.0
 40
1.0
 10
-2.720938581
 20
-7.421586906
 30
0.0
 10
-2.7196829373
 20
-5.6103317715
 30
0.0
 10
-2.7175767405
 20
-1.9873004994
 30
0.0
 10
-2.7156321792
 20
3.4479259709
 30
0.0
 10
-2.7151454002
 20
7.071897182
 30
0.0
 10
-2.7151044102
 20
8.8840921109
 30
0.0
 11
-2.720938581
 21
-7.421586906
 31
0.0
 11
-2.7177794811
 21
-1.9878211152
 31
0.0
 11
-2.7158347246
 21
3.447507372
 31
0.0
 11
-2.7151044102
 21
8.8840921109
 31
0.0
  0
SPLINE
  5
2C7
100
AcDbEntity
  8
RACCORDO
100
AcDbSpline
 62
253
  6
CONTINUOUS
 70
0
 71
3
 72
10
 73
6
 74
4
 42
0.0000001
 43
0.0000001
 44
0.0000000001
 12
0.0113038298
 22
16.3152736367
 32
0.0
 13
0.0003688181
 23
16.3152775484
 33
0.0
 40
0.0
 40
0.0
 40
0.0
 40
0.0
 40
0.3332434383
 40
0.6665824571
 40
1.0
 40
1.0
 40
1.0
 40
1.0
 10
-2.4709766572
 20
-7.4315080821
 30
0.0
 10
-2.4697210148
 20
-5.6191887878
 30
0.0
 10
-2.4676148205
 20
-1.9940300972
 30
0.0
 10
-2.4656702569
 20
3.4443954467
 30
0.0
 10
-2.4651834765
 20
7.0705015718
 30
0.0
 10
-2.4651424864
 20
8.8837681559
 30
0.0
 11
-2.4709766572
 21
-7.4315080821
 31
0.0
 11
-2.4678175601
 21
-1.9945498119
 31
0.0
 11
-2.4658728045
 21
3.443968451
 31
0.0
 11
-2.4651424864
 21
8.8837681559
 31
0.0
  0
SPLINE
  5
2C8
100
AcDbEntity
  8
RACCORDO
100
AcDbSpline
 62
253
  6
CONTINUOUS
 70
0
 71
3
 72
10
 73
6
 74
4
 42
0.0000001
 43
0.0000001
 44
0.0000000001
 12
0.0003688181
 22
-16.3056803279
 32
0.0
 13
0.0113038298
 23
-16.3056764139
 33
0.0
 40
0.0
 40
0.0
 40
0.0
 40
0.0
 40
0.3334166178
 40
0.6667562102
 40
1.0
 40
1.0
 40
1.0
 40
1.0
 10
21.6840208333
 20
8.8840921108
 30
0.0
 10
21.6840618233
 20
7.071897182
 30
0.0
 10
21.6845486024
 20
3.4479259708
 30
0.0
 10
21.6864931636
 20
-1.9873004994
 30
0.0
 10
21.6885993604
 20
-5.6103317715
 30
0.0
 10
21.6898550041
 20
-7.421586906
 30
0.0
 11
21.6840208333
 21
8.8840921108
 31
0.0
 11
21.6847511477
 21
3.4475073719
 31
0.0
 11
21.6866959043
 21
-1.9878211152
 31
0.0
 11
21.6898550041
 21
-7.421586906
 31
0.0
  0
SPLINE
  5
2C9
100
AcDbEntity
  8
RACCORDO
100
AcDbSpline
 62
253
  6
CONTINUOUS
 70
0
 71
3
 72
13
 73
9
 74
7
 42
0.0000001
 43
0.0000001
 44
0.0000000001
 12
0.0004946771
 22
-0.7090008173
 32
0.0
 13
0.0697524934
 23
-0.7055614738
 33
0.0
 40
0.0
 40
0.0
 40
0.0
 40
0.0
 40
0.2352452869
 40
0.4573841156
 40
0.6540642737
 40
0.8151656051
 40
0.9325221411
 40
1.0
 40
1.0
 40
1.0
 40
1.0
 10
21.6898550041
 20
-7.421586906
 30
0.0
 10
21.6898937942
 20
-7.4771832729
 30
0.0
 10
21.690178251
 20
-7.5852781604
 30
0.0
 10
21.6912111077
 20
-7.7398539515
 30
0.0
 10
21.6928348686
 20
-7.8768957714
 30
0.0
 10
21.6947947073
 20
-7.9891812749
 30
0.0
 10
21.6972911313
 20
-8.0708798006
 30
0.0
 10
21.6990937937
 20
-8.1145592663
 30
0.0
 10
21.70066271
 20
-8.1304291922
 30
0.0
 11
21.6898550041
 21
-7.421586906
 31
0.0
 11
21.6903022187
 21
-7.5883754477
 31
0.0
 11
21.6913951505
 21
-7.7458683049
 31
0.0
 11
21.6930777254
 21
-7.8853045803
 31
0.0
 11
21.6952633029
 21
-7.9995046717
 31
0.0
 11
21.6978400733
 21
-8.0826706628
 31
0.0
 11
21.70066271
 21
-8.1304291922
 31
0.0
  0
SPLINE
  5
2CA
100
AcDbEntity
  8
ASSI
100
AcDbSpline
 62
7
  6
CONTINUOUS
 70
0
 71
3
 72
26
 73
22
 74
20
 42
0.0000001
 43
0.0000001
 44
0.0000000001
 12
7.5245273328
 22
0.0
 32
0.0
 13
-7.5245273328
 23
0.0
 33
0.0
 40
0.0
 40
0.0
 40
0.0
 40
0.0
 40
0.0525110766
 40
0.1050659475
 40
0.1576757335
 40
0.2102146508
 40
0.2628696807
 40
0.3154318125
 40
0.3681645664
 40
0.4207860678
 40
0.473590599
 40
0.5262369109
 40
0.5790389163
 40
0.6316790221
 40
0.6844572014
 40
0.7370664067
 40
0.7897607685
 40
0.8423102194
 40
0.8949163168
 40
0.9474619409
 40
1.0
 40
1.0
 40
1.0
 40
1.0
 10
9.4844582116
 20
7.2270048769
 30
0.0
 10
9.616165222
 20
7.2270048769
 30
0.0
 10
9.8801983322
 20
7.2053431076
 30
0.0
 10
10.2654189826
 20
7.1086381868
 30
0.0
 10
10.6298158201
 20
6.9501803972
 30
0.0
 10
10.9635170723
 20
6.7340404087
 30
0.0
 10
11.2571307386
 20
6.4661061566
 30
0.0
 10
11.5029354132
 20
6.1531150599
 30
0.0
 10
11.6936709622
 20
5.8038940719
 30
0.0
 10
11.824184697
 20
5.4273534168
 30
0.0
 10
11.8904184657
 20
5.0345763513
 30
0.0
 10
11.8905358918
 20
4.6358140474
 30
0.0
 10
11.8245262733
 20
4.2429582073
 30
0.0
 10
11.6941675507
 20
3.8661980927
 30
0.0
 10
11.5034447983
 20
3.5166468668
 30
0.0
 10
11.2575136793
 20
3.2033280649
 30
0.0
 10
10.9637456194
 20
2.9351960279
 30
0.0
 10
10.6299502627
 20
2.7189860554
 30
0.0
 10
10.2655608949
 20
2.5605271194
 30
0.0
 10
9.8803111966
 20
2.4637977408
 30
0.0
 10
9.6162328987
 20
2.4421237352
 30
0.0
 10
9.4844582116
 20
2.4421237352
 30
0.0
 11
9.4844582116
 21
7.2270048769
 31
0.0
 11
9.8782536939
 21
7.1946668574
 31
0.0
 11
10.2618055244
 21
7.0983904817
 31
0.0
 11
10.6248207582
 21
6.940504235
 31
0.0
 11
10.9566203002
 21
6.7255733553
 31
0.0
 11
11.2492674862
 21
6.4584864739
 31
0.0
 11
11.493528588
 21
6.1474223722
 31
0.0
 11
11.6837064005
 21
5.7991782792
 31
0.0
 11
11.8133648455
 21
5.4250571562
 31
0.0
 11
11.8794249901
 21
5.0332580983
 31
0.0
 11
11.8795413013
 21
4.637119503
 31
0.0
 11
11.8137139474
 21
4.2453005384
 31
0.0
 11
11.6842142077
 21
3.8709763173
 31
0.0
 11
11.4940209273
 21
3.52235126
 31
0.0
 11
11.2496218165
 21
3.2109451885
 31
0.0
 11
10.9567847
 21
2.9436273906
 31
0.0
 11
10.624923126
 21
2.7286464857
 31
0.0
 11
10.2619352142
 21
2.570767011
 31
0.0
 11
9.8784549948
 21
2.4744911329
 31
0.0
 11
9.4844582116
 21
2.4421237352
 31
0.0
  0
SPLINE
  5
2CB
100
AcDbEntity
  8
ASSI
100
AcDbSpline
 62
7
  6
CONTINUOUS
 70
0
 71
3
 72
26
 73
22
 74
20
 42
0.0000001
 43
0.0000001
 44
0.0000000001
 12
-7.5245273329
 22
0.0
 32
0.0
 13
7.5245273329
 23
0.0
 33
0.0
 40
0.0
 40
0.0
 40
0.0
 40
0.0
 40
0.0525110341
 40
0.1050655381
 40
0.1576743928
 40
0.2102117292
 40
0.262864617
 40
0.3154243168
 40
0.3681547145
 40
0.420774355
 40
0.473577854
 40
0.5262241639
 40
0.5790271981
 40
0.6316691632
 40
0.6844497002
 40
0.7370613399
 40
0.7897578459
 40
0.8423088783
 40
0.8949159072
 40
0.9474618983
 40
1.0
 40
1.0
 40
1.0
 40
1.0
 10
9.4844582116
 20
2.4421237352
 30
0.0
 10
9.3527513079
 20
2.4421237352
 30
0.0
 10
9.0887193419
 20
2.4637826847
 30
0.0
 10
8.7034994952
 20
2.5604755484
 30
0.0
 10
8.3391028106
 20
2.7189149513
 30
0.0
 10
8.0054010332
 20
2.9350324879
 30
0.0
 10
7.7117864242
 20
3.2029428872
 30
0.0
 10
7.465980791
 20
3.5159113405
 30
0.0
 10
7.2752446524
 20
3.8651132509
 30
0.0
 10
7.144730897
 20
4.2416401714
 30
0.0
 10
7.0784976146
 20
4.634410073
 30
0.0
 10
7.0783808718
 20
5.0331723641
 30
0.0
 10
7.1443909783
 20
5.4260353454
 30
0.0
 10
7.274749683
 20
5.8028091813
 30
0.0
 10
7.465471846
 20
6.1523794853
 30
0.0
 10
7.7114020042
 20
6.4657209449
 30
0.0
 10
8.00516912
 20
6.7338768511
 30
0.0
 10
8.3389639525
 20
6.950109285
 30
0.0
 10
8.7033534739
 20
7.1085866097
 30
0.0
 10
9.0886039746
 20
7.2053280494
 30
0.0
 10
9.3526834174
 20
7.2270048769
 30
0.0
 10
9.4844582116
 20
7.2270048769
 30
0.0
 11
9.4844582116
 21
2.4421237352
 31
0.0
 11
9.0906627292
 21
2.4744578405
 31
0.0
 11
8.7071108987
 21
2.5707228779
 31
0.0
 11
8.344095665
 21
2.7285915528
 31
0.0
 11
8.0122961229
 21
2.9435005526
 31
0.0
 11
7.7196489369
 21
3.2105635233
 31
0.0
 11
7.4753878352
 21
3.5216043574
 31
0.0
 11
7.2852100226
 21
3.8698282491
 31
0.0
 11
7.1555515776
 21
4.2439345527
 31
0.0
 11
7.089491433
 21
4.6357257338
 31
0.0
 11
7.0893751218
 21
5.0318643151
 31
0.0
 11
7.1552024757
 21
5.4236911294
 31
0.0
 11
7.2847022154
 21
5.7980301546
 31
0.0
 11
7.4748954958
 21
6.1466754196
 31
0.0
 11
7.7192946066
 21
6.4581047771
 31
0.0
 11
8.0121317231
 21
6.7254465051
 31
0.0
 11
8.3439932971
 21
6.9404492963
 31
0.0
 11
8.706981209
 21
7.0983463436
 31
0.0
 11
9.0904614283
 21
7.194633561
 31
0.0
 11
9.4844582116
 21
7.2270048769
 31
0.0
  0
SPLINE
  5
2CC
100
AcDbEntity
  8
RACCORDO
100
AcDbSpline
 62
253
  6
CONTINUOUS
 70
0
 71
3
 72
10
 73
6
 74
4
 42
0.0000001
 43
0.0000001
 44
0.0000000001
 12
0.0003688181
 22
-16.3152775484
 32
0.0
 13
0.0113038298
 23
-16.3152736367
 33
0.0
 40
0.0
 40
0.0
 40
0.0
 40
0.0
 40
0.3334174783
 40
0.6667565294
 40
1.0
 40
1.0
 40
1.0
 40
1.0
 10
21.4340589097
 20
8.8837681559
 30
0.0
 10
21.4340998998
 20
7.0705019234
 30
0.0
 10
21.4345866799
 20
3.4443959742
 30
0.0
 10
21.4365312434
 20
-1.9940295697
 30
0.0
 10
21.4386374378
 20
-5.619188612
 30
0.0
 10
21.4398930803
 20
-7.4315080821
 30
0.0
 11
21.4340589097
 21
8.8837681559
 31
0.0
 11
21.4347892273
 21
3.443969506
 31
0.0
 11
21.4367339829
 21
-1.9945492845
 31
0.0
 11
21.4398930803
 21
-7.4315080821
 31
0.0
  0
SPLINE
  5
2CD
100
AcDbEntity
  8
ASSI
100
AcDbSpline
 62
253
  6
CONTINUOUS
 70
0
 71
3
 72
11
 73
7
 74
5
 42
0.0000001
 43
0.0000001
 44
0.0000000001
 12
0.0011902478
 22
-0.3868382137
 32
0.0
 13
0.3868383214
 23
-0.0011547111
 33
0.0
 40
0.0
 40
0.0
 40
0.0
 40
0.0
 40
0.2481425819
 40
0.4975232625
 40
0.7483526478
 40
1.0
 40
1.0
 40
1.0
 40
1.0
 10
-2.7317462869
 20
-8.1304291922
 30
0.0
 10
-2.7316478365
 20
-8.1624262032
 30
0.0
 10
-2.7184036802
 20
-8.2272472248
 30
0.0
 10
-2.6626047496
 20
-8.3089432626
 30
0.0
 10
-2.5796742292
 20
-8.3636243612
 30
0.0
 10
-2.5142333095
 20
-8.376534271
 30
0.0
 10
-2.4817843631
 20
-8.376631131
 30
0.0
 11
-2.7317462869
 21
-8.1304291922
 31
0.0
 11
-2.7125031937
 21
-8.2244721028
 31
0.0
 11
-2.6582694273
 21
-8.3042545768
 31
0.0
 11
-2.5772682727
 21
-8.3576755365
 31
0.0
 11
-2.4817843631
 21
-8.376631131
 31
0.0
  0
SPLINE
  5
2CE
100
AcDbEntity
  8
ASSI
100
AcDbSpline
 62
253
  6
CONTINUOUS
 70
0
 71
3
 72
11
 73
7
 74
5
 42
0.0000001
 43
0.0000001
 44
0.0000000001
 12
0.1007369336
 22
-0.2292793437
 32
0.0
 13
0.2504334586
 23
-0.0001733424
 33
0.0
 40
0.0
 40
0.0
 40
0.0
 40
0.0
 40
0.0822915139
 40
0.3001698808
 40
0.6219901233
 40
1.0
 40
1.0
 40
1.0
 40
1.0
 10
-2.720938581
 20
-7.421586906
 30
0.0
 10
-2.718175316
 20
-7.4278761541
 30
0.0
 10
-2.6845910624
 20
-7.4217521798
 30
0.0
 10
-2.6402087734
 20
-7.4318291188
 30
0.0
 10
-2.5599055408
 20
-7.4299692111
 30
0.0
 10
-2.5025320974
 20
-7.4314862404
 30
0.0
 10
-2.4709766572
 20
-7.4315080821
 30
0.0
 11
-2.720938581
 21
-7.421586906
 31
0.0
 11
-2.7006754222
 21
-7.4253441484
 31
0.0
 11
-2.6462051571
 21
-7.428541856
 31
0.0
 11
-2.5656395842
 21
-7.4307038213
 31
0.0
 11
-2.4709766572
 21
-7.4315080821
 31
0.0
  0
SPLINE
  5
2CF
100
AcDbEntity
  8
ASSI
100
AcDbSpline
 62
253
  6
CONTINUOUS
 70
0
 71
3
 72
11
 73
7
 74
5
 42
0.0000001
 43
0.0000001
 44
0.0000000001
 12
-0.0011902476
 22
-0.3868382125
 32
0.0
 13
-0.3868383202
 23
-0.0011547048
 33
0.0
 40
0.0
 40
0.0
 40
0.0
 40
0.0
 40
0.2481496322
 40
0.4975322055
 40
0.7483586193
 40
1.0
 40
1.0
 40
1.0
 40
1.0
 10
21.70066271
 20
-8.1304291922
 30
0.0
 10
21.7005642568
 20
-8.1624271123
 30
0.0
 10
21.6873194662
 20
-8.2272493428
 30
0.0
 10
21.631519018
 20
-8.3089453348
 30
0.0
 10
21.5485886826
 20
-8.3636249127
 30
0.0
 10
21.4831489625
 20
-8.3765342733
 30
0.0
 10
21.4507007862
 20
-8.3766311305
 30
0.0
 11
21.70066271
 21
-8.1304291922
 31
0.0
 11
21.681418534
 21
-8.2244746648
 31
0.0
 11
21.6271833382
 21
-8.304257052
 31
0.0
 11
21.5461825179
 21
-8.3576764302
 31
0.0
 11
21.4507007862
 21
-8.3766311305
 31
0.0
  0
SPLINE
  5
2D0
100
AcDbEntity
  8
ASSI
100
AcDbSpline
 62
253
  6
CONTINUOUS
 70
0
 71
3
 72
11
 73
7
 74
5
 42
0.0000001
 43
0.0000001
 44
0.0000000001
 12
-0.1008819843
 22
-0.2292154883
 32
0.0
 13
-0.2504333939
 23
-0.000173313
 33
0.0
 40
0.0
 40
0.0
 40
0.0
 40
0.0
 40
0.082299687
 40
0.3001800223
 40
0.6219967759
 40
1.0
 40
1.0
 40
1.0
 40
1.0
 10
21.689855004
 20
-7.421586906
 30
0.0
 10
21.6870874854
 20
-7.4278750269
 30
0.0
 10
21.6535108002
 20
-7.4217536397
 30
0.0
 10
21.6091202574
 20
-7.4318278298
 30
0.0
 10
21.5288216588
 20
-7.4299692988
 30
0.0
 10
21.4714479571
 20
-7.4314858879
 30
0.0
 10
21.4398930803
 20
-7.4315077255
 30
0.0
 11
21.689855004
 21
-7.421586906
 31
0.0
 11
21.6695897493
 21
-7.4253440423
 31
0.0
 11
21.6151189976
 21
-7.4285416336
 31
0.0
 11
21.5345543171
 21
-7.430703507
 31
0.0
 11
21.4398930803
 21
-7.4315077255
 31
0.0
  0
SPLINE
  5
2D1
100
AcDbEntity
  8
ASSI
100
AcDbSpline
 62
253
  6
CONTINUOUS
 70
0
 71
3
 72
13
 73
9
 74
7
 42
0.0000001
 43
0.0000001
 44
0.0000000001
 12
0.069752494
 22
0.7055614738
 32
0.0
 13
0.0004946771
 23
0.7090008173
 33
0.0
 40
0.0
 40
0.0
 40
0.0
 40
0.0
 40
0.067477859
 40
0.1848343948
 40
0.3459357263
 40
0.5426158844
 40
0.7647547131
 40
1.0
 40
1.0
 40
1.0
 40
1.0
 10
-2.7317462869
 20
-8.1304291922
 30
0.0
 10
-2.7301773705
 20
-8.1145592663
 30
0.0
 10
-2.7283747082
 20
-8.0708798006
 30
0.0
 10
-2.7258782842
 20
-7.9891812749
 30
0.0
 10
-2.7239184455
 20
-7.8768957714
 30
0.0
 10
-2.7222946846
 20
-7.7398539515
 30
0.0
 10
-2.7212618279
 20
-7.5852781604
 30
0.0
 10
-2.7209773711
 20
-7.4771832729
 30
0.0
 10
-2.720938581
 20
-7.421586906
 30
0.0
 11
-2.7317462869
 21
-8.1304291922
 31
0.0
 11
-2.7289236502
 21
-8.0826706627
 31
0.0
 11
-2.7263468797
 21
-7.9995046717
 31
0.0
 11
-2.7241613023
 21
-7.8853045803
 31
0.0
 11
-2.7224787274
 21
-7.7458683049
 31
0.0
 11
-2.7213857956
 21
-7.5883754477
 31
0.0
 11
-2.720938581
 21
-7.421586906
 31
0.0
  0
SPLINE
  5
2D2
100
AcDbEntity
  8
ASSI
100
AcDbSpline
 62
253
  6
CONTINUOUS
 70
0
 71
3
 72
10
 73
6
 74
4
 42
0.0000001
 43
0.0000001
 44
0.0000000001
 12
0.0113038298
 22
16.305676414
 32
0.0
 13
0.0003688181
 23
16.305680328
 33
0.0
 40
0.0
 40
0.0
 40
0.0
 40
0.0
 40
0.3332437898
 40
0.6665833822
 40
1.0
 40
1.0
 40
1.0
 40
1.0
 10
-2.720938581
 20
-7.421586906
 30
0.0
 10
-2.7196829373
 20
-5.6103317715
 30
0.0
 10
-2.7175767405
 20
-1.9873004994
 30
0.0
 10
-2.7156321792
 20
3.4479259709
 30
0.0
 10
-2.7151454002
 20
7.071897182
 30
0.0
 10
-2.7151044102
 20
8.8840921109
 30
0.0
 11
-2.720938581
 21
-7.421586906
 31
0.0
 11
-2.7177794811
 21
-1.9878211152
 31
0.0
 11
-2.7158347246
 21
3.447507372
 31
0.0
 11
-2.7151044102
 21
8.8840921109
 31
0.0
  0
SPLINE
  5
2D3
100
AcDbEntity
  8
ASSI
100
AcDbSpline
 62
253
  6
CONTINUOUS
 70
0
 71
3
 72
13
 73
9
 74
7
 42
0.0000001
 43
0.0000001
 44
0.0000000001
 12
0.0699504283
 22
0.942650268
 32
0.0
 13
0.0004957988
 23
0.9452419502
 33
0.0
 40
0.0
 40
0.0
 40
0.0
 40
0.0
 40
0.0677735974
 40
0.1851013747
 40
0.3460122137
 40
0.5423316971
 40
0.7640939911
 40
1.0
 40
1.0
 40
1.0
 40
1.0
 10
-2.4817843631
 20
-8.3766311305
 30
0.0
 10
-2.480204099
 20
-8.3553355305
 30
0.0
 10
-2.4784104837
 20
-8.2970152806
 30
0.0
 10
-2.4759110098
 20
-8.1880371397
 30
0.0
 10
-2.4739567947
 20
-8.0385170803
 30
0.0
 10
-2.4723344921
 20
-7.8560973847
 30
0.0
 10
-2.4713007378
 20
-7.6500396605
 30
0.0
 10
-2.4710156445
 20
-7.5058375008
 30
0.0
 10
-2.4709766572
 20
-7.4315080821
 30
0.0
 11
-2.4817843631
 21
-8.3766311305
 31
0.0
 11
-2.4789518588
 21
-8.3126313241
 31
0.0
 11
-2.4763794924
 21
-8.2017580084
 31
0.0
 11
-2.474197993
 21
-8.0496739572
 31
0.0
 11
-2.4725183633
 21
-7.8641121219
 31
0.0
 11
-2.4714260111
 21
-7.654495916
 31
0.0
 11
-2.4709766572
 21
-7.4315080821
 31
0.0
  0
SPLINE
  5
2D4
100
AcDbEntity
  8
ASSI
100
AcDbSpline
 62
253
  6
CONTINUOUS
 70
0
 71
3
 72
10
 73
6
 74
4
 42
0.0000001
 43
0.0000001
 44
0.0000000001
 12
0.0003688181
 22
-16.3056803279
 32
0.0
 13
0.0113038298
 23
-16.3056764139
 33
0.0
 40
0.0
 40
0.0
 40
0.0
 40
0.0
 40
0.3334166178
 40
0.6667562102
 40
1.0
 40
1.0
 40
1.0
 40
1.0
 10
21.6840208333
 20
8.8840921108
 30
0.0
 10
21.6840618233
 20
7.071897182
 30
0.0
 10
21.6845486024
 20
3.4479259708
 30
0.0
 10
21.6864931636
 20
-1.9873004994
 30
0.0
 10
21.6885993604
 20
-5.6103317715
 30
0.0
 10
21.6898550041
 20
-7.421586906
 30
0.0
 11
21.6840208333
 21
8.8840921108
 31
0.0
 11
21.6847511477
 21
3.4475073719
 31
0.0
 11
21.6866959043
 21
-1.9878211152
 31
0.0
 11
21.6898550041
 21
-7.421586906
 31
0.0
  0
SPLINE
  5
2D5
100
AcDbEntity
  8
ASSI
100
AcDbSpline
 62
253
  6
CONTINUOUS
 70
0
 71
3
 72
13
 73
9
 74
7
 42
0.0000001
 43
0.0000001
 44
0.0000000001
 12
0.0004946771
 22
-0.7090008173
 32
0.0
 13
0.0697524934
 23
-0.7055614738
 33
0.0
 40
0.0
 40
0.0
 40
0.0
 40
0.0
 40
0.2352452869
 40
0.4573841156
 40
0.6540642737
 40
0.8151656051
 40
0.9325221411
 40
1.0
 40
1.0
 40
1.0
 40
1.0
 10
21.6898550041
 20
-7.421586906
 30
0.0
 10
21.6898937942
 20
-7.4771832729
 30
0.0
 10
21.690178251
 20
-7.5852781604
 30
0.0
 10
21.6912111077
 20
-7.7398539515
 30
0.0
 10
21.6928348686
 20
-7.8768957714
 30
0.0
 10
21.6947947073
 20
-7.9891812749
 30
0.0
 10
21.6972911313
 20
-8.0708798006
 30
0.0
 10
21.6990937937
 20
-8.1145592663
 30
0.0
 10
21.70066271
 20
-8.1304291922
 30
0.0
 11
21.6898550041
 21
-7.421586906
 31
0.0
 11
21.6903022187
 21
-7.5883754477
 31
0.0
 11
21.6913951505
 21
-7.7458683049
 31
0.0
 11
21.6930777254
 21
-7.8853045803
 31
0.0
 11
21.6952633029
 21
-7.9995046717
 31
0.0
 11
21.6978400733
 21
-8.0826706628
 31
0.0
 11
21.70066271
 21
-8.1304291922
 31
0.0
  0
SPLINE
  5
2D6
100
AcDbEntity
  8
ASSI
100
AcDbSpline
 62
253
  6
CONTINUOUS
 70
0
 71
3
 72
13
 73
9
 74
7
 42
0.0000001
 43
0.0000001
 44
0.0000000001
 12
0.0004957988
 22
-0.9452419502
 32
0.0
 13
0.0699504281
 23
-0.9426502681
 33
0.0
 40
0.0
 40
0.0
 40
0.0
 40
0.0
 40
0.2359060089
 40
0.4576683029
 40
0.6539877863
 40
0.8148986253
 40
0.9322264026
 40
1.0
 40
1.0
 40
1.0
 40
1.0
 10
21.4398930803
 20
-7.4315080821
 30
0.0
 10
21.4399320676
 20
-7.5058375008
 30
0.0
 10
21.4402171609
 20
-7.6500396605
 30
0.0
 10
21.4412509152
 20
-7.8560973847
 30
0.0
 10
21.4428732178
 20
-8.0385170803
 30
0.0
 10
21.444827433
 20
-8.1880371397
 30
0.0
 10
21.4473269068
 20
-8.2970152806
 30
0.0
 10
21.4491205221
 20
-8.3553355305
 30
0.0
 10
21.4507007862
 20
-8.3766311305
 30
0.0
 11
21.4398930803
 21
-7.4315080821
 31
0.0
 11
21.4403424342
 21
-7.654495916
 31
0.0
 11
21.4414347864
 21
-7.8641121219
 31
0.0
 11
21.4431144161
 21
-8.0496739572
 31
0.0
 11
21.4452959155
 21
-8.2017580084
 31
0.0
 11
21.4478682819
 21
-8.3126313241
 31
0.0
 11
21.4507007862
 21
-8.3766311305
 31
0.0
  0
SPLINE
  5
2D7
100
AcDbEntity
  8
ASSI
100
AcDbSpline
 62
7
  6
CONTINUOUS
 70
0
 71
3
 72
26
 73
22
 74
20
 42
0.0000001
 43
0.0000001
 44
0.0000000001
 12
7.5245273328
 22
0.0
 32
0.0
 13
-7.5245273328
 23
0.0
 33
0.0
 40
0.0
 40
0.0
 40
0.0
 40
0.0
 40
0.0525110766
 40
0.1050659475
 40
0.1576757335
 40
0.2102146508
 40
0.2628696807
 40
0.3154318125
 40
0.3681645664
 40
0.4207860678
 40
0.473590599
 40
0.5262369109
 40
0.5790389163
 40
0.6316790221
 40
0.6844572014
 40
0.7370664067
 40
0.7897607685
 40
0.8423102194
 40
0.8949163168
 40
0.9474619409
 40
1.0
 40
1.0
 40
1.0
 40
1.0
 10
9.4844582116
 20
7.2270048769
 30
0.0
 10
9.616165222
 20
7.2270048769
 30
0.0
 10
9.8801983322
 20
7.2053431076
 30
0.0
 10
10.2654189826
 20
7.1086381868
 30
0.0
 10
10.6298158201
 20
6.9501803972
 30
0.0
 10
10.9635170723
 20
6.7340404087
 30
0.0
 10
11.2571307386
 20
6.4661061566
 30
0.0
 10
11.5029354132
 20
6.1531150599
 30
0.0
 10
11.6936709622
 20
5.8038940719
 30
0.0
 10
11.824184697
 20
5.4273534168
 30
0.0
 10
11.8904184657
 20
5.0345763513
 30
0.0
 10
11.8905358918
 20
4.6358140474
 30
0.0
 10
11.8245262733
 20
4.2429582073
 30
0.0
 10
11.6941675507
 20
3.8661980927
 30
0.0
 10
11.5034447983
 20
3.5166468668
 30
0.0
 10
11.2575136793
 20
3.2033280649
 30
0.0
 10
10.9637456194
 20
2.9351960279
 30
0.0
 10
10.6299502627
 20
2.7189860554
 30
0.0
 10
10.2655608949
 20
2.5605271194
 30
0.0
 10
9.8803111966
 20
2.4637977408
 30
0.0
 10
9.6162328987
 20
2.4421237352
 30
0.0
 10
9.4844582116
 20
2.4421237352
 30
0.0
 11
9.4844582116
 21
7.2270048769
 31
0.0
 11
9.8782536939
 21
7.1946668574
 31
0.0
 11
10.2618055244
 21
7.0983904817
 31
0.0
 11
10.6248207582
 21
6.940504235
 31
0.0
 11
10.9566203002
 21
6.7255733553
 31
0.0
 11
11.2492674862
 21
6.4584864739
 31
0.0
 11
11.493528588
 21
6.1474223722
 31
0.0
 11
11.6837064005
 21
5.7991782792
 31
0.0
 11
11.8133648455
 21
5.4250571562
 31
0.0
 11
11.8794249901
 21
5.0332580983
 31
0.0
 11
11.8795413013
 21
4.637119503
 31
0.0
 11
11.8137139474
 21
4.2453005384
 31
0.0
 11
11.6842142077
 21
3.8709763173
 31
0.0
 11
11.4940209273
 21
3.52235126
 31
0.0
 11
11.2496218165
 21
3.2109451885
 31
0.0
 11
10.9567847
 21
2.9436273906
 31
0.0
 11
10.624923126
 21
2.7286464857
 31
0.0
 11
10.2619352142
 21
2.570767011
 31
0.0
 11
9.8784549948
 21
2.4744911329
 31
0.0
 11
9.4844582116
 21
2.4421237352
 31
0.0
  0
SPLINE
  5
2D8
100
AcDbEntity
  8
ASSI
100
AcDbSpline
 62
7
  6
CONTINUOUS
 70
0
 71
3
 72
26
 73
22
 74
20
 42
0.0000001
 43
0.0000001
 44
0.0000000001
 12
-7.5245273329
 22
0.0
 32
0.0
 13
7.5245273329
 23
0.0
 33
0.0
 40
0.0
 40
0.0
 40
0.0
 40
0.0
 40
0.0525110341
 40
0.1050655381
 40
0.1576743928
 40
0.2102117292
 40
0.262864617
 40
0.3154243168
 40
0.3681547145
 40
0.420774355
 40
0.473577854
 40
0.5262241639
 40
0.5790271981
 40
0.6316691632
 40
0.6844497002
 40
0.7370613399
 40
0.7897578459
 40
0.8423088783
 40
0.8949159072
 40
0.9474618983
 40
1.0
 40
1.0
 40
1.0
 40
1.0
 10
9.4844582116
 20
2.4421237352
 30
0.0
 10
9.3527513079
 20
2.4421237352
 30
0.0
 10
9.0887193419
 20
2.4637826847
 30
0.0
 10
8.7034994952
 20
2.5604755484
 30
0.0
 10
8.3391028106
 20
2.7189149513
 30
0.0
 10
8.0054010332
 20
2.9350324879
 30
0.0
 10
7.7117864242
 20
3.2029428872
 30
0.0
 10
7.465980791
 20
3.5159113405
 30
0.0
 10
7.2752446524
 20
3.8651132509
 30
0.0
 10
7.144730897
 20
4.2416401714
 30
0.0
 10
7.0784976146
 20
4.634410073
 30
0.0
 10
7.0783808718
 20
5.0331723641
 30
0.0
 10
7.1443909783
 20
5.4260353454
 30
0.0
 10
7.274749683
 20
5.8028091813
 30
0.0
 10
7.465471846
 20
6.1523794853
 30
0.0
 10
7.7114020042
 20
6.4657209449
 30
0.0
 10
8.00516912
 20
6.7338768511
 30
0.0
 10
8.3389639525
 20
6.950109285
 30
0.0
 10
8.7033534739
 20
7.1085866097
 30
0.0
 10
9.0886039746
 20
7.2053280494
 30
0.0
 10
9.3526834174
 20
7.2270048769
 30
0.0
 10
9.4844582116
 20
7.2270048769
 30
0.0
 11
9.4844582116
 21
2.4421237352
 31
0.0
 11
9.0906627292
 21
2.4744578405
 31
0.0
 11
8.7071108987
 21
2.5707228779
 31
0.0
 11
8.344095665
 21
2.7285915528
 31
0.0
 11
8.0122961229
 21
2.9435005526
 31
0.0
 11
7.7196489369
 21
3.2105635233
 31
0.0
 11
7.4753878352
 21
3.5216043574
 31
0.0
 11
7.2852100226
 21
3.8698282491
 31
0.0
 11
7.1555515776
 21
4.2439345527
 31
0.0
 11
7.089491433
 21
4.6357257338
 31
0.0
 11
7.0893751218
 21
5.0318643151
 31
0.0
 11
7.1552024757
 21
5.4236911294
 31
0.0
 11
7.2847022154
 21
5.7980301546
 31
0.0
 11
7.4748954958
 21
6.1466754196
 31
0.0
 11
7.7192946066
 21
6.4581047771
 31
0.0
 11
8.0121317231
 21
6.7254465051
 31
0.0
 11
8.3439932971
 21
6.9404492963
 31
0.0
 11
8.706981209
 21
7.0983463436
 31
0.0
 11
9.0904614283
 21
7.194633561
 31
0.0
 11
9.4844582116
 21
7.2270048769
 31
0.0
  0
SPLINE
  5
2D9
100
AcDbEntity
  8
RACCORDO
100
AcDbSpline
 62
253
  6
CONTINUOUS
 70
0
 71
3
 72
11
 73
7
 74
5
 42
0.0000001
 43
0.0000001
 44
0.0000000001
 12
-0.0432841549
 22
-0.2455514343
 32
0.0
 13
0.2455491793
 23
-0.0432969454
 33
0.0
 40
0.0
 40
0.0
 40
0.0
 40
0.0
 40
0.3827689169
 40
0.7070452555
 40
0.9236831927
 40
1.0
 40
1.0
 40
1.0
 40
1.0
 10
-15.8753084062
 20
-8.1304291922
 30
0.0
 10
-15.8808310159
 20
-8.161759011
 30
0.0
 10
-15.8889348393
 20
-8.2180459655
 30
0.0
 10
-15.9082138912
 20
-8.2994787836
 30
0.0
 10
-15.902731923
 20
-8.338936231
 30
0.0
 10
-15.9206038588
 20
-8.3755297022
 30
0.0
 10
-15.914357349
 20
-8.3766311305
 30
0.0
 11
-15.8753084062
 21
-8.1304291922
 31
0.0
 11
-15.8915552514
 21
-8.2244746648
 31
0.0
 11
-15.9046763584
 21
-8.304257052
 31
0.0
 11
-15.9126817599
 21
-8.3576764302
 31
0.0
 11
-15.914357349
 21
-8.3766311305
 31
0.0
  0
SPLINE
  5
2DA
100
AcDbEntity
  8
RACCORDO
100
AcDbSpline
 62
253
  6
CONTINUOUS
 70
0
 71
3
 72
12
 73
8
 74
6
 42
0.0000001
 43
0.0000001
 44
0.0000000001
 12
-0.0043623064
 22
0.2499925102
 32
0.0
 13
0.2499924871
 23
0.0043636351
 33
0.0
 40
0.0
 40
0.0
 40
0.0
 40
0.0
 40
0.3098605754
 40
0.5892143267
 40
0.8103234085
 40
0.9518389381
 40
1.0
 40
1.0
 40
1.0
 40
1.0
 10
-16.8287208865
 20
8.8840921108
 30
0.0
 10
-16.8291714554
 20
8.9099130518
 30
0.0
 10
-16.8302809313
 20
8.9594825276
 30
0.0
 10
-16.8294171411
 20
9.0252137196
 30
0.0
 10
-16.833254014
 20
9.0833184294
 30
0.0
 10
-16.8257119785
 20
9.1088117529
 30
0.0
 10
-16.8327341877
 20
9.1339839822
 30
0.0
 10
-16.8287208865
 20
9.1340540346
 30
0.0
 11
-16.8287208865
 21
8.8840921108
 31
0.0
 11
-16.8298578368
 21
8.9615583835
 31
0.0
 11
-16.8304532282
 21
9.031402823
 31
0.0
 11
-16.830448635
 21
9.0866868521
 31
0.0
 11
-16.8298453961
 21
9.1220649177
 31
0.0
 11
-16.8287208865
 21
9.1340540346
 31
0.0
  0
SPLINE
  5
2DB
100
AcDbEntity
  8
ASSI
100
AcDbSpline
 62
253
  6
CONTINUOUS
 70
0
 71
3
 72
11
 73
7
 74
5
 42
0.0000001
 43
0.0000001
 44
0.0000000001
 12
-0.0432841549
 22
-0.2455514343
 32
0.0
 13
0.2455491793
 23
-0.0432969454
 33
0.0
 40
0.0
 40
0.0
 40
0.0
 40
0.0
 40
0.3827689169
 40
0.7070452555
 40
0.9236831927
 40
1.0
 40
1.0
 40
1.0
 40
1.0
 10
-15.8753084062
 20
-8.1304291922
 30
0.0
 10
-15.8808310159
 20
-8.161759011
 30
0.0
 10
-15.8889348393
 20
-8.2180459655
 30
0.0
 10
-15.9082138912
 20
-8.2994787836
 30
0.0
 10
-15.902731923
 20
-8.338936231
 30
0.0
 10
-15.9206038588
 20
-8.3755297022
 30
0.0
 10
-15.914357349
 20
-8.3766311305
 30
0.0
 11
-15.8753084062
 21
-8.1304291922
 31
0.0
 11
-15.8915552514
 21
-8.2244746648
 31
0.0
 11
-15.9046763584
 21
-8.304257052
 31
0.0
 11
-15.9126817599
 21
-8.3576764302
 31
0.0
 11
-15.914357349
 21
-8.3766311305
 31
0.0
  0
SPLINE
  5
2DC
100
AcDbEntity
  8
ASSI
100
AcDbSpline
 62
253
  6
CONTINUOUS
 70
0
 71
3
 72
12
 73
8
 74
6
 42
0.0000001
 43
0.0000001
 44
0.0000000001
 12
-0.0043623064
 22
0.2499925102
 32
0.0
 13
0.2499924871
 23
0.0043636351
 33
0.0
 40
0.0
 40
0.0
 40
0.0
 40
0.0
 40
0.3098605754
 40
0.5892143267
 40
0.8103234085
 40
0.9518389381
 40
1.0
 40
1.0
 40
1.0
 40
1.0
 10
-16.8287208865
 20
8.8840921108
 30
0.0
 10
-16.8291714554
 20
8.9099130518
 30
0.0
 10
-16.8302809313
 20
8.9594825276
 30
0.0
 10
-16.8294171411
 20
9.0252137196
 30
0.0
 10
-16.833254014
 20
9.0833184294
 30
0.0
 10
-16.8257119785
 20
9.1088117529
 30
0.0
 10
-16.8327341877
 20
9.1339839822
 30
0.0
 10
-16.8287208865
 20
9.1340540346
 30
0.0
 11
-16.8287208865
 21
8.8840921108
 31
0.0
 11
-16.8298578368
 21
8.9615583835
 31
0.0
 11
-16.8304532282
 21
9.031402823
 31
0.0
 11
-16.830448635
 21
9.0866868521
 31
0.0
 11
-16.8298453961
 21
9.1220649177
 31
0.0
 11
-16.8287208865
 21
9.1340540346
 31
0.0
  0
SPLINE
  5
2DD
100
AcDbEntity
  8
CURVE
100
AcDbSpline
 62
253
  6
CONTINUOUS
 70
0
 71
3
 72
20
 73
16
 74
14
 42
0.0000001
 43
0.0000001
 44
0.0000000001
 12
0.1942540398
 22
-6.2331110573
 32
0.0
 13
-0.1942664145
 23
6.233566531
 33
0.0
 40
0.0
 40
0.0
 40
0.0
 40
0.0
 40
0.0061642526
 40
0.0959582137
 40
0.1857521748
 40
0.2755461359
 40
0.365340097
 40
0.4551340581
 40
0.5449280192
 40
0.6347219803
 40
0.7245159414
 40
0.8143099025
 40
0.9041038636
 40
0.9938978247
 40
1.0
 40
1.0
 40
1.0
 40
1.0
 10
-16.868426754
 20
-3.8056688786
 30
0.0
 10
-16.8680276103
 20
-3.818476369
 30
0.0
 10
-16.8618238473
 20
-4.0172460221
 30
0.0
 10
-16.8501352214
 20
-4.3829955397
 30
0.0
 10
-16.8351562651
 20
-4.8351442929
 30
0.0
 10
-16.8228457304
 20
-5.1961500171
 30
0.0
 10
-16.8142415965
 20
-5.4431759332
 30
0.0
 10
-16.8097314796
 20
-5.5710341693
 30
0.0
 10
-16.8097338669
 20
-5.5709666057
 30
0.0
 10
-16.8142470764
 20
-5.4430202797
 30
0.0
 10
-16.8228562767
 20
-5.1958438396
 30
0.0
 10
-16.8351657984
 20
-4.8348619313
 30
0.0
 10
-16.8501504483
 20
-4.3825268375
 30
0.0
 10
-16.861831395
 20
-4.0170085912
 30
0.0
 10
-16.8680315034
 20
-3.8183512333
 30
0.0
 10
-16.8684266526
 20
-3.8056717947
 30
0.0
 11
-16.868426754
 21
-3.8056688786
 31
0.0
 11
-16.8672312472
 21
-3.8439733184
 31
0.0
 11
-16.8504639124
 21
-4.3699506681
 31
0.0
 11
-16.8356010021
 21
-4.8199537881
 31
0.0
 11
-16.8234634639
 21
-5.1771533824
 31
0.0
 11
-16.8149239327
 21
-5.4233146532
 31
0.0
 11
-16.8104835636
 21
-5.5497132026
 31
0.0
 11
-16.8104856706
 21
-5.5496534786
 31
0.0
 11
-16.8149297416
 21
-5.423148594
 31
0.0
 11
-16.8234729969
 21
-5.1768762616
 31
0.0
 11
-16.8356116531
 21
-4.8196364004
 31
0.0
 11
-16.8504772781
 21
-4.3695393868
 31
0.0
 11
-16.8672431173
 21
-3.8435935729
 31
0.0
 11
-16.8684266526
 21
-3.8056717947
 31
0.0
  0
SPLINE
  5
2DE
100
AcDbEntity
  8
CURVE
100
AcDbSpline
 62
253
  6
CONTINUOUS
 70
0
 71
3
 72
9
 73
5
 74
3
 42
0.0000001
 43
0.0000001
 44
0.0000000001
 12
-0.0196190286
 22
0.6888187726
 32
0.0
 13
-0.0177373435
 23
0.6595877952
 33
0.0
 40
0.0
 40
0.0
 40
0.0
 40
0.0
 40
0.8923775777
 40
1.0
 40
1.0
 40
1.0
 40
1.0
 10
-16.9024324163
 20
-2.6655085871
 30
0.0
 10
-16.9082682767
 20
-2.4606131112
 30
0.0
 10
-16.9144882659
 20
-2.2364682929
 30
0.0
 10
-16.9204324392
 20
-2.0161074815
 30
0.0
 10
-16.9210687512
 20
-1.9924453361
 30
0.0
 11
-16.9024324163
 21
-2.6655085871
 31
0.0
 11
-16.9191497919
 21
-2.0635828387
 31
0.0
 11
-16.9210687512
 21
-1.9924453361
 31
0.0
  0
ELLIPSE
  5
2DF
100
AcDbEntity
  8
RACCORDO
100
AcDbEllipse
 62
7
  6
CONTINUOUS
 10
-2.813796282
 20
8.2769353971
 30
0.0
 11
0.0
 21
0.3
 31
0.0
 40
0.0174550649
 41
-3.1241393611
 42
-1.5707963268
  0
ELLIPSE
  5
2E0
100
AcDbEntity
  8
RACCORDO
100
AcDbEllipse
 62
7
  6
CONTINUOUS
 10
21.7827127051
 20
8.2769353971
 30
0.0
 11
-0.0
 21
0.3
 31
0.0
 40
0.0174550649
 41
-4.7123889804
 42
-3.1590459461
  0
ELLIPSE
  5
2E1
100
AcDbEntity
  8
RACCORDO
100
AcDbEllipse
 62
7
  6
CONTINUOUS
 10
-2.5585216805
 20
8.9774713049
 30
0.0
 11
0.1768305473
 21
-0.1768305473
 31
0.0
 40
0.9996954599
 41
2.3563467834
 42
3.9268385237
  0
ELLIPSE
  5
2E2
100
AcDbEntity
  8
RACCORDO
100
AcDbEllipse
 62
7
  6
CONTINUOUS
 10
21.5274381036
 20
8.9774713049
 30
0.0
 11
0.1768305473
 21
0.1768305473
 31
0.0
 40
0.9996954599
 41
-0.7852458702
 42
0.7852458701
  0
ELLIPSE
  5
2E3
100
AcDbEntity
  8
RACCORDO
100
AcDbEllipse
 62
7
  6
CONTINUOUS
 10
21.5209271216
 20
-9.0087530773
 30
0.0
 11
0.2183310446
 21
0.1221043275
 31
0.0
 40
0.9980297029
 41
-2.0815635429
 42
-0.5109195152
  0
ELLIPSE
  5
2E4
100
AcDbEntity
  8
RACCORDO
100
AcDbEllipse
 62
7
  6
CONTINUOUS
 10
-2.5520106985
 20
-9.0087530773
 30
0.0
 11
0.2183310446
 21
-0.1221043275
 31
0.0
 40
0.9980297029
 41
-2.6306731384
 42
-1.0600291107
  0
ELLIPSE
  5
2E5
100
AcDbEntity
  8
RACCORDO
100
AcDbEllipse
 62
7
  6
CONTINUOUS
 10
-2.539321109
 20
-8.7116519341
 30
0.0
 11
0.0250113895
 21
0.2526592035
 31
0.0
 40
0.9846622838
 41
-4.6121910857
 42
-3.0444253421
  0
ELLIPSE
  5
2E6
100
AcDbEntity
  8
RACCORDO
100
AcDbEllipse
 62
7
  6
CONTINUOUS
 10
-2.539321109
 20
-9.0024087658
 30
0.0
 11
0.2236527791
 21
0.1118178731
 31
0.0
 40
0.9998096356
 41
2.6780516535
 42
4.2486956813
  0
ELLIPSE
  5
2E7
100
AcDbEntity
  8
RACCORDO
100
AcDbEllipse
 62
7
  6
CONTINUOUS
 10
21.5082375322
 20
-9.0024087658
 30
0.0
 11
0.2236527791
 21
-0.1118178731
 31
0.0
 40
0.9998096356
 41
-1.1071030277
 42
0.4635410001
  0
ELLIPSE
  5
2E8
100
AcDbEntity
  8
RACCORDO
100
AcDbEllipse
 62
7
  6
CONTINUOUS
 10
21.5082375322
 20
-8.7116519341
 30
0.0
 11
-0.0250113895
 21
0.2526592035
 31
0.0
 40
0.9846622838
 41
-3.2387599651
 42
-1.6709942215
  0
ELLIPSE
  5
2E9
100
AcDbEntity
  8
ASSI
100
AcDbEllipse
 62
7
  6
CONTINUOUS
 10
-2.813796282
 20
8.2769353971
 30
0.0
 11
0.0
 21
0.3
 31
0.0
 40
0.0174550649
 41
-3.1241393611
 42
-1.5707963268
  0
ELLIPSE
  5
2EA
100
AcDbEntity
  8
ASSI
100
AcDbEllipse
 62
7
  6
CONTINUOUS
 10
21.7827127051
 20
8.2769353971
 30
0.0
 11
-0.0
 21
0.3
 31
0.0
 40
0.0174550649
 41
-4.7123889804
 42
-3.1590459461
  0
ELLIPSE
  5
2EB
100
AcDbEntity
  8
ASSI
100
AcDbEllipse
 62
7
  6
CONTINUOUS
 10
-2.5585216805
 20
8.9774713049
 30
0.0
 11
0.1768305473
 21
-0.1768305473
 31
0.0
 40
0.9996954599
 41
2.3563467834
 42
3.9268385237
  0
ELLIPSE
  5
2EC
100
AcDbEntity
  8
ASSI
100
AcDbEllipse
 62
7
  6
CONTINUOUS
 10
21.5274381036
 20
8.9774713049
 30
0.0
 11
0.1768305473
 21
0.1768305473
 31
0.0
 40
0.9996954599
 41
-0.7852458702
 42
0.7852458701
  0
ELLIPSE
  5
2ED
100
AcDbEntity
  8
ASSI
100
AcDbEllipse
 62
7
  6
CONTINUOUS
 10
21.5209271216
 20
-9.0087530773
 30
0.0
 11
0.2183310446
 21
0.1221043275
 31
0.0
 40
0.9980297029
 41
-2.0815635429
 42
-0.5109195152
  0
ELLIPSE
  5
2EE
100
AcDbEntity
  8
ASSI
100
AcDbEllipse
 62
7
  6
CONTINUOUS
 10
-2.5520106985
 20
-9.0087530773
 30
0.0
 11
0.2183310446
 21
-0.1221043275
 31
0.0
 40
0.9980297029
 41
-2.6306731384
 42
-1.0600291107
  0
ELLIPSE
  5
2EF
100
AcDbEntity
  8
ASSI
100
AcDbEllipse
 62
7
  6
CONTINUOUS
 10
-2.539321109
 20
-8.7116519341
 30
0.0
 11
0.0250113895
 21
0.2526592035
 31
0.0
 40
0.9846622838
 41
-4.6121910857
 42
-3.0444253421
  0
ELLIPSE
  5
2F0
100
AcDbEntity
  8
ASSI
100
AcDbEllipse
 62
7
  6
CONTINUOUS
 10
-2.539321109
 20
-9.0024087658
 30
0.0
 11
0.2236527791
 21
0.1118178731
 31
0.0
 40
0.9998096356
 41
2.6780516535
 42
4.2486956813
  0
ELLIPSE
  5
2F1
100
AcDbEntity
  8
ASSI
100
AcDbEllipse
 62
7
  6
CONTINUOUS
 10
21.5082375322
 20
-9.0024087658
 30
0.0
 11
0.2236527791
 21
-0.1118178731
 31
0.0
 40
0.9998096356
 41
-1.1071030277
 42
0.4635410001
  0
ELLIPSE
  5
2F2
100
AcDbEntity
  8
ASSI
100
AcDbEllipse
 62
7
  6
CONTINUOUS
 10
21.5082375322
 20
-8.7116519341
 30
0.0
 11
-0.0250113895
 21
0.2526592035
 31
0.0
 40
0.9846622838
 41
-3.2387599651
 42
-1.6709942215
  0
ENDSEC
  0
SECTION
  2
OBJECTS
  0
DICTIONARY
  5
C
100
AcDbDictionary
280
0
281
1
  3
ACAD_GROUP
350
D
  3
ACAD_MLINESTYLE
350
17
  3
ACAD_LAYOUT
350
1A
  3
ACAD_PLOTSETTINGS
350
19
  3
ACAD_PLOTSTYLENAME
350
E
  0
DICTIONARY
  5
D
102
{ACAD_REACTORS
330
C
102
}
100
AcDbDictionary
280
0
281
1
  0
ACDBDICTIONARYWDFLT
  5
E
102
{ACAD_REACTORS
330
C
102
}
100
AcDbDictionary
281
1
  3
Normal
350
F
100
AcDbDictionaryWithDefault
340
F
  0
DICTIONARY
  5
17
102
{ACAD_REACTORS
330
C
102
}
100
AcDbDictionary
280
0
281
1
  3
Standard
350
18
  0
DICTIONARY
  5
19
102
{ACAD_REACTORS
330
C
102
}
100
AcDbDictionary
281
1
  0
DICTIONARY
  5
1A
102
{ACAD_REACTORS
330
C
102
}
100
AcDbDictionary
281
1
  3
Model
350
2F3
  3
Layout1
350
2F4
  0
ACDBPLACEHOLDER
  5
F
102
{ACAD_REACTORS
330
E
102
}
  0
MLINESTYLE
  5
18
102
{ACAD_REACTORS
330
17
102
}
100
AcDbMlineStyle
  2
STANDARD
 70
0
  3

 62
256
 51
90.0
 52
90.0
 71
2
 49
0.5
 62
256
  6
BYLAYER
 49
-0.5
 62
256
  6
BYLAYER
  0
LAYOUT
  5
2F3
102
{ACAD_REACTORS
330
1A
102
}
100
AcDbPlotSettings
  1

  2
none_device
  4
ISO_A4_(297.00_x_210.00_MM)
  6

 40
0.0
 41
0.0
 42
0.0
 43
0.0
 44
297.0
 45
210.0
 46
0.0
 47
0.0
 48
0.0
 49
0.0
140
0.0
141
0.0
142
1.0
143
1.0
 70
1024
 72
1
 73
0
 74
0
  7

 75
0
147
1.0
148
0.0
149
0.0
100
AcDbLayout
  1
Model
 70
0
 71
0
 10
0.0
 20
0.0
 11
297.0
 21
210.0
 12
0.0
 22
0.0
 32
0.0
 14
0.0
 24
0.0
 34
0.0
 15
0.0
 25
0.0
 35
0.0
146
0.0
 13
0.0
 23
0.0
 33
0.0
 16
1.0
 26
0.0
 36
0.0
 17
0.0
 27
1.0
 37
0.0
 76
0
330
212
345
0
346
0
  0
LAYOUT
  5
2F4
102
{ACAD_REACTORS
330
1A
102
}
100
AcDbPlotSettings
  1

  2
none_device
  4
ISO_A4_(297.00_x_210.00_MM)
  6

 40
0.0
 41
0.0
 42
0.0
 43
0.0
 44
297.0
 45
210.0
 46
0.0
 47
0.0
 48
0.0
 49
0.0
140
0.0
141
0.0
142
1.0
143
1.0
 70
0
 72
1
 73
0
 74
0
  7

 75
0
147
1.0
148
0.0
149
0.0
100
AcDbLayout
  1
Layout1
 70
0
 71
1
 10
0.0
 20
0.0
 11
297.0
 21
210.0
 12
0.0
 22
0.0
 32
0.0
 14
0.0
 24
0.0
 34
0.0
 15
0.0
 25
0.0
 35
0.0
146
0.0
 13
0.0
 23
0.0
 33
0.0
 16
1.0
 26
0.0
 36
0.0
 17
0.0
 27
1.0
 37
0.0
 76
0
330
213
345
0
346
0
  0
ENDSEC
  0
EOF
