  0
SECTION
  2
HEADER
  9
$ACADVER
  1
AC1015
  9
$DWGCODEPAGE
  3
ANSI_1252
  9
$EXTMAX
 10
297.0
 20
210.0
 30
0.0
  9
$EXTMIN
 10
0.0
 20
0.0
 30
0.0
  9
$LIMMIN
 10
0.0
 20
0.0
  9
$LIMMAX
 10
297.0
 20
210.0
  9
$VIEWCTR
 10
148.5
 20
105.0
  9
$VIEWSIZE
 40
210.0
  9
$CLAYER
  8
0
  9
$LTSCALE
 40
16.335
  9
$CELTYPE
  6
BYLAYER
  9
$DIMSCALE
 40
1.0
  9
$DIMASZ
 40
3.0
  9
$DIMEXO
 40
1.85625
  9
$DIMDLI
 40
11.286
  9
$DIMEXE
 40
5.346
  9
$DIMCEN
 40
2.673
  9
$DIMLFAC
 40
1.0
  9
$DIMBLK
  1
_FILLED
  9
$DIMTXT
 40
3.0
  9
$DIMTOL
 70
1
  9
$DIMLIM
 70
0
  9
$DIMTFAC
 40
1.0
  9
$DIMTP
 40
0.01
  9
$DIMTM
 40
0.01
  9
$PDMODE
 70
3
  9
$PDSIZE
 40
3.0
  9
$HANDSEED
  5
2F2
  9
$TILEMODE
 70
1
  9
$MEASUREMENT
 70
1
  9
$INSUNITS
 70
4
  0
ENDSEC
  0
SECTION
  2
CLASSES
  0
CLASS
  1
ACDBDICTIONARYWDFLT
  2
AcDbDictionaryWithDefault
  3
AutoCAD 2000
 90
0
280
0
281
0
  0
CLASS
  1
ACDBPLACEHOLDER
  2
AcDbPlaceHolder
  3
AutoCAD 2000
 90
0
280
0
281
0
  0
CLASS
  1
LAYOUT
  2
AcDbLayout
  3
AutoCAD 2000
 90
0
280
0
281
0
  0
ENDSEC
  0
SECTION
  2
TABLES
  0
TABLE
  2
VPORT
  5
8
100
AcDbSymbolTable
 70
2
  0
VPORT
  5
1F4
100
AcDbSymbolTableRecord
100
AcDbViewportTableRecord
  2
*ACTIVE
 70
0
 10
0.0
 20
0.0
 11
1.0
 21
1.0
 12
148.5
 22
105.0
 13
0.0
 23
0.0
 14
1.0
 24
1.0
 15
0.0
 25
0.0
 16
0.0
 26
0.0
 36
1.0
 17
0.0
 27
0.0
 37
0.0
 40
210.0
 41
1.4142857143
 42
50.0
 43
0.0
 44
0.0
 50
0.0
 51
0.0
 71
0
 72
100
 73
1
 74
1
 75
0
 76
0
 77
0
 78
0
  0
ENDTAB
  0
TABLE
  2
LTYPE
  5
5
100
AcDbSymbolTable
 70
6
  0
LTYPE
  5
14
100
AcDbSymbolTableRecord
100
AcDbLinetypeTableRecord
  2
BYBLOCK
 70
0
  3

 72
65
 73
0
 40
0.0
  0
LTYPE
  5
15
100
AcDbSymbolTableRecord
100
AcDbLinetypeTableRecord
  2
BYLAYER
 70
0
  3

 72
65
 73
0
 40
0.0
  0
LTYPE
  5
16
100
AcDbSymbolTableRecord
100
AcDbLinetypeTableRecord
  2
CONTINUOUS
 70
64
  3
Solid line
 72
65
 73
0
 40
0.0
  0
LTYPE
  5
1F5
100
AcDbSymbolTableRecord
100
AcDbLinetypeTableRecord
  2
CENTER
 70
64
  3
____ _ ____ _ ____ _ ____ _ ____ _ ____ _ ____
 72
65
 73
4
 40
0.6
 49
0.375
 74
0
 49
-0.075
 74
0
 49
0.075
 74
0
 49
-0.075
 74
0
  0
LTYPE
  5
1F6
100
AcDbSymbolTableRecord
100
AcDbLinetypeTableRecord
  2
HIDDEN
 70
64
  3
- - - - - - - - - - - - - - - - - - - -
 72
65
 73
2
 40
0.2
 49
0.1
 74
0
 49
-0.1
 74
0
  0
LTYPE
  5
1F7
100
AcDbSymbolTableRecord
100
AcDbLinetypeTableRecord
  2
PHANTOM
 70
64
  3
_____ _ _ _____ _ _ _____ _ _ _____
 72
65
 73
6
 40
0.8
 49
0.45
 74
0
 49
-0.05
 74
0
 49
0.1
 74
0
 49
-0.05
 74
0
 49
0.1
 74
0
 49
-0.05
 74
0
  0
LTYPE
  5
1F8
100
AcDbSymbolTableRecord
100
AcDbLinetypeTableRecord
  2
DOT
 70
64
  3
. . . . . . . . . . . . . . . . . . . .
 72
65
 73
2
 40
0.2
 49
0.1
 74
0
 49
-0.1
 74
0
  0
LTYPE
  5
1F9
100
AcDbSymbolTableRecord
100
AcDbLinetypeTableRecord
  2
DASHED
 70
64
  3
- - - - - - - - - - - - - - - - - - - -
 72
65
 73
2
 40
0.2
 49
0.1
 74
0
 49
-0.1
 74
0
  0
ENDTAB
  0
TABLE
  2
LAYER
  5
2
100
AcDbSymbolTable
 70
36
  0
LAYER
  5
10
100
AcDbSymbolTableRecord
100
AcDbLayerTableRecord
  2
0
 70
0
 62
7
  6
CONTINUOUS
370
-3
390
F
  0
LAYER
  5
1FA
100
AcDbSymbolTableRecord
100
AcDbLayerTableRecord
  2
DEFAULT_1
 70
0
 62
7
  6
CENTER
370
-3
390
F
  0
LAYER
  5
1FB
100
AcDbSymbolTableRecord
100
AcDbLayerTableRecord
  2
DEFAULT_2
 70
0
 62
7
  6
HIDDEN
370
-3
390
F
  0
LAYER
  5
1FC
100
AcDbSymbolTableRecord
100
AcDbLayerTableRecord
  2
DEFAULT_3
 70
0
 62
7
  6
PHANTOM
370
-3
390
F
  0
LAYER
  5
1FD
100
AcDbSymbolTableRecord
100
AcDbLayerTableRecord
  2
ASSI
 70
0
 62
7
  6
CONTINUOUS
370
-3
390
F
  0
LAYER
  5
1FE
100
AcDbSymbolTableRecord
100
AcDbLayerTableRecord
  2
COORDINATE
 70
0
 62
7
  6
CONTINUOUS
370
-3
390
F
  0
LAYER
  5
1FF
100
AcDbSymbolTableRecord
100
AcDbLayerTableRecord
  2
COORD_ORIGINE
 70
0
 62
7
  6
CONTINUOUS
370
-3
390
F
  0
LAYER
  5
200
100
AcDbSymbolTableRecord
100
AcDbLayerTableRecord
  2
COPY_PUBLISH
 70
0
 62
7
  6
CONTINUOUS
370
-3
390
F
  0
LAYER
  5
201
100
AcDbSymbolTableRecord
100
AcDbLayerTableRecord
  2
COSMETIC
 70
0
 62
7
  6
CONTINUOUS
370
-3
390
F
  0
LAYER
  5
202
100
AcDbSymbolTableRecord
100
AcDbLayerTableRecord
  2
CURVE
 70
0
 62
7
  6
CONTINUOUS
370
-3
390
F
  0
LAYER
  5
203
100
AcDbSymbolTableRecord
100
AcDbLayerTableRecord
  2
DRAFT
 70
0
 62
7
  6
CONTINUOUS
370
-3
390
F
  0
LAYER
  5
204
100
AcDbSymbolTableRecord
100
AcDbLayerTableRecord
  2
IGES
 70
0
 62
7
  6
CONTINUOUS
370
-3
390
F
  0
LAYER
  5
205
100
AcDbSymbolTableRecord
100
AcDbLayerTableRecord
  2
IMPORT_IGES
 70
0
 62
7
  6
CONTINUOUS
370
-3
390
F
  0
LAYER
  5
206
100
AcDbSymbolTableRecord
100
AcDbLayerTableRecord
  2
INTF_12
 70
0
 62
7
  6
CONTINUOUS
370
-3
390
F
  0
LAYER
  5
207
100
AcDbSymbolTableRecord
100
AcDbLayerTableRecord
  2
INTF_9
 70
0
 62
7
  6
CONTINUOUS
370
-3
390
F
  0
LAYER
  5
208
100
AcDbSymbolTableRecord
100
AcDbLayerTableRecord
  2
NOTE
 70
0
 62
7
  6
CONTINUOUS
370
-3
390
F
  0
LAYER
  5
209
100
AcDbSymbolTableRecord
100
AcDbLayerTableRecord
  2
PIANI
 70
0
 62
7
  6
CONTINUOUS
370
-3
390
F
  0
LAYER
  5
20A
100
AcDbSymbolTableRecord
100
AcDbLayerTableRecord
  2
PIANI_ORIGINE
 70
0
 62
7
  6
CONTINUOUS
370
-3
390
F
  0
LAYER
  5
20B
100
AcDbSymbolTableRecord
100
AcDbLayerTableRecord
  2
RACCORDO
 70
0
 62
7
  6
CONTINUOUS
370
-3
390
F
  0
LAYER
  5
20C
100
AcDbSymbolTableRecord
100
AcDbLayerTableRecord
  2
SMUSSO
 70
0
 62
7
  6
CONTINUOUS
370
-3
390
F
  0
LAYER
  5
20D
100
AcDbSymbolTableRecord
100
AcDbLayerTableRecord
  2
SNAPLINE
 70
0
 62
7
  6
CONTINUOUS
370
-3
390
F
  0
LAYER
  5
20E
100
AcDbSymbolTableRecord
100
AcDbLayerTableRecord
  2
SUPERFICI
 70
0
 62
7
  6
CONTINUOUS
370
-3
390
F
  0
LAYER
  5
20F
100
AcDbSymbolTableRecord
100
AcDbLayerTableRecord
  2
TRASH
 70
0
 62
7
  6
CONTINUOUS
370
-3
390
F
  0
ENDTAB
  0
TABLE
  2
STYLE
  5
3
100
AcDbSymbolTable
 70
1
  0
STYLE
  5
11
100
AcDbSymbolTableRecord
100
AcDbTextStyleTableRecord
  2
STANDARD
 70
0
 40
0.0
 41
0.8
 50
0.0
 71
0
 42
0.2
  3
txt
  4

  0
STYLE
  5
210
100
AcDbSymbolTableRecord
100
AcDbTextStyleTableRecord
  2
TEXTSTYLE_1
 70
0
 40
0.0
 41
0.8
 50
0.0
 71
0
 42
0.2
  3
gdt
  4

  0
ENDTAB
  0
TABLE
  2
VIEW
  5
6
100
AcDbSymbolTable
 70
0
  0
ENDTAB
  0
TABLE
  2
UCS
  5
7
100
AcDbSymbolTable
 70
0
  0
ENDTAB
  0
TABLE
  2
APPID
  5
9
100
AcDbSymbolTable
 70
1
  0
APPID
  5
211
100
AcDbSymbolTableRecord
100
AcDbRegAppTableRecord
  2
ACAD
 70
0
  0
ENDTAB
  0
TABLE
  2
BLOCK_RECORD
  5
1
100
AcDbSymbolTable
 70
0
  0
BLOCK_RECORD
  5
212
100
AcDbSymbolTableRecord
100
AcDbBlockTableRecord
  2
*Model_Space
  0
BLOCK_RECORD
  5
213
100
AcDbSymbolTableRecord
100
AcDbBlockTableRecord
  2
*Paper_Space
  0
BLOCK_RECORD
  5
214
100
AcDbSymbolTableRecord
100
AcDbBlockTableRecord
  2
_FILLED
  0
BLOCK_RECORD
  5
215
100
AcDbSymbolTableRecord
100
AcDbBlockTableRecord
  2
*D0
  0
BLOCK_RECORD
  5
216
100
AcDbSymbolTableRecord
100
AcDbBlockTableRecord
  2
*D1
  0
BLOCK_RECORD
  5
217
100
AcDbSymbolTableRecord
100
AcDbBlockTableRecord
  2
*D2
  0
ENDTAB
  0
TABLE
  2
DIMSTYLE
  5
A
100
AcDbSymbolTable
 70
1
100
AcDbDimStyleTable
 71
0
  0
DIMSTYLE
105
218
100
AcDbSymbolTableRecord
100
AcDbDimStyleTableRecord
  2
STANDARD
 70
0
  3

  4

 40
1.0
 41
3.0
 42
0.0625
 43
0.38
 44
0.18
 45
0.0
 46
0.0
 47
0.01
 48
0.01
140
3.0
141
0.09
142
0.0
143
25.4
144
1.0
145
0.0
146
1.0
147
0.09
 71
1.0
 72
0.0
 73
0
 74
0
 75
0
 76
0
 77
1
 78
8
170
0
171
2
172
0
173
0
174
0
175
0
176
0
177
0
178
0
270
2
271
2
272
2
273
2
274
2
275
0
280
0
281
0
282
0
283
1
284
8
285
0
286
0
287
3
288
0
340
11
341
214
342
214
343
214
344
214
  0
DIMSTYLE
105
219
100
AcDbSymbolTableRecord
100
AcDbDimStyleTableRecord
  2
DIMSTYLE_1
 70
0
  3

  4

 40
1.0
 41
3.0
 42
0.0625
 43
0.38
 44
0.18
 45
0.0
 46
0.0
 47
0.0
 48
0.0
140
3.0
141
0.09
142
0.0
143
25.4
144
1.0
145
0.0
146
1.0
147
0.09
 71
0.0
 72
0.0
 73
0
 74
0
 75
0
 76
0
 77
1
 78
8
170
0
171
2
172
0
173
0
174
0
175
0
176
0
177
0
178
0
270
2
271
2
272
2
273
2
274
2
275
0
280
0
281
0
282
0
283
1
284
8
285
0
286
0
287
3
288
0
340
11
341
214
342
214
343
214
344
214
  0
DIMSTYLE
105
21A
100
AcDbSymbolTableRecord
100
AcDbDimStyleTableRecord
  2
DIMSTYLE_2
 70
0
  3

  4

 40
1.0
 41
3.0
 42
0.0625
 43
0.38
 44
0.18
 45
0.0
 46
0.0
 47
0.0
 48
0.0
140
3.0
141
0.09
142
0.0
143
25.4
144
1.0
145
0.0
146
1.0
147
0.09
 71
0.0
 72
0.0
 73
0
 74
0
 75
0
 76
0
 77
1
 78
8
170
0
171
2
172
0
173
0
174
0
175
0
176
0
177
0
178
0
270
2
271
1
272
1
273
2
274
2
275
0
280
0
281
0
282
0
283
1
284
8
285
0
286
0
287
3
288
0
340
11
341
214
342
214
343
214
344
214
  0
ENDTAB
  0
ENDSEC
  0
SECTION
  2
BLOCKS
  0
BLOCK
  5
20
100
AcDbEntity
  8
0
100
AcDbBlockBegin
  2
*Model_Space
 70
0
 10
0.0
 20
0.0
 30
0.0
  3
*Model_Space
  1

  0
ENDBLK
  5
21
100
AcDbEntity
  8
0
100
AcDbBlockEnd
  0
BLOCK
  5
1C
100
AcDbEntity
  8
0
100
AcDbBlockBegin
  2
*Paper_Space
 70
0
 10
0.0
 20
0.0
 30
0.0
  3
*Paper_Space
  1

  0
ENDBLK
  5
1D
100
AcDbEntity
  8
0
100
AcDbBlockEnd
  0
BLOCK
  5
21B
100
AcDbEntity
  8
0
100
AcDbBlockBegin
  2
_FILLED
 70
64
 10
0.0
 20
0.0
  3
_FILLED
  1

  0
SOLID
  5
21C
100
AcDbEntity
  8
0
  6
BYBLOCK
 62
0
100
AcDbTrace
 10
0.0
 20
0.0
 11
-1.0
 21
0.3166666667
 12
-1.0
 22
-0.3166666667
 13
-1.0
 23
-0.3166666667
  0
ENDBLK
  5
21D
100
AcDbEntity
  8
0
  6
BYBLOCK
 62
0
100
AcDbBlockEnd
  0
BLOCK
  5
21E
100
AcDbEntity
  8
0
100
AcDbBlockBegin
 62
7
  6
CONTINUOUS
  2
*D0
 70
65
 10
0.0
 20
0.0
  3
*D0
  1

  0
MTEXT
  5
21F
100
AcDbEntity
  8
0
100
AcDbMText
 62
7
  6
CONTINUOUS
  7
STANDARD
 71
2
 72
1
 10
-10.7510186667
 20
20.9577553034
 30
0.0
 11
1.0
 21
0.0
 31
0.0
 44
0.9
  1
6,5
 40
3.0
 41
6.2142857143
  0
LINE
  5
220
100
AcDbEntity
  8
0
100
AcDbLine
 62
7
  6
CONTINUOUS
 10
-7.5011735468
 20
6.2147373294
 11
-7.5011735468
 21
18.7077553034
  0
LINE
  5
221
100
AcDbEntity
  8
0
100
AcDbLine
 62
7
  6
CONTINUOUS
 10
-14.0008637865
 20
9.3640140724
 11
-14.0008637865
 21
18.7077553034
  0
LINE
  5
222
100
AcDbEntity
  8
0
100
AcDbLine
 62
7
  6
CONTINUOUS
 10
-7.5011735468
 20
17.2077553034
 11
-3.5011735468
 21
17.2077553034
  0
LINE
  5
223
100
AcDbEntity
  8
0
100
AcDbLine
 62
7
  6
CONTINUOUS
 10
-3.5011735468
 20
17.2077553034
 11
-10.7510186667
 21
17.2077553034
  0
LINE
  5
224
100
AcDbEntity
  8
0
100
AcDbLine
 62
7
  6
CONTINUOUS
 10
-14.0008637865
 20
17.2077553034
 11
-18.0008637865
 21
17.2077553034
  0
LINE
  5
225
100
AcDbEntity
  8
0
100
AcDbLine
 62
7
  6
CONTINUOUS
 10
-18.0008637865
 20
17.2077553034
 11
-10.7510186667
 21
17.2077553034
  0
INSERT
  5
226
100
AcDbEntity
  8
0
100
AcDbBlockReference
 62
7
  6
CONTINUOUS
  2
_FILLED
 10
-7.5011735468
 20
17.2077553034
 41
3.0
 42
3.0
 43
3.0
 50
180.0
  0
INSERT
  5
227
100
AcDbEntity
  8
0
100
AcDbBlockReference
 62
7
  6
CONTINUOUS
  2
_FILLED
 10
-14.0008637865
 20
17.2077553034
 41
3.0
 42
3.0
 43
3.0
  0
ENDBLK
  5
228
100
AcDbEntity
  8
0
  6
BYBLOCK
 62
0
100
AcDbBlockEnd
  0
BLOCK
  5
229
100
AcDbEntity
  8
0
100
AcDbBlockBegin
 62
7
  6
CONTINUOUS
  2
*D1
 70
65
 10
0.0
 20
0.0
  3
*D1
  1

  0
MTEXT
  5
22A
100
AcDbEntity
  8
0
100
AcDbMText
 62
7
  6
CONTINUOUS
  7
STANDARD
 71
2
 72
1
 10
14.0247751111
 20
20.9577553034
 30
0.0
 11
1.0
 21
0.0
 31
0.0
 44
0.9
  1
24,6
 40
3.0
 41
8.7857142857
  0
LINE
  5
22B
100
AcDbEntity
  8
0
100
AcDbLine
 62
7
  6
CONTINUOUS
 10
1.7247751111
 20
8.4553901086
 11
1.7247751111
 21
18.7077553034
  0
LINE
  5
22C
100
AcDbEntity
  8
0
100
AcDbLine
 62
7
  6
CONTINUOUS
 10
26.3247751111
 20
8.4553901086
 11
26.3247751111
 21
18.7077553034
  0
LINE
  5
22D
100
AcDbEntity
  8
0
100
AcDbLine
 62
7
  6
CONTINUOUS
 10
1.7247751111
 20
17.2077553034
 11
14.0247751111
 21
17.2077553034
  0
LINE
  5
22E
100
AcDbEntity
  8
0
100
AcDbLine
 62
7
  6
CONTINUOUS
 10
26.3247751111
 20
17.2077553034
 11
14.0247751111
 21
17.2077553034
  0
INSERT
  5
22F
100
AcDbEntity
  8
0
100
AcDbBlockReference
 62
7
  6
CONTINUOUS
  2
_FILLED
 10
1.7247751111
 20
17.2077553034
 41
3.0
 42
3.0
 43
3.0
 50
180.0
  0
INSERT
  5
230
100
AcDbEntity
  8
0
100
AcDbBlockReference
 62
7
  6
CONTINUOUS
  2
_FILLED
 10
26.3247751111
 20
17.2077553034
 41
3.0
 42
3.0
 43
3.0
  0
ENDBLK
  5
231
100
AcDbEntity
  8
0
  6
BYBLOCK
 62
0
100
AcDbBlockEnd
  0
BLOCK
  5
232
100
AcDbEntity
  8
0
100
AcDbBlockBegin
 62
7
  6
CONTINUOUS
  2
*D2
 70
65
 10
0.0
 20
0.0
  3
*D2
  1

  0
MTEXT
  5
233
100
AcDbEntity
  8
0
100
AcDbMText
 62
7
  6
CONTINUOUS
  7
STANDARD
 71
2
 72
1
 10
30.5747751111
 20
-0.0352653357
 30
0.0
 11
0.0
 21
1.0
 31
0.0
 44
0.9
  1
18,5
 40
3.0
 41
7.9285714286
  0
LINE
  5
234
100
AcDbEntity
  8
0
100
AcDbLine
 62
7
  6
CONTINUOUS
 10
26.5678311614
 20
9.2077553034
 11
35.8247751111
 21
9.2077553034
  0
LINE
  5
235
100
AcDbEntity
  8
0
100
AcDbLine
 62
7
  6
CONTINUOUS
 10
25.7108206566
 20
-9.2782859747
 11
35.8247751111
 21
-9.2782859747
  0
LINE
  5
236
100
AcDbEntity
  8
0
100
AcDbLine
 62
7
  6
CONTINUOUS
 10
34.3247751111
 20
9.2077553034
 11
34.3247751111
 21
-0.0352653357
  0
LINE
  5
237
100
AcDbEntity
  8
0
100
AcDbLine
 62
7
  6
CONTINUOUS
 10
34.3247751111
 20
-9.2782859747
 11
34.3247751111
 21
-0.0352653357
  0
INSERT
  5
238
100
AcDbEntity
  8
0
100
AcDbBlockReference
 62
7
  6
CONTINUOUS
  2
_FILLED
 10
34.3247751111
 20
9.2077553034
 41
3.0
 42
3.0
 43
3.0
 50
90.0
  0
INSERT
  5
239
100
AcDbEntity
  8
0
100
AcDbBlockReference
 62
7
  6
CONTINUOUS
  2
_FILLED
 10
34.3247751111
 20
-9.2782859747
 41
3.0
 42
3.0
 43
3.0
 50
270.0
  0
ENDBLK
  5
23A
100
AcDbEntity
  8
0
  6
BYBLOCK
 62
0
100
AcDbBlockEnd
  0
ENDSEC
  0
SECTION
  2
ENTITIES
  0
DIMENSION
  5
23B
100
AcDbEntity
  8
0
100
AcDbDimension
 62
7
  6
CONTINUOUS
  2
*D0
 10
-14.0008637865
 20
17.2077553034
 11
-13.8581615238
 21
19.4577553034
 70
160
 71
2
 42
6.4996902397
  3
DIMSTYLE_1
100
AcDbAlignedDimension
 13
-7.5011735468
 23
6.2147373294
 14
-14.0008637865
 24
9.3640140724
 50
180.0
100
AcDbRotatedDimension
  0
DIMENSION
  5
23C
100
AcDbEntity
  8
0
100
AcDbDimension
 62
7
  6
CONTINUOUS
  2
*D1
 10
26.3247751111
 20
17.2077553034
 11
9.6319179683
 21
19.4577553034
 70
160
 71
2
 42
24.6
  3
DIMSTYLE_1
100
AcDbAlignedDimension
 13
1.7247751111
 23
8.4553901086
 14
26.3247751111
 24
8.4553901086
100
AcDbRotatedDimension
  0
DIMENSION
  5
23D
100
AcDbEntity
  8
0
100
AcDbDimension
 62
7
  6
CONTINUOUS
  2
*D2
 10
34.3247751111
 20
-9.2782859747
 11
33.8510669465
 21
-3.5793235378
 70
160
 71
2
 42
18.4860412781
  3
DIMSTYLE_2
100
AcDbAlignedDimension
 13
26.5678311614
 23
9.2077553034
 14
25.7108206566
 24
-9.2782859747
 50
270.0
100
AcDbRotatedDimension
  0
LINE
  5
23E
100
AcDbEntity
  8
RACCORDO
100
AcDbLine
 62
7
  6
CONTINUOUS
 10
1.7247751111
 20
7.9553901086
 11
1.7266120075
 21
7.957227005
  0
LINE
  5
23F
100
AcDbEntity
  8
ASSI
100
AcDbLine
 62
7
  6
CONTINUOUS
 10
1.7247751111
 20
7.9553901086
 11
1.7266120075
 21
7.957227005
  0
LINE
  5
240
100
AcDbEntity
  8
RACCORDO
100
AcDbLine
 62
7
  6
CONTINUOUS
 10
1.7382681889
 20
-9.0285452022
 11
1.7247751111
 21
-1.6737711073
  0
LINE
  5
241
100
AcDbEntity
  8
ASSI
100
AcDbLine
 62
7
  6
CONTINUOUS
 10
1.7382681889
 20
-9.0285452022
 11
1.7247751111
 21
-1.6737711073
  0
LINE
  5
242
100
AcDbEntity
  8
DRAFT
100
AcDbLine
 62
7
  6
CONTINUOUS
 10
1.7247751111
 20
7.9553901086
 11
1.7247751111
 21
-1.6737711073
  0
LINE
  5
243
100
AcDbEntity
  8
ASSI
100
AcDbLine
 62
7
  6
CONTINUOUS
 10
1.7247751111
 20
7.9553901086
 11
1.7247751111
 21
-1.6737711073
  0
LINE
  5
244
100
AcDbEntity
  8
RACCORDO
100
AcDbLine
 62
7
  6
CONTINUOUS
 10
1.7317571371
 20
8.9577933796
 11
1.7317571371
 21
8.2571813135
  0
LINE
  5
245
100
AcDbEntity
  8
ASSI
100
AcDbLine
 62
7
  6
CONTINUOUS
 10
1.7317571371
 20
8.9577933796
 11
1.7317571371
 21
8.2571813135
  0
LINE
  5
246
100
AcDbEntity
  8
RACCORDO
100
AcDbLine
 62
7
  6
CONTINUOUS
 10
1.7509577085
 20
-9.0222009256
 11
1.7509577085
 21
-8.7321753502
  0
LINE
  5
247
100
AcDbEntity
  8
ASSI
100
AcDbLine
 62
7
  6
CONTINUOUS
 10
1.7509577085
 20
-9.0222009256
 11
1.7509577085
 21
-8.7321753502
  0
LINE
  5
248
100
AcDbEntity
  8
RACCORDO
100
AcDbLine
 62
253
  6
CONTINUOUS
 10
2.0751744132
 20
8.8640140724
 11
2.0751744132
 21
9.114299951
  0
LINE
  5
249
100
AcDbEntity
  8
ASSI
100
AcDbLine
 62
253
  6
CONTINUOUS
 10
2.0693402424
 20
-7.4512621657
 11
2.0751744132
 21
9.114299951
  0
LINE
  5
24A
100
AcDbEntity
  8
RACCORDO
100
AcDbLine
 62
253
  6
CONTINUOUS
 10
1.7509577085
 20
-8.7321753502
 11
1.8085706127
 21
-8.1501832758
  0
LINE
  5
24B
100
AcDbEntity
  8
ASSI
100
AcDbLine
 62
253
  6
CONTINUOUS
 10
1.7509577085
 20
-8.7321753502
 11
1.8085706127
 21
-8.1501832758
  0
LINE
  5
24C
100
AcDbEntity
  8
RACCORDO
100
AcDbLine
 62
253
  6
CONTINUOUS
 10
2.0002380305
 20
-8.9852626706
 11
2.0585325365
 21
-8.396385214
  0
LINE
  5
24D
100
AcDbEntity
  8
ASSI
100
AcDbLine
 62
253
  6
CONTINUOUS
 10
2.0002380305
 20
-8.9852626706
 11
2.0585325365
 21
-8.396385214
  0
LINE
  5
24E
100
AcDbEntity
  8
RACCORDO
100
AcDbLine
 62
7
  6
CONTINUOUS
 10
1.988726368
 20
-9.2782875742
 11
2.8387263665
 21
-9.2782875742
  0
LINE
  5
24F
100
AcDbEntity
  8
RACCORDO
100
AcDbLine
 62
7
  6
CONTINUOUS
 10
25.2108238557
 20
-9.2782875742
 11
26.0608238542
 21
-9.2782875742
  0
LINE
  5
250
100
AcDbEntity
  8
DRAFT
100
AcDbLine
 62
7
  6
CONTINUOUS
 10
25.2108206566
 20
-9.2782859747
 11
2.8387295657
 21
-9.2782859747
  0
LINE
  5
251
100
AcDbEntity
  8
ASSI
100
AcDbLine
 62
7
  6
CONTINUOUS
 10
26.0608238542
 20
-9.2782875742
 11
1.988726368
 21
-9.2782875742
  0
LINE
  5
252
100
AcDbEntity
  8
RACCORDO
100
AcDbLine
 62
7
  6
CONTINUOUS
 10
26.0485925123
 20
-9.2721723689
 11
2.00095771
 21
-9.2721723689
  0
LINE
  5
253
100
AcDbEntity
  8
ASSI
100
AcDbLine
 62
7
  6
CONTINUOUS
 10
26.0485925123
 20
-9.2721723689
 11
2.00095771
 21
-9.2721723689
  0
LINE
  5
254
100
AcDbEntity
  8
RACCORDO
100
AcDbLine
 62
7
  6
CONTINUOUS
 10
26.0493121918
 20
-8.9852626706
 11
2.0002380305
 21
-8.9852626706
  0
LINE
  5
255
100
AcDbEntity
  8
ASSI
100
AcDbLine
 62
7
  6
CONTINUOUS
 10
26.0493121918
 20
-8.9852626706
 11
2.0002380305
 21
-8.9852626706
  0
LINE
  5
256
100
AcDbEntity
  8
RACCORDO
100
AcDbLine
 62
253
  6
CONTINUOUS
 10
2.0585325365
 20
-8.396385214
 11
25.9910176857
 21
-8.396385214
  0
LINE
  5
257
100
AcDbEntity
  8
ASSI
100
AcDbLine
 62
253
  6
CONTINUOUS
 10
2.0585325365
 20
-8.396385214
 11
25.9910176857
 21
-8.396385214
  0
LINE
  5
258
100
AcDbEntity
  8
RACCORDO
100
AcDbLine
 62
253
  6
CONTINUOUS
 10
2.0693402424
 20
-7.4512621657
 11
25.9802099798
 21
-7.4512621657
  0
LINE
  5
259
100
AcDbEntity
  8
ASSI
100
AcDbLine
 62
253
  6
CONTINUOUS
 10
2.0693402424
 20
-7.4512621657
 11
25.9802099798
 21
-7.4512621657
  0
LINE
  5
25A
100
AcDbEntity
  8
ASSI
100
AcDbLine
 62
253
  6
CONTINUOUS
 10
26.0485925123
 20
-9.2721723689
 11
26.0608238542
 21
-9.2782875742
  0
LINE
  5
25B
100
AcDbEntity
  8
RACCORDO
100
AcDbLine
 62
253
  6
CONTINUOUS
 10
26.2985925137
 20
-9.0222009256
 11
26.3112820334
 21
-9.0285452022
  0
LINE
  5
25C
100
AcDbEntity
  8
ASSI
100
AcDbLine
 62
253
  6
CONTINUOUS
 10
26.2985925137
 20
-9.0222009256
 11
26.3112820334
 21
-9.0285452022
  0
LINE
  5
25D
100
AcDbEntity
  8
RACCORDO
100
AcDbLine
 62
253
  6
CONTINUOUS
 10
1.8252124894
 20
8.8643380273
 11
1.7317571371
 21
8.9577933796
  0
LINE
  5
25E
100
AcDbEntity
  8
ASSI
100
AcDbLine
 62
253
  6
CONTINUOUS
 10
1.8252124894
 20
8.8643380273
 11
1.7317571371
 21
8.9577933796
  0
LINE
  5
25F
100
AcDbEntity
  8
RACCORDO
100
AcDbLine
 62
253
  6
CONTINUOUS
 10
2.0751744132
 20
9.114299951
 11
1.9817190609
 21
9.2077553034
  0
LINE
  5
260
100
AcDbEntity
  8
ASSI
100
AcDbLine
 62
253
  6
CONTINUOUS
 10
2.0751744132
 20
9.114299951
 11
1.9817190609
 21
9.2077553034
  0
LINE
  5
261
100
AcDbEntity
  8
CURVE
100
AcDbLine
 62
253
  6
CONTINUOUS
 10
14.0247751111
 20
-0.1852626706
 11
14.0247751111
 21
-5.1852627984
  0
LINE
  5
262
100
AcDbEntity
  8
RACCORDO
100
AcDbLine
 62
253
  6
CONTINUOUS
 10
26.0678311614
 20
9.2077553034
 11
25.974375809
 21
9.114299951
  0
LINE
  5
263
100
AcDbEntity
  8
ASSI
100
AcDbLine
 62
253
  6
CONTINUOUS
 10
26.0678311614
 20
9.2077553034
 11
25.974375809
 21
9.114299951
  0
LINE
  5
264
100
AcDbEntity
  8
RACCORDO
100
AcDbLine
 62
253
  6
CONTINUOUS
 10
26.3177930851
 20
8.9577933796
 11
26.2243377328
 21
8.8643380273
  0
LINE
  5
265
100
AcDbEntity
  8
ASSI
100
AcDbLine
 62
253
  6
CONTINUOUS
 10
26.3177930851
 20
8.9577933796
 11
26.2243377328
 21
8.8643380273
  0
LINE
  5
266
100
AcDbEntity
  8
RACCORDO
100
AcDbLine
 62
253
  6
CONTINUOUS
 10
1.7382681889
 20
-9.0285452022
 11
1.7509577085
 21
-9.0222009256
  0
LINE
  5
267
100
AcDbEntity
  8
ASSI
100
AcDbLine
 62
253
  6
CONTINUOUS
 10
1.7382681889
 20
-9.0285452022
 11
1.7509577085
 21
-9.0222009256
  0
LINE
  5
268
100
AcDbEntity
  8
ASSI
100
AcDbLine
 62
253
  6
CONTINUOUS
 10
1.988726368
 20
-9.2782875742
 11
2.00095771
 21
-9.2721723689
  0
LINE
  5
269
100
AcDbEntity
  8
DRAFT
100
AcDbLine
 62
7
  6
CONTINUOUS
 10
22.5372411017
 20
9.2077553034
 11
22.2747751111
 21
9.1553901086
  0
LINE
  5
26A
100
AcDbEntity
  8
ASSI
100
AcDbLine
 62
7
  6
CONTINUOUS
 10
22.5372411017
 20
9.2077553034
 11
22.2747751111
 21
9.1553901086
  0
LINE
  5
26B
100
AcDbEntity
  8
DRAFT
100
AcDbLine
 62
7
  6
CONTINUOUS
 10
5.5123091205
 20
9.2077553034
 11
5.7747751111
 21
9.1553901086
  0
LINE
  5
26C
100
AcDbEntity
  8
ASSI
100
AcDbLine
 62
7
  6
CONTINUOUS
 10
5.5123091205
 20
9.2077553034
 11
5.7747751111
 21
9.1553901086
  0
LINE
  5
26D
100
AcDbEntity
  8
RACCORDO
100
AcDbLine
 62
253
  6
CONTINUOUS
 10
26.2243377328
 20
8.8643380272
 11
2.0751744132
 21
8.8640140724
  0
LINE
  5
26E
100
AcDbEntity
  8
ASSI
100
AcDbLine
 62
253
  6
CONTINUOUS
 10
26.2243377328
 20
8.8643380272
 11
2.0751744132
 21
8.8640140724
  0
LINE
  5
26F
100
AcDbEntity
  8
RACCORDO
100
AcDbLine
 62
253
  6
CONTINUOUS
 10
25.974375809
 20
9.114299951
 11
2.0751744132
 21
9.114299951
  0
LINE
  5
270
100
AcDbEntity
  8
ASSI
100
AcDbLine
 62
253
  6
CONTINUOUS
 10
25.974375809
 20
9.114299951
 11
2.0751744132
 21
9.114299951
  0
LINE
  5
271
100
AcDbEntity
  8
DRAFT
100
AcDbLine
 62
7
  6
CONTINUOUS
 10
22.2747751111
 20
9.1553901086
 11
5.7747751111
 21
9.1553901086
  0
LINE
  5
272
100
AcDbEntity
  8
ASSI
100
AcDbLine
 62
7
  6
CONTINUOUS
 10
22.2747751111
 20
9.1553901086
 11
5.7747751111
 21
9.1553901086
  0
LINE
  5
273
100
AcDbEntity
  8
RACCORDO
100
AcDbLine
 62
7
  6
CONTINUOUS
 10
26.0678311614
 20
9.2077553034
 11
22.5372411017
 21
9.2077553034
  0
LINE
  5
274
100
AcDbEntity
  8
ASSI
100
AcDbLine
 62
7
  6
CONTINUOUS
 10
26.0678311614
 20
9.2077553034
 11
22.5372411017
 21
9.2077553034
  0
LINE
  5
275
100
AcDbEntity
  8
RACCORDO
100
AcDbLine
 62
7
  6
CONTINUOUS
 10
5.5123091205
 20
9.2077553034
 11
1.9817190609
 21
9.2077553034
  0
LINE
  5
276
100
AcDbEntity
  8
ASSI
100
AcDbLine
 62
7
  6
CONTINUOUS
 10
5.5123091205
 20
9.2077553034
 11
1.9817190609
 21
9.2077553034
  0
LINE
  5
277
100
AcDbEntity
  8
RACCORDO
100
AcDbLine
 62
253
  6
CONTINUOUS
 10
2.0751744132
 20
8.8640140724
 11
1.8252124894
 21
8.8643380272
  0
LINE
  5
278
100
AcDbEntity
  8
ASSI
100
AcDbLine
 62
253
  6
CONTINUOUS
 10
2.0751744132
 20
8.8640140724
 11
1.8252124894
 21
8.8643380272
  0
LINE
  5
279
100
AcDbEntity
  8
RACCORDO
100
AcDbLine
 62
253
  6
CONTINUOUS
 10
25.9910176857
 20
-8.396385214
 11
26.0493121918
 21
-8.9852626706
  0
LINE
  5
27A
100
AcDbEntity
  8
ASSI
100
AcDbLine
 62
253
  6
CONTINUOUS
 10
25.9910176857
 20
-8.396385214
 11
26.0493121918
 21
-8.9852626706
  0
LINE
  5
27B
100
AcDbEntity
  8
RACCORDO
100
AcDbLine
 62
253
  6
CONTINUOUS
 10
26.2409796095
 20
-8.1501832758
 11
26.2985925137
 21
-8.7321753502
  0
LINE
  5
27C
100
AcDbEntity
  8
ASSI
100
AcDbLine
 62
253
  6
CONTINUOUS
 10
26.2409796095
 20
-8.1501832758
 11
26.2985925137
 21
-8.7321753502
  0
LINE
  5
27D
100
AcDbEntity
  8
RACCORDO
100
AcDbLine
 62
253
  6
CONTINUOUS
 10
25.974375809
 20
8.8640140724
 11
25.974375809
 21
9.114299951
  0
LINE
  5
27E
100
AcDbEntity
  8
ASSI
100
AcDbLine
 62
253
  6
CONTINUOUS
 10
25.9802099798
 20
-7.4512621657
 11
25.974375809
 21
9.114299951
  0
LINE
  5
27F
100
AcDbEntity
  8
RACCORDO
100
AcDbLine
 62
7
  6
CONTINUOUS
 10
26.2985925137
 20
-8.7321753502
 11
26.2985925137
 21
-9.0222009256
  0
LINE
  5
280
100
AcDbEntity
  8
ASSI
100
AcDbLine
 62
7
  6
CONTINUOUS
 10
26.2985925137
 20
-8.7321753502
 11
26.2985925137
 21
-9.0222009256
  0
LINE
  5
281
100
AcDbEntity
  8
RACCORDO
100
AcDbLine
 62
7
  6
CONTINUOUS
 10
26.3177930851
 20
8.2571813135
 11
26.3177930851
 21
8.9577933796
  0
LINE
  5
282
100
AcDbEntity
  8
ASSI
100
AcDbLine
 62
7
  6
CONTINUOUS
 10
26.3177930851
 20
8.2571813135
 11
26.3177930851
 21
8.9577933796
  0
LINE
  5
283
100
AcDbEntity
  8
DRAFT
100
AcDbLine
 62
7
  6
CONTINUOUS
 10
26.3247751111
 20
7.9553901086
 11
26.3247751111
 21
-1.6737711073
  0
LINE
  5
284
100
AcDbEntity
  8
ASSI
100
AcDbLine
 62
7
  6
CONTINUOUS
 10
26.3247751111
 20
7.9553901086
 11
26.3247751111
 21
-1.6737711073
  0
LINE
  5
285
100
AcDbEntity
  8
RACCORDO
100
AcDbLine
 62
7
  6
CONTINUOUS
 10
26.3112820334
 20
-9.0285452022
 11
26.3247751111
 21
-1.6737711073
  0
LINE
  5
286
100
AcDbEntity
  8
ASSI
100
AcDbLine
 62
7
  6
CONTINUOUS
 10
26.3112820334
 20
-9.0285452022
 11
26.3247751111
 21
-1.6737711073
  0
LINE
  5
287
100
AcDbEntity
  8
RACCORDO
100
AcDbLine
 62
7
  6
CONTINUOUS
 10
26.3247751111
 20
7.9553901086
 11
26.3229382148
 21
7.957227005
  0
LINE
  5
288
100
AcDbEntity
  8
ASSI
100
AcDbLine
 62
7
  6
CONTINUOUS
 10
26.3247751111
 20
7.9553901086
 11
26.3229382148
 21
7.957227005
  0
LINE
  5
289
100
AcDbEntity
  8
RACCORDO
100
AcDbLine
 62
7
  6
CONTINUOUS
 10
-9.5011735468
 20
-9.2721723689
 11
-8.8004404346
 21
-9.2782875742
  0
LINE
  5
28A
100
AcDbEntity
  8
ASSI
100
AcDbLine
 62
7
  6
CONTINUOUS
 10
-9.5011735468
 20
-9.2721723689
 11
-8.8004404346
 21
-9.2782875742
  0
LINE
  5
28B
100
AcDbEntity
  8
RACCORDO
100
AcDbLine
 62
253
  6
CONTINUOUS
 10
-9.5011735468
 20
-9.0222009256
 11
-8.7741914536
 21
-9.0285452022
  0
LINE
  5
28C
100
AcDbEntity
  8
ASSI
100
AcDbLine
 62
253
  6
CONTINUOUS
 10
-9.5011735468
 20
-9.0222009256
 11
-8.7741914536
 21
-9.0285452022
  0
LINE
  5
28D
100
AcDbEntity
  8
RACCORDO
100
AcDbLine
 62
7
  6
CONTINUOUS
 10
-12.8408635605
 20
-8.396385214
 11
-9.5011735468
 21
-8.9852626706
  0
LINE
  5
28E
100
AcDbEntity
  8
ASSI
100
AcDbLine
 62
7
  6
CONTINUOUS
 10
-12.8408635605
 20
-8.396385214
 11
-9.5011735468
 21
-8.9852626706
  0
LINE
  5
28F
100
AcDbEntity
  8
RACCORDO
100
AcDbLine
 62
253
  6
CONTINUOUS
 10
-12.8018146177
 20
-8.1501832758
 11
-9.5011735468
 21
-8.7321753502
  0
LINE
  5
290
100
AcDbEntity
  8
ASSI
100
AcDbLine
 62
253
  6
CONTINUOUS
 10
-12.8018146177
 20
-8.1501832758
 11
-9.5011735468
 21
-8.7321753502
  0
LINE
  5
291
100
AcDbEntity
  8
RACCORDO
100
AcDbLine
 62
253
  6
CONTINUOUS
 10
-13.4209876733
 20
-7.4413409895
 11
-13.6664187102
 21
-7.4512618091
  0
LINE
  5
292
100
AcDbEntity
  8
ASSI
100
AcDbLine
 62
253
  6
CONTINUOUS
 10
-13.4209876733
 20
-7.4413409895
 11
-13.6664187102
 21
-7.4512618091
  0
LINE
  5
293
100
AcDbEntity
  8
RACCORDO
100
AcDbLine
 62
7
  6
CONTINUOUS
 10
-9.5011735468
 20
-9.2721723689
 11
-9.5011735468
 21
-8.7321753502
  0
LINE
  5
294
100
AcDbEntity
  8
ASSI
100
AcDbLine
 62
7
  6
CONTINUOUS
 10
-9.5011735468
 20
-9.2721723689
 11
-9.5011735468
 21
-8.7321753502
  0
LINE
  5
295
100
AcDbEntity
  8
RACCORDO
100
AcDbLine
 62
7
  6
CONTINUOUS
 10
-8.4011735468
 20
8.2571813135
 11
-8.4011735468
 21
9.2077553034
  0
LINE
  5
296
100
AcDbEntity
  8
ASSI
100
AcDbLine
 62
7
  6
CONTINUOUS
 10
-8.4011735468
 20
8.2571813135
 11
-8.4011735468
 21
9.2077553034
  0
LINE
  5
297
100
AcDbEntity
  8
DRAFT
100
AcDbLine
 62
7
  6
CONTINUOUS
 10
-8.0011735468
 20
7.9553901086
 11
-8.0011735468
 21
-1.6737711073
  0
LINE
  5
298
100
AcDbEntity
  8
ASSI
100
AcDbLine
 62
7
  6
CONTINUOUS
 10
-8.0011735468
 20
7.9553901086
 11
-8.0011735468
 21
-1.6737711073
  0
LINE
  5
299
100
AcDbEntity
  8
0
100
AcDbLine
 62
7
  6
CONTINUOUS
 10
-7.5011735468
 20
5.7147373294
 11
-7.5011735468
 21
3.9147373294
  0
LINE
  5
29A
100
AcDbEntity
  8
RACCORDO
100
AcDbLine
 62
7
  6
CONTINUOUS
 10
-8.8004404346
 20
-9.2782875742
 11
-8.0011735468
 21
-1.6737711073
  0
LINE
  5
29B
100
AcDbEntity
  8
ASSI
100
AcDbLine
 62
7
  6
CONTINUOUS
 10
-8.8004404346
 20
-9.2782875742
 11
-8.0011735468
 21
-1.6737711073
  0
LINE
  5
29C
100
AcDbEntity
  8
0
100
AcDbLine
 62
7
  6
CONTINUOUS
 10
-8.0011735468
 20
3.8897373294
 11
-7.5011735468
 21
3.9147373294
  0
LINE
  5
29D
100
AcDbEntity
  8
0
100
AcDbLine
 62
7
  6
CONTINUOUS
 10
-8.0011735468
 20
5.7397373294
 11
-7.5011735468
 21
5.7147373294
  0
LINE
  5
29E
100
AcDbEntity
  8
RACCORDO
100
AcDbLine
 62
7
  6
CONTINUOUS
 10
-8.0011735468
 20
7.9553901086
 11
-8.1064092687
 21
7.957227005
  0
LINE
  5
29F
100
AcDbEntity
  8
ASSI
100
AcDbLine
 62
7
  6
CONTINUOUS
 10
-8.0011735468
 20
7.9553901086
 11
-8.1064092687
 21
7.957227005
  0
LINE
  5
2A0
100
AcDbEntity
  8
RACCORDO
100
AcDbLine
 62
253
  6
CONTINUOUS
 10
-8.4011735468
 20
8.9577933796
 11
-13.755227096
 21
8.8643380273
  0
LINE
  5
2A1
100
AcDbEntity
  8
ASSI
100
AcDbLine
 62
253
  6
CONTINUOUS
 10
-8.4011735468
 20
8.9577933796
 11
-13.755227096
 21
8.8643380273
  0
LINE
  5
2A2
100
AcDbEntity
  8
RACCORDO
100
AcDbLine
 62
7
  6
CONTINUOUS
 10
-8.4011735468
 20
9.2077553034
 11
-13.755227098
 21
9.114299951
  0
LINE
  5
2A3
100
AcDbEntity
  8
ASSI
100
AcDbLine
 62
7
  6
CONTINUOUS
 10
-8.4011735468
 20
9.2077553034
 11
-13.755227098
 21
9.114299951
  0
LINE
  5
2A4
100
AcDbEntity
  8
RACCORDO
100
AcDbLine
 62
253
  6
CONTINUOUS
 10
-13.755227098
 20
8.8643380272
 11
-14.0008637865
 21
8.8640140724
  0
LINE
  5
2A5
100
AcDbEntity
  8
ASSI
100
AcDbLine
 62
253
  6
CONTINUOUS
 10
-13.755227098
 20
8.8643380272
 11
-14.0008637865
 21
8.8640140724
  0
CIRCLE
  5
2A6
100
AcDbEntity
  8
DRAFT
100
AcDbCircle
 62
7
  6
CONTINUOUS
 10
14.024774767
 20
4.8149578751
 40
1.3135386721
  0
CIRCLE
  5
2A7
100
AcDbEntity
  8
ASSI
100
AcDbCircle
 62
7
  6
CONTINUOUS
 10
14.024774767
 20
4.8149578751
 40
1.3135386721
  0
CIRCLE
  5
2A8
100
AcDbEntity
  8
DRAFT
100
AcDbCircle
 62
7
  6
CONTINUOUS
 10
14.0247751111
 20
4.8147373294
 40
1.3
  0
CIRCLE
  5
2A9
100
AcDbEntity
  8
ASSI
100
AcDbCircle
 62
7
  6
CONTINUOUS
 10
14.0247751111
 20
4.8147373294
 40
1.3
  0
CIRCLE
  5
2AA
100
AcDbEntity
  8
DRAFT
100
AcDbCircle
 62
7
  6
CONTINUOUS
 10
14.0247751111
 20
4.8147373294
 40
1.225
  0
CIRCLE
  5
2AB
100
AcDbEntity
  8
RACCORDO
100
AcDbCircle
 62
253
  6
CONTINUOUS
 10
14.0247751111
 20
4.8147373294
 40
1.2068524201
  0
CIRCLE
  5
2AC
100
AcDbEntity
  8
RACCORDO
100
AcDbCircle
 62
253
  6
CONTINUOUS
 10
14.0247751111
 20
4.8147373294
 40
1.1180464865
  0
ARC
  5
2AD
100
AcDbEntity
  8
RACCORDO
100
AcDbCircle
 62
253
  6
CONTINUOUS
 10
2.0752652342
 20
8.8642472062
 40
0.2500532007
100
AcDbArc
 50
90.0208102483
 51
179.9791897517
  0
ARC
  5
2AE
100
AcDbEntity
  8
ASSI
100
AcDbCircle
 62
253
  6
CONTINUOUS
 10
2.0752652342
 20
8.8642472062
 40
0.2500532007
100
AcDbArc
 50
90.0208102483
 51
179.9791897517
  0
ARC
  5
2AF
100
AcDbEntity
  8
RACCORDO
100
AcDbCircle
 62
253
  6
CONTINUOUS
 10
25.9742849844
 20
8.8642472029
 40
0.2500531776
100
AcDbArc
 50
0.0208110208
 51
89.9791889339
  0
ARC
  5
2B0
100
AcDbEntity
  8
ASSI
100
AcDbCircle
 62
253
  6
CONTINUOUS
 10
25.9742849844
 20
8.8642472029
 40
0.2500531776
100
AcDbArc
 50
0.0208110208
 51
89.9791889339
  0
ARC
  5
2B1
100
AcDbEntity
  8
RACCORDO
100
AcDbCircle
 62
7
  6
CONTINUOUS
 10
410.9987793944
 20
9.4147373294
 40
425.0
100
AcDbArc
 50
180.074245005
 51
182.2743633301
  0
ARC
  5
2B2
100
AcDbEntity
  8
ASSI
100
AcDbCircle
 62
7
  6
CONTINUOUS
 10
410.9987793944
 20
9.4147373294
 40
425.0
100
AcDbArc
 50
180.074245005
 51
182.2743633301
  0
ARC
  5
2B3
100
AcDbEntity
  8
CURVE
100
AcDbCircle
 62
253
  6
CONTINUOUS
 10
410.9987793944
 20
9.4147373294
 40
425.0
100
AcDbArc
 50
181.5714340737
 51
181.9686658847
  0
ARC
  5
2B4
100
AcDbEntity
  8
RACCORDO
100
AcDbCircle
 62
253
  6
CONTINUOUS
 10
410.9944260262
 20
9.4147374755
 40
424.7500097316
100
AcDbArc
 50
180.074245023
 51
182.2743632977
  0
ARC
  5
2B5
100
AcDbEntity
  8
ASSI
100
AcDbCircle
 62
253
  6
CONTINUOUS
 10
410.9944260262
 20
9.4147374755
 40
424.7500097316
100
AcDbArc
 50
180.074245023
 51
182.2743632977
  0
ARC
  5
2B6
100
AcDbEntity
  8
RACCORDO
100
AcDbCircle
 62
7
  6
CONTINUOUS
 10
-12.6672153829
 20
-7.411577461
 40
1.0
100
AcDbArc
 50
182.2743633301
 51
260.0
  0
ARC
  5
2B7
100
AcDbEntity
  8
ASSI
100
AcDbCircle
 62
7
  6
CONTINUOUS
 10
-12.6672153829
 20
-7.411577461
 40
1.0
100
AcDbArc
 50
182.2743633301
 51
260.0
  0
ARC
  5
2B8
100
AcDbEntity
  8
RACCORDO
100
AcDbCircle
 62
253
  6
CONTINUOUS
 10
-12.6715778164
 20
-7.4115768774
 40
0.7500006907
100
AcDbArc
 50
182.2744058521
 51
259.999957478
  0
ARC
  5
2B9
100
AcDbEntity
  8
ASSI
100
AcDbCircle
 62
253
  6
CONTINUOUS
 10
-12.6715778164
 20
-7.4115768774
 40
0.7500006907
100
AcDbArc
 50
182.2744058521
 51
259.999957478
  0
ARC
  5
2BA
100
AcDbEntity
  8
RACCORDO
100
AcDbCircle
 62
7
  6
CONTINUOUS
 10
-8.1011735468
 20
8.2571813135
 40
0.3
100
AcDbArc
 50
180.0
 51
269.0
  0
ARC
  5
2BB
100
AcDbEntity
  8
ASSI
100
AcDbCircle
 62
7
  6
CONTINUOUS
 10
-8.1011735468
 20
8.2571813135
 40
0.3
100
AcDbArc
 50
180.0
 51
269.0
  0
ARC
  5
2BC
100
AcDbEntity
  8
RACCORDO
100
AcDbCircle
 62
7
  6
CONTINUOUS
 10
-13.7508639964
 20
8.8643380272
 40
0.25
100
AcDbArc
 50
91.0
 51
180.074245005
  0
ARC
  5
2BD
100
AcDbEntity
  8
ASSI
100
AcDbCircle
 62
7
  6
CONTINUOUS
 10
-13.7508639964
 20
8.8643380272
 40
0.25
100
AcDbArc
 50
91.0
 51
180.074245005
  0
SPLINE
  5
2BE
100
AcDbEntity
  8
RACCORDO
100
AcDbSpline
 62
253
  6
CONTINUOUS
 70
0
 71
3
 72
11
 73
7
 74
5
 42
0.0000001
 43
0.0000001
 44
0.0000000001
 12
0.0011902478
 22
-0.3868382137
 32
0.0
 13
0.3868383214
 23
-0.0011547111
 33
0.0
 40
0.0
 40
0.0
 40
0.0
 40
0.0
 40
0.2481425819
 40
0.4975232625
 40
0.7483526478
 40
1.0
 40
1.0
 40
1.0
 40
1.0
 10
1.8085706127
 20
-8.1501832758
 30
0.0
 10
1.8086690631
 20
-8.1821802868
 30
0.0
 10
1.8219132193
 20
-8.2470013084
 30
0.0
 10
1.8777121499
 20
-8.3286973462
 30
0.0
 10
1.9606426703
 20
-8.3833784447
 30
0.0
 10
2.02608359
 20
-8.3962883545
 30
0.0
 10
2.0585325364
 20
-8.3963852145
 30
0.0
 11
1.8085706127
 21
-8.1501832758
 31
0.0
 11
1.8278137059
 21
-8.2442261864
 31
0.0
 11
1.8820474723
 21
-8.3240086603
 31
0.0
 11
1.9630486268
 21
-8.37742962
 31
0.0
 11
2.0585325364
 21
-8.3963852145
 31
0.0
  0
SPLINE
  5
2BF
100
AcDbEntity
  8
RACCORDO
100
AcDbSpline
 62
253
  6
CONTINUOUS
 70
0
 71
3
 72
11
 73
7
 74
5
 42
0.0000001
 43
0.0000001
 44
0.0000000001
 12
0.1007369336
 22
-0.2292793437
 32
0.0
 13
0.2504334586
 23
-0.0001733424
 33
0.0
 40
0.0
 40
0.0
 40
0.0
 40
0.0
 40
0.0822915139
 40
0.3001698808
 40
0.6219901233
 40
1.0
 40
1.0
 40
1.0
 40
1.0
 10
1.8193783186
 20
-7.4413409895
 30
0.0
 10
1.8221415835
 20
-7.4476302376
 30
0.0
 10
1.8557258372
 20
-7.4415062633
 30
0.0
 10
1.9001081262
 20
-7.4515832023
 30
0.0
 10
1.9804113588
 20
-7.4497232947
 30
0.0
 10
2.0377848021
 20
-7.451240324
 30
0.0
 10
2.0693402424
 20
-7.4512621657
 30
0.0
 11
1.8193783186
 21
-7.4413409895
 31
0.0
 11
1.8396414773
 21
-7.4450982319
 31
0.0
 11
1.8941117425
 21
-7.4482959395
 31
0.0
 11
1.9746773154
 21
-7.4504579048
 31
0.0
 11
2.0693402424
 21
-7.4512621657
 31
0.0
  0
SPLINE
  5
2C0
100
AcDbEntity
  8
RACCORDO
100
AcDbSpline
 62
253
  6
CONTINUOUS
 70
0
 71
3
 72
11
 73
7
 74
5
 42
0.0000001
 43
0.0000001
 44
0.0000000001
 12
-0.0011902476
 22
-0.3868382125
 32
0.0
 13
-0.3868383202
 23
-0.0011547048
 33
0.0
 40
0.0
 40
0.0
 40
0.0
 40
0.0
 40
0.2481496322
 40
0.4975322055
 40
0.7483586193
 40
1.0
 40
1.0
 40
1.0
 40
1.0
 10
26.2409796095
 20
-8.1501832758
 30
0.0
 10
26.2408811564
 20
-8.1821811958
 30
0.0
 10
26.2276363657
 20
-8.2470034264
 30
0.0
 10
26.1718359176
 20
-8.3286994184
 30
0.0
 10
26.0889055821
 20
-8.3833789962
 30
0.0
 10
26.0234658621
 20
-8.3962883568
 30
0.0
 10
25.9910176857
 20
-8.396385214
 30
0.0
 11
26.2409796095
 21
-8.1501832758
 31
0.0
 11
26.2217354336
 21
-8.2442287484
 31
0.0
 11
26.1675002377
 21
-8.3240111356
 31
0.0
 11
26.0864994175
 21
-8.3774305138
 31
0.0
 11
25.9910176857
 21
-8.396385214
 31
0.0
  0
SPLINE
  5
2C1
100
AcDbEntity
  8
RACCORDO
100
AcDbSpline
 62
253
  6
CONTINUOUS
 70
0
 71
3
 72
11
 73
7
 74
5
 42
0.0000001
 43
0.0000001
 44
0.0000000001
 12
-0.1008819843
 22
-0.2292154883
 32
0.0
 13
-0.2504333939
 23
-0.000173313
 33
0.0
 40
0.0
 40
0.0
 40
0.0
 40
0.0
 40
0.082299687
 40
0.3001800223
 40
0.6219967759
 40
1.0
 40
1.0
 40
1.0
 40
1.0
 10
26.2301719035
 20
-7.4413409895
 30
0.0
 10
26.2274043849
 20
-7.4476291105
 30
0.0
 10
26.1938276997
 20
-7.4415077233
 30
0.0
 10
26.149437157
 20
-7.4515819134
 30
0.0
 10
26.0691385583
 20
-7.4497233823
 30
0.0
 10
26.0117648566
 20
-7.4512399715
 30
0.0
 10
25.9802099798
 20
-7.4512618091
 30
0.0
 11
26.2301719035
 21
-7.4413409895
 31
0.0
 11
26.2099066488
 21
-7.4450981258
 31
0.0
 11
26.1554358972
 21
-7.4482957172
 31
0.0
 11
26.0748712167
 21
-7.4504575905
 31
0.0
 11
25.9802099798
 21
-7.4512618091
 31
0.0
  0
SPLINE
  5
2C2
100
AcDbEntity
  8
RACCORDO
100
AcDbSpline
 62
253
  6
CONTINUOUS
 70
0
 71
3
 72
13
 73
9
 74
7
 42
0.0000001
 43
0.0000001
 44
0.0000000001
 12
0.0699504283
 22
0.942650268
 32
0.0
 13
0.0004957988
 23
0.9452419502
 33
0.0
 40
0.0
 40
0.0
 40
0.0
 40
0.0
 40
0.0677735974
 40
0.1851013747
 40
0.3460122137
 40
0.5423316971
 40
0.7640939911
 40
1.0
 40
1.0
 40
1.0
 40
1.0
 10
2.0585325365
 20
-8.396385214
 30
0.0
 10
2.0601128005
 20
-8.3750896141
 30
0.0
 10
2.0619064158
 20
-8.3167693642
 30
0.0
 10
2.0644058897
 20
-8.2077912233
 30
0.0
 10
2.0663601048
 20
-8.0582711638
 30
0.0
 10
2.0679824075
 20
-7.8758514683
 30
0.0
 10
2.0690161618
 20
-7.6697937441
 30
0.0
 10
2.0693012551
 20
-7.5255915843
 30
0.0
 10
2.0693402424
 20
-7.4512621657
 30
0.0
 11
2.0585325365
 21
-8.396385214
 31
0.0
 11
2.0613650408
 21
-8.3323854077
 31
0.0
 11
2.0639374071
 21
-8.221512092
 31
0.0
 11
2.0661189066
 21
-8.0694280408
 31
0.0
 11
2.0677985363
 21
-7.8838662054
 31
0.0
 11
2.0688908884
 21
-7.6742499995
 31
0.0
 11
2.0693402424
 21
-7.4512621657
 31
0.0
  0
SPLINE
  5
2C3
100
AcDbEntity
  8
RACCORDO
100
AcDbSpline
 62
253
  6
CONTINUOUS
 70
0
 71
3
 72
13
 73
9
 74
7
 42
0.0000001
 43
0.0000001
 44
0.0000000001
 12
0.0004957988
 22
-0.9452419502
 32
0.0
 13
0.0699504281
 23
-0.9426502681
 33
0.0
 40
0.0
 40
0.0
 40
0.0
 40
0.0
 40
0.2359060089
 40
0.4576683029
 40
0.6539877863
 40
0.8148986253
 40
0.9322264026
 40
1.0
 40
1.0
 40
1.0
 40
1.0
 10
25.9802099798
 20
-7.4512621657
 30
0.0
 10
25.9802489671
 20
-7.5255915843
 30
0.0
 10
25.9805340604
 20
-7.6697937441
 30
0.0
 10
25.9815678147
 20
-7.8758514683
 30
0.0
 10
25.9831901174
 20
-8.0582711638
 30
0.0
 10
25.9851443325
 20
-8.2077912233
 30
0.0
 10
25.9876438064
 20
-8.3167693642
 30
0.0
 10
25.9894374217
 20
-8.3750896141
 30
0.0
 10
25.9910176857
 20
-8.396385214
 30
0.0
 11
25.9802099798
 21
-7.4512621657
 31
0.0
 11
25.9806593338
 21
-7.6742499995
 31
0.0
 11
25.9817516859
 21
-7.8838662054
 31
0.0
 11
25.9834313157
 21
-8.0694280408
 31
0.0
 11
25.9856128151
 21
-8.221512092
 31
0.0
 11
25.9881851814
 21
-8.3323854077
 31
0.0
 11
25.9910176857
 21
-8.396385214
 31
0.0
  0
SPLINE
  5
2C4
100
AcDbEntity
  8
RACCORDO
100
AcDbSpline
 62
253
  6
CONTINUOUS
 70
0
 71
3
 72
13
 73
9
 74
7
 42
0.0000001
 43
0.0000001
 44
0.0000000001
 12
0.069752494
 22
0.7055614738
 32
0.0
 13
0.0004946771
 23
0.7090008173
 33
0.0
 40
0.0
 40
0.0
 40
0.0
 40
0.0
 40
0.067477859
 40
0.1848343948
 40
0.3459357263
 40
0.5426158844
 40
0.7647547131
 40
1.0
 40
1.0
 40
1.0
 40
1.0
 10
1.8085706127
 20
-8.1501832758
 30
0.0
 10
1.810139529
 20
-8.1343133499
 30
0.0
 10
1.8119421913
 20
-8.0906338841
 30
0.0
 10
1.8144386154
 20
-8.0089353584
 30
0.0
 10
1.8163984541
 20
-7.8966498549
 30
0.0
 10
1.8180222149
 20
-7.759608035
 30
0.0
 10
1.8190550717
 20
-7.605032244
 30
0.0
 10
1.8193395284
 20
-7.4969373564
 30
0.0
 10
1.8193783186
 20
-7.4413409895
 30
0.0
 11
1.8085706127
 21
-8.1501832758
 31
0.0
 11
1.8113932494
 21
-8.1024247463
 31
0.0
 11
1.8139700198
 21
-8.0192587553
 31
0.0
 11
1.8161555973
 21
-7.9050586639
 31
0.0
 11
1.8178381721
 21
-7.7656223885
 31
0.0
 11
1.818931104
 21
-7.6081295313
 31
0.0
 11
1.8193783186
 21
-7.4413409895
 31
0.0
  0
SPLINE
  5
2C5
100
AcDbEntity
  8
RACCORDO
100
AcDbSpline
 62
253
  6
CONTINUOUS
 70
0
 71
3
 72
10
 73
6
 74
4
 42
0.0000001
 43
0.0000001
 44
0.0000000001
 12
0.0113038298
 22
16.305676414
 32
0.0
 13
0.0003688181
 23
16.305680328
 33
0.0
 40
0.0
 40
0.0
 40
0.0
 40
0.0
 40
0.3332437898
 40
0.6665833822
 40
1.0
 40
1.0
 40
1.0
 40
1.0
 10
1.8193783186
 20
-7.4413409895
 30
0.0
 10
1.8206339623
 20
-5.630085855
 30
0.0
 10
1.822740159
 20
-2.0070545829
 30
0.0
 10
1.8246847203
 20
3.4281718873
 30
0.0
 10
1.8251714994
 20
7.0521430985
 30
0.0
 10
1.8252124894
 20
8.8643380273
 30
0.0
 11
1.8193783186
 21
-7.4413409895
 31
0.0
 11
1.8225374184
 21
-2.0075751987
 31
0.0
 11
1.824482175
 21
3.4277532884
 31
0.0
 11
1.8252124894
 21
8.8643380273
 31
0.0
  0
SPLINE
  5
2C6
100
AcDbEntity
  8
RACCORDO
100
AcDbSpline
 62
253
  6
CONTINUOUS
 70
0
 71
3
 72
10
 73
6
 74
4
 42
0.0000001
 43
0.0000001
 44
0.0000000001
 12
0.0113038298
 22
16.3152736367
 32
0.0
 13
0.0003688181
 23
16.3152775484
 33
0.0
 40
0.0
 40
0.0
 40
0.0
 40
0.0
 40
0.3332434383
 40
0.6665824571
 40
1.0
 40
1.0
 40
1.0
 40
1.0
 10
2.0693402424
 20
-7.4512621657
 30
0.0
 10
2.0705958848
 20
-5.6389428713
 30
0.0
 10
2.072702079
 20
-2.0137841807
 30
0.0
 10
2.0746466426
 20
3.4246413632
 30
0.0
 10
2.075133423
 20
7.0507474882
 30
0.0
 10
2.0751744132
 20
8.8640140724
 30
0.0
 11
2.0693402424
 21
-7.4512621657
 31
0.0
 11
2.0724993395
 21
-2.0143038955
 31
0.0
 11
2.0744440951
 21
3.4242143675
 31
0.0
 11
2.0751744132
 21
8.8640140724
 31
0.0
  0
SPLINE
  5
2C7
100
AcDbEntity
  8
RACCORDO
100
AcDbSpline
 62
253
  6
CONTINUOUS
 70
0
 71
3
 72
10
 73
6
 74
4
 42
0.0000001
 43
0.0000001
 44
0.0000000001
 12
0.0003688181
 22
-16.3056803279
 32
0.0
 13
0.0113038298
 23
-16.3056764139
 33
0.0
 40
0.0
 40
0.0
 40
0.0
 40
0.0
 40
0.3334166178
 40
0.6667562102
 40
1.0
 40
1.0
 40
1.0
 40
1.0
 10
26.2243377328
 20
8.8643380273
 30
0.0
 10
26.2243787228
 20
7.0521430984
 30
0.0
 10
26.2248655019
 20
3.4281718873
 30
0.0
 10
26.2268100632
 20
-2.0070545829
 30
0.0
 10
26.2289162599
 20
-5.630085855
 30
0.0
 10
26.2301719036
 20
-7.4413409895
 30
0.0
 11
26.2243377328
 21
8.8643380273
 31
0.0
 11
26.2250680472
 21
3.4277532884
 31
0.0
 11
26.2270128038
 21
-2.0075751987
 31
0.0
 11
26.2301719036
 21
-7.4413409895
 31
0.0
  0
SPLINE
  5
2C8
100
AcDbEntity
  8
RACCORDO
100
AcDbSpline
 62
253
  6
CONTINUOUS
 70
0
 71
3
 72
13
 73
9
 74
7
 42
0.0000001
 43
0.0000001
 44
0.0000000001
 12
0.0004946771
 22
-0.7090008173
 32
0.0
 13
0.0697524934
 23
-0.7055614738
 33
0.0
 40
0.0
 40
0.0
 40
0.0
 40
0.0
 40
0.2352452869
 40
0.4573841156
 40
0.6540642737
 40
0.8151656051
 40
0.9325221411
 40
1.0
 40
1.0
 40
1.0
 40
1.0
 10
26.2301719036
 20
-7.4413409895
 30
0.0
 10
26.2302106938
 20
-7.4969373564
 30
0.0
 10
26.2304951505
 20
-7.605032244
 30
0.0
 10
26.2315280073
 20
-7.759608035
 30
0.0
 10
26.2331517682
 20
-7.8966498549
 30
0.0
 10
26.2351116069
 20
-8.0089353585
 30
0.0
 10
26.2376080309
 20
-8.0906338841
 30
0.0
 10
26.2394106932
 20
-8.1343133499
 30
0.0
 10
26.2409796095
 20
-8.1501832758
 30
0.0
 11
26.2301719036
 21
-7.4413409895
 31
0.0
 11
26.2306191182
 21
-7.6081295313
 31
0.0
 11
26.2317120501
 21
-7.7656223885
 31
0.0
 11
26.2333946249
 21
-7.9050586639
 31
0.0
 11
26.2355802024
 21
-8.0192587553
 31
0.0
 11
26.2381569729
 21
-8.1024247463
 31
0.0
 11
26.2409796095
 21
-8.1501832758
 31
0.0
  0
SPLINE
  5
2C9
100
AcDbEntity
  8
ASSI
100
AcDbSpline
 62
7
  6
CONTINUOUS
 70
0
 71
3
 72
26
 73
22
 74
20
 42
0.0000001
 43
0.0000001
 44
0.0000000001
 12
7.5245273328
 22
0.0
 32
0.0
 13
-7.5245273328
 23
0.0
 33
0.0
 40
0.0
 40
0.0
 40
0.0
 40
0.0
 40
0.0525110766
 40
0.1050659475
 40
0.1576757335
 40
0.2102146508
 40
0.2628696807
 40
0.3154318125
 40
0.3681645664
 40
0.4207860678
 40
0.473590599
 40
0.5262369109
 40
0.5790389163
 40
0.6316790221
 40
0.6844572014
 40
0.7370664067
 40
0.7897607685
 40
0.8423102194
 40
0.8949163168
 40
0.9474619409
 40
1.0
 40
1.0
 40
1.0
 40
1.0
 10
14.0247751111
 20
7.2072507933
 30
0.0
 10
14.1564821216
 20
7.2072507933
 30
0.0
 10
14.4205152318
 20
7.185589024
 30
0.0
 10
14.8057358821
 20
7.0888841032
 30
0.0
 10
15.1701327197
 20
6.9304263136
 30
0.0
 10
15.5038339719
 20
6.7142863252
 30
0.0
 10
15.7974476381
 20
6.4463520731
 30
0.0
 10
16.0432523128
 20
6.1333609763
 30
0.0
 10
16.2339878618
 20
5.7841399883
 30
0.0
 10
16.3645015965
 20
5.4075993332
 30
0.0
 10
16.4307353653
 20
5.0148222678
 30
0.0
 10
16.4308527914
 20
4.6160599638
 30
0.0
 10
16.3648431728
 20
4.2232041238
 30
0.0
 10
16.2344844502
 20
3.8464440092
 30
0.0
 10
16.0437616978
 20
3.4968927833
 30
0.0
 10
15.7978305789
 20
3.1835739814
 30
0.0
 10
15.504062519
 20
2.9154419444
 30
0.0
 10
15.1702671622
 20
2.6992319719
 30
0.0
 10
14.8058777945
 20
2.5407730359
 30
0.0
 10
14.4206280962
 20
2.4440436572
 30
0.0
 10
14.1565497983
 20
2.4223696517
 30
0.0
 10
14.0247751111
 20
2.4223696517
 30
0.0
 11
14.0247751111
 21
7.2072507933
 31
0.0
 11
14.4185705935
 21
7.1749127738
 31
0.0
 11
14.802122424
 21
7.0786363982
 31
0.0
 11
15.1651376577
 21
6.9207501515
 31
0.0
 11
15.4969371997
 21
6.7058192717
 31
0.0
 11
15.7895843857
 21
6.4387323903
 31
0.0
 11
16.0338454875
 21
6.1276682886
 31
0.0
 11
16.2240233
 21
5.7794241956
 31
0.0
 11
16.3536817451
 21
5.4053030727
 31
0.0
 11
16.4197418897
 21
5.0135040147
 31
0.0
 11
16.4198582009
 21
4.6173654194
 31
0.0
 11
16.354030847
 21
4.2255464549
 31
0.0
 11
16.2245311073
 21
3.8512222337
 31
0.0
 11
16.0343378269
 21
3.5025971765
 31
0.0
 11
15.789938716
 21
3.1911911049
 31
0.0
 11
15.4971015996
 21
2.9238733071
 31
0.0
 11
15.1652400256
 21
2.7088924021
 31
0.0
 11
14.8022521137
 21
2.5510129274
 31
0.0
 11
14.4187718944
 21
2.4547370493
 31
0.0
 11
14.0247751111
 21
2.4223696517
 31
0.0
  0
SPLINE
  5
2CA
100
AcDbEntity
  8
ASSI
100
AcDbSpline
 62
7
  6
CONTINUOUS
 70
0
 71
3
 72
26
 73
22
 74
20
 42
0.0000001
 43
0.0000001
 44
0.0000000001
 12
-7.5245273329
 22
0.0
 32
0.0
 13
7.5245273329
 23
0.0
 33
0.0
 40
0.0
 40
0.0
 40
0.0
 40
0.0
 40
0.0525110341
 40
0.1050655381
 40
0.1576743928
 40
0.2102117292
 40
0.262864617
 40
0.3154243168
 40
0.3681547145
 40
0.420774355
 40
0.473577854
 40
0.5262241639
 40
0.5790271981
 40
0.6316691632
 40
0.6844497002
 40
0.7370613399
 40
0.7897578459
 40
0.8423088783
 40
0.8949159072
 40
0.9474618983
 40
1.0
 40
1.0
 40
1.0
 40
1.0
 10
14.0247751111
 20
2.4223696517
 30
0.0
 10
13.8930682074
 20
2.4223696517
 30
0.0
 10
13.6290362415
 20
2.4440286011
 30
0.0
 10
13.2438163947
 20
2.5407214648
 30
0.0
 10
12.8794197102
 20
2.6991608678
 30
0.0
 10
12.5457179328
 20
2.9152784044
 30
0.0
 10
12.2521033238
 20
3.1831888036
 30
0.0
 10
12.0062976906
 20
3.4961572569
 30
0.0
 10
11.8155615519
 20
3.8453591674
 30
0.0
 10
11.6850477966
 20
4.2218860878
 30
0.0
 10
11.6188145142
 20
4.6146559895
 30
0.0
 10
11.6186977714
 20
5.0134182805
 30
0.0
 10
11.6847078778
 20
5.4062812619
 30
0.0
 10
11.8150665825
 20
5.7830550977
 30
0.0
 10
12.0057887456
 20
6.1326254017
 30
0.0
 10
12.2517189038
 20
6.4459668613
 30
0.0
 10
12.5454860196
 20
6.7141227675
 30
0.0
 10
12.879280852
 20
6.9303552014
 30
0.0
 10
13.2436703734
 20
7.0888325261
 30
0.0
 10
13.6289208742
 20
7.1855739658
 30
0.0
 10
13.893000317
 20
7.2072507933
 30
0.0
 10
14.0247751111
 20
7.2072507933
 30
0.0
 11
14.0247751111
 21
2.4223696517
 31
0.0
 11
13.6309796287
 21
2.4547037569
 31
0.0
 11
13.2474277982
 21
2.5509687944
 31
0.0
 11
12.8844125645
 21
2.7088374692
 31
0.0
 11
12.5526130225
 21
2.9237464691
 31
0.0
 11
12.2599658365
 21
3.1908094397
 31
0.0
 11
12.0157047347
 21
3.5018502739
 31
0.0
 11
11.8255269222
 21
3.8500741656
 31
0.0
 11
11.6958684771
 21
4.2241804691
 31
0.0
 11
11.6298083326
 21
4.6159716503
 31
0.0
 11
11.6296920214
 21
5.0121102315
 31
0.0
 11
11.6955193752
 21
5.4039370458
 31
0.0
 11
11.825019115
 21
5.7782760711
 31
0.0
 11
12.0152123953
 21
6.126921336
 31
0.0
 11
12.2596115062
 21
6.4383506936
 31
0.0
 11
12.5524486227
 21
6.7056924215
 31
0.0
 11
12.8843101967
 21
6.9206952127
 31
0.0
 11
13.2472981085
 21
7.07859226
 31
0.0
 11
13.6307783279
 21
7.1748794774
 31
0.0
 11
14.0247751111
 21
7.2072507933
 31
0.0
  0
SPLINE
  5
2CB
100
AcDbEntity
  8
RACCORDO
100
AcDbSpline
 62
253
  6
CONTINUOUS
 70
0
 71
3
 72
10
 73
6
 74
4
 42
0.0000001
 43
0.0000001
 44
0.0000000001
 12
0.0003688181
 22
-16.3152775484
 32
0.0
 13
0.0113038298
 23
-16.3152736367
 33
0.0
 40
0.0
 40
0.0
 40
0.0
 40
0.0
 40
0.3334174783
 40
0.6667565294
 40
1.0
 40
1.0
 40
1.0
 40
1.0
 10
25.9743758092
 20
8.8640140724
 30
0.0
 10
25.9744167994
 20
7.0507478399
 30
0.0
 10
25.9749035794
 20
3.4246418906
 30
0.0
 10
25.9768481429
 20
-2.0137836533
 30
0.0
 10
25.9789543373
 20
-5.6389426955
 30
0.0
 10
25.9802099798
 20
-7.4512621657
 30
0.0
 11
25.9743758092
 21
8.8640140724
 31
0.0
 11
25.9751061269
 21
3.4242154225
 31
0.0
 11
25.9770508825
 21
-2.0143033681
 31
0.0
 11
25.9802099798
 21
-7.4512621657
 31
0.0
  0
SPLINE
  5
2CC
100
AcDbEntity
  8
ASSI
100
AcDbSpline
 62
253
  6
CONTINUOUS
 70
0
 71
3
 72
11
 73
7
 74
5
 42
0.0000001
 43
0.0000001
 44
0.0000000001
 12
0.0011902478
 22
-0.3868382137
 32
0.0
 13
0.3868383214
 23
-0.0011547111
 33
0.0
 40
0.0
 40
0.0
 40
0.0
 40
0.0
 40
0.2481425819
 40
0.4975232625
 40
0.7483526478
 40
1.0
 40
1.0
 40
1.0
 40
1.0
 10
1.8085706127
 20
-8.1501832758
 30
0.0
 10
1.8086690631
 20
-8.1821802868
 30
0.0
 10
1.8219132193
 20
-8.2470013084
 30
0.0
 10
1.8777121499
 20
-8.3286973462
 30
0.0
 10
1.9606426703
 20
-8.3833784447
 30
0.0
 10
2.02608359
 20
-8.3962883545
 30
0.0
 10
2.0585325364
 20
-8.3963852145
 30
0.0
 11
1.8085706127
 21
-8.1501832758
 31
0.0
 11
1.8278137059
 21
-8.2442261864
 31
0.0
 11
1.8820474723
 21
-8.3240086603
 31
0.0
 11
1.9630486268
 21
-8.37742962
 31
0.0
 11
2.0585325364
 21
-8.3963852145
 31
0.0
  0
SPLINE
  5
2CD
100
AcDbEntity
  8
ASSI
100
AcDbSpline
 62
253
  6
CONTINUOUS
 70
0
 71
3
 72
11
 73
7
 74
5
 42
0.0000001
 43
0.0000001
 44
0.0000000001
 12
0.1007369336
 22
-0.2292793437
 32
0.0
 13
0.2504334586
 23
-0.0001733424
 33
0.0
 40
0.0
 40
0.0
 40
0.0
 40
0.0
 40
0.0822915139
 40
0.3001698808
 40
0.6219901233
 40
1.0
 40
1.0
 40
1.0
 40
1.0
 10
1.8193783186
 20
-7.4413409895
 30
0.0
 10
1.8221415835
 20
-7.4476302376
 30
0.0
 10
1.8557258372
 20
-7.4415062633
 30
0.0
 10
1.9001081262
 20
-7.4515832023
 30
0.0
 10
1.9804113588
 20
-7.4497232947
 30
0.0
 10
2.0377848021
 20
-7.451240324
 30
0.0
 10
2.0693402424
 20
-7.4512621657
 30
0.0
 11
1.8193783186
 21
-7.4413409895
 31
0.0
 11
1.8396414773
 21
-7.4450982319
 31
0.0
 11
1.8941117425
 21
-7.4482959395
 31
0.0
 11
1.9746773154
 21
-7.4504579048
 31
0.0
 11
2.0693402424
 21
-7.4512621657
 31
0.0
  0
SPLINE
  5
2CE
100
AcDbEntity
  8
ASSI
100
AcDbSpline
 62
253
  6
CONTINUOUS
 70
0
 71
3
 72
11
 73
7
 74
5
 42
0.0000001
 43
0.0000001
 44
0.0000000001
 12
-0.0011902476
 22
-0.3868382125
 32
0.0
 13
-0.3868383202
 23
-0.0011547048
 33
0.0
 40
0.0
 40
0.0
 40
0.0
 40
0.0
 40
0.2481496322
 40
0.4975322055
 40
0.7483586193
 40
1.0
 40
1.0
 40
1.0
 40
1.0
 10
26.2409796095
 20
-8.1501832758
 30
0.0
 10
26.2408811564
 20
-8.1821811958
 30
0.0
 10
26.2276363657
 20
-8.2470034264
 30
0.0
 10
26.1718359176
 20
-8.3286994184
 30
0.0
 10
26.0889055821
 20
-8.3833789962
 30
0.0
 10
26.0234658621
 20
-8.3962883568
 30
0.0
 10
25.9910176857
 20
-8.396385214
 30
0.0
 11
26.2409796095
 21
-8.1501832758
 31
0.0
 11
26.2217354336
 21
-8.2442287484
 31
0.0
 11
26.1675002377
 21
-8.3240111356
 31
0.0
 11
26.0864994175
 21
-8.3774305138
 31
0.0
 11
25.9910176857
 21
-8.396385214
 31
0.0
  0
SPLINE
  5
2CF
100
AcDbEntity
  8
ASSI
100
AcDbSpline
 62
253
  6
CONTINUOUS
 70
0
 71
3
 72
11
 73
7
 74
5
 42
0.0000001
 43
0.0000001
 44
0.0000000001
 12
-0.1008819843
 22
-0.2292154883
 32
0.0
 13
-0.2504333939
 23
-0.000173313
 33
0.0
 40
0.0
 40
0.0
 40
0.0
 40
0.0
 40
0.082299687
 40
0.3001800223
 40
0.6219967759
 40
1.0
 40
1.0
 40
1.0
 40
1.0
 10
26.2301719035
 20
-7.4413409895
 30
0.0
 10
26.2274043849
 20
-7.4476291105
 30
0.0
 10
26.1938276997
 20
-7.4415077233
 30
0.0
 10
26.149437157
 20
-7.4515819134
 30
0.0
 10
26.0691385583
 20
-7.4497233823
 30
0.0
 10
26.0117648566
 20
-7.4512399715
 30
0.0
 10
25.9802099798
 20
-7.4512618091
 30
0.0
 11
26.2301719035
 21
-7.4413409895
 31
0.0
 11
26.2099066488
 21
-7.4450981258
 31
0.0
 11
26.1554358972
 21
-7.4482957172
 31
0.0
 11
26.0748712167
 21
-7.4504575905
 31
0.0
 11
25.9802099798
 21
-7.4512618091
 31
0.0
  0
SPLINE
  5
2D0
100
AcDbEntity
  8
ASSI
100
AcDbSpline
 62
253
  6
CONTINUOUS
 70
0
 71
3
 72
13
 73
9
 74
7
 42
0.0000001
 43
0.0000001
 44
0.0000000001
 12
0.0699504283
 22
0.942650268
 32
0.0
 13
0.0004957988
 23
0.9452419502
 33
0.0
 40
0.0
 40
0.0
 40
0.0
 40
0.0
 40
0.0677735974
 40
0.1851013747
 40
0.3460122137
 40
0.5423316971
 40
0.7640939911
 40
1.0
 40
1.0
 40
1.0
 40
1.0
 10
2.0585325365
 20
-8.396385214
 30
0.0
 10
2.0601128005
 20
-8.3750896141
 30
0.0
 10
2.0619064158
 20
-8.3167693642
 30
0.0
 10
2.0644058897
 20
-8.2077912233
 30
0.0
 10
2.0663601048
 20
-8.0582711638
 30
0.0
 10
2.0679824075
 20
-7.8758514683
 30
0.0
 10
2.0690161618
 20
-7.6697937441
 30
0.0
 10
2.0693012551
 20
-7.5255915843
 30
0.0
 10
2.0693402424
 20
-7.4512621657
 30
0.0
 11
2.0585325365
 21
-8.396385214
 31
0.0
 11
2.0613650408
 21
-8.3323854077
 31
0.0
 11
2.0639374071
 21
-8.221512092
 31
0.0
 11
2.0661189066
 21
-8.0694280408
 31
0.0
 11
2.0677985363
 21
-7.8838662054
 31
0.0
 11
2.0688908884
 21
-7.6742499995
 31
0.0
 11
2.0693402424
 21
-7.4512621657
 31
0.0
  0
SPLINE
  5
2D1
100
AcDbEntity
  8
ASSI
100
AcDbSpline
 62
253
  6
CONTINUOUS
 70
0
 71
3
 72
13
 73
9
 74
7
 42
0.0000001
 43
0.0000001
 44
0.0000000001
 12
0.069752494
 22
0.7055614738
 32
0.0
 13
0.0004946771
 23
0.7090008173
 33
0.0
 40
0.0
 40
0.0
 40
0.0
 40
0.0
 40
0.067477859
 40
0.1848343948
 40
0.3459357263
 40
0.5426158844
 40
0.7647547131
 40
1.0
 40
1.0
 40
1.0
 40
1.0
 10
1.8085706127
 20
-8.1501832758
 30
0.0
 10
1.810139529
 20
-8.1343133499
 30
0.0
 10
1.8119421913
 20
-8.0906338841
 30
0.0
 10
1.8144386154
 20
-8.0089353584
 30
0.0
 10
1.8163984541
 20
-7.8966498549
 30
0.0
 10
1.8180222149
 20
-7.759608035
 30
0.0
 10
1.8190550717
 20
-7.605032244
 30
0.0
 10
1.8193395284
 20
-7.4969373564
 30
0.0
 10
1.8193783186
 20
-7.4413409895
 30
0.0
 11
1.8085706127
 21
-8.1501832758
 31
0.0
 11
1.8113932494
 21
-8.1024247463
 31
0.0
 11
1.8139700198
 21
-8.0192587553
 31
0.0
 11
1.8161555973
 21
-7.9050586639
 31
0.0
 11
1.8178381721
 21
-7.7656223885
 31
0.0
 11
1.818931104
 21
-7.6081295313
 31
0.0
 11
1.8193783186
 21
-7.4413409895
 31
0.0
  0
SPLINE
  5
2D2
100
AcDbEntity
  8
ASSI
100
AcDbSpline
 62
253
  6
CONTINUOUS
 70
0
 71
3
 72
10
 73
6
 74
4
 42
0.0000001
 43
0.0000001
 44
0.0000000001
 12
0.0113038298
 22
16.305676414
 32
0.0
 13
0.0003688181
 23
16.305680328
 33
0.0
 40
0.0
 40
0.0
 40
0.0
 40
0.0
 40
0.3332437898
 40
0.6665833822
 40
1.0
 40
1.0
 40
1.0
 40
1.0
 10
1.8193783186
 20
-7.4413409895
 30
0.0
 10
1.8206339623
 20
-5.630085855
 30
0.0
 10
1.822740159
 20
-2.0070545829
 30
0.0
 10
1.8246847203
 20
3.4281718873
 30
0.0
 10
1.8251714994
 20
7.0521430985
 30
0.0
 10
1.8252124894
 20
8.8643380273
 30
0.0
 11
1.8193783186
 21
-7.4413409895
 31
0.0
 11
1.8225374184
 21
-2.0075751987
 31
0.0
 11
1.824482175
 21
3.4277532884
 31
0.0
 11
1.8252124894
 21
8.8643380273
 31
0.0
  0
SPLINE
  5
2D3
100
AcDbEntity
  8
ASSI
100
AcDbSpline
 62
253
  6
CONTINUOUS
 70
0
 71
3
 72
13
 73
9
 74
7
 42
0.0000001
 43
0.0000001
 44
0.0000000001
 12
0.0004957988
 22
-0.9452419502
 32
0.0
 13
0.0699504281
 23
-0.9426502681
 33
0.0
 40
0.0
 40
0.0
 40
0.0
 40
0.0
 40
0.2359060089
 40
0.4576683029
 40
0.6539877863
 40
0.8148986253
 40
0.9322264026
 40
1.0
 40
1.0
 40
1.0
 40
1.0
 10
25.9802099798
 20
-7.4512621657
 30
0.0
 10
25.9802489671
 20
-7.5255915843
 30
0.0
 10
25.9805340604
 20
-7.6697937441
 30
0.0
 10
25.9815678147
 20
-7.8758514683
 30
0.0
 10
25.9831901174
 20
-8.0582711638
 30
0.0
 10
25.9851443325
 20
-8.2077912233
 30
0.0
 10
25.9876438064
 20
-8.3167693642
 30
0.0
 10
25.9894374217
 20
-8.3750896141
 30
0.0
 10
25.9910176857
 20
-8.396385214
 30
0.0
 11
25.9802099798
 21
-7.4512621657
 31
0.0
 11
25.9806593338
 21
-7.6742499995
 31
0.0
 11
25.9817516859
 21
-7.8838662054
 31
0.0
 11
25.9834313157
 21
-8.0694280408
 31
0.0
 11
25.9856128151
 21
-8.221512092
 31
0.0
 11
25.9881851814
 21
-8.3323854077
 31
0.0
 11
25.9910176857
 21
-8.396385214
 31
0.0
  0
SPLINE
  5
2D4
100
AcDbEntity
  8
ASSI
100
AcDbSpline
 62
253
  6
CONTINUOUS
 70
0
 71
3
 72
10
 73
6
 74
4
 42
0.0000001
 43
0.0000001
 44
0.0000000001
 12
0.0003688181
 22
-16.3056803279
 32
0.0
 13
0.0113038298
 23
-16.3056764139
 33
0.0
 40
0.0
 40
0.0
 40
0.0
 40
0.0
 40
0.3334166178
 40
0.6667562102
 40
1.0
 40
1.0
 40
1.0
 40
1.0
 10
26.2243377328
 20
8.8643380273
 30
0.0
 10
26.2243787228
 20
7.0521430984
 30
0.0
 10
26.2248655019
 20
3.4281718873
 30
0.0
 10
26.2268100632
 20
-2.0070545829
 30
0.0
 10
26.2289162599
 20
-5.630085855
 30
0.0
 10
26.2301719036
 20
-7.4413409895
 30
0.0
 11
26.2243377328
 21
8.8643380273
 31
0.0
 11
26.2250680472
 21
3.4277532884
 31
0.0
 11
26.2270128038
 21
-2.0075751987
 31
0.0
 11
26.2301719036
 21
-7.4413409895
 31
0.0
  0
SPLINE
  5
2D5
100
AcDbEntity
  8
ASSI
100
AcDbSpline
 62
253
  6
CONTINUOUS
 70
0
 71
3
 72
13
 73
9
 74
7
 42
0.0000001
 43
0.0000001
 44
0.0000000001
 12
0.0004946771
 22
-0.7090008173
 32
0.0
 13
0.0697524934
 23
-0.7055614738
 33
0.0
 40
0.0
 40
0.0
 40
0.0
 40
0.0
 40
0.2352452869
 40
0.4573841156
 40
0.6540642737
 40
0.8151656051
 40
0.9325221411
 40
1.0
 40
1.0
 40
1.0
 40
1.0
 10
26.2301719036
 20
-7.4413409895
 30
0.0
 10
26.2302106938
 20
-7.4969373564
 30
0.0
 10
26.2304951505
 20
-7.605032244
 30
0.0
 10
26.2315280073
 20
-7.759608035
 30
0.0
 10
26.2331517682
 20
-7.8966498549
 30
0.0
 10
26.2351116069
 20
-8.0089353585
 30
0.0
 10
26.2376080309
 20
-8.0906338841
 30
0.0
 10
26.2394106932
 20
-8.1343133499
 30
0.0
 10
26.2409796095
 20
-8.1501832758
 30
0.0
 11
26.2301719036
 21
-7.4413409895
 31
0.0
 11
26.2306191182
 21
-7.6081295313
 31
0.0
 11
26.2317120501
 21
-7.7656223885
 31
0.0
 11
26.2333946249
 21
-7.9050586639
 31
0.0
 11
26.2355802024
 21
-8.0192587553
 31
0.0
 11
26.2381569729
 21
-8.1024247463
 31
0.0
 11
26.2409796095
 21
-8.1501832758
 31
0.0
  0
SPLINE
  5
2D6
100
AcDbEntity
  8
ASSI
100
AcDbSpline
 62
7
  6
CONTINUOUS
 70
0
 71
3
 72
26
 73
22
 74
20
 42
0.0000001
 43
0.0000001
 44
0.0000000001
 12
7.5245273328
 22
0.0
 32
0.0
 13
-7.5245273328
 23
0.0
 33
0.0
 40
0.0
 40
0.0
 40
0.0
 40
0.0
 40
0.0525110766
 40
0.1050659475
 40
0.1576757335
 40
0.2102146508
 40
0.2628696807
 40
0.3154318125
 40
0.3681645664
 40
0.4207860678
 40
0.473590599
 40
0.5262369109
 40
0.5790389163
 40
0.6316790221
 40
0.6844572014
 40
0.7370664067
 40
0.7897607685
 40
0.8423102194
 40
0.8949163168
 40
0.9474619409
 40
1.0
 40
1.0
 40
1.0
 40
1.0
 10
14.0247751111
 20
7.2072507933
 30
0.0
 10
14.1564821216
 20
7.2072507933
 30
0.0
 10
14.4205152318
 20
7.185589024
 30
0.0
 10
14.8057358821
 20
7.0888841032
 30
0.0
 10
15.1701327197
 20
6.9304263136
 30
0.0
 10
15.5038339719
 20
6.7142863252
 30
0.0
 10
15.7974476381
 20
6.4463520731
 30
0.0
 10
16.0432523128
 20
6.1333609763
 30
0.0
 10
16.2339878618
 20
5.7841399883
 30
0.0
 10
16.3645015965
 20
5.4075993332
 30
0.0
 10
16.4307353653
 20
5.0148222678
 30
0.0
 10
16.4308527914
 20
4.6160599638
 30
0.0
 10
16.3648431728
 20
4.2232041238
 30
0.0
 10
16.2344844502
 20
3.8464440092
 30
0.0
 10
16.0437616978
 20
3.4968927833
 30
0.0
 10
15.7978305789
 20
3.1835739814
 30
0.0
 10
15.504062519
 20
2.9154419444
 30
0.0
 10
15.1702671622
 20
2.6992319719
 30
0.0
 10
14.8058777945
 20
2.5407730359
 30
0.0
 10
14.4206280962
 20
2.4440436572
 30
0.0
 10
14.1565497983
 20
2.4223696517
 30
0.0
 10
14.0247751111
 20
2.4223696517
 30
0.0
 11
14.0247751111
 21
7.2072507933
 31
0.0
 11
14.4185705935
 21
7.1749127738
 31
0.0
 11
14.802122424
 21
7.0786363982
 31
0.0
 11
15.1651376577
 21
6.9207501515
 31
0.0
 11
15.4969371997
 21
6.7058192717
 31
0.0
 11
15.7895843857
 21
6.4387323903
 31
0.0
 11
16.0338454875
 21
6.1276682886
 31
0.0
 11
16.2240233
 21
5.7794241956
 31
0.0
 11
16.3536817451
 21
5.4053030727
 31
0.0
 11
16.4197418897
 21
5.0135040147
 31
0.0
 11
16.4198582009
 21
4.6173654194
 31
0.0
 11
16.354030847
 21
4.2255464549
 31
0.0
 11
16.2245311073
 21
3.8512222337
 31
0.0
 11
16.0343378269
 21
3.5025971765
 31
0.0
 11
15.789938716
 21
3.1911911049
 31
0.0
 11
15.4971015996
 21
2.9238733071
 31
0.0
 11
15.1652400256
 21
2.7088924021
 31
0.0
 11
14.8022521137
 21
2.5510129274
 31
0.0
 11
14.4187718944
 21
2.4547370493
 31
0.0
 11
14.0247751111
 21
2.4223696517
 31
0.0
  0
SPLINE
  5
2D7
100
AcDbEntity
  8
ASSI
100
AcDbSpline
 62
7
  6
CONTINUOUS
 70
0
 71
3
 72
26
 73
22
 74
20
 42
0.0000001
 43
0.0000001
 44
0.0000000001
 12
-7.5245273329
 22
0.0
 32
0.0
 13
7.5245273329
 23
0.0
 33
0.0
 40
0.0
 40
0.0
 40
0.0
 40
0.0
 40
0.0525110341
 40
0.1050655381
 40
0.1576743928
 40
0.2102117292
 40
0.262864617
 40
0.3154243168
 40
0.3681547145
 40
0.420774355
 40
0.473577854
 40
0.5262241639
 40
0.5790271981
 40
0.6316691632
 40
0.6844497002
 40
0.7370613399
 40
0.7897578459
 40
0.8423088783
 40
0.8949159072
 40
0.9474618983
 40
1.0
 40
1.0
 40
1.0
 40
1.0
 10
14.0247751111
 20
2.4223696517
 30
0.0
 10
13.8930682074
 20
2.4223696517
 30
0.0
 10
13.6290362415
 20
2.4440286011
 30
0.0
 10
13.2438163947
 20
2.5407214648
 30
0.0
 10
12.8794197102
 20
2.6991608678
 30
0.0
 10
12.5457179328
 20
2.9152784044
 30
0.0
 10
12.2521033238
 20
3.1831888036
 30
0.0
 10
12.0062976906
 20
3.4961572569
 30
0.0
 10
11.8155615519
 20
3.8453591674
 30
0.0
 10
11.6850477966
 20
4.2218860878
 30
0.0
 10
11.6188145142
 20
4.6146559895
 30
0.0
 10
11.6186977714
 20
5.0134182805
 30
0.0
 10
11.6847078778
 20
5.4062812619
 30
0.0
 10
11.8150665825
 20
5.7830550977
 30
0.0
 10
12.0057887456
 20
6.1326254017
 30
0.0
 10
12.2517189038
 20
6.4459668613
 30
0.0
 10
12.5454860196
 20
6.7141227675
 30
0.0
 10
12.879280852
 20
6.9303552014
 30
0.0
 10
13.2436703734
 20
7.0888325261
 30
0.0
 10
13.6289208742
 20
7.1855739658
 30
0.0
 10
13.893000317
 20
7.2072507933
 30
0.0
 10
14.0247751111
 20
7.2072507933
 30
0.0
 11
14.0247751111
 21
2.4223696517
 31
0.0
 11
13.6309796287
 21
2.4547037569
 31
0.0
 11
13.2474277982
 21
2.5509687944
 31
0.0
 11
12.8844125645
 21
2.7088374692
 31
0.0
 11
12.5526130225
 21
2.9237464691
 31
0.0
 11
12.2599658365
 21
3.1908094397
 31
0.0
 11
12.0157047347
 21
3.5018502739
 31
0.0
 11
11.8255269222
 21
3.8500741656
 31
0.0
 11
11.6958684771
 21
4.2241804691
 31
0.0
 11
11.6298083326
 21
4.6159716503
 31
0.0
 11
11.6296920214
 21
5.0121102315
 31
0.0
 11
11.6955193752
 21
5.4039370458
 31
0.0
 11
11.825019115
 21
5.7782760711
 31
0.0
 11
12.0152123953
 21
6.126921336
 31
0.0
 11
12.2596115062
 21
6.4383506936
 31
0.0
 11
12.5524486227
 21
6.7056924215
 31
0.0
 11
12.8843101967
 21
6.9206952127
 31
0.0
 11
13.2472981085
 21
7.07859226
 31
0.0
 11
13.6307783279
 21
7.1748794774
 31
0.0
 11
14.0247751111
 21
7.2072507933
 31
0.0
  0
SPLINE
  5
2D8
100
AcDbEntity
  8
RACCORDO
100
AcDbSpline
 62
253
  6
CONTINUOUS
 70
0
 71
3
 72
11
 73
7
 74
5
 42
0.0000001
 43
0.0000001
 44
0.0000000001
 12
-0.0432841549
 22
-0.2455514343
 32
0.0
 13
0.2455491793
 23
-0.0432969454
 33
0.0
 40
0.0
 40
0.0
 40
0.0
 40
0.0
 40
0.3827689169
 40
0.7070452555
 40
0.9236831927
 40
1.0
 40
1.0
 40
1.0
 40
1.0
 10
-12.8018146177
 20
-8.1501832758
 30
0.0
 10
-12.8073372274
 20
-8.1815130946
 30
0.0
 10
-12.8154410508
 20
-8.237800049
 30
0.0
 10
-12.8347201027
 20
-8.3192328672
 30
0.0
 10
-12.8292381346
 20
-8.3586903145
 30
0.0
 10
-12.8471100703
 20
-8.3952837858
 30
0.0
 10
-12.8408635605
 20
-8.396385214
 30
0.0
 11
-12.8018146177
 21
-8.1501832758
 31
0.0
 11
-12.818061463
 21
-8.2442287484
 31
0.0
 11
-12.83118257
 21
-8.3240111356
 31
0.0
 11
-12.8391879714
 21
-8.3774305138
 31
0.0
 11
-12.8408635605
 21
-8.396385214
 31
0.0
  0
SPLINE
  5
2D9
100
AcDbEntity
  8
RACCORDO
100
AcDbSpline
 62
253
  6
CONTINUOUS
 70
0
 71
3
 72
12
 73
8
 74
6
 42
0.0000001
 43
0.0000001
 44
0.0000000001
 12
-0.0043623064
 22
0.2499925102
 32
0.0
 13
0.2499924871
 23
0.0043636351
 33
0.0
 40
0.0
 40
0.0
 40
0.0
 40
0.0
 40
0.3098605754
 40
0.5892143267
 40
0.8103234085
 40
0.9518389381
 40
1.0
 40
1.0
 40
1.0
 40
1.0
 10
-13.755227098
 20
8.8643380272
 30
0.0
 10
-13.755677667
 20
8.8901589683
 30
0.0
 10
-13.7567871429
 20
8.939728444
 30
0.0
 10
-13.7559233527
 20
9.005459636
 30
0.0
 10
-13.7597602255
 20
9.0635643458
 30
0.0
 10
-13.7522181901
 20
9.0890576694
 30
0.0
 10
-13.7592403993
 20
9.1142298986
 30
0.0
 10
-13.755227098
 20
9.114299951
 30
0.0
 11
-13.755227098
 21
8.8643380272
 31
0.0
 11
-13.7563640484
 21
8.9418043
 31
0.0
 11
-13.7569594398
 21
9.0116487394
 31
0.0
 11
-13.7569548465
 21
9.0669327685
 31
0.0
 11
-13.7563516077
 21
9.1023108341
 31
0.0
 11
-13.755227098
 21
9.114299951
 31
0.0
  0
SPLINE
  5
2DA
100
AcDbEntity
  8
ASSI
100
AcDbSpline
 62
253
  6
CONTINUOUS
 70
0
 71
3
 72
11
 73
7
 74
5
 42
0.0000001
 43
0.0000001
 44
0.0000000001
 12
-0.0432841549
 22
-0.2455514343
 32
0.0
 13
0.2455491793
 23
-0.0432969454
 33
0.0
 40
0.0
 40
0.0
 40
0.0
 40
0.0
 40
0.3827689169
 40
0.7070452555
 40
0.9236831927
 40
1.0
 40
1.0
 40
1.0
 40
1.0
 10
-12.8018146177
 20
-8.1501832758
 30
0.0
 10
-12.8073372274
 20
-8.1815130946
 30
0.0
 10
-12.8154410508
 20
-8.237800049
 30
0.0
 10
-12.8347201027
 20
-8.3192328672
 30
0.0
 10
-12.8292381346
 20
-8.3586903145
 30
0.0
 10
-12.8471100703
 20
-8.3952837858
 30
0.0
 10
-12.8408635605
 20
-8.396385214
 30
0.0
 11
-12.8018146177
 21
-8.1501832758
 31
0.0
 11
-12.818061463
 21
-8.2442287484
 31
0.0
 11
-12.83118257
 21
-8.3240111356
 31
0.0
 11
-12.8391879714
 21
-8.3774305138
 31
0.0
 11
-12.8408635605
 21
-8.396385214
 31
0.0
  0
SPLINE
  5
2DB
100
AcDbEntity
  8
ASSI
100
AcDbSpline
 62
253
  6
CONTINUOUS
 70
0
 71
3
 72
12
 73
8
 74
6
 42
0.0000001
 43
0.0000001
 44
0.0000000001
 12
-0.0043623064
 22
0.2499925102
 32
0.0
 13
0.2499924871
 23
0.0043636351
 33
0.0
 40
0.0
 40
0.0
 40
0.0
 40
0.0
 40
0.3098605754
 40
0.5892143267
 40
0.8103234085
 40
0.9518389381
 40
1.0
 40
1.0
 40
1.0
 40
1.0
 10
-13.755227098
 20
8.8643380272
 30
0.0
 10
-13.755677667
 20
8.8901589683
 30
0.0
 10
-13.7567871429
 20
8.939728444
 30
0.0
 10
-13.7559233527
 20
9.005459636
 30
0.0
 10
-13.7597602255
 20
9.0635643458
 30
0.0
 10
-13.7522181901
 20
9.0890576694
 30
0.0
 10
-13.7592403993
 20
9.1142298986
 30
0.0
 10
-13.755227098
 20
9.114299951
 30
0.0
 11
-13.755227098
 21
8.8643380272
 31
0.0
 11
-13.7563640484
 21
8.9418043
 31
0.0
 11
-13.7569594398
 21
9.0116487394
 31
0.0
 11
-13.7569548465
 21
9.0669327685
 31
0.0
 11
-13.7563516077
 21
9.1023108341
 31
0.0
 11
-13.755227098
 21
9.114299951
 31
0.0
  0
ELLIPSE
  5
2DC
100
AcDbEntity
  8
RACCORDO
100
AcDbEllipse
 62
7
  6
CONTINUOUS
 10
1.7265206176
 20
8.2571813135
 30
0.0
 11
-0.0
 21
0.3
 31
0.0
 40
0.0174550649
 41
-3.1241393611
 42
-1.5707963268
  0
ELLIPSE
  5
2DD
100
AcDbEntity
  8
RACCORDO
100
AcDbEllipse
 62
7
  6
CONTINUOUS
 10
26.3230296046
 20
8.2571813135
 30
0.0
 11
0.0
 21
0.3
 31
0.0
 40
0.0174550649
 41
-4.7123889804
 42
-3.1590459461
  0
ELLIPSE
  5
2DE
100
AcDbEntity
  8
RACCORDO
100
AcDbEllipse
 62
7
  6
CONTINUOUS
 10
1.9817952191
 20
8.9577172214
 30
0.0
 11
0.1768305473
 21
-0.1768305473
 31
0.0
 40
0.9996954599
 41
2.3563467834
 42
3.9268385237
  0
ELLIPSE
  5
2DF
100
AcDbEntity
  8
RACCORDO
100
AcDbEllipse
 62
7
  6
CONTINUOUS
 10
26.0677550031
 20
8.9577172214
 30
0.0
 11
0.1768305473
 21
0.1768305473
 31
0.0
 40
0.9996954599
 41
-0.7852458702
 42
0.7852458701
  0
ELLIPSE
  5
2E0
100
AcDbEntity
  8
RACCORDO
100
AcDbEllipse
 62
7
  6
CONTINUOUS
 10
26.0612440211
 20
-9.0285071609
 30
0.0
 11
0.2183310446
 21
0.1221043275
 31
0.0
 40
0.9980297029
 41
-2.0815635429
 42
-0.5109195152
  0
ELLIPSE
  5
2E1
100
AcDbEntity
  8
RACCORDO
100
AcDbEllipse
 62
7
  6
CONTINUOUS
 10
1.9883062011
 20
-9.0285071609
 30
0.0
 11
0.2183310446
 21
-0.1221043275
 31
0.0
 40
0.9980297029
 41
-2.6306731384
 42
-1.0600291107
  0
ELLIPSE
  5
2E2
100
AcDbEntity
  8
RACCORDO
100
AcDbEllipse
 62
7
  6
CONTINUOUS
 10
2.0009957905
 20
-8.7314060177
 30
0.0
 11
0.0250113895
 21
0.2526592035
 31
0.0
 40
0.9846622838
 41
-4.6121910857
 42
-3.0444253421
  0
ELLIPSE
  5
2E3
100
AcDbEntity
  8
RACCORDO
100
AcDbEllipse
 62
7
  6
CONTINUOUS
 10
2.0009957905
 20
-9.0221628493
 30
0.0
 11
0.2236527791
 21
0.1118178731
 31
-0.0
 40
0.9998096356
 41
2.6780516535
 42
4.2486956813
  0
ELLIPSE
  5
2E4
100
AcDbEntity
  8
RACCORDO
100
AcDbEllipse
 62
7
  6
CONTINUOUS
 10
26.0485544317
 20
-9.0221628493
 30
0.0
 11
0.2236527791
 21
-0.1118178731
 31
0.0
 40
0.9998096356
 41
-1.1071030277
 42
0.4635410001
  0
ELLIPSE
  5
2E5
100
AcDbEntity
  8
RACCORDO
100
AcDbEllipse
 62
7
  6
CONTINUOUS
 10
26.0485544317
 20
-8.7314060177
 30
0.0
 11
-0.0250113895
 21
0.2526592035
 31
0.0
 40
0.9846622838
 41
-3.2387599651
 42
-1.6709942215
  0
ELLIPSE
  5
2E6
100
AcDbEntity
  8
ASSI
100
AcDbEllipse
 62
7
  6
CONTINUOUS
 10
1.7265206176
 20
8.2571813135
 30
0.0
 11
-0.0
 21
0.3
 31
0.0
 40
0.0174550649
 41
-3.1241393611
 42
-1.5707963268
  0
ELLIPSE
  5
2E7
100
AcDbEntity
  8
ASSI
100
AcDbEllipse
 62
7
  6
CONTINUOUS
 10
26.3230296046
 20
8.2571813135
 30
0.0
 11
0.0
 21
0.3
 31
0.0
 40
0.0174550649
 41
-4.7123889804
 42
-3.1590459461
  0
ELLIPSE
  5
2E8
100
AcDbEntity
  8
ASSI
100
AcDbEllipse
 62
7
  6
CONTINUOUS
 10
1.9817952191
 20
8.9577172214
 30
0.0
 11
0.1768305473
 21
-0.1768305473
 31
0.0
 40
0.9996954599
 41
2.3563467834
 42
3.9268385237
  0
ELLIPSE
  5
2E9
100
AcDbEntity
  8
ASSI
100
AcDbEllipse
 62
7
  6
CONTINUOUS
 10
26.0677550031
 20
8.9577172214
 30
0.0
 11
0.1768305473
 21
0.1768305473
 31
0.0
 40
0.9996954599
 41
-0.7852458702
 42
0.7852458701
  0
ELLIPSE
  5
2EA
100
AcDbEntity
  8
ASSI
100
AcDbEllipse
 62
7
  6
CONTINUOUS
 10
26.0612440211
 20
-9.0285071609
 30
0.0
 11
0.2183310446
 21
0.1221043275
 31
0.0
 40
0.9980297029
 41
-2.0815635429
 42
-0.5109195152
  0
ELLIPSE
  5
2EB
100
AcDbEntity
  8
ASSI
100
AcDbEllipse
 62
7
  6
CONTINUOUS
 10
1.9883062011
 20
-9.0285071609
 30
0.0
 11
0.2183310446
 21
-0.1221043275
 31
0.0
 40
0.9980297029
 41
-2.6306731384
 42
-1.0600291107
  0
ELLIPSE
  5
2EC
100
AcDbEntity
  8
ASSI
100
AcDbEllipse
 62
7
  6
CONTINUOUS
 10
2.0009957905
 20
-8.7314060177
 30
0.0
 11
0.0250113895
 21
0.2526592035
 31
0.0
 40
0.9846622838
 41
-4.6121910857
 42
-3.0444253421
  0
ELLIPSE
  5
2ED
100
AcDbEntity
  8
ASSI
100
AcDbEllipse
 62
7
  6
CONTINUOUS
 10
2.0009957905
 20
-9.0221628493
 30
0.0
 11
0.2236527791
 21
0.1118178731
 31
-0.0
 40
0.9998096356
 41
2.6780516535
 42
4.2486956813
  0
ELLIPSE
  5
2EE
100
AcDbEntity
  8
ASSI
100
AcDbEllipse
 62
7
  6
CONTINUOUS
 10
26.0485544317
 20
-9.0221628493
 30
0.0
 11
0.2236527791
 21
-0.1118178731
 31
0.0
 40
0.9998096356
 41
-1.1071030277
 42
0.4635410001
  0
ELLIPSE
  5
2EF
100
AcDbEntity
  8
ASSI
100
AcDbEllipse
 62
7
  6
CONTINUOUS
 10
26.0485544317
 20
-8.7314060177
 30
0.0
 11
-0.0250113895
 21
0.2526592035
 31
0.0
 40
0.9846622838
 41
-3.2387599651
 42
-1.6709942215
  0
ENDSEC
  0
SECTION
  2
OBJECTS
  0
DICTIONARY
  5
C
100
AcDbDictionary
280
0
281
1
  3
ACAD_GROUP
350
D
  3
ACAD_MLINESTYLE
350
17
  3
ACAD_LAYOUT
350
1A
  3
ACAD_PLOTSETTINGS
350
19
  3
ACAD_PLOTSTYLENAME
350
E
  0
DICTIONARY
  5
D
102
{ACAD_REACTORS
330
C
102
}
100
AcDbDictionary
280
0
281
1
  0
ACDBDICTIONARYWDFLT
  5
E
102
{ACAD_REACTORS
330
C
102
}
100
AcDbDictionary
281
1
  3
Normal
350
F
100
AcDbDictionaryWithDefault
340
F
  0
DICTIONARY
  5
17
102
{ACAD_REACTORS
330
C
102
}
100
AcDbDictionary
280
0
281
1
  3
Standard
350
18
  0
DICTIONARY
  5
19
102
{ACAD_REACTORS
330
C
102
}
100
AcDbDictionary
281
1
  0
DICTIONARY
  5
1A
102
{ACAD_REACTORS
330
C
102
}
100
AcDbDictionary
281
1
  3
Model
350
2F0
  3
Layout1
350
2F1
  0
ACDBPLACEHOLDER
  5
F
102
{ACAD_REACTORS
330
E
102
}
  0
MLINESTYLE
  5
18
102
{ACAD_REACTORS
330
17
102
}
100
AcDbMlineStyle
  2
STANDARD
 70
0
  3

 62
256
 51
90.0
 52
90.0
 71
2
 49
0.5
 62
256
  6
BYLAYER
 49
-0.5
 62
256
  6
BYLAYER
  0
LAYOUT
  5
2F0
102
{ACAD_REACTORS
330
1A
102
}
100
AcDbPlotSettings
  1

  2
none_device
  4
ISO_A4_(297.00_x_210.00_MM)
  6

 40
0.0
 41
0.0
 42
0.0
 43
0.0
 44
297.0
 45
210.0
 46
0.0
 47
0.0
 48
0.0
 49
0.0
140
0.0
141
0.0
142
1.0
143
1.0
 70
1024
 72
1
 73
0
 74
0
  7

 75
0
147
1.0
148
0.0
149
0.0
100
AcDbLayout
  1
Model
 70
0
 71
0
 10
0.0
 20
0.0
 11
297.0
 21
210.0
 12
0.0
 22
0.0
 32
0.0
 14
0.0
 24
0.0
 34
0.0
 15
0.0
 25
0.0
 35
0.0
146
0.0
 13
0.0
 23
0.0
 33
0.0
 16
1.0
 26
0.0
 36
0.0
 17
0.0
 27
1.0
 37
0.0
 76
0
330
212
345
0
346
0
  0
LAYOUT
  5
2F1
102
{ACAD_REACTORS
330
1A
102
}
100
AcDbPlotSettings
  1

  2
none_device
  4
ISO_A4_(297.00_x_210.00_MM)
  6

 40
0.0
 41
0.0
 42
0.0
 43
0.0
 44
297.0
 45
210.0
 46
0.0
 47
0.0
 48
0.0
 49
0.0
140
0.0
141
0.0
142
1.0
143
1.0
 70
0
 72
1
 73
0
 74
0
  7

 75
0
147
1.0
148
0.0
149
0.0
100
AcDbLayout
  1
Layout1
 70
0
 71
1
 10
0.0
 20
0.0
 11
297.0
 21
210.0
 12
0.0
 22
0.0
 32
0.0
 14
0.0
 24
0.0
 34
0.0
 15
0.0
 25
0.0
 35
0.0
146
0.0
 13
0.0
 23
0.0
 33
0.0
 16
1.0
 26
0.0
 36
0.0
 17
0.0
 27
1.0
 37
0.0
 76
0
330
213
345
0
346
0
  0
ENDSEC
  0
EOF
