  0
SECTION
  2
HEADER
  9
$ACADVER
  1
AC1015
  9
$DWGCODEPAGE
  3
ANSI_1252
  9
$EXTMAX
 10
297.0
 20
210.0
 30
0.0
  9
$EXTMIN
 10
0.0
 20
0.0
 30
0.0
  9
$LIMMIN
 10
0.0
 20
0.0
  9
$LIMMAX
 10
297.0
 20
210.0
  9
$VIEWCTR
 10
148.5
 20
105.0
  9
$VIEWSIZE
 40
210.0
  9
$CLAYER
  8
0
  9
$LTSCALE
 40
16.335
  9
$CELTYPE
  6
BYLAYER
  9
$DIMSCALE
 40
1.0
  9
$DIMASZ
 40
3.0
  9
$DIMEXO
 40
1.85625
  9
$DIMDLI
 40
11.286
  9
$DIMEXE
 40
5.346
  9
$DIMCEN
 40
2.673
  9
$DIMLFAC
 40
1.0
  9
$DIMBLK
  1
_FILLED
  9
$DIMTXT
 40
3.0
  9
$DIMTOL
 70
1
  9
$DIMLIM
 70
0
  9
$DIMTFAC
 40
1.0
  9
$DIMTP
 40
0.01
  9
$DIMTM
 40
0.01
  9
$PDMODE
 70
3
  9
$PDSIZE
 40
3.0
  9
$HANDSEED
  5
2F8
  9
$TILEMODE
 70
1
  9
$MEASUREMENT
 70
1
  9
$INSUNITS
 70
4
  0
ENDSEC
  0
SECTION
  2
CLASSES
  0
CLASS
  1
ACDBDICTIONARYWDFLT
  2
AcDbDictionaryWithDefault
  3
AutoCAD 2000
 90
0
280
0
281
0
  0
CLASS
  1
ACDBPLACEHOLDER
  2
AcDbPlaceHolder
  3
AutoCAD 2000
 90
0
280
0
281
0
  0
CLASS
  1
LAYOUT
  2
AcDbLayout
  3
AutoCAD 2000
 90
0
280
0
281
0
  0
ENDSEC
  0
SECTION
  2
TABLES
  0
TABLE
  2
VPORT
  5
8
100
AcDbSymbolTable
 70
2
  0
VPORT
  5
1F4
100
AcDbSymbolTableRecord
100
AcDbViewportTableRecord
  2
*ACTIVE
 70
0
 10
0.0
 20
0.0
 11
1.0
 21
1.0
 12
148.5
 22
105.0
 13
0.0
 23
0.0
 14
1.0
 24
1.0
 15
0.0
 25
0.0
 16
0.0
 26
0.0
 36
1.0
 17
0.0
 27
0.0
 37
0.0
 40
210.0
 41
1.4142857143
 42
50.0
 43
0.0
 44
0.0
 50
0.0
 51
0.0
 71
0
 72
100
 73
1
 74
1
 75
0
 76
0
 77
0
 78
0
  0
ENDTAB
  0
TABLE
  2
LTYPE
  5
5
100
AcDbSymbolTable
 70
6
  0
LTYPE
  5
14
100
AcDbSymbolTableRecord
100
AcDbLinetypeTableRecord
  2
BYBLOCK
 70
0
  3

 72
65
 73
0
 40
0.0
  0
LTYPE
  5
15
100
AcDbSymbolTableRecord
100
AcDbLinetypeTableRecord
  2
BYLAYER
 70
0
  3

 72
65
 73
0
 40
0.0
  0
LTYPE
  5
16
100
AcDbSymbolTableRecord
100
AcDbLinetypeTableRecord
  2
CONTINUOUS
 70
64
  3
Solid line
 72
65
 73
0
 40
0.0
  0
LTYPE
  5
1F5
100
AcDbSymbolTableRecord
100
AcDbLinetypeTableRecord
  2
CENTER
 70
64
  3
____ _ ____ _ ____ _ ____ _ ____ _ ____ _ ____
 72
65
 73
4
 40
0.6
 49
0.375
 74
0
 49
-0.075
 74
0
 49
0.075
 74
0
 49
-0.075
 74
0
  0
LTYPE
  5
1F6
100
AcDbSymbolTableRecord
100
AcDbLinetypeTableRecord
  2
HIDDEN
 70
64
  3
- - - - - - - - - - - - - - - - - - - -
 72
65
 73
2
 40
0.2
 49
0.1
 74
0
 49
-0.1
 74
0
  0
LTYPE
  5
1F7
100
AcDbSymbolTableRecord
100
AcDbLinetypeTableRecord
  2
PHANTOM
 70
64
  3
_____ _ _ _____ _ _ _____ _ _ _____
 72
65
 73
6
 40
0.8
 49
0.45
 74
0
 49
-0.05
 74
0
 49
0.1
 74
0
 49
-0.05
 74
0
 49
0.1
 74
0
 49
-0.05
 74
0
  0
LTYPE
  5
1F8
100
AcDbSymbolTableRecord
100
AcDbLinetypeTableRecord
  2
DOT
 70
64
  3
. . . . . . . . . . . . . . . . . . . .
 72
65
 73
2
 40
0.2
 49
0.1
 74
0
 49
-0.1
 74
0
  0
LTYPE
  5
1F9
100
AcDbSymbolTableRecord
100
AcDbLinetypeTableRecord
  2
DASHED
 70
64
  3
- - - - - - - - - - - - - - - - - - - -
 72
65
 73
2
 40
0.2
 49
0.1
 74
0
 49
-0.1
 74
0
  0
ENDTAB
  0
TABLE
  2
LAYER
  5
2
100
AcDbSymbolTable
 70
36
  0
LAYER
  5
10
100
AcDbSymbolTableRecord
100
AcDbLayerTableRecord
  2
0
 70
0
 62
7
  6
CONTINUOUS
370
-3
390
F
  0
LAYER
  5
1FA
100
AcDbSymbolTableRecord
100
AcDbLayerTableRecord
  2
DEFAULT_1
 70
0
 62
7
  6
CENTER
370
-3
390
F
  0
LAYER
  5
1FB
100
AcDbSymbolTableRecord
100
AcDbLayerTableRecord
  2
DEFAULT_2
 70
0
 62
7
  6
HIDDEN
370
-3
390
F
  0
LAYER
  5
1FC
100
AcDbSymbolTableRecord
100
AcDbLayerTableRecord
  2
DEFAULT_3
 70
0
 62
7
  6
PHANTOM
370
-3
390
F
  0
LAYER
  5
1FD
100
AcDbSymbolTableRecord
100
AcDbLayerTableRecord
  2
ASSI
 70
0
 62
7
  6
CONTINUOUS
370
-3
390
F
  0
LAYER
  5
1FE
100
AcDbSymbolTableRecord
100
AcDbLayerTableRecord
  2
COORDINATE
 70
0
 62
7
  6
CONTINUOUS
370
-3
390
F
  0
LAYER
  5
1FF
100
AcDbSymbolTableRecord
100
AcDbLayerTableRecord
  2
COORD_ORIGINE
 70
0
 62
7
  6
CONTINUOUS
370
-3
390
F
  0
LAYER
  5
200
100
AcDbSymbolTableRecord
100
AcDbLayerTableRecord
  2
COPY_PUBLISH
 70
0
 62
7
  6
CONTINUOUS
370
-3
390
F
  0
LAYER
  5
201
100
AcDbSymbolTableRecord
100
AcDbLayerTableRecord
  2
COSMETIC
 70
0
 62
7
  6
CONTINUOUS
370
-3
390
F
  0
LAYER
  5
202
100
AcDbSymbolTableRecord
100
AcDbLayerTableRecord
  2
CURVE
 70
0
 62
7
  6
CONTINUOUS
370
-3
390
F
  0
LAYER
  5
203
100
AcDbSymbolTableRecord
100
AcDbLayerTableRecord
  2
DRAFT
 70
0
 62
7
  6
CONTINUOUS
370
-3
390
F
  0
LAYER
  5
204
100
AcDbSymbolTableRecord
100
AcDbLayerTableRecord
  2
IGES
 70
0
 62
7
  6
CONTINUOUS
370
-3
390
F
  0
LAYER
  5
205
100
AcDbSymbolTableRecord
100
AcDbLayerTableRecord
  2
IMPORT_IGES
 70
0
 62
7
  6
CONTINUOUS
370
-3
390
F
  0
LAYER
  5
206
100
AcDbSymbolTableRecord
100
AcDbLayerTableRecord
  2
INTF_12
 70
0
 62
7
  6
CONTINUOUS
370
-3
390
F
  0
LAYER
  5
207
100
AcDbSymbolTableRecord
100
AcDbLayerTableRecord
  2
INTF_9
 70
0
 62
7
  6
CONTINUOUS
370
-3
390
F
  0
LAYER
  5
208
100
AcDbSymbolTableRecord
100
AcDbLayerTableRecord
  2
NOTE
 70
0
 62
7
  6
CONTINUOUS
370
-3
390
F
  0
LAYER
  5
209
100
AcDbSymbolTableRecord
100
AcDbLayerTableRecord
  2
PIANI
 70
0
 62
7
  6
CONTINUOUS
370
-3
390
F
  0
LAYER
  5
20A
100
AcDbSymbolTableRecord
100
AcDbLayerTableRecord
  2
PIANI_ORIGINE
 70
0
 62
7
  6
CONTINUOUS
370
-3
390
F
  0
LAYER
  5
20B
100
AcDbSymbolTableRecord
100
AcDbLayerTableRecord
  2
RACCORDO
 70
0
 62
7
  6
CONTINUOUS
370
-3
390
F
  0
LAYER
  5
20C
100
AcDbSymbolTableRecord
100
AcDbLayerTableRecord
  2
SMUSSO
 70
0
 62
7
  6
CONTINUOUS
370
-3
390
F
  0
LAYER
  5
20D
100
AcDbSymbolTableRecord
100
AcDbLayerTableRecord
  2
SNAPLINE
 70
0
 62
7
  6
CONTINUOUS
370
-3
390
F
  0
LAYER
  5
20E
100
AcDbSymbolTableRecord
100
AcDbLayerTableRecord
  2
SUPERFICI
 70
0
 62
7
  6
CONTINUOUS
370
-3
390
F
  0
LAYER
  5
20F
100
AcDbSymbolTableRecord
100
AcDbLayerTableRecord
  2
TRASH
 70
0
 62
7
  6
CONTINUOUS
370
-3
390
F
  0
ENDTAB
  0
TABLE
  2
STYLE
  5
3
100
AcDbSymbolTable
 70
1
  0
STYLE
  5
11
100
AcDbSymbolTableRecord
100
AcDbTextStyleTableRecord
  2
STANDARD
 70
0
 40
0.0
 41
0.8
 50
0.0
 71
0
 42
0.2
  3
txt
  4

  0
STYLE
  5
210
100
AcDbSymbolTableRecord
100
AcDbTextStyleTableRecord
  2
TEXTSTYLE_1
 70
0
 40
0.0
 41
0.8
 50
0.0
 71
0
 42
0.2
  3
gdt
  4

  0
ENDTAB
  0
TABLE
  2
VIEW
  5
6
100
AcDbSymbolTable
 70
0
  0
ENDTAB
  0
TABLE
  2
UCS
  5
7
100
AcDbSymbolTable
 70
0
  0
ENDTAB
  0
TABLE
  2
APPID
  5
9
100
AcDbSymbolTable
 70
1
  0
APPID
  5
211
100
AcDbSymbolTableRecord
100
AcDbRegAppTableRecord
  2
ACAD
 70
0
  0
ENDTAB
  0
TABLE
  2
BLOCK_RECORD
  5
1
100
AcDbSymbolTable
 70
0
  0
BLOCK_RECORD
  5
212
100
AcDbSymbolTableRecord
100
AcDbBlockTableRecord
  2
*Model_Space
  0
BLOCK_RECORD
  5
213
100
AcDbSymbolTableRecord
100
AcDbBlockTableRecord
  2
*Paper_Space
  0
BLOCK_RECORD
  5
214
100
AcDbSymbolTableRecord
100
AcDbBlockTableRecord
  2
_FILLED
  0
BLOCK_RECORD
  5
215
100
AcDbSymbolTableRecord
100
AcDbBlockTableRecord
  2
*D0
  0
BLOCK_RECORD
  5
216
100
AcDbSymbolTableRecord
100
AcDbBlockTableRecord
  2
*D1
  0
BLOCK_RECORD
  5
217
100
AcDbSymbolTableRecord
100
AcDbBlockTableRecord
  2
*D2
  0
ENDTAB
  0
TABLE
  2
DIMSTYLE
  5
A
100
AcDbSymbolTable
 70
1
100
AcDbDimStyleTable
 71
0
  0
DIMSTYLE
105
218
100
AcDbSymbolTableRecord
100
AcDbDimStyleTableRecord
  2
STANDARD
 70
0
  3

  4

 40
1.0
 41
3.0
 42
0.0625
 43
0.38
 44
0.18
 45
0.0
 46
0.0
 47
0.01
 48
0.01
140
3.0
141
0.09
142
0.0
143
25.4
144
1.0
145
0.0
146
1.0
147
0.09
 71
1.0
 72
0.0
 73
0
 74
0
 75
0
 76
0
 77
1
 78
8
170
0
171
2
172
0
173
0
174
0
175
0
176
0
177
0
178
0
270
2
271
2
272
2
273
2
274
2
275
0
280
0
281
0
282
0
283
1
284
8
285
0
286
0
287
3
288
0
340
11
341
214
342
214
343
214
344
214
  0
DIMSTYLE
105
219
100
AcDbSymbolTableRecord
100
AcDbDimStyleTableRecord
  2
DIMSTYLE_1
 70
0
  3

  4

 40
1.0
 41
3.0
 42
0.0625
 43
0.38
 44
0.18
 45
0.0
 46
0.0
 47
0.0
 48
0.0
140
3.0
141
0.09
142
0.0
143
25.4
144
1.0
145
0.0
146
1.0
147
0.09
 71
0.0
 72
0.0
 73
0
 74
0
 75
0
 76
0
 77
1
 78
8
170
0
171
2
172
0
173
0
174
0
175
0
176
0
177
0
178
0
270
2
271
2
272
2
273
2
274
2
275
0
280
0
281
0
282
0
283
1
284
8
285
0
286
0
287
3
288
0
340
11
341
214
342
214
343
214
344
214
  0
DIMSTYLE
105
21A
100
AcDbSymbolTableRecord
100
AcDbDimStyleTableRecord
  2
DIMSTYLE_2
 70
0
  3

  4

 40
1.0
 41
3.0
 42
0.0625
 43
0.38
 44
0.18
 45
0.0
 46
0.0
 47
0.0
 48
0.0
140
3.0
141
0.09
142
0.0
143
25.4
144
1.0
145
0.0
146
1.0
147
0.09
 71
0.0
 72
0.0
 73
0
 74
0
 75
0
 76
0
 77
1
 78
8
170
0
171
2
172
0
173
0
174
0
175
0
176
0
177
0
178
0
270
2
271
1
272
1
273
2
274
2
275
0
280
0
281
0
282
0
283
1
284
8
285
0
286
0
287
3
288
0
340
11
341
214
342
214
343
214
344
214
  0
ENDTAB
  0
ENDSEC
  0
SECTION
  2
BLOCKS
  0
BLOCK
  5
20
100
AcDbEntity
  8
0
100
AcDbBlockBegin
  2
*Model_Space
 70
0
 10
0.0
 20
0.0
 30
0.0
  3
*Model_Space
  1

  0
ENDBLK
  5
21
100
AcDbEntity
  8
0
100
AcDbBlockEnd
  0
BLOCK
  5
1C
100
AcDbEntity
  8
0
100
AcDbBlockBegin
  2
*Paper_Space
 70
0
 10
0.0
 20
0.0
 30
0.0
  3
*Paper_Space
  1

  0
ENDBLK
  5
1D
100
AcDbEntity
  8
0
100
AcDbBlockEnd
  0
BLOCK
  5
21B
100
AcDbEntity
  8
0
100
AcDbBlockBegin
  2
_FILLED
 70
64
 10
0.0
 20
0.0
  3
_FILLED
  1

  0
SOLID
  5
21C
100
AcDbEntity
  8
0
  6
BYBLOCK
 62
0
100
AcDbTrace
 10
0.0
 20
0.0
 11
-1.0
 21
0.3166666667
 12
-1.0
 22
-0.3166666667
 13
-1.0
 23
-0.3166666667
  0
ENDBLK
  5
21D
100
AcDbEntity
  8
0
  6
BYBLOCK
 62
0
100
AcDbBlockEnd
  0
BLOCK
  5
21E
100
AcDbEntity
  8
0
100
AcDbBlockBegin
 62
7
  6
CONTINUOUS
  2
*D0
 70
65
 10
0.0
 20
0.0
  3
*D0
  1

  0
MTEXT
  5
21F
100
AcDbEntity
  8
0
100
AcDbMText
 62
7
  6
CONTINUOUS
  7
STANDARD
 71
2
 72
1
 10
11.2044142222
 20
20.9615490812
 30
0.0
 11
1.0
 21
0.0
 31
0.0
 44
0.9
  1
24,6
 40
3.0
 41
8.7857142857
  0
LINE
  5
220
100
AcDbEntity
  8
0
100
AcDbLine
 62
7
  6
CONTINUOUS
 10
23.5044142222
 20
8.4591838864
 11
23.5044142222
 21
18.7115490812
  0
LINE
  5
221
100
AcDbEntity
  8
0
100
AcDbLine
 62
7
  6
CONTINUOUS
 10
-1.0955857778
 20
8.4591838864
 11
-1.0955857778
 21
18.7115490812
  0
LINE
  5
222
100
AcDbEntity
  8
0
100
AcDbLine
 62
7
  6
CONTINUOUS
 10
23.5044142222
 20
17.2115490812
 11
11.2044142222
 21
17.2115490812
  0
LINE
  5
223
100
AcDbEntity
  8
0
100
AcDbLine
 62
7
  6
CONTINUOUS
 10
-1.0955857778
 20
17.2115490812
 11
11.2044142222
 21
17.2115490812
  0
INSERT
  5
224
100
AcDbEntity
  8
0
100
AcDbBlockReference
 62
7
  6
CONTINUOUS
  2
_FILLED
 10
23.5044142222
 20
17.2115490812
 41
3.0
 42
3.0
 43
3.0
  0
INSERT
  5
225
100
AcDbEntity
  8
0
100
AcDbBlockReference
 62
7
  6
CONTINUOUS
  2
_FILLED
 10
-1.0955857778
 20
17.2115490812
 41
3.0
 42
3.0
 43
3.0
 50
180.0
  0
ENDBLK
  5
226
100
AcDbEntity
  8
0
  6
BYBLOCK
 62
0
100
AcDbBlockEnd
  0
BLOCK
  5
227
100
AcDbEntity
  8
0
100
AcDbBlockBegin
 62
7
  6
CONTINUOUS
  2
*D1
 70
65
 10
0.0
 20
0.0
  3
*D1
  1

  0
MTEXT
  5
228
100
AcDbEntity
  8
0
100
AcDbMText
 62
7
  6
CONTINUOUS
  7
STANDARD
 71
2
 72
1
 10
27.7544142222
 20
-0.0314715579
 30
0.0
 11
0.0
 21
1.0
 31
0.0
 44
0.9
  1
18,5
 40
3.0
 41
7.9285714286
  0
LINE
  5
229
100
AcDbEntity
  8
0
100
AcDbLine
 62
7
  6
CONTINUOUS
 10
23.7474702725
 20
9.2115490812
 11
33.0044142222
 21
9.2115490812
  0
LINE
  5
22A
100
AcDbEntity
  8
0
100
AcDbLine
 62
7
  6
CONTINUOUS
 10
22.8904597677
 20
-9.2744921969
 11
33.0044142222
 21
-9.2744921969
  0
LINE
  5
22B
100
AcDbEntity
  8
0
100
AcDbLine
 62
7
  6
CONTINUOUS
 10
31.5044142222
 20
9.2115490812
 11
31.5044142222
 21
-0.0314715579
  0
LINE
  5
22C
100
AcDbEntity
  8
0
100
AcDbLine
 62
7
  6
CONTINUOUS
 10
31.5044142222
 20
-9.2744921969
 11
31.5044142222
 21
-0.0314715579
  0
INSERT
  5
22D
100
AcDbEntity
  8
0
100
AcDbBlockReference
 62
7
  6
CONTINUOUS
  2
_FILLED
 10
31.5044142222
 20
9.2115490812
 41
3.0
 42
3.0
 43
3.0
 50
90.0
  0
INSERT
  5
22E
100
AcDbEntity
  8
0
100
AcDbBlockReference
 62
7
  6
CONTINUOUS
  2
_FILLED
 10
31.5044142222
 20
-9.2744921969
 41
3.0
 42
3.0
 43
3.0
 50
270.0
  0
ENDBLK
  5
22F
100
AcDbEntity
  8
0
  6
BYBLOCK
 62
0
100
AcDbBlockEnd
  0
BLOCK
  5
230
100
AcDbEntity
  8
0
100
AcDbBlockBegin
 62
7
  6
CONTINUOUS
  2
*D2
 70
65
 10
0.0
 20
0.0
  3
*D2
  1

  0
MTEXT
  5
231
100
AcDbEntity
  8
0
100
AcDbMText
 62
7
  6
CONTINUOUS
  7
STANDARD
 71
2
 72
1
 10
-13.9508512
 20
20.9615490812
 30
0.0
 11
1.0
 21
0.0
 31
0.0
 44
0.9
  1
6,5
 40
3.0
 41
6.2142857143
  0
LINE
  5
232
100
AcDbEntity
  8
0
100
AcDbLine
 62
7
  6
CONTINUOUS
 10
-10.7010060801
 20
6.2185311071
 11
-10.7010060801
 21
18.7115490812
  0
LINE
  5
233
100
AcDbEntity
  8
0
100
AcDbLine
 62
7
  6
CONTINUOUS
 10
-17.2006963199
 20
9.3678078502
 11
-17.2006963199
 21
18.7115490812
  0
LINE
  5
234
100
AcDbEntity
  8
0
100
AcDbLine
 62
7
  6
CONTINUOUS
 10
-10.7010060801
 20
17.2115490812
 11
-6.7010060801
 21
17.2115490812
  0
LINE
  5
235
100
AcDbEntity
  8
0
100
AcDbLine
 62
7
  6
CONTINUOUS
 10
-6.7010060801
 20
17.2115490812
 11
-13.9508512
 21
17.2115490812
  0
LINE
  5
236
100
AcDbEntity
  8
0
100
AcDbLine
 62
7
  6
CONTINUOUS
 10
-17.2006963199
 20
17.2115490812
 11
-21.2006963199
 21
17.2115490812
  0
LINE
  5
237
100
AcDbEntity
  8
0
100
AcDbLine
 62
7
  6
CONTINUOUS
 10
-21.2006963199
 20
17.2115490812
 11
-13.9508512
 21
17.2115490812
  0
INSERT
  5
238
100
AcDbEntity
  8
0
100
AcDbBlockReference
 62
7
  6
CONTINUOUS
  2
_FILLED
 10
-10.7010060801
 20
17.2115490812
 41
3.0
 42
3.0
 43
3.0
 50
180.0
  0
INSERT
  5
239
100
AcDbEntity
  8
0
100
AcDbBlockReference
 62
7
  6
CONTINUOUS
  2
_FILLED
 10
-17.2006963199
 20
17.2115490812
 41
3.0
 42
3.0
 43
3.0
  0
ENDBLK
  5
23A
100
AcDbEntity
  8
0
  6
BYBLOCK
 62
0
100
AcDbBlockEnd
  0
ENDSEC
  0
SECTION
  2
ENTITIES
  0
DIMENSION
  5
23B
100
AcDbEntity
  8
0
100
AcDbDimension
 62
7
  6
CONTINUOUS
  2
*D0
 10
-1.0955857778
 20
17.2115490812
 11
6.8115570794
 21
19.4615490812
 70
160
 71
2
 42
24.6
  3
DIMSTYLE_1
100
AcDbAlignedDimension
 13
23.5044142222
 23
8.4591838864
 14
-1.0955857778
 24
8.4591838864
 50
180.0
100
AcDbRotatedDimension
  0
DIMENSION
  5
23C
100
AcDbEntity
  8
0
100
AcDbDimension
 62
7
  6
CONTINUOUS
  2
*D1
 10
31.5044142222
 20
-9.2744921969
 11
31.0307060576
 21
-3.57552976
 70
160
 71
2
 42
18.4860412781
  3
DIMSTYLE_2
100
AcDbAlignedDimension
 13
23.7474702725
 23
9.2115490812
 14
22.8904597677
 24
-9.2744921969
 50
270.0
100
AcDbRotatedDimension
  0
DIMENSION
  5
23D
100
AcDbEntity
  8
0
100
AcDbDimension
 62
7
  6
CONTINUOUS
  2
*D2
 10
-17.2006963199
 20
17.2115490812
 11
-17.0579940571
 21
19.4615490812
 70
160
 71
2
 42
6.4996902397
  3
DIMSTYLE_1
100
AcDbAlignedDimension
 13
-10.7010060801
 23
6.2185311071
 14
-17.2006963199
 24
9.3678078502
 50
180.0
100
AcDbRotatedDimension
  0
LINE
  5
23E
100
AcDbEntity
  8
RACCORDO
100
AcDbLine
 62
7
  6
CONTINUOUS
 10
-1.0955857778
 20
7.9591838864
 11
-1.0937488814
 21
7.9610207828
  0
LINE
  5
23F
100
AcDbEntity
  8
ASSI
100
AcDbLine
 62
7
  6
CONTINUOUS
 10
-1.0955857778
 20
7.9591838864
 11
-1.0937488814
 21
7.9610207828
  0
LINE
  5
240
100
AcDbEntity
  8
RACCORDO
100
AcDbLine
 62
7
  6
CONTINUOUS
 10
-1.0820927
 20
-9.0247514244
 11
-1.0955857778
 21
-1.6699773295
  0
LINE
  5
241
100
AcDbEntity
  8
ASSI
100
AcDbLine
 62
7
  6
CONTINUOUS
 10
-1.0820927
 20
-9.0247514244
 11
-1.0955857778
 21
-1.6699773295
  0
LINE
  5
242
100
AcDbEntity
  8
DRAFT
100
AcDbLine
 62
7
  6
CONTINUOUS
 10
-1.0955857778
 20
7.9591838864
 11
-1.0955857778
 21
-1.6699773295
  0
LINE
  5
243
100
AcDbEntity
  8
ASSI
100
AcDbLine
 62
7
  6
CONTINUOUS
 10
-1.0955857778
 20
7.9591838864
 11
-1.0955857778
 21
-1.6699773295
  0
LINE
  5
244
100
AcDbEntity
  8
RACCORDO
100
AcDbLine
 62
7
  6
CONTINUOUS
 10
-1.0886037518
 20
8.9615871574
 11
-1.0886037518
 21
8.2609750913
  0
LINE
  5
245
100
AcDbEntity
  8
ASSI
100
AcDbLine
 62
7
  6
CONTINUOUS
 10
-1.0886037518
 20
8.9615871574
 11
-1.0886037518
 21
8.2609750913
  0
LINE
  5
246
100
AcDbEntity
  8
RACCORDO
100
AcDbLine
 62
7
  6
CONTINUOUS
 10
-1.0694031804
 20
-9.0184071478
 11
-1.0694031804
 21
-8.7283815724
  0
LINE
  5
247
100
AcDbEntity
  8
ASSI
100
AcDbLine
 62
7
  6
CONTINUOUS
 10
-1.0694031804
 20
-9.0184071478
 11
-1.0694031804
 21
-8.7283815724
  0
LINE
  5
248
100
AcDbEntity
  8
RACCORDO
100
AcDbLine
 62
253
  6
CONTINUOUS
 10
-0.7451864757
 20
8.8678078502
 11
-0.7451864757
 21
9.1180937288
  0
LINE
  5
249
100
AcDbEntity
  8
ASSI
100
AcDbLine
 62
253
  6
CONTINUOUS
 10
-0.7510206465
 20
-7.4474683879
 11
-0.7451864757
 21
9.1180937288
  0
LINE
  5
24A
100
AcDbEntity
  8
RACCORDO
100
AcDbLine
 62
253
  6
CONTINUOUS
 10
-1.0694031804
 20
-8.7283815724
 11
-1.0117902762
 21
-8.146389498
  0
LINE
  5
24B
100
AcDbEntity
  8
ASSI
100
AcDbLine
 62
253
  6
CONTINUOUS
 10
-1.0694031804
 20
-8.7283815724
 11
-1.0117902762
 21
-8.146389498
  0
LINE
  5
24C
100
AcDbEntity
  8
RACCORDO
100
AcDbLine
 62
253
  6
CONTINUOUS
 10
-0.8201228584
 20
-8.9814688929
 11
-0.7618283524
 21
-8.3925914362
  0
LINE
  5
24D
100
AcDbEntity
  8
ASSI
100
AcDbLine
 62
253
  6
CONTINUOUS
 10
-0.8201228584
 20
-8.9814688929
 11
-0.7618283524
 21
-8.3925914362
  0
LINE
  5
24E
100
AcDbEntity
  8
RACCORDO
100
AcDbLine
 62
7
  6
CONTINUOUS
 10
-0.8316345209
 20
-9.2744937964
 11
0.0183654776
 21
-9.2744937964
  0
LINE
  5
24F
100
AcDbEntity
  8
RACCORDO
100
AcDbLine
 62
7
  6
CONTINUOUS
 10
22.3904629668
 20
-9.2744937964
 11
23.2404629654
 21
-9.2744937964
  0
LINE
  5
250
100
AcDbEntity
  8
DRAFT
100
AcDbLine
 62
7
  6
CONTINUOUS
 10
22.3904597677
 20
-9.2744921969
 11
0.0183686768
 21
-9.2744921969
  0
LINE
  5
251
100
AcDbEntity
  8
ASSI
100
AcDbLine
 62
7
  6
CONTINUOUS
 10
23.2404629654
 20
-9.2744937964
 11
-0.8316345209
 21
-9.2744937964
  0
LINE
  5
252
100
AcDbEntity
  8
RACCORDO
100
AcDbLine
 62
7
  6
CONTINUOUS
 10
23.2282316234
 20
-9.2683785912
 11
-0.8194031789
 21
-9.2683785912
  0
LINE
  5
253
100
AcDbEntity
  8
ASSI
100
AcDbLine
 62
7
  6
CONTINUOUS
 10
23.2282316234
 20
-9.2683785912
 11
-0.8194031789
 21
-9.2683785912
  0
LINE
  5
254
100
AcDbEntity
  8
RACCORDO
100
AcDbLine
 62
7
  6
CONTINUOUS
 10
23.2289513029
 20
-8.9814688929
 11
-0.8201228584
 21
-8.9814688929
  0
LINE
  5
255
100
AcDbEntity
  8
ASSI
100
AcDbLine
 62
7
  6
CONTINUOUS
 10
23.2289513029
 20
-8.9814688929
 11
-0.8201228584
 21
-8.9814688929
  0
LINE
  5
256
100
AcDbEntity
  8
RACCORDO
100
AcDbLine
 62
253
  6
CONTINUOUS
 10
-0.7618283524
 20
-8.3925914362
 11
23.1706567968
 21
-8.3925914362
  0
LINE
  5
257
100
AcDbEntity
  8
ASSI
100
AcDbLine
 62
253
  6
CONTINUOUS
 10
-0.7618283524
 20
-8.3925914362
 11
23.1706567968
 21
-8.3925914362
  0
LINE
  5
258
100
AcDbEntity
  8
RACCORDO
100
AcDbLine
 62
253
  6
CONTINUOUS
 10
-0.7510206465
 20
-7.4474683879
 11
23.159849091
 21
-7.4474683879
  0
LINE
  5
259
100
AcDbEntity
  8
ASSI
100
AcDbLine
 62
253
  6
CONTINUOUS
 10
-0.7510206465
 20
-7.4474683879
 11
23.159849091
 21
-7.4474683879
  0
LINE
  5
25A
100
AcDbEntity
  8
ASSI
100
AcDbLine
 62
253
  6
CONTINUOUS
 10
23.2282316234
 20
-9.2683785912
 11
23.2404629654
 21
-9.2744937964
  0
LINE
  5
25B
100
AcDbEntity
  8
RACCORDO
100
AcDbLine
 62
253
  6
CONTINUOUS
 10
23.4782316248
 20
-9.0184071478
 11
23.4909211445
 21
-9.0247514244
  0
LINE
  5
25C
100
AcDbEntity
  8
ASSI
100
AcDbLine
 62
253
  6
CONTINUOUS
 10
23.4782316248
 20
-9.0184071478
 11
23.4909211445
 21
-9.0247514244
  0
LINE
  5
25D
100
AcDbEntity
  8
RACCORDO
100
AcDbLine
 62
253
  6
CONTINUOUS
 10
-0.9951483995
 20
8.8681318051
 11
-1.0886037518
 21
8.9615871574
  0
LINE
  5
25E
100
AcDbEntity
  8
ASSI
100
AcDbLine
 62
253
  6
CONTINUOUS
 10
-0.9951483995
 20
8.8681318051
 11
-1.0886037518
 21
8.9615871574
  0
LINE
  5
25F
100
AcDbEntity
  8
RACCORDO
100
AcDbLine
 62
253
  6
CONTINUOUS
 10
-0.7451864757
 20
9.1180937288
 11
-0.838641828
 21
9.2115490812
  0
LINE
  5
260
100
AcDbEntity
  8
ASSI
100
AcDbLine
 62
253
  6
CONTINUOUS
 10
-0.7451864757
 20
9.1180937288
 11
-0.838641828
 21
9.2115490812
  0
LINE
  5
261
100
AcDbEntity
  8
CURVE
100
AcDbLine
 62
253
  6
CONTINUOUS
 10
11.2044142222
 20
-1.1814688929
 11
11.2044142222
 21
-4.1814688814
  0
LINE
  5
262
100
AcDbEntity
  8
RACCORDO
100
AcDbLine
 62
253
  6
CONTINUOUS
 10
23.2474702725
 20
9.2115490812
 11
23.1540149201
 21
9.1180937288
  0
LINE
  5
263
100
AcDbEntity
  8
ASSI
100
AcDbLine
 62
253
  6
CONTINUOUS
 10
23.2474702725
 20
9.2115490812
 11
23.1540149201
 21
9.1180937288
  0
LINE
  5
264
100
AcDbEntity
  8
RACCORDO
100
AcDbLine
 62
253
  6
CONTINUOUS
 10
23.4974321963
 20
8.9615871574
 11
23.4039768439
 21
8.8681318051
  0
LINE
  5
265
100
AcDbEntity
  8
ASSI
100
AcDbLine
 62
253
  6
CONTINUOUS
 10
23.4974321963
 20
8.9615871574
 11
23.4039768439
 21
8.8681318051
  0
LINE
  5
266
100
AcDbEntity
  8
RACCORDO
100
AcDbLine
 62
253
  6
CONTINUOUS
 10
-1.0820927
 20
-9.0247514244
 11
-1.0694031804
 21
-9.0184071478
  0
LINE
  5
267
100
AcDbEntity
  8
ASSI
100
AcDbLine
 62
253
  6
CONTINUOUS
 10
-1.0820927
 20
-9.0247514244
 11
-1.0694031804
 21
-9.0184071478
  0
LINE
  5
268
100
AcDbEntity
  8
ASSI
100
AcDbLine
 62
253
  6
CONTINUOUS
 10
-0.8316345209
 20
-9.2744937964
 11
-0.8194031789
 21
-9.2683785912
  0
LINE
  5
269
100
AcDbEntity
  8
DRAFT
100
AcDbLine
 62
7
  6
CONTINUOUS
 10
19.7168802128
 20
9.2115490812
 11
19.4544142222
 21
9.1591838864
  0
LINE
  5
26A
100
AcDbEntity
  8
ASSI
100
AcDbLine
 62
7
  6
CONTINUOUS
 10
19.7168802128
 20
9.2115490812
 11
19.4544142222
 21
9.1591838864
  0
LINE
  5
26B
100
AcDbEntity
  8
DRAFT
100
AcDbLine
 62
7
  6
CONTINUOUS
 10
2.6919482316
 20
9.2115490812
 11
2.9544142222
 21
9.1591838864
  0
LINE
  5
26C
100
AcDbEntity
  8
ASSI
100
AcDbLine
 62
7
  6
CONTINUOUS
 10
2.6919482316
 20
9.2115490812
 11
2.9544142222
 21
9.1591838864
  0
LINE
  5
26D
100
AcDbEntity
  8
RACCORDO
100
AcDbLine
 62
253
  6
CONTINUOUS
 10
23.4039768439
 20
8.868131805
 11
-0.7451864757
 21
8.8678078502
  0
LINE
  5
26E
100
AcDbEntity
  8
ASSI
100
AcDbLine
 62
253
  6
CONTINUOUS
 10
23.4039768439
 20
8.868131805
 11
-0.7451864757
 21
8.8678078502
  0
LINE
  5
26F
100
AcDbEntity
  8
RACCORDO
100
AcDbLine
 62
253
  6
CONTINUOUS
 10
23.1540149201
 20
9.1180937288
 11
-0.7451864757
 21
9.1180937288
  0
LINE
  5
270
100
AcDbEntity
  8
ASSI
100
AcDbLine
 62
253
  6
CONTINUOUS
 10
23.1540149201
 20
9.1180937288
 11
-0.7451864757
 21
9.1180937288
  0
LINE
  5
271
100
AcDbEntity
  8
DRAFT
100
AcDbLine
 62
7
  6
CONTINUOUS
 10
19.4544142222
 20
9.1591838864
 11
2.9544142222
 21
9.1591838864
  0
LINE
  5
272
100
AcDbEntity
  8
ASSI
100
AcDbLine
 62
7
  6
CONTINUOUS
 10
19.4544142222
 20
9.1591838864
 11
2.9544142222
 21
9.1591838864
  0
LINE
  5
273
100
AcDbEntity
  8
RACCORDO
100
AcDbLine
 62
7
  6
CONTINUOUS
 10
23.2474702725
 20
9.2115490812
 11
19.7168802128
 21
9.2115490812
  0
LINE
  5
274
100
AcDbEntity
  8
ASSI
100
AcDbLine
 62
7
  6
CONTINUOUS
 10
23.2474702725
 20
9.2115490812
 11
19.7168802128
 21
9.2115490812
  0
LINE
  5
275
100
AcDbEntity
  8
RACCORDO
100
AcDbLine
 62
7
  6
CONTINUOUS
 10
2.6919482316
 20
9.2115490812
 11
-0.838641828
 21
9.2115490812
  0
LINE
  5
276
100
AcDbEntity
  8
ASSI
100
AcDbLine
 62
7
  6
CONTINUOUS
 10
2.6919482316
 20
9.2115490812
 11
-0.838641828
 21
9.2115490812
  0
LINE
  5
277
100
AcDbEntity
  8
RACCORDO
100
AcDbLine
 62
253
  6
CONTINUOUS
 10
-0.7451864757
 20
8.8678078502
 11
-0.9951483994
 21
8.868131805
  0
LINE
  5
278
100
AcDbEntity
  8
ASSI
100
AcDbLine
 62
253
  6
CONTINUOUS
 10
-0.7451864757
 20
8.8678078502
 11
-0.9951483994
 21
8.868131805
  0
LINE
  5
279
100
AcDbEntity
  8
RACCORDO
100
AcDbLine
 62
253
  6
CONTINUOUS
 10
23.1706567968
 20
-8.3925914362
 11
23.2289513029
 21
-8.9814688929
  0
LINE
  5
27A
100
AcDbEntity
  8
ASSI
100
AcDbLine
 62
253
  6
CONTINUOUS
 10
23.1706567968
 20
-8.3925914362
 11
23.2289513029
 21
-8.9814688929
  0
LINE
  5
27B
100
AcDbEntity
  8
RACCORDO
100
AcDbLine
 62
253
  6
CONTINUOUS
 10
23.4206187206
 20
-8.146389498
 11
23.4782316248
 21
-8.7283815724
  0
LINE
  5
27C
100
AcDbEntity
  8
ASSI
100
AcDbLine
 62
253
  6
CONTINUOUS
 10
23.4206187206
 20
-8.146389498
 11
23.4782316248
 21
-8.7283815724
  0
LINE
  5
27D
100
AcDbEntity
  8
RACCORDO
100
AcDbLine
 62
253
  6
CONTINUOUS
 10
23.1540149201
 20
8.8678078502
 11
23.1540149201
 21
9.1180937288
  0
LINE
  5
27E
100
AcDbEntity
  8
ASSI
100
AcDbLine
 62
253
  6
CONTINUOUS
 10
23.159849091
 20
-7.4474683879
 11
23.1540149201
 21
9.1180937288
  0
LINE
  5
27F
100
AcDbEntity
  8
RACCORDO
100
AcDbLine
 62
7
  6
CONTINUOUS
 10
23.4782316248
 20
-8.7283815724
 11
23.4782316248
 21
-9.0184071478
  0
LINE
  5
280
100
AcDbEntity
  8
ASSI
100
AcDbLine
 62
7
  6
CONTINUOUS
 10
23.4782316248
 20
-8.7283815724
 11
23.4782316248
 21
-9.0184071478
  0
LINE
  5
281
100
AcDbEntity
  8
RACCORDO
100
AcDbLine
 62
7
  6
CONTINUOUS
 10
23.4974321963
 20
8.2609750913
 11
23.4974321963
 21
8.9615871574
  0
LINE
  5
282
100
AcDbEntity
  8
ASSI
100
AcDbLine
 62
7
  6
CONTINUOUS
 10
23.4974321963
 20
8.2609750913
 11
23.4974321963
 21
8.9615871574
  0
LINE
  5
283
100
AcDbEntity
  8
DRAFT
100
AcDbLine
 62
7
  6
CONTINUOUS
 10
23.5044142222
 20
7.9591838864
 11
23.5044142222
 21
-1.6699773295
  0
LINE
  5
284
100
AcDbEntity
  8
ASSI
100
AcDbLine
 62
7
  6
CONTINUOUS
 10
23.5044142222
 20
7.9591838864
 11
23.5044142222
 21
-1.6699773295
  0
LINE
  5
285
100
AcDbEntity
  8
RACCORDO
100
AcDbLine
 62
7
  6
CONTINUOUS
 10
23.4909211445
 20
-9.0247514244
 11
23.5044142222
 21
-1.6699773295
  0
LINE
  5
286
100
AcDbEntity
  8
ASSI
100
AcDbLine
 62
7
  6
CONTINUOUS
 10
23.4909211445
 20
-9.0247514244
 11
23.5044142222
 21
-1.6699773295
  0
LINE
  5
287
100
AcDbEntity
  8
RACCORDO
100
AcDbLine
 62
7
  6
CONTINUOUS
 10
23.5044142222
 20
7.9591838864
 11
23.5025773259
 21
7.9610207828
  0
LINE
  5
288
100
AcDbEntity
  8
ASSI
100
AcDbLine
 62
7
  6
CONTINUOUS
 10
23.5044142222
 20
7.9591838864
 11
23.5025773259
 21
7.9610207828
  0
LINE
  5
289
100
AcDbEntity
  8
RACCORDO
100
AcDbLine
 62
7
  6
CONTINUOUS
 10
-12.7010060801
 20
-9.2683785912
 11
-12.000272968
 21
-9.2744937964
  0
LINE
  5
28A
100
AcDbEntity
  8
ASSI
100
AcDbLine
 62
7
  6
CONTINUOUS
 10
-12.7010060801
 20
-9.2683785912
 11
-12.000272968
 21
-9.2744937964
  0
LINE
  5
28B
100
AcDbEntity
  8
RACCORDO
100
AcDbLine
 62
253
  6
CONTINUOUS
 10
-12.7010060801
 20
-9.0184071478
 11
-11.9740239869
 21
-9.0247514244
  0
LINE
  5
28C
100
AcDbEntity
  8
ASSI
100
AcDbLine
 62
253
  6
CONTINUOUS
 10
-12.7010060801
 20
-9.0184071478
 11
-11.9740239869
 21
-9.0247514244
  0
LINE
  5
28D
100
AcDbEntity
  8
RACCORDO
100
AcDbLine
 62
7
  6
CONTINUOUS
 10
-16.0406960939
 20
-8.3925914362
 11
-12.7010060801
 21
-8.9814688929
  0
LINE
  5
28E
100
AcDbEntity
  8
ASSI
100
AcDbLine
 62
7
  6
CONTINUOUS
 10
-16.0406960939
 20
-8.3925914362
 11
-12.7010060801
 21
-8.9814688929
  0
LINE
  5
28F
100
AcDbEntity
  8
RACCORDO
100
AcDbLine
 62
253
  6
CONTINUOUS
 10
-16.001647151
 20
-8.146389498
 11
-12.7010060801
 21
-8.7283815724
  0
LINE
  5
290
100
AcDbEntity
  8
ASSI
100
AcDbLine
 62
253
  6
CONTINUOUS
 10
-16.001647151
 20
-8.146389498
 11
-12.7010060801
 21
-8.7283815724
  0
LINE
  5
291
100
AcDbEntity
  8
RACCORDO
100
AcDbLine
 62
253
  6
CONTINUOUS
 10
-16.6208202067
 20
-7.4375472117
 11
-16.8662512435
 21
-7.4474680313
  0
LINE
  5
292
100
AcDbEntity
  8
ASSI
100
AcDbLine
 62
253
  6
CONTINUOUS
 10
-16.6208202067
 20
-7.4375472117
 11
-16.8662512435
 21
-7.4474680313
  0
LINE
  5
293
100
AcDbEntity
  8
CURVE
100
AcDbLine
 62
253
  6
CONTINUOUS
 10
-17.09227123
 20
-0.1966971426
 11
-17.1036224321
 21
0.3186988465
  0
LINE
  5
294
100
AcDbEntity
  8
RACCORDO
100
AcDbLine
 62
7
  6
CONTINUOUS
 10
-12.7010060801
 20
-9.2683785912
 11
-12.7010060801
 21
-8.7283815724
  0
LINE
  5
295
100
AcDbEntity
  8
ASSI
100
AcDbLine
 62
7
  6
CONTINUOUS
 10
-12.7010060801
 20
-9.2683785912
 11
-12.7010060801
 21
-8.7283815724
  0
LINE
  5
296
100
AcDbEntity
  8
RACCORDO
100
AcDbLine
 62
7
  6
CONTINUOUS
 10
-11.6010060801
 20
8.2609750913
 11
-11.6010060801
 21
9.2115490812
  0
LINE
  5
297
100
AcDbEntity
  8
ASSI
100
AcDbLine
 62
7
  6
CONTINUOUS
 10
-11.6010060801
 20
8.2609750913
 11
-11.6010060801
 21
9.2115490812
  0
LINE
  5
298
100
AcDbEntity
  8
DRAFT
100
AcDbLine
 62
7
  6
CONTINUOUS
 10
-11.2010060801
 20
7.9591838864
 11
-11.2010060801
 21
-1.6699773295
  0
LINE
  5
299
100
AcDbEntity
  8
ASSI
100
AcDbLine
 62
7
  6
CONTINUOUS
 10
-11.2010060801
 20
7.9591838864
 11
-11.2010060801
 21
-1.6699773295
  0
LINE
  5
29A
100
AcDbEntity
  8
0
100
AcDbLine
 62
7
  6
CONTINUOUS
 10
-10.7010060801
 20
5.7185311071
 11
-10.7010060801
 21
3.9185311071
  0
LINE
  5
29B
100
AcDbEntity
  8
RACCORDO
100
AcDbLine
 62
7
  6
CONTINUOUS
 10
-12.000272968
 20
-9.2744937964
 11
-11.2010060801
 21
-1.6699773295
  0
LINE
  5
29C
100
AcDbEntity
  8
ASSI
100
AcDbLine
 62
7
  6
CONTINUOUS
 10
-12.000272968
 20
-9.2744937964
 11
-11.2010060801
 21
-1.6699773295
  0
LINE
  5
29D
100
AcDbEntity
  8
0
100
AcDbLine
 62
7
  6
CONTINUOUS
 10
-11.2010060801
 20
3.8935311071
 11
-10.7010060801
 21
3.9185311071
  0
LINE
  5
29E
100
AcDbEntity
  8
0
100
AcDbLine
 62
7
  6
CONTINUOUS
 10
-11.2010060801
 20
5.7435311071
 11
-10.7010060801
 21
5.7185311071
  0
LINE
  5
29F
100
AcDbEntity
  8
RACCORDO
100
AcDbLine
 62
7
  6
CONTINUOUS
 10
-11.2010060801
 20
7.9591838864
 11
-11.3062418021
 21
7.9610207828
  0
LINE
  5
2A0
100
AcDbEntity
  8
ASSI
100
AcDbLine
 62
7
  6
CONTINUOUS
 10
-11.2010060801
 20
7.9591838864
 11
-11.3062418021
 21
7.9610207828
  0
LINE
  5
2A1
100
AcDbEntity
  8
RACCORDO
100
AcDbLine
 62
253
  6
CONTINUOUS
 10
-11.6010060801
 20
8.9615871574
 11
-16.9550596293
 21
8.8681318051
  0
LINE
  5
2A2
100
AcDbEntity
  8
ASSI
100
AcDbLine
 62
253
  6
CONTINUOUS
 10
-11.6010060801
 20
8.9615871574
 11
-16.9550596293
 21
8.8681318051
  0
LINE
  5
2A3
100
AcDbEntity
  8
RACCORDO
100
AcDbLine
 62
7
  6
CONTINUOUS
 10
-11.6010060801
 20
9.2115490812
 11
-16.9550596314
 21
9.1180937288
  0
LINE
  5
2A4
100
AcDbEntity
  8
ASSI
100
AcDbLine
 62
7
  6
CONTINUOUS
 10
-11.6010060801
 20
9.2115490812
 11
-16.9550596314
 21
9.1180937288
  0
LINE
  5
2A5
100
AcDbEntity
  8
RACCORDO
100
AcDbLine
 62
253
  6
CONTINUOUS
 10
-16.9550596314
 20
8.868131805
 11
-17.2006963199
 21
8.8678078502
  0
LINE
  5
2A6
100
AcDbEntity
  8
ASSI
100
AcDbLine
 62
253
  6
CONTINUOUS
 10
-16.9550596314
 20
8.868131805
 11
-17.2006963199
 21
8.8678078502
  0
CIRCLE
  5
2A7
100
AcDbEntity
  8
CURVE
100
AcDbCircle
 62
253
  6
CONTINUOUS
 10
11.2044142222
 20
-2.6814688929
 40
3.0
  0
CIRCLE
  5
2A8
100
AcDbEntity
  8
DRAFT
100
AcDbCircle
 62
7
  6
CONTINUOUS
 10
11.2044138781
 20
4.8187516529
 40
1.3135386721
  0
CIRCLE
  5
2A9
100
AcDbEntity
  8
ASSI
100
AcDbCircle
 62
7
  6
CONTINUOUS
 10
11.2044138781
 20
4.8187516529
 40
1.3135386721
  0
CIRCLE
  5
2AA
100
AcDbEntity
  8
DRAFT
100
AcDbCircle
 62
7
  6
CONTINUOUS
 10
11.2044142222
 20
4.8185311071
 40
1.3
  0
CIRCLE
  5
2AB
100
AcDbEntity
  8
ASSI
100
AcDbCircle
 62
7
  6
CONTINUOUS
 10
11.2044142222
 20
4.8185311071
 40
1.3
  0
CIRCLE
  5
2AC
100
AcDbEntity
  8
DRAFT
100
AcDbCircle
 62
7
  6
CONTINUOUS
 10
11.2044142222
 20
4.8185311071
 40
1.225
  0
CIRCLE
  5
2AD
100
AcDbEntity
  8
RACCORDO
100
AcDbCircle
 62
253
  6
CONTINUOUS
 10
11.2044142222
 20
4.8185311071
 40
1.2068524201
  0
CIRCLE
  5
2AE
100
AcDbEntity
  8
RACCORDO
100
AcDbCircle
 62
253
  6
CONTINUOUS
 10
11.2044142222
 20
4.8185311071
 40
1.1180464865
  0
ARC
  5
2AF
100
AcDbEntity
  8
RACCORDO
100
AcDbCircle
 62
253
  6
CONTINUOUS
 10
-0.7450956547
 20
8.868040984
 40
0.2500532007
100
AcDbArc
 50
90.0208102483
 51
179.9791897517
  0
ARC
  5
2B0
100
AcDbEntity
  8
ASSI
100
AcDbCircle
 62
253
  6
CONTINUOUS
 10
-0.7450956547
 20
8.868040984
 40
0.2500532007
100
AcDbArc
 50
90.0208102483
 51
179.9791897517
  0
ARC
  5
2B1
100
AcDbEntity
  8
RACCORDO
100
AcDbCircle
 62
253
  6
CONTINUOUS
 10
23.1539240955
 20
8.8680409807
 40
0.2500531776
100
AcDbArc
 50
0.0208110208
 51
89.9791889339
  0
ARC
  5
2B2
100
AcDbEntity
  8
ASSI
100
AcDbCircle
 62
253
  6
CONTINUOUS
 10
23.1539240955
 20
8.8680409807
 40
0.2500531776
100
AcDbArc
 50
0.0208110208
 51
89.9791889339
  0
ARC
  5
2B3
100
AcDbEntity
  8
RACCORDO
100
AcDbCircle
 62
7
  6
CONTINUOUS
 10
407.798946861
 20
9.4185311071
 40
425.0
100
AcDbArc
 50
180.074245005
 51
182.2743633301
  0
ARC
  5
2B4
100
AcDbEntity
  8
ASSI
100
AcDbCircle
 62
7
  6
CONTINUOUS
 10
407.798946861
 20
9.4185311071
 40
425.0
100
AcDbArc
 50
180.074245005
 51
182.2743633301
  0
ARC
  5
2B5
100
AcDbEntity
  8
CURVE
100
AcDbCircle
 62
253
  6
CONTINUOUS
 10
407.798946861
 20
9.4185311071
 40
425.0
100
AcDbArc
 50
181.5487152956
 51
181.833778
  0
ARC
  5
2B6
100
AcDbEntity
  8
CURVE
100
AcDbCircle
 62
253
  6
CONTINUOUS
 10
407.6263525386
 20
9.413488632
 40
424.8273320798
100
AcDbArc
 50
181.6314479306
 51
181.785271084
  0
ARC
  5
2B7
100
AcDbEntity
  8
RACCORDO
100
AcDbCircle
 62
253
  6
CONTINUOUS
 10
407.7945934929
 20
9.4185312533
 40
424.7500097316
100
AcDbArc
 50
180.074245023
 51
182.2743632977
  0
ARC
  5
2B8
100
AcDbEntity
  8
ASSI
100
AcDbCircle
 62
253
  6
CONTINUOUS
 10
407.7945934929
 20
9.4185312533
 40
424.7500097316
100
AcDbArc
 50
180.074245023
 51
182.2743632977
  0
ARC
  5
2B9
100
AcDbEntity
  8
RACCORDO
100
AcDbCircle
 62
7
  6
CONTINUOUS
 10
-15.8670479162
 20
-7.4077836832
 40
1.0
100
AcDbArc
 50
182.2743633301
 51
260.0
  0
ARC
  5
2BA
100
AcDbEntity
  8
ASSI
100
AcDbCircle
 62
7
  6
CONTINUOUS
 10
-15.8670479162
 20
-7.4077836832
 40
1.0
100
AcDbArc
 50
182.2743633301
 51
260.0
  0
ARC
  5
2BB
100
AcDbEntity
  8
RACCORDO
100
AcDbCircle
 62
253
  6
CONTINUOUS
 10
-15.8714103497
 20
-7.4077830996
 40
0.7500006907
100
AcDbArc
 50
182.2744058521
 51
259.999957478
  0
ARC
  5
2BC
100
AcDbEntity
  8
ASSI
100
AcDbCircle
 62
253
  6
CONTINUOUS
 10
-15.8714103497
 20
-7.4077830996
 40
0.7500006907
100
AcDbArc
 50
182.2744058521
 51
259.999957478
  0
ARC
  5
2BD
100
AcDbEntity
  8
RACCORDO
100
AcDbCircle
 62
7
  6
CONTINUOUS
 10
-11.3010060801
 20
8.2609750913
 40
0.3
100
AcDbArc
 50
180.0
 51
269.0
  0
ARC
  5
2BE
100
AcDbEntity
  8
ASSI
100
AcDbCircle
 62
7
  6
CONTINUOUS
 10
-11.3010060801
 20
8.2609750913
 40
0.3
100
AcDbArc
 50
180.0
 51
269.0
  0
ARC
  5
2BF
100
AcDbEntity
  8
RACCORDO
100
AcDbCircle
 62
7
  6
CONTINUOUS
 10
-16.9506965298
 20
8.868131805
 40
0.25
100
AcDbArc
 50
91.0
 51
180.074245005
  0
ARC
  5
2C0
100
AcDbEntity
  8
ASSI
100
AcDbCircle
 62
7
  6
CONTINUOUS
 10
-16.9506965298
 20
8.868131805
 40
0.25
100
AcDbArc
 50
91.0
 51
180.074245005
  0
SPLINE
  5
2C1
100
AcDbEntity
  8
RACCORDO
100
AcDbSpline
 62
253
  6
CONTINUOUS
 70
0
 71
3
 72
11
 73
7
 74
5
 42
0.0000001
 43
0.0000001
 44
0.0000000001
 12
0.0011902478
 22
-0.3868382137
 32
0.0
 13
0.3868383214
 23
-0.0011547111
 33
0.0
 40
0.0
 40
0.0
 40
0.0
 40
0.0
 40
0.2481425819
 40
0.4975232625
 40
0.7483526478
 40
1.0
 40
1.0
 40
1.0
 40
1.0
 10
-1.0117902762
 20
-8.146389498
 30
0.0
 10
-1.0116918258
 20
-8.178386509
 30
0.0
 10
-0.9984476695
 20
-8.2432075306
 30
0.0
 10
-0.942648739
 20
-8.3249035684
 30
0.0
 10
-0.8597182186
 20
-8.3795846669
 30
0.0
 10
-0.7942772989
 20
-8.3924945768
 30
0.0
 10
-0.7618283525
 20
-8.3925914368
 30
0.0
 11
-1.0117902762
 21
-8.146389498
 31
0.0
 11
-0.992547183
 21
-8.2404324086
 31
0.0
 11
-0.9383134166
 21
-8.3202148826
 31
0.0
 11
-0.8573122621
 21
-8.3736358423
 31
0.0
 11
-0.7618283525
 21
-8.3925914368
 31
0.0
  0
SPLINE
  5
2C2
100
AcDbEntity
  8
RACCORDO
100
AcDbSpline
 62
253
  6
CONTINUOUS
 70
0
 71
3
 72
11
 73
7
 74
5
 42
0.0000001
 43
0.0000001
 44
0.0000000001
 12
0.1007369336
 22
-0.2292793437
 32
0.0
 13
0.2504334586
 23
-0.0001733424
 33
0.0
 40
0.0
 40
0.0
 40
0.0
 40
0.0
 40
0.0822915139
 40
0.3001698808
 40
0.6219901233
 40
1.0
 40
1.0
 40
1.0
 40
1.0
 10
-1.0009825703
 20
-7.4375472117
 30
0.0
 10
-0.9982193054
 20
-7.4438364598
 30
0.0
 10
-0.9646350517
 20
-7.4377124856
 30
0.0
 10
-0.9202527627
 20
-7.4477894245
 30
0.0
 10
-0.8399495301
 20
-7.4459295169
 30
0.0
 10
-0.7825760868
 20
-7.4474465462
 30
0.0
 10
-0.7510206465
 20
-7.4474683879
 30
0.0
 11
-1.0009825703
 21
-7.4375472117
 31
0.0
 11
-0.9807194116
 21
-7.4413044541
 31
0.0
 11
-0.9262491464
 21
-7.4445021618
 31
0.0
 11
-0.8456835735
 21
-7.446664127
 31
0.0
 11
-0.7510206465
 21
-7.4474683879
 31
0.0
  0
SPLINE
  5
2C3
100
AcDbEntity
  8
RACCORDO
100
AcDbSpline
 62
253
  6
CONTINUOUS
 70
0
 71
3
 72
11
 73
7
 74
5
 42
0.0000001
 43
0.0000001
 44
0.0000000001
 12
-0.0011902476
 22
-0.3868382125
 32
0.0
 13
-0.3868383202
 23
-0.0011547048
 33
0.0
 40
0.0
 40
0.0
 40
0.0
 40
0.0
 40
0.2481496322
 40
0.4975322055
 40
0.7483586193
 40
1.0
 40
1.0
 40
1.0
 40
1.0
 10
23.4206187206
 20
-8.146389498
 30
0.0
 10
23.4205202675
 20
-8.178387418
 30
0.0
 10
23.4072754768
 20
-8.2432096486
 30
0.0
 10
23.3514750287
 20
-8.3249056406
 30
0.0
 10
23.2685446932
 20
-8.3795852184
 30
0.0
 10
23.2031049732
 20
-8.3924945791
 30
0.0
 10
23.1706567968
 20
-8.3925914362
 30
0.0
 11
23.4206187206
 21
-8.146389498
 31
0.0
 11
23.4013745447
 21
-8.2404349706
 31
0.0
 11
23.3471393488
 21
-8.3202173578
 31
0.0
 11
23.2661385286
 21
-8.373636736
 31
0.0
 11
23.1706567968
 21
-8.3925914362
 31
0.0
  0
SPLINE
  5
2C4
100
AcDbEntity
  8
RACCORDO
100
AcDbSpline
 62
253
  6
CONTINUOUS
 70
0
 71
3
 72
11
 73
7
 74
5
 42
0.0000001
 43
0.0000001
 44
0.0000000001
 12
-0.1008819843
 22
-0.2292154883
 32
0.0
 13
-0.2504333939
 23
-0.000173313
 33
0.0
 40
0.0
 40
0.0
 40
0.0
 40
0.0
 40
0.082299687
 40
0.3001800223
 40
0.6219967759
 40
1.0
 40
1.0
 40
1.0
 40
1.0
 10
23.4098110146
 20
-7.4375472117
 30
0.0
 10
23.4070434961
 20
-7.4438353327
 30
0.0
 10
23.3734668109
 20
-7.4377139455
 30
0.0
 10
23.3290762681
 20
-7.4477881356
 30
0.0
 10
23.2487776694
 20
-7.4459296045
 30
0.0
 10
23.1914039677
 20
-7.4474461937
 30
0.0
 10
23.159849091
 20
-7.4474680313
 30
0.0
 11
23.4098110146
 21
-7.4375472117
 31
0.0
 11
23.3895457599
 21
-7.441304348
 31
0.0
 11
23.3350750083
 21
-7.4445019394
 31
0.0
 11
23.2545103278
 21
-7.4466638128
 31
0.0
 11
23.159849091
 21
-7.4474680313
 31
0.0
  0
SPLINE
  5
2C5
100
AcDbEntity
  8
RACCORDO
100
AcDbSpline
 62
253
  6
CONTINUOUS
 70
0
 71
3
 72
13
 73
9
 74
7
 42
0.0000001
 43
0.0000001
 44
0.0000000001
 12
0.0699504283
 22
0.942650268
 32
0.0
 13
0.0004957988
 23
0.9452419502
 33
0.0
 40
0.0
 40
0.0
 40
0.0
 40
0.0
 40
0.0677735974
 40
0.1851013747
 40
0.3460122137
 40
0.5423316971
 40
0.7640939911
 40
1.0
 40
1.0
 40
1.0
 40
1.0
 10
-0.7618283524
 20
-8.3925914362
 30
0.0
 10
-0.7602480883
 20
-8.3712958363
 30
0.0
 10
-0.758454473
 20
-8.3129755864
 30
0.0
 10
-0.7559549992
 20
-8.2039974455
 30
0.0
 10
-0.754000784
 20
-8.054477386
 30
0.0
 10
-0.7523784814
 20
-7.8720576905
 30
0.0
 10
-0.7513447271
 20
-7.6659999663
 30
0.0
 10
-0.7510596338
 20
-7.5217978066
 30
0.0
 10
-0.7510206465
 20
-7.4474683879
 30
0.0
 11
-0.7618283524
 21
-8.3925914362
 31
0.0
 11
-0.7589958481
 21
-8.3285916299
 31
0.0
 11
-0.7564234818
 21
-8.2177183142
 31
0.0
 11
-0.7542419823
 21
-8.065634263
 31
0.0
 11
-0.7525623526
 21
-7.8800724277
 31
0.0
 11
-0.7514700005
 21
-7.6704562218
 31
0.0
 11
-0.7510206465
 21
-7.4474683879
 31
0.0
  0
SPLINE
  5
2C6
100
AcDbEntity
  8
RACCORDO
100
AcDbSpline
 62
253
  6
CONTINUOUS
 70
0
 71
3
 72
13
 73
9
 74
7
 42
0.0000001
 43
0.0000001
 44
0.0000000001
 12
0.0004957988
 22
-0.9452419502
 32
0.0
 13
0.0699504281
 23
-0.9426502681
 33
0.0
 40
0.0
 40
0.0
 40
0.0
 40
0.0
 40
0.2359060089
 40
0.4576683029
 40
0.6539877863
 40
0.8148986253
 40
0.9322264026
 40
1.0
 40
1.0
 40
1.0
 40
1.0
 10
23.159849091
 20
-7.4474683879
 30
0.0
 10
23.1598880783
 20
-7.5217978066
 30
0.0
 10
23.1601731715
 20
-7.6659999663
 30
0.0
 10
23.1612069258
 20
-7.8720576905
 30
0.0
 10
23.1628292285
 20
-8.054477386
 30
0.0
 10
23.1647834436
 20
-8.2039974455
 30
0.0
 10
23.1672829175
 20
-8.3129755864
 30
0.0
 10
23.1690765328
 20
-8.3712958363
 30
0.0
 10
23.1706567968
 20
-8.3925914362
 30
0.0
 11
23.159849091
 21
-7.4474683879
 31
0.0
 11
23.1602984449
 21
-7.6704562218
 31
0.0
 11
23.1613907971
 21
-7.8800724277
 31
0.0
 11
23.1630704268
 21
-8.065634263
 31
0.0
 11
23.1652519262
 21
-8.2177183142
 31
0.0
 11
23.1678242925
 21
-8.3285916299
 31
0.0
 11
23.1706567968
 21
-8.3925914362
 31
0.0
  0
SPLINE
  5
2C7
100
AcDbEntity
  8
RACCORDO
100
AcDbSpline
 62
253
  6
CONTINUOUS
 70
0
 71
3
 72
13
 73
9
 74
7
 42
0.0000001
 43
0.0000001
 44
0.0000000001
 12
0.069752494
 22
0.7055614738
 32
0.0
 13
0.0004946771
 23
0.7090008173
 33
0.0
 40
0.0
 40
0.0
 40
0.0
 40
0.0
 40
0.067477859
 40
0.1848343948
 40
0.3459357263
 40
0.5426158844
 40
0.7647547131
 40
1.0
 40
1.0
 40
1.0
 40
1.0
 10
-1.0117902762
 20
-8.146389498
 30
0.0
 10
-1.0102213599
 20
-8.1305195721
 30
0.0
 10
-1.0084186975
 20
-8.0868401063
 30
0.0
 10
-1.0059222735
 20
-8.0051415807
 30
0.0
 10
-1.0039624348
 20
-7.8928560771
 30
0.0
 10
-1.002338674
 20
-7.7558142572
 30
0.0
 10
-1.0013058172
 20
-7.6012384662
 30
0.0
 10
-1.0010213605
 20
-7.4931435786
 30
0.0
 10
-1.0009825703
 20
-7.4375472117
 30
0.0
 11
-1.0117902762
 21
-8.146389498
 31
0.0
 11
-1.0089676395
 21
-8.0986309685
 31
0.0
 11
-1.0063908691
 21
-8.0154649775
 31
0.0
 11
-1.0042052916
 21
-7.9012648861
 31
0.0
 11
-1.0025227168
 21
-7.7618286107
 31
0.0
 11
-1.0014297849
 21
-7.6043357535
 31
0.0
 11
-1.0009825703
 21
-7.4375472117
 31
0.0
  0
SPLINE
  5
2C8
100
AcDbEntity
  8
RACCORDO
100
AcDbSpline
 62
253
  6
CONTINUOUS
 70
0
 71
3
 72
10
 73
6
 74
4
 42
0.0000001
 43
0.0000001
 44
0.0000000001
 12
0.0113038298
 22
16.305676414
 32
0.0
 13
0.0003688181
 23
16.305680328
 33
0.0
 40
0.0
 40
0.0
 40
0.0
 40
0.0
 40
0.3332437898
 40
0.6665833822
 40
1.0
 40
1.0
 40
1.0
 40
1.0
 10
-1.0009825703
 20
-7.4375472117
 30
0.0
 10
-0.9997269266
 20
-5.6262920773
 30
0.0
 10
-0.9976207298
 20
-2.0032608052
 30
0.0
 10
-0.9956761686
 20
3.4319656651
 30
0.0
 10
-0.9951893895
 20
7.0559368762
 30
0.0
 10
-0.9951483995
 20
8.8681318051
 30
0.0
 11
-1.0009825703
 21
-7.4375472117
 31
0.0
 11
-0.9978234705
 21
-2.0037814209
 31
0.0
 11
-0.9958787139
 21
3.4315470662
 31
0.0
 11
-0.9951483995
 21
8.8681318051
 31
0.0
  0
SPLINE
  5
2C9
100
AcDbEntity
  8
RACCORDO
100
AcDbSpline
 62
253
  6
CONTINUOUS
 70
0
 71
3
 72
10
 73
6
 74
4
 42
0.0000001
 43
0.0000001
 44
0.0000000001
 12
0.0113038298
 22
16.3152736367
 32
0.0
 13
0.0003688181
 23
16.3152775484
 33
0.0
 40
0.0
 40
0.0
 40
0.0
 40
0.0
 40
0.3332434383
 40
0.6665824571
 40
1.0
 40
1.0
 40
1.0
 40
1.0
 10
-0.7510206465
 20
-7.4474683879
 30
0.0
 10
-0.7497650041
 20
-5.6351490936
 30
0.0
 10
-0.7476588099
 20
-2.0099904029
 30
0.0
 10
-0.7457142463
 20
3.428435141
 30
0.0
 10
-0.7452274659
 20
7.054541266
 30
0.0
 10
-0.7451864757
 20
8.8678078502
 30
0.0
 11
-0.7510206465
 21
-7.4474683879
 31
0.0
 11
-0.7478615494
 21
-2.0105101177
 31
0.0
 11
-0.7459167938
 21
3.4280081452
 31
0.0
 11
-0.7451864757
 21
8.8678078502
 31
0.0
  0
SPLINE
  5
2CA
100
AcDbEntity
  8
RACCORDO
100
AcDbSpline
 62
253
  6
CONTINUOUS
 70
0
 71
3
 72
10
 73
6
 74
4
 42
0.0000001
 43
0.0000001
 44
0.0000000001
 12
0.0003688181
 22
-16.3056803279
 32
0.0
 13
0.0113038298
 23
-16.3056764139
 33
0.0
 40
0.0
 40
0.0
 40
0.0
 40
0.0
 40
0.3334166178
 40
0.6667562102
 40
1.0
 40
1.0
 40
1.0
 40
1.0
 10
23.4039768439
 20
8.8681318051
 30
0.0
 10
23.4040178339
 20
7.0559368762
 30
0.0
 10
23.404504613
 20
3.4319656651
 30
0.0
 10
23.4064491743
 20
-2.0032608052
 30
0.0
 10
23.408555371
 20
-5.6262920773
 30
0.0
 10
23.4098110147
 20
-7.4375472117
 30
0.0
 11
23.4039768439
 21
8.8681318051
 31
0.0
 11
23.4047071583
 21
3.4315470662
 31
0.0
 11
23.4066519149
 21
-2.0037814209
 31
0.0
 11
23.4098110147
 21
-7.4375472117
 31
0.0
  0
SPLINE
  5
2CB
100
AcDbEntity
  8
RACCORDO
100
AcDbSpline
 62
253
  6
CONTINUOUS
 70
0
 71
3
 72
13
 73
9
 74
7
 42
0.0000001
 43
0.0000001
 44
0.0000000001
 12
0.0004946771
 22
-0.7090008173
 32
0.0
 13
0.0697524934
 23
-0.7055614738
 33
0.0
 40
0.0
 40
0.0
 40
0.0
 40
0.0
 40
0.2352452869
 40
0.4573841156
 40
0.6540642737
 40
0.8151656051
 40
0.9325221411
 40
1.0
 40
1.0
 40
1.0
 40
1.0
 10
23.4098110147
 20
-7.4375472117
 30
0.0
 10
23.4098498049
 20
-7.4931435786
 30
0.0
 10
23.4101342617
 20
-7.6012384662
 30
0.0
 10
23.4111671184
 20
-7.7558142572
 30
0.0
 10
23.4127908793
 20
-7.8928560771
 30
0.0
 10
23.414750718
 20
-8.0051415807
 30
0.0
 10
23.417247142
 20
-8.0868401063
 30
0.0
 10
23.4190498043
 20
-8.1305195721
 30
0.0
 10
23.4206187206
 20
-8.146389498
 30
0.0
 11
23.4098110147
 21
-7.4375472117
 31
0.0
 11
23.4102582294
 21
-7.6043357535
 31
0.0
 11
23.4113511612
 21
-7.7618286107
 31
0.0
 11
23.413033736
 21
-7.9012648861
 31
0.0
 11
23.4152193135
 21
-8.0154649775
 31
0.0
 11
23.417796084
 21
-8.0986309686
 31
0.0
 11
23.4206187206
 21
-8.146389498
 31
0.0
  0
SPLINE
  5
2CC
100
AcDbEntity
  8
ASSI
100
AcDbSpline
 62
7
  6
CONTINUOUS
 70
0
 71
3
 72
26
 73
22
 74
20
 42
0.0000001
 43
0.0000001
 44
0.0000000001
 12
7.5245273328
 22
0.0
 32
0.0
 13
-7.5245273328
 23
0.0
 33
0.0
 40
0.0
 40
0.0
 40
0.0
 40
0.0
 40
0.0525110766
 40
0.1050659475
 40
0.1576757335
 40
0.2102146508
 40
0.2628696807
 40
0.3154318125
 40
0.3681645664
 40
0.4207860678
 40
0.473590599
 40
0.5262369109
 40
0.5790389163
 40
0.6316790221
 40
0.6844572014
 40
0.7370664067
 40
0.7897607685
 40
0.8423102194
 40
0.8949163168
 40
0.9474619409
 40
1.0
 40
1.0
 40
1.0
 40
1.0
 10
11.2044142222
 20
7.2110445711
 30
0.0
 10
11.3361212327
 20
7.2110445711
 30
0.0
 10
11.6001543429
 20
7.1893828018
 30
0.0
 10
11.9853749932
 20
7.092677881
 30
0.0
 10
12.3497718308
 20
6.9342200914
 30
0.0
 10
12.683473083
 20
6.7180801029
 30
0.0
 10
12.9770867492
 20
6.4501458508
 30
0.0
 10
13.2228914239
 20
6.1371547541
 30
0.0
 10
13.4136269729
 20
5.7879337661
 30
0.0
 10
13.5441407076
 20
5.411393111
 30
0.0
 10
13.6103744764
 20
5.0186160455
 30
0.0
 10
13.6104919025
 20
4.6198537416
 30
0.0
 10
13.5444822839
 20
4.2269979016
 30
0.0
 10
13.4141235613
 20
3.8502377869
 30
0.0
 10
13.2234008089
 20
3.5006865611
 30
0.0
 10
12.97746969
 20
3.1873677591
 30
0.0
 10
12.6837016301
 20
2.9192357221
 30
0.0
 10
12.3499062734
 20
2.7030257497
 30
0.0
 10
11.9855169056
 20
2.5445668137
 30
0.0
 10
11.6002672073
 20
2.447837435
 30
0.0
 10
11.3361889094
 20
2.4261634295
 30
0.0
 10
11.2044142222
 20
2.4261634295
 30
0.0
 11
11.2044142222
 21
7.2110445711
 31
0.0
 11
11.5982097046
 21
7.1787065516
 31
0.0
 11
11.9817615351
 21
7.082430176
 31
0.0
 11
12.3447767688
 21
6.9245439293
 31
0.0
 11
12.6765763108
 21
6.7096130495
 31
0.0
 11
12.9692234968
 21
6.4425261681
 31
0.0
 11
13.2134845986
 21
6.1314620664
 31
0.0
 11
13.4036624111
 21
5.7832179734
 31
0.0
 11
13.5333208562
 21
5.4090968504
 31
0.0
 11
13.5993810008
 21
5.0172977925
 31
0.0
 11
13.599497312
 21
4.6211591972
 31
0.0
 11
13.5336699581
 21
4.2293402327
 31
0.0
 11
13.4041702184
 21
3.8550160115
 31
0.0
 11
13.213976938
 21
3.5063909543
 31
0.0
 11
12.9695778271
 21
3.1949848827
 31
0.0
 11
12.6767407107
 21
2.9276670848
 31
0.0
 11
12.3448791367
 21
2.7126861799
 31
0.0
 11
11.9818912248
 21
2.5548067052
 31
0.0
 11
11.5984110055
 21
2.4585308271
 31
0.0
 11
11.2044142222
 21
2.4261634295
 31
0.0
  0
SPLINE
  5
2CD
100
AcDbEntity
  8
ASSI
100
AcDbSpline
 62
7
  6
CONTINUOUS
 70
0
 71
3
 72
26
 73
22
 74
20
 42
0.0000001
 43
0.0000001
 44
0.0000000001
 12
-7.5245273329
 22
0.0
 32
0.0
 13
7.5245273329
 23
0.0
 33
0.0
 40
0.0
 40
0.0
 40
0.0
 40
0.0
 40
0.0525110341
 40
0.1050655381
 40
0.1576743928
 40
0.2102117292
 40
0.262864617
 40
0.3154243168
 40
0.3681547145
 40
0.420774355
 40
0.473577854
 40
0.5262241639
 40
0.5790271981
 40
0.6316691632
 40
0.6844497002
 40
0.7370613399
 40
0.7897578459
 40
0.8423088783
 40
0.8949159072
 40
0.9474618983
 40
1.0
 40
1.0
 40
1.0
 40
1.0
 10
11.2044142222
 20
2.4261634295
 30
0.0
 10
11.0727073185
 20
2.4261634295
 30
0.0
 10
10.8086753526
 20
2.4478223789
 30
0.0
 10
10.4234555058
 20
2.5445152426
 30
0.0
 10
10.0590588213
 20
2.7029546455
 30
0.0
 10
9.7253570439
 20
2.9190721822
 30
0.0
 10
9.4317424349
 20
3.1869825814
 30
0.0
 10
9.1859368017
 20
3.4999510347
 30
0.0
 10
8.995200663
 20
3.8491529452
 30
0.0
 10
8.8646869077
 20
4.2256798656
 30
0.0
 10
8.7984536253
 20
4.6184497672
 30
0.0
 10
8.7983368825
 20
5.0172120583
 30
0.0
 10
8.8643469889
 20
5.4100750396
 30
0.0
 10
8.9947056936
 20
5.7868488755
 30
0.0
 10
9.1854278567
 20
6.1364191795
 30
0.0
 10
9.4313580149
 20
6.4497606391
 30
0.0
 10
9.7251251307
 20
6.7179165453
 30
0.0
 10
10.0589199631
 20
6.9341489792
 30
0.0
 10
10.4233094845
 20
7.0926263039
 30
0.0
 10
10.8085599853
 20
7.1893677436
 30
0.0
 10
11.0726394281
 20
7.2110445711
 30
0.0
 10
11.2044142222
 20
7.2110445711
 30
0.0
 11
11.2044142222
 21
2.4261634295
 31
0.0
 11
10.8106187398
 21
2.4584975347
 31
0.0
 11
10.4270669093
 21
2.5547625722
 31
0.0
 11
10.0640516756
 21
2.712631247
 31
0.0
 11
9.7322521336
 21
2.9275402468
 31
0.0
 11
9.4396049476
 21
3.1946032175
 31
0.0
 11
9.1953438458
 21
3.5056440516
 31
0.0
 11
9.0051660333
 21
3.8538679434
 31
0.0
 11
8.8755075882
 21
4.2279742469
 31
0.0
 11
8.8094474437
 21
4.619765428
 31
0.0
 11
8.8093311325
 21
5.0159040093
 31
0.0
 11
8.8751584863
 21
5.4077308236
 31
0.0
 11
9.0046582261
 21
5.7820698489
 31
0.0
 11
9.1948515064
 21
6.1307151138
 31
0.0
 11
9.4392506173
 21
6.4421444713
 31
0.0
 11
9.7320877338
 21
6.7094861993
 31
0.0
 11
10.0639493078
 21
6.9244889905
 31
0.0
 11
10.4269372196
 21
7.0823860378
 31
0.0
 11
10.810417439
 21
7.1786732552
 31
0.0
 11
11.2044142222
 21
7.2110445711
 31
0.0
  0
SPLINE
  5
2CE
100
AcDbEntity
  8
RACCORDO
100
AcDbSpline
 62
253
  6
CONTINUOUS
 70
0
 71
3
 72
10
 73
6
 74
4
 42
0.0000001
 43
0.0000001
 44
0.0000000001
 12
0.0003688181
 22
-16.3152775484
 32
0.0
 13
0.0113038298
 23
-16.3152736367
 33
0.0
 40
0.0
 40
0.0
 40
0.0
 40
0.0
 40
0.3334174783
 40
0.6667565294
 40
1.0
 40
1.0
 40
1.0
 40
1.0
 10
23.1540149203
 20
8.8678078502
 30
0.0
 10
23.1540559105
 20
7.0545416176
 30
0.0
 10
23.1545426905
 20
3.4284356684
 30
0.0
 10
23.1564872541
 20
-2.0099898755
 30
0.0
 10
23.1585934485
 20
-5.6351489178
 30
0.0
 10
23.159849091
 20
-7.4474683879
 30
0.0
 11
23.1540149203
 21
8.8678078502
 31
0.0
 11
23.154745238
 21
3.4280092002
 31
0.0
 11
23.1566899936
 21
-2.0105095903
 31
0.0
 11
23.159849091
 21
-7.4474683879
 31
0.0
  0
SPLINE
  5
2CF
100
AcDbEntity
  8
ASSI
100
AcDbSpline
 62
7
  6
CONTINUOUS
 70
0
 71
3
 72
26
 73
22
 74
20
 42
0.0000001
 43
0.0000001
 44
0.0000000001
 12
-7.5245273329
 22
0.0
 32
0.0
 13
7.5245273329
 23
0.0
 33
0.0
 40
0.0
 40
0.0
 40
0.0
 40
0.0
 40
0.0525110341
 40
0.1050655381
 40
0.1576743928
 40
0.2102117292
 40
0.262864617
 40
0.3154243168
 40
0.3681547145
 40
0.420774355
 40
0.473577854
 40
0.5262241639
 40
0.5790271981
 40
0.6316691632
 40
0.6844497002
 40
0.7370613399
 40
0.7897578459
 40
0.8423088783
 40
0.8949159072
 40
0.9474618983
 40
1.0
 40
1.0
 40
1.0
 40
1.0
 10
11.2044142222
 20
2.4261634295
 30
0.0
 10
11.0727073185
 20
2.4261634295
 30
0.0
 10
10.8086753526
 20
2.4478223789
 30
0.0
 10
10.4234555058
 20
2.5445152426
 30
0.0
 10
10.0590588213
 20
2.7029546455
 30
0.0
 10
9.7253570439
 20
2.9190721822
 30
0.0
 10
9.4317424349
 20
3.1869825814
 30
0.0
 10
9.1859368017
 20
3.4999510347
 30
0.0
 10
8.995200663
 20
3.8491529452
 30
0.0
 10
8.8646869077
 20
4.2256798656
 30
0.0
 10
8.7984536253
 20
4.6184497672
 30
0.0
 10
8.7983368825
 20
5.0172120583
 30
0.0
 10
8.8643469889
 20
5.4100750396
 30
0.0
 10
8.9947056936
 20
5.7868488755
 30
0.0
 10
9.1854278567
 20
6.1364191795
 30
0.0
 10
9.4313580149
 20
6.4497606391
 30
0.0
 10
9.7251251307
 20
6.7179165453
 30
0.0
 10
10.0589199631
 20
6.9341489792
 30
0.0
 10
10.4233094845
 20
7.0926263039
 30
0.0
 10
10.8085599853
 20
7.1893677436
 30
0.0
 10
11.0726394281
 20
7.2110445711
 30
0.0
 10
11.2044142222
 20
7.2110445711
 30
0.0
 11
11.2044142222
 21
2.4261634295
 31
0.0
 11
10.8106187398
 21
2.4584975347
 31
0.0
 11
10.4270669093
 21
2.5547625722
 31
0.0
 11
10.0640516756
 21
2.712631247
 31
0.0
 11
9.7322521336
 21
2.9275402468
 31
0.0
 11
9.4396049476
 21
3.1946032175
 31
0.0
 11
9.1953438458
 21
3.5056440516
 31
0.0
 11
9.0051660333
 21
3.8538679434
 31
0.0
 11
8.8755075882
 21
4.2279742469
 31
0.0
 11
8.8094474437
 21
4.619765428
 31
0.0
 11
8.8093311325
 21
5.0159040093
 31
0.0
 11
8.8751584863
 21
5.4077308236
 31
0.0
 11
9.0046582261
 21
5.7820698489
 31
0.0
 11
9.1948515064
 21
6.1307151138
 31
0.0
 11
9.4392506173
 21
6.4421444713
 31
0.0
 11
9.7320877338
 21
6.7094861993
 31
0.0
 11
10.0639493078
 21
6.9244889905
 31
0.0
 11
10.4269372196
 21
7.0823860378
 31
0.0
 11
10.810417439
 21
7.1786732552
 31
0.0
 11
11.2044142222
 21
7.2110445711
 31
0.0
  0
SPLINE
  5
2D0
100
AcDbEntity
  8
ASSI
100
AcDbSpline
 62
253
  6
CONTINUOUS
 70
0
 71
3
 72
11
 73
7
 74
5
 42
0.0000001
 43
0.0000001
 44
0.0000000001
 12
0.0011902478
 22
-0.3868382137
 32
0.0
 13
0.3868383214
 23
-0.0011547111
 33
0.0
 40
0.0
 40
0.0
 40
0.0
 40
0.0
 40
0.2481425819
 40
0.4975232625
 40
0.7483526478
 40
1.0
 40
1.0
 40
1.0
 40
1.0
 10
-1.0117902762
 20
-8.146389498
 30
0.0
 10
-1.0116918258
 20
-8.178386509
 30
0.0
 10
-0.9984476695
 20
-8.2432075306
 30
0.0
 10
-0.942648739
 20
-8.3249035684
 30
0.0
 10
-0.8597182186
 20
-8.3795846669
 30
0.0
 10
-0.7942772989
 20
-8.3924945768
 30
0.0
 10
-0.7618283525
 20
-8.3925914368
 30
0.0
 11
-1.0117902762
 21
-8.146389498
 31
0.0
 11
-0.992547183
 21
-8.2404324086
 31
0.0
 11
-0.9383134166
 21
-8.3202148826
 31
0.0
 11
-0.8573122621
 21
-8.3736358423
 31
0.0
 11
-0.7618283525
 21
-8.3925914368
 31
0.0
  0
SPLINE
  5
2D1
100
AcDbEntity
  8
ASSI
100
AcDbSpline
 62
253
  6
CONTINUOUS
 70
0
 71
3
 72
11
 73
7
 74
5
 42
0.0000001
 43
0.0000001
 44
0.0000000001
 12
0.1007369336
 22
-0.2292793437
 32
0.0
 13
0.2504334586
 23
-0.0001733424
 33
0.0
 40
0.0
 40
0.0
 40
0.0
 40
0.0
 40
0.0822915139
 40
0.3001698808
 40
0.6219901233
 40
1.0
 40
1.0
 40
1.0
 40
1.0
 10
-1.0009825703
 20
-7.4375472117
 30
0.0
 10
-0.9982193054
 20
-7.4438364598
 30
0.0
 10
-0.9646350517
 20
-7.4377124856
 30
0.0
 10
-0.9202527627
 20
-7.4477894245
 30
0.0
 10
-0.8399495301
 20
-7.4459295169
 30
0.0
 10
-0.7825760868
 20
-7.4474465462
 30
0.0
 10
-0.7510206465
 20
-7.4474683879
 30
0.0
 11
-1.0009825703
 21
-7.4375472117
 31
0.0
 11
-0.9807194116
 21
-7.4413044541
 31
0.0
 11
-0.9262491464
 21
-7.4445021618
 31
0.0
 11
-0.8456835735
 21
-7.446664127
 31
0.0
 11
-0.7510206465
 21
-7.4474683879
 31
0.0
  0
SPLINE
  5
2D2
100
AcDbEntity
  8
ASSI
100
AcDbSpline
 62
253
  6
CONTINUOUS
 70
0
 71
3
 72
11
 73
7
 74
5
 42
0.0000001
 43
0.0000001
 44
0.0000000001
 12
-0.0011902476
 22
-0.3868382125
 32
0.0
 13
-0.3868383202
 23
-0.0011547048
 33
0.0
 40
0.0
 40
0.0
 40
0.0
 40
0.0
 40
0.2481496322
 40
0.4975322055
 40
0.7483586193
 40
1.0
 40
1.0
 40
1.0
 40
1.0
 10
23.4206187206
 20
-8.146389498
 30
0.0
 10
23.4205202675
 20
-8.178387418
 30
0.0
 10
23.4072754768
 20
-8.2432096486
 30
0.0
 10
23.3514750287
 20
-8.3249056406
 30
0.0
 10
23.2685446932
 20
-8.3795852184
 30
0.0
 10
23.2031049732
 20
-8.3924945791
 30
0.0
 10
23.1706567968
 20
-8.3925914362
 30
0.0
 11
23.4206187206
 21
-8.146389498
 31
0.0
 11
23.4013745447
 21
-8.2404349706
 31
0.0
 11
23.3471393488
 21
-8.3202173578
 31
0.0
 11
23.2661385286
 21
-8.373636736
 31
0.0
 11
23.1706567968
 21
-8.3925914362
 31
0.0
  0
SPLINE
  5
2D3
100
AcDbEntity
  8
ASSI
100
AcDbSpline
 62
253
  6
CONTINUOUS
 70
0
 71
3
 72
11
 73
7
 74
5
 42
0.0000001
 43
0.0000001
 44
0.0000000001
 12
-0.1008819843
 22
-0.2292154883
 32
0.0
 13
-0.2504333939
 23
-0.000173313
 33
0.0
 40
0.0
 40
0.0
 40
0.0
 40
0.0
 40
0.082299687
 40
0.3001800223
 40
0.6219967759
 40
1.0
 40
1.0
 40
1.0
 40
1.0
 10
23.4098110146
 20
-7.4375472117
 30
0.0
 10
23.4070434961
 20
-7.4438353327
 30
0.0
 10
23.3734668109
 20
-7.4377139455
 30
0.0
 10
23.3290762681
 20
-7.4477881356
 30
0.0
 10
23.2487776694
 20
-7.4459296045
 30
0.0
 10
23.1914039677
 20
-7.4474461937
 30
0.0
 10
23.159849091
 20
-7.4474680313
 30
0.0
 11
23.4098110146
 21
-7.4375472117
 31
0.0
 11
23.3895457599
 21
-7.441304348
 31
0.0
 11
23.3350750083
 21
-7.4445019394
 31
0.0
 11
23.2545103278
 21
-7.4466638128
 31
0.0
 11
23.159849091
 21
-7.4474680313
 31
0.0
  0
SPLINE
  5
2D4
100
AcDbEntity
  8
ASSI
100
AcDbSpline
 62
253
  6
CONTINUOUS
 70
0
 71
3
 72
13
 73
9
 74
7
 42
0.0000001
 43
0.0000001
 44
0.0000000001
 12
0.069752494
 22
0.7055614738
 32
0.0
 13
0.0004946771
 23
0.7090008173
 33
0.0
 40
0.0
 40
0.0
 40
0.0
 40
0.0
 40
0.067477859
 40
0.1848343948
 40
0.3459357263
 40
0.5426158844
 40
0.7647547131
 40
1.0
 40
1.0
 40
1.0
 40
1.0
 10
-1.0117902762
 20
-8.146389498
 30
0.0
 10
-1.0102213599
 20
-8.1305195721
 30
0.0
 10
-1.0084186975
 20
-8.0868401063
 30
0.0
 10
-1.0059222735
 20
-8.0051415807
 30
0.0
 10
-1.0039624348
 20
-7.8928560771
 30
0.0
 10
-1.002338674
 20
-7.7558142572
 30
0.0
 10
-1.0013058172
 20
-7.6012384662
 30
0.0
 10
-1.0010213605
 20
-7.4931435786
 30
0.0
 10
-1.0009825703
 20
-7.4375472117
 30
0.0
 11
-1.0117902762
 21
-8.146389498
 31
0.0
 11
-1.0089676395
 21
-8.0986309685
 31
0.0
 11
-1.0063908691
 21
-8.0154649775
 31
0.0
 11
-1.0042052916
 21
-7.9012648861
 31
0.0
 11
-1.0025227168
 21
-7.7618286107
 31
0.0
 11
-1.0014297849
 21
-7.6043357535
 31
0.0
 11
-1.0009825703
 21
-7.4375472117
 31
0.0
  0
SPLINE
  5
2D5
100
AcDbEntity
  8
ASSI
100
AcDbSpline
 62
253
  6
CONTINUOUS
 70
0
 71
3
 72
10
 73
6
 74
4
 42
0.0000001
 43
0.0000001
 44
0.0000000001
 12
0.0113038298
 22
16.305676414
 32
0.0
 13
0.0003688181
 23
16.305680328
 33
0.0
 40
0.0
 40
0.0
 40
0.0
 40
0.0
 40
0.3332437898
 40
0.6665833822
 40
1.0
 40
1.0
 40
1.0
 40
1.0
 10
-1.0009825703
 20
-7.4375472117
 30
0.0
 10
-0.9997269266
 20
-5.6262920773
 30
0.0
 10
-0.9976207298
 20
-2.0032608052
 30
0.0
 10
-0.9956761686
 20
3.4319656651
 30
0.0
 10
-0.9951893895
 20
7.0559368762
 30
0.0
 10
-0.9951483995
 20
8.8681318051
 30
0.0
 11
-1.0009825703
 21
-7.4375472117
 31
0.0
 11
-0.9978234705
 21
-2.0037814209
 31
0.0
 11
-0.9958787139
 21
3.4315470662
 31
0.0
 11
-0.9951483995
 21
8.8681318051
 31
0.0
  0
SPLINE
  5
2D6
100
AcDbEntity
  8
ASSI
100
AcDbSpline
 62
253
  6
CONTINUOUS
 70
0
 71
3
 72
10
 73
6
 74
4
 42
0.0000001
 43
0.0000001
 44
0.0000000001
 12
0.0003688181
 22
-16.3056803279
 32
0.0
 13
0.0113038298
 23
-16.3056764139
 33
0.0
 40
0.0
 40
0.0
 40
0.0
 40
0.0
 40
0.3334166178
 40
0.6667562102
 40
1.0
 40
1.0
 40
1.0
 40
1.0
 10
23.4039768439
 20
8.8681318051
 30
0.0
 10
23.4040178339
 20
7.0559368762
 30
0.0
 10
23.404504613
 20
3.4319656651
 30
0.0
 10
23.4064491743
 20
-2.0032608052
 30
0.0
 10
23.408555371
 20
-5.6262920773
 30
0.0
 10
23.4098110147
 20
-7.4375472117
 30
0.0
 11
23.4039768439
 21
8.8681318051
 31
0.0
 11
23.4047071583
 21
3.4315470662
 31
0.0
 11
23.4066519149
 21
-2.0037814209
 31
0.0
 11
23.4098110147
 21
-7.4375472117
 31
0.0
  0
SPLINE
  5
2D7
100
AcDbEntity
  8
ASSI
100
AcDbSpline
 62
253
  6
CONTINUOUS
 70
0
 71
3
 72
13
 73
9
 74
7
 42
0.0000001
 43
0.0000001
 44
0.0000000001
 12
0.0004946771
 22
-0.7090008173
 32
0.0
 13
0.0697524934
 23
-0.7055614738
 33
0.0
 40
0.0
 40
0.0
 40
0.0
 40
0.0
 40
0.2352452869
 40
0.4573841156
 40
0.6540642737
 40
0.8151656051
 40
0.9325221411
 40
1.0
 40
1.0
 40
1.0
 40
1.0
 10
23.4098110147
 20
-7.4375472117
 30
0.0
 10
23.4098498049
 20
-7.4931435786
 30
0.0
 10
23.4101342617
 20
-7.6012384662
 30
0.0
 10
23.4111671184
 20
-7.7558142572
 30
0.0
 10
23.4127908793
 20
-7.8928560771
 30
0.0
 10
23.414750718
 20
-8.0051415807
 30
0.0
 10
23.417247142
 20
-8.0868401063
 30
0.0
 10
23.4190498043
 20
-8.1305195721
 30
0.0
 10
23.4206187206
 20
-8.146389498
 30
0.0
 11
23.4098110147
 21
-7.4375472117
 31
0.0
 11
23.4102582294
 21
-7.6043357535
 31
0.0
 11
23.4113511612
 21
-7.7618286107
 31
0.0
 11
23.413033736
 21
-7.9012648861
 31
0.0
 11
23.4152193135
 21
-8.0154649775
 31
0.0
 11
23.417796084
 21
-8.0986309686
 31
0.0
 11
23.4206187206
 21
-8.146389498
 31
0.0
  0
SPLINE
  5
2D8
100
AcDbEntity
  8
ASSI
100
AcDbSpline
 62
253
  6
CONTINUOUS
 70
0
 71
3
 72
13
 73
9
 74
7
 42
0.0000001
 43
0.0000001
 44
0.0000000001
 12
0.0699504283
 22
0.942650268
 32
0.0
 13
0.0004957988
 23
0.9452419502
 33
0.0
 40
0.0
 40
0.0
 40
0.0
 40
0.0
 40
0.0677735974
 40
0.1851013747
 40
0.3460122137
 40
0.5423316971
 40
0.7640939911
 40
1.0
 40
1.0
 40
1.0
 40
1.0
 10
-0.7618283524
 20
-8.3925914362
 30
0.0
 10
-0.7602480883
 20
-8.3712958363
 30
0.0
 10
-0.758454473
 20
-8.3129755864
 30
0.0
 10
-0.7559549992
 20
-8.2039974455
 30
0.0
 10
-0.754000784
 20
-8.054477386
 30
0.0
 10
-0.7523784814
 20
-7.8720576905
 30
0.0
 10
-0.7513447271
 20
-7.6659999663
 30
0.0
 10
-0.7510596338
 20
-7.5217978066
 30
0.0
 10
-0.7510206465
 20
-7.4474683879
 30
0.0
 11
-0.7618283524
 21
-8.3925914362
 31
0.0
 11
-0.7589958481
 21
-8.3285916299
 31
0.0
 11
-0.7564234818
 21
-8.2177183142
 31
0.0
 11
-0.7542419823
 21
-8.065634263
 31
0.0
 11
-0.7525623526
 21
-7.8800724277
 31
0.0
 11
-0.7514700005
 21
-7.6704562218
 31
0.0
 11
-0.7510206465
 21
-7.4474683879
 31
0.0
  0
SPLINE
  5
2D9
100
AcDbEntity
  8
ASSI
100
AcDbSpline
 62
253
  6
CONTINUOUS
 70
0
 71
3
 72
13
 73
9
 74
7
 42
0.0000001
 43
0.0000001
 44
0.0000000001
 12
0.0004957988
 22
-0.9452419502
 32
0.0
 13
0.0699504281
 23
-0.9426502681
 33
0.0
 40
0.0
 40
0.0
 40
0.0
 40
0.0
 40
0.2359060089
 40
0.4576683029
 40
0.6539877863
 40
0.8148986253
 40
0.9322264026
 40
1.0
 40
1.0
 40
1.0
 40
1.0
 10
23.159849091
 20
-7.4474683879
 30
0.0
 10
23.1598880783
 20
-7.5217978066
 30
0.0
 10
23.1601731715
 20
-7.6659999663
 30
0.0
 10
23.1612069258
 20
-7.8720576905
 30
0.0
 10
23.1628292285
 20
-8.054477386
 30
0.0
 10
23.1647834436
 20
-8.2039974455
 30
0.0
 10
23.1672829175
 20
-8.3129755864
 30
0.0
 10
23.1690765328
 20
-8.3712958363
 30
0.0
 10
23.1706567968
 20
-8.3925914362
 30
0.0
 11
23.159849091
 21
-7.4474683879
 31
0.0
 11
23.1602984449
 21
-7.6704562218
 31
0.0
 11
23.1613907971
 21
-7.8800724277
 31
0.0
 11
23.1630704268
 21
-8.065634263
 31
0.0
 11
23.1652519262
 21
-8.2177183142
 31
0.0
 11
23.1678242925
 21
-8.3285916299
 31
0.0
 11
23.1706567968
 21
-8.3925914362
 31
0.0
  0
SPLINE
  5
2DA
100
AcDbEntity
  8
ASSI
100
AcDbSpline
 62
7
  6
CONTINUOUS
 70
0
 71
3
 72
26
 73
22
 74
20
 42
0.0000001
 43
0.0000001
 44
0.0000000001
 12
7.5245273328
 22
0.0
 32
0.0
 13
-7.5245273328
 23
0.0
 33
0.0
 40
0.0
 40
0.0
 40
0.0
 40
0.0
 40
0.0525110766
 40
0.1050659475
 40
0.1576757335
 40
0.2102146508
 40
0.2628696807
 40
0.3154318125
 40
0.3681645664
 40
0.4207860678
 40
0.473590599
 40
0.5262369109
 40
0.5790389163
 40
0.6316790221
 40
0.6844572014
 40
0.7370664067
 40
0.7897607685
 40
0.8423102194
 40
0.8949163168
 40
0.9474619409
 40
1.0
 40
1.0
 40
1.0
 40
1.0
 10
11.2044142222
 20
7.2110445711
 30
0.0
 10
11.3361212327
 20
7.2110445711
 30
0.0
 10
11.6001543429
 20
7.1893828018
 30
0.0
 10
11.9853749932
 20
7.092677881
 30
0.0
 10
12.3497718308
 20
6.9342200914
 30
0.0
 10
12.683473083
 20
6.7180801029
 30
0.0
 10
12.9770867492
 20
6.4501458508
 30
0.0
 10
13.2228914239
 20
6.1371547541
 30
0.0
 10
13.4136269729
 20
5.7879337661
 30
0.0
 10
13.5441407076
 20
5.411393111
 30
0.0
 10
13.6103744764
 20
5.0186160455
 30
0.0
 10
13.6104919025
 20
4.6198537416
 30
0.0
 10
13.5444822839
 20
4.2269979016
 30
0.0
 10
13.4141235613
 20
3.8502377869
 30
0.0
 10
13.2234008089
 20
3.5006865611
 30
0.0
 10
12.97746969
 20
3.1873677591
 30
0.0
 10
12.6837016301
 20
2.9192357221
 30
0.0
 10
12.3499062734
 20
2.7030257497
 30
0.0
 10
11.9855169056
 20
2.5445668137
 30
0.0
 10
11.6002672073
 20
2.447837435
 30
0.0
 10
11.3361889094
 20
2.4261634295
 30
0.0
 10
11.2044142222
 20
2.4261634295
 30
0.0
 11
11.2044142222
 21
7.2110445711
 31
0.0
 11
11.5982097046
 21
7.1787065516
 31
0.0
 11
11.9817615351
 21
7.082430176
 31
0.0
 11
12.3447767688
 21
6.9245439293
 31
0.0
 11
12.6765763108
 21
6.7096130495
 31
0.0
 11
12.9692234968
 21
6.4425261681
 31
0.0
 11
13.2134845986
 21
6.1314620664
 31
0.0
 11
13.4036624111
 21
5.7832179734
 31
0.0
 11
13.5333208562
 21
5.4090968504
 31
0.0
 11
13.5993810008
 21
5.0172977925
 31
0.0
 11
13.599497312
 21
4.6211591972
 31
0.0
 11
13.5336699581
 21
4.2293402327
 31
0.0
 11
13.4041702184
 21
3.8550160115
 31
0.0
 11
13.213976938
 21
3.5063909543
 31
0.0
 11
12.9695778271
 21
3.1949848827
 31
0.0
 11
12.6767407107
 21
2.9276670848
 31
0.0
 11
12.3448791367
 21
2.7126861799
 31
0.0
 11
11.9818912248
 21
2.5548067052
 31
0.0
 11
11.5984110055
 21
2.4585308271
 31
0.0
 11
11.2044142222
 21
2.4261634295
 31
0.0
  0
SPLINE
  5
2DB
100
AcDbEntity
  8
RACCORDO
100
AcDbSpline
 62
253
  6
CONTINUOUS
 70
0
 71
3
 72
11
 73
7
 74
5
 42
0.0000001
 43
0.0000001
 44
0.0000000001
 12
-0.0432841549
 22
-0.2455514343
 32
0.0
 13
0.2455491793
 23
-0.0432969454
 33
0.0
 40
0.0
 40
0.0
 40
0.0
 40
0.0
 40
0.3827689169
 40
0.7070452555
 40
0.9236831927
 40
1.0
 40
1.0
 40
1.0
 40
1.0
 10
-16.001647151
 20
-8.146389498
 30
0.0
 10
-16.0071697607
 20
-8.1777193168
 30
0.0
 10
-16.0152735842
 20
-8.2340062713
 30
0.0
 10
-16.0345526361
 20
-8.3154390894
 30
0.0
 10
-16.0290706679
 20
-8.3548965367
 30
0.0
 10
-16.0469426037
 20
-8.391490008
 30
0.0
 10
-16.0406960939
 20
-8.3925914362
 30
0.0
 11
-16.001647151
 21
-8.146389498
 31
0.0
 11
-16.0178939963
 21
-8.2404349706
 31
0.0
 11
-16.0310151033
 21
-8.3202173578
 31
0.0
 11
-16.0390205047
 21
-8.373636736
 31
0.0
 11
-16.0406960939
 21
-8.3925914362
 31
0.0
  0
SPLINE
  5
2DC
100
AcDbEntity
  8
RACCORDO
100
AcDbSpline
 62
253
  6
CONTINUOUS
 70
0
 71
3
 72
12
 73
8
 74
6
 42
0.0000001
 43
0.0000001
 44
0.0000000001
 12
-0.0043623064
 22
0.2499925102
 32
0.0
 13
0.2499924871
 23
0.0043636351
 33
0.0
 40
0.0
 40
0.0
 40
0.0
 40
0.0
 40
0.3098605754
 40
0.5892143267
 40
0.8103234085
 40
0.9518389381
 40
1.0
 40
1.0
 40
1.0
 40
1.0
 10
-16.9550596314
 20
8.868131805
 30
0.0
 10
-16.9555102003
 20
8.893952746
 30
0.0
 10
-16.9566196762
 20
8.9435222218
 30
0.0
 10
-16.955755886
 20
9.0092534138
 30
0.0
 10
-16.9595927589
 20
9.0673581236
 30
0.0
 10
-16.9520507234
 20
9.0928514471
 30
0.0
 10
-16.9590729326
 20
9.1180236764
 30
0.0
 10
-16.9550596314
 20
9.1180937288
 30
0.0
 11
-16.9550596314
 21
8.868131805
 31
0.0
 11
-16.9561965817
 21
8.9455980778
 31
0.0
 11
-16.9567919731
 21
9.0154425172
 31
0.0
 11
-16.9567873799
 21
9.0707265463
 31
0.0
 11
-16.956184141
 21
9.1061046119
 31
0.0
 11
-16.9550596314
 21
9.1180937288
 31
0.0
  0
SPLINE
  5
2DD
100
AcDbEntity
  8
ASSI
100
AcDbSpline
 62
253
  6
CONTINUOUS
 70
0
 71
3
 72
11
 73
7
 74
5
 42
0.0000001
 43
0.0000001
 44
0.0000000001
 12
-0.0432841549
 22
-0.2455514343
 32
0.0
 13
0.2455491793
 23
-0.0432969454
 33
0.0
 40
0.0
 40
0.0
 40
0.0
 40
0.0
 40
0.3827689169
 40
0.7070452555
 40
0.9236831927
 40
1.0
 40
1.0
 40
1.0
 40
1.0
 10
-16.001647151
 20
-8.146389498
 30
0.0
 10
-16.0071697607
 20
-8.1777193168
 30
0.0
 10
-16.0152735842
 20
-8.2340062713
 30
0.0
 10
-16.0345526361
 20
-8.3154390894
 30
0.0
 10
-16.0290706679
 20
-8.3548965367
 30
0.0
 10
-16.0469426037
 20
-8.391490008
 30
0.0
 10
-16.0406960939
 20
-8.3925914362
 30
0.0
 11
-16.001647151
 21
-8.146389498
 31
0.0
 11
-16.0178939963
 21
-8.2404349706
 31
0.0
 11
-16.0310151033
 21
-8.3202173578
 31
0.0
 11
-16.0390205047
 21
-8.373636736
 31
0.0
 11
-16.0406960939
 21
-8.3925914362
 31
0.0
  0
SPLINE
  5
2DE
100
AcDbEntity
  8
ASSI
100
AcDbSpline
 62
253
  6
CONTINUOUS
 70
0
 71
3
 72
12
 73
8
 74
6
 42
0.0000001
 43
0.0000001
 44
0.0000000001
 12
-0.0043623064
 22
0.2499925102
 32
0.0
 13
0.2499924871
 23
0.0043636351
 33
0.0
 40
0.0
 40
0.0
 40
0.0
 40
0.0
 40
0.3098605754
 40
0.5892143267
 40
0.8103234085
 40
0.9518389381
 40
1.0
 40
1.0
 40
1.0
 40
1.0
 10
-16.9550596314
 20
8.868131805
 30
0.0
 10
-16.9555102003
 20
8.893952746
 30
0.0
 10
-16.9566196762
 20
8.9435222218
 30
0.0
 10
-16.955755886
 20
9.0092534138
 30
0.0
 10
-16.9595927589
 20
9.0673581236
 30
0.0
 10
-16.9520507234
 20
9.0928514471
 30
0.0
 10
-16.9590729326
 20
9.1180236764
 30
0.0
 10
-16.9550596314
 20
9.1180937288
 30
0.0
 11
-16.9550596314
 21
8.868131805
 31
0.0
 11
-16.9561965817
 21
8.9455980778
 31
0.0
 11
-16.9567919731
 21
9.0154425172
 31
0.0
 11
-16.9567873799
 21
9.0707265463
 31
0.0
 11
-16.956184141
 21
9.1061046119
 31
0.0
 11
-16.9550596314
 21
9.1180937288
 31
0.0
  0
SPLINE
  5
2DF
100
AcDbEntity
  8
CURVE
100
AcDbSpline
 62
253
  6
CONTINUOUS
 70
0
 71
3
 72
9
 73
5
 74
3
 42
0.0000001
 43
0.0000001
 44
0.0000000001
 12
-0.0196096756
 22
0.6884903909
 32
0.0
 13
-0.017751768
 23
0.6601366989
 33
0.0
 40
0.0
 40
0.0
 40
0.0
 40
0.0
 40
0.9236639334
 40
1.0
 40
1.0
 40
1.0
 40
1.0
 10
-17.0287711612
 20
-2.6814688929
 30
0.0
 10
-17.0348087446
 20
-2.4694909786
 30
0.0
 10
-17.0410199438
 20
-2.2454582409
 30
0.0
 10
-17.0469589265
 20
-2.0250903142
 30
0.0
 10
-17.0474106266
 20
-2.0082929012
 30
0.0
 11
-17.0287711612
 21
-2.6814688929
 31
0.0
 11
-17.0460506231
 21
-2.0587557112
 31
0.0
 11
-17.0474106266
 21
-2.0082929012
 31
0.0
  0
SPLINE
  5
2E0
100
AcDbEntity
  8
CURVE
100
AcDbSpline
 62
253
  6
CONTINUOUS
 70
0
 71
3
 72
9
 73
5
 74
3
 42
0.0000001
 43
0.0000001
 44
0.0000000001
 12
0.017761717
 22
-0.6605135397
 32
0.0
 13
0.0196017521
 23
-0.6882122
 33
0.0
 40
0.0
 40
0.0
 40
0.0
 40
0.0
 40
0.076989329
 40
1.0
 40
1.0
 40
1.0
 40
1.0
 10
-17.0474108585
 20
-2.0082837208
 30
0.0
 10
-17.0469550376
 20
-2.0252345522
 30
0.0
 10
-17.0410127884
 20
-2.245721504
 30
0.0
 10
-17.0348020367
 20
-2.4697264913
 30
0.0
 10
-17.0287711612
 20
-2.6814688929
 30
0.0
 11
-17.0474108585
 21
-2.0082837208
 31
0.0
 11
-17.0460384666
 21
-2.0592056898
 31
0.0
 11
-17.0287711612
 21
-2.6814688929
 31
0.0
  0
SPLINE
  5
2E1
100
AcDbEntity
  8
CURVE
100
AcDbSpline
 62
253
  6
CONTINUOUS
 70
0
 71
3
 72
20
 73
16
 74
14
 42
0.0000001
 43
0.0000001
 44
0.0000000001
 12
0.2045843286
 22
-6.56483236
 32
0.0
 13
-0.2046052355
 23
6.5655719408
 33
0.0
 40
0.0
 40
0.0
 40
0.0
 40
0.0
 40
0.0121195872
 40
0.1008304204
 40
0.1895412537
 40
0.2782520869
 40
0.3669629201
 40
0.4556737533
 40
0.5443845865
 40
0.6330954198
 40
0.721806253
 40
0.8105170862
 40
0.8992279194
 40
0.9879387526
 40
1.0
 40
1.0
 40
1.0
 40
1.0
 10
-16.9947692223
 20
-3.8215042482
 30
0.0
 10
-16.9939427298
 20
-3.8480252677
 30
0.0
 10
-16.9870850848
 20
-4.0674108085
 30
0.0
 10
-16.9745492943
 20
-4.4582025822
 30
0.0
 10
-16.9589791034
 20
-4.9259347817
 30
0.0
 10
-16.9461720435
 20
-5.2993785618
 30
0.0
 10
-16.9372153508
 20
-5.5549197917
 30
0.0
 10
-16.9325188385
 20
-5.687183667
 30
0.0
 10
-16.9325212569
 20
-5.6871156868
 30
0.0
 10
-16.93722096
 20
-5.5547614947
 30
0.0
 10
-16.9461827593
 20
-5.2990693358
 30
0.0
 10
-16.9589889413
 20
-4.9256449323
 30
0.0
 10
-16.9745647883
 20
-4.4577276964
 30
0.0
 10
-16.9870928907
 20
-4.0671657923
 30
0.0
 10
-16.993947139
 20
-3.8478833379
 30
0.0
 10
-16.9947697371
 20
-3.8214870087
 30
0.0
 11
-16.9947692223
 21
-3.8215042482
 31
0.0
 11
-16.9922969133
 21
-3.9005984696
 31
0.0
 11
-16.9748878202
 21
-4.4447069765
 31
0.0
 11
-16.9594396252
 21
-4.9102200451
 31
0.0
 11
-16.9468137714
 21
-5.2797281368
 31
0.0
 11
-16.9379253809
 21
-5.5343735659
 31
0.0
 11
-16.9333019936
 21
-5.6651283578
 31
0.0
 11
-16.9333041377
 21
-5.6650679848
 31
0.0
 11
-16.9379313093
 21
-5.5342051669
 31
0.0
 11
-16.9468234898
 21
-5.279447295
 31
0.0
 11
-16.9594505521
 21
-4.9098961269
 31
0.0
 11
-16.974901475
 21
-4.4442885827
 31
0.0
 11
-16.9923091341
 21
-3.9002087017
 31
0.0
 11
-16.9947697371
 21
-3.8214870087
 31
0.0
  0
ELLIPSE
  5
2E2
100
AcDbEntity
  8
RACCORDO
100
AcDbEllipse
 62
7
  6
CONTINUOUS
 10
-1.0938402713
 20
8.2609750913
 30
0.0
 11
0.0
 21
0.3
 31
0.0
 40
0.0174550649
 41
-3.1241393611
 42
-1.5707963268
  0
ELLIPSE
  5
2E3
100
AcDbEntity
  8
RACCORDO
100
AcDbEllipse
 62
7
  6
CONTINUOUS
 10
23.5026687157
 20
8.2609750913
 30
0.0
 11
-0.0
 21
0.3
 31
0.0
 40
0.0174550649
 41
-4.7123889804
 42
-3.1590459461
  0
ELLIPSE
  5
2E4
100
AcDbEntity
  8
RACCORDO
100
AcDbEllipse
 62
7
  6
CONTINUOUS
 10
-0.8385656698
 20
8.9615109992
 30
0.0
 11
0.1768305473
 21
-0.1768305473
 31
0.0
 40
0.9996954599
 41
2.3563467835
 42
3.9268385238
  0
ELLIPSE
  5
2E5
100
AcDbEntity
  8
RACCORDO
100
AcDbEllipse
 62
7
  6
CONTINUOUS
 10
23.2473941142
 20
8.9615109992
 30
0.0
 11
0.1768305473
 21
0.1768305473
 31
0.0
 40
0.9996954599
 41
-0.7852458701
 42
0.7852458702
  0
ELLIPSE
  5
2E6
100
AcDbEntity
  8
RACCORDO
100
AcDbEllipse
 62
7
  6
CONTINUOUS
 10
23.2408831322
 20
-9.0247133831
 30
0.0
 11
0.2183310446
 21
0.1221043275
 31
0.0
 40
0.9980297029
 41
-2.0815635429
 42
-0.5109195152
  0
ELLIPSE
  5
2E7
100
AcDbEntity
  8
RACCORDO
100
AcDbEllipse
 62
7
  6
CONTINUOUS
 10
-0.8320546878
 20
-9.0247133831
 30
0.0
 11
0.2183310446
 21
-0.1221043275
 31
0.0
 40
0.9980297029
 41
-2.6306731384
 42
-1.0600291107
  0
ELLIPSE
  5
2E8
100
AcDbEntity
  8
RACCORDO
100
AcDbEllipse
 62
7
  6
CONTINUOUS
 10
-0.8193650984
 20
-8.7276122399
 30
0.0
 11
0.0250113895
 21
0.2526592035
 31
0.0
 40
0.9846622838
 41
-4.6121910857
 42
-3.0444253421
  0
ELLIPSE
  5
2E9
100
AcDbEntity
  8
RACCORDO
100
AcDbEllipse
 62
7
  6
CONTINUOUS
 10
-0.8193650984
 20
-9.0183690716
 30
0.0
 11
0.2236527791
 21
0.1118178731
 31
-0.0
 40
0.9998096356
 41
2.6780516535
 42
4.2486956813
  0
ELLIPSE
  5
2EA
100
AcDbEntity
  8
RACCORDO
100
AcDbEllipse
 62
7
  6
CONTINUOUS
 10
23.2281935428
 20
-9.0183690716
 30
0.0
 11
0.2236527791
 21
-0.1118178731
 31
0.0
 40
0.9998096356
 41
-1.1071030277
 42
0.4635410001
  0
ELLIPSE
  5
2EB
100
AcDbEntity
  8
RACCORDO
100
AcDbEllipse
 62
7
  6
CONTINUOUS
 10
23.2281935428
 20
-8.7276122399
 30
0.0
 11
-0.0250113895
 21
0.2526592035
 31
0.0
 40
0.9846622838
 41
-3.2387599651
 42
-1.6709942215
  0
ELLIPSE
  5
2EC
100
AcDbEntity
  8
ASSI
100
AcDbEllipse
 62
7
  6
CONTINUOUS
 10
-1.0938402713
 20
8.2609750913
 30
0.0
 11
0.0
 21
0.3
 31
0.0
 40
0.0174550649
 41
-3.1241393611
 42
-1.5707963268
  0
ELLIPSE
  5
2ED
100
AcDbEntity
  8
ASSI
100
AcDbEllipse
 62
7
  6
CONTINUOUS
 10
23.5026687157
 20
8.2609750913
 30
0.0
 11
-0.0
 21
0.3
 31
0.0
 40
0.0174550649
 41
-4.7123889804
 42
-3.1590459461
  0
ELLIPSE
  5
2EE
100
AcDbEntity
  8
ASSI
100
AcDbEllipse
 62
7
  6
CONTINUOUS
 10
-0.8385656698
 20
8.9615109992
 30
0.0
 11
0.1768305473
 21
-0.1768305473
 31
0.0
 40
0.9996954599
 41
2.3563467835
 42
3.9268385238
  0
ELLIPSE
  5
2EF
100
AcDbEntity
  8
ASSI
100
AcDbEllipse
 62
7
  6
CONTINUOUS
 10
23.2473941142
 20
8.9615109992
 30
0.0
 11
0.1768305473
 21
0.1768305473
 31
0.0
 40
0.9996954599
 41
-0.7852458701
 42
0.7852458702
  0
ELLIPSE
  5
2F0
100
AcDbEntity
  8
ASSI
100
AcDbEllipse
 62
7
  6
CONTINUOUS
 10
23.2408831322
 20
-9.0247133831
 30
0.0
 11
0.2183310446
 21
0.1221043275
 31
0.0
 40
0.9980297029
 41
-2.0815635429
 42
-0.5109195152
  0
ELLIPSE
  5
2F1
100
AcDbEntity
  8
ASSI
100
AcDbEllipse
 62
7
  6
CONTINUOUS
 10
-0.8320546878
 20
-9.0247133831
 30
0.0
 11
0.2183310446
 21
-0.1221043275
 31
0.0
 40
0.9980297029
 41
-2.6306731384
 42
-1.0600291107
  0
ELLIPSE
  5
2F2
100
AcDbEntity
  8
ASSI
100
AcDbEllipse
 62
7
  6
CONTINUOUS
 10
-0.8193650984
 20
-9.0183690716
 30
0.0
 11
0.2236527791
 21
0.1118178731
 31
-0.0
 40
0.9998096356
 41
2.6780516535
 42
4.2486956813
  0
ELLIPSE
  5
2F3
100
AcDbEntity
  8
ASSI
100
AcDbEllipse
 62
7
  6
CONTINUOUS
 10
23.2281935428
 20
-9.0183690716
 30
0.0
 11
0.2236527791
 21
-0.1118178731
 31
0.0
 40
0.9998096356
 41
-1.1071030277
 42
0.4635410001
  0
ELLIPSE
  5
2F4
100
AcDbEntity
  8
ASSI
100
AcDbEllipse
 62
7
  6
CONTINUOUS
 10
-0.8193650984
 20
-8.7276122399
 30
0.0
 11
0.0250113895
 21
0.2526592035
 31
0.0
 40
0.9846622838
 41
-4.6121910857
 42
-3.0444253421
  0
ELLIPSE
  5
2F5
100
AcDbEntity
  8
ASSI
100
AcDbEllipse
 62
7
  6
CONTINUOUS
 10
23.2281935428
 20
-8.7276122399
 30
0.0
 11
-0.0250113895
 21
0.2526592035
 31
0.0
 40
0.9846622838
 41
-3.2387599651
 42
-1.6709942215
  0
ENDSEC
  0
SECTION
  2
OBJECTS
  0
DICTIONARY
  5
C
100
AcDbDictionary
280
0
281
1
  3
ACAD_GROUP
350
D
  3
ACAD_MLINESTYLE
350
17
  3
ACAD_LAYOUT
350
1A
  3
ACAD_PLOTSETTINGS
350
19
  3
ACAD_PLOTSTYLENAME
350
E
  0
DICTIONARY
  5
D
102
{ACAD_REACTORS
330
C
102
}
100
AcDbDictionary
280
0
281
1
  0
ACDBDICTIONARYWDFLT
  5
E
102
{ACAD_REACTORS
330
C
102
}
100
AcDbDictionary
281
1
  3
Normal
350
F
100
AcDbDictionaryWithDefault
340
F
  0
DICTIONARY
  5
17
102
{ACAD_REACTORS
330
C
102
}
100
AcDbDictionary
280
0
281
1
  3
Standard
350
18
  0
DICTIONARY
  5
19
102
{ACAD_REACTORS
330
C
102
}
100
AcDbDictionary
281
1
  0
DICTIONARY
  5
1A
102
{ACAD_REACTORS
330
C
102
}
100
AcDbDictionary
281
1
  3
Model
350
2F6
  3
Layout1
350
2F7
  0
ACDBPLACEHOLDER
  5
F
102
{ACAD_REACTORS
330
E
102
}
  0
MLINESTYLE
  5
18
102
{ACAD_REACTORS
330
17
102
}
100
AcDbMlineStyle
  2
STANDARD
 70
0
  3

 62
256
 51
90.0
 52
90.0
 71
2
 49
0.5
 62
256
  6
BYLAYER
 49
-0.5
 62
256
  6
BYLAYER
  0
LAYOUT
  5
2F6
102
{ACAD_REACTORS
330
1A
102
}
100
AcDbPlotSettings
  1

  2
none_device
  4
ISO_A4_(297.00_x_210.00_MM)
  6

 40
0.0
 41
0.0
 42
0.0
 43
0.0
 44
297.0
 45
210.0
 46
0.0
 47
0.0
 48
0.0
 49
0.0
140
0.0
141
0.0
142
1.0
143
1.0
 70
1024
 72
1
 73
0
 74
0
  7

 75
0
147
1.0
148
0.0
149
0.0
100
AcDbLayout
  1
Model
 70
0
 71
0
 10
0.0
 20
0.0
 11
297.0
 21
210.0
 12
0.0
 22
0.0
 32
0.0
 14
0.0
 24
0.0
 34
0.0
 15
0.0
 25
0.0
 35
0.0
146
0.0
 13
0.0
 23
0.0
 33
0.0
 16
1.0
 26
0.0
 36
0.0
 17
0.0
 27
1.0
 37
0.0
 76
0
330
212
345
0
346
0
  0
LAYOUT
  5
2F7
102
{ACAD_REACTORS
330
1A
102
}
100
AcDbPlotSettings
  1

  2
none_device
  4
ISO_A4_(297.00_x_210.00_MM)
  6

 40
0.0
 41
0.0
 42
0.0
 43
0.0
 44
297.0
 45
210.0
 46
0.0
 47
0.0
 48
0.0
 49
0.0
140
0.0
141
0.0
142
1.0
143
1.0
 70
0
 72
1
 73
0
 74
0
  7

 75
0
147
1.0
148
0.0
149
0.0
100
AcDbLayout
  1
Layout1
 70
0
 71
1
 10
0.0
 20
0.0
 11
297.0
 21
210.0
 12
0.0
 22
0.0
 32
0.0
 14
0.0
 24
0.0
 34
0.0
 15
0.0
 25
0.0
 35
0.0
146
0.0
 13
0.0
 23
0.0
 33
0.0
 16
1.0
 26
0.0
 36
0.0
 17
0.0
 27
1.0
 37
0.0
 76
0
330
213
345
0
346
0
  0
ENDSEC
  0
EOF
