  0
SECTION
  2
HEADER
  9
$ACADVER
  1
AC1015
  9
$DWGCODEPAGE
  3
ANSI_1252
  9
$EXTMAX
 10
297.0
 20
210.0
 30
0.0
  9
$EXTMIN
 10
0.0
 20
0.0
 30
0.0
  9
$LIMMIN
 10
0.0
 20
0.0
  9
$LIMMAX
 10
297.0
 20
210.0
  9
$VIEWCTR
 10
148.5
 20
105.0
  9
$VIEWSIZE
 40
210.0
  9
$CLAYER
  8
0
  9
$LTSCALE
 40
16.335
  9
$CELTYPE
  6
BYLAYER
  9
$DIMSCALE
 40
1.0
  9
$DIMASZ
 40
3.0
  9
$DIMEXO
 40
1.85625
  9
$DIMDLI
 40
11.286
  9
$DIMEXE
 40
5.346
  9
$DIMCEN
 40
2.673
  9
$DIMLFAC
 40
1.0
  9
$DIMBLK
  1
_FILLED
  9
$DIMTXT
 40
3.0
  9
$DIMTOL
 70
1
  9
$DIMLIM
 70
0
  9
$DIMTFAC
 40
1.0
  9
$DIMTP
 40
0.01
  9
$DIMTM
 40
0.01
  9
$PDMODE
 70
3
  9
$PDSIZE
 40
3.0
  9
$HANDSEED
  5
2F7
  9
$TILEMODE
 70
1
  9
$MEASUREMENT
 70
1
  9
$INSUNITS
 70
4
  0
ENDSEC
  0
SECTION
  2
CLASSES
  0
CLASS
  1
ACDBDICTIONARYWDFLT
  2
AcDbDictionaryWithDefault
  3
AutoCAD 2000
 90
0
280
0
281
0
  0
CLASS
  1
ACDBPLACEHOLDER
  2
AcDbPlaceHolder
  3
AutoCAD 2000
 90
0
280
0
281
0
  0
CLASS
  1
LAYOUT
  2
AcDbLayout
  3
AutoCAD 2000
 90
0
280
0
281
0
  0
ENDSEC
  0
SECTION
  2
TABLES
  0
TABLE
  2
VPORT
  5
8
100
AcDbSymbolTable
 70
2
  0
VPORT
  5
1F4
100
AcDbSymbolTableRecord
100
AcDbViewportTableRecord
  2
*ACTIVE
 70
0
 10
0.0
 20
0.0
 11
1.0
 21
1.0
 12
148.5
 22
105.0
 13
0.0
 23
0.0
 14
1.0
 24
1.0
 15
0.0
 25
0.0
 16
0.0
 26
0.0
 36
1.0
 17
0.0
 27
0.0
 37
0.0
 40
210.0
 41
1.4142857143
 42
50.0
 43
0.0
 44
0.0
 50
0.0
 51
0.0
 71
0
 72
100
 73
1
 74
1
 75
0
 76
0
 77
0
 78
0
  0
ENDTAB
  0
TABLE
  2
LTYPE
  5
5
100
AcDbSymbolTable
 70
6
  0
LTYPE
  5
14
100
AcDbSymbolTableRecord
100
AcDbLinetypeTableRecord
  2
BYBLOCK
 70
0
  3

 72
65
 73
0
 40
0.0
  0
LTYPE
  5
15
100
AcDbSymbolTableRecord
100
AcDbLinetypeTableRecord
  2
BYLAYER
 70
0
  3

 72
65
 73
0
 40
0.0
  0
LTYPE
  5
16
100
AcDbSymbolTableRecord
100
AcDbLinetypeTableRecord
  2
CONTINUOUS
 70
64
  3
Solid line
 72
65
 73
0
 40
0.0
  0
LTYPE
  5
1F5
100
AcDbSymbolTableRecord
100
AcDbLinetypeTableRecord
  2
CENTER
 70
64
  3
____ _ ____ _ ____ _ ____ _ ____ _ ____ _ ____
 72
65
 73
4
 40
0.6
 49
0.375
 74
0
 49
-0.075
 74
0
 49
0.075
 74
0
 49
-0.075
 74
0
  0
LTYPE
  5
1F6
100
AcDbSymbolTableRecord
100
AcDbLinetypeTableRecord
  2
HIDDEN
 70
64
  3
- - - - - - - - - - - - - - - - - - - -
 72
65
 73
2
 40
0.2
 49
0.1
 74
0
 49
-0.1
 74
0
  0
LTYPE
  5
1F7
100
AcDbSymbolTableRecord
100
AcDbLinetypeTableRecord
  2
PHANTOM
 70
64
  3
_____ _ _ _____ _ _ _____ _ _ _____
 72
65
 73
6
 40
0.8
 49
0.45
 74
0
 49
-0.05
 74
0
 49
0.1
 74
0
 49
-0.05
 74
0
 49
0.1
 74
0
 49
-0.05
 74
0
  0
LTYPE
  5
1F8
100
AcDbSymbolTableRecord
100
AcDbLinetypeTableRecord
  2
DOT
 70
64
  3
. . . . . . . . . . . . . . . . . . . .
 72
65
 73
2
 40
0.2
 49
0.1
 74
0
 49
-0.1
 74
0
  0
LTYPE
  5
1F9
100
AcDbSymbolTableRecord
100
AcDbLinetypeTableRecord
  2
DASHED
 70
64
  3
- - - - - - - - - - - - - - - - - - - -
 72
65
 73
2
 40
0.2
 49
0.1
 74
0
 49
-0.1
 74
0
  0
ENDTAB
  0
TABLE
  2
LAYER
  5
2
100
AcDbSymbolTable
 70
36
  0
LAYER
  5
10
100
AcDbSymbolTableRecord
100
AcDbLayerTableRecord
  2
0
 70
0
 62
7
  6
CONTINUOUS
370
-3
390
F
  0
LAYER
  5
1FA
100
AcDbSymbolTableRecord
100
AcDbLayerTableRecord
  2
DEFAULT_1
 70
0
 62
7
  6
CENTER
370
-3
390
F
  0
LAYER
  5
1FB
100
AcDbSymbolTableRecord
100
AcDbLayerTableRecord
  2
DEFAULT_2
 70
0
 62
7
  6
HIDDEN
370
-3
390
F
  0
LAYER
  5
1FC
100
AcDbSymbolTableRecord
100
AcDbLayerTableRecord
  2
DEFAULT_3
 70
0
 62
7
  6
PHANTOM
370
-3
390
F
  0
LAYER
  5
1FD
100
AcDbSymbolTableRecord
100
AcDbLayerTableRecord
  2
ASSI
 70
0
 62
7
  6
CONTINUOUS
370
-3
390
F
  0
LAYER
  5
1FE
100
AcDbSymbolTableRecord
100
AcDbLayerTableRecord
  2
COORDINATE
 70
0
 62
7
  6
CONTINUOUS
370
-3
390
F
  0
LAYER
  5
1FF
100
AcDbSymbolTableRecord
100
AcDbLayerTableRecord
  2
COORD_ORIGINE
 70
0
 62
7
  6
CONTINUOUS
370
-3
390
F
  0
LAYER
  5
200
100
AcDbSymbolTableRecord
100
AcDbLayerTableRecord
  2
COPY_PUBLISH
 70
0
 62
7
  6
CONTINUOUS
370
-3
390
F
  0
LAYER
  5
201
100
AcDbSymbolTableRecord
100
AcDbLayerTableRecord
  2
COSMETIC
 70
0
 62
7
  6
CONTINUOUS
370
-3
390
F
  0
LAYER
  5
202
100
AcDbSymbolTableRecord
100
AcDbLayerTableRecord
  2
CURVE
 70
0
 62
7
  6
CONTINUOUS
370
-3
390
F
  0
LAYER
  5
203
100
AcDbSymbolTableRecord
100
AcDbLayerTableRecord
  2
DRAFT
 70
0
 62
7
  6
CONTINUOUS
370
-3
390
F
  0
LAYER
  5
204
100
AcDbSymbolTableRecord
100
AcDbLayerTableRecord
  2
IGES
 70
0
 62
7
  6
CONTINUOUS
370
-3
390
F
  0
LAYER
  5
205
100
AcDbSymbolTableRecord
100
AcDbLayerTableRecord
  2
IMPORT_IGES
 70
0
 62
7
  6
CONTINUOUS
370
-3
390
F
  0
LAYER
  5
206
100
AcDbSymbolTableRecord
100
AcDbLayerTableRecord
  2
INTF_12
 70
0
 62
7
  6
CONTINUOUS
370
-3
390
F
  0
LAYER
  5
207
100
AcDbSymbolTableRecord
100
AcDbLayerTableRecord
  2
INTF_9
 70
0
 62
7
  6
CONTINUOUS
370
-3
390
F
  0
LAYER
  5
208
100
AcDbSymbolTableRecord
100
AcDbLayerTableRecord
  2
NOTE
 70
0
 62
7
  6
CONTINUOUS
370
-3
390
F
  0
LAYER
  5
209
100
AcDbSymbolTableRecord
100
AcDbLayerTableRecord
  2
PIANI
 70
0
 62
7
  6
CONTINUOUS
370
-3
390
F
  0
LAYER
  5
20A
100
AcDbSymbolTableRecord
100
AcDbLayerTableRecord
  2
PIANI_ORIGINE
 70
0
 62
7
  6
CONTINUOUS
370
-3
390
F
  0
LAYER
  5
20B
100
AcDbSymbolTableRecord
100
AcDbLayerTableRecord
  2
RACCORDO
 70
0
 62
7
  6
CONTINUOUS
370
-3
390
F
  0
LAYER
  5
20C
100
AcDbSymbolTableRecord
100
AcDbLayerTableRecord
  2
SMUSSO
 70
0
 62
7
  6
CONTINUOUS
370
-3
390
F
  0
LAYER
  5
20D
100
AcDbSymbolTableRecord
100
AcDbLayerTableRecord
  2
SNAPLINE
 70
0
 62
7
  6
CONTINUOUS
370
-3
390
F
  0
LAYER
  5
20E
100
AcDbSymbolTableRecord
100
AcDbLayerTableRecord
  2
SUPERFICI
 70
0
 62
7
  6
CONTINUOUS
370
-3
390
F
  0
LAYER
  5
20F
100
AcDbSymbolTableRecord
100
AcDbLayerTableRecord
  2
TRASH
 70
0
 62
7
  6
CONTINUOUS
370
-3
390
F
  0
ENDTAB
  0
TABLE
  2
STYLE
  5
3
100
AcDbSymbolTable
 70
1
  0
STYLE
  5
11
100
AcDbSymbolTableRecord
100
AcDbTextStyleTableRecord
  2
STANDARD
 70
0
 40
0.0
 41
0.8
 50
0.0
 71
0
 42
0.2
  3
txt
  4

  0
STYLE
  5
210
100
AcDbSymbolTableRecord
100
AcDbTextStyleTableRecord
  2
TEXTSTYLE_1
 70
0
 40
0.0
 41
0.8
 50
0.0
 71
0
 42
0.2
  3
gdt
  4

  0
ENDTAB
  0
TABLE
  2
VIEW
  5
6
100
AcDbSymbolTable
 70
0
  0
ENDTAB
  0
TABLE
  2
UCS
  5
7
100
AcDbSymbolTable
 70
0
  0
ENDTAB
  0
TABLE
  2
APPID
  5
9
100
AcDbSymbolTable
 70
1
  0
APPID
  5
211
100
AcDbSymbolTableRecord
100
AcDbRegAppTableRecord
  2
ACAD
 70
0
  0
ENDTAB
  0
TABLE
  2
BLOCK_RECORD
  5
1
100
AcDbSymbolTable
 70
0
  0
BLOCK_RECORD
  5
212
100
AcDbSymbolTableRecord
100
AcDbBlockTableRecord
  2
*Model_Space
  0
BLOCK_RECORD
  5
213
100
AcDbSymbolTableRecord
100
AcDbBlockTableRecord
  2
*Paper_Space
  0
BLOCK_RECORD
  5
214
100
AcDbSymbolTableRecord
100
AcDbBlockTableRecord
  2
_FILLED
  0
BLOCK_RECORD
  5
215
100
AcDbSymbolTableRecord
100
AcDbBlockTableRecord
  2
*D0
  0
BLOCK_RECORD
  5
216
100
AcDbSymbolTableRecord
100
AcDbBlockTableRecord
  2
*D1
  0
BLOCK_RECORD
  5
217
100
AcDbSymbolTableRecord
100
AcDbBlockTableRecord
  2
*D2
  0
ENDTAB
  0
TABLE
  2
DIMSTYLE
  5
A
100
AcDbSymbolTable
 70
1
100
AcDbDimStyleTable
 71
0
  0
DIMSTYLE
105
218
100
AcDbSymbolTableRecord
100
AcDbDimStyleTableRecord
  2
STANDARD
 70
0
  3

  4

 40
1.0
 41
3.0
 42
0.0625
 43
0.38
 44
0.18
 45
0.0
 46
0.0
 47
0.01
 48
0.01
140
3.0
141
0.09
142
0.0
143
25.4
144
1.0
145
0.0
146
1.0
147
0.09
 71
1.0
 72
0.0
 73
0
 74
0
 75
0
 76
0
 77
1
 78
8
170
0
171
2
172
0
173
0
174
0
175
0
176
0
177
0
178
0
270
2
271
2
272
2
273
2
274
2
275
0
280
0
281
0
282
0
283
1
284
8
285
0
286
0
287
3
288
0
340
11
341
214
342
214
343
214
344
214
  0
DIMSTYLE
105
219
100
AcDbSymbolTableRecord
100
AcDbDimStyleTableRecord
  2
DIMSTYLE_1
 70
0
  3

  4

 40
1.0
 41
3.0
 42
0.0625
 43
0.38
 44
0.18
 45
0.0
 46
0.0
 47
0.0
 48
0.0
140
3.0
141
0.09
142
0.0
143
25.4
144
1.0
145
0.0
146
1.0
147
0.09
 71
0.0
 72
0.0
 73
0
 74
0
 75
0
 76
0
 77
1
 78
8
170
0
171
2
172
0
173
0
174
0
175
0
176
0
177
0
178
0
270
2
271
2
272
2
273
2
274
2
275
0
280
0
281
0
282
0
283
1
284
8
285
0
286
0
287
3
288
0
340
11
341
214
342
214
343
214
344
214
  0
DIMSTYLE
105
21A
100
AcDbSymbolTableRecord
100
AcDbDimStyleTableRecord
  2
DIMSTYLE_2
 70
0
  3

  4

 40
1.0
 41
3.0
 42
0.0625
 43
0.38
 44
0.18
 45
0.0
 46
0.0
 47
0.0
 48
0.0
140
3.0
141
0.09
142
0.0
143
25.4
144
1.0
145
0.0
146
1.0
147
0.09
 71
0.0
 72
0.0
 73
0
 74
0
 75
0
 76
0
 77
1
 78
8
170
0
171
2
172
0
173
0
174
0
175
0
176
0
177
0
178
0
270
2
271
1
272
1
273
2
274
2
275
0
280
0
281
0
282
0
283
1
284
8
285
0
286
0
287
3
288
0
340
11
341
214
342
214
343
214
344
214
  0
ENDTAB
  0
ENDSEC
  0
SECTION
  2
BLOCKS
  0
BLOCK
  5
20
100
AcDbEntity
  8
0
100
AcDbBlockBegin
  2
*Model_Space
 70
0
 10
0.0
 20
0.0
 30
0.0
  3
*Model_Space
  1

  0
ENDBLK
  5
21
100
AcDbEntity
  8
0
100
AcDbBlockEnd
  0
BLOCK
  5
1C
100
AcDbEntity
  8
0
100
AcDbBlockBegin
  2
*Paper_Space
 70
0
 10
0.0
 20
0.0
 30
0.0
  3
*Paper_Space
  1

  0
ENDBLK
  5
1D
100
AcDbEntity
  8
0
100
AcDbBlockEnd
  0
BLOCK
  5
21B
100
AcDbEntity
  8
0
100
AcDbBlockBegin
  2
_FILLED
 70
64
 10
0.0
 20
0.0
  3
_FILLED
  1

  0
SOLID
  5
21C
100
AcDbEntity
  8
0
  6
BYBLOCK
 62
0
100
AcDbTrace
 10
0.0
 20
0.0
 11
-1.0
 21
0.3166666667
 12
-1.0
 22
-0.3166666667
 13
-1.0
 23
-0.3166666667
  0
ENDBLK
  5
21D
100
AcDbEntity
  8
0
  6
BYBLOCK
 62
0
100
AcDbBlockEnd
  0
BLOCK
  5
21E
100
AcDbEntity
  8
0
100
AcDbBlockBegin
 62
7
  6
CONTINUOUS
  2
*D0
 70
65
 10
0.0
 20
0.0
  3
*D0
  1

  0
MTEXT
  5
21F
100
AcDbEntity
  8
0
100
AcDbMText
 62
7
  6
CONTINUOUS
  7
STANDARD
 71
2
 72
1
 10
-10.1391370667
 20
21.2100024145
 30
0.0
 11
1.0
 21
0.0
 31
0.0
 44
0.9
  1
6,5
 40
3.0
 41
6.2142857143
  0
LINE
  5
220
100
AcDbEntity
  8
0
100
AcDbLine
 62
7
  6
CONTINUOUS
 10
-6.8892919468
 20
6.4669844405
 11
-6.8892919468
 21
18.9600024145
  0
LINE
  5
221
100
AcDbEntity
  8
0
100
AcDbLine
 62
7
  6
CONTINUOUS
 10
-13.3889821865
 20
9.6162611835
 11
-13.3889821865
 21
18.9600024145
  0
LINE
  5
222
100
AcDbEntity
  8
0
100
AcDbLine
 62
7
  6
CONTINUOUS
 10
-6.8892919468
 20
17.4600024145
 11
-2.8892919468
 21
17.4600024145
  0
LINE
  5
223
100
AcDbEntity
  8
0
100
AcDbLine
 62
7
  6
CONTINUOUS
 10
-2.8892919468
 20
17.4600024145
 11
-10.1391370667
 21
17.4600024145
  0
LINE
  5
224
100
AcDbEntity
  8
0
100
AcDbLine
 62
7
  6
CONTINUOUS
 10
-13.3889821865
 20
17.4600024145
 11
-17.3889821865
 21
17.4600024145
  0
LINE
  5
225
100
AcDbEntity
  8
0
100
AcDbLine
 62
7
  6
CONTINUOUS
 10
-17.3889821865
 20
17.4600024145
 11
-10.1391370667
 21
17.4600024145
  0
INSERT
  5
226
100
AcDbEntity
  8
0
100
AcDbBlockReference
 62
7
  6
CONTINUOUS
  2
_FILLED
 10
-6.8892919468
 20
17.4600024145
 41
3.0
 42
3.0
 43
3.0
 50
180.0
  0
INSERT
  5
227
100
AcDbEntity
  8
0
100
AcDbBlockReference
 62
7
  6
CONTINUOUS
  2
_FILLED
 10
-13.3889821865
 20
17.4600024145
 41
3.0
 42
3.0
 43
3.0
  0
ENDBLK
  5
228
100
AcDbEntity
  8
0
  6
BYBLOCK
 62
0
100
AcDbBlockEnd
  0
BLOCK
  5
229
100
AcDbEntity
  8
0
100
AcDbBlockBegin
 62
7
  6
CONTINUOUS
  2
*D1
 70
65
 10
0.0
 20
0.0
  3
*D1
  1

  0
MTEXT
  5
22A
100
AcDbEntity
  8
0
100
AcDbMText
 62
7
  6
CONTINUOUS
  7
STANDARD
 71
2
 72
1
 10
12.7092611556
 20
21.2100024145
 30
0.0
 11
1.0
 21
0.0
 31
0.0
 44
0.9
  1
24,6
 40
3.0
 41
8.7857142857
  0
LINE
  5
22B
100
AcDbEntity
  8
0
100
AcDbLine
 62
7
  6
CONTINUOUS
 10
0.4092611556
 20
8.7076372197
 11
0.4092611556
 21
18.9600024145
  0
LINE
  5
22C
100
AcDbEntity
  8
0
100
AcDbLine
 62
7
  6
CONTINUOUS
 10
25.0092611556
 20
8.7076372197
 11
25.0092611556
 21
18.9600024145
  0
LINE
  5
22D
100
AcDbEntity
  8
0
100
AcDbLine
 62
7
  6
CONTINUOUS
 10
0.4092611556
 20
17.4600024145
 11
12.7092611556
 21
17.4600024145
  0
LINE
  5
22E
100
AcDbEntity
  8
0
100
AcDbLine
 62
7
  6
CONTINUOUS
 10
25.0092611556
 20
17.4600024145
 11
12.7092611556
 21
17.4600024145
  0
INSERT
  5
22F
100
AcDbEntity
  8
0
100
AcDbBlockReference
 62
7
  6
CONTINUOUS
  2
_FILLED
 10
0.4092611556
 20
17.4600024145
 41
3.0
 42
3.0
 43
3.0
 50
180.0
  0
INSERT
  5
230
100
AcDbEntity
  8
0
100
AcDbBlockReference
 62
7
  6
CONTINUOUS
  2
_FILLED
 10
25.0092611556
 20
17.4600024145
 41
3.0
 42
3.0
 43
3.0
  0
ENDBLK
  5
231
100
AcDbEntity
  8
0
  6
BYBLOCK
 62
0
100
AcDbBlockEnd
  0
BLOCK
  5
232
100
AcDbEntity
  8
0
100
AcDbBlockBegin
 62
7
  6
CONTINUOUS
  2
*D2
 70
65
 10
0.0
 20
0.0
  3
*D2
  1

  0
MTEXT
  5
233
100
AcDbEntity
  8
0
100
AcDbMText
 62
7
  6
CONTINUOUS
  7
STANDARD
 71
2
 72
1
 10
29.2592611556
 20
0.2169817754
 30
0.0
 11
0.0
 21
1.0
 31
0.0
 44
0.9
  1
18,5
 40
3.0
 41
7.9285714286
  0
LINE
  5
234
100
AcDbEntity
  8
0
100
AcDbLine
 62
7
  6
CONTINUOUS
 10
25.2523172058
 20
9.4600024145
 11
34.5092611556
 21
9.4600024145
  0
LINE
  5
235
100
AcDbEntity
  8
0
100
AcDbLine
 62
7
  6
CONTINUOUS
 10
24.395306701
 20
-9.0260388636
 11
34.5092611556
 21
-9.0260388636
  0
LINE
  5
236
100
AcDbEntity
  8
0
100
AcDbLine
 62
7
  6
CONTINUOUS
 10
33.0092611556
 20
9.4600024145
 11
33.0092611556
 21
0.2169817754
  0
LINE
  5
237
100
AcDbEntity
  8
0
100
AcDbLine
 62
7
  6
CONTINUOUS
 10
33.0092611556
 20
-9.0260388636
 11
33.0092611556
 21
0.2169817754
  0
INSERT
  5
238
100
AcDbEntity
  8
0
100
AcDbBlockReference
 62
7
  6
CONTINUOUS
  2
_FILLED
 10
33.0092611556
 20
9.4600024145
 41
3.0
 42
3.0
 43
3.0
 50
90.0
  0
INSERT
  5
239
100
AcDbEntity
  8
0
100
AcDbBlockReference
 62
7
  6
CONTINUOUS
  2
_FILLED
 10
33.0092611556
 20
-9.0260388636
 41
3.0
 42
3.0
 43
3.0
 50
270.0
  0
ENDBLK
  5
23A
100
AcDbEntity
  8
0
  6
BYBLOCK
 62
0
100
AcDbBlockEnd
  0
ENDSEC
  0
SECTION
  2
ENTITIES
  0
DIMENSION
  5
23B
100
AcDbEntity
  8
0
100
AcDbDimension
 62
7
  6
CONTINUOUS
  2
*D0
 10
-13.3889821865
 20
17.4600024145
 11
-13.2462799238
 21
19.7100024145
 70
160
 71
2
 42
6.4996902397
  3
DIMSTYLE_1
100
AcDbAlignedDimension
 13
-6.8892919468
 23
6.4669844405
 14
-13.3889821865
 24
9.6162611835
 50
180.0
100
AcDbRotatedDimension
  0
DIMENSION
  5
23C
100
AcDbEntity
  8
0
100
AcDbDimension
 62
7
  6
CONTINUOUS
  2
*D1
 10
25.0092611556
 20
17.4600024145
 11
8.3164040127
 21
19.7100024145
 70
160
 71
2
 42
24.6
  3
DIMSTYLE_1
100
AcDbAlignedDimension
 13
0.4092611556
 23
8.7076372197
 14
25.0092611556
 24
8.7076372197
100
AcDbRotatedDimension
  0
DIMENSION
  5
23D
100
AcDbEntity
  8
0
100
AcDbDimension
 62
7
  6
CONTINUOUS
  2
*D2
 10
33.0092611556
 20
-9.0260388636
 11
32.5355529909
 21
-3.3270764267
 70
160
 71
2
 42
18.4860412781
  3
DIMSTYLE_2
100
AcDbAlignedDimension
 13
25.2523172058
 23
9.4600024145
 14
24.395306701
 24
-9.0260388636
 50
270.0
100
AcDbRotatedDimension
  0
LINE
  5
23E
100
AcDbEntity
  8
RACCORDO
100
AcDbLine
 62
7
  6
CONTINUOUS
 10
0.4092611556
 20
8.2076372197
 11
0.4110980519
 21
8.2094741161
  0
LINE
  5
23F
100
AcDbEntity
  8
ASSI
100
AcDbLine
 62
7
  6
CONTINUOUS
 10
0.4092611556
 20
8.2076372197
 11
0.4110980519
 21
8.2094741161
  0
LINE
  5
240
100
AcDbEntity
  8
RACCORDO
100
AcDbLine
 62
7
  6
CONTINUOUS
 10
0.4227542333
 20
-8.7762980911
 11
0.4092611556
 21
-1.4215239961
  0
LINE
  5
241
100
AcDbEntity
  8
ASSI
100
AcDbLine
 62
7
  6
CONTINUOUS
 10
0.4227542333
 20
-8.7762980911
 11
0.4092611556
 21
-1.4215239961
  0
LINE
  5
242
100
AcDbEntity
  8
DRAFT
100
AcDbLine
 62
7
  6
CONTINUOUS
 10
0.4092611556
 20
8.2076372197
 11
0.4092611556
 21
-1.4215239961
  0
LINE
  5
243
100
AcDbEntity
  8
ASSI
100
AcDbLine
 62
7
  6
CONTINUOUS
 10
0.4092611556
 20
8.2076372197
 11
0.4092611556
 21
-1.4215239961
  0
LINE
  5
244
100
AcDbEntity
  8
RACCORDO
100
AcDbLine
 62
7
  6
CONTINUOUS
 10
0.4162431815
 20
9.2100404907
 11
0.4162431815
 21
8.5094284246
  0
LINE
  5
245
100
AcDbEntity
  8
ASSI
100
AcDbLine
 62
7
  6
CONTINUOUS
 10
0.4162431815
 20
9.2100404907
 11
0.4162431815
 21
8.5094284246
  0
LINE
  5
246
100
AcDbEntity
  8
RACCORDO
100
AcDbLine
 62
7
  6
CONTINUOUS
 10
0.4354437529
 20
-8.7699538144
 11
0.4354437529
 21
-8.4799282391
  0
LINE
  5
247
100
AcDbEntity
  8
ASSI
100
AcDbLine
 62
7
  6
CONTINUOUS
 10
0.4354437529
 20
-8.7699538144
 11
0.4354437529
 21
-8.4799282391
  0
LINE
  5
248
100
AcDbEntity
  8
RACCORDO
100
AcDbLine
 62
253
  6
CONTINUOUS
 10
0.7596604577
 20
9.1162611835
 11
0.7596604577
 21
9.3665470621
  0
LINE
  5
249
100
AcDbEntity
  8
ASSI
100
AcDbLine
 62
253
  6
CONTINUOUS
 10
0.7538262868
 20
-7.1990150546
 11
0.7596604577
 21
9.3665470621
  0
LINE
  5
24A
100
AcDbEntity
  8
RACCORDO
100
AcDbLine
 62
253
  6
CONTINUOUS
 10
0.4354437529
 20
-8.4799282391
 11
0.4930566571
 21
-7.8979361646
  0
LINE
  5
24B
100
AcDbEntity
  8
ASSI
100
AcDbLine
 62
253
  6
CONTINUOUS
 10
0.4354437529
 20
-8.4799282391
 11
0.4930566571
 21
-7.8979361646
  0
LINE
  5
24C
100
AcDbEntity
  8
RACCORDO
100
AcDbLine
 62
253
  6
CONTINUOUS
 10
0.6847240749
 20
-8.7330155595
 11
0.7430185809
 21
-8.1441381029
  0
LINE
  5
24D
100
AcDbEntity
  8
ASSI
100
AcDbLine
 62
253
  6
CONTINUOUS
 10
0.6847240749
 20
-8.7330155595
 11
0.7430185809
 21
-8.1441381029
  0
LINE
  5
24E
100
AcDbEntity
  8
RACCORDO
100
AcDbLine
 62
7
  6
CONTINUOUS
 10
0.6732124124
 20
-9.0260404631
 11
1.523212411
 21
-9.0260404631
  0
LINE
  5
24F
100
AcDbEntity
  8
RACCORDO
100
AcDbLine
 62
7
  6
CONTINUOUS
 10
23.8953099001
 20
-9.0260404631
 11
24.7453098987
 21
-9.0260404631
  0
LINE
  5
250
100
AcDbEntity
  8
DRAFT
100
AcDbLine
 62
7
  6
CONTINUOUS
 10
23.895306701
 20
-9.0260388636
 11
1.5232156101
 21
-9.0260388636
  0
LINE
  5
251
100
AcDbEntity
  8
ASSI
100
AcDbLine
 62
7
  6
CONTINUOUS
 10
24.7453098987
 20
-9.0260404631
 11
0.6732124124
 21
-9.0260404631
  0
LINE
  5
252
100
AcDbEntity
  8
RACCORDO
100
AcDbLine
 62
7
  6
CONTINUOUS
 10
24.7330785567
 20
-9.0199252578
 11
0.6854437544
 21
-9.0199252578
  0
LINE
  5
253
100
AcDbEntity
  8
ASSI
100
AcDbLine
 62
7
  6
CONTINUOUS
 10
24.7330785567
 20
-9.0199252578
 11
0.6854437544
 21
-9.0199252578
  0
LINE
  5
254
100
AcDbEntity
  8
RACCORDO
100
AcDbLine
 62
7
  6
CONTINUOUS
 10
24.7337982362
 20
-8.7330155595
 11
0.6847240749
 21
-8.7330155595
  0
LINE
  5
255
100
AcDbEntity
  8
ASSI
100
AcDbLine
 62
7
  6
CONTINUOUS
 10
24.7337982362
 20
-8.7330155595
 11
0.6847240749
 21
-8.7330155595
  0
LINE
  5
256
100
AcDbEntity
  8
RACCORDO
100
AcDbLine
 62
253
  6
CONTINUOUS
 10
0.7430185809
 20
-8.1441381029
 11
24.6755037302
 21
-8.1441381029
  0
LINE
  5
257
100
AcDbEntity
  8
ASSI
100
AcDbLine
 62
253
  6
CONTINUOUS
 10
0.7430185809
 20
-8.1441381029
 11
24.6755037302
 21
-8.1441381029
  0
LINE
  5
258
100
AcDbEntity
  8
RACCORDO
100
AcDbLine
 62
253
  6
CONTINUOUS
 10
0.7538262868
 20
-7.1990150546
 11
24.6646960243
 21
-7.1990150546
  0
LINE
  5
259
100
AcDbEntity
  8
ASSI
100
AcDbLine
 62
253
  6
CONTINUOUS
 10
0.7538262868
 20
-7.1990150546
 11
24.6646960243
 21
-7.1990150546
  0
LINE
  5
25A
100
AcDbEntity
  8
CURVE
100
AcDbLine
 62
253
  6
CONTINUOUS
 10
8.6592611556
 20
-0.6830155595
 11
12.7092611556
 21
-4.7330155595
  0
LINE
  5
25B
100
AcDbEntity
  8
ASSI
100
AcDbLine
 62
253
  6
CONTINUOUS
 10
24.7330785567
 20
-9.0199252578
 11
24.7453098987
 21
-9.0260404631
  0
LINE
  5
25C
100
AcDbEntity
  8
RACCORDO
100
AcDbLine
 62
253
  6
CONTINUOUS
 10
24.9830785582
 20
-8.7699538144
 11
24.9957680778
 21
-8.7762980911
  0
LINE
  5
25D
100
AcDbEntity
  8
ASSI
100
AcDbLine
 62
253
  6
CONTINUOUS
 10
24.9830785582
 20
-8.7699538144
 11
24.9957680778
 21
-8.7762980911
  0
LINE
  5
25E
100
AcDbEntity
  8
RACCORDO
100
AcDbLine
 62
253
  6
CONTINUOUS
 10
0.5096985338
 20
9.1165851384
 11
0.4162431815
 21
9.2100404907
  0
LINE
  5
25F
100
AcDbEntity
  8
ASSI
100
AcDbLine
 62
253
  6
CONTINUOUS
 10
0.5096985338
 20
9.1165851384
 11
0.4162431815
 21
9.2100404907
  0
LINE
  5
260
100
AcDbEntity
  8
RACCORDO
100
AcDbLine
 62
253
  6
CONTINUOUS
 10
0.7596604577
 20
9.3665470621
 11
0.6662051053
 21
9.4600024145
  0
LINE
  5
261
100
AcDbEntity
  8
ASSI
100
AcDbLine
 62
253
  6
CONTINUOUS
 10
0.7596604577
 20
9.3665470621
 11
0.6662051053
 21
9.4600024145
  0
LINE
  5
262
100
AcDbEntity
  8
CURVE
100
AcDbLine
 62
253
  6
CONTINUOUS
 10
16.7592611556
 20
-0.6830155595
 11
8.6592611556
 21
-0.6830155595
  0
LINE
  5
263
100
AcDbEntity
  8
RACCORDO
100
AcDbLine
 62
253
  6
CONTINUOUS
 10
24.7523172058
 20
9.4600024145
 11
24.6588618534
 21
9.3665470621
  0
LINE
  5
264
100
AcDbEntity
  8
ASSI
100
AcDbLine
 62
253
  6
CONTINUOUS
 10
24.7523172058
 20
9.4600024145
 11
24.6588618534
 21
9.3665470621
  0
LINE
  5
265
100
AcDbEntity
  8
RACCORDO
100
AcDbLine
 62
253
  6
CONTINUOUS
 10
25.0022791296
 20
9.2100404907
 11
24.9088237773
 21
9.1165851384
  0
LINE
  5
266
100
AcDbEntity
  8
ASSI
100
AcDbLine
 62
253
  6
CONTINUOUS
 10
25.0022791296
 20
9.2100404907
 11
24.9088237773
 21
9.1165851384
  0
LINE
  5
267
100
AcDbEntity
  8
RACCORDO
100
AcDbLine
 62
253
  6
CONTINUOUS
 10
0.4227542333
 20
-8.7762980911
 11
0.4354437529
 21
-8.7699538144
  0
LINE
  5
268
100
AcDbEntity
  8
ASSI
100
AcDbLine
 62
253
  6
CONTINUOUS
 10
0.4227542333
 20
-8.7762980911
 11
0.4354437529
 21
-8.7699538144
  0
LINE
  5
269
100
AcDbEntity
  8
ASSI
100
AcDbLine
 62
253
  6
CONTINUOUS
 10
0.6732124124
 20
-9.0260404631
 11
0.6854437544
 21
-9.0199252578
  0
LINE
  5
26A
100
AcDbEntity
  8
CURVE
100
AcDbLine
 62
253
  6
CONTINUOUS
 10
12.7092611556
 20
-4.7330155595
 11
16.7592611556
 21
-0.6830155595
  0
LINE
  5
26B
100
AcDbEntity
  8
DRAFT
100
AcDbLine
 62
7
  6
CONTINUOUS
 10
21.2217271461
 20
9.4600024145
 11
20.9592611556
 21
9.4076372197
  0
LINE
  5
26C
100
AcDbEntity
  8
ASSI
100
AcDbLine
 62
7
  6
CONTINUOUS
 10
21.2217271461
 20
9.4600024145
 11
20.9592611556
 21
9.4076372197
  0
LINE
  5
26D
100
AcDbEntity
  8
DRAFT
100
AcDbLine
 62
7
  6
CONTINUOUS
 10
4.196795165
 20
9.4600024145
 11
4.4592611556
 21
9.4076372197
  0
LINE
  5
26E
100
AcDbEntity
  8
ASSI
100
AcDbLine
 62
7
  6
CONTINUOUS
 10
4.196795165
 20
9.4600024145
 11
4.4592611556
 21
9.4076372197
  0
LINE
  5
26F
100
AcDbEntity
  8
RACCORDO
100
AcDbLine
 62
253
  6
CONTINUOUS
 10
24.9088237772
 20
9.1165851384
 11
0.7596604576
 21
9.1162611835
  0
LINE
  5
270
100
AcDbEntity
  8
ASSI
100
AcDbLine
 62
253
  6
CONTINUOUS
 10
24.9088237772
 20
9.1165851384
 11
0.7596604576
 21
9.1162611835
  0
LINE
  5
271
100
AcDbEntity
  8
RACCORDO
100
AcDbLine
 62
253
  6
CONTINUOUS
 10
24.6588618534
 20
9.3665470621
 11
0.7596604577
 21
9.3665470621
  0
LINE
  5
272
100
AcDbEntity
  8
ASSI
100
AcDbLine
 62
253
  6
CONTINUOUS
 10
24.6588618534
 20
9.3665470621
 11
0.7596604577
 21
9.3665470621
  0
LINE
  5
273
100
AcDbEntity
  8
DRAFT
100
AcDbLine
 62
7
  6
CONTINUOUS
 10
20.9592611556
 20
9.4076372197
 11
4.4592611556
 21
9.4076372197
  0
LINE
  5
274
100
AcDbEntity
  8
ASSI
100
AcDbLine
 62
7
  6
CONTINUOUS
 10
20.9592611556
 20
9.4076372197
 11
4.4592611556
 21
9.4076372197
  0
LINE
  5
275
100
AcDbEntity
  8
RACCORDO
100
AcDbLine
 62
7
  6
CONTINUOUS
 10
24.7523172058
 20
9.4600024145
 11
21.2217271461
 21
9.4600024145
  0
LINE
  5
276
100
AcDbEntity
  8
ASSI
100
AcDbLine
 62
7
  6
CONTINUOUS
 10
24.7523172058
 20
9.4600024145
 11
21.2217271461
 21
9.4600024145
  0
LINE
  5
277
100
AcDbEntity
  8
RACCORDO
100
AcDbLine
 62
7
  6
CONTINUOUS
 10
4.196795165
 20
9.4600024145
 11
0.6662051053
 21
9.4600024145
  0
LINE
  5
278
100
AcDbEntity
  8
ASSI
100
AcDbLine
 62
7
  6
CONTINUOUS
 10
4.196795165
 20
9.4600024145
 11
0.6662051053
 21
9.4600024145
  0
LINE
  5
279
100
AcDbEntity
  8
RACCORDO
100
AcDbLine
 62
253
  6
CONTINUOUS
 10
0.7596604577
 20
9.1162611835
 11
0.5096985339
 21
9.1165851384
  0
LINE
  5
27A
100
AcDbEntity
  8
ASSI
100
AcDbLine
 62
253
  6
CONTINUOUS
 10
0.7596604577
 20
9.1162611835
 11
0.5096985339
 21
9.1165851384
  0
LINE
  5
27B
100
AcDbEntity
  8
RACCORDO
100
AcDbLine
 62
253
  6
CONTINUOUS
 10
24.6755037302
 20
-8.1441381029
 11
24.7337982362
 21
-8.7330155595
  0
LINE
  5
27C
100
AcDbEntity
  8
ASSI
100
AcDbLine
 62
253
  6
CONTINUOUS
 10
24.6755037302
 20
-8.1441381029
 11
24.7337982362
 21
-8.7330155595
  0
LINE
  5
27D
100
AcDbEntity
  8
RACCORDO
100
AcDbLine
 62
253
  6
CONTINUOUS
 10
24.925465654
 20
-7.8979361646
 11
24.9830785582
 21
-8.4799282391
  0
LINE
  5
27E
100
AcDbEntity
  8
ASSI
100
AcDbLine
 62
253
  6
CONTINUOUS
 10
24.925465654
 20
-7.8979361646
 11
24.9830785582
 21
-8.4799282391
  0
LINE
  5
27F
100
AcDbEntity
  8
RACCORDO
100
AcDbLine
 62
253
  6
CONTINUOUS
 10
24.6588618534
 20
9.1162611835
 11
24.6588618534
 21
9.3665470621
  0
LINE
  5
280
100
AcDbEntity
  8
ASSI
100
AcDbLine
 62
253
  6
CONTINUOUS
 10
24.6646960243
 20
-7.1990150546
 11
24.6588618534
 21
9.3665470621
  0
LINE
  5
281
100
AcDbEntity
  8
RACCORDO
100
AcDbLine
 62
7
  6
CONTINUOUS
 10
24.9830785582
 20
-8.4799282391
 11
24.9830785582
 21
-8.7699538144
  0
LINE
  5
282
100
AcDbEntity
  8
ASSI
100
AcDbLine
 62
7
  6
CONTINUOUS
 10
24.9830785582
 20
-8.4799282391
 11
24.9830785582
 21
-8.7699538144
  0
LINE
  5
283
100
AcDbEntity
  8
RACCORDO
100
AcDbLine
 62
7
  6
CONTINUOUS
 10
25.0022791296
 20
8.5094284246
 11
25.0022791296
 21
9.2100404907
  0
LINE
  5
284
100
AcDbEntity
  8
ASSI
100
AcDbLine
 62
7
  6
CONTINUOUS
 10
25.0022791296
 20
8.5094284246
 11
25.0022791296
 21
9.2100404907
  0
LINE
  5
285
100
AcDbEntity
  8
DRAFT
100
AcDbLine
 62
7
  6
CONTINUOUS
 10
25.0092611556
 20
8.2076372197
 11
25.0092611556
 21
-1.4215239961
  0
LINE
  5
286
100
AcDbEntity
  8
ASSI
100
AcDbLine
 62
7
  6
CONTINUOUS
 10
25.0092611556
 20
8.2076372197
 11
25.0092611556
 21
-1.4215239961
  0
LINE
  5
287
100
AcDbEntity
  8
RACCORDO
100
AcDbLine
 62
7
  6
CONTINUOUS
 10
24.9957680778
 20
-8.7762980911
 11
25.0092611556
 21
-1.4215239961
  0
LINE
  5
288
100
AcDbEntity
  8
ASSI
100
AcDbLine
 62
7
  6
CONTINUOUS
 10
24.9957680778
 20
-8.7762980911
 11
25.0092611556
 21
-1.4215239961
  0
LINE
  5
289
100
AcDbEntity
  8
RACCORDO
100
AcDbLine
 62
7
  6
CONTINUOUS
 10
25.0092611556
 20
8.2076372197
 11
25.0074242592
 21
8.2094741161
  0
LINE
  5
28A
100
AcDbEntity
  8
ASSI
100
AcDbLine
 62
7
  6
CONTINUOUS
 10
25.0092611556
 20
8.2076372197
 11
25.0074242592
 21
8.2094741161
  0
LINE
  5
28B
100
AcDbEntity
  8
RACCORDO
100
AcDbLine
 62
7
  6
CONTINUOUS
 10
-8.8892919468
 20
-9.0199252578
 11
-8.1885588346
 21
-9.0260404631
  0
LINE
  5
28C
100
AcDbEntity
  8
ASSI
100
AcDbLine
 62
7
  6
CONTINUOUS
 10
-8.8892919468
 20
-9.0199252578
 11
-8.1885588346
 21
-9.0260404631
  0
LINE
  5
28D
100
AcDbEntity
  8
RACCORDO
100
AcDbLine
 62
253
  6
CONTINUOUS
 10
-8.8892919468
 20
-8.7699538144
 11
-8.1623098536
 21
-8.7762980911
  0
LINE
  5
28E
100
AcDbEntity
  8
ASSI
100
AcDbLine
 62
253
  6
CONTINUOUS
 10
-8.8892919468
 20
-8.7699538144
 11
-8.1623098536
 21
-8.7762980911
  0
LINE
  5
28F
100
AcDbEntity
  8
RACCORDO
100
AcDbLine
 62
7
  6
CONTINUOUS
 10
-12.2289819605
 20
-8.1441381029
 11
-8.8892919468
 21
-8.7330155595
  0
LINE
  5
290
100
AcDbEntity
  8
ASSI
100
AcDbLine
 62
7
  6
CONTINUOUS
 10
-12.2289819605
 20
-8.1441381029
 11
-8.8892919468
 21
-8.7330155595
  0
LINE
  5
291
100
AcDbEntity
  8
RACCORDO
100
AcDbLine
 62
253
  6
CONTINUOUS
 10
-12.1899330177
 20
-7.8979361646
 11
-8.8892919468
 21
-8.4799282391
  0
LINE
  5
292
100
AcDbEntity
  8
ASSI
100
AcDbLine
 62
253
  6
CONTINUOUS
 10
-12.1899330177
 20
-7.8979361646
 11
-8.8892919468
 21
-8.4799282391
  0
LINE
  5
293
100
AcDbEntity
  8
RACCORDO
100
AcDbLine
 62
253
  6
CONTINUOUS
 10
-12.8091060733
 20
-7.1890938784
 11
-13.0545371102
 21
-7.199014698
  0
LINE
  5
294
100
AcDbEntity
  8
ASSI
100
AcDbLine
 62
253
  6
CONTINUOUS
 10
-12.8091060733
 20
-7.1890938784
 11
-13.0545371102
 21
-7.199014698
  0
LINE
  5
295
100
AcDbEntity
  8
RACCORDO
100
AcDbLine
 62
7
  6
CONTINUOUS
 10
-8.8892919468
 20
-9.0199252578
 11
-8.8892919468
 21
-8.4799282391
  0
LINE
  5
296
100
AcDbEntity
  8
ASSI
100
AcDbLine
 62
7
  6
CONTINUOUS
 10
-8.8892919468
 20
-9.0199252578
 11
-8.8892919468
 21
-8.4799282391
  0
LINE
  5
297
100
AcDbEntity
  8
RACCORDO
100
AcDbLine
 62
7
  6
CONTINUOUS
 10
-7.7892919468
 20
8.5094284246
 11
-7.7892919468
 21
9.4600024145
  0
LINE
  5
298
100
AcDbEntity
  8
ASSI
100
AcDbLine
 62
7
  6
CONTINUOUS
 10
-7.7892919468
 20
8.5094284246
 11
-7.7892919468
 21
9.4600024145
  0
LINE
  5
299
100
AcDbEntity
  8
DRAFT
100
AcDbLine
 62
7
  6
CONTINUOUS
 10
-7.3892919468
 20
8.2076372197
 11
-7.3892919468
 21
-1.4215239961
  0
LINE
  5
29A
100
AcDbEntity
  8
ASSI
100
AcDbLine
 62
7
  6
CONTINUOUS
 10
-7.3892919468
 20
8.2076372197
 11
-7.3892919468
 21
-1.4215239961
  0
LINE
  5
29B
100
AcDbEntity
  8
0
100
AcDbLine
 62
7
  6
CONTINUOUS
 10
-6.8892919468
 20
5.9669844405
 11
-6.8892919468
 21
4.1669844405
  0
LINE
  5
29C
100
AcDbEntity
  8
RACCORDO
100
AcDbLine
 62
7
  6
CONTINUOUS
 10
-8.1885588346
 20
-9.0260404631
 11
-7.3892919468
 21
-1.4215239961
  0
LINE
  5
29D
100
AcDbEntity
  8
ASSI
100
AcDbLine
 62
7
  6
CONTINUOUS
 10
-8.1885588346
 20
-9.0260404631
 11
-7.3892919468
 21
-1.4215239961
  0
LINE
  5
29E
100
AcDbEntity
  8
0
100
AcDbLine
 62
7
  6
CONTINUOUS
 10
-7.3892919468
 20
4.1419844405
 11
-6.8892919468
 21
4.1669844405
  0
LINE
  5
29F
100
AcDbEntity
  8
0
100
AcDbLine
 62
7
  6
CONTINUOUS
 10
-7.3892919468
 20
5.9919844405
 11
-6.8892919468
 21
5.9669844405
  0
LINE
  5
2A0
100
AcDbEntity
  8
RACCORDO
100
AcDbLine
 62
7
  6
CONTINUOUS
 10
-7.3892919468
 20
8.2076372197
 11
-7.4945276687
 21
8.2094741161
  0
LINE
  5
2A1
100
AcDbEntity
  8
ASSI
100
AcDbLine
 62
7
  6
CONTINUOUS
 10
-7.3892919468
 20
8.2076372197
 11
-7.4945276687
 21
8.2094741161
  0
LINE
  5
2A2
100
AcDbEntity
  8
RACCORDO
100
AcDbLine
 62
253
  6
CONTINUOUS
 10
-7.7892919468
 20
9.2100404907
 11
-13.143345496
 21
9.1165851384
  0
LINE
  5
2A3
100
AcDbEntity
  8
ASSI
100
AcDbLine
 62
253
  6
CONTINUOUS
 10
-7.7892919468
 20
9.2100404907
 11
-13.143345496
 21
9.1165851384
  0
LINE
  5
2A4
100
AcDbEntity
  8
RACCORDO
100
AcDbLine
 62
7
  6
CONTINUOUS
 10
-7.7892919468
 20
9.4600024145
 11
-13.143345498
 21
9.3665470621
  0
LINE
  5
2A5
100
AcDbEntity
  8
ASSI
100
AcDbLine
 62
7
  6
CONTINUOUS
 10
-7.7892919468
 20
9.4600024145
 11
-13.143345498
 21
9.3665470621
  0
LINE
  5
2A6
100
AcDbEntity
  8
RACCORDO
100
AcDbLine
 62
253
  6
CONTINUOUS
 10
-13.143345498
 20
9.1165851384
 11
-13.3889821865
 21
9.1162611835
  0
LINE
  5
2A7
100
AcDbEntity
  8
ASSI
100
AcDbLine
 62
253
  6
CONTINUOUS
 10
-13.143345498
 20
9.1165851384
 11
-13.3889821865
 21
9.1162611835
  0
CIRCLE
  5
2A8
100
AcDbEntity
  8
DRAFT
100
AcDbCircle
 62
7
  6
CONTINUOUS
 10
12.7092608115
 20
5.0672049862
 40
1.3135386721
  0
CIRCLE
  5
2A9
100
AcDbEntity
  8
ASSI
100
AcDbCircle
 62
7
  6
CONTINUOUS
 10
12.7092608115
 20
5.0672049862
 40
1.3135386721
  0
CIRCLE
  5
2AA
100
AcDbEntity
  8
DRAFT
100
AcDbCircle
 62
7
  6
CONTINUOUS
 10
12.7092611556
 20
5.0669844405
 40
1.3
  0
CIRCLE
  5
2AB
100
AcDbEntity
  8
ASSI
100
AcDbCircle
 62
7
  6
CONTINUOUS
 10
12.7092611556
 20
5.0669844405
 40
1.3
  0
CIRCLE
  5
2AC
100
AcDbEntity
  8
DRAFT
100
AcDbCircle
 62
7
  6
CONTINUOUS
 10
12.7092611556
 20
5.0669844405
 40
1.225
  0
CIRCLE
  5
2AD
100
AcDbEntity
  8
RACCORDO
100
AcDbCircle
 62
253
  6
CONTINUOUS
 10
12.7092611556
 20
5.0669844405
 40
1.2068524201
  0
CIRCLE
  5
2AE
100
AcDbEntity
  8
RACCORDO
100
AcDbCircle
 62
253
  6
CONTINUOUS
 10
12.7092611556
 20
5.0669844405
 40
1.1180464865
  0
ARC
  5
2AF
100
AcDbEntity
  8
RACCORDO
100
AcDbCircle
 62
253
  6
CONTINUOUS
 10
0.7597512787
 20
9.1164943174
 40
0.2500532007
100
AcDbArc
 50
90.0208102483
 51
179.9791897517
  0
ARC
  5
2B0
100
AcDbEntity
  8
ASSI
100
AcDbCircle
 62
253
  6
CONTINUOUS
 10
0.7597512787
 20
9.1164943174
 40
0.2500532007
100
AcDbArc
 50
90.0208102483
 51
179.9791897517
  0
ARC
  5
2B1
100
AcDbEntity
  8
RACCORDO
100
AcDbCircle
 62
253
  6
CONTINUOUS
 10
24.6587710289
 20
9.116494314
 40
0.2500531776
100
AcDbArc
 50
0.0208110208
 51
89.9791889339
  0
ARC
  5
2B2
100
AcDbEntity
  8
ASSI
100
AcDbCircle
 62
253
  6
CONTINUOUS
 10
24.6587710289
 20
9.116494314
 40
0.2500531776
100
AcDbArc
 50
0.0208110208
 51
89.9791889339
  0
ARC
  5
2B3
100
AcDbEntity
  8
RACCORDO
100
AcDbCircle
 62
7
  6
CONTINUOUS
 10
411.6106609944
 20
9.6669844405
 40
425.0
100
AcDbArc
 50
180.074245005
 51
182.2743633301
  0
ARC
  5
2B4
100
AcDbEntity
  8
ASSI
100
AcDbCircle
 62
7
  6
CONTINUOUS
 10
411.6106609944
 20
9.6669844405
 40
425.0
100
AcDbArc
 50
180.074245005
 51
182.2743633301
  0
ARC
  5
2B5
100
AcDbEntity
  8
RACCORDO
100
AcDbCircle
 62
253
  6
CONTINUOUS
 10
411.6063076262
 20
9.6669845866
 40
424.7500097316
100
AcDbArc
 50
180.074245023
 51
182.2743632977
  0
ARC
  5
2B6
100
AcDbEntity
  8
ASSI
100
AcDbCircle
 62
253
  6
CONTINUOUS
 10
411.6063076262
 20
9.6669845866
 40
424.7500097316
100
AcDbArc
 50
180.074245023
 51
182.2743632977
  0
ARC
  5
2B7
100
AcDbEntity
  8
RACCORDO
100
AcDbCircle
 62
7
  6
CONTINUOUS
 10
-12.0553337829
 20
-7.1593303499
 40
1.0
100
AcDbArc
 50
182.2743633301
 51
260.0
  0
ARC
  5
2B8
100
AcDbEntity
  8
ASSI
100
AcDbCircle
 62
7
  6
CONTINUOUS
 10
-12.0553337829
 20
-7.1593303499
 40
1.0
100
AcDbArc
 50
182.2743633301
 51
260.0
  0
ARC
  5
2B9
100
AcDbEntity
  8
RACCORDO
100
AcDbCircle
 62
253
  6
CONTINUOUS
 10
-12.0596962164
 20
-7.1593297663
 40
0.7500006907
100
AcDbArc
 50
182.2744058521
 51
259.999957478
  0
ARC
  5
2BA
100
AcDbEntity
  8
ASSI
100
AcDbCircle
 62
253
  6
CONTINUOUS
 10
-12.0596962164
 20
-7.1593297663
 40
0.7500006907
100
AcDbArc
 50
182.2744058521
 51
259.999957478
  0
ARC
  5
2BB
100
AcDbEntity
  8
RACCORDO
100
AcDbCircle
 62
7
  6
CONTINUOUS
 10
-7.4892919468
 20
8.5094284246
 40
0.3
100
AcDbArc
 50
180.0
 51
269.0
  0
ARC
  5
2BC
100
AcDbEntity
  8
ASSI
100
AcDbCircle
 62
7
  6
CONTINUOUS
 10
-7.4892919468
 20
8.5094284246
 40
0.3
100
AcDbArc
 50
180.0
 51
269.0
  0
ARC
  5
2BD
100
AcDbEntity
  8
RACCORDO
100
AcDbCircle
 62
7
  6
CONTINUOUS
 10
-13.1389823964
 20
9.1165851384
 40
0.25
100
AcDbArc
 50
91.0
 51
180.074245005
  0
ARC
  5
2BE
100
AcDbEntity
  8
ASSI
100
AcDbCircle
 62
7
  6
CONTINUOUS
 10
-13.1389823964
 20
9.1165851384
 40
0.25
100
AcDbArc
 50
91.0
 51
180.074245005
  0
SPLINE
  5
2BF
100
AcDbEntity
  8
RACCORDO
100
AcDbSpline
 62
253
  6
CONTINUOUS
 70
0
 71
3
 72
11
 73
7
 74
5
 42
0.0000001
 43
0.0000001
 44
0.0000000001
 12
0.0011902478
 22
-0.3868382137
 32
0.0
 13
0.3868383214
 23
-0.0011547111
 33
0.0
 40
0.0
 40
0.0
 40
0.0
 40
0.0
 40
0.2481425819
 40
0.4975232625
 40
0.7483526478
 40
1.0
 40
1.0
 40
1.0
 40
1.0
 10
0.4930566571
 20
-7.8979361646
 30
0.0
 10
0.4931551075
 20
-7.9299331757
 30
0.0
 10
0.5063992638
 20
-7.9947541973
 30
0.0
 10
0.5621981944
 20
-8.0764502351
 30
0.0
 10
0.6451287148
 20
-8.1311313336
 30
0.0
 10
0.7105696345
 20
-8.1440412434
 30
0.0
 10
0.7430185809
 20
-8.1441381034
 30
0.0
 11
0.4930566571
 21
-7.8979361646
 31
0.0
 11
0.5122997503
 21
-7.9919790752
 31
0.0
 11
0.5665335167
 21
-8.0717615492
 31
0.0
 11
0.6475346713
 21
-8.1251825089
 31
0.0
 11
0.7430185809
 21
-8.1441381034
 31
0.0
  0
SPLINE
  5
2C0
100
AcDbEntity
  8
RACCORDO
100
AcDbSpline
 62
253
  6
CONTINUOUS
 70
0
 71
3
 72
11
 73
7
 74
5
 42
0.0000001
 43
0.0000001
 44
0.0000000001
 12
0.1007369336
 22
-0.2292793437
 32
0.0
 13
0.2504334586
 23
-0.0001733424
 33
0.0
 40
0.0
 40
0.0
 40
0.0
 40
0.0
 40
0.0822915139
 40
0.3001698808
 40
0.6219901233
 40
1.0
 40
1.0
 40
1.0
 40
1.0
 10
0.503864363
 20
-7.1890938784
 30
0.0
 10
0.506627628
 20
-7.1953831265
 30
0.0
 10
0.5402118816
 20
-7.1892591522
 30
0.0
 10
0.5845941706
 20
-7.1993360912
 30
0.0
 10
0.6648974032
 20
-7.1974761836
 30
0.0
 10
0.7222708466
 20
-7.1989932129
 30
0.0
 10
0.7538262868
 20
-7.1990150546
 30
0.0
 11
0.503864363
 21
-7.1890938784
 31
0.0
 11
0.5241275218
 21
-7.1928511208
 31
0.0
 11
0.5785977869
 21
-7.1960488284
 31
0.0
 11
0.6591633598
 21
-7.1982107937
 31
0.0
 11
0.7538262868
 21
-7.1990150546
 31
0.0
  0
SPLINE
  5
2C1
100
AcDbEntity
  8
RACCORDO
100
AcDbSpline
 62
253
  6
CONTINUOUS
 70
0
 71
3
 72
11
 73
7
 74
5
 42
0.0000001
 43
0.0000001
 44
0.0000000001
 12
-0.0011902476
 22
-0.3868382125
 32
0.0
 13
-0.3868383202
 23
-0.0011547048
 33
0.0
 40
0.0
 40
0.0
 40
0.0
 40
0.0
 40
0.2481496322
 40
0.4975322055
 40
0.7483586193
 40
1.0
 40
1.0
 40
1.0
 40
1.0
 10
24.925465654
 20
-7.8979361646
 30
0.0
 10
24.9253672008
 20
-7.9299340847
 30
0.0
 10
24.9121224102
 20
-7.9947563152
 30
0.0
 10
24.856321962
 20
-8.0764523073
 30
0.0
 10
24.7733916266
 20
-8.1311318851
 30
0.0
 10
24.7079519065
 20
-8.1440412457
 30
0.0
 10
24.6755037302
 20
-8.1441381029
 30
0.0
 11
24.925465654
 21
-7.8979361646
 31
0.0
 11
24.906221478
 21
-7.9919816373
 31
0.0
 11
24.8519862822
 21
-8.0717640245
 31
0.0
 11
24.7709854619
 21
-8.1251834027
 31
0.0
 11
24.6755037302
 21
-8.1441381029
 31
0.0
  0
SPLINE
  5
2C2
100
AcDbEntity
  8
RACCORDO
100
AcDbSpline
 62
253
  6
CONTINUOUS
 70
0
 71
3
 72
11
 73
7
 74
5
 42
0.0000001
 43
0.0000001
 44
0.0000000001
 12
-0.1008819843
 22
-0.2292154883
 32
0.0
 13
-0.2504333939
 23
-0.000173313
 33
0.0
 40
0.0
 40
0.0
 40
0.0
 40
0.0
 40
0.082299687
 40
0.3001800223
 40
0.6219967759
 40
1.0
 40
1.0
 40
1.0
 40
1.0
 10
24.914657948
 20
-7.1890938784
 30
0.0
 10
24.9118904294
 20
-7.1953819994
 30
0.0
 10
24.8783137442
 20
-7.1892606122
 30
0.0
 10
24.8339232014
 20
-7.1993348023
 30
0.0
 10
24.7536246028
 20
-7.1974762712
 30
0.0
 10
24.6962509011
 20
-7.1989928603
 30
0.0
 10
24.6646960243
 20
-7.199014698
 30
0.0
 11
24.914657948
 21
-7.1890938784
 31
0.0
 11
24.8943926933
 21
-7.1928510147
 31
0.0
 11
24.8399219416
 21
-7.1960486061
 31
0.0
 11
24.7593572611
 21
-7.1982104794
 31
0.0
 11
24.6646960243
 21
-7.199014698
 31
0.0
  0
SPLINE
  5
2C3
100
AcDbEntity
  8
RACCORDO
100
AcDbSpline
 62
253
  6
CONTINUOUS
 70
0
 71
3
 72
13
 73
9
 74
7
 42
0.0000001
 43
0.0000001
 44
0.0000000001
 12
0.0699504283
 22
0.942650268
 32
0.0
 13
0.0004957988
 23
0.9452419502
 33
0.0
 40
0.0
 40
0.0
 40
0.0
 40
0.0
 40
0.0677735974
 40
0.1851013747
 40
0.3460122137
 40
0.5423316971
 40
0.7640939911
 40
1.0
 40
1.0
 40
1.0
 40
1.0
 10
0.7430185809
 20
-8.1441381029
 30
0.0
 10
0.744598845
 20
-8.122842503
 30
0.0
 10
0.7463924603
 20
-8.0645222531
 30
0.0
 10
0.7488919342
 20
-7.9555441122
 30
0.0
 10
0.7508461493
 20
-7.8060240527
 30
0.0
 10
0.7524684519
 20
-7.6236043572
 30
0.0
 10
0.7535022062
 20
-7.417546633
 30
0.0
 10
0.7537872995
 20
-7.2733444732
 30
0.0
 10
0.7538262868
 20
-7.1990150546
 30
0.0
 11
0.7430185809
 21
-8.1441381029
 31
0.0
 11
0.7458510852
 21
-8.0801382966
 31
0.0
 11
0.7484234516
 21
-7.9692649809
 31
0.0
 11
0.750604951
 21
-7.8171809296
 31
0.0
 11
0.7522845807
 21
-7.6316190943
 31
0.0
 11
0.7533769329
 21
-7.4220028884
 31
0.0
 11
0.7538262868
 21
-7.1990150546
 31
0.0
  0
SPLINE
  5
2C4
100
AcDbEntity
  8
RACCORDO
100
AcDbSpline
 62
253
  6
CONTINUOUS
 70
0
 71
3
 72
13
 73
9
 74
7
 42
0.0000001
 43
0.0000001
 44
0.0000000001
 12
0.0004957988
 22
-0.9452419502
 32
0.0
 13
0.0699504281
 23
-0.9426502681
 33
0.0
 40
0.0
 40
0.0
 40
0.0
 40
0.0
 40
0.2359060089
 40
0.4576683029
 40
0.6539877863
 40
0.8148986253
 40
0.9322264026
 40
1.0
 40
1.0
 40
1.0
 40
1.0
 10
24.6646960243
 20
-7.1990150546
 30
0.0
 10
24.6647350116
 20
-7.2733444732
 30
0.0
 10
24.6650201049
 20
-7.417546633
 30
0.0
 10
24.6660538592
 20
-7.6236043572
 30
0.0
 10
24.6676761618
 20
-7.8060240527
 30
0.0
 10
24.669630377
 20
-7.9555441122
 30
0.0
 10
24.6721298508
 20
-8.0645222531
 30
0.0
 10
24.6739234661
 20
-8.122842503
 30
0.0
 10
24.6755037302
 20
-8.1441381029
 30
0.0
 11
24.6646960243
 21
-7.1990150546
 31
0.0
 11
24.6651453782
 21
-7.4220028884
 31
0.0
 11
24.6662377304
 21
-7.6316190943
 31
0.0
 11
24.6679173601
 21
-7.8171809296
 31
0.0
 11
24.6700988595
 21
-7.9692649809
 31
0.0
 11
24.6726712259
 21
-8.0801382966
 31
0.0
 11
24.6755037302
 21
-8.1441381029
 31
0.0
  0
SPLINE
  5
2C5
100
AcDbEntity
  8
RACCORDO
100
AcDbSpline
 62
253
  6
CONTINUOUS
 70
0
 71
3
 72
13
 73
9
 74
7
 42
0.0000001
 43
0.0000001
 44
0.0000000001
 12
0.069752494
 22
0.7055614738
 32
0.0
 13
0.0004946771
 23
0.7090008173
 33
0.0
 40
0.0
 40
0.0
 40
0.0
 40
0.0
 40
0.067477859
 40
0.1848343948
 40
0.3459357263
 40
0.5426158844
 40
0.7647547131
 40
1.0
 40
1.0
 40
1.0
 40
1.0
 10
0.4930566571
 20
-7.8979361646
 30
0.0
 10
0.4946255735
 20
-7.8820662388
 30
0.0
 10
0.4964282358
 20
-7.838386773
 30
0.0
 10
0.4989246598
 20
-7.7566882473
 30
0.0
 10
0.5008844985
 20
-7.6444027438
 30
0.0
 10
0.5025082594
 20
-7.5073609239
 30
0.0
 10
0.5035411161
 20
-7.3527851329
 30
0.0
 10
0.5038255729
 20
-7.2446902453
 30
0.0
 10
0.503864363
 20
-7.1890938784
 30
0.0
 11
0.4930566571
 21
-7.8979361646
 31
0.0
 11
0.4958792938
 21
-7.8501776352
 31
0.0
 11
0.4984560643
 21
-7.7670116442
 31
0.0
 11
0.5006416417
 21
-7.6528115527
 31
0.0
 11
0.5023242166
 21
-7.5133752774
 31
0.0
 11
0.5034171484
 21
-7.3558824202
 31
0.0
 11
0.503864363
 21
-7.1890938784
 31
0.0
  0
SPLINE
  5
2C6
100
AcDbEntity
  8
RACCORDO
100
AcDbSpline
 62
253
  6
CONTINUOUS
 70
0
 71
3
 72
10
 73
6
 74
4
 42
0.0000001
 43
0.0000001
 44
0.0000000001
 12
0.0113038298
 22
16.305676414
 32
0.0
 13
0.0003688181
 23
16.305680328
 33
0.0
 40
0.0
 40
0.0
 40
0.0
 40
0.0
 40
0.3332437898
 40
0.6665833822
 40
1.0
 40
1.0
 40
1.0
 40
1.0
 10
0.503864363
 20
-7.1890938784
 30
0.0
 10
0.5051200067
 20
-5.3778387439
 30
0.0
 10
0.5072262035
 20
-1.7548074718
 30
0.0
 10
0.5091707648
 20
3.6804189984
 30
0.0
 10
0.5096575438
 20
7.3043902096
 30
0.0
 10
0.5096985338
 20
9.1165851384
 30
0.0
 11
0.503864363
 21
-7.1890938784
 31
0.0
 11
0.5070234629
 21
-1.7553280876
 31
0.0
 11
0.5089682194
 21
3.6800003995
 31
0.0
 11
0.5096985338
 21
9.1165851384
 31
0.0
  0
SPLINE
  5
2C7
100
AcDbEntity
  8
RACCORDO
100
AcDbSpline
 62
253
  6
CONTINUOUS
 70
0
 71
3
 72
10
 73
6
 74
4
 42
0.0000001
 43
0.0000001
 44
0.0000000001
 12
0.0113038298
 22
16.3152736367
 32
0.0
 13
0.0003688181
 23
16.3152775484
 33
0.0
 40
0.0
 40
0.0
 40
0.0
 40
0.0
 40
0.3332434383
 40
0.6665824571
 40
1.0
 40
1.0
 40
1.0
 40
1.0
 10
0.7538262868
 20
-7.1990150546
 30
0.0
 10
0.7550819292
 20
-5.3866957602
 30
0.0
 10
0.7571881235
 20
-1.7615370696
 30
0.0
 10
0.7591326871
 20
3.6768884743
 30
0.0
 10
0.7596194675
 20
7.3029945993
 30
0.0
 10
0.7596604576
 20
9.1162611835
 30
0.0
 11
0.7538262868
 21
-7.1990150546
 31
0.0
 11
0.7569853839
 21
-1.7620567843
 31
0.0
 11
0.7589301395
 21
3.6764614786
 31
0.0
 11
0.7596604576
 21
9.1162611835
 31
0.0
  0
SPLINE
  5
2C8
100
AcDbEntity
  8
RACCORDO
100
AcDbSpline
 62
253
  6
CONTINUOUS
 70
0
 71
3
 72
10
 73
6
 74
4
 42
0.0000001
 43
0.0000001
 44
0.0000000001
 12
0.0003688181
 22
-16.3056803279
 32
0.0
 13
0.0113038298
 23
-16.3056764139
 33
0.0
 40
0.0
 40
0.0
 40
0.0
 40
0.0
 40
0.3334166178
 40
0.6667562102
 40
1.0
 40
1.0
 40
1.0
 40
1.0
 10
24.9088237773
 20
9.1165851384
 30
0.0
 10
24.9088647673
 20
7.3043902095
 30
0.0
 10
24.9093515464
 20
3.6804189984
 30
0.0
 10
24.9112961076
 20
-1.7548074718
 30
0.0
 10
24.9134023044
 20
-5.3778387439
 30
0.0
 10
24.9146579481
 20
-7.1890938784
 30
0.0
 11
24.9088237773
 21
9.1165851384
 31
0.0
 11
24.9095540917
 21
3.6800003995
 31
0.0
 11
24.9114988483
 21
-1.7553280876
 31
0.0
 11
24.9146579481
 21
-7.1890938784
 31
0.0
  0
SPLINE
  5
2C9
100
AcDbEntity
  8
RACCORDO
100
AcDbSpline
 62
253
  6
CONTINUOUS
 70
0
 71
3
 72
13
 73
9
 74
7
 42
0.0000001
 43
0.0000001
 44
0.0000000001
 12
0.0004946771
 22
-0.7090008173
 32
0.0
 13
0.0697524934
 23
-0.7055614738
 33
0.0
 40
0.0
 40
0.0
 40
0.0
 40
0.0
 40
0.2352452869
 40
0.4573841156
 40
0.6540642737
 40
0.8151656051
 40
0.9325221411
 40
1.0
 40
1.0
 40
1.0
 40
1.0
 10
24.9146579481
 20
-7.1890938784
 30
0.0
 10
24.9146967382
 20
-7.2446902453
 30
0.0
 10
24.914981195
 20
-7.3527851329
 30
0.0
 10
24.9160140517
 20
-7.5073609239
 30
0.0
 10
24.9176378126
 20
-7.6444027438
 30
0.0
 10
24.9195976513
 20
-7.7566882473
 30
0.0
 10
24.9220940753
 20
-7.838386773
 30
0.0
 10
24.9238967377
 20
-7.8820662388
 30
0.0
 10
24.925465654
 20
-7.8979361646
 30
0.0
 11
24.9146579481
 21
-7.1890938784
 31
0.0
 11
24.9151051627
 21
-7.3558824202
 31
0.0
 11
24.9161980945
 21
-7.5133752774
 31
0.0
 11
24.9178806694
 21
-7.6528115527
 31
0.0
 11
24.9200662469
 21
-7.7670116442
 31
0.0
 11
24.9226430173
 21
-7.8501776352
 31
0.0
 11
24.925465654
 21
-7.8979361646
 31
0.0
  0
SPLINE
  5
2CA
100
AcDbEntity
  8
ASSI
100
AcDbSpline
 62
7
  6
CONTINUOUS
 70
0
 71
3
 72
26
 73
22
 74
20
 42
0.0000001
 43
0.0000001
 44
0.0000000001
 12
7.5245273328
 22
0.0
 32
0.0
 13
-7.5245273328
 23
0.0
 33
0.0
 40
0.0
 40
0.0
 40
0.0
 40
0.0
 40
0.0525110766
 40
0.1050659475
 40
0.1576757335
 40
0.2102146508
 40
0.2628696807
 40
0.3154318125
 40
0.3681645664
 40
0.4207860678
 40
0.473590599
 40
0.5262369109
 40
0.5790389163
 40
0.6316790221
 40
0.6844572014
 40
0.7370664067
 40
0.7897607685
 40
0.8423102194
 40
0.8949163168
 40
0.9474619409
 40
1.0
 40
1.0
 40
1.0
 40
1.0
 10
12.7092611556
 20
7.4594979044
 30
0.0
 10
12.840968166
 20
7.4594979044
 30
0.0
 10
13.1050012762
 20
7.4378361351
 30
0.0
 10
13.4902219266
 20
7.3411312143
 30
0.0
 10
13.8546187641
 20
7.1826734248
 30
0.0
 10
14.1883200163
 20
6.9665334363
 30
0.0
 10
14.4819336826
 20
6.6985991842
 30
0.0
 10
14.7277383572
 20
6.3856080874
 30
0.0
 10
14.9184739062
 20
6.0363870994
 30
0.0
 10
15.048987641
 20
5.6598464444
 30
0.0
 10
15.1152214097
 20
5.2670693789
 30
0.0
 10
15.1153388358
 20
4.8683070749
 30
0.0
 10
15.0493292173
 20
4.4754512349
 30
0.0
 10
14.9189704947
 20
4.0986911203
 30
0.0
 10
14.7282477423
 20
3.7491398944
 30
0.0
 10
14.4823166233
 20
3.4358210925
 30
0.0
 10
14.1885485634
 20
3.1676890555
 30
0.0
 10
13.8547532067
 20
2.951479083
 30
0.0
 10
13.4903638389
 20
2.793020147
 30
0.0
 10
13.1051141406
 20
2.6962907683
 30
0.0
 10
12.8410358427
 20
2.6746167628
 30
0.0
 10
12.7092611556
 20
2.6746167628
 30
0.0
 11
12.7092611556
 21
7.4594979044
 31
0.0
 11
13.1030566379
 21
7.4271598849
 31
0.0
 11
13.4866084684
 21
7.3308835093
 31
0.0
 11
13.8496237022
 21
7.1729972626
 31
0.0
 11
14.1814232442
 21
6.9580663828
 31
0.0
 11
14.4740704302
 21
6.6909795014
 31
0.0
 11
14.718331532
 21
6.3799153997
 31
0.0
 11
14.9085093445
 21
6.0316713067
 31
0.0
 11
15.0381677895
 21
5.6575501838
 31
0.0
 11
15.1042279341
 21
5.2657511259
 31
0.0
 11
15.1043442453
 21
4.8696125305
 31
0.0
 11
15.0385168914
 21
4.477793566
 31
0.0
 11
14.9090171517
 21
4.1034693449
 31
0.0
 11
14.7188238713
 21
3.7548442876
 31
0.0
 11
14.4744247605
 21
3.443438216
 31
0.0
 11
14.181587644
 21
3.1761204182
 31
0.0
 11
13.84972607
 21
2.9611395132
 31
0.0
 11
13.4867381582
 21
2.8032600385
 31
0.0
 11
13.1032579388
 21
2.7069841604
 31
0.0
 11
12.7092611556
 21
2.6746167628
 31
0.0
  0
SPLINE
  5
2CB
100
AcDbEntity
  8
ASSI
100
AcDbSpline
 62
7
  6
CONTINUOUS
 70
0
 71
3
 72
26
 73
22
 74
20
 42
0.0000001
 43
0.0000001
 44
0.0000000001
 12
-7.5245273329
 22
0.0
 32
0.0
 13
7.5245273329
 23
0.0
 33
0.0
 40
0.0
 40
0.0
 40
0.0
 40
0.0
 40
0.0525110341
 40
0.1050655381
 40
0.1576743928
 40
0.2102117292
 40
0.262864617
 40
0.3154243168
 40
0.3681547145
 40
0.420774355
 40
0.473577854
 40
0.5262241639
 40
0.5790271981
 40
0.6316691632
 40
0.6844497002
 40
0.7370613399
 40
0.7897578459
 40
0.8423088783
 40
0.8949159072
 40
0.9474618983
 40
1.0
 40
1.0
 40
1.0
 40
1.0
 10
12.7092611556
 20
2.6746167628
 30
0.0
 10
12.5775542519
 20
2.6746167628
 30
0.0
 10
12.3135222859
 20
2.6962757123
 30
0.0
 10
11.9283024392
 20
2.792968576
 30
0.0
 10
11.5639057546
 20
2.9514079789
 30
0.0
 10
11.2302039772
 20
3.1675255155
 30
0.0
 10
10.9365893682
 20
3.4354359148
 30
0.0
 10
10.690783735
 20
3.748404368
 30
0.0
 10
10.5000475964
 20
4.0976062785
 30
0.0
 10
10.369533841
 20
4.4741331989
 30
0.0
 10
10.3033005586
 20
4.8669031006
 30
0.0
 10
10.3031838158
 20
5.2656653916
 30
0.0
 10
10.3691939223
 20
5.658528373
 30
0.0
 10
10.499552627
 20
6.0353022088
 30
0.0
 10
10.69027479
 20
6.3848725129
 30
0.0
 10
10.9362049482
 20
6.6982139724
 30
0.0
 10
11.229972064
 20
6.9663698786
 30
0.0
 10
11.5637668965
 20
7.1826023126
 30
0.0
 10
11.9281564179
 20
7.3410796372
 30
0.0
 10
12.3134069186
 20
7.4378210769
 30
0.0
 10
12.5774863614
 20
7.4594979044
 30
0.0
 10
12.7092611556
 20
7.4594979044
 30
0.0
 11
12.7092611556
 21
2.6746167628
 31
0.0
 11
12.3154656732
 21
2.706950868
 31
0.0
 11
11.9319138427
 21
2.8032159055
 31
0.0
 11
11.568898609
 21
2.9610845803
 31
0.0
 11
11.2370990669
 21
3.1759935802
 31
0.0
 11
10.9444518809
 21
3.4430565508
 31
0.0
 11
10.7001907792
 21
3.754097385
 31
0.0
 11
10.5100129666
 21
4.1023212767
 31
0.0
 11
10.3803545216
 21
4.4764275802
 31
0.0
 11
10.314294377
 21
4.8682187614
 31
0.0
 11
10.3141780658
 21
5.2643573426
 31
0.0
 11
10.3800054197
 21
5.656184157
 31
0.0
 11
10.5095051594
 21
6.0305231822
 31
0.0
 11
10.6996984398
 21
6.3791684471
 31
0.0
 11
10.9440975506
 21
6.6905978047
 31
0.0
 11
11.2369346671
 21
6.9579395326
 31
0.0
 11
11.5687962411
 21
7.1729423238
 31
0.0
 11
11.931784153
 21
7.3308393711
 31
0.0
 11
12.3152643723
 21
7.4271265885
 31
0.0
 11
12.7092611556
 21
7.4594979044
 31
0.0
  0
SPLINE
  5
2CC
100
AcDbEntity
  8
RACCORDO
100
AcDbSpline
 62
253
  6
CONTINUOUS
 70
0
 71
3
 72
10
 73
6
 74
4
 42
0.0000001
 43
0.0000001
 44
0.0000000001
 12
0.0003688181
 22
-16.3152775484
 32
0.0
 13
0.0113038298
 23
-16.3152736367
 33
0.0
 40
0.0
 40
0.0
 40
0.0
 40
0.0
 40
0.3334174783
 40
0.6667565294
 40
1.0
 40
1.0
 40
1.0
 40
1.0
 10
24.6588618537
 20
9.1162611835
 30
0.0
 10
24.6589028438
 20
7.302994951
 30
0.0
 10
24.6593896239
 20
3.6768890018
 30
0.0
 10
24.6613341874
 20
-1.7615365422
 30
0.0
 10
24.6634403818
 20
-5.3866955844
 30
0.0
 10
24.6646960243
 20
-7.1990150546
 30
0.0
 11
24.6588618537
 21
9.1162611835
 31
0.0
 11
24.6595921713
 21
3.6764625336
 31
0.0
 11
24.6615369269
 21
-1.762056257
 31
0.0
 11
24.6646960243
 21
-7.1990150546
 31
0.0
  0
SPLINE
  5
2CD
100
AcDbEntity
  8
ASSI
100
AcDbSpline
 62
7
  6
CONTINUOUS
 70
0
 71
3
 72
26
 73
22
 74
20
 42
0.0000001
 43
0.0000001
 44
0.0000000001
 12
-7.5245273329
 22
0.0
 32
0.0
 13
7.5245273329
 23
0.0
 33
0.0
 40
0.0
 40
0.0
 40
0.0
 40
0.0
 40
0.0525110341
 40
0.1050655381
 40
0.1576743928
 40
0.2102117292
 40
0.262864617
 40
0.3154243168
 40
0.3681547145
 40
0.420774355
 40
0.473577854
 40
0.5262241639
 40
0.5790271981
 40
0.6316691632
 40
0.6844497002
 40
0.7370613399
 40
0.7897578459
 40
0.8423088783
 40
0.8949159072
 40
0.9474618983
 40
1.0
 40
1.0
 40
1.0
 40
1.0
 10
12.7092611556
 20
2.6746167628
 30
0.0
 10
12.5775542519
 20
2.6746167628
 30
0.0
 10
12.3135222859
 20
2.6962757123
 30
0.0
 10
11.9283024392
 20
2.792968576
 30
0.0
 10
11.5639057546
 20
2.9514079789
 30
0.0
 10
11.2302039772
 20
3.1675255155
 30
0.0
 10
10.9365893682
 20
3.4354359148
 30
0.0
 10
10.690783735
 20
3.748404368
 30
0.0
 10
10.5000475964
 20
4.0976062785
 30
0.0
 10
10.369533841
 20
4.4741331989
 30
0.0
 10
10.3033005586
 20
4.8669031006
 30
0.0
 10
10.3031838158
 20
5.2656653916
 30
0.0
 10
10.3691939223
 20
5.658528373
 30
0.0
 10
10.499552627
 20
6.0353022088
 30
0.0
 10
10.69027479
 20
6.3848725129
 30
0.0
 10
10.9362049482
 20
6.6982139724
 30
0.0
 10
11.229972064
 20
6.9663698786
 30
0.0
 10
11.5637668965
 20
7.1826023126
 30
0.0
 10
11.9281564179
 20
7.3410796372
 30
0.0
 10
12.3134069186
 20
7.4378210769
 30
0.0
 10
12.5774863614
 20
7.4594979044
 30
0.0
 10
12.7092611556
 20
7.4594979044
 30
0.0
 11
12.7092611556
 21
2.6746167628
 31
0.0
 11
12.3154656732
 21
2.706950868
 31
0.0
 11
11.9319138427
 21
2.8032159055
 31
0.0
 11
11.568898609
 21
2.9610845803
 31
0.0
 11
11.2370990669
 21
3.1759935802
 31
0.0
 11
10.9444518809
 21
3.4430565508
 31
0.0
 11
10.7001907792
 21
3.754097385
 31
0.0
 11
10.5100129666
 21
4.1023212767
 31
0.0
 11
10.3803545216
 21
4.4764275802
 31
0.0
 11
10.314294377
 21
4.8682187614
 31
0.0
 11
10.3141780658
 21
5.2643573426
 31
0.0
 11
10.3800054197
 21
5.656184157
 31
0.0
 11
10.5095051594
 21
6.0305231822
 31
0.0
 11
10.6996984398
 21
6.3791684471
 31
0.0
 11
10.9440975506
 21
6.6905978047
 31
0.0
 11
11.2369346671
 21
6.9579395326
 31
0.0
 11
11.5687962411
 21
7.1729423238
 31
0.0
 11
11.931784153
 21
7.3308393711
 31
0.0
 11
12.3152643723
 21
7.4271265885
 31
0.0
 11
12.7092611556
 21
7.4594979044
 31
0.0
  0
SPLINE
  5
2CE
100
AcDbEntity
  8
ASSI
100
AcDbSpline
 62
253
  6
CONTINUOUS
 70
0
 71
3
 72
11
 73
7
 74
5
 42
0.0000001
 43
0.0000001
 44
0.0000000001
 12
0.0011902478
 22
-0.3868382137
 32
0.0
 13
0.3868383214
 23
-0.0011547111
 33
0.0
 40
0.0
 40
0.0
 40
0.0
 40
0.0
 40
0.2481425819
 40
0.4975232625
 40
0.7483526478
 40
1.0
 40
1.0
 40
1.0
 40
1.0
 10
0.4930566571
 20
-7.8979361646
 30
0.0
 10
0.4931551075
 20
-7.9299331757
 30
0.0
 10
0.5063992638
 20
-7.9947541973
 30
0.0
 10
0.5621981944
 20
-8.0764502351
 30
0.0
 10
0.6451287148
 20
-8.1311313336
 30
0.0
 10
0.7105696345
 20
-8.1440412434
 30
0.0
 10
0.7430185809
 20
-8.1441381034
 30
0.0
 11
0.4930566571
 21
-7.8979361646
 31
0.0
 11
0.5122997503
 21
-7.9919790752
 31
0.0
 11
0.5665335167
 21
-8.0717615492
 31
0.0
 11
0.6475346713
 21
-8.1251825089
 31
0.0
 11
0.7430185809
 21
-8.1441381034
 31
0.0
  0
SPLINE
  5
2CF
100
AcDbEntity
  8
ASSI
100
AcDbSpline
 62
253
  6
CONTINUOUS
 70
0
 71
3
 72
11
 73
7
 74
5
 42
0.0000001
 43
0.0000001
 44
0.0000000001
 12
0.1007369336
 22
-0.2292793437
 32
0.0
 13
0.2504334586
 23
-0.0001733424
 33
0.0
 40
0.0
 40
0.0
 40
0.0
 40
0.0
 40
0.0822915139
 40
0.3001698808
 40
0.6219901233
 40
1.0
 40
1.0
 40
1.0
 40
1.0
 10
0.503864363
 20
-7.1890938784
 30
0.0
 10
0.506627628
 20
-7.1953831265
 30
0.0
 10
0.5402118816
 20
-7.1892591522
 30
0.0
 10
0.5845941706
 20
-7.1993360912
 30
0.0
 10
0.6648974032
 20
-7.1974761836
 30
0.0
 10
0.7222708466
 20
-7.1989932129
 30
0.0
 10
0.7538262868
 20
-7.1990150546
 30
0.0
 11
0.503864363
 21
-7.1890938784
 31
0.0
 11
0.5241275218
 21
-7.1928511208
 31
0.0
 11
0.5785977869
 21
-7.1960488284
 31
0.0
 11
0.6591633598
 21
-7.1982107937
 31
0.0
 11
0.7538262868
 21
-7.1990150546
 31
0.0
  0
SPLINE
  5
2D0
100
AcDbEntity
  8
ASSI
100
AcDbSpline
 62
253
  6
CONTINUOUS
 70
0
 71
3
 72
11
 73
7
 74
5
 42
0.0000001
 43
0.0000001
 44
0.0000000001
 12
-0.0011902476
 22
-0.3868382125
 32
0.0
 13
-0.3868383202
 23
-0.0011547048
 33
0.0
 40
0.0
 40
0.0
 40
0.0
 40
0.0
 40
0.2481496322
 40
0.4975322055
 40
0.7483586193
 40
1.0
 40
1.0
 40
1.0
 40
1.0
 10
24.925465654
 20
-7.8979361646
 30
0.0
 10
24.9253672008
 20
-7.9299340847
 30
0.0
 10
24.9121224102
 20
-7.9947563152
 30
0.0
 10
24.856321962
 20
-8.0764523073
 30
0.0
 10
24.7733916266
 20
-8.1311318851
 30
0.0
 10
24.7079519065
 20
-8.1440412457
 30
0.0
 10
24.6755037302
 20
-8.1441381029
 30
0.0
 11
24.925465654
 21
-7.8979361646
 31
0.0
 11
24.906221478
 21
-7.9919816373
 31
0.0
 11
24.8519862822
 21
-8.0717640245
 31
0.0
 11
24.7709854619
 21
-8.1251834027
 31
0.0
 11
24.6755037302
 21
-8.1441381029
 31
0.0
  0
SPLINE
  5
2D1
100
AcDbEntity
  8
ASSI
100
AcDbSpline
 62
253
  6
CONTINUOUS
 70
0
 71
3
 72
11
 73
7
 74
5
 42
0.0000001
 43
0.0000001
 44
0.0000000001
 12
-0.1008819843
 22
-0.2292154883
 32
0.0
 13
-0.2504333939
 23
-0.000173313
 33
0.0
 40
0.0
 40
0.0
 40
0.0
 40
0.0
 40
0.082299687
 40
0.3001800223
 40
0.6219967759
 40
1.0
 40
1.0
 40
1.0
 40
1.0
 10
24.914657948
 20
-7.1890938784
 30
0.0
 10
24.9118904294
 20
-7.1953819994
 30
0.0
 10
24.8783137442
 20
-7.1892606122
 30
0.0
 10
24.8339232014
 20
-7.1993348023
 30
0.0
 10
24.7536246028
 20
-7.1974762712
 30
0.0
 10
24.6962509011
 20
-7.1989928603
 30
0.0
 10
24.6646960243
 20
-7.199014698
 30
0.0
 11
24.914657948
 21
-7.1890938784
 31
0.0
 11
24.8943926933
 21
-7.1928510147
 31
0.0
 11
24.8399219416
 21
-7.1960486061
 31
0.0
 11
24.7593572611
 21
-7.1982104794
 31
0.0
 11
24.6646960243
 21
-7.199014698
 31
0.0
  0
SPLINE
  5
2D2
100
AcDbEntity
  8
ASSI
100
AcDbSpline
 62
253
  6
CONTINUOUS
 70
0
 71
3
 72
13
 73
9
 74
7
 42
0.0000001
 43
0.0000001
 44
0.0000000001
 12
0.069752494
 22
0.7055614738
 32
0.0
 13
0.0004946771
 23
0.7090008173
 33
0.0
 40
0.0
 40
0.0
 40
0.0
 40
0.0
 40
0.067477859
 40
0.1848343948
 40
0.3459357263
 40
0.5426158844
 40
0.7647547131
 40
1.0
 40
1.0
 40
1.0
 40
1.0
 10
0.4930566571
 20
-7.8979361646
 30
0.0
 10
0.4946255735
 20
-7.8820662388
 30
0.0
 10
0.4964282358
 20
-7.838386773
 30
0.0
 10
0.4989246598
 20
-7.7566882473
 30
0.0
 10
0.5008844985
 20
-7.6444027438
 30
0.0
 10
0.5025082594
 20
-7.5073609239
 30
0.0
 10
0.5035411161
 20
-7.3527851329
 30
0.0
 10
0.5038255729
 20
-7.2446902453
 30
0.0
 10
0.503864363
 20
-7.1890938784
 30
0.0
 11
0.4930566571
 21
-7.8979361646
 31
0.0
 11
0.4958792938
 21
-7.8501776352
 31
0.0
 11
0.4984560643
 21
-7.7670116442
 31
0.0
 11
0.5006416417
 21
-7.6528115527
 31
0.0
 11
0.5023242166
 21
-7.5133752774
 31
0.0
 11
0.5034171484
 21
-7.3558824202
 31
0.0
 11
0.503864363
 21
-7.1890938784
 31
0.0
  0
SPLINE
  5
2D3
100
AcDbEntity
  8
ASSI
100
AcDbSpline
 62
253
  6
CONTINUOUS
 70
0
 71
3
 72
10
 73
6
 74
4
 42
0.0000001
 43
0.0000001
 44
0.0000000001
 12
0.0113038298
 22
16.305676414
 32
0.0
 13
0.0003688181
 23
16.305680328
 33
0.0
 40
0.0
 40
0.0
 40
0.0
 40
0.0
 40
0.3332437898
 40
0.6665833822
 40
1.0
 40
1.0
 40
1.0
 40
1.0
 10
0.503864363
 20
-7.1890938784
 30
0.0
 10
0.5051200067
 20
-5.3778387439
 30
0.0
 10
0.5072262035
 20
-1.7548074718
 30
0.0
 10
0.5091707648
 20
3.6804189984
 30
0.0
 10
0.5096575438
 20
7.3043902096
 30
0.0
 10
0.5096985338
 20
9.1165851384
 30
0.0
 11
0.503864363
 21
-7.1890938784
 31
0.0
 11
0.5070234629
 21
-1.7553280876
 31
0.0
 11
0.5089682194
 21
3.6800003995
 31
0.0
 11
0.5096985338
 21
9.1165851384
 31
0.0
  0
SPLINE
  5
2D4
100
AcDbEntity
  8
ASSI
100
AcDbSpline
 62
253
  6
CONTINUOUS
 70
0
 71
3
 72
10
 73
6
 74
4
 42
0.0000001
 43
0.0000001
 44
0.0000000001
 12
0.0003688181
 22
-16.3056803279
 32
0.0
 13
0.0113038298
 23
-16.3056764139
 33
0.0
 40
0.0
 40
0.0
 40
0.0
 40
0.0
 40
0.3334166178
 40
0.6667562102
 40
1.0
 40
1.0
 40
1.0
 40
1.0
 10
24.9088237773
 20
9.1165851384
 30
0.0
 10
24.9088647673
 20
7.3043902095
 30
0.0
 10
24.9093515464
 20
3.6804189984
 30
0.0
 10
24.9112961076
 20
-1.7548074718
 30
0.0
 10
24.9134023044
 20
-5.3778387439
 30
0.0
 10
24.9146579481
 20
-7.1890938784
 30
0.0
 11
24.9088237773
 21
9.1165851384
 31
0.0
 11
24.9095540917
 21
3.6800003995
 31
0.0
 11
24.9114988483
 21
-1.7553280876
 31
0.0
 11
24.9146579481
 21
-7.1890938784
 31
0.0
  0
SPLINE
  5
2D5
100
AcDbEntity
  8
ASSI
100
AcDbSpline
 62
253
  6
CONTINUOUS
 70
0
 71
3
 72
13
 73
9
 74
7
 42
0.0000001
 43
0.0000001
 44
0.0000000001
 12
0.0004946771
 22
-0.7090008173
 32
0.0
 13
0.0697524934
 23
-0.7055614738
 33
0.0
 40
0.0
 40
0.0
 40
0.0
 40
0.0
 40
0.2352452869
 40
0.4573841156
 40
0.6540642737
 40
0.8151656051
 40
0.9325221411
 40
1.0
 40
1.0
 40
1.0
 40
1.0
 10
24.9146579481
 20
-7.1890938784
 30
0.0
 10
24.9146967382
 20
-7.2446902453
 30
0.0
 10
24.914981195
 20
-7.3527851329
 30
0.0
 10
24.9160140517
 20
-7.5073609239
 30
0.0
 10
24.9176378126
 20
-7.6444027438
 30
0.0
 10
24.9195976513
 20
-7.7566882473
 30
0.0
 10
24.9220940753
 20
-7.838386773
 30
0.0
 10
24.9238967377
 20
-7.8820662388
 30
0.0
 10
24.925465654
 20
-7.8979361646
 30
0.0
 11
24.9146579481
 21
-7.1890938784
 31
0.0
 11
24.9151051627
 21
-7.3558824202
 31
0.0
 11
24.9161980945
 21
-7.5133752774
 31
0.0
 11
24.9178806694
 21
-7.6528115527
 31
0.0
 11
24.9200662469
 21
-7.7670116442
 31
0.0
 11
24.9226430173
 21
-7.8501776352
 31
0.0
 11
24.925465654
 21
-7.8979361646
 31
0.0
  0
SPLINE
  5
2D6
100
AcDbEntity
  8
ASSI
100
AcDbSpline
 62
253
  6
CONTINUOUS
 70
0
 71
3
 72
13
 73
9
 74
7
 42
0.0000001
 43
0.0000001
 44
0.0000000001
 12
0.0699504283
 22
0.942650268
 32
0.0
 13
0.0004957988
 23
0.9452419502
 33
0.0
 40
0.0
 40
0.0
 40
0.0
 40
0.0
 40
0.0677735974
 40
0.1851013747
 40
0.3460122137
 40
0.5423316971
 40
0.7640939911
 40
1.0
 40
1.0
 40
1.0
 40
1.0
 10
0.7430185809
 20
-8.1441381029
 30
0.0
 10
0.744598845
 20
-8.122842503
 30
0.0
 10
0.7463924603
 20
-8.0645222531
 30
0.0
 10
0.7488919342
 20
-7.9555441122
 30
0.0
 10
0.7508461493
 20
-7.8060240527
 30
0.0
 10
0.7524684519
 20
-7.6236043572
 30
0.0
 10
0.7535022062
 20
-7.417546633
 30
0.0
 10
0.7537872995
 20
-7.2733444732
 30
0.0
 10
0.7538262868
 20
-7.1990150546
 30
0.0
 11
0.7430185809
 21
-8.1441381029
 31
0.0
 11
0.7458510852
 21
-8.0801382966
 31
0.0
 11
0.7484234516
 21
-7.9692649809
 31
0.0
 11
0.750604951
 21
-7.8171809296
 31
0.0
 11
0.7522845807
 21
-7.6316190943
 31
0.0
 11
0.7533769329
 21
-7.4220028884
 31
0.0
 11
0.7538262868
 21
-7.1990150546
 31
0.0
  0
SPLINE
  5
2D7
100
AcDbEntity
  8
ASSI
100
AcDbSpline
 62
253
  6
CONTINUOUS
 70
0
 71
3
 72
13
 73
9
 74
7
 42
0.0000001
 43
0.0000001
 44
0.0000000001
 12
0.0004957988
 22
-0.9452419502
 32
0.0
 13
0.0699504281
 23
-0.9426502681
 33
0.0
 40
0.0
 40
0.0
 40
0.0
 40
0.0
 40
0.2359060089
 40
0.4576683029
 40
0.6539877863
 40
0.8148986253
 40
0.9322264026
 40
1.0
 40
1.0
 40
1.0
 40
1.0
 10
24.6646960243
 20
-7.1990150546
 30
0.0
 10
24.6647350116
 20
-7.2733444732
 30
0.0
 10
24.6650201049
 20
-7.417546633
 30
0.0
 10
24.6660538592
 20
-7.6236043572
 30
0.0
 10
24.6676761618
 20
-7.8060240527
 30
0.0
 10
24.669630377
 20
-7.9555441122
 30
0.0
 10
24.6721298508
 20
-8.0645222531
 30
0.0
 10
24.6739234661
 20
-8.122842503
 30
0.0
 10
24.6755037302
 20
-8.1441381029
 30
0.0
 11
24.6646960243
 21
-7.1990150546
 31
0.0
 11
24.6651453782
 21
-7.4220028884
 31
0.0
 11
24.6662377304
 21
-7.6316190943
 31
0.0
 11
24.6679173601
 21
-7.8171809296
 31
0.0
 11
24.6700988595
 21
-7.9692649809
 31
0.0
 11
24.6726712259
 21
-8.0801382966
 31
0.0
 11
24.6755037302
 21
-8.1441381029
 31
0.0
  0
SPLINE
  5
2D8
100
AcDbEntity
  8
ASSI
100
AcDbSpline
 62
7
  6
CONTINUOUS
 70
0
 71
3
 72
26
 73
22
 74
20
 42
0.0000001
 43
0.0000001
 44
0.0000000001
 12
7.5245273328
 22
0.0
 32
0.0
 13
-7.5245273328
 23
0.0
 33
0.0
 40
0.0
 40
0.0
 40
0.0
 40
0.0
 40
0.0525110766
 40
0.1050659475
 40
0.1576757335
 40
0.2102146508
 40
0.2628696807
 40
0.3154318125
 40
0.3681645664
 40
0.4207860678
 40
0.473590599
 40
0.5262369109
 40
0.5790389163
 40
0.6316790221
 40
0.6844572014
 40
0.7370664067
 40
0.7897607685
 40
0.8423102194
 40
0.8949163168
 40
0.9474619409
 40
1.0
 40
1.0
 40
1.0
 40
1.0
 10
12.7092611556
 20
7.4594979044
 30
0.0
 10
12.840968166
 20
7.4594979044
 30
0.0
 10
13.1050012762
 20
7.4378361351
 30
0.0
 10
13.4902219266
 20
7.3411312143
 30
0.0
 10
13.8546187641
 20
7.1826734248
 30
0.0
 10
14.1883200163
 20
6.9665334363
 30
0.0
 10
14.4819336826
 20
6.6985991842
 30
0.0
 10
14.7277383572
 20
6.3856080874
 30
0.0
 10
14.9184739062
 20
6.0363870994
 30
0.0
 10
15.048987641
 20
5.6598464444
 30
0.0
 10
15.1152214097
 20
5.2670693789
 30
0.0
 10
15.1153388358
 20
4.8683070749
 30
0.0
 10
15.0493292173
 20
4.4754512349
 30
0.0
 10
14.9189704947
 20
4.0986911203
 30
0.0
 10
14.7282477423
 20
3.7491398944
 30
0.0
 10
14.4823166233
 20
3.4358210925
 30
0.0
 10
14.1885485634
 20
3.1676890555
 30
0.0
 10
13.8547532067
 20
2.951479083
 30
0.0
 10
13.4903638389
 20
2.793020147
 30
0.0
 10
13.1051141406
 20
2.6962907683
 30
0.0
 10
12.8410358427
 20
2.6746167628
 30
0.0
 10
12.7092611556
 20
2.6746167628
 30
0.0
 11
12.7092611556
 21
7.4594979044
 31
0.0
 11
13.1030566379
 21
7.4271598849
 31
0.0
 11
13.4866084684
 21
7.3308835093
 31
0.0
 11
13.8496237022
 21
7.1729972626
 31
0.0
 11
14.1814232442
 21
6.9580663828
 31
0.0
 11
14.4740704302
 21
6.6909795014
 31
0.0
 11
14.718331532
 21
6.3799153997
 31
0.0
 11
14.9085093445
 21
6.0316713067
 31
0.0
 11
15.0381677895
 21
5.6575501838
 31
0.0
 11
15.1042279341
 21
5.2657511259
 31
0.0
 11
15.1043442453
 21
4.8696125305
 31
0.0
 11
15.0385168914
 21
4.477793566
 31
0.0
 11
14.9090171517
 21
4.1034693449
 31
0.0
 11
14.7188238713
 21
3.7548442876
 31
0.0
 11
14.4744247605
 21
3.443438216
 31
0.0
 11
14.181587644
 21
3.1761204182
 31
0.0
 11
13.84972607
 21
2.9611395132
 31
0.0
 11
13.4867381582
 21
2.8032600385
 31
0.0
 11
13.1032579388
 21
2.7069841604
 31
0.0
 11
12.7092611556
 21
2.6746167628
 31
0.0
  0
SPLINE
  5
2D9
100
AcDbEntity
  8
RACCORDO
100
AcDbSpline
 62
253
  6
CONTINUOUS
 70
0
 71
3
 72
11
 73
7
 74
5
 42
0.0000001
 43
0.0000001
 44
0.0000000001
 12
-0.0432841549
 22
-0.2455514343
 32
0.0
 13
0.2455491793
 23
-0.0432969454
 33
0.0
 40
0.0
 40
0.0
 40
0.0
 40
0.0
 40
0.3827689169
 40
0.7070452555
 40
0.9236831927
 40
1.0
 40
1.0
 40
1.0
 40
1.0
 10
-12.1899330177
 20
-7.8979361646
 30
0.0
 10
-12.1954556274
 20
-7.9292659835
 30
0.0
 10
-12.2035594508
 20
-7.9855529379
 30
0.0
 10
-12.2228385027
 20
-8.0669857561
 30
0.0
 10
-12.2173565346
 20
-8.1064432034
 30
0.0
 10
-12.2352284703
 20
-8.1430366747
 30
0.0
 10
-12.2289819605
 20
-8.1441381029
 30
0.0
 11
-12.1899330177
 21
-7.8979361646
 31
0.0
 11
-12.206179863
 21
-7.9919816373
 31
0.0
 11
-12.21930097
 21
-8.0717640245
 31
0.0
 11
-12.2273063714
 21
-8.1251834027
 31
0.0
 11
-12.2289819605
 21
-8.1441381029
 31
0.0
  0
SPLINE
  5
2DA
100
AcDbEntity
  8
RACCORDO
100
AcDbSpline
 62
253
  6
CONTINUOUS
 70
0
 71
3
 72
12
 73
8
 74
6
 42
0.0000001
 43
0.0000001
 44
0.0000000001
 12
-0.0043623064
 22
0.2499925102
 32
0.0
 13
0.2499924871
 23
0.0043636351
 33
0.0
 40
0.0
 40
0.0
 40
0.0
 40
0.0
 40
0.3098605754
 40
0.5892143267
 40
0.8103234085
 40
0.9518389381
 40
1.0
 40
1.0
 40
1.0
 40
1.0
 10
-13.143345498
 20
9.1165851384
 30
0.0
 10
-13.143796067
 20
9.1424060794
 30
0.0
 10
-13.1449055429
 20
9.1919755552
 30
0.0
 10
-13.1440417527
 20
9.2577067471
 30
0.0
 10
-13.1478786255
 20
9.3158114569
 30
0.0
 10
-13.1403365901
 20
9.3413047805
 30
0.0
 10
-13.1473587993
 20
9.3664770097
 30
0.0
 10
-13.143345498
 20
9.3665470621
 30
0.0
 11
-13.143345498
 21
9.1165851384
 31
0.0
 11
-13.1444824484
 21
9.1940514111
 31
0.0
 11
-13.1450778398
 21
9.2638958505
 31
0.0
 11
-13.1450732465
 21
9.3191798796
 31
0.0
 11
-13.1444700077
 21
9.3545579452
 31
0.0
 11
-13.143345498
 21
9.3665470621
 31
0.0
  0
SPLINE
  5
2DB
100
AcDbEntity
  8
ASSI
100
AcDbSpline
 62
253
  6
CONTINUOUS
 70
0
 71
3
 72
11
 73
7
 74
5
 42
0.0000001
 43
0.0000001
 44
0.0000000001
 12
-0.0432841549
 22
-0.2455514343
 32
0.0
 13
0.2455491793
 23
-0.0432969454
 33
0.0
 40
0.0
 40
0.0
 40
0.0
 40
0.0
 40
0.3827689169
 40
0.7070452555
 40
0.9236831927
 40
1.0
 40
1.0
 40
1.0
 40
1.0
 10
-12.1899330177
 20
-7.8979361646
 30
0.0
 10
-12.1954556274
 20
-7.9292659835
 30
0.0
 10
-12.2035594508
 20
-7.9855529379
 30
0.0
 10
-12.2228385027
 20
-8.0669857561
 30
0.0
 10
-12.2173565346
 20
-8.1064432034
 30
0.0
 10
-12.2352284703
 20
-8.1430366747
 30
0.0
 10
-12.2289819605
 20
-8.1441381029
 30
0.0
 11
-12.1899330177
 21
-7.8979361646
 31
0.0
 11
-12.206179863
 21
-7.9919816373
 31
0.0
 11
-12.21930097
 21
-8.0717640245
 31
0.0
 11
-12.2273063714
 21
-8.1251834027
 31
0.0
 11
-12.2289819605
 21
-8.1441381029
 31
0.0
  0
SPLINE
  5
2DC
100
AcDbEntity
  8
ASSI
100
AcDbSpline
 62
253
  6
CONTINUOUS
 70
0
 71
3
 72
12
 73
8
 74
6
 42
0.0000001
 43
0.0000001
 44
0.0000000001
 12
-0.0043623064
 22
0.2499925102
 32
0.0
 13
0.2499924871
 23
0.0043636351
 33
0.0
 40
0.0
 40
0.0
 40
0.0
 40
0.0
 40
0.3098605754
 40
0.5892143267
 40
0.8103234085
 40
0.9518389381
 40
1.0
 40
1.0
 40
1.0
 40
1.0
 10
-13.143345498
 20
9.1165851384
 30
0.0
 10
-13.143796067
 20
9.1424060794
 30
0.0
 10
-13.1449055429
 20
9.1919755552
 30
0.0
 10
-13.1440417527
 20
9.2577067471
 30
0.0
 10
-13.1478786255
 20
9.3158114569
 30
0.0
 10
-13.1403365901
 20
9.3413047805
 30
0.0
 10
-13.1473587993
 20
9.3664770097
 30
0.0
 10
-13.143345498
 20
9.3665470621
 30
0.0
 11
-13.143345498
 21
9.1165851384
 31
0.0
 11
-13.1444824484
 21
9.1940514111
 31
0.0
 11
-13.1450778398
 21
9.2638958505
 31
0.0
 11
-13.1450732465
 21
9.3191798796
 31
0.0
 11
-13.1444700077
 21
9.3545579452
 31
0.0
 11
-13.143345498
 21
9.3665470621
 31
0.0
  0
ELLIPSE
  5
2DD
100
AcDbEntity
  8
RACCORDO
100
AcDbEllipse
 62
7
  6
CONTINUOUS
 10
0.411006662
 20
8.5094284246
 30
0.0
 11
0.0
 21
0.3
 31
0.0
 40
0.0174550649
 41
-3.1241393611
 42
-1.5707963268
  0
ELLIPSE
  5
2DE
100
AcDbEntity
  8
RACCORDO
100
AcDbEllipse
 62
7
  6
CONTINUOUS
 10
25.0075156491
 20
8.5094284246
 30
0.0
 11
-0.0
 21
0.3
 31
0.0
 40
0.0174550649
 41
-4.7123889804
 42
-3.1590459461
  0
ELLIPSE
  5
2DF
100
AcDbEntity
  8
RACCORDO
100
AcDbEllipse
 62
7
  6
CONTINUOUS
 10
0.6662812635
 20
9.2099643325
 30
0.0
 11
0.1768305473
 21
-0.1768305473
 31
0.0
 40
0.9996954599
 41
2.3563467834
 42
3.9268385237
  0
ELLIPSE
  5
2E0
100
AcDbEntity
  8
RACCORDO
100
AcDbEllipse
 62
7
  6
CONTINUOUS
 10
24.7522410476
 20
9.2099643325
 30
0.0
 11
0.1768305473
 21
0.1768305473
 31
0.0
 40
0.9996954599
 41
-0.7852458701
 42
0.7852458701
  0
ELLIPSE
  5
2E1
100
AcDbEntity
  8
RACCORDO
100
AcDbEllipse
 62
7
  6
CONTINUOUS
 10
24.7457300656
 20
-8.7762600497
 30
0.0
 11
0.2183310446
 21
0.1221043275
 31
0.0
 40
0.9980297029
 41
-2.0815635429
 42
-0.5109195151
  0
ELLIPSE
  5
2E2
100
AcDbEntity
  8
RACCORDO
100
AcDbEllipse
 62
7
  6
CONTINUOUS
 10
0.6727922455
 20
-8.7762600497
 30
0.0
 11
0.2183310446
 21
-0.1221043275
 31
0.0
 40
0.9980297029
 41
-2.6306731384
 42
-1.0600291107
  0
ELLIPSE
  5
2E3
100
AcDbEntity
  8
RACCORDO
100
AcDbEllipse
 62
7
  6
CONTINUOUS
 10
0.685481835
 20
-8.4791589065
 30
0.0
 11
0.0250113895
 21
0.2526592035
 31
0.0
 40
0.9846622838
 41
-4.6121910857
 42
-3.0444253421
  0
ELLIPSE
  5
2E4
100
AcDbEntity
  8
RACCORDO
100
AcDbEllipse
 62
7
  6
CONTINUOUS
 10
0.685481835
 20
-8.7699157382
 30
0.0
 11
0.2236527791
 21
0.1118178731
 31
0.0
 40
0.9998096356
 41
2.6780516535
 42
4.2486956813
  0
ELLIPSE
  5
2E5
100
AcDbEntity
  8
RACCORDO
100
AcDbEllipse
 62
7
  6
CONTINUOUS
 10
24.7330404762
 20
-8.7699157382
 30
0.0
 11
0.2236527791
 21
-0.1118178731
 31
0.0
 40
0.9998096356
 41
-1.1071030277
 42
0.4635410001
  0
ELLIPSE
  5
2E6
100
AcDbEntity
  8
RACCORDO
100
AcDbEllipse
 62
7
  6
CONTINUOUS
 10
24.7330404762
 20
-8.4791589065
 30
0.0
 11
-0.0250113895
 21
0.2526592035
 31
0.0
 40
0.9846622838
 41
-3.2387599651
 42
-1.6709942215
  0
ELLIPSE
  5
2E7
100
AcDbEntity
  8
ASSI
100
AcDbEllipse
 62
7
  6
CONTINUOUS
 10
0.411006662
 20
8.5094284246
 30
0.0
 11
0.0
 21
0.3
 31
0.0
 40
0.0174550649
 41
-3.1241393611
 42
-1.5707963268
  0
ELLIPSE
  5
2E8
100
AcDbEntity
  8
ASSI
100
AcDbEllipse
 62
7
  6
CONTINUOUS
 10
25.0075156491
 20
8.5094284246
 30
0.0
 11
-0.0
 21
0.3
 31
0.0
 40
0.0174550649
 41
-4.7123889804
 42
-3.1590459461
  0
ELLIPSE
  5
2E9
100
AcDbEntity
  8
ASSI
100
AcDbEllipse
 62
7
  6
CONTINUOUS
 10
0.6662812635
 20
9.2099643325
 30
0.0
 11
0.1768305473
 21
-0.1768305473
 31
0.0
 40
0.9996954599
 41
2.3563467834
 42
3.9268385237
  0
ELLIPSE
  5
2EA
100
AcDbEntity
  8
ASSI
100
AcDbEllipse
 62
7
  6
CONTINUOUS
 10
24.7522410476
 20
9.2099643325
 30
0.0
 11
0.1768305473
 21
0.1768305473
 31
0.0
 40
0.9996954599
 41
-0.7852458701
 42
0.7852458701
  0
ELLIPSE
  5
2EB
100
AcDbEntity
  8
ASSI
100
AcDbEllipse
 62
7
  6
CONTINUOUS
 10
24.7457300656
 20
-8.7762600497
 30
0.0
 11
0.2183310446
 21
0.1221043275
 31
0.0
 40
0.9980297029
 41
-2.0815635429
 42
-0.5109195151
  0
ELLIPSE
  5
2EC
100
AcDbEntity
  8
ASSI
100
AcDbEllipse
 62
7
  6
CONTINUOUS
 10
0.6727922455
 20
-8.7762600497
 30
0.0
 11
0.2183310446
 21
-0.1221043275
 31
0.0
 40
0.9980297029
 41
-2.6306731384
 42
-1.0600291107
  0
ELLIPSE
  5
2ED
100
AcDbEntity
  8
ASSI
100
AcDbEllipse
 62
7
  6
CONTINUOUS
 10
0.685481835
 20
-8.7699157382
 30
0.0
 11
0.2236527791
 21
0.1118178731
 31
0.0
 40
0.9998096356
 41
2.6780516535
 42
4.2486956813
  0
ELLIPSE
  5
2EE
100
AcDbEntity
  8
ASSI
100
AcDbEllipse
 62
7
  6
CONTINUOUS
 10
24.7330404762
 20
-8.7699157382
 30
0.0
 11
0.2236527791
 21
-0.1118178731
 31
0.0
 40
0.9998096356
 41
-1.1071030277
 42
0.4635410001
  0
ELLIPSE
  5
2EF
100
AcDbEntity
  8
ASSI
100
AcDbEllipse
 62
7
  6
CONTINUOUS
 10
0.685481835
 20
-8.4791589065
 30
0.0
 11
0.0250113895
 21
0.2526592035
 31
0.0
 40
0.9846622838
 41
-4.6121910857
 42
-3.0444253421
  0
ELLIPSE
  5
2F0
100
AcDbEntity
  8
ASSI
100
AcDbEllipse
 62
7
  6
CONTINUOUS
 10
24.7330404762
 20
-8.4791589065
 30
0.0
 11
-0.0250113895
 21
0.2526592035
 31
0.0
 40
0.9846622838
 41
-3.2387599651
 42
-1.6709942215
  0
ELLIPSE
  5
2F1
100
AcDbEntity
  8
CURVE
100
AcDbEllipse
 62
253
  6
CONTINUOUS
 10
411.6106609944
 20
9.6669844405
 30
0.0
 11
413.6308205238
 21
-97.6449912326
 31
0.0
 40
1.0
 41
-2.8826513845
 42
-2.8788299115
  0
ELLIPSE
  5
2F2
100
AcDbEntity
  8
CURVE
100
AcDbEllipse
 62
253
  6
CONTINUOUS
 10
411.6106609944
 20
9.6669844405
 30
0.0
 11
422.9316638339
 21
41.8784876358
 31
0.0
 40
1.0
 41
3.0700123383
 42
3.0738338113
  0
ELLIPSE
  5
2F3
100
AcDbEntity
  8
CURVE
100
AcDbEllipse
 62
253
  6
CONTINUOUS
 10
411.6106609944
 20
9.6669844405
 30
0.0
 11
419.5121694959
 21
68.077453278
 31
0.0
 40
1.0
 41
3.011656314
 42
3.0146062156
  0
ELLIPSE
  5
2F4
100
AcDbEntity
  8
CURVE
100
AcDbEllipse
 62
253
  6
CONTINUOUS
 10
411.6106609944
 20
9.6669844405
 30
0.0
 11
425.0
 21
-0.0
 31
0.0
 40
1.0
 41
3.1725315912
 42
3.1754814928
  0
ENDSEC
  0
SECTION
  2
OBJECTS
  0
DICTIONARY
  5
C
100
AcDbDictionary
280
0
281
1
  3
ACAD_GROUP
350
D
  3
ACAD_MLINESTYLE
350
17
  3
ACAD_LAYOUT
350
1A
  3
ACAD_PLOTSETTINGS
350
19
  3
ACAD_PLOTSTYLENAME
350
E
  0
DICTIONARY
  5
D
102
{ACAD_REACTORS
330
C
102
}
100
AcDbDictionary
280
0
281
1
  0
ACDBDICTIONARYWDFLT
  5
E
102
{ACAD_REACTORS
330
C
102
}
100
AcDbDictionary
281
1
  3
Normal
350
F
100
AcDbDictionaryWithDefault
340
F
  0
DICTIONARY
  5
17
102
{ACAD_REACTORS
330
C
102
}
100
AcDbDictionary
280
0
281
1
  3
Standard
350
18
  0
DICTIONARY
  5
19
102
{ACAD_REACTORS
330
C
102
}
100
AcDbDictionary
281
1
  0
DICTIONARY
  5
1A
102
{ACAD_REACTORS
330
C
102
}
100
AcDbDictionary
281
1
  3
Model
350
2F5
  3
Layout1
350
2F6
  0
ACDBPLACEHOLDER
  5
F
102
{ACAD_REACTORS
330
E
102
}
  0
MLINESTYLE
  5
18
102
{ACAD_REACTORS
330
17
102
}
100
AcDbMlineStyle
  2
STANDARD
 70
0
  3

 62
256
 51
90.0
 52
90.0
 71
2
 49
0.5
 62
256
  6
BYLAYER
 49
-0.5
 62
256
  6
BYLAYER
  0
LAYOUT
  5
2F5
102
{ACAD_REACTORS
330
1A
102
}
100
AcDbPlotSettings
  1

  2
none_device
  4
ISO_A4_(297.00_x_210.00_MM)
  6

 40
0.0
 41
0.0
 42
0.0
 43
0.0
 44
297.0
 45
210.0
 46
0.0
 47
0.0
 48
0.0
 49
0.0
140
0.0
141
0.0
142
1.0
143
1.0
 70
1024
 72
1
 73
0
 74
0
  7

 75
0
147
1.0
148
0.0
149
0.0
100
AcDbLayout
  1
Model
 70
0
 71
0
 10
0.0
 20
0.0
 11
297.0
 21
210.0
 12
0.0
 22
0.0
 32
0.0
 14
0.0
 24
0.0
 34
0.0
 15
0.0
 25
0.0
 35
0.0
146
0.0
 13
0.0
 23
0.0
 33
0.0
 16
1.0
 26
0.0
 36
0.0
 17
0.0
 27
1.0
 37
0.0
 76
0
330
212
345
0
346
0
  0
LAYOUT
  5
2F6
102
{ACAD_REACTORS
330
1A
102
}
100
AcDbPlotSettings
  1

  2
none_device
  4
ISO_A4_(297.00_x_210.00_MM)
  6

 40
0.0
 41
0.0
 42
0.0
 43
0.0
 44
297.0
 45
210.0
 46
0.0
 47
0.0
 48
0.0
 49
0.0
140
0.0
141
0.0
142
1.0
143
1.0
 70
0
 72
1
 73
0
 74
0
  7

 75
0
147
1.0
148
0.0
149
0.0
100
AcDbLayout
  1
Layout1
 70
0
 71
1
 10
0.0
 20
0.0
 11
297.0
 21
210.0
 12
0.0
 22
0.0
 32
0.0
 14
0.0
 24
0.0
 34
0.0
 15
0.0
 25
0.0
 35
0.0
146
0.0
 13
0.0
 23
0.0
 33
0.0
 16
1.0
 26
0.0
 36
0.0
 17
0.0
 27
1.0
 37
0.0
 76
0
330
213
345
0
346
0
  0
ENDSEC
  0
EOF
