  0
SECTION
  2
HEADER
  9
$ACADVER
  1
AC1015
  9
$DWGCODEPAGE
  3
ANSI_1252
  9
$EXTMAX
 10
297.0
 20
210.0
 30
0.0
  9
$EXTMIN
 10
0.0
 20
0.0
 30
0.0
  9
$LIMMIN
 10
0.0
 20
0.0
  9
$LIMMAX
 10
297.0
 20
210.0
  9
$VIEWCTR
 10
148.5
 20
105.0
  9
$VIEWSIZE
 40
210.0
  9
$CLAYER
  8
0
  9
$LTSCALE
 40
16.335
  9
$CELTYPE
  6
BYLAYER
  9
$DIMSCALE
 40
1.0
  9
$DIMASZ
 40
3.0
  9
$DIMEXO
 40
1.85625
  9
$DIMDLI
 40
11.286
  9
$DIMEXE
 40
5.346
  9
$DIMCEN
 40
2.673
  9
$DIMLFAC
 40
1.0
  9
$DIMBLK
  1
_FILLED
  9
$DIMTXT
 40
3.0
  9
$DIMTOL
 70
1
  9
$DIMLIM
 70
0
  9
$DIMTFAC
 40
1.0
  9
$DIMTP
 40
0.01
  9
$DIMTM
 40
0.01
  9
$PDMODE
 70
3
  9
$PDSIZE
 40
3.0
  9
$HANDSEED
  5
300
  9
$TILEMODE
 70
1
  9
$MEASUREMENT
 70
1
  9
$INSUNITS
 70
4
  0
ENDSEC
  0
SECTION
  2
CLASSES
  0
CLASS
  1
ACDBDICTIONARYWDFLT
  2
AcDbDictionaryWithDefault
  3
AutoCAD 2000
 90
0
280
0
281
0
  0
CLASS
  1
ACDBPLACEHOLDER
  2
AcDbPlaceHolder
  3
AutoCAD 2000
 90
0
280
0
281
0
  0
CLASS
  1
LAYOUT
  2
AcDbLayout
  3
AutoCAD 2000
 90
0
280
0
281
0
  0
ENDSEC
  0
SECTION
  2
TABLES
  0
TABLE
  2
VPORT
  5
8
100
AcDbSymbolTable
 70
2
  0
VPORT
  5
1F4
100
AcDbSymbolTableRecord
100
AcDbViewportTableRecord
  2
*ACTIVE
 70
0
 10
0.0
 20
0.0
 11
1.0
 21
1.0
 12
148.5
 22
105.0
 13
0.0
 23
0.0
 14
1.0
 24
1.0
 15
0.0
 25
0.0
 16
0.0
 26
0.0
 36
1.0
 17
0.0
 27
0.0
 37
0.0
 40
210.0
 41
1.4142857143
 42
50.0
 43
0.0
 44
0.0
 50
0.0
 51
0.0
 71
0
 72
100
 73
1
 74
1
 75
0
 76
0
 77
0
 78
0
  0
ENDTAB
  0
TABLE
  2
LTYPE
  5
5
100
AcDbSymbolTable
 70
6
  0
LTYPE
  5
14
100
AcDbSymbolTableRecord
100
AcDbLinetypeTableRecord
  2
BYBLOCK
 70
0
  3

 72
65
 73
0
 40
0.0
  0
LTYPE
  5
15
100
AcDbSymbolTableRecord
100
AcDbLinetypeTableRecord
  2
BYLAYER
 70
0
  3

 72
65
 73
0
 40
0.0
  0
LTYPE
  5
16
100
AcDbSymbolTableRecord
100
AcDbLinetypeTableRecord
  2
CONTINUOUS
 70
64
  3
Solid line
 72
65
 73
0
 40
0.0
  0
LTYPE
  5
1F5
100
AcDbSymbolTableRecord
100
AcDbLinetypeTableRecord
  2
CENTER
 70
64
  3
____ _ ____ _ ____ _ ____ _ ____ _ ____ _ ____
 72
65
 73
4
 40
0.6
 49
0.375
 74
0
 49
-0.075
 74
0
 49
0.075
 74
0
 49
-0.075
 74
0
  0
LTYPE
  5
1F6
100
AcDbSymbolTableRecord
100
AcDbLinetypeTableRecord
  2
HIDDEN
 70
64
  3
- - - - - - - - - - - - - - - - - - - -
 72
65
 73
2
 40
0.2
 49
0.1
 74
0
 49
-0.1
 74
0
  0
LTYPE
  5
1F7
100
AcDbSymbolTableRecord
100
AcDbLinetypeTableRecord
  2
PHANTOM
 70
64
  3
_____ _ _ _____ _ _ _____ _ _ _____
 72
65
 73
6
 40
0.8
 49
0.45
 74
0
 49
-0.05
 74
0
 49
0.1
 74
0
 49
-0.05
 74
0
 49
0.1
 74
0
 49
-0.05
 74
0
  0
LTYPE
  5
1F8
100
AcDbSymbolTableRecord
100
AcDbLinetypeTableRecord
  2
DOT
 70
64
  3
. . . . . . . . . . . . . . . . . . . .
 72
65
 73
2
 40
0.2
 49
0.1
 74
0
 49
-0.1
 74
0
  0
LTYPE
  5
1F9
100
AcDbSymbolTableRecord
100
AcDbLinetypeTableRecord
  2
DASHED
 70
64
  3
- - - - - - - - - - - - - - - - - - - -
 72
65
 73
2
 40
0.2
 49
0.1
 74
0
 49
-0.1
 74
0
  0
ENDTAB
  0
TABLE
  2
LAYER
  5
2
100
AcDbSymbolTable
 70
36
  0
LAYER
  5
10
100
AcDbSymbolTableRecord
100
AcDbLayerTableRecord
  2
0
 70
0
 62
7
  6
CONTINUOUS
370
-3
390
F
  0
LAYER
  5
1FA
100
AcDbSymbolTableRecord
100
AcDbLayerTableRecord
  2
DEFAULT_1
 70
0
 62
7
  6
CENTER
370
-3
390
F
  0
LAYER
  5
1FB
100
AcDbSymbolTableRecord
100
AcDbLayerTableRecord
  2
DEFAULT_2
 70
0
 62
7
  6
HIDDEN
370
-3
390
F
  0
LAYER
  5
1FC
100
AcDbSymbolTableRecord
100
AcDbLayerTableRecord
  2
DEFAULT_3
 70
0
 62
7
  6
PHANTOM
370
-3
390
F
  0
LAYER
  5
1FD
100
AcDbSymbolTableRecord
100
AcDbLayerTableRecord
  2
ASSI
 70
0
 62
7
  6
CONTINUOUS
370
-3
390
F
  0
LAYER
  5
1FE
100
AcDbSymbolTableRecord
100
AcDbLayerTableRecord
  2
COORDINATE
 70
0
 62
7
  6
CONTINUOUS
370
-3
390
F
  0
LAYER
  5
1FF
100
AcDbSymbolTableRecord
100
AcDbLayerTableRecord
  2
COORD_ORIGINE
 70
0
 62
7
  6
CONTINUOUS
370
-3
390
F
  0
LAYER
  5
200
100
AcDbSymbolTableRecord
100
AcDbLayerTableRecord
  2
COPY_PUBLISH
 70
0
 62
7
  6
CONTINUOUS
370
-3
390
F
  0
LAYER
  5
201
100
AcDbSymbolTableRecord
100
AcDbLayerTableRecord
  2
COSMETIC
 70
0
 62
7
  6
CONTINUOUS
370
-3
390
F
  0
LAYER
  5
202
100
AcDbSymbolTableRecord
100
AcDbLayerTableRecord
  2
CURVE
 70
0
 62
7
  6
CONTINUOUS
370
-3
390
F
  0
LAYER
  5
203
100
AcDbSymbolTableRecord
100
AcDbLayerTableRecord
  2
DRAFT
 70
0
 62
7
  6
CONTINUOUS
370
-3
390
F
  0
LAYER
  5
204
100
AcDbSymbolTableRecord
100
AcDbLayerTableRecord
  2
IGES
 70
0
 62
7
  6
CONTINUOUS
370
-3
390
F
  0
LAYER
  5
205
100
AcDbSymbolTableRecord
100
AcDbLayerTableRecord
  2
IMPORT_IGES
 70
0
 62
7
  6
CONTINUOUS
370
-3
390
F
  0
LAYER
  5
206
100
AcDbSymbolTableRecord
100
AcDbLayerTableRecord
  2
INTF_12
 70
0
 62
7
  6
CONTINUOUS
370
-3
390
F
  0
LAYER
  5
207
100
AcDbSymbolTableRecord
100
AcDbLayerTableRecord
  2
INTF_9
 70
0
 62
7
  6
CONTINUOUS
370
-3
390
F
  0
LAYER
  5
208
100
AcDbSymbolTableRecord
100
AcDbLayerTableRecord
  2
NOTE
 70
0
 62
7
  6
CONTINUOUS
370
-3
390
F
  0
LAYER
  5
209
100
AcDbSymbolTableRecord
100
AcDbLayerTableRecord
  2
PIANI
 70
0
 62
7
  6
CONTINUOUS
370
-3
390
F
  0
LAYER
  5
20A
100
AcDbSymbolTableRecord
100
AcDbLayerTableRecord
  2
PIANI_ORIGINE
 70
0
 62
7
  6
CONTINUOUS
370
-3
390
F
  0
LAYER
  5
20B
100
AcDbSymbolTableRecord
100
AcDbLayerTableRecord
  2
RACCORDO
 70
0
 62
7
  6
CONTINUOUS
370
-3
390
F
  0
LAYER
  5
20C
100
AcDbSymbolTableRecord
100
AcDbLayerTableRecord
  2
SMUSSO
 70
0
 62
7
  6
CONTINUOUS
370
-3
390
F
  0
LAYER
  5
20D
100
AcDbSymbolTableRecord
100
AcDbLayerTableRecord
  2
SNAPLINE
 70
0
 62
7
  6
CONTINUOUS
370
-3
390
F
  0
LAYER
  5
20E
100
AcDbSymbolTableRecord
100
AcDbLayerTableRecord
  2
SUPERFICI
 70
0
 62
7
  6
CONTINUOUS
370
-3
390
F
  0
LAYER
  5
20F
100
AcDbSymbolTableRecord
100
AcDbLayerTableRecord
  2
TRASH
 70
0
 62
7
  6
CONTINUOUS
370
-3
390
F
  0
ENDTAB
  0
TABLE
  2
STYLE
  5
3
100
AcDbSymbolTable
 70
1
  0
STYLE
  5
11
100
AcDbSymbolTableRecord
100
AcDbTextStyleTableRecord
  2
STANDARD
 70
0
 40
0.0
 41
0.8
 50
0.0
 71
0
 42
0.2
  3
txt
  4

  0
STYLE
  5
210
100
AcDbSymbolTableRecord
100
AcDbTextStyleTableRecord
  2
TEXTSTYLE_1
 70
0
 40
0.0
 41
0.8
 50
0.0
 71
0
 42
0.2
  3
gdt
  4

  0
ENDTAB
  0
TABLE
  2
VIEW
  5
6
100
AcDbSymbolTable
 70
0
  0
ENDTAB
  0
TABLE
  2
UCS
  5
7
100
AcDbSymbolTable
 70
0
  0
ENDTAB
  0
TABLE
  2
APPID
  5
9
100
AcDbSymbolTable
 70
1
  0
APPID
  5
211
100
AcDbSymbolTableRecord
100
AcDbRegAppTableRecord
  2
ACAD
 70
0
  0
ENDTAB
  0
TABLE
  2
BLOCK_RECORD
  5
1
100
AcDbSymbolTable
 70
0
  0
BLOCK_RECORD
  5
212
100
AcDbSymbolTableRecord
100
AcDbBlockTableRecord
  2
*Model_Space
  0
BLOCK_RECORD
  5
213
100
AcDbSymbolTableRecord
100
AcDbBlockTableRecord
  2
*Paper_Space
  0
BLOCK_RECORD
  5
214
100
AcDbSymbolTableRecord
100
AcDbBlockTableRecord
  2
_FILLED
  0
BLOCK_RECORD
  5
215
100
AcDbSymbolTableRecord
100
AcDbBlockTableRecord
  2
*D0
  0
BLOCK_RECORD
  5
216
100
AcDbSymbolTableRecord
100
AcDbBlockTableRecord
  2
*D1
  0
BLOCK_RECORD
  5
217
100
AcDbSymbolTableRecord
100
AcDbBlockTableRecord
  2
*D2
  0
ENDTAB
  0
TABLE
  2
DIMSTYLE
  5
A
100
AcDbSymbolTable
 70
1
100
AcDbDimStyleTable
 71
0
  0
DIMSTYLE
105
218
100
AcDbSymbolTableRecord
100
AcDbDimStyleTableRecord
  2
STANDARD
 70
0
  3

  4

 40
1.0
 41
3.0
 42
0.0625
 43
0.38
 44
0.18
 45
0.0
 46
0.0
 47
0.01
 48
0.01
140
3.0
141
0.09
142
0.0
143
25.4
144
1.0
145
0.0
146
1.0
147
0.09
 71
1.0
 72
0.0
 73
0
 74
0
 75
0
 76
0
 77
1
 78
8
170
0
171
2
172
0
173
0
174
0
175
0
176
0
177
0
178
0
270
2
271
2
272
2
273
2
274
2
275
0
280
0
281
0
282
0
283
1
284
8
285
0
286
0
287
3
288
0
340
11
341
214
342
214
343
214
344
214
  0
DIMSTYLE
105
219
100
AcDbSymbolTableRecord
100
AcDbDimStyleTableRecord
  2
DIMSTYLE_1
 70
0
  3

  4

 40
1.0
 41
3.0
 42
0.0625
 43
0.38
 44
0.18
 45
0.0
 46
0.0
 47
0.0
 48
0.0
140
3.0
141
0.09
142
0.0
143
25.4
144
1.0
145
0.0
146
1.0
147
0.09
 71
0.0
 72
0.0
 73
0
 74
0
 75
0
 76
0
 77
1
 78
8
170
0
171
2
172
0
173
0
174
0
175
0
176
0
177
0
178
0
270
2
271
2
272
2
273
2
274
2
275
0
280
0
281
0
282
0
283
1
284
8
285
0
286
0
287
3
288
0
340
11
341
214
342
214
343
214
344
214
  0
DIMSTYLE
105
21A
100
AcDbSymbolTableRecord
100
AcDbDimStyleTableRecord
  2
DIMSTYLE_2
 70
0
  3

  4

 40
1.0
 41
3.0
 42
0.0625
 43
0.38
 44
0.18
 45
0.0
 46
0.0
 47
0.0
 48
0.0
140
3.0
141
0.09
142
0.0
143
25.4
144
1.0
145
0.0
146
1.0
147
0.09
 71
0.0
 72
0.0
 73
0
 74
0
 75
0
 76
0
 77
1
 78
8
170
0
171
2
172
0
173
0
174
0
175
0
176
0
177
0
178
0
270
2
271
1
272
1
273
2
274
2
275
0
280
0
281
0
282
0
283
1
284
8
285
0
286
0
287
3
288
0
340
11
341
214
342
214
343
214
344
214
  0
ENDTAB
  0
ENDSEC
  0
SECTION
  2
BLOCKS
  0
BLOCK
  5
20
100
AcDbEntity
  8
0
100
AcDbBlockBegin
  2
*Model_Space
 70
0
 10
0.0
 20
0.0
 30
0.0
  3
*Model_Space
  1

  0
ENDBLK
  5
21
100
AcDbEntity
  8
0
100
AcDbBlockEnd
  0
BLOCK
  5
1C
100
AcDbEntity
  8
0
100
AcDbBlockBegin
  2
*Paper_Space
 70
0
 10
0.0
 20
0.0
 30
0.0
  3
*Paper_Space
  1

  0
ENDBLK
  5
1D
100
AcDbEntity
  8
0
100
AcDbBlockEnd
  0
BLOCK
  5
21B
100
AcDbEntity
  8
0
100
AcDbBlockBegin
  2
_FILLED
 70
64
 10
0.0
 20
0.0
  3
_FILLED
  1

  0
SOLID
  5
21C
100
AcDbEntity
  8
0
  6
BYBLOCK
 62
0
100
AcDbTrace
 10
0.0
 20
0.0
 11
-1.0
 21
0.3166666667
 12
-1.0
 22
-0.3166666667
 13
-1.0
 23
-0.3166666667
  0
ENDBLK
  5
21D
100
AcDbEntity
  8
0
  6
BYBLOCK
 62
0
100
AcDbBlockEnd
  0
BLOCK
  5
21E
100
AcDbEntity
  8
0
100
AcDbBlockBegin
 62
7
  6
CONTINUOUS
  2
*D0
 70
65
 10
0.0
 20
0.0
  3
*D0
  1

  0
MTEXT
  5
21F
100
AcDbEntity
  8
0
100
AcDbMText
 62
7
  6
CONTINUOUS
  7
STANDARD
 71
2
 72
1
 10
10.9893789867
 20
21.0137350367
 30
0.0
 11
1.0
 21
0.0
 31
0.0
 44
0.9
  1
24,6
 40
3.0
 41
8.7857142857
  0
LINE
  5
220
100
AcDbEntity
  8
0
100
AcDbLine
 62
7
  6
CONTINUOUS
 10
23.2893789867
 20
8.5113698419
 11
23.2893789867
 21
18.7637350367
  0
LINE
  5
221
100
AcDbEntity
  8
0
100
AcDbLine
 62
7
  6
CONTINUOUS
 10
-1.3106210133
 20
8.5113698419
 11
-1.3106210133
 21
18.7637350367
  0
LINE
  5
222
100
AcDbEntity
  8
0
100
AcDbLine
 62
7
  6
CONTINUOUS
 10
23.2893789867
 20
17.2637350367
 11
10.9893789867
 21
17.2637350367
  0
LINE
  5
223
100
AcDbEntity
  8
0
100
AcDbLine
 62
7
  6
CONTINUOUS
 10
-1.3106210133
 20
17.2637350367
 11
10.9893789867
 21
17.2637350367
  0
INSERT
  5
224
100
AcDbEntity
  8
0
100
AcDbBlockReference
 62
7
  6
CONTINUOUS
  2
_FILLED
 10
23.2893789867
 20
17.2637350367
 41
3.0
 42
3.0
 43
3.0
  0
INSERT
  5
225
100
AcDbEntity
  8
0
100
AcDbBlockReference
 62
7
  6
CONTINUOUS
  2
_FILLED
 10
-1.3106210133
 20
17.2637350367
 41
3.0
 42
3.0
 43
3.0
 50
180.0
  0
ENDBLK
  5
226
100
AcDbEntity
  8
0
  6
BYBLOCK
 62
0
100
AcDbBlockEnd
  0
BLOCK
  5
227
100
AcDbEntity
  8
0
100
AcDbBlockBegin
 62
7
  6
CONTINUOUS
  2
*D1
 70
65
 10
0.0
 20
0.0
  3
*D1
  1

  0
MTEXT
  5
228
100
AcDbEntity
  8
0
100
AcDbMText
 62
7
  6
CONTINUOUS
  7
STANDARD
 71
2
 72
1
 10
27.5393789867
 20
0.0207143977
 30
0.0
 11
0.0
 21
1.0
 31
0.0
 44
0.9
  1
18,5
 40
3.0
 41
7.9285714286
  0
LINE
  5
229
100
AcDbEntity
  8
0
100
AcDbLine
 62
7
  6
CONTINUOUS
 10
23.5324350369
 20
9.2637350367
 11
32.7893789867
 21
9.2637350367
  0
LINE
  5
22A
100
AcDbEntity
  8
0
100
AcDbLine
 62
7
  6
CONTINUOUS
 10
22.6754245321
 20
-9.2223062414
 11
32.7893789867
 21
-9.2223062414
  0
LINE
  5
22B
100
AcDbEntity
  8
0
100
AcDbLine
 62
7
  6
CONTINUOUS
 10
31.2893789867
 20
9.2637350367
 11
31.2893789867
 21
0.0207143977
  0
LINE
  5
22C
100
AcDbEntity
  8
0
100
AcDbLine
 62
7
  6
CONTINUOUS
 10
31.2893789867
 20
-9.2223062414
 11
31.2893789867
 21
0.0207143977
  0
INSERT
  5
22D
100
AcDbEntity
  8
0
100
AcDbBlockReference
 62
7
  6
CONTINUOUS
  2
_FILLED
 10
31.2893789867
 20
9.2637350367
 41
3.0
 42
3.0
 43
3.0
 50
90.0
  0
INSERT
  5
22E
100
AcDbEntity
  8
0
100
AcDbBlockReference
 62
7
  6
CONTINUOUS
  2
_FILLED
 10
31.2893789867
 20
-9.2223062414
 41
3.0
 42
3.0
 43
3.0
 50
270.0
  0
ENDBLK
  5
22F
100
AcDbEntity
  8
0
  6
BYBLOCK
 62
0
100
AcDbBlockEnd
  0
BLOCK
  5
230
100
AcDbEntity
  8
0
100
AcDbBlockBegin
 62
7
  6
CONTINUOUS
  2
*D2
 70
65
 10
0.0
 20
0.0
  3
*D2
  1

  0
MTEXT
  5
231
100
AcDbEntity
  8
0
100
AcDbMText
 62
7
  6
CONTINUOUS
  7
STANDARD
 71
2
 72
1
 10
-12.95398016
 20
21.0137350367
 30
0.0
 11
1.0
 21
0.0
 31
0.0
 44
0.9
  1
6,5
 40
3.0
 41
6.2142857143
  0
LINE
  5
232
100
AcDbEntity
  8
0
100
AcDbLine
 62
7
  6
CONTINUOUS
 10
-9.7041350401
 20
6.2707170627
 11
-9.7041350401
 21
18.7637350367
  0
LINE
  5
233
100
AcDbEntity
  8
0
100
AcDbLine
 62
7
  6
CONTINUOUS
 10
-16.2038252799
 20
9.4199938057
 11
-16.2038252799
 21
18.7637350367
  0
LINE
  5
234
100
AcDbEntity
  8
0
100
AcDbLine
 62
7
  6
CONTINUOUS
 10
-9.7041350401
 20
17.2637350367
 11
-5.7041350401
 21
17.2637350367
  0
LINE
  5
235
100
AcDbEntity
  8
0
100
AcDbLine
 62
7
  6
CONTINUOUS
 10
-5.7041350401
 20
17.2637350367
 11
-12.95398016
 21
17.2637350367
  0
LINE
  5
236
100
AcDbEntity
  8
0
100
AcDbLine
 62
7
  6
CONTINUOUS
 10
-16.2038252799
 20
17.2637350367
 11
-20.2038252799
 21
17.2637350367
  0
LINE
  5
237
100
AcDbEntity
  8
0
100
AcDbLine
 62
7
  6
CONTINUOUS
 10
-20.2038252799
 20
17.2637350367
 11
-12.95398016
 21
17.2637350367
  0
INSERT
  5
238
100
AcDbEntity
  8
0
100
AcDbBlockReference
 62
7
  6
CONTINUOUS
  2
_FILLED
 10
-9.7041350401
 20
17.2637350367
 41
3.0
 42
3.0
 43
3.0
 50
180.0
  0
INSERT
  5
239
100
AcDbEntity
  8
0
100
AcDbBlockReference
 62
7
  6
CONTINUOUS
  2
_FILLED
 10
-16.2038252799
 20
17.2637350367
 41
3.0
 42
3.0
 43
3.0
  0
ENDBLK
  5
23A
100
AcDbEntity
  8
0
  6
BYBLOCK
 62
0
100
AcDbBlockEnd
  0
ENDSEC
  0
SECTION
  2
ENTITIES
  0
DIMENSION
  5
23B
100
AcDbEntity
  8
0
100
AcDbDimension
 62
7
  6
CONTINUOUS
  2
*D0
 10
-1.3106210133
 20
17.2637350367
 11
6.5965218438
 21
19.5137350367
 70
160
 71
2
 42
24.6
  3
DIMSTYLE_1
100
AcDbAlignedDimension
 13
23.2893789867
 23
8.5113698419
 14
-1.3106210133
 24
8.5113698419
 50
180.0
100
AcDbRotatedDimension
  0
DIMENSION
  5
23C
100
AcDbEntity
  8
0
100
AcDbDimension
 62
7
  6
CONTINUOUS
  2
*D1
 10
31.2893789867
 20
-9.2223062414
 11
30.815670822
 21
-3.5233438045
 70
160
 71
2
 42
18.4860412781
  3
DIMSTYLE_2
100
AcDbAlignedDimension
 13
23.5324350369
 23
9.2637350367
 14
22.6754245321
 24
-9.2223062414
 50
270.0
100
AcDbRotatedDimension
  0
DIMENSION
  5
23D
100
AcDbEntity
  8
0
100
AcDbDimension
 62
7
  6
CONTINUOUS
  2
*D2
 10
-16.2038252799
 20
17.2637350367
 11
-16.0611230171
 21
19.5137350367
 70
160
 71
2
 42
6.4996902397
  3
DIMSTYLE_1
100
AcDbAlignedDimension
 13
-9.7041350401
 23
6.2707170627
 14
-16.2038252799
 24
9.4199938057
 50
180.0
100
AcDbRotatedDimension
  0
LINE
  5
23E
100
AcDbEntity
  8
RACCORDO
100
AcDbLine
 62
7
  6
CONTINUOUS
 10
-1.3106210133
 20
8.0113698419
 11
-1.308784117
 21
8.0132067383
  0
LINE
  5
23F
100
AcDbEntity
  8
ASSI
100
AcDbLine
 62
7
  6
CONTINUOUS
 10
-1.3106210133
 20
8.0113698419
 11
-1.308784117
 21
8.0132067383
  0
LINE
  5
240
100
AcDbEntity
  8
RACCORDO
100
AcDbLine
 62
7
  6
CONTINUOUS
 10
-1.2971279356
 20
-8.9725654688
 11
-1.3106210133
 21
-1.6177913739
  0
LINE
  5
241
100
AcDbEntity
  8
ASSI
100
AcDbLine
 62
7
  6
CONTINUOUS
 10
-1.2971279356
 20
-8.9725654688
 11
-1.3106210133
 21
-1.6177913739
  0
LINE
  5
242
100
AcDbEntity
  8
DRAFT
100
AcDbLine
 62
7
  6
CONTINUOUS
 10
-1.3106210133
 20
8.0113698419
 11
-1.3106210133
 21
-1.6177913739
  0
LINE
  5
243
100
AcDbEntity
  8
ASSI
100
AcDbLine
 62
7
  6
CONTINUOUS
 10
-1.3106210133
 20
8.0113698419
 11
-1.3106210133
 21
-1.6177913739
  0
LINE
  5
244
100
AcDbEntity
  8
RACCORDO
100
AcDbLine
 62
7
  6
CONTINUOUS
 10
-1.3036389874
 20
9.0137731129
 11
-1.3036389874
 21
8.3131610469
  0
LINE
  5
245
100
AcDbEntity
  8
ASSI
100
AcDbLine
 62
7
  6
CONTINUOUS
 10
-1.3036389874
 20
9.0137731129
 11
-1.3036389874
 21
8.3131610469
  0
LINE
  5
246
100
AcDbEntity
  8
RACCORDO
100
AcDbLine
 62
7
  6
CONTINUOUS
 10
-1.2844384159
 20
-8.9662211922
 11
-1.2844384159
 21
-8.6761956169
  0
LINE
  5
247
100
AcDbEntity
  8
ASSI
100
AcDbLine
 62
7
  6
CONTINUOUS
 10
-1.2844384159
 20
-8.9662211922
 11
-1.2844384159
 21
-8.6761956169
  0
LINE
  5
248
100
AcDbEntity
  8
RACCORDO
100
AcDbLine
 62
253
  6
CONTINUOUS
 10
-0.9602217112
 20
8.9199938057
 11
-0.9602217112
 21
9.1702796844
  0
LINE
  5
249
100
AcDbEntity
  8
ASSI
100
AcDbLine
 62
253
  6
CONTINUOUS
 10
-0.9660558821
 20
-7.3952824324
 11
-0.9602217112
 21
9.1702796844
  0
LINE
  5
24A
100
AcDbEntity
  8
RACCORDO
100
AcDbLine
 62
253
  6
CONTINUOUS
 10
-1.2844384159
 20
-8.6761956169
 11
-1.2268255117
 21
-8.0942035424
  0
LINE
  5
24B
100
AcDbEntity
  8
ASSI
100
AcDbLine
 62
253
  6
CONTINUOUS
 10
-1.2844384159
 20
-8.6761956169
 11
-1.2268255117
 21
-8.0942035424
  0
LINE
  5
24C
100
AcDbEntity
  8
RACCORDO
100
AcDbLine
 62
253
  6
CONTINUOUS
 10
-1.035158094
 20
-8.9292829373
 11
-0.976863588
 21
-8.3404054807
  0
LINE
  5
24D
100
AcDbEntity
  8
ASSI
100
AcDbLine
 62
253
  6
CONTINUOUS
 10
-1.035158094
 20
-8.9292829373
 11
-0.976863588
 21
-8.3404054807
  0
LINE
  5
24E
100
AcDbEntity
  8
RACCORDO
100
AcDbLine
 62
7
  6
CONTINUOUS
 10
-1.0466697565
 20
-9.2223078408
 11
-0.1966697579
 21
-9.2223078408
  0
LINE
  5
24F
100
AcDbEntity
  8
RACCORDO
100
AcDbLine
 62
7
  6
CONTINUOUS
 10
22.1754277312
 20
-9.2223078408
 11
23.0254277298
 21
-9.2223078408
  0
LINE
  5
250
100
AcDbEntity
  8
DRAFT
100
AcDbLine
 62
7
  6
CONTINUOUS
 10
22.1754245321
 20
-9.2223062414
 11
-0.1966665588
 21
-9.2223062414
  0
LINE
  5
251
100
AcDbEntity
  8
ASSI
100
AcDbLine
 62
7
  6
CONTINUOUS
 10
23.0254277298
 20
-9.2223078408
 11
-1.0466697565
 21
-9.2223078408
  0
LINE
  5
252
100
AcDbEntity
  8
RACCORDO
100
AcDbLine
 62
7
  6
CONTINUOUS
 10
23.0131963878
 20
-9.2161926356
 11
-1.0344384145
 21
-9.2161926356
  0
LINE
  5
253
100
AcDbEntity
  8
ASSI
100
AcDbLine
 62
7
  6
CONTINUOUS
 10
23.0131963878
 20
-9.2161926356
 11
-1.0344384145
 21
-9.2161926356
  0
LINE
  5
254
100
AcDbEntity
  8
RACCORDO
100
AcDbLine
 62
7
  6
CONTINUOUS
 10
23.0139160673
 20
-8.9292829373
 11
-1.035158094
 21
-8.9292829373
  0
LINE
  5
255
100
AcDbEntity
  8
ASSI
100
AcDbLine
 62
7
  6
CONTINUOUS
 10
23.0139160673
 20
-8.9292829373
 11
-1.035158094
 21
-8.9292829373
  0
LINE
  5
256
100
AcDbEntity
  8
RACCORDO
100
AcDbLine
 62
253
  6
CONTINUOUS
 10
-0.976863588
 20
-8.3404054807
 11
22.9556215613
 21
-8.3404054807
  0
LINE
  5
257
100
AcDbEntity
  8
ASSI
100
AcDbLine
 62
253
  6
CONTINUOUS
 10
-0.976863588
 20
-8.3404054807
 11
22.9556215613
 21
-8.3404054807
  0
LINE
  5
258
100
AcDbEntity
  8
RACCORDO
100
AcDbLine
 62
253
  6
CONTINUOUS
 10
-0.9660558821
 20
-7.3952824324
 11
22.9448138554
 21
-7.3952824324
  0
LINE
  5
259
100
AcDbEntity
  8
ASSI
100
AcDbLine
 62
253
  6
CONTINUOUS
 10
-0.9660558821
 20
-7.3952824324
 11
22.9448138554
 21
-7.3952824324
  0
LINE
  5
25A
100
AcDbEntity
  8
CURVE
100
AcDbLine
 62
253
  6
CONTINUOUS
 10
6.9393789867
 20
-2.0434964997
 11
10.9893789867
 21
-6.0934964997
  0
LINE
  5
25B
100
AcDbEntity
  8
CURVE
100
AcDbLine
 62
253
  6
CONTINUOUS
 10
6.9393789867
 20
-0.6292829373
 11
10.9893789867
 21
-4.6792829373
  0
LINE
  5
25C
100
AcDbEntity
  8
ASSI
100
AcDbLine
 62
253
  6
CONTINUOUS
 10
23.0131963878
 20
-9.2161926356
 11
23.0254277298
 21
-9.2223078408
  0
LINE
  5
25D
100
AcDbEntity
  8
RACCORDO
100
AcDbLine
 62
253
  6
CONTINUOUS
 10
23.2631963893
 20
-8.9662211922
 11
23.2758859089
 21
-8.9725654688
  0
LINE
  5
25E
100
AcDbEntity
  8
ASSI
100
AcDbLine
 62
253
  6
CONTINUOUS
 10
23.2631963893
 20
-8.9662211922
 11
23.2758859089
 21
-8.9725654688
  0
LINE
  5
25F
100
AcDbEntity
  8
RACCORDO
100
AcDbLine
 62
253
  6
CONTINUOUS
 10
-1.2101836351
 20
8.9203177607
 11
-1.3036389874
 21
9.0137731129
  0
LINE
  5
260
100
AcDbEntity
  8
ASSI
100
AcDbLine
 62
253
  6
CONTINUOUS
 10
-1.2101836351
 20
8.9203177607
 11
-1.3036389874
 21
9.0137731129
  0
LINE
  5
261
100
AcDbEntity
  8
RACCORDO
100
AcDbLine
 62
253
  6
CONTINUOUS
 10
-0.9602217112
 20
9.1702796844
 11
-1.0536770636
 21
9.2637350367
  0
LINE
  5
262
100
AcDbEntity
  8
ASSI
100
AcDbLine
 62
253
  6
CONTINUOUS
 10
-0.9602217112
 20
9.1702796844
 11
-1.0536770636
 21
9.2637350367
  0
LINE
  5
263
100
AcDbEntity
  8
CURVE
100
AcDbLine
 62
253
  6
CONTINUOUS
 10
15.0393789867
 20
-0.6292829373
 11
6.9393789867
 21
-0.6292829373
  0
LINE
  5
264
100
AcDbEntity
  8
RACCORDO
100
AcDbLine
 62
253
  6
CONTINUOUS
 10
23.0324350369
 20
9.2637350367
 11
22.9389796845
 21
9.1702796844
  0
LINE
  5
265
100
AcDbEntity
  8
ASSI
100
AcDbLine
 62
253
  6
CONTINUOUS
 10
23.0324350369
 20
9.2637350367
 11
22.9389796845
 21
9.1702796844
  0
LINE
  5
266
100
AcDbEntity
  8
RACCORDO
100
AcDbLine
 62
253
  6
CONTINUOUS
 10
23.2823969607
 20
9.0137731129
 11
23.1889416084
 21
8.9203177606
  0
LINE
  5
267
100
AcDbEntity
  8
ASSI
100
AcDbLine
 62
253
  6
CONTINUOUS
 10
23.2823969607
 20
9.0137731129
 11
23.1889416084
 21
8.9203177606
  0
LINE
  5
268
100
AcDbEntity
  8
RACCORDO
100
AcDbLine
 62
253
  6
CONTINUOUS
 10
-1.2971279356
 20
-8.9725654688
 11
-1.2844384159
 21
-8.9662211922
  0
LINE
  5
269
100
AcDbEntity
  8
ASSI
100
AcDbLine
 62
253
  6
CONTINUOUS
 10
-1.2971279356
 20
-8.9725654688
 11
-1.2844384159
 21
-8.9662211922
  0
LINE
  5
26A
100
AcDbEntity
  8
ASSI
100
AcDbLine
 62
253
  6
CONTINUOUS
 10
-1.0466697565
 20
-9.2223078408
 11
-1.0344384145
 21
-9.2161926356
  0
LINE
  5
26B
100
AcDbEntity
  8
CURVE
100
AcDbLine
 62
253
  6
CONTINUOUS
 10
10.9893789867
 20
-4.6792829373
 11
15.0393789867
 21
-0.6292829373
  0
LINE
  5
26C
100
AcDbEntity
  8
CURVE
100
AcDbLine
 62
253
  6
CONTINUOUS
 10
10.9893789867
 20
-6.0934964997
 11
15.0393789867
 21
-2.0434964997
  0
LINE
  5
26D
100
AcDbEntity
  8
DRAFT
100
AcDbLine
 62
7
  6
CONTINUOUS
 10
19.5018449772
 20
9.2637350367
 11
19.2393789867
 21
9.2113698419
  0
LINE
  5
26E
100
AcDbEntity
  8
ASSI
100
AcDbLine
 62
7
  6
CONTINUOUS
 10
19.5018449772
 20
9.2637350367
 11
19.2393789867
 21
9.2113698419
  0
LINE
  5
26F
100
AcDbEntity
  8
DRAFT
100
AcDbLine
 62
7
  6
CONTINUOUS
 10
2.4769129961
 20
9.2637350367
 11
2.7393789867
 21
9.2113698419
  0
LINE
  5
270
100
AcDbEntity
  8
ASSI
100
AcDbLine
 62
7
  6
CONTINUOUS
 10
2.4769129961
 20
9.2637350367
 11
2.7393789867
 21
9.2113698419
  0
LINE
  5
271
100
AcDbEntity
  8
RACCORDO
100
AcDbLine
 62
253
  6
CONTINUOUS
 10
23.1889416083
 20
8.9203177606
 11
-0.9602217113
 21
8.9199938057
  0
LINE
  5
272
100
AcDbEntity
  8
ASSI
100
AcDbLine
 62
253
  6
CONTINUOUS
 10
23.1889416083
 20
8.9203177606
 11
-0.9602217113
 21
8.9199938057
  0
LINE
  5
273
100
AcDbEntity
  8
RACCORDO
100
AcDbLine
 62
253
  6
CONTINUOUS
 10
22.9389796845
 20
9.1702796844
 11
-0.9602217112
 21
9.1702796844
  0
LINE
  5
274
100
AcDbEntity
  8
ASSI
100
AcDbLine
 62
253
  6
CONTINUOUS
 10
22.9389796845
 20
9.1702796844
 11
-0.9602217112
 21
9.1702796844
  0
LINE
  5
275
100
AcDbEntity
  8
DRAFT
100
AcDbLine
 62
7
  6
CONTINUOUS
 10
19.2393789867
 20
9.2113698419
 11
2.7393789867
 21
9.2113698419
  0
LINE
  5
276
100
AcDbEntity
  8
ASSI
100
AcDbLine
 62
7
  6
CONTINUOUS
 10
19.2393789867
 20
9.2113698419
 11
2.7393789867
 21
9.2113698419
  0
LINE
  5
277
100
AcDbEntity
  8
RACCORDO
100
AcDbLine
 62
7
  6
CONTINUOUS
 10
23.0324350369
 20
9.2637350367
 11
19.5018449772
 21
9.2637350367
  0
LINE
  5
278
100
AcDbEntity
  8
ASSI
100
AcDbLine
 62
7
  6
CONTINUOUS
 10
23.0324350369
 20
9.2637350367
 11
19.5018449772
 21
9.2637350367
  0
LINE
  5
279
100
AcDbEntity
  8
RACCORDO
100
AcDbLine
 62
7
  6
CONTINUOUS
 10
2.4769129961
 20
9.2637350367
 11
-1.0536770636
 21
9.2637350367
  0
LINE
  5
27A
100
AcDbEntity
  8
ASSI
100
AcDbLine
 62
7
  6
CONTINUOUS
 10
2.4769129961
 20
9.2637350367
 11
-1.0536770636
 21
9.2637350367
  0
LINE
  5
27B
100
AcDbEntity
  8
RACCORDO
100
AcDbLine
 62
253
  6
CONTINUOUS
 10
-0.9602217112
 20
8.9199938057
 11
-1.210183635
 21
8.9203177606
  0
LINE
  5
27C
100
AcDbEntity
  8
ASSI
100
AcDbLine
 62
253
  6
CONTINUOUS
 10
-0.9602217112
 20
8.9199938057
 11
-1.210183635
 21
8.9203177606
  0
LINE
  5
27D
100
AcDbEntity
  8
RACCORDO
100
AcDbLine
 62
253
  6
CONTINUOUS
 10
22.9556215613
 20
-8.3404054807
 11
23.0139160673
 21
-8.9292829373
  0
LINE
  5
27E
100
AcDbEntity
  8
ASSI
100
AcDbLine
 62
253
  6
CONTINUOUS
 10
22.9556215613
 20
-8.3404054807
 11
23.0139160673
 21
-8.9292829373
  0
LINE
  5
27F
100
AcDbEntity
  8
RACCORDO
100
AcDbLine
 62
253
  6
CONTINUOUS
 10
23.2055834851
 20
-8.0942035424
 11
23.2631963893
 21
-8.6761956169
  0
LINE
  5
280
100
AcDbEntity
  8
ASSI
100
AcDbLine
 62
253
  6
CONTINUOUS
 10
23.2055834851
 20
-8.0942035424
 11
23.2631963893
 21
-8.6761956169
  0
LINE
  5
281
100
AcDbEntity
  8
RACCORDO
100
AcDbLine
 62
253
  6
CONTINUOUS
 10
22.9389796845
 20
8.9199938057
 11
22.9389796845
 21
9.1702796844
  0
LINE
  5
282
100
AcDbEntity
  8
ASSI
100
AcDbLine
 62
253
  6
CONTINUOUS
 10
22.9448138554
 20
-7.3952824324
 11
22.9389796845
 21
9.1702796844
  0
LINE
  5
283
100
AcDbEntity
  8
RACCORDO
100
AcDbLine
 62
7
  6
CONTINUOUS
 10
23.2631963893
 20
-8.6761956169
 11
23.2631963893
 21
-8.9662211922
  0
LINE
  5
284
100
AcDbEntity
  8
ASSI
100
AcDbLine
 62
7
  6
CONTINUOUS
 10
23.2631963893
 20
-8.6761956169
 11
23.2631963893
 21
-8.9662211922
  0
LINE
  5
285
100
AcDbEntity
  8
RACCORDO
100
AcDbLine
 62
7
  6
CONTINUOUS
 10
23.2823969607
 20
8.3131610469
 11
23.2823969607
 21
9.0137731129
  0
LINE
  5
286
100
AcDbEntity
  8
ASSI
100
AcDbLine
 62
7
  6
CONTINUOUS
 10
23.2823969607
 20
8.3131610469
 11
23.2823969607
 21
9.0137731129
  0
LINE
  5
287
100
AcDbEntity
  8
DRAFT
100
AcDbLine
 62
7
  6
CONTINUOUS
 10
23.2893789867
 20
8.0113698419
 11
23.2893789867
 21
-1.6177913739
  0
LINE
  5
288
100
AcDbEntity
  8
ASSI
100
AcDbLine
 62
7
  6
CONTINUOUS
 10
23.2893789867
 20
8.0113698419
 11
23.2893789867
 21
-1.6177913739
  0
LINE
  5
289
100
AcDbEntity
  8
RACCORDO
100
AcDbLine
 62
7
  6
CONTINUOUS
 10
23.2758859089
 20
-8.9725654688
 11
23.2893789867
 21
-1.6177913739
  0
LINE
  5
28A
100
AcDbEntity
  8
ASSI
100
AcDbLine
 62
7
  6
CONTINUOUS
 10
23.2758859089
 20
-8.9725654688
 11
23.2893789867
 21
-1.6177913739
  0
LINE
  5
28B
100
AcDbEntity
  8
RACCORDO
100
AcDbLine
 62
7
  6
CONTINUOUS
 10
23.2893789867
 20
8.0113698419
 11
23.2875420903
 21
8.0132067383
  0
LINE
  5
28C
100
AcDbEntity
  8
ASSI
100
AcDbLine
 62
7
  6
CONTINUOUS
 10
23.2893789867
 20
8.0113698419
 11
23.2875420903
 21
8.0132067383
  0
LINE
  5
28D
100
AcDbEntity
  8
RACCORDO
100
AcDbLine
 62
7
  6
CONTINUOUS
 10
-11.7041350401
 20
-9.2161926356
 11
-11.003401928
 21
-9.2223078408
  0
LINE
  5
28E
100
AcDbEntity
  8
ASSI
100
AcDbLine
 62
7
  6
CONTINUOUS
 10
-11.7041350401
 20
-9.2161926356
 11
-11.003401928
 21
-9.2223078408
  0
LINE
  5
28F
100
AcDbEntity
  8
RACCORDO
100
AcDbLine
 62
253
  6
CONTINUOUS
 10
-11.7041350401
 20
-8.9662211922
 11
-10.9771529469
 21
-8.9725654688
  0
LINE
  5
290
100
AcDbEntity
  8
ASSI
100
AcDbLine
 62
253
  6
CONTINUOUS
 10
-11.7041350401
 20
-8.9662211922
 11
-10.9771529469
 21
-8.9725654688
  0
LINE
  5
291
100
AcDbEntity
  8
RACCORDO
100
AcDbLine
 62
7
  6
CONTINUOUS
 10
-15.0438250539
 20
-8.3404054807
 11
-11.7041350401
 21
-8.9292829373
  0
LINE
  5
292
100
AcDbEntity
  8
ASSI
100
AcDbLine
 62
7
  6
CONTINUOUS
 10
-15.0438250539
 20
-8.3404054807
 11
-11.7041350401
 21
-8.9292829373
  0
LINE
  5
293
100
AcDbEntity
  8
RACCORDO
100
AcDbLine
 62
253
  6
CONTINUOUS
 10
-15.004776111
 20
-8.0942035424
 11
-11.7041350401
 21
-8.6761956169
  0
LINE
  5
294
100
AcDbEntity
  8
ASSI
100
AcDbLine
 62
253
  6
CONTINUOUS
 10
-15.004776111
 20
-8.0942035424
 11
-11.7041350401
 21
-8.6761956169
  0
LINE
  5
295
100
AcDbEntity
  8
RACCORDO
100
AcDbLine
 62
253
  6
CONTINUOUS
 10
-15.6239491667
 20
-7.3853612562
 11
-15.8693802035
 21
-7.3952820757
  0
LINE
  5
296
100
AcDbEntity
  8
ASSI
100
AcDbLine
 62
253
  6
CONTINUOUS
 10
-15.6239491667
 20
-7.3853612562
 11
-15.8693802035
 21
-7.3952820757
  0
LINE
  5
297
100
AcDbEntity
  8
RACCORDO
100
AcDbLine
 62
7
  6
CONTINUOUS
 10
-11.7041350401
 20
-9.2161926356
 11
-11.7041350401
 21
-8.6761956169
  0
LINE
  5
298
100
AcDbEntity
  8
ASSI
100
AcDbLine
 62
7
  6
CONTINUOUS
 10
-11.7041350401
 20
-9.2161926356
 11
-11.7041350401
 21
-8.6761956169
  0
LINE
  5
299
100
AcDbEntity
  8
RACCORDO
100
AcDbLine
 62
7
  6
CONTINUOUS
 10
-10.6041350401
 20
8.3131610469
 11
-10.6041350401
 21
9.2637350367
  0
LINE
  5
29A
100
AcDbEntity
  8
ASSI
100
AcDbLine
 62
7
  6
CONTINUOUS
 10
-10.6041350401
 20
8.3131610469
 11
-10.6041350401
 21
9.2637350367
  0
LINE
  5
29B
100
AcDbEntity
  8
DRAFT
100
AcDbLine
 62
7
  6
CONTINUOUS
 10
-10.2041350401
 20
8.0113698419
 11
-10.2041350401
 21
-1.6177913739
  0
LINE
  5
29C
100
AcDbEntity
  8
ASSI
100
AcDbLine
 62
7
  6
CONTINUOUS
 10
-10.2041350401
 20
8.0113698419
 11
-10.2041350401
 21
-1.6177913739
  0
LINE
  5
29D
100
AcDbEntity
  8
0
100
AcDbLine
 62
7
  6
CONTINUOUS
 10
-9.7041350401
 20
5.7707170627
 11
-9.7041350401
 21
3.9707170627
  0
LINE
  5
29E
100
AcDbEntity
  8
RACCORDO
100
AcDbLine
 62
7
  6
CONTINUOUS
 10
-11.003401928
 20
-9.2223078408
 11
-10.2041350401
 21
-1.6177913739
  0
LINE
  5
29F
100
AcDbEntity
  8
ASSI
100
AcDbLine
 62
7
  6
CONTINUOUS
 10
-11.003401928
 20
-9.2223078408
 11
-10.2041350401
 21
-1.6177913739
  0
LINE
  5
2A0
100
AcDbEntity
  8
0
100
AcDbLine
 62
7
  6
CONTINUOUS
 10
-10.2041350401
 20
3.9457170627
 11
-9.7041350401
 21
3.9707170627
  0
LINE
  5
2A1
100
AcDbEntity
  8
0
100
AcDbLine
 62
7
  6
CONTINUOUS
 10
-10.2041350401
 20
5.7957170627
 11
-9.7041350401
 21
5.7707170627
  0
LINE
  5
2A2
100
AcDbEntity
  8
RACCORDO
100
AcDbLine
 62
7
  6
CONTINUOUS
 10
-10.2041350401
 20
8.0113698419
 11
-10.3093707621
 21
8.0132067383
  0
LINE
  5
2A3
100
AcDbEntity
  8
ASSI
100
AcDbLine
 62
7
  6
CONTINUOUS
 10
-10.2041350401
 20
8.0113698419
 11
-10.3093707621
 21
8.0132067383
  0
LINE
  5
2A4
100
AcDbEntity
  8
RACCORDO
100
AcDbLine
 62
253
  6
CONTINUOUS
 10
-10.6041350401
 20
9.0137731129
 11
-15.9581885893
 21
8.9203177606
  0
LINE
  5
2A5
100
AcDbEntity
  8
ASSI
100
AcDbLine
 62
253
  6
CONTINUOUS
 10
-10.6041350401
 20
9.0137731129
 11
-15.9581885893
 21
8.9203177606
  0
LINE
  5
2A6
100
AcDbEntity
  8
RACCORDO
100
AcDbLine
 62
7
  6
CONTINUOUS
 10
-10.6041350401
 20
9.2637350367
 11
-15.9581885914
 21
9.1702796844
  0
LINE
  5
2A7
100
AcDbEntity
  8
ASSI
100
AcDbLine
 62
7
  6
CONTINUOUS
 10
-10.6041350401
 20
9.2637350367
 11
-15.9581885914
 21
9.1702796844
  0
LINE
  5
2A8
100
AcDbEntity
  8
RACCORDO
100
AcDbLine
 62
253
  6
CONTINUOUS
 10
-15.9581885914
 20
8.9203177606
 11
-16.2038252799
 21
8.9199938057
  0
LINE
  5
2A9
100
AcDbEntity
  8
ASSI
100
AcDbLine
 62
253
  6
CONTINUOUS
 10
-15.9581885914
 20
8.9203177606
 11
-16.2038252799
 21
8.9199938057
  0
CIRCLE
  5
2AA
100
AcDbEntity
  8
DRAFT
100
AcDbCircle
 62
7
  6
CONTINUOUS
 10
10.9893786426
 20
4.8709376085
 40
1.3135386721
  0
CIRCLE
  5
2AB
100
AcDbEntity
  8
ASSI
100
AcDbCircle
 62
7
  6
CONTINUOUS
 10
10.9893786426
 20
4.8709376085
 40
1.3135386721
  0
CIRCLE
  5
2AC
100
AcDbEntity
  8
DRAFT
100
AcDbCircle
 62
7
  6
CONTINUOUS
 10
10.9893789867
 20
4.8707170627
 40
1.3
  0
CIRCLE
  5
2AD
100
AcDbEntity
  8
ASSI
100
AcDbCircle
 62
7
  6
CONTINUOUS
 10
10.9893789867
 20
4.8707170627
 40
1.3
  0
CIRCLE
  5
2AE
100
AcDbEntity
  8
DRAFT
100
AcDbCircle
 62
7
  6
CONTINUOUS
 10
10.9893789867
 20
4.8707170627
 40
1.225
  0
CIRCLE
  5
2AF
100
AcDbEntity
  8
RACCORDO
100
AcDbCircle
 62
253
  6
CONTINUOUS
 10
10.9893789867
 20
4.8707170627
 40
1.2068524201
  0
CIRCLE
  5
2B0
100
AcDbEntity
  8
RACCORDO
100
AcDbCircle
 62
253
  6
CONTINUOUS
 10
10.9893789867
 20
4.8707170627
 40
1.1180464865
  0
ARC
  5
2B1
100
AcDbEntity
  8
RACCORDO
100
AcDbCircle
 62
253
  6
CONTINUOUS
 10
-0.9601308902
 20
8.9202269396
 40
0.2500532007
100
AcDbArc
 50
90.0208102483
 51
179.9791897517
  0
ARC
  5
2B2
100
AcDbEntity
  8
ASSI
100
AcDbCircle
 62
253
  6
CONTINUOUS
 10
-0.9601308902
 20
8.9202269396
 40
0.2500532007
100
AcDbArc
 50
90.0208102483
 51
179.9791897517
  0
ARC
  5
2B3
100
AcDbEntity
  8
RACCORDO
100
AcDbCircle
 62
253
  6
CONTINUOUS
 10
22.93888886
 20
8.9202269362
 40
0.2500531776
100
AcDbArc
 50
0.0208110208
 51
89.979188934
  0
ARC
  5
2B4
100
AcDbEntity
  8
ASSI
100
AcDbCircle
 62
253
  6
CONTINUOUS
 10
22.93888886
 20
8.9202269362
 40
0.2500531776
100
AcDbArc
 50
0.0208110208
 51
89.979188934
  0
ARC
  5
2B5
100
AcDbEntity
  8
RACCORDO
100
AcDbCircle
 62
7
  6
CONTINUOUS
 10
408.795817901
 20
9.4707170627
 40
425.0
100
AcDbArc
 50
180.074245005
 51
182.2743633301
  0
ARC
  5
2B6
100
AcDbEntity
  8
ASSI
100
AcDbCircle
 62
7
  6
CONTINUOUS
 10
408.795817901
 20
9.4707170627
 40
425.0
100
AcDbArc
 50
180.074245005
 51
182.2743633301
  0
ARC
  5
2B7
100
AcDbEntity
  8
RACCORDO
100
AcDbCircle
 62
253
  6
CONTINUOUS
 10
408.7914645329
 20
9.4707172088
 40
424.7500097316
100
AcDbArc
 50
180.074245023
 51
182.2743632977
  0
ARC
  5
2B8
100
AcDbEntity
  8
ASSI
100
AcDbCircle
 62
253
  6
CONTINUOUS
 10
408.7914645329
 20
9.4707172088
 40
424.7500097316
100
AcDbArc
 50
180.074245023
 51
182.2743632977
  0
ARC
  5
2B9
100
AcDbEntity
  8
RACCORDO
100
AcDbCircle
 62
7
  6
CONTINUOUS
 10
-14.8701768762
 20
-7.3555977277
 40
1.0
100
AcDbArc
 50
182.2743633301
 51
260.0
  0
ARC
  5
2BA
100
AcDbEntity
  8
ASSI
100
AcDbCircle
 62
7
  6
CONTINUOUS
 10
-14.8701768762
 20
-7.3555977277
 40
1.0
100
AcDbArc
 50
182.2743633301
 51
260.0
  0
ARC
  5
2BB
100
AcDbEntity
  8
RACCORDO
100
AcDbCircle
 62
253
  6
CONTINUOUS
 10
-14.8745393097
 20
-7.3555971441
 40
0.7500006907
100
AcDbArc
 50
182.2744058521
 51
259.999957478
  0
ARC
  5
2BC
100
AcDbEntity
  8
ASSI
100
AcDbCircle
 62
253
  6
CONTINUOUS
 10
-14.8745393097
 20
-7.3555971441
 40
0.7500006907
100
AcDbArc
 50
182.2744058521
 51
259.999957478
  0
ARC
  5
2BD
100
AcDbEntity
  8
RACCORDO
100
AcDbCircle
 62
7
  6
CONTINUOUS
 10
-10.3041350401
 20
8.3131610469
 40
0.3
100
AcDbArc
 50
180.0
 51
269.0
  0
ARC
  5
2BE
100
AcDbEntity
  8
ASSI
100
AcDbCircle
 62
7
  6
CONTINUOUS
 10
-10.3041350401
 20
8.3131610469
 40
0.3
100
AcDbArc
 50
180.0
 51
269.0
  0
ARC
  5
2BF
100
AcDbEntity
  8
RACCORDO
100
AcDbCircle
 62
7
  6
CONTINUOUS
 10
-15.9538254898
 20
8.9203177606
 40
0.25
100
AcDbArc
 50
91.0
 51
180.074245005
  0
ARC
  5
2C0
100
AcDbEntity
  8
ASSI
100
AcDbCircle
 62
7
  6
CONTINUOUS
 10
-15.9538254898
 20
8.9203177606
 40
0.25
100
AcDbArc
 50
91.0
 51
180.074245005
  0
SPLINE
  5
2C1
100
AcDbEntity
  8
RACCORDO
100
AcDbSpline
 62
253
  6
CONTINUOUS
 70
0
 71
3
 72
11
 73
7
 74
5
 42
0.0000001
 43
0.0000001
 44
0.0000000001
 12
0.0011902478
 22
-0.3868382137
 32
0.0
 13
0.3868383214
 23
-0.0011547111
 33
0.0
 40
0.0
 40
0.0
 40
0.0
 40
0.0
 40
0.2481425819
 40
0.4975232625
 40
0.7483526478
 40
1.0
 40
1.0
 40
1.0
 40
1.0
 10
-1.2268255117
 20
-8.0942035424
 30
0.0
 10
-1.2267270614
 20
-8.1262005535
 30
0.0
 10
-1.2134829051
 20
-8.191021575
 30
0.0
 10
-1.1576839745
 20
-8.2727176128
 30
0.0
 10
-1.0747534541
 20
-8.3273987114
 30
0.0
 10
-1.0093125344
 20
-8.3403086212
 30
0.0
 10
-0.976863588
 20
-8.3404054812
 30
0.0
 11
-1.2268255117
 21
-8.0942035424
 31
0.0
 11
-1.2075824186
 21
-8.188246453
 31
0.0
 11
-1.1533486522
 21
-8.268028927
 31
0.0
 11
-1.0723474976
 21
-8.3214498867
 31
0.0
 11
-0.976863588
 21
-8.3404054812
 31
0.0
  0
SPLINE
  5
2C2
100
AcDbEntity
  8
RACCORDO
100
AcDbSpline
 62
253
  6
CONTINUOUS
 70
0
 71
3
 72
11
 73
7
 74
5
 42
0.0000001
 43
0.0000001
 44
0.0000000001
 12
0.1007369336
 22
-0.2292793437
 32
0.0
 13
0.2504334586
 23
-0.0001733424
 33
0.0
 40
0.0
 40
0.0
 40
0.0
 40
0.0
 40
0.0822915139
 40
0.3001698808
 40
0.6219901233
 40
1.0
 40
1.0
 40
1.0
 40
1.0
 10
-1.2160178059
 20
-7.3853612562
 30
0.0
 10
-1.2132545409
 20
-7.3916505043
 30
0.0
 10
-1.1796702873
 20
-7.38552653
 30
0.0
 10
-1.1352879983
 20
-7.395603469
 30
0.0
 10
-1.0549847657
 20
-7.3937435614
 30
0.0
 10
-0.9976113223
 20
-7.3952605906
 30
0.0
 10
-0.9660558821
 20
-7.3952824323
 30
0.0
 11
-1.2160178059
 21
-7.3853612562
 31
0.0
 11
-1.1957546471
 21
-7.3891184986
 31
0.0
 11
-1.141284382
 21
-7.3923162062
 31
0.0
 11
-1.0607188091
 21
-7.3944781715
 31
0.0
 11
-0.9660558821
 21
-7.3952824323
 31
0.0
  0
SPLINE
  5
2C3
100
AcDbEntity
  8
RACCORDO
100
AcDbSpline
 62
253
  6
CONTINUOUS
 70
0
 71
3
 72
11
 73
7
 74
5
 42
0.0000001
 43
0.0000001
 44
0.0000000001
 12
-0.0011902476
 22
-0.3868382125
 32
0.0
 13
-0.3868383202
 23
-0.0011547048
 33
0.0
 40
0.0
 40
0.0
 40
0.0
 40
0.0
 40
0.2481496322
 40
0.4975322055
 40
0.7483586193
 40
1.0
 40
1.0
 40
1.0
 40
1.0
 10
23.2055834851
 20
-8.0942035424
 30
0.0
 10
23.2054850319
 20
-8.1262014625
 30
0.0
 10
23.1922402413
 20
-8.191023693
 30
0.0
 10
23.1364397931
 20
-8.272719685
 30
0.0
 10
23.0535094577
 20
-8.3273992629
 30
0.0
 10
22.9880697376
 20
-8.3403086235
 30
0.0
 10
22.9556215613
 20
-8.3404054807
 30
0.0
 11
23.2055834851
 21
-8.0942035424
 31
0.0
 11
23.1863393091
 21
-8.188249015
 31
0.0
 11
23.1321041133
 21
-8.2680314022
 31
0.0
 11
23.0511032931
 21
-8.3214507805
 31
0.0
 11
22.9556215613
 21
-8.3404054807
 31
0.0
  0
SPLINE
  5
2C4
100
AcDbEntity
  8
RACCORDO
100
AcDbSpline
 62
253
  6
CONTINUOUS
 70
0
 71
3
 72
11
 73
7
 74
5
 42
0.0000001
 43
0.0000001
 44
0.0000000001
 12
-0.1008819843
 22
-0.2292154883
 32
0.0
 13
-0.2504333939
 23
-0.000173313
 33
0.0
 40
0.0
 40
0.0
 40
0.0
 40
0.0
 40
0.082299687
 40
0.3001800223
 40
0.6219967759
 40
1.0
 40
1.0
 40
1.0
 40
1.0
 10
23.1947757791
 20
-7.3853612562
 30
0.0
 10
23.1920082605
 20
-7.3916493772
 30
0.0
 10
23.1584315753
 20
-7.3855279899
 30
0.0
 10
23.1140410325
 20
-7.39560218
 30
0.0
 10
23.0337424339
 20
-7.393743649
 30
0.0
 10
22.9763687322
 20
-7.3952602381
 30
0.0
 10
22.9448138554
 20
-7.3952820757
 30
0.0
 11
23.1947757791
 21
-7.3853612562
 31
0.0
 11
23.1745105244
 21
-7.3891183925
 31
0.0
 11
23.1200397727
 21
-7.3923159839
 31
0.0
 11
23.0394750922
 21
-7.3944778572
 31
0.0
 11
22.9448138554
 21
-7.3952820757
 31
0.0
  0
SPLINE
  5
2C5
100
AcDbEntity
  8
RACCORDO
100
AcDbSpline
 62
253
  6
CONTINUOUS
 70
0
 71
3
 72
13
 73
9
 74
7
 42
0.0000001
 43
0.0000001
 44
0.0000000001
 12
0.0699504283
 22
0.942650268
 32
0.0
 13
0.0004957988
 23
0.9452419502
 33
0.0
 40
0.0
 40
0.0
 40
0.0
 40
0.0
 40
0.0677735974
 40
0.1851013747
 40
0.3460122137
 40
0.5423316971
 40
0.7640939911
 40
1.0
 40
1.0
 40
1.0
 40
1.0
 10
-0.976863588
 20
-8.3404054807
 30
0.0
 10
-0.9752833239
 20
-8.3191098808
 30
0.0
 10
-0.9734897086
 20
-8.2607896309
 30
0.0
 10
-0.9709902347
 20
-8.1518114899
 30
0.0
 10
-0.9690360196
 20
-8.0022914305
 30
0.0
 10
-0.9674137169
 20
-7.8198717349
 30
0.0
 10
-0.9663799627
 20
-7.6138140107
 30
0.0
 10
-0.9660948694
 20
-7.469611851
 30
0.0
 10
-0.9660558821
 20
-7.3952824324
 30
0.0
 11
-0.976863588
 21
-8.3404054807
 31
0.0
 11
-0.9740310836
 21
-8.2764056743
 31
0.0
 11
-0.9714587173
 21
-8.1655323587
 31
0.0
 11
-0.9692772179
 21
-8.0134483074
 31
0.0
 11
-0.9675975882
 21
-7.8278864721
 31
0.0
 11
-0.966505236
 21
-7.6182702662
 31
0.0
 11
-0.9660558821
 21
-7.3952824324
 31
0.0
  0
SPLINE
  5
2C6
100
AcDbEntity
  8
RACCORDO
100
AcDbSpline
 62
253
  6
CONTINUOUS
 70
0
 71
3
 72
13
 73
9
 74
7
 42
0.0000001
 43
0.0000001
 44
0.0000000001
 12
0.0004957988
 22
-0.9452419502
 32
0.0
 13
0.0699504281
 23
-0.9426502681
 33
0.0
 40
0.0
 40
0.0
 40
0.0
 40
0.0
 40
0.2359060089
 40
0.4576683029
 40
0.6539877863
 40
0.8148986253
 40
0.9322264026
 40
1.0
 40
1.0
 40
1.0
 40
1.0
 10
22.9448138554
 20
-7.3952824324
 30
0.0
 10
22.9448528427
 20
-7.469611851
 30
0.0
 10
22.945137936
 20
-7.6138140107
 30
0.0
 10
22.9461716903
 20
-7.8198717349
 30
0.0
 10
22.9477939929
 20
-8.0022914305
 30
0.0
 10
22.9497482081
 20
-8.1518114899
 30
0.0
 10
22.9522476819
 20
-8.2607896309
 30
0.0
 10
22.9540412972
 20
-8.3191098808
 30
0.0
 10
22.9556215613
 20
-8.3404054807
 30
0.0
 11
22.9448138554
 21
-7.3952824324
 31
0.0
 11
22.9452632093
 21
-7.6182702662
 31
0.0
 11
22.9463555615
 21
-7.8278864721
 31
0.0
 11
22.9480351912
 21
-8.0134483074
 31
0.0
 11
22.9502166907
 21
-8.1655323587
 31
0.0
 11
22.952789057
 21
-8.2764056743
 31
0.0
 11
22.9556215613
 21
-8.3404054807
 31
0.0
  0
SPLINE
  5
2C7
100
AcDbEntity
  8
RACCORDO
100
AcDbSpline
 62
253
  6
CONTINUOUS
 70
0
 71
3
 72
13
 73
9
 74
7
 42
0.0000001
 43
0.0000001
 44
0.0000000001
 12
0.069752494
 22
0.7055614738
 32
0.0
 13
0.0004946771
 23
0.7090008173
 33
0.0
 40
0.0
 40
0.0
 40
0.0
 40
0.0
 40
0.067477859
 40
0.1848343948
 40
0.3459357263
 40
0.5426158844
 40
0.7647547131
 40
1.0
 40
1.0
 40
1.0
 40
1.0
 10
-1.2268255117
 20
-8.0942035424
 30
0.0
 10
-1.2252565954
 20
-8.0783336165
 30
0.0
 10
-1.2234539331
 20
-8.0346541508
 30
0.0
 10
-1.2209575091
 20
-7.9529556251
 30
0.0
 10
-1.2189976704
 20
-7.8406701216
 30
0.0
 10
-1.2173739095
 20
-7.7036283017
 30
0.0
 10
-1.2163410528
 20
-7.5490525107
 30
0.0
 10
-1.216056596
 20
-7.4409576231
 30
0.0
 10
-1.2160178059
 20
-7.3853612562
 30
0.0
 11
-1.2268255117
 21
-8.0942035424
 31
0.0
 11
-1.2240028751
 21
-8.046445013
 31
0.0
 11
-1.2214261046
 21
-7.963279022
 31
0.0
 11
-1.2192405271
 21
-7.8490789305
 31
0.0
 11
-1.2175579523
 21
-7.7096426552
 31
0.0
 11
-1.2164650205
 21
-7.5521497979
 31
0.0
 11
-1.2160178059
 21
-7.3853612562
 31
0.0
  0
SPLINE
  5
2C8
100
AcDbEntity
  8
RACCORDO
100
AcDbSpline
 62
253
  6
CONTINUOUS
 70
0
 71
3
 72
10
 73
6
 74
4
 42
0.0000001
 43
0.0000001
 44
0.0000000001
 12
0.0113038298
 22
16.305676414
 32
0.0
 13
0.0003688181
 23
16.305680328
 33
0.0
 40
0.0
 40
0.0
 40
0.0
 40
0.0
 40
0.3332437898
 40
0.6665833822
 40
1.0
 40
1.0
 40
1.0
 40
1.0
 10
-1.2160178059
 20
-7.3853612562
 30
0.0
 10
-1.2147621622
 20
-5.5741061217
 30
0.0
 10
-1.2126559654
 20
-1.9510748496
 30
0.0
 10
-1.2107114041
 20
3.4841516206
 30
0.0
 10
-1.2102246251
 20
7.1081228318
 30
0.0
 10
-1.2101836351
 20
8.9203177607
 30
0.0
 11
-1.2160178059
 21
-7.3853612562
 31
0.0
 11
-1.212858706
 21
-1.9515954654
 31
0.0
 11
-1.2109139495
 21
3.4837330218
 31
0.0
 11
-1.2101836351
 21
8.9203177607
 31
0.0
  0
SPLINE
  5
2C9
100
AcDbEntity
  8
RACCORDO
100
AcDbSpline
 62
253
  6
CONTINUOUS
 70
0
 71
3
 72
10
 73
6
 74
4
 42
0.0000001
 43
0.0000001
 44
0.0000000001
 12
0.0113038298
 22
16.3152736367
 32
0.0
 13
0.0003688181
 23
16.3152775484
 33
0.0
 40
0.0
 40
0.0
 40
0.0
 40
0.0
 40
0.3332434383
 40
0.6665824571
 40
1.0
 40
1.0
 40
1.0
 40
1.0
 10
-0.9660558821
 20
-7.3952824324
 30
0.0
 10
-0.9648002397
 20
-5.582963138
 30
0.0
 10
-0.9626940454
 20
-1.9578044474
 30
0.0
 10
-0.9607494818
 20
3.4806210965
 30
0.0
 10
-0.9602627014
 20
7.1067272215
 30
0.0
 10
-0.9602217113
 20
8.9199938057
 30
0.0
 11
-0.9660558821
 21
-7.3952824324
 31
0.0
 11
-0.9628967849
 21
-1.9583241621
 31
0.0
 11
-0.9609520294
 21
3.4801941008
 31
0.0
 11
-0.9602217113
 21
8.9199938057
 31
0.0
  0
SPLINE
  5
2CA
100
AcDbEntity
  8
RACCORDO
100
AcDbSpline
 62
253
  6
CONTINUOUS
 70
0
 71
3
 72
10
 73
6
 74
4
 42
0.0000001
 43
0.0000001
 44
0.0000000001
 12
0.0003688181
 22
-16.3056803279
 32
0.0
 13
0.0113038298
 23
-16.3056764139
 33
0.0
 40
0.0
 40
0.0
 40
0.0
 40
0.0
 40
0.3334166178
 40
0.6667562102
 40
1.0
 40
1.0
 40
1.0
 40
1.0
 10
23.1889416084
 20
8.9203177606
 30
0.0
 10
23.1889825984
 20
7.1081228318
 30
0.0
 10
23.1894693775
 20
3.4841516206
 30
0.0
 10
23.1914139387
 20
-1.9510748496
 30
0.0
 10
23.1935201355
 20
-5.5741061217
 30
0.0
 10
23.1947757792
 20
-7.3853612562
 30
0.0
 11
23.1889416084
 21
8.9203177606
 31
0.0
 11
23.1896719228
 21
3.4837330217
 31
0.0
 11
23.1916166794
 21
-1.9515954654
 31
0.0
 11
23.1947757792
 21
-7.3853612562
 31
0.0
  0
SPLINE
  5
2CB
100
AcDbEntity
  8
RACCORDO
100
AcDbSpline
 62
253
  6
CONTINUOUS
 70
0
 71
3
 72
13
 73
9
 74
7
 42
0.0000001
 43
0.0000001
 44
0.0000000001
 12
0.0004946771
 22
-0.7090008173
 32
0.0
 13
0.0697524934
 23
-0.7055614738
 33
0.0
 40
0.0
 40
0.0
 40
0.0
 40
0.0
 40
0.2352452869
 40
0.4573841156
 40
0.6540642737
 40
0.8151656051
 40
0.9325221411
 40
1.0
 40
1.0
 40
1.0
 40
1.0
 10
23.1947757792
 20
-7.3853612562
 30
0.0
 10
23.1948145693
 20
-7.4409576231
 30
0.0
 10
23.1950990261
 20
-7.5490525107
 30
0.0
 10
23.1961318829
 20
-7.7036283017
 30
0.0
 10
23.1977556437
 20
-7.8406701216
 30
0.0
 10
23.1997154824
 20
-7.9529556251
 30
0.0
 10
23.2022119064
 20
-8.0346541508
 30
0.0
 10
23.2040145688
 20
-8.0783336166
 30
0.0
 10
23.2055834851
 20
-8.0942035424
 30
0.0
 11
23.1947757792
 21
-7.3853612562
 31
0.0
 11
23.1952229938
 21
-7.5521497979
 31
0.0
 11
23.1963159256
 21
-7.7096426552
 31
0.0
 11
23.1979985005
 21
-7.8490789305
 31
0.0
 11
23.200184078
 21
-7.9632790219
 31
0.0
 11
23.2027608484
 21
-8.046445013
 31
0.0
 11
23.2055834851
 21
-8.0942035424
 31
0.0
  0
SPLINE
  5
2CC
100
AcDbEntity
  8
ASSI
100
AcDbSpline
 62
7
  6
CONTINUOUS
 70
0
 71
3
 72
26
 73
22
 74
20
 42
0.0000001
 43
0.0000001
 44
0.0000000001
 12
7.5245273328
 22
0.0
 32
0.0
 13
-7.5245273328
 23
0.0
 33
0.0
 40
0.0
 40
0.0
 40
0.0
 40
0.0
 40
0.0525110766
 40
0.1050659475
 40
0.1576757335
 40
0.2102146508
 40
0.2628696807
 40
0.3154318125
 40
0.3681645664
 40
0.4207860678
 40
0.473590599
 40
0.5262369109
 40
0.5790389163
 40
0.6316790221
 40
0.6844572014
 40
0.7370664067
 40
0.7897607685
 40
0.8423102194
 40
0.8949163168
 40
0.9474619409
 40
1.0
 40
1.0
 40
1.0
 40
1.0
 10
10.9893789867
 20
7.2632305266
 30
0.0
 10
11.1210859971
 20
7.2632305266
 30
0.0
 10
11.3851191073
 20
7.2415687574
 30
0.0
 10
11.7703397577
 20
7.1448638365
 30
0.0
 10
12.1347365952
 20
6.986406047
 30
0.0
 10
12.4684378474
 20
6.7702660585
 30
0.0
 10
12.7620515137
 20
6.5023318064
 30
0.0
 10
13.0078561884
 20
6.1893407097
 30
0.0
 10
13.1985917374
 20
5.8401197217
 30
0.0
 10
13.3291054721
 20
5.4635790666
 30
0.0
 10
13.3953392408
 20
5.0708020011
 30
0.0
 10
13.3954566669
 20
4.6720396972
 30
0.0
 10
13.3294470484
 20
4.2791838571
 30
0.0
 10
13.1990883258
 20
3.9024237425
 30
0.0
 10
13.0083655734
 20
3.5528725166
 30
0.0
 10
12.7624344545
 20
3.2395537147
 30
0.0
 10
12.4686663946
 20
2.9714216777
 30
0.0
 10
12.1348710378
 20
2.7552117052
 30
0.0
 10
11.77048167
 20
2.5967527692
 30
0.0
 10
11.3852319717
 20
2.5000233906
 30
0.0
 10
11.1211536739
 20
2.478349385
 30
0.0
 10
10.9893789867
 20
2.478349385
 30
0.0
 11
10.9893789867
 21
7.2632305266
 31
0.0
 11
11.3831744691
 21
7.2308925071
 31
0.0
 11
11.7667262995
 21
7.1346161315
 31
0.0
 11
12.1297415333
 21
6.9767298848
 31
0.0
 11
12.4615410753
 21
6.7617990051
 31
0.0
 11
12.7541882613
 21
6.4947121237
 31
0.0
 11
12.9984493631
 21
6.1836480219
 31
0.0
 11
13.1886271756
 21
5.835403929
 31
0.0
 11
13.3182856207
 21
5.461282806
 31
0.0
 11
13.3843457652
 21
5.0694837481
 31
0.0
 11
13.3844620764
 21
4.6733451528
 31
0.0
 11
13.3186347226
 21
4.2815261882
 31
0.0
 11
13.1891349828
 21
3.9072019671
 31
0.0
 11
12.9989417025
 21
3.5585769098
 31
0.0
 11
12.7545425916
 21
3.2471708383
 31
0.0
 11
12.4617054751
 21
2.9798530404
 31
0.0
 11
12.1298439011
 21
2.7648721354
 31
0.0
 11
11.7668559893
 21
2.6069926608
 31
0.0
 11
11.3833757699
 21
2.5107167827
 31
0.0
 11
10.9893789867
 21
2.478349385
 31
0.0
  0
SPLINE
  5
2CD
100
AcDbEntity
  8
ASSI
100
AcDbSpline
 62
7
  6
CONTINUOUS
 70
0
 71
3
 72
26
 73
22
 74
20
 42
0.0000001
 43
0.0000001
 44
0.0000000001
 12
-7.5245273329
 22
0.0
 32
0.0
 13
7.5245273329
 23
0.0
 33
0.0
 40
0.0
 40
0.0
 40
0.0
 40
0.0
 40
0.0525110341
 40
0.1050655381
 40
0.1576743928
 40
0.2102117292
 40
0.262864617
 40
0.3154243168
 40
0.3681547145
 40
0.420774355
 40
0.473577854
 40
0.5262241639
 40
0.5790271981
 40
0.6316691632
 40
0.6844497002
 40
0.7370613399
 40
0.7897578459
 40
0.8423088783
 40
0.8949159072
 40
0.9474618983
 40
1.0
 40
1.0
 40
1.0
 40
1.0
 10
10.9893789867
 20
2.478349385
 30
0.0
 10
10.857672083
 20
2.478349385
 30
0.0
 10
10.593640117
 20
2.5000083345
 30
0.0
 10
10.2084202703
 20
2.5967011982
 30
0.0
 10
9.8440235857
 20
2.7551406011
 30
0.0
 10
9.5103218083
 20
2.9712581377
 30
0.0
 10
9.2167071993
 20
3.239168537
 30
0.0
 10
8.9709015661
 20
3.5521369903
 30
0.0
 10
8.7801654275
 20
3.9013389007
 30
0.0
 10
8.6496516721
 20
4.2778658212
 30
0.0
 10
8.5834183897
 20
4.6706357228
 30
0.0
 10
8.5833016469
 20
5.0693980138
 30
0.0
 10
8.6493117534
 20
5.4622609952
 30
0.0
 10
8.7796704581
 20
5.8390348311
 30
0.0
 10
8.9703926212
 20
6.1886051351
 30
0.0
 10
9.2163227794
 20
6.5019465946
 30
0.0
 10
9.5100898951
 20
6.7701025009
 30
0.0
 10
9.8438847276
 20
6.9863349348
 30
0.0
 10
10.208274249
 20
7.1448122595
 30
0.0
 10
10.5935247497
 20
7.2415536991
 30
0.0
 10
10.8576041925
 20
7.2632305266
 30
0.0
 10
10.9893789867
 20
7.2632305266
 30
0.0
 11
10.9893789867
 21
2.478349385
 31
0.0
 11
10.5955835043
 21
2.5106834903
 31
0.0
 11
10.2120316738
 21
2.6069485277
 31
0.0
 11
9.8490164401
 21
2.7648172026
 31
0.0
 11
9.517216898
 21
2.9797262024
 31
0.0
 11
9.2245697121
 21
3.2467891731
 31
0.0
 11
8.9803086103
 21
3.5578300072
 31
0.0
 11
8.7901307977
 21
3.9060538989
 31
0.0
 11
8.6604723527
 21
4.2801602024
 31
0.0
 11
8.5944122081
 21
4.6719513836
 31
0.0
 11
8.5942958969
 21
5.0680899649
 31
0.0
 11
8.6601232508
 21
5.4599167792
 31
0.0
 11
8.7896229905
 21
5.8342558044
 31
0.0
 11
8.9798162709
 21
6.1829010694
 31
0.0
 11
9.2242153818
 21
6.4943304269
 31
0.0
 11
9.5170524982
 21
6.7616721548
 31
0.0
 11
9.8489140722
 21
6.976674946
 31
0.0
 11
10.2119019841
 21
7.1345719934
 31
0.0
 11
10.5953822034
 21
7.2308592107
 31
0.0
 11
10.9893789867
 21
7.2632305266
 31
0.0
  0
SPLINE
  5
2CE
100
AcDbEntity
  8
RACCORDO
100
AcDbSpline
 62
253
  6
CONTINUOUS
 70
0
 71
3
 72
10
 73
6
 74
4
 42
0.0000001
 43
0.0000001
 44
0.0000000001
 12
0.0003688181
 22
-16.3152775484
 32
0.0
 13
0.0113038298
 23
-16.3152736367
 33
0.0
 40
0.0
 40
0.0
 40
0.0
 40
0.0
 40
0.3334174783
 40
0.6667565294
 40
1.0
 40
1.0
 40
1.0
 40
1.0
 10
22.9389796848
 20
8.9199938057
 30
0.0
 10
22.9390206749
 20
7.1067275732
 30
0.0
 10
22.939507455
 20
3.480621624
 30
0.0
 10
22.9414520185
 20
-1.9578039199
 30
0.0
 10
22.9435582129
 20
-5.5829629622
 30
0.0
 10
22.9448138554
 20
-7.3952824324
 30
0.0
 11
22.9389796848
 21
8.9199938057
 31
0.0
 11
22.9397100025
 21
3.4801951558
 31
0.0
 11
22.941654758
 21
-1.9583236348
 31
0.0
 11
22.9448138554
 21
-7.3952824324
 31
0.0
  0
SPLINE
  5
2CF
100
AcDbEntity
  8
ASSI
100
AcDbSpline
 62
7
  6
CONTINUOUS
 70
0
 71
3
 72
26
 73
22
 74
20
 42
0.0000001
 43
0.0000001
 44
0.0000000001
 12
-7.5245273329
 22
0.0
 32
0.0
 13
7.5245273329
 23
0.0
 33
0.0
 40
0.0
 40
0.0
 40
0.0
 40
0.0
 40
0.0525110341
 40
0.1050655381
 40
0.1576743928
 40
0.2102117292
 40
0.262864617
 40
0.3154243168
 40
0.3681547145
 40
0.420774355
 40
0.473577854
 40
0.5262241639
 40
0.5790271981
 40
0.6316691632
 40
0.6844497002
 40
0.7370613399
 40
0.7897578459
 40
0.8423088783
 40
0.8949159072
 40
0.9474618983
 40
1.0
 40
1.0
 40
1.0
 40
1.0
 10
10.9893789867
 20
2.478349385
 30
0.0
 10
10.857672083
 20
2.478349385
 30
0.0
 10
10.593640117
 20
2.5000083345
 30
0.0
 10
10.2084202703
 20
2.5967011982
 30
0.0
 10
9.8440235857
 20
2.7551406011
 30
0.0
 10
9.5103218083
 20
2.9712581377
 30
0.0
 10
9.2167071993
 20
3.239168537
 30
0.0
 10
8.9709015661
 20
3.5521369903
 30
0.0
 10
8.7801654275
 20
3.9013389007
 30
0.0
 10
8.6496516721
 20
4.2778658212
 30
0.0
 10
8.5834183897
 20
4.6706357228
 30
0.0
 10
8.5833016469
 20
5.0693980138
 30
0.0
 10
8.6493117534
 20
5.4622609952
 30
0.0
 10
8.7796704581
 20
5.8390348311
 30
0.0
 10
8.9703926212
 20
6.1886051351
 30
0.0
 10
9.2163227794
 20
6.5019465946
 30
0.0
 10
9.5100898951
 20
6.7701025009
 30
0.0
 10
9.8438847276
 20
6.9863349348
 30
0.0
 10
10.208274249
 20
7.1448122595
 30
0.0
 10
10.5935247497
 20
7.2415536991
 30
0.0
 10
10.8576041925
 20
7.2632305266
 30
0.0
 10
10.9893789867
 20
7.2632305266
 30
0.0
 11
10.9893789867
 21
2.478349385
 31
0.0
 11
10.5955835043
 21
2.5106834903
 31
0.0
 11
10.2120316738
 21
2.6069485277
 31
0.0
 11
9.8490164401
 21
2.7648172026
 31
0.0
 11
9.517216898
 21
2.9797262024
 31
0.0
 11
9.2245697121
 21
3.2467891731
 31
0.0
 11
8.9803086103
 21
3.5578300072
 31
0.0
 11
8.7901307977
 21
3.9060538989
 31
0.0
 11
8.6604723527
 21
4.2801602024
 31
0.0
 11
8.5944122081
 21
4.6719513836
 31
0.0
 11
8.5942958969
 21
5.0680899649
 31
0.0
 11
8.6601232508
 21
5.4599167792
 31
0.0
 11
8.7896229905
 21
5.8342558044
 31
0.0
 11
8.9798162709
 21
6.1829010694
 31
0.0
 11
9.2242153818
 21
6.4943304269
 31
0.0
 11
9.5170524982
 21
6.7616721548
 31
0.0
 11
9.8489140722
 21
6.976674946
 31
0.0
 11
10.2119019841
 21
7.1345719934
 31
0.0
 11
10.5953822034
 21
7.2308592107
 31
0.0
 11
10.9893789867
 21
7.2632305266
 31
0.0
  0
SPLINE
  5
2D0
100
AcDbEntity
  8
ASSI
100
AcDbSpline
 62
7
  6
CONTINUOUS
 70
0
 71
3
 72
26
 73
22
 74
20
 42
0.0000001
 43
0.0000001
 44
0.0000000001
 12
7.5245273328
 22
0.0
 32
0.0
 13
-7.5245273328
 23
0.0
 33
0.0
 40
0.0
 40
0.0
 40
0.0
 40
0.0
 40
0.0525110766
 40
0.1050659475
 40
0.1576757335
 40
0.2102146508
 40
0.2628696807
 40
0.3154318125
 40
0.3681645664
 40
0.4207860678
 40
0.473590599
 40
0.5262369109
 40
0.5790389163
 40
0.6316790221
 40
0.6844572014
 40
0.7370664067
 40
0.7897607685
 40
0.8423102194
 40
0.8949163168
 40
0.9474619409
 40
1.0
 40
1.0
 40
1.0
 40
1.0
 10
10.9893789867
 20
7.2632305266
 30
0.0
 10
11.1210859971
 20
7.2632305266
 30
0.0
 10
11.3851191073
 20
7.2415687574
 30
0.0
 10
11.7703397577
 20
7.1448638365
 30
0.0
 10
12.1347365952
 20
6.986406047
 30
0.0
 10
12.4684378474
 20
6.7702660585
 30
0.0
 10
12.7620515137
 20
6.5023318064
 30
0.0
 10
13.0078561884
 20
6.1893407097
 30
0.0
 10
13.1985917374
 20
5.8401197217
 30
0.0
 10
13.3291054721
 20
5.4635790666
 30
0.0
 10
13.3953392408
 20
5.0708020011
 30
0.0
 10
13.3954566669
 20
4.6720396972
 30
0.0
 10
13.3294470484
 20
4.2791838571
 30
0.0
 10
13.1990883258
 20
3.9024237425
 30
0.0
 10
13.0083655734
 20
3.5528725166
 30
0.0
 10
12.7624344545
 20
3.2395537147
 30
0.0
 10
12.4686663946
 20
2.9714216777
 30
0.0
 10
12.1348710378
 20
2.7552117052
 30
0.0
 10
11.77048167
 20
2.5967527692
 30
0.0
 10
11.3852319717
 20
2.5000233906
 30
0.0
 10
11.1211536739
 20
2.478349385
 30
0.0
 10
10.9893789867
 20
2.478349385
 30
0.0
 11
10.9893789867
 21
7.2632305266
 31
0.0
 11
11.3831744691
 21
7.2308925071
 31
0.0
 11
11.7667262995
 21
7.1346161315
 31
0.0
 11
12.1297415333
 21
6.9767298848
 31
0.0
 11
12.4615410753
 21
6.7617990051
 31
0.0
 11
12.7541882613
 21
6.4947121237
 31
0.0
 11
12.9984493631
 21
6.1836480219
 31
0.0
 11
13.1886271756
 21
5.835403929
 31
0.0
 11
13.3182856207
 21
5.461282806
 31
0.0
 11
13.3843457652
 21
5.0694837481
 31
0.0
 11
13.3844620764
 21
4.6733451528
 31
0.0
 11
13.3186347226
 21
4.2815261882
 31
0.0
 11
13.1891349828
 21
3.9072019671
 31
0.0
 11
12.9989417025
 21
3.5585769098
 31
0.0
 11
12.7545425916
 21
3.2471708383
 31
0.0
 11
12.4617054751
 21
2.9798530404
 31
0.0
 11
12.1298439011
 21
2.7648721354
 31
0.0
 11
11.7668559893
 21
2.6069926608
 31
0.0
 11
11.3833757699
 21
2.5107167827
 31
0.0
 11
10.9893789867
 21
2.478349385
 31
0.0
  0
SPLINE
  5
2D1
100
AcDbEntity
  8
ASSI
100
AcDbSpline
 62
253
  6
CONTINUOUS
 70
0
 71
3
 72
11
 73
7
 74
5
 42
0.0000001
 43
0.0000001
 44
0.0000000001
 12
0.0011902478
 22
-0.3868382137
 32
0.0
 13
0.3868383214
 23
-0.0011547111
 33
0.0
 40
0.0
 40
0.0
 40
0.0
 40
0.0
 40
0.2481425819
 40
0.4975232625
 40
0.7483526478
 40
1.0
 40
1.0
 40
1.0
 40
1.0
 10
-1.2268255117
 20
-8.0942035424
 30
0.0
 10
-1.2267270614
 20
-8.1262005535
 30
0.0
 10
-1.2134829051
 20
-8.191021575
 30
0.0
 10
-1.1576839745
 20
-8.2727176128
 30
0.0
 10
-1.0747534541
 20
-8.3273987114
 30
0.0
 10
-1.0093125344
 20
-8.3403086212
 30
0.0
 10
-0.976863588
 20
-8.3404054812
 30
0.0
 11
-1.2268255117
 21
-8.0942035424
 31
0.0
 11
-1.2075824186
 21
-8.188246453
 31
0.0
 11
-1.1533486522
 21
-8.268028927
 31
0.0
 11
-1.0723474976
 21
-8.3214498867
 31
0.0
 11
-0.976863588
 21
-8.3404054812
 31
0.0
  0
SPLINE
  5
2D2
100
AcDbEntity
  8
ASSI
100
AcDbSpline
 62
253
  6
CONTINUOUS
 70
0
 71
3
 72
11
 73
7
 74
5
 42
0.0000001
 43
0.0000001
 44
0.0000000001
 12
0.1007369336
 22
-0.2292793437
 32
0.0
 13
0.2504334586
 23
-0.0001733424
 33
0.0
 40
0.0
 40
0.0
 40
0.0
 40
0.0
 40
0.0822915139
 40
0.3001698808
 40
0.6219901233
 40
1.0
 40
1.0
 40
1.0
 40
1.0
 10
-1.2160178059
 20
-7.3853612562
 30
0.0
 10
-1.2132545409
 20
-7.3916505043
 30
0.0
 10
-1.1796702873
 20
-7.38552653
 30
0.0
 10
-1.1352879983
 20
-7.395603469
 30
0.0
 10
-1.0549847657
 20
-7.3937435614
 30
0.0
 10
-0.9976113223
 20
-7.3952605906
 30
0.0
 10
-0.9660558821
 20
-7.3952824323
 30
0.0
 11
-1.2160178059
 21
-7.3853612562
 31
0.0
 11
-1.1957546471
 21
-7.3891184986
 31
0.0
 11
-1.141284382
 21
-7.3923162062
 31
0.0
 11
-1.0607188091
 21
-7.3944781715
 31
0.0
 11
-0.9660558821
 21
-7.3952824323
 31
0.0
  0
SPLINE
  5
2D3
100
AcDbEntity
  8
ASSI
100
AcDbSpline
 62
253
  6
CONTINUOUS
 70
0
 71
3
 72
13
 73
9
 74
7
 42
0.0000001
 43
0.0000001
 44
0.0000000001
 12
0.069752494
 22
0.7055614738
 32
0.0
 13
0.0004946771
 23
0.7090008173
 33
0.0
 40
0.0
 40
0.0
 40
0.0
 40
0.0
 40
0.067477859
 40
0.1848343948
 40
0.3459357263
 40
0.5426158844
 40
0.7647547131
 40
1.0
 40
1.0
 40
1.0
 40
1.0
 10
-1.2268255117
 20
-8.0942035424
 30
0.0
 10
-1.2252565954
 20
-8.0783336165
 30
0.0
 10
-1.2234539331
 20
-8.0346541508
 30
0.0
 10
-1.2209575091
 20
-7.9529556251
 30
0.0
 10
-1.2189976704
 20
-7.8406701216
 30
0.0
 10
-1.2173739095
 20
-7.7036283017
 30
0.0
 10
-1.2163410528
 20
-7.5490525107
 30
0.0
 10
-1.216056596
 20
-7.4409576231
 30
0.0
 10
-1.2160178059
 20
-7.3853612562
 30
0.0
 11
-1.2268255117
 21
-8.0942035424
 31
0.0
 11
-1.2240028751
 21
-8.046445013
 31
0.0
 11
-1.2214261046
 21
-7.963279022
 31
0.0
 11
-1.2192405271
 21
-7.8490789305
 31
0.0
 11
-1.2175579523
 21
-7.7096426552
 31
0.0
 11
-1.2164650205
 21
-7.5521497979
 31
0.0
 11
-1.2160178059
 21
-7.3853612562
 31
0.0
  0
SPLINE
  5
2D4
100
AcDbEntity
  8
ASSI
100
AcDbSpline
 62
253
  6
CONTINUOUS
 70
0
 71
3
 72
10
 73
6
 74
4
 42
0.0000001
 43
0.0000001
 44
0.0000000001
 12
0.0113038298
 22
16.305676414
 32
0.0
 13
0.0003688181
 23
16.305680328
 33
0.0
 40
0.0
 40
0.0
 40
0.0
 40
0.0
 40
0.3332437898
 40
0.6665833822
 40
1.0
 40
1.0
 40
1.0
 40
1.0
 10
-1.2160178059
 20
-7.3853612562
 30
0.0
 10
-1.2147621622
 20
-5.5741061217
 30
0.0
 10
-1.2126559654
 20
-1.9510748496
 30
0.0
 10
-1.2107114041
 20
3.4841516206
 30
0.0
 10
-1.2102246251
 20
7.1081228318
 30
0.0
 10
-1.2101836351
 20
8.9203177607
 30
0.0
 11
-1.2160178059
 21
-7.3853612562
 31
0.0
 11
-1.212858706
 21
-1.9515954654
 31
0.0
 11
-1.2109139495
 21
3.4837330218
 31
0.0
 11
-1.2101836351
 21
8.9203177607
 31
0.0
  0
SPLINE
  5
2D5
100
AcDbEntity
  8
ASSI
100
AcDbSpline
 62
253
  6
CONTINUOUS
 70
0
 71
3
 72
11
 73
7
 74
5
 42
0.0000001
 43
0.0000001
 44
0.0000000001
 12
-0.0011902476
 22
-0.3868382125
 32
0.0
 13
-0.3868383202
 23
-0.0011547048
 33
0.0
 40
0.0
 40
0.0
 40
0.0
 40
0.0
 40
0.2481496322
 40
0.4975322055
 40
0.7483586193
 40
1.0
 40
1.0
 40
1.0
 40
1.0
 10
23.2055834851
 20
-8.0942035424
 30
0.0
 10
23.2054850319
 20
-8.1262014625
 30
0.0
 10
23.1922402413
 20
-8.191023693
 30
0.0
 10
23.1364397931
 20
-8.272719685
 30
0.0
 10
23.0535094577
 20
-8.3273992629
 30
0.0
 10
22.9880697376
 20
-8.3403086235
 30
0.0
 10
22.9556215613
 20
-8.3404054807
 30
0.0
 11
23.2055834851
 21
-8.0942035424
 31
0.0
 11
23.1863393091
 21
-8.188249015
 31
0.0
 11
23.1321041133
 21
-8.2680314022
 31
0.0
 11
23.0511032931
 21
-8.3214507805
 31
0.0
 11
22.9556215613
 21
-8.3404054807
 31
0.0
  0
SPLINE
  5
2D6
100
AcDbEntity
  8
ASSI
100
AcDbSpline
 62
253
  6
CONTINUOUS
 70
0
 71
3
 72
10
 73
6
 74
4
 42
0.0000001
 43
0.0000001
 44
0.0000000001
 12
0.0003688181
 22
-16.3056803279
 32
0.0
 13
0.0113038298
 23
-16.3056764139
 33
0.0
 40
0.0
 40
0.0
 40
0.0
 40
0.0
 40
0.3334166178
 40
0.6667562102
 40
1.0
 40
1.0
 40
1.0
 40
1.0
 10
23.1889416084
 20
8.9203177606
 30
0.0
 10
23.1889825984
 20
7.1081228318
 30
0.0
 10
23.1894693775
 20
3.4841516206
 30
0.0
 10
23.1914139387
 20
-1.9510748496
 30
0.0
 10
23.1935201355
 20
-5.5741061217
 30
0.0
 10
23.1947757792
 20
-7.3853612562
 30
0.0
 11
23.1889416084
 21
8.9203177606
 31
0.0
 11
23.1896719228
 21
3.4837330217
 31
0.0
 11
23.1916166794
 21
-1.9515954654
 31
0.0
 11
23.1947757792
 21
-7.3853612562
 31
0.0
  0
SPLINE
  5
2D7
100
AcDbEntity
  8
ASSI
100
AcDbSpline
 62
253
  6
CONTINUOUS
 70
0
 71
3
 72
13
 73
9
 74
7
 42
0.0000001
 43
0.0000001
 44
0.0000000001
 12
0.0004946771
 22
-0.7090008173
 32
0.0
 13
0.0697524934
 23
-0.7055614738
 33
0.0
 40
0.0
 40
0.0
 40
0.0
 40
0.0
 40
0.2352452869
 40
0.4573841156
 40
0.6540642737
 40
0.8151656051
 40
0.9325221411
 40
1.0
 40
1.0
 40
1.0
 40
1.0
 10
23.1947757792
 20
-7.3853612562
 30
0.0
 10
23.1948145693
 20
-7.4409576231
 30
0.0
 10
23.1950990261
 20
-7.5490525107
 30
0.0
 10
23.1961318829
 20
-7.7036283017
 30
0.0
 10
23.1977556437
 20
-7.8406701216
 30
0.0
 10
23.1997154824
 20
-7.9529556251
 30
0.0
 10
23.2022119064
 20
-8.0346541508
 30
0.0
 10
23.2040145688
 20
-8.0783336166
 30
0.0
 10
23.2055834851
 20
-8.0942035424
 30
0.0
 11
23.1947757792
 21
-7.3853612562
 31
0.0
 11
23.1952229938
 21
-7.5521497979
 31
0.0
 11
23.1963159256
 21
-7.7096426552
 31
0.0
 11
23.1979985005
 21
-7.8490789305
 31
0.0
 11
23.200184078
 21
-7.9632790219
 31
0.0
 11
23.2027608484
 21
-8.046445013
 31
0.0
 11
23.2055834851
 21
-8.0942035424
 31
0.0
  0
SPLINE
  5
2D8
100
AcDbEntity
  8
ASSI
100
AcDbSpline
 62
253
  6
CONTINUOUS
 70
0
 71
3
 72
11
 73
7
 74
5
 42
0.0000001
 43
0.0000001
 44
0.0000000001
 12
-0.1008819843
 22
-0.2292154883
 32
0.0
 13
-0.2504333939
 23
-0.000173313
 33
0.0
 40
0.0
 40
0.0
 40
0.0
 40
0.0
 40
0.082299687
 40
0.3001800223
 40
0.6219967759
 40
1.0
 40
1.0
 40
1.0
 40
1.0
 10
23.1947757791
 20
-7.3853612562
 30
0.0
 10
23.1920082605
 20
-7.3916493772
 30
0.0
 10
23.1584315753
 20
-7.3855279899
 30
0.0
 10
23.1140410325
 20
-7.39560218
 30
0.0
 10
23.0337424339
 20
-7.393743649
 30
0.0
 10
22.9763687322
 20
-7.3952602381
 30
0.0
 10
22.9448138554
 20
-7.3952820757
 30
0.0
 11
23.1947757791
 21
-7.3853612562
 31
0.0
 11
23.1745105244
 21
-7.3891183925
 31
0.0
 11
23.1200397727
 21
-7.3923159839
 31
0.0
 11
23.0394750922
 21
-7.3944778572
 31
0.0
 11
22.9448138554
 21
-7.3952820757
 31
0.0
  0
SPLINE
  5
2D9
100
AcDbEntity
  8
ASSI
100
AcDbSpline
 62
253
  6
CONTINUOUS
 70
0
 71
3
 72
13
 73
9
 74
7
 42
0.0000001
 43
0.0000001
 44
0.0000000001
 12
0.0699504283
 22
0.942650268
 32
0.0
 13
0.0004957988
 23
0.9452419502
 33
0.0
 40
0.0
 40
0.0
 40
0.0
 40
0.0
 40
0.0677735974
 40
0.1851013747
 40
0.3460122137
 40
0.5423316971
 40
0.7640939911
 40
1.0
 40
1.0
 40
1.0
 40
1.0
 10
-0.976863588
 20
-8.3404054807
 30
0.0
 10
-0.9752833239
 20
-8.3191098808
 30
0.0
 10
-0.9734897086
 20
-8.2607896309
 30
0.0
 10
-0.9709902347
 20
-8.1518114899
 30
0.0
 10
-0.9690360196
 20
-8.0022914305
 30
0.0
 10
-0.9674137169
 20
-7.8198717349
 30
0.0
 10
-0.9663799627
 20
-7.6138140107
 30
0.0
 10
-0.9660948694
 20
-7.469611851
 30
0.0
 10
-0.9660558821
 20
-7.3952824324
 30
0.0
 11
-0.976863588
 21
-8.3404054807
 31
0.0
 11
-0.9740310836
 21
-8.2764056743
 31
0.0
 11
-0.9714587173
 21
-8.1655323587
 31
0.0
 11
-0.9692772179
 21
-8.0134483074
 31
0.0
 11
-0.9675975882
 21
-7.8278864721
 31
0.0
 11
-0.966505236
 21
-7.6182702662
 31
0.0
 11
-0.9660558821
 21
-7.3952824324
 31
0.0
  0
SPLINE
  5
2DA
100
AcDbEntity
  8
ASSI
100
AcDbSpline
 62
253
  6
CONTINUOUS
 70
0
 71
3
 72
13
 73
9
 74
7
 42
0.0000001
 43
0.0000001
 44
0.0000000001
 12
0.0004957988
 22
-0.9452419502
 32
0.0
 13
0.0699504281
 23
-0.9426502681
 33
0.0
 40
0.0
 40
0.0
 40
0.0
 40
0.0
 40
0.2359060089
 40
0.4576683029
 40
0.6539877863
 40
0.8148986253
 40
0.9322264026
 40
1.0
 40
1.0
 40
1.0
 40
1.0
 10
22.9448138554
 20
-7.3952824324
 30
0.0
 10
22.9448528427
 20
-7.469611851
 30
0.0
 10
22.945137936
 20
-7.6138140107
 30
0.0
 10
22.9461716903
 20
-7.8198717349
 30
0.0
 10
22.9477939929
 20
-8.0022914305
 30
0.0
 10
22.9497482081
 20
-8.1518114899
 30
0.0
 10
22.9522476819
 20
-8.2607896309
 30
0.0
 10
22.9540412972
 20
-8.3191098808
 30
0.0
 10
22.9556215613
 20
-8.3404054807
 30
0.0
 11
22.9448138554
 21
-7.3952824324
 31
0.0
 11
22.9452632093
 21
-7.6182702662
 31
0.0
 11
22.9463555615
 21
-7.8278864721
 31
0.0
 11
22.9480351912
 21
-8.0134483074
 31
0.0
 11
22.9502166907
 21
-8.1655323587
 31
0.0
 11
22.952789057
 21
-8.2764056743
 31
0.0
 11
22.9556215613
 21
-8.3404054807
 31
0.0
  0
SPLINE
  5
2DB
100
AcDbEntity
  8
RACCORDO
100
AcDbSpline
 62
253
  6
CONTINUOUS
 70
0
 71
3
 72
11
 73
7
 74
5
 42
0.0000001
 43
0.0000001
 44
0.0000000001
 12
-0.0432841549
 22
-0.2455514343
 32
0.0
 13
0.2455491793
 23
-0.0432969454
 33
0.0
 40
0.0
 40
0.0
 40
0.0
 40
0.0
 40
0.3827689169
 40
0.7070452555
 40
0.9236831927
 40
1.0
 40
1.0
 40
1.0
 40
1.0
 10
-15.004776111
 20
-8.0942035424
 30
0.0
 10
-15.0102987207
 20
-8.1255333613
 30
0.0
 10
-15.0184025442
 20
-8.1818203157
 30
0.0
 10
-15.0376815961
 20
-8.2632531338
 30
0.0
 10
-15.0321996279
 20
-8.3027105812
 30
0.0
 10
-15.0500715637
 20
-8.3393040525
 30
0.0
 10
-15.0438250539
 20
-8.3404054807
 30
0.0
 11
-15.004776111
 21
-8.0942035424
 31
0.0
 11
-15.0210229563
 21
-8.188249015
 31
0.0
 11
-15.0341440633
 21
-8.2680314022
 31
0.0
 11
-15.0421494647
 21
-8.3214507805
 31
0.0
 11
-15.0438250539
 21
-8.3404054807
 31
0.0
  0
SPLINE
  5
2DC
100
AcDbEntity
  8
RACCORDO
100
AcDbSpline
 62
253
  6
CONTINUOUS
 70
0
 71
3
 72
12
 73
8
 74
6
 42
0.0000001
 43
0.0000001
 44
0.0000000001
 12
-0.0043623064
 22
0.2499925102
 32
0.0
 13
0.2499924871
 23
0.0043636351
 33
0.0
 40
0.0
 40
0.0
 40
0.0
 40
0.0
 40
0.3098605754
 40
0.5892143267
 40
0.8103234085
 40
0.9518389381
 40
1.0
 40
1.0
 40
1.0
 40
1.0
 10
-15.9581885914
 20
8.9203177606
 30
0.0
 10
-15.9586391603
 20
8.9461387016
 30
0.0
 10
-15.9597486362
 20
8.9957081774
 30
0.0
 10
-15.958884846
 20
9.0614393694
 30
0.0
 10
-15.9627217189
 20
9.1195440792
 30
0.0
 10
-15.9551796834
 20
9.1450374027
 30
0.0
 10
-15.9622018926
 20
9.1702096319
 30
0.0
 10
-15.9581885914
 20
9.1702796844
 30
0.0
 11
-15.9581885914
 21
8.9203177606
 31
0.0
 11
-15.9593255417
 21
8.9977840333
 31
0.0
 11
-15.9599209331
 21
9.0676284727
 31
0.0
 11
-15.9599163399
 21
9.1229125018
 31
0.0
 11
-15.959313101
 21
9.1582905675
 31
0.0
 11
-15.9581885914
 21
9.1702796844
 31
0.0
  0
SPLINE
  5
2DD
100
AcDbEntity
  8
ASSI
100
AcDbSpline
 62
253
  6
CONTINUOUS
 70
0
 71
3
 72
11
 73
7
 74
5
 42
0.0000001
 43
0.0000001
 44
0.0000000001
 12
-0.0432841549
 22
-0.2455514343
 32
0.0
 13
0.2455491793
 23
-0.0432969454
 33
0.0
 40
0.0
 40
0.0
 40
0.0
 40
0.0
 40
0.3827689169
 40
0.7070452555
 40
0.9236831927
 40
1.0
 40
1.0
 40
1.0
 40
1.0
 10
-15.004776111
 20
-8.0942035424
 30
0.0
 10
-15.0102987207
 20
-8.1255333613
 30
0.0
 10
-15.0184025442
 20
-8.1818203157
 30
0.0
 10
-15.0376815961
 20
-8.2632531338
 30
0.0
 10
-15.0321996279
 20
-8.3027105812
 30
0.0
 10
-15.0500715637
 20
-8.3393040525
 30
0.0
 10
-15.0438250539
 20
-8.3404054807
 30
0.0
 11
-15.004776111
 21
-8.0942035424
 31
0.0
 11
-15.0210229563
 21
-8.188249015
 31
0.0
 11
-15.0341440633
 21
-8.2680314022
 31
0.0
 11
-15.0421494647
 21
-8.3214507805
 31
0.0
 11
-15.0438250539
 21
-8.3404054807
 31
0.0
  0
SPLINE
  5
2DE
100
AcDbEntity
  8
ASSI
100
AcDbSpline
 62
253
  6
CONTINUOUS
 70
0
 71
3
 72
12
 73
8
 74
6
 42
0.0000001
 43
0.0000001
 44
0.0000000001
 12
-0.0043623064
 22
0.2499925102
 32
0.0
 13
0.2499924871
 23
0.0043636351
 33
0.0
 40
0.0
 40
0.0
 40
0.0
 40
0.0
 40
0.3098605754
 40
0.5892143267
 40
0.8103234085
 40
0.9518389381
 40
1.0
 40
1.0
 40
1.0
 40
1.0
 10
-15.9581885914
 20
8.9203177606
 30
0.0
 10
-15.9586391603
 20
8.9461387016
 30
0.0
 10
-15.9597486362
 20
8.9957081774
 30
0.0
 10
-15.958884846
 20
9.0614393694
 30
0.0
 10
-15.9627217189
 20
9.1195440792
 30
0.0
 10
-15.9551796834
 20
9.1450374027
 30
0.0
 10
-15.9622018926
 20
9.1702096319
 30
0.0
 10
-15.9581885914
 20
9.1702796844
 30
0.0
 11
-15.9581885914
 21
8.9203177606
 31
0.0
 11
-15.9593255417
 21
8.9977840333
 31
0.0
 11
-15.9599209331
 21
9.0676284727
 31
0.0
 11
-15.9599163399
 21
9.1229125018
 31
0.0
 11
-15.959313101
 21
9.1582905675
 31
0.0
 11
-15.9581885914
 21
9.1702796844
 31
0.0
  0
ELLIPSE
  5
2DF
100
AcDbEntity
  8
RACCORDO
100
AcDbEllipse
 62
7
  6
CONTINUOUS
 10
-1.3088755068
 20
8.3131610469
 30
0.0
 11
0.0
 21
0.3
 31
0.0
 40
0.0174550649
 41
-3.1241393611
 42
-1.5707963268
  0
ELLIPSE
  5
2E0
100
AcDbEntity
  8
RACCORDO
100
AcDbEllipse
 62
7
  6
CONTINUOUS
 10
23.2876334802
 20
8.3131610469
 30
0.0
 11
0.0
 21
0.3
 31
0.0
 40
0.0174550649
 41
-4.7123889804
 42
-3.1590459461
  0
ELLIPSE
  5
2E1
100
AcDbEntity
  8
RACCORDO
100
AcDbEllipse
 62
7
  6
CONTINUOUS
 10
-1.0536009054
 20
9.0136969547
 30
0.0
 11
0.1768305473
 21
-0.1768305473
 31
0.0
 40
0.9996954599
 41
2.3563467834
 42
3.9268385237
  0
ELLIPSE
  5
2E2
100
AcDbEntity
  8
RACCORDO
100
AcDbEllipse
 62
7
  6
CONTINUOUS
 10
23.0323588787
 20
9.0136969547
 30
0.0
 11
0.1768305473
 21
0.1768305473
 31
0.0
 40
0.9996954599
 41
-0.7852458701
 42
0.7852458702
  0
ELLIPSE
  5
2E3
100
AcDbEntity
  8
RACCORDO
100
AcDbEllipse
 62
7
  6
CONTINUOUS
 10
23.0258478967
 20
-8.9725274275
 30
0.0
 11
0.2183310446
 21
0.1221043275
 31
0.0
 40
0.9980297029
 41
-2.0815635429
 42
-0.5109195152
  0
ELLIPSE
  5
2E4
100
AcDbEntity
  8
RACCORDO
100
AcDbEllipse
 62
7
  6
CONTINUOUS
 10
-1.0470899234
 20
-8.9725274275
 30
0.0
 11
0.2183310446
 21
-0.1221043275
 31
0.0
 40
0.9980297029
 41
-2.6306731384
 42
-1.0600291107
  0
ELLIPSE
  5
2E5
100
AcDbEntity
  8
RACCORDO
100
AcDbEllipse
 62
7
  6
CONTINUOUS
 10
-1.0344003339
 20
-8.6754262843
 30
0.0
 11
0.0250113895
 21
0.2526592035
 31
0.0
 40
0.9846622838
 41
-4.6121910857
 42
-3.0444253421
  0
ELLIPSE
  5
2E6
100
AcDbEntity
  8
RACCORDO
100
AcDbEllipse
 62
7
  6
CONTINUOUS
 10
-1.0344003339
 20
-8.966183116
 30
0.0
 11
0.2236527791
 21
0.1118178731
 31
0.0
 40
0.9998096356
 41
2.6780516535
 42
4.2486956813
  0
ELLIPSE
  5
2E7
100
AcDbEntity
  8
RACCORDO
100
AcDbEllipse
 62
7
  6
CONTINUOUS
 10
23.0131583073
 20
-8.966183116
 30
0.0
 11
0.2236527791
 21
-0.1118178731
 31
0.0
 40
0.9998096356
 41
-1.1071030277
 42
0.4635410001
  0
ELLIPSE
  5
2E8
100
AcDbEntity
  8
RACCORDO
100
AcDbEllipse
 62
7
  6
CONTINUOUS
 10
23.0131583073
 20
-8.6754262843
 30
0.0
 11
-0.0250113895
 21
0.2526592035
 31
0.0
 40
0.9846622838
 41
-3.2387599651
 42
-1.6709942215
  0
ELLIPSE
  5
2E9
100
AcDbEntity
  8
ASSI
100
AcDbEllipse
 62
7
  6
CONTINUOUS
 10
-1.3088755068
 20
8.3131610469
 30
0.0
 11
0.0
 21
0.3
 31
0.0
 40
0.0174550649
 41
-3.1241393611
 42
-1.5707963268
  0
ELLIPSE
  5
2EA
100
AcDbEntity
  8
ASSI
100
AcDbEllipse
 62
7
  6
CONTINUOUS
 10
23.2876334802
 20
8.3131610469
 30
0.0
 11
0.0
 21
0.3
 31
0.0
 40
0.0174550649
 41
-4.7123889804
 42
-3.1590459461
  0
ELLIPSE
  5
2EB
100
AcDbEntity
  8
ASSI
100
AcDbEllipse
 62
7
  6
CONTINUOUS
 10
-1.0536009054
 20
9.0136969547
 30
0.0
 11
0.1768305473
 21
-0.1768305473
 31
0.0
 40
0.9996954599
 41
2.3563467834
 42
3.9268385237
  0
ELLIPSE
  5
2EC
100
AcDbEntity
  8
ASSI
100
AcDbEllipse
 62
7
  6
CONTINUOUS
 10
23.0323588787
 20
9.0136969547
 30
0.0
 11
0.1768305473
 21
0.1768305473
 31
0.0
 40
0.9996954599
 41
-0.7852458701
 42
0.7852458702
  0
ELLIPSE
  5
2ED
100
AcDbEntity
  8
ASSI
100
AcDbEllipse
 62
7
  6
CONTINUOUS
 10
23.0258478967
 20
-8.9725274275
 30
0.0
 11
0.2183310446
 21
0.1221043275
 31
0.0
 40
0.9980297029
 41
-2.0815635429
 42
-0.5109195152
  0
ELLIPSE
  5
2EE
100
AcDbEntity
  8
ASSI
100
AcDbEllipse
 62
7
  6
CONTINUOUS
 10
-1.0470899234
 20
-8.9725274275
 30
0.0
 11
0.2183310446
 21
-0.1221043275
 31
0.0
 40
0.9980297029
 41
-2.6306731384
 42
-1.0600291107
  0
ELLIPSE
  5
2EF
100
AcDbEntity
  8
ASSI
100
AcDbEllipse
 62
7
  6
CONTINUOUS
 10
-1.0344003339
 20
-8.966183116
 30
0.0
 11
0.2236527791
 21
0.1118178731
 31
0.0
 40
0.9998096356
 41
2.6780516535
 42
4.2486956813
  0
ELLIPSE
  5
2F0
100
AcDbEntity
  8
ASSI
100
AcDbEllipse
 62
7
  6
CONTINUOUS
 10
23.0131583073
 20
-8.966183116
 30
0.0
 11
0.2236527791
 21
-0.1118178731
 31
0.0
 40
0.9998096356
 41
-1.1071030277
 42
0.4635410001
  0
ELLIPSE
  5
2F1
100
AcDbEntity
  8
ASSI
100
AcDbEllipse
 62
7
  6
CONTINUOUS
 10
-1.0344003339
 20
-8.6754262843
 30
0.0
 11
0.0250113895
 21
0.2526592035
 31
0.0
 40
0.9846622838
 41
-4.6121910857
 42
-3.0444253421
  0
ELLIPSE
  5
2F2
100
AcDbEntity
  8
ASSI
100
AcDbEllipse
 62
7
  6
CONTINUOUS
 10
23.0131583073
 20
-8.6754262843
 30
0.0
 11
-0.0250113895
 21
0.2526592035
 31
0.0
 40
0.9846622838
 41
-3.2387599651
 42
-1.6709942215
  0
ELLIPSE
  5
2F3
100
AcDbEntity
  8
CURVE
100
AcDbEllipse
 62
253
  6
CONTINUOUS
 10
408.795817901
 20
9.4707170627
 30
0.0
 11
392.6488013173
 21
162.6404587552
 31
0.0
 40
1.0
 41
2.7759629296
 42
2.7799177233
  0
ELLIPSE
  5
2F4
100
AcDbEntity
  8
CURVE
100
AcDbEllipse
 62
253
  6
CONTINUOUS
 10
408.795817901
 20
9.4707170627
 30
0.0
 11
419.5121694959
 21
68.077453278
 31
0.0
 40
1.0
 41
9.294926835
 42
9.2972029554
  0
ELLIPSE
  5
2F5
100
AcDbEntity
  8
CURVE
100
AcDbEllipse
 62
253
  6
CONTINUOUS
 10
408.795817901
 20
9.4707170627
 30
0.0
 11
416.3205321906
 21
85.452995714
 31
0.0
 40
1.0
 41
2.9702347915
 42
2.9704542295
  0
ELLIPSE
  5
2F6
100
AcDbEntity
  8
CURVE
100
AcDbEllipse
 62
253
  6
CONTINUOUS
 10
408.795817901
 20
9.4707170627
 30
0.0
 11
423.5518873126
 21
-35.0542259066
 31
0.0
 40
1.0
 41
-3.0277885934
 42
-3.0237678815
  0
ELLIPSE
  5
2F7
100
AcDbEntity
  8
CURVE
100
AcDbEllipse
 62
253
  6
CONTINUOUS
 10
408.795817901
 20
9.4707170627
 30
0.0
 11
409.5788444896
 21
-113.4467723057
 31
0.0
 40
1.0
 41
-2.840358752
 42
-2.8401531819
  0
ELLIPSE
  5
2F8
100
AcDbEntity
  8
CURVE
100
AcDbEllipse
 62
253
  6
CONTINUOUS
 10
408.795817901
 20
9.4707170627
 30
0.0
 11
425.0
 21
0.0
 31
0.0
 40
1.0
 41
-3.1145232959
 42
-3.1105685022
  0
ELLIPSE
  5
2F9
100
AcDbEntity
  8
CURVE
100
AcDbEllipse
 62
253
  6
CONTINUOUS
 10
408.795817901
 20
9.4707170627
 30
0.0
 11
425.0
 21
0.0
 31
0.0
 40
1.0
 41
3.176843087
 42
3.1782225233
  0
ELLIPSE
  5
2FA
100
AcDbEntity
  8
CURVE
100
AcDbEllipse
 62
253
  6
CONTINUOUS
 10
408.795817901
 20
9.4707170627
 30
0.0
 11
422.9316638339
 21
-41.8784876358
 31
0.0
 40
1.0
 41
-3.0076444403
 42
-3.0072417414
  0
ELLIPSE
  5
2FB
100
AcDbEntity
  8
CURVE
100
AcDbEllipse
 62
253
  6
CONTINUOUS
 10
408.795817901
 20
9.4707170627
 30
0.0
 11
419.5121694959
 21
-68.077453278
 31
0.0
 40
1.0
 41
-2.9494099073
 42
-2.945466943
  0
ELLIPSE
  5
2FC
100
AcDbEntity
  8
CURVE
100
AcDbEllipse
 62
253
  6
CONTINUOUS
 10
408.795817901
 20
9.4707170627
 30
0.0
 11
423.5518873126
 21
35.0542259066
 31
0.0
 40
1.0
 41
9.3692992046
 42
9.3735110912
  0
ELLIPSE
  5
2FD
100
AcDbEntity
  8
CURVE
100
AcDbEllipse
 62
253
  6
CONTINUOUS
 10
408.795817901
 20
9.4707170627
 30
0.0
 11
420.8920663559
 21
-58.948015053
 31
0.0
 40
1.0
 41
-2.9753472415
 42
-2.971354793
  0
ENDSEC
  0
SECTION
  2
OBJECTS
  0
DICTIONARY
  5
C
100
AcDbDictionary
280
0
281
1
  3
ACAD_GROUP
350
D
  3
ACAD_MLINESTYLE
350
17
  3
ACAD_LAYOUT
350
1A
  3
ACAD_PLOTSETTINGS
350
19
  3
ACAD_PLOTSTYLENAME
350
E
  0
DICTIONARY
  5
D
102
{ACAD_REACTORS
330
C
102
}
100
AcDbDictionary
280
0
281
1
  0
ACDBDICTIONARYWDFLT
  5
E
102
{ACAD_REACTORS
330
C
102
}
100
AcDbDictionary
281
1
  3
Normal
350
F
100
AcDbDictionaryWithDefault
340
F
  0
DICTIONARY
  5
17
102
{ACAD_REACTORS
330
C
102
}
100
AcDbDictionary
280
0
281
1
  3
Standard
350
18
  0
DICTIONARY
  5
19
102
{ACAD_REACTORS
330
C
102
}
100
AcDbDictionary
281
1
  0
DICTIONARY
  5
1A
102
{ACAD_REACTORS
330
C
102
}
100
AcDbDictionary
281
1
  3
Model
350
2FE
  3
Layout1
350
2FF
  0
ACDBPLACEHOLDER
  5
F
102
{ACAD_REACTORS
330
E
102
}
  0
MLINESTYLE
  5
18
102
{ACAD_REACTORS
330
17
102
}
100
AcDbMlineStyle
  2
STANDARD
 70
0
  3

 62
256
 51
90.0
 52
90.0
 71
2
 49
0.5
 62
256
  6
BYLAYER
 49
-0.5
 62
256
  6
BYLAYER
  0
LAYOUT
  5
2FE
102
{ACAD_REACTORS
330
1A
102
}
100
AcDbPlotSettings
  1

  2
none_device
  4
ISO_A4_(297.00_x_210.00_MM)
  6

 40
0.0
 41
0.0
 42
0.0
 43
0.0
 44
297.0
 45
210.0
 46
0.0
 47
0.0
 48
0.0
 49
0.0
140
0.0
141
0.0
142
1.0
143
1.0
 70
1024
 72
1
 73
0
 74
0
  7

 75
0
147
1.0
148
0.0
149
0.0
100
AcDbLayout
  1
Model
 70
0
 71
0
 10
0.0
 20
0.0
 11
297.0
 21
210.0
 12
0.0
 22
0.0
 32
0.0
 14
0.0
 24
0.0
 34
0.0
 15
0.0
 25
0.0
 35
0.0
146
0.0
 13
0.0
 23
0.0
 33
0.0
 16
1.0
 26
0.0
 36
0.0
 17
0.0
 27
1.0
 37
0.0
 76
0
330
212
345
0
346
0
  0
LAYOUT
  5
2FF
102
{ACAD_REACTORS
330
1A
102
}
100
AcDbPlotSettings
  1

  2
none_device
  4
ISO_A4_(297.00_x_210.00_MM)
  6

 40
0.0
 41
0.0
 42
0.0
 43
0.0
 44
297.0
 45
210.0
 46
0.0
 47
0.0
 48
0.0
 49
0.0
140
0.0
141
0.0
142
1.0
143
1.0
 70
0
 72
1
 73
0
 74
0
  7

 75
0
147
1.0
148
0.0
149
0.0
100
AcDbLayout
  1
Layout1
 70
0
 71
1
 10
0.0
 20
0.0
 11
297.0
 21
210.0
 12
0.0
 22
0.0
 32
0.0
 14
0.0
 24
0.0
 34
0.0
 15
0.0
 25
0.0
 35
0.0
146
0.0
 13
0.0
 23
0.0
 33
0.0
 16
1.0
 26
0.0
 36
0.0
 17
0.0
 27
1.0
 37
0.0
 76
0
330
213
345
0
346
0
  0
ENDSEC
  0
EOF
