  0
SECTION
  2
HEADER
  9
$ACADVER
  1
AC1015
  9
$DWGCODEPAGE
  3
ANSI_1252
  9
$EXTMAX
 10
297.0
 20
210.0
 30
0.0
  9
$EXTMIN
 10
0.0
 20
0.0
 30
0.0
  9
$LIMMIN
 10
0.0
 20
0.0
  9
$LIMMAX
 10
297.0
 20
210.0
  9
$VIEWCTR
 10
148.5
 20
105.0
  9
$VIEWSIZE
 40
210.0
  9
$CLAYER
  8
0
  9
$LTSCALE
 40
16.335
  9
$CELTYPE
  6
BYLAYER
  9
$DIMSCALE
 40
1.0
  9
$DIMASZ
 40
3.0
  9
$DIMEXO
 40
1.85625
  9
$DIMDLI
 40
11.286
  9
$DIMEXE
 40
5.346
  9
$DIMCEN
 40
2.673
  9
$DIMLFAC
 40
1.0
  9
$DIMBLK
  1
_FILLED
  9
$DIMTXT
 40
3.0
  9
$DIMTOL
 70
1
  9
$DIMLIM
 70
0
  9
$DIMTFAC
 40
1.0
  9
$DIMTP
 40
0.01
  9
$DIMTM
 40
0.01
  9
$PDMODE
 70
3
  9
$PDSIZE
 40
3.0
  9
$HANDSEED
  5
29A
  9
$TILEMODE
 70
1
  9
$MEASUREMENT
 70
1
  9
$INSUNITS
 70
4
  0
ENDSEC
  0
SECTION
  2
CLASSES
  0
CLASS
  1
ACDBDICTIONARYWDFLT
  2
AcDbDictionaryWithDefault
  3
AutoCAD 2000
 90
0
280
0
281
0
  0
CLASS
  1
ACDBPLACEHOLDER
  2
AcDbPlaceHolder
  3
AutoCAD 2000
 90
0
280
0
281
0
  0
CLASS
  1
LAYOUT
  2
AcDbLayout
  3
AutoCAD 2000
 90
0
280
0
281
0
  0
ENDSEC
  0
SECTION
  2
TABLES
  0
TABLE
  2
VPORT
  5
8
100
AcDbSymbolTable
 70
2
  0
VPORT
  5
1F4
100
AcDbSymbolTableRecord
100
AcDbViewportTableRecord
  2
*ACTIVE
 70
0
 10
0.0
 20
0.0
 11
1.0
 21
1.0
 12
148.5
 22
105.0
 13
0.0
 23
0.0
 14
1.0
 24
1.0
 15
0.0
 25
0.0
 16
0.0
 26
0.0
 36
1.0
 17
0.0
 27
0.0
 37
0.0
 40
210.0
 41
1.4142857143
 42
50.0
 43
0.0
 44
0.0
 50
0.0
 51
0.0
 71
0
 72
100
 73
1
 74
1
 75
0
 76
0
 77
0
 78
0
  0
ENDTAB
  0
TABLE
  2
LTYPE
  5
5
100
AcDbSymbolTable
 70
6
  0
LTYPE
  5
14
100
AcDbSymbolTableRecord
100
AcDbLinetypeTableRecord
  2
BYBLOCK
 70
0
  3

 72
65
 73
0
 40
0.0
  0
LTYPE
  5
15
100
AcDbSymbolTableRecord
100
AcDbLinetypeTableRecord
  2
BYLAYER
 70
0
  3

 72
65
 73
0
 40
0.0
  0
LTYPE
  5
16
100
AcDbSymbolTableRecord
100
AcDbLinetypeTableRecord
  2
CONTINUOUS
 70
64
  3
Solid line
 72
65
 73
0
 40
0.0
  0
LTYPE
  5
1F5
100
AcDbSymbolTableRecord
100
AcDbLinetypeTableRecord
  2
CENTER
 70
64
  3
____ _ ____ _ ____ _ ____ _ ____ _ ____ _ ____
 72
65
 73
4
 40
0.6
 49
0.375
 74
0
 49
-0.075
 74
0
 49
0.075
 74
0
 49
-0.075
 74
0
  0
LTYPE
  5
1F6
100
AcDbSymbolTableRecord
100
AcDbLinetypeTableRecord
  2
HIDDEN
 70
64
  3
- - - - - - - - - - - - - - - - - - - -
 72
65
 73
2
 40
0.2
 49
0.1
 74
0
 49
-0.1
 74
0
  0
LTYPE
  5
1F7
100
AcDbSymbolTableRecord
100
AcDbLinetypeTableRecord
  2
PHANTOM
 70
64
  3
_____ _ _ _____ _ _ _____ _ _ _____
 72
65
 73
6
 40
0.8
 49
0.45
 74
0
 49
-0.05
 74
0
 49
0.1
 74
0
 49
-0.05
 74
0
 49
0.1
 74
0
 49
-0.05
 74
0
  0
LTYPE
  5
1F8
100
AcDbSymbolTableRecord
100
AcDbLinetypeTableRecord
  2
DOT
 70
64
  3
. . . . . . . . . . . . . . . . . . . .
 72
65
 73
2
 40
0.2
 49
0.1
 74
0
 49
-0.1
 74
0
  0
LTYPE
  5
1F9
100
AcDbSymbolTableRecord
100
AcDbLinetypeTableRecord
  2
DASHED
 70
64
  3
- - - - - - - - - - - - - - - - - - - -
 72
65
 73
2
 40
0.2
 49
0.1
 74
0
 49
-0.1
 74
0
  0
ENDTAB
  0
TABLE
  2
LAYER
  5
2
100
AcDbSymbolTable
 70
36
  0
LAYER
  5
10
100
AcDbSymbolTableRecord
100
AcDbLayerTableRecord
  2
0
 70
0
 62
7
  6
CONTINUOUS
370
-3
390
F
  0
LAYER
  5
1FA
100
AcDbSymbolTableRecord
100
AcDbLayerTableRecord
  2
DEFAULT_1
 70
0
 62
7
  6
CENTER
370
-3
390
F
  0
LAYER
  5
1FB
100
AcDbSymbolTableRecord
100
AcDbLayerTableRecord
  2
DEFAULT_2
 70
0
 62
7
  6
HIDDEN
370
-3
390
F
  0
LAYER
  5
1FC
100
AcDbSymbolTableRecord
100
AcDbLayerTableRecord
  2
DEFAULT_3
 70
0
 62
7
  6
PHANTOM
370
-3
390
F
  0
LAYER
  5
1FD
100
AcDbSymbolTableRecord
100
AcDbLayerTableRecord
  2
ASSI
 70
0
 62
7
  6
CONTINUOUS
370
-3
390
F
  0
LAYER
  5
1FE
100
AcDbSymbolTableRecord
100
AcDbLayerTableRecord
  2
COORDINATE
 70
0
 62
7
  6
CONTINUOUS
370
-3
390
F
  0
LAYER
  5
1FF
100
AcDbSymbolTableRecord
100
AcDbLayerTableRecord
  2
COORD_ORIGINE
 70
0
 62
7
  6
CONTINUOUS
370
-3
390
F
  0
LAYER
  5
200
100
AcDbSymbolTableRecord
100
AcDbLayerTableRecord
  2
COPY_PUBLISH
 70
0
 62
7
  6
CONTINUOUS
370
-3
390
F
  0
LAYER
  5
201
100
AcDbSymbolTableRecord
100
AcDbLayerTableRecord
  2
COSMETIC
 70
0
 62
7
  6
CONTINUOUS
370
-3
390
F
  0
LAYER
  5
202
100
AcDbSymbolTableRecord
100
AcDbLayerTableRecord
  2
CURVE
 70
0
 62
7
  6
CONTINUOUS
370
-3
390
F
  0
LAYER
  5
203
100
AcDbSymbolTableRecord
100
AcDbLayerTableRecord
  2
DRAFT
 70
0
 62
7
  6
CONTINUOUS
370
-3
390
F
  0
LAYER
  5
204
100
AcDbSymbolTableRecord
100
AcDbLayerTableRecord
  2
IGES
 70
0
 62
7
  6
CONTINUOUS
370
-3
390
F
  0
LAYER
  5
205
100
AcDbSymbolTableRecord
100
AcDbLayerTableRecord
  2
IMPORT_IGES
 70
0
 62
7
  6
CONTINUOUS
370
-3
390
F
  0
LAYER
  5
206
100
AcDbSymbolTableRecord
100
AcDbLayerTableRecord
  2
NOTE
 70
0
 62
7
  6
CONTINUOUS
370
-3
390
F
  0
LAYER
  5
207
100
AcDbSymbolTableRecord
100
AcDbLayerTableRecord
  2
PIANI
 70
0
 62
7
  6
CONTINUOUS
370
-3
390
F
  0
LAYER
  5
208
100
AcDbSymbolTableRecord
100
AcDbLayerTableRecord
  2
PIANI_ORIGINE
 70
0
 62
7
  6
CONTINUOUS
370
-3
390
F
  0
LAYER
  5
209
100
AcDbSymbolTableRecord
100
AcDbLayerTableRecord
  2
RACCORDO
 70
0
 62
7
  6
CONTINUOUS
370
-3
390
F
  0
LAYER
  5
20A
100
AcDbSymbolTableRecord
100
AcDbLayerTableRecord
  2
SMUSSO
 70
0
 62
7
  6
CONTINUOUS
370
-3
390
F
  0
LAYER
  5
20B
100
AcDbSymbolTableRecord
100
AcDbLayerTableRecord
  2
SNAPLINE
 70
0
 62
7
  6
CONTINUOUS
370
-3
390
F
  0
LAYER
  5
20C
100
AcDbSymbolTableRecord
100
AcDbLayerTableRecord
  2
SUPERFICI
 70
0
 62
7
  6
CONTINUOUS
370
-3
390
F
  0
LAYER
  5
20D
100
AcDbSymbolTableRecord
100
AcDbLayerTableRecord
  2
TRASH
 70
0
 62
7
  6
CONTINUOUS
370
-3
390
F
  0
ENDTAB
  0
TABLE
  2
STYLE
  5
3
100
AcDbSymbolTable
 70
1
  0
STYLE
  5
11
100
AcDbSymbolTableRecord
100
AcDbTextStyleTableRecord
  2
STANDARD
 70
0
 40
0.0
 41
0.8
 50
0.0
 71
0
 42
0.2
  3
txt
  4

  0
STYLE
  5
20E
100
AcDbSymbolTableRecord
100
AcDbTextStyleTableRecord
  2
TEXTSTYLE_1
 70
0
 40
0.0
 41
0.8
 50
0.0
 71
0
 42
0.2
  3
gdt
  4

  0
ENDTAB
  0
TABLE
  2
VIEW
  5
6
100
AcDbSymbolTable
 70
0
  0
ENDTAB
  0
TABLE
  2
UCS
  5
7
100
AcDbSymbolTable
 70
0
  0
ENDTAB
  0
TABLE
  2
APPID
  5
9
100
AcDbSymbolTable
 70
1
  0
APPID
  5
20F
100
AcDbSymbolTableRecord
100
AcDbRegAppTableRecord
  2
ACAD
 70
0
  0
ENDTAB
  0
TABLE
  2
BLOCK_RECORD
  5
1
100
AcDbSymbolTable
 70
0
  0
BLOCK_RECORD
  5
210
100
AcDbSymbolTableRecord
100
AcDbBlockTableRecord
  2
*Model_Space
  0
BLOCK_RECORD
  5
211
100
AcDbSymbolTableRecord
100
AcDbBlockTableRecord
  2
*Paper_Space
  0
BLOCK_RECORD
  5
212
100
AcDbSymbolTableRecord
100
AcDbBlockTableRecord
  2
_FILLED
  0
BLOCK_RECORD
  5
213
100
AcDbSymbolTableRecord
100
AcDbBlockTableRecord
  2
*D0
  0
BLOCK_RECORD
  5
214
100
AcDbSymbolTableRecord
100
AcDbBlockTableRecord
  2
*D1
  0
BLOCK_RECORD
  5
215
100
AcDbSymbolTableRecord
100
AcDbBlockTableRecord
  2
*D2
  0
ENDTAB
  0
TABLE
  2
DIMSTYLE
  5
A
100
AcDbSymbolTable
 70
1
100
AcDbDimStyleTable
 71
0
  0
DIMSTYLE
105
216
100
AcDbSymbolTableRecord
100
AcDbDimStyleTableRecord
  2
STANDARD
 70
0
  3

  4

 40
1.0
 41
3.0
 42
0.0625
 43
0.38
 44
0.18
 45
0.0
 46
0.0
 47
0.01
 48
0.01
140
3.0
141
0.09
142
0.0
143
25.4
144
1.0
145
0.0
146
1.0
147
0.09
 71
1.0
 72
0.0
 73
0
 74
0
 75
0
 76
0
 77
1
 78
8
170
0
171
2
172
0
173
0
174
0
175
0
176
0
177
0
178
0
270
2
271
2
272
2
273
2
274
2
275
0
280
0
281
0
282
0
283
1
284
8
285
0
286
0
287
3
288
0
340
11
341
212
342
212
343
212
344
212
  0
DIMSTYLE
105
217
100
AcDbSymbolTableRecord
100
AcDbDimStyleTableRecord
  2
DIMSTYLE_1
 70
0
  3

  4

 40
1.0
 41
3.0
 42
0.0625
 43
0.38
 44
0.18
 45
0.0
 46
0.0
 47
0.0
 48
0.0
140
3.0
141
0.09
142
0.0
143
25.4
144
1.0
145
0.0
146
1.0
147
0.09
 71
0.0
 72
0.0
 73
0
 74
0
 75
0
 76
0
 77
1
 78
8
170
0
171
2
172
0
173
0
174
0
175
0
176
0
177
0
178
0
270
2
271
2
272
2
273
2
274
2
275
0
280
0
281
0
282
0
283
1
284
8
285
0
286
0
287
3
288
0
340
11
341
212
342
212
343
212
344
212
  0
DIMSTYLE
105
218
100
AcDbSymbolTableRecord
100
AcDbDimStyleTableRecord
  2
DIMSTYLE_2
 70
0
  3

  4

 40
1.0
 41
3.0
 42
0.0625
 43
0.38
 44
0.18
 45
0.0
 46
0.0
 47
0.0
 48
0.0
140
3.0
141
0.09
142
0.0
143
25.4
144
1.0
145
0.0
146
1.0
147
0.09
 71
0.0
 72
0.0
 73
0
 74
0
 75
0
 76
0
 77
1
 78
8
170
0
171
2
172
0
173
0
174
0
175
0
176
0
177
0
178
0
270
2
271
1
272
1
273
2
274
2
275
0
280
0
281
0
282
0
283
1
284
8
285
0
286
0
287
3
288
0
340
11
341
212
342
212
343
212
344
212
  0
ENDTAB
  0
ENDSEC
  0
SECTION
  2
BLOCKS
  0
BLOCK
  5
20
100
AcDbEntity
  8
0
100
AcDbBlockBegin
  2
*Model_Space
 70
0
 10
0.0
 20
0.0
 30
0.0
  3
*Model_Space
  1

  0
ENDBLK
  5
21
100
AcDbEntity
  8
0
100
AcDbBlockEnd
  0
BLOCK
  5
1C
100
AcDbEntity
  8
0
100
AcDbBlockBegin
  2
*Paper_Space
 70
0
 10
0.0
 20
0.0
 30
0.0
  3
*Paper_Space
  1

  0
ENDBLK
  5
1D
100
AcDbEntity
  8
0
100
AcDbBlockEnd
  0
BLOCK
  5
219
100
AcDbEntity
  8
0
100
AcDbBlockBegin
  2
_FILLED
 70
64
 10
0.0
 20
0.0
  3
_FILLED
  1

  0
SOLID
  5
21A
100
AcDbEntity
  8
0
  6
BYBLOCK
 62
0
100
AcDbTrace
 10
0.0
 20
0.0
 11
-1.0
 21
0.3166666667
 12
-1.0
 22
-0.3166666667
 13
-1.0
 23
-0.3166666667
  0
ENDBLK
  5
21B
100
AcDbEntity
  8
0
  6
BYBLOCK
 62
0
100
AcDbBlockEnd
  0
BLOCK
  5
21C
100
AcDbEntity
  8
0
100
AcDbBlockBegin
 62
7
  6
CONTINUOUS
  2
*D0
 70
65
 10
0.0
 20
0.0
  3
*D0
  1

  0
MTEXT
  5
21D
100
AcDbEntity
  8
0
100
AcDbMText
 62
7
  6
CONTINUOUS
  7
STANDARD
 71
2
 72
1
 10
-25.1413848889
 20
20.949948787
 30
0.0
 11
1.0
 21
0.0
 31
0.0
 44
0.9
  1
6,5
 40
3.0
 41
6.2142857143
  0
LINE
  5
21E
100
AcDbEntity
  8
0
100
AcDbLine
 62
7
  6
CONTINUOUS
 10
-21.891539769
 20
6.206930813
 11
-21.891539769
 21
18.699948787
  0
LINE
  5
21F
100
AcDbEntity
  8
0
100
AcDbLine
 62
7
  6
CONTINUOUS
 10
-28.3912300088
 20
9.356207556
 11
-28.3912300088
 21
18.699948787
  0
LINE
  5
220
100
AcDbEntity
  8
0
100
AcDbLine
 62
7
  6
CONTINUOUS
 10
-21.891539769
 20
17.199948787
 11
-17.891539769
 21
17.199948787
  0
LINE
  5
221
100
AcDbEntity
  8
0
100
AcDbLine
 62
7
  6
CONTINUOUS
 10
-17.891539769
 20
17.199948787
 11
-25.1413848889
 21
17.199948787
  0
LINE
  5
222
100
AcDbEntity
  8
0
100
AcDbLine
 62
7
  6
CONTINUOUS
 10
-28.3912300088
 20
17.199948787
 11
-32.3912300088
 21
17.199948787
  0
LINE
  5
223
100
AcDbEntity
  8
0
100
AcDbLine
 62
7
  6
CONTINUOUS
 10
-32.3912300088
 20
17.199948787
 11
-25.1413848889
 21
17.199948787
  0
INSERT
  5
224
100
AcDbEntity
  8
0
100
AcDbBlockReference
 62
7
  6
CONTINUOUS
  2
_FILLED
 10
-21.891539769
 20
17.199948787
 41
3.0
 42
3.0
 43
3.0
 50
180.0
  0
INSERT
  5
225
100
AcDbEntity
  8
0
100
AcDbBlockReference
 62
7
  6
CONTINUOUS
  2
_FILLED
 10
-28.3912300088
 20
17.199948787
 41
3.0
 42
3.0
 43
3.0
  0
ENDBLK
  5
226
100
AcDbEntity
  8
0
  6
BYBLOCK
 62
0
100
AcDbBlockEnd
  0
BLOCK
  5
227
100
AcDbEntity
  8
0
100
AcDbBlockBegin
 62
7
  6
CONTINUOUS
  2
*D1
 70
65
 10
0.0
 20
0.0
  3
*D1
  1

  0
MTEXT
  5
228
100
AcDbEntity
  8
0
100
AcDbMText
 62
7
  6
CONTINUOUS
  7
STANDARD
 71
2
 72
1
 10
13.0560906667
 20
20.949948787
 30
0.0
 11
1.0
 21
0.0
 31
0.0
 44
0.9
  1
49,6
 40
3.0
 41
8.7857142857
  0
LINE
  5
229
100
AcDbEntity
  8
0
100
AcDbLine
 62
7
  6
CONTINUOUS
 10
-11.7439093333
 20
8.4475835922
 11
-11.7439093333
 21
18.699948787
  0
LINE
  5
22A
100
AcDbEntity
  8
0
100
AcDbLine
 62
7
  6
CONTINUOUS
 10
37.8560906667
 20
8.4475835922
 11
37.8560906667
 21
18.699948787
  0
LINE
  5
22B
100
AcDbEntity
  8
0
100
AcDbLine
 62
7
  6
CONTINUOUS
 10
-11.7439093333
 20
17.199948787
 11
13.0560906667
 21
17.199948787
  0
LINE
  5
22C
100
AcDbEntity
  8
0
100
AcDbLine
 62
7
  6
CONTINUOUS
 10
37.8560906667
 20
17.199948787
 11
13.0560906667
 21
17.199948787
  0
INSERT
  5
22D
100
AcDbEntity
  8
0
100
AcDbBlockReference
 62
7
  6
CONTINUOUS
  2
_FILLED
 10
-11.7439093333
 20
17.199948787
 41
3.0
 42
3.0
 43
3.0
 50
180.0
  0
INSERT
  5
22E
100
AcDbEntity
  8
0
100
AcDbBlockReference
 62
7
  6
CONTINUOUS
  2
_FILLED
 10
37.8560906667
 20
17.199948787
 41
3.0
 42
3.0
 43
3.0
  0
ENDBLK
  5
22F
100
AcDbEntity
  8
0
  6
BYBLOCK
 62
0
100
AcDbBlockEnd
  0
BLOCK
  5
230
100
AcDbEntity
  8
0
100
AcDbBlockBegin
 62
7
  6
CONTINUOUS
  2
*D2
 70
65
 10
0.0
 20
0.0
  3
*D2
  1

  0
MTEXT
  5
231
100
AcDbEntity
  8
0
100
AcDbMText
 62
7
  6
CONTINUOUS
  7
STANDARD
 71
2
 72
1
 10
42.1060906667
 20
-0.0430726518
 30
0.0
 11
0.0
 21
1.0
 31
0.0
 44
0.9
  1
18,5
 40
3.0
 41
7.9285714286
  0
LINE
  5
232
100
AcDbEntity
  8
0
100
AcDbLine
 62
7
  6
CONTINUOUS
 10
38.0991467169
 20
9.199948787
 11
47.3560906667
 21
9.199948787
  0
LINE
  5
233
100
AcDbEntity
  8
0
100
AcDbLine
 62
7
  6
CONTINUOUS
 10
37.2421394112
 20
-9.2860940906
 11
47.3560906667
 21
-9.2860940906
  0
LINE
  5
234
100
AcDbEntity
  8
0
100
AcDbLine
 62
7
  6
CONTINUOUS
 10
45.8560906667
 20
9.199948787
 11
45.8560906667
 21
-0.0430726518
  0
LINE
  5
235
100
AcDbEntity
  8
0
100
AcDbLine
 62
7
  6
CONTINUOUS
 10
45.8560906667
 20
-9.2860940906
 11
45.8560906667
 21
-0.0430726518
  0
INSERT
  5
236
100
AcDbEntity
  8
0
100
AcDbBlockReference
 62
7
  6
CONTINUOUS
  2
_FILLED
 10
45.8560906667
 20
9.199948787
 41
3.0
 42
3.0
 43
3.0
 50
90.0
  0
INSERT
  5
237
100
AcDbEntity
  8
0
100
AcDbBlockReference
 62
7
  6
CONTINUOUS
  2
_FILLED
 10
45.8560906667
 20
-9.2860940906
 41
3.0
 42
3.0
 43
3.0
 50
270.0
  0
ENDBLK
  5
238
100
AcDbEntity
  8
0
  6
BYBLOCK
 62
0
100
AcDbBlockEnd
  0
ENDSEC
  0
SECTION
  2
ENTITIES
  0
DIMENSION
  5
239
100
AcDbEntity
  8
0
100
AcDbDimension
 62
7
  6
CONTINUOUS
  2
*D0
 10
-28.3912300088
 20
17.199948787
 11
-28.248527746
 21
19.449948787
 70
160
 71
2
 42
6.4996902397
  3
DIMSTYLE_1
100
AcDbAlignedDimension
 13
-21.891539769
 23
6.206930813
 14
-28.3912300088
 24
9.356207556
 50
180.0
100
AcDbRotatedDimension
  0
DIMENSION
  5
23A
100
AcDbEntity
  8
0
100
AcDbDimension
 62
7
  6
CONTINUOUS
  2
*D1
 10
37.8560906667
 20
17.199948787
 11
8.6632335238
 21
19.449948787
 70
160
 71
2
 42
49.6
  3
DIMSTYLE_1
100
AcDbAlignedDimension
 13
-11.7439093333
 23
8.4475835922
 14
37.8560906667
 24
8.4475835922
100
AcDbRotatedDimension
  0
DIMENSION
  5
23B
100
AcDbEntity
  8
0
100
AcDbDimension
 62
7
  6
CONTINUOUS
  2
*D2
 10
45.8560906667
 20
-9.2860940906
 11
45.382382502
 21
-3.5871308539
 70
160
 71
2
 42
18.4860428776
  3
DIMSTYLE_2
100
AcDbAlignedDimension
 13
38.0991467169
 23
9.199948787
 14
37.2421394112
 24
-9.2860940906
 50
270.0
100
AcDbRotatedDimension
  0
LINE
  5
23C
100
AcDbEntity
  8
RACCORDO
100
AcDbLine
 62
7
  6
CONTINUOUS
 10
-11.7304162556
 20
-9.0363517186
 11
-11.7439093333
 21
-1.6815776236
  0
LINE
  5
23D
100
AcDbEntity
  8
DRAFT
100
AcDbLine
 62
7
  6
CONTINUOUS
 10
-11.7439093333
 20
7.9475835922
 11
-11.7439093333
 21
-1.6815776236
  0
LINE
  5
23E
100
AcDbEntity
  8
RACCORDO
100
AcDbLine
 62
7
  6
CONTINUOUS
 10
-11.7369273074
 20
8.9499868632
 11
-11.7369273074
 21
8.2493747971
  0
LINE
  5
23F
100
AcDbEntity
  8
RACCORDO
100
AcDbLine
 62
7
  6
CONTINUOUS
 10
-11.7177267359
 20
-9.0300074419
 11
-11.7177267359
 21
-8.7399818666
  0
LINE
  5
240
100
AcDbEntity
  8
RACCORDO
100
AcDbLine
 62
253
  6
CONTINUOUS
 10
-11.3993442021
 20
-7.4590686821
 11
-11.3935100312
 21
9.1064934347
  0
LINE
  5
241
100
AcDbEntity
  8
RACCORDO
100
AcDbLine
 62
253
  6
CONTINUOUS
 10
-11.7177267359
 20
-8.7399818666
 11
-11.6601138317
 21
-8.1579897921
  0
LINE
  5
242
100
AcDbEntity
  8
RACCORDO
100
AcDbLine
 62
253
  6
CONTINUOUS
 10
-11.468446414
 20
-8.993069187
 11
-11.410151908
 21
-8.4041917304
  0
LINE
  5
243
100
AcDbEntity
  8
RACCORDO
100
AcDbLine
 62
7
  6
CONTINUOUS
 10
-11.7439093333
 20
7.9475835922
 11
-11.742072437
 21
7.9494204886
  0
LINE
  5
244
100
AcDbEntity
  8
RACCORDO
100
AcDbLine
 62
253
  6
CONTINUOUS
 10
-11.6434719551
 20
8.856531511
 11
-11.7369273074
 21
8.9499868632
  0
LINE
  5
245
100
AcDbEntity
  8
RACCORDO
100
AcDbLine
 62
253
  6
CONTINUOUS
 10
-11.3935100312
 20
9.1064934347
 11
-11.4869653836
 21
9.199948787
  0
LINE
  5
246
100
AcDbEntity
  8
RACCORDO
100
AcDbLine
 62
7
  6
CONTINUOUS
 10
-11.4799580765
 20
-9.2860940906
 11
-10.6299580779
 21
-9.2860940906
  0
LINE
  5
247
100
AcDbEntity
  8
RACCORDO
100
AcDbLine
 62
7
  6
CONTINUOUS
 10
36.7421394112
 20
-9.2860940906
 11
37.5921394098
 21
-9.2860940906
  0
LINE
  5
248
100
AcDbEntity
  8
DRAFT
100
AcDbLine
 62
7
  6
CONTINUOUS
 10
36.7421362121
 20
-9.2860924911
 11
-10.6299548788
 21
-9.2860924911
  0
LINE
  5
249
100
AcDbEntity
  8
RACCORDO
100
AcDbLine
 62
7
  6
CONTINUOUS
 10
37.5799080678
 20
-9.2799788853
 11
-11.4677267345
 21
-9.2799788853
  0
LINE
  5
24A
100
AcDbEntity
  8
RACCORDO
100
AcDbLine
 62
7
  6
CONTINUOUS
 10
37.5806277473
 20
-8.993069187
 11
-11.468446414
 21
-8.993069187
  0
LINE
  5
24B
100
AcDbEntity
  8
RACCORDO
100
AcDbLine
 62
253
  6
CONTINUOUS
 10
-11.410151908
 20
-8.4041917304
 11
37.5223332413
 21
-8.4041917304
  0
LINE
  5
24C
100
AcDbEntity
  8
RACCORDO
100
AcDbLine
 62
253
  6
CONTINUOUS
 10
-11.3993442021
 20
-7.4590686821
 11
37.5115255354
 21
-7.4590686821
  0
LINE
  5
24D
100
AcDbEntity
  8
RACCORDO
100
AcDbLine
 62
253
  6
CONTINUOUS
 10
-11.7304162556
 20
-9.0363517186
 11
-11.7177267359
 21
-9.0300074419
  0
LINE
  5
24E
100
AcDbEntity
  8
RACCORDO
100
AcDbLine
 62
253
  6
CONTINUOUS
 10
-11.4799580765
 20
-9.2860940906
 11
-11.4677267345
 21
-9.2799788853
  0
LINE
  5
24F
100
AcDbEntity
  8
RACCORDO
100
AcDbLine
 62
253
  6
CONTINUOUS
 10
37.5799080678
 20
-9.2799788853
 11
37.5921394098
 21
-9.2860940906
  0
LINE
  5
250
100
AcDbEntity
  8
RACCORDO
100
AcDbLine
 62
253
  6
CONTINUOUS
 10
37.8299080693
 20
-9.0300074419
 11
37.8425975889
 21
-9.0363517186
  0
LINE
  5
251
100
AcDbEntity
  8
DRAFT
100
AcDbLine
 62
7
  6
CONTINUOUS
 10
34.3685566572
 20
9.199948787
 11
34.1060906667
 21
9.1475835922
  0
LINE
  5
252
100
AcDbEntity
  8
DRAFT
100
AcDbLine
 62
7
  6
CONTINUOUS
 10
-8.2563753239
 20
9.199948787
 11
-7.9939093333
 21
9.1475835922
  0
LINE
  5
253
100
AcDbEntity
  8
RACCORDO
100
AcDbLine
 62
253
  6
CONTINUOUS
 10
37.7556532883
 20
8.8565315109
 11
-11.3935100284
 21
8.856207556
  0
LINE
  5
254
100
AcDbEntity
  8
RACCORDO
100
AcDbLine
 62
253
  6
CONTINUOUS
 10
-11.3935100312
 20
8.856207556
 11
-11.643471955
 21
8.8565315109
  0
LINE
  5
255
100
AcDbEntity
  8
RACCORDO
100
AcDbLine
 62
253
  6
CONTINUOUS
 10
37.5991467169
 20
9.199948787
 11
37.5056913645
 21
9.1064934347
  0
LINE
  5
256
100
AcDbEntity
  8
RACCORDO
100
AcDbLine
 62
253
  6
CONTINUOUS
 10
37.5056913645
 20
9.1064934347
 11
-11.3935100312
 21
9.1064934347
  0
LINE
  5
257
100
AcDbEntity
  8
DRAFT
100
AcDbLine
 62
7
  6
CONTINUOUS
 10
34.1060906667
 20
9.1475835922
 11
-7.9939093333
 21
9.1475835922
  0
LINE
  5
258
100
AcDbEntity
  8
RACCORDO
100
AcDbLine
 62
7
  6
CONTINUOUS
 10
37.5991467169
 20
9.199948787
 11
34.3685566572
 21
9.199948787
  0
LINE
  5
259
100
AcDbEntity
  8
RACCORDO
100
AcDbLine
 62
7
  6
CONTINUOUS
 10
-8.2563753239
 20
9.199948787
 11
-11.4869653836
 21
9.199948787
  0
LINE
  5
25A
100
AcDbEntity
  8
RACCORDO
100
AcDbLine
 62
253
  6
CONTINUOUS
 10
37.8491086407
 20
8.9499868632
 11
37.7556532884
 21
8.8565315109
  0
LINE
  5
25B
100
AcDbEntity
  8
RACCORDO
100
AcDbLine
 62
253
  6
CONTINUOUS
 10
37.5223332413
 20
-8.4041917304
 11
37.5806277473
 21
-8.993069187
  0
LINE
  5
25C
100
AcDbEntity
  8
RACCORDO
100
AcDbLine
 62
253
  6
CONTINUOUS
 10
37.7722951651
 20
-8.1579897921
 11
37.8299080693
 21
-8.7399818666
  0
LINE
  5
25D
100
AcDbEntity
  8
RACCORDO
100
AcDbLine
 62
253
  6
CONTINUOUS
 10
37.5115255354
 20
-7.4590686821
 11
37.5056913645
 21
9.1064934347
  0
LINE
  5
25E
100
AcDbEntity
  8
RACCORDO
100
AcDbLine
 62
7
  6
CONTINUOUS
 10
37.8299080693
 20
-8.7399818666
 11
37.8299080693
 21
-9.0300074419
  0
LINE
  5
25F
100
AcDbEntity
  8
RACCORDO
100
AcDbLine
 62
7
  6
CONTINUOUS
 10
37.8491086407
 20
8.2493747971
 11
37.8491086407
 21
8.9499868632
  0
LINE
  5
260
100
AcDbEntity
  8
DRAFT
100
AcDbLine
 62
7
  6
CONTINUOUS
 10
37.8560906667
 20
7.9475835922
 11
37.8560906667
 21
-1.6815776236
  0
LINE
  5
261
100
AcDbEntity
  8
RACCORDO
100
AcDbLine
 62
7
  6
CONTINUOUS
 10
37.8425975889
 20
-9.0363517186
 11
37.8560906667
 21
-1.6815776236
  0
LINE
  5
262
100
AcDbEntity
  8
RACCORDO
100
AcDbLine
 62
7
  6
CONTINUOUS
 10
37.8560906667
 20
7.9475835922
 11
37.8542537703
 21
7.9494204886
  0
LINE
  5
263
100
AcDbEntity
  8
RACCORDO
100
AcDbLine
 62
7
  6
CONTINUOUS
 10
-23.891539769
 20
-9.2799788853
 11
-23.1908066568
 21
-9.2860940906
  0
LINE
  5
264
100
AcDbEntity
  8
RACCORDO
100
AcDbLine
 62
253
  6
CONTINUOUS
 10
-23.891539769
 20
-9.0300074419
 11
-23.1645576758
 21
-9.0363517186
  0
LINE
  5
265
100
AcDbEntity
  8
RACCORDO
100
AcDbLine
 62
7
  6
CONTINUOUS
 10
-27.2312297827
 20
-8.4041917304
 11
-23.891539769
 21
-8.993069187
  0
LINE
  5
266
100
AcDbEntity
  8
RACCORDO
100
AcDbLine
 62
253
  6
CONTINUOUS
 10
-27.1921808399
 20
-8.1579897921
 11
-23.891539769
 21
-8.7399818666
  0
LINE
  5
267
100
AcDbEntity
  8
RACCORDO
100
AcDbLine
 62
253
  6
CONTINUOUS
 10
-27.8113538956
 20
-7.4491475059
 11
-28.0567761097
 21
-7.4590679729
  0
LINE
  5
268
100
AcDbEntity
  8
RACCORDO
100
AcDbLine
 62
7
  6
CONTINUOUS
 10
-23.891539769
 20
-9.2799788853
 11
-23.891539769
 21
-8.7399818666
  0
LINE
  5
269
100
AcDbEntity
  8
RACCORDO
100
AcDbLine
 62
7
  6
CONTINUOUS
 10
-22.791539769
 20
8.2493747971
 11
-22.791539769
 21
9.199948787
  0
LINE
  5
26A
100
AcDbEntity
  8
DRAFT
100
AcDbLine
 62
7
  6
CONTINUOUS
 10
-22.391539769
 20
7.9475835922
 11
-22.391539769
 21
-1.6815776236
  0
LINE
  5
26B
100
AcDbEntity
  8
0
100
AcDbLine
 62
7
  6
CONTINUOUS
 10
-21.891539769
 20
5.706930813
 11
-21.891539769
 21
3.906930813
  0
LINE
  5
26C
100
AcDbEntity
  8
RACCORDO
100
AcDbLine
 62
7
  6
CONTINUOUS
 10
-23.1908066568
 20
-9.2860940906
 11
-22.391539769
 21
-1.6815776236
  0
LINE
  5
26D
100
AcDbEntity
  8
0
100
AcDbLine
 62
7
  6
CONTINUOUS
 10
-22.391539769
 20
3.881930813
 11
-21.891539769
 21
3.906930813
  0
LINE
  5
26E
100
AcDbEntity
  8
0
100
AcDbLine
 62
7
  6
CONTINUOUS
 10
-22.391539769
 20
5.731930813
 11
-21.891539769
 21
5.706930813
  0
LINE
  5
26F
100
AcDbEntity
  8
RACCORDO
100
AcDbLine
 62
7
  6
CONTINUOUS
 10
-22.391539769
 20
7.9475835922
 11
-22.496775491
 21
7.9494204886
  0
LINE
  5
270
100
AcDbEntity
  8
RACCORDO
100
AcDbLine
 62
253
  6
CONTINUOUS
 10
-22.791539769
 20
8.9499868632
 11
-28.1455933177
 21
8.8565315109
  0
LINE
  5
271
100
AcDbEntity
  8
RACCORDO
100
AcDbLine
 62
7
  6
CONTINUOUS
 10
-22.791539769
 20
9.199948787
 11
-28.1455933203
 21
9.1064934347
  0
LINE
  5
272
100
AcDbEntity
  8
RACCORDO
100
AcDbLine
 62
253
  6
CONTINUOUS
 10
-28.1455933203
 20
8.8565315109
 11
-28.3912300088
 21
8.856207556
  0
CIRCLE
  5
273
100
AcDbEntity
  8
DRAFT
100
AcDbCircle
 62
7
  6
CONTINUOUS
 10
13.0560903226
 20
4.8071513588
 40
1.3135386721
  0
CIRCLE
  5
274
100
AcDbEntity
  8
DRAFT
100
AcDbCircle
 62
7
  6
CONTINUOUS
 10
13.0560906667
 20
4.806930813
 40
1.3
  0
CIRCLE
  5
275
100
AcDbEntity
  8
DRAFT
100
AcDbCircle
 62
7
  6
CONTINUOUS
 10
13.0560906667
 20
4.806930813
 40
1.225
  0
CIRCLE
  5
276
100
AcDbEntity
  8
RACCORDO
100
AcDbCircle
 62
253
  6
CONTINUOUS
 10
13.0560906667
 20
4.806930813
 40
1.2068524201
  0
CIRCLE
  5
277
100
AcDbEntity
  8
RACCORDO
100
AcDbCircle
 62
253
  6
CONTINUOUS
 10
13.0560906667
 20
4.806930813
 40
1.1180464865
  0
ARC
  5
278
100
AcDbEntity
  8
RACCORDO
100
AcDbCircle
 62
253
  6
CONTINUOUS
 10
-11.3934185643
 20
8.856440044
 40
0.2500538636
100
AcDbArc
 50
90.020958193
 51
179.979041807
  0
ARC
  5
279
100
AcDbEntity
  8
RACCORDO
100
AcDbCircle
 62
253
  6
CONTINUOUS
 10
37.50560054
 20
8.8564406865
 40
0.2500531776
100
AcDbArc
 50
0.0208110208
 51
89.9791889339
  0
ARC
  5
27A
100
AcDbEntity
  8
RACCORDO
100
AcDbCircle
 62
7
  6
CONTINUOUS
 10
396.6084131721
 20
9.406930813
 40
425.0
100
AcDbArc
 50
180.074245005
 51
182.2743633301
  0
ARC
  5
27B
100
AcDbEntity
  8
RACCORDO
100
AcDbCircle
 62
253
  6
CONTINUOUS
 10
396.6040579212
 20
9.4069309084
 40
424.7500078482
100
AcDbArc
 50
180.0742450165
 51
182.2743633009
  0
ARC
  5
27C
100
AcDbEntity
  8
RACCORDO
100
AcDbCircle
 62
7
  6
CONTINUOUS
 10
-27.0575816051
 20
-7.4193839774
 40
1.0
100
AcDbArc
 50
182.2743633301
 51
260.0
  0
ARC
  5
27D
100
AcDbEntity
  8
RACCORDO
100
AcDbCircle
 62
253
  6
CONTINUOUS
 10
-27.0619429071
 20
-7.4193824054
 40
0.7500018606
100
AcDbArc
 50
182.2744778693
 51
259.9998854608
  0
ARC
  5
27E
100
AcDbEntity
  8
RACCORDO
100
AcDbCircle
 62
7
  6
CONTINUOUS
 10
-22.491539769
 20
8.2493747971
 40
0.3
100
AcDbArc
 50
180.0
 51
269.0
  0
ARC
  5
27F
100
AcDbEntity
  8
RACCORDO
100
AcDbCircle
 62
7
  6
CONTINUOUS
 10
-28.1412302186
 20
8.8565315109
 40
0.25
100
AcDbArc
 50
91.0
 51
180.074245005
  0
SPLINE
  5
280
100
AcDbEntity
  8
RACCORDO
100
AcDbSpline
 62
253
  6
CONTINUOUS
 70
0
 71
3
 72
11
 73
7
 74
5
 42
0.0000001
 43
0.0000001
 44
0.0000000001
 12
0.0011902469
 22
-0.3868382165
 32
0.0
 13
0.3868383243
 23
-0.0011547015
 33
0.0
 40
0.0
 40
0.0
 40
0.0
 40
0.0
 40
0.2481372423
 40
0.4975164136
 40
0.7483480436
 40
1.0
 40
1.0
 40
1.0
 40
1.0
 10
-11.6601138317
 20
-8.1579897921
 30
0.0
 10
-11.6600153835
 20
-8.1899861149
 30
0.0
 10
-11.6467717103
 20
-8.2548062115
 30
0.0
 10
-11.590973942
 20
-8.3365022783
 30
0.0
 10
-11.508043288
 20
-8.3911845394
 30
0.0
 10
-11.4426014484
 20
-8.4040948699
 30
0.0
 10
-11.410151908
 20
-8.4041917309
 30
0.0
 11
-11.6601138317
 21
-8.1579897921
 31
0.0
 11
-11.6408715593
 21
-8.252030763
 31
0.0
 11
-11.5866388975
 21
-8.3318132828
 31
0.0
 11
-11.5056374978
 21
-8.3852354492
 31
0.0
 11
-11.410151908
 21
-8.4041917309
 31
0.0
  0
SPLINE
  5
281
100
AcDbEntity
  8
RACCORDO
100
AcDbSpline
 62
253
  6
CONTINUOUS
 70
0
 71
3
 72
11
 73
7
 74
5
 42
0.0000001
 43
0.0000001
 44
0.0000000001
 12
0.1007369386
 22
-0.2292793414
 32
0.0
 13
0.2504334585
 23
-0.0001733463
 33
0.0
 40
0.0
 40
0.0
 40
0.0
 40
0.0
 40
0.0822915138
 40
0.3001698803
 40
0.6219901227
 40
1.0
 40
1.0
 40
1.0
 40
1.0
 10
-11.6493061259
 20
-7.4491475059
 30
0.0
 10
-11.6465428608
 20
-7.4554367539
 30
0.0
 10
-11.6129586075
 20
-7.4493127795
 30
0.0
 10
-11.5685763183
 20
-7.4593897182
 30
0.0
 10
-11.4882730858
 20
-7.4575298099
 30
0.0
 10
-11.4308996424
 20
-7.4590468398
 30
0.0
 10
-11.3993442021
 20
-7.4590686821
 30
0.0
 11
-11.6493061259
 21
-7.4491475059
 31
0.0
 11
-11.6290429671
 21
-7.4529047482
 31
0.0
 11
-11.5745727021
 21
-7.4561024554
 31
0.0
 11
-11.4940071292
 21
-7.4582644203
 31
0.0
 11
-11.3993442021
 21
-7.4590686821
 31
0.0
  0
SPLINE
  5
282
100
AcDbEntity
  8
RACCORDO
100
AcDbSpline
 62
253
  6
CONTINUOUS
 70
0
 71
3
 72
13
 73
9
 74
7
 42
0.0000001
 43
0.0000001
 44
0.0000000001
 12
0.0697988841
 22
0.7055568887
 32
0.0
 13
0.0004945741
 23
0.70900082
 33
0.0
 40
0.0
 40
0.0
 40
0.0
 40
0.0
 40
0.0674181962
 40
0.1847576221
 40
0.3459157559
 40
0.5427764484
 40
0.7650453531
 40
1.0
 40
1.0
 40
1.0
 40
1.0
 10
-11.6601138317
 20
-8.1579897921
 30
0.0
 10
-11.6585452601
 20
-8.1421340012
 30
0.0
 10
-11.6567441496
 20
-8.0984725641
 30
0.0
 10
-11.6542463142
 20
-8.0167788687
 30
0.0
 10
-11.6522857027
 20
-7.904441279
 30
0.0
 10
-11.6506611357
 20
-7.7673126471
 30
0.0
 10
-11.6496289811
 20
-7.6127321251
 30
0.0
 10
-11.64934486
 20
-7.504675185
 30
0.0
 10
-11.6493061259
 20
-7.4491475059
 30
0.0
 11
-11.6601138317
 21
-8.1579897921
 31
0.0
 11
-11.6572929875
 21
-8.1102735314
 31
0.0
 11
-11.6547158102
 21
-8.0271196894
 31
0.0
 11
-11.6525290708
 21
-7.9128793395
 31
0.0
 11
-11.6508452191
 21
-7.7733150707
 31
0.0
 11
-11.649752362
 21
-7.6157299861
 31
0.0
 11
-11.6493061259
 21
-7.4491475059
 31
0.0
  0
SPLINE
  5
283
100
AcDbEntity
  8
RACCORDO
100
AcDbSpline
 62
253
  6
CONTINUOUS
 70
0
 71
3
 72
10
 73
6
 74
4
 42
0.0000001
 43
0.0000001
 44
0.0000000001
 12
0.0113038293
 22
16.305676414
 32
0.0
 13
0.0003688186
 23
16.305680328
 33
0.0
 40
0.0
 40
0.0
 40
0.0
 40
0.0
 40
0.3332438196
 40
0.6665834492
 40
1.0
 40
1.0
 40
1.0
 40
1.0
 10
-11.6493061259
 20
-7.4491475059
 30
0.0
 10
-11.6480504821
 20
-5.6378922095
 30
0.0
 10
-11.6459442851
 20
-2.0148605731
 30
0.0
 10
-11.643999724
 20
3.4203658972
 30
0.0
 10
-11.6435129452
 20
7.0443369464
 30
0.0
 10
-11.6434719551
 20
8.856531511
 30
0.0
 11
-11.6493061259
 21
-7.4491475059
 31
0.0
 11
-11.6461470258
 21
-2.0153812293
 31
0.0
 11
-11.6442022692
 21
3.4199478649
 31
0.0
 11
-11.6434719551
 21
8.856531511
 31
0.0
  0
SPLINE
  5
284
100
AcDbEntity
  8
RACCORDO
100
AcDbSpline
 62
253
  6
CONTINUOUS
 70
0
 71
3
 72
10
 73
6
 74
4
 42
0.0000001
 43
0.0000001
 44
0.0000000001
 12
0.0003688186
 22
-16.3056803279
 32
0.0
 13
0.0113038293
 23
-16.3056764139
 33
0.0
 40
0.0
 40
0.0
 40
0.0
 40
0.0
 40
0.3334165508
 40
0.6667561804
 40
1.0
 40
1.0
 40
1.0
 40
1.0
 10
37.7556532884
 20
8.8565315109
 30
0.0
 10
37.7556942785
 20
7.0443369463
 30
0.0
 10
37.7561810573
 20
3.4203658971
 30
0.0
 10
37.7581256184
 20
-2.0148605731
 30
0.0
 10
37.7602318154
 20
-5.6378922095
 30
0.0
 10
37.7614874592
 20
-7.4491475059
 30
0.0
 11
37.7556532884
 21
8.8565315109
 31
0.0
 11
37.7563836025
 21
3.4199478649
 31
0.0
 11
37.7583283591
 21
-2.0153812293
 31
0.0
 11
37.7614874592
 21
-7.4491475059
 31
0.0
  0
SPLINE
  5
285
100
AcDbEntity
  8
RACCORDO
100
AcDbSpline
 62
253
  6
CONTINUOUS
 70
0
 71
3
 72
13
 73
9
 74
7
 42
0.0000001
 43
0.0000001
 44
0.0000000001
 12
0.0004945741
 22
-0.70900082
 32
0.0
 13
0.0697988838
 23
-0.7055568887
 33
0.0
 40
0.0
 40
0.0
 40
0.0
 40
0.0
 40
0.2349546469
 40
0.4572235516
 40
0.6540842441
 40
0.8152423778
 40
0.9325818039
 40
1.0
 40
1.0
 40
1.0
 40
1.0
 10
37.7614874592
 20
-7.4491475059
 30
0.0
 10
37.7615261934
 20
-7.504675185
 30
0.0
 10
37.7618103144
 20
-7.6127321251
 30
0.0
 10
37.762842469
 20
-7.7673126471
 30
0.0
 10
37.7644670361
 20
-7.904441279
 30
0.0
 10
37.7664276475
 20
-8.0167788687
 30
0.0
 10
37.7689254829
 20
-8.0984725642
 30
0.0
 10
37.7707265935
 20
-8.1421340012
 30
0.0
 10
37.7722951651
 20
-8.1579897921
 30
0.0
 11
37.7614874592
 21
-7.4491475059
 31
0.0
 11
37.7619336954
 21
-7.6157299861
 31
0.0
 11
37.7630265524
 21
-7.7733150707
 31
0.0
 11
37.7647104041
 21
-7.9128793395
 31
0.0
 11
37.7668971435
 21
-8.0271196894
 31
0.0
 11
37.7694743209
 21
-8.1102735315
 31
0.0
 11
37.7722951651
 21
-8.1579897921
 31
0.0
  0
SPLINE
  5
286
100
AcDbEntity
  8
RACCORDO
100
AcDbSpline
 62
253
  6
CONTINUOUS
 70
0
 71
3
 72
11
 73
7
 74
5
 42
0.0000001
 43
0.0000001
 44
0.0000000001
 12
-0.0011902476
 22
-0.3868382125
 32
0.0
 13
-0.3868383202
 23
-0.0011547052
 33
0.0
 40
0.0
 40
0.0
 40
0.0
 40
0.0
 40
0.2481496306
 40
0.4975322026
 40
0.7483586169
 40
1.0
 40
1.0
 40
1.0
 40
1.0
 10
37.7722951651
 20
-8.1579897921
 30
0.0
 10
37.7721967119
 20
-8.189987712
 30
0.0
 10
37.7589519214
 20
-8.2548099421
 30
0.0
 10
37.7031514738
 20
-8.336505934
 30
0.0
 10
37.6202211384
 20
-8.3911855123
 30
0.0
 10
37.5547814179
 20
-8.4040948732
 30
0.0
 10
37.5223332413
 20
-8.4041917304
 30
0.0
 11
37.7722951651
 21
-8.1579897921
 31
0.0
 11
37.7530509894
 21
-8.2520352641
 31
0.0
 11
37.6988157941
 21
-8.3318176511
 31
0.0
 11
37.6178149739
 21
-8.3852370298
 31
0.0
 11
37.5223332413
 21
-8.4041917304
 31
0.0
  0
SPLINE
  5
287
100
AcDbEntity
  8
RACCORDO
100
AcDbSpline
 62
253
  6
CONTINUOUS
 70
0
 71
3
 72
11
 73
7
 74
5
 42
0.0000001
 43
0.0000001
 44
0.0000000001
 12
-0.1010171715
 22
-0.2291558723
 32
0.0
 13
-0.2504333298
 23
-0.0001733233
 33
0.0
 40
0.0
 40
0.0
 40
0.0
 40
0.0
 40
0.0823072754
 40
0.3001894412
 40
0.6220029553
 40
1.0
 40
1.0
 40
1.0
 40
1.0
 10
37.7614874588
 20
-7.4491475059
 30
0.0
 10
37.7587159761
 20
-7.4554345711
 30
0.0
 10
37.7251463438
 20
-7.4493155691
 30
0.0
 10
37.6807481157
 20
-7.4593872043
 30
0.0
 10
37.6004538317
 20
-7.4575299473
 30
0.0
 10
37.5430798883
 20
-7.4590461344
 30
0.0
 10
37.5115255354
 20
-7.4590679729
 30
0.0
 11
37.7614874588
 21
-7.4491475059
 31
0.0
 11
37.7412202552
 21
-7.4529045265
 31
0.0
 11
37.6867490513
 21
-7.4561019988
 31
0.0
 11
37.6061852007
 21
-7.4582637847
 31
0.0
 11
37.5115255354
 21
-7.4590679729
 31
0.0
  0
SPLINE
  5
288
100
AcDbEntity
  8
RACCORDO
100
AcDbSpline
 62
253
  6
CONTINUOUS
 70
0
 71
3
 72
13
 73
9
 74
7
 42
0.0000001
 43
0.0000001
 44
0.0000000001
 12
0.0699882761
 22
0.9426474571
 32
0.0
 13
0.0004959778
 23
0.9452419485
 33
0.0
 40
0.0
 40
0.0
 40
0.0
 40
0.0
 40
0.0677746619
 40
0.1851024079
 40
0.3460109671
 40
0.5423277437
 40
0.7640908415
 40
1.0
 40
1.0
 40
1.0
 40
1.0
 10
-11.410151908
 20
-8.4041917304
 30
0.0
 10
-11.408570764
 20
-8.3828958595
 30
0.0
 10
-11.4067787786
 20
-8.3245751648
 30
0.0
 10
-11.4042783074
 20
-8.2155974932
 30
0.0
 10
-11.4023244996
 20
-8.0660789828
 30
0.0
 10
-11.4007020107
 20
-7.8836606177
 30
0.0
 10
-11.3996682777
 20
-7.6776024972
 30
0.0
 10
-11.399383204
 20
-7.5333990929
 30
0.0
 10
-11.3993442021
 20
-7.4590686821
 30
0.0
 11
-11.410151908
 21
-8.4041917304
 31
0.0
 11
-11.4073194136
 21
-8.3401909165
 31
0.0
 11
-11.4047470859
 21
-8.2293176298
 31
0.0
 11
-11.4025655821
 21
-8.0772357341
 31
0.0
 11
-11.4008859327
 21
-7.8916764579
 31
0.0
 11
-11.3997935555
 21
-7.6820594926
 31
0.0
 11
-11.3993442021
 21
-7.4590686821
 31
0.0
  0
SPLINE
  5
289
100
AcDbEntity
  8
RACCORDO
100
AcDbSpline
 62
253
  6
CONTINUOUS
 70
0
 71
3
 72
13
 73
9
 74
7
 42
0.0000001
 43
0.0000001
 44
0.0000000001
 12
0.0004959778
 22
-0.9452419485
 32
0.0
 13
0.0699882762
 23
-0.9426474571
 33
0.0
 40
0.0
 40
0.0
 40
0.0
 40
0.0
 40
0.2359091585
 40
0.4576722563
 40
0.6539890329
 40
0.8148975921
 40
0.9322253381
 40
1.0
 40
1.0
 40
1.0
 40
1.0
 10
37.5115255354
 20
-7.4590686821
 30
0.0
 10
37.5115645373
 20
-7.5333990929
 30
0.0
 10
37.511849611
 20
-7.6776024972
 30
0.0
 10
37.5128833441
 20
-7.8836606177
 30
0.0
 10
37.514505833
 20
-8.0660789828
 30
0.0
 10
37.5164596408
 20
-8.2155974932
 30
0.0
 10
37.5189601119
 20
-8.3245751648
 30
0.0
 10
37.5207520974
 20
-8.3828958595
 30
0.0
 10
37.5223332413
 20
-8.4041917304
 30
0.0
 11
37.5115255354
 21
-7.4590686821
 31
0.0
 11
37.5119748888
 21
-7.6820594926
 31
0.0
 11
37.513067266
 21
-7.8916764579
 31
0.0
 11
37.5147469154
 21
-8.0772357341
 31
0.0
 11
37.5169284193
 21
-8.2293176298
 31
0.0
 11
37.5195007469
 21
-8.3401909165
 31
0.0
 11
37.5223332413
 21
-8.4041917304
 31
0.0
  0
SPLINE
  5
28A
100
AcDbEntity
  8
ASSI
100
AcDbSpline
 62
7
  6
CONTINUOUS
 70
0
 71
3
 72
23
 73
19
 74
17
 42
0.0000001
 43
0.0000001
 44
0.0000000001
 12
7.5210108386
 22
0.0
 32
0.0
 13
-7.5210108386
 23
0.0
 33
0.0
 40
0.0
 40
0.0
 40
0.0
 40
0.0
 40
0.0624210691
 40
0.1250668291
 40
0.1877085537
 40
0.2502426162
 40
0.3126580811
 40
0.375033084
 40
0.4374882969
 40
0.4999874489
 40
0.5624840907
 40
0.6249329898
 40
0.6873043998
 40
0.7497224853
 40
0.8122618028
 40
0.8749063057
 40
0.9375498451
 40
1.0
 40
1.0
 40
1.0
 40
1.0
 10
13.0560906667
 20
7.1994442769
 30
0.0
 10
13.2125805125
 20
7.1994442769
 30
0.0
 10
13.5269773228
 20
7.1687660196
 30
0.0
 10
13.9803032605
 20
7.0321598475
 30
0.0
 10
14.398820721
 20
6.8097807934
 30
0.0
 10
14.7654904244
 20
6.5104881596
 30
0.0
 10
15.0663459107
 20
6.1459535482
 30
0.0
 10
15.2901393386
 20
5.7298572492
 30
0.0
 10
15.4282195817
 20
5.2777808218
 30
0.0
 10
15.4749298332
 20
4.8070815982
 30
0.0
 10
15.4282797344
 20
4.3363924355
 30
0.0
 10
15.2902649398
 20
3.8843288307
 30
0.0
 10
15.0665287412
 20
3.4682221623
 30
0.0
 10
14.7657000461
 20
3.1036501712
 30
0.0
 10
14.3990279839
 20
2.8043165222
 30
0.0
 10
13.9805075898
 20
2.5819110876
 30
0.0
 10
13.5271186374
 20
2.4452586609
 30
0.0
 10
13.2126534306
 20
2.4145631353
 30
0.0
 10
13.0560906667
 20
2.4145631353
 30
0.0
 11
13.0560906667
 21
7.1994442769
 31
0.0
 11
13.5233351
 21
7.153790295
 31
0.0
 11
13.9744623215
 21
7.0178658751
 31
0.0
 11
14.3904822536
 21
6.7967549646
 31
0.0
 11
14.7548136174
 21
6.4993277305
 31
0.0
 11
15.0535841186
 21
6.1372527931
 31
0.0
 11
15.275766054
 21
5.7240801351
 31
0.0
 11
15.4129562187
 21
5.274834449
 31
0.0
 11
15.4593659701
 21
4.807074329
 31
0.0
 11
15.4130152123
 21
4.3393273316
 31
0.0
 11
15.2758941487
 21
3.8901101978
 31
0.0
 11
15.0537732639
 21
3.4769353953
 31
0.0
 11
14.7550246858
 21
3.1148168173
 31
0.0
 11
14.3906823682
 21
2.817340505
 31
0.0
 11
13.9746547788
 21
2.5961994788
 31
0.0
 11
13.5235512663
 21
2.4602542654
 31
0.0
 11
13.0560906667
 21
2.4145631353
 31
0.0
  0
SPLINE
  5
28B
100
AcDbEntity
  8
ASSI
100
AcDbSpline
 62
7
  6
CONTINUOUS
 70
0
 71
3
 72
23
 73
19
 74
17
 42
0.0000001
 43
0.0000001
 44
0.0000000001
 12
-7.5210108384
 22
0.0
 32
0.0
 13
7.5210108384
 23
0.0
 33
0.0
 40
0.0
 40
0.0
 40
0.0
 40
0.0
 40
0.0624209979
 40
0.1250661527
 40
0.1877064011
 40
0.2502381184
 40
0.3126507247
 40
0.3750229581
 40
0.4374761557
 40
0.4999745699
 40
0.5624719486
 40
0.6249228621
 40
0.6872970413
 40
0.7497179858
 40
0.8122596493
 40
0.8749056289
 40
0.9375497737
 40
1.0
 40
1.0
 40
1.0
 40
1.0
 10
13.0560906667
 20
2.4145631353
 30
0.0
 10
12.8996009995
 20
2.4145631353
 30
0.0
 10
12.5852060768
 20
2.4452372961
 30
0.0
 10
12.1318812001
 20
2.5818263681
 30
0.0
 10
11.7133634191
 20
2.8041805215
 30
0.0
 10
11.3466922819
 20
3.1034449527
 30
0.0
 10
11.045835152
 20
3.4679526372
 30
0.0
 10
10.8220407775
 20
3.8840270938
 30
0.0
 10
10.6839607214
 20
4.336089431
 30
0.0
 10
10.6372514998
 20
4.8067838002
 30
0.0
 10
10.6839026286
 20
5.2774778108
 30
0.0
 10
10.8219176109
 20
5.7295554995
 30
0.0
 10
11.0456528638
 20
6.1456840059
 30
0.0
 10
11.3464799149
 20
6.5102829232
 30
0.0
 10
11.7131505426
 20
6.809644778
 30
0.0
 10
12.131670616
 20
7.0320751178
 30
0.0
 10
12.5850606281
 20
7.1687446517
 30
0.0
 10
12.8995277238
 20
7.1994442769
 30
0.0
 10
13.0560906667
 20
7.1994442769
 30
0.0
 11
13.0560906667
 21
2.4145631353
 31
0.0
 11
12.5888462333
 21
2.4602116066
 31
0.0
 11
12.1377190119
 21
2.5961202486
 31
0.0
 11
11.7216990797
 21
2.8172075032
 31
0.0
 11
11.3573677159
 21
3.1146068443
 31
0.0
 11
11.0585972147
 21
3.4766539073
 31
0.0
 11
10.8364152793
 21
3.8898029149
 31
0.0
 11
10.6992251146
 21
4.3390327532
 31
0.0
 11
10.6528153632
 21
4.806787297
 31
0.0
 11
10.6991661211
 21
5.2745398636
 31
0.0
 11
10.8362871847
 21
5.7237728379
 31
0.0
 11
11.0584080694
 21
6.1369712861
 31
0.0
 11
11.3571566475
 21
6.4991177394
 31
0.0
 11
11.7214989651
 21
6.7966219493
 31
0.0
 11
12.1375265545
 21
7.0177866359
 31
0.0
 11
12.588630067
 21
7.1537476311
 31
0.0
 11
13.0560906667
 21
7.1994442769
 31
0.0
  0
SPLINE
  5
28C
100
AcDbEntity
  8
RACCORDO
100
AcDbSpline
 62
253
  6
CONTINUOUS
 70
0
 71
3
 72
12
 73
8
 74
6
 42
0.0000001
 43
0.0000001
 44
0.0000000001
 12
-0.0043623064
 22
0.2499925102
 32
0.0
 13
0.2499924871
 23
0.0043636351
 33
0.0
 40
0.0
 40
0.0
 40
0.0
 40
0.0
 40
0.3098605754
 40
0.5892143267
 40
0.8103234085
 40
0.9518389381
 40
1.0
 40
1.0
 40
1.0
 40
1.0
 10
-28.1455933203
 20
8.8565315109
 30
0.0
 10
-28.1460438892
 20
8.8823524519
 30
0.0
 10
-28.1471533651
 20
8.9319219277
 30
0.0
 10
-28.1462895749
 20
8.9976531196
 30
0.0
 10
-28.1501264478
 20
9.0557578294
 30
0.0
 10
-28.1425844123
 20
9.081251153
 30
0.0
 10
-28.1496066215
 20
9.1064233822
 30
0.0
 10
-28.1455933203
 20
9.1064934347
 30
0.0
 11
-28.1455933203
 21
8.8565315109
 31
0.0
 11
-28.1467302706
 21
8.9339977836
 31
0.0
 11
-28.147325662
 21
9.003842223
 31
0.0
 11
-28.1473210688
 21
9.0591262521
 31
0.0
 11
-28.1467178299
 21
9.0945043177
 31
0.0
 11
-28.1455933203
 21
9.1064934347
 31
0.0
  0
SPLINE
  5
28D
100
AcDbEntity
  8
RACCORDO
100
AcDbSpline
 62
253
  6
CONTINUOUS
 70
0
 71
3
 72
11
 73
7
 74
5
 42
0.0000001
 43
0.0000001
 44
0.0000000001
 12
-0.043284155
 22
-0.2455514343
 32
0.0
 13
0.2455491794
 23
-0.0432969454
 33
0.0
 40
0.0
 40
0.0
 40
0.0
 40
0.0
 40
0.3827689144
 40
0.7070452522
 40
0.9236831912
 40
1.0
 40
1.0
 40
1.0
 40
1.0
 10
-27.1921808399
 20
-8.1579897921
 30
0.0
 10
-27.1977034496
 20
-8.1893196108
 30
0.0
 10
-27.2058072732
 20
-8.245606565
 30
0.0
 10
-27.2250863247
 20
-8.3270393829
 30
0.0
 10
-27.2196043576
 20
-8.3664968304
 30
0.0
 10
-27.2374762927
 20
-8.4030903022
 30
0.0
 10
-27.2312297827
 20
-8.4041917304
 30
0.0
 11
-27.1921808399
 21
-8.1579897921
 31
0.0
 11
-27.2084276852
 21
-8.2520352641
 31
0.0
 11
-27.2215487923
 21
-8.3318176511
 31
0.0
 11
-27.229554194
 21
-8.3852370298
 31
0.0
 11
-27.2312297827
 21
-8.4041917304
 31
0.0
  0
ELLIPSE
  5
28E
100
AcDbEntity
  8
RACCORDO
100
AcDbEllipse
 62
7
  6
CONTINUOUS
 10
-11.7421638268
 20
8.2493747971
 30
0.0
 11
0.0
 21
0.3
 31
0.0
 40
0.0174550649
 41
-3.1241393611
 42
-1.5707963268
  0
ELLIPSE
  5
28F
100
AcDbEntity
  8
RACCORDO
100
AcDbEllipse
 62
7
  6
CONTINUOUS
 10
37.8543451602
 20
8.2493747971
 30
0.0
 11
-0.0
 21
0.3
 31
0.0
 40
0.0174550649
 41
-4.7123889804
 42
-3.1590459461
  0
ELLIPSE
  5
290
100
AcDbEntity
  8
RACCORDO
100
AcDbEllipse
 62
7
  6
CONTINUOUS
 10
-11.4868892254
 20
8.949910705
 30
0.0
 11
-0.1768305473
 21
0.1768305473
 31
0.0
 40
0.9996954599
 41
-0.7852458702
 42
0.7852458701
  0
ELLIPSE
  5
291
100
AcDbEntity
  8
RACCORDO
100
AcDbEllipse
 62
7
  6
CONTINUOUS
 10
37.5990705587
 20
8.949910705
 30
0.0
 11
0.1768305473
 21
0.1768305473
 31
0.0
 40
0.9996954599
 41
-0.7852458702
 42
0.7852458701
  0
ELLIPSE
  5
292
100
AcDbEntity
  8
RACCORDO
100
AcDbEllipse
 62
7
  6
CONTINUOUS
 10
37.5925595767
 20
-9.0363136772
 30
0.0
 11
0.2183310446
 21
0.1221043275
 31
0.0
 40
0.9980297029
 41
-2.0815635429
 42
-0.5109195152
  0
ELLIPSE
  5
293
100
AcDbEntity
  8
RACCORDO
100
AcDbEllipse
 62
7
  6
CONTINUOUS
 10
-11.4803782434
 20
-9.0363136772
 30
0.0
 11
0.2183310446
 21
-0.1221043275
 31
0.0
 40
0.9980297029
 41
-2.6306731384
 42
-1.0600291107
  0
ELLIPSE
  5
294
100
AcDbEntity
  8
RACCORDO
100
AcDbEllipse
 62
7
  6
CONTINUOUS
 10
-11.4676886539
 20
-8.739212534
 30
0.0
 11
0.0250113895
 21
0.2526592035
 31
0.0
 40
0.9846622838
 41
-4.6121910857
 42
-3.0444253421
  0
ELLIPSE
  5
295
100
AcDbEntity
  8
RACCORDO
100
AcDbEllipse
 62
7
  6
CONTINUOUS
 10
-11.4676886539
 20
-9.0299693657
 30
0.0
 11
0.2236527791
 21
0.1118178731
 31
0.0
 40
0.9998096356
 41
2.6780516535
 42
4.2486956813
  0
ELLIPSE
  5
296
100
AcDbEntity
  8
RACCORDO
100
AcDbEllipse
 62
7
  6
CONTINUOUS
 10
37.5798699873
 20
-9.0299693657
 30
0.0
 11
0.2236527791
 21
-0.1118178731
 31
0.0
 40
0.9998096356
 41
-1.1071030277
 42
0.4635410001
  0
ELLIPSE
  5
297
100
AcDbEntity
  8
RACCORDO
100
AcDbEllipse
 62
7
  6
CONTINUOUS
 10
37.5798699873
 20
-8.739212534
 30
0.0
 11
-0.0250113895
 21
0.2526592035
 31
0.0
 40
0.9846622838
 41
-3.2387599651
 42
-1.6709942215
  0
ENDSEC
  0
SECTION
  2
OBJECTS
  0
DICTIONARY
  5
C
100
AcDbDictionary
280
0
281
1
  3
ACAD_GROUP
350
D
  3
ACAD_MLINESTYLE
350
17
  3
ACAD_LAYOUT
350
1A
  3
ACAD_PLOTSETTINGS
350
19
  3
ACAD_PLOTSTYLENAME
350
E
  0
DICTIONARY
  5
D
102
{ACAD_REACTORS
330
C
102
}
100
AcDbDictionary
280
0
281
1
  0
ACDBDICTIONARYWDFLT
  5
E
102
{ACAD_REACTORS
330
C
102
}
100
AcDbDictionary
281
1
  3
Normal
350
F
100
AcDbDictionaryWithDefault
340
F
  0
DICTIONARY
  5
17
102
{ACAD_REACTORS
330
C
102
}
100
AcDbDictionary
280
0
281
1
  3
Standard
350
18
  0
DICTIONARY
  5
19
102
{ACAD_REACTORS
330
C
102
}
100
AcDbDictionary
281
1
  0
DICTIONARY
  5
1A
102
{ACAD_REACTORS
330
C
102
}
100
AcDbDictionary
281
1
  3
Model
350
298
  3
Layout1
350
299
  0
ACDBPLACEHOLDER
  5
F
102
{ACAD_REACTORS
330
E
102
}
  0
MLINESTYLE
  5
18
102
{ACAD_REACTORS
330
17
102
}
100
AcDbMlineStyle
  2
STANDARD
 70
0
  3

 62
256
 51
90.0
 52
90.0
 71
2
 49
0.5
 62
256
  6
BYLAYER
 49
-0.5
 62
256
  6
BYLAYER
  0
LAYOUT
  5
298
102
{ACAD_REACTORS
330
1A
102
}
100
AcDbPlotSettings
  1

  2
none_device
  4
ISO_A4_(297.00_x_210.00_MM)
  6

 40
0.0
 41
0.0
 42
0.0
 43
0.0
 44
297.0
 45
210.0
 46
0.0
 47
0.0
 48
0.0
 49
0.0
140
0.0
141
0.0
142
1.0
143
1.0
 70
1024
 72
1
 73
0
 74
0
  7

 75
0
147
1.0
148
0.0
149
0.0
100
AcDbLayout
  1
Model
 70
0
 71
0
 10
0.0
 20
0.0
 11
297.0
 21
210.0
 12
0.0
 22
0.0
 32
0.0
 14
0.0
 24
0.0
 34
0.0
 15
0.0
 25
0.0
 35
0.0
146
0.0
 13
0.0
 23
0.0
 33
0.0
 16
1.0
 26
0.0
 36
0.0
 17
0.0
 27
1.0
 37
0.0
 76
0
330
210
345
0
346
0
  0
LAYOUT
  5
299
102
{ACAD_REACTORS
330
1A
102
}
100
AcDbPlotSettings
  1

  2
none_device
  4
ISO_A4_(297.00_x_210.00_MM)
  6

 40
0.0
 41
0.0
 42
0.0
 43
0.0
 44
297.0
 45
210.0
 46
0.0
 47
0.0
 48
0.0
 49
0.0
140
0.0
141
0.0
142
1.0
143
1.0
 70
0
 72
1
 73
0
 74
0
  7

 75
0
147
1.0
148
0.0
149
0.0
100
AcDbLayout
  1
Layout1
 70
0
 71
1
 10
0.0
 20
0.0
 11
297.0
 21
210.0
 12
0.0
 22
0.0
 32
0.0
 14
0.0
 24
0.0
 34
0.0
 15
0.0
 25
0.0
 35
0.0
146
0.0
 13
0.0
 23
0.0
 33
0.0
 16
1.0
 26
0.0
 36
0.0
 17
0.0
 27
1.0
 37
0.0
 76
0
330
211
345
0
346
0
  0
ENDSEC
  0
EOF
