  0
SECTION
  2
HEADER
  9
$ACADVER
  1
AC1015
  9
$DWGCODEPAGE
  3
ANSI_1252
  9
$EXTMAX
 10
297.0
 20
210.0
 30
0.0
  9
$EXTMIN
 10
0.0
 20
0.0
 30
0.0
  9
$LIMMIN
 10
0.0
 20
0.0
  9
$LIMMAX
 10
297.0
 20
210.0
  9
$VIEWCTR
 10
148.5
 20
105.0
  9
$VIEWSIZE
 40
210.0
  9
$CLAYER
  8
0
  9
$LTSCALE
 40
16.335
  9
$CELTYPE
  6
BYLAYER
  9
$DIMSCALE
 40
1.0
  9
$DIMASZ
 40
3.0
  9
$DIMEXO
 40
1.85625
  9
$DIMDLI
 40
11.286
  9
$DIMEXE
 40
5.346
  9
$DIMCEN
 40
2.673
  9
$DIMLFAC
 40
1.0
  9
$DIMBLK
  1
_FILLED
  9
$DIMTXT
 40
3.0
  9
$DIMTOL
 70
1
  9
$DIMLIM
 70
0
  9
$DIMTFAC
 40
1.0
  9
$DIMTP
 40
0.01
  9
$DIMTM
 40
0.01
  9
$PDMODE
 70
3
  9
$PDSIZE
 40
3.0
  9
$HANDSEED
  5
2ED
  9
$TILEMODE
 70
1
  9
$MEASUREMENT
 70
1
  9
$INSUNITS
 70
4
  0
ENDSEC
  0
SECTION
  2
CLASSES
  0
CLASS
  1
ACDBDICTIONARYWDFLT
  2
AcDbDictionaryWithDefault
  3
AutoCAD 2000
 90
0
280
0
281
0
  0
CLASS
  1
ACDBPLACEHOLDER
  2
AcDbPlaceHolder
  3
AutoCAD 2000
 90
0
280
0
281
0
  0
CLASS
  1
LAYOUT
  2
AcDbLayout
  3
AutoCAD 2000
 90
0
280
0
281
0
  0
ENDSEC
  0
SECTION
  2
TABLES
  0
TABLE
  2
VPORT
  5
8
100
AcDbSymbolTable
 70
2
  0
VPORT
  5
1F4
100
AcDbSymbolTableRecord
100
AcDbViewportTableRecord
  2
*ACTIVE
 70
0
 10
0.0
 20
0.0
 11
1.0
 21
1.0
 12
148.5
 22
105.0
 13
0.0
 23
0.0
 14
1.0
 24
1.0
 15
0.0
 25
0.0
 16
0.0
 26
0.0
 36
1.0
 17
0.0
 27
0.0
 37
0.0
 40
210.0
 41
1.4142857143
 42
50.0
 43
0.0
 44
0.0
 50
0.0
 51
0.0
 71
0
 72
100
 73
1
 74
1
 75
0
 76
0
 77
0
 78
0
  0
ENDTAB
  0
TABLE
  2
LTYPE
  5
5
100
AcDbSymbolTable
 70
6
  0
LTYPE
  5
14
100
AcDbSymbolTableRecord
100
AcDbLinetypeTableRecord
  2
BYBLOCK
 70
0
  3

 72
65
 73
0
 40
0.0
  0
LTYPE
  5
15
100
AcDbSymbolTableRecord
100
AcDbLinetypeTableRecord
  2
BYLAYER
 70
0
  3

 72
65
 73
0
 40
0.0
  0
LTYPE
  5
16
100
AcDbSymbolTableRecord
100
AcDbLinetypeTableRecord
  2
CONTINUOUS
 70
64
  3
Solid line
 72
65
 73
0
 40
0.0
  0
LTYPE
  5
1F5
100
AcDbSymbolTableRecord
100
AcDbLinetypeTableRecord
  2
CENTER
 70
64
  3
____ _ ____ _ ____ _ ____ _ ____ _ ____ _ ____
 72
65
 73
4
 40
0.6
 49
0.375
 74
0
 49
-0.075
 74
0
 49
0.075
 74
0
 49
-0.075
 74
0
  0
LTYPE
  5
1F6
100
AcDbSymbolTableRecord
100
AcDbLinetypeTableRecord
  2
HIDDEN
 70
64
  3
- - - - - - - - - - - - - - - - - - - -
 72
65
 73
2
 40
0.2
 49
0.1
 74
0
 49
-0.1
 74
0
  0
LTYPE
  5
1F7
100
AcDbSymbolTableRecord
100
AcDbLinetypeTableRecord
  2
PHANTOM
 70
64
  3
_____ _ _ _____ _ _ _____ _ _ _____
 72
65
 73
6
 40
0.8
 49
0.45
 74
0
 49
-0.05
 74
0
 49
0.1
 74
0
 49
-0.05
 74
0
 49
0.1
 74
0
 49
-0.05
 74
0
  0
LTYPE
  5
1F8
100
AcDbSymbolTableRecord
100
AcDbLinetypeTableRecord
  2
DOT
 70
64
  3
. . . . . . . . . . . . . . . . . . . .
 72
65
 73
2
 40
0.2
 49
0.1
 74
0
 49
-0.1
 74
0
  0
LTYPE
  5
1F9
100
AcDbSymbolTableRecord
100
AcDbLinetypeTableRecord
  2
DASHED
 70
64
  3
- - - - - - - - - - - - - - - - - - - -
 72
65
 73
2
 40
0.2
 49
0.1
 74
0
 49
-0.1
 74
0
  0
ENDTAB
  0
TABLE
  2
LAYER
  5
2
100
AcDbSymbolTable
 70
36
  0
LAYER
  5
10
100
AcDbSymbolTableRecord
100
AcDbLayerTableRecord
  2
0
 70
0
 62
7
  6
CONTINUOUS
370
-3
390
F
  0
LAYER
  5
1FA
100
AcDbSymbolTableRecord
100
AcDbLayerTableRecord
  2
DEFAULT_1
 70
0
 62
7
  6
CENTER
370
-3
390
F
  0
LAYER
  5
1FB
100
AcDbSymbolTableRecord
100
AcDbLayerTableRecord
  2
DEFAULT_2
 70
0
 62
7
  6
HIDDEN
370
-3
390
F
  0
LAYER
  5
1FC
100
AcDbSymbolTableRecord
100
AcDbLayerTableRecord
  2
DEFAULT_3
 70
0
 62
7
  6
PHANTOM
370
-3
390
F
  0
LAYER
  5
1FD
100
AcDbSymbolTableRecord
100
AcDbLayerTableRecord
  2
ASSI
 70
0
 62
7
  6
CONTINUOUS
370
-3
390
F
  0
LAYER
  5
1FE
100
AcDbSymbolTableRecord
100
AcDbLayerTableRecord
  2
COORDINATE
 70
0
 62
7
  6
CONTINUOUS
370
-3
390
F
  0
LAYER
  5
1FF
100
AcDbSymbolTableRecord
100
AcDbLayerTableRecord
  2
COORD_ORIGINE
 70
0
 62
7
  6
CONTINUOUS
370
-3
390
F
  0
LAYER
  5
200
100
AcDbSymbolTableRecord
100
AcDbLayerTableRecord
  2
COPY_PUBLISH
 70
0
 62
7
  6
CONTINUOUS
370
-3
390
F
  0
LAYER
  5
201
100
AcDbSymbolTableRecord
100
AcDbLayerTableRecord
  2
COSMETIC
 70
0
 62
7
  6
CONTINUOUS
370
-3
390
F
  0
LAYER
  5
202
100
AcDbSymbolTableRecord
100
AcDbLayerTableRecord
  2
CURVE
 70
0
 62
7
  6
CONTINUOUS
370
-3
390
F
  0
LAYER
  5
203
100
AcDbSymbolTableRecord
100
AcDbLayerTableRecord
  2
DRAFT
 70
0
 62
7
  6
CONTINUOUS
370
-3
390
F
  0
LAYER
  5
204
100
AcDbSymbolTableRecord
100
AcDbLayerTableRecord
  2
IGES
 70
0
 62
7
  6
CONTINUOUS
370
-3
390
F
  0
LAYER
  5
205
100
AcDbSymbolTableRecord
100
AcDbLayerTableRecord
  2
IMPORT_IGES
 70
0
 62
7
  6
CONTINUOUS
370
-3
390
F
  0
LAYER
  5
206
100
AcDbSymbolTableRecord
100
AcDbLayerTableRecord
  2
INTF_12
 70
0
 62
7
  6
CONTINUOUS
370
-3
390
F
  0
LAYER
  5
207
100
AcDbSymbolTableRecord
100
AcDbLayerTableRecord
  2
NOTE
 70
0
 62
7
  6
CONTINUOUS
370
-3
390
F
  0
LAYER
  5
208
100
AcDbSymbolTableRecord
100
AcDbLayerTableRecord
  2
PIANI
 70
0
 62
7
  6
CONTINUOUS
370
-3
390
F
  0
LAYER
  5
209
100
AcDbSymbolTableRecord
100
AcDbLayerTableRecord
  2
PIANI_ORIGINE
 70
0
 62
7
  6
CONTINUOUS
370
-3
390
F
  0
LAYER
  5
20A
100
AcDbSymbolTableRecord
100
AcDbLayerTableRecord
  2
RACCORDO
 70
0
 62
7
  6
CONTINUOUS
370
-3
390
F
  0
LAYER
  5
20B
100
AcDbSymbolTableRecord
100
AcDbLayerTableRecord
  2
SMUSSO
 70
0
 62
7
  6
CONTINUOUS
370
-3
390
F
  0
LAYER
  5
20C
100
AcDbSymbolTableRecord
100
AcDbLayerTableRecord
  2
SNAPLINE
 70
0
 62
7
  6
CONTINUOUS
370
-3
390
F
  0
LAYER
  5
20D
100
AcDbSymbolTableRecord
100
AcDbLayerTableRecord
  2
SUPERFICI
 70
0
 62
7
  6
CONTINUOUS
370
-3
390
F
  0
LAYER
  5
20E
100
AcDbSymbolTableRecord
100
AcDbLayerTableRecord
  2
TRASH
 70
0
 62
7
  6
CONTINUOUS
370
-3
390
F
  0
ENDTAB
  0
TABLE
  2
STYLE
  5
3
100
AcDbSymbolTable
 70
1
  0
STYLE
  5
11
100
AcDbSymbolTableRecord
100
AcDbTextStyleTableRecord
  2
STANDARD
 70
0
 40
0.0
 41
0.8
 50
0.0
 71
0
 42
0.2
  3
txt
  4

  0
STYLE
  5
20F
100
AcDbSymbolTableRecord
100
AcDbTextStyleTableRecord
  2
TEXTSTYLE_1
 70
0
 40
0.0
 41
0.8
 50
0.0
 71
0
 42
0.2
  3
gdt
  4

  0
ENDTAB
  0
TABLE
  2
VIEW
  5
6
100
AcDbSymbolTable
 70
0
  0
ENDTAB
  0
TABLE
  2
UCS
  5
7
100
AcDbSymbolTable
 70
0
  0
ENDTAB
  0
TABLE
  2
APPID
  5
9
100
AcDbSymbolTable
 70
1
  0
APPID
  5
210
100
AcDbSymbolTableRecord
100
AcDbRegAppTableRecord
  2
ACAD
 70
0
  0
ENDTAB
  0
TABLE
  2
BLOCK_RECORD
  5
1
100
AcDbSymbolTable
 70
0
  0
BLOCK_RECORD
  5
211
100
AcDbSymbolTableRecord
100
AcDbBlockTableRecord
  2
*Model_Space
  0
BLOCK_RECORD
  5
212
100
AcDbSymbolTableRecord
100
AcDbBlockTableRecord
  2
*Paper_Space
  0
BLOCK_RECORD
  5
213
100
AcDbSymbolTableRecord
100
AcDbBlockTableRecord
  2
_FILLED
  0
BLOCK_RECORD
  5
214
100
AcDbSymbolTableRecord
100
AcDbBlockTableRecord
  2
*D0
  0
BLOCK_RECORD
  5
215
100
AcDbSymbolTableRecord
100
AcDbBlockTableRecord
  2
*D1
  0
BLOCK_RECORD
  5
216
100
AcDbSymbolTableRecord
100
AcDbBlockTableRecord
  2
*D2
  0
ENDTAB
  0
TABLE
  2
DIMSTYLE
  5
A
100
AcDbSymbolTable
 70
1
100
AcDbDimStyleTable
 71
0
  0
DIMSTYLE
105
217
100
AcDbSymbolTableRecord
100
AcDbDimStyleTableRecord
  2
STANDARD
 70
0
  3

  4

 40
1.0
 41
3.0
 42
0.0625
 43
0.38
 44
0.18
 45
0.0
 46
0.0
 47
0.01
 48
0.01
140
3.0
141
0.09
142
0.0
143
25.4
144
1.0
145
0.0
146
1.0
147
0.09
 71
1.0
 72
0.0
 73
0
 74
0
 75
0
 76
0
 77
1
 78
8
170
0
171
2
172
0
173
0
174
0
175
0
176
0
177
0
178
0
270
2
271
2
272
2
273
2
274
2
275
0
280
0
281
0
282
0
283
1
284
8
285
0
286
0
287
3
288
0
340
11
341
213
342
213
343
213
344
213
  0
DIMSTYLE
105
218
100
AcDbSymbolTableRecord
100
AcDbDimStyleTableRecord
  2
DIMSTYLE_1
 70
0
  3

  4

 40
1.0
 41
3.0
 42
0.0625
 43
0.38
 44
0.18
 45
0.0
 46
0.0
 47
0.0
 48
0.0
140
3.0
141
0.09
142
0.0
143
25.4
144
1.0
145
0.0
146
1.0
147
0.09
 71
0.0
 72
0.0
 73
0
 74
0
 75
0
 76
0
 77
1
 78
8
170
0
171
2
172
0
173
0
174
0
175
0
176
0
177
0
178
0
270
2
271
2
272
2
273
2
274
2
275
0
280
0
281
0
282
0
283
1
284
8
285
0
286
0
287
3
288
0
340
11
341
213
342
213
343
213
344
213
  0
DIMSTYLE
105
219
100
AcDbSymbolTableRecord
100
AcDbDimStyleTableRecord
  2
DIMSTYLE_2
 70
0
  3

  4

 40
1.0
 41
3.0
 42
0.0625
 43
0.38
 44
0.18
 45
0.0
 46
0.0
 47
0.0
 48
0.0
140
3.0
141
0.09
142
0.0
143
25.4
144
1.0
145
0.0
146
1.0
147
0.09
 71
0.0
 72
0.0
 73
0
 74
0
 75
0
 76
0
 77
1
 78
8
170
0
171
2
172
0
173
0
174
0
175
0
176
0
177
0
178
0
270
2
271
1
272
1
273
2
274
2
275
0
280
0
281
0
282
0
283
1
284
8
285
0
286
0
287
3
288
0
340
11
341
213
342
213
343
213
344
213
  0
ENDTAB
  0
ENDSEC
  0
SECTION
  2
BLOCKS
  0
BLOCK
  5
20
100
AcDbEntity
  8
0
100
AcDbBlockBegin
  2
*Model_Space
 70
0
 10
0.0
 20
0.0
 30
0.0
  3
*Model_Space
  1

  0
ENDBLK
  5
21
100
AcDbEntity
  8
0
100
AcDbBlockEnd
  0
BLOCK
  5
1C
100
AcDbEntity
  8
0
100
AcDbBlockBegin
  2
*Paper_Space
 70
0
 10
0.0
 20
0.0
 30
0.0
  3
*Paper_Space
  1

  0
ENDBLK
  5
1D
100
AcDbEntity
  8
0
100
AcDbBlockEnd
  0
BLOCK
  5
21A
100
AcDbEntity
  8
0
100
AcDbBlockBegin
  2
_FILLED
 70
64
 10
0.0
 20
0.0
  3
_FILLED
  1

  0
SOLID
  5
21B
100
AcDbEntity
  8
0
  6
BYBLOCK
 62
0
100
AcDbTrace
 10
0.0
 20
0.0
 11
-1.0
 21
0.3166666667
 12
-1.0
 22
-0.3166666667
 13
-1.0
 23
-0.3166666667
  0
ENDBLK
  5
21C
100
AcDbEntity
  8
0
  6
BYBLOCK
 62
0
100
AcDbBlockEnd
  0
BLOCK
  5
21D
100
AcDbEntity
  8
0
100
AcDbBlockBegin
 62
7
  6
CONTINUOUS
  2
*D0
 70
65
 10
0.0
 20
0.0
  3
*D0
  1

  0
MTEXT
  5
21E
100
AcDbEntity
  8
0
100
AcDbMText
 62
7
  6
CONTINUOUS
  7
STANDARD
 71
2
 72
1
 10
16.2925155556
 20
20.9980163426
 30
0.0
 11
1.0
 21
0.0
 31
0.0
 44
0.9
  1
49,6
 40
3.0
 41
8.7857142857
  0
LINE
  5
21F
100
AcDbEntity
  8
0
100
AcDbLine
 62
7
  6
CONTINUOUS
 10
41.0925155556
 20
8.4956511478
 11
41.0925155556
 21
18.7480163426
  0
LINE
  5
220
100
AcDbEntity
  8
0
100
AcDbLine
 62
7
  6
CONTINUOUS
 10
-8.5074844444
 20
8.4956511478
 11
-8.5074844444
 21
18.7480163426
  0
LINE
  5
221
100
AcDbEntity
  8
0
100
AcDbLine
 62
7
  6
CONTINUOUS
 10
41.0925155556
 20
17.2480163426
 11
16.2925155556
 21
17.2480163426
  0
LINE
  5
222
100
AcDbEntity
  8
0
100
AcDbLine
 62
7
  6
CONTINUOUS
 10
-8.5074844444
 20
17.2480163426
 11
16.2925155556
 21
17.2480163426
  0
INSERT
  5
223
100
AcDbEntity
  8
0
100
AcDbBlockReference
 62
7
  6
CONTINUOUS
  2
_FILLED
 10
41.0925155556
 20
17.2480163426
 41
3.0
 42
3.0
 43
3.0
  0
INSERT
  5
224
100
AcDbEntity
  8
0
100
AcDbBlockReference
 62
7
  6
CONTINUOUS
  2
_FILLED
 10
-8.5074844444
 20
17.2480163426
 41
3.0
 42
3.0
 43
3.0
 50
180.0
  0
ENDBLK
  5
225
100
AcDbEntity
  8
0
  6
BYBLOCK
 62
0
100
AcDbBlockEnd
  0
BLOCK
  5
226
100
AcDbEntity
  8
0
100
AcDbBlockBegin
 62
7
  6
CONTINUOUS
  2
*D1
 70
65
 10
0.0
 20
0.0
  3
*D1
  1

  0
MTEXT
  5
227
100
AcDbEntity
  8
0
100
AcDbMText
 62
7
  6
CONTINUOUS
  7
STANDARD
 71
2
 72
1
 10
45.3425155556
 20
0.0049957035
 30
0.0
 11
0.0
 21
1.0
 31
0.0
 44
0.9
  1
18,5
 40
3.0
 41
7.9285714286
  0
LINE
  5
228
100
AcDbEntity
  8
0
100
AcDbLine
 62
7
  6
CONTINUOUS
 10
41.3355716058
 20
9.2480163426
 11
50.5925155556
 21
9.2480163426
  0
LINE
  5
229
100
AcDbEntity
  8
0
100
AcDbLine
 62
7
  6
CONTINUOUS
 10
40.478561101
 20
-9.2380249356
 11
50.5925155556
 21
-9.2380249356
  0
LINE
  5
22A
100
AcDbEntity
  8
0
100
AcDbLine
 62
7
  6
CONTINUOUS
 10
49.0925155556
 20
9.2480163426
 11
49.0925155556
 21
0.0049957035
  0
LINE
  5
22B
100
AcDbEntity
  8
0
100
AcDbLine
 62
7
  6
CONTINUOUS
 10
49.0925155556
 20
-9.2380249356
 11
49.0925155556
 21
0.0049957035
  0
INSERT
  5
22C
100
AcDbEntity
  8
0
100
AcDbBlockReference
 62
7
  6
CONTINUOUS
  2
_FILLED
 10
49.0925155556
 20
9.2480163426
 41
3.0
 42
3.0
 43
3.0
 50
90.0
  0
INSERT
  5
22D
100
AcDbEntity
  8
0
100
AcDbBlockReference
 62
7
  6
CONTINUOUS
  2
_FILLED
 10
49.0925155556
 20
-9.2380249356
 41
3.0
 42
3.0
 43
3.0
 50
270.0
  0
ENDBLK
  5
22E
100
AcDbEntity
  8
0
  6
BYBLOCK
 62
0
100
AcDbBlockEnd
  0
BLOCK
  5
22F
100
AcDbEntity
  8
0
100
AcDbBlockBegin
 62
7
  6
CONTINUOUS
  2
*D2
 70
65
 10
0.0
 20
0.0
  3
*D2
  1

  0
MTEXT
  5
230
100
AcDbEntity
  8
0
100
AcDbMText
 62
7
  6
CONTINUOUS
  7
STANDARD
 71
2
 72
1
 10
-21.9304584532
 20
20.9980163426
 30
0.0
 11
1.0
 21
0.0
 31
0.0
 44
0.9
  1
6,5
 40
3.0
 41
6.2142857143
  0
LINE
  5
231
100
AcDbEntity
  8
0
100
AcDbLine
 62
7
  6
CONTINUOUS
 10
-18.6806133333
 20
6.2549983685
 11
-18.6806133333
 21
18.7480163426
  0
LINE
  5
232
100
AcDbEntity
  8
0
100
AcDbLine
 62
7
  6
CONTINUOUS
 10
-25.1803035731
 20
9.4042751116
 11
-25.1803035731
 21
18.7480163426
  0
LINE
  5
233
100
AcDbEntity
  8
0
100
AcDbLine
 62
7
  6
CONTINUOUS
 10
-18.6806133333
 20
17.2480163426
 11
-14.6806133333
 21
17.2480163426
  0
LINE
  5
234
100
AcDbEntity
  8
0
100
AcDbLine
 62
7
  6
CONTINUOUS
 10
-14.6806133333
 20
17.2480163426
 11
-21.9304584532
 21
17.2480163426
  0
LINE
  5
235
100
AcDbEntity
  8
0
100
AcDbLine
 62
7
  6
CONTINUOUS
 10
-25.1803035731
 20
17.2480163426
 11
-29.1803035731
 21
17.2480163426
  0
LINE
  5
236
100
AcDbEntity
  8
0
100
AcDbLine
 62
7
  6
CONTINUOUS
 10
-29.1803035731
 20
17.2480163426
 11
-21.9304584532
 21
17.2480163426
  0
INSERT
  5
237
100
AcDbEntity
  8
0
100
AcDbBlockReference
 62
7
  6
CONTINUOUS
  2
_FILLED
 10
-18.6806133333
 20
17.2480163426
 41
3.0
 42
3.0
 43
3.0
 50
180.0
  0
INSERT
  5
238
100
AcDbEntity
  8
0
100
AcDbBlockReference
 62
7
  6
CONTINUOUS
  2
_FILLED
 10
-25.1803035731
 20
17.2480163426
 41
3.0
 42
3.0
 43
3.0
  0
ENDBLK
  5
239
100
AcDbEntity
  8
0
  6
BYBLOCK
 62
0
100
AcDbBlockEnd
  0
ENDSEC
  0
SECTION
  2
ENTITIES
  0
DIMENSION
  5
23A
100
AcDbEntity
  8
0
100
AcDbDimension
 62
7
  6
CONTINUOUS
  2
*D0
 10
-8.5074844444
 20
17.2480163426
 11
11.8996584127
 21
19.4980163426
 70
160
 71
2
 42
49.6
  3
DIMSTYLE_1
100
AcDbAlignedDimension
 13
41.0925155556
 23
8.4956511478
 14
-8.5074844444
 24
8.4956511478
 50
180.0
100
AcDbRotatedDimension
  0
DIMENSION
  5
23B
100
AcDbEntity
  8
0
100
AcDbDimension
 62
7
  6
CONTINUOUS
  2
*D1
 10
49.0925155556
 20
-9.2380249356
 11
48.6188073909
 21
-3.5390624986
 70
160
 71
2
 42
18.4860412781
  3
DIMSTYLE_2
100
AcDbAlignedDimension
 13
41.3355716058
 23
9.2480163426
 14
40.478561101
 24
-9.2380249356
 50
270.0
100
AcDbRotatedDimension
  0
DIMENSION
  5
23C
100
AcDbEntity
  8
0
100
AcDbDimension
 62
7
  6
CONTINUOUS
  2
*D2
 10
-25.1803035731
 20
17.2480163426
 11
-25.0376013103
 21
19.4980163426
 70
160
 71
2
 42
6.4996902397
  3
DIMSTYLE_1
100
AcDbAlignedDimension
 13
-18.6806133333
 23
6.2549983685
 14
-25.1803035731
 24
9.4042751116
 50
180.0
100
AcDbRotatedDimension
  0
LINE
  5
23D
100
AcDbEntity
  8
RACCORDO
100
AcDbLine
 62
7
  6
CONTINUOUS
 10
-8.4939913667
 20
-8.988284163
 11
-8.5074844444
 21
-1.6335100681
  0
LINE
  5
23E
100
AcDbEntity
  8
ASSI
100
AcDbLine
 62
7
  6
CONTINUOUS
 10
-8.4939913667
 20
-8.988284163
 11
-8.5074844444
 21
-1.6335100681
  0
LINE
  5
23F
100
AcDbEntity
  8
DRAFT
100
AcDbLine
 62
7
  6
CONTINUOUS
 10
-8.5074844444
 20
7.9956511478
 11
-8.5074844444
 21
-1.6335100681
  0
LINE
  5
240
100
AcDbEntity
  8
ASSI
100
AcDbLine
 62
7
  6
CONTINUOUS
 10
-8.5074844444
 20
7.9956511478
 11
-8.5074844444
 21
-1.6335100681
  0
LINE
  5
241
100
AcDbEntity
  8
RACCORDO
100
AcDbLine
 62
7
  6
CONTINUOUS
 10
-8.5005024185
 20
8.9980544188
 11
-8.5005024185
 21
8.2974423527
  0
LINE
  5
242
100
AcDbEntity
  8
ASSI
100
AcDbLine
 62
7
  6
CONTINUOUS
 10
-8.5005024185
 20
8.9980544188
 11
-8.5005024185
 21
8.2974423527
  0
LINE
  5
243
100
AcDbEntity
  8
RACCORDO
100
AcDbLine
 62
7
  6
CONTINUOUS
 10
-8.4813018471
 20
-8.9819398864
 11
-8.4813018471
 21
-8.691914311
  0
LINE
  5
244
100
AcDbEntity
  8
ASSI
100
AcDbLine
 62
7
  6
CONTINUOUS
 10
-8.4813018471
 20
-8.9819398864
 11
-8.4813018471
 21
-8.691914311
  0
LINE
  5
245
100
AcDbEntity
  8
RACCORDO
100
AcDbLine
 62
253
  6
CONTINUOUS
 10
-8.1629193132
 20
-7.4110011265
 11
-8.1570851423
 21
9.1545609902
  0
LINE
  5
246
100
AcDbEntity
  8
ASSI
100
AcDbLine
 62
253
  6
CONTINUOUS
 10
-8.1629193132
 20
-7.4110011265
 11
-8.1570851423
 21
9.1545609902
  0
LINE
  5
247
100
AcDbEntity
  8
RACCORDO
100
AcDbLine
 62
253
  6
CONTINUOUS
 10
-8.4813018471
 20
-8.691914311
 11
-8.4236889429
 21
-8.1099222366
  0
LINE
  5
248
100
AcDbEntity
  8
ASSI
100
AcDbLine
 62
253
  6
CONTINUOUS
 10
-8.4813018471
 20
-8.691914311
 11
-8.4236889429
 21
-8.1099222366
  0
LINE
  5
249
100
AcDbEntity
  8
RACCORDO
100
AcDbLine
 62
253
  6
CONTINUOUS
 10
-8.2320215251
 20
-8.9450016315
 11
-8.1737270191
 21
-8.3561241748
  0
LINE
  5
24A
100
AcDbEntity
  8
ASSI
100
AcDbLine
 62
253
  6
CONTINUOUS
 10
-8.2320215251
 20
-8.9450016315
 11
-8.1737270191
 21
-8.3561241748
  0
LINE
  5
24B
100
AcDbEntity
  8
RACCORDO
100
AcDbLine
 62
7
  6
CONTINUOUS
 10
-8.5074844444
 20
7.9956511478
 11
-8.5056475481
 21
7.9974880441
  0
LINE
  5
24C
100
AcDbEntity
  8
ASSI
100
AcDbLine
 62
7
  6
CONTINUOUS
 10
-8.5074844444
 20
7.9956511478
 11
-8.5056475481
 21
7.9974880441
  0
LINE
  5
24D
100
AcDbEntity
  8
RACCORDO
100
AcDbLine
 62
253
  6
CONTINUOUS
 10
-8.4070470662
 20
8.9045990665
 11
-8.5005024185
 21
8.9980544188
  0
LINE
  5
24E
100
AcDbEntity
  8
ASSI
100
AcDbLine
 62
253
  6
CONTINUOUS
 10
-8.4070470662
 20
8.9045990665
 11
-8.5005024185
 21
8.9980544188
  0
LINE
  5
24F
100
AcDbEntity
  8
RACCORDO
100
AcDbLine
 62
253
  6
CONTINUOUS
 10
-8.1570851423
 20
9.1545609902
 11
-8.2505404947
 21
9.2480163426
  0
LINE
  5
250
100
AcDbEntity
  8
ASSI
100
AcDbLine
 62
253
  6
CONTINUOUS
 10
-8.1570851423
 20
9.1545609902
 11
-8.2505404947
 21
9.2480163426
  0
LINE
  5
251
100
AcDbEntity
  8
RACCORDO
100
AcDbLine
 62
7
  6
CONTINUOUS
 10
-8.2435331876
 20
-9.238026535
 11
-7.393533189
 21
-9.238026535
  0
LINE
  5
252
100
AcDbEntity
  8
RACCORDO
100
AcDbLine
 62
7
  6
CONTINUOUS
 10
39.9785643001
 20
-9.238026535
 11
40.8285642987
 21
-9.238026535
  0
LINE
  5
253
100
AcDbEntity
  8
DRAFT
100
AcDbLine
 62
7
  6
CONTINUOUS
 10
39.978561101
 20
-9.2380249356
 11
-7.3935299899
 21
-9.2380249356
  0
LINE
  5
254
100
AcDbEntity
  8
ASSI
100
AcDbLine
 62
7
  6
CONTINUOUS
 10
40.8285642987
 20
-9.238026535
 11
-8.2435331876
 21
-9.238026535
  0
LINE
  5
255
100
AcDbEntity
  8
RACCORDO
100
AcDbLine
 62
7
  6
CONTINUOUS
 10
40.8163329567
 20
-9.2319113298
 11
-8.2313018456
 21
-9.2319113298
  0
LINE
  5
256
100
AcDbEntity
  8
ASSI
100
AcDbLine
 62
7
  6
CONTINUOUS
 10
40.8163329567
 20
-9.2319113298
 11
-8.2313018456
 21
-9.2319113298
  0
LINE
  5
257
100
AcDbEntity
  8
RACCORDO
100
AcDbLine
 62
7
  6
CONTINUOUS
 10
40.8170526362
 20
-8.9450016315
 11
-8.2320215251
 21
-8.9450016315
  0
LINE
  5
258
100
AcDbEntity
  8
ASSI
100
AcDbLine
 62
7
  6
CONTINUOUS
 10
40.8170526362
 20
-8.9450016315
 11
-8.2320215251
 21
-8.9450016315
  0
LINE
  5
259
100
AcDbEntity
  8
RACCORDO
100
AcDbLine
 62
253
  6
CONTINUOUS
 10
-8.1737270191
 20
-8.3561241748
 11
40.7587581302
 21
-8.3561241748
  0
LINE
  5
25A
100
AcDbEntity
  8
ASSI
100
AcDbLine
 62
253
  6
CONTINUOUS
 10
-8.1737270191
 20
-8.3561241748
 11
40.7587581302
 21
-8.3561241748
  0
LINE
  5
25B
100
AcDbEntity
  8
RACCORDO
100
AcDbLine
 62
253
  6
CONTINUOUS
 10
-8.1629193132
 20
-7.4110011265
 11
40.7479504243
 21
-7.4110011265
  0
LINE
  5
25C
100
AcDbEntity
  8
ASSI
100
AcDbLine
 62
253
  6
CONTINUOUS
 10
-8.1629193132
 20
-7.4110011265
 11
40.7479504243
 21
-7.4110011265
  0
LINE
  5
25D
100
AcDbEntity
  8
RACCORDO
100
AcDbLine
 62
253
  6
CONTINUOUS
 10
-8.4939913667
 20
-8.988284163
 11
-8.4813018471
 21
-8.9819398864
  0
LINE
  5
25E
100
AcDbEntity
  8
ASSI
100
AcDbLine
 62
253
  6
CONTINUOUS
 10
-8.4939913667
 20
-8.988284163
 11
-8.4813018471
 21
-8.9819398864
  0
LINE
  5
25F
100
AcDbEntity
  8
RACCORDO
100
AcDbLine
 62
253
  6
CONTINUOUS
 10
41.0663329582
 20
-8.9819398864
 11
41.0790224778
 21
-8.988284163
  0
LINE
  5
260
100
AcDbEntity
  8
ASSI
100
AcDbLine
 62
253
  6
CONTINUOUS
 10
41.0663329582
 20
-8.9819398864
 11
41.0790224778
 21
-8.988284163
  0
LINE
  5
261
100
AcDbEntity
  8
DRAFT
100
AcDbLine
 62
7
  6
CONTINUOUS
 10
37.6049815461
 20
9.2480163426
 11
37.3425155556
 21
9.1956511478
  0
LINE
  5
262
100
AcDbEntity
  8
ASSI
100
AcDbLine
 62
7
  6
CONTINUOUS
 10
37.6049815461
 20
9.2480163426
 11
37.3425155556
 21
9.1956511478
  0
LINE
  5
263
100
AcDbEntity
  8
DRAFT
100
AcDbLine
 62
7
  6
CONTINUOUS
 10
-5.019950435
 20
9.2480163426
 11
-4.7574844444
 21
9.1956511478
  0
LINE
  5
264
100
AcDbEntity
  8
ASSI
100
AcDbLine
 62
7
  6
CONTINUOUS
 10
-5.019950435
 20
9.2480163426
 11
-4.7574844444
 21
9.1956511478
  0
LINE
  5
265
100
AcDbEntity
  8
RACCORDO
100
AcDbLine
 62
253
  6
CONTINUOUS
 10
40.9920781772
 20
8.9045990664
 11
-8.1570851395
 21
8.9042751116
  0
LINE
  5
266
100
AcDbEntity
  8
ASSI
100
AcDbLine
 62
253
  6
CONTINUOUS
 10
40.9920781772
 20
8.9045990664
 11
-8.1570851395
 21
8.9042751116
  0
LINE
  5
267
100
AcDbEntity
  8
RACCORDO
100
AcDbLine
 62
253
  6
CONTINUOUS
 10
-8.1570851423
 20
8.9042751116
 11
-8.4070470661
 21
8.9045990664
  0
LINE
  5
268
100
AcDbEntity
  8
ASSI
100
AcDbLine
 62
253
  6
CONTINUOUS
 10
-8.1570851423
 20
8.9042751116
 11
-8.4070470661
 21
8.9045990664
  0
LINE
  5
269
100
AcDbEntity
  8
RACCORDO
100
AcDbLine
 62
253
  6
CONTINUOUS
 10
40.8355716058
 20
9.2480163426
 11
40.7421162534
 21
9.1545609902
  0
LINE
  5
26A
100
AcDbEntity
  8
ASSI
100
AcDbLine
 62
253
  6
CONTINUOUS
 10
40.8355716058
 20
9.2480163426
 11
40.7421162534
 21
9.1545609902
  0
LINE
  5
26B
100
AcDbEntity
  8
RACCORDO
100
AcDbLine
 62
253
  6
CONTINUOUS
 10
40.7421162534
 20
9.1545609902
 11
-8.1570851423
 21
9.1545609902
  0
LINE
  5
26C
100
AcDbEntity
  8
ASSI
100
AcDbLine
 62
253
  6
CONTINUOUS
 10
40.7421162534
 20
9.1545609902
 11
-8.1570851423
 21
9.1545609902
  0
LINE
  5
26D
100
AcDbEntity
  8
DRAFT
100
AcDbLine
 62
7
  6
CONTINUOUS
 10
37.3425155556
 20
9.1956511478
 11
-4.7574844444
 21
9.1956511478
  0
LINE
  5
26E
100
AcDbEntity
  8
ASSI
100
AcDbLine
 62
7
  6
CONTINUOUS
 10
37.3425155556
 20
9.1956511478
 11
-4.7574844444
 21
9.1956511478
  0
LINE
  5
26F
100
AcDbEntity
  8
RACCORDO
100
AcDbLine
 62
7
  6
CONTINUOUS
 10
40.8355716058
 20
9.2480163426
 11
37.6049815461
 21
9.2480163426
  0
LINE
  5
270
100
AcDbEntity
  8
ASSI
100
AcDbLine
 62
7
  6
CONTINUOUS
 10
40.8355716058
 20
9.2480163426
 11
37.6049815461
 21
9.2480163426
  0
LINE
  5
271
100
AcDbEntity
  8
RACCORDO
100
AcDbLine
 62
7
  6
CONTINUOUS
 10
-5.019950435
 20
9.2480163426
 11
-8.2505404947
 21
9.2480163426
  0
LINE
  5
272
100
AcDbEntity
  8
ASSI
100
AcDbLine
 62
7
  6
CONTINUOUS
 10
-5.019950435
 20
9.2480163426
 11
-8.2505404947
 21
9.2480163426
  0
LINE
  5
273
100
AcDbEntity
  8
RACCORDO
100
AcDbLine
 62
253
  6
CONTINUOUS
 10
41.0855335296
 20
8.9980544188
 11
40.9920781773
 21
8.9045990665
  0
LINE
  5
274
100
AcDbEntity
  8
ASSI
100
AcDbLine
 62
253
  6
CONTINUOUS
 10
41.0855335296
 20
8.9980544188
 11
40.9920781773
 21
8.9045990665
  0
LINE
  5
275
100
AcDbEntity
  8
RACCORDO
100
AcDbLine
 62
253
  6
CONTINUOUS
 10
40.7587581302
 20
-8.3561241748
 11
40.8170526362
 21
-8.9450016315
  0
LINE
  5
276
100
AcDbEntity
  8
ASSI
100
AcDbLine
 62
253
  6
CONTINUOUS
 10
40.7587581302
 20
-8.3561241748
 11
40.8170526362
 21
-8.9450016315
  0
LINE
  5
277
100
AcDbEntity
  8
RACCORDO
100
AcDbLine
 62
253
  6
CONTINUOUS
 10
41.008720054
 20
-8.1099222366
 11
41.0663329582
 21
-8.691914311
  0
LINE
  5
278
100
AcDbEntity
  8
ASSI
100
AcDbLine
 62
253
  6
CONTINUOUS
 10
41.008720054
 20
-8.1099222366
 11
41.0663329582
 21
-8.691914311
  0
LINE
  5
279
100
AcDbEntity
  8
RACCORDO
100
AcDbLine
 62
253
  6
CONTINUOUS
 10
40.7479504243
 20
-7.4110011265
 11
40.7421162534
 21
9.1545609902
  0
LINE
  5
27A
100
AcDbEntity
  8
ASSI
100
AcDbLine
 62
253
  6
CONTINUOUS
 10
40.7479504243
 20
-7.4110011265
 11
40.7421162534
 21
9.1545609902
  0
LINE
  5
27B
100
AcDbEntity
  8
RACCORDO
100
AcDbLine
 62
7
  6
CONTINUOUS
 10
41.0663329582
 20
-8.691914311
 11
41.0663329582
 21
-8.9819398864
  0
LINE
  5
27C
100
AcDbEntity
  8
ASSI
100
AcDbLine
 62
7
  6
CONTINUOUS
 10
41.0663329582
 20
-8.691914311
 11
41.0663329582
 21
-8.9819398864
  0
LINE
  5
27D
100
AcDbEntity
  8
RACCORDO
100
AcDbLine
 62
7
  6
CONTINUOUS
 10
41.0855335296
 20
8.2974423527
 11
41.0855335296
 21
8.9980544188
  0
LINE
  5
27E
100
AcDbEntity
  8
ASSI
100
AcDbLine
 62
7
  6
CONTINUOUS
 10
41.0855335296
 20
8.2974423527
 11
41.0855335296
 21
8.9980544188
  0
LINE
  5
27F
100
AcDbEntity
  8
DRAFT
100
AcDbLine
 62
7
  6
CONTINUOUS
 10
41.0925155556
 20
7.9956511478
 11
41.0925155556
 21
-1.6335100681
  0
LINE
  5
280
100
AcDbEntity
  8
ASSI
100
AcDbLine
 62
7
  6
CONTINUOUS
 10
41.0925155556
 20
7.9956511478
 11
41.0925155556
 21
-1.6335100681
  0
LINE
  5
281
100
AcDbEntity
  8
RACCORDO
100
AcDbLine
 62
7
  6
CONTINUOUS
 10
41.0790224778
 20
-8.988284163
 11
41.0925155556
 21
-1.6335100681
  0
LINE
  5
282
100
AcDbEntity
  8
ASSI
100
AcDbLine
 62
7
  6
CONTINUOUS
 10
41.0790224778
 20
-8.988284163
 11
41.0925155556
 21
-1.6335100681
  0
LINE
  5
283
100
AcDbEntity
  8
RACCORDO
100
AcDbLine
 62
7
  6
CONTINUOUS
 10
41.0925155556
 20
7.9956511478
 11
41.0906786592
 21
7.9974880441
  0
LINE
  5
284
100
AcDbEntity
  8
ASSI
100
AcDbLine
 62
7
  6
CONTINUOUS
 10
41.0925155556
 20
7.9956511478
 11
41.0906786592
 21
7.9974880441
  0
LINE
  5
285
100
AcDbEntity
  8
RACCORDO
100
AcDbLine
 62
7
  6
CONTINUOUS
 10
-20.6806133333
 20
-9.2319113298
 11
-19.9798802212
 21
-9.238026535
  0
LINE
  5
286
100
AcDbEntity
  8
ASSI
100
AcDbLine
 62
7
  6
CONTINUOUS
 10
-20.6806133333
 20
-9.2319113298
 11
-19.9798802212
 21
-9.238026535
  0
LINE
  5
287
100
AcDbEntity
  8
RACCORDO
100
AcDbLine
 62
253
  6
CONTINUOUS
 10
-20.6806133333
 20
-8.9819398864
 11
-19.9536312401
 21
-8.988284163
  0
LINE
  5
288
100
AcDbEntity
  8
ASSI
100
AcDbLine
 62
253
  6
CONTINUOUS
 10
-20.6806133333
 20
-8.9819398864
 11
-19.9536312401
 21
-8.988284163
  0
LINE
  5
289
100
AcDbEntity
  8
RACCORDO
100
AcDbLine
 62
7
  6
CONTINUOUS
 10
-24.0203033471
 20
-8.3561241748
 11
-20.6806133333
 21
-8.9450016315
  0
LINE
  5
28A
100
AcDbEntity
  8
ASSI
100
AcDbLine
 62
7
  6
CONTINUOUS
 10
-24.0203033471
 20
-8.3561241748
 11
-20.6806133333
 21
-8.9450016315
  0
LINE
  5
28B
100
AcDbEntity
  8
RACCORDO
100
AcDbLine
 62
253
  6
CONTINUOUS
 10
-23.9812544042
 20
-8.1099222366
 11
-20.6806133333
 21
-8.691914311
  0
LINE
  5
28C
100
AcDbEntity
  8
ASSI
100
AcDbLine
 62
253
  6
CONTINUOUS
 10
-23.9812544042
 20
-8.1099222366
 11
-20.6806133333
 21
-8.691914311
  0
LINE
  5
28D
100
AcDbEntity
  8
RACCORDO
100
AcDbLine
 62
253
  6
CONTINUOUS
 10
-24.6004274599
 20
-7.4010799503
 11
-24.845849674
 21
-7.4110004174
  0
LINE
  5
28E
100
AcDbEntity
  8
ASSI
100
AcDbLine
 62
253
  6
CONTINUOUS
 10
-24.6004274599
 20
-7.4010799503
 11
-24.845849674
 21
-7.4110004174
  0
LINE
  5
28F
100
AcDbEntity
  8
RACCORDO
100
AcDbLine
 62
7
  6
CONTINUOUS
 10
-20.6806133333
 20
-9.2319113298
 11
-20.6806133333
 21
-8.691914311
  0
LINE
  5
290
100
AcDbEntity
  8
ASSI
100
AcDbLine
 62
7
  6
CONTINUOUS
 10
-20.6806133333
 20
-9.2319113298
 11
-20.6806133333
 21
-8.691914311
  0
LINE
  5
291
100
AcDbEntity
  8
RACCORDO
100
AcDbLine
 62
7
  6
CONTINUOUS
 10
-19.5806133333
 20
8.2974423527
 11
-19.5806133333
 21
9.2480163426
  0
LINE
  5
292
100
AcDbEntity
  8
ASSI
100
AcDbLine
 62
7
  6
CONTINUOUS
 10
-19.5806133333
 20
8.2974423527
 11
-19.5806133333
 21
9.2480163426
  0
LINE
  5
293
100
AcDbEntity
  8
DRAFT
100
AcDbLine
 62
7
  6
CONTINUOUS
 10
-19.1806133333
 20
7.9956511478
 11
-19.1806133333
 21
-1.6335100681
  0
LINE
  5
294
100
AcDbEntity
  8
ASSI
100
AcDbLine
 62
7
  6
CONTINUOUS
 10
-19.1806133333
 20
7.9956511478
 11
-19.1806133333
 21
-1.6335100681
  0
LINE
  5
295
100
AcDbEntity
  8
RACCORDO
100
AcDbLine
 62
7
  6
CONTINUOUS
 10
-19.9798802212
 20
-9.238026535
 11
-19.1806133333
 21
-1.6335100681
  0
LINE
  5
296
100
AcDbEntity
  8
ASSI
100
AcDbLine
 62
7
  6
CONTINUOUS
 10
-19.9798802212
 20
-9.238026535
 11
-19.1806133333
 21
-1.6335100681
  0
LINE
  5
297
100
AcDbEntity
  8
0
100
AcDbLine
 62
7
  6
CONTINUOUS
 10
-18.6806133333
 20
5.7549983685
 11
-18.6806133333
 21
3.9549983685
  0
LINE
  5
298
100
AcDbEntity
  8
0
100
AcDbLine
 62
7
  6
CONTINUOUS
 10
-19.1806133333
 20
3.9299983685
 11
-18.6806133333
 21
3.9549983685
  0
LINE
  5
299
100
AcDbEntity
  8
0
100
AcDbLine
 62
7
  6
CONTINUOUS
 10
-19.1806133333
 20
5.7799983685
 11
-18.6806133333
 21
5.7549983685
  0
LINE
  5
29A
100
AcDbEntity
  8
RACCORDO
100
AcDbLine
 62
7
  6
CONTINUOUS
 10
-19.1806133333
 20
7.9956511478
 11
-19.2858490553
 21
7.9974880441
  0
LINE
  5
29B
100
AcDbEntity
  8
ASSI
100
AcDbLine
 62
7
  6
CONTINUOUS
 10
-19.1806133333
 20
7.9956511478
 11
-19.2858490553
 21
7.9974880441
  0
LINE
  5
29C
100
AcDbEntity
  8
RACCORDO
100
AcDbLine
 62
253
  6
CONTINUOUS
 10
-19.5806133333
 20
8.9980544188
 11
-24.934666882
 21
8.9045990665
  0
LINE
  5
29D
100
AcDbEntity
  8
ASSI
100
AcDbLine
 62
253
  6
CONTINUOUS
 10
-19.5806133333
 20
8.9980544188
 11
-24.934666882
 21
8.9045990665
  0
LINE
  5
29E
100
AcDbEntity
  8
RACCORDO
100
AcDbLine
 62
7
  6
CONTINUOUS
 10
-19.5806133333
 20
9.2480163426
 11
-24.9346668846
 21
9.1545609902
  0
LINE
  5
29F
100
AcDbEntity
  8
ASSI
100
AcDbLine
 62
7
  6
CONTINUOUS
 10
-19.5806133333
 20
9.2480163426
 11
-24.9346668846
 21
9.1545609902
  0
LINE
  5
2A0
100
AcDbEntity
  8
RACCORDO
100
AcDbLine
 62
253
  6
CONTINUOUS
 10
-24.9346668846
 20
8.9045990664
 11
-25.1803035731
 21
8.9042751116
  0
LINE
  5
2A1
100
AcDbEntity
  8
ASSI
100
AcDbLine
 62
253
  6
CONTINUOUS
 10
-24.9346668846
 20
8.9045990664
 11
-25.1803035731
 21
8.9042751116
  0
CIRCLE
  5
2A2
100
AcDbEntity
  8
CURVE
100
AcDbCircle
 62
253
  6
CONTINUOUS
 10
16.2925155556
 20
-2.6450016315
 40
2.9
  0
CIRCLE
  5
2A3
100
AcDbEntity
  8
DRAFT
100
AcDbCircle
 62
7
  6
CONTINUOUS
 10
16.2925152115
 20
4.8552189143
 40
1.3135386721
  0
CIRCLE
  5
2A4
100
AcDbEntity
  8
ASSI
100
AcDbCircle
 62
7
  6
CONTINUOUS
 10
16.2925152115
 20
4.8552189143
 40
1.3135386721
  0
CIRCLE
  5
2A5
100
AcDbEntity
  8
DRAFT
100
AcDbCircle
 62
7
  6
CONTINUOUS
 10
16.2925155556
 20
4.8549983685
 40
1.3
  0
CIRCLE
  5
2A6
100
AcDbEntity
  8
ASSI
100
AcDbCircle
 62
7
  6
CONTINUOUS
 10
16.2925155556
 20
4.8549983685
 40
1.3
  0
CIRCLE
  5
2A7
100
AcDbEntity
  8
DRAFT
100
AcDbCircle
 62
7
  6
CONTINUOUS
 10
16.2925155556
 20
4.8549983685
 40
1.225
  0
CIRCLE
  5
2A8
100
AcDbEntity
  8
RACCORDO
100
AcDbCircle
 62
253
  6
CONTINUOUS
 10
16.2925155556
 20
4.8549983685
 40
1.2068524201
  0
CIRCLE
  5
2A9
100
AcDbEntity
  8
RACCORDO
100
AcDbCircle
 62
253
  6
CONTINUOUS
 10
16.2925155556
 20
4.8549983685
 40
1.1180464865
  0
ARC
  5
2AA
100
AcDbEntity
  8
RACCORDO
100
AcDbCircle
 62
253
  6
CONTINUOUS
 10
-8.1569936754
 20
8.9045075995
 40
0.2500538636
100
AcDbArc
 50
90.020958193
 51
179.979041807
  0
ARC
  5
2AB
100
AcDbEntity
  8
ASSI
100
AcDbCircle
 62
253
  6
CONTINUOUS
 10
-8.1569936754
 20
8.9045075995
 40
0.2500538636
100
AcDbArc
 50
90.020958193
 51
179.979041807
  0
ARC
  5
2AC
100
AcDbEntity
  8
RACCORDO
100
AcDbCircle
 62
253
  6
CONTINUOUS
 10
40.7420254289
 20
8.904508242
 40
0.2500531776
100
AcDbArc
 50
0.0208110208
 51
89.9791889339
  0
ARC
  5
2AD
100
AcDbEntity
  8
ASSI
100
AcDbCircle
 62
253
  6
CONTINUOUS
 10
40.7420254289
 20
8.904508242
 40
0.2500531776
100
AcDbArc
 50
0.0208110208
 51
89.9791889339
  0
ARC
  5
2AE
100
AcDbEntity
  8
RACCORDO
100
AcDbCircle
 62
7
  6
CONTINUOUS
 10
399.8193396078
 20
9.4549983685
 40
425.0
100
AcDbArc
 50
180.074245005
 51
182.2743633301
  0
ARC
  5
2AF
100
AcDbEntity
  8
ASSI
100
AcDbCircle
 62
7
  6
CONTINUOUS
 10
399.8193396078
 20
9.4549983685
 40
425.0
100
AcDbArc
 50
180.074245005
 51
182.2743633301
  0
ARC
  5
2B0
100
AcDbEntity
  8
CURVE
100
AcDbCircle
 62
253
  6
CONTINUOUS
 10
399.7727070907
 20
9.4539477015
 40
424.95335571
100
AcDbArc
 50
181.2964501967
 51
181.5409329889
  0
ARC
  5
2B1
100
AcDbEntity
  8
RACCORDO
100
AcDbCircle
 62
253
  6
CONTINUOUS
 10
399.8149843569
 20
9.454998464
 40
424.7500078483
100
AcDbArc
 50
180.0742450165
 51
182.2743633009
  0
ARC
  5
2B2
100
AcDbEntity
  8
ASSI
100
AcDbCircle
 62
253
  6
CONTINUOUS
 10
399.8149843569
 20
9.454998464
 40
424.7500078483
100
AcDbArc
 50
180.0742450165
 51
182.2743633009
  0
ARC
  5
2B3
100
AcDbEntity
  8
RACCORDO
100
AcDbCircle
 62
7
  6
CONTINUOUS
 10
-23.8466551694
 20
-7.3713164218
 40
1.0
100
AcDbArc
 50
182.2743633301
 51
260.0
  0
ARC
  5
2B4
100
AcDbEntity
  8
ASSI
100
AcDbCircle
 62
7
  6
CONTINUOUS
 10
-23.8466551694
 20
-7.3713164218
 40
1.0
100
AcDbArc
 50
182.2743633301
 51
260.0
  0
ARC
  5
2B5
100
AcDbEntity
  8
RACCORDO
100
AcDbCircle
 62
253
  6
CONTINUOUS
 10
-23.8510164714
 20
-7.3713148498
 40
0.7500018606
100
AcDbArc
 50
182.2744778693
 51
259.9998854608
  0
ARC
  5
2B6
100
AcDbEntity
  8
ASSI
100
AcDbCircle
 62
253
  6
CONTINUOUS
 10
-23.8510164714
 20
-7.3713148498
 40
0.7500018606
100
AcDbArc
 50
182.2744778693
 51
259.9998854608
  0
ARC
  5
2B7
100
AcDbEntity
  8
RACCORDO
100
AcDbCircle
 62
7
  6
CONTINUOUS
 10
-19.2806133333
 20
8.2974423527
 40
0.3
100
AcDbArc
 50
180.0
 51
269.0
  0
ARC
  5
2B8
100
AcDbEntity
  8
ASSI
100
AcDbCircle
 62
7
  6
CONTINUOUS
 10
-19.2806133333
 20
8.2974423527
 40
0.3
100
AcDbArc
 50
180.0
 51
269.0
  0
ARC
  5
2B9
100
AcDbEntity
  8
RACCORDO
100
AcDbCircle
 62
7
  6
CONTINUOUS
 10
-24.930303783
 20
8.9045990664
 40
0.25
100
AcDbArc
 50
91.0
 51
180.074245005
  0
ARC
  5
2BA
100
AcDbEntity
  8
ASSI
100
AcDbCircle
 62
7
  6
CONTINUOUS
 10
-24.930303783
 20
8.9045990664
 40
0.25
100
AcDbArc
 50
91.0
 51
180.074245005
  0
SPLINE
  5
2BB
100
AcDbEntity
  8
RACCORDO
100
AcDbSpline
 62
253
  6
CONTINUOUS
 70
0
 71
3
 72
11
 73
7
 74
5
 42
0.0000001
 43
0.0000001
 44
0.0000000001
 12
0.0011902469
 22
-0.3868382165
 32
0.0
 13
0.3868383243
 23
-0.0011547015
 33
0.0
 40
0.0
 40
0.0
 40
0.0
 40
0.0
 40
0.2481372423
 40
0.4975164136
 40
0.7483480436
 40
1.0
 40
1.0
 40
1.0
 40
1.0
 10
-8.4236889429
 20
-8.1099222366
 30
0.0
 10
-8.4235904947
 20
-8.1419185593
 30
0.0
 10
-8.4103468215
 20
-8.2067386559
 30
0.0
 10
-8.3545490531
 20
-8.2884347227
 30
0.0
 10
-8.2716183991
 20
-8.3431169839
 30
0.0
 10
-8.2061765595
 20
-8.3560273143
 30
0.0
 10
-8.1737270191
 20
-8.3561241753
 30
0.0
 11
-8.4236889429
 21
-8.1099222366
 31
0.0
 11
-8.4044466704
 21
-8.2039632075
 31
0.0
 11
-8.3502140086
 21
-8.2837457272
 31
0.0
 11
-8.2692126089
 21
-8.3371678936
 31
0.0
 11
-8.1737270191
 21
-8.3561241753
 31
0.0
  0
SPLINE
  5
2BC
100
AcDbEntity
  8
RACCORDO
100
AcDbSpline
 62
253
  6
CONTINUOUS
 70
0
 71
3
 72
11
 73
7
 74
5
 42
0.0000001
 43
0.0000001
 44
0.0000000001
 12
0.1007369386
 22
-0.2292793414
 32
0.0
 13
0.2504334585
 23
-0.0001733463
 33
0.0
 40
0.0
 40
0.0
 40
0.0
 40
0.0
 40
0.0822915138
 40
0.3001698803
 40
0.6219901227
 40
1.0
 40
1.0
 40
1.0
 40
1.0
 10
-8.412881237
 20
-7.4010799503
 30
0.0
 10
-8.4101179719
 20
-7.4073691984
 30
0.0
 10
-8.3765337186
 20
-7.401245224
 30
0.0
 10
-8.3321514294
 20
-7.4113221626
 30
0.0
 10
-8.2518481969
 20
-7.4094622543
 30
0.0
 10
-8.1944747535
 20
-7.4109792843
 30
0.0
 10
-8.1629193132
 20
-7.4110011265
 30
0.0
 11
-8.412881237
 21
-7.4010799503
 31
0.0
 11
-8.3926180782
 21
-7.4048371926
 31
0.0
 11
-8.3381478132
 21
-7.4080348999
 31
0.0
 11
-8.2575822403
 21
-7.4101968647
 31
0.0
 11
-8.1629193132
 21
-7.4110011265
 31
0.0
  0
SPLINE
  5
2BD
100
AcDbEntity
  8
RACCORDO
100
AcDbSpline
 62
253
  6
CONTINUOUS
 70
0
 71
3
 72
13
 73
9
 74
7
 42
0.0000001
 43
0.0000001
 44
0.0000000001
 12
0.0697988841
 22
0.7055568887
 32
0.0
 13
0.0004945741
 23
0.70900082
 33
0.0
 40
0.0
 40
0.0
 40
0.0
 40
0.0
 40
0.0674181962
 40
0.1847576221
 40
0.3459157559
 40
0.5427764484
 40
0.7650453531
 40
1.0
 40
1.0
 40
1.0
 40
1.0
 10
-8.4236889429
 20
-8.1099222366
 30
0.0
 10
-8.4221203712
 20
-8.0940664457
 30
0.0
 10
-8.4203192607
 20
-8.0504050086
 30
0.0
 10
-8.4178214253
 20
-7.9687113131
 30
0.0
 10
-8.4158608138
 20
-7.8563737234
 30
0.0
 10
-8.4142362468
 20
-7.7192450916
 30
0.0
 10
-8.4132040922
 20
-7.5646645695
 30
0.0
 10
-8.4129199711
 20
-7.4566076295
 30
0.0
 10
-8.412881237
 20
-7.4010799503
 30
0.0
 11
-8.4236889429
 21
-8.1099222366
 31
0.0
 11
-8.4208680987
 21
-8.0622059758
 31
0.0
 11
-8.4182909213
 21
-7.9790521339
 31
0.0
 11
-8.4161041819
 21
-7.864811784
 31
0.0
 11
-8.4144203302
 21
-7.7252475151
 31
0.0
 11
-8.4133274731
 21
-7.5676624305
 31
0.0
 11
-8.412881237
 21
-7.4010799503
 31
0.0
  0
SPLINE
  5
2BE
100
AcDbEntity
  8
RACCORDO
100
AcDbSpline
 62
253
  6
CONTINUOUS
 70
0
 71
3
 72
10
 73
6
 74
4
 42
0.0000001
 43
0.0000001
 44
0.0000000001
 12
0.0113038293
 22
16.305676414
 32
0.0
 13
0.0003688186
 23
16.305680328
 33
0.0
 40
0.0
 40
0.0
 40
0.0
 40
0.0
 40
0.3332438196
 40
0.6665834492
 40
1.0
 40
1.0
 40
1.0
 40
1.0
 10
-8.412881237
 20
-7.4010799503
 30
0.0
 10
-8.4116255932
 20
-5.5898246539
 30
0.0
 10
-8.4095193962
 20
-1.9667930175
 30
0.0
 10
-8.4075748351
 20
3.4684334527
 30
0.0
 10
-8.4070880563
 20
7.0924045019
 30
0.0
 10
-8.4070470662
 20
8.9045990665
 30
0.0
 11
-8.412881237
 21
-7.4010799503
 31
0.0
 11
-8.4097221369
 21
-1.9673136737
 31
0.0
 11
-8.4077773803
 21
3.4680154205
 31
0.0
 11
-8.4070470662
 21
8.9045990665
 31
0.0
  0
SPLINE
  5
2BF
100
AcDbEntity
  8
RACCORDO
100
AcDbSpline
 62
253
  6
CONTINUOUS
 70
0
 71
3
 72
10
 73
6
 74
4
 42
0.0000001
 43
0.0000001
 44
0.0000000001
 12
0.0003688186
 22
-16.3056803279
 32
0.0
 13
0.0113038293
 23
-16.3056764139
 33
0.0
 40
0.0
 40
0.0
 40
0.0
 40
0.0
 40
0.3334165508
 40
0.6667561804
 40
1.0
 40
1.0
 40
1.0
 40
1.0
 10
40.9920781773
 20
8.9045990665
 30
0.0
 10
40.9921191673
 20
7.0924045019
 30
0.0
 10
40.9926059462
 20
3.4684334527
 30
0.0
 10
40.9945505073
 20
-1.9667930176
 30
0.0
 10
40.9966567043
 20
-5.5898246539
 30
0.0
 10
40.9979123481
 20
-7.4010799503
 30
0.0
 11
40.9920781773
 21
8.9045990665
 31
0.0
 11
40.9928084914
 21
3.4680154204
 31
0.0
 11
40.994753248
 21
-1.9673136738
 31
0.0
 11
40.9979123481
 21
-7.4010799503
 31
0.0
  0
SPLINE
  5
2C0
100
AcDbEntity
  8
RACCORDO
100
AcDbSpline
 62
253
  6
CONTINUOUS
 70
0
 71
3
 72
13
 73
9
 74
7
 42
0.0000001
 43
0.0000001
 44
0.0000000001
 12
0.0004945741
 22
-0.70900082
 32
0.0
 13
0.0697988838
 23
-0.7055568887
 33
0.0
 40
0.0
 40
0.0
 40
0.0
 40
0.0
 40
0.2349546469
 40
0.4572235516
 40
0.6540842441
 40
0.8152423778
 40
0.9325818039
 40
1.0
 40
1.0
 40
1.0
 40
1.0
 10
40.9979123481
 20
-7.4010799503
 30
0.0
 10
40.9979510822
 20
-7.4566076295
 30
0.0
 10
40.9982352033
 20
-7.5646645695
 30
0.0
 10
40.9992673579
 20
-7.7192450916
 30
0.0
 10
41.0008919249
 20
-7.8563737234
 30
0.0
 10
41.0028525364
 20
-7.9687113132
 30
0.0
 10
41.0053503718
 20
-8.0504050086
 30
0.0
 10
41.0071514824
 20
-8.0940664457
 30
0.0
 10
41.008720054
 20
-8.1099222366
 30
0.0
 11
40.9979123481
 21
-7.4010799503
 31
0.0
 11
40.9983585842
 21
-7.5676624305
 31
0.0
 11
40.9994514413
 21
-7.7252475151
 31
0.0
 11
41.001135293
 21
-7.864811784
 31
0.0
 11
41.0033220324
 21
-7.9790521338
 31
0.0
 11
41.0058992098
 21
-8.0622059759
 31
0.0
 11
41.008720054
 21
-8.1099222366
 31
0.0
  0
SPLINE
  5
2C1
100
AcDbEntity
  8
RACCORDO
100
AcDbSpline
 62
253
  6
CONTINUOUS
 70
0
 71
3
 72
11
 73
7
 74
5
 42
0.0000001
 43
0.0000001
 44
0.0000000001
 12
-0.0011902476
 22
-0.3868382125
 32
0.0
 13
-0.3868383202
 23
-0.0011547052
 33
0.0
 40
0.0
 40
0.0
 40
0.0
 40
0.0
 40
0.2481496306
 40
0.4975322026
 40
0.7483586169
 40
1.0
 40
1.0
 40
1.0
 40
1.0
 10
41.008720054
 20
-8.1099222366
 30
0.0
 10
41.0086216008
 20
-8.1419201564
 30
0.0
 10
40.9953768103
 20
-8.2067423866
 30
0.0
 10
40.9395763626
 20
-8.2884383785
 30
0.0
 10
40.8566460272
 20
-8.3431179568
 30
0.0
 10
40.7912063068
 20
-8.3560273176
 30
0.0
 10
40.7587581302
 20
-8.3561241748
 30
0.0
 11
41.008720054
 21
-8.1099222366
 31
0.0
 11
40.9894758783
 21
-8.2039677086
 31
0.0
 11
40.935240683
 21
-8.2837500956
 31
0.0
 11
40.8542398628
 21
-8.3371694742
 31
0.0
 11
40.7587581302
 21
-8.3561241748
 31
0.0
  0
SPLINE
  5
2C2
100
AcDbEntity
  8
RACCORDO
100
AcDbSpline
 62
253
  6
CONTINUOUS
 70
0
 71
3
 72
11
 73
7
 74
5
 42
0.0000001
 43
0.0000001
 44
0.0000000001
 12
-0.1010171715
 22
-0.2291558723
 32
0.0
 13
-0.2504333298
 23
-0.0001733233
 33
0.0
 40
0.0
 40
0.0
 40
0.0
 40
0.0
 40
0.0823072754
 40
0.3001894412
 40
0.6220029553
 40
1.0
 40
1.0
 40
1.0
 40
1.0
 10
40.9979123477
 20
-7.4010799503
 30
0.0
 10
40.9951408649
 20
-7.4073670155
 30
0.0
 10
40.9615712327
 20
-7.4012480135
 30
0.0
 10
40.9171730046
 20
-7.4113196487
 30
0.0
 10
40.8368787205
 20
-7.4094623917
 30
0.0
 10
40.7795047772
 20
-7.4109785788
 30
0.0
 10
40.7479504243
 20
-7.4110004174
 30
0.0
 11
40.9979123477
 21
-7.4010799503
 31
0.0
 11
40.9776451441
 21
-7.4048369709
 31
0.0
 11
40.9231739402
 21
-7.4080344433
 31
0.0
 11
40.8426100896
 21
-7.4101962291
 31
0.0
 11
40.7479504243
 21
-7.4110004174
 31
0.0
  0
SPLINE
  5
2C3
100
AcDbEntity
  8
RACCORDO
100
AcDbSpline
 62
253
  6
CONTINUOUS
 70
0
 71
3
 72
13
 73
9
 74
7
 42
0.0000001
 43
0.0000001
 44
0.0000000001
 12
0.0699882761
 22
0.9426474571
 32
0.0
 13
0.0004959778
 23
0.9452419485
 33
0.0
 40
0.0
 40
0.0
 40
0.0
 40
0.0
 40
0.0677746619
 40
0.1851024079
 40
0.3460109671
 40
0.5423277437
 40
0.7640908415
 40
1.0
 40
1.0
 40
1.0
 40
1.0
 10
-8.1737270191
 20
-8.3561241748
 30
0.0
 10
-8.1721458751
 20
-8.3348283039
 30
0.0
 10
-8.1703538897
 20
-8.2765076093
 30
0.0
 10
-8.1678534186
 20
-8.1675299376
 30
0.0
 10
-8.1658996107
 20
-8.0180114272
 30
0.0
 10
-8.1642771219
 20
-7.8355930621
 30
0.0
 10
-8.1632433888
 20
-7.6295349416
 30
0.0
 10
-8.1629583151
 20
-7.4853315374
 30
0.0
 10
-8.1629193132
 20
-7.4110011265
 30
0.0
 11
-8.1737270191
 21
-8.3561241748
 31
0.0
 11
-8.1708945247
 21
-8.292123361
 31
0.0
 11
-8.168322197
 21
-8.1812500742
 31
0.0
 11
-8.1661406932
 21
-8.0291681785
 31
0.0
 11
-8.1644610438
 21
-7.8436089023
 31
0.0
 11
-8.1633686666
 21
-7.6339919371
 31
0.0
 11
-8.1629193132
 21
-7.4110011265
 31
0.0
  0
SPLINE
  5
2C4
100
AcDbEntity
  8
RACCORDO
100
AcDbSpline
 62
253
  6
CONTINUOUS
 70
0
 71
3
 72
13
 73
9
 74
7
 42
0.0000001
 43
0.0000001
 44
0.0000000001
 12
0.0004959778
 22
-0.9452419485
 32
0.0
 13
0.0699882762
 23
-0.9426474571
 33
0.0
 40
0.0
 40
0.0
 40
0.0
 40
0.0
 40
0.2359091585
 40
0.4576722563
 40
0.6539890329
 40
0.8148975921
 40
0.9322253381
 40
1.0
 40
1.0
 40
1.0
 40
1.0
 10
40.7479504243
 20
-7.4110011265
 30
0.0
 10
40.7479894262
 20
-7.4853315374
 30
0.0
 10
40.7482744999
 20
-7.6295349416
 30
0.0
 10
40.749308233
 20
-7.8355930621
 30
0.0
 10
40.7509307218
 20
-8.0180114272
 30
0.0
 10
40.7528845297
 20
-8.1675299376
 30
0.0
 10
40.7553850008
 20
-8.2765076093
 30
0.0
 10
40.7571769863
 20
-8.3348283039
 30
0.0
 10
40.7587581302
 20
-8.3561241748
 30
0.0
 11
40.7479504243
 21
-7.4110011265
 31
0.0
 11
40.7483997777
 21
-7.6339919371
 31
0.0
 11
40.7494921549
 21
-7.8436089023
 31
0.0
 11
40.7511718043
 21
-8.0291681785
 31
0.0
 11
40.7533533082
 21
-8.1812500742
 31
0.0
 11
40.7559256358
 21
-8.292123361
 31
0.0
 11
40.7587581302
 21
-8.3561241748
 31
0.0
  0
SPLINE
  5
2C5
100
AcDbEntity
  8
ASSI
100
AcDbSpline
 62
253
  6
CONTINUOUS
 70
0
 71
3
 72
13
 73
9
 74
7
 42
0.0000001
 43
0.0000001
 44
0.0000000001
 12
0.0697988841
 22
0.7055568887
 32
0.0
 13
0.0004945741
 23
0.70900082
 33
0.0
 40
0.0
 40
0.0
 40
0.0
 40
0.0
 40
0.0674181962
 40
0.1847576221
 40
0.3459157559
 40
0.5427764484
 40
0.7650453531
 40
1.0
 40
1.0
 40
1.0
 40
1.0
 10
-8.4236889429
 20
-8.1099222366
 30
0.0
 10
-8.4221203712
 20
-8.0940664457
 30
0.0
 10
-8.4203192607
 20
-8.0504050086
 30
0.0
 10
-8.4178214253
 20
-7.9687113131
 30
0.0
 10
-8.4158608138
 20
-7.8563737234
 30
0.0
 10
-8.4142362468
 20
-7.7192450916
 30
0.0
 10
-8.4132040922
 20
-7.5646645695
 30
0.0
 10
-8.4129199711
 20
-7.4566076295
 30
0.0
 10
-8.412881237
 20
-7.4010799503
 30
0.0
 11
-8.4236889429
 21
-8.1099222366
 31
0.0
 11
-8.4208680987
 21
-8.0622059758
 31
0.0
 11
-8.4182909213
 21
-7.9790521339
 31
0.0
 11
-8.4161041819
 21
-7.864811784
 31
0.0
 11
-8.4144203302
 21
-7.7252475151
 31
0.0
 11
-8.4133274731
 21
-7.5676624305
 31
0.0
 11
-8.412881237
 21
-7.4010799503
 31
0.0
  0
SPLINE
  5
2C6
100
AcDbEntity
  8
ASSI
100
AcDbSpline
 62
253
  6
CONTINUOUS
 70
0
 71
3
 72
10
 73
6
 74
4
 42
0.0000001
 43
0.0000001
 44
0.0000000001
 12
0.0113038293
 22
16.305676414
 32
0.0
 13
0.0003688186
 23
16.305680328
 33
0.0
 40
0.0
 40
0.0
 40
0.0
 40
0.0
 40
0.3332438196
 40
0.6665834492
 40
1.0
 40
1.0
 40
1.0
 40
1.0
 10
-8.412881237
 20
-7.4010799503
 30
0.0
 10
-8.4116255932
 20
-5.5898246539
 30
0.0
 10
-8.4095193962
 20
-1.9667930175
 30
0.0
 10
-8.4075748351
 20
3.4684334527
 30
0.0
 10
-8.4070880563
 20
7.0924045019
 30
0.0
 10
-8.4070470662
 20
8.9045990665
 30
0.0
 11
-8.412881237
 21
-7.4010799503
 31
0.0
 11
-8.4097221369
 21
-1.9673136737
 31
0.0
 11
-8.4077773803
 21
3.4680154205
 31
0.0
 11
-8.4070470662
 21
8.9045990665
 31
0.0
  0
SPLINE
  5
2C7
100
AcDbEntity
  8
ASSI
100
AcDbSpline
 62
253
  6
CONTINUOUS
 70
0
 71
3
 72
10
 73
6
 74
4
 42
0.0000001
 43
0.0000001
 44
0.0000000001
 12
0.0003688186
 22
-16.3056803279
 32
0.0
 13
0.0113038293
 23
-16.3056764139
 33
0.0
 40
0.0
 40
0.0
 40
0.0
 40
0.0
 40
0.3334165508
 40
0.6667561804
 40
1.0
 40
1.0
 40
1.0
 40
1.0
 10
40.9920781773
 20
8.9045990665
 30
0.0
 10
40.9921191673
 20
7.0924045019
 30
0.0
 10
40.9926059462
 20
3.4684334527
 30
0.0
 10
40.9945505073
 20
-1.9667930176
 30
0.0
 10
40.9966567043
 20
-5.5898246539
 30
0.0
 10
40.9979123481
 20
-7.4010799503
 30
0.0
 11
40.9920781773
 21
8.9045990665
 31
0.0
 11
40.9928084914
 21
3.4680154204
 31
0.0
 11
40.994753248
 21
-1.9673136738
 31
0.0
 11
40.9979123481
 21
-7.4010799503
 31
0.0
  0
SPLINE
  5
2C8
100
AcDbEntity
  8
ASSI
100
AcDbSpline
 62
253
  6
CONTINUOUS
 70
0
 71
3
 72
13
 73
9
 74
7
 42
0.0000001
 43
0.0000001
 44
0.0000000001
 12
0.0004945741
 22
-0.70900082
 32
0.0
 13
0.0697988838
 23
-0.7055568887
 33
0.0
 40
0.0
 40
0.0
 40
0.0
 40
0.0
 40
0.2349546469
 40
0.4572235516
 40
0.6540842441
 40
0.8152423778
 40
0.9325818039
 40
1.0
 40
1.0
 40
1.0
 40
1.0
 10
40.9979123481
 20
-7.4010799503
 30
0.0
 10
40.9979510822
 20
-7.4566076295
 30
0.0
 10
40.9982352033
 20
-7.5646645695
 30
0.0
 10
40.9992673579
 20
-7.7192450916
 30
0.0
 10
41.0008919249
 20
-7.8563737234
 30
0.0
 10
41.0028525364
 20
-7.9687113132
 30
0.0
 10
41.0053503718
 20
-8.0504050086
 30
0.0
 10
41.0071514824
 20
-8.0940664457
 30
0.0
 10
41.008720054
 20
-8.1099222366
 30
0.0
 11
40.9979123481
 21
-7.4010799503
 31
0.0
 11
40.9983585842
 21
-7.5676624305
 31
0.0
 11
40.9994514413
 21
-7.7252475151
 31
0.0
 11
41.001135293
 21
-7.864811784
 31
0.0
 11
41.0033220324
 21
-7.9790521338
 31
0.0
 11
41.0058992098
 21
-8.0622059759
 31
0.0
 11
41.008720054
 21
-8.1099222366
 31
0.0
  0
SPLINE
  5
2C9
100
AcDbEntity
  8
ASSI
100
AcDbSpline
 62
253
  6
CONTINUOUS
 70
0
 71
3
 72
11
 73
7
 74
5
 42
0.0000001
 43
0.0000001
 44
0.0000000001
 12
0.0011902469
 22
-0.3868382165
 32
0.0
 13
0.3868383243
 23
-0.0011547015
 33
0.0
 40
0.0
 40
0.0
 40
0.0
 40
0.0
 40
0.2481372423
 40
0.4975164136
 40
0.7483480436
 40
1.0
 40
1.0
 40
1.0
 40
1.0
 10
-8.4236889429
 20
-8.1099222366
 30
0.0
 10
-8.4235904947
 20
-8.1419185593
 30
0.0
 10
-8.4103468215
 20
-8.2067386559
 30
0.0
 10
-8.3545490531
 20
-8.2884347227
 30
0.0
 10
-8.2716183991
 20
-8.3431169839
 30
0.0
 10
-8.2061765595
 20
-8.3560273143
 30
0.0
 10
-8.1737270191
 20
-8.3561241753
 30
0.0
 11
-8.4236889429
 21
-8.1099222366
 31
0.0
 11
-8.4044466704
 21
-8.2039632075
 31
0.0
 11
-8.3502140086
 21
-8.2837457272
 31
0.0
 11
-8.2692126089
 21
-8.3371678936
 31
0.0
 11
-8.1737270191
 21
-8.3561241753
 31
0.0
  0
SPLINE
  5
2CA
100
AcDbEntity
  8
ASSI
100
AcDbSpline
 62
253
  6
CONTINUOUS
 70
0
 71
3
 72
11
 73
7
 74
5
 42
0.0000001
 43
0.0000001
 44
0.0000000001
 12
0.1007369386
 22
-0.2292793414
 32
0.0
 13
0.2504334585
 23
-0.0001733463
 33
0.0
 40
0.0
 40
0.0
 40
0.0
 40
0.0
 40
0.0822915138
 40
0.3001698803
 40
0.6219901227
 40
1.0
 40
1.0
 40
1.0
 40
1.0
 10
-8.412881237
 20
-7.4010799503
 30
0.0
 10
-8.4101179719
 20
-7.4073691984
 30
0.0
 10
-8.3765337186
 20
-7.401245224
 30
0.0
 10
-8.3321514294
 20
-7.4113221626
 30
0.0
 10
-8.2518481969
 20
-7.4094622543
 30
0.0
 10
-8.1944747535
 20
-7.4109792843
 30
0.0
 10
-8.1629193132
 20
-7.4110011265
 30
0.0
 11
-8.412881237
 21
-7.4010799503
 31
0.0
 11
-8.3926180782
 21
-7.4048371926
 31
0.0
 11
-8.3381478132
 21
-7.4080348999
 31
0.0
 11
-8.2575822403
 21
-7.4101968647
 31
0.0
 11
-8.1629193132
 21
-7.4110011265
 31
0.0
  0
SPLINE
  5
2CB
100
AcDbEntity
  8
ASSI
100
AcDbSpline
 62
253
  6
CONTINUOUS
 70
0
 71
3
 72
11
 73
7
 74
5
 42
0.0000001
 43
0.0000001
 44
0.0000000001
 12
-0.0011902476
 22
-0.3868382125
 32
0.0
 13
-0.3868383202
 23
-0.0011547052
 33
0.0
 40
0.0
 40
0.0
 40
0.0
 40
0.0
 40
0.2481496306
 40
0.4975322026
 40
0.7483586169
 40
1.0
 40
1.0
 40
1.0
 40
1.0
 10
41.008720054
 20
-8.1099222366
 30
0.0
 10
41.0086216008
 20
-8.1419201564
 30
0.0
 10
40.9953768103
 20
-8.2067423866
 30
0.0
 10
40.9395763626
 20
-8.2884383785
 30
0.0
 10
40.8566460272
 20
-8.3431179568
 30
0.0
 10
40.7912063068
 20
-8.3560273176
 30
0.0
 10
40.7587581302
 20
-8.3561241748
 30
0.0
 11
41.008720054
 21
-8.1099222366
 31
0.0
 11
40.9894758783
 21
-8.2039677086
 31
0.0
 11
40.935240683
 21
-8.2837500956
 31
0.0
 11
40.8542398628
 21
-8.3371694742
 31
0.0
 11
40.7587581302
 21
-8.3561241748
 31
0.0
  0
SPLINE
  5
2CC
100
AcDbEntity
  8
ASSI
100
AcDbSpline
 62
253
  6
CONTINUOUS
 70
0
 71
3
 72
11
 73
7
 74
5
 42
0.0000001
 43
0.0000001
 44
0.0000000001
 12
-0.1010171715
 22
-0.2291558723
 32
0.0
 13
-0.2504333298
 23
-0.0001733233
 33
0.0
 40
0.0
 40
0.0
 40
0.0
 40
0.0
 40
0.0823072754
 40
0.3001894412
 40
0.6220029553
 40
1.0
 40
1.0
 40
1.0
 40
1.0
 10
40.9979123477
 20
-7.4010799503
 30
0.0
 10
40.9951408649
 20
-7.4073670155
 30
0.0
 10
40.9615712327
 20
-7.4012480135
 30
0.0
 10
40.9171730046
 20
-7.4113196487
 30
0.0
 10
40.8368787205
 20
-7.4094623917
 30
0.0
 10
40.7795047772
 20
-7.4109785788
 30
0.0
 10
40.7479504243
 20
-7.4110004174
 30
0.0
 11
40.9979123477
 21
-7.4010799503
 31
0.0
 11
40.9776451441
 21
-7.4048369709
 31
0.0
 11
40.9231739402
 21
-7.4080344433
 31
0.0
 11
40.8426100896
 21
-7.4101962291
 31
0.0
 11
40.7479504243
 21
-7.4110004174
 31
0.0
  0
SPLINE
  5
2CD
100
AcDbEntity
  8
ASSI
100
AcDbSpline
 62
253
  6
CONTINUOUS
 70
0
 71
3
 72
13
 73
9
 74
7
 42
0.0000001
 43
0.0000001
 44
0.0000000001
 12
0.0699882761
 22
0.9426474571
 32
0.0
 13
0.0004959778
 23
0.9452419485
 33
0.0
 40
0.0
 40
0.0
 40
0.0
 40
0.0
 40
0.0677746619
 40
0.1851024079
 40
0.3460109671
 40
0.5423277437
 40
0.7640908415
 40
1.0
 40
1.0
 40
1.0
 40
1.0
 10
-8.1737270191
 20
-8.3561241748
 30
0.0
 10
-8.1721458751
 20
-8.3348283039
 30
0.0
 10
-8.1703538897
 20
-8.2765076093
 30
0.0
 10
-8.1678534186
 20
-8.1675299376
 30
0.0
 10
-8.1658996107
 20
-8.0180114272
 30
0.0
 10
-8.1642771219
 20
-7.8355930621
 30
0.0
 10
-8.1632433888
 20
-7.6295349416
 30
0.0
 10
-8.1629583151
 20
-7.4853315374
 30
0.0
 10
-8.1629193132
 20
-7.4110011265
 30
0.0
 11
-8.1737270191
 21
-8.3561241748
 31
0.0
 11
-8.1708945247
 21
-8.292123361
 31
0.0
 11
-8.168322197
 21
-8.1812500742
 31
0.0
 11
-8.1661406932
 21
-8.0291681785
 31
0.0
 11
-8.1644610438
 21
-7.8436089023
 31
0.0
 11
-8.1633686666
 21
-7.6339919371
 31
0.0
 11
-8.1629193132
 21
-7.4110011265
 31
0.0
  0
SPLINE
  5
2CE
100
AcDbEntity
  8
ASSI
100
AcDbSpline
 62
253
  6
CONTINUOUS
 70
0
 71
3
 72
13
 73
9
 74
7
 42
0.0000001
 43
0.0000001
 44
0.0000000001
 12
0.0004959778
 22
-0.9452419485
 32
0.0
 13
0.0699882762
 23
-0.9426474571
 33
0.0
 40
0.0
 40
0.0
 40
0.0
 40
0.0
 40
0.2359091585
 40
0.4576722563
 40
0.6539890329
 40
0.8148975921
 40
0.9322253381
 40
1.0
 40
1.0
 40
1.0
 40
1.0
 10
40.7479504243
 20
-7.4110011265
 30
0.0
 10
40.7479894262
 20
-7.4853315374
 30
0.0
 10
40.7482744999
 20
-7.6295349416
 30
0.0
 10
40.749308233
 20
-7.8355930621
 30
0.0
 10
40.7509307218
 20
-8.0180114272
 30
0.0
 10
40.7528845297
 20
-8.1675299376
 30
0.0
 10
40.7553850008
 20
-8.2765076093
 30
0.0
 10
40.7571769863
 20
-8.3348283039
 30
0.0
 10
40.7587581302
 20
-8.3561241748
 30
0.0
 11
40.7479504243
 21
-7.4110011265
 31
0.0
 11
40.7483997777
 21
-7.6339919371
 31
0.0
 11
40.7494921549
 21
-7.8436089023
 31
0.0
 11
40.7511718043
 21
-8.0291681785
 31
0.0
 11
40.7533533082
 21
-8.1812500742
 31
0.0
 11
40.7559256358
 21
-8.292123361
 31
0.0
 11
40.7587581302
 21
-8.3561241748
 31
0.0
  0
SPLINE
  5
2CF
100
AcDbEntity
  8
ASSI
100
AcDbSpline
 62
7
  6
CONTINUOUS
 70
0
 71
3
 72
23
 73
19
 74
17
 42
0.0000001
 43
0.0000001
 44
0.0000000001
 12
7.5210108386
 22
0.0
 32
0.0
 13
-7.5210108386
 23
-0.0
 33
0.0
 40
0.0
 40
0.0
 40
0.0
 40
0.0
 40
0.0624210691
 40
0.1250668291
 40
0.1877085537
 40
0.2502426162
 40
0.3126580811
 40
0.375033084
 40
0.4374882969
 40
0.4999874489
 40
0.5624840907
 40
0.6249329898
 40
0.6873043998
 40
0.7497224853
 40
0.8122618028
 40
0.8749063057
 40
0.9375498451
 40
1.0
 40
1.0
 40
1.0
 40
1.0
 10
16.2925155556
 20
7.2475118325
 30
0.0
 10
16.4490054014
 20
7.2475118325
 30
0.0
 10
16.7634022117
 20
7.2168335751
 30
0.0
 10
17.2167281494
 20
7.0802274031
 30
0.0
 10
17.6352456099
 20
6.8578483489
 30
0.0
 10
18.0019153133
 20
6.5585557151
 30
0.0
 10
18.3027707995
 20
6.1940211037
 30
0.0
 10
18.5265642275
 20
5.7779248047
 30
0.0
 10
18.6646444706
 20
5.3258483773
 30
0.0
 10
18.7113547221
 20
4.8551491537
 30
0.0
 10
18.6647046233
 20
4.384459991
 30
0.0
 10
18.5266898287
 20
3.9323963863
 30
0.0
 10
18.3029536301
 20
3.5162897179
 30
0.0
 10
18.002124935
 20
3.1517177267
 30
0.0
 10
17.6354528728
 20
2.8523840777
 30
0.0
 10
17.2169324786
 20
2.6299786432
 30
0.0
 10
16.7635435263
 20
2.4933262164
 30
0.0
 10
16.4490783195
 20
2.4626306909
 30
0.0
 10
16.2925155556
 20
2.4626306909
 30
0.0
 11
16.2925155556
 21
7.2475118325
 31
0.0
 11
16.7597599889
 21
7.2018578506
 31
0.0
 11
17.2108872104
 21
7.0659334307
 31
0.0
 11
17.6269071425
 21
6.8448225201
 31
0.0
 11
17.9912385063
 21
6.547395286
 31
0.0
 11
18.2900090075
 21
6.1853203487
 31
0.0
 11
18.5121909429
 21
5.7721476906
 31
0.0
 11
18.6493811076
 21
5.3229020046
 31
0.0
 11
18.695790859
 21
4.8551418845
 31
0.0
 11
18.6494401012
 21
4.3873948871
 31
0.0
 11
18.5123190376
 21
3.9381777533
 31
0.0
 11
18.2901981528
 21
3.5250029508
 31
0.0
 11
17.9914495747
 21
3.1628843729
 31
0.0
 11
17.6271072571
 21
2.8654080605
 31
0.0
 11
17.2110796677
 21
2.6442670344
 31
0.0
 11
16.7599761552
 21
2.508321821
 31
0.0
 11
16.2925155556
 21
2.4626306909
 31
0.0
  0
SPLINE
  5
2D0
100
AcDbEntity
  8
ASSI
100
AcDbSpline
 62
7
  6
CONTINUOUS
 70
0
 71
3
 72
23
 73
19
 74
17
 42
0.0000001
 43
0.0000001
 44
0.0000000001
 12
-7.5210108384
 22
0.0
 32
0.0
 13
7.5210108384
 23
0.0
 33
0.0
 40
0.0
 40
0.0
 40
0.0
 40
0.0
 40
0.0624209979
 40
0.1250661527
 40
0.1877064011
 40
0.2502381184
 40
0.3126507247
 40
0.3750229581
 40
0.4374761557
 40
0.4999745699
 40
0.5624719486
 40
0.6249228621
 40
0.6872970413
 40
0.7497179858
 40
0.8122596493
 40
0.8749056289
 40
0.9375497737
 40
1.0
 40
1.0
 40
1.0
 40
1.0
 10
16.2925155556
 20
2.4626306909
 30
0.0
 10
16.1360258884
 20
2.4626306909
 30
0.0
 10
15.8216309657
 20
2.4933048517
 30
0.0
 10
15.368306089
 20
2.6298939236
 30
0.0
 10
14.949788308
 20
2.852248077
 30
0.0
 10
14.5831171708
 20
3.1515125083
 30
0.0
 10
14.2822600409
 20
3.5160201928
 30
0.0
 10
14.0584656664
 20
3.9320946494
 30
0.0
 10
13.9203856103
 20
4.3841569866
 30
0.0
 10
13.8736763887
 20
4.8548513558
 30
0.0
 10
13.9203275175
 20
5.3255453664
 30
0.0
 10
14.0583424998
 20
5.7776230551
 30
0.0
 10
14.2820777527
 20
6.1937515614
 30
0.0
 10
14.5829048038
 20
6.5583504787
 30
0.0
 10
14.9495754315
 20
6.8577123336
 30
0.0
 10
15.3680955049
 20
7.0801426733
 30
0.0
 10
15.821485517
 20
7.2168122073
 30
0.0
 10
16.1359526127
 20
7.2475118325
 30
0.0
 10
16.2925155556
 20
7.2475118325
 30
0.0
 11
16.2925155556
 21
2.4626306909
 31
0.0
 11
15.8252711222
 21
2.5082791622
 31
0.0
 11
15.3741439008
 21
2.6441878041
 31
0.0
 11
14.9581239686
 21
2.8652750588
 31
0.0
 11
14.5937926048
 21
3.1626743999
 31
0.0
 11
14.2950221036
 21
3.5247214629
 31
0.0
 11
14.0728401682
 21
3.9378704705
 31
0.0
 11
13.9356500035
 21
4.3871003087
 31
0.0
 11
13.8892402521
 21
4.8548548526
 31
0.0
 11
13.9355910099
 21
5.3226074191
 31
0.0
 11
14.0727120735
 21
5.7718403934
 31
0.0
 11
14.2948329583
 21
6.1850388417
 31
0.0
 11
14.5935815364
 21
6.547185295
 31
0.0
 11
14.957923854
 21
6.8446895049
 31
0.0
 11
15.3739514434
 21
7.0658541915
 31
0.0
 11
15.8250549559
 21
7.2018151867
 31
0.0
 11
16.2925155556
 21
7.2475118325
 31
0.0
  0
SPLINE
  5
2D1
100
AcDbEntity
  8
RACCORDO
100
AcDbSpline
 62
253
  6
CONTINUOUS
 70
0
 71
3
 72
12
 73
8
 74
6
 42
0.0000001
 43
0.0000001
 44
0.0000000001
 12
-0.0043623064
 22
0.2499925102
 32
0.0
 13
0.2499924871
 23
0.0043636351
 33
0.0
 40
0.0
 40
0.0
 40
0.0
 40
0.0
 40
0.3098605754
 40
0.5892143267
 40
0.8103234085
 40
0.9518389381
 40
1.0
 40
1.0
 40
1.0
 40
1.0
 10
-24.9346668846
 20
8.9045990664
 30
0.0
 10
-24.9351174535
 20
8.9304200074
 30
0.0
 10
-24.9362269294
 20
8.9799894832
 30
0.0
 10
-24.9353631392
 20
9.0457206752
 30
0.0
 10
-24.9392000121
 20
9.103825385
 30
0.0
 10
-24.9316579766
 20
9.1293187085
 30
0.0
 10
-24.9386801858
 20
9.1544909378
 30
0.0
 10
-24.9346668846
 20
9.1545609902
 30
0.0
 11
-24.9346668846
 21
8.9045990664
 31
0.0
 11
-24.9358038349
 21
8.9820653392
 31
0.0
 11
-24.9363992263
 21
9.0519097786
 31
0.0
 11
-24.9363946331
 21
9.1071938077
 31
0.0
 11
-24.9357913942
 21
9.1425718733
 31
0.0
 11
-24.9346668846
 21
9.1545609902
 31
0.0
  0
SPLINE
  5
2D2
100
AcDbEntity
  8
RACCORDO
100
AcDbSpline
 62
253
  6
CONTINUOUS
 70
0
 71
3
 72
11
 73
7
 74
5
 42
0.0000001
 43
0.0000001
 44
0.0000000001
 12
-0.043284155
 22
-0.2455514343
 32
0.0
 13
0.2455491794
 23
-0.0432969454
 33
0.0
 40
0.0
 40
0.0
 40
0.0
 40
0.0
 40
0.3827689144
 40
0.7070452522
 40
0.9236831912
 40
1.0
 40
1.0
 40
1.0
 40
1.0
 10
-23.9812544042
 20
-8.1099222366
 30
0.0
 10
-23.9867770139
 20
-8.1412520552
 30
0.0
 10
-23.9948808375
 20
-8.1975390094
 30
0.0
 10
-24.014159889
 20
-8.2789718274
 30
0.0
 10
-24.0086779219
 20
-8.3184292748
 30
0.0
 10
-24.026549857
 20
-8.3550227466
 30
0.0
 10
-24.0203033471
 20
-8.3561241748
 30
0.0
 11
-23.9812544042
 21
-8.1099222366
 31
0.0
 11
-23.9975012495
 21
-8.2039677086
 31
0.0
 11
-24.0106223566
 21
-8.2837500956
 31
0.0
 11
-24.0186277583
 21
-8.3371694742
 31
0.0
 11
-24.0203033471
 21
-8.3561241748
 31
0.0
  0
SPLINE
  5
2D3
100
AcDbEntity
  8
ASSI
100
AcDbSpline
 62
253
  6
CONTINUOUS
 70
0
 71
3
 72
12
 73
8
 74
6
 42
0.0000001
 43
0.0000001
 44
0.0000000001
 12
-0.0043623064
 22
0.2499925102
 32
0.0
 13
0.2499924871
 23
0.0043636351
 33
0.0
 40
0.0
 40
0.0
 40
0.0
 40
0.0
 40
0.3098605754
 40
0.5892143267
 40
0.8103234085
 40
0.9518389381
 40
1.0
 40
1.0
 40
1.0
 40
1.0
 10
-24.9346668846
 20
8.9045990664
 30
0.0
 10
-24.9351174535
 20
8.9304200074
 30
0.0
 10
-24.9362269294
 20
8.9799894832
 30
0.0
 10
-24.9353631392
 20
9.0457206752
 30
0.0
 10
-24.9392000121
 20
9.103825385
 30
0.0
 10
-24.9316579766
 20
9.1293187085
 30
0.0
 10
-24.9386801858
 20
9.1544909378
 30
0.0
 10
-24.9346668846
 20
9.1545609902
 30
0.0
 11
-24.9346668846
 21
8.9045990664
 31
0.0
 11
-24.9358038349
 21
8.9820653392
 31
0.0
 11
-24.9363992263
 21
9.0519097786
 31
0.0
 11
-24.9363946331
 21
9.1071938077
 31
0.0
 11
-24.9357913942
 21
9.1425718733
 31
0.0
 11
-24.9346668846
 21
9.1545609902
 31
0.0
  0
SPLINE
  5
2D4
100
AcDbEntity
  8
ASSI
100
AcDbSpline
 62
253
  6
CONTINUOUS
 70
0
 71
3
 72
11
 73
7
 74
5
 42
0.0000001
 43
0.0000001
 44
0.0000000001
 12
-0.043284155
 22
-0.2455514343
 32
0.0
 13
0.2455491794
 23
-0.0432969454
 33
0.0
 40
0.0
 40
0.0
 40
0.0
 40
0.0
 40
0.3827689144
 40
0.7070452522
 40
0.9236831912
 40
1.0
 40
1.0
 40
1.0
 40
1.0
 10
-23.9812544042
 20
-8.1099222366
 30
0.0
 10
-23.9867770139
 20
-8.1412520552
 30
0.0
 10
-23.9948808375
 20
-8.1975390094
 30
0.0
 10
-24.014159889
 20
-8.2789718274
 30
0.0
 10
-24.0086779219
 20
-8.3184292748
 30
0.0
 10
-24.026549857
 20
-8.3550227466
 30
0.0
 10
-24.0203033471
 20
-8.3561241748
 30
0.0
 11
-23.9812544042
 21
-8.1099222366
 31
0.0
 11
-23.9975012495
 21
-8.2039677086
 31
0.0
 11
-24.0106223566
 21
-8.2837500956
 31
0.0
 11
-24.0186277583
 21
-8.3371694742
 31
0.0
 11
-24.0203033471
 21
-8.3561241748
 31
0.0
  0
SPLINE
  5
2D5
100
AcDbEntity
  8
CURVE
100
AcDbSpline
 62
253
  6
CONTINUOUS
 70
0
 71
3
 72
9
 73
5
 74
3
 42
0.0000001
 43
0.0000001
 44
0.0000000001
 12
-0.0195295862
 22
0.6856784743
 32
0.0
 13
-0.0177356585
 23
0.659426195
 33
0.0
 40
0.0
 40
0.0
 40
0.0
 40
0.0
 40
0.8387374669
 40
1.0
 40
1.0
 40
1.0
 40
1.0
 10
-25.0083784144
 20
-2.6450016315
 30
0.0
 10
-25.0138384796
 20
-2.4533002226
 30
0.0
 10
-25.0200592451
 20
-2.2295264822
 30
0.0
 10
-25.0260186371
 20
-2.008967568
 30
0.0
 10
-25.0269720029
 20
-1.9735206551
 30
0.0
 11
-25.0083784144
 21
-2.6450016315
 31
0.0
 11
-25.0240897866
 21
-2.0801869499
 31
0.0
 11
-25.0269720029
 21
-1.9735206551
 31
0.0
  0
SPLINE
  5
2D6
100
AcDbEntity
  8
CURVE
100
AcDbSpline
 62
253
  6
CONTINUOUS
 70
0
 71
3
 72
19
 73
15
 74
13
 42
0.0000001
 43
0.0000001
 44
0.0000000001
 12
0.1941130957
 22
-6.228128728
 32
0.0
 13
-0.1941144712
 23
6.2281922219
 33
0.0
 40
0.0
 40
0.0
 40
0.0
 40
0.0
 40
0.0791539579
 40
0.1633282698
 40
0.2475025817
 40
0.3316768936
 40
0.4158512056
 40
0.5000255175
 40
0.5841998294
 40
0.6683741413
 40
0.7525484532
 40
0.8367227651
 40
0.920897077
 40
1.0
 40
1.0
 40
1.0
 40
1.0
 10
-24.9743612858
 20
-3.7855361105
 30
0.0
 10
-24.9692396792
 20
-3.9498631236
 30
0.0
 10
-24.9589094871
 20
-4.2749021899
 30
0.0
 10
-24.9446477416
 20
-4.7086746352
 30
0.0
 10
-24.9323626431
 20
-5.0716929066
 30
0.0
 10
-24.9230290734
 20
-5.3414782921
 30
0.0
 10
-24.9171942258
 20
-5.5076325904
 30
0.0
 10
-24.915210107
 20
-5.5637092675
 30
0.0
 10
-24.9171974927
 20
-5.5075400711
 30
0.0
 10
-24.9230351343
 20
-5.3413047014
 30
0.0
 10
-24.9323709103
 20
-5.0714515574
 30
0.0
 10
-24.9446573349
 20
-4.7083874551
 30
0.0
 10
-24.9589168762
 20
-4.2746717764
 30
0.0
 10
-24.9692430863
 20
-3.9497544473
 30
0.0
 10
-24.9743614269
 20
-3.7855317107
 30
0.0
 11
-24.9743612858
 21
-3.7855361105
 31
0.0
 11
-24.9594428084
 21
-4.2558006212
 31
0.0
 11
-24.9450253971
 21
-4.6954158294
 31
0.0
 11
-24.9328545645
 21
-5.0561540923
 31
0.0
 11
-24.9236121937
 21
-5.3242064442
 31
0.0
 11
-24.9178360139
 21
-5.4892863202
 31
0.0
 11
-24.9158720244
 21
-5.5450016219
 31
0.0
 11
-24.917839202
 21
-5.4891957089
 31
0.0
 11
-24.9236181567
 21
-5.3240350724
 31
0.0
 11
-24.932862685
 21
-5.0559163977
 31
0.0
 11
-24.9450348947
 21
-4.69513073
 31
0.0
 11
-24.9594529001
 21
-4.2554879657
 31
0.0
 11
-24.9743614269
 21
-3.7855317107
 31
0.0
  0
ELLIPSE
  5
2D7
100
AcDbEntity
  8
RACCORDO
100
AcDbEllipse
 62
7
  6
CONTINUOUS
 10
-8.505738938
 20
8.2974423527
 30
0.0
 11
-0.0
 21
0.3
 31
0.0
 40
0.0174550649
 41
-3.1241393611
 42
-1.5707963268
  0
ELLIPSE
  5
2D8
100
AcDbEntity
  8
RACCORDO
100
AcDbEllipse
 62
7
  6
CONTINUOUS
 10
41.0907700491
 20
8.2974423527
 30
0.0
 11
0.0
 21
0.3
 31
0.0
 40
0.0174550649
 41
-4.7123889804
 42
-3.1590459461
  0
ELLIPSE
  5
2D9
100
AcDbEntity
  8
RACCORDO
100
AcDbEllipse
 62
7
  6
CONTINUOUS
 10
-8.2504643365
 20
8.9979782606
 30
0.0
 11
-0.1768305473
 21
0.1768305473
 31
0.0
 40
0.9996954599
 41
-0.7852458702
 42
0.7852458701
  0
ELLIPSE
  5
2DA
100
AcDbEntity
  8
RACCORDO
100
AcDbEllipse
 62
7
  6
CONTINUOUS
 10
40.8354954476
 20
8.9979782606
 30
0.0
 11
0.1768305473
 21
0.1768305473
 31
0.0
 40
0.9996954599
 41
-0.7852458702
 42
0.7852458701
  0
ELLIPSE
  5
2DB
100
AcDbEntity
  8
RACCORDO
100
AcDbEllipse
 62
7
  6
CONTINUOUS
 10
40.8289844656
 20
-8.9882461217
 30
0.0
 11
0.2183310446
 21
0.1221043275
 31
0.0
 40
0.9980297029
 41
-2.0815635429
 42
-0.5109195152
  0
ELLIPSE
  5
2DC
100
AcDbEntity
  8
RACCORDO
100
AcDbEllipse
 62
7
  6
CONTINUOUS
 10
-8.2439533545
 20
-8.9882461217
 30
0.0
 11
0.2183310446
 21
-0.1221043275
 31
0.0
 40
0.9980297029
 41
-2.6306731384
 42
-1.0600291107
  0
ELLIPSE
  5
2DD
100
AcDbEntity
  8
RACCORDO
100
AcDbEllipse
 62
7
  6
CONTINUOUS
 10
-8.231263765
 20
-8.6911449785
 30
0.0
 11
0.0250113895
 21
0.2526592035
 31
0.0
 40
0.9846622838
 41
-4.6121910857
 42
-3.0444253421
  0
ELLIPSE
  5
2DE
100
AcDbEntity
  8
RACCORDO
100
AcDbEllipse
 62
7
  6
CONTINUOUS
 10
-8.231263765
 20
-8.9819018102
 30
0.0
 11
0.2236527791
 21
0.1118178731
 31
0.0
 40
0.9998096356
 41
2.6780516535
 42
4.2486956813
  0
ELLIPSE
  5
2DF
100
AcDbEntity
  8
RACCORDO
100
AcDbEllipse
 62
7
  6
CONTINUOUS
 10
40.8162948762
 20
-8.9819018102
 30
0.0
 11
0.2236527791
 21
-0.1118178731
 31
0.0
 40
0.9998096356
 41
-1.1071030277
 42
0.4635410001
  0
ELLIPSE
  5
2E0
100
AcDbEntity
  8
RACCORDO
100
AcDbEllipse
 62
7
  6
CONTINUOUS
 10
40.8162948762
 20
-8.6911449785
 30
0.0
 11
-0.0250113895
 21
0.2526592035
 31
0.0
 40
0.9846622838
 41
-3.2387599651
 42
-1.6709942215
  0
ELLIPSE
  5
2E1
100
AcDbEntity
  8
ASSI
100
AcDbEllipse
 62
7
  6
CONTINUOUS
 10
-8.505738938
 20
8.2974423527
 30
0.0
 11
-0.0
 21
0.3
 31
0.0
 40
0.0174550649
 41
-3.1241393611
 42
-1.5707963268
  0
ELLIPSE
  5
2E2
100
AcDbEntity
  8
ASSI
100
AcDbEllipse
 62
7
  6
CONTINUOUS
 10
41.0907700491
 20
8.2974423527
 30
0.0
 11
0.0
 21
0.3
 31
0.0
 40
0.0174550649
 41
-4.7123889804
 42
-3.1590459461
  0
ELLIPSE
  5
2E3
100
AcDbEntity
  8
ASSI
100
AcDbEllipse
 62
7
  6
CONTINUOUS
 10
-8.2504643365
 20
8.9979782606
 30
0.0
 11
-0.1768305473
 21
0.1768305473
 31
0.0
 40
0.9996954599
 41
-0.7852458702
 42
0.7852458701
  0
ELLIPSE
  5
2E4
100
AcDbEntity
  8
ASSI
100
AcDbEllipse
 62
7
  6
CONTINUOUS
 10
40.8354954476
 20
8.9979782606
 30
0.0
 11
0.1768305473
 21
0.1768305473
 31
0.0
 40
0.9996954599
 41
-0.7852458702
 42
0.7852458701
  0
ELLIPSE
  5
2E5
100
AcDbEntity
  8
ASSI
100
AcDbEllipse
 62
7
  6
CONTINUOUS
 10
40.8289844656
 20
-8.9882461217
 30
0.0
 11
0.2183310446
 21
0.1221043275
 31
0.0
 40
0.9980297029
 41
-2.0815635429
 42
-0.5109195152
  0
ELLIPSE
  5
2E6
100
AcDbEntity
  8
ASSI
100
AcDbEllipse
 62
7
  6
CONTINUOUS
 10
-8.2439533545
 20
-8.9882461217
 30
0.0
 11
0.2183310446
 21
-0.1221043275
 31
0.0
 40
0.9980297029
 41
-2.6306731384
 42
-1.0600291107
  0
ELLIPSE
  5
2E7
100
AcDbEntity
  8
ASSI
100
AcDbEllipse
 62
7
  6
CONTINUOUS
 10
-8.231263765
 20
-8.6911449785
 30
0.0
 11
0.0250113895
 21
0.2526592035
 31
0.0
 40
0.9846622838
 41
-4.6121910857
 42
-3.0444253421
  0
ELLIPSE
  5
2E8
100
AcDbEntity
  8
ASSI
100
AcDbEllipse
 62
7
  6
CONTINUOUS
 10
-8.231263765
 20
-8.9819018102
 30
0.0
 11
0.2236527791
 21
0.1118178731
 31
0.0
 40
0.9998096356
 41
2.6780516535
 42
4.2486956813
  0
ELLIPSE
  5
2E9
100
AcDbEntity
  8
ASSI
100
AcDbEllipse
 62
7
  6
CONTINUOUS
 10
40.8162948762
 20
-8.9819018102
 30
0.0
 11
0.2236527791
 21
-0.1118178731
 31
0.0
 40
0.9998096356
 41
-1.1071030277
 42
0.4635410001
  0
ELLIPSE
  5
2EA
100
AcDbEntity
  8
ASSI
100
AcDbEllipse
 62
7
  6
CONTINUOUS
 10
40.8162948762
 20
-8.6911449785
 30
0.0
 11
-0.0250113895
 21
0.2526592035
 31
0.0
 40
0.9846622838
 41
-3.2387599651
 42
-1.6709942215
  0
ENDSEC
  0
SECTION
  2
OBJECTS
  0
DICTIONARY
  5
C
100
AcDbDictionary
280
0
281
1
  3
ACAD_GROUP
350
D
  3
ACAD_MLINESTYLE
350
17
  3
ACAD_LAYOUT
350
1A
  3
ACAD_PLOTSETTINGS
350
19
  3
ACAD_PLOTSTYLENAME
350
E
  0
DICTIONARY
  5
D
102
{ACAD_REACTORS
330
C
102
}
100
AcDbDictionary
280
0
281
1
  0
ACDBDICTIONARYWDFLT
  5
E
102
{ACAD_REACTORS
330
C
102
}
100
AcDbDictionary
281
1
  3
Normal
350
F
100
AcDbDictionaryWithDefault
340
F
  0
DICTIONARY
  5
17
102
{ACAD_REACTORS
330
C
102
}
100
AcDbDictionary
280
0
281
1
  3
Standard
350
18
  0
DICTIONARY
  5
19
102
{ACAD_REACTORS
330
C
102
}
100
AcDbDictionary
281
1
  0
DICTIONARY
  5
1A
102
{ACAD_REACTORS
330
C
102
}
100
AcDbDictionary
281
1
  3
Model
350
2EB
  3
Layout1
350
2EC
  0
ACDBPLACEHOLDER
  5
F
102
{ACAD_REACTORS
330
E
102
}
  0
MLINESTYLE
  5
18
102
{ACAD_REACTORS
330
17
102
}
100
AcDbMlineStyle
  2
STANDARD
 70
0
  3

 62
256
 51
90.0
 52
90.0
 71
2
 49
0.5
 62
256
  6
BYLAYER
 49
-0.5
 62
256
  6
BYLAYER
  0
LAYOUT
  5
2EB
102
{ACAD_REACTORS
330
1A
102
}
100
AcDbPlotSettings
  1

  2
none_device
  4
ISO_A4_(297.00_x_210.00_MM)
  6

 40
0.0
 41
0.0
 42
0.0
 43
0.0
 44
297.0
 45
210.0
 46
0.0
 47
0.0
 48
0.0
 49
0.0
140
0.0
141
0.0
142
1.0
143
1.0
 70
1024
 72
1
 73
0
 74
0
  7

 75
0
147
1.0
148
0.0
149
0.0
100
AcDbLayout
  1
Model
 70
0
 71
0
 10
0.0
 20
0.0
 11
297.0
 21
210.0
 12
0.0
 22
0.0
 32
0.0
 14
0.0
 24
0.0
 34
0.0
 15
0.0
 25
0.0
 35
0.0
146
0.0
 13
0.0
 23
0.0
 33
0.0
 16
1.0
 26
0.0
 36
0.0
 17
0.0
 27
1.0
 37
0.0
 76
0
330
211
345
0
346
0
  0
LAYOUT
  5
2EC
102
{ACAD_REACTORS
330
1A
102
}
100
AcDbPlotSettings
  1

  2
none_device
  4
ISO_A4_(297.00_x_210.00_MM)
  6

 40
0.0
 41
0.0
 42
0.0
 43
0.0
 44
297.0
 45
210.0
 46
0.0
 47
0.0
 48
0.0
 49
0.0
140
0.0
141
0.0
142
1.0
143
1.0
 70
0
 72
1
 73
0
 74
0
  7

 75
0
147
1.0
148
0.0
149
0.0
100
AcDbLayout
  1
Layout1
 70
0
 71
1
 10
0.0
 20
0.0
 11
297.0
 21
210.0
 12
0.0
 22
0.0
 32
0.0
 14
0.0
 24
0.0
 34
0.0
 15
0.0
 25
0.0
 35
0.0
146
0.0
 13
0.0
 23
0.0
 33
0.0
 16
1.0
 26
0.0
 36
0.0
 17
0.0
 27
1.0
 37
0.0
 76
0
330
212
345
0
346
0
  0
ENDSEC
  0
EOF
