  0
SECTION
  2
HEADER
  9
$ACADVER
  1
AC1015
  9
$DWGCODEPAGE
  3
ANSI_1252
  9
$EXTMAX
 10
297.0
 20
210.0
 30
0.0
  9
$EXTMIN
 10
0.0
 20
0.0
 30
0.0
  9
$LIMMIN
 10
0.0
 20
0.0
  9
$LIMMAX
 10
297.0
 20
210.0
  9
$VIEWCTR
 10
148.5
 20
105.0
  9
$VIEWSIZE
 40
210.0
  9
$CLAYER
  8
0
  9
$LTSCALE
 40
16.335
  9
$CELTYPE
  6
BYLAYER
  9
$DIMSCALE
 40
1.0
  9
$DIMASZ
 40
3.0
  9
$DIMEXO
 40
1.85625
  9
$DIMDLI
 40
11.286
  9
$DIMEXE
 40
5.346
  9
$DIMCEN
 40
2.673
  9
$DIMLFAC
 40
1.0
  9
$DIMBLK
  1
_FILLED
  9
$DIMTXT
 40
3.0
  9
$DIMTOL
 70
1
  9
$DIMLIM
 70
0
  9
$DIMTFAC
 40
1.0
  9
$DIMTP
 40
0.01
  9
$DIMTM
 40
0.01
  9
$PDMODE
 70
3
  9
$PDSIZE
 40
3.0
  9
$HANDSEED
  5
2EB
  9
$TILEMODE
 70
1
  9
$MEASUREMENT
 70
1
  9
$INSUNITS
 70
4
  0
ENDSEC
  0
SECTION
  2
CLASSES
  0
CLASS
  1
ACDBDICTIONARYWDFLT
  2
AcDbDictionaryWithDefault
  3
AutoCAD 2000
 90
0
280
0
281
0
  0
CLASS
  1
ACDBPLACEHOLDER
  2
AcDbPlaceHolder
  3
AutoCAD 2000
 90
0
280
0
281
0
  0
CLASS
  1
LAYOUT
  2
AcDbLayout
  3
AutoCAD 2000
 90
0
280
0
281
0
  0
ENDSEC
  0
SECTION
  2
TABLES
  0
TABLE
  2
VPORT
  5
8
100
AcDbSymbolTable
 70
2
  0
VPORT
  5
1F4
100
AcDbSymbolTableRecord
100
AcDbViewportTableRecord
  2
*ACTIVE
 70
0
 10
0.0
 20
0.0
 11
1.0
 21
1.0
 12
148.5
 22
105.0
 13
0.0
 23
0.0
 14
1.0
 24
1.0
 15
0.0
 25
0.0
 16
0.0
 26
0.0
 36
1.0
 17
0.0
 27
0.0
 37
0.0
 40
210.0
 41
1.4142857143
 42
50.0
 43
0.0
 44
0.0
 50
0.0
 51
0.0
 71
0
 72
100
 73
1
 74
1
 75
0
 76
0
 77
0
 78
0
  0
ENDTAB
  0
TABLE
  2
LTYPE
  5
5
100
AcDbSymbolTable
 70
6
  0
LTYPE
  5
14
100
AcDbSymbolTableRecord
100
AcDbLinetypeTableRecord
  2
BYBLOCK
 70
0
  3

 72
65
 73
0
 40
0.0
  0
LTYPE
  5
15
100
AcDbSymbolTableRecord
100
AcDbLinetypeTableRecord
  2
BYLAYER
 70
0
  3

 72
65
 73
0
 40
0.0
  0
LTYPE
  5
16
100
AcDbSymbolTableRecord
100
AcDbLinetypeTableRecord
  2
CONTINUOUS
 70
64
  3
Solid line
 72
65
 73
0
 40
0.0
  0
LTYPE
  5
1F5
100
AcDbSymbolTableRecord
100
AcDbLinetypeTableRecord
  2
CENTER
 70
64
  3
____ _ ____ _ ____ _ ____ _ ____ _ ____ _ ____
 72
65
 73
4
 40
0.6
 49
0.375
 74
0
 49
-0.075
 74
0
 49
0.075
 74
0
 49
-0.075
 74
0
  0
LTYPE
  5
1F6
100
AcDbSymbolTableRecord
100
AcDbLinetypeTableRecord
  2
HIDDEN
 70
64
  3
- - - - - - - - - - - - - - - - - - - -
 72
65
 73
2
 40
0.2
 49
0.1
 74
0
 49
-0.1
 74
0
  0
LTYPE
  5
1F7
100
AcDbSymbolTableRecord
100
AcDbLinetypeTableRecord
  2
PHANTOM
 70
64
  3
_____ _ _ _____ _ _ _____ _ _ _____
 72
65
 73
6
 40
0.8
 49
0.45
 74
0
 49
-0.05
 74
0
 49
0.1
 74
0
 49
-0.05
 74
0
 49
0.1
 74
0
 49
-0.05
 74
0
  0
LTYPE
  5
1F8
100
AcDbSymbolTableRecord
100
AcDbLinetypeTableRecord
  2
DOT
 70
64
  3
. . . . . . . . . . . . . . . . . . . .
 72
65
 73
2
 40
0.2
 49
0.1
 74
0
 49
-0.1
 74
0
  0
LTYPE
  5
1F9
100
AcDbSymbolTableRecord
100
AcDbLinetypeTableRecord
  2
DASHED
 70
64
  3
- - - - - - - - - - - - - - - - - - - -
 72
65
 73
2
 40
0.2
 49
0.1
 74
0
 49
-0.1
 74
0
  0
ENDTAB
  0
TABLE
  2
LAYER
  5
2
100
AcDbSymbolTable
 70
36
  0
LAYER
  5
10
100
AcDbSymbolTableRecord
100
AcDbLayerTableRecord
  2
0
 70
0
 62
7
  6
CONTINUOUS
370
-3
390
F
  0
LAYER
  5
1FA
100
AcDbSymbolTableRecord
100
AcDbLayerTableRecord
  2
DEFAULT_1
 70
0
 62
7
  6
CENTER
370
-3
390
F
  0
LAYER
  5
1FB
100
AcDbSymbolTableRecord
100
AcDbLayerTableRecord
  2
DEFAULT_2
 70
0
 62
7
  6
HIDDEN
370
-3
390
F
  0
LAYER
  5
1FC
100
AcDbSymbolTableRecord
100
AcDbLayerTableRecord
  2
DEFAULT_3
 70
0
 62
7
  6
PHANTOM
370
-3
390
F
  0
LAYER
  5
1FD
100
AcDbSymbolTableRecord
100
AcDbLayerTableRecord
  2
ASSI
 70
0
 62
7
  6
CONTINUOUS
370
-3
390
F
  0
LAYER
  5
1FE
100
AcDbSymbolTableRecord
100
AcDbLayerTableRecord
  2
COORDINATE
 70
0
 62
7
  6
CONTINUOUS
370
-3
390
F
  0
LAYER
  5
1FF
100
AcDbSymbolTableRecord
100
AcDbLayerTableRecord
  2
COORD_ORIGINE
 70
0
 62
7
  6
CONTINUOUS
370
-3
390
F
  0
LAYER
  5
200
100
AcDbSymbolTableRecord
100
AcDbLayerTableRecord
  2
COPY_PUBLISH
 70
0
 62
7
  6
CONTINUOUS
370
-3
390
F
  0
LAYER
  5
201
100
AcDbSymbolTableRecord
100
AcDbLayerTableRecord
  2
COSMETIC
 70
0
 62
7
  6
CONTINUOUS
370
-3
390
F
  0
LAYER
  5
202
100
AcDbSymbolTableRecord
100
AcDbLayerTableRecord
  2
CURVE
 70
0
 62
7
  6
CONTINUOUS
370
-3
390
F
  0
LAYER
  5
203
100
AcDbSymbolTableRecord
100
AcDbLayerTableRecord
  2
DRAFT
 70
0
 62
7
  6
CONTINUOUS
370
-3
390
F
  0
LAYER
  5
204
100
AcDbSymbolTableRecord
100
AcDbLayerTableRecord
  2
IGES
 70
0
 62
7
  6
CONTINUOUS
370
-3
390
F
  0
LAYER
  5
205
100
AcDbSymbolTableRecord
100
AcDbLayerTableRecord
  2
IMPORT_IGES
 70
0
 62
7
  6
CONTINUOUS
370
-3
390
F
  0
LAYER
  5
206
100
AcDbSymbolTableRecord
100
AcDbLayerTableRecord
  2
INTF_12
 70
0
 62
7
  6
CONTINUOUS
370
-3
390
F
  0
LAYER
  5
207
100
AcDbSymbolTableRecord
100
AcDbLayerTableRecord
  2
NOTE
 70
0
 62
7
  6
CONTINUOUS
370
-3
390
F
  0
LAYER
  5
208
100
AcDbSymbolTableRecord
100
AcDbLayerTableRecord
  2
PIANI
 70
0
 62
7
  6
CONTINUOUS
370
-3
390
F
  0
LAYER
  5
209
100
AcDbSymbolTableRecord
100
AcDbLayerTableRecord
  2
PIANI_ORIGINE
 70
0
 62
7
  6
CONTINUOUS
370
-3
390
F
  0
LAYER
  5
20A
100
AcDbSymbolTableRecord
100
AcDbLayerTableRecord
  2
RACCORDO
 70
0
 62
7
  6
CONTINUOUS
370
-3
390
F
  0
LAYER
  5
20B
100
AcDbSymbolTableRecord
100
AcDbLayerTableRecord
  2
SMUSSO
 70
0
 62
7
  6
CONTINUOUS
370
-3
390
F
  0
LAYER
  5
20C
100
AcDbSymbolTableRecord
100
AcDbLayerTableRecord
  2
SNAPLINE
 70
0
 62
7
  6
CONTINUOUS
370
-3
390
F
  0
LAYER
  5
20D
100
AcDbSymbolTableRecord
100
AcDbLayerTableRecord
  2
SUPERFICI
 70
0
 62
7
  6
CONTINUOUS
370
-3
390
F
  0
LAYER
  5
20E
100
AcDbSymbolTableRecord
100
AcDbLayerTableRecord
  2
TRASH
 70
0
 62
7
  6
CONTINUOUS
370
-3
390
F
  0
ENDTAB
  0
TABLE
  2
STYLE
  5
3
100
AcDbSymbolTable
 70
1
  0
STYLE
  5
11
100
AcDbSymbolTableRecord
100
AcDbTextStyleTableRecord
  2
STANDARD
 70
0
 40
0.0
 41
0.8
 50
0.0
 71
0
 42
0.2
  3
txt
  4

  0
STYLE
  5
20F
100
AcDbSymbolTableRecord
100
AcDbTextStyleTableRecord
  2
TEXTSTYLE_1
 70
0
 40
0.0
 41
0.8
 50
0.0
 71
0
 42
0.2
  3
gdt
  4

  0
ENDTAB
  0
TABLE
  2
VIEW
  5
6
100
AcDbSymbolTable
 70
0
  0
ENDTAB
  0
TABLE
  2
UCS
  5
7
100
AcDbSymbolTable
 70
0
  0
ENDTAB
  0
TABLE
  2
APPID
  5
9
100
AcDbSymbolTable
 70
1
  0
APPID
  5
210
100
AcDbSymbolTableRecord
100
AcDbRegAppTableRecord
  2
ACAD
 70
0
  0
ENDTAB
  0
TABLE
  2
BLOCK_RECORD
  5
1
100
AcDbSymbolTable
 70
0
  0
BLOCK_RECORD
  5
211
100
AcDbSymbolTableRecord
100
AcDbBlockTableRecord
  2
*Model_Space
  0
BLOCK_RECORD
  5
212
100
AcDbSymbolTableRecord
100
AcDbBlockTableRecord
  2
*Paper_Space
  0
BLOCK_RECORD
  5
213
100
AcDbSymbolTableRecord
100
AcDbBlockTableRecord
  2
_FILLED
  0
BLOCK_RECORD
  5
214
100
AcDbSymbolTableRecord
100
AcDbBlockTableRecord
  2
*D0
  0
BLOCK_RECORD
  5
215
100
AcDbSymbolTableRecord
100
AcDbBlockTableRecord
  2
*D1
  0
BLOCK_RECORD
  5
216
100
AcDbSymbolTableRecord
100
AcDbBlockTableRecord
  2
*D2
  0
ENDTAB
  0
TABLE
  2
DIMSTYLE
  5
A
100
AcDbSymbolTable
 70
1
100
AcDbDimStyleTable
 71
0
  0
DIMSTYLE
105
217
100
AcDbSymbolTableRecord
100
AcDbDimStyleTableRecord
  2
STANDARD
 70
0
  3

  4

 40
1.0
 41
3.0
 42
0.0625
 43
0.38
 44
0.18
 45
0.0
 46
0.0
 47
0.01
 48
0.01
140
3.0
141
0.09
142
0.0
143
25.4
144
1.0
145
0.0
146
1.0
147
0.09
 71
1.0
 72
0.0
 73
0
 74
0
 75
0
 76
0
 77
1
 78
8
170
0
171
2
172
0
173
0
174
0
175
0
176
0
177
0
178
0
270
2
271
2
272
2
273
2
274
2
275
0
280
0
281
0
282
0
283
1
284
8
285
0
286
0
287
3
288
0
340
11
341
213
342
213
343
213
344
213
  0
DIMSTYLE
105
218
100
AcDbSymbolTableRecord
100
AcDbDimStyleTableRecord
  2
DIMSTYLE_1
 70
0
  3

  4

 40
1.0
 41
3.0
 42
0.0625
 43
0.38
 44
0.18
 45
0.0
 46
0.0
 47
0.0
 48
0.0
140
3.0
141
0.09
142
0.0
143
25.4
144
1.0
145
0.0
146
1.0
147
0.09
 71
0.0
 72
0.0
 73
0
 74
0
 75
0
 76
0
 77
1
 78
8
170
0
171
2
172
0
173
0
174
0
175
0
176
0
177
0
178
0
270
2
271
2
272
2
273
2
274
2
275
0
280
0
281
0
282
0
283
1
284
8
285
0
286
0
287
3
288
0
340
11
341
213
342
213
343
213
344
213
  0
DIMSTYLE
105
219
100
AcDbSymbolTableRecord
100
AcDbDimStyleTableRecord
  2
DIMSTYLE_2
 70
0
  3

  4

 40
1.0
 41
3.0
 42
0.0625
 43
0.38
 44
0.18
 45
0.0
 46
0.0
 47
0.0
 48
0.0
140
3.0
141
0.09
142
0.0
143
25.4
144
1.0
145
0.0
146
1.0
147
0.09
 71
0.0
 72
0.0
 73
0
 74
0
 75
0
 76
0
 77
1
 78
8
170
0
171
2
172
0
173
0
174
0
175
0
176
0
177
0
178
0
270
2
271
1
272
1
273
2
274
2
275
0
280
0
281
0
282
0
283
1
284
8
285
0
286
0
287
3
288
0
340
11
341
213
342
213
343
213
344
213
  0
ENDTAB
  0
ENDSEC
  0
SECTION
  2
BLOCKS
  0
BLOCK
  5
20
100
AcDbEntity
  8
0
100
AcDbBlockBegin
  2
*Model_Space
 70
0
 10
0.0
 20
0.0
 30
0.0
  3
*Model_Space
  1

  0
ENDBLK
  5
21
100
AcDbEntity
  8
0
100
AcDbBlockEnd
  0
BLOCK
  5
1C
100
AcDbEntity
  8
0
100
AcDbBlockBegin
  2
*Paper_Space
 70
0
 10
0.0
 20
0.0
 30
0.0
  3
*Paper_Space
  1

  0
ENDBLK
  5
1D
100
AcDbEntity
  8
0
100
AcDbBlockEnd
  0
BLOCK
  5
21A
100
AcDbEntity
  8
0
100
AcDbBlockBegin
  2
_FILLED
 70
64
 10
0.0
 20
0.0
  3
_FILLED
  1

  0
SOLID
  5
21B
100
AcDbEntity
  8
0
  6
BYBLOCK
 62
0
100
AcDbTrace
 10
0.0
 20
0.0
 11
-1.0
 21
0.3166666667
 12
-1.0
 22
-0.3166666667
 13
-1.0
 23
-0.3166666667
  0
ENDBLK
  5
21C
100
AcDbEntity
  8
0
  6
BYBLOCK
 62
0
100
AcDbBlockEnd
  0
BLOCK
  5
21D
100
AcDbEntity
  8
0
100
AcDbBlockBegin
 62
7
  6
CONTINUOUS
  2
*D0
 70
65
 10
0.0
 20
0.0
  3
*D0
  1

  0
MTEXT
  5
21E
100
AcDbEntity
  8
0
100
AcDbMText
 62
7
  6
CONTINUOUS
  7
STANDARD
 71
2
 72
1
 10
-24.2091695643
 20
20.8892874537
 30
0.0
 11
1.0
 21
0.0
 31
0.0
 44
0.9
  1
6,5
 40
3.0
 41
6.2142857143
  0
LINE
  5
21F
100
AcDbEntity
  8
0
100
AcDbLine
 62
7
  6
CONTINUOUS
 10
-20.9593244444
 20
6.1462694797
 11
-20.9593244444
 21
18.6392874537
  0
LINE
  5
220
100
AcDbEntity
  8
0
100
AcDbLine
 62
7
  6
CONTINUOUS
 10
-27.4590146842
 20
9.2955462227
 11
-27.4590146842
 21
18.6392874537
  0
LINE
  5
221
100
AcDbEntity
  8
0
100
AcDbLine
 62
7
  6
CONTINUOUS
 10
-20.9593244444
 20
17.1392874537
 11
-16.9593244444
 21
17.1392874537
  0
LINE
  5
222
100
AcDbEntity
  8
0
100
AcDbLine
 62
7
  6
CONTINUOUS
 10
-16.9593244444
 20
17.1392874537
 11
-24.2091695643
 21
17.1392874537
  0
LINE
  5
223
100
AcDbEntity
  8
0
100
AcDbLine
 62
7
  6
CONTINUOUS
 10
-27.4590146842
 20
17.1392874537
 11
-31.4590146842
 21
17.1392874537
  0
LINE
  5
224
100
AcDbEntity
  8
0
100
AcDbLine
 62
7
  6
CONTINUOUS
 10
-31.4590146842
 20
17.1392874537
 11
-24.2091695643
 21
17.1392874537
  0
INSERT
  5
225
100
AcDbEntity
  8
0
100
AcDbBlockReference
 62
7
  6
CONTINUOUS
  2
_FILLED
 10
-20.9593244444
 20
17.1392874537
 41
3.0
 42
3.0
 43
3.0
 50
180.0
  0
INSERT
  5
226
100
AcDbEntity
  8
0
100
AcDbBlockReference
 62
7
  6
CONTINUOUS
  2
_FILLED
 10
-27.4590146842
 20
17.1392874537
 41
3.0
 42
3.0
 43
3.0
  0
ENDBLK
  5
227
100
AcDbEntity
  8
0
  6
BYBLOCK
 62
0
100
AcDbBlockEnd
  0
BLOCK
  5
228
100
AcDbEntity
  8
0
100
AcDbBlockBegin
 62
7
  6
CONTINUOUS
  2
*D1
 70
65
 10
0.0
 20
0.0
  3
*D1
  1

  0
MTEXT
  5
229
100
AcDbEntity
  8
0
100
AcDbMText
 62
7
  6
CONTINUOUS
  7
STANDARD
 71
2
 72
1
 10
16.9174133333
 20
20.8892874537
 30
0.0
 11
1.0
 21
0.0
 31
0.0
 44
0.9
  1
49,6
 40
3.0
 41
8.7857142857
  0
LINE
  5
22A
100
AcDbEntity
  8
0
100
AcDbLine
 62
7
  6
CONTINUOUS
 10
-7.8825866667
 20
8.3869222589
 11
-7.8825866667
 21
18.6392874537
  0
LINE
  5
22B
100
AcDbEntity
  8
0
100
AcDbLine
 62
7
  6
CONTINUOUS
 10
41.7174133333
 20
8.3869222589
 11
41.7174133333
 21
18.6392874537
  0
LINE
  5
22C
100
AcDbEntity
  8
0
100
AcDbLine
 62
7
  6
CONTINUOUS
 10
-7.8825866667
 20
17.1392874537
 11
16.9174133333
 21
17.1392874537
  0
LINE
  5
22D
100
AcDbEntity
  8
0
100
AcDbLine
 62
7
  6
CONTINUOUS
 10
41.7174133333
 20
17.1392874537
 11
16.9174133333
 21
17.1392874537
  0
INSERT
  5
22E
100
AcDbEntity
  8
0
100
AcDbBlockReference
 62
7
  6
CONTINUOUS
  2
_FILLED
 10
-7.8825866667
 20
17.1392874537
 41
3.0
 42
3.0
 43
3.0
 50
180.0
  0
INSERT
  5
22F
100
AcDbEntity
  8
0
100
AcDbBlockReference
 62
7
  6
CONTINUOUS
  2
_FILLED
 10
41.7174133333
 20
17.1392874537
 41
3.0
 42
3.0
 43
3.0
  0
ENDBLK
  5
230
100
AcDbEntity
  8
0
  6
BYBLOCK
 62
0
100
AcDbBlockEnd
  0
BLOCK
  5
231
100
AcDbEntity
  8
0
100
AcDbBlockBegin
 62
7
  6
CONTINUOUS
  2
*D2
 70
65
 10
0.0
 20
0.0
  3
*D2
  1

  0
MTEXT
  5
232
100
AcDbEntity
  8
0
100
AcDbMText
 62
7
  6
CONTINUOUS
  7
STANDARD
 71
2
 72
1
 10
45.9674133333
 20
-0.1037331854
 30
0.0
 11
0.0
 21
1.0
 31
0.0
 44
0.9
  1
18,5
 40
3.0
 41
7.9285714286
  0
LINE
  5
233
100
AcDbEntity
  8
0
100
AcDbLine
 62
7
  6
CONTINUOUS
 10
41.9604693836
 20
9.1392874537
 11
51.2174133333
 21
9.1392874537
  0
LINE
  5
234
100
AcDbEntity
  8
0
100
AcDbLine
 62
7
  6
CONTINUOUS
 10
41.1034588788
 20
-9.3467538244
 11
51.2174133333
 21
-9.3467538244
  0
LINE
  5
235
100
AcDbEntity
  8
0
100
AcDbLine
 62
7
  6
CONTINUOUS
 10
49.7174133333
 20
9.1392874537
 11
49.7174133333
 21
-0.1037331854
  0
LINE
  5
236
100
AcDbEntity
  8
0
100
AcDbLine
 62
7
  6
CONTINUOUS
 10
49.7174133333
 20
-9.3467538244
 11
49.7174133333
 21
-0.1037331854
  0
INSERT
  5
237
100
AcDbEntity
  8
0
100
AcDbBlockReference
 62
7
  6
CONTINUOUS
  2
_FILLED
 10
49.7174133333
 20
9.1392874537
 41
3.0
 42
3.0
 43
3.0
 50
90.0
  0
INSERT
  5
238
100
AcDbEntity
  8
0
100
AcDbBlockReference
 62
7
  6
CONTINUOUS
  2
_FILLED
 10
49.7174133333
 20
-9.3467538244
 41
3.0
 42
3.0
 43
3.0
 50
270.0
  0
ENDBLK
  5
239
100
AcDbEntity
  8
0
  6
BYBLOCK
 62
0
100
AcDbBlockEnd
  0
ENDSEC
  0
SECTION
  2
ENTITIES
  0
DIMENSION
  5
23A
100
AcDbEntity
  8
0
100
AcDbDimension
 62
7
  6
CONTINUOUS
  2
*D0
 10
-27.4590146842
 20
17.1392874537
 11
-27.3163124215
 21
19.3892874537
 70
160
 71
2
 42
6.4996902397
  3
DIMSTYLE_1
100
AcDbAlignedDimension
 13
-20.9593244444
 23
6.1462694797
 14
-27.4590146842
 24
9.2955462227
 50
180.0
100
AcDbRotatedDimension
  0
DIMENSION
  5
23B
100
AcDbEntity
  8
0
100
AcDbDimension
 62
7
  6
CONTINUOUS
  2
*D1
 10
41.7174133333
 20
17.1392874537
 11
12.5245561905
 21
19.3892874537
 70
160
 71
2
 42
49.6
  3
DIMSTYLE_1
100
AcDbAlignedDimension
 13
-7.8825866667
 23
8.3869222589
 14
41.7174133333
 24
8.3869222589
100
AcDbRotatedDimension
  0
DIMENSION
  5
23C
100
AcDbEntity
  8
0
100
AcDbDimension
 62
7
  6
CONTINUOUS
  2
*D2
 10
49.7174133333
 20
-9.3467538244
 11
49.2437051687
 21
-3.6477913875
 70
160
 71
2
 42
18.4860412781
  3
DIMSTYLE_2
100
AcDbAlignedDimension
 13
41.9604693836
 23
9.1392874537
 14
41.1034588788
 24
-9.3467538244
 50
270.0
100
AcDbRotatedDimension
  0
LINE
  5
23D
100
AcDbEntity
  8
RACCORDO
100
AcDbLine
 62
7
  6
CONTINUOUS
 10
-7.8690935889
 20
-9.0970130519
 11
-7.8825866667
 21
-1.742238957
  0
LINE
  5
23E
100
AcDbEntity
  8
ASSI
100
AcDbLine
 62
7
  6
CONTINUOUS
 10
-7.8690935889
 20
-9.0970130519
 11
-7.8825866667
 21
-1.742238957
  0
LINE
  5
23F
100
AcDbEntity
  8
DRAFT
100
AcDbLine
 62
7
  6
CONTINUOUS
 10
-7.8825866667
 20
7.8869222589
 11
-7.8825866667
 21
-1.742238957
  0
LINE
  5
240
100
AcDbEntity
  8
ASSI
100
AcDbLine
 62
7
  6
CONTINUOUS
 10
-7.8825866667
 20
7.8869222589
 11
-7.8825866667
 21
-1.742238957
  0
LINE
  5
241
100
AcDbEntity
  8
RACCORDO
100
AcDbLine
 62
7
  6
CONTINUOUS
 10
-7.8756046407
 20
8.8893255299
 11
-7.8756046407
 21
8.1887134638
  0
LINE
  5
242
100
AcDbEntity
  8
ASSI
100
AcDbLine
 62
7
  6
CONTINUOUS
 10
-7.8756046407
 20
8.8893255299
 11
-7.8756046407
 21
8.1887134638
  0
LINE
  5
243
100
AcDbEntity
  8
RACCORDO
100
AcDbLine
 62
7
  6
CONTINUOUS
 10
-7.8564040693
 20
-9.0906687753
 11
-7.8564040693
 21
-8.8006431999
  0
LINE
  5
244
100
AcDbEntity
  8
ASSI
100
AcDbLine
 62
7
  6
CONTINUOUS
 10
-7.8564040693
 20
-9.0906687753
 11
-7.8564040693
 21
-8.8006431999
  0
LINE
  5
245
100
AcDbEntity
  8
RACCORDO
100
AcDbLine
 62
253
  6
CONTINUOUS
 10
-7.5380215354
 20
-7.5197300154
 11
-7.5321873645
 21
9.0458321013
  0
LINE
  5
246
100
AcDbEntity
  8
ASSI
100
AcDbLine
 62
253
  6
CONTINUOUS
 10
-7.5380215354
 20
-7.5197300154
 11
-7.5321873645
 21
9.0458321013
  0
LINE
  5
247
100
AcDbEntity
  8
RACCORDO
100
AcDbLine
 62
253
  6
CONTINUOUS
 10
-7.8564040693
 20
-8.8006431999
 11
-7.7987911651
 21
-8.2186511255
  0
LINE
  5
248
100
AcDbEntity
  8
ASSI
100
AcDbLine
 62
253
  6
CONTINUOUS
 10
-7.8564040693
 20
-8.8006431999
 11
-7.7987911651
 21
-8.2186511255
  0
LINE
  5
249
100
AcDbEntity
  8
RACCORDO
100
AcDbLine
 62
253
  6
CONTINUOUS
 10
-7.6071237473
 20
-9.0537305203
 11
-7.5488292413
 21
-8.4648530637
  0
LINE
  5
24A
100
AcDbEntity
  8
ASSI
100
AcDbLine
 62
253
  6
CONTINUOUS
 10
-7.6071237473
 20
-9.0537305203
 11
-7.5488292413
 21
-8.4648530637
  0
LINE
  5
24B
100
AcDbEntity
  8
RACCORDO
100
AcDbLine
 62
7
  6
CONTINUOUS
 10
-7.8825866667
 20
7.8869222589
 11
-7.8807497703
 21
7.8887591553
  0
LINE
  5
24C
100
AcDbEntity
  8
ASSI
100
AcDbLine
 62
7
  6
CONTINUOUS
 10
-7.8825866667
 20
7.8869222589
 11
-7.8807497703
 21
7.8887591553
  0
LINE
  5
24D
100
AcDbEntity
  8
RACCORDO
100
AcDbLine
 62
253
  6
CONTINUOUS
 10
-7.7821492884
 20
8.7958701776
 11
-7.8756046407
 21
8.8893255299
  0
LINE
  5
24E
100
AcDbEntity
  8
ASSI
100
AcDbLine
 62
253
  6
CONTINUOUS
 10
-7.7821492884
 20
8.7958701776
 11
-7.8756046407
 21
8.8893255299
  0
LINE
  5
24F
100
AcDbEntity
  8
RACCORDO
100
AcDbLine
 62
253
  6
CONTINUOUS
 10
-7.5321873645
 20
9.0458321013
 11
-7.6256427169
 21
9.1392874537
  0
LINE
  5
250
100
AcDbEntity
  8
ASSI
100
AcDbLine
 62
253
  6
CONTINUOUS
 10
-7.5321873645
 20
9.0458321013
 11
-7.6256427169
 21
9.1392874537
  0
LINE
  5
251
100
AcDbEntity
  8
RACCORDO
100
AcDbLine
 62
7
  6
CONTINUOUS
 10
-7.6186354098
 20
-9.3467554239
 11
-6.7686354112
 21
-9.3467554239
  0
LINE
  5
252
100
AcDbEntity
  8
RACCORDO
100
AcDbLine
 62
7
  6
CONTINUOUS
 10
40.6034620779
 20
-9.3467554239
 11
41.4534620765
 21
-9.3467554239
  0
LINE
  5
253
100
AcDbEntity
  8
DRAFT
100
AcDbLine
 62
7
  6
CONTINUOUS
 10
40.6034588788
 20
-9.3467538244
 11
-6.7686322121
 21
-9.3467538244
  0
LINE
  5
254
100
AcDbEntity
  8
ASSI
100
AcDbLine
 62
7
  6
CONTINUOUS
 10
41.4534620765
 20
-9.3467554239
 11
-7.6186354098
 21
-9.3467554239
  0
LINE
  5
255
100
AcDbEntity
  8
RACCORDO
100
AcDbLine
 62
7
  6
CONTINUOUS
 10
41.4412307345
 20
-9.3406402187
 11
-7.6064040678
 21
-9.3406402187
  0
LINE
  5
256
100
AcDbEntity
  8
ASSI
100
AcDbLine
 62
7
  6
CONTINUOUS
 10
41.4412307345
 20
-9.3406402187
 11
-7.6064040678
 21
-9.3406402187
  0
LINE
  5
257
100
AcDbEntity
  8
RACCORDO
100
AcDbLine
 62
7
  6
CONTINUOUS
 10
41.441950414
 20
-9.0537305203
 11
-7.6071237473
 21
-9.0537305203
  0
LINE
  5
258
100
AcDbEntity
  8
ASSI
100
AcDbLine
 62
7
  6
CONTINUOUS
 10
41.441950414
 20
-9.0537305203
 11
-7.6071237473
 21
-9.0537305203
  0
LINE
  5
259
100
AcDbEntity
  8
RACCORDO
100
AcDbLine
 62
253
  6
CONTINUOUS
 10
-7.5488292413
 20
-8.4648530637
 11
41.383655908
 21
-8.4648530637
  0
LINE
  5
25A
100
AcDbEntity
  8
ASSI
100
AcDbLine
 62
253
  6
CONTINUOUS
 10
-7.5488292413
 20
-8.4648530637
 11
41.383655908
 21
-8.4648530637
  0
LINE
  5
25B
100
AcDbEntity
  8
RACCORDO
100
AcDbLine
 62
253
  6
CONTINUOUS
 10
-7.5380215354
 20
-7.5197300154
 11
41.3728482021
 21
-7.5197300154
  0
LINE
  5
25C
100
AcDbEntity
  8
ASSI
100
AcDbLine
 62
253
  6
CONTINUOUS
 10
-7.5380215354
 20
-7.5197300154
 11
41.3728482021
 21
-7.5197300154
  0
LINE
  5
25D
100
AcDbEntity
  8
RACCORDO
100
AcDbLine
 62
253
  6
CONTINUOUS
 10
-7.8690935889
 20
-9.0970130519
 11
-7.8564040693
 21
-9.0906687753
  0
LINE
  5
25E
100
AcDbEntity
  8
ASSI
100
AcDbLine
 62
253
  6
CONTINUOUS
 10
-7.8690935889
 20
-9.0970130519
 11
-7.8564040693
 21
-9.0906687753
  0
LINE
  5
25F
100
AcDbEntity
  8
CURVE
100
AcDbLine
 62
253
  6
CONTINUOUS
 10
16.9174133333
 20
-0.2537305203
 11
16.9174133333
 21
-5.2537306481
  0
LINE
  5
260
100
AcDbEntity
  8
RACCORDO
100
AcDbLine
 62
253
  6
CONTINUOUS
 10
41.6912307359
 20
-9.0906687753
 11
41.7039202556
 21
-9.0970130519
  0
LINE
  5
261
100
AcDbEntity
  8
ASSI
100
AcDbLine
 62
253
  6
CONTINUOUS
 10
41.6912307359
 20
-9.0906687753
 11
41.7039202556
 21
-9.0970130519
  0
LINE
  5
262
100
AcDbEntity
  8
DRAFT
100
AcDbLine
 62
7
  6
CONTINUOUS
 10
38.2298793239
 20
9.1392874537
 11
37.9674133333
 21
9.0869222589
  0
LINE
  5
263
100
AcDbEntity
  8
ASSI
100
AcDbLine
 62
7
  6
CONTINUOUS
 10
38.2298793239
 20
9.1392874537
 11
37.9674133333
 21
9.0869222589
  0
LINE
  5
264
100
AcDbEntity
  8
DRAFT
100
AcDbLine
 62
7
  6
CONTINUOUS
 10
-4.3950526572
 20
9.1392874537
 11
-4.1325866667
 21
9.0869222589
  0
LINE
  5
265
100
AcDbEntity
  8
ASSI
100
AcDbLine
 62
7
  6
CONTINUOUS
 10
-4.3950526572
 20
9.1392874537
 11
-4.1325866667
 21
9.0869222589
  0
LINE
  5
266
100
AcDbEntity
  8
RACCORDO
100
AcDbLine
 62
253
  6
CONTINUOUS
 10
41.616975955
 20
8.7958701775
 11
-7.5321873617
 21
8.7955462227
  0
LINE
  5
267
100
AcDbEntity
  8
ASSI
100
AcDbLine
 62
253
  6
CONTINUOUS
 10
41.616975955
 20
8.7958701775
 11
-7.5321873617
 21
8.7955462227
  0
LINE
  5
268
100
AcDbEntity
  8
RACCORDO
100
AcDbLine
 62
253
  6
CONTINUOUS
 10
-7.5321873645
 20
8.7955462227
 11
-7.7821492883
 21
8.7958701775
  0
LINE
  5
269
100
AcDbEntity
  8
ASSI
100
AcDbLine
 62
253
  6
CONTINUOUS
 10
-7.5321873645
 20
8.7955462227
 11
-7.7821492883
 21
8.7958701775
  0
LINE
  5
26A
100
AcDbEntity
  8
RACCORDO
100
AcDbLine
 62
253
  6
CONTINUOUS
 10
41.4604693836
 20
9.1392874537
 11
41.3670140312
 21
9.0458321013
  0
LINE
  5
26B
100
AcDbEntity
  8
ASSI
100
AcDbLine
 62
253
  6
CONTINUOUS
 10
41.4604693836
 20
9.1392874537
 11
41.3670140312
 21
9.0458321013
  0
LINE
  5
26C
100
AcDbEntity
  8
RACCORDO
100
AcDbLine
 62
253
  6
CONTINUOUS
 10
41.3670140312
 20
9.0458321013
 11
-7.5321873645
 21
9.0458321013
  0
LINE
  5
26D
100
AcDbEntity
  8
ASSI
100
AcDbLine
 62
253
  6
CONTINUOUS
 10
41.3670140312
 20
9.0458321013
 11
-7.5321873645
 21
9.0458321013
  0
LINE
  5
26E
100
AcDbEntity
  8
DRAFT
100
AcDbLine
 62
7
  6
CONTINUOUS
 10
37.9674133333
 20
9.0869222589
 11
-4.1325866667
 21
9.0869222589
  0
LINE
  5
26F
100
AcDbEntity
  8
ASSI
100
AcDbLine
 62
7
  6
CONTINUOUS
 10
37.9674133333
 20
9.0869222589
 11
-4.1325866667
 21
9.0869222589
  0
LINE
  5
270
100
AcDbEntity
  8
RACCORDO
100
AcDbLine
 62
7
  6
CONTINUOUS
 10
41.4604693836
 20
9.1392874537
 11
38.2298793239
 21
9.1392874537
  0
LINE
  5
271
100
AcDbEntity
  8
ASSI
100
AcDbLine
 62
7
  6
CONTINUOUS
 10
41.4604693836
 20
9.1392874537
 11
38.2298793239
 21
9.1392874537
  0
LINE
  5
272
100
AcDbEntity
  8
RACCORDO
100
AcDbLine
 62
7
  6
CONTINUOUS
 10
-4.3950526572
 20
9.1392874537
 11
-7.6256427169
 21
9.1392874537
  0
LINE
  5
273
100
AcDbEntity
  8
ASSI
100
AcDbLine
 62
7
  6
CONTINUOUS
 10
-4.3950526572
 20
9.1392874537
 11
-7.6256427169
 21
9.1392874537
  0
LINE
  5
274
100
AcDbEntity
  8
RACCORDO
100
AcDbLine
 62
253
  6
CONTINUOUS
 10
41.7104313074
 20
8.8893255299
 11
41.616975955
 21
8.7958701776
  0
LINE
  5
275
100
AcDbEntity
  8
ASSI
100
AcDbLine
 62
253
  6
CONTINUOUS
 10
41.7104313074
 20
8.8893255299
 11
41.616975955
 21
8.7958701776
  0
LINE
  5
276
100
AcDbEntity
  8
RACCORDO
100
AcDbLine
 62
253
  6
CONTINUOUS
 10
41.383655908
 20
-8.4648530637
 11
41.441950414
 21
-9.0537305203
  0
LINE
  5
277
100
AcDbEntity
  8
ASSI
100
AcDbLine
 62
253
  6
CONTINUOUS
 10
41.383655908
 20
-8.4648530637
 11
41.441950414
 21
-9.0537305203
  0
LINE
  5
278
100
AcDbEntity
  8
RACCORDO
100
AcDbLine
 62
253
  6
CONTINUOUS
 10
41.6336178317
 20
-8.2186511255
 11
41.6912307359
 21
-8.8006431999
  0
LINE
  5
279
100
AcDbEntity
  8
ASSI
100
AcDbLine
 62
253
  6
CONTINUOUS
 10
41.6336178317
 20
-8.2186511255
 11
41.6912307359
 21
-8.8006431999
  0
LINE
  5
27A
100
AcDbEntity
  8
RACCORDO
100
AcDbLine
 62
253
  6
CONTINUOUS
 10
41.3728482021
 20
-7.5197300154
 11
41.3670140312
 21
9.0458321013
  0
LINE
  5
27B
100
AcDbEntity
  8
ASSI
100
AcDbLine
 62
253
  6
CONTINUOUS
 10
41.3728482021
 20
-7.5197300154
 11
41.3670140312
 21
9.0458321013
  0
LINE
  5
27C
100
AcDbEntity
  8
RACCORDO
100
AcDbLine
 62
7
  6
CONTINUOUS
 10
41.6912307359
 20
-8.8006431999
 11
41.6912307359
 21
-9.0906687753
  0
LINE
  5
27D
100
AcDbEntity
  8
ASSI
100
AcDbLine
 62
7
  6
CONTINUOUS
 10
41.6912307359
 20
-8.8006431999
 11
41.6912307359
 21
-9.0906687753
  0
LINE
  5
27E
100
AcDbEntity
  8
RACCORDO
100
AcDbLine
 62
7
  6
CONTINUOUS
 10
41.7104313074
 20
8.1887134638
 11
41.7104313074
 21
8.8893255299
  0
LINE
  5
27F
100
AcDbEntity
  8
ASSI
100
AcDbLine
 62
7
  6
CONTINUOUS
 10
41.7104313074
 20
8.1887134638
 11
41.7104313074
 21
8.8893255299
  0
LINE
  5
280
100
AcDbEntity
  8
DRAFT
100
AcDbLine
 62
7
  6
CONTINUOUS
 10
41.7174133333
 20
7.8869222589
 11
41.7174133333
 21
-1.742238957
  0
LINE
  5
281
100
AcDbEntity
  8
ASSI
100
AcDbLine
 62
7
  6
CONTINUOUS
 10
41.7174133333
 20
7.8869222589
 11
41.7174133333
 21
-1.742238957
  0
LINE
  5
282
100
AcDbEntity
  8
RACCORDO
100
AcDbLine
 62
7
  6
CONTINUOUS
 10
41.7039202556
 20
-9.0970130519
 11
41.7174133333
 21
-1.742238957
  0
LINE
  5
283
100
AcDbEntity
  8
ASSI
100
AcDbLine
 62
7
  6
CONTINUOUS
 10
41.7039202556
 20
-9.0970130519
 11
41.7174133333
 21
-1.742238957
  0
LINE
  5
284
100
AcDbEntity
  8
RACCORDO
100
AcDbLine
 62
7
  6
CONTINUOUS
 10
41.7174133333
 20
7.8869222589
 11
41.715576437
 21
7.8887591553
  0
LINE
  5
285
100
AcDbEntity
  8
ASSI
100
AcDbLine
 62
7
  6
CONTINUOUS
 10
41.7174133333
 20
7.8869222589
 11
41.715576437
 21
7.8887591553
  0
LINE
  5
286
100
AcDbEntity
  8
RACCORDO
100
AcDbLine
 62
7
  6
CONTINUOUS
 10
-22.9593244444
 20
-9.3406402187
 11
-22.2585913323
 21
-9.3467554239
  0
LINE
  5
287
100
AcDbEntity
  8
ASSI
100
AcDbLine
 62
7
  6
CONTINUOUS
 10
-22.9593244444
 20
-9.3406402187
 11
-22.2585913323
 21
-9.3467554239
  0
LINE
  5
288
100
AcDbEntity
  8
RACCORDO
100
AcDbLine
 62
253
  6
CONTINUOUS
 10
-22.9593244444
 20
-9.0906687753
 11
-22.2323423512
 21
-9.0970130519
  0
LINE
  5
289
100
AcDbEntity
  8
ASSI
100
AcDbLine
 62
253
  6
CONTINUOUS
 10
-22.9593244444
 20
-9.0906687753
 11
-22.2323423512
 21
-9.0970130519
  0
LINE
  5
28A
100
AcDbEntity
  8
RACCORDO
100
AcDbLine
 62
7
  6
CONTINUOUS
 10
-26.2990144582
 20
-8.4648530637
 11
-22.9593244444
 21
-9.0537305203
  0
LINE
  5
28B
100
AcDbEntity
  8
ASSI
100
AcDbLine
 62
7
  6
CONTINUOUS
 10
-26.2990144582
 20
-8.4648530637
 11
-22.9593244444
 21
-9.0537305203
  0
LINE
  5
28C
100
AcDbEntity
  8
RACCORDO
100
AcDbLine
 62
253
  6
CONTINUOUS
 10
-26.2599655154
 20
-8.2186511255
 11
-22.9593244444
 21
-8.8006431999
  0
LINE
  5
28D
100
AcDbEntity
  8
ASSI
100
AcDbLine
 62
253
  6
CONTINUOUS
 10
-26.2599655154
 20
-8.2186511255
 11
-22.9593244444
 21
-8.8006431999
  0
LINE
  5
28E
100
AcDbEntity
  8
RACCORDO
100
AcDbLine
 62
253
  6
CONTINUOUS
 10
-26.879138571
 20
-7.5098088392
 11
-27.1245607851
 21
-7.5197293063
  0
LINE
  5
28F
100
AcDbEntity
  8
ASSI
100
AcDbLine
 62
253
  6
CONTINUOUS
 10
-26.879138571
 20
-7.5098088392
 11
-27.1245607851
 21
-7.5197293063
  0
LINE
  5
290
100
AcDbEntity
  8
RACCORDO
100
AcDbLine
 62
7
  6
CONTINUOUS
 10
-22.9593244444
 20
-9.3406402187
 11
-22.9593244444
 21
-8.8006431999
  0
LINE
  5
291
100
AcDbEntity
  8
ASSI
100
AcDbLine
 62
7
  6
CONTINUOUS
 10
-22.9593244444
 20
-9.3406402187
 11
-22.9593244444
 21
-8.8006431999
  0
LINE
  5
292
100
AcDbEntity
  8
RACCORDO
100
AcDbLine
 62
7
  6
CONTINUOUS
 10
-21.8593244444
 20
8.1887134638
 11
-21.8593244444
 21
9.1392874537
  0
LINE
  5
293
100
AcDbEntity
  8
ASSI
100
AcDbLine
 62
7
  6
CONTINUOUS
 10
-21.8593244444
 20
8.1887134638
 11
-21.8593244444
 21
9.1392874537
  0
LINE
  5
294
100
AcDbEntity
  8
DRAFT
100
AcDbLine
 62
7
  6
CONTINUOUS
 10
-21.4593244444
 20
7.8869222589
 11
-21.4593244444
 21
-1.742238957
  0
LINE
  5
295
100
AcDbEntity
  8
ASSI
100
AcDbLine
 62
7
  6
CONTINUOUS
 10
-21.4593244444
 20
7.8869222589
 11
-21.4593244444
 21
-1.742238957
  0
LINE
  5
296
100
AcDbEntity
  8
RACCORDO
100
AcDbLine
 62
7
  6
CONTINUOUS
 10
-22.2585913323
 20
-9.3467554239
 11
-21.4593244444
 21
-1.742238957
  0
LINE
  5
297
100
AcDbEntity
  8
ASSI
100
AcDbLine
 62
7
  6
CONTINUOUS
 10
-22.2585913323
 20
-9.3467554239
 11
-21.4593244444
 21
-1.742238957
  0
LINE
  5
298
100
AcDbEntity
  8
0
100
AcDbLine
 62
7
  6
CONTINUOUS
 10
-20.9593244444
 20
5.6462694797
 11
-20.9593244444
 21
3.8462694797
  0
LINE
  5
299
100
AcDbEntity
  8
0
100
AcDbLine
 62
7
  6
CONTINUOUS
 10
-21.4593244444
 20
3.8212694797
 11
-20.9593244444
 21
3.8462694797
  0
LINE
  5
29A
100
AcDbEntity
  8
0
100
AcDbLine
 62
7
  6
CONTINUOUS
 10
-21.4593244444
 20
5.6712694797
 11
-20.9593244444
 21
5.6462694797
  0
LINE
  5
29B
100
AcDbEntity
  8
RACCORDO
100
AcDbLine
 62
7
  6
CONTINUOUS
 10
-21.4593244444
 20
7.8869222589
 11
-21.5645601664
 21
7.8887591553
  0
LINE
  5
29C
100
AcDbEntity
  8
ASSI
100
AcDbLine
 62
7
  6
CONTINUOUS
 10
-21.4593244444
 20
7.8869222589
 11
-21.5645601664
 21
7.8887591553
  0
LINE
  5
29D
100
AcDbEntity
  8
RACCORDO
100
AcDbLine
 62
253
  6
CONTINUOUS
 10
-21.8593244444
 20
8.8893255299
 11
-27.2133779932
 21
8.7958701776
  0
LINE
  5
29E
100
AcDbEntity
  8
ASSI
100
AcDbLine
 62
253
  6
CONTINUOUS
 10
-21.8593244444
 20
8.8893255299
 11
-27.2133779932
 21
8.7958701776
  0
LINE
  5
29F
100
AcDbEntity
  8
RACCORDO
100
AcDbLine
 62
7
  6
CONTINUOUS
 10
-21.8593244444
 20
9.1392874537
 11
-27.2133779957
 21
9.0458321013
  0
LINE
  5
2A0
100
AcDbEntity
  8
ASSI
100
AcDbLine
 62
7
  6
CONTINUOUS
 10
-21.8593244444
 20
9.1392874537
 11
-27.2133779957
 21
9.0458321013
  0
LINE
  5
2A1
100
AcDbEntity
  8
RACCORDO
100
AcDbLine
 62
253
  6
CONTINUOUS
 10
-27.2133779957
 20
8.7958701775
 11
-27.4590146842
 21
8.7955462227
  0
LINE
  5
2A2
100
AcDbEntity
  8
ASSI
100
AcDbLine
 62
253
  6
CONTINUOUS
 10
-27.2133779957
 20
8.7958701775
 11
-27.4590146842
 21
8.7955462227
  0
CIRCLE
  5
2A3
100
AcDbEntity
  8
DRAFT
100
AcDbCircle
 62
7
  6
CONTINUOUS
 10
16.9174129892
 20
4.7464900254
 40
1.3135386721
  0
CIRCLE
  5
2A4
100
AcDbEntity
  8
ASSI
100
AcDbCircle
 62
7
  6
CONTINUOUS
 10
16.9174129892
 20
4.7464900254
 40
1.3135386721
  0
CIRCLE
  5
2A5
100
AcDbEntity
  8
DRAFT
100
AcDbCircle
 62
7
  6
CONTINUOUS
 10
16.9174133333
 20
4.7462694797
 40
1.3
  0
CIRCLE
  5
2A6
100
AcDbEntity
  8
ASSI
100
AcDbCircle
 62
7
  6
CONTINUOUS
 10
16.9174133333
 20
4.7462694797
 40
1.3
  0
CIRCLE
  5
2A7
100
AcDbEntity
  8
DRAFT
100
AcDbCircle
 62
7
  6
CONTINUOUS
 10
16.9174133333
 20
4.7462694797
 40
1.225
  0
CIRCLE
  5
2A8
100
AcDbEntity
  8
RACCORDO
100
AcDbCircle
 62
253
  6
CONTINUOUS
 10
16.9174133333
 20
4.7462694797
 40
1.2068524201
  0
CIRCLE
  5
2A9
100
AcDbEntity
  8
RACCORDO
100
AcDbCircle
 62
253
  6
CONTINUOUS
 10
16.9174133333
 20
4.7462694797
 40
1.1180464865
  0
ARC
  5
2AA
100
AcDbEntity
  8
RACCORDO
100
AcDbCircle
 62
253
  6
CONTINUOUS
 10
-7.5320958976
 20
8.7957787106
 40
0.2500538636
100
AcDbArc
 50
90.020958193
 51
179.979041807
  0
ARC
  5
2AB
100
AcDbEntity
  8
ASSI
100
AcDbCircle
 62
253
  6
CONTINUOUS
 10
-7.5320958976
 20
8.7957787106
 40
0.2500538636
100
AcDbArc
 50
90.020958193
 51
179.979041807
  0
ARC
  5
2AC
100
AcDbEntity
  8
RACCORDO
100
AcDbCircle
 62
253
  6
CONTINUOUS
 10
41.3669232066
 20
8.7957793532
 40
0.2500531776
100
AcDbArc
 50
0.0208110208
 51
89.9791889339
  0
ARC
  5
2AD
100
AcDbEntity
  8
ASSI
100
AcDbCircle
 62
253
  6
CONTINUOUS
 10
41.3669232066
 20
8.7957793532
 40
0.2500531776
100
AcDbArc
 50
0.0208110208
 51
89.9791889339
  0
ARC
  5
2AE
100
AcDbEntity
  8
RACCORDO
100
AcDbCircle
 62
7
  6
CONTINUOUS
 10
397.5406284967
 20
9.3462694797
 40
425.0
100
AcDbArc
 50
180.074245005
 51
182.2743633301
  0
ARC
  5
2AF
100
AcDbEntity
  8
ASSI
100
AcDbCircle
 62
7
  6
CONTINUOUS
 10
397.5406284967
 20
9.3462694797
 40
425.0
100
AcDbArc
 50
180.074245005
 51
182.2743633301
  0
ARC
  5
2B0
100
AcDbEntity
  8
CURVE
100
AcDbCircle
 62
253
  6
CONTINUOUS
 10
397.5406284967
 20
9.3462694797
 40
425.0
100
AcDbArc
 50
181.7639944455
 51
181.9686658847
  0
ARC
  5
2B1
100
AcDbEntity
  8
RACCORDO
100
AcDbCircle
 62
253
  6
CONTINUOUS
 10
397.5362732458
 20
9.3462695751
 40
424.7500078482
100
AcDbArc
 50
180.0742450165
 51
182.2743633009
  0
ARC
  5
2B2
100
AcDbEntity
  8
ASSI
100
AcDbCircle
 62
253
  6
CONTINUOUS
 10
397.5362732458
 20
9.3462695751
 40
424.7500078482
100
AcDbArc
 50
180.0742450165
 51
182.2743633009
  0
ARC
  5
2B3
100
AcDbEntity
  8
RACCORDO
100
AcDbCircle
 62
7
  6
CONTINUOUS
 10
-26.1253662805
 20
-7.4800453107
 40
1.0
100
AcDbArc
 50
182.2743633301
 51
260.0
  0
ARC
  5
2B4
100
AcDbEntity
  8
ASSI
100
AcDbCircle
 62
7
  6
CONTINUOUS
 10
-26.1253662805
 20
-7.4800453107
 40
1.0
100
AcDbArc
 50
182.2743633301
 51
260.0
  0
ARC
  5
2B5
100
AcDbEntity
  8
RACCORDO
100
AcDbCircle
 62
253
  6
CONTINUOUS
 10
-26.1297275825
 20
-7.4800437387
 40
0.7500018606
100
AcDbArc
 50
182.2744778693
 51
259.9998854608
  0
ARC
  5
2B6
100
AcDbEntity
  8
ASSI
100
AcDbCircle
 62
253
  6
CONTINUOUS
 10
-26.1297275825
 20
-7.4800437387
 40
0.7500018606
100
AcDbArc
 50
182.2744778693
 51
259.9998854608
  0
ARC
  5
2B7
100
AcDbEntity
  8
RACCORDO
100
AcDbCircle
 62
7
  6
CONTINUOUS
 10
-21.5593244444
 20
8.1887134638
 40
0.3
100
AcDbArc
 50
180.0
 51
269.0
  0
ARC
  5
2B8
100
AcDbEntity
  8
ASSI
100
AcDbCircle
 62
7
  6
CONTINUOUS
 10
-21.5593244444
 20
8.1887134638
 40
0.3
100
AcDbArc
 50
180.0
 51
269.0
  0
ARC
  5
2B9
100
AcDbEntity
  8
RACCORDO
100
AcDbCircle
 62
7
  6
CONTINUOUS
 10
-27.2090148941
 20
8.7958701775
 40
0.25
100
AcDbArc
 50
91.0
 51
180.074245005
  0
ARC
  5
2BA
100
AcDbEntity
  8
ASSI
100
AcDbCircle
 62
7
  6
CONTINUOUS
 10
-27.2090148941
 20
8.7958701775
 40
0.25
100
AcDbArc
 50
91.0
 51
180.074245005
  0
SPLINE
  5
2BB
100
AcDbEntity
  8
RACCORDO
100
AcDbSpline
 62
253
  6
CONTINUOUS
 70
0
 71
3
 72
11
 73
7
 74
5
 42
0.0000001
 43
0.0000001
 44
0.0000000001
 12
0.0011902469
 22
-0.3868382165
 32
0.0
 13
0.3868383243
 23
-0.0011547015
 33
0.0
 40
0.0
 40
0.0
 40
0.0
 40
0.0
 40
0.2481372423
 40
0.4975164136
 40
0.7483480436
 40
1.0
 40
1.0
 40
1.0
 40
1.0
 10
-7.7987911651
 20
-8.2186511255
 30
0.0
 10
-7.7986927169
 20
-8.2506474482
 30
0.0
 10
-7.7854490437
 20
-8.3154675448
 30
0.0
 10
-7.7296512753
 20
-8.3971636116
 30
0.0
 10
-7.6467206213
 20
-8.4518458728
 30
0.0
 10
-7.5812787817
 20
-8.4647562032
 30
0.0
 10
-7.5488292413
 20
-8.4648530642
 30
0.0
 11
-7.7987911651
 21
-8.2186511255
 31
0.0
 11
-7.7795488926
 21
-8.3126920964
 31
0.0
 11
-7.7253162309
 21
-8.3924746161
 31
0.0
 11
-7.6443148311
 21
-8.4458967825
 31
0.0
 11
-7.5488292413
 21
-8.4648530642
 31
0.0
  0
SPLINE
  5
2BC
100
AcDbEntity
  8
RACCORDO
100
AcDbSpline
 62
253
  6
CONTINUOUS
 70
0
 71
3
 72
11
 73
7
 74
5
 42
0.0000001
 43
0.0000001
 44
0.0000000001
 12
0.1007369386
 22
-0.2292793414
 32
0.0
 13
0.2504334585
 23
-0.0001733463
 33
0.0
 40
0.0
 40
0.0
 40
0.0
 40
0.0
 40
0.0822915138
 40
0.3001698803
 40
0.6219901227
 40
1.0
 40
1.0
 40
1.0
 40
1.0
 10
-7.7879834592
 20
-7.5098088392
 30
0.0
 10
-7.7852201941
 20
-7.5160980873
 30
0.0
 10
-7.7516359408
 20
-7.5099741129
 30
0.0
 10
-7.7072536516
 20
-7.5200510515
 30
0.0
 10
-7.6269504191
 20
-7.5181911432
 30
0.0
 10
-7.5695769757
 20
-7.5197081732
 30
0.0
 10
-7.5380215354
 20
-7.5197300154
 30
0.0
 11
-7.7879834592
 21
-7.5098088392
 31
0.0
 11
-7.7677203005
 21
-7.5135660815
 31
0.0
 11
-7.7132500354
 21
-7.5167637888
 31
0.0
 11
-7.6326844625
 21
-7.5189257536
 31
0.0
 11
-7.5380215354
 21
-7.5197300154
 31
0.0
  0
SPLINE
  5
2BD
100
AcDbEntity
  8
RACCORDO
100
AcDbSpline
 62
253
  6
CONTINUOUS
 70
0
 71
3
 72
13
 73
9
 74
7
 42
0.0000001
 43
0.0000001
 44
0.0000000001
 12
0.0697988841
 22
0.7055568887
 32
0.0
 13
0.0004945741
 23
0.70900082
 33
0.0
 40
0.0
 40
0.0
 40
0.0
 40
0.0
 40
0.0674181962
 40
0.1847576221
 40
0.3459157559
 40
0.5427764484
 40
0.7650453531
 40
1.0
 40
1.0
 40
1.0
 40
1.0
 10
-7.7987911651
 20
-8.2186511255
 30
0.0
 10
-7.7972225935
 20
-8.2027953346
 30
0.0
 10
-7.7954214829
 20
-8.1591338975
 30
0.0
 10
-7.7929236475
 20
-8.077440202
 30
0.0
 10
-7.7909630361
 20
-7.9651026123
 30
0.0
 10
-7.789338469
 20
-7.8279739804
 30
0.0
 10
-7.7883063144
 20
-7.6733934584
 30
0.0
 10
-7.7880221934
 20
-7.5653365183
 30
0.0
 10
-7.7879834592
 20
-7.5098088392
 30
0.0
 11
-7.7987911651
 21
-8.2186511255
 31
0.0
 11
-7.7959703209
 21
-8.1709348647
 31
0.0
 11
-7.7933931435
 21
-8.0877810228
 31
0.0
 11
-7.7912064041
 21
-7.9735406729
 31
0.0
 11
-7.7895225524
 21
-7.833976404
 31
0.0
 11
-7.7884296954
 21
-7.6763913194
 31
0.0
 11
-7.7879834592
 21
-7.5098088392
 31
0.0
  0
SPLINE
  5
2BE
100
AcDbEntity
  8
RACCORDO
100
AcDbSpline
 62
253
  6
CONTINUOUS
 70
0
 71
3
 72
10
 73
6
 74
4
 42
0.0000001
 43
0.0000001
 44
0.0000000001
 12
0.0113038293
 22
16.305676414
 32
0.0
 13
0.0003688186
 23
16.305680328
 33
0.0
 40
0.0
 40
0.0
 40
0.0
 40
0.0
 40
0.3332438196
 40
0.6665834492
 40
1.0
 40
1.0
 40
1.0
 40
1.0
 10
-7.7879834592
 20
-7.5098088392
 30
0.0
 10
-7.7867278154
 20
-5.6985535428
 30
0.0
 10
-7.7846216184
 20
-2.0755219064
 30
0.0
 10
-7.7826770573
 20
3.3597045638
 30
0.0
 10
-7.7821902785
 20
6.983675613
 30
0.0
 10
-7.7821492884
 20
8.7958701776
 30
0.0
 11
-7.7879834592
 21
-7.5098088392
 31
0.0
 11
-7.7848243591
 21
-2.0760425626
 31
0.0
 11
-7.7828796025
 21
3.3592865316
 31
0.0
 11
-7.7821492884
 21
8.7958701776
 31
0.0
  0
SPLINE
  5
2BF
100
AcDbEntity
  8
RACCORDO
100
AcDbSpline
 62
253
  6
CONTINUOUS
 70
0
 71
3
 72
10
 73
6
 74
4
 42
0.0000001
 43
0.0000001
 44
0.0000000001
 12
0.0003688186
 22
-16.3056803279
 32
0.0
 13
0.0113038293
 23
-16.3056764139
 33
0.0
 40
0.0
 40
0.0
 40
0.0
 40
0.0
 40
0.3334165508
 40
0.6667561804
 40
1.0
 40
1.0
 40
1.0
 40
1.0
 10
41.616975955
 20
8.7958701776
 30
0.0
 10
41.6170169451
 20
6.983675613
 30
0.0
 10
41.617503724
 20
3.3597045638
 30
0.0
 10
41.6194482851
 20
-2.0755219064
 30
0.0
 10
41.6215544821
 20
-5.6985535428
 30
0.0
 10
41.6228101259
 20
-7.5098088392
 30
0.0
 11
41.616975955
 21
8.7958701776
 31
0.0
 11
41.6177062692
 21
3.3592865315
 31
0.0
 11
41.6196510258
 21
-2.0760425627
 31
0.0
 11
41.6228101259
 21
-7.5098088392
 31
0.0
  0
SPLINE
  5
2C0
100
AcDbEntity
  8
RACCORDO
100
AcDbSpline
 62
253
  6
CONTINUOUS
 70
0
 71
3
 72
13
 73
9
 74
7
 42
0.0000001
 43
0.0000001
 44
0.0000000001
 12
0.0004945741
 22
-0.70900082
 32
0.0
 13
0.0697988838
 23
-0.7055568887
 33
0.0
 40
0.0
 40
0.0
 40
0.0
 40
0.0
 40
0.2349546469
 40
0.4572235516
 40
0.6540842441
 40
0.8152423778
 40
0.9325818039
 40
1.0
 40
1.0
 40
1.0
 40
1.0
 10
41.6228101259
 20
-7.5098088392
 30
0.0
 10
41.62284886
 20
-7.5653365183
 30
0.0
 10
41.6231329811
 20
-7.6733934584
 30
0.0
 10
41.6241651357
 20
-7.8279739804
 30
0.0
 10
41.6257897027
 20
-7.9651026123
 30
0.0
 10
41.6277503142
 20
-8.077440202
 30
0.0
 10
41.6302481496
 20
-8.1591338975
 30
0.0
 10
41.6320492601
 20
-8.2027953346
 30
0.0
 10
41.6336178317
 20
-8.2186511255
 30
0.0
 11
41.6228101259
 21
-7.5098088392
 31
0.0
 11
41.623256362
 21
-7.6763913194
 31
0.0
 11
41.6243492191
 21
-7.833976404
 31
0.0
 11
41.6260330708
 21
-7.9735406729
 31
0.0
 11
41.6282198102
 21
-8.0877810227
 31
0.0
 11
41.6307969875
 21
-8.1709348648
 31
0.0
 11
41.6336178317
 21
-8.2186511255
 31
0.0
  0
SPLINE
  5
2C1
100
AcDbEntity
  8
RACCORDO
100
AcDbSpline
 62
253
  6
CONTINUOUS
 70
0
 71
3
 72
11
 73
7
 74
5
 42
0.0000001
 43
0.0000001
 44
0.0000000001
 12
-0.0011902476
 22
-0.3868382125
 32
0.0
 13
-0.3868383202
 23
-0.0011547052
 33
0.0
 40
0.0
 40
0.0
 40
0.0
 40
0.0
 40
0.2481496306
 40
0.4975322026
 40
0.7483586169
 40
1.0
 40
1.0
 40
1.0
 40
1.0
 10
41.6336178317
 20
-8.2186511255
 30
0.0
 10
41.6335193786
 20
-8.2506490453
 30
0.0
 10
41.6202745881
 20
-8.3154712755
 30
0.0
 10
41.5644741404
 20
-8.3971672674
 30
0.0
 10
41.481543805
 20
-8.4518468456
 30
0.0
 10
41.4161040846
 20
-8.4647562065
 30
0.0
 10
41.383655908
 20
-8.4648530637
 30
0.0
 11
41.6336178317
 21
-8.2186511255
 31
0.0
 11
41.614373656
 21
-8.3126965975
 31
0.0
 11
41.5601384607
 21
-8.3924789845
 31
0.0
 11
41.4791376406
 21
-8.4458983631
 31
0.0
 11
41.383655908
 21
-8.4648530637
 31
0.0
  0
SPLINE
  5
2C2
100
AcDbEntity
  8
RACCORDO
100
AcDbSpline
 62
253
  6
CONTINUOUS
 70
0
 71
3
 72
11
 73
7
 74
5
 42
0.0000001
 43
0.0000001
 44
0.0000000001
 12
-0.1010171715
 22
-0.2291558723
 32
0.0
 13
-0.2504333298
 23
-0.0001733233
 33
0.0
 40
0.0
 40
0.0
 40
0.0
 40
0.0
 40
0.0823072754
 40
0.3001894412
 40
0.6220029553
 40
1.0
 40
1.0
 40
1.0
 40
1.0
 10
41.6228101254
 20
-7.5098088392
 30
0.0
 10
41.6200386427
 20
-7.5160959044
 30
0.0
 10
41.5864690104
 20
-7.5099769024
 30
0.0
 10
41.5420707823
 20
-7.5200485376
 30
0.0
 10
41.4617764983
 20
-7.5181912806
 30
0.0
 10
41.404402555
 20
-7.5197074677
 30
0.0
 10
41.3728482021
 20
-7.5197293063
 30
0.0
 11
41.6228101254
 21
-7.5098088392
 31
0.0
 11
41.6025429219
 21
-7.5135658598
 31
0.0
 11
41.548071718
 21
-7.5167633322
 31
0.0
 11
41.4675078674
 21
-7.518925118
 31
0.0
 11
41.3728482021
 21
-7.5197293063
 31
0.0
  0
SPLINE
  5
2C3
100
AcDbEntity
  8
RACCORDO
100
AcDbSpline
 62
253
  6
CONTINUOUS
 70
0
 71
3
 72
13
 73
9
 74
7
 42
0.0000001
 43
0.0000001
 44
0.0000000001
 12
0.0699882761
 22
0.9426474571
 32
0.0
 13
0.0004959778
 23
0.9452419485
 33
0.0
 40
0.0
 40
0.0
 40
0.0
 40
0.0
 40
0.0677746619
 40
0.1851024079
 40
0.3460109671
 40
0.5423277437
 40
0.7640908415
 40
1.0
 40
1.0
 40
1.0
 40
1.0
 10
-7.5488292413
 20
-8.4648530637
 30
0.0
 10
-7.5472480974
 20
-8.4435571928
 30
0.0
 10
-7.5454561119
 20
-8.3852364982
 30
0.0
 10
-7.5429556408
 20
-8.2762588265
 30
0.0
 10
-7.541001833
 20
-8.1267403161
 30
0.0
 10
-7.5393793441
 20
-7.944321951
 30
0.0
 10
-7.538345611
 20
-7.7382638305
 30
0.0
 10
-7.5380605373
 20
-7.5940604263
 30
0.0
 10
-7.5380215354
 20
-7.5197300154
 30
0.0
 11
-7.5488292413
 21
-8.4648530637
 31
0.0
 11
-7.5459967469
 21
-8.4008522498
 31
0.0
 11
-7.5434244193
 21
-8.2899789631
 31
0.0
 11
-7.5412429154
 21
-8.1378970674
 31
0.0
 11
-7.539563266
 21
-7.9523377912
 31
0.0
 11
-7.5384708888
 21
-7.742720826
 31
0.0
 11
-7.5380215354
 21
-7.5197300154
 31
0.0
  0
SPLINE
  5
2C4
100
AcDbEntity
  8
RACCORDO
100
AcDbSpline
 62
253
  6
CONTINUOUS
 70
0
 71
3
 72
13
 73
9
 74
7
 42
0.0000001
 43
0.0000001
 44
0.0000000001
 12
0.0004959778
 22
-0.9452419485
 32
0.0
 13
0.0699882762
 23
-0.9426474571
 33
0.0
 40
0.0
 40
0.0
 40
0.0
 40
0.0
 40
0.2359091585
 40
0.4576722563
 40
0.6539890329
 40
0.8148975921
 40
0.9322253381
 40
1.0
 40
1.0
 40
1.0
 40
1.0
 10
41.3728482021
 20
-7.5197300154
 30
0.0
 10
41.372887204
 20
-7.5940604263
 30
0.0
 10
41.3731722777
 20
-7.7382638305
 30
0.0
 10
41.3742060107
 20
-7.944321951
 30
0.0
 10
41.3758284996
 20
-8.1267403161
 30
0.0
 10
41.3777823074
 20
-8.2762588265
 30
0.0
 10
41.3802827786
 20
-8.3852364982
 30
0.0
 10
41.382074764
 20
-8.4435571928
 30
0.0
 10
41.383655908
 20
-8.4648530637
 30
0.0
 11
41.3728482021
 21
-7.5197300154
 31
0.0
 11
41.3732975555
 21
-7.742720826
 31
0.0
 11
41.3743899327
 21
-7.9523377912
 31
0.0
 11
41.3760695821
 21
-8.1378970674
 31
0.0
 11
41.3782510859
 21
-8.2899789631
 31
0.0
 11
41.3808234136
 21
-8.4008522498
 31
0.0
 11
41.383655908
 21
-8.4648530637
 31
0.0
  0
SPLINE
  5
2C5
100
AcDbEntity
  8
ASSI
100
AcDbSpline
 62
253
  6
CONTINUOUS
 70
0
 71
3
 72
11
 73
7
 74
5
 42
0.0000001
 43
0.0000001
 44
0.0000000001
 12
0.0011902469
 22
-0.3868382165
 32
0.0
 13
0.3868383243
 23
-0.0011547015
 33
0.0
 40
0.0
 40
0.0
 40
0.0
 40
0.0
 40
0.2481372423
 40
0.4975164136
 40
0.7483480436
 40
1.0
 40
1.0
 40
1.0
 40
1.0
 10
-7.7987911651
 20
-8.2186511255
 30
0.0
 10
-7.7986927169
 20
-8.2506474482
 30
0.0
 10
-7.7854490437
 20
-8.3154675448
 30
0.0
 10
-7.7296512753
 20
-8.3971636116
 30
0.0
 10
-7.6467206213
 20
-8.4518458728
 30
0.0
 10
-7.5812787817
 20
-8.4647562032
 30
0.0
 10
-7.5488292413
 20
-8.4648530642
 30
0.0
 11
-7.7987911651
 21
-8.2186511255
 31
0.0
 11
-7.7795488926
 21
-8.3126920964
 31
0.0
 11
-7.7253162309
 21
-8.3924746161
 31
0.0
 11
-7.6443148311
 21
-8.4458967825
 31
0.0
 11
-7.5488292413
 21
-8.4648530642
 31
0.0
  0
SPLINE
  5
2C6
100
AcDbEntity
  8
ASSI
100
AcDbSpline
 62
253
  6
CONTINUOUS
 70
0
 71
3
 72
13
 73
9
 74
7
 42
0.0000001
 43
0.0000001
 44
0.0000000001
 12
0.0697988841
 22
0.7055568887
 32
0.0
 13
0.0004945741
 23
0.70900082
 33
0.0
 40
0.0
 40
0.0
 40
0.0
 40
0.0
 40
0.0674181962
 40
0.1847576221
 40
0.3459157559
 40
0.5427764484
 40
0.7650453531
 40
1.0
 40
1.0
 40
1.0
 40
1.0
 10
-7.7987911651
 20
-8.2186511255
 30
0.0
 10
-7.7972225935
 20
-8.2027953346
 30
0.0
 10
-7.7954214829
 20
-8.1591338975
 30
0.0
 10
-7.7929236475
 20
-8.077440202
 30
0.0
 10
-7.7909630361
 20
-7.9651026123
 30
0.0
 10
-7.789338469
 20
-7.8279739804
 30
0.0
 10
-7.7883063144
 20
-7.6733934584
 30
0.0
 10
-7.7880221934
 20
-7.5653365183
 30
0.0
 10
-7.7879834592
 20
-7.5098088392
 30
0.0
 11
-7.7987911651
 21
-8.2186511255
 31
0.0
 11
-7.7959703209
 21
-8.1709348647
 31
0.0
 11
-7.7933931435
 21
-8.0877810228
 31
0.0
 11
-7.7912064041
 21
-7.9735406729
 31
0.0
 11
-7.7895225524
 21
-7.833976404
 31
0.0
 11
-7.7884296954
 21
-7.6763913194
 31
0.0
 11
-7.7879834592
 21
-7.5098088392
 31
0.0
  0
SPLINE
  5
2C7
100
AcDbEntity
  8
ASSI
100
AcDbSpline
 62
253
  6
CONTINUOUS
 70
0
 71
3
 72
10
 73
6
 74
4
 42
0.0000001
 43
0.0000001
 44
0.0000000001
 12
0.0113038293
 22
16.305676414
 32
0.0
 13
0.0003688186
 23
16.305680328
 33
0.0
 40
0.0
 40
0.0
 40
0.0
 40
0.0
 40
0.3332438196
 40
0.6665834492
 40
1.0
 40
1.0
 40
1.0
 40
1.0
 10
-7.7879834592
 20
-7.5098088392
 30
0.0
 10
-7.7867278154
 20
-5.6985535428
 30
0.0
 10
-7.7846216184
 20
-2.0755219064
 30
0.0
 10
-7.7826770573
 20
3.3597045638
 30
0.0
 10
-7.7821902785
 20
6.983675613
 30
0.0
 10
-7.7821492884
 20
8.7958701776
 30
0.0
 11
-7.7879834592
 21
-7.5098088392
 31
0.0
 11
-7.7848243591
 21
-2.0760425626
 31
0.0
 11
-7.7828796025
 21
3.3592865316
 31
0.0
 11
-7.7821492884
 21
8.7958701776
 31
0.0
  0
SPLINE
  5
2C8
100
AcDbEntity
  8
ASSI
100
AcDbSpline
 62
253
  6
CONTINUOUS
 70
0
 71
3
 72
10
 73
6
 74
4
 42
0.0000001
 43
0.0000001
 44
0.0000000001
 12
0.0003688186
 22
-16.3056803279
 32
0.0
 13
0.0113038293
 23
-16.3056764139
 33
0.0
 40
0.0
 40
0.0
 40
0.0
 40
0.0
 40
0.3334165508
 40
0.6667561804
 40
1.0
 40
1.0
 40
1.0
 40
1.0
 10
41.616975955
 20
8.7958701776
 30
0.0
 10
41.6170169451
 20
6.983675613
 30
0.0
 10
41.617503724
 20
3.3597045638
 30
0.0
 10
41.6194482851
 20
-2.0755219064
 30
0.0
 10
41.6215544821
 20
-5.6985535428
 30
0.0
 10
41.6228101259
 20
-7.5098088392
 30
0.0
 11
41.616975955
 21
8.7958701776
 31
0.0
 11
41.6177062692
 21
3.3592865315
 31
0.0
 11
41.6196510258
 21
-2.0760425627
 31
0.0
 11
41.6228101259
 21
-7.5098088392
 31
0.0
  0
SPLINE
  5
2C9
100
AcDbEntity
  8
ASSI
100
AcDbSpline
 62
253
  6
CONTINUOUS
 70
0
 71
3
 72
13
 73
9
 74
7
 42
0.0000001
 43
0.0000001
 44
0.0000000001
 12
0.0004945741
 22
-0.70900082
 32
0.0
 13
0.0697988838
 23
-0.7055568887
 33
0.0
 40
0.0
 40
0.0
 40
0.0
 40
0.0
 40
0.2349546469
 40
0.4572235516
 40
0.6540842441
 40
0.8152423778
 40
0.9325818039
 40
1.0
 40
1.0
 40
1.0
 40
1.0
 10
41.6228101259
 20
-7.5098088392
 30
0.0
 10
41.62284886
 20
-7.5653365183
 30
0.0
 10
41.6231329811
 20
-7.6733934584
 30
0.0
 10
41.6241651357
 20
-7.8279739804
 30
0.0
 10
41.6257897027
 20
-7.9651026123
 30
0.0
 10
41.6277503142
 20
-8.077440202
 30
0.0
 10
41.6302481496
 20
-8.1591338975
 30
0.0
 10
41.6320492601
 20
-8.2027953346
 30
0.0
 10
41.6336178317
 20
-8.2186511255
 30
0.0
 11
41.6228101259
 21
-7.5098088392
 31
0.0
 11
41.623256362
 21
-7.6763913194
 31
0.0
 11
41.6243492191
 21
-7.833976404
 31
0.0
 11
41.6260330708
 21
-7.9735406729
 31
0.0
 11
41.6282198102
 21
-8.0877810227
 31
0.0
 11
41.6307969875
 21
-8.1709348648
 31
0.0
 11
41.6336178317
 21
-8.2186511255
 31
0.0
  0
SPLINE
  5
2CA
100
AcDbEntity
  8
ASSI
100
AcDbSpline
 62
253
  6
CONTINUOUS
 70
0
 71
3
 72
11
 73
7
 74
5
 42
0.0000001
 43
0.0000001
 44
0.0000000001
 12
0.1007369386
 22
-0.2292793414
 32
0.0
 13
0.2504334585
 23
-0.0001733463
 33
0.0
 40
0.0
 40
0.0
 40
0.0
 40
0.0
 40
0.0822915138
 40
0.3001698803
 40
0.6219901227
 40
1.0
 40
1.0
 40
1.0
 40
1.0
 10
-7.7879834592
 20
-7.5098088392
 30
0.0
 10
-7.7852201941
 20
-7.5160980873
 30
0.0
 10
-7.7516359408
 20
-7.5099741129
 30
0.0
 10
-7.7072536516
 20
-7.5200510515
 30
0.0
 10
-7.6269504191
 20
-7.5181911432
 30
0.0
 10
-7.5695769757
 20
-7.5197081732
 30
0.0
 10
-7.5380215354
 20
-7.5197300154
 30
0.0
 11
-7.7879834592
 21
-7.5098088392
 31
0.0
 11
-7.7677203005
 21
-7.5135660815
 31
0.0
 11
-7.7132500354
 21
-7.5167637888
 31
0.0
 11
-7.6326844625
 21
-7.5189257536
 31
0.0
 11
-7.5380215354
 21
-7.5197300154
 31
0.0
  0
SPLINE
  5
2CB
100
AcDbEntity
  8
ASSI
100
AcDbSpline
 62
253
  6
CONTINUOUS
 70
0
 71
3
 72
11
 73
7
 74
5
 42
0.0000001
 43
0.0000001
 44
0.0000000001
 12
-0.0011902476
 22
-0.3868382125
 32
0.0
 13
-0.3868383202
 23
-0.0011547052
 33
0.0
 40
0.0
 40
0.0
 40
0.0
 40
0.0
 40
0.2481496306
 40
0.4975322026
 40
0.7483586169
 40
1.0
 40
1.0
 40
1.0
 40
1.0
 10
41.6336178317
 20
-8.2186511255
 30
0.0
 10
41.6335193786
 20
-8.2506490453
 30
0.0
 10
41.6202745881
 20
-8.3154712755
 30
0.0
 10
41.5644741404
 20
-8.3971672674
 30
0.0
 10
41.481543805
 20
-8.4518468456
 30
0.0
 10
41.4161040846
 20
-8.4647562065
 30
0.0
 10
41.383655908
 20
-8.4648530637
 30
0.0
 11
41.6336178317
 21
-8.2186511255
 31
0.0
 11
41.614373656
 21
-8.3126965975
 31
0.0
 11
41.5601384607
 21
-8.3924789845
 31
0.0
 11
41.4791376406
 21
-8.4458983631
 31
0.0
 11
41.383655908
 21
-8.4648530637
 31
0.0
  0
SPLINE
  5
2CC
100
AcDbEntity
  8
ASSI
100
AcDbSpline
 62
253
  6
CONTINUOUS
 70
0
 71
3
 72
11
 73
7
 74
5
 42
0.0000001
 43
0.0000001
 44
0.0000000001
 12
-0.1010171715
 22
-0.2291558723
 32
0.0
 13
-0.2504333298
 23
-0.0001733233
 33
0.0
 40
0.0
 40
0.0
 40
0.0
 40
0.0
 40
0.0823072754
 40
0.3001894412
 40
0.6220029553
 40
1.0
 40
1.0
 40
1.0
 40
1.0
 10
41.6228101254
 20
-7.5098088392
 30
0.0
 10
41.6200386427
 20
-7.5160959044
 30
0.0
 10
41.5864690104
 20
-7.5099769024
 30
0.0
 10
41.5420707823
 20
-7.5200485376
 30
0.0
 10
41.4617764983
 20
-7.5181912806
 30
0.0
 10
41.404402555
 20
-7.5197074677
 30
0.0
 10
41.3728482021
 20
-7.5197293063
 30
0.0
 11
41.6228101254
 21
-7.5098088392
 31
0.0
 11
41.6025429219
 21
-7.5135658598
 31
0.0
 11
41.548071718
 21
-7.5167633322
 31
0.0
 11
41.4675078674
 21
-7.518925118
 31
0.0
 11
41.3728482021
 21
-7.5197293063
 31
0.0
  0
SPLINE
  5
2CD
100
AcDbEntity
  8
ASSI
100
AcDbSpline
 62
253
  6
CONTINUOUS
 70
0
 71
3
 72
13
 73
9
 74
7
 42
0.0000001
 43
0.0000001
 44
0.0000000001
 12
0.0699882761
 22
0.9426474571
 32
0.0
 13
0.0004959778
 23
0.9452419485
 33
0.0
 40
0.0
 40
0.0
 40
0.0
 40
0.0
 40
0.0677746619
 40
0.1851024079
 40
0.3460109671
 40
0.5423277437
 40
0.7640908415
 40
1.0
 40
1.0
 40
1.0
 40
1.0
 10
-7.5488292413
 20
-8.4648530637
 30
0.0
 10
-7.5472480974
 20
-8.4435571928
 30
0.0
 10
-7.5454561119
 20
-8.3852364982
 30
0.0
 10
-7.5429556408
 20
-8.2762588265
 30
0.0
 10
-7.541001833
 20
-8.1267403161
 30
0.0
 10
-7.5393793441
 20
-7.944321951
 30
0.0
 10
-7.538345611
 20
-7.7382638305
 30
0.0
 10
-7.5380605373
 20
-7.5940604263
 30
0.0
 10
-7.5380215354
 20
-7.5197300154
 30
0.0
 11
-7.5488292413
 21
-8.4648530637
 31
0.0
 11
-7.5459967469
 21
-8.4008522498
 31
0.0
 11
-7.5434244193
 21
-8.2899789631
 31
0.0
 11
-7.5412429154
 21
-8.1378970674
 31
0.0
 11
-7.539563266
 21
-7.9523377912
 31
0.0
 11
-7.5384708888
 21
-7.742720826
 31
0.0
 11
-7.5380215354
 21
-7.5197300154
 31
0.0
  0
SPLINE
  5
2CE
100
AcDbEntity
  8
ASSI
100
AcDbSpline
 62
253
  6
CONTINUOUS
 70
0
 71
3
 72
13
 73
9
 74
7
 42
0.0000001
 43
0.0000001
 44
0.0000000001
 12
0.0004959778
 22
-0.9452419485
 32
0.0
 13
0.0699882762
 23
-0.9426474571
 33
0.0
 40
0.0
 40
0.0
 40
0.0
 40
0.0
 40
0.2359091585
 40
0.4576722563
 40
0.6539890329
 40
0.8148975921
 40
0.9322253381
 40
1.0
 40
1.0
 40
1.0
 40
1.0
 10
41.3728482021
 20
-7.5197300154
 30
0.0
 10
41.372887204
 20
-7.5940604263
 30
0.0
 10
41.3731722777
 20
-7.7382638305
 30
0.0
 10
41.3742060107
 20
-7.944321951
 30
0.0
 10
41.3758284996
 20
-8.1267403161
 30
0.0
 10
41.3777823074
 20
-8.2762588265
 30
0.0
 10
41.3802827786
 20
-8.3852364982
 30
0.0
 10
41.382074764
 20
-8.4435571928
 30
0.0
 10
41.383655908
 20
-8.4648530637
 30
0.0
 11
41.3728482021
 21
-7.5197300154
 31
0.0
 11
41.3732975555
 21
-7.742720826
 31
0.0
 11
41.3743899327
 21
-7.9523377912
 31
0.0
 11
41.3760695821
 21
-8.1378970674
 31
0.0
 11
41.3782510859
 21
-8.2899789631
 31
0.0
 11
41.3808234136
 21
-8.4008522498
 31
0.0
 11
41.383655908
 21
-8.4648530637
 31
0.0
  0
SPLINE
  5
2CF
100
AcDbEntity
  8
ASSI
100
AcDbSpline
 62
7
  6
CONTINUOUS
 70
0
 71
3
 72
23
 73
19
 74
17
 42
0.0000001
 43
0.0000001
 44
0.0000000001
 12
7.5210108386
 22
0.0
 32
0.0
 13
-7.5210108386
 23
0.0
 33
0.0
 40
0.0
 40
0.0
 40
0.0
 40
0.0
 40
0.0624210691
 40
0.1250668291
 40
0.1877085537
 40
0.2502426162
 40
0.3126580811
 40
0.375033084
 40
0.4374882969
 40
0.4999874489
 40
0.5624840907
 40
0.6249329898
 40
0.6873043998
 40
0.7497224853
 40
0.8122618028
 40
0.8749063057
 40
0.9375498451
 40
1.0
 40
1.0
 40
1.0
 40
1.0
 10
16.9174133333
 20
7.1387829436
 30
0.0
 10
17.0739031791
 20
7.1387829436
 30
0.0
 10
17.3882999895
 20
7.1081046863
 30
0.0
 10
17.8416259272
 20
6.9714985142
 30
0.0
 10
18.2601433877
 20
6.74911946
 30
0.0
 10
18.6268130911
 20
6.4498268262
 30
0.0
 10
18.9276685773
 20
6.0852922148
 30
0.0
 10
19.1514620053
 20
5.6691959159
 30
0.0
 10
19.2895422484
 20
5.2171194885
 30
0.0
 10
19.3362524999
 20
4.7464202648
 30
0.0
 10
19.2896024011
 20
4.2757311021
 30
0.0
 10
19.1515876064
 20
3.8236674974
 30
0.0
 10
18.9278514079
 20
3.407560829
 30
0.0
 10
18.6270227128
 20
3.0429888378
 30
0.0
 10
18.2603506505
 20
2.7436551888
 30
0.0
 10
17.8418302564
 20
2.5212497543
 30
0.0
 10
17.3884413041
 20
2.3845973275
 30
0.0
 10
17.0739760973
 20
2.353901802
 30
0.0
 10
16.9174133333
 20
2.353901802
 30
0.0
 11
16.9174133333
 21
7.1387829436
 31
0.0
 11
17.3846577667
 21
7.0931289617
 31
0.0
 11
17.8357849881
 21
6.9572045418
 31
0.0
 11
18.2518049203
 21
6.7360936312
 31
0.0
 11
18.6161362841
 21
6.4386663972
 31
0.0
 11
18.9149067853
 21
6.0765914598
 31
0.0
 11
19.1370887207
 21
5.6634188018
 31
0.0
 11
19.2742788854
 21
5.2141731157
 31
0.0
 11
19.3206886368
 21
4.7464129956
 31
0.0
 11
19.2743378789
 21
4.2786659982
 31
0.0
 11
19.1372168153
 21
3.8294488644
 31
0.0
 11
18.9150959306
 21
3.416274062
 31
0.0
 11
18.6163473525
 21
3.054155484
 31
0.0
 11
18.2520050349
 21
2.7566791716
 31
0.0
 11
17.8359774455
 21
2.5355381455
 31
0.0
 11
17.384873933
 21
2.3995929321
 31
0.0
 11
16.9174133333
 21
2.353901802
 31
0.0
  0
SPLINE
  5
2D0
100
AcDbEntity
  8
ASSI
100
AcDbSpline
 62
7
  6
CONTINUOUS
 70
0
 71
3
 72
23
 73
19
 74
17
 42
0.0000001
 43
0.0000001
 44
0.0000000001
 12
-7.5210108384
 22
0.0
 32
0.0
 13
7.5210108384
 23
0.0
 33
0.0
 40
0.0
 40
0.0
 40
0.0
 40
0.0
 40
0.0624209979
 40
0.1250661527
 40
0.1877064011
 40
0.2502381184
 40
0.3126507247
 40
0.3750229581
 40
0.4374761557
 40
0.4999745699
 40
0.5624719486
 40
0.6249228621
 40
0.6872970413
 40
0.7497179858
 40
0.8122596493
 40
0.8749056289
 40
0.9375497737
 40
1.0
 40
1.0
 40
1.0
 40
1.0
 10
16.9174133333
 20
2.353901802
 30
0.0
 10
16.7609236661
 20
2.353901802
 30
0.0
 10
16.4465287435
 20
2.3845759628
 30
0.0
 10
15.9932038668
 20
2.5211650348
 30
0.0
 10
15.5746860858
 20
2.7435191881
 30
0.0
 10
15.2080149486
 20
3.0427836194
 30
0.0
 10
14.9071578187
 20
3.4072913039
 30
0.0
 10
14.6833634442
 20
3.8233657605
 30
0.0
 10
14.5452833881
 20
4.2754280977
 30
0.0
 10
14.4985741665
 20
4.7461224669
 30
0.0
 10
14.5452252952
 20
5.2168164775
 30
0.0
 10
14.6832402776
 20
5.6688941662
 30
0.0
 10
14.9069755305
 20
6.0850226725
 30
0.0
 10
15.2078025816
 20
6.4496215899
 30
0.0
 10
15.5744732093
 20
6.7489834447
 30
0.0
 10
15.9929932826
 20
6.9714137844
 30
0.0
 10
16.4463832948
 20
7.1080833184
 30
0.0
 10
16.7608503905
 20
7.1387829436
 30
0.0
 10
16.9174133333
 20
7.1387829436
 30
0.0
 11
16.9174133333
 21
2.353901802
 31
0.0
 11
16.4501689
 21
2.3995502733
 31
0.0
 11
15.9990416785
 21
2.5354589152
 31
0.0
 11
15.5830217464
 21
2.7565461699
 31
0.0
 11
15.2186903826
 21
3.053945511
 31
0.0
 11
14.9199198814
 21
3.415992574
 31
0.0
 11
14.697737946
 21
3.8291415816
 31
0.0
 11
14.5605477813
 21
4.2783714198
 31
0.0
 11
14.5141380299
 21
4.7461259637
 31
0.0
 11
14.5604887877
 21
5.2138785303
 31
0.0
 11
14.6976098513
 21
5.6631115045
 31
0.0
 11
14.9197307361
 21
6.0763099528
 31
0.0
 11
15.2184793142
 21
6.4384564061
 31
0.0
 11
15.5828216318
 21
6.735960616
 31
0.0
 11
15.9988492212
 21
6.9571253026
 31
0.0
 11
16.4499527337
 21
7.0930862978
 31
0.0
 11
16.9174133333
 21
7.1387829436
 31
0.0
  0
SPLINE
  5
2D1
100
AcDbEntity
  8
RACCORDO
100
AcDbSpline
 62
253
  6
CONTINUOUS
 70
0
 71
3
 72
12
 73
8
 74
6
 42
0.0000001
 43
0.0000001
 44
0.0000000001
 12
-0.0043623064
 22
0.2499925102
 32
0.0
 13
0.2499924871
 23
0.0043636351
 33
0.0
 40
0.0
 40
0.0
 40
0.0
 40
0.0
 40
0.3098605754
 40
0.5892143267
 40
0.8103234085
 40
0.9518389381
 40
1.0
 40
1.0
 40
1.0
 40
1.0
 10
-27.2133779957
 20
8.7958701775
 30
0.0
 10
-27.2138285646
 20
8.8216911185
 30
0.0
 10
-27.2149380405
 20
8.8712605943
 30
0.0
 10
-27.2140742503
 20
8.9369917863
 30
0.0
 10
-27.2179111232
 20
8.9950964961
 30
0.0
 10
-27.2103690877
 20
9.0205898196
 30
0.0
 10
-27.2173912969
 20
9.0457620489
 30
0.0
 10
-27.2133779957
 20
9.0458321013
 30
0.0
 11
-27.2133779957
 21
8.7958701775
 31
0.0
 11
-27.214514946
 21
8.8733364503
 31
0.0
 11
-27.2151103374
 21
8.9431808897
 31
0.0
 11
-27.2151057442
 21
8.9984649188
 31
0.0
 11
-27.2145025053
 21
9.0338429844
 31
0.0
 11
-27.2133779957
 21
9.0458321013
 31
0.0
  0
SPLINE
  5
2D2
100
AcDbEntity
  8
RACCORDO
100
AcDbSpline
 62
253
  6
CONTINUOUS
 70
0
 71
3
 72
11
 73
7
 74
5
 42
0.0000001
 43
0.0000001
 44
0.0000000001
 12
-0.043284155
 22
-0.2455514343
 32
0.0
 13
0.2455491794
 23
-0.0432969454
 33
0.0
 40
0.0
 40
0.0
 40
0.0
 40
0.0
 40
0.3827689144
 40
0.7070452522
 40
0.9236831912
 40
1.0
 40
1.0
 40
1.0
 40
1.0
 10
-26.2599655154
 20
-8.2186511255
 30
0.0
 10
-26.265488125
 20
-8.2499809441
 30
0.0
 10
-26.2735919486
 20
-8.3062678983
 30
0.0
 10
-26.2928710001
 20
-8.3877007163
 30
0.0
 10
-26.287389033
 20
-8.4271581637
 30
0.0
 10
-26.3052609681
 20
-8.4637516355
 30
0.0
 10
-26.2990144582
 20
-8.4648530637
 30
0.0
 11
-26.2599655154
 21
-8.2186511255
 31
0.0
 11
-26.2762123606
 21
-8.3126965975
 31
0.0
 11
-26.2893334678
 21
-8.3924789845
 31
0.0
 11
-26.2973388694
 21
-8.4458983631
 31
0.0
 11
-26.2990144582
 21
-8.4648530637
 31
0.0
  0
SPLINE
  5
2D3
100
AcDbEntity
  8
ASSI
100
AcDbSpline
 62
253
  6
CONTINUOUS
 70
0
 71
3
 72
12
 73
8
 74
6
 42
0.0000001
 43
0.0000001
 44
0.0000000001
 12
-0.0043623064
 22
0.2499925102
 32
0.0
 13
0.2499924871
 23
0.0043636351
 33
0.0
 40
0.0
 40
0.0
 40
0.0
 40
0.0
 40
0.3098605754
 40
0.5892143267
 40
0.8103234085
 40
0.9518389381
 40
1.0
 40
1.0
 40
1.0
 40
1.0
 10
-27.2133779957
 20
8.7958701775
 30
0.0
 10
-27.2138285646
 20
8.8216911185
 30
0.0
 10
-27.2149380405
 20
8.8712605943
 30
0.0
 10
-27.2140742503
 20
8.9369917863
 30
0.0
 10
-27.2179111232
 20
8.9950964961
 30
0.0
 10
-27.2103690877
 20
9.0205898196
 30
0.0
 10
-27.2173912969
 20
9.0457620489
 30
0.0
 10
-27.2133779957
 20
9.0458321013
 30
0.0
 11
-27.2133779957
 21
8.7958701775
 31
0.0
 11
-27.214514946
 21
8.8733364503
 31
0.0
 11
-27.2151103374
 21
8.9431808897
 31
0.0
 11
-27.2151057442
 21
8.9984649188
 31
0.0
 11
-27.2145025053
 21
9.0338429844
 31
0.0
 11
-27.2133779957
 21
9.0458321013
 31
0.0
  0
SPLINE
  5
2D4
100
AcDbEntity
  8
ASSI
100
AcDbSpline
 62
253
  6
CONTINUOUS
 70
0
 71
3
 72
11
 73
7
 74
5
 42
0.0000001
 43
0.0000001
 44
0.0000000001
 12
-0.043284155
 22
-0.2455514343
 32
0.0
 13
0.2455491794
 23
-0.0432969454
 33
0.0
 40
0.0
 40
0.0
 40
0.0
 40
0.0
 40
0.3827689144
 40
0.7070452522
 40
0.9236831912
 40
1.0
 40
1.0
 40
1.0
 40
1.0
 10
-26.2599655154
 20
-8.2186511255
 30
0.0
 10
-26.265488125
 20
-8.2499809441
 30
0.0
 10
-26.2735919486
 20
-8.3062678983
 30
0.0
 10
-26.2928710001
 20
-8.3877007163
 30
0.0
 10
-26.287389033
 20
-8.4271581637
 30
0.0
 10
-26.3052609681
 20
-8.4637516355
 30
0.0
 10
-26.2990144582
 20
-8.4648530637
 30
0.0
 11
-26.2599655154
 21
-8.2186511255
 31
0.0
 11
-26.2762123606
 21
-8.3126965975
 31
0.0
 11
-26.2893334678
 21
-8.3924789845
 31
0.0
 11
-26.2973388694
 21
-8.4458983631
 31
0.0
 11
-26.2990144582
 21
-8.4648530637
 31
0.0
  0
ELLIPSE
  5
2D5
100
AcDbEntity
  8
RACCORDO
100
AcDbEllipse
 62
7
  6
CONTINUOUS
 10
-7.8808411602
 20
8.1887134638
 30
0.0
 11
-0.0
 21
0.3
 31
0.0
 40
0.0174550649
 41
-3.1241393611
 42
-1.5707963268
  0
ELLIPSE
  5
2D6
100
AcDbEntity
  8
RACCORDO
100
AcDbEllipse
 62
7
  6
CONTINUOUS
 10
41.7156678268
 20
8.1887134638
 30
0.0
 11
0.0
 21
0.3
 31
0.0
 40
0.0174550649
 41
-4.7123889804
 42
-3.1590459461
  0
ELLIPSE
  5
2D7
100
AcDbEntity
  8
RACCORDO
100
AcDbEllipse
 62
7
  6
CONTINUOUS
 10
-7.6255665587
 20
8.8892493717
 30
0.0
 11
-0.1768305473
 21
0.1768305473
 31
0.0
 40
0.9996954599
 41
-0.7852458702
 42
0.7852458701
  0
ELLIPSE
  5
2D8
100
AcDbEntity
  8
RACCORDO
100
AcDbEllipse
 62
7
  6
CONTINUOUS
 10
41.4603932254
 20
8.8892493717
 30
0.0
 11
0.1768305473
 21
0.1768305473
 31
0.0
 40
0.9996954599
 41
-0.7852458701
 42
0.7852458702
  0
ELLIPSE
  5
2D9
100
AcDbEntity
  8
RACCORDO
100
AcDbEllipse
 62
7
  6
CONTINUOUS
 10
41.4538822434
 20
-9.0969750106
 30
0.0
 11
0.2183310446
 21
0.1221043275
 31
0.0
 40
0.9980297029
 41
-2.0815635429
 42
-0.5109195152
  0
ELLIPSE
  5
2DA
100
AcDbEntity
  8
RACCORDO
100
AcDbEllipse
 62
7
  6
CONTINUOUS
 10
-7.6190555767
 20
-9.0969750106
 30
0.0
 11
0.2183310446
 21
-0.1221043275
 31
0.0
 40
0.9980297029
 41
-2.6306731384
 42
-1.0600291107
  0
ELLIPSE
  5
2DB
100
AcDbEntity
  8
RACCORDO
100
AcDbEllipse
 62
7
  6
CONTINUOUS
 10
-7.6063659873
 20
-8.7998738674
 30
0.0
 11
0.0250113895
 21
0.2526592035
 31
0.0
 40
0.9846622838
 41
-4.6121910857
 42
-3.0444253421
  0
ELLIPSE
  5
2DC
100
AcDbEntity
  8
RACCORDO
100
AcDbEllipse
 62
7
  6
CONTINUOUS
 10
-7.6063659873
 20
-9.0906306991
 30
0.0
 11
0.2236527791
 21
0.1118178731
 31
0.0
 40
0.9998096356
 41
2.6780516535
 42
4.2486956813
  0
ELLIPSE
  5
2DD
100
AcDbEntity
  8
RACCORDO
100
AcDbEllipse
 62
7
  6
CONTINUOUS
 10
41.4411926539
 20
-9.0906306991
 30
0.0
 11
0.2236527791
 21
-0.1118178731
 31
0.0
 40
0.9998096356
 41
-1.1071030277
 42
0.4635410001
  0
ELLIPSE
  5
2DE
100
AcDbEntity
  8
RACCORDO
100
AcDbEllipse
 62
7
  6
CONTINUOUS
 10
41.4411926539
 20
-8.7998738674
 30
0.0
 11
-0.0250113895
 21
0.2526592035
 31
0.0
 40
0.9846622838
 41
-3.2387599651
 42
-1.6709942215
  0
ELLIPSE
  5
2DF
100
AcDbEntity
  8
ASSI
100
AcDbEllipse
 62
7
  6
CONTINUOUS
 10
-7.8808411602
 20
8.1887134638
 30
0.0
 11
-0.0
 21
0.3
 31
0.0
 40
0.0174550649
 41
-3.1241393611
 42
-1.5707963268
  0
ELLIPSE
  5
2E0
100
AcDbEntity
  8
ASSI
100
AcDbEllipse
 62
7
  6
CONTINUOUS
 10
41.7156678268
 20
8.1887134638
 30
0.0
 11
0.0
 21
0.3
 31
0.0
 40
0.0174550649
 41
-4.7123889804
 42
-3.1590459461
  0
ELLIPSE
  5
2E1
100
AcDbEntity
  8
ASSI
100
AcDbEllipse
 62
7
  6
CONTINUOUS
 10
-7.6255665587
 20
8.8892493717
 30
0.0
 11
-0.1768305473
 21
0.1768305473
 31
0.0
 40
0.9996954599
 41
-0.7852458702
 42
0.7852458701
  0
ELLIPSE
  5
2E2
100
AcDbEntity
  8
ASSI
100
AcDbEllipse
 62
7
  6
CONTINUOUS
 10
41.4603932254
 20
8.8892493717
 30
0.0
 11
0.1768305473
 21
0.1768305473
 31
0.0
 40
0.9996954599
 41
-0.7852458701
 42
0.7852458702
  0
ELLIPSE
  5
2E3
100
AcDbEntity
  8
ASSI
100
AcDbEllipse
 62
7
  6
CONTINUOUS
 10
41.4538822434
 20
-9.0969750106
 30
0.0
 11
0.2183310446
 21
0.1221043275
 31
0.0
 40
0.9980297029
 41
-2.0815635429
 42
-0.5109195152
  0
ELLIPSE
  5
2E4
100
AcDbEntity
  8
ASSI
100
AcDbEllipse
 62
7
  6
CONTINUOUS
 10
-7.6190555767
 20
-9.0969750106
 30
0.0
 11
0.2183310446
 21
-0.1221043275
 31
0.0
 40
0.9980297029
 41
-2.6306731384
 42
-1.0600291107
  0
ELLIPSE
  5
2E5
100
AcDbEntity
  8
ASSI
100
AcDbEllipse
 62
7
  6
CONTINUOUS
 10
-7.6063659873
 20
-8.7998738674
 30
0.0
 11
0.0250113895
 21
0.2526592035
 31
0.0
 40
0.9846622838
 41
-4.6121910857
 42
-3.0444253421
  0
ELLIPSE
  5
2E6
100
AcDbEntity
  8
ASSI
100
AcDbEllipse
 62
7
  6
CONTINUOUS
 10
-7.6063659873
 20
-9.0906306991
 30
0.0
 11
0.2236527791
 21
0.1118178731
 31
0.0
 40
0.9998096356
 41
2.6780516535
 42
4.2486956813
  0
ELLIPSE
  5
2E7
100
AcDbEntity
  8
ASSI
100
AcDbEllipse
 62
7
  6
CONTINUOUS
 10
41.4411926539
 20
-9.0906306991
 30
0.0
 11
0.2236527791
 21
-0.1118178731
 31
0.0
 40
0.9998096356
 41
-1.1071030277
 42
0.4635410001
  0
ELLIPSE
  5
2E8
100
AcDbEntity
  8
ASSI
100
AcDbEllipse
 62
7
  6
CONTINUOUS
 10
41.4411926539
 20
-8.7998738674
 30
0.0
 11
-0.0250113895
 21
0.2526592035
 31
0.0
 40
0.9846622838
 41
-3.2387599651
 42
-1.6709942215
  0
ENDSEC
  0
SECTION
  2
OBJECTS
  0
DICTIONARY
  5
C
100
AcDbDictionary
280
0
281
1
  3
ACAD_GROUP
350
D
  3
ACAD_MLINESTYLE
350
17
  3
ACAD_LAYOUT
350
1A
  3
ACAD_PLOTSETTINGS
350
19
  3
ACAD_PLOTSTYLENAME
350
E
  0
DICTIONARY
  5
D
102
{ACAD_REACTORS
330
C
102
}
100
AcDbDictionary
280
0
281
1
  0
ACDBDICTIONARYWDFLT
  5
E
102
{ACAD_REACTORS
330
C
102
}
100
AcDbDictionary
281
1
  3
Normal
350
F
100
AcDbDictionaryWithDefault
340
F
  0
DICTIONARY
  5
17
102
{ACAD_REACTORS
330
C
102
}
100
AcDbDictionary
280
0
281
1
  3
Standard
350
18
  0
DICTIONARY
  5
19
102
{ACAD_REACTORS
330
C
102
}
100
AcDbDictionary
281
1
  0
DICTIONARY
  5
1A
102
{ACAD_REACTORS
330
C
102
}
100
AcDbDictionary
281
1
  3
Model
350
2E9
  3
Layout1
350
2EA
  0
ACDBPLACEHOLDER
  5
F
102
{ACAD_REACTORS
330
E
102
}
  0
MLINESTYLE
  5
18
102
{ACAD_REACTORS
330
17
102
}
100
AcDbMlineStyle
  2
STANDARD
 70
0
  3

 62
256
 51
90.0
 52
90.0
 71
2
 49
0.5
 62
256
  6
BYLAYER
 49
-0.5
 62
256
  6
BYLAYER
  0
LAYOUT
  5
2E9
102
{ACAD_REACTORS
330
1A
102
}
100
AcDbPlotSettings
  1

  2
none_device
  4
ISO_A4_(297.00_x_210.00_MM)
  6

 40
0.0
 41
0.0
 42
0.0
 43
0.0
 44
297.0
 45
210.0
 46
0.0
 47
0.0
 48
0.0
 49
0.0
140
0.0
141
0.0
142
1.0
143
1.0
 70
1024
 72
1
 73
0
 74
0
  7

 75
0
147
1.0
148
0.0
149
0.0
100
AcDbLayout
  1
Model
 70
0
 71
0
 10
0.0
 20
0.0
 11
297.0
 21
210.0
 12
0.0
 22
0.0
 32
0.0
 14
0.0
 24
0.0
 34
0.0
 15
0.0
 25
0.0
 35
0.0
146
0.0
 13
0.0
 23
0.0
 33
0.0
 16
1.0
 26
0.0
 36
0.0
 17
0.0
 27
1.0
 37
0.0
 76
0
330
211
345
0
346
0
  0
LAYOUT
  5
2EA
102
{ACAD_REACTORS
330
1A
102
}
100
AcDbPlotSettings
  1

  2
none_device
  4
ISO_A4_(297.00_x_210.00_MM)
  6

 40
0.0
 41
0.0
 42
0.0
 43
0.0
 44
297.0
 45
210.0
 46
0.0
 47
0.0
 48
0.0
 49
0.0
140
0.0
141
0.0
142
1.0
143
1.0
 70
0
 72
1
 73
0
 74
0
  7

 75
0
147
1.0
148
0.0
149
0.0
100
AcDbLayout
  1
Layout1
 70
0
 71
1
 10
0.0
 20
0.0
 11
297.0
 21
210.0
 12
0.0
 22
0.0
 32
0.0
 14
0.0
 24
0.0
 34
0.0
 15
0.0
 25
0.0
 35
0.0
146
0.0
 13
0.0
 23
0.0
 33
0.0
 16
1.0
 26
0.0
 36
0.0
 17
0.0
 27
1.0
 37
0.0
 76
0
330
212
345
0
346
0
  0
ENDSEC
  0
EOF
