  0
SECTION
  2
HEADER
  9
$ACADVER
  1
AC1015
  9
$DWGCODEPAGE
  3
ANSI_1252
  9
$EXTMAX
 10
297.0
 20
210.0
 30
0.0
  9
$EXTMIN
 10
0.0
 20
0.0
 30
0.0
  9
$LIMMIN
 10
0.0
 20
0.0
  9
$LIMMAX
 10
297.0
 20
210.0
  9
$VIEWCTR
 10
148.5
 20
105.0
  9
$VIEWSIZE
 40
210.0
  9
$CLAYER
  8
0
  9
$LTSCALE
 40
16.335
  9
$CELTYPE
  6
BYLAYER
  9
$DIMSCALE
 40
1.0
  9
$DIMASZ
 40
3.0
  9
$DIMEXO
 40
1.85625
  9
$DIMDLI
 40
11.286
  9
$DIMEXE
 40
5.346
  9
$DIMCEN
 40
2.673
  9
$DIMLFAC
 40
1.0
  9
$DIMBLK
  1
_FILLED
  9
$DIMTXT
 40
3.0
  9
$DIMTOL
 70
1
  9
$DIMLIM
 70
0
  9
$DIMTFAC
 40
1.0
  9
$DIMTP
 40
0.01
  9
$DIMTM
 40
0.01
  9
$PDMODE
 70
3
  9
$PDSIZE
 40
3.0
  9
$HANDSEED
  5
2F1
  9
$TILEMODE
 70
1
  9
$MEASUREMENT
 70
1
  9
$INSUNITS
 70
4
  0
ENDSEC
  0
SECTION
  2
CLASSES
  0
CLASS
  1
ACDBDICTIONARYWDFLT
  2
AcDbDictionaryWithDefault
  3
AutoCAD 2000
 90
0
280
0
281
0
  0
CLASS
  1
ACDBPLACEHOLDER
  2
AcDbPlaceHolder
  3
AutoCAD 2000
 90
0
280
0
281
0
  0
CLASS
  1
LAYOUT
  2
AcDbLayout
  3
AutoCAD 2000
 90
0
280
0
281
0
  0
ENDSEC
  0
SECTION
  2
TABLES
  0
TABLE
  2
VPORT
  5
8
100
AcDbSymbolTable
 70
2
  0
VPORT
  5
1F4
100
AcDbSymbolTableRecord
100
AcDbViewportTableRecord
  2
*ACTIVE
 70
0
 10
0.0
 20
0.0
 11
1.0
 21
1.0
 12
148.5
 22
105.0
 13
0.0
 23
0.0
 14
1.0
 24
1.0
 15
0.0
 25
0.0
 16
0.0
 26
0.0
 36
1.0
 17
0.0
 27
0.0
 37
0.0
 40
210.0
 41
1.4142857143
 42
50.0
 43
0.0
 44
0.0
 50
0.0
 51
0.0
 71
0
 72
100
 73
1
 74
1
 75
0
 76
0
 77
0
 78
0
  0
ENDTAB
  0
TABLE
  2
LTYPE
  5
5
100
AcDbSymbolTable
 70
6
  0
LTYPE
  5
14
100
AcDbSymbolTableRecord
100
AcDbLinetypeTableRecord
  2
BYBLOCK
 70
0
  3

 72
65
 73
0
 40
0.0
  0
LTYPE
  5
15
100
AcDbSymbolTableRecord
100
AcDbLinetypeTableRecord
  2
BYLAYER
 70
0
  3

 72
65
 73
0
 40
0.0
  0
LTYPE
  5
16
100
AcDbSymbolTableRecord
100
AcDbLinetypeTableRecord
  2
CONTINUOUS
 70
64
  3
Solid line
 72
65
 73
0
 40
0.0
  0
LTYPE
  5
1F5
100
AcDbSymbolTableRecord
100
AcDbLinetypeTableRecord
  2
CENTER
 70
64
  3
____ _ ____ _ ____ _ ____ _ ____ _ ____ _ ____
 72
65
 73
4
 40
0.6
 49
0.375
 74
0
 49
-0.075
 74
0
 49
0.075
 74
0
 49
-0.075
 74
0
  0
LTYPE
  5
1F6
100
AcDbSymbolTableRecord
100
AcDbLinetypeTableRecord
  2
HIDDEN
 70
64
  3
- - - - - - - - - - - - - - - - - - - -
 72
65
 73
2
 40
0.2
 49
0.1
 74
0
 49
-0.1
 74
0
  0
LTYPE
  5
1F7
100
AcDbSymbolTableRecord
100
AcDbLinetypeTableRecord
  2
PHANTOM
 70
64
  3
_____ _ _ _____ _ _ _____ _ _ _____
 72
65
 73
6
 40
0.8
 49
0.45
 74
0
 49
-0.05
 74
0
 49
0.1
 74
0
 49
-0.05
 74
0
 49
0.1
 74
0
 49
-0.05
 74
0
  0
LTYPE
  5
1F8
100
AcDbSymbolTableRecord
100
AcDbLinetypeTableRecord
  2
DOT
 70
64
  3
. . . . . . . . . . . . . . . . . . . .
 72
65
 73
2
 40
0.2
 49
0.1
 74
0
 49
-0.1
 74
0
  0
LTYPE
  5
1F9
100
AcDbSymbolTableRecord
100
AcDbLinetypeTableRecord
  2
DASHED
 70
64
  3
- - - - - - - - - - - - - - - - - - - -
 72
65
 73
2
 40
0.2
 49
0.1
 74
0
 49
-0.1
 74
0
  0
ENDTAB
  0
TABLE
  2
LAYER
  5
2
100
AcDbSymbolTable
 70
36
  0
LAYER
  5
10
100
AcDbSymbolTableRecord
100
AcDbLayerTableRecord
  2
0
 70
0
 62
7
  6
CONTINUOUS
370
-3
390
F
  0
LAYER
  5
1FA
100
AcDbSymbolTableRecord
100
AcDbLayerTableRecord
  2
DEFAULT_1
 70
0
 62
7
  6
CENTER
370
-3
390
F
  0
LAYER
  5
1FB
100
AcDbSymbolTableRecord
100
AcDbLayerTableRecord
  2
DEFAULT_2
 70
0
 62
7
  6
HIDDEN
370
-3
390
F
  0
LAYER
  5
1FC
100
AcDbSymbolTableRecord
100
AcDbLayerTableRecord
  2
DEFAULT_3
 70
0
 62
7
  6
PHANTOM
370
-3
390
F
  0
LAYER
  5
1FD
100
AcDbSymbolTableRecord
100
AcDbLayerTableRecord
  2
ASSI
 70
0
 62
7
  6
CONTINUOUS
370
-3
390
F
  0
LAYER
  5
1FE
100
AcDbSymbolTableRecord
100
AcDbLayerTableRecord
  2
COORDINATE
 70
0
 62
7
  6
CONTINUOUS
370
-3
390
F
  0
LAYER
  5
1FF
100
AcDbSymbolTableRecord
100
AcDbLayerTableRecord
  2
COORD_ORIGINE
 70
0
 62
7
  6
CONTINUOUS
370
-3
390
F
  0
LAYER
  5
200
100
AcDbSymbolTableRecord
100
AcDbLayerTableRecord
  2
COPY_PUBLISH
 70
0
 62
7
  6
CONTINUOUS
370
-3
390
F
  0
LAYER
  5
201
100
AcDbSymbolTableRecord
100
AcDbLayerTableRecord
  2
COSMETIC
 70
0
 62
7
  6
CONTINUOUS
370
-3
390
F
  0
LAYER
  5
202
100
AcDbSymbolTableRecord
100
AcDbLayerTableRecord
  2
CURVE
 70
0
 62
7
  6
CONTINUOUS
370
-3
390
F
  0
LAYER
  5
203
100
AcDbSymbolTableRecord
100
AcDbLayerTableRecord
  2
DRAFT
 70
0
 62
7
  6
CONTINUOUS
370
-3
390
F
  0
LAYER
  5
204
100
AcDbSymbolTableRecord
100
AcDbLayerTableRecord
  2
IGES
 70
0
 62
7
  6
CONTINUOUS
370
-3
390
F
  0
LAYER
  5
205
100
AcDbSymbolTableRecord
100
AcDbLayerTableRecord
  2
IMPORT_IGES
 70
0
 62
7
  6
CONTINUOUS
370
-3
390
F
  0
LAYER
  5
206
100
AcDbSymbolTableRecord
100
AcDbLayerTableRecord
  2
INTF_12
 70
0
 62
7
  6
CONTINUOUS
370
-3
390
F
  0
LAYER
  5
207
100
AcDbSymbolTableRecord
100
AcDbLayerTableRecord
  2
NOTE
 70
0
 62
7
  6
CONTINUOUS
370
-3
390
F
  0
LAYER
  5
208
100
AcDbSymbolTableRecord
100
AcDbLayerTableRecord
  2
PIANI
 70
0
 62
7
  6
CONTINUOUS
370
-3
390
F
  0
LAYER
  5
209
100
AcDbSymbolTableRecord
100
AcDbLayerTableRecord
  2
PIANI_ORIGINE
 70
0
 62
7
  6
CONTINUOUS
370
-3
390
F
  0
LAYER
  5
20A
100
AcDbSymbolTableRecord
100
AcDbLayerTableRecord
  2
RACCORDO
 70
0
 62
7
  6
CONTINUOUS
370
-3
390
F
  0
LAYER
  5
20B
100
AcDbSymbolTableRecord
100
AcDbLayerTableRecord
  2
SMUSSO
 70
0
 62
7
  6
CONTINUOUS
370
-3
390
F
  0
LAYER
  5
20C
100
AcDbSymbolTableRecord
100
AcDbLayerTableRecord
  2
SNAPLINE
 70
0
 62
7
  6
CONTINUOUS
370
-3
390
F
  0
LAYER
  5
20D
100
AcDbSymbolTableRecord
100
AcDbLayerTableRecord
  2
SUPERFICI
 70
0
 62
7
  6
CONTINUOUS
370
-3
390
F
  0
LAYER
  5
20E
100
AcDbSymbolTableRecord
100
AcDbLayerTableRecord
  2
TRASH
 70
0
 62
7
  6
CONTINUOUS
370
-3
390
F
  0
ENDTAB
  0
TABLE
  2
STYLE
  5
3
100
AcDbSymbolTable
 70
1
  0
STYLE
  5
11
100
AcDbSymbolTableRecord
100
AcDbTextStyleTableRecord
  2
STANDARD
 70
0
 40
0.0
 41
0.8
 50
0.0
 71
0
 42
0.2
  3
txt
  4

  0
STYLE
  5
20F
100
AcDbSymbolTableRecord
100
AcDbTextStyleTableRecord
  2
TEXTSTYLE_1
 70
0
 40
0.0
 41
0.8
 50
0.0
 71
0
 42
0.2
  3
gdt
  4

  0
ENDTAB
  0
TABLE
  2
VIEW
  5
6
100
AcDbSymbolTable
 70
0
  0
ENDTAB
  0
TABLE
  2
UCS
  5
7
100
AcDbSymbolTable
 70
0
  0
ENDTAB
  0
TABLE
  2
APPID
  5
9
100
AcDbSymbolTable
 70
1
  0
APPID
  5
210
100
AcDbSymbolTableRecord
100
AcDbRegAppTableRecord
  2
ACAD
 70
0
  0
ENDTAB
  0
TABLE
  2
BLOCK_RECORD
  5
1
100
AcDbSymbolTable
 70
0
  0
BLOCK_RECORD
  5
211
100
AcDbSymbolTableRecord
100
AcDbBlockTableRecord
  2
*Model_Space
  0
BLOCK_RECORD
  5
212
100
AcDbSymbolTableRecord
100
AcDbBlockTableRecord
  2
*Paper_Space
  0
BLOCK_RECORD
  5
213
100
AcDbSymbolTableRecord
100
AcDbBlockTableRecord
  2
_FILLED
  0
BLOCK_RECORD
  5
214
100
AcDbSymbolTableRecord
100
AcDbBlockTableRecord
  2
*D0
  0
BLOCK_RECORD
  5
215
100
AcDbSymbolTableRecord
100
AcDbBlockTableRecord
  2
*D1
  0
BLOCK_RECORD
  5
216
100
AcDbSymbolTableRecord
100
AcDbBlockTableRecord
  2
*D2
  0
ENDTAB
  0
TABLE
  2
DIMSTYLE
  5
A
100
AcDbSymbolTable
 70
1
100
AcDbDimStyleTable
 71
0
  0
DIMSTYLE
105
217
100
AcDbSymbolTableRecord
100
AcDbDimStyleTableRecord
  2
STANDARD
 70
0
  3

  4

 40
1.0
 41
3.0
 42
0.0625
 43
0.38
 44
0.18
 45
0.0
 46
0.0
 47
0.01
 48
0.01
140
3.0
141
0.09
142
0.0
143
25.4
144
1.0
145
0.0
146
1.0
147
0.09
 71
1.0
 72
0.0
 73
0
 74
0
 75
0
 76
0
 77
1
 78
8
170
0
171
2
172
0
173
0
174
0
175
0
176
0
177
0
178
0
270
2
271
2
272
2
273
2
274
2
275
0
280
0
281
0
282
0
283
1
284
8
285
0
286
0
287
3
288
0
340
11
341
213
342
213
343
213
344
213
  0
DIMSTYLE
105
218
100
AcDbSymbolTableRecord
100
AcDbDimStyleTableRecord
  2
DIMSTYLE_1
 70
0
  3

  4

 40
1.0
 41
3.0
 42
0.0625
 43
0.38
 44
0.18
 45
0.0
 46
0.0
 47
0.0
 48
0.0
140
3.0
141
0.09
142
0.0
143
25.4
144
1.0
145
0.0
146
1.0
147
0.09
 71
0.0
 72
0.0
 73
0
 74
0
 75
0
 76
0
 77
1
 78
8
170
0
171
2
172
0
173
0
174
0
175
0
176
0
177
0
178
0
270
2
271
2
272
2
273
2
274
2
275
0
280
0
281
0
282
0
283
1
284
8
285
0
286
0
287
3
288
0
340
11
341
213
342
213
343
213
344
213
  0
DIMSTYLE
105
219
100
AcDbSymbolTableRecord
100
AcDbDimStyleTableRecord
  2
DIMSTYLE_2
 70
0
  3

  4

 40
1.0
 41
3.0
 42
0.0625
 43
0.38
 44
0.18
 45
0.0
 46
0.0
 47
0.0
 48
0.0
140
3.0
141
0.09
142
0.0
143
25.4
144
1.0
145
0.0
146
1.0
147
0.09
 71
0.0
 72
0.0
 73
0
 74
0
 75
0
 76
0
 77
1
 78
8
170
0
171
2
172
0
173
0
174
0
175
0
176
0
177
0
178
0
270
2
271
1
272
1
273
2
274
2
275
0
280
0
281
0
282
0
283
1
284
8
285
0
286
0
287
3
288
0
340
11
341
213
342
213
343
213
344
213
  0
ENDTAB
  0
ENDSEC
  0
SECTION
  2
BLOCKS
  0
BLOCK
  5
20
100
AcDbEntity
  8
0
100
AcDbBlockBegin
  2
*Model_Space
 70
0
 10
0.0
 20
0.0
 30
0.0
  3
*Model_Space
  1

  0
ENDBLK
  5
21
100
AcDbEntity
  8
0
100
AcDbBlockEnd
  0
BLOCK
  5
1C
100
AcDbEntity
  8
0
100
AcDbBlockBegin
  2
*Paper_Space
 70
0
 10
0.0
 20
0.0
 30
0.0
  3
*Paper_Space
  1

  0
ENDBLK
  5
1D
100
AcDbEntity
  8
0
100
AcDbBlockEnd
  0
BLOCK
  5
21A
100
AcDbEntity
  8
0
100
AcDbBlockBegin
  2
_FILLED
 70
64
 10
0.0
 20
0.0
  3
_FILLED
  1

  0
SOLID
  5
21B
100
AcDbEntity
  8
0
  6
BYBLOCK
 62
0
100
AcDbTrace
 10
0.0
 20
0.0
 11
-1.0
 21
0.3166666667
 12
-1.0
 22
-0.3166666667
 13
-1.0
 23
-0.3166666667
  0
ENDBLK
  5
21C
100
AcDbEntity
  8
0
  6
BYBLOCK
 62
0
100
AcDbBlockEnd
  0
BLOCK
  5
21D
100
AcDbEntity
  8
0
100
AcDbBlockBegin
 62
7
  6
CONTINUOUS
  2
*D0
 70
65
 10
0.0
 20
0.0
  3
*D0
  1

  0
MTEXT
  5
21E
100
AcDbEntity
  8
0
100
AcDbMText
 62
7
  6
CONTINUOUS
  7
STANDARD
 71
2
 72
1
 10
13.3062894093
 20
20.9943525028
 30
0.0
 11
1.0
 21
0.0
 31
0.0
 44
0.9
  1
49,6
 40
3.0
 41
8.7857142857
  0
LINE
  5
21F
100
AcDbEntity
  8
0
100
AcDbLine
 62
7
  6
CONTINUOUS
 10
38.1062894093
 20
8.4919873081
 11
38.1062894093
 21
18.7443525028
  0
LINE
  5
220
100
AcDbEntity
  8
0
100
AcDbLine
 62
7
  6
CONTINUOUS
 10
-11.4937105907
 20
8.4919873081
 11
-11.4937105907
 21
18.7443525028
  0
LINE
  5
221
100
AcDbEntity
  8
0
100
AcDbLine
 62
7
  6
CONTINUOUS
 10
38.1062894093
 20
17.2443525028
 11
13.3062894093
 21
17.2443525028
  0
LINE
  5
222
100
AcDbEntity
  8
0
100
AcDbLine
 62
7
  6
CONTINUOUS
 10
-11.4937105907
 20
17.2443525028
 11
13.3062894093
 21
17.2443525028
  0
INSERT
  5
223
100
AcDbEntity
  8
0
100
AcDbBlockReference
 62
7
  6
CONTINUOUS
  2
_FILLED
 10
38.1062894093
 20
17.2443525028
 41
3.0
 42
3.0
 43
3.0
  0
INSERT
  5
224
100
AcDbEntity
  8
0
100
AcDbBlockReference
 62
7
  6
CONTINUOUS
  2
_FILLED
 10
-11.4937105907
 20
17.2443525028
 41
3.0
 42
3.0
 43
3.0
 50
180.0
  0
ENDBLK
  5
225
100
AcDbEntity
  8
0
  6
BYBLOCK
 62
0
100
AcDbBlockEnd
  0
BLOCK
  5
226
100
AcDbEntity
  8
0
100
AcDbBlockBegin
 62
7
  6
CONTINUOUS
  2
*D1
 70
65
 10
0.0
 20
0.0
  3
*D1
  1

  0
MTEXT
  5
227
100
AcDbEntity
  8
0
100
AcDbMText
 62
7
  6
CONTINUOUS
  7
STANDARD
 71
2
 72
1
 10
42.3562894093
 20
0.0013318638
 30
0.0
 11
0.0
 21
1.0
 31
0.0
 44
0.9
  1
18,5
 40
3.0
 41
7.9285714286
  0
LINE
  5
228
100
AcDbEntity
  8
0
100
AcDbLine
 62
7
  6
CONTINUOUS
 10
38.3493454596
 20
9.2443525028
 11
47.6062894093
 21
9.2443525028
  0
LINE
  5
229
100
AcDbEntity
  8
0
100
AcDbLine
 62
7
  6
CONTINUOUS
 10
37.4923349548
 20
-9.2416887753
 11
47.6062894093
 21
-9.2416887753
  0
LINE
  5
22A
100
AcDbEntity
  8
0
100
AcDbLine
 62
7
  6
CONTINUOUS
 10
46.1062894093
 20
9.2443525028
 11
46.1062894093
 21
0.0013318638
  0
LINE
  5
22B
100
AcDbEntity
  8
0
100
AcDbLine
 62
7
  6
CONTINUOUS
 10
46.1062894093
 20
-9.2416887753
 11
46.1062894093
 21
0.0013318638
  0
INSERT
  5
22C
100
AcDbEntity
  8
0
100
AcDbBlockReference
 62
7
  6
CONTINUOUS
  2
_FILLED
 10
46.1062894093
 20
9.2443525028
 41
3.0
 42
3.0
 43
3.0
 50
90.0
  0
INSERT
  5
22D
100
AcDbEntity
  8
0
100
AcDbBlockReference
 62
7
  6
CONTINUOUS
  2
_FILLED
 10
46.1062894093
 20
-9.2416887753
 41
3.0
 42
3.0
 43
3.0
 50
270.0
  0
ENDBLK
  5
22E
100
AcDbEntity
  8
0
  6
BYBLOCK
 62
0
100
AcDbBlockEnd
  0
BLOCK
  5
22F
100
AcDbEntity
  8
0
100
AcDbBlockBegin
 62
7
  6
CONTINUOUS
  2
*D2
 70
65
 10
0.0
 20
0.0
  3
*D2
  1

  0
MTEXT
  5
230
100
AcDbEntity
  8
0
100
AcDbMText
 62
7
  6
CONTINUOUS
  7
STANDARD
 71
2
 72
1
 10
-25.3753271841
 20
20.9943525028
 30
0.0
 11
1.0
 21
0.0
 31
0.0
 44
0.9
  1
6,5
 40
3.0
 41
6.2142857143
  0
LINE
  5
231
100
AcDbEntity
  8
0
100
AcDbLine
 62
7
  6
CONTINUOUS
 10
-22.1254820642
 20
6.2513345288
 11
-22.1254820642
 21
18.7443525028
  0
LINE
  5
232
100
AcDbEntity
  8
0
100
AcDbLine
 62
7
  6
CONTINUOUS
 10
-28.625172304
 20
9.4006112718
 11
-28.625172304
 21
18.7443525028
  0
LINE
  5
233
100
AcDbEntity
  8
0
100
AcDbLine
 62
7
  6
CONTINUOUS
 10
-22.1254820642
 20
17.2443525028
 11
-18.1254820642
 21
17.2443525028
  0
LINE
  5
234
100
AcDbEntity
  8
0
100
AcDbLine
 62
7
  6
CONTINUOUS
 10
-18.1254820642
 20
17.2443525028
 11
-25.3753271841
 21
17.2443525028
  0
LINE
  5
235
100
AcDbEntity
  8
0
100
AcDbLine
 62
7
  6
CONTINUOUS
 10
-28.625172304
 20
17.2443525028
 11
-32.625172304
 21
17.2443525028
  0
LINE
  5
236
100
AcDbEntity
  8
0
100
AcDbLine
 62
7
  6
CONTINUOUS
 10
-32.625172304
 20
17.2443525028
 11
-25.3753271841
 21
17.2443525028
  0
INSERT
  5
237
100
AcDbEntity
  8
0
100
AcDbBlockReference
 62
7
  6
CONTINUOUS
  2
_FILLED
 10
-22.1254820642
 20
17.2443525028
 41
3.0
 42
3.0
 43
3.0
 50
180.0
  0
INSERT
  5
238
100
AcDbEntity
  8
0
100
AcDbBlockReference
 62
7
  6
CONTINUOUS
  2
_FILLED
 10
-28.625172304
 20
17.2443525028
 41
3.0
 42
3.0
 43
3.0
  0
ENDBLK
  5
239
100
AcDbEntity
  8
0
  6
BYBLOCK
 62
0
100
AcDbBlockEnd
  0
ENDSEC
  0
SECTION
  2
ENTITIES
  0
DIMENSION
  5
23A
100
AcDbEntity
  8
0
100
AcDbDimension
 62
7
  6
CONTINUOUS
  2
*D0
 10
-11.4937105907
 20
17.2443525028
 11
8.9134322665
 21
19.4943525028
 70
160
 71
2
 42
49.6
  3
DIMSTYLE_1
100
AcDbAlignedDimension
 13
38.1062894093
 23
8.4919873081
 14
-11.4937105907
 24
8.4919873081
 50
180.0
100
AcDbRotatedDimension
  0
DIMENSION
  5
23B
100
AcDbEntity
  8
0
100
AcDbDimension
 62
7
  6
CONTINUOUS
  2
*D1
 10
46.1062894093
 20
-9.2416887753
 11
45.6325812447
 21
-3.5427263383
 70
160
 71
2
 42
18.4860412781
  3
DIMSTYLE_2
100
AcDbAlignedDimension
 13
38.3493454596
 23
9.2443525028
 14
37.4923349548
 24
-9.2416887753
 50
270.0
100
AcDbRotatedDimension
  0
DIMENSION
  5
23C
100
AcDbEntity
  8
0
100
AcDbDimension
 62
7
  6
CONTINUOUS
  2
*D2
 10
-28.625172304
 20
17.2443525028
 11
-28.4824700413
 21
19.4943525028
 70
160
 71
2
 42
6.4996902397
  3
DIMSTYLE_1
100
AcDbAlignedDimension
 13
-22.1254820642
 23
6.2513345288
 14
-28.625172304
 24
9.4006112718
 50
180.0
100
AcDbRotatedDimension
  0
LINE
  5
23D
100
AcDbEntity
  8
RACCORDO
100
AcDbLine
 62
7
  6
CONTINUOUS
 10
-11.4802175129
 20
-8.9919480027
 11
-11.4937105907
 21
-1.6371739078
  0
LINE
  5
23E
100
AcDbEntity
  8
ASSI
100
AcDbLine
 62
7
  6
CONTINUOUS
 10
-11.4802175129
 20
-8.9919480027
 11
-11.4937105907
 21
-1.6371739078
  0
LINE
  5
23F
100
AcDbEntity
  8
DRAFT
100
AcDbLine
 62
7
  6
CONTINUOUS
 10
-11.4937105907
 20
7.9919873081
 11
-11.4937105907
 21
-1.6371739078
  0
LINE
  5
240
100
AcDbEntity
  8
ASSI
100
AcDbLine
 62
7
  6
CONTINUOUS
 10
-11.4937105907
 20
7.9919873081
 11
-11.4937105907
 21
-1.6371739078
  0
LINE
  5
241
100
AcDbEntity
  8
RACCORDO
100
AcDbLine
 62
7
  6
CONTINUOUS
 10
-11.4867285647
 20
8.9943905791
 11
-11.4867285647
 21
8.293778513
  0
LINE
  5
242
100
AcDbEntity
  8
ASSI
100
AcDbLine
 62
7
  6
CONTINUOUS
 10
-11.4867285647
 20
8.9943905791
 11
-11.4867285647
 21
8.293778513
  0
LINE
  5
243
100
AcDbEntity
  8
RACCORDO
100
AcDbLine
 62
7
  6
CONTINUOUS
 10
-11.4675279933
 20
-8.9856037261
 11
-11.4675279933
 21
-8.6955781507
  0
LINE
  5
244
100
AcDbEntity
  8
ASSI
100
AcDbLine
 62
7
  6
CONTINUOUS
 10
-11.4675279933
 20
-8.9856037261
 11
-11.4675279933
 21
-8.6955781507
  0
LINE
  5
245
100
AcDbEntity
  8
RACCORDO
100
AcDbLine
 62
253
  6
CONTINUOUS
 10
-11.1491454594
 20
-7.4146649662
 11
-11.1433112885
 21
9.1508971505
  0
LINE
  5
246
100
AcDbEntity
  8
ASSI
100
AcDbLine
 62
253
  6
CONTINUOUS
 10
-11.1491454594
 20
-7.4146649662
 11
-11.1433112885
 21
9.1508971505
  0
LINE
  5
247
100
AcDbEntity
  8
RACCORDO
100
AcDbLine
 62
253
  6
CONTINUOUS
 10
-11.4675279933
 20
-8.6955781507
 11
-11.4099150891
 21
-8.1135860763
  0
LINE
  5
248
100
AcDbEntity
  8
ASSI
100
AcDbLine
 62
253
  6
CONTINUOUS
 10
-11.4675279933
 20
-8.6955781507
 11
-11.4099150891
 21
-8.1135860763
  0
LINE
  5
249
100
AcDbEntity
  8
RACCORDO
100
AcDbLine
 62
253
  6
CONTINUOUS
 10
-11.2182476713
 20
-8.9486654712
 11
-11.1599531653
 21
-8.3597880146
  0
LINE
  5
24A
100
AcDbEntity
  8
ASSI
100
AcDbLine
 62
253
  6
CONTINUOUS
 10
-11.2182476713
 20
-8.9486654712
 11
-11.1599531653
 21
-8.3597880146
  0
LINE
  5
24B
100
AcDbEntity
  8
RACCORDO
100
AcDbLine
 62
7
  6
CONTINUOUS
 10
-11.4937105907
 20
7.9919873081
 11
-11.4918736943
 21
7.9938242044
  0
LINE
  5
24C
100
AcDbEntity
  8
ASSI
100
AcDbLine
 62
7
  6
CONTINUOUS
 10
-11.4937105907
 20
7.9919873081
 11
-11.4918736943
 21
7.9938242044
  0
LINE
  5
24D
100
AcDbEntity
  8
RACCORDO
100
AcDbLine
 62
253
  6
CONTINUOUS
 10
-11.3932732124
 20
8.9009352268
 11
-11.4867285647
 21
8.9943905791
  0
LINE
  5
24E
100
AcDbEntity
  8
ASSI
100
AcDbLine
 62
253
  6
CONTINUOUS
 10
-11.3932732124
 20
8.9009352268
 11
-11.4867285647
 21
8.9943905791
  0
LINE
  5
24F
100
AcDbEntity
  8
RACCORDO
100
AcDbLine
 62
253
  6
CONTINUOUS
 10
-11.1433112885
 20
9.1508971505
 11
-11.2367666409
 21
9.2443525028
  0
LINE
  5
250
100
AcDbEntity
  8
ASSI
100
AcDbLine
 62
253
  6
CONTINUOUS
 10
-11.1433112885
 20
9.1508971505
 11
-11.2367666409
 21
9.2443525028
  0
LINE
  5
251
100
AcDbEntity
  8
RACCORDO
100
AcDbLine
 62
7
  6
CONTINUOUS
 10
-11.2297593338
 20
-9.2416903747
 11
-10.3797593353
 21
-9.2416903747
  0
LINE
  5
252
100
AcDbEntity
  8
RACCORDO
100
AcDbLine
 62
7
  6
CONTINUOUS
 10
36.9923381539
 20
-9.2416903747
 11
37.8423381525
 21
-9.2416903747
  0
LINE
  5
253
100
AcDbEntity
  8
DRAFT
100
AcDbLine
 62
7
  6
CONTINUOUS
 10
36.9923349548
 20
-9.2416887753
 11
-10.3797561361
 21
-9.2416887753
  0
LINE
  5
254
100
AcDbEntity
  8
ASSI
100
AcDbLine
 62
7
  6
CONTINUOUS
 10
37.8423381525
 20
-9.2416903747
 11
-11.2297593338
 21
-9.2416903747
  0
LINE
  5
255
100
AcDbEntity
  8
RACCORDO
100
AcDbLine
 62
7
  6
CONTINUOUS
 10
37.8301068105
 20
-9.2355751695
 11
-11.2175279918
 21
-9.2355751695
  0
LINE
  5
256
100
AcDbEntity
  8
ASSI
100
AcDbLine
 62
7
  6
CONTINUOUS
 10
37.8301068105
 20
-9.2355751695
 11
-11.2175279918
 21
-9.2355751695
  0
LINE
  5
257
100
AcDbEntity
  8
RACCORDO
100
AcDbLine
 62
7
  6
CONTINUOUS
 10
37.83082649
 20
-8.9486654712
 11
-11.2182476713
 21
-8.9486654712
  0
LINE
  5
258
100
AcDbEntity
  8
ASSI
100
AcDbLine
 62
7
  6
CONTINUOUS
 10
37.83082649
 20
-8.9486654712
 11
-11.2182476713
 21
-8.9486654712
  0
LINE
  5
259
100
AcDbEntity
  8
RACCORDO
100
AcDbLine
 62
253
  6
CONTINUOUS
 10
-11.1599531653
 20
-8.3597880146
 11
37.7725319839
 21
-8.3597880146
  0
LINE
  5
25A
100
AcDbEntity
  8
ASSI
100
AcDbLine
 62
253
  6
CONTINUOUS
 10
-11.1599531653
 20
-8.3597880146
 11
37.7725319839
 21
-8.3597880146
  0
LINE
  5
25B
100
AcDbEntity
  8
RACCORDO
100
AcDbLine
 62
253
  6
CONTINUOUS
 10
-11.1491454594
 20
-7.4146649662
 11
37.7617242781
 21
-7.4146649662
  0
LINE
  5
25C
100
AcDbEntity
  8
ASSI
100
AcDbLine
 62
253
  6
CONTINUOUS
 10
-11.1491454594
 20
-7.4146649662
 11
37.7617242781
 21
-7.4146649662
  0
LINE
  5
25D
100
AcDbEntity
  8
RACCORDO
100
AcDbLine
 62
253
  6
CONTINUOUS
 10
-11.4802175129
 20
-8.9919480027
 11
-11.4675279933
 21
-8.9856037261
  0
LINE
  5
25E
100
AcDbEntity
  8
ASSI
100
AcDbLine
 62
253
  6
CONTINUOUS
 10
-11.4802175129
 20
-8.9919480027
 11
-11.4675279933
 21
-8.9856037261
  0
LINE
  5
25F
100
AcDbEntity
  8
CURVE
100
AcDbLine
 62
253
  6
CONTINUOUS
 10
13.3062894093
 20
-4.1486654712
 11
13.3062894093
 21
-1.1486654826
  0
LINE
  5
260
100
AcDbEntity
  8
RACCORDO
100
AcDbLine
 62
253
  6
CONTINUOUS
 10
38.0801068119
 20
-8.9856037261
 11
38.0927963316
 21
-8.9919480027
  0
LINE
  5
261
100
AcDbEntity
  8
ASSI
100
AcDbLine
 62
253
  6
CONTINUOUS
 10
38.0801068119
 20
-8.9856037261
 11
38.0927963316
 21
-8.9919480027
  0
LINE
  5
262
100
AcDbEntity
  8
DRAFT
100
AcDbLine
 62
7
  6
CONTINUOUS
 10
34.6187553999
 20
9.2443525028
 11
34.3562894093
 21
9.1919873081
  0
LINE
  5
263
100
AcDbEntity
  8
ASSI
100
AcDbLine
 62
7
  6
CONTINUOUS
 10
34.6187553999
 20
9.2443525028
 11
34.3562894093
 21
9.1919873081
  0
LINE
  5
264
100
AcDbEntity
  8
DRAFT
100
AcDbLine
 62
7
  6
CONTINUOUS
 10
-8.0061765813
 20
9.2443525028
 11
-7.7437105907
 21
9.1919873081
  0
LINE
  5
265
100
AcDbEntity
  8
ASSI
100
AcDbLine
 62
7
  6
CONTINUOUS
 10
-8.0061765813
 20
9.2443525028
 11
-7.7437105907
 21
9.1919873081
  0
LINE
  5
266
100
AcDbEntity
  8
RACCORDO
100
AcDbLine
 62
253
  6
CONTINUOUS
 10
38.005852031
 20
8.9009352267
 11
-11.1433112858
 21
8.9006112718
  0
LINE
  5
267
100
AcDbEntity
  8
ASSI
100
AcDbLine
 62
253
  6
CONTINUOUS
 10
38.005852031
 20
8.9009352267
 11
-11.1433112858
 21
8.9006112718
  0
LINE
  5
268
100
AcDbEntity
  8
RACCORDO
100
AcDbLine
 62
253
  6
CONTINUOUS
 10
-11.1433112885
 20
8.9006112718
 11
-11.3932732123
 21
8.9009352267
  0
LINE
  5
269
100
AcDbEntity
  8
ASSI
100
AcDbLine
 62
253
  6
CONTINUOUS
 10
-11.1433112885
 20
8.9006112718
 11
-11.3932732123
 21
8.9009352267
  0
LINE
  5
26A
100
AcDbEntity
  8
RACCORDO
100
AcDbLine
 62
253
  6
CONTINUOUS
 10
37.8493454596
 20
9.2443525028
 11
37.7558901072
 21
9.1508971505
  0
LINE
  5
26B
100
AcDbEntity
  8
ASSI
100
AcDbLine
 62
253
  6
CONTINUOUS
 10
37.8493454596
 20
9.2443525028
 11
37.7558901072
 21
9.1508971505
  0
LINE
  5
26C
100
AcDbEntity
  8
RACCORDO
100
AcDbLine
 62
253
  6
CONTINUOUS
 10
37.7558901072
 20
9.1508971505
 11
-11.1433112885
 21
9.1508971505
  0
LINE
  5
26D
100
AcDbEntity
  8
ASSI
100
AcDbLine
 62
253
  6
CONTINUOUS
 10
37.7558901072
 20
9.1508971505
 11
-11.1433112885
 21
9.1508971505
  0
LINE
  5
26E
100
AcDbEntity
  8
DRAFT
100
AcDbLine
 62
7
  6
CONTINUOUS
 10
34.3562894093
 20
9.1919873081
 11
-7.7437105907
 21
9.1919873081
  0
LINE
  5
26F
100
AcDbEntity
  8
ASSI
100
AcDbLine
 62
7
  6
CONTINUOUS
 10
34.3562894093
 20
9.1919873081
 11
-7.7437105907
 21
9.1919873081
  0
LINE
  5
270
100
AcDbEntity
  8
RACCORDO
100
AcDbLine
 62
7
  6
CONTINUOUS
 10
37.8493454596
 20
9.2443525028
 11
34.6187553999
 21
9.2443525028
  0
LINE
  5
271
100
AcDbEntity
  8
ASSI
100
AcDbLine
 62
7
  6
CONTINUOUS
 10
37.8493454596
 20
9.2443525028
 11
34.6187553999
 21
9.2443525028
  0
LINE
  5
272
100
AcDbEntity
  8
RACCORDO
100
AcDbLine
 62
7
  6
CONTINUOUS
 10
-8.0061765813
 20
9.2443525028
 11
-11.2367666409
 21
9.2443525028
  0
LINE
  5
273
100
AcDbEntity
  8
ASSI
100
AcDbLine
 62
7
  6
CONTINUOUS
 10
-8.0061765813
 20
9.2443525028
 11
-11.2367666409
 21
9.2443525028
  0
LINE
  5
274
100
AcDbEntity
  8
RACCORDO
100
AcDbLine
 62
253
  6
CONTINUOUS
 10
38.0993073834
 20
8.9943905791
 11
38.005852031
 21
8.9009352267
  0
LINE
  5
275
100
AcDbEntity
  8
ASSI
100
AcDbLine
 62
253
  6
CONTINUOUS
 10
38.0993073834
 20
8.9943905791
 11
38.005852031
 21
8.9009352267
  0
LINE
  5
276
100
AcDbEntity
  8
RACCORDO
100
AcDbLine
 62
253
  6
CONTINUOUS
 10
37.7725319839
 20
-8.3597880146
 11
37.83082649
 21
-8.9486654712
  0
LINE
  5
277
100
AcDbEntity
  8
ASSI
100
AcDbLine
 62
253
  6
CONTINUOUS
 10
37.7725319839
 20
-8.3597880146
 11
37.83082649
 21
-8.9486654712
  0
LINE
  5
278
100
AcDbEntity
  8
RACCORDO
100
AcDbLine
 62
253
  6
CONTINUOUS
 10
38.0224939077
 20
-8.1135860763
 11
38.0801068119
 21
-8.6955781507
  0
LINE
  5
279
100
AcDbEntity
  8
ASSI
100
AcDbLine
 62
253
  6
CONTINUOUS
 10
38.0224939077
 20
-8.1135860763
 11
38.0801068119
 21
-8.6955781507
  0
LINE
  5
27A
100
AcDbEntity
  8
RACCORDO
100
AcDbLine
 62
253
  6
CONTINUOUS
 10
37.7617242781
 20
-7.4146649662
 11
37.7558901072
 21
9.1508971505
  0
LINE
  5
27B
100
AcDbEntity
  8
ASSI
100
AcDbLine
 62
253
  6
CONTINUOUS
 10
37.7617242781
 20
-7.4146649662
 11
37.7558901072
 21
9.1508971505
  0
LINE
  5
27C
100
AcDbEntity
  8
RACCORDO
100
AcDbLine
 62
7
  6
CONTINUOUS
 10
38.0801068119
 20
-8.6955781507
 11
38.0801068119
 21
-8.9856037261
  0
LINE
  5
27D
100
AcDbEntity
  8
ASSI
100
AcDbLine
 62
7
  6
CONTINUOUS
 10
38.0801068119
 20
-8.6955781507
 11
38.0801068119
 21
-8.9856037261
  0
LINE
  5
27E
100
AcDbEntity
  8
RACCORDO
100
AcDbLine
 62
7
  6
CONTINUOUS
 10
38.0993073834
 20
8.293778513
 11
38.0993073834
 21
8.9943905791
  0
LINE
  5
27F
100
AcDbEntity
  8
ASSI
100
AcDbLine
 62
7
  6
CONTINUOUS
 10
38.0993073834
 20
8.293778513
 11
38.0993073834
 21
8.9943905791
  0
LINE
  5
280
100
AcDbEntity
  8
DRAFT
100
AcDbLine
 62
7
  6
CONTINUOUS
 10
38.1062894093
 20
7.9919873081
 11
38.1062894093
 21
-1.6371739078
  0
LINE
  5
281
100
AcDbEntity
  8
ASSI
100
AcDbLine
 62
7
  6
CONTINUOUS
 10
38.1062894093
 20
7.9919873081
 11
38.1062894093
 21
-1.6371739078
  0
LINE
  5
282
100
AcDbEntity
  8
RACCORDO
100
AcDbLine
 62
7
  6
CONTINUOUS
 10
38.0927963316
 20
-8.9919480027
 11
38.1062894093
 21
-1.6371739078
  0
LINE
  5
283
100
AcDbEntity
  8
ASSI
100
AcDbLine
 62
7
  6
CONTINUOUS
 10
38.0927963316
 20
-8.9919480027
 11
38.1062894093
 21
-1.6371739078
  0
LINE
  5
284
100
AcDbEntity
  8
RACCORDO
100
AcDbLine
 62
7
  6
CONTINUOUS
 10
38.1062894093
 20
7.9919873081
 11
38.104452513
 21
7.9938242044
  0
LINE
  5
285
100
AcDbEntity
  8
ASSI
100
AcDbLine
 62
7
  6
CONTINUOUS
 10
38.1062894093
 20
7.9919873081
 11
38.104452513
 21
7.9938242044
  0
LINE
  5
286
100
AcDbEntity
  8
RACCORDO
100
AcDbLine
 62
7
  6
CONTINUOUS
 10
-24.1254820642
 20
-9.2355751695
 11
-23.4247489521
 21
-9.2416903747
  0
LINE
  5
287
100
AcDbEntity
  8
ASSI
100
AcDbLine
 62
7
  6
CONTINUOUS
 10
-24.1254820642
 20
-9.2355751695
 11
-23.4247489521
 21
-9.2416903747
  0
LINE
  5
288
100
AcDbEntity
  8
RACCORDO
100
AcDbLine
 62
253
  6
CONTINUOUS
 10
-24.1254820642
 20
-8.9856037261
 11
-23.398499971
 21
-8.9919480027
  0
LINE
  5
289
100
AcDbEntity
  8
ASSI
100
AcDbLine
 62
253
  6
CONTINUOUS
 10
-24.1254820642
 20
-8.9856037261
 11
-23.398499971
 21
-8.9919480027
  0
LINE
  5
28A
100
AcDbEntity
  8
RACCORDO
100
AcDbLine
 62
7
  6
CONTINUOUS
 10
-27.465172078
 20
-8.3597880146
 11
-24.1254820642
 21
-8.9486654712
  0
LINE
  5
28B
100
AcDbEntity
  8
ASSI
100
AcDbLine
 62
7
  6
CONTINUOUS
 10
-27.465172078
 20
-8.3597880146
 11
-24.1254820642
 21
-8.9486654712
  0
LINE
  5
28C
100
AcDbEntity
  8
RACCORDO
100
AcDbLine
 62
253
  6
CONTINUOUS
 10
-27.4261231352
 20
-8.1135860763
 11
-24.1254820642
 21
-8.6955781507
  0
LINE
  5
28D
100
AcDbEntity
  8
ASSI
100
AcDbLine
 62
253
  6
CONTINUOUS
 10
-27.4261231352
 20
-8.1135860763
 11
-24.1254820642
 21
-8.6955781507
  0
LINE
  5
28E
100
AcDbEntity
  8
RACCORDO
100
AcDbLine
 62
253
  6
CONTINUOUS
 10
-28.0452961908
 20
-7.4047437901
 11
-28.290718405
 21
-7.4146642571
  0
LINE
  5
28F
100
AcDbEntity
  8
ASSI
100
AcDbLine
 62
253
  6
CONTINUOUS
 10
-28.0452961908
 20
-7.4047437901
 11
-28.290718405
 21
-7.4146642571
  0
LINE
  5
290
100
AcDbEntity
  8
CURVE
100
AcDbLine
 62
253
  6
CONTINUOUS
 10
-28.358814651
 20
-5.6031067985
 11
-28.3571973561
 21
-5.6486654712
  0
LINE
  5
291
100
AcDbEntity
  8
CURVE
100
AcDbLine
 62
253
  6
CONTINUOUS
 10
-28.51673488
 20
-0.1644476511
 11
-28.5280944248
 21
0.3513345288
  0
LINE
  5
292
100
AcDbEntity
  8
RACCORDO
100
AcDbLine
 62
7
  6
CONTINUOUS
 10
-24.1254820642
 20
-9.2355751695
 11
-24.1254820642
 21
-8.6955781507
  0
LINE
  5
293
100
AcDbEntity
  8
ASSI
100
AcDbLine
 62
7
  6
CONTINUOUS
 10
-24.1254820642
 20
-9.2355751695
 11
-24.1254820642
 21
-8.6955781507
  0
LINE
  5
294
100
AcDbEntity
  8
RACCORDO
100
AcDbLine
 62
7
  6
CONTINUOUS
 10
-23.0254820642
 20
8.293778513
 11
-23.0254820642
 21
9.2443525028
  0
LINE
  5
295
100
AcDbEntity
  8
ASSI
100
AcDbLine
 62
7
  6
CONTINUOUS
 10
-23.0254820642
 20
8.293778513
 11
-23.0254820642
 21
9.2443525028
  0
LINE
  5
296
100
AcDbEntity
  8
DRAFT
100
AcDbLine
 62
7
  6
CONTINUOUS
 10
-22.6254820642
 20
7.9919873081
 11
-22.6254820642
 21
-1.6371739078
  0
LINE
  5
297
100
AcDbEntity
  8
ASSI
100
AcDbLine
 62
7
  6
CONTINUOUS
 10
-22.6254820642
 20
7.9919873081
 11
-22.6254820642
 21
-1.6371739078
  0
LINE
  5
298
100
AcDbEntity
  8
RACCORDO
100
AcDbLine
 62
7
  6
CONTINUOUS
 10
-23.4247489521
 20
-9.2416903747
 11
-22.6254820642
 21
-1.6371739078
  0
LINE
  5
299
100
AcDbEntity
  8
ASSI
100
AcDbLine
 62
7
  6
CONTINUOUS
 10
-23.4247489521
 20
-9.2416903747
 11
-22.6254820642
 21
-1.6371739078
  0
LINE
  5
29A
100
AcDbEntity
  8
0
100
AcDbLine
 62
7
  6
CONTINUOUS
 10
-22.1254820642
 20
5.7513345288
 11
-22.1254820642
 21
3.9513345288
  0
LINE
  5
29B
100
AcDbEntity
  8
0
100
AcDbLine
 62
7
  6
CONTINUOUS
 10
-22.6254820642
 20
3.9263345288
 11
-22.1254820642
 21
3.9513345288
  0
LINE
  5
29C
100
AcDbEntity
  8
0
100
AcDbLine
 62
7
  6
CONTINUOUS
 10
-22.6254820642
 20
5.7763345288
 11
-22.1254820642
 21
5.7513345288
  0
LINE
  5
29D
100
AcDbEntity
  8
RACCORDO
100
AcDbLine
 62
7
  6
CONTINUOUS
 10
-22.6254820642
 20
7.9919873081
 11
-22.7307177862
 21
7.9938242044
  0
LINE
  5
29E
100
AcDbEntity
  8
ASSI
100
AcDbLine
 62
7
  6
CONTINUOUS
 10
-22.6254820642
 20
7.9919873081
 11
-22.7307177862
 21
7.9938242044
  0
LINE
  5
29F
100
AcDbEntity
  8
RACCORDO
100
AcDbLine
 62
253
  6
CONTINUOUS
 10
-23.0254820642
 20
8.9943905791
 11
-28.379535613
 21
8.9009352267
  0
LINE
  5
2A0
100
AcDbEntity
  8
ASSI
100
AcDbLine
 62
253
  6
CONTINUOUS
 10
-23.0254820642
 20
8.9943905791
 11
-28.379535613
 21
8.9009352267
  0
LINE
  5
2A1
100
AcDbEntity
  8
RACCORDO
100
AcDbLine
 62
7
  6
CONTINUOUS
 10
-23.0254820642
 20
9.2443525028
 11
-28.3795356155
 21
9.1508971505
  0
LINE
  5
2A2
100
AcDbEntity
  8
ASSI
100
AcDbLine
 62
7
  6
CONTINUOUS
 10
-23.0254820642
 20
9.2443525028
 11
-28.3795356155
 21
9.1508971505
  0
LINE
  5
2A3
100
AcDbEntity
  8
RACCORDO
100
AcDbLine
 62
253
  6
CONTINUOUS
 10
-28.3795356155
 20
8.9009352267
 11
-28.625172304
 21
8.9006112718
  0
LINE
  5
2A4
100
AcDbEntity
  8
ASSI
100
AcDbLine
 62
253
  6
CONTINUOUS
 10
-28.3795356155
 20
8.9009352267
 11
-28.625172304
 21
8.9006112718
  0
CIRCLE
  5
2A5
100
AcDbEntity
  8
CURVE
100
AcDbCircle
 62
253
  6
CONTINUOUS
 10
13.3062894093
 20
-2.6486654712
 40
3.0
  0
CIRCLE
  5
2A6
100
AcDbEntity
  8
DRAFT
100
AcDbCircle
 62
7
  6
CONTINUOUS
 10
13.3062890652
 20
4.8515550746
 40
1.3135386721
  0
CIRCLE
  5
2A7
100
AcDbEntity
  8
ASSI
100
AcDbCircle
 62
7
  6
CONTINUOUS
 10
13.3062890652
 20
4.8515550746
 40
1.3135386721
  0
CIRCLE
  5
2A8
100
AcDbEntity
  8
DRAFT
100
AcDbCircle
 62
7
  6
CONTINUOUS
 10
13.3062894093
 20
4.8513345288
 40
1.3
  0
CIRCLE
  5
2A9
100
AcDbEntity
  8
ASSI
100
AcDbCircle
 62
7
  6
CONTINUOUS
 10
13.3062894093
 20
4.8513345288
 40
1.3
  0
CIRCLE
  5
2AA
100
AcDbEntity
  8
DRAFT
100
AcDbCircle
 62
7
  6
CONTINUOUS
 10
13.3062894093
 20
4.8513345288
 40
1.225
  0
CIRCLE
  5
2AB
100
AcDbEntity
  8
RACCORDO
100
AcDbCircle
 62
253
  6
CONTINUOUS
 10
13.3062894093
 20
4.8513345288
 40
1.2068524201
  0
CIRCLE
  5
2AC
100
AcDbEntity
  8
RACCORDO
100
AcDbCircle
 62
253
  6
CONTINUOUS
 10
13.3062894093
 20
4.8513345288
 40
1.1180464865
  0
ARC
  5
2AD
100
AcDbEntity
  8
RACCORDO
100
AcDbCircle
 62
253
  6
CONTINUOUS
 10
-11.1432198216
 20
8.9008437598
 40
0.2500538636
100
AcDbArc
 50
90.020958193
 51
179.979041807
  0
ARC
  5
2AE
100
AcDbEntity
  8
ASSI
100
AcDbCircle
 62
253
  6
CONTINUOUS
 10
-11.1432198216
 20
8.9008437598
 40
0.2500538636
100
AcDbArc
 50
90.020958193
 51
179.979041807
  0
ARC
  5
2AF
100
AcDbEntity
  8
RACCORDO
100
AcDbCircle
 62
253
  6
CONTINUOUS
 10
37.7557992826
 20
8.9008444023
 40
0.2500531776
100
AcDbArc
 50
0.0208110208
 51
89.9791889339
  0
ARC
  5
2B0
100
AcDbEntity
  8
ASSI
100
AcDbCircle
 62
253
  6
CONTINUOUS
 10
37.7557992826
 20
8.9008444023
 40
0.2500531776
100
AcDbArc
 50
0.0208110208
 51
89.9791889339
  0
ARC
  5
2B1
100
AcDbEntity
  8
RACCORDO
100
AcDbCircle
 62
7
  6
CONTINUOUS
 10
396.3744708769
 20
9.4513345288
 40
425.0
100
AcDbArc
 50
180.074245005
 51
182.2743633301
  0
ARC
  5
2B2
100
AcDbEntity
  8
ASSI
100
AcDbCircle
 62
7
  6
CONTINUOUS
 10
396.3744708769
 20
9.4513345288
 40
425.0
100
AcDbArc
 50
180.074245005
 51
182.2743633301
  0
ARC
  5
2B3
100
AcDbEntity
  8
CURVE
100
AcDbCircle
 62
253
  6
CONTINUOUS
 10
396.3744708769
 20
9.4513345288
 40
425.0
100
AcDbArc
 50
181.548715191
 51
181.833778
  0
ARC
  5
2B4
100
AcDbEntity
  8
CURVE
100
AcDbCircle
 62
253
  6
CONTINUOUS
 10
396.3620771794
 20
9.4509729981
 40
424.9876010335
100
AcDbArc
 50
181.631463851
 51
181.7853932514
  0
ARC
  5
2B5
100
AcDbEntity
  8
CURVE
100
AcDbCircle
 62
253
  6
CONTINUOUS
 10
396.2792534337
 20
9.4490645127
 40
424.9047555515
100
AcDbArc
 50
181.2964333066
 51
181.5408023034
  0
ARC
  5
2B6
100
AcDbEntity
  8
RACCORDO
100
AcDbCircle
 62
253
  6
CONTINUOUS
 10
396.370115626
 20
9.4513346242
 40
424.7500078482
100
AcDbArc
 50
180.0742450165
 51
182.2743633009
  0
ARC
  5
2B7
100
AcDbEntity
  8
ASSI
100
AcDbCircle
 62
253
  6
CONTINUOUS
 10
396.370115626
 20
9.4513346242
 40
424.7500078482
100
AcDbArc
 50
180.0742450165
 51
182.2743633009
  0
ARC
  5
2B8
100
AcDbEntity
  8
RACCORDO
100
AcDbCircle
 62
7
  6
CONTINUOUS
 10
-27.2915239003
 20
-7.3749802615
 40
1.0
100
AcDbArc
 50
182.2743633301
 51
260.0
  0
ARC
  5
2B9
100
AcDbEntity
  8
ASSI
100
AcDbCircle
 62
7
  6
CONTINUOUS
 10
-27.2915239003
 20
-7.3749802615
 40
1.0
100
AcDbArc
 50
182.2743633301
 51
260.0
  0
ARC
  5
2BA
100
AcDbEntity
  8
RACCORDO
100
AcDbCircle
 62
253
  6
CONTINUOUS
 10
-27.2958852023
 20
-7.3749786896
 40
0.7500018606
100
AcDbArc
 50
182.2744778693
 51
259.9998854608
  0
ARC
  5
2BB
100
AcDbEntity
  8
ASSI
100
AcDbCircle
 62
253
  6
CONTINUOUS
 10
-27.2958852023
 20
-7.3749786896
 40
0.7500018606
100
AcDbArc
 50
182.2744778693
 51
259.9998854608
  0
ARC
  5
2BC
100
AcDbEntity
  8
RACCORDO
100
AcDbCircle
 62
7
  6
CONTINUOUS
 10
-22.7254820642
 20
8.293778513
 40
0.3
100
AcDbArc
 50
180.0
 51
269.0
  0
ARC
  5
2BD
100
AcDbEntity
  8
ASSI
100
AcDbCircle
 62
7
  6
CONTINUOUS
 10
-22.7254820642
 20
8.293778513
 40
0.3
100
AcDbArc
 50
180.0
 51
269.0
  0
ARC
  5
2BE
100
AcDbEntity
  8
RACCORDO
100
AcDbCircle
 62
7
  6
CONTINUOUS
 10
-28.3751725139
 20
8.9009352267
 40
0.25
100
AcDbArc
 50
91.0
 51
180.074245005
  0
ARC
  5
2BF
100
AcDbEntity
  8
ASSI
100
AcDbCircle
 62
7
  6
CONTINUOUS
 10
-28.3751725139
 20
8.9009352267
 40
0.25
100
AcDbArc
 50
91.0
 51
180.074245005
  0
SPLINE
  5
2C0
100
AcDbEntity
  8
RACCORDO
100
AcDbSpline
 62
253
  6
CONTINUOUS
 70
0
 71
3
 72
11
 73
7
 74
5
 42
0.0000001
 43
0.0000001
 44
0.0000000001
 12
0.0011902469
 22
-0.3868382165
 32
0.0
 13
0.3868383243
 23
-0.0011547015
 33
0.0
 40
0.0
 40
0.0
 40
0.0
 40
0.0
 40
0.2481372423
 40
0.4975164136
 40
0.7483480436
 40
1.0
 40
1.0
 40
1.0
 40
1.0
 10
-11.4099150891
 20
-8.1135860763
 30
0.0
 10
-11.4098166409
 20
-8.1455823991
 30
0.0
 10
-11.3965729677
 20
-8.2104024956
 30
0.0
 10
-11.3407751994
 20
-8.2920985624
 30
0.0
 10
-11.2578445453
 20
-8.3467808236
 30
0.0
 10
-11.1924027057
 20
-8.3596911541
 30
0.0
 10
-11.1599531653
 20
-8.359788015
 30
0.0
 11
-11.4099150891
 21
-8.1135860763
 31
0.0
 11
-11.3906728166
 21
-8.2076270472
 31
0.0
 11
-11.3364401549
 21
-8.287409567
 31
0.0
 11
-11.2554387551
 21
-8.3408317334
 31
0.0
 11
-11.1599531653
 21
-8.359788015
 31
0.0
  0
SPLINE
  5
2C1
100
AcDbEntity
  8
RACCORDO
100
AcDbSpline
 62
253
  6
CONTINUOUS
 70
0
 71
3
 72
11
 73
7
 74
5
 42
0.0000001
 43
0.0000001
 44
0.0000000001
 12
0.1007369386
 22
-0.2292793414
 32
0.0
 13
0.2504334585
 23
-0.0001733463
 33
0.0
 40
0.0
 40
0.0
 40
0.0
 40
0.0
 40
0.0822915138
 40
0.3001698803
 40
0.6219901227
 40
1.0
 40
1.0
 40
1.0
 40
1.0
 10
-11.3991073832
 20
-7.4047437901
 30
0.0
 10
-11.3963441181
 20
-7.4110330381
 30
0.0
 10
-11.3627598648
 20
-7.4049090637
 30
0.0
 10
-11.3183775756
 20
-7.4149860023
 30
0.0
 10
-11.2380743431
 20
-7.4131260941
 30
0.0
 10
-11.1807008997
 20
-7.414643124
 30
0.0
 10
-11.1491454594
 20
-7.4146649662
 30
0.0
 11
-11.3991073832
 21
-7.4047437901
 31
0.0
 11
-11.3788442245
 21
-7.4085010323
 31
0.0
 11
-11.3243739594
 21
-7.4116987396
 31
0.0
 11
-11.2438083866
 21
-7.4138607045
 31
0.0
 11
-11.1491454594
 21
-7.4146649662
 31
0.0
  0
SPLINE
  5
2C2
100
AcDbEntity
  8
RACCORDO
100
AcDbSpline
 62
253
  6
CONTINUOUS
 70
0
 71
3
 72
13
 73
9
 74
7
 42
0.0000001
 43
0.0000001
 44
0.0000000001
 12
0.0697988841
 22
0.7055568887
 32
0.0
 13
0.0004945741
 23
0.70900082
 33
0.0
 40
0.0
 40
0.0
 40
0.0
 40
0.0
 40
0.0674181962
 40
0.1847576221
 40
0.3459157559
 40
0.5427764484
 40
0.7650453531
 40
1.0
 40
1.0
 40
1.0
 40
1.0
 10
-11.4099150891
 20
-8.1135860763
 30
0.0
 10
-11.4083465175
 20
-8.0977302854
 30
0.0
 10
-11.406545407
 20
-8.0540688483
 30
0.0
 10
-11.4040475715
 20
-7.9723751529
 30
0.0
 10
-11.4020869601
 20
-7.8600375631
 30
0.0
 10
-11.400462393
 20
-7.7229089313
 30
0.0
 10
-11.3994302385
 20
-7.5683284093
 30
0.0
 10
-11.3991461174
 20
-7.4602714692
 30
0.0
 10
-11.3991073832
 20
-7.4047437901
 30
0.0
 11
-11.4099150891
 21
-8.1135860763
 31
0.0
 11
-11.4070942449
 21
-8.0658698156
 31
0.0
 11
-11.4045170675
 21
-7.9827159736
 31
0.0
 11
-11.4023303281
 21
-7.8684756237
 31
0.0
 11
-11.4006464764
 21
-7.7289113548
 31
0.0
 11
-11.3995536194
 21
-7.5713262703
 31
0.0
 11
-11.3991073832
 21
-7.4047437901
 31
0.0
  0
SPLINE
  5
2C3
100
AcDbEntity
  8
RACCORDO
100
AcDbSpline
 62
253
  6
CONTINUOUS
 70
0
 71
3
 72
10
 73
6
 74
4
 42
0.0000001
 43
0.0000001
 44
0.0000000001
 12
0.0113038293
 22
16.305676414
 32
0.0
 13
0.0003688186
 23
16.305680328
 33
0.0
 40
0.0
 40
0.0
 40
0.0
 40
0.0
 40
0.3332438196
 40
0.6665834492
 40
1.0
 40
1.0
 40
1.0
 40
1.0
 10
-11.3991073832
 20
-7.4047437901
 30
0.0
 10
-11.3978517394
 20
-5.5934884937
 30
0.0
 10
-11.3957455424
 20
-1.9704568573
 30
0.0
 10
-11.3938009813
 20
3.464769613
 30
0.0
 10
-11.3933142025
 20
7.0887406622
 30
0.0
 10
-11.3932732124
 20
8.9009352268
 30
0.0
 11
-11.3991073832
 21
-7.4047437901
 31
0.0
 11
-11.3959482831
 21
-1.9709775135
 31
0.0
 11
-11.3940035265
 21
3.4643515807
 31
0.0
 11
-11.3932732124
 21
8.9009352268
 31
0.0
  0
SPLINE
  5
2C4
100
AcDbEntity
  8
RACCORDO
100
AcDbSpline
 62
253
  6
CONTINUOUS
 70
0
 71
3
 72
10
 73
6
 74
4
 42
0.0000001
 43
0.0000001
 44
0.0000000001
 12
0.0003688186
 22
-16.3056803279
 32
0.0
 13
0.0113038293
 23
-16.3056764139
 33
0.0
 40
0.0
 40
0.0
 40
0.0
 40
0.0
 40
0.3334165508
 40
0.6667561804
 40
1.0
 40
1.0
 40
1.0
 40
1.0
 10
38.005852031
 20
8.9009352267
 30
0.0
 10
38.0058930211
 20
7.0887406622
 30
0.0
 10
38.0063798
 20
3.4647696129
 30
0.0
 10
38.0083243611
 20
-1.9704568573
 30
0.0
 10
38.0104305581
 20
-5.5934884937
 30
0.0
 10
38.0116862018
 20
-7.4047437901
 30
0.0
 11
38.005852031
 21
8.9009352267
 31
0.0
 11
38.0065823452
 21
3.4643515807
 31
0.0
 11
38.0085271018
 21
-1.9709775135
 31
0.0
 11
38.0116862018
 21
-7.4047437901
 31
0.0
  0
SPLINE
  5
2C5
100
AcDbEntity
  8
RACCORDO
100
AcDbSpline
 62
253
  6
CONTINUOUS
 70
0
 71
3
 72
13
 73
9
 74
7
 42
0.0000001
 43
0.0000001
 44
0.0000000001
 12
0.0004945741
 22
-0.70900082
 32
0.0
 13
0.0697988838
 23
-0.7055568887
 33
0.0
 40
0.0
 40
0.0
 40
0.0
 40
0.0
 40
0.2349546469
 40
0.4572235516
 40
0.6540842441
 40
0.8152423778
 40
0.9325818039
 40
1.0
 40
1.0
 40
1.0
 40
1.0
 10
38.0116862018
 20
-7.4047437901
 30
0.0
 10
38.011724936
 20
-7.4602714692
 30
0.0
 10
38.0120090571
 20
-7.5683284093
 30
0.0
 10
38.0130412117
 20
-7.7229089313
 30
0.0
 10
38.0146657787
 20
-7.8600375631
 30
0.0
 10
38.0166263902
 20
-7.9723751529
 30
0.0
 10
38.0191242256
 20
-8.0540688483
 30
0.0
 10
38.0209253361
 20
-8.0977302854
 30
0.0
 10
38.0224939077
 20
-8.1135860763
 30
0.0
 11
38.0116862018
 21
-7.4047437901
 31
0.0
 11
38.012132438
 21
-7.5713262703
 31
0.0
 11
38.0132252951
 21
-7.7289113548
 31
0.0
 11
38.0149091468
 21
-7.8684756237
 31
0.0
 11
38.0170958862
 21
-7.9827159736
 31
0.0
 11
38.0196730635
 21
-8.0658698156
 31
0.0
 11
38.0224939077
 21
-8.1135860763
 31
0.0
  0
SPLINE
  5
2C6
100
AcDbEntity
  8
RACCORDO
100
AcDbSpline
 62
253
  6
CONTINUOUS
 70
0
 71
3
 72
11
 73
7
 74
5
 42
0.0000001
 43
0.0000001
 44
0.0000000001
 12
-0.0011902476
 22
-0.3868382125
 32
0.0
 13
-0.3868383202
 23
-0.0011547052
 33
0.0
 40
0.0
 40
0.0
 40
0.0
 40
0.0
 40
0.2481496306
 40
0.4975322026
 40
0.7483586169
 40
1.0
 40
1.0
 40
1.0
 40
1.0
 10
38.0224939077
 20
-8.1135860763
 30
0.0
 10
38.0223954546
 20
-8.1455839961
 30
0.0
 10
38.0091506641
 20
-8.2104062263
 30
0.0
 10
37.9533502164
 20
-8.2921022182
 30
0.0
 10
37.870419881
 20
-8.3467817965
 30
0.0
 10
37.8049801606
 20
-8.3596911574
 30
0.0
 10
37.7725319839
 20
-8.3597880146
 30
0.0
 11
38.0224939077
 21
-8.1135860763
 31
0.0
 11
38.003249732
 21
-8.2076315483
 31
0.0
 11
37.9490145367
 21
-8.2874139353
 31
0.0
 11
37.8680137166
 21
-8.3408333139
 31
0.0
 11
37.7725319839
 21
-8.3597880146
 31
0.0
  0
SPLINE
  5
2C7
100
AcDbEntity
  8
RACCORDO
100
AcDbSpline
 62
253
  6
CONTINUOUS
 70
0
 71
3
 72
11
 73
7
 74
5
 42
0.0000001
 43
0.0000001
 44
0.0000000001
 12
-0.1010171715
 22
-0.2291558723
 32
0.0
 13
-0.2504333298
 23
-0.0001733233
 33
0.0
 40
0.0
 40
0.0
 40
0.0
 40
0.0
 40
0.0823072754
 40
0.3001894412
 40
0.6220029553
 40
1.0
 40
1.0
 40
1.0
 40
1.0
 10
38.0116862014
 20
-7.4047437901
 30
0.0
 10
38.0089147187
 20
-7.4110308552
 30
0.0
 10
37.9753450864
 20
-7.4049118532
 30
0.0
 10
37.9309468583
 20
-7.4149834884
 30
0.0
 10
37.8506525743
 20
-7.4131262314
 30
0.0
 10
37.7932786309
 20
-7.4146424185
 30
0.0
 10
37.7617242781
 20
-7.4146642571
 30
0.0
 11
38.0116862014
 21
-7.4047437901
 31
0.0
 11
37.9914189979
 21
-7.4085008106
 31
0.0
 11
37.936947794
 21
-7.411698283
 31
0.0
 11
37.8563839434
 21
-7.4138600688
 31
0.0
 11
37.7617242781
 21
-7.4146642571
 31
0.0
  0
SPLINE
  5
2C8
100
AcDbEntity
  8
RACCORDO
100
AcDbSpline
 62
253
  6
CONTINUOUS
 70
0
 71
3
 72
13
 73
9
 74
7
 42
0.0000001
 43
0.0000001
 44
0.0000000001
 12
0.0699882761
 22
0.9426474571
 32
0.0
 13
0.0004959778
 23
0.9452419485
 33
0.0
 40
0.0
 40
0.0
 40
0.0
 40
0.0
 40
0.0677746619
 40
0.1851024079
 40
0.3460109671
 40
0.5423277437
 40
0.7640908415
 40
1.0
 40
1.0
 40
1.0
 40
1.0
 10
-11.1599531653
 20
-8.3597880146
 30
0.0
 10
-11.1583720214
 20
-8.3384921437
 30
0.0
 10
-11.1565800359
 20
-8.280171449
 30
0.0
 10
-11.1540795648
 20
-8.1711937774
 30
0.0
 10
-11.152125757
 20
-8.021675267
 30
0.0
 10
-11.1505032681
 20
-7.8392569019
 30
0.0
 10
-11.149469535
 20
-7.6331987813
 30
0.0
 10
-11.1491844613
 20
-7.4889953771
 30
0.0
 10
-11.1491454594
 20
-7.4146649662
 30
0.0
 11
-11.1599531653
 21
-8.3597880146
 31
0.0
 11
-11.1571206709
 21
-8.2957872007
 31
0.0
 11
-11.1545483433
 21
-8.1849139139
 31
0.0
 11
-11.1523668394
 21
-8.0328320182
 31
0.0
 11
-11.15068719
 21
-7.8472727421
 31
0.0
 11
-11.1495948128
 21
-7.6376557768
 31
0.0
 11
-11.1491454594
 21
-7.4146649662
 31
0.0
  0
SPLINE
  5
2C9
100
AcDbEntity
  8
RACCORDO
100
AcDbSpline
 62
253
  6
CONTINUOUS
 70
0
 71
3
 72
13
 73
9
 74
7
 42
0.0000001
 43
0.0000001
 44
0.0000000001
 12
0.0004959778
 22
-0.9452419485
 32
0.0
 13
0.0699882762
 23
-0.9426474571
 33
0.0
 40
0.0
 40
0.0
 40
0.0
 40
0.0
 40
0.2359091585
 40
0.4576722563
 40
0.6539890329
 40
0.8148975921
 40
0.9322253381
 40
1.0
 40
1.0
 40
1.0
 40
1.0
 10
37.7617242781
 20
-7.4146649662
 30
0.0
 10
37.76176328
 20
-7.4889953771
 30
0.0
 10
37.7620483537
 20
-7.6331987813
 30
0.0
 10
37.7630820867
 20
-7.8392569019
 30
0.0
 10
37.7647045756
 20
-8.021675267
 30
0.0
 10
37.7666583834
 20
-8.1711937774
 30
0.0
 10
37.7691588546
 20
-8.280171449
 30
0.0
 10
37.77095084
 20
-8.3384921437
 30
0.0
 10
37.7725319839
 20
-8.3597880146
 30
0.0
 11
37.7617242781
 21
-7.4146649662
 31
0.0
 11
37.7621736315
 21
-7.6376557768
 31
0.0
 11
37.7632660087
 21
-7.8472727421
 31
0.0
 11
37.7649456581
 21
-8.0328320182
 31
0.0
 11
37.7671271619
 21
-8.1849139139
 31
0.0
 11
37.7696994896
 21
-8.2957872007
 31
0.0
 11
37.7725319839
 21
-8.3597880146
 31
0.0
  0
SPLINE
  5
2CA
100
AcDbEntity
  8
ASSI
100
AcDbSpline
 62
7
  6
CONTINUOUS
 70
0
 71
3
 72
23
 73
19
 74
17
 42
0.0000001
 43
0.0000001
 44
0.0000000001
 12
-7.5210108384
 22
0.0
 32
0.0
 13
7.5210108384
 23
0.0
 33
0.0
 40
0.0
 40
0.0
 40
0.0
 40
0.0
 40
0.0624209979
 40
0.1250661527
 40
0.1877064011
 40
0.2502381184
 40
0.3126507247
 40
0.3750229581
 40
0.4374761557
 40
0.4999745699
 40
0.5624719486
 40
0.6249228621
 40
0.6872970413
 40
0.7497179858
 40
0.8122596493
 40
0.8749056289
 40
0.9375497737
 40
1.0
 40
1.0
 40
1.0
 40
1.0
 10
13.3062894093
 20
2.4589668511
 30
0.0
 10
13.1497997421
 20
2.4589668511
 30
0.0
 10
12.8354048195
 20
2.489641012
 30
0.0
 10
12.3820799428
 20
2.6262300839
 30
0.0
 10
11.9635621618
 20
2.8485842373
 30
0.0
 10
11.5968910246
 20
3.1478486685
 30
0.0
 10
11.2960338946
 20
3.512356353
 30
0.0
 10
11.0722395202
 20
3.9284308096
 30
0.0
 10
10.9341594641
 20
4.3804931469
 30
0.0
 10
10.8874502424
 20
4.8511875161
 30
0.0
 10
10.9341013712
 20
5.3218815266
 30
0.0
 10
11.0721163536
 20
5.7739592154
 30
0.0
 10
11.2958516065
 20
6.1900877217
 30
0.0
 10
11.5966786576
 20
6.554686639
 30
0.0
 10
11.9633492853
 20
6.8540484939
 30
0.0
 10
12.3818693586
 20
7.0764788336
 30
0.0
 10
12.8352593708
 20
7.2131483676
 30
0.0
 10
13.1497264665
 20
7.2438479928
 30
0.0
 10
13.3062894093
 20
7.2438479928
 30
0.0
 11
13.3062894093
 21
2.4589668511
 31
0.0
 11
12.839044976
 21
2.5046153225
 31
0.0
 11
12.3879177545
 21
2.6405239644
 31
0.0
 11
11.9718978224
 21
2.861611219
 31
0.0
 11
11.6075664586
 21
3.1590105602
 31
0.0
 11
11.3087959573
 21
3.5210576231
 31
0.0
 11
11.086614022
 21
3.9342066308
 31
0.0
 11
10.9494238573
 21
4.383436469
 31
0.0
 11
10.9030141059
 21
4.8511910128
 31
0.0
 11
10.9493648637
 21
5.3189435794
 31
0.0
 11
11.0864859273
 21
5.7681765537
 31
0.0
 11
11.3086068121
 21
6.1813750019
 31
0.0
 11
11.6073553902
 21
6.5435214552
 31
0.0
 11
11.9716977078
 21
6.8410256652
 31
0.0
 11
12.3877252972
 21
7.0621903518
 31
0.0
 11
12.8388288097
 21
7.198151347
 31
0.0
 11
13.3062894093
 21
7.2438479928
 31
0.0
  0
SPLINE
  5
2CB
100
AcDbEntity
  8
ASSI
100
AcDbSpline
 62
253
  6
CONTINUOUS
 70
0
 71
3
 72
13
 73
9
 74
7
 42
0.0000001
 43
0.0000001
 44
0.0000000001
 12
0.0697988841
 22
0.7055568887
 32
0.0
 13
0.0004945741
 23
0.70900082
 33
0.0
 40
0.0
 40
0.0
 40
0.0
 40
0.0
 40
0.0674181962
 40
0.1847576221
 40
0.3459157559
 40
0.5427764484
 40
0.7650453531
 40
1.0
 40
1.0
 40
1.0
 40
1.0
 10
-11.4099150891
 20
-8.1135860763
 30
0.0
 10
-11.4083465175
 20
-8.0977302854
 30
0.0
 10
-11.406545407
 20
-8.0540688483
 30
0.0
 10
-11.4040475715
 20
-7.9723751529
 30
0.0
 10
-11.4020869601
 20
-7.8600375631
 30
0.0
 10
-11.400462393
 20
-7.7229089313
 30
0.0
 10
-11.3994302385
 20
-7.5683284093
 30
0.0
 10
-11.3991461174
 20
-7.4602714692
 30
0.0
 10
-11.3991073832
 20
-7.4047437901
 30
0.0
 11
-11.4099150891
 21
-8.1135860763
 31
0.0
 11
-11.4070942449
 21
-8.0658698156
 31
0.0
 11
-11.4045170675
 21
-7.9827159736
 31
0.0
 11
-11.4023303281
 21
-7.8684756237
 31
0.0
 11
-11.4006464764
 21
-7.7289113548
 31
0.0
 11
-11.3995536194
 21
-7.5713262703
 31
0.0
 11
-11.3991073832
 21
-7.4047437901
 31
0.0
  0
SPLINE
  5
2CC
100
AcDbEntity
  8
ASSI
100
AcDbSpline
 62
253
  6
CONTINUOUS
 70
0
 71
3
 72
10
 73
6
 74
4
 42
0.0000001
 43
0.0000001
 44
0.0000000001
 12
0.0113038293
 22
16.305676414
 32
0.0
 13
0.0003688186
 23
16.305680328
 33
0.0
 40
0.0
 40
0.0
 40
0.0
 40
0.0
 40
0.3332438196
 40
0.6665834492
 40
1.0
 40
1.0
 40
1.0
 40
1.0
 10
-11.3991073832
 20
-7.4047437901
 30
0.0
 10
-11.3978517394
 20
-5.5934884937
 30
0.0
 10
-11.3957455424
 20
-1.9704568573
 30
0.0
 10
-11.3938009813
 20
3.464769613
 30
0.0
 10
-11.3933142025
 20
7.0887406622
 30
0.0
 10
-11.3932732124
 20
8.9009352268
 30
0.0
 11
-11.3991073832
 21
-7.4047437901
 31
0.0
 11
-11.3959482831
 21
-1.9709775135
 31
0.0
 11
-11.3940035265
 21
3.4643515807
 31
0.0
 11
-11.3932732124
 21
8.9009352268
 31
0.0
  0
SPLINE
  5
2CD
100
AcDbEntity
  8
ASSI
100
AcDbSpline
 62
253
  6
CONTINUOUS
 70
0
 71
3
 72
10
 73
6
 74
4
 42
0.0000001
 43
0.0000001
 44
0.0000000001
 12
0.0003688186
 22
-16.3056803279
 32
0.0
 13
0.0113038293
 23
-16.3056764139
 33
0.0
 40
0.0
 40
0.0
 40
0.0
 40
0.0
 40
0.3334165508
 40
0.6667561804
 40
1.0
 40
1.0
 40
1.0
 40
1.0
 10
38.005852031
 20
8.9009352267
 30
0.0
 10
38.0058930211
 20
7.0887406622
 30
0.0
 10
38.0063798
 20
3.4647696129
 30
0.0
 10
38.0083243611
 20
-1.9704568573
 30
0.0
 10
38.0104305581
 20
-5.5934884937
 30
0.0
 10
38.0116862018
 20
-7.4047437901
 30
0.0
 11
38.005852031
 21
8.9009352267
 31
0.0
 11
38.0065823452
 21
3.4643515807
 31
0.0
 11
38.0085271018
 21
-1.9709775135
 31
0.0
 11
38.0116862018
 21
-7.4047437901
 31
0.0
  0
SPLINE
  5
2CE
100
AcDbEntity
  8
ASSI
100
AcDbSpline
 62
253
  6
CONTINUOUS
 70
0
 71
3
 72
13
 73
9
 74
7
 42
0.0000001
 43
0.0000001
 44
0.0000000001
 12
0.0004945741
 22
-0.70900082
 32
0.0
 13
0.0697988838
 23
-0.7055568887
 33
0.0
 40
0.0
 40
0.0
 40
0.0
 40
0.0
 40
0.2349546469
 40
0.4572235516
 40
0.6540842441
 40
0.8152423778
 40
0.9325818039
 40
1.0
 40
1.0
 40
1.0
 40
1.0
 10
38.0116862018
 20
-7.4047437901
 30
0.0
 10
38.011724936
 20
-7.4602714692
 30
0.0
 10
38.0120090571
 20
-7.5683284093
 30
0.0
 10
38.0130412117
 20
-7.7229089313
 30
0.0
 10
38.0146657787
 20
-7.8600375631
 30
0.0
 10
38.0166263902
 20
-7.9723751529
 30
0.0
 10
38.0191242256
 20
-8.0540688483
 30
0.0
 10
38.0209253361
 20
-8.0977302854
 30
0.0
 10
38.0224939077
 20
-8.1135860763
 30
0.0
 11
38.0116862018
 21
-7.4047437901
 31
0.0
 11
38.012132438
 21
-7.5713262703
 31
0.0
 11
38.0132252951
 21
-7.7289113548
 31
0.0
 11
38.0149091468
 21
-7.8684756237
 31
0.0
 11
38.0170958862
 21
-7.9827159736
 31
0.0
 11
38.0196730635
 21
-8.0658698156
 31
0.0
 11
38.0224939077
 21
-8.1135860763
 31
0.0
  0
SPLINE
  5
2CF
100
AcDbEntity
  8
ASSI
100
AcDbSpline
 62
253
  6
CONTINUOUS
 70
0
 71
3
 72
11
 73
7
 74
5
 42
0.0000001
 43
0.0000001
 44
0.0000000001
 12
0.0011902469
 22
-0.3868382165
 32
0.0
 13
0.3868383243
 23
-0.0011547015
 33
0.0
 40
0.0
 40
0.0
 40
0.0
 40
0.0
 40
0.2481372423
 40
0.4975164136
 40
0.7483480436
 40
1.0
 40
1.0
 40
1.0
 40
1.0
 10
-11.4099150891
 20
-8.1135860763
 30
0.0
 10
-11.4098166409
 20
-8.1455823991
 30
0.0
 10
-11.3965729677
 20
-8.2104024956
 30
0.0
 10
-11.3407751994
 20
-8.2920985624
 30
0.0
 10
-11.2578445453
 20
-8.3467808236
 30
0.0
 10
-11.1924027057
 20
-8.3596911541
 30
0.0
 10
-11.1599531653
 20
-8.359788015
 30
0.0
 11
-11.4099150891
 21
-8.1135860763
 31
0.0
 11
-11.3906728166
 21
-8.2076270472
 31
0.0
 11
-11.3364401549
 21
-8.287409567
 31
0.0
 11
-11.2554387551
 21
-8.3408317334
 31
0.0
 11
-11.1599531653
 21
-8.359788015
 31
0.0
  0
SPLINE
  5
2D0
100
AcDbEntity
  8
ASSI
100
AcDbSpline
 62
253
  6
CONTINUOUS
 70
0
 71
3
 72
11
 73
7
 74
5
 42
0.0000001
 43
0.0000001
 44
0.0000000001
 12
0.1007369386
 22
-0.2292793414
 32
0.0
 13
0.2504334585
 23
-0.0001733463
 33
0.0
 40
0.0
 40
0.0
 40
0.0
 40
0.0
 40
0.0822915138
 40
0.3001698803
 40
0.6219901227
 40
1.0
 40
1.0
 40
1.0
 40
1.0
 10
-11.3991073832
 20
-7.4047437901
 30
0.0
 10
-11.3963441181
 20
-7.4110330381
 30
0.0
 10
-11.3627598648
 20
-7.4049090637
 30
0.0
 10
-11.3183775756
 20
-7.4149860023
 30
0.0
 10
-11.2380743431
 20
-7.4131260941
 30
0.0
 10
-11.1807008997
 20
-7.414643124
 30
0.0
 10
-11.1491454594
 20
-7.4146649662
 30
0.0
 11
-11.3991073832
 21
-7.4047437901
 31
0.0
 11
-11.3788442245
 21
-7.4085010323
 31
0.0
 11
-11.3243739594
 21
-7.4116987396
 31
0.0
 11
-11.2438083866
 21
-7.4138607045
 31
0.0
 11
-11.1491454594
 21
-7.4146649662
 31
0.0
  0
SPLINE
  5
2D1
100
AcDbEntity
  8
ASSI
100
AcDbSpline
 62
253
  6
CONTINUOUS
 70
0
 71
3
 72
11
 73
7
 74
5
 42
0.0000001
 43
0.0000001
 44
0.0000000001
 12
-0.0011902476
 22
-0.3868382125
 32
0.0
 13
-0.3868383202
 23
-0.0011547052
 33
0.0
 40
0.0
 40
0.0
 40
0.0
 40
0.0
 40
0.2481496306
 40
0.4975322026
 40
0.7483586169
 40
1.0
 40
1.0
 40
1.0
 40
1.0
 10
38.0224939077
 20
-8.1135860763
 30
0.0
 10
38.0223954546
 20
-8.1455839961
 30
0.0
 10
38.0091506641
 20
-8.2104062263
 30
0.0
 10
37.9533502164
 20
-8.2921022182
 30
0.0
 10
37.870419881
 20
-8.3467817965
 30
0.0
 10
37.8049801606
 20
-8.3596911574
 30
0.0
 10
37.7725319839
 20
-8.3597880146
 30
0.0
 11
38.0224939077
 21
-8.1135860763
 31
0.0
 11
38.003249732
 21
-8.2076315483
 31
0.0
 11
37.9490145367
 21
-8.2874139353
 31
0.0
 11
37.8680137166
 21
-8.3408333139
 31
0.0
 11
37.7725319839
 21
-8.3597880146
 31
0.0
  0
SPLINE
  5
2D2
100
AcDbEntity
  8
ASSI
100
AcDbSpline
 62
253
  6
CONTINUOUS
 70
0
 71
3
 72
11
 73
7
 74
5
 42
0.0000001
 43
0.0000001
 44
0.0000000001
 12
-0.1010171715
 22
-0.2291558723
 32
0.0
 13
-0.2504333298
 23
-0.0001733233
 33
0.0
 40
0.0
 40
0.0
 40
0.0
 40
0.0
 40
0.0823072754
 40
0.3001894412
 40
0.6220029553
 40
1.0
 40
1.0
 40
1.0
 40
1.0
 10
38.0116862014
 20
-7.4047437901
 30
0.0
 10
38.0089147187
 20
-7.4110308552
 30
0.0
 10
37.9753450864
 20
-7.4049118532
 30
0.0
 10
37.9309468583
 20
-7.4149834884
 30
0.0
 10
37.8506525743
 20
-7.4131262314
 30
0.0
 10
37.7932786309
 20
-7.4146424185
 30
0.0
 10
37.7617242781
 20
-7.4146642571
 30
0.0
 11
38.0116862014
 21
-7.4047437901
 31
0.0
 11
37.9914189979
 21
-7.4085008106
 31
0.0
 11
37.936947794
 21
-7.411698283
 31
0.0
 11
37.8563839434
 21
-7.4138600688
 31
0.0
 11
37.7617242781
 21
-7.4146642571
 31
0.0
  0
SPLINE
  5
2D3
100
AcDbEntity
  8
ASSI
100
AcDbSpline
 62
253
  6
CONTINUOUS
 70
0
 71
3
 72
13
 73
9
 74
7
 42
0.0000001
 43
0.0000001
 44
0.0000000001
 12
0.0699882761
 22
0.9426474571
 32
0.0
 13
0.0004959778
 23
0.9452419485
 33
0.0
 40
0.0
 40
0.0
 40
0.0
 40
0.0
 40
0.0677746619
 40
0.1851024079
 40
0.3460109671
 40
0.5423277437
 40
0.7640908415
 40
1.0
 40
1.0
 40
1.0
 40
1.0
 10
-11.1599531653
 20
-8.3597880146
 30
0.0
 10
-11.1583720214
 20
-8.3384921437
 30
0.0
 10
-11.1565800359
 20
-8.280171449
 30
0.0
 10
-11.1540795648
 20
-8.1711937774
 30
0.0
 10
-11.152125757
 20
-8.021675267
 30
0.0
 10
-11.1505032681
 20
-7.8392569019
 30
0.0
 10
-11.149469535
 20
-7.6331987813
 30
0.0
 10
-11.1491844613
 20
-7.4889953771
 30
0.0
 10
-11.1491454594
 20
-7.4146649662
 30
0.0
 11
-11.1599531653
 21
-8.3597880146
 31
0.0
 11
-11.1571206709
 21
-8.2957872007
 31
0.0
 11
-11.1545483433
 21
-8.1849139139
 31
0.0
 11
-11.1523668394
 21
-8.0328320182
 31
0.0
 11
-11.15068719
 21
-7.8472727421
 31
0.0
 11
-11.1495948128
 21
-7.6376557768
 31
0.0
 11
-11.1491454594
 21
-7.4146649662
 31
0.0
  0
SPLINE
  5
2D4
100
AcDbEntity
  8
ASSI
100
AcDbSpline
 62
253
  6
CONTINUOUS
 70
0
 71
3
 72
13
 73
9
 74
7
 42
0.0000001
 43
0.0000001
 44
0.0000000001
 12
0.0004959778
 22
-0.9452419485
 32
0.0
 13
0.0699882762
 23
-0.9426474571
 33
0.0
 40
0.0
 40
0.0
 40
0.0
 40
0.0
 40
0.2359091585
 40
0.4576722563
 40
0.6539890329
 40
0.8148975921
 40
0.9322253381
 40
1.0
 40
1.0
 40
1.0
 40
1.0
 10
37.7617242781
 20
-7.4146649662
 30
0.0
 10
37.76176328
 20
-7.4889953771
 30
0.0
 10
37.7620483537
 20
-7.6331987813
 30
0.0
 10
37.7630820867
 20
-7.8392569019
 30
0.0
 10
37.7647045756
 20
-8.021675267
 30
0.0
 10
37.7666583834
 20
-8.1711937774
 30
0.0
 10
37.7691588546
 20
-8.280171449
 30
0.0
 10
37.77095084
 20
-8.3384921437
 30
0.0
 10
37.7725319839
 20
-8.3597880146
 30
0.0
 11
37.7617242781
 21
-7.4146649662
 31
0.0
 11
37.7621736315
 21
-7.6376557768
 31
0.0
 11
37.7632660087
 21
-7.8472727421
 31
0.0
 11
37.7649456581
 21
-8.0328320182
 31
0.0
 11
37.7671271619
 21
-8.1849139139
 31
0.0
 11
37.7696994896
 21
-8.2957872007
 31
0.0
 11
37.7725319839
 21
-8.3597880146
 31
0.0
  0
SPLINE
  5
2D5
100
AcDbEntity
  8
ASSI
100
AcDbSpline
 62
7
  6
CONTINUOUS
 70
0
 71
3
 72
23
 73
19
 74
17
 42
0.0000001
 43
0.0000001
 44
0.0000000001
 12
7.5210108386
 22
0.0
 32
0.0
 13
-7.5210108386
 23
0.0
 33
0.0
 40
0.0
 40
0.0
 40
0.0
 40
0.0
 40
0.0624210691
 40
0.1250668291
 40
0.1877085537
 40
0.2502426162
 40
0.3126580811
 40
0.375033084
 40
0.4374882969
 40
0.4999874489
 40
0.5624840907
 40
0.6249329898
 40
0.6873043998
 40
0.7497224853
 40
0.8122618028
 40
0.8749063057
 40
0.9375498451
 40
1.0
 40
1.0
 40
1.0
 40
1.0
 10
13.3062894093
 20
7.2438479928
 30
0.0
 10
13.4627792551
 20
7.2438479928
 30
0.0
 10
13.7771760655
 20
7.2131697354
 30
0.0
 10
14.2305020032
 20
7.0765635633
 30
0.0
 10
14.6490194637
 20
6.8541845092
 30
0.0
 10
15.0156891671
 20
6.5548918754
 30
0.0
 10
15.3165446533
 20
6.190357264
 30
0.0
 10
15.5403380813
 20
5.774260965
 30
0.0
 10
15.6784183244
 20
5.3221845376
 30
0.0
 10
15.7251285758
 20
4.851485314
 30
0.0
 10
15.6784784771
 20
4.3807961513
 30
0.0
 10
15.5404636824
 20
3.9287325466
 30
0.0
 10
15.3167274839
 20
3.5126258781
 30
0.0
 10
15.0158987888
 20
3.148053887
 30
0.0
 10
14.6492267265
 20
2.848720238
 30
0.0
 10
14.2307063324
 20
2.6263148035
 30
0.0
 10
13.7773173801
 20
2.4896623767
 30
0.0
 10
13.4628521733
 20
2.4589668511
 30
0.0
 10
13.3062894093
 20
2.4589668511
 30
0.0
 11
13.3062894093
 21
7.2438479928
 31
0.0
 11
13.7735338427
 21
7.1981940109
 31
0.0
 11
14.2246610641
 21
7.0622695909
 31
0.0
 11
14.6406809963
 21
6.8411586804
 31
0.0
 11
15.0050123601
 21
6.5437314463
 31
0.0
 11
15.3037828613
 21
6.181656509
 31
0.0
 11
15.5259647967
 21
5.7684838509
 31
0.0
 11
15.6631549614
 21
5.3192381648
 31
0.0
 11
15.7095647128
 21
4.8514780448
 31
0.0
 11
15.6632139549
 21
4.3837310474
 31
0.0
 11
15.5260928913
 21
3.9345139136
 31
0.0
 11
15.3039720066
 21
3.5213391111
 31
0.0
 11
15.0052234285
 21
3.1592205331
 31
0.0
 11
14.6408811109
 21
2.8617442208
 31
0.0
 11
14.2248535215
 21
2.6406031946
 31
0.0
 11
13.7737500089
 21
2.5046579812
 31
0.0
 11
13.3062894093
 21
2.4589668511
 31
0.0
  0
SPLINE
  5
2D6
100
AcDbEntity
  8
RACCORDO
100
AcDbSpline
 62
253
  6
CONTINUOUS
 70
0
 71
3
 72
12
 73
8
 74
6
 42
0.0000001
 43
0.0000001
 44
0.0000000001
 12
-0.0043623064
 22
0.2499925102
 32
0.0
 13
0.2499924871
 23
0.0043636351
 33
0.0
 40
0.0
 40
0.0
 40
0.0
 40
0.0
 40
0.3098605754
 40
0.5892143267
 40
0.8103234085
 40
0.9518389381
 40
1.0
 40
1.0
 40
1.0
 40
1.0
 10
-28.3795356155
 20
8.9009352267
 30
0.0
 10
-28.3799861844
 20
8.9267561677
 30
0.0
 10
-28.3810956603
 20
8.9763256435
 30
0.0
 10
-28.3802318701
 20
9.0420568355
 30
0.0
 10
-28.384068743
 20
9.1001615453
 30
0.0
 10
-28.3765267075
 20
9.1256548688
 30
0.0
 10
-28.3835489167
 20
9.1508270981
 30
0.0
 10
-28.3795356155
 20
9.1508971505
 30
0.0
 11
-28.3795356155
 21
8.9009352267
 31
0.0
 11
-28.3806725658
 21
8.9784014994
 31
0.0
 11
-28.3812679572
 21
9.0482459389
 31
0.0
 11
-28.381263364
 21
9.103529968
 31
0.0
 11
-28.3806601251
 21
9.1389080336
 31
0.0
 11
-28.3795356155
 21
9.1508971505
 31
0.0
  0
SPLINE
  5
2D7
100
AcDbEntity
  8
RACCORDO
100
AcDbSpline
 62
253
  6
CONTINUOUS
 70
0
 71
3
 72
11
 73
7
 74
5
 42
0.0000001
 43
0.0000001
 44
0.0000000001
 12
-0.043284155
 22
-0.2455514343
 32
0.0
 13
0.2455491794
 23
-0.0432969454
 33
0.0
 40
0.0
 40
0.0
 40
0.0
 40
0.0
 40
0.3827689144
 40
0.7070452522
 40
0.9236831912
 40
1.0
 40
1.0
 40
1.0
 40
1.0
 10
-27.4261231352
 20
-8.1135860763
 30
0.0
 10
-27.4316457448
 20
-8.1449158949
 30
0.0
 10
-27.4397495684
 20
-8.2012028491
 30
0.0
 10
-27.45902862
 20
-8.2826356671
 30
0.0
 10
-27.4535466528
 20
-8.3220931145
 30
0.0
 10
-27.4714185879
 20
-8.3586865863
 30
0.0
 10
-27.465172078
 20
-8.3597880146
 30
0.0
 11
-27.4261231352
 21
-8.1135860763
 31
0.0
 11
-27.4423699804
 21
-8.2076315483
 31
0.0
 11
-27.4554910876
 21
-8.2874139353
 31
0.0
 11
-27.4634964892
 21
-8.3408333139
 31
0.0
 11
-27.465172078
 21
-8.3597880146
 31
0.0
  0
SPLINE
  5
2D8
100
AcDbEntity
  8
ASSI
100
AcDbSpline
 62
253
  6
CONTINUOUS
 70
0
 71
3
 72
12
 73
8
 74
6
 42
0.0000001
 43
0.0000001
 44
0.0000000001
 12
-0.0043623064
 22
0.2499925102
 32
0.0
 13
0.2499924871
 23
0.0043636351
 33
0.0
 40
0.0
 40
0.0
 40
0.0
 40
0.0
 40
0.3098605754
 40
0.5892143267
 40
0.8103234085
 40
0.9518389381
 40
1.0
 40
1.0
 40
1.0
 40
1.0
 10
-28.3795356155
 20
8.9009352267
 30
0.0
 10
-28.3799861844
 20
8.9267561677
 30
0.0
 10
-28.3810956603
 20
8.9763256435
 30
0.0
 10
-28.3802318701
 20
9.0420568355
 30
0.0
 10
-28.384068743
 20
9.1001615453
 30
0.0
 10
-28.3765267075
 20
9.1256548688
 30
0.0
 10
-28.3835489167
 20
9.1508270981
 30
0.0
 10
-28.3795356155
 20
9.1508971505
 30
0.0
 11
-28.3795356155
 21
8.9009352267
 31
0.0
 11
-28.3806725658
 21
8.9784014994
 31
0.0
 11
-28.3812679572
 21
9.0482459389
 31
0.0
 11
-28.381263364
 21
9.103529968
 31
0.0
 11
-28.3806601251
 21
9.1389080336
 31
0.0
 11
-28.3795356155
 21
9.1508971505
 31
0.0
  0
SPLINE
  5
2D9
100
AcDbEntity
  8
ASSI
100
AcDbSpline
 62
253
  6
CONTINUOUS
 70
0
 71
3
 72
11
 73
7
 74
5
 42
0.0000001
 43
0.0000001
 44
0.0000000001
 12
-0.043284155
 22
-0.2455514343
 32
0.0
 13
0.2455491794
 23
-0.0432969454
 33
0.0
 40
0.0
 40
0.0
 40
0.0
 40
0.0
 40
0.3827689144
 40
0.7070452522
 40
0.9236831912
 40
1.0
 40
1.0
 40
1.0
 40
1.0
 10
-27.4261231352
 20
-8.1135860763
 30
0.0
 10
-27.4316457448
 20
-8.1449158949
 30
0.0
 10
-27.4397495684
 20
-8.2012028491
 30
0.0
 10
-27.45902862
 20
-8.2826356671
 30
0.0
 10
-27.4535466528
 20
-8.3220931145
 30
0.0
 10
-27.4714185879
 20
-8.3586865863
 30
0.0
 10
-27.465172078
 20
-8.3597880146
 30
0.0
 11
-27.4261231352
 21
-8.1135860763
 31
0.0
 11
-27.4423699804
 21
-8.2076315483
 31
0.0
 11
-27.4554910876
 21
-8.2874139353
 31
0.0
 11
-27.4634964892
 21
-8.3408333139
 31
0.0
 11
-27.465172078
 21
-8.3597880146
 31
0.0
  0
SPLINE
  5
2DA
100
AcDbEntity
  8
CURVE
100
AcDbSpline
 62
253
  6
CONTINUOUS
 70
0
 71
3
 72
9
 73
5
 74
3
 42
0.0000001
 43
0.0000001
 44
0.0000000001
 12
-0.0195495512
 22
0.6863794414
 32
0.0
 13
-0.0177742861
 23
0.6609350957
 33
0.0
 40
0.0
 40
0.0
 40
0.0
 40
0.0
 40
0.8668307218
 40
1.0
 40
1.0
 40
1.0
 40
1.0
 10
-28.4532471453
 20
-2.6486654712
 30
0.0
 10
-28.4588958625
 20
-2.4503405423
 30
0.0
 10
-28.4651175781
 20
-2.2263422981
 30
0.0
 10
-28.4710802284
 20
-2.0054668724
 30
0.0
 10
-28.4718692247
 20
-1.9761281225
 30
0.0
 11
-28.4532471453
 21
-2.6486654712
 31
0.0
 11
-28.4694875505
 21
-2.0643498947
 31
0.0
 11
-28.4718692247
 21
-1.9761281225
 31
0.0
  0
ELLIPSE
  5
2DB
100
AcDbEntity
  8
RACCORDO
100
AcDbEllipse
 62
7
  6
CONTINUOUS
 10
-11.4919650842
 20
8.293778513
 30
0.0
 11
0.0
 21
0.3
 31
0.0
 40
0.0174550649
 41
-3.1241393611
 42
-1.5707963268
  0
ELLIPSE
  5
2DC
100
AcDbEntity
  8
RACCORDO
100
AcDbEllipse
 62
7
  6
CONTINUOUS
 10
38.1045439028
 20
8.293778513
 30
0.0
 11
-0.0
 21
0.3
 31
0.0
 40
0.0174550649
 41
-4.7123889804
 42
-3.1590459461
  0
ELLIPSE
  5
2DD
100
AcDbEntity
  8
RACCORDO
100
AcDbEllipse
 62
7
  6
CONTINUOUS
 10
-11.2366904827
 20
8.9943144208
 30
0.0
 11
-0.1768305473
 21
0.1768305473
 31
0.0
 40
0.9996954599
 41
-0.7852458702
 42
0.7852458701
  0
ELLIPSE
  5
2DE
100
AcDbEntity
  8
RACCORDO
100
AcDbEllipse
 62
7
  6
CONTINUOUS
 10
37.8492693013
 20
8.9943144208
 30
0.0
 11
0.1768305473
 21
0.1768305473
 31
0.0
 40
0.9996954599
 41
-0.7852458702
 42
0.7852458701
  0
ELLIPSE
  5
2DF
100
AcDbEntity
  8
RACCORDO
100
AcDbEllipse
 62
7
  6
CONTINUOUS
 10
37.8427583194
 20
-8.9919099614
 30
0.0
 11
0.2183310446
 21
0.1221043275
 31
0.0
 40
0.9980297029
 41
-2.0815635429
 42
-0.5109195152
  0
ELLIPSE
  5
2E0
100
AcDbEntity
  8
RACCORDO
100
AcDbEllipse
 62
7
  6
CONTINUOUS
 10
-11.2301795007
 20
-8.9919099614
 30
0.0
 11
0.2183310446
 21
-0.1221043275
 31
0.0
 40
0.9980297029
 41
-2.6306731384
 42
-1.0600291107
  0
ELLIPSE
  5
2E1
100
AcDbEntity
  8
RACCORDO
100
AcDbEllipse
 62
7
  6
CONTINUOUS
 10
-11.2174899113
 20
-8.6948088182
 30
0.0
 11
0.0250113895
 21
0.2526592035
 31
0.0
 40
0.9846622838
 41
-4.6121910857
 42
-3.0444253421
  0
ELLIPSE
  5
2E2
100
AcDbEntity
  8
RACCORDO
100
AcDbEllipse
 62
7
  6
CONTINUOUS
 10
-11.2174899113
 20
-8.9855656499
 30
0.0
 11
0.2236527791
 21
0.1118178731
 31
0.0
 40
0.9998096356
 41
2.6780516535
 42
4.2486956813
  0
ELLIPSE
  5
2E3
100
AcDbEntity
  8
RACCORDO
100
AcDbEllipse
 62
7
  6
CONTINUOUS
 10
37.8300687299
 20
-8.9855656499
 30
0.0
 11
0.2236527791
 21
-0.1118178731
 31
0.0
 40
0.9998096356
 41
-1.1071030277
 42
0.4635410001
  0
ELLIPSE
  5
2E4
100
AcDbEntity
  8
RACCORDO
100
AcDbEllipse
 62
7
  6
CONTINUOUS
 10
37.8300687299
 20
-8.6948088182
 30
0.0
 11
-0.0250113895
 21
0.2526592035
 31
0.0
 40
0.9846622838
 41
-3.2387599651
 42
-1.6709942215
  0
ELLIPSE
  5
2E5
100
AcDbEntity
  8
ASSI
100
AcDbEllipse
 62
7
  6
CONTINUOUS
 10
-11.4919650842
 20
8.293778513
 30
0.0
 11
0.0
 21
0.3
 31
0.0
 40
0.0174550649
 41
-3.1241393611
 42
-1.5707963268
  0
ELLIPSE
  5
2E6
100
AcDbEntity
  8
ASSI
100
AcDbEllipse
 62
7
  6
CONTINUOUS
 10
38.1045439028
 20
8.293778513
 30
0.0
 11
-0.0
 21
0.3
 31
0.0
 40
0.0174550649
 41
-4.7123889804
 42
-3.1590459461
  0
ELLIPSE
  5
2E7
100
AcDbEntity
  8
ASSI
100
AcDbEllipse
 62
7
  6
CONTINUOUS
 10
-11.2366904827
 20
8.9943144208
 30
0.0
 11
-0.1768305473
 21
0.1768305473
 31
0.0
 40
0.9996954599
 41
-0.7852458702
 42
0.7852458701
  0
ELLIPSE
  5
2E8
100
AcDbEntity
  8
ASSI
100
AcDbEllipse
 62
7
  6
CONTINUOUS
 10
37.8492693013
 20
8.9943144208
 30
0.0
 11
0.1768305473
 21
0.1768305473
 31
0.0
 40
0.9996954599
 41
-0.7852458702
 42
0.7852458701
  0
ELLIPSE
  5
2E9
100
AcDbEntity
  8
ASSI
100
AcDbEllipse
 62
7
  6
CONTINUOUS
 10
37.8427583194
 20
-8.9919099614
 30
0.0
 11
0.2183310446
 21
0.1221043275
 31
0.0
 40
0.9980297029
 41
-2.0815635429
 42
-0.5109195152
  0
ELLIPSE
  5
2EA
100
AcDbEntity
  8
ASSI
100
AcDbEllipse
 62
7
  6
CONTINUOUS
 10
-11.2301795007
 20
-8.9919099614
 30
0.0
 11
0.2183310446
 21
-0.1221043275
 31
0.0
 40
0.9980297029
 41
-2.6306731384
 42
-1.0600291107
  0
ELLIPSE
  5
2EB
100
AcDbEntity
  8
ASSI
100
AcDbEllipse
 62
7
  6
CONTINUOUS
 10
-11.2174899113
 20
-8.9855656499
 30
0.0
 11
0.2236527791
 21
0.1118178731
 31
0.0
 40
0.9998096356
 41
2.6780516535
 42
4.2486956813
  0
ELLIPSE
  5
2EC
100
AcDbEntity
  8
ASSI
100
AcDbEllipse
 62
7
  6
CONTINUOUS
 10
37.8300687299
 20
-8.9855656499
 30
0.0
 11
0.2236527791
 21
-0.1118178731
 31
0.0
 40
0.9998096356
 41
-1.1071030277
 42
0.4635410001
  0
ELLIPSE
  5
2ED
100
AcDbEntity
  8
ASSI
100
AcDbEllipse
 62
7
  6
CONTINUOUS
 10
-11.2174899113
 20
-8.6948088182
 30
0.0
 11
0.0250113895
 21
0.2526592035
 31
0.0
 40
0.9846622838
 41
-4.6121910857
 42
-3.0444253421
  0
ELLIPSE
  5
2EE
100
AcDbEntity
  8
ASSI
100
AcDbEllipse
 62
7
  6
CONTINUOUS
 10
37.8300687299
 20
-8.6948088182
 30
0.0
 11
-0.0250113895
 21
0.2526592035
 31
0.0
 40
0.9846622838
 41
-3.2387599651
 42
-1.6709942215
  0
ENDSEC
  0
SECTION
  2
OBJECTS
  0
DICTIONARY
  5
C
100
AcDbDictionary
280
0
281
1
  3
ACAD_GROUP
350
D
  3
ACAD_MLINESTYLE
350
17
  3
ACAD_LAYOUT
350
1A
  3
ACAD_PLOTSETTINGS
350
19
  3
ACAD_PLOTSTYLENAME
350
E
  0
DICTIONARY
  5
D
102
{ACAD_REACTORS
330
C
102
}
100
AcDbDictionary
280
0
281
1
  0
ACDBDICTIONARYWDFLT
  5
E
102
{ACAD_REACTORS
330
C
102
}
100
AcDbDictionary
281
1
  3
Normal
350
F
100
AcDbDictionaryWithDefault
340
F
  0
DICTIONARY
  5
17
102
{ACAD_REACTORS
330
C
102
}
100
AcDbDictionary
280
0
281
1
  3
Standard
350
18
  0
DICTIONARY
  5
19
102
{ACAD_REACTORS
330
C
102
}
100
AcDbDictionary
281
1
  0
DICTIONARY
  5
1A
102
{ACAD_REACTORS
330
C
102
}
100
AcDbDictionary
281
1
  3
Model
350
2EF
  3
Layout1
350
2F0
  0
ACDBPLACEHOLDER
  5
F
102
{ACAD_REACTORS
330
E
102
}
  0
MLINESTYLE
  5
18
102
{ACAD_REACTORS
330
17
102
}
100
AcDbMlineStyle
  2
STANDARD
 70
0
  3

 62
256
 51
90.0
 52
90.0
 71
2
 49
0.5
 62
256
  6
BYLAYER
 49
-0.5
 62
256
  6
BYLAYER
  0
LAYOUT
  5
2EF
102
{ACAD_REACTORS
330
1A
102
}
100
AcDbPlotSettings
  1

  2
none_device
  4
ISO_A4_(297.00_x_210.00_MM)
  6

 40
0.0
 41
0.0
 42
0.0
 43
0.0
 44
297.0
 45
210.0
 46
0.0
 47
0.0
 48
0.0
 49
0.0
140
0.0
141
0.0
142
1.0
143
1.0
 70
1024
 72
1
 73
0
 74
0
  7

 75
0
147
1.0
148
0.0
149
0.0
100
AcDbLayout
  1
Model
 70
0
 71
0
 10
0.0
 20
0.0
 11
297.0
 21
210.0
 12
0.0
 22
0.0
 32
0.0
 14
0.0
 24
0.0
 34
0.0
 15
0.0
 25
0.0
 35
0.0
146
0.0
 13
0.0
 23
0.0
 33
0.0
 16
1.0
 26
0.0
 36
0.0
 17
0.0
 27
1.0
 37
0.0
 76
0
330
211
345
0
346
0
  0
LAYOUT
  5
2F0
102
{ACAD_REACTORS
330
1A
102
}
100
AcDbPlotSettings
  1

  2
none_device
  4
ISO_A4_(297.00_x_210.00_MM)
  6

 40
0.0
 41
0.0
 42
0.0
 43
0.0
 44
297.0
 45
210.0
 46
0.0
 47
0.0
 48
0.0
 49
0.0
140
0.0
141
0.0
142
1.0
143
1.0
 70
0
 72
1
 73
0
 74
0
  7

 75
0
147
1.0
148
0.0
149
0.0
100
AcDbLayout
  1
Layout1
 70
0
 71
1
 10
0.0
 20
0.0
 11
297.0
 21
210.0
 12
0.0
 22
0.0
 32
0.0
 14
0.0
 24
0.0
 34
0.0
 15
0.0
 25
0.0
 35
0.0
146
0.0
 13
0.0
 23
0.0
 33
0.0
 16
1.0
 26
0.0
 36
0.0
 17
0.0
 27
1.0
 37
0.0
 76
0
330
212
345
0
346
0
  0
ENDSEC
  0
EOF
