  0
SECTION
  2
HEADER
  9
$ACADVER
  1
AC1015
  9
$DWGCODEPAGE
  3
ANSI_1252
  9
$EXTMAX
 10
297.0
 20
210.0
 30
0.0
  9
$EXTMIN
 10
0.0
 20
0.0
 30
0.0
  9
$LIMMIN
 10
0.0
 20
0.0
  9
$LIMMAX
 10
297.0
 20
210.0
  9
$VIEWCTR
 10
148.5
 20
105.0
  9
$VIEWSIZE
 40
210.0
  9
$CLAYER
  8
0
  9
$LTSCALE
 40
16.335
  9
$CELTYPE
  6
BYLAYER
  9
$DIMSCALE
 40
1.0
  9
$DIMASZ
 40
3.0
  9
$DIMEXO
 40
1.85625
  9
$DIMDLI
 40
11.286
  9
$DIMEXE
 40
5.346
  9
$DIMCEN
 40
2.673
  9
$DIMLFAC
 40
1.0
  9
$DIMBLK
  1
_FILLED
  9
$DIMTXT
 40
3.0
  9
$DIMTOL
 70
1
  9
$DIMLIM
 70
0
  9
$DIMTFAC
 40
1.0
  9
$DIMTP
 40
0.01
  9
$DIMTM
 40
0.01
  9
$PDMODE
 70
3
  9
$PDSIZE
 40
3.0
  9
$HANDSEED
  5
2F1
  9
$TILEMODE
 70
1
  9
$MEASUREMENT
 70
1
  9
$INSUNITS
 70
4
  0
ENDSEC
  0
SECTION
  2
CLASSES
  0
CLASS
  1
ACDBDICTIONARYWDFLT
  2
AcDbDictionaryWithDefault
  3
AutoCAD 2000
 90
0
280
0
281
0
  0
CLASS
  1
ACDBPLACEHOLDER
  2
AcDbPlaceHolder
  3
AutoCAD 2000
 90
0
280
0
281
0
  0
CLASS
  1
LAYOUT
  2
AcDbLayout
  3
AutoCAD 2000
 90
0
280
0
281
0
  0
ENDSEC
  0
SECTION
  2
TABLES
  0
TABLE
  2
VPORT
  5
8
100
AcDbSymbolTable
 70
2
  0
VPORT
  5
1F4
100
AcDbSymbolTableRecord
100
AcDbViewportTableRecord
  2
*ACTIVE
 70
0
 10
0.0
 20
0.0
 11
1.0
 21
1.0
 12
148.5
 22
105.0
 13
0.0
 23
0.0
 14
1.0
 24
1.0
 15
0.0
 25
0.0
 16
0.0
 26
0.0
 36
1.0
 17
0.0
 27
0.0
 37
0.0
 40
210.0
 41
1.4142857143
 42
50.0
 43
0.0
 44
0.0
 50
0.0
 51
0.0
 71
0
 72
100
 73
1
 74
1
 75
0
 76
0
 77
0
 78
0
  0
ENDTAB
  0
TABLE
  2
LTYPE
  5
5
100
AcDbSymbolTable
 70
6
  0
LTYPE
  5
14
100
AcDbSymbolTableRecord
100
AcDbLinetypeTableRecord
  2
BYBLOCK
 70
0
  3

 72
65
 73
0
 40
0.0
  0
LTYPE
  5
15
100
AcDbSymbolTableRecord
100
AcDbLinetypeTableRecord
  2
BYLAYER
 70
0
  3

 72
65
 73
0
 40
0.0
  0
LTYPE
  5
16
100
AcDbSymbolTableRecord
100
AcDbLinetypeTableRecord
  2
CONTINUOUS
 70
64
  3
Solid line
 72
65
 73
0
 40
0.0
  0
LTYPE
  5
1F5
100
AcDbSymbolTableRecord
100
AcDbLinetypeTableRecord
  2
CENTER
 70
64
  3
____ _ ____ _ ____ _ ____ _ ____ _ ____ _ ____
 72
65
 73
4
 40
0.6
 49
0.375
 74
0
 49
-0.075
 74
0
 49
0.075
 74
0
 49
-0.075
 74
0
  0
LTYPE
  5
1F6
100
AcDbSymbolTableRecord
100
AcDbLinetypeTableRecord
  2
HIDDEN
 70
64
  3
- - - - - - - - - - - - - - - - - - - -
 72
65
 73
2
 40
0.2
 49
0.1
 74
0
 49
-0.1
 74
0
  0
LTYPE
  5
1F7
100
AcDbSymbolTableRecord
100
AcDbLinetypeTableRecord
  2
PHANTOM
 70
64
  3
_____ _ _ _____ _ _ _____ _ _ _____
 72
65
 73
6
 40
0.8
 49
0.45
 74
0
 49
-0.05
 74
0
 49
0.1
 74
0
 49
-0.05
 74
0
 49
0.1
 74
0
 49
-0.05
 74
0
  0
LTYPE
  5
1F8
100
AcDbSymbolTableRecord
100
AcDbLinetypeTableRecord
  2
DOT
 70
64
  3
. . . . . . . . . . . . . . . . . . . .
 72
65
 73
2
 40
0.2
 49
0.1
 74
0
 49
-0.1
 74
0
  0
LTYPE
  5
1F9
100
AcDbSymbolTableRecord
100
AcDbLinetypeTableRecord
  2
DASHED
 70
64
  3
- - - - - - - - - - - - - - - - - - - -
 72
65
 73
2
 40
0.2
 49
0.1
 74
0
 49
-0.1
 74
0
  0
ENDTAB
  0
TABLE
  2
LAYER
  5
2
100
AcDbSymbolTable
 70
36
  0
LAYER
  5
10
100
AcDbSymbolTableRecord
100
AcDbLayerTableRecord
  2
0
 70
0
 62
7
  6
CONTINUOUS
370
-3
390
F
  0
LAYER
  5
1FA
100
AcDbSymbolTableRecord
100
AcDbLayerTableRecord
  2
DEFAULT_1
 70
0
 62
7
  6
CENTER
370
-3
390
F
  0
LAYER
  5
1FB
100
AcDbSymbolTableRecord
100
AcDbLayerTableRecord
  2
DEFAULT_2
 70
0
 62
7
  6
HIDDEN
370
-3
390
F
  0
LAYER
  5
1FC
100
AcDbSymbolTableRecord
100
AcDbLayerTableRecord
  2
DEFAULT_3
 70
0
 62
7
  6
PHANTOM
370
-3
390
F
  0
LAYER
  5
1FD
100
AcDbSymbolTableRecord
100
AcDbLayerTableRecord
  2
ASSI
 70
0
 62
7
  6
CONTINUOUS
370
-3
390
F
  0
LAYER
  5
1FE
100
AcDbSymbolTableRecord
100
AcDbLayerTableRecord
  2
COORDINATE
 70
0
 62
7
  6
CONTINUOUS
370
-3
390
F
  0
LAYER
  5
1FF
100
AcDbSymbolTableRecord
100
AcDbLayerTableRecord
  2
COORD_ORIGINE
 70
0
 62
7
  6
CONTINUOUS
370
-3
390
F
  0
LAYER
  5
200
100
AcDbSymbolTableRecord
100
AcDbLayerTableRecord
  2
COPY_PUBLISH
 70
0
 62
7
  6
CONTINUOUS
370
-3
390
F
  0
LAYER
  5
201
100
AcDbSymbolTableRecord
100
AcDbLayerTableRecord
  2
COSMETIC
 70
0
 62
7
  6
CONTINUOUS
370
-3
390
F
  0
LAYER
  5
202
100
AcDbSymbolTableRecord
100
AcDbLayerTableRecord
  2
CURVE
 70
0
 62
7
  6
CONTINUOUS
370
-3
390
F
  0
LAYER
  5
203
100
AcDbSymbolTableRecord
100
AcDbLayerTableRecord
  2
DRAFT
 70
0
 62
7
  6
CONTINUOUS
370
-3
390
F
  0
LAYER
  5
204
100
AcDbSymbolTableRecord
100
AcDbLayerTableRecord
  2
IGES
 70
0
 62
7
  6
CONTINUOUS
370
-3
390
F
  0
LAYER
  5
205
100
AcDbSymbolTableRecord
100
AcDbLayerTableRecord
  2
IMPORT_IGES
 70
0
 62
7
  6
CONTINUOUS
370
-3
390
F
  0
LAYER
  5
206
100
AcDbSymbolTableRecord
100
AcDbLayerTableRecord
  2
INTF_12
 70
0
 62
7
  6
CONTINUOUS
370
-3
390
F
  0
LAYER
  5
207
100
AcDbSymbolTableRecord
100
AcDbLayerTableRecord
  2
NOTE
 70
0
 62
7
  6
CONTINUOUS
370
-3
390
F
  0
LAYER
  5
208
100
AcDbSymbolTableRecord
100
AcDbLayerTableRecord
  2
PIANI
 70
0
 62
7
  6
CONTINUOUS
370
-3
390
F
  0
LAYER
  5
209
100
AcDbSymbolTableRecord
100
AcDbLayerTableRecord
  2
PIANI_ORIGINE
 70
0
 62
7
  6
CONTINUOUS
370
-3
390
F
  0
LAYER
  5
20A
100
AcDbSymbolTableRecord
100
AcDbLayerTableRecord
  2
RACCORDO
 70
0
 62
7
  6
CONTINUOUS
370
-3
390
F
  0
LAYER
  5
20B
100
AcDbSymbolTableRecord
100
AcDbLayerTableRecord
  2
SMUSSO
 70
0
 62
7
  6
CONTINUOUS
370
-3
390
F
  0
LAYER
  5
20C
100
AcDbSymbolTableRecord
100
AcDbLayerTableRecord
  2
SNAPLINE
 70
0
 62
7
  6
CONTINUOUS
370
-3
390
F
  0
LAYER
  5
20D
100
AcDbSymbolTableRecord
100
AcDbLayerTableRecord
  2
SUPERFICI
 70
0
 62
7
  6
CONTINUOUS
370
-3
390
F
  0
LAYER
  5
20E
100
AcDbSymbolTableRecord
100
AcDbLayerTableRecord
  2
TRASH
 70
0
 62
7
  6
CONTINUOUS
370
-3
390
F
  0
ENDTAB
  0
TABLE
  2
STYLE
  5
3
100
AcDbSymbolTable
 70
1
  0
STYLE
  5
11
100
AcDbSymbolTableRecord
100
AcDbTextStyleTableRecord
  2
STANDARD
 70
0
 40
0.0
 41
0.8
 50
0.0
 71
0
 42
0.2
  3
txt
  4

  0
STYLE
  5
20F
100
AcDbSymbolTableRecord
100
AcDbTextStyleTableRecord
  2
TEXTSTYLE_1
 70
0
 40
0.0
 41
0.8
 50
0.0
 71
0
 42
0.2
  3
gdt
  4

  0
ENDTAB
  0
TABLE
  2
VIEW
  5
6
100
AcDbSymbolTable
 70
0
  0
ENDTAB
  0
TABLE
  2
UCS
  5
7
100
AcDbSymbolTable
 70
0
  0
ENDTAB
  0
TABLE
  2
APPID
  5
9
100
AcDbSymbolTable
 70
1
  0
APPID
  5
210
100
AcDbSymbolTableRecord
100
AcDbRegAppTableRecord
  2
ACAD
 70
0
  0
ENDTAB
  0
TABLE
  2
BLOCK_RECORD
  5
1
100
AcDbSymbolTable
 70
0
  0
BLOCK_RECORD
  5
211
100
AcDbSymbolTableRecord
100
AcDbBlockTableRecord
  2
*Model_Space
  0
BLOCK_RECORD
  5
212
100
AcDbSymbolTableRecord
100
AcDbBlockTableRecord
  2
*Paper_Space
  0
BLOCK_RECORD
  5
213
100
AcDbSymbolTableRecord
100
AcDbBlockTableRecord
  2
_FILLED
  0
BLOCK_RECORD
  5
214
100
AcDbSymbolTableRecord
100
AcDbBlockTableRecord
  2
*D0
  0
BLOCK_RECORD
  5
215
100
AcDbSymbolTableRecord
100
AcDbBlockTableRecord
  2
*D1
  0
BLOCK_RECORD
  5
216
100
AcDbSymbolTableRecord
100
AcDbBlockTableRecord
  2
*D2
  0
ENDTAB
  0
TABLE
  2
DIMSTYLE
  5
A
100
AcDbSymbolTable
 70
1
100
AcDbDimStyleTable
 71
0
  0
DIMSTYLE
105
217
100
AcDbSymbolTableRecord
100
AcDbDimStyleTableRecord
  2
STANDARD
 70
0
  3

  4

 40
1.0
 41
3.0
 42
0.0625
 43
0.38
 44
0.18
 45
0.0
 46
0.0
 47
0.01
 48
0.01
140
3.0
141
0.09
142
0.0
143
25.4
144
1.0
145
0.0
146
1.0
147
0.09
 71
1.0
 72
0.0
 73
0
 74
0
 75
0
 76
0
 77
1
 78
8
170
0
171
2
172
0
173
0
174
0
175
0
176
0
177
0
178
0
270
2
271
2
272
2
273
2
274
2
275
0
280
0
281
0
282
0
283
1
284
8
285
0
286
0
287
3
288
0
340
11
341
213
342
213
343
213
344
213
  0
DIMSTYLE
105
218
100
AcDbSymbolTableRecord
100
AcDbDimStyleTableRecord
  2
DIMSTYLE_1
 70
0
  3

  4

 40
1.0
 41
3.0
 42
0.0625
 43
0.38
 44
0.18
 45
0.0
 46
0.0
 47
0.0
 48
0.0
140
3.0
141
0.09
142
0.0
143
25.4
144
1.0
145
0.0
146
1.0
147
0.09
 71
0.0
 72
0.0
 73
0
 74
0
 75
0
 76
0
 77
1
 78
8
170
0
171
2
172
0
173
0
174
0
175
0
176
0
177
0
178
0
270
2
271
2
272
2
273
2
274
2
275
0
280
0
281
0
282
0
283
1
284
8
285
0
286
0
287
3
288
0
340
11
341
213
342
213
343
213
344
213
  0
DIMSTYLE
105
219
100
AcDbSymbolTableRecord
100
AcDbDimStyleTableRecord
  2
DIMSTYLE_2
 70
0
  3

  4

 40
1.0
 41
3.0
 42
0.0625
 43
0.38
 44
0.18
 45
0.0
 46
0.0
 47
0.0
 48
0.0
140
3.0
141
0.09
142
0.0
143
25.4
144
1.0
145
0.0
146
1.0
147
0.09
 71
0.0
 72
0.0
 73
0
 74
0
 75
0
 76
0
 77
1
 78
8
170
0
171
2
172
0
173
0
174
0
175
0
176
0
177
0
178
0
270
2
271
1
272
1
273
2
274
2
275
0
280
0
281
0
282
0
283
1
284
8
285
0
286
0
287
3
288
0
340
11
341
213
342
213
343
213
344
213
  0
ENDTAB
  0
ENDSEC
  0
SECTION
  2
BLOCKS
  0
BLOCK
  5
20
100
AcDbEntity
  8
0
100
AcDbBlockBegin
  2
*Model_Space
 70
0
 10
0.0
 20
0.0
 30
0.0
  3
*Model_Space
  1

  0
ENDBLK
  5
21
100
AcDbEntity
  8
0
100
AcDbBlockEnd
  0
BLOCK
  5
1C
100
AcDbEntity
  8
0
100
AcDbBlockBegin
  2
*Paper_Space
 70
0
 10
0.0
 20
0.0
 30
0.0
  3
*Paper_Space
  1

  0
ENDBLK
  5
1D
100
AcDbEntity
  8
0
100
AcDbBlockEnd
  0
BLOCK
  5
21A
100
AcDbEntity
  8
0
100
AcDbBlockBegin
  2
_FILLED
 70
64
 10
0.0
 20
0.0
  3
_FILLED
  1

  0
SOLID
  5
21B
100
AcDbEntity
  8
0
  6
BYBLOCK
 62
0
100
AcDbTrace
 10
0.0
 20
0.0
 11
-1.0
 21
0.3166666667
 12
-1.0
 22
-0.3166666667
 13
-1.0
 23
-0.3166666667
  0
ENDBLK
  5
21C
100
AcDbEntity
  8
0
  6
BYBLOCK
 62
0
100
AcDbBlockEnd
  0
BLOCK
  5
21D
100
AcDbEntity
  8
0
100
AcDbBlockBegin
 62
7
  6
CONTINUOUS
  2
*D0
 70
65
 10
0.0
 20
0.0
  3
*D0
  1

  0
MTEXT
  5
21E
100
AcDbEntity
  8
0
100
AcDbMText
 62
7
  6
CONTINUOUS
  7
STANDARD
 71
2
 72
1
 10
14.5427822222
 20
20.6553052315
 30
0.0
 11
1.0
 21
0.0
 31
0.0
 44
0.9
  1
49,6
 40
3.0
 41
8.7857142857
  0
LINE
  5
21F
100
AcDbEntity
  8
0
100
AcDbLine
 62
7
  6
CONTINUOUS
 10
39.3427822222
 20
8.1529400367
 11
39.3427822222
 21
18.4053052315
  0
LINE
  5
220
100
AcDbEntity
  8
0
100
AcDbLine
 62
7
  6
CONTINUOUS
 10
-10.2572177778
 20
8.1529400367
 11
-10.2572177778
 21
18.4053052315
  0
LINE
  5
221
100
AcDbEntity
  8
0
100
AcDbLine
 62
7
  6
CONTINUOUS
 10
39.3427822222
 20
16.9053052315
 11
14.5427822222
 21
16.9053052315
  0
LINE
  5
222
100
AcDbEntity
  8
0
100
AcDbLine
 62
7
  6
CONTINUOUS
 10
-10.2572177778
 20
16.9053052315
 11
14.5427822222
 21
16.9053052315
  0
INSERT
  5
223
100
AcDbEntity
  8
0
100
AcDbBlockReference
 62
7
  6
CONTINUOUS
  2
_FILLED
 10
39.3427822222
 20
16.9053052315
 41
3.0
 42
3.0
 43
3.0
  0
INSERT
  5
224
100
AcDbEntity
  8
0
100
AcDbBlockReference
 62
7
  6
CONTINUOUS
  2
_FILLED
 10
-10.2572177778
 20
16.9053052315
 41
3.0
 42
3.0
 43
3.0
 50
180.0
  0
ENDBLK
  5
225
100
AcDbEntity
  8
0
  6
BYBLOCK
 62
0
100
AcDbBlockEnd
  0
BLOCK
  5
226
100
AcDbEntity
  8
0
100
AcDbBlockBegin
 62
7
  6
CONTINUOUS
  2
*D1
 70
65
 10
0.0
 20
0.0
  3
*D1
  1

  0
MTEXT
  5
227
100
AcDbEntity
  8
0
100
AcDbMText
 62
7
  6
CONTINUOUS
  7
STANDARD
 71
2
 72
1
 10
43.5927822222
 20
-0.3377154076
 30
0.0
 11
0.0
 21
1.0
 31
0.0
 44
0.9
  1
18,5
 40
3.0
 41
7.9285714286
  0
LINE
  5
228
100
AcDbEntity
  8
0
100
AcDbLine
 62
7
  6
CONTINUOUS
 10
39.5858382725
 20
8.9053052315
 11
48.8427822222
 21
8.9053052315
  0
LINE
  5
229
100
AcDbEntity
  8
0
100
AcDbLine
 62
7
  6
CONTINUOUS
 10
38.7288277677
 20
-9.5807360467
 11
48.8427822222
 21
-9.5807360467
  0
LINE
  5
22A
100
AcDbEntity
  8
0
100
AcDbLine
 62
7
  6
CONTINUOUS
 10
47.3427822222
 20
8.9053052315
 11
47.3427822222
 21
-0.3377154076
  0
LINE
  5
22B
100
AcDbEntity
  8
0
100
AcDbLine
 62
7
  6
CONTINUOUS
 10
47.3427822222
 20
-9.5807360467
 11
47.3427822222
 21
-0.3377154076
  0
INSERT
  5
22C
100
AcDbEntity
  8
0
100
AcDbBlockReference
 62
7
  6
CONTINUOUS
  2
_FILLED
 10
47.3427822222
 20
8.9053052315
 41
3.0
 42
3.0
 43
3.0
 50
90.0
  0
INSERT
  5
22D
100
AcDbEntity
  8
0
100
AcDbBlockReference
 62
7
  6
CONTINUOUS
  2
_FILLED
 10
47.3427822222
 20
-9.5807360467
 41
3.0
 42
3.0
 43
3.0
 50
270.0
  0
ENDBLK
  5
22E
100
AcDbEntity
  8
0
  6
BYBLOCK
 62
0
100
AcDbBlockEnd
  0
BLOCK
  5
22F
100
AcDbEntity
  8
0
100
AcDbBlockBegin
 62
7
  6
CONTINUOUS
  2
*D2
 70
65
 10
0.0
 20
0.0
  3
*D2
  1

  0
MTEXT
  5
230
100
AcDbEntity
  8
0
100
AcDbMText
 62
7
  6
CONTINUOUS
  7
STANDARD
 71
2
 72
1
 10
-24.8065917865
 20
20.6553052315
 30
0.0
 11
1.0
 21
0.0
 31
0.0
 44
0.9
  1
6,5
 40
3.0
 41
6.2142857143
  0
LINE
  5
231
100
AcDbEntity
  8
0
100
AcDbLine
 62
7
  6
CONTINUOUS
 10
-21.5567466667
 20
5.9122872574
 11
-21.5567466667
 21
18.4053052315
  0
LINE
  5
232
100
AcDbEntity
  8
0
100
AcDbLine
 62
7
  6
CONTINUOUS
 10
-28.0564369064
 20
9.0615640005
 11
-28.0564369064
 21
18.4053052315
  0
LINE
  5
233
100
AcDbEntity
  8
0
100
AcDbLine
 62
7
  6
CONTINUOUS
 10
-21.5567466667
 20
16.9053052315
 11
-17.5567466667
 21
16.9053052315
  0
LINE
  5
234
100
AcDbEntity
  8
0
100
AcDbLine
 62
7
  6
CONTINUOUS
 10
-17.5567466667
 20
16.9053052315
 11
-24.8065917865
 21
16.9053052315
  0
LINE
  5
235
100
AcDbEntity
  8
0
100
AcDbLine
 62
7
  6
CONTINUOUS
 10
-28.0564369064
 20
16.9053052315
 11
-32.0564369064
 21
16.9053052315
  0
LINE
  5
236
100
AcDbEntity
  8
0
100
AcDbLine
 62
7
  6
CONTINUOUS
 10
-32.0564369064
 20
16.9053052315
 11
-24.8065917865
 21
16.9053052315
  0
INSERT
  5
237
100
AcDbEntity
  8
0
100
AcDbBlockReference
 62
7
  6
CONTINUOUS
  2
_FILLED
 10
-21.5567466667
 20
16.9053052315
 41
3.0
 42
3.0
 43
3.0
 50
180.0
  0
INSERT
  5
238
100
AcDbEntity
  8
0
100
AcDbBlockReference
 62
7
  6
CONTINUOUS
  2
_FILLED
 10
-28.0564369064
 20
16.9053052315
 41
3.0
 42
3.0
 43
3.0
  0
ENDBLK
  5
239
100
AcDbEntity
  8
0
  6
BYBLOCK
 62
0
100
AcDbBlockEnd
  0
ENDSEC
  0
SECTION
  2
ENTITIES
  0
DIMENSION
  5
23A
100
AcDbEntity
  8
0
100
AcDbDimension
 62
7
  6
CONTINUOUS
  2
*D0
 10
-10.2572177778
 20
16.9053052315
 11
10.1499250794
 21
19.1553052315
 70
160
 71
2
 42
49.6
  3
DIMSTYLE_1
100
AcDbAlignedDimension
 13
39.3427822222
 23
8.1529400367
 14
-10.2572177778
 24
8.1529400367
 50
180.0
100
AcDbRotatedDimension
  0
DIMENSION
  5
23B
100
AcDbEntity
  8
0
100
AcDbDimension
 62
7
  6
CONTINUOUS
  2
*D1
 10
47.3427822222
 20
-9.5807360467
 11
46.8690740576
 21
-3.8817736097
 70
160
 71
2
 42
18.4860412781
  3
DIMSTYLE_2
100
AcDbAlignedDimension
 13
39.5858382725
 23
8.9053052315
 14
38.7288277677
 24
-9.5807360467
 50
270.0
100
AcDbRotatedDimension
  0
DIMENSION
  5
23C
100
AcDbEntity
  8
0
100
AcDbDimension
 62
7
  6
CONTINUOUS
  2
*D2
 10
-28.0564369064
 20
16.9053052315
 11
-27.9137346437
 21
19.1553052315
 70
160
 71
2
 42
6.4996902397
  3
DIMSTYLE_1
100
AcDbAlignedDimension
 13
-21.5567466667
 23
5.9122872574
 14
-28.0564369064
 24
9.0615640005
 50
180.0
100
AcDbRotatedDimension
  0
LINE
  5
23D
100
AcDbEntity
  8
RACCORDO
100
AcDbLine
 62
7
  6
CONTINUOUS
 10
-10.2437247
 20
-9.3309952741
 11
-10.2572177778
 21
-1.9762211792
  0
LINE
  5
23E
100
AcDbEntity
  8
ASSI
100
AcDbLine
 62
7
  6
CONTINUOUS
 10
-10.2437247
 20
-9.3309952741
 11
-10.2572177778
 21
-1.9762211792
  0
LINE
  5
23F
100
AcDbEntity
  8
DRAFT
100
AcDbLine
 62
7
  6
CONTINUOUS
 10
-10.2572177778
 20
7.6529400367
 11
-10.2572177778
 21
-1.9762211792
  0
LINE
  5
240
100
AcDbEntity
  8
ASSI
100
AcDbLine
 62
7
  6
CONTINUOUS
 10
-10.2572177778
 20
7.6529400367
 11
-10.2572177778
 21
-1.9762211792
  0
LINE
  5
241
100
AcDbEntity
  8
RACCORDO
100
AcDbLine
 62
7
  6
CONTINUOUS
 10
-10.2502357518
 20
8.6553433077
 11
-10.2502357518
 21
7.9547312416
  0
LINE
  5
242
100
AcDbEntity
  8
ASSI
100
AcDbLine
 62
7
  6
CONTINUOUS
 10
-10.2502357518
 20
8.6553433077
 11
-10.2502357518
 21
7.9547312416
  0
LINE
  5
243
100
AcDbEntity
  8
RACCORDO
100
AcDbLine
 62
7
  6
CONTINUOUS
 10
-10.2310351804
 20
-9.3246509975
 11
-10.2310351804
 21
-9.0346254221
  0
LINE
  5
244
100
AcDbEntity
  8
ASSI
100
AcDbLine
 62
7
  6
CONTINUOUS
 10
-10.2310351804
 20
-9.3246509975
 11
-10.2310351804
 21
-9.0346254221
  0
LINE
  5
245
100
AcDbEntity
  8
RACCORDO
100
AcDbLine
 62
253
  6
CONTINUOUS
 10
-9.9126526465
 20
-7.7537122376
 11
-9.9068184757
 21
8.8118498791
  0
LINE
  5
246
100
AcDbEntity
  8
ASSI
100
AcDbLine
 62
253
  6
CONTINUOUS
 10
-9.9126526465
 20
-7.7537122376
 11
-9.9068184757
 21
8.8118498791
  0
LINE
  5
247
100
AcDbEntity
  8
RACCORDO
100
AcDbLine
 62
253
  6
CONTINUOUS
 10
-10.2310351804
 20
-9.0346254221
 11
-10.1734222762
 21
-8.4526333477
  0
LINE
  5
248
100
AcDbEntity
  8
ASSI
100
AcDbLine
 62
253
  6
CONTINUOUS
 10
-10.2310351804
 20
-9.0346254221
 11
-10.1734222762
 21
-8.4526333477
  0
LINE
  5
249
100
AcDbEntity
  8
RACCORDO
100
AcDbLine
 62
253
  6
CONTINUOUS
 10
-9.9817548584
 20
-9.2877127426
 11
-9.9234603524
 21
-8.6988352859
  0
LINE
  5
24A
100
AcDbEntity
  8
ASSI
100
AcDbLine
 62
253
  6
CONTINUOUS
 10
-9.9817548584
 20
-9.2877127426
 11
-9.9234603524
 21
-8.6988352859
  0
LINE
  5
24B
100
AcDbEntity
  8
RACCORDO
100
AcDbLine
 62
7
  6
CONTINUOUS
 10
-10.2572177778
 20
7.6529400367
 11
-10.2553808814
 21
7.654776933
  0
LINE
  5
24C
100
AcDbEntity
  8
ASSI
100
AcDbLine
 62
7
  6
CONTINUOUS
 10
-10.2572177778
 20
7.6529400367
 11
-10.2553808814
 21
7.654776933
  0
LINE
  5
24D
100
AcDbEntity
  8
RACCORDO
100
AcDbLine
 62
253
  6
CONTINUOUS
 10
-10.1567803995
 20
8.5618879554
 11
-10.2502357518
 21
8.6553433077
  0
LINE
  5
24E
100
AcDbEntity
  8
ASSI
100
AcDbLine
 62
253
  6
CONTINUOUS
 10
-10.1567803995
 20
8.5618879554
 11
-10.2502357518
 21
8.6553433077
  0
LINE
  5
24F
100
AcDbEntity
  8
RACCORDO
100
AcDbLine
 62
253
  6
CONTINUOUS
 10
-9.9068184757
 20
8.8118498791
 11
-10.000273828
 21
8.9053052315
  0
LINE
  5
250
100
AcDbEntity
  8
ASSI
100
AcDbLine
 62
253
  6
CONTINUOUS
 10
-9.9068184757
 20
8.8118498791
 11
-10.000273828
 21
8.9053052315
  0
LINE
  5
251
100
AcDbEntity
  8
RACCORDO
100
AcDbLine
 62
7
  6
CONTINUOUS
 10
-9.9932665209
 20
-9.5807376461
 11
-9.1432665224
 21
-9.5807376461
  0
LINE
  5
252
100
AcDbEntity
  8
RACCORDO
100
AcDbLine
 62
7
  6
CONTINUOUS
 10
38.2288309668
 20
-9.5807376461
 11
39.0788309654
 21
-9.5807376461
  0
LINE
  5
253
100
AcDbEntity
  8
DRAFT
100
AcDbLine
 62
7
  6
CONTINUOUS
 10
38.2288277677
 20
-9.5807360467
 11
-9.1432633232
 21
-9.5807360467
  0
LINE
  5
254
100
AcDbEntity
  8
ASSI
100
AcDbLine
 62
7
  6
CONTINUOUS
 10
39.0788309654
 20
-9.5807376461
 11
-9.9932665209
 21
-9.5807376461
  0
LINE
  5
255
100
AcDbEntity
  8
RACCORDO
100
AcDbLine
 62
7
  6
CONTINUOUS
 10
39.0665996234
 20
-9.5746224409
 11
-9.9810351789
 21
-9.5746224409
  0
LINE
  5
256
100
AcDbEntity
  8
ASSI
100
AcDbLine
 62
7
  6
CONTINUOUS
 10
39.0665996234
 20
-9.5746224409
 11
-9.9810351789
 21
-9.5746224409
  0
LINE
  5
257
100
AcDbEntity
  8
RACCORDO
100
AcDbLine
 62
7
  6
CONTINUOUS
 10
39.0673193029
 20
-9.2877127426
 11
-9.9817548584
 21
-9.2877127426
  0
LINE
  5
258
100
AcDbEntity
  8
ASSI
100
AcDbLine
 62
7
  6
CONTINUOUS
 10
39.0673193029
 20
-9.2877127426
 11
-9.9817548584
 21
-9.2877127426
  0
LINE
  5
259
100
AcDbEntity
  8
RACCORDO
100
AcDbLine
 62
253
  6
CONTINUOUS
 10
-9.9234603524
 20
-8.6988352859
 11
39.0090247968
 21
-8.6988352859
  0
LINE
  5
25A
100
AcDbEntity
  8
ASSI
100
AcDbLine
 62
253
  6
CONTINUOUS
 10
-9.9234603524
 20
-8.6988352859
 11
39.0090247968
 21
-8.6988352859
  0
LINE
  5
25B
100
AcDbEntity
  8
RACCORDO
100
AcDbLine
 62
253
  6
CONTINUOUS
 10
-9.9126526465
 20
-7.7537122376
 11
38.998217091
 21
-7.7537122376
  0
LINE
  5
25C
100
AcDbEntity
  8
ASSI
100
AcDbLine
 62
253
  6
CONTINUOUS
 10
-9.9126526465
 20
-7.7537122376
 11
38.998217091
 21
-7.7537122376
  0
LINE
  5
25D
100
AcDbEntity
  8
CURVE
100
AcDbLine
 62
253
  6
CONTINUOUS
 10
10.4927822222
 20
-1.2377127426
 11
14.5427822222
 21
-5.2877127426
  0
LINE
  5
25E
100
AcDbEntity
  8
RACCORDO
100
AcDbLine
 62
253
  6
CONTINUOUS
 10
-10.2437247
 20
-9.3309952741
 11
-10.2310351804
 21
-9.3246509975
  0
LINE
  5
25F
100
AcDbEntity
  8
ASSI
100
AcDbLine
 62
253
  6
CONTINUOUS
 10
-10.2437247
 20
-9.3309952741
 11
-10.2310351804
 21
-9.3246509975
  0
LINE
  5
260
100
AcDbEntity
  8
CURVE
100
AcDbLine
 62
253
  6
CONTINUOUS
 10
18.5927822222
 20
-1.2377127426
 11
10.4927822222
 21
-1.2377127426
  0
LINE
  5
261
100
AcDbEntity
  8
CURVE
100
AcDbLine
 62
253
  6
CONTINUOUS
 10
14.5427822222
 20
-5.2877127426
 11
18.5927822222
 21
-1.2377127426
  0
LINE
  5
262
100
AcDbEntity
  8
RACCORDO
100
AcDbLine
 62
253
  6
CONTINUOUS
 10
39.3165996248
 20
-9.3246509975
 11
39.3292891445
 21
-9.3309952741
  0
LINE
  5
263
100
AcDbEntity
  8
ASSI
100
AcDbLine
 62
253
  6
CONTINUOUS
 10
39.3165996248
 20
-9.3246509975
 11
39.3292891445
 21
-9.3309952741
  0
LINE
  5
264
100
AcDbEntity
  8
DRAFT
100
AcDbLine
 62
7
  6
CONTINUOUS
 10
35.8552482128
 20
8.9053052315
 11
35.5927822222
 21
8.8529400367
  0
LINE
  5
265
100
AcDbEntity
  8
ASSI
100
AcDbLine
 62
7
  6
CONTINUOUS
 10
35.8552482128
 20
8.9053052315
 11
35.5927822222
 21
8.8529400367
  0
LINE
  5
266
100
AcDbEntity
  8
DRAFT
100
AcDbLine
 62
7
  6
CONTINUOUS
 10
-6.7696837684
 20
8.9053052315
 11
-6.5072177778
 21
8.8529400367
  0
LINE
  5
267
100
AcDbEntity
  8
ASSI
100
AcDbLine
 62
7
  6
CONTINUOUS
 10
-6.7696837684
 20
8.9053052315
 11
-6.5072177778
 21
8.8529400367
  0
LINE
  5
268
100
AcDbEntity
  8
RACCORDO
100
AcDbLine
 62
253
  6
CONTINUOUS
 10
39.2423448439
 20
8.5618879553
 11
-9.9068184729
 21
8.5615640005
  0
LINE
  5
269
100
AcDbEntity
  8
ASSI
100
AcDbLine
 62
253
  6
CONTINUOUS
 10
39.2423448439
 20
8.5618879553
 11
-9.9068184729
 21
8.5615640005
  0
LINE
  5
26A
100
AcDbEntity
  8
RACCORDO
100
AcDbLine
 62
253
  6
CONTINUOUS
 10
-9.9068184757
 20
8.5615640005
 11
-10.1567803994
 21
8.5618879553
  0
LINE
  5
26B
100
AcDbEntity
  8
ASSI
100
AcDbLine
 62
253
  6
CONTINUOUS
 10
-9.9068184757
 20
8.5615640005
 11
-10.1567803994
 21
8.5618879553
  0
LINE
  5
26C
100
AcDbEntity
  8
RACCORDO
100
AcDbLine
 62
253
  6
CONTINUOUS
 10
39.0858382725
 20
8.9053052315
 11
38.9923829201
 21
8.8118498791
  0
LINE
  5
26D
100
AcDbEntity
  8
ASSI
100
AcDbLine
 62
253
  6
CONTINUOUS
 10
39.0858382725
 20
8.9053052315
 11
38.9923829201
 21
8.8118498791
  0
LINE
  5
26E
100
AcDbEntity
  8
RACCORDO
100
AcDbLine
 62
253
  6
CONTINUOUS
 10
38.9923829201
 20
8.8118498791
 11
-9.9068184757
 21
8.8118498791
  0
LINE
  5
26F
100
AcDbEntity
  8
ASSI
100
AcDbLine
 62
253
  6
CONTINUOUS
 10
38.9923829201
 20
8.8118498791
 11
-9.9068184757
 21
8.8118498791
  0
LINE
  5
270
100
AcDbEntity
  8
DRAFT
100
AcDbLine
 62
7
  6
CONTINUOUS
 10
35.5927822222
 20
8.8529400367
 11
-6.5072177778
 21
8.8529400367
  0
LINE
  5
271
100
AcDbEntity
  8
ASSI
100
AcDbLine
 62
7
  6
CONTINUOUS
 10
35.5927822222
 20
8.8529400367
 11
-6.5072177778
 21
8.8529400367
  0
LINE
  5
272
100
AcDbEntity
  8
RACCORDO
100
AcDbLine
 62
7
  6
CONTINUOUS
 10
39.0858382725
 20
8.9053052315
 11
35.8552482128
 21
8.9053052315
  0
LINE
  5
273
100
AcDbEntity
  8
ASSI
100
AcDbLine
 62
7
  6
CONTINUOUS
 10
39.0858382725
 20
8.9053052315
 11
35.8552482128
 21
8.9053052315
  0
LINE
  5
274
100
AcDbEntity
  8
RACCORDO
100
AcDbLine
 62
7
  6
CONTINUOUS
 10
-6.7696837684
 20
8.9053052315
 11
-10.000273828
 21
8.9053052315
  0
LINE
  5
275
100
AcDbEntity
  8
ASSI
100
AcDbLine
 62
7
  6
CONTINUOUS
 10
-6.7696837684
 20
8.9053052315
 11
-10.000273828
 21
8.9053052315
  0
LINE
  5
276
100
AcDbEntity
  8
RACCORDO
100
AcDbLine
 62
253
  6
CONTINUOUS
 10
39.3358001963
 20
8.6553433077
 11
39.2423448439
 21
8.5618879554
  0
LINE
  5
277
100
AcDbEntity
  8
ASSI
100
AcDbLine
 62
253
  6
CONTINUOUS
 10
39.3358001963
 20
8.6553433077
 11
39.2423448439
 21
8.5618879554
  0
LINE
  5
278
100
AcDbEntity
  8
RACCORDO
100
AcDbLine
 62
253
  6
CONTINUOUS
 10
39.0090247968
 20
-8.6988352859
 11
39.0673193029
 21
-9.2877127426
  0
LINE
  5
279
100
AcDbEntity
  8
ASSI
100
AcDbLine
 62
253
  6
CONTINUOUS
 10
39.0090247968
 20
-8.6988352859
 11
39.0673193029
 21
-9.2877127426
  0
LINE
  5
27A
100
AcDbEntity
  8
RACCORDO
100
AcDbLine
 62
253
  6
CONTINUOUS
 10
39.2589867206
 20
-8.4526333477
 11
39.3165996248
 21
-9.0346254221
  0
LINE
  5
27B
100
AcDbEntity
  8
ASSI
100
AcDbLine
 62
253
  6
CONTINUOUS
 10
39.2589867206
 20
-8.4526333477
 11
39.3165996248
 21
-9.0346254221
  0
LINE
  5
27C
100
AcDbEntity
  8
RACCORDO
100
AcDbLine
 62
253
  6
CONTINUOUS
 10
38.998217091
 20
-7.7537122376
 11
38.9923829201
 21
8.8118498791
  0
LINE
  5
27D
100
AcDbEntity
  8
ASSI
100
AcDbLine
 62
253
  6
CONTINUOUS
 10
38.998217091
 20
-7.7537122376
 11
38.9923829201
 21
8.8118498791
  0
LINE
  5
27E
100
AcDbEntity
  8
RACCORDO
100
AcDbLine
 62
7
  6
CONTINUOUS
 10
39.3165996248
 20
-9.0346254221
 11
39.3165996248
 21
-9.3246509975
  0
LINE
  5
27F
100
AcDbEntity
  8
ASSI
100
AcDbLine
 62
7
  6
CONTINUOUS
 10
39.3165996248
 20
-9.0346254221
 11
39.3165996248
 21
-9.3246509975
  0
LINE
  5
280
100
AcDbEntity
  8
RACCORDO
100
AcDbLine
 62
7
  6
CONTINUOUS
 10
39.3358001963
 20
7.9547312416
 11
39.3358001963
 21
8.6553433077
  0
LINE
  5
281
100
AcDbEntity
  8
ASSI
100
AcDbLine
 62
7
  6
CONTINUOUS
 10
39.3358001963
 20
7.9547312416
 11
39.3358001963
 21
8.6553433077
  0
LINE
  5
282
100
AcDbEntity
  8
DRAFT
100
AcDbLine
 62
7
  6
CONTINUOUS
 10
39.3427822222
 20
7.6529400367
 11
39.3427822222
 21
-1.9762211792
  0
LINE
  5
283
100
AcDbEntity
  8
ASSI
100
AcDbLine
 62
7
  6
CONTINUOUS
 10
39.3427822222
 20
7.6529400367
 11
39.3427822222
 21
-1.9762211792
  0
LINE
  5
284
100
AcDbEntity
  8
RACCORDO
100
AcDbLine
 62
7
  6
CONTINUOUS
 10
39.3292891445
 20
-9.3309952741
 11
39.3427822222
 21
-1.9762211792
  0
LINE
  5
285
100
AcDbEntity
  8
ASSI
100
AcDbLine
 62
7
  6
CONTINUOUS
 10
39.3292891445
 20
-9.3309952741
 11
39.3427822222
 21
-1.9762211792
  0
LINE
  5
286
100
AcDbEntity
  8
RACCORDO
100
AcDbLine
 62
7
  6
CONTINUOUS
 10
39.3427822222
 20
7.6529400367
 11
39.3409453259
 21
7.654776933
  0
LINE
  5
287
100
AcDbEntity
  8
ASSI
100
AcDbLine
 62
7
  6
CONTINUOUS
 10
39.3427822222
 20
7.6529400367
 11
39.3409453259
 21
7.654776933
  0
LINE
  5
288
100
AcDbEntity
  8
RACCORDO
100
AcDbLine
 62
7
  6
CONTINUOUS
 10
-23.5567466667
 20
-9.5746224409
 11
-22.8560135545
 21
-9.5807376461
  0
LINE
  5
289
100
AcDbEntity
  8
ASSI
100
AcDbLine
 62
7
  6
CONTINUOUS
 10
-23.5567466667
 20
-9.5746224409
 11
-22.8560135545
 21
-9.5807376461
  0
LINE
  5
28A
100
AcDbEntity
  8
RACCORDO
100
AcDbLine
 62
253
  6
CONTINUOUS
 10
-23.5567466667
 20
-9.3246509975
 11
-22.8297645735
 21
-9.3309952741
  0
LINE
  5
28B
100
AcDbEntity
  8
ASSI
100
AcDbLine
 62
253
  6
CONTINUOUS
 10
-23.5567466667
 20
-9.3246509975
 11
-22.8297645735
 21
-9.3309952741
  0
LINE
  5
28C
100
AcDbEntity
  8
RACCORDO
100
AcDbLine
 62
7
  6
CONTINUOUS
 10
-26.8964366804
 20
-8.6988352859
 11
-23.5567466667
 21
-9.2877127426
  0
LINE
  5
28D
100
AcDbEntity
  8
ASSI
100
AcDbLine
 62
7
  6
CONTINUOUS
 10
-26.8964366804
 20
-8.6988352859
 11
-23.5567466667
 21
-9.2877127426
  0
LINE
  5
28E
100
AcDbEntity
  8
RACCORDO
100
AcDbLine
 62
253
  6
CONTINUOUS
 10
-26.8573877376
 20
-8.4526333477
 11
-23.5567466667
 21
-9.0346254221
  0
LINE
  5
28F
100
AcDbEntity
  8
ASSI
100
AcDbLine
 62
253
  6
CONTINUOUS
 10
-26.8573877376
 20
-8.4526333477
 11
-23.5567466667
 21
-9.0346254221
  0
LINE
  5
290
100
AcDbEntity
  8
RACCORDO
100
AcDbLine
 62
253
  6
CONTINUOUS
 10
-27.4765607932
 20
-7.7437910615
 11
-27.7219830074
 21
-7.7537115285
  0
LINE
  5
291
100
AcDbEntity
  8
ASSI
100
AcDbLine
 62
253
  6
CONTINUOUS
 10
-27.4765607932
 20
-7.7437910615
 11
-27.7219830074
 21
-7.7537115285
  0
LINE
  5
292
100
AcDbEntity
  8
RACCORDO
100
AcDbLine
 62
7
  6
CONTINUOUS
 10
-23.5567466667
 20
-9.5746224409
 11
-23.5567466667
 21
-9.0346254221
  0
LINE
  5
293
100
AcDbEntity
  8
ASSI
100
AcDbLine
 62
7
  6
CONTINUOUS
 10
-23.5567466667
 20
-9.5746224409
 11
-23.5567466667
 21
-9.0346254221
  0
LINE
  5
294
100
AcDbEntity
  8
RACCORDO
100
AcDbLine
 62
7
  6
CONTINUOUS
 10
-22.4567466667
 20
7.9547312416
 11
-22.4567466667
 21
8.9053052315
  0
LINE
  5
295
100
AcDbEntity
  8
ASSI
100
AcDbLine
 62
7
  6
CONTINUOUS
 10
-22.4567466667
 20
7.9547312416
 11
-22.4567466667
 21
8.9053052315
  0
LINE
  5
296
100
AcDbEntity
  8
DRAFT
100
AcDbLine
 62
7
  6
CONTINUOUS
 10
-22.0567466667
 20
7.6529400367
 11
-22.0567466667
 21
-1.9762211792
  0
LINE
  5
297
100
AcDbEntity
  8
ASSI
100
AcDbLine
 62
7
  6
CONTINUOUS
 10
-22.0567466667
 20
7.6529400367
 11
-22.0567466667
 21
-1.9762211792
  0
LINE
  5
298
100
AcDbEntity
  8
RACCORDO
100
AcDbLine
 62
7
  6
CONTINUOUS
 10
-22.8560135545
 20
-9.5807376461
 11
-22.0567466667
 21
-1.9762211792
  0
LINE
  5
299
100
AcDbEntity
  8
ASSI
100
AcDbLine
 62
7
  6
CONTINUOUS
 10
-22.8560135545
 20
-9.5807376461
 11
-22.0567466667
 21
-1.9762211792
  0
LINE
  5
29A
100
AcDbEntity
  8
0
100
AcDbLine
 62
7
  6
CONTINUOUS
 10
-21.5567466667
 20
5.4122872574
 11
-21.5567466667
 21
3.6122872574
  0
LINE
  5
29B
100
AcDbEntity
  8
0
100
AcDbLine
 62
7
  6
CONTINUOUS
 10
-22.0567466667
 20
3.5872872574
 11
-21.5567466667
 21
3.6122872574
  0
LINE
  5
29C
100
AcDbEntity
  8
0
100
AcDbLine
 62
7
  6
CONTINUOUS
 10
-22.0567466667
 20
5.4372872574
 11
-21.5567466667
 21
5.4122872574
  0
LINE
  5
29D
100
AcDbEntity
  8
RACCORDO
100
AcDbLine
 62
7
  6
CONTINUOUS
 10
-22.0567466667
 20
7.6529400367
 11
-22.1619823886
 21
7.654776933
  0
LINE
  5
29E
100
AcDbEntity
  8
ASSI
100
AcDbLine
 62
7
  6
CONTINUOUS
 10
-22.0567466667
 20
7.6529400367
 11
-22.1619823886
 21
7.654776933
  0
LINE
  5
29F
100
AcDbEntity
  8
RACCORDO
100
AcDbLine
 62
253
  6
CONTINUOUS
 10
-22.4567466667
 20
8.6553433077
 11
-27.8108002154
 21
8.5618879554
  0
LINE
  5
2A0
100
AcDbEntity
  8
ASSI
100
AcDbLine
 62
253
  6
CONTINUOUS
 10
-22.4567466667
 20
8.6553433077
 11
-27.8108002154
 21
8.5618879554
  0
LINE
  5
2A1
100
AcDbEntity
  8
RACCORDO
100
AcDbLine
 62
7
  6
CONTINUOUS
 10
-22.4567466667
 20
8.9053052315
 11
-27.8108002179
 21
8.8118498791
  0
LINE
  5
2A2
100
AcDbEntity
  8
ASSI
100
AcDbLine
 62
7
  6
CONTINUOUS
 10
-22.4567466667
 20
8.9053052315
 11
-27.8108002179
 21
8.8118498791
  0
LINE
  5
2A3
100
AcDbEntity
  8
RACCORDO
100
AcDbLine
 62
253
  6
CONTINUOUS
 10
-27.8108002179
 20
8.5618879553
 11
-28.0564369064
 21
8.5615640005
  0
LINE
  5
2A4
100
AcDbEntity
  8
ASSI
100
AcDbLine
 62
253
  6
CONTINUOUS
 10
-27.8108002179
 20
8.5618879553
 11
-28.0564369064
 21
8.5615640005
  0
CIRCLE
  5
2A5
100
AcDbEntity
  8
DRAFT
100
AcDbCircle
 62
7
  6
CONTINUOUS
 10
14.5427818781
 20
4.5125078032
 40
1.3135386721
  0
CIRCLE
  5
2A6
100
AcDbEntity
  8
ASSI
100
AcDbCircle
 62
7
  6
CONTINUOUS
 10
14.5427818781
 20
4.5125078032
 40
1.3135386721
  0
CIRCLE
  5
2A7
100
AcDbEntity
  8
DRAFT
100
AcDbCircle
 62
7
  6
CONTINUOUS
 10
14.5427822222
 20
4.5122872574
 40
1.3
  0
CIRCLE
  5
2A8
100
AcDbEntity
  8
ASSI
100
AcDbCircle
 62
7
  6
CONTINUOUS
 10
14.5427822222
 20
4.5122872574
 40
1.3
  0
CIRCLE
  5
2A9
100
AcDbEntity
  8
DRAFT
100
AcDbCircle
 62
7
  6
CONTINUOUS
 10
14.5427822222
 20
4.5122872574
 40
1.225
  0
CIRCLE
  5
2AA
100
AcDbEntity
  8
RACCORDO
100
AcDbCircle
 62
253
  6
CONTINUOUS
 10
14.5427822222
 20
4.5122872574
 40
1.2068524201
  0
CIRCLE
  5
2AB
100
AcDbEntity
  8
RACCORDO
100
AcDbCircle
 62
253
  6
CONTINUOUS
 10
14.5427822222
 20
4.5122872574
 40
1.1180464865
  0
ARC
  5
2AC
100
AcDbEntity
  8
RACCORDO
100
AcDbCircle
 62
253
  6
CONTINUOUS
 10
-9.9067270087
 20
8.5617964884
 40
0.2500538636
100
AcDbArc
 50
90.020958193
 51
179.979041807
  0
ARC
  5
2AD
100
AcDbEntity
  8
ASSI
100
AcDbCircle
 62
253
  6
CONTINUOUS
 10
-9.9067270087
 20
8.5617964884
 40
0.2500538636
100
AcDbArc
 50
90.020958193
 51
179.979041807
  0
ARC
  5
2AE
100
AcDbEntity
  8
RACCORDO
100
AcDbCircle
 62
253
  6
CONTINUOUS
 10
38.9922920955
 20
8.5617971309
 40
0.2500531776
100
AcDbArc
 50
0.0208110208
 51
89.9791889339
  0
ARC
  5
2AF
100
AcDbEntity
  8
ASSI
100
AcDbCircle
 62
253
  6
CONTINUOUS
 10
38.9922920955
 20
8.5617971309
 40
0.2500531776
100
AcDbArc
 50
0.0208110208
 51
89.9791889339
  0
ARC
  5
2B0
100
AcDbEntity
  8
RACCORDO
100
AcDbCircle
 62
7
  6
CONTINUOUS
 10
396.9432062745
 20
9.1122872574
 40
425.0
100
AcDbArc
 50
180.074245005
 51
182.2743633301
  0
ARC
  5
2B1
100
AcDbEntity
  8
ASSI
100
AcDbCircle
 62
7
  6
CONTINUOUS
 10
396.9432062745
 20
9.1122872574
 40
425.0
100
AcDbArc
 50
180.074245005
 51
182.2743633301
  0
ARC
  5
2B2
100
AcDbEntity
  8
RACCORDO
100
AcDbCircle
 62
253
  6
CONTINUOUS
 10
396.9388510236
 20
9.1122873528
 40
424.7500078483
100
AcDbArc
 50
180.0742450165
 51
182.2743633009
  0
ARC
  5
2B3
100
AcDbEntity
  8
ASSI
100
AcDbCircle
 62
253
  6
CONTINUOUS
 10
396.9388510236
 20
9.1122873528
 40
424.7500078483
100
AcDbArc
 50
180.0742450165
 51
182.2743633009
  0
ARC
  5
2B4
100
AcDbEntity
  8
RACCORDO
100
AcDbCircle
 62
7
  6
CONTINUOUS
 10
-26.7227885027
 20
-7.7140275329
 40
1.0
100
AcDbArc
 50
182.2743633301
 51
260.0
  0
ARC
  5
2B5
100
AcDbEntity
  8
ASSI
100
AcDbCircle
 62
7
  6
CONTINUOUS
 10
-26.7227885027
 20
-7.7140275329
 40
1.0
100
AcDbArc
 50
182.2743633301
 51
260.0
  0
ARC
  5
2B6
100
AcDbEntity
  8
RACCORDO
100
AcDbCircle
 62
253
  6
CONTINUOUS
 10
-26.7271498047
 20
-7.714025961
 40
0.7500018606
100
AcDbArc
 50
182.2744778693
 51
259.9998854608
  0
ARC
  5
2B7
100
AcDbEntity
  8
ASSI
100
AcDbCircle
 62
253
  6
CONTINUOUS
 10
-26.7271498047
 20
-7.714025961
 40
0.7500018606
100
AcDbArc
 50
182.2744778693
 51
259.9998854608
  0
ARC
  5
2B8
100
AcDbEntity
  8
RACCORDO
100
AcDbCircle
 62
7
  6
CONTINUOUS
 10
-22.1567466667
 20
7.9547312416
 40
0.3
100
AcDbArc
 50
180.0
 51
269.0
  0
ARC
  5
2B9
100
AcDbEntity
  8
ASSI
100
AcDbCircle
 62
7
  6
CONTINUOUS
 10
-22.1567466667
 20
7.9547312416
 40
0.3
100
AcDbArc
 50
180.0
 51
269.0
  0
ARC
  5
2BA
100
AcDbEntity
  8
RACCORDO
100
AcDbCircle
 62
7
  6
CONTINUOUS
 10
-27.8064371163
 20
8.5618879553
 40
0.25
100
AcDbArc
 50
91.0
 51
180.074245005
  0
ARC
  5
2BB
100
AcDbEntity
  8
ASSI
100
AcDbCircle
 62
7
  6
CONTINUOUS
 10
-27.8064371163
 20
8.5618879553
 40
0.25
100
AcDbArc
 50
91.0
 51
180.074245005
  0
SPLINE
  5
2BC
100
AcDbEntity
  8
RACCORDO
100
AcDbSpline
 62
253
  6
CONTINUOUS
 70
0
 71
3
 72
11
 73
7
 74
5
 42
0.0000001
 43
0.0000001
 44
0.0000000001
 12
0.0011902469
 22
-0.3868382165
 32
0.0
 13
0.3868383243
 23
-0.0011547015
 33
0.0
 40
0.0
 40
0.0
 40
0.0
 40
0.0
 40
0.2481372423
 40
0.4975164136
 40
0.7483480436
 40
1.0
 40
1.0
 40
1.0
 40
1.0
 10
-10.1734222762
 20
-8.4526333477
 30
0.0
 10
-10.173323828
 20
-8.4846296704
 30
0.0
 10
-10.1600801548
 20
-8.549449767
 30
0.0
 10
-10.1042823865
 20
-8.6311458338
 30
0.0
 10
-10.0213517324
 20
-8.685828095
 30
0.0
 10
-9.9559098928
 20
-8.6987384255
 30
0.0
 10
-9.9234603524
 20
-8.6988352864
 30
0.0
 11
-10.1734222762
 21
-8.4526333477
 31
0.0
 11
-10.1541800037
 21
-8.5466743186
 31
0.0
 11
-10.099947342
 21
-8.6264568383
 31
0.0
 11
-10.0189459422
 21
-8.6798790048
 31
0.0
 11
-9.9234603524
 21
-8.6988352864
 31
0.0
  0
SPLINE
  5
2BD
100
AcDbEntity
  8
RACCORDO
100
AcDbSpline
 62
253
  6
CONTINUOUS
 70
0
 71
3
 72
11
 73
7
 74
5
 42
0.0000001
 43
0.0000001
 44
0.0000000001
 12
0.1007369386
 22
-0.2292793414
 32
0.0
 13
0.2504334585
 23
-0.0001733463
 33
0.0
 40
0.0
 40
0.0
 40
0.0
 40
0.0
 40
0.0822915138
 40
0.3001698803
 40
0.6219901227
 40
1.0
 40
1.0
 40
1.0
 40
1.0
 10
-10.1626145703
 20
-7.7437910615
 30
0.0
 10
-10.1598513052
 20
-7.7500803095
 30
0.0
 10
-10.1262670519
 20
-7.7439563351
 30
0.0
 10
-10.0818847627
 20
-7.7540332737
 30
0.0
 10
-10.0015815302
 20
-7.7521733655
 30
0.0
 10
-9.9442080868
 20
-7.7536903954
 30
0.0
 10
-9.9126526465
 20
-7.7537122376
 30
0.0
 11
-10.1626145703
 21
-7.7437910615
 31
0.0
 11
-10.1423514116
 21
-7.7475483037
 31
0.0
 11
-10.0878811465
 21
-7.750746011
 31
0.0
 11
-10.0073155737
 21
-7.7529079759
 31
0.0
 11
-9.9126526465
 21
-7.7537122376
 31
0.0
  0
SPLINE
  5
2BE
100
AcDbEntity
  8
RACCORDO
100
AcDbSpline
 62
253
  6
CONTINUOUS
 70
0
 71
3
 72
13
 73
9
 74
7
 42
0.0000001
 43
0.0000001
 44
0.0000000001
 12
0.0697988841
 22
0.7055568887
 32
0.0
 13
0.0004945741
 23
0.70900082
 33
0.0
 40
0.0
 40
0.0
 40
0.0
 40
0.0
 40
0.0674181962
 40
0.1847576221
 40
0.3459157559
 40
0.5427764484
 40
0.7650453531
 40
1.0
 40
1.0
 40
1.0
 40
1.0
 10
-10.1734222762
 20
-8.4526333477
 30
0.0
 10
-10.1718537046
 20
-8.4367775568
 30
0.0
 10
-10.1700525941
 20
-8.3931161197
 30
0.0
 10
-10.1675547586
 20
-8.3114224242
 30
0.0
 10
-10.1655941472
 20
-8.1990848345
 30
0.0
 10
-10.1639695801
 20
-8.0619562027
 30
0.0
 10
-10.1629374256
 20
-7.9073756807
 30
0.0
 10
-10.1626533045
 20
-7.7993187406
 30
0.0
 10
-10.1626145703
 20
-7.7437910615
 30
0.0
 11
-10.1734222762
 21
-8.4526333477
 31
0.0
 11
-10.170601432
 21
-8.4049170869
 31
0.0
 11
-10.1680242546
 21
-8.321763245
 31
0.0
 11
-10.1658375153
 21
-8.2075228951
 31
0.0
 11
-10.1641536635
 21
-8.0679586262
 31
0.0
 11
-10.1630608065
 21
-7.9103735416
 31
0.0
 11
-10.1626145703
 21
-7.7437910615
 31
0.0
  0
SPLINE
  5
2BF
100
AcDbEntity
  8
RACCORDO
100
AcDbSpline
 62
253
  6
CONTINUOUS
 70
0
 71
3
 72
10
 73
6
 74
4
 42
0.0000001
 43
0.0000001
 44
0.0000000001
 12
0.0113038293
 22
16.305676414
 32
0.0
 13
0.0003688186
 23
16.305680328
 33
0.0
 40
0.0
 40
0.0
 40
0.0
 40
0.0
 40
0.3332438196
 40
0.6665834492
 40
1.0
 40
1.0
 40
1.0
 40
1.0
 10
-10.1626145703
 20
-7.7437910615
 30
0.0
 10
-10.1613589265
 20
-5.932535765
 30
0.0
 10
-10.1592527295
 20
-2.3095041286
 30
0.0
 10
-10.1573081684
 20
3.1257223416
 30
0.0
 10
-10.1568213896
 20
6.7496933908
 30
0.0
 10
-10.1567803995
 20
8.5618879554
 30
0.0
 11
-10.1626145703
 21
-7.7437910615
 31
0.0
 11
-10.1594554703
 21
-2.3100247848
 31
0.0
 11
-10.1575107136
 21
3.1253043094
 31
0.0
 11
-10.1567803995
 21
8.5618879554
 31
0.0
  0
SPLINE
  5
2C0
100
AcDbEntity
  8
RACCORDO
100
AcDbSpline
 62
253
  6
CONTINUOUS
 70
0
 71
3
 72
10
 73
6
 74
4
 42
0.0000001
 43
0.0000001
 44
0.0000000001
 12
0.0003688186
 22
-16.3056803279
 32
0.0
 13
0.0113038293
 23
-16.3056764139
 33
0.0
 40
0.0
 40
0.0
 40
0.0
 40
0.0
 40
0.3334165508
 40
0.6667561804
 40
1.0
 40
1.0
 40
1.0
 40
1.0
 10
39.2423448439
 20
8.5618879554
 30
0.0
 10
39.242385834
 20
6.7496933908
 30
0.0
 10
39.2428726129
 20
3.1257223416
 30
0.0
 10
39.244817174
 20
-2.3095041287
 30
0.0
 10
39.246923371
 20
-5.9325357651
 30
0.0
 10
39.2481790147
 20
-7.7437910615
 30
0.0
 11
39.2423448439
 21
8.5618879554
 31
0.0
 11
39.2430751581
 21
3.1253043093
 31
0.0
 11
39.2450199147
 21
-2.3100247849
 31
0.0
 11
39.2481790147
 21
-7.7437910615
 31
0.0
  0
SPLINE
  5
2C1
100
AcDbEntity
  8
RACCORDO
100
AcDbSpline
 62
253
  6
CONTINUOUS
 70
0
 71
3
 72
13
 73
9
 74
7
 42
0.0000001
 43
0.0000001
 44
0.0000000001
 12
0.0004945741
 22
-0.70900082
 32
0.0
 13
0.0697988838
 23
-0.7055568887
 33
0.0
 40
0.0
 40
0.0
 40
0.0
 40
0.0
 40
0.2349546469
 40
0.4572235516
 40
0.6540842441
 40
0.8152423778
 40
0.9325818039
 40
1.0
 40
1.0
 40
1.0
 40
1.0
 10
39.2481790147
 20
-7.7437910615
 30
0.0
 10
39.2482177489
 20
-7.7993187406
 30
0.0
 10
39.24850187
 20
-7.9073756807
 30
0.0
 10
39.2495340246
 20
-8.0619562027
 30
0.0
 10
39.2511585916
 20
-8.1990848345
 30
0.0
 10
39.2531192031
 20
-8.3114224243
 30
0.0
 10
39.2556170385
 20
-8.3931161197
 30
0.0
 10
39.257418149
 20
-8.4367775568
 30
0.0
 10
39.2589867206
 20
-8.4526333477
 30
0.0
 11
39.2481790147
 21
-7.7437910615
 31
0.0
 11
39.2486252509
 21
-7.9103735416
 31
0.0
 11
39.249718108
 21
-8.0679586262
 31
0.0
 11
39.2514019597
 21
-8.2075228951
 31
0.0
 11
39.2535886991
 21
-8.321763245
 31
0.0
 11
39.2561658764
 21
-8.404917087
 31
0.0
 11
39.2589867206
 21
-8.4526333477
 31
0.0
  0
SPLINE
  5
2C2
100
AcDbEntity
  8
RACCORDO
100
AcDbSpline
 62
253
  6
CONTINUOUS
 70
0
 71
3
 72
11
 73
7
 74
5
 42
0.0000001
 43
0.0000001
 44
0.0000000001
 12
-0.0011902476
 22
-0.3868382125
 32
0.0
 13
-0.3868383202
 23
-0.0011547052
 33
0.0
 40
0.0
 40
0.0
 40
0.0
 40
0.0
 40
0.2481496306
 40
0.4975322026
 40
0.7483586169
 40
1.0
 40
1.0
 40
1.0
 40
1.0
 10
39.2589867206
 20
-8.4526333477
 30
0.0
 10
39.2588882675
 20
-8.4846312675
 30
0.0
 10
39.245643477
 20
-8.5494534977
 30
0.0
 10
39.1898430293
 20
-8.6311494896
 30
0.0
 10
39.1069126939
 20
-8.6858290679
 30
0.0
 10
39.0414729735
 20
-8.6987384287
 30
0.0
 10
39.0090247968
 20
-8.6988352859
 30
0.0
 11
39.2589867206
 21
-8.4526333477
 31
0.0
 11
39.2397425449
 21
-8.5466788197
 31
0.0
 11
39.1855073496
 21
-8.6264612067
 31
0.0
 11
39.1045065295
 21
-8.6798805853
 31
0.0
 11
39.0090247968
 21
-8.6988352859
 31
0.0
  0
SPLINE
  5
2C3
100
AcDbEntity
  8
RACCORDO
100
AcDbSpline
 62
253
  6
CONTINUOUS
 70
0
 71
3
 72
11
 73
7
 74
5
 42
0.0000001
 43
0.0000001
 44
0.0000000001
 12
-0.1010171715
 22
-0.2291558723
 32
0.0
 13
-0.2504333298
 23
-0.0001733233
 33
0.0
 40
0.0
 40
0.0
 40
0.0
 40
0.0
 40
0.0823072754
 40
0.3001894412
 40
0.6220029553
 40
1.0
 40
1.0
 40
1.0
 40
1.0
 10
39.2481790143
 20
-7.7437910615
 30
0.0
 10
39.2454075316
 20
-7.7500781266
 30
0.0
 10
39.2118378993
 20
-7.7439591246
 30
0.0
 10
39.1674396712
 20
-7.7540307598
 30
0.0
 10
39.0871453872
 20
-7.7521735028
 30
0.0
 10
39.0297714438
 20
-7.7536896899
 30
0.0
 10
38.998217091
 20
-7.7537115285
 30
0.0
 11
39.2481790143
 21
-7.7437910615
 31
0.0
 11
39.2279118108
 21
-7.747548082
 31
0.0
 11
39.1734406069
 21
-7.7507455544
 31
0.0
 11
39.0928767563
 21
-7.7529073402
 31
0.0
 11
38.998217091
 21
-7.7537115285
 31
0.0
  0
SPLINE
  5
2C4
100
AcDbEntity
  8
RACCORDO
100
AcDbSpline
 62
253
  6
CONTINUOUS
 70
0
 71
3
 72
13
 73
9
 74
7
 42
0.0000001
 43
0.0000001
 44
0.0000000001
 12
0.0699882761
 22
0.9426474571
 32
0.0
 13
0.0004959778
 23
0.9452419485
 33
0.0
 40
0.0
 40
0.0
 40
0.0
 40
0.0
 40
0.0677746619
 40
0.1851024079
 40
0.3460109671
 40
0.5423277437
 40
0.7640908415
 40
1.0
 40
1.0
 40
1.0
 40
1.0
 10
-9.9234603524
 20
-8.6988352859
 30
0.0
 10
-9.9218792085
 20
-8.677539415
 30
0.0
 10
-9.9200872231
 20
-8.6192187204
 30
0.0
 10
-9.9175867519
 20
-8.5102410488
 30
0.0
 10
-9.9156329441
 20
-8.3607225384
 30
0.0
 10
-9.9140104552
 20
-8.1783041733
 30
0.0
 10
-9.9129767221
 20
-7.9722460527
 30
0.0
 10
-9.9126916484
 20
-7.8280426485
 30
0.0
 10
-9.9126526465
 20
-7.7537122376
 30
0.0
 11
-9.9234603524
 21
-8.6988352859
 31
0.0
 11
-9.920627858
 21
-8.6348344721
 31
0.0
 11
-9.9180555304
 21
-8.5239611853
 31
0.0
 11
-9.9158740265
 21
-8.3718792896
 31
0.0
 11
-9.9141943771
 21
-8.1863200135
 31
0.0
 11
-9.9131019999
 21
-7.9767030482
 31
0.0
 11
-9.9126526465
 21
-7.7537122376
 31
0.0
  0
SPLINE
  5
2C5
100
AcDbEntity
  8
RACCORDO
100
AcDbSpline
 62
253
  6
CONTINUOUS
 70
0
 71
3
 72
13
 73
9
 74
7
 42
0.0000001
 43
0.0000001
 44
0.0000000001
 12
0.0004959778
 22
-0.9452419485
 32
0.0
 13
0.0699882762
 23
-0.9426474571
 33
0.0
 40
0.0
 40
0.0
 40
0.0
 40
0.0
 40
0.2359091585
 40
0.4576722563
 40
0.6539890329
 40
0.8148975921
 40
0.9322253381
 40
1.0
 40
1.0
 40
1.0
 40
1.0
 10
38.998217091
 20
-7.7537122376
 30
0.0
 10
38.9982560929
 20
-7.8280426485
 30
0.0
 10
38.9985411666
 20
-7.9722460527
 30
0.0
 10
38.9995748996
 20
-8.1783041733
 30
0.0
 10
39.0011973885
 20
-8.3607225384
 30
0.0
 10
39.0031511963
 20
-8.5102410488
 30
0.0
 10
39.0056516675
 20
-8.6192187204
 30
0.0
 10
39.0074436529
 20
-8.677539415
 30
0.0
 10
39.0090247968
 20
-8.6988352859
 30
0.0
 11
38.998217091
 21
-7.7537122376
 31
0.0
 11
38.9986664444
 21
-7.9767030482
 31
0.0
 11
38.9997588216
 21
-8.1863200135
 31
0.0
 11
39.001438471
 21
-8.3718792896
 31
0.0
 11
39.0036199748
 21
-8.5239611853
 31
0.0
 11
39.0061923025
 21
-8.6348344721
 31
0.0
 11
39.0090247968
 21
-8.6988352859
 31
0.0
  0
SPLINE
  5
2C6
100
AcDbEntity
  8
ASSI
100
AcDbSpline
 62
7
  6
CONTINUOUS
 70
0
 71
3
 72
23
 73
19
 74
17
 42
0.0000001
 43
0.0000001
 44
0.0000000001
 12
-7.5210108384
 22
0.0
 32
0.0
 13
7.5210108384
 23
0.0
 33
0.0
 40
0.0
 40
0.0
 40
0.0
 40
0.0
 40
0.0624209979
 40
0.1250661527
 40
0.1877064011
 40
0.2502381184
 40
0.3126507247
 40
0.3750229581
 40
0.4374761557
 40
0.4999745699
 40
0.5624719486
 40
0.6249228621
 40
0.6872970413
 40
0.7497179858
 40
0.8122596493
 40
0.8749056289
 40
0.9375497737
 40
1.0
 40
1.0
 40
1.0
 40
1.0
 10
14.5427822222
 20
2.1199195798
 30
0.0
 10
14.386292555
 20
2.1199195798
 30
0.0
 10
14.0718976323
 20
2.1505937406
 30
0.0
 10
13.6185727557
 20
2.2871828125
 30
0.0
 10
13.2000549747
 20
2.5095369659
 30
0.0
 10
12.8333838375
 20
2.8088013972
 30
0.0
 10
12.5325267075
 20
3.1733090817
 30
0.0
 10
12.3087323331
 20
3.5893835382
 30
0.0
 10
12.170652277
 20
4.0414458755
 30
0.0
 10
12.1239430553
 20
4.5121402447
 30
0.0
 10
12.1705941841
 20
4.9828342552
 30
0.0
 10
12.3086091665
 20
5.434911944
 30
0.0
 10
12.5323444194
 20
5.8510404503
 30
0.0
 10
12.8331714705
 20
6.2156393676
 30
0.0
 10
13.1998420982
 20
6.5150012225
 30
0.0
 10
13.6183621715
 20
6.7374315622
 30
0.0
 10
14.0717521837
 20
6.8741010962
 30
0.0
 10
14.3862192794
 20
6.9048007214
 30
0.0
 10
14.5427822222
 20
6.9048007214
 30
0.0
 11
14.5427822222
 21
2.1199195798
 31
0.0
 11
14.0755377889
 21
2.1655680511
 31
0.0
 11
13.6244105674
 21
2.301476693
 31
0.0
 11
13.2083906352
 21
2.5225639477
 31
0.0
 11
12.8440592715
 21
2.8199632888
 31
0.0
 11
12.5452887702
 21
3.1820103518
 31
0.0
 11
12.3231068349
 21
3.5951593594
 31
0.0
 11
12.1859166702
 21
4.0443891976
 31
0.0
 11
12.1395069188
 21
4.5121437414
 31
0.0
 11
12.1858576766
 21
4.979896308
 31
0.0
 11
12.3229787402
 21
5.4291292823
 31
0.0
 11
12.545099625
 21
5.8423277305
 31
0.0
 11
12.843848203
 21
6.2044741839
 31
0.0
 11
13.2081905207
 21
6.5019783938
 31
0.0
 11
13.6242181101
 21
6.7231430804
 31
0.0
 11
14.0753216226
 21
6.8591040756
 31
0.0
 11
14.5427822222
 21
6.9048007214
 31
0.0
  0
SPLINE
  5
2C7
100
AcDbEntity
  8
ASSI
100
AcDbSpline
 62
253
  6
CONTINUOUS
 70
0
 71
3
 72
13
 73
9
 74
7
 42
0.0000001
 43
0.0000001
 44
0.0000000001
 12
0.0697988841
 22
0.7055568887
 32
0.0
 13
0.0004945741
 23
0.70900082
 33
0.0
 40
0.0
 40
0.0
 40
0.0
 40
0.0
 40
0.0674181962
 40
0.1847576221
 40
0.3459157559
 40
0.5427764484
 40
0.7650453531
 40
1.0
 40
1.0
 40
1.0
 40
1.0
 10
-10.1734222762
 20
-8.4526333477
 30
0.0
 10
-10.1718537046
 20
-8.4367775568
 30
0.0
 10
-10.1700525941
 20
-8.3931161197
 30
0.0
 10
-10.1675547586
 20
-8.3114224242
 30
0.0
 10
-10.1655941472
 20
-8.1990848345
 30
0.0
 10
-10.1639695801
 20
-8.0619562027
 30
0.0
 10
-10.1629374256
 20
-7.9073756807
 30
0.0
 10
-10.1626533045
 20
-7.7993187406
 30
0.0
 10
-10.1626145703
 20
-7.7437910615
 30
0.0
 11
-10.1734222762
 21
-8.4526333477
 31
0.0
 11
-10.170601432
 21
-8.4049170869
 31
0.0
 11
-10.1680242546
 21
-8.321763245
 31
0.0
 11
-10.1658375153
 21
-8.2075228951
 31
0.0
 11
-10.1641536635
 21
-8.0679586262
 31
0.0
 11
-10.1630608065
 21
-7.9103735416
 31
0.0
 11
-10.1626145703
 21
-7.7437910615
 31
0.0
  0
SPLINE
  5
2C8
100
AcDbEntity
  8
ASSI
100
AcDbSpline
 62
253
  6
CONTINUOUS
 70
0
 71
3
 72
10
 73
6
 74
4
 42
0.0000001
 43
0.0000001
 44
0.0000000001
 12
0.0113038293
 22
16.305676414
 32
0.0
 13
0.0003688186
 23
16.305680328
 33
0.0
 40
0.0
 40
0.0
 40
0.0
 40
0.0
 40
0.3332438196
 40
0.6665834492
 40
1.0
 40
1.0
 40
1.0
 40
1.0
 10
-10.1626145703
 20
-7.7437910615
 30
0.0
 10
-10.1613589265
 20
-5.932535765
 30
0.0
 10
-10.1592527295
 20
-2.3095041286
 30
0.0
 10
-10.1573081684
 20
3.1257223416
 30
0.0
 10
-10.1568213896
 20
6.7496933908
 30
0.0
 10
-10.1567803995
 20
8.5618879554
 30
0.0
 11
-10.1626145703
 21
-7.7437910615
 31
0.0
 11
-10.1594554703
 21
-2.3100247848
 31
0.0
 11
-10.1575107136
 21
3.1253043094
 31
0.0
 11
-10.1567803995
 21
8.5618879554
 31
0.0
  0
SPLINE
  5
2C9
100
AcDbEntity
  8
ASSI
100
AcDbSpline
 62
253
  6
CONTINUOUS
 70
0
 71
3
 72
10
 73
6
 74
4
 42
0.0000001
 43
0.0000001
 44
0.0000000001
 12
0.0003688186
 22
-16.3056803279
 32
0.0
 13
0.0113038293
 23
-16.3056764139
 33
0.0
 40
0.0
 40
0.0
 40
0.0
 40
0.0
 40
0.3334165508
 40
0.6667561804
 40
1.0
 40
1.0
 40
1.0
 40
1.0
 10
39.2423448439
 20
8.5618879554
 30
0.0
 10
39.242385834
 20
6.7496933908
 30
0.0
 10
39.2428726129
 20
3.1257223416
 30
0.0
 10
39.244817174
 20
-2.3095041287
 30
0.0
 10
39.246923371
 20
-5.9325357651
 30
0.0
 10
39.2481790147
 20
-7.7437910615
 30
0.0
 11
39.2423448439
 21
8.5618879554
 31
0.0
 11
39.2430751581
 21
3.1253043093
 31
0.0
 11
39.2450199147
 21
-2.3100247849
 31
0.0
 11
39.2481790147
 21
-7.7437910615
 31
0.0
  0
SPLINE
  5
2CA
100
AcDbEntity
  8
ASSI
100
AcDbSpline
 62
253
  6
CONTINUOUS
 70
0
 71
3
 72
13
 73
9
 74
7
 42
0.0000001
 43
0.0000001
 44
0.0000000001
 12
0.0004945741
 22
-0.70900082
 32
0.0
 13
0.0697988838
 23
-0.7055568887
 33
0.0
 40
0.0
 40
0.0
 40
0.0
 40
0.0
 40
0.2349546469
 40
0.4572235516
 40
0.6540842441
 40
0.8152423778
 40
0.9325818039
 40
1.0
 40
1.0
 40
1.0
 40
1.0
 10
39.2481790147
 20
-7.7437910615
 30
0.0
 10
39.2482177489
 20
-7.7993187406
 30
0.0
 10
39.24850187
 20
-7.9073756807
 30
0.0
 10
39.2495340246
 20
-8.0619562027
 30
0.0
 10
39.2511585916
 20
-8.1990848345
 30
0.0
 10
39.2531192031
 20
-8.3114224243
 30
0.0
 10
39.2556170385
 20
-8.3931161197
 30
0.0
 10
39.257418149
 20
-8.4367775568
 30
0.0
 10
39.2589867206
 20
-8.4526333477
 30
0.0
 11
39.2481790147
 21
-7.7437910615
 31
0.0
 11
39.2486252509
 21
-7.9103735416
 31
0.0
 11
39.249718108
 21
-8.0679586262
 31
0.0
 11
39.2514019597
 21
-8.2075228951
 31
0.0
 11
39.2535886991
 21
-8.321763245
 31
0.0
 11
39.2561658764
 21
-8.404917087
 31
0.0
 11
39.2589867206
 21
-8.4526333477
 31
0.0
  0
SPLINE
  5
2CB
100
AcDbEntity
  8
ASSI
100
AcDbSpline
 62
253
  6
CONTINUOUS
 70
0
 71
3
 72
11
 73
7
 74
5
 42
0.0000001
 43
0.0000001
 44
0.0000000001
 12
0.0011902469
 22
-0.3868382165
 32
0.0
 13
0.3868383243
 23
-0.0011547015
 33
0.0
 40
0.0
 40
0.0
 40
0.0
 40
0.0
 40
0.2481372423
 40
0.4975164136
 40
0.7483480436
 40
1.0
 40
1.0
 40
1.0
 40
1.0
 10
-10.1734222762
 20
-8.4526333477
 30
0.0
 10
-10.173323828
 20
-8.4846296704
 30
0.0
 10
-10.1600801548
 20
-8.549449767
 30
0.0
 10
-10.1042823865
 20
-8.6311458338
 30
0.0
 10
-10.0213517324
 20
-8.685828095
 30
0.0
 10
-9.9559098928
 20
-8.6987384255
 30
0.0
 10
-9.9234603524
 20
-8.6988352864
 30
0.0
 11
-10.1734222762
 21
-8.4526333477
 31
0.0
 11
-10.1541800037
 21
-8.5466743186
 31
0.0
 11
-10.099947342
 21
-8.6264568383
 31
0.0
 11
-10.0189459422
 21
-8.6798790048
 31
0.0
 11
-9.9234603524
 21
-8.6988352864
 31
0.0
  0
SPLINE
  5
2CC
100
AcDbEntity
  8
ASSI
100
AcDbSpline
 62
253
  6
CONTINUOUS
 70
0
 71
3
 72
11
 73
7
 74
5
 42
0.0000001
 43
0.0000001
 44
0.0000000001
 12
0.1007369386
 22
-0.2292793414
 32
0.0
 13
0.2504334585
 23
-0.0001733463
 33
0.0
 40
0.0
 40
0.0
 40
0.0
 40
0.0
 40
0.0822915138
 40
0.3001698803
 40
0.6219901227
 40
1.0
 40
1.0
 40
1.0
 40
1.0
 10
-10.1626145703
 20
-7.7437910615
 30
0.0
 10
-10.1598513052
 20
-7.7500803095
 30
0.0
 10
-10.1262670519
 20
-7.7439563351
 30
0.0
 10
-10.0818847627
 20
-7.7540332737
 30
0.0
 10
-10.0015815302
 20
-7.7521733655
 30
0.0
 10
-9.9442080868
 20
-7.7536903954
 30
0.0
 10
-9.9126526465
 20
-7.7537122376
 30
0.0
 11
-10.1626145703
 21
-7.7437910615
 31
0.0
 11
-10.1423514116
 21
-7.7475483037
 31
0.0
 11
-10.0878811465
 21
-7.750746011
 31
0.0
 11
-10.0073155737
 21
-7.7529079759
 31
0.0
 11
-9.9126526465
 21
-7.7537122376
 31
0.0
  0
SPLINE
  5
2CD
100
AcDbEntity
  8
ASSI
100
AcDbSpline
 62
253
  6
CONTINUOUS
 70
0
 71
3
 72
11
 73
7
 74
5
 42
0.0000001
 43
0.0000001
 44
0.0000000001
 12
-0.0011902476
 22
-0.3868382125
 32
0.0
 13
-0.3868383202
 23
-0.0011547052
 33
0.0
 40
0.0
 40
0.0
 40
0.0
 40
0.0
 40
0.2481496306
 40
0.4975322026
 40
0.7483586169
 40
1.0
 40
1.0
 40
1.0
 40
1.0
 10
39.2589867206
 20
-8.4526333477
 30
0.0
 10
39.2588882675
 20
-8.4846312675
 30
0.0
 10
39.245643477
 20
-8.5494534977
 30
0.0
 10
39.1898430293
 20
-8.6311494896
 30
0.0
 10
39.1069126939
 20
-8.6858290679
 30
0.0
 10
39.0414729735
 20
-8.6987384287
 30
0.0
 10
39.0090247968
 20
-8.6988352859
 30
0.0
 11
39.2589867206
 21
-8.4526333477
 31
0.0
 11
39.2397425449
 21
-8.5466788197
 31
0.0
 11
39.1855073496
 21
-8.6264612067
 31
0.0
 11
39.1045065295
 21
-8.6798805853
 31
0.0
 11
39.0090247968
 21
-8.6988352859
 31
0.0
  0
SPLINE
  5
2CE
100
AcDbEntity
  8
ASSI
100
AcDbSpline
 62
253
  6
CONTINUOUS
 70
0
 71
3
 72
11
 73
7
 74
5
 42
0.0000001
 43
0.0000001
 44
0.0000000001
 12
-0.1010171715
 22
-0.2291558723
 32
0.0
 13
-0.2504333298
 23
-0.0001733233
 33
0.0
 40
0.0
 40
0.0
 40
0.0
 40
0.0
 40
0.0823072754
 40
0.3001894412
 40
0.6220029553
 40
1.0
 40
1.0
 40
1.0
 40
1.0
 10
39.2481790143
 20
-7.7437910615
 30
0.0
 10
39.2454075316
 20
-7.7500781266
 30
0.0
 10
39.2118378993
 20
-7.7439591246
 30
0.0
 10
39.1674396712
 20
-7.7540307598
 30
0.0
 10
39.0871453872
 20
-7.7521735028
 30
0.0
 10
39.0297714438
 20
-7.7536896899
 30
0.0
 10
38.998217091
 20
-7.7537115285
 30
0.0
 11
39.2481790143
 21
-7.7437910615
 31
0.0
 11
39.2279118108
 21
-7.747548082
 31
0.0
 11
39.1734406069
 21
-7.7507455544
 31
0.0
 11
39.0928767563
 21
-7.7529073402
 31
0.0
 11
38.998217091
 21
-7.7537115285
 31
0.0
  0
SPLINE
  5
2CF
100
AcDbEntity
  8
ASSI
100
AcDbSpline
 62
253
  6
CONTINUOUS
 70
0
 71
3
 72
13
 73
9
 74
7
 42
0.0000001
 43
0.0000001
 44
0.0000000001
 12
0.0699882761
 22
0.9426474571
 32
0.0
 13
0.0004959778
 23
0.9452419485
 33
0.0
 40
0.0
 40
0.0
 40
0.0
 40
0.0
 40
0.0677746619
 40
0.1851024079
 40
0.3460109671
 40
0.5423277437
 40
0.7640908415
 40
1.0
 40
1.0
 40
1.0
 40
1.0
 10
-9.9234603524
 20
-8.6988352859
 30
0.0
 10
-9.9218792085
 20
-8.677539415
 30
0.0
 10
-9.9200872231
 20
-8.6192187204
 30
0.0
 10
-9.9175867519
 20
-8.5102410488
 30
0.0
 10
-9.9156329441
 20
-8.3607225384
 30
0.0
 10
-9.9140104552
 20
-8.1783041733
 30
0.0
 10
-9.9129767221
 20
-7.9722460527
 30
0.0
 10
-9.9126916484
 20
-7.8280426485
 30
0.0
 10
-9.9126526465
 20
-7.7537122376
 30
0.0
 11
-9.9234603524
 21
-8.6988352859
 31
0.0
 11
-9.920627858
 21
-8.6348344721
 31
0.0
 11
-9.9180555304
 21
-8.5239611853
 31
0.0
 11
-9.9158740265
 21
-8.3718792896
 31
0.0
 11
-9.9141943771
 21
-8.1863200135
 31
0.0
 11
-9.9131019999
 21
-7.9767030482
 31
0.0
 11
-9.9126526465
 21
-7.7537122376
 31
0.0
  0
SPLINE
  5
2D0
100
AcDbEntity
  8
ASSI
100
AcDbSpline
 62
253
  6
CONTINUOUS
 70
0
 71
3
 72
13
 73
9
 74
7
 42
0.0000001
 43
0.0000001
 44
0.0000000001
 12
0.0004959778
 22
-0.9452419485
 32
0.0
 13
0.0699882762
 23
-0.9426474571
 33
0.0
 40
0.0
 40
0.0
 40
0.0
 40
0.0
 40
0.2359091585
 40
0.4576722563
 40
0.6539890329
 40
0.8148975921
 40
0.9322253381
 40
1.0
 40
1.0
 40
1.0
 40
1.0
 10
38.998217091
 20
-7.7537122376
 30
0.0
 10
38.9982560929
 20
-7.8280426485
 30
0.0
 10
38.9985411666
 20
-7.9722460527
 30
0.0
 10
38.9995748996
 20
-8.1783041733
 30
0.0
 10
39.0011973885
 20
-8.3607225384
 30
0.0
 10
39.0031511963
 20
-8.5102410488
 30
0.0
 10
39.0056516675
 20
-8.6192187204
 30
0.0
 10
39.0074436529
 20
-8.677539415
 30
0.0
 10
39.0090247968
 20
-8.6988352859
 30
0.0
 11
38.998217091
 21
-7.7537122376
 31
0.0
 11
38.9986664444
 21
-7.9767030482
 31
0.0
 11
38.9997588216
 21
-8.1863200135
 31
0.0
 11
39.001438471
 21
-8.3718792896
 31
0.0
 11
39.0036199748
 21
-8.5239611853
 31
0.0
 11
39.0061923025
 21
-8.6348344721
 31
0.0
 11
39.0090247968
 21
-8.6988352859
 31
0.0
  0
SPLINE
  5
2D1
100
AcDbEntity
  8
ASSI
100
AcDbSpline
 62
7
  6
CONTINUOUS
 70
0
 71
3
 72
23
 73
19
 74
17
 42
0.0000001
 43
0.0000001
 44
0.0000000001
 12
7.5210108386
 22
0.0
 32
0.0
 13
-7.5210108386
 23
0.0
 33
0.0
 40
0.0
 40
0.0
 40
0.0
 40
0.0
 40
0.0624210691
 40
0.1250668291
 40
0.1877085537
 40
0.2502426162
 40
0.3126580811
 40
0.375033084
 40
0.4374882969
 40
0.4999874489
 40
0.5624840907
 40
0.6249329898
 40
0.6873043998
 40
0.7497224853
 40
0.8122618028
 40
0.8749063057
 40
0.9375498451
 40
1.0
 40
1.0
 40
1.0
 40
1.0
 10
14.5427822222
 20
6.9048007214
 30
0.0
 10
14.699272068
 20
6.9048007214
 30
0.0
 10
15.0136688784
 20
6.874122464
 30
0.0
 10
15.4669948161
 20
6.737516292
 30
0.0
 10
15.8855122766
 20
6.5151372378
 30
0.0
 10
16.25218198
 20
6.215844604
 30
0.0
 10
16.5530374662
 20
5.8513099926
 30
0.0
 10
16.7768308942
 20
5.4352136936
 30
0.0
 10
16.9149111373
 20
4.9831372662
 30
0.0
 10
16.9616213887
 20
4.5124380426
 30
0.0
 10
16.91497129
 20
4.0417488799
 30
0.0
 10
16.7769564953
 20
3.5896852752
 30
0.0
 10
16.5532202968
 20
3.1735786067
 30
0.0
 10
16.2523916017
 20
2.8090066156
 30
0.0
 10
15.8857195394
 20
2.5096729666
 30
0.0
 10
15.4671991453
 20
2.2872675321
 30
0.0
 10
15.013810193
 20
2.1506151053
 30
0.0
 10
14.6993449862
 20
2.1199195798
 30
0.0
 10
14.5427822222
 20
2.1199195798
 30
0.0
 11
14.5427822222
 21
6.9048007214
 31
0.0
 11
15.0100266556
 21
6.8591467395
 31
0.0
 11
15.461153877
 21
6.7232223195
 31
0.0
 11
15.8771738092
 21
6.502111409
 31
0.0
 11
16.241505173
 21
6.2046841749
 31
0.0
 11
16.5402756742
 21
5.8426092376
 31
0.0
 11
16.7624576096
 21
5.4294365795
 31
0.0
 11
16.8996477743
 21
4.9801908935
 31
0.0
 11
16.9460575257
 21
4.5124307734
 31
0.0
 11
16.8997067678
 21
4.044683776
 31
0.0
 11
16.7625857042
 21
3.5954666422
 31
0.0
 11
16.5404648195
 21
3.1822918397
 31
0.0
 11
16.2417162414
 21
2.8201732617
 31
0.0
 11
15.8773739238
 21
2.5226969494
 31
0.0
 11
15.4613463344
 21
2.3015559232
 31
0.0
 11
15.0102428218
 21
2.1656107099
 31
0.0
 11
14.5427822222
 21
2.1199195798
 31
0.0
  0
SPLINE
  5
2D2
100
AcDbEntity
  8
RACCORDO
100
AcDbSpline
 62
253
  6
CONTINUOUS
 70
0
 71
3
 72
12
 73
8
 74
6
 42
0.0000001
 43
0.0000001
 44
0.0000000001
 12
-0.0043623064
 22
0.2499925102
 32
0.0
 13
0.2499924871
 23
0.0043636351
 33
0.0
 40
0.0
 40
0.0
 40
0.0
 40
0.0
 40
0.3098605754
 40
0.5892143267
 40
0.8103234085
 40
0.9518389381
 40
1.0
 40
1.0
 40
1.0
 40
1.0
 10
-27.8108002179
 20
8.5618879553
 30
0.0
 10
-27.8112507868
 20
8.5877088963
 30
0.0
 10
-27.8123602627
 20
8.6372783721
 30
0.0
 10
-27.8114964725
 20
8.7030095641
 30
0.0
 10
-27.8153333454
 20
8.7611142739
 30
0.0
 10
-27.8077913099
 20
8.7866075974
 30
0.0
 10
-27.8148135191
 20
8.8117798267
 30
0.0
 10
-27.8108002179
 20
8.8118498791
 30
0.0
 11
-27.8108002179
 21
8.5618879553
 31
0.0
 11
-27.8119371682
 21
8.639354228
 31
0.0
 11
-27.8125325596
 21
8.7091986675
 31
0.0
 11
-27.8125279664
 21
8.7644826966
 31
0.0
 11
-27.8119247276
 21
8.7998607622
 31
0.0
 11
-27.8108002179
 21
8.8118498791
 31
0.0
  0
SPLINE
  5
2D3
100
AcDbEntity
  8
RACCORDO
100
AcDbSpline
 62
253
  6
CONTINUOUS
 70
0
 71
3
 72
11
 73
7
 74
5
 42
0.0000001
 43
0.0000001
 44
0.0000000001
 12
-0.043284155
 22
-0.2455514343
 32
0.0
 13
0.2455491794
 23
-0.0432969454
 33
0.0
 40
0.0
 40
0.0
 40
0.0
 40
0.0
 40
0.3827689144
 40
0.7070452522
 40
0.9236831912
 40
1.0
 40
1.0
 40
1.0
 40
1.0
 10
-26.8573877376
 20
-8.4526333477
 30
0.0
 10
-26.8629103473
 20
-8.4839631663
 30
0.0
 10
-26.8710141708
 20
-8.5402501205
 30
0.0
 10
-26.8902932224
 20
-8.6216829385
 30
0.0
 10
-26.8848112552
 20
-8.6611403859
 30
0.0
 10
-26.9026831903
 20
-8.6977338577
 30
0.0
 10
-26.8964366804
 20
-8.6988352859
 30
0.0
 11
-26.8573877376
 21
-8.4526333477
 31
0.0
 11
-26.8736345828
 21
-8.5466788197
 31
0.0
 11
-26.88675569
 21
-8.6264612067
 31
0.0
 11
-26.8947610916
 21
-8.6798805853
 31
0.0
 11
-26.8964366804
 21
-8.6988352859
 31
0.0
  0
SPLINE
  5
2D4
100
AcDbEntity
  8
ASSI
100
AcDbSpline
 62
253
  6
CONTINUOUS
 70
0
 71
3
 72
12
 73
8
 74
6
 42
0.0000001
 43
0.0000001
 44
0.0000000001
 12
-0.0043623064
 22
0.2499925102
 32
0.0
 13
0.2499924871
 23
0.0043636351
 33
0.0
 40
0.0
 40
0.0
 40
0.0
 40
0.0
 40
0.3098605754
 40
0.5892143267
 40
0.8103234085
 40
0.9518389381
 40
1.0
 40
1.0
 40
1.0
 40
1.0
 10
-27.8108002179
 20
8.5618879553
 30
0.0
 10
-27.8112507868
 20
8.5877088963
 30
0.0
 10
-27.8123602627
 20
8.6372783721
 30
0.0
 10
-27.8114964725
 20
8.7030095641
 30
0.0
 10
-27.8153333454
 20
8.7611142739
 30
0.0
 10
-27.8077913099
 20
8.7866075974
 30
0.0
 10
-27.8148135191
 20
8.8117798267
 30
0.0
 10
-27.8108002179
 20
8.8118498791
 30
0.0
 11
-27.8108002179
 21
8.5618879553
 31
0.0
 11
-27.8119371682
 21
8.639354228
 31
0.0
 11
-27.8125325596
 21
8.7091986675
 31
0.0
 11
-27.8125279664
 21
8.7644826966
 31
0.0
 11
-27.8119247276
 21
8.7998607622
 31
0.0
 11
-27.8108002179
 21
8.8118498791
 31
0.0
  0
SPLINE
  5
2D5
100
AcDbEntity
  8
ASSI
100
AcDbSpline
 62
253
  6
CONTINUOUS
 70
0
 71
3
 72
11
 73
7
 74
5
 42
0.0000001
 43
0.0000001
 44
0.0000000001
 12
-0.043284155
 22
-0.2455514343
 32
0.0
 13
0.2455491794
 23
-0.0432969454
 33
0.0
 40
0.0
 40
0.0
 40
0.0
 40
0.0
 40
0.3827689144
 40
0.7070452522
 40
0.9236831912
 40
1.0
 40
1.0
 40
1.0
 40
1.0
 10
-26.8573877376
 20
-8.4526333477
 30
0.0
 10
-26.8629103473
 20
-8.4839631663
 30
0.0
 10
-26.8710141708
 20
-8.5402501205
 30
0.0
 10
-26.8902932224
 20
-8.6216829385
 30
0.0
 10
-26.8848112552
 20
-8.6611403859
 30
0.0
 10
-26.9026831903
 20
-8.6977338577
 30
0.0
 10
-26.8964366804
 20
-8.6988352859
 30
0.0
 11
-26.8573877376
 21
-8.4526333477
 31
0.0
 11
-26.8736345828
 21
-8.5466788197
 31
0.0
 11
-26.88675569
 21
-8.6264612067
 31
0.0
 11
-26.8947610916
 21
-8.6798805853
 31
0.0
 11
-26.8964366804
 21
-8.6988352859
 31
0.0
  0
ELLIPSE
  5
2D6
100
AcDbEntity
  8
RACCORDO
100
AcDbEllipse
 62
7
  6
CONTINUOUS
 10
-10.2554722713
 20
7.9547312416
 30
0.0
 11
0.0
 21
0.3
 31
0.0
 40
0.0174550649
 41
-3.1241393611
 42
-1.5707963268
  0
ELLIPSE
  5
2D7
100
AcDbEntity
  8
RACCORDO
100
AcDbEllipse
 62
7
  6
CONTINUOUS
 10
39.3410367157
 20
7.9547312416
 30
0.0
 11
0.0
 21
0.3
 31
0.0
 40
0.0174550649
 41
-4.7123889804
 42
-3.1590459461
  0
ELLIPSE
  5
2D8
100
AcDbEntity
  8
RACCORDO
100
AcDbEllipse
 62
7
  6
CONTINUOUS
 10
-10.0001976698
 20
8.6552671495
 30
0.0
 11
-0.1768305473
 21
0.1768305473
 31
0.0
 40
0.9996954599
 41
-0.7852458702
 42
0.7852458701
  0
ELLIPSE
  5
2D9
100
AcDbEntity
  8
RACCORDO
100
AcDbEllipse
 62
7
  6
CONTINUOUS
 10
39.0857621142
 20
8.6552671495
 30
0.0
 11
0.1768305473
 21
0.1768305473
 31
0.0
 40
0.9996954599
 41
-0.7852458702
 42
0.7852458701
  0
ELLIPSE
  5
2DA
100
AcDbEntity
  8
RACCORDO
100
AcDbEllipse
 62
7
  6
CONTINUOUS
 10
39.0792511322
 20
-9.3309572328
 30
0.0
 11
0.2183310446
 21
0.1221043275
 31
0.0
 40
0.9980297029
 41
-2.0815635429
 42
-0.5109195152
  0
ELLIPSE
  5
2DB
100
AcDbEntity
  8
RACCORDO
100
AcDbEllipse
 62
7
  6
CONTINUOUS
 10
-9.9936866878
 20
-9.3309572328
 30
0.0
 11
0.2183310446
 21
-0.1221043275
 31
0.0
 40
0.9980297029
 41
-2.6306731384
 42
-1.0600291107
  0
ELLIPSE
  5
2DC
100
AcDbEntity
  8
RACCORDO
100
AcDbEllipse
 62
7
  6
CONTINUOUS
 10
-9.9809970984
 20
-9.0338560896
 30
0.0
 11
0.0250113895
 21
0.2526592035
 31
0.0
 40
0.9846622838
 41
-4.6121910857
 42
-3.0444253421
  0
ELLIPSE
  5
2DD
100
AcDbEntity
  8
RACCORDO
100
AcDbEllipse
 62
7
  6
CONTINUOUS
 10
-9.9809970984
 20
-9.3246129213
 30
0.0
 11
0.2236527791
 21
0.1118178731
 31
0.0
 40
0.9998096356
 41
2.6780516535
 42
4.2486956813
  0
ELLIPSE
  5
2DE
100
AcDbEntity
  8
RACCORDO
100
AcDbEllipse
 62
7
  6
CONTINUOUS
 10
39.0665615428
 20
-9.3246129213
 30
0.0
 11
0.2236527791
 21
-0.1118178731
 31
0.0
 40
0.9998096356
 41
-1.1071030277
 42
0.4635410001
  0
ELLIPSE
  5
2DF
100
AcDbEntity
  8
RACCORDO
100
AcDbEllipse
 62
7
  6
CONTINUOUS
 10
39.0665615428
 20
-9.0338560896
 30
0.0
 11
-0.0250113895
 21
0.2526592035
 31
0.0
 40
0.9846622838
 41
-3.2387599651
 42
-1.6709942215
  0
ELLIPSE
  5
2E0
100
AcDbEntity
  8
ASSI
100
AcDbEllipse
 62
7
  6
CONTINUOUS
 10
-10.2554722713
 20
7.9547312416
 30
0.0
 11
0.0
 21
0.3
 31
0.0
 40
0.0174550649
 41
-3.1241393611
 42
-1.5707963268
  0
ELLIPSE
  5
2E1
100
AcDbEntity
  8
ASSI
100
AcDbEllipse
 62
7
  6
CONTINUOUS
 10
39.3410367157
 20
7.9547312416
 30
0.0
 11
0.0
 21
0.3
 31
0.0
 40
0.0174550649
 41
-4.7123889804
 42
-3.1590459461
  0
ELLIPSE
  5
2E2
100
AcDbEntity
  8
ASSI
100
AcDbEllipse
 62
7
  6
CONTINUOUS
 10
-10.0001976698
 20
8.6552671495
 30
0.0
 11
-0.1768305473
 21
0.1768305473
 31
0.0
 40
0.9996954599
 41
-0.7852458702
 42
0.7852458701
  0
ELLIPSE
  5
2E3
100
AcDbEntity
  8
ASSI
100
AcDbEllipse
 62
7
  6
CONTINUOUS
 10
39.0857621142
 20
8.6552671495
 30
0.0
 11
0.1768305473
 21
0.1768305473
 31
0.0
 40
0.9996954599
 41
-0.7852458702
 42
0.7852458701
  0
ELLIPSE
  5
2E4
100
AcDbEntity
  8
ASSI
100
AcDbEllipse
 62
7
  6
CONTINUOUS
 10
39.0792511322
 20
-9.3309572328
 30
0.0
 11
0.2183310446
 21
0.1221043275
 31
0.0
 40
0.9980297029
 41
-2.0815635429
 42
-0.5109195152
  0
ELLIPSE
  5
2E5
100
AcDbEntity
  8
ASSI
100
AcDbEllipse
 62
7
  6
CONTINUOUS
 10
-9.9936866878
 20
-9.3309572328
 30
0.0
 11
0.2183310446
 21
-0.1221043275
 31
0.0
 40
0.9980297029
 41
-2.6306731384
 42
-1.0600291107
  0
ELLIPSE
  5
2E6
100
AcDbEntity
  8
ASSI
100
AcDbEllipse
 62
7
  6
CONTINUOUS
 10
-9.9809970984
 20
-9.3246129213
 30
0.0
 11
0.2236527791
 21
0.1118178731
 31
0.0
 40
0.9998096356
 41
2.6780516535
 42
4.2486956813
  0
ELLIPSE
  5
2E7
100
AcDbEntity
  8
ASSI
100
AcDbEllipse
 62
7
  6
CONTINUOUS
 10
39.0665615428
 20
-9.3246129213
 30
0.0
 11
0.2236527791
 21
-0.1118178731
 31
0.0
 40
0.9998096356
 41
-1.1071030277
 42
0.4635410001
  0
ELLIPSE
  5
2E8
100
AcDbEntity
  8
ASSI
100
AcDbEllipse
 62
7
  6
CONTINUOUS
 10
-9.9809970984
 20
-9.0338560896
 30
0.0
 11
0.0250113895
 21
0.2526592035
 31
0.0
 40
0.9846622838
 41
-4.6121910857
 42
-3.0444253421
  0
ELLIPSE
  5
2E9
100
AcDbEntity
  8
ASSI
100
AcDbEllipse
 62
7
  6
CONTINUOUS
 10
39.0665615428
 20
-9.0338560896
 30
0.0
 11
-0.0250113895
 21
0.2526592035
 31
0.0
 40
0.9846622838
 41
-3.2387599651
 42
-1.6709942215
  0
ELLIPSE
  5
2EA
100
AcDbEntity
  8
CURVE
100
AcDbEllipse
 62
253
  6
CONTINUOUS
 10
396.9432062745
 20
9.1122872574
 30
0.0
 11
406.7641112578
 21
123.1582631926
 31
0.0
 40
1.0
 41
2.8785302872
 42
2.8789496732
  0
ELLIPSE
  5
2EB
100
AcDbEntity
  8
CURVE
100
AcDbEllipse
 62
253
  6
CONTINUOUS
 10
396.9432062745
 20
9.1122872574
 30
0.0
 11
420.8920663559
 21
58.948015053
 31
0.0
 40
1.0
 41
3.0338011455
 42
3.0363316633
  0
ELLIPSE
  5
2EC
100
AcDbEntity
  8
CURVE
100
AcDbEllipse
 62
253
  6
CONTINUOUS
 10
396.9432062745
 20
9.1122872574
 30
0.0
 11
417.3314643609
 21
-80.3706964909
 31
0.0
 40
1.0
 41
-2.9199811436
 42
-2.9174506258
  0
ELLIPSE
  5
2ED
100
AcDbEntity
  8
CURVE
100
AcDbEllipse
 62
253
  6
CONTINUOUS
 10
396.9432062745
 20
9.1122872574
 30
0.0
 11
361.5265935496
 21
-223.4357226506
 31
0.0
 40
1.0
 41
-2.5570793593
 42
-2.5566599733
  0
ELLIPSE
  5
2EE
100
AcDbEntity
  8
CURVE
100
AcDbEllipse
 62
253
  6
CONTINUOUS
 10
396.9432062745
 20
9.1122872574
 30
0.0
 11
425.0
 21
0.0
 31
0.0
 40
1.0
 41
-3.1144751918
 42
-3.1106537182
  0
ENDSEC
  0
SECTION
  2
OBJECTS
  0
DICTIONARY
  5
C
100
AcDbDictionary
280
0
281
1
  3
ACAD_GROUP
350
D
  3
ACAD_MLINESTYLE
350
17
  3
ACAD_LAYOUT
350
1A
  3
ACAD_PLOTSETTINGS
350
19
  3
ACAD_PLOTSTYLENAME
350
E
  0
DICTIONARY
  5
D
102
{ACAD_REACTORS
330
C
102
}
100
AcDbDictionary
280
0
281
1
  0
ACDBDICTIONARYWDFLT
  5
E
102
{ACAD_REACTORS
330
C
102
}
100
AcDbDictionary
281
1
  3
Normal
350
F
100
AcDbDictionaryWithDefault
340
F
  0
DICTIONARY
  5
17
102
{ACAD_REACTORS
330
C
102
}
100
AcDbDictionary
280
0
281
1
  3
Standard
350
18
  0
DICTIONARY
  5
19
102
{ACAD_REACTORS
330
C
102
}
100
AcDbDictionary
281
1
  0
DICTIONARY
  5
1A
102
{ACAD_REACTORS
330
C
102
}
100
AcDbDictionary
281
1
  3
Model
350
2EF
  3
Layout1
350
2F0
  0
ACDBPLACEHOLDER
  5
F
102
{ACAD_REACTORS
330
E
102
}
  0
MLINESTYLE
  5
18
102
{ACAD_REACTORS
330
17
102
}
100
AcDbMlineStyle
  2
STANDARD
 70
0
  3

 62
256
 51
90.0
 52
90.0
 71
2
 49
0.5
 62
256
  6
BYLAYER
 49
-0.5
 62
256
  6
BYLAYER
  0
LAYOUT
  5
2EF
102
{ACAD_REACTORS
330
1A
102
}
100
AcDbPlotSettings
  1

  2
none_device
  4
ISO_A4_(297.00_x_210.00_MM)
  6

 40
0.0
 41
0.0
 42
0.0
 43
0.0
 44
297.0
 45
210.0
 46
0.0
 47
0.0
 48
0.0
 49
0.0
140
0.0
141
0.0
142
1.0
143
1.0
 70
1024
 72
1
 73
0
 74
0
  7

 75
0
147
1.0
148
0.0
149
0.0
100
AcDbLayout
  1
Model
 70
0
 71
0
 10
0.0
 20
0.0
 11
297.0
 21
210.0
 12
0.0
 22
0.0
 32
0.0
 14
0.0
 24
0.0
 34
0.0
 15
0.0
 25
0.0
 35
0.0
146
0.0
 13
0.0
 23
0.0
 33
0.0
 16
1.0
 26
0.0
 36
0.0
 17
0.0
 27
1.0
 37
0.0
 76
0
330
211
345
0
346
0
  0
LAYOUT
  5
2F0
102
{ACAD_REACTORS
330
1A
102
}
100
AcDbPlotSettings
  1

  2
none_device
  4
ISO_A4_(297.00_x_210.00_MM)
  6

 40
0.0
 41
0.0
 42
0.0
 43
0.0
 44
297.0
 45
210.0
 46
0.0
 47
0.0
 48
0.0
 49
0.0
140
0.0
141
0.0
142
1.0
143
1.0
 70
0
 72
1
 73
0
 74
0
  7

 75
0
147
1.0
148
0.0
149
0.0
100
AcDbLayout
  1
Layout1
 70
0
 71
1
 10
0.0
 20
0.0
 11
297.0
 21
210.0
 12
0.0
 22
0.0
 32
0.0
 14
0.0
 24
0.0
 34
0.0
 15
0.0
 25
0.0
 35
0.0
146
0.0
 13
0.0
 23
0.0
 33
0.0
 16
1.0
 26
0.0
 36
0.0
 17
0.0
 27
1.0
 37
0.0
 76
0
330
212
345
0
346
0
  0
ENDSEC
  0
EOF
