  0
SECTION
  2
HEADER
  9
$ACADVER
  1
AC1015
  9
$DWGCODEPAGE
  3
ANSI_1252
  9
$EXTMAX
 10
297.0
 20
210.0
 30
0.0
  9
$EXTMIN
 10
0.0
 20
0.0
 30
0.0
  9
$LIMMIN
 10
0.0
 20
0.0
  9
$LIMMAX
 10
297.0
 20
210.0
  9
$VIEWCTR
 10
148.5
 20
105.0
  9
$VIEWSIZE
 40
210.0
  9
$CLAYER
  8
0
  9
$LTSCALE
 40
16.335
  9
$CELTYPE
  6
BYLAYER
  9
$DIMSCALE
 40
1.0
  9
$DIMASZ
 40
3.0
  9
$DIMEXO
 40
1.85625
  9
$DIMDLI
 40
11.286
  9
$DIMEXE
 40
5.346
  9
$DIMCEN
 40
2.673
  9
$DIMLFAC
 40
1.0
  9
$DIMBLK
  1
_FILLED
  9
$DIMTXT
 40
3.0
  9
$DIMTOL
 70
1
  9
$DIMLIM
 70
0
  9
$DIMTFAC
 40
1.0
  9
$DIMTP
 40
0.01
  9
$DIMTM
 40
0.01
  9
$PDMODE
 70
3
  9
$PDSIZE
 40
3.0
  9
$HANDSEED
  5
2F8
  9
$TILEMODE
 70
1
  9
$MEASUREMENT
 70
1
  9
$INSUNITS
 70
4
  0
ENDSEC
  0
SECTION
  2
CLASSES
  0
CLASS
  1
ACDBDICTIONARYWDFLT
  2
AcDbDictionaryWithDefault
  3
AutoCAD 2000
 90
0
280
0
281
0
  0
CLASS
  1
ACDBPLACEHOLDER
  2
AcDbPlaceHolder
  3
AutoCAD 2000
 90
0
280
0
281
0
  0
CLASS
  1
LAYOUT
  2
AcDbLayout
  3
AutoCAD 2000
 90
0
280
0
281
0
  0
ENDSEC
  0
SECTION
  2
TABLES
  0
TABLE
  2
VPORT
  5
8
100
AcDbSymbolTable
 70
2
  0
VPORT
  5
1F4
100
AcDbSymbolTableRecord
100
AcDbViewportTableRecord
  2
*ACTIVE
 70
0
 10
0.0
 20
0.0
 11
1.0
 21
1.0
 12
148.5
 22
105.0
 13
0.0
 23
0.0
 14
1.0
 24
1.0
 15
0.0
 25
0.0
 16
0.0
 26
0.0
 36
1.0
 17
0.0
 27
0.0
 37
0.0
 40
210.0
 41
1.4142857143
 42
50.0
 43
0.0
 44
0.0
 50
0.0
 51
0.0
 71
0
 72
100
 73
1
 74
1
 75
0
 76
0
 77
0
 78
0
  0
ENDTAB
  0
TABLE
  2
LTYPE
  5
5
100
AcDbSymbolTable
 70
6
  0
LTYPE
  5
14
100
AcDbSymbolTableRecord
100
AcDbLinetypeTableRecord
  2
BYBLOCK
 70
0
  3

 72
65
 73
0
 40
0.0
  0
LTYPE
  5
15
100
AcDbSymbolTableRecord
100
AcDbLinetypeTableRecord
  2
BYLAYER
 70
0
  3

 72
65
 73
0
 40
0.0
  0
LTYPE
  5
16
100
AcDbSymbolTableRecord
100
AcDbLinetypeTableRecord
  2
CONTINUOUS
 70
64
  3
Solid line
 72
65
 73
0
 40
0.0
  0
LTYPE
  5
1F5
100
AcDbSymbolTableRecord
100
AcDbLinetypeTableRecord
  2
CENTER
 70
64
  3
____ _ ____ _ ____ _ ____ _ ____ _ ____ _ ____
 72
65
 73
4
 40
0.6
 49
0.375
 74
0
 49
-0.075
 74
0
 49
0.075
 74
0
 49
-0.075
 74
0
  0
LTYPE
  5
1F6
100
AcDbSymbolTableRecord
100
AcDbLinetypeTableRecord
  2
HIDDEN
 70
64
  3
- - - - - - - - - - - - - - - - - - - -
 72
65
 73
2
 40
0.2
 49
0.1
 74
0
 49
-0.1
 74
0
  0
LTYPE
  5
1F7
100
AcDbSymbolTableRecord
100
AcDbLinetypeTableRecord
  2
PHANTOM
 70
64
  3
_____ _ _ _____ _ _ _____ _ _ _____
 72
65
 73
6
 40
0.8
 49
0.45
 74
0
 49
-0.05
 74
0
 49
0.1
 74
0
 49
-0.05
 74
0
 49
0.1
 74
0
 49
-0.05
 74
0
  0
LTYPE
  5
1F8
100
AcDbSymbolTableRecord
100
AcDbLinetypeTableRecord
  2
DOT
 70
64
  3
. . . . . . . . . . . . . . . . . . . .
 72
65
 73
2
 40
0.2
 49
0.1
 74
0
 49
-0.1
 74
0
  0
LTYPE
  5
1F9
100
AcDbSymbolTableRecord
100
AcDbLinetypeTableRecord
  2
DASHED
 70
64
  3
- - - - - - - - - - - - - - - - - - - -
 72
65
 73
2
 40
0.2
 49
0.1
 74
0
 49
-0.1
 74
0
  0
ENDTAB
  0
TABLE
  2
LAYER
  5
2
100
AcDbSymbolTable
 70
36
  0
LAYER
  5
10
100
AcDbSymbolTableRecord
100
AcDbLayerTableRecord
  2
0
 70
0
 62
7
  6
CONTINUOUS
370
-3
390
F
  0
LAYER
  5
1FA
100
AcDbSymbolTableRecord
100
AcDbLayerTableRecord
  2
DEFAULT_1
 70
0
 62
7
  6
CENTER
370
-3
390
F
  0
LAYER
  5
1FB
100
AcDbSymbolTableRecord
100
AcDbLayerTableRecord
  2
DEFAULT_2
 70
0
 62
7
  6
HIDDEN
370
-3
390
F
  0
LAYER
  5
1FC
100
AcDbSymbolTableRecord
100
AcDbLayerTableRecord
  2
DEFAULT_3
 70
0
 62
7
  6
PHANTOM
370
-3
390
F
  0
LAYER
  5
1FD
100
AcDbSymbolTableRecord
100
AcDbLayerTableRecord
  2
ASSI
 70
0
 62
7
  6
CONTINUOUS
370
-3
390
F
  0
LAYER
  5
1FE
100
AcDbSymbolTableRecord
100
AcDbLayerTableRecord
  2
COORDINATE
 70
0
 62
7
  6
CONTINUOUS
370
-3
390
F
  0
LAYER
  5
1FF
100
AcDbSymbolTableRecord
100
AcDbLayerTableRecord
  2
COORD_ORIGINE
 70
0
 62
7
  6
CONTINUOUS
370
-3
390
F
  0
LAYER
  5
200
100
AcDbSymbolTableRecord
100
AcDbLayerTableRecord
  2
COPY_PUBLISH
 70
0
 62
7
  6
CONTINUOUS
370
-3
390
F
  0
LAYER
  5
201
100
AcDbSymbolTableRecord
100
AcDbLayerTableRecord
  2
COSMETIC
 70
0
 62
7
  6
CONTINUOUS
370
-3
390
F
  0
LAYER
  5
202
100
AcDbSymbolTableRecord
100
AcDbLayerTableRecord
  2
CURVE
 70
0
 62
7
  6
CONTINUOUS
370
-3
390
F
  0
LAYER
  5
203
100
AcDbSymbolTableRecord
100
AcDbLayerTableRecord
  2
DRAFT
 70
0
 62
7
  6
CONTINUOUS
370
-3
390
F
  0
LAYER
  5
204
100
AcDbSymbolTableRecord
100
AcDbLayerTableRecord
  2
IGES
 70
0
 62
7
  6
CONTINUOUS
370
-3
390
F
  0
LAYER
  5
205
100
AcDbSymbolTableRecord
100
AcDbLayerTableRecord
  2
IMPORT_IGES
 70
0
 62
7
  6
CONTINUOUS
370
-3
390
F
  0
LAYER
  5
206
100
AcDbSymbolTableRecord
100
AcDbLayerTableRecord
  2
INTF_12
 70
0
 62
7
  6
CONTINUOUS
370
-3
390
F
  0
LAYER
  5
207
100
AcDbSymbolTableRecord
100
AcDbLayerTableRecord
  2
NOTE
 70
0
 62
7
  6
CONTINUOUS
370
-3
390
F
  0
LAYER
  5
208
100
AcDbSymbolTableRecord
100
AcDbLayerTableRecord
  2
PIANI
 70
0
 62
7
  6
CONTINUOUS
370
-3
390
F
  0
LAYER
  5
209
100
AcDbSymbolTableRecord
100
AcDbLayerTableRecord
  2
PIANI_ORIGINE
 70
0
 62
7
  6
CONTINUOUS
370
-3
390
F
  0
LAYER
  5
20A
100
AcDbSymbolTableRecord
100
AcDbLayerTableRecord
  2
RACCORDO
 70
0
 62
7
  6
CONTINUOUS
370
-3
390
F
  0
LAYER
  5
20B
100
AcDbSymbolTableRecord
100
AcDbLayerTableRecord
  2
SMUSSO
 70
0
 62
7
  6
CONTINUOUS
370
-3
390
F
  0
LAYER
  5
20C
100
AcDbSymbolTableRecord
100
AcDbLayerTableRecord
  2
SNAPLINE
 70
0
 62
7
  6
CONTINUOUS
370
-3
390
F
  0
LAYER
  5
20D
100
AcDbSymbolTableRecord
100
AcDbLayerTableRecord
  2
SUPERFICI
 70
0
 62
7
  6
CONTINUOUS
370
-3
390
F
  0
LAYER
  5
20E
100
AcDbSymbolTableRecord
100
AcDbLayerTableRecord
  2
TRASH
 70
0
 62
7
  6
CONTINUOUS
370
-3
390
F
  0
ENDTAB
  0
TABLE
  2
STYLE
  5
3
100
AcDbSymbolTable
 70
1
  0
STYLE
  5
11
100
AcDbSymbolTableRecord
100
AcDbTextStyleTableRecord
  2
STANDARD
 70
0
 40
0.0
 41
0.8
 50
0.0
 71
0
 42
0.2
  3
txt
  4

  0
STYLE
  5
20F
100
AcDbSymbolTableRecord
100
AcDbTextStyleTableRecord
  2
TEXTSTYLE_1
 70
0
 40
0.0
 41
0.8
 50
0.0
 71
0
 42
0.2
  3
gdt
  4

  0
ENDTAB
  0
TABLE
  2
VIEW
  5
6
100
AcDbSymbolTable
 70
0
  0
ENDTAB
  0
TABLE
  2
UCS
  5
7
100
AcDbSymbolTable
 70
0
  0
ENDTAB
  0
TABLE
  2
APPID
  5
9
100
AcDbSymbolTable
 70
1
  0
APPID
  5
210
100
AcDbSymbolTableRecord
100
AcDbRegAppTableRecord
  2
ACAD
 70
0
  0
ENDTAB
  0
TABLE
  2
BLOCK_RECORD
  5
1
100
AcDbSymbolTable
 70
0
  0
BLOCK_RECORD
  5
211
100
AcDbSymbolTableRecord
100
AcDbBlockTableRecord
  2
*Model_Space
  0
BLOCK_RECORD
  5
212
100
AcDbSymbolTableRecord
100
AcDbBlockTableRecord
  2
*Paper_Space
  0
BLOCK_RECORD
  5
213
100
AcDbSymbolTableRecord
100
AcDbBlockTableRecord
  2
_FILLED
  0
BLOCK_RECORD
  5
214
100
AcDbSymbolTableRecord
100
AcDbBlockTableRecord
  2
*D0
  0
BLOCK_RECORD
  5
215
100
AcDbSymbolTableRecord
100
AcDbBlockTableRecord
  2
*D1
  0
BLOCK_RECORD
  5
216
100
AcDbSymbolTableRecord
100
AcDbBlockTableRecord
  2
*D2
  0
ENDTAB
  0
TABLE
  2
DIMSTYLE
  5
A
100
AcDbSymbolTable
 70
1
100
AcDbDimStyleTable
 71
0
  0
DIMSTYLE
105
217
100
AcDbSymbolTableRecord
100
AcDbDimStyleTableRecord
  2
STANDARD
 70
0
  3

  4

 40
1.0
 41
3.0
 42
0.0625
 43
0.38
 44
0.18
 45
0.0
 46
0.0
 47
0.01
 48
0.01
140
3.0
141
0.09
142
0.0
143
25.4
144
1.0
145
0.0
146
1.0
147
0.09
 71
1.0
 72
0.0
 73
0
 74
0
 75
0
 76
0
 77
1
 78
8
170
0
171
2
172
0
173
0
174
0
175
0
176
0
177
0
178
0
270
2
271
2
272
2
273
2
274
2
275
0
280
0
281
0
282
0
283
1
284
8
285
0
286
0
287
3
288
0
340
11
341
213
342
213
343
213
344
213
  0
DIMSTYLE
105
218
100
AcDbSymbolTableRecord
100
AcDbDimStyleTableRecord
  2
DIMSTYLE_1
 70
0
  3

  4

 40
1.0
 41
3.0
 42
0.0625
 43
0.38
 44
0.18
 45
0.0
 46
0.0
 47
0.0
 48
0.0
140
3.0
141
0.09
142
0.0
143
25.4
144
1.0
145
0.0
146
1.0
147
0.09
 71
0.0
 72
0.0
 73
0
 74
0
 75
0
 76
0
 77
1
 78
8
170
0
171
2
172
0
173
0
174
0
175
0
176
0
177
0
178
0
270
2
271
2
272
2
273
2
274
2
275
0
280
0
281
0
282
0
283
1
284
8
285
0
286
0
287
3
288
0
340
11
341
213
342
213
343
213
344
213
  0
DIMSTYLE
105
219
100
AcDbSymbolTableRecord
100
AcDbDimStyleTableRecord
  2
DIMSTYLE_2
 70
0
  3

  4

 40
1.0
 41
3.0
 42
0.0625
 43
0.38
 44
0.18
 45
0.0
 46
0.0
 47
0.0
 48
0.0
140
3.0
141
0.09
142
0.0
143
25.4
144
1.0
145
0.0
146
1.0
147
0.09
 71
0.0
 72
0.0
 73
0
 74
0
 75
0
 76
0
 77
1
 78
8
170
0
171
2
172
0
173
0
174
0
175
0
176
0
177
0
178
0
270
2
271
1
272
1
273
2
274
2
275
0
280
0
281
0
282
0
283
1
284
8
285
0
286
0
287
3
288
0
340
11
341
213
342
213
343
213
344
213
  0
ENDTAB
  0
ENDSEC
  0
SECTION
  2
BLOCKS
  0
BLOCK
  5
20
100
AcDbEntity
  8
0
100
AcDbBlockBegin
  2
*Model_Space
 70
0
 10
0.0
 20
0.0
 30
0.0
  3
*Model_Space
  1

  0
ENDBLK
  5
21
100
AcDbEntity
  8
0
100
AcDbBlockEnd
  0
BLOCK
  5
1C
100
AcDbEntity
  8
0
100
AcDbBlockBegin
  2
*Paper_Space
 70
0
 10
0.0
 20
0.0
 30
0.0
  3
*Paper_Space
  1

  0
ENDBLK
  5
1D
100
AcDbEntity
  8
0
100
AcDbBlockEnd
  0
BLOCK
  5
21A
100
AcDbEntity
  8
0
100
AcDbBlockBegin
  2
_FILLED
 70
64
 10
0.0
 20
0.0
  3
_FILLED
  1

  0
SOLID
  5
21B
100
AcDbEntity
  8
0
  6
BYBLOCK
 62
0
100
AcDbTrace
 10
0.0
 20
0.0
 11
-1.0
 21
0.3166666667
 12
-1.0
 22
-0.3166666667
 13
-1.0
 23
-0.3166666667
  0
ENDBLK
  5
21C
100
AcDbEntity
  8
0
  6
BYBLOCK
 62
0
100
AcDbBlockEnd
  0
BLOCK
  5
21D
100
AcDbEntity
  8
0
100
AcDbBlockBegin
 62
7
  6
CONTINUOUS
  2
*D0
 70
65
 10
0.0
 20
0.0
  3
*D0
  1

  0
MTEXT
  5
21E
100
AcDbEntity
  8
0
100
AcDbMText
 62
7
  6
CONTINUOUS
  7
STANDARD
 71
2
 72
1
 10
-30.6812019199
 20
20.777644787
 30
0.0
 11
1.0
 21
0.0
 31
0.0
 44
0.9
  1
6,5
 40
3.0
 41
6.2142857143
  0
LINE
  5
21F
100
AcDbEntity
  8
0
100
AcDbLine
 62
7
  6
CONTINUOUS
 10
-27.4313568
 20
6.034626813
 11
-27.4313568
 21
18.527644787
  0
LINE
  5
220
100
AcDbEntity
  8
0
100
AcDbLine
 62
7
  6
CONTINUOUS
 10
-33.9310470397
 20
9.183903556
 11
-33.9310470397
 21
18.527644787
  0
LINE
  5
221
100
AcDbEntity
  8
0
100
AcDbLine
 62
7
  6
CONTINUOUS
 10
-27.4313568
 20
17.027644787
 11
-23.4313568
 21
17.027644787
  0
LINE
  5
222
100
AcDbEntity
  8
0
100
AcDbLine
 62
7
  6
CONTINUOUS
 10
-23.4313568
 20
17.027644787
 11
-30.6812019199
 21
17.027644787
  0
LINE
  5
223
100
AcDbEntity
  8
0
100
AcDbLine
 62
7
  6
CONTINUOUS
 10
-33.9310470397
 20
17.027644787
 11
-37.9310470397
 21
17.027644787
  0
LINE
  5
224
100
AcDbEntity
  8
0
100
AcDbLine
 62
7
  6
CONTINUOUS
 10
-37.9310470397
 20
17.027644787
 11
-30.6812019199
 21
17.027644787
  0
INSERT
  5
225
100
AcDbEntity
  8
0
100
AcDbBlockReference
 62
7
  6
CONTINUOUS
  2
_FILLED
 10
-27.4313568
 20
17.027644787
 41
3.0
 42
3.0
 43
3.0
 50
180.0
  0
INSERT
  5
226
100
AcDbEntity
  8
0
100
AcDbBlockReference
 62
7
  6
CONTINUOUS
  2
_FILLED
 10
-33.9310470397
 20
17.027644787
 41
3.0
 42
3.0
 43
3.0
  0
ENDBLK
  5
227
100
AcDbEntity
  8
0
  6
BYBLOCK
 62
0
100
AcDbBlockEnd
  0
BLOCK
  5
228
100
AcDbEntity
  8
0
100
AcDbBlockBegin
 62
7
  6
CONTINUOUS
  2
*D1
 70
65
 10
0.0
 20
0.0
  3
*D1
  1

  0
MTEXT
  5
229
100
AcDbEntity
  8
0
100
AcDbMText
 62
7
  6
CONTINUOUS
  7
STANDARD
 71
2
 72
1
 10
12.0884231111
 20
20.777644787
 30
0.0
 11
1.0
 21
0.0
 31
0.0
 44
0.9
  1
49,6
 40
3.0
 41
8.7857142857
  0
LINE
  5
22A
100
AcDbEntity
  8
0
100
AcDbLine
 62
7
  6
CONTINUOUS
 10
-12.7115768889
 20
8.2752795922
 11
-12.7115768889
 21
18.527644787
  0
LINE
  5
22B
100
AcDbEntity
  8
0
100
AcDbLine
 62
7
  6
CONTINUOUS
 10
36.8884231111
 20
8.2752795922
 11
36.8884231111
 21
18.527644787
  0
LINE
  5
22C
100
AcDbEntity
  8
0
100
AcDbLine
 62
7
  6
CONTINUOUS
 10
-12.7115768889
 20
17.027644787
 11
12.0884231111
 21
17.027644787
  0
LINE
  5
22D
100
AcDbEntity
  8
0
100
AcDbLine
 62
7
  6
CONTINUOUS
 10
36.8884231111
 20
17.027644787
 11
12.0884231111
 21
17.027644787
  0
INSERT
  5
22E
100
AcDbEntity
  8
0
100
AcDbBlockReference
 62
7
  6
CONTINUOUS
  2
_FILLED
 10
-12.7115768889
 20
17.027644787
 41
3.0
 42
3.0
 43
3.0
 50
180.0
  0
INSERT
  5
22F
100
AcDbEntity
  8
0
100
AcDbBlockReference
 62
7
  6
CONTINUOUS
  2
_FILLED
 10
36.8884231111
 20
17.027644787
 41
3.0
 42
3.0
 43
3.0
  0
ENDBLK
  5
230
100
AcDbEntity
  8
0
  6
BYBLOCK
 62
0
100
AcDbBlockEnd
  0
BLOCK
  5
231
100
AcDbEntity
  8
0
100
AcDbBlockBegin
 62
7
  6
CONTINUOUS
  2
*D2
 70
65
 10
0.0
 20
0.0
  3
*D2
  1

  0
MTEXT
  5
232
100
AcDbEntity
  8
0
100
AcDbMText
 62
7
  6
CONTINUOUS
  7
STANDARD
 71
2
 72
1
 10
41.1384231111
 20
-0.215375852
 30
0.0
 11
0.0
 21
1.0
 31
0.0
 44
0.9
  1
18,5
 40
3.0
 41
7.9285714286
  0
LINE
  5
233
100
AcDbEntity
  8
0
100
AcDbLine
 62
7
  6
CONTINUOUS
 10
37.1314791614
 20
9.027644787
 11
46.3884231111
 21
9.027644787
  0
LINE
  5
234
100
AcDbEntity
  8
0
100
AcDbLine
 62
7
  6
CONTINUOUS
 10
36.2744686566
 20
-9.4583964911
 11
46.3884231111
 21
-9.4583964911
  0
LINE
  5
235
100
AcDbEntity
  8
0
100
AcDbLine
 62
7
  6
CONTINUOUS
 10
44.8884231111
 20
9.027644787
 11
44.8884231111
 21
-0.215375852
  0
LINE
  5
236
100
AcDbEntity
  8
0
100
AcDbLine
 62
7
  6
CONTINUOUS
 10
44.8884231111
 20
-9.4583964911
 11
44.8884231111
 21
-0.215375852
  0
INSERT
  5
237
100
AcDbEntity
  8
0
100
AcDbBlockReference
 62
7
  6
CONTINUOUS
  2
_FILLED
 10
44.8884231111
 20
9.027644787
 41
3.0
 42
3.0
 43
3.0
 50
90.0
  0
INSERT
  5
238
100
AcDbEntity
  8
0
100
AcDbBlockReference
 62
7
  6
CONTINUOUS
  2
_FILLED
 10
44.8884231111
 20
-9.4583964911
 41
3.0
 42
3.0
 43
3.0
 50
270.0
  0
ENDBLK
  5
239
100
AcDbEntity
  8
0
  6
BYBLOCK
 62
0
100
AcDbBlockEnd
  0
ENDSEC
  0
SECTION
  2
ENTITIES
  0
DIMENSION
  5
23A
100
AcDbEntity
  8
0
100
AcDbDimension
 62
7
  6
CONTINUOUS
  2
*D0
 10
-33.9310470397
 20
17.027644787
 11
-33.788344777
 21
19.277644787
 70
160
 71
2
 42
6.4996902397
  3
DIMSTYLE_1
100
AcDbAlignedDimension
 13
-27.4313568
 23
6.034626813
 14
-33.9310470397
 24
9.183903556
 50
180.0
100
AcDbRotatedDimension
  0
DIMENSION
  5
23B
100
AcDbEntity
  8
0
100
AcDbDimension
 62
7
  6
CONTINUOUS
  2
*D1
 10
36.8884231111
 20
17.027644787
 11
7.6955659683
 21
19.277644787
 70
160
 71
2
 42
49.6
  3
DIMSTYLE_1
100
AcDbAlignedDimension
 13
-12.7115768889
 23
8.2752795922
 14
36.8884231111
 24
8.2752795922
100
AcDbRotatedDimension
  0
DIMENSION
  5
23C
100
AcDbEntity
  8
0
100
AcDbDimension
 62
7
  6
CONTINUOUS
  2
*D2
 10
44.8884231111
 20
-9.4583964911
 11
44.4147149465
 21
-3.7594340542
 70
160
 71
2
 42
18.4860412781
  3
DIMSTYLE_2
100
AcDbAlignedDimension
 13
37.1314791614
 23
9.027644787
 14
36.2744686566
 24
-9.4583964911
 50
270.0
100
AcDbRotatedDimension
  0
LINE
  5
23D
100
AcDbEntity
  8
RACCORDO
100
AcDbLine
 62
7
  6
CONTINUOUS
 10
-12.6980838111
 20
-9.2086557186
 11
-12.7115768889
 21
-1.8538816236
  0
LINE
  5
23E
100
AcDbEntity
  8
ASSI
100
AcDbLine
 62
7
  6
CONTINUOUS
 10
-12.6980838111
 20
-9.2086557186
 11
-12.7115768889
 21
-1.8538816236
  0
LINE
  5
23F
100
AcDbEntity
  8
DRAFT
100
AcDbLine
 62
7
  6
CONTINUOUS
 10
-12.7115768889
 20
7.7752795922
 11
-12.7115768889
 21
-1.8538816236
  0
LINE
  5
240
100
AcDbEntity
  8
ASSI
100
AcDbLine
 62
7
  6
CONTINUOUS
 10
-12.7115768889
 20
7.7752795922
 11
-12.7115768889
 21
-1.8538816236
  0
LINE
  5
241
100
AcDbEntity
  8
RACCORDO
100
AcDbLine
 62
7
  6
CONTINUOUS
 10
-12.7045948629
 20
8.7776828632
 11
-12.7045948629
 21
8.0770707971
  0
LINE
  5
242
100
AcDbEntity
  8
ASSI
100
AcDbLine
 62
7
  6
CONTINUOUS
 10
-12.7045948629
 20
8.7776828632
 11
-12.7045948629
 21
8.0770707971
  0
LINE
  5
243
100
AcDbEntity
  8
RACCORDO
100
AcDbLine
 62
7
  6
CONTINUOUS
 10
-12.6853942915
 20
-9.2023114419
 11
-12.6853942915
 21
-8.9122858666
  0
LINE
  5
244
100
AcDbEntity
  8
ASSI
100
AcDbLine
 62
7
  6
CONTINUOUS
 10
-12.6853942915
 20
-9.2023114419
 11
-12.6853942915
 21
-8.9122858666
  0
LINE
  5
245
100
AcDbEntity
  8
RACCORDO
100
AcDbLine
 62
253
  6
CONTINUOUS
 10
-12.3670117576
 20
-7.6313726821
 11
-12.3611775868
 21
8.9341894347
  0
LINE
  5
246
100
AcDbEntity
  8
ASSI
100
AcDbLine
 62
253
  6
CONTINUOUS
 10
-12.3670117576
 20
-7.6313726821
 11
-12.3611775868
 21
8.9341894347
  0
LINE
  5
247
100
AcDbEntity
  8
RACCORDO
100
AcDbLine
 62
253
  6
CONTINUOUS
 10
-12.6853942915
 20
-8.9122858666
 11
-12.6277813873
 21
-8.3302937921
  0
LINE
  5
248
100
AcDbEntity
  8
ASSI
100
AcDbLine
 62
253
  6
CONTINUOUS
 10
-12.6853942915
 20
-8.9122858666
 11
-12.6277813873
 21
-8.3302937921
  0
LINE
  5
249
100
AcDbEntity
  8
RACCORDO
100
AcDbLine
 62
253
  6
CONTINUOUS
 10
-12.4361139695
 20
-9.165373187
 11
-12.3778194635
 21
-8.5764957304
  0
LINE
  5
24A
100
AcDbEntity
  8
ASSI
100
AcDbLine
 62
253
  6
CONTINUOUS
 10
-12.4361139695
 20
-9.165373187
 11
-12.3778194635
 21
-8.5764957304
  0
LINE
  5
24B
100
AcDbEntity
  8
RACCORDO
100
AcDbLine
 62
7
  6
CONTINUOUS
 10
-12.7115768889
 20
7.7752795922
 11
-12.7097399925
 21
7.7771164886
  0
LINE
  5
24C
100
AcDbEntity
  8
ASSI
100
AcDbLine
 62
7
  6
CONTINUOUS
 10
-12.7115768889
 20
7.7752795922
 11
-12.7097399925
 21
7.7771164886
  0
LINE
  5
24D
100
AcDbEntity
  8
RACCORDO
100
AcDbLine
 62
253
  6
CONTINUOUS
 10
-12.6111395106
 20
8.684227511
 11
-12.7045948629
 21
8.7776828632
  0
LINE
  5
24E
100
AcDbEntity
  8
ASSI
100
AcDbLine
 62
253
  6
CONTINUOUS
 10
-12.6111395106
 20
8.684227511
 11
-12.7045948629
 21
8.7776828632
  0
LINE
  5
24F
100
AcDbEntity
  8
RACCORDO
100
AcDbLine
 62
253
  6
CONTINUOUS
 10
-12.3611775868
 20
8.9341894347
 11
-12.4546329391
 21
9.027644787
  0
LINE
  5
250
100
AcDbEntity
  8
ASSI
100
AcDbLine
 62
253
  6
CONTINUOUS
 10
-12.3611775868
 20
8.9341894347
 11
-12.4546329391
 21
9.027644787
  0
LINE
  5
251
100
AcDbEntity
  8
RACCORDO
100
AcDbLine
 62
7
  6
CONTINUOUS
 10
-12.447625632
 20
-9.4583980906
 11
-11.5976256335
 21
-9.4583980906
  0
LINE
  5
252
100
AcDbEntity
  8
RACCORDO
100
AcDbLine
 62
7
  6
CONTINUOUS
 10
35.7744718557
 20
-9.4583980906
 11
36.6244718542
 21
-9.4583980906
  0
LINE
  5
253
100
AcDbEntity
  8
DRAFT
100
AcDbLine
 62
7
  6
CONTINUOUS
 10
35.7744686566
 20
-9.4583964911
 11
-11.5976224343
 21
-9.4583964911
  0
LINE
  5
254
100
AcDbEntity
  8
ASSI
100
AcDbLine
 62
7
  6
CONTINUOUS
 10
36.6244718542
 20
-9.4583980906
 11
-12.447625632
 21
-9.4583980906
  0
LINE
  5
255
100
AcDbEntity
  8
RACCORDO
100
AcDbLine
 62
7
  6
CONTINUOUS
 10
36.6122405123
 20
-9.4522828853
 11
-12.43539429
 21
-9.4522828853
  0
LINE
  5
256
100
AcDbEntity
  8
ASSI
100
AcDbLine
 62
7
  6
CONTINUOUS
 10
36.6122405123
 20
-9.4522828853
 11
-12.43539429
 21
-9.4522828853
  0
LINE
  5
257
100
AcDbEntity
  8
RACCORDO
100
AcDbLine
 62
7
  6
CONTINUOUS
 10
36.6129601918
 20
-9.165373187
 11
-12.4361139695
 21
-9.165373187
  0
LINE
  5
258
100
AcDbEntity
  8
ASSI
100
AcDbLine
 62
7
  6
CONTINUOUS
 10
36.6129601918
 20
-9.165373187
 11
-12.4361139695
 21
-9.165373187
  0
LINE
  5
259
100
AcDbEntity
  8
RACCORDO
100
AcDbLine
 62
253
  6
CONTINUOUS
 10
-12.3778194635
 20
-8.5764957304
 11
36.5546656857
 21
-8.5764957304
  0
LINE
  5
25A
100
AcDbEntity
  8
ASSI
100
AcDbLine
 62
253
  6
CONTINUOUS
 10
-12.3778194635
 20
-8.5764957304
 11
36.5546656857
 21
-8.5764957304
  0
LINE
  5
25B
100
AcDbEntity
  8
RACCORDO
100
AcDbLine
 62
253
  6
CONTINUOUS
 10
-12.3670117576
 20
-7.6313726821
 11
36.5438579798
 21
-7.6313726821
  0
LINE
  5
25C
100
AcDbEntity
  8
ASSI
100
AcDbLine
 62
253
  6
CONTINUOUS
 10
-12.3670117576
 20
-7.6313726821
 11
36.5438579798
 21
-7.6313726821
  0
LINE
  5
25D
100
AcDbEntity
  8
CURVE
100
AcDbLine
 62
253
  6
CONTINUOUS
 10
8.0384231111
 20
-2.2795867494
 11
12.0884231111
 21
-6.3295867494
  0
LINE
  5
25E
100
AcDbEntity
  8
CURVE
100
AcDbLine
 62
253
  6
CONTINUOUS
 10
12.0884231111
 20
-4.915373187
 11
8.0384231111
 21
-0.865373187
  0
LINE
  5
25F
100
AcDbEntity
  8
RACCORDO
100
AcDbLine
 62
253
  6
CONTINUOUS
 10
-12.6980838111
 20
-9.2086557186
 11
-12.6853942915
 21
-9.2023114419
  0
LINE
  5
260
100
AcDbEntity
  8
ASSI
100
AcDbLine
 62
253
  6
CONTINUOUS
 10
-12.6980838111
 20
-9.2086557186
 11
-12.6853942915
 21
-9.2023114419
  0
LINE
  5
261
100
AcDbEntity
  8
CURVE
100
AcDbLine
 62
253
  6
CONTINUOUS
 10
8.0384231111
 20
-0.865373187
 11
16.1384231111
 21
-0.865373187
  0
LINE
  5
262
100
AcDbEntity
  8
CURVE
100
AcDbLine
 62
253
  6
CONTINUOUS
 10
16.1384231111
 20
-0.865373187
 11
12.0884231111
 21
-4.915373187
  0
LINE
  5
263
100
AcDbEntity
  8
RACCORDO
100
AcDbLine
 62
253
  6
CONTINUOUS
 10
36.8622405137
 20
-9.2023114419
 11
36.8749300334
 21
-9.2086557186
  0
LINE
  5
264
100
AcDbEntity
  8
ASSI
100
AcDbLine
 62
253
  6
CONTINUOUS
 10
36.8622405137
 20
-9.2023114419
 11
36.8749300334
 21
-9.2086557186
  0
LINE
  5
265
100
AcDbEntity
  8
CURVE
100
AcDbLine
 62
253
  6
CONTINUOUS
 10
12.0884231111
 20
-6.3295867494
 11
16.1384231111
 21
-2.2795867494
  0
LINE
  5
266
100
AcDbEntity
  8
DRAFT
100
AcDbLine
 62
7
  6
CONTINUOUS
 10
33.4008891017
 20
9.027644787
 11
33.1384231111
 21
8.9752795922
  0
LINE
  5
267
100
AcDbEntity
  8
ASSI
100
AcDbLine
 62
7
  6
CONTINUOUS
 10
33.4008891017
 20
9.027644787
 11
33.1384231111
 21
8.9752795922
  0
LINE
  5
268
100
AcDbEntity
  8
DRAFT
100
AcDbLine
 62
7
  6
CONTINUOUS
 10
-9.2240428795
 20
9.027644787
 11
-8.9615768889
 21
8.9752795922
  0
LINE
  5
269
100
AcDbEntity
  8
ASSI
100
AcDbLine
 62
7
  6
CONTINUOUS
 10
-9.2240428795
 20
9.027644787
 11
-8.9615768889
 21
8.9752795922
  0
LINE
  5
26A
100
AcDbEntity
  8
RACCORDO
100
AcDbLine
 62
253
  6
CONTINUOUS
 10
36.7879857328
 20
8.6842275109
 11
-12.361177584
 21
8.683903556
  0
LINE
  5
26B
100
AcDbEntity
  8
ASSI
100
AcDbLine
 62
253
  6
CONTINUOUS
 10
36.7879857328
 20
8.6842275109
 11
-12.361177584
 21
8.683903556
  0
LINE
  5
26C
100
AcDbEntity
  8
RACCORDO
100
AcDbLine
 62
253
  6
CONTINUOUS
 10
-12.3611775868
 20
8.683903556
 11
-12.6111395106
 21
8.6842275109
  0
LINE
  5
26D
100
AcDbEntity
  8
ASSI
100
AcDbLine
 62
253
  6
CONTINUOUS
 10
-12.3611775868
 20
8.683903556
 11
-12.6111395106
 21
8.6842275109
  0
LINE
  5
26E
100
AcDbEntity
  8
RACCORDO
100
AcDbLine
 62
253
  6
CONTINUOUS
 10
36.6314791614
 20
9.027644787
 11
36.538023809
 21
8.9341894347
  0
LINE
  5
26F
100
AcDbEntity
  8
ASSI
100
AcDbLine
 62
253
  6
CONTINUOUS
 10
36.6314791614
 20
9.027644787
 11
36.538023809
 21
8.9341894347
  0
LINE
  5
270
100
AcDbEntity
  8
RACCORDO
100
AcDbLine
 62
253
  6
CONTINUOUS
 10
36.538023809
 20
8.9341894347
 11
-12.3611775868
 21
8.9341894347
  0
LINE
  5
271
100
AcDbEntity
  8
ASSI
100
AcDbLine
 62
253
  6
CONTINUOUS
 10
36.538023809
 20
8.9341894347
 11
-12.3611775868
 21
8.9341894347
  0
LINE
  5
272
100
AcDbEntity
  8
DRAFT
100
AcDbLine
 62
7
  6
CONTINUOUS
 10
33.1384231111
 20
8.9752795922
 11
-8.9615768889
 21
8.9752795922
  0
LINE
  5
273
100
AcDbEntity
  8
ASSI
100
AcDbLine
 62
7
  6
CONTINUOUS
 10
33.1384231111
 20
8.9752795922
 11
-8.9615768889
 21
8.9752795922
  0
LINE
  5
274
100
AcDbEntity
  8
RACCORDO
100
AcDbLine
 62
7
  6
CONTINUOUS
 10
36.6314791614
 20
9.027644787
 11
33.4008891017
 21
9.027644787
  0
LINE
  5
275
100
AcDbEntity
  8
ASSI
100
AcDbLine
 62
7
  6
CONTINUOUS
 10
36.6314791614
 20
9.027644787
 11
33.4008891017
 21
9.027644787
  0
LINE
  5
276
100
AcDbEntity
  8
RACCORDO
100
AcDbLine
 62
7
  6
CONTINUOUS
 10
-9.2240428795
 20
9.027644787
 11
-12.4546329391
 21
9.027644787
  0
LINE
  5
277
100
AcDbEntity
  8
ASSI
100
AcDbLine
 62
7
  6
CONTINUOUS
 10
-9.2240428795
 20
9.027644787
 11
-12.4546329391
 21
9.027644787
  0
LINE
  5
278
100
AcDbEntity
  8
RACCORDO
100
AcDbLine
 62
253
  6
CONTINUOUS
 10
36.8814410851
 20
8.7776828632
 11
36.7879857328
 21
8.6842275109
  0
LINE
  5
279
100
AcDbEntity
  8
ASSI
100
AcDbLine
 62
253
  6
CONTINUOUS
 10
36.8814410851
 20
8.7776828632
 11
36.7879857328
 21
8.6842275109
  0
LINE
  5
27A
100
AcDbEntity
  8
RACCORDO
100
AcDbLine
 62
253
  6
CONTINUOUS
 10
36.5546656857
 20
-8.5764957304
 11
36.6129601918
 21
-9.165373187
  0
LINE
  5
27B
100
AcDbEntity
  8
ASSI
100
AcDbLine
 62
253
  6
CONTINUOUS
 10
36.5546656857
 20
-8.5764957304
 11
36.6129601918
 21
-9.165373187
  0
LINE
  5
27C
100
AcDbEntity
  8
RACCORDO
100
AcDbLine
 62
253
  6
CONTINUOUS
 10
36.8046276095
 20
-8.3302937921
 11
36.8622405137
 21
-8.9122858666
  0
LINE
  5
27D
100
AcDbEntity
  8
ASSI
100
AcDbLine
 62
253
  6
CONTINUOUS
 10
36.8046276095
 20
-8.3302937921
 11
36.8622405137
 21
-8.9122858666
  0
LINE
  5
27E
100
AcDbEntity
  8
RACCORDO
100
AcDbLine
 62
253
  6
CONTINUOUS
 10
36.5438579798
 20
-7.6313726821
 11
36.538023809
 21
8.9341894347
  0
LINE
  5
27F
100
AcDbEntity
  8
ASSI
100
AcDbLine
 62
253
  6
CONTINUOUS
 10
36.5438579798
 20
-7.6313726821
 11
36.538023809
 21
8.9341894347
  0
LINE
  5
280
100
AcDbEntity
  8
RACCORDO
100
AcDbLine
 62
7
  6
CONTINUOUS
 10
36.8622405137
 20
-8.9122858666
 11
36.8622405137
 21
-9.2023114419
  0
LINE
  5
281
100
AcDbEntity
  8
ASSI
100
AcDbLine
 62
7
  6
CONTINUOUS
 10
36.8622405137
 20
-8.9122858666
 11
36.8622405137
 21
-9.2023114419
  0
LINE
  5
282
100
AcDbEntity
  8
RACCORDO
100
AcDbLine
 62
7
  6
CONTINUOUS
 10
36.8814410851
 20
8.0770707971
 11
36.8814410851
 21
8.7776828632
  0
LINE
  5
283
100
AcDbEntity
  8
ASSI
100
AcDbLine
 62
7
  6
CONTINUOUS
 10
36.8814410851
 20
8.0770707971
 11
36.8814410851
 21
8.7776828632
  0
LINE
  5
284
100
AcDbEntity
  8
DRAFT
100
AcDbLine
 62
7
  6
CONTINUOUS
 10
36.8884231111
 20
7.7752795922
 11
36.8884231111
 21
-1.8538816236
  0
LINE
  5
285
100
AcDbEntity
  8
ASSI
100
AcDbLine
 62
7
  6
CONTINUOUS
 10
36.8884231111
 20
7.7752795922
 11
36.8884231111
 21
-1.8538816236
  0
LINE
  5
286
100
AcDbEntity
  8
RACCORDO
100
AcDbLine
 62
7
  6
CONTINUOUS
 10
36.8749300334
 20
-9.2086557186
 11
36.8884231111
 21
-1.8538816236
  0
LINE
  5
287
100
AcDbEntity
  8
ASSI
100
AcDbLine
 62
7
  6
CONTINUOUS
 10
36.8749300334
 20
-9.2086557186
 11
36.8884231111
 21
-1.8538816236
  0
LINE
  5
288
100
AcDbEntity
  8
RACCORDO
100
AcDbLine
 62
7
  6
CONTINUOUS
 10
36.8884231111
 20
7.7752795922
 11
36.8865862148
 21
7.7771164886
  0
LINE
  5
289
100
AcDbEntity
  8
ASSI
100
AcDbLine
 62
7
  6
CONTINUOUS
 10
36.8884231111
 20
7.7752795922
 11
36.8865862148
 21
7.7771164886
  0
LINE
  5
28A
100
AcDbEntity
  8
RACCORDO
100
AcDbLine
 62
7
  6
CONTINUOUS
 10
-29.4313568
 20
-9.4522828853
 11
-28.7306236878
 21
-9.4583980906
  0
LINE
  5
28B
100
AcDbEntity
  8
ASSI
100
AcDbLine
 62
7
  6
CONTINUOUS
 10
-29.4313568
 20
-9.4522828853
 11
-28.7306236878
 21
-9.4583980906
  0
LINE
  5
28C
100
AcDbEntity
  8
RACCORDO
100
AcDbLine
 62
253
  6
CONTINUOUS
 10
-29.4313568
 20
-9.2023114419
 11
-28.7043747068
 21
-9.2086557186
  0
LINE
  5
28D
100
AcDbEntity
  8
ASSI
100
AcDbLine
 62
253
  6
CONTINUOUS
 10
-29.4313568
 20
-9.2023114419
 11
-28.7043747068
 21
-9.2086557186
  0
LINE
  5
28E
100
AcDbEntity
  8
RACCORDO
100
AcDbLine
 62
7
  6
CONTINUOUS
 10
-32.7710468137
 20
-8.5764957304
 11
-29.4313568
 21
-9.165373187
  0
LINE
  5
28F
100
AcDbEntity
  8
ASSI
100
AcDbLine
 62
7
  6
CONTINUOUS
 10
-32.7710468137
 20
-8.5764957304
 11
-29.4313568
 21
-9.165373187
  0
LINE
  5
290
100
AcDbEntity
  8
RACCORDO
100
AcDbLine
 62
253
  6
CONTINUOUS
 10
-32.7319978709
 20
-8.3302937921
 11
-29.4313568
 21
-8.9122858666
  0
LINE
  5
291
100
AcDbEntity
  8
ASSI
100
AcDbLine
 62
253
  6
CONTINUOUS
 10
-32.7319978709
 20
-8.3302937921
 11
-29.4313568
 21
-8.9122858666
  0
LINE
  5
292
100
AcDbEntity
  8
RACCORDO
100
AcDbLine
 62
253
  6
CONTINUOUS
 10
-33.3511709265
 20
-7.6214515059
 11
-33.5965931407
 21
-7.6313719729
  0
LINE
  5
293
100
AcDbEntity
  8
ASSI
100
AcDbLine
 62
253
  6
CONTINUOUS
 10
-33.3511709265
 20
-7.6214515059
 11
-33.5965931407
 21
-7.6313719729
  0
LINE
  5
294
100
AcDbEntity
  8
RACCORDO
100
AcDbLine
 62
7
  6
CONTINUOUS
 10
-29.4313568
 20
-9.4522828853
 11
-29.4313568
 21
-8.9122858666
  0
LINE
  5
295
100
AcDbEntity
  8
ASSI
100
AcDbLine
 62
7
  6
CONTINUOUS
 10
-29.4313568
 20
-9.4522828853
 11
-29.4313568
 21
-8.9122858666
  0
LINE
  5
296
100
AcDbEntity
  8
RACCORDO
100
AcDbLine
 62
7
  6
CONTINUOUS
 10
-28.3313568
 20
8.0770707971
 11
-28.3313568
 21
9.027644787
  0
LINE
  5
297
100
AcDbEntity
  8
ASSI
100
AcDbLine
 62
7
  6
CONTINUOUS
 10
-28.3313568
 20
8.0770707971
 11
-28.3313568
 21
9.027644787
  0
LINE
  5
298
100
AcDbEntity
  8
DRAFT
100
AcDbLine
 62
7
  6
CONTINUOUS
 10
-27.9313568
 20
7.7752795922
 11
-27.9313568
 21
-1.8538816236
  0
LINE
  5
299
100
AcDbEntity
  8
ASSI
100
AcDbLine
 62
7
  6
CONTINUOUS
 10
-27.9313568
 20
7.7752795922
 11
-27.9313568
 21
-1.8538816236
  0
LINE
  5
29A
100
AcDbEntity
  8
RACCORDO
100
AcDbLine
 62
7
  6
CONTINUOUS
 10
-28.7306236878
 20
-9.4583980906
 11
-27.9313568
 21
-1.8538816236
  0
LINE
  5
29B
100
AcDbEntity
  8
ASSI
100
AcDbLine
 62
7
  6
CONTINUOUS
 10
-28.7306236878
 20
-9.4583980906
 11
-27.9313568
 21
-1.8538816236
  0
LINE
  5
29C
100
AcDbEntity
  8
0
100
AcDbLine
 62
7
  6
CONTINUOUS
 10
-27.4313568
 20
5.534626813
 11
-27.4313568
 21
3.734626813
  0
LINE
  5
29D
100
AcDbEntity
  8
0
100
AcDbLine
 62
7
  6
CONTINUOUS
 10
-27.9313568
 20
3.709626813
 11
-27.4313568
 21
3.734626813
  0
LINE
  5
29E
100
AcDbEntity
  8
0
100
AcDbLine
 62
7
  6
CONTINUOUS
 10
-27.9313568
 20
5.559626813
 11
-27.4313568
 21
5.534626813
  0
LINE
  5
29F
100
AcDbEntity
  8
RACCORDO
100
AcDbLine
 62
7
  6
CONTINUOUS
 10
-27.9313568
 20
7.7752795922
 11
-28.0365925219
 21
7.7771164886
  0
LINE
  5
2A0
100
AcDbEntity
  8
ASSI
100
AcDbLine
 62
7
  6
CONTINUOUS
 10
-27.9313568
 20
7.7752795922
 11
-28.0365925219
 21
7.7771164886
  0
LINE
  5
2A1
100
AcDbEntity
  8
RACCORDO
100
AcDbLine
 62
253
  6
CONTINUOUS
 10
-28.3313568
 20
8.7776828632
 11
-33.6854103487
 21
8.6842275109
  0
LINE
  5
2A2
100
AcDbEntity
  8
ASSI
100
AcDbLine
 62
253
  6
CONTINUOUS
 10
-28.3313568
 20
8.7776828632
 11
-33.6854103487
 21
8.6842275109
  0
LINE
  5
2A3
100
AcDbEntity
  8
RACCORDO
100
AcDbLine
 62
7
  6
CONTINUOUS
 10
-28.3313568
 20
9.027644787
 11
-33.6854103512
 21
8.9341894347
  0
LINE
  5
2A4
100
AcDbEntity
  8
ASSI
100
AcDbLine
 62
7
  6
CONTINUOUS
 10
-28.3313568
 20
9.027644787
 11
-33.6854103512
 21
8.9341894347
  0
LINE
  5
2A5
100
AcDbEntity
  8
RACCORDO
100
AcDbLine
 62
253
  6
CONTINUOUS
 10
-33.6854103512
 20
8.6842275109
 11
-33.9310470397
 21
8.683903556
  0
LINE
  5
2A6
100
AcDbEntity
  8
ASSI
100
AcDbLine
 62
253
  6
CONTINUOUS
 10
-33.6854103512
 20
8.6842275109
 11
-33.9310470397
 21
8.683903556
  0
CIRCLE
  5
2A7
100
AcDbEntity
  8
DRAFT
100
AcDbCircle
 62
7
  6
CONTINUOUS
 10
12.088422767
 20
4.6348473588
 40
1.3135386721
  0
CIRCLE
  5
2A8
100
AcDbEntity
  8
ASSI
100
AcDbCircle
 62
7
  6
CONTINUOUS
 10
12.088422767
 20
4.6348473588
 40
1.3135386721
  0
CIRCLE
  5
2A9
100
AcDbEntity
  8
DRAFT
100
AcDbCircle
 62
7
  6
CONTINUOUS
 10
12.0884231111
 20
4.634626813
 40
1.3
  0
CIRCLE
  5
2AA
100
AcDbEntity
  8
ASSI
100
AcDbCircle
 62
7
  6
CONTINUOUS
 10
12.0884231111
 20
4.634626813
 40
1.3
  0
CIRCLE
  5
2AB
100
AcDbEntity
  8
DRAFT
100
AcDbCircle
 62
7
  6
CONTINUOUS
 10
12.0884231111
 20
4.634626813
 40
1.225
  0
CIRCLE
  5
2AC
100
AcDbEntity
  8
RACCORDO
100
AcDbCircle
 62
253
  6
CONTINUOUS
 10
12.0884231111
 20
4.634626813
 40
1.2068524201
  0
CIRCLE
  5
2AD
100
AcDbEntity
  8
RACCORDO
100
AcDbCircle
 62
253
  6
CONTINUOUS
 10
12.0884231111
 20
4.634626813
 40
1.1180464865
  0
ARC
  5
2AE
100
AcDbEntity
  8
RACCORDO
100
AcDbCircle
 62
253
  6
CONTINUOUS
 10
-12.3610861199
 20
8.684136044
 40
0.2500538636
100
AcDbArc
 50
90.020958193
 51
179.979041807
  0
ARC
  5
2AF
100
AcDbEntity
  8
ASSI
100
AcDbCircle
 62
253
  6
CONTINUOUS
 10
-12.3610861199
 20
8.684136044
 40
0.2500538636
100
AcDbArc
 50
90.020958193
 51
179.979041807
  0
ARC
  5
2B0
100
AcDbEntity
  8
RACCORDO
100
AcDbCircle
 62
253
  6
CONTINUOUS
 10
36.5379329844
 20
8.6841366865
 40
0.2500531776
100
AcDbArc
 50
0.0208110208
 51
89.9791889339
  0
ARC
  5
2B1
100
AcDbEntity
  8
ASSI
100
AcDbCircle
 62
253
  6
CONTINUOUS
 10
36.5379329844
 20
8.6841366865
 40
0.2500531776
100
AcDbArc
 50
0.0208110208
 51
89.9791889339
  0
ARC
  5
2B2
100
AcDbEntity
  8
RACCORDO
100
AcDbCircle
 62
7
  6
CONTINUOUS
 10
391.0685961412
 20
9.234626813
 40
425.0
100
AcDbArc
 50
180.074245005
 51
182.2743633301
  0
ARC
  5
2B3
100
AcDbEntity
  8
ASSI
100
AcDbCircle
 62
7
  6
CONTINUOUS
 10
391.0685961412
 20
9.234626813
 40
425.0
100
AcDbArc
 50
180.074245005
 51
182.2743633301
  0
ARC
  5
2B4
100
AcDbEntity
  8
RACCORDO
100
AcDbCircle
 62
253
  6
CONTINUOUS
 10
391.0642408902
 20
9.2346269084
 40
424.7500078482
100
AcDbArc
 50
180.0742450165
 51
182.2743633009
  0
ARC
  5
2B5
100
AcDbEntity
  8
ASSI
100
AcDbCircle
 62
253
  6
CONTINUOUS
 10
391.0642408902
 20
9.2346269084
 40
424.7500078482
100
AcDbArc
 50
180.0742450165
 51
182.2743633009
  0
ARC
  5
2B6
100
AcDbEntity
  8
RACCORDO
100
AcDbCircle
 62
7
  6
CONTINUOUS
 10
-32.5973986361
 20
-7.5916879774
 40
1.0
100
AcDbArc
 50
182.2743633301
 51
260.0
  0
ARC
  5
2B7
100
AcDbEntity
  8
ASSI
100
AcDbCircle
 62
7
  6
CONTINUOUS
 10
-32.5973986361
 20
-7.5916879774
 40
1.0
100
AcDbArc
 50
182.2743633301
 51
260.0
  0
ARC
  5
2B8
100
AcDbEntity
  8
RACCORDO
100
AcDbCircle
 62
253
  6
CONTINUOUS
 10
-32.601759938
 20
-7.5916864054
 40
0.7500018606
100
AcDbArc
 50
182.2744778693
 51
259.9998854608
  0
ARC
  5
2B9
100
AcDbEntity
  8
ASSI
100
AcDbCircle
 62
253
  6
CONTINUOUS
 10
-32.601759938
 20
-7.5916864054
 40
0.7500018606
100
AcDbArc
 50
182.2744778693
 51
259.9998854608
  0
ARC
  5
2BA
100
AcDbEntity
  8
RACCORDO
100
AcDbCircle
 62
7
  6
CONTINUOUS
 10
-28.0313568
 20
8.0770707971
 40
0.3
100
AcDbArc
 50
180.0
 51
269.0
  0
ARC
  5
2BB
100
AcDbEntity
  8
ASSI
100
AcDbCircle
 62
7
  6
CONTINUOUS
 10
-28.0313568
 20
8.0770707971
 40
0.3
100
AcDbArc
 50
180.0
 51
269.0
  0
ARC
  5
2BC
100
AcDbEntity
  8
RACCORDO
100
AcDbCircle
 62
7
  6
CONTINUOUS
 10
-33.6810472496
 20
8.6842275109
 40
0.25
100
AcDbArc
 50
91.0
 51
180.074245005
  0
ARC
  5
2BD
100
AcDbEntity
  8
ASSI
100
AcDbCircle
 62
7
  6
CONTINUOUS
 10
-33.6810472496
 20
8.6842275109
 40
0.25
100
AcDbArc
 50
91.0
 51
180.074245005
  0
SPLINE
  5
2BE
100
AcDbEntity
  8
RACCORDO
100
AcDbSpline
 62
253
  6
CONTINUOUS
 70
0
 71
3
 72
11
 73
7
 74
5
 42
0.0000001
 43
0.0000001
 44
0.0000000001
 12
0.0011902469
 22
-0.3868382165
 32
0.0
 13
0.3868383243
 23
-0.0011547015
 33
0.0
 40
0.0
 40
0.0
 40
0.0
 40
0.0
 40
0.2481372423
 40
0.4975164136
 40
0.7483480436
 40
1.0
 40
1.0
 40
1.0
 40
1.0
 10
-12.6277813873
 20
-8.3302937921
 30
0.0
 10
-12.6276829391
 20
-8.3622901149
 30
0.0
 10
-12.6144392659
 20
-8.4271102115
 30
0.0
 10
-12.5586414976
 20
-8.5088062783
 30
0.0
 10
-12.4757108435
 20
-8.5634885394
 30
0.0
 10
-12.4102690039
 20
-8.5763988699
 30
0.0
 10
-12.3778194636
 20
-8.5764957309
 30
0.0
 11
-12.6277813873
 21
-8.3302937921
 31
0.0
 11
-12.6085391149
 21
-8.424334763
 31
0.0
 11
-12.5543064531
 21
-8.5041172828
 31
0.0
 11
-12.4733050533
 21
-8.5575394492
 31
0.0
 11
-12.3778194636
 21
-8.5764957309
 31
0.0
  0
SPLINE
  5
2BF
100
AcDbEntity
  8
RACCORDO
100
AcDbSpline
 62
253
  6
CONTINUOUS
 70
0
 71
3
 72
11
 73
7
 74
5
 42
0.0000001
 43
0.0000001
 44
0.0000000001
 12
0.1007369386
 22
-0.2292793414
 32
0.0
 13
0.2504334585
 23
-0.0001733463
 33
0.0
 40
0.0
 40
0.0
 40
0.0
 40
0.0
 40
0.0822915138
 40
0.3001698803
 40
0.6219901227
 40
1.0
 40
1.0
 40
1.0
 40
1.0
 10
-12.6169736814
 20
-7.6214515059
 30
0.0
 10
-12.6142104164
 20
-7.6277407539
 30
0.0
 10
-12.580626163
 20
-7.6216167795
 30
0.0
 10
-12.5362438738
 20
-7.6316937182
 30
0.0
 10
-12.4559406413
 20
-7.6298338099
 30
0.0
 10
-12.3985671979
 20
-7.6313508398
 30
0.0
 10
-12.3670117576
 20
-7.6313726821
 30
0.0
 11
-12.6169736814
 21
-7.6214515059
 31
0.0
 11
-12.5967105227
 21
-7.6252087482
 31
0.0
 11
-12.5422402576
 21
-7.6284064554
 31
0.0
 11
-12.4616746848
 21
-7.6305684203
 31
0.0
 11
-12.3670117576
 21
-7.6313726821
 31
0.0
  0
SPLINE
  5
2C0
100
AcDbEntity
  8
RACCORDO
100
AcDbSpline
 62
253
  6
CONTINUOUS
 70
0
 71
3
 72
13
 73
9
 74
7
 42
0.0000001
 43
0.0000001
 44
0.0000000001
 12
0.0697988841
 22
0.7055568887
 32
0.0
 13
0.0004945741
 23
0.70900082
 33
0.0
 40
0.0
 40
0.0
 40
0.0
 40
0.0
 40
0.0674181962
 40
0.1847576221
 40
0.3459157559
 40
0.5427764484
 40
0.7650453531
 40
1.0
 40
1.0
 40
1.0
 40
1.0
 10
-12.6277813873
 20
-8.3302937921
 30
0.0
 10
-12.6262128157
 20
-8.3144380012
 30
0.0
 10
-12.6244117052
 20
-8.2707765641
 30
0.0
 10
-12.6219138697
 20
-8.1890828687
 30
0.0
 10
-12.6199532583
 20
-8.076745279
 30
0.0
 10
-12.6183286912
 20
-7.9396166471
 30
0.0
 10
-12.6172965367
 20
-7.7850361251
 30
0.0
 10
-12.6170124156
 20
-7.676979185
 30
0.0
 10
-12.6169736814
 20
-7.6214515059
 30
0.0
 11
-12.6277813873
 21
-8.3302937921
 31
0.0
 11
-12.6249605431
 21
-8.2825775314
 31
0.0
 11
-12.6223833658
 21
-8.1994236894
 31
0.0
 11
-12.6201966264
 21
-8.0851833395
 31
0.0
 11
-12.6185127746
 21
-7.9456190707
 31
0.0
 11
-12.6174199176
 21
-7.7880339861
 31
0.0
 11
-12.6169736814
 21
-7.6214515059
 31
0.0
  0
SPLINE
  5
2C1
100
AcDbEntity
  8
RACCORDO
100
AcDbSpline
 62
253
  6
CONTINUOUS
 70
0
 71
3
 72
10
 73
6
 74
4
 42
0.0000001
 43
0.0000001
 44
0.0000000001
 12
0.0113038293
 22
16.305676414
 32
0.0
 13
0.0003688186
 23
16.305680328
 33
0.0
 40
0.0
 40
0.0
 40
0.0
 40
0.0
 40
0.3332438196
 40
0.6665834492
 40
1.0
 40
1.0
 40
1.0
 40
1.0
 10
-12.6169736814
 20
-7.6214515059
 30
0.0
 10
-12.6157180377
 20
-5.8101962095
 30
0.0
 10
-12.6136118407
 20
-2.1871645731
 30
0.0
 10
-12.6116672795
 20
3.2480618972
 30
0.0
 10
-12.6111805007
 20
6.8720329464
 30
0.0
 10
-12.6111395106
 20
8.684227511
 30
0.0
 11
-12.6169736814
 21
-7.6214515059
 31
0.0
 11
-12.6138145814
 21
-2.1876852293
 31
0.0
 11
-12.6118698247
 21
3.2476438649
 31
0.0
 11
-12.6111395106
 21
8.684227511
 31
0.0
  0
SPLINE
  5
2C2
100
AcDbEntity
  8
RACCORDO
100
AcDbSpline
 62
253
  6
CONTINUOUS
 70
0
 71
3
 72
10
 73
6
 74
4
 42
0.0000001
 43
0.0000001
 44
0.0000000001
 12
0.0003688186
 22
-16.3056803279
 32
0.0
 13
0.0113038293
 23
-16.3056764139
 33
0.0
 40
0.0
 40
0.0
 40
0.0
 40
0.0
 40
0.3334165508
 40
0.6667561804
 40
1.0
 40
1.0
 40
1.0
 40
1.0
 10
36.7879857328
 20
8.6842275109
 30
0.0
 10
36.7880267229
 20
6.8720329463
 30
0.0
 10
36.7885135018
 20
3.2480618971
 30
0.0
 10
36.7904580629
 20
-2.1871645731
 30
0.0
 10
36.7925642599
 20
-5.8101962095
 30
0.0
 10
36.7938199036
 20
-7.6214515059
 30
0.0
 11
36.7879857328
 21
8.6842275109
 31
0.0
 11
36.788716047
 21
3.2476438649
 31
0.0
 11
36.7906608036
 21
-2.1876852293
 31
0.0
 11
36.7938199036
 21
-7.6214515059
 31
0.0
  0
SPLINE
  5
2C3
100
AcDbEntity
  8
RACCORDO
100
AcDbSpline
 62
253
  6
CONTINUOUS
 70
0
 71
3
 72
13
 73
9
 74
7
 42
0.0000001
 43
0.0000001
 44
0.0000000001
 12
0.0004945741
 22
-0.70900082
 32
0.0
 13
0.0697988838
 23
-0.7055568887
 33
0.0
 40
0.0
 40
0.0
 40
0.0
 40
0.0
 40
0.2349546469
 40
0.4572235516
 40
0.6540842441
 40
0.8152423778
 40
0.9325818039
 40
1.0
 40
1.0
 40
1.0
 40
1.0
 10
36.7938199036
 20
-7.6214515059
 30
0.0
 10
36.7938586378
 20
-7.676979185
 30
0.0
 10
36.7941427589
 20
-7.7850361251
 30
0.0
 10
36.7951749135
 20
-7.9396166471
 30
0.0
 10
36.7967994805
 20
-8.076745279
 30
0.0
 10
36.798760092
 20
-8.1890828687
 30
0.0
 10
36.8012579274
 20
-8.2707765642
 30
0.0
 10
36.8030590379
 20
-8.3144380012
 30
0.0
 10
36.8046276095
 20
-8.3302937921
 30
0.0
 11
36.7938199036
 21
-7.6214515059
 31
0.0
 11
36.7942661398
 21
-7.7880339861
 31
0.0
 11
36.7953589968
 21
-7.9456190707
 31
0.0
 11
36.7970428486
 21
-8.0851833395
 31
0.0
 11
36.799229588
 21
-8.1994236894
 31
0.0
 11
36.8018067653
 21
-8.2825775315
 31
0.0
 11
36.8046276095
 21
-8.3302937921
 31
0.0
  0
SPLINE
  5
2C4
100
AcDbEntity
  8
RACCORDO
100
AcDbSpline
 62
253
  6
CONTINUOUS
 70
0
 71
3
 72
11
 73
7
 74
5
 42
0.0000001
 43
0.0000001
 44
0.0000000001
 12
-0.0011902476
 22
-0.3868382125
 32
0.0
 13
-0.3868383202
 23
-0.0011547052
 33
0.0
 40
0.0
 40
0.0
 40
0.0
 40
0.0
 40
0.2481496306
 40
0.4975322026
 40
0.7483586169
 40
1.0
 40
1.0
 40
1.0
 40
1.0
 10
36.8046276095
 20
-8.3302937921
 30
0.0
 10
36.8045291564
 20
-8.362291712
 30
0.0
 10
36.7912843659
 20
-8.4271139421
 30
0.0
 10
36.7354839182
 20
-8.508809934
 30
0.0
 10
36.6525535828
 20
-8.5634895123
 30
0.0
 10
36.5871138624
 20
-8.5763988732
 30
0.0
 10
36.5546656857
 20
-8.5764957304
 30
0.0
 11
36.8046276095
 21
-8.3302937921
 31
0.0
 11
36.7853834338
 21
-8.4243392641
 31
0.0
 11
36.7311482385
 21
-8.5041216511
 31
0.0
 11
36.6501474183
 21
-8.5575410298
 31
0.0
 11
36.5546656857
 21
-8.5764957304
 31
0.0
  0
SPLINE
  5
2C5
100
AcDbEntity
  8
RACCORDO
100
AcDbSpline
 62
253
  6
CONTINUOUS
 70
0
 71
3
 72
11
 73
7
 74
5
 42
0.0000001
 43
0.0000001
 44
0.0000000001
 12
-0.1010171715
 22
-0.2291558723
 32
0.0
 13
-0.2504333298
 23
-0.0001733233
 33
0.0
 40
0.0
 40
0.0
 40
0.0
 40
0.0
 40
0.0823072754
 40
0.3001894412
 40
0.6220029553
 40
1.0
 40
1.0
 40
1.0
 40
1.0
 10
36.7938199032
 20
-7.6214515059
 30
0.0
 10
36.7910484205
 20
-7.6277385711
 30
0.0
 10
36.7574787882
 20
-7.6216195691
 30
0.0
 10
36.7130805601
 20
-7.6316912043
 30
0.0
 10
36.6327862761
 20
-7.6298339473
 30
0.0
 10
36.5754123327
 20
-7.6313501344
 30
0.0
 10
36.5438579799
 20
-7.6313719729
 30
0.0
 11
36.7938199032
 21
-7.6214515059
 31
0.0
 11
36.7735526997
 21
-7.6252085265
 31
0.0
 11
36.7190814958
 21
-7.6284059988
 31
0.0
 11
36.6385176452
 21
-7.6305677847
 31
0.0
 11
36.5438579799
 21
-7.6313719729
 31
0.0
  0
SPLINE
  5
2C6
100
AcDbEntity
  8
RACCORDO
100
AcDbSpline
 62
253
  6
CONTINUOUS
 70
0
 71
3
 72
13
 73
9
 74
7
 42
0.0000001
 43
0.0000001
 44
0.0000000001
 12
0.0699882761
 22
0.9426474571
 32
0.0
 13
0.0004959778
 23
0.9452419485
 33
0.0
 40
0.0
 40
0.0
 40
0.0
 40
0.0
 40
0.0677746619
 40
0.1851024079
 40
0.3460109671
 40
0.5423277437
 40
0.7640908415
 40
1.0
 40
1.0
 40
1.0
 40
1.0
 10
-12.3778194635
 20
-8.5764957304
 30
0.0
 10
-12.3762383196
 20
-8.5551998595
 30
0.0
 10
-12.3744463342
 20
-8.4968791648
 30
0.0
 10
-12.371945863
 20
-8.3879014932
 30
0.0
 10
-12.3699920552
 20
-8.2383829828
 30
0.0
 10
-12.3683695663
 20
-8.0559646177
 30
0.0
 10
-12.3673358332
 20
-7.8499064972
 30
0.0
 10
-12.3670507595
 20
-7.7057030929
 30
0.0
 10
-12.3670117576
 20
-7.6313726821
 30
0.0
 11
-12.3778194635
 21
-8.5764957304
 31
0.0
 11
-12.3749869691
 21
-8.5124949165
 31
0.0
 11
-12.3724146415
 21
-8.4016216298
 31
0.0
 11
-12.3702331376
 21
-8.2495397341
 31
0.0
 11
-12.3685534883
 21
-8.0639804579
 31
0.0
 11
-12.367461111
 21
-7.8543634926
 31
0.0
 11
-12.3670117576
 21
-7.6313726821
 31
0.0
  0
SPLINE
  5
2C7
100
AcDbEntity
  8
RACCORDO
100
AcDbSpline
 62
253
  6
CONTINUOUS
 70
0
 71
3
 72
13
 73
9
 74
7
 42
0.0000001
 43
0.0000001
 44
0.0000000001
 12
0.0004959778
 22
-0.9452419485
 32
0.0
 13
0.0699882762
 23
-0.9426474571
 33
0.0
 40
0.0
 40
0.0
 40
0.0
 40
0.0
 40
0.2359091585
 40
0.4576722563
 40
0.6539890329
 40
0.8148975921
 40
0.9322253381
 40
1.0
 40
1.0
 40
1.0
 40
1.0
 10
36.5438579798
 20
-7.6313726821
 30
0.0
 10
36.5438969817
 20
-7.7057030929
 30
0.0
 10
36.5441820555
 20
-7.8499064972
 30
0.0
 10
36.5452157885
 20
-8.0559646177
 30
0.0
 10
36.5468382774
 20
-8.2383829828
 30
0.0
 10
36.5487920852
 20
-8.3879014932
 30
0.0
 10
36.5512925564
 20
-8.4968791648
 30
0.0
 10
36.5530845418
 20
-8.5551998595
 30
0.0
 10
36.5546656857
 20
-8.5764957304
 30
0.0
 11
36.5438579798
 21
-7.6313726821
 31
0.0
 11
36.5443073332
 21
-7.8543634926
 31
0.0
 11
36.5453997105
 21
-8.0639804579
 31
0.0
 11
36.5470793599
 21
-8.2495397341
 31
0.0
 11
36.5492608637
 21
-8.4016216298
 31
0.0
 11
36.5518331914
 21
-8.5124949165
 31
0.0
 11
36.5546656857
 21
-8.5764957304
 31
0.0
  0
SPLINE
  5
2C8
100
AcDbEntity
  8
ASSI
100
AcDbSpline
 62
7
  6
CONTINUOUS
 70
0
 71
3
 72
23
 73
19
 74
17
 42
0.0000001
 43
0.0000001
 44
0.0000000001
 12
-7.5210108384
 22
0.0
 32
0.0
 13
7.5210108384
 23
0.0
 33
0.0
 40
0.0
 40
0.0
 40
0.0
 40
0.0
 40
0.0624209979
 40
0.1250661527
 40
0.1877064011
 40
0.2502381184
 40
0.3126507247
 40
0.3750229581
 40
0.4374761557
 40
0.4999745699
 40
0.5624719486
 40
0.6249228621
 40
0.6872970413
 40
0.7497179858
 40
0.8122596493
 40
0.8749056289
 40
0.9375497737
 40
1.0
 40
1.0
 40
1.0
 40
1.0
 10
12.0884231111
 20
2.2422591353
 30
0.0
 10
11.9319334439
 20
2.2422591353
 30
0.0
 10
11.6175385212
 20
2.2729332961
 30
0.0
 10
11.1642136446
 20
2.4095223681
 30
0.0
 10
10.7456958636
 20
2.6318765215
 30
0.0
 10
10.3790247264
 20
2.9311409527
 30
0.0
 10
10.0781675964
 20
3.2956486372
 30
0.0
 10
9.8543732219
 20
3.7117230938
 30
0.0
 10
9.7162931658
 20
4.163785431
 30
0.0
 10
9.6695839442
 20
4.6344798002
 30
0.0
 10
9.716235073
 20
5.1051738108
 30
0.0
 10
9.8542500554
 20
5.5572514995
 30
0.0
 10
10.0779853083
 20
5.9733800059
 30
0.0
 10
10.3788123594
 20
6.3379789232
 30
0.0
 10
10.745482987
 20
6.637340778
 30
0.0
 10
11.1640030604
 20
6.8597711178
 30
0.0
 10
11.6173930726
 20
6.9964406517
 30
0.0
 10
11.9318601683
 20
7.0271402769
 30
0.0
 10
12.0884231111
 20
7.0271402769
 30
0.0
 11
12.0884231111
 21
2.2422591353
 31
0.0
 11
11.6211786778
 21
2.2879076066
 31
0.0
 11
11.1700514563
 21
2.4238162486
 31
0.0
 11
10.7540315241
 21
2.6449035032
 31
0.0
 11
10.3897001604
 21
2.9423028443
 31
0.0
 11
10.0909296591
 21
3.3043499073
 31
0.0
 11
9.8687477238
 21
3.7174989149
 31
0.0
 11
9.731557559
 21
4.1667287532
 31
0.0
 11
9.6851478077
 21
4.634483297
 31
0.0
 11
9.7314985655
 21
5.1022358636
 31
0.0
 11
9.8686196291
 21
5.5514688379
 31
0.0
 11
10.0907405139
 21
5.9646672861
 31
0.0
 11
10.3894890919
 21
6.3268137394
 31
0.0
 11
10.7538314095
 21
6.6243179493
 31
0.0
 11
11.169858999
 21
6.8454826359
 31
0.0
 11
11.6209625115
 21
6.9814436311
 31
0.0
 11
12.0884231111
 21
7.0271402769
 31
0.0
  0
SPLINE
  5
2C9
100
AcDbEntity
  8
ASSI
100
AcDbSpline
 62
7
  6
CONTINUOUS
 70
0
 71
3
 72
23
 73
19
 74
17
 42
0.0000001
 43
0.0000001
 44
0.0000000001
 12
7.5210108386
 22
0.0
 32
0.0
 13
-7.5210108386
 23
0.0
 33
0.0
 40
0.0
 40
0.0
 40
0.0
 40
0.0
 40
0.0624210691
 40
0.1250668291
 40
0.1877085537
 40
0.2502426162
 40
0.3126580811
 40
0.375033084
 40
0.4374882969
 40
0.4999874489
 40
0.5624840907
 40
0.6249329898
 40
0.6873043998
 40
0.7497224853
 40
0.8122618028
 40
0.8749063057
 40
0.9375498451
 40
1.0
 40
1.0
 40
1.0
 40
1.0
 10
12.0884231111
 20
7.0271402769
 30
0.0
 10
12.2449129569
 20
7.0271402769
 30
0.0
 10
12.5593097673
 20
6.9964620196
 30
0.0
 10
13.012635705
 20
6.8598558475
 30
0.0
 10
13.4311531655
 20
6.6374767934
 30
0.0
 10
13.7978228689
 20
6.3381841596
 30
0.0
 10
14.0986783551
 20
5.9736495482
 30
0.0
 10
14.3224717831
 20
5.5575532492
 30
0.0
 10
14.4605520262
 20
5.1054768218
 30
0.0
 10
14.5072622776
 20
4.6347775982
 30
0.0
 10
14.4606121789
 20
4.1640884355
 30
0.0
 10
14.3225973842
 20
3.7120248307
 30
0.0
 10
14.0988611857
 20
3.2959181623
 30
0.0
 10
13.7980324906
 20
2.9313461712
 30
0.0
 10
13.4313604283
 20
2.6320125222
 30
0.0
 10
13.0128400342
 20
2.4096070876
 30
0.0
 10
12.5594510819
 20
2.2729546609
 30
0.0
 10
12.2449858751
 20
2.2422591353
 30
0.0
 10
12.0884231111
 20
2.2422591353
 30
0.0
 11
12.0884231111
 21
7.0271402769
 31
0.0
 11
12.5556675445
 21
6.981486295
 31
0.0
 11
13.0067947659
 21
6.8455618751
 31
0.0
 11
13.4228146981
 21
6.6244509646
 31
0.0
 11
13.7871460619
 21
6.3270237305
 31
0.0
 11
14.0859165631
 21
5.9649487931
 31
0.0
 11
14.3080984985
 21
5.5517761351
 31
0.0
 11
14.4452886632
 21
5.102530449
 31
0.0
 11
14.4916984146
 21
4.634770329
 31
0.0
 11
14.4453476567
 21
4.1670233316
 31
0.0
 11
14.3082265931
 21
3.7178061978
 31
0.0
 11
14.0861057084
 21
3.3046313953
 31
0.0
 11
13.7873571303
 21
2.9425128173
 31
0.0
 11
13.4230148127
 21
2.645036505
 31
0.0
 11
13.0069872233
 21
2.4238954788
 31
0.0
 11
12.5558837107
 21
2.2879502654
 31
0.0
 11
12.0884231111
 21
2.2422591353
 31
0.0
  0
SPLINE
  5
2CA
100
AcDbEntity
  8
ASSI
100
AcDbSpline
 62
253
  6
CONTINUOUS
 70
0
 71
3
 72
13
 73
9
 74
7
 42
0.0000001
 43
0.0000001
 44
0.0000000001
 12
0.0697988841
 22
0.7055568887
 32
0.0
 13
0.0004945741
 23
0.70900082
 33
0.0
 40
0.0
 40
0.0
 40
0.0
 40
0.0
 40
0.0674181962
 40
0.1847576221
 40
0.3459157559
 40
0.5427764484
 40
0.7650453531
 40
1.0
 40
1.0
 40
1.0
 40
1.0
 10
-12.6277813873
 20
-8.3302937921
 30
0.0
 10
-12.6262128157
 20
-8.3144380012
 30
0.0
 10
-12.6244117052
 20
-8.2707765641
 30
0.0
 10
-12.6219138697
 20
-8.1890828687
 30
0.0
 10
-12.6199532583
 20
-8.076745279
 30
0.0
 10
-12.6183286912
 20
-7.9396166471
 30
0.0
 10
-12.6172965367
 20
-7.7850361251
 30
0.0
 10
-12.6170124156
 20
-7.676979185
 30
0.0
 10
-12.6169736814
 20
-7.6214515059
 30
0.0
 11
-12.6277813873
 21
-8.3302937921
 31
0.0
 11
-12.6249605431
 21
-8.2825775314
 31
0.0
 11
-12.6223833658
 21
-8.1994236894
 31
0.0
 11
-12.6201966264
 21
-8.0851833395
 31
0.0
 11
-12.6185127746
 21
-7.9456190707
 31
0.0
 11
-12.6174199176
 21
-7.7880339861
 31
0.0
 11
-12.6169736814
 21
-7.6214515059
 31
0.0
  0
SPLINE
  5
2CB
100
AcDbEntity
  8
ASSI
100
AcDbSpline
 62
253
  6
CONTINUOUS
 70
0
 71
3
 72
10
 73
6
 74
4
 42
0.0000001
 43
0.0000001
 44
0.0000000001
 12
0.0113038293
 22
16.305676414
 32
0.0
 13
0.0003688186
 23
16.305680328
 33
0.0
 40
0.0
 40
0.0
 40
0.0
 40
0.0
 40
0.3332438196
 40
0.6665834492
 40
1.0
 40
1.0
 40
1.0
 40
1.0
 10
-12.6169736814
 20
-7.6214515059
 30
0.0
 10
-12.6157180377
 20
-5.8101962095
 30
0.0
 10
-12.6136118407
 20
-2.1871645731
 30
0.0
 10
-12.6116672795
 20
3.2480618972
 30
0.0
 10
-12.6111805007
 20
6.8720329464
 30
0.0
 10
-12.6111395106
 20
8.684227511
 30
0.0
 11
-12.6169736814
 21
-7.6214515059
 31
0.0
 11
-12.6138145814
 21
-2.1876852293
 31
0.0
 11
-12.6118698247
 21
3.2476438649
 31
0.0
 11
-12.6111395106
 21
8.684227511
 31
0.0
  0
SPLINE
  5
2CC
100
AcDbEntity
  8
ASSI
100
AcDbSpline
 62
253
  6
CONTINUOUS
 70
0
 71
3
 72
10
 73
6
 74
4
 42
0.0000001
 43
0.0000001
 44
0.0000000001
 12
0.0003688186
 22
-16.3056803279
 32
0.0
 13
0.0113038293
 23
-16.3056764139
 33
0.0
 40
0.0
 40
0.0
 40
0.0
 40
0.0
 40
0.3334165508
 40
0.6667561804
 40
1.0
 40
1.0
 40
1.0
 40
1.0
 10
36.7879857328
 20
8.6842275109
 30
0.0
 10
36.7880267229
 20
6.8720329463
 30
0.0
 10
36.7885135018
 20
3.2480618971
 30
0.0
 10
36.7904580629
 20
-2.1871645731
 30
0.0
 10
36.7925642599
 20
-5.8101962095
 30
0.0
 10
36.7938199036
 20
-7.6214515059
 30
0.0
 11
36.7879857328
 21
8.6842275109
 31
0.0
 11
36.788716047
 21
3.2476438649
 31
0.0
 11
36.7906608036
 21
-2.1876852293
 31
0.0
 11
36.7938199036
 21
-7.6214515059
 31
0.0
  0
SPLINE
  5
2CD
100
AcDbEntity
  8
ASSI
100
AcDbSpline
 62
253
  6
CONTINUOUS
 70
0
 71
3
 72
13
 73
9
 74
7
 42
0.0000001
 43
0.0000001
 44
0.0000000001
 12
0.0004945741
 22
-0.70900082
 32
0.0
 13
0.0697988838
 23
-0.7055568887
 33
0.0
 40
0.0
 40
0.0
 40
0.0
 40
0.0
 40
0.2349546469
 40
0.4572235516
 40
0.6540842441
 40
0.8152423778
 40
0.9325818039
 40
1.0
 40
1.0
 40
1.0
 40
1.0
 10
36.7938199036
 20
-7.6214515059
 30
0.0
 10
36.7938586378
 20
-7.676979185
 30
0.0
 10
36.7941427589
 20
-7.7850361251
 30
0.0
 10
36.7951749135
 20
-7.9396166471
 30
0.0
 10
36.7967994805
 20
-8.076745279
 30
0.0
 10
36.798760092
 20
-8.1890828687
 30
0.0
 10
36.8012579274
 20
-8.2707765642
 30
0.0
 10
36.8030590379
 20
-8.3144380012
 30
0.0
 10
36.8046276095
 20
-8.3302937921
 30
0.0
 11
36.7938199036
 21
-7.6214515059
 31
0.0
 11
36.7942661398
 21
-7.7880339861
 31
0.0
 11
36.7953589968
 21
-7.9456190707
 31
0.0
 11
36.7970428486
 21
-8.0851833395
 31
0.0
 11
36.799229588
 21
-8.1994236894
 31
0.0
 11
36.8018067653
 21
-8.2825775315
 31
0.0
 11
36.8046276095
 21
-8.3302937921
 31
0.0
  0
SPLINE
  5
2CE
100
AcDbEntity
  8
ASSI
100
AcDbSpline
 62
253
  6
CONTINUOUS
 70
0
 71
3
 72
11
 73
7
 74
5
 42
0.0000001
 43
0.0000001
 44
0.0000000001
 12
0.0011902469
 22
-0.3868382165
 32
0.0
 13
0.3868383243
 23
-0.0011547015
 33
0.0
 40
0.0
 40
0.0
 40
0.0
 40
0.0
 40
0.2481372423
 40
0.4975164136
 40
0.7483480436
 40
1.0
 40
1.0
 40
1.0
 40
1.0
 10
-12.6277813873
 20
-8.3302937921
 30
0.0
 10
-12.6276829391
 20
-8.3622901149
 30
0.0
 10
-12.6144392659
 20
-8.4271102115
 30
0.0
 10
-12.5586414976
 20
-8.5088062783
 30
0.0
 10
-12.4757108435
 20
-8.5634885394
 30
0.0
 10
-12.4102690039
 20
-8.5763988699
 30
0.0
 10
-12.3778194636
 20
-8.5764957309
 30
0.0
 11
-12.6277813873
 21
-8.3302937921
 31
0.0
 11
-12.6085391149
 21
-8.424334763
 31
0.0
 11
-12.5543064531
 21
-8.5041172828
 31
0.0
 11
-12.4733050533
 21
-8.5575394492
 31
0.0
 11
-12.3778194636
 21
-8.5764957309
 31
0.0
  0
SPLINE
  5
2CF
100
AcDbEntity
  8
ASSI
100
AcDbSpline
 62
253
  6
CONTINUOUS
 70
0
 71
3
 72
11
 73
7
 74
5
 42
0.0000001
 43
0.0000001
 44
0.0000000001
 12
0.1007369386
 22
-0.2292793414
 32
0.0
 13
0.2504334585
 23
-0.0001733463
 33
0.0
 40
0.0
 40
0.0
 40
0.0
 40
0.0
 40
0.0822915138
 40
0.3001698803
 40
0.6219901227
 40
1.0
 40
1.0
 40
1.0
 40
1.0
 10
-12.6169736814
 20
-7.6214515059
 30
0.0
 10
-12.6142104164
 20
-7.6277407539
 30
0.0
 10
-12.580626163
 20
-7.6216167795
 30
0.0
 10
-12.5362438738
 20
-7.6316937182
 30
0.0
 10
-12.4559406413
 20
-7.6298338099
 30
0.0
 10
-12.3985671979
 20
-7.6313508398
 30
0.0
 10
-12.3670117576
 20
-7.6313726821
 30
0.0
 11
-12.6169736814
 21
-7.6214515059
 31
0.0
 11
-12.5967105227
 21
-7.6252087482
 31
0.0
 11
-12.5422402576
 21
-7.6284064554
 31
0.0
 11
-12.4616746848
 21
-7.6305684203
 31
0.0
 11
-12.3670117576
 21
-7.6313726821
 31
0.0
  0
SPLINE
  5
2D0
100
AcDbEntity
  8
ASSI
100
AcDbSpline
 62
253
  6
CONTINUOUS
 70
0
 71
3
 72
11
 73
7
 74
5
 42
0.0000001
 43
0.0000001
 44
0.0000000001
 12
-0.0011902476
 22
-0.3868382125
 32
0.0
 13
-0.3868383202
 23
-0.0011547052
 33
0.0
 40
0.0
 40
0.0
 40
0.0
 40
0.0
 40
0.2481496306
 40
0.4975322026
 40
0.7483586169
 40
1.0
 40
1.0
 40
1.0
 40
1.0
 10
36.8046276095
 20
-8.3302937921
 30
0.0
 10
36.8045291564
 20
-8.362291712
 30
0.0
 10
36.7912843659
 20
-8.4271139421
 30
0.0
 10
36.7354839182
 20
-8.508809934
 30
0.0
 10
36.6525535828
 20
-8.5634895123
 30
0.0
 10
36.5871138624
 20
-8.5763988732
 30
0.0
 10
36.5546656857
 20
-8.5764957304
 30
0.0
 11
36.8046276095
 21
-8.3302937921
 31
0.0
 11
36.7853834338
 21
-8.4243392641
 31
0.0
 11
36.7311482385
 21
-8.5041216511
 31
0.0
 11
36.6501474183
 21
-8.5575410298
 31
0.0
 11
36.5546656857
 21
-8.5764957304
 31
0.0
  0
SPLINE
  5
2D1
100
AcDbEntity
  8
ASSI
100
AcDbSpline
 62
253
  6
CONTINUOUS
 70
0
 71
3
 72
11
 73
7
 74
5
 42
0.0000001
 43
0.0000001
 44
0.0000000001
 12
-0.1010171715
 22
-0.2291558723
 32
0.0
 13
-0.2504333298
 23
-0.0001733233
 33
0.0
 40
0.0
 40
0.0
 40
0.0
 40
0.0
 40
0.0823072754
 40
0.3001894412
 40
0.6220029553
 40
1.0
 40
1.0
 40
1.0
 40
1.0
 10
36.7938199032
 20
-7.6214515059
 30
0.0
 10
36.7910484205
 20
-7.6277385711
 30
0.0
 10
36.7574787882
 20
-7.6216195691
 30
0.0
 10
36.7130805601
 20
-7.6316912043
 30
0.0
 10
36.6327862761
 20
-7.6298339473
 30
0.0
 10
36.5754123327
 20
-7.6313501344
 30
0.0
 10
36.5438579799
 20
-7.6313719729
 30
0.0
 11
36.7938199032
 21
-7.6214515059
 31
0.0
 11
36.7735526997
 21
-7.6252085265
 31
0.0
 11
36.7190814958
 21
-7.6284059988
 31
0.0
 11
36.6385176452
 21
-7.6305677847
 31
0.0
 11
36.5438579799
 21
-7.6313719729
 31
0.0
  0
SPLINE
  5
2D2
100
AcDbEntity
  8
ASSI
100
AcDbSpline
 62
253
  6
CONTINUOUS
 70
0
 71
3
 72
13
 73
9
 74
7
 42
0.0000001
 43
0.0000001
 44
0.0000000001
 12
0.0699882761
 22
0.9426474571
 32
0.0
 13
0.0004959778
 23
0.9452419485
 33
0.0
 40
0.0
 40
0.0
 40
0.0
 40
0.0
 40
0.0677746619
 40
0.1851024079
 40
0.3460109671
 40
0.5423277437
 40
0.7640908415
 40
1.0
 40
1.0
 40
1.0
 40
1.0
 10
-12.3778194635
 20
-8.5764957304
 30
0.0
 10
-12.3762383196
 20
-8.5551998595
 30
0.0
 10
-12.3744463342
 20
-8.4968791648
 30
0.0
 10
-12.371945863
 20
-8.3879014932
 30
0.0
 10
-12.3699920552
 20
-8.2383829828
 30
0.0
 10
-12.3683695663
 20
-8.0559646177
 30
0.0
 10
-12.3673358332
 20
-7.8499064972
 30
0.0
 10
-12.3670507595
 20
-7.7057030929
 30
0.0
 10
-12.3670117576
 20
-7.6313726821
 30
0.0
 11
-12.3778194635
 21
-8.5764957304
 31
0.0
 11
-12.3749869691
 21
-8.5124949165
 31
0.0
 11
-12.3724146415
 21
-8.4016216298
 31
0.0
 11
-12.3702331376
 21
-8.2495397341
 31
0.0
 11
-12.3685534883
 21
-8.0639804579
 31
0.0
 11
-12.367461111
 21
-7.8543634926
 31
0.0
 11
-12.3670117576
 21
-7.6313726821
 31
0.0
  0
SPLINE
  5
2D3
100
AcDbEntity
  8
ASSI
100
AcDbSpline
 62
253
  6
CONTINUOUS
 70
0
 71
3
 72
13
 73
9
 74
7
 42
0.0000001
 43
0.0000001
 44
0.0000000001
 12
0.0004959778
 22
-0.9452419485
 32
0.0
 13
0.0699882762
 23
-0.9426474571
 33
0.0
 40
0.0
 40
0.0
 40
0.0
 40
0.0
 40
0.2359091585
 40
0.4576722563
 40
0.6539890329
 40
0.8148975921
 40
0.9322253381
 40
1.0
 40
1.0
 40
1.0
 40
1.0
 10
36.5438579798
 20
-7.6313726821
 30
0.0
 10
36.5438969817
 20
-7.7057030929
 30
0.0
 10
36.5441820555
 20
-7.8499064972
 30
0.0
 10
36.5452157885
 20
-8.0559646177
 30
0.0
 10
36.5468382774
 20
-8.2383829828
 30
0.0
 10
36.5487920852
 20
-8.3879014932
 30
0.0
 10
36.5512925564
 20
-8.4968791648
 30
0.0
 10
36.5530845418
 20
-8.5551998595
 30
0.0
 10
36.5546656857
 20
-8.5764957304
 30
0.0
 11
36.5438579798
 21
-7.6313726821
 31
0.0
 11
36.5443073332
 21
-7.8543634926
 31
0.0
 11
36.5453997105
 21
-8.0639804579
 31
0.0
 11
36.5470793599
 21
-8.2495397341
 31
0.0
 11
36.5492608637
 21
-8.4016216298
 31
0.0
 11
36.5518331914
 21
-8.5124949165
 31
0.0
 11
36.5546656857
 21
-8.5764957304
 31
0.0
  0
SPLINE
  5
2D4
100
AcDbEntity
  8
RACCORDO
100
AcDbSpline
 62
253
  6
CONTINUOUS
 70
0
 71
3
 72
12
 73
8
 74
6
 42
0.0000001
 43
0.0000001
 44
0.0000000001
 12
-0.0043623064
 22
0.2499925102
 32
0.0
 13
0.2499924871
 23
0.0043636351
 33
0.0
 40
0.0
 40
0.0
 40
0.0
 40
0.0
 40
0.3098605754
 40
0.5892143267
 40
0.8103234085
 40
0.9518389381
 40
1.0
 40
1.0
 40
1.0
 40
1.0
 10
-33.6854103512
 20
8.6842275109
 30
0.0
 10
-33.6858609202
 20
8.7100484519
 30
0.0
 10
-33.6869703961
 20
8.7596179277
 30
0.0
 10
-33.6861066059
 20
8.8253491196
 30
0.0
 10
-33.6899434787
 20
8.8834538294
 30
0.0
 10
-33.6824014433
 20
8.908947153
 30
0.0
 10
-33.6894236524
 20
8.9341193822
 30
0.0
 10
-33.6854103512
 20
8.9341894347
 30
0.0
 11
-33.6854103512
 21
8.6842275109
 31
0.0
 11
-33.6865473016
 21
8.7616937836
 31
0.0
 11
-33.687142693
 21
8.831538223
 31
0.0
 11
-33.6871380997
 21
8.8868222521
 31
0.0
 11
-33.6865348609
 21
8.9222003177
 31
0.0
 11
-33.6854103512
 21
8.9341894347
 31
0.0
  0
SPLINE
  5
2D5
100
AcDbEntity
  8
RACCORDO
100
AcDbSpline
 62
253
  6
CONTINUOUS
 70
0
 71
3
 72
11
 73
7
 74
5
 42
0.0000001
 43
0.0000001
 44
0.0000000001
 12
-0.043284155
 22
-0.2455514343
 32
0.0
 13
0.2455491794
 23
-0.0432969454
 33
0.0
 40
0.0
 40
0.0
 40
0.0
 40
0.0
 40
0.3827689144
 40
0.7070452522
 40
0.9236831912
 40
1.0
 40
1.0
 40
1.0
 40
1.0
 10
-32.7319978709
 20
-8.3302937921
 30
0.0
 10
-32.7375204806
 20
-8.3616236108
 30
0.0
 10
-32.7456243042
 20
-8.417910565
 30
0.0
 10
-32.7649033557
 20
-8.4993433829
 30
0.0
 10
-32.7594213885
 20
-8.5388008304
 30
0.0
 10
-32.7772933236
 20
-8.5753943022
 30
0.0
 10
-32.7710468137
 20
-8.5764957304
 30
0.0
 11
-32.7319978709
 21
-8.3302937921
 31
0.0
 11
-32.7482447162
 21
-8.4243392641
 31
0.0
 11
-32.7613658233
 21
-8.5041216511
 31
0.0
 11
-32.7693712249
 21
-8.5575410298
 31
0.0
 11
-32.7710468137
 21
-8.5764957304
 31
0.0
  0
SPLINE
  5
2D6
100
AcDbEntity
  8
ASSI
100
AcDbSpline
 62
253
  6
CONTINUOUS
 70
0
 71
3
 72
11
 73
7
 74
5
 42
0.0000001
 43
0.0000001
 44
0.0000000001
 12
-0.043284155
 22
-0.2455514343
 32
0.0
 13
0.2455491794
 23
-0.0432969454
 33
0.0
 40
0.0
 40
0.0
 40
0.0
 40
0.0
 40
0.3827689144
 40
0.7070452522
 40
0.9236831912
 40
1.0
 40
1.0
 40
1.0
 40
1.0
 10
-32.7319978709
 20
-8.3302937921
 30
0.0
 10
-32.7375204806
 20
-8.3616236108
 30
0.0
 10
-32.7456243042
 20
-8.417910565
 30
0.0
 10
-32.7649033557
 20
-8.4993433829
 30
0.0
 10
-32.7594213885
 20
-8.5388008304
 30
0.0
 10
-32.7772933236
 20
-8.5753943022
 30
0.0
 10
-32.7710468137
 20
-8.5764957304
 30
0.0
 11
-32.7319978709
 21
-8.3302937921
 31
0.0
 11
-32.7482447162
 21
-8.4243392641
 31
0.0
 11
-32.7613658233
 21
-8.5041216511
 31
0.0
 11
-32.7693712249
 21
-8.5575410298
 31
0.0
 11
-32.7710468137
 21
-8.5764957304
 31
0.0
  0
SPLINE
  5
2D7
100
AcDbEntity
  8
ASSI
100
AcDbSpline
 62
253
  6
CONTINUOUS
 70
0
 71
3
 72
12
 73
8
 74
6
 42
0.0000001
 43
0.0000001
 44
0.0000000001
 12
-0.0043623064
 22
0.2499925102
 32
0.0
 13
0.2499924871
 23
0.0043636351
 33
0.0
 40
0.0
 40
0.0
 40
0.0
 40
0.0
 40
0.3098605754
 40
0.5892143267
 40
0.8103234085
 40
0.9518389381
 40
1.0
 40
1.0
 40
1.0
 40
1.0
 10
-33.6854103512
 20
8.6842275109
 30
0.0
 10
-33.6858609202
 20
8.7100484519
 30
0.0
 10
-33.6869703961
 20
8.7596179277
 30
0.0
 10
-33.6861066059
 20
8.8253491196
 30
0.0
 10
-33.6899434787
 20
8.8834538294
 30
0.0
 10
-33.6824014433
 20
8.908947153
 30
0.0
 10
-33.6894236524
 20
8.9341193822
 30
0.0
 10
-33.6854103512
 20
8.9341894347
 30
0.0
 11
-33.6854103512
 21
8.6842275109
 31
0.0
 11
-33.6865473016
 21
8.7616937836
 31
0.0
 11
-33.687142693
 21
8.831538223
 31
0.0
 11
-33.6871380997
 21
8.8868222521
 31
0.0
 11
-33.6865348609
 21
8.9222003177
 31
0.0
 11
-33.6854103512
 21
8.9341894347
 31
0.0
  0
ELLIPSE
  5
2D8
100
AcDbEntity
  8
RACCORDO
100
AcDbEllipse
 62
7
  6
CONTINUOUS
 10
-12.7098313824
 20
8.0770707971
 30
0.0
 11
0.0
 21
0.3
 31
0.0
 40
0.0174550649
 41
-3.1241393611
 42
-1.5707963268
  0
ELLIPSE
  5
2D9
100
AcDbEntity
  8
RACCORDO
100
AcDbEllipse
 62
7
  6
CONTINUOUS
 10
36.8866776046
 20
8.0770707971
 30
0.0
 11
-0.0
 21
0.3
 31
0.0
 40
0.0174550649
 41
-4.7123889804
 42
-3.1590459461
  0
ELLIPSE
  5
2DA
100
AcDbEntity
  8
RACCORDO
100
AcDbEllipse
 62
7
  6
CONTINUOUS
 10
-12.4545567809
 20
8.777606705
 30
0.0
 11
-0.1768305473
 21
0.1768305473
 31
0.0
 40
0.9996954599
 41
-0.7852458702
 42
0.7852458701
  0
ELLIPSE
  5
2DB
100
AcDbEntity
  8
RACCORDO
100
AcDbEllipse
 62
7
  6
CONTINUOUS
 10
36.6314030031
 20
8.777606705
 30
0.0
 11
0.1768305473
 21
0.1768305473
 31
0.0
 40
0.9996954599
 41
-0.7852458702
 42
0.7852458701
  0
ELLIPSE
  5
2DC
100
AcDbEntity
  8
RACCORDO
100
AcDbEllipse
 62
7
  6
CONTINUOUS
 10
36.6248920211
 20
-9.2086176772
 30
0.0
 11
0.2183310446
 21
0.1221043275
 31
0.0
 40
0.9980297029
 41
-2.0815635429
 42
-0.5109195152
  0
ELLIPSE
  5
2DD
100
AcDbEntity
  8
RACCORDO
100
AcDbEllipse
 62
7
  6
CONTINUOUS
 10
-12.4480457989
 20
-9.2086176772
 30
0.0
 11
0.2183310446
 21
-0.1221043275
 31
0.0
 40
0.9980297029
 41
-2.6306731384
 42
-1.0600291107
  0
ELLIPSE
  5
2DE
100
AcDbEntity
  8
RACCORDO
100
AcDbEllipse
 62
7
  6
CONTINUOUS
 10
-12.4353562095
 20
-8.911516534
 30
0.0
 11
0.0250113895
 21
0.2526592035
 31
0.0
 40
0.9846622838
 41
-4.6121910857
 42
-3.0444253421
  0
ELLIPSE
  5
2DF
100
AcDbEntity
  8
RACCORDO
100
AcDbEllipse
 62
7
  6
CONTINUOUS
 10
-12.4353562095
 20
-9.2022733657
 30
0.0
 11
0.2236527791
 21
0.1118178731
 31
0.0
 40
0.9998096356
 41
2.6780516535
 42
4.2486956813
  0
ELLIPSE
  5
2E0
100
AcDbEntity
  8
RACCORDO
100
AcDbEllipse
 62
7
  6
CONTINUOUS
 10
36.6122024317
 20
-9.2022733657
 30
0.0
 11
0.2236527791
 21
-0.1118178731
 31
0.0
 40
0.9998096356
 41
-1.1071030277
 42
0.4635410001
  0
ELLIPSE
  5
2E1
100
AcDbEntity
  8
RACCORDO
100
AcDbEllipse
 62
7
  6
CONTINUOUS
 10
36.6122024317
 20
-8.911516534
 30
0.0
 11
-0.0250113895
 21
0.2526592035
 31
0.0
 40
0.9846622838
 41
-3.2387599651
 42
-1.6709942215
  0
ELLIPSE
  5
2E2
100
AcDbEntity
  8
ASSI
100
AcDbEllipse
 62
7
  6
CONTINUOUS
 10
-12.7098313824
 20
8.0770707971
 30
0.0
 11
0.0
 21
0.3
 31
0.0
 40
0.0174550649
 41
-3.1241393611
 42
-1.5707963268
  0
ELLIPSE
  5
2E3
100
AcDbEntity
  8
ASSI
100
AcDbEllipse
 62
7
  6
CONTINUOUS
 10
36.8866776046
 20
8.0770707971
 30
0.0
 11
-0.0
 21
0.3
 31
0.0
 40
0.0174550649
 41
-4.7123889804
 42
-3.1590459461
  0
ELLIPSE
  5
2E4
100
AcDbEntity
  8
ASSI
100
AcDbEllipse
 62
7
  6
CONTINUOUS
 10
-12.4545567809
 20
8.777606705
 30
0.0
 11
-0.1768305473
 21
0.1768305473
 31
0.0
 40
0.9996954599
 41
-0.7852458702
 42
0.7852458701
  0
ELLIPSE
  5
2E5
100
AcDbEntity
  8
ASSI
100
AcDbEllipse
 62
7
  6
CONTINUOUS
 10
36.6314030031
 20
8.777606705
 30
0.0
 11
0.1768305473
 21
0.1768305473
 31
0.0
 40
0.9996954599
 41
-0.7852458702
 42
0.7852458701
  0
ELLIPSE
  5
2E6
100
AcDbEntity
  8
ASSI
100
AcDbEllipse
 62
7
  6
CONTINUOUS
 10
36.6248920211
 20
-9.2086176772
 30
0.0
 11
0.2183310446
 21
0.1221043275
 31
0.0
 40
0.9980297029
 41
-2.0815635429
 42
-0.5109195152
  0
ELLIPSE
  5
2E7
100
AcDbEntity
  8
ASSI
100
AcDbEllipse
 62
7
  6
CONTINUOUS
 10
-12.4480457989
 20
-9.2086176772
 30
0.0
 11
0.2183310446
 21
-0.1221043275
 31
0.0
 40
0.9980297029
 41
-2.6306731384
 42
-1.0600291107
  0
ELLIPSE
  5
2E8
100
AcDbEntity
  8
ASSI
100
AcDbEllipse
 62
7
  6
CONTINUOUS
 10
-12.4353562095
 20
-9.2022733657
 30
0.0
 11
0.2236527791
 21
0.1118178731
 31
0.0
 40
0.9998096356
 41
2.6780516535
 42
4.2486956813
  0
ELLIPSE
  5
2E9
100
AcDbEntity
  8
ASSI
100
AcDbEllipse
 62
7
  6
CONTINUOUS
 10
36.6122024317
 20
-9.2022733657
 30
0.0
 11
0.2236527791
 21
-0.1118178731
 31
0.0
 40
0.9998096356
 41
-1.1071030277
 42
0.4635410001
  0
ELLIPSE
  5
2EA
100
AcDbEntity
  8
ASSI
100
AcDbEllipse
 62
7
  6
CONTINUOUS
 10
-12.4353562095
 20
-8.911516534
 30
0.0
 11
0.0250113895
 21
0.2526592035
 31
0.0
 40
0.9846622838
 41
-4.6121910857
 42
-3.0444253421
  0
ELLIPSE
  5
2EB
100
AcDbEntity
  8
ASSI
100
AcDbEllipse
 62
7
  6
CONTINUOUS
 10
36.6122024317
 20
-8.911516534
 30
0.0
 11
-0.0250113895
 21
0.2526592035
 31
0.0
 40
0.9846622838
 41
-3.2387599651
 42
-1.6709942215
  0
ELLIPSE
  5
2EC
100
AcDbEntity
  8
CURVE
100
AcDbEllipse
 62
253
  6
CONTINUOUS
 10
391.0685961412
 20
9.234626813
 30
0.0
 11
413.6308205238
 21
-97.6449912326
 31
0.0
 40
1.0
 41
-2.878744701
 42
-2.8785391293
  0
ELLIPSE
  5
2ED
100
AcDbEntity
  8
CURVE
100
AcDbEllipse
 62
253
  6
CONTINUOUS
 10
391.0685961412
 20
9.234626813
 30
0.0
 11
374.7117044764
 21
200.5396183511
 31
0.0
 40
1.0
 41
2.6814255118
 42
2.6834960638
  0
ELLIPSE
  5
2EE
100
AcDbEntity
  8
CURVE
100
AcDbEllipse
 62
253
  6
CONTINUOUS
 10
391.0685961412
 20
9.234626813
 30
0.0
 11
420.8920663559
 21
58.948015053
 31
0.0
 40
1.0
 41
3.0335308535
 42
3.0337502899
  0
ELLIPSE
  5
2EF
100
AcDbEntity
  8
CURVE
100
AcDbEllipse
 62
253
  6
CONTINUOUS
 10
391.0685961412
 20
9.234626813
 30
0.0
 11
417.3314643609
 21
80.3706964909
 31
0.0
 40
1.0
 41
2.9865898972
 42
2.9869925957
  0
ELLIPSE
  5
2F0
100
AcDbEntity
  8
CURVE
100
AcDbEllipse
 62
253
  6
CONTINUOUS
 10
391.0685961412
 20
9.234626813
 30
0.0
 11
425.0
 21
0.0
 31
0.0
 40
1.0
 41
-3.1059395229
 42
-3.1049627838
  0
ELLIPSE
  5
2F1
100
AcDbEntity
  8
CURVE
100
AcDbEllipse
 62
253
  6
CONTINUOUS
 10
391.0685961412
 20
9.234626813
 30
0.0
 11
413.6308205238
 21
-97.6449912326
 31
0.0
 40
1.0
 41
3.4047239239
 42
3.4090695888
  0
ELLIPSE
  5
2F2
100
AcDbEntity
  8
CURVE
100
AcDbEllipse
 62
253
  6
CONTINUOUS
 10
391.0685961412
 20
9.234626813
 30
0.0
 11
423.9307887454
 21
30.1278335385
 31
0.0
 40
1.0
 41
3.1019515921
 42
3.1058945585
  0
ELLIPSE
  5
2F3
100
AcDbEntity
  8
CURVE
100
AcDbEllipse
 62
253
  6
CONTINUOUS
 10
391.0685961412
 20
9.234626813
 30
0.0
 11
419.5121694959
 21
-68.077453278
 31
0.0
 40
1.0
 41
-2.949629347
 42
-2.9494099106
  0
ELLIPSE
  5
2F4
100
AcDbEntity
  8
CURVE
100
AcDbEllipse
 62
253
  6
CONTINUOUS
 10
391.0685961412
 20
9.234626813
 30
0.0
 11
417.3314643609
 21
-80.3706964909
 31
0.0
 40
1.0
 41
-2.9201097452
 42
-2.9180391932
  0
ELLIPSE
  5
2F5
100
AcDbEntity
  8
CURVE
100
AcDbEllipse
 62
253
  6
CONTINUOUS
 10
391.0685961412
 20
9.234626813
 30
0.0
 11
423.5518873126
 21
-35.0542259066
 31
0.0
 40
1.0
 41
-3.0279941667
 42
-3.0277885951
  0
ENDSEC
  0
SECTION
  2
OBJECTS
  0
DICTIONARY
  5
C
100
AcDbDictionary
280
0
281
1
  3
ACAD_GROUP
350
D
  3
ACAD_MLINESTYLE
350
17
  3
ACAD_LAYOUT
350
1A
  3
ACAD_PLOTSETTINGS
350
19
  3
ACAD_PLOTSTYLENAME
350
E
  0
DICTIONARY
  5
D
102
{ACAD_REACTORS
330
C
102
}
100
AcDbDictionary
280
0
281
1
  0
ACDBDICTIONARYWDFLT
  5
E
102
{ACAD_REACTORS
330
C
102
}
100
AcDbDictionary
281
1
  3
Normal
350
F
100
AcDbDictionaryWithDefault
340
F
  0
DICTIONARY
  5
17
102
{ACAD_REACTORS
330
C
102
}
100
AcDbDictionary
280
0
281
1
  3
Standard
350
18
  0
DICTIONARY
  5
19
102
{ACAD_REACTORS
330
C
102
}
100
AcDbDictionary
281
1
  0
DICTIONARY
  5
1A
102
{ACAD_REACTORS
330
C
102
}
100
AcDbDictionary
281
1
  3
Model
350
2F6
  3
Layout1
350
2F7
  0
ACDBPLACEHOLDER
  5
F
102
{ACAD_REACTORS
330
E
102
}
  0
MLINESTYLE
  5
18
102
{ACAD_REACTORS
330
17
102
}
100
AcDbMlineStyle
  2
STANDARD
 70
0
  3

 62
256
 51
90.0
 52
90.0
 71
2
 49
0.5
 62
256
  6
BYLAYER
 49
-0.5
 62
256
  6
BYLAYER
  0
LAYOUT
  5
2F6
102
{ACAD_REACTORS
330
1A
102
}
100
AcDbPlotSettings
  1

  2
none_device
  4
ISO_A4_(297.00_x_210.00_MM)
  6

 40
0.0
 41
0.0
 42
0.0
 43
0.0
 44
297.0
 45
210.0
 46
0.0
 47
0.0
 48
0.0
 49
0.0
140
0.0
141
0.0
142
1.0
143
1.0
 70
1024
 72
1
 73
0
 74
0
  7

 75
0
147
1.0
148
0.0
149
0.0
100
AcDbLayout
  1
Model
 70
0
 71
0
 10
0.0
 20
0.0
 11
297.0
 21
210.0
 12
0.0
 22
0.0
 32
0.0
 14
0.0
 24
0.0
 34
0.0
 15
0.0
 25
0.0
 35
0.0
146
0.0
 13
0.0
 23
0.0
 33
0.0
 16
1.0
 26
0.0
 36
0.0
 17
0.0
 27
1.0
 37
0.0
 76
0
330
211
345
0
346
0
  0
LAYOUT
  5
2F7
102
{ACAD_REACTORS
330
1A
102
}
100
AcDbPlotSettings
  1

  2
none_device
  4
ISO_A4_(297.00_x_210.00_MM)
  6

 40
0.0
 41
0.0
 42
0.0
 43
0.0
 44
297.0
 45
210.0
 46
0.0
 47
0.0
 48
0.0
 49
0.0
140
0.0
141
0.0
142
1.0
143
1.0
 70
0
 72
1
 73
0
 74
0
  7

 75
0
147
1.0
148
0.0
149
0.0
100
AcDbLayout
  1
Layout1
 70
0
 71
1
 10
0.0
 20
0.0
 11
297.0
 21
210.0
 12
0.0
 22
0.0
 32
0.0
 14
0.0
 24
0.0
 34
0.0
 15
0.0
 25
0.0
 35
0.0
146
0.0
 13
0.0
 23
0.0
 33
0.0
 16
1.0
 26
0.0
 36
0.0
 17
0.0
 27
1.0
 37
0.0
 76
0
330
212
345
0
346
0
  0
ENDSEC
  0
EOF
