  0
SECTION
  2
HEADER
  9
$ACADVER
  1
AC1015
  9
$DWGCODEPAGE
  3
ANSI_1252
  9
$EXTMAX
 10
297.0
 20
210.0
 30
0.0
  9
$EXTMIN
 10
0.0
 20
0.0
 30
0.0
  9
$LIMMIN
 10
0.0
 20
0.0
  9
$LIMMAX
 10
297.0
 20
210.0
  9
$VIEWCTR
 10
148.5
 20
105.0
  9
$VIEWSIZE
 40
210.0
  9
$CLAYER
  8
0
  9
$LTSCALE
 40
16.335
  9
$CELTYPE
  6
BYLAYER
  9
$DIMSCALE
 40
1.0
  9
$DIMASZ
 40
3.0
  9
$DIMEXO
 40
1.85625
  9
$DIMDLI
 40
11.286
  9
$DIMEXE
 40
5.346
  9
$DIMCEN
 40
2.673
  9
$DIMLFAC
 40
1.0
  9
$DIMBLK
  1
_FILLED
  9
$DIMTXT
 40
3.0
  9
$DIMTOL
 70
1
  9
$DIMLIM
 70
0
  9
$DIMTFAC
 40
1.0
  9
$DIMTP
 40
0.01
  9
$DIMTM
 40
0.01
  9
$PDMODE
 70
3
  9
$PDSIZE
 40
3.0
  9
$HANDSEED
  5
295
  9
$TILEMODE
 70
1
  9
$MEASUREMENT
 70
1
  9
$INSUNITS
 70
4
  0
ENDSEC
  0
SECTION
  2
CLASSES
  0
CLASS
  1
ACDBDICTIONARYWDFLT
  2
AcDbDictionaryWithDefault
  3
AutoCAD 2000
 90
0
280
0
281
0
  0
CLASS
  1
ACDBPLACEHOLDER
  2
AcDbPlaceHolder
  3
AutoCAD 2000
 90
0
280
0
281
0
  0
CLASS
  1
LAYOUT
  2
AcDbLayout
  3
AutoCAD 2000
 90
0
280
0
281
0
  0
ENDSEC
  0
SECTION
  2
TABLES
  0
TABLE
  2
VPORT
  5
8
100
AcDbSymbolTable
 70
2
  0
VPORT
  5
1F4
100
AcDbSymbolTableRecord
100
AcDbViewportTableRecord
  2
*ACTIVE
 70
0
 10
0.0
 20
0.0
 11
1.0
 21
1.0
 12
148.5
 22
105.0
 13
0.0
 23
0.0
 14
1.0
 24
1.0
 15
0.0
 25
0.0
 16
0.0
 26
0.0
 36
1.0
 17
0.0
 27
0.0
 37
0.0
 40
210.0
 41
1.4142857143
 42
50.0
 43
0.0
 44
0.0
 50
0.0
 51
0.0
 71
0
 72
100
 73
1
 74
1
 75
0
 76
0
 77
0
 78
0
  0
ENDTAB
  0
TABLE
  2
LTYPE
  5
5
100
AcDbSymbolTable
 70
6
  0
LTYPE
  5
14
100
AcDbSymbolTableRecord
100
AcDbLinetypeTableRecord
  2
BYBLOCK
 70
0
  3

 72
65
 73
0
 40
0.0
  0
LTYPE
  5
15
100
AcDbSymbolTableRecord
100
AcDbLinetypeTableRecord
  2
BYLAYER
 70
0
  3

 72
65
 73
0
 40
0.0
  0
LTYPE
  5
16
100
AcDbSymbolTableRecord
100
AcDbLinetypeTableRecord
  2
CONTINUOUS
 70
64
  3
Solid line
 72
65
 73
0
 40
0.0
  0
LTYPE
  5
1F5
100
AcDbSymbolTableRecord
100
AcDbLinetypeTableRecord
  2
CENTER
 70
64
  3
____ _ ____ _ ____ _ ____ _ ____ _ ____ _ ____
 72
65
 73
4
 40
0.6
 49
0.375
 74
0
 49
-0.075
 74
0
 49
0.075
 74
0
 49
-0.075
 74
0
  0
LTYPE
  5
1F6
100
AcDbSymbolTableRecord
100
AcDbLinetypeTableRecord
  2
HIDDEN
 70
64
  3
- - - - - - - - - - - - - - - - - - - -
 72
65
 73
2
 40
0.2
 49
0.1
 74
0
 49
-0.1
 74
0
  0
LTYPE
  5
1F7
100
AcDbSymbolTableRecord
100
AcDbLinetypeTableRecord
  2
PHANTOM
 70
64
  3
_____ _ _ _____ _ _ _____ _ _ _____
 72
65
 73
6
 40
0.8
 49
0.45
 74
0
 49
-0.05
 74
0
 49
0.1
 74
0
 49
-0.05
 74
0
 49
0.1
 74
0
 49
-0.05
 74
0
  0
LTYPE
  5
1F8
100
AcDbSymbolTableRecord
100
AcDbLinetypeTableRecord
  2
DOT
 70
64
  3
. . . . . . . . . . . . . . . . . . . .
 72
65
 73
2
 40
0.2
 49
0.1
 74
0
 49
-0.1
 74
0
  0
LTYPE
  5
1F9
100
AcDbSymbolTableRecord
100
AcDbLinetypeTableRecord
  2
DASHED
 70
64
  3
- - - - - - - - - - - - - - - - - - - -
 72
65
 73
2
 40
0.2
 49
0.1
 74
0
 49
-0.1
 74
0
  0
ENDTAB
  0
TABLE
  2
LAYER
  5
2
100
AcDbSymbolTable
 70
36
  0
LAYER
  5
10
100
AcDbSymbolTableRecord
100
AcDbLayerTableRecord
  2
0
 70
0
 62
7
  6
CONTINUOUS
370
-3
390
F
  0
LAYER
  5
1FA
100
AcDbSymbolTableRecord
100
AcDbLayerTableRecord
  2
DEFAULT_1
 70
0
 62
7
  6
CENTER
370
-3
390
F
  0
LAYER
  5
1FB
100
AcDbSymbolTableRecord
100
AcDbLayerTableRecord
  2
DEFAULT_2
 70
0
 62
7
  6
HIDDEN
370
-3
390
F
  0
LAYER
  5
1FC
100
AcDbSymbolTableRecord
100
AcDbLayerTableRecord
  2
DEFAULT_3
 70
0
 62
7
  6
PHANTOM
370
-3
390
F
  0
LAYER
  5
1FD
100
AcDbSymbolTableRecord
100
AcDbLayerTableRecord
  2
ASSI
 70
0
 62
7
  6
CONTINUOUS
370
-3
390
F
  0
LAYER
  5
1FE
100
AcDbSymbolTableRecord
100
AcDbLayerTableRecord
  2
COORDINATE
 70
0
 62
7
  6
CONTINUOUS
370
-3
390
F
  0
LAYER
  5
1FF
100
AcDbSymbolTableRecord
100
AcDbLayerTableRecord
  2
COORD_ORIGINE
 70
0
 62
7
  6
CONTINUOUS
370
-3
390
F
  0
LAYER
  5
200
100
AcDbSymbolTableRecord
100
AcDbLayerTableRecord
  2
CURVE
 70
0
 62
7
  6
CONTINUOUS
370
-3
390
F
  0
LAYER
  5
201
100
AcDbSymbolTableRecord
100
AcDbLayerTableRecord
  2
DRAFT
 70
0
 62
7
  6
CONTINUOUS
370
-3
390
F
  0
LAYER
  5
202
100
AcDbSymbolTableRecord
100
AcDbLayerTableRecord
  2
IGES
 70
0
 62
7
  6
CONTINUOUS
370
-3
390
F
  0
LAYER
  5
203
100
AcDbSymbolTableRecord
100
AcDbLayerTableRecord
  2
NOTE
 70
0
 62
7
  6
CONTINUOUS
370
-3
390
F
  0
LAYER
  5
204
100
AcDbSymbolTableRecord
100
AcDbLayerTableRecord
  2
PIANI
 70
0
 62
7
  6
CONTINUOUS
370
-3
390
F
  0
LAYER
  5
205
100
AcDbSymbolTableRecord
100
AcDbLayerTableRecord
  2
PIANI_ORIGINE
 70
0
 62
7
  6
CONTINUOUS
370
-3
390
F
  0
LAYER
  5
206
100
AcDbSymbolTableRecord
100
AcDbLayerTableRecord
  2
RACCORDO
 70
0
 62
7
  6
CONTINUOUS
370
-3
390
F
  0
LAYER
  5
207
100
AcDbSymbolTableRecord
100
AcDbLayerTableRecord
  2
SNAPLINE
 70
0
 62
7
  6
CONTINUOUS
370
-3
390
F
  0
LAYER
  5
208
100
AcDbSymbolTableRecord
100
AcDbLayerTableRecord
  2
SUPERFICI
 70
0
 62
7
  6
CONTINUOUS
370
-3
390
F
  0
LAYER
  5
209
100
AcDbSymbolTableRecord
100
AcDbLayerTableRecord
  2
TRASH
 70
0
 62
7
  6
CONTINUOUS
370
-3
390
F
  0
ENDTAB
  0
TABLE
  2
STYLE
  5
3
100
AcDbSymbolTable
 70
1
  0
STYLE
  5
11
100
AcDbSymbolTableRecord
100
AcDbTextStyleTableRecord
  2
STANDARD
 70
0
 40
0.0
 41
0.8
 50
0.0
 71
0
 42
0.2
  3
txt
  4

  0
STYLE
  5
20A
100
AcDbSymbolTableRecord
100
AcDbTextStyleTableRecord
  2
TEXTSTYLE_1
 70
0
 40
0.0
 41
0.8
 50
0.0
 71
0
 42
0.2
  3
gdt
  4

  0
ENDTAB
  0
TABLE
  2
VIEW
  5
6
100
AcDbSymbolTable
 70
0
  0
ENDTAB
  0
TABLE
  2
UCS
  5
7
100
AcDbSymbolTable
 70
0
  0
ENDTAB
  0
TABLE
  2
APPID
  5
9
100
AcDbSymbolTable
 70
1
  0
APPID
  5
20B
100
AcDbSymbolTableRecord
100
AcDbRegAppTableRecord
  2
ACAD
 70
0
  0
ENDTAB
  0
TABLE
  2
BLOCK_RECORD
  5
1
100
AcDbSymbolTable
 70
0
  0
BLOCK_RECORD
  5
20C
100
AcDbSymbolTableRecord
100
AcDbBlockTableRecord
  2
*Model_Space
  0
BLOCK_RECORD
  5
20D
100
AcDbSymbolTableRecord
100
AcDbBlockTableRecord
  2
*Paper_Space
  0
BLOCK_RECORD
  5
20E
100
AcDbSymbolTableRecord
100
AcDbBlockTableRecord
  2
_FILLED
  0
BLOCK_RECORD
  5
20F
100
AcDbSymbolTableRecord
100
AcDbBlockTableRecord
  2
*D0
  0
BLOCK_RECORD
  5
210
100
AcDbSymbolTableRecord
100
AcDbBlockTableRecord
  2
*D1
  0
BLOCK_RECORD
  5
211
100
AcDbSymbolTableRecord
100
AcDbBlockTableRecord
  2
*D2
  0
ENDTAB
  0
TABLE
  2
DIMSTYLE
  5
A
100
AcDbSymbolTable
 70
1
100
AcDbDimStyleTable
 71
0
  0
DIMSTYLE
105
212
100
AcDbSymbolTableRecord
100
AcDbDimStyleTableRecord
  2
STANDARD
 70
0
  3

  4

 40
1.0
 41
3.0
 42
0.0625
 43
0.38
 44
0.18
 45
0.0
 46
0.0
 47
0.01
 48
0.01
140
3.0
141
0.09
142
0.0
143
25.4
144
1.0
145
0.0
146
1.0
147
0.09
 71
1.0
 72
0.0
 73
0
 74
0
 75
0
 76
0
 77
1
 78
8
170
0
171
2
172
0
173
0
174
0
175
0
176
0
177
0
178
0
270
2
271
2
272
2
273
2
274
2
275
0
280
0
281
0
282
0
283
1
284
8
285
0
286
0
287
3
288
0
340
11
341
20E
342
20E
343
20E
344
20E
  0
DIMSTYLE
105
213
100
AcDbSymbolTableRecord
100
AcDbDimStyleTableRecord
  2
DIMSTYLE_1
 70
0
  3

  4

 40
1.0
 41
3.0
 42
0.0625
 43
0.38
 44
0.18
 45
0.0
 46
0.0
 47
0.0
 48
0.0
140
3.0
141
0.09
142
0.0
143
25.4
144
1.0
145
0.0
146
1.0
147
0.09
 71
0.0
 72
0.0
 73
0
 74
0
 75
0
 76
0
 77
1
 78
8
170
0
171
2
172
0
173
0
174
0
175
0
176
0
177
0
178
0
270
2
271
2
272
2
273
2
274
2
275
0
280
0
281
0
282
0
283
1
284
8
285
0
286
0
287
3
288
0
340
11
341
20E
342
20E
343
20E
344
20E
  0
DIMSTYLE
105
214
100
AcDbSymbolTableRecord
100
AcDbDimStyleTableRecord
  2
DIMSTYLE_2
 70
0
  3

  4

 40
1.0
 41
3.0
 42
0.0625
 43
0.38
 44
0.18
 45
0.0
 46
0.0
 47
0.0
 48
0.0
140
3.0
141
0.09
142
0.0
143
25.4
144
1.0
145
0.0
146
1.0
147
0.09
 71
0.0
 72
0.0
 73
0
 74
0
 75
0
 76
0
 77
1
 78
8
170
0
171
2
172
0
173
0
174
0
175
0
176
0
177
0
178
0
270
2
271
1
272
1
273
2
274
2
275
0
280
0
281
0
282
0
283
1
284
8
285
0
286
0
287
3
288
0
340
11
341
20E
342
20E
343
20E
344
20E
  0
ENDTAB
  0
ENDSEC
  0
SECTION
  2
BLOCKS
  0
BLOCK
  5
20
100
AcDbEntity
  8
0
100
AcDbBlockBegin
  2
*Model_Space
 70
0
 10
0.0
 20
0.0
 30
0.0
  3
*Model_Space
  1

  0
ENDBLK
  5
21
100
AcDbEntity
  8
0
100
AcDbBlockEnd
  0
BLOCK
  5
1C
100
AcDbEntity
  8
0
100
AcDbBlockBegin
  2
*Paper_Space
 70
0
 10
0.0
 20
0.0
 30
0.0
  3
*Paper_Space
  1

  0
ENDBLK
  5
1D
100
AcDbEntity
  8
0
100
AcDbBlockEnd
  0
BLOCK
  5
215
100
AcDbEntity
  8
0
100
AcDbBlockBegin
  2
_FILLED
 70
64
 10
0.0
 20
0.0
  3
_FILLED
  1

  0
SOLID
  5
216
100
AcDbEntity
  8
0
  6
BYBLOCK
 62
0
100
AcDbTrace
 10
0.0
 20
0.0
 11
-1.0
 21
0.3166666667
 12
-1.0
 22
-0.3166666667
 13
-1.0
 23
-0.3166666667
  0
ENDBLK
  5
217
100
AcDbEntity
  8
0
  6
BYBLOCK
 62
0
100
AcDbBlockEnd
  0
BLOCK
  5
218
100
AcDbEntity
  8
0
100
AcDbBlockBegin
 62
7
  6
CONTINUOUS
  2
*D0
 70
65
 10
0.0
 20
0.0
  3
*D0
  1

  0
MTEXT
  5
219
100
AcDbEntity
  8
0
100
AcDbMText
 62
7
  6
CONTINUOUS
  7
STANDARD
 71
2
 72
1
 10
12.3928444444
 20
20.81394843
 30
0.0
 11
1.0
 21
0.0
 31
0.0
 44
0.9
  1
24,6
 40
3.0
 41
8.7857142857
  0
LINE
  5
21A
100
AcDbEntity
  8
0
100
AcDbLine
 62
7
  6
CONTINUOUS
 10
24.6928444444
 20
5.5464933651
 11
24.6928444444
 21
18.56394843
  0
LINE
  5
21B
100
AcDbEntity
  8
0
100
AcDbLine
 62
7
  6
CONTINUOUS
 10
0.0928444444
 20
5.5464933651
 11
0.0928444444
 21
18.56394843
  0
LINE
  5
21C
100
AcDbEntity
  8
0
100
AcDbLine
 62
7
  6
CONTINUOUS
 10
24.6928444444
 20
17.06394843
 11
12.3928444444
 21
17.06394843
  0
LINE
  5
21D
100
AcDbEntity
  8
0
100
AcDbLine
 62
7
  6
CONTINUOUS
 10
0.0928444444
 20
17.06394843
 11
12.3928444444
 21
17.06394843
  0
INSERT
  5
21E
100
AcDbEntity
  8
0
100
AcDbBlockReference
 62
7
  6
CONTINUOUS
  2
_FILLED
 10
24.6928444444
 20
17.06394843
 41
3.0
 42
3.0
 43
3.0
  0
INSERT
  5
21F
100
AcDbEntity
  8
0
100
AcDbBlockReference
 62
7
  6
CONTINUOUS
  2
_FILLED
 10
0.0928444444
 20
17.06394843
 41
3.0
 42
3.0
 43
3.0
 50
180.0
  0
ENDBLK
  5
220
100
AcDbEntity
  8
0
  6
BYBLOCK
 62
0
100
AcDbBlockEnd
  0
BLOCK
  5
221
100
AcDbEntity
  8
0
100
AcDbBlockBegin
 62
7
  6
CONTINUOUS
  2
*D1
 70
65
 10
0.0
 20
0.0
  3
*D1
  1

  0
MTEXT
  5
222
100
AcDbEntity
  8
0
100
AcDbMText
 62
7
  6
CONTINUOUS
  7
STANDARD
 71
2
 72
1
 10
28.9428444444
 20
-0.1747057778
 30
0.0
 11
0.0
 21
1.0
 31
0.0
 44
0.9
  1
18,5
 40
3.0
 41
7.9285714286
  0
LINE
  5
223
100
AcDbEntity
  8
0
100
AcDbLine
 62
7
  6
CONTINUOUS
 10
24.9027358713
 20
9.06394843
 11
34.1928444444
 21
9.06394843
  0
LINE
  5
224
100
AcDbEntity
  8
0
100
AcDbLine
 62
7
  6
CONTINUOUS
 10
24.942844443
 20
-9.4133599856
 11
34.1928444444
 21
-9.4133599856
  0
LINE
  5
225
100
AcDbEntity
  8
0
100
AcDbLine
 62
7
  6
CONTINUOUS
 10
32.6928444444
 20
9.06394843
 11
32.6928444444
 21
-0.1747057778
  0
LINE
  5
226
100
AcDbEntity
  8
0
100
AcDbLine
 62
7
  6
CONTINUOUS
 10
32.6928444444
 20
-9.4133599856
 11
32.6928444444
 21
-0.1747057778
  0
INSERT
  5
227
100
AcDbEntity
  8
0
100
AcDbBlockReference
 62
7
  6
CONTINUOUS
  2
_FILLED
 10
32.6928444444
 20
9.06394843
 41
3.0
 42
3.0
 43
3.0
 50
90.0
  0
INSERT
  5
228
100
AcDbEntity
  8
0
100
AcDbBlockReference
 62
7
  6
CONTINUOUS
  2
_FILLED
 10
32.6928444444
 20
-9.4133599856
 41
3.0
 42
3.0
 43
3.0
 50
270.0
  0
ENDBLK
  5
229
100
AcDbEntity
  8
0
  6
BYBLOCK
 62
0
100
AcDbBlockEnd
  0
BLOCK
  5
22A
100
AcDbEntity
  8
0
100
AcDbBlockBegin
 62
7
  6
CONTINUOUS
  2
*D2
 70
65
 10
0.0
 20
0.0
  3
*D2
  1

  0
MTEXT
  5
22B
100
AcDbEntity
  8
0
100
AcDbMText
 62
7
  6
CONTINUOUS
  7
STANDARD
 71
2
 72
1
 10
-12.5831982222
 20
20.81394843
 30
0.0
 11
1.0
 21
0.0
 31
0.0
 44
0.9
  1
9,8
 40
3.0
 41
6.4285714286
  0
LINE
  5
22C
100
AcDbEntity
  8
0
100
AcDbLine
 62
7
  6
CONTINUOUS
 10
-7.6833531024
 20
0.5888618598
 11
-7.6833531024
 21
18.56394843
  0
LINE
  5
22D
100
AcDbEntity
  8
0
100
AcDbLine
 62
7
  6
CONTINUOUS
 10
-17.4830433421
 20
9.2359167574
 11
-17.4830433421
 21
18.56394843
  0
LINE
  5
22E
100
AcDbEntity
  8
0
100
AcDbLine
 62
7
  6
CONTINUOUS
 10
-7.6833531024
 20
17.06394843
 11
-3.6833531024
 21
17.06394843
  0
LINE
  5
22F
100
AcDbEntity
  8
0
100
AcDbLine
 62
7
  6
CONTINUOUS
 10
-3.6833531024
 20
17.06394843
 11
-12.5831982222
 21
17.06394843
  0
LINE
  5
230
100
AcDbEntity
  8
0
100
AcDbLine
 62
7
  6
CONTINUOUS
 10
-17.4830433421
 20
17.06394843
 11
-21.4830433421
 21
17.06394843
  0
LINE
  5
231
100
AcDbEntity
  8
0
100
AcDbLine
 62
7
  6
CONTINUOUS
 10
-21.4830433421
 20
17.06394843
 11
-12.5831982222
 21
17.06394843
  0
INSERT
  5
232
100
AcDbEntity
  8
0
100
AcDbBlockReference
 62
7
  6
CONTINUOUS
  2
_FILLED
 10
-7.6833531024
 20
17.06394843
 41
3.0
 42
3.0
 43
3.0
 50
180.0
  0
INSERT
  5
233
100
AcDbEntity
  8
0
100
AcDbBlockReference
 62
7
  6
CONTINUOUS
  2
_FILLED
 10
-17.4830433421
 20
17.06394843
 41
3.0
 42
3.0
 43
3.0
  0
ENDBLK
  5
234
100
AcDbEntity
  8
0
  6
BYBLOCK
 62
0
100
AcDbBlockEnd
  0
ENDSEC
  0
SECTION
  2
ENTITIES
  0
DIMENSION
  5
235
100
AcDbEntity
  8
0
100
AcDbDimension
 62
7
  6
CONTINUOUS
  2
*D0
 10
0.0928444444
 20
17.06394843
 11
7.9999873016
 21
19.31394843
 70
160
 71
2
 42
24.6
  3
DIMSTYLE_1
100
AcDbAlignedDimension
 13
24.6928444444
 23
5.5464933651
 14
0.0928444444
 24
5.5464933651
 50
180.0
100
AcDbRotatedDimension
  0
DIMENSION
  5
236
100
AcDbEntity
  8
0
100
AcDbDimension
 62
7
  6
CONTINUOUS
  2
*D1
 10
32.6928444444
 20
-9.4133599856
 11
32.2191362798
 21
-3.7187639799
 70
160
 71
2
 42
18.4773084156
  3
DIMSTYLE_2
100
AcDbAlignedDimension
 13
24.9027358713
 23
9.06394843
 14
24.942844443
 24
-9.4133599856
 50
270.0
100
AcDbRotatedDimension
  0
DIMENSION
  5
237
100
AcDbEntity
  8
0
100
AcDbDimension
 62
7
  6
CONTINUOUS
  2
*D2
 10
-17.4830433421
 20
17.06394843
 11
-15.7974839365
 21
19.31394843
 70
160
 71
2
 42
9.7996902397
  3
DIMSTYLE_1
100
AcDbAlignedDimension
 13
-7.6833531024
 23
0.5888618598
 14
-17.4830433421
 24
9.2359167574
 50
180.0
100
AcDbRotatedDimension
  0
LINE
  5
238
100
AcDbEntity
  8
RACCORDO
100
AcDbLine
 62
7
  6
CONTINUOUS
 10
0.0928444444
 20
-4.0133599856
 11
0.0928444444
 21
-9.1633885422
  0
LINE
  5
239
100
AcDbEntity
  8
DRAFT
100
AcDbLine
 62
7
  6
CONTINUOUS
 10
0.0928444444
 20
-4.0133599856
 11
0.0928444444
 21
5.0464933651
  0
LINE
  5
23A
100
AcDbEntity
  8
RACCORDO
100
AcDbLine
 62
7
  6
CONTINUOUS
 10
0.1329910938
 20
5.0866400144
 11
0.1329910938
 21
8.8139865062
  0
LINE
  5
23B
100
AcDbEntity
  8
RACCORDO
100
AcDbLine
 62
7
  6
CONTINUOUS
 10
0.1364821068
 20
-9.1415713727
 11
0.1364821068
 21
-8.8602726651
  0
LINE
  5
23C
100
AcDbEntity
  8
DRAFT
100
AcDbLine
 62
7
  6
CONTINUOUS
 10
0.0928444444
 20
5.0464933651
 11
0.1329910938
 21
5.0866400144
  0
LINE
  5
23D
100
AcDbEntity
  8
RACCORDO
100
AcDbLine
 62
253
  6
CONTINUOUS
 10
0.4606988114
 20
8.7359167558
 11
0.4606988114
 21
8.9862026361
  0
LINE
  5
23E
100
AcDbEntity
  8
RACCORDO
100
AcDbLine
 62
253
  6
CONTINUOUS
 10
0.194095011
 20
-8.2782805907
 11
0.1364821068
 21
-8.8602726651
  0
LINE
  5
23F
100
AcDbEntity
  8
RACCORDO
100
AcDbLine
 62
253
  6
CONTINUOUS
 10
0.4440549129
 20
-8.5245029531
 11
0.3857624287
 21
-9.1133599856
  0
LINE
  5
240
100
AcDbEntity
  8
DRAFT
100
AcDbLine
 62
7
  6
CONTINUOUS
 10
16.0605358981
 20
-9.4133599856
 11
16.5428444444
 21
-9.3976516236
  0
LINE
  5
241
100
AcDbEntity
  8
RACCORDO
100
AcDbLine
 62
7
  6
CONTINUOUS
 10
24.442844443
 20
-9.4133599856
 11
22.5251529908
 21
-9.4133599856
  0
LINE
  5
242
100
AcDbEntity
  8
DRAFT
100
AcDbLine
 62
7
  6
CONTINUOUS
 10
16.0605358981
 20
-9.4133599856
 11
8.7251529908
 21
-9.4133599856
  0
LINE
  5
243
100
AcDbEntity
  8
RACCORDO
100
AcDbLine
 62
7
  6
CONTINUOUS
 10
2.2605358981
 20
-9.4133599856
 11
0.3428444459
 21
-9.4133599856
  0
LINE
  5
244
100
AcDbEntity
  8
DRAFT
100
AcDbLine
 62
7
  6
CONTINUOUS
 10
2.7428444444
 20
-9.3976516236
 11
8.2428444444
 21
-9.3976516236
  0
LINE
  5
245
100
AcDbEntity
  8
DRAFT
100
AcDbLine
 62
7
  6
CONTINUOUS
 10
16.5428444444
 20
-9.3976516236
 11
22.0428444444
 21
-9.3976516236
  0
LINE
  5
246
100
AcDbEntity
  8
RACCORDO
100
AcDbLine
 62
7
  6
CONTINUOUS
 10
24.3992067807
 20
-9.3915428161
 11
0.3864821082
 21
-9.3915428161
  0
LINE
  5
247
100
AcDbEntity
  8
DRAFT
100
AcDbLine
 62
7
  6
CONTINUOUS
 10
8.7251529908
 20
-9.4133599856
 11
8.2428444444
 21
-9.3976516236
  0
LINE
  5
248
100
AcDbEntity
  8
DRAFT
100
AcDbLine
 62
7
  6
CONTINUOUS
 10
2.2605358981
 20
-9.4133599856
 11
2.7428444444
 21
-9.3976516236
  0
LINE
  5
249
100
AcDbEntity
  8
RACCORDO
100
AcDbLine
 62
7
  6
CONTINUOUS
 10
24.3999264602
 20
-9.1133599856
 11
0.3857624287
 21
-9.1133599856
  0
LINE
  5
24A
100
AcDbEntity
  8
RACCORDO
100
AcDbLine
 62
253
  6
CONTINUOUS
 10
0.4440549129
 20
-8.5245029531
 11
24.341633976
 21
-8.524502953
  0
LINE
  5
24B
100
AcDbEntity
  8
DRAFT
100
AcDbLine
 62
7
  6
CONTINUOUS
 10
22.5251529908
 20
-9.4133599856
 11
22.0428444444
 21
-9.3976516236
  0
LINE
  5
24C
100
AcDbEntity
  8
RACCORDO
100
AcDbLine
 62
253
  6
CONTINUOUS
 10
0.4548646406
 20
-7.5793594769
 11
24.3308242482
 21
-7.5793594769
  0
LINE
  5
24D
100
AcDbEntity
  8
RACCORDO
100
AcDbLine
 62
253
  6
CONTINUOUS
 10
24.442844443
 20
-9.4133599856
 11
24.3992067807
 21
-9.3915428161
  0
LINE
  5
24E
100
AcDbEntity
  8
RACCORDO
100
AcDbLine
 62
253
  6
CONTINUOUS
 10
24.6928444444
 20
-9.1633885422
 11
24.6492067821
 21
-9.1415713727
  0
LINE
  5
24F
100
AcDbEntity
  8
RACCORDO
100
AcDbLine
 62
253
  6
CONTINUOUS
 10
0.2107368876
 20
8.7362407124
 11
0.1329910938
 21
8.8139865062
  0
LINE
  5
250
100
AcDbEntity
  8
RACCORDO
100
AcDbLine
 62
253
  6
CONTINUOUS
 10
0.4606988115
 20
8.9862026361
 11
0.3829530176
 21
9.06394843
  0
LINE
  5
251
100
AcDbEntity
  8
RACCORDO
100
AcDbLine
 62
253
  6
CONTINUOUS
 10
24.4027358713
 20
9.06394843
 11
24.3249900774
 21
8.9862026361
  0
LINE
  5
252
100
AcDbEntity
  8
RACCORDO
100
AcDbLine
 62
253
  6
CONTINUOUS
 10
24.6526977951
 20
8.8139865062
 11
24.5749520012
 21
8.7362407124
  0
LINE
  5
253
100
AcDbEntity
  8
RACCORDO
100
AcDbLine
 62
253
  6
CONTINUOUS
 10
0.1364821068
 20
-9.1415713727
 11
0.0928444444
 21
-9.1633885422
  0
LINE
  5
254
100
AcDbEntity
  8
RACCORDO
100
AcDbLine
 62
253
  6
CONTINUOUS
 10
0.3864821082
 20
-9.3915428161
 11
0.3428444459
 21
-9.4133599856
  0
LINE
  5
255
100
AcDbEntity
  8
DRAFT
100
AcDbLine
 62
7
  6
CONTINUOUS
 10
20.8265706378
 20
9.06394843
 11
20.6428444444
 21
9.0272927937
  0
LINE
  5
256
100
AcDbEntity
  8
DRAFT
100
AcDbLine
 62
7
  6
CONTINUOUS
 10
3.959118251
 20
9.06394843
 11
4.1428444444
 21
9.0272927937
  0
LINE
  5
257
100
AcDbEntity
  8
RACCORDO
100
AcDbLine
 62
253
  6
CONTINUOUS
 10
24.5749520012
 20
8.7362407123
 11
0.4606988114
 21
8.7359167558
  0
LINE
  5
258
100
AcDbEntity
  8
RACCORDO
100
AcDbLine
 62
253
  6
CONTINUOUS
 10
24.3249900774
 20
8.9862026361
 11
0.4606988115
 21
8.9862026361
  0
LINE
  5
259
100
AcDbEntity
  8
DRAFT
100
AcDbLine
 62
7
  6
CONTINUOUS
 10
4.1428444444
 20
9.0272927937
 11
20.6428444444
 21
9.0272927937
  0
LINE
  5
25A
100
AcDbEntity
  8
RACCORDO
100
AcDbLine
 62
7
  6
CONTINUOUS
 10
24.4027358713
 20
9.06394843
 11
20.8265706378
 21
9.06394843
  0
LINE
  5
25B
100
AcDbEntity
  8
RACCORDO
100
AcDbLine
 62
7
  6
CONTINUOUS
 10
3.959118251
 20
9.06394843
 11
0.3829530176
 21
9.06394843
  0
LINE
  5
25C
100
AcDbEntity
  8
RACCORDO
100
AcDbLine
 62
253
  6
CONTINUOUS
 10
0.4606988083
 20
8.7359167542
 11
0.2107368877
 21
8.7362407123
  0
LINE
  5
25D
100
AcDbEntity
  8
RACCORDO
100
AcDbLine
 62
253
  6
CONTINUOUS
 10
24.3999264602
 20
-9.1133599856
 11
24.341633976
 21
-8.524502953
  0
LINE
  5
25E
100
AcDbEntity
  8
RACCORDO
100
AcDbLine
 62
253
  6
CONTINUOUS
 10
24.6492067821
 20
-8.8602726651
 11
24.5915938779
 21
-8.2782805907
  0
LINE
  5
25F
100
AcDbEntity
  8
RACCORDO
100
AcDbLine
 62
253
  6
CONTINUOUS
 10
24.3249900775
 20
8.7359167558
 11
24.3249900775
 21
8.9862026361
  0
LINE
  5
260
100
AcDbEntity
  8
RACCORDO
100
AcDbLine
 62
7
  6
CONTINUOUS
 10
24.6492067821
 20
-8.8602726651
 11
24.6492067821
 21
-9.1415713727
  0
LINE
  5
261
100
AcDbEntity
  8
RACCORDO
100
AcDbLine
 62
7
  6
CONTINUOUS
 10
24.6526977951
 20
5.0866400144
 11
24.6526977951
 21
8.8139865062
  0
LINE
  5
262
100
AcDbEntity
  8
RACCORDO
100
AcDbLine
 62
7
  6
CONTINUOUS
 10
24.6928444444
 20
-9.1633885422
 11
24.6928444444
 21
-4.0133599856
  0
LINE
  5
263
100
AcDbEntity
  8
DRAFT
100
AcDbLine
 62
7
  6
CONTINUOUS
 10
24.6928444444
 20
-4.0133599856
 11
24.6928444444
 21
5.0464933651
  0
LINE
  5
264
100
AcDbEntity
  8
DRAFT
100
AcDbLine
 62
7
  6
CONTINUOUS
 10
24.6928444444
 20
5.0464933651
 11
24.6526977951
 21
5.0866400144
  0
LINE
  5
265
100
AcDbEntity
  8
RACCORDO
100
AcDbLine
 62
7
  6
CONTINUOUS
 10
-10.4833531024
 20
-9.4133599856
 11
-12.9833531024
 21
-9.3915428161
  0
LINE
  5
266
100
AcDbEntity
  8
RACCORDO
100
AcDbLine
 62
253
  6
CONTINUOUS
 10
-10.4833531024
 20
-9.1633885422
 11
-12.9833531024
 21
-9.1415713727
  0
LINE
  5
267
100
AcDbEntity
  8
RACCORDO
100
AcDbLine
 62
7
  6
CONTINUOUS
 10
-12.9833531024
 20
-9.1133599856
 11
-16.3230431161
 21
-8.524482529
  0
LINE
  5
268
100
AcDbEntity
  8
RACCORDO
100
AcDbLine
 62
253
  6
CONTINUOUS
 10
-12.9833531024
 20
-8.8602726651
 11
-16.2839941733
 21
-8.2782805907
  0
LINE
  5
269
100
AcDbEntity
  8
RACCORDO
100
AcDbLine
 62
253
  6
CONTINUOUS
 10
-17.1486071899
 20
-7.5793594806
 11
-16.9031672289
 21
-7.5694383045
  0
LINE
  5
26A
100
AcDbEntity
  8
RACCORDO
100
AcDbLine
 62
7
  6
CONTINUOUS
 10
-7.6833531024
 20
-3.915581831
 11
-10.4833531024
 21
-4.0133599856
  0
LINE
  5
26B
100
AcDbEntity
  8
RACCORDO
100
AcDbLine
 62
7
  6
CONTINUOUS
 10
-12.9833531024
 20
-9.3915428161
 11
-12.9833531024
 21
-8.8602726651
  0
LINE
  5
26C
100
AcDbEntity
  8
RACCORDO
100
AcDbLine
 62
7
  6
CONTINUOUS
 10
-12.7833531024
 20
5.0866400144
 11
-12.7833531024
 21
9.06394843
  0
LINE
  5
26D
100
AcDbEntity
  8
RACCORDO
100
AcDbLine
 62
7
  6
CONTINUOUS
 10
-7.6833531024
 20
0.0888618598
 11
-10.4833531024
 21
0.1866400144
  0
LINE
  5
26E
100
AcDbEntity
  8
RACCORDO
100
AcDbLine
 62
7
  6
CONTINUOUS
 10
-10.4833531024
 20
-9.4133599856
 11
-10.4833531024
 21
-4.0133599856
  0
LINE
  5
26F
100
AcDbEntity
  8
DRAFT
100
AcDbLine
 62
7
  6
CONTINUOUS
 10
-10.4833531024
 20
-4.0133599856
 11
-10.4833531024
 21
5.0464933651
  0
LINE
  5
270
100
AcDbEntity
  8
RACCORDO
100
AcDbLine
 62
253
  6
CONTINUOUS
 10
-8.3101831781
 20
0.1107512484
 11
-8.3101831781
 21
-3.9374712196
  0
LINE
  5
271
100
AcDbEntity
  8
RACCORDO
100
AcDbLine
 62
7
  6
CONTINUOUS
 10
-7.6833531024
 20
0.0888618598
 11
-7.6833531024
 21
-3.915581831
  0
LINE
  5
272
100
AcDbEntity
  8
DRAFT
100
AcDbLine
 62
7
  6
CONTINUOUS
 10
-10.4833531024
 20
5.0464933651
 11
-12.7833531024
 21
5.0866400144
  0
LINE
  5
273
100
AcDbEntity
  8
RACCORDO
100
AcDbLine
 62
253
  6
CONTINUOUS
 10
-12.7833531024
 20
8.8139865062
 11
-17.2374066499
 21
8.7362407124
  0
LINE
  5
274
100
AcDbEntity
  8
RACCORDO
100
AcDbLine
 62
253
  6
CONTINUOUS
 10
-17.2374066517
 20
8.7362407123
 11
-17.4830433384
 21
8.7359167542
  0
LINE
  5
275
100
AcDbEntity
  8
RACCORDO
100
AcDbLine
 62
7
  6
CONTINUOUS
 10
-12.7833531024
 20
9.06394843
 11
-17.2374066499
 21
8.9862026362
  0
ARC
  5
276
100
AcDbEntity
  8
RACCORDO
100
AcDbCircle
 62
253
  6
CONTINUOUS
 10
0.4607896477
 20
8.7361498758
 40
0.2500532235
100
AcDbArc
 50
90.0208137446
 51
179.9791861971
  0
ARC
  5
277
100
AcDbEntity
  8
RACCORDO
100
AcDbCircle
 62
253
  6
CONTINUOUS
 10
24.3248992078
 20
8.7361498425
 40
0.2500532235
100
AcDbArc
 50
0.0208214393
 51
89.9791786148
  0
ARC
  5
278
100
AcDbEntity
  8
RACCORDO
100
AcDbCircle
 62
7
  6
CONTINUOUS
 10
407.5165998388
 20
9.2866400144
 40
425.0
100
AcDbArc
 50
180.0742450052
 51
182.2743633296
  0
ARC
  5
279
100
AcDbEntity
  8
RACCORDO
100
AcDbCircle
 62
253
  6
CONTINUOUS
 10
407.5121922427
 20
9.2866390068
 40
424.7499555006
100
AcDbArc
 50
180.0742448769
 51
182.2743634325
  0
ARC
  5
27A
100
AcDbEntity
  8
RACCORDO
100
AcDbCircle
 62
7
  6
CONTINUOUS
 10
-16.1493949384
 20
-7.5396747759
 40
1.0
100
AcDbArc
 50
182.2743631169
 51
260.0067390145
  0
ARC
  5
27B
100
AcDbEntity
  8
RACCORDO
100
AcDbCircle
 62
253
  6
CONTINUOUS
 10
-16.1537580086
 20
-7.5396747485
 40
0.7500000324
100
AcDbArc
 50
182.2743653267
 51
259.9999980034
  0
ARC
  5
27C
100
AcDbEntity
  8
RACCORDO
100
AcDbCircle
 62
7
  6
CONTINUOUS
 10
-17.233043552
 20
8.7362407123
 40
0.25
100
AcDbArc
 50
90.9999995795
 51
180.0742453772
  0
SPLINE
  5
27D
100
AcDbEntity
  8
RACCORDO
100
AcDbSpline
 62
253
  6
CONTINUOUS
 70
0
 71
3
 72
11
 73
7
 74
5
 42
0.0000001
 43
0.0000001
 44
0.0000000001
 12
0.38683832
 22
0.0011547123
 32
0.0
 13
0.0011902481
 23
0.3868382123
 33
0.0
 40
0.0
 40
0.0
 40
0.0
 40
0.0
 40
0.2516450084
 40
0.5024732455
 40
0.7518546884
 40
1.0
 40
1.0
 40
1.0
 40
1.0
 10
24.3416319541
 20
-8.524482529
 30
0.0
 10
24.3740805982
 20
-8.5243856698
 30
0.0
 10
24.4395210491
 20
-8.5114759746
 30
0.0
 10
24.5224515004
 20
-8.4567954692
 30
0.0
 10
24.5782510236
 20
-8.3750994469
 30
0.0
 10
24.5914954264
 20
-8.3102779536
 30
0.0
 10
24.5915938779
 20
-8.2782805907
 30
0.0
 11
24.3416319541
 21
-8.524482529
 31
0.0
 11
24.4371150086
 21
-8.5055272849
 31
0.0
 11
24.5181160369
 21
-8.4521069411
 31
0.0
 11
24.5723503653
 21
-8.372324493
 31
0.0
 11
24.5915938779
 21
-8.2782805907
 31
0.0
  0
SPLINE
  5
27E
100
AcDbEntity
  8
RACCORDO
100
AcDbSpline
 62
253
  6
CONTINUOUS
 70
0
 71
3
 72
10
 73
6
 74
4
 42
0.0000001
 43
0.0000001
 44
0.0000000001
 12
-0.0113038298
 22
16.305676414
 32
0.0
 13
-0.0003688178
 23
16.3056803279
 33
0.0
 40
0.0
 40
0.0
 40
0.0
 40
0.0
 40
0.3332438103
 40
0.6665833353
 40
1.0
 40
1.0
 40
1.0
 40
1.0
 10
24.580786172
 20
-7.5694383045
 30
0.0
 10
24.5795305283
 20
-5.7581830586
 30
0.0
 10
24.5774243317
 20
-2.1351520411
 30
0.0
 10
24.5754797704
 20
3.3000744292
 30
0.0
 10
24.5749929912
 20
6.924045529
 30
0.0
 10
24.5749520012
 20
8.7362407124
 30
0.0
 11
24.580786172
 21
-7.5694383045
 31
0.0
 11
24.5776270721
 21
-2.1356721796
 31
0.0
 11
24.5756823158
 21
3.2996552099
 31
0.0
 11
24.5749520012
 21
8.7362407124
 31
0.0
  0
SPLINE
  5
27F
100
AcDbEntity
  8
RACCORDO
100
AcDbSpline
 62
253
  6
CONTINUOUS
 70
0
 71
3
 72
13
 73
9
 74
7
 42
0.0000001
 43
0.0000001
 44
0.0000000001
 12
-0.0697449084
 22
0.7055622082
 32
0.0
 13
-0.0004945423
 23
0.7090008021
 33
0.0
 40
0.0
 40
0.0
 40
0.0
 40
0.0
 40
0.067670062
 40
0.185039209
 40
0.3460846781
 40
0.5425826087
 40
0.7644909754
 40
1.0
 40
1.0
 40
1.0
 40
1.0
 10
24.5915938779
 20
-8.2782805907
 30
0.0
 10
24.5900206638
 20
-8.2623654446
 30
0.0
 10
24.5882194542
 20
-8.2186373561
 30
0.0
 10
24.5857228918
 20
-8.1369036717
 30
0.0
 10
24.5837652211
 20
-8.0246714183
 30
0.0
 10
24.5821428219
 20
-7.8877403323
 30
0.0
 10
24.5811097157
 20
-7.7331997492
 30
0.0
 10
24.5808249951
 20
-7.6250970002
 30
0.0
 10
24.580786172
 20
-7.5694383045
 30
0.0
 11
24.5915938779
 21
-8.2782805907
 31
0.0
 11
24.5887656104
 21
-8.2303858852
 31
0.0
 11
24.5861909268
 21
-8.1472108858
 31
0.0
 11
24.5840072787
 21
-8.0330503736
 31
0.0
 11
24.5823265533
 21
-7.8937432878
 31
0.0
 11
24.5812342748
 21
-7.7364138312
 31
0.0
 11
24.580786172
 21
-7.5694383045
 31
0.0
  0
SPLINE
  5
280
100
AcDbEntity
  8
RACCORDO
100
AcDbSpline
 62
253
  6
CONTINUOUS
 70
0
 71
3
 72
11
 73
7
 74
5
 42
0.0000001
 43
0.0000001
 44
0.0000000001
 12
0.2504334586
 22
0.0001733425
 32
0.0
 13
0.1007369341
 23
0.2292793434
 33
0.0
 40
0.0
 40
0.0
 40
0.0
 40
0.0
 40
0.3780098767
 40
0.6998301192
 40
0.9177084861
 40
1.0
 40
1.0
 40
1.0
 40
1.0
 10
24.3308242482
 20
-7.5793594806
 30
0.0
 10
24.3623796885
 20
-7.5793376389
 30
0.0
 10
24.4197531319
 20
-7.5778206096
 30
0.0
 10
24.5000563645
 20
-7.5796805172
 30
0.0
 10
24.5444386535
 20
-7.5696035783
 30
0.0
 10
24.5780229071
 20
-7.5757275526
 30
0.0
 10
24.580786172
 20
-7.5694383045
 30
0.0
 11
24.3308242482
 21
-7.5793594806
 31
0.0
 11
24.4254871753
 21
-7.5785552197
 31
0.0
 11
24.5060527482
 21
-7.5763932545
 31
0.0
 11
24.5605230133
 21
-7.5731955469
 31
0.0
 11
24.580786172
 21
-7.5694383045
 31
0.0
  0
SPLINE
  5
281
100
AcDbEntity
  8
RACCORDO
100
AcDbSpline
 62
253
  6
CONTINUOUS
 70
0
 71
3
 72
11
 73
7
 74
5
 42
0.0000001
 43
0.0000001
 44
0.0000000001
 12
-0.2504333894
 22
0.0001733157
 32
0.0
 13
-0.100891158
 23
0.2292114456
 33
0.0
 40
0.0
 40
0.0
 40
0.0
 40
0.0
 40
0.3780028063
 40
0.699819341
 40
0.9176998002
 40
1.0
 40
1.0
 40
1.0
 40
1.0
 10
0.4548646406
 20
-7.5793590991
 30
0.0
 10
0.4233097993
 20
-7.5793372612
 30
0.0
 10
0.3659360811
 20
-7.5778206988
 30
0.0
 10
0.285637775
 20
-7.579679144
 30
0.0
 10
0.2412467111
 20
-7.5696051264
 30
0.0
 10
0.2076705045
 20
-7.5757263537
 30
0.0
 10
0.204902717
 20
-7.5694383045
 30
0.0
 11
0.4548646406
 21
-7.5793590991
 31
0.0
 11
0.3602035101
 21
-7.5785548821
 31
0.0
 11
0.2796388858
 21
-7.5763930147
 31
0.0
 11
0.2251681035
 21
-7.573195432
 31
0.0
 11
0.204902717
 21
-7.5694383045
 31
0.0
  0
SPLINE
  5
282
100
AcDbEntity
  8
RACCORDO
100
AcDbSpline
 62
253
  6
CONTINUOUS
 70
0
 71
3
 72
11
 73
7
 74
5
 42
0.0000001
 43
0.0000001
 44
0.0000000001
 12
-0.3868383201
 22
0.0011547063
 32
0.0
 13
-0.0011902476
 23
0.3868382124
 33
0.0
 40
0.0
 40
0.0
 40
0.0
 40
0.0
 40
0.2516413801
 40
0.5024677937
 40
0.7518503673
 40
1.0
 40
1.0
 40
1.0
 40
1.0
 10
0.4440569348
 20
-8.524482529
 30
0.0
 10
0.4116087585
 20
-8.5243856717
 30
0.0
 10
0.3461690386
 20
-8.5114763109
 30
0.0
 10
0.2632387031
 20
-8.4567967334
 30
0.0
 10
0.2074382548
 20
-8.3751007414
 30
0.0
 10
0.1941934641
 20
-8.3102785108
 30
0.0
 10
0.194095011
 20
-8.2782805907
 30
0.0
 11
0.4440569348
 21
-8.524482529
 31
0.0
 11
0.3485752033
 21
-8.5055278286
 31
0.0
 11
0.267574383
 21
-8.4521084506
 31
0.0
 11
0.213339187
 21
-8.3723260635
 31
0.0
 11
0.194095011
 21
-8.2782805907
 31
0.0
  0
SPLINE
  5
283
100
AcDbEntity
  8
RACCORDO
100
AcDbSpline
 62
253
  6
CONTINUOUS
 70
0
 71
3
 72
13
 73
9
 74
7
 42
0.0000001
 43
0.0000001
 44
0.0000000001
 12
-0.0699598767
 22
0.9426700947
 32
0.0
 13
-0.0004956866
 23
0.9452624219
 33
0.0
 40
0.0
 40
0.0
 40
0.0
 40
0.0
 40
0.0677288309
 40
0.1850705568
 40
0.3460273911
 40
0.5424159042
 40
0.7642592122
 40
1.0
 40
1.0
 40
1.0
 40
1.0
 10
24.3416334276
 20
-8.5245029461
 30
0.0
 10
24.340053994
 20
-8.503220965
 30
0.0
 10
24.3382585558
 20
-8.4449092516
 30
0.0
 10
24.3357592716
 20
-8.3359239413
 30
0.0
 10
24.3338040552
 20
-8.1863600222
 30
0.0
 10
24.3321815594
 20
-8.0038746019
 30
0.0
 10
24.3311480993
 20
-7.7978171969
 30
0.0
 10
24.3308631994
 20
-7.6536384463
 30
0.0
 10
24.3308242482
 20
-7.5793594769
 30
0.0
 11
24.3416334276
 21
-8.5245029461
 31
0.0
 11
24.3388013035
 21
-8.4605440917
 31
0.0
 11
24.3362278596
 21
-8.3496552099
 31
0.0
 11
24.3340455236
 21
-8.1975243941
 31
0.0
 11
24.3323654687
 21
-8.0118932896
 31
0.0
 11
24.3312730605
 21
-7.8021959636
 31
0.0
 11
24.3308242482
 21
-7.5793594769
 31
0.0
  0
SPLINE
  5
284
100
AcDbEntity
  8
RACCORDO
100
AcDbSpline
 62
253
  6
CONTINUOUS
 70
0
 71
3
 72
13
 73
9
 74
7
 42
0.0000001
 43
0.0000001
 44
0.0000000001
 12
-0.0004956866
 22
-0.945262422
 32
0.0
 13
-0.0699598766
 23
-0.9426700949
 33
0.0
 40
0.0
 40
0.0
 40
0.0
 40
0.0
 40
0.2357407887
 40
0.4575840967
 40
0.6539726098
 40
0.814929444
 40
0.9322711696
 40
1.0
 40
1.0
 40
1.0
 40
1.0
 10
0.4548646406
 20
-7.5793594769
 30
0.0
 10
0.4548256895
 20
-7.6536384466
 30
0.0
 10
0.4545407896
 20
-7.7978171976
 30
0.0
 10
0.4535073295
 20
-8.0038746028
 30
0.0
 10
0.4518848337
 20
-8.1863600232
 30
0.0
 10
0.4499296173
 20
-8.3359239421
 30
0.0
 10
0.4474303331
 20
-8.4449092521
 30
0.0
 10
0.4456348949
 20
-8.5032209653
 30
0.0
 10
0.4440554613
 20
-8.5245029463
 30
0.0
 11
0.4548646406
 21
-7.5793594769
 31
0.0
 11
0.4544158284
 21
-7.8021959645
 31
0.0
 11
0.4533234202
 21
-8.0118932905
 31
0.0
 11
0.4516433653
 21
-8.1975243951
 31
0.0
 11
0.4494610293
 21
-8.3496552107
 31
0.0
 11
0.4468875854
 21
-8.4605440923
 31
0.0
 11
0.4440554613
 21
-8.5245029463
 31
0.0
  0
SPLINE
  5
285
100
AcDbEntity
  8
RACCORDO
100
AcDbSpline
 62
253
  6
CONTINUOUS
 70
0
 71
3
 72
10
 73
6
 74
4
 42
0.0000001
 43
0.0000001
 44
0.0000000001
 12
-0.0113038298
 22
16.3152736314
 32
0.0
 13
-0.0003688178
 23
16.3152775431
 33
0.0
 40
0.0
 40
0.0
 40
0.0
 40
0.0
 40
0.3332433867
 40
0.6665824236
 40
1.0
 40
1.0
 40
1.0
 40
1.0
 10
24.3308242482
 20
-7.5793594769
 30
0.0
 10
24.3295686061
 20
-5.7670404639
 30
0.0
 10
24.3274624118
 20
-2.1418819563
 30
0.0
 10
24.3255178481
 20
3.2965435858
 30
0.0
 10
24.3250310676
 20
6.9226499904
 30
0.0
 10
24.3249900775
 20
8.7359167558
 30
0.0
 11
24.3308242482
 21
-7.5793594769
 31
0.0
 11
24.3276651515
 21
-2.1424020507
 31
0.0
 11
24.3257203957
 21
3.2961165071
 31
0.0
 11
24.3249900775
 21
8.7359167558
 31
0.0
  0
SPLINE
  5
286
100
AcDbEntity
  8
RACCORDO
100
AcDbSpline
 62
253
  6
CONTINUOUS
 70
0
 71
3
 72
13
 73
9
 74
7
 42
0.0000001
 43
0.0000001
 44
0.0000000001
 12
-0.0004945423
 22
-0.7090008021
 32
0.0
 13
-0.0697449077
 23
-0.7055622083
 33
0.0
 40
0.0
 40
0.0
 40
0.0
 40
0.0
 40
0.2355090256
 40
0.4574173923
 40
0.6539153229
 40
0.8149607919
 40
0.9323299387
 40
1.0
 40
1.0
 40
1.0
 40
1.0
 10
0.2049027169
 20
-7.5694383045
 30
0.0
 10
0.2048638938
 20
-7.6250970005
 30
0.0
 10
0.2045791732
 20
-7.7331997496
 30
0.0
 10
0.203546067
 20
-7.887740333
 30
0.0
 10
0.2019236678
 20
-8.024671419
 30
0.0
 10
0.199965997
 20
-8.1369036723
 30
0.0
 10
0.1974694346
 20
-8.2186373565
 30
0.0
 10
0.195668225
 20
-8.2623654447
 30
0.0
 10
0.194095011
 20
-8.2782805907
 30
0.0
 11
0.2049027169
 21
-7.5694383045
 31
0.0
 11
0.2044546141
 21
-7.7364138318
 31
0.0
 11
0.2033623356
 21
-7.8937432885
 31
0.0
 11
0.2016816102
 21
-8.0330503743
 31
0.0
 11
0.1994979621
 21
-8.1472108864
 31
0.0
 11
0.1969232784
 21
-8.2303858857
 31
0.0
 11
0.194095011
 21
-8.2782805907
 31
0.0
  0
SPLINE
  5
287
100
AcDbEntity
  8
RACCORDO
100
AcDbSpline
 62
253
  6
CONTINUOUS
 70
0
 71
3
 72
10
 73
6
 74
4
 42
0.0000001
 43
0.0000001
 44
0.0000000001
 12
-0.0003688178
 22
-16.3056803279
 32
0.0
 13
-0.0113038298
 23
-16.305676414
 33
0.0
 40
0.0
 40
0.0
 40
0.0
 40
0.0
 40
0.3334166647
 40
0.6667561897
 40
1.0
 40
1.0
 40
1.0
 40
1.0
 10
0.2107368876
 20
8.7362407124
 30
0.0
 10
0.2106958976
 20
6.924045529
 30
0.0
 10
0.2102091185
 20
3.3000744292
 30
0.0
 10
0.2082645572
 20
-2.1351520411
 30
0.0
 10
0.2061583606
 20
-5.7581830586
 30
0.0
 10
0.2049027169
 20
-7.5694383045
 30
0.0
 11
0.2107368876
 21
8.7362407124
 31
0.0
 11
0.2100065731
 21
3.2996552099
 31
0.0
 11
0.2080618168
 21
-2.1356721796
 31
0.0
 11
0.2049027169
 21
-7.5694383045
 31
0.0
  0
SPLINE
  5
288
100
AcDbEntity
  8
RACCORDO
100
AcDbSpline
 62
253
  6
CONTINUOUS
 70
0
 71
3
 72
10
 73
6
 74
4
 42
0.0000001
 43
0.0000001
 44
0.0000000001
 12
-0.0003688178
 22
-16.3152775431
 32
0.0
 13
-0.0113038298
 23
-16.3152736314
 33
0.0
 40
0.0
 40
0.0
 40
0.0
 40
0.0
 40
0.3334175764
 40
0.6667566133
 40
1.0
 40
1.0
 40
1.0
 40
1.0
 10
0.4606988114
 20
8.7359167558
 30
0.0
 10
0.4606578213
 20
6.9226499904
 30
0.0
 10
0.4601710408
 20
3.2965435858
 30
0.0
 10
0.4582264771
 20
-2.1418819563
 30
0.0
 10
0.4561202828
 20
-5.7670404639
 30
0.0
 10
0.4548646406
 20
-7.5793594769
 30
0.0
 11
0.4606988114
 21
8.7359167558
 31
0.0
 11
0.4599684932
 21
3.2961165071
 31
0.0
 11
0.4580237374
 21
-2.1424020507
 31
0.0
 11
0.4548646406
 21
-7.5793594769
 31
0.0
  0
SPLINE
  5
289
100
AcDbEntity
  8
RACCORDO
100
AcDbSpline
 62
253
  6
CONTINUOUS
 70
0
 71
3
 72
11
 73
7
 74
5
 42
0.0000001
 43
0.0000001
 44
0.0000000001
 12
-0.2455491794
 22
0.0432969454
 32
0.0
 13
0.0432841725
 23
0.2455514313
 33
0.0
 40
0.0
 40
0.0
 40
0.0
 40
0.0
 40
0.0763190028
 40
0.2929608683
 40
0.6172374667
 40
1.0
 40
1.0
 40
1.0
 40
1.0
 10
-16.3230431161
 20
-8.524482529
 30
0.0
 10
-16.3292898056
 20
-8.5233810691
 30
0.0
 10
-16.3114174344
 20
-8.4867868146
 30
0.0
 10
-16.3168994708
 20
-8.4473289653
 30
0.0
 10
-16.297620483
 20
-8.3658963811
 30
0.0
 10
-16.2895166931
 20
-8.3096098867
 30
0.0
 10
-16.2839941733
 20
-8.2782805907
 30
0.0
 11
-16.3230431161
 21
-8.524482529
 31
0.0
 11
-16.321367462
 21
-8.5055272849
 31
0.0
 11
-16.3133618951
 21
-8.4521069411
 31
0.0
 11
-16.300240759
 21
-8.372324493
 31
0.0
 11
-16.2839941733
 21
-8.2782805907
 31
0.0
  0
SPLINE
  5
28A
100
AcDbEntity
  8
RACCORDO
100
AcDbSpline
 62
253
  6
CONTINUOUS
 70
0
 71
3
 72
12
 73
8
 74
6
 42
0.0000001
 43
0.0000001
 44
0.0000000001
 12
-0.0043622966
 22
0.2499919495
 32
0.0
 13
0.2499919263
 23
0.0043636246
 33
0.0
 40
0.0
 40
0.0
 40
0.0
 40
0.0
 40
0.3040313529
 40
0.5831752305
 40
0.8071244556
 40
0.9503222254
 40
1.0
 40
1.0
 40
1.0
 40
1.0
 10
-17.2374066499
 20
8.7362407124
 30
0.0
 10
-17.2378487416
 20
8.7615758426
 30
0.0
 10
-17.2389437297
 20
8.8106285689
 30
0.0
 10
-17.2380960071
 20
8.8761122911
 30
0.0
 10
-17.2419808449
 20
8.9346010232
 30
0.0
 10
-17.2343357312
 20
8.9605029511
 30
0.0
 10
-17.2415463308
 20
8.9861303778
 30
0.0
 10
-17.2374066499
 20
8.9862026362
 30
0.0
 11
-17.2374066499
 21
8.7362407124
 31
0.0
 11
-17.2385263731
 21
8.8122494265
 31
0.0
 11
-17.2391317178
 21
8.882041147
 31
0.0
 11
-17.2391396526
 21
8.9380351728
 31
0.0
 11
-17.2385449766
 21
8.9738339732
 31
0.0
 11
-17.2374066499
 21
8.9862026362
 31
0.0
  0
ELLIPSE
  5
28B
100
AcDbEntity
  8
RACCORDO
100
AcDbEllipse
 62
7
  6
CONTINUOUS
 10
24.4428063624
 20
-9.163350466
 30
0.0
 11
0.2236527791
 21
-0.1118178731
 31
0.0
 40
0.9998096356
 41
-1.1071030277
 42
0.4635410001
  0
ELLIPSE
  5
28C
100
AcDbEntity
  8
RACCORDO
100
AcDbEllipse
 62
7
  6
CONTINUOUS
 10
24.4026597131
 20
8.813910348
 30
0.0
 11
0.1768305473
 21
0.1768305473
 31
0.0
 40
0.9996954599
 41
-0.7852458702
 42
0.7852458701
  0
ELLIPSE
  5
28D
100
AcDbEntity
  8
RACCORDO
100
AcDbEllipse
 62
7
  6
CONTINUOUS
 10
0.3428825265
 20
-9.163350466
 30
0.0
 11
0.2236527791
 21
0.1118178731
 31
0.0
 40
0.9998096356
 41
2.6780516535
 42
4.2486956813
  0
ELLIPSE
  5
28E
100
AcDbEntity
  8
RACCORDO
100
AcDbEllipse
 62
7
  6
CONTINUOUS
 10
0.3830291758
 20
8.813910348
 30
0.0
 11
0.1768305473
 21
-0.1768305473
 31
0.0
 40
0.9996954599
 41
2.3563467834
 42
3.9268385237
  0
ELLIPSE
  5
28F
100
AcDbEntity
  8
RACCORDO
100
AcDbEllipse
 62
7
  6
CONTINUOUS
 10
24.3991687001
 20
-8.8595033326
 30
0.0
 11
-0.0250113895
 21
0.2526592035
 31
0.0
 40
0.9846622838
 41
-3.2387599651
 42
-1.6709942215
  0
ELLIPSE
  5
290
100
AcDbEntity
  8
RACCORDO
100
AcDbEllipse
 62
7
  6
CONTINUOUS
 10
0.3865201888
 20
-8.8595033326
 30
0.0
 11
0.0250113895
 21
0.2526592035
 31
0.0
 40
0.9846622838
 41
-4.6121910857
 42
-3.0444253421
  0
ELLIPSE
  5
291
100
AcDbEntity
  8
RACCORDO
100
AcDbEllipse
 62
7
  6
CONTINUOUS
 10
0.3865201888
 20
-9.1415332965
 30
0.0
 11
-0.2236527791
 21
-0.1118178731
 31
-0.0
 40
0.9998096356
 41
-0.4635410001
 42
1.1071030277
  0
ELLIPSE
  5
292
100
AcDbEntity
  8
RACCORDO
100
AcDbEllipse
 62
7
  6
CONTINUOUS
 10
24.3991687001
 20
-9.1415332965
 30
0.0
 11
-0.2236527791
 21
0.1118178731
 31
-0.0
 40
0.9998096356
 41
2.0344896259
 42
3.6051336537
  0
ENDSEC
  0
SECTION
  2
OBJECTS
  0
DICTIONARY
  5
C
100
AcDbDictionary
280
0
281
1
  3
ACAD_GROUP
350
D
  3
ACAD_MLINESTYLE
350
17
  3
ACAD_LAYOUT
350
1A
  3
ACAD_PLOTSETTINGS
350
19
  3
ACAD_PLOTSTYLENAME
350
E
  0
DICTIONARY
  5
D
102
{ACAD_REACTORS
330
C
102
}
100
AcDbDictionary
280
0
281
1
  0
ACDBDICTIONARYWDFLT
  5
E
102
{ACAD_REACTORS
330
C
102
}
100
AcDbDictionary
281
1
  3
Normal
350
F
100
AcDbDictionaryWithDefault
340
F
  0
DICTIONARY
  5
17
102
{ACAD_REACTORS
330
C
102
}
100
AcDbDictionary
280
0
281
1
  3
Standard
350
18
  0
DICTIONARY
  5
19
102
{ACAD_REACTORS
330
C
102
}
100
AcDbDictionary
281
1
  0
DICTIONARY
  5
1A
102
{ACAD_REACTORS
330
C
102
}
100
AcDbDictionary
281
1
  3
Model
350
293
  3
Layout1
350
294
  0
ACDBPLACEHOLDER
  5
F
102
{ACAD_REACTORS
330
E
102
}
  0
MLINESTYLE
  5
18
102
{ACAD_REACTORS
330
17
102
}
100
AcDbMlineStyle
  2
STANDARD
 70
0
  3

 62
256
 51
90.0
 52
90.0
 71
2
 49
0.5
 62
256
  6
BYLAYER
 49
-0.5
 62
256
  6
BYLAYER
  0
LAYOUT
  5
293
102
{ACAD_REACTORS
330
1A
102
}
100
AcDbPlotSettings
  1

  2
none_device
  4
ISO_A4_(297.00_x_210.00_MM)
  6

 40
0.0
 41
0.0
 42
0.0
 43
0.0
 44
297.0
 45
210.0
 46
0.0
 47
0.0
 48
0.0
 49
0.0
140
0.0
141
0.0
142
1.0
143
1.0
 70
1024
 72
1
 73
0
 74
0
  7

 75
0
147
1.0
148
0.0
149
0.0
100
AcDbLayout
  1
Model
 70
0
 71
0
 10
0.0
 20
0.0
 11
297.0
 21
210.0
 12
0.0
 22
0.0
 32
0.0
 14
0.0
 24
0.0
 34
0.0
 15
0.0
 25
0.0
 35
0.0
146
0.0
 13
0.0
 23
0.0
 33
0.0
 16
1.0
 26
0.0
 36
0.0
 17
0.0
 27
1.0
 37
0.0
 76
0
330
20C
345
0
346
0
  0
LAYOUT
  5
294
102
{ACAD_REACTORS
330
1A
102
}
100
AcDbPlotSettings
  1

  2
none_device
  4
ISO_A4_(297.00_x_210.00_MM)
  6

 40
0.0
 41
0.0
 42
0.0
 43
0.0
 44
297.0
 45
210.0
 46
0.0
 47
0.0
 48
0.0
 49
0.0
140
0.0
141
0.0
142
1.0
143
1.0
 70
0
 72
1
 73
0
 74
0
  7

 75
0
147
1.0
148
0.0
149
0.0
100
AcDbLayout
  1
Layout1
 70
0
 71
1
 10
0.0
 20
0.0
 11
297.0
 21
210.0
 12
0.0
 22
0.0
 32
0.0
 14
0.0
 24
0.0
 34
0.0
 15
0.0
 25
0.0
 35
0.0
146
0.0
 13
0.0
 23
0.0
 33
0.0
 16
1.0
 26
0.0
 36
0.0
 17
0.0
 27
1.0
 37
0.0
 76
0
330
20D
345
0
346
0
  0
ENDSEC
  0
EOF
