  0
SECTION
  2
HEADER
  9
$ACADVER
  1
AC1015
  9
$DWGCODEPAGE
  3
ANSI_1252
  9
$EXTMAX
 10
297.0
 20
210.0
 30
0.0
  9
$EXTMIN
 10
0.0
 20
0.0
 30
0.0
  9
$LIMMIN
 10
0.0
 20
0.0
  9
$LIMMAX
 10
297.0
 20
210.0
  9
$VIEWCTR
 10
148.5
 20
105.0
  9
$VIEWSIZE
 40
210.0
  9
$CLAYER
  8
0
  9
$LTSCALE
 40
16.335
  9
$CELTYPE
  6
BYLAYER
  9
$DIMSCALE
 40
1.0
  9
$DIMASZ
 40
3.0
  9
$DIMEXO
 40
1.85625
  9
$DIMDLI
 40
11.286
  9
$DIMEXE
 40
5.346
  9
$DIMCEN
 40
2.673
  9
$DIMLFAC
 40
1.0
  9
$DIMBLK
  1
_FILLED
  9
$DIMTXT
 40
3.0
  9
$DIMTOL
 70
1
  9
$DIMLIM
 70
0
  9
$DIMTFAC
 40
1.0
  9
$DIMTP
 40
0.01
  9
$DIMTM
 40
0.01
  9
$PDMODE
 70
3
  9
$PDSIZE
 40
3.0
  9
$HANDSEED
  5
29B
  9
$TILEMODE
 70
1
  9
$MEASUREMENT
 70
1
  9
$INSUNITS
 70
4
  0
ENDSEC
  0
SECTION
  2
CLASSES
  0
CLASS
  1
ACDBDICTIONARYWDFLT
  2
AcDbDictionaryWithDefault
  3
AutoCAD 2000
 90
0
280
0
281
0
  0
CLASS
  1
ACDBPLACEHOLDER
  2
AcDbPlaceHolder
  3
AutoCAD 2000
 90
0
280
0
281
0
  0
CLASS
  1
LAYOUT
  2
AcDbLayout
  3
AutoCAD 2000
 90
0
280
0
281
0
  0
ENDSEC
  0
SECTION
  2
TABLES
  0
TABLE
  2
VPORT
  5
8
100
AcDbSymbolTable
 70
2
  0
VPORT
  5
1F4
100
AcDbSymbolTableRecord
100
AcDbViewportTableRecord
  2
*ACTIVE
 70
0
 10
0.0
 20
0.0
 11
1.0
 21
1.0
 12
148.5
 22
105.0
 13
0.0
 23
0.0
 14
1.0
 24
1.0
 15
0.0
 25
0.0
 16
0.0
 26
0.0
 36
1.0
 17
0.0
 27
0.0
 37
0.0
 40
210.0
 41
1.4142857143
 42
50.0
 43
0.0
 44
0.0
 50
0.0
 51
0.0
 71
0
 72
100
 73
1
 74
1
 75
0
 76
0
 77
0
 78
0
  0
ENDTAB
  0
TABLE
  2
LTYPE
  5
5
100
AcDbSymbolTable
 70
6
  0
LTYPE
  5
14
100
AcDbSymbolTableRecord
100
AcDbLinetypeTableRecord
  2
BYBLOCK
 70
0
  3

 72
65
 73
0
 40
0.0
  0
LTYPE
  5
15
100
AcDbSymbolTableRecord
100
AcDbLinetypeTableRecord
  2
BYLAYER
 70
0
  3

 72
65
 73
0
 40
0.0
  0
LTYPE
  5
16
100
AcDbSymbolTableRecord
100
AcDbLinetypeTableRecord
  2
CONTINUOUS
 70
64
  3
Solid line
 72
65
 73
0
 40
0.0
  0
LTYPE
  5
1F5
100
AcDbSymbolTableRecord
100
AcDbLinetypeTableRecord
  2
CENTER
 70
64
  3
____ _ ____ _ ____ _ ____ _ ____ _ ____ _ ____
 72
65
 73
4
 40
0.6
 49
0.375
 74
0
 49
-0.075
 74
0
 49
0.075
 74
0
 49
-0.075
 74
0
  0
LTYPE
  5
1F6
100
AcDbSymbolTableRecord
100
AcDbLinetypeTableRecord
  2
HIDDEN
 70
64
  3
- - - - - - - - - - - - - - - - - - - -
 72
65
 73
2
 40
0.2
 49
0.1
 74
0
 49
-0.1
 74
0
  0
LTYPE
  5
1F7
100
AcDbSymbolTableRecord
100
AcDbLinetypeTableRecord
  2
PHANTOM
 70
64
  3
_____ _ _ _____ _ _ _____ _ _ _____
 72
65
 73
6
 40
0.8
 49
0.45
 74
0
 49
-0.05
 74
0
 49
0.1
 74
0
 49
-0.05
 74
0
 49
0.1
 74
0
 49
-0.05
 74
0
  0
LTYPE
  5
1F8
100
AcDbSymbolTableRecord
100
AcDbLinetypeTableRecord
  2
DOT
 70
64
  3
. . . . . . . . . . . . . . . . . . . .
 72
65
 73
2
 40
0.2
 49
0.1
 74
0
 49
-0.1
 74
0
  0
LTYPE
  5
1F9
100
AcDbSymbolTableRecord
100
AcDbLinetypeTableRecord
  2
DASHED
 70
64
  3
- - - - - - - - - - - - - - - - - - - -
 72
65
 73
2
 40
0.2
 49
0.1
 74
0
 49
-0.1
 74
0
  0
ENDTAB
  0
TABLE
  2
LAYER
  5
2
100
AcDbSymbolTable
 70
36
  0
LAYER
  5
10
100
AcDbSymbolTableRecord
100
AcDbLayerTableRecord
  2
0
 70
0
 62
7
  6
CONTINUOUS
370
-3
390
F
  0
LAYER
  5
1FA
100
AcDbSymbolTableRecord
100
AcDbLayerTableRecord
  2
DEFAULT_1
 70
0
 62
7
  6
CENTER
370
-3
390
F
  0
LAYER
  5
1FB
100
AcDbSymbolTableRecord
100
AcDbLayerTableRecord
  2
DEFAULT_2
 70
0
 62
7
  6
HIDDEN
370
-3
390
F
  0
LAYER
  5
1FC
100
AcDbSymbolTableRecord
100
AcDbLayerTableRecord
  2
DEFAULT_3
 70
0
 62
7
  6
PHANTOM
370
-3
390
F
  0
LAYER
  5
1FD
100
AcDbSymbolTableRecord
100
AcDbLayerTableRecord
  2
ASSI
 70
0
 62
7
  6
CONTINUOUS
370
-3
390
F
  0
LAYER
  5
1FE
100
AcDbSymbolTableRecord
100
AcDbLayerTableRecord
  2
COORDINATE
 70
0
 62
7
  6
CONTINUOUS
370
-3
390
F
  0
LAYER
  5
1FF
100
AcDbSymbolTableRecord
100
AcDbLayerTableRecord
  2
COORD_ORIGINE
 70
0
 62
7
  6
CONTINUOUS
370
-3
390
F
  0
LAYER
  5
200
100
AcDbSymbolTableRecord
100
AcDbLayerTableRecord
  2
CURVE
 70
0
 62
7
  6
CONTINUOUS
370
-3
390
F
  0
LAYER
  5
201
100
AcDbSymbolTableRecord
100
AcDbLayerTableRecord
  2
DRAFT
 70
0
 62
7
  6
CONTINUOUS
370
-3
390
F
  0
LAYER
  5
202
100
AcDbSymbolTableRecord
100
AcDbLayerTableRecord
  2
IGES
 70
0
 62
7
  6
CONTINUOUS
370
-3
390
F
  0
LAYER
  5
203
100
AcDbSymbolTableRecord
100
AcDbLayerTableRecord
  2
NOTE
 70
0
 62
7
  6
CONTINUOUS
370
-3
390
F
  0
LAYER
  5
204
100
AcDbSymbolTableRecord
100
AcDbLayerTableRecord
  2
PIANI
 70
0
 62
7
  6
CONTINUOUS
370
-3
390
F
  0
LAYER
  5
205
100
AcDbSymbolTableRecord
100
AcDbLayerTableRecord
  2
PIANI_ORIGINE
 70
0
 62
7
  6
CONTINUOUS
370
-3
390
F
  0
LAYER
  5
206
100
AcDbSymbolTableRecord
100
AcDbLayerTableRecord
  2
RACCORDO
 70
0
 62
7
  6
CONTINUOUS
370
-3
390
F
  0
LAYER
  5
207
100
AcDbSymbolTableRecord
100
AcDbLayerTableRecord
  2
SNAPLINE
 70
0
 62
7
  6
CONTINUOUS
370
-3
390
F
  0
LAYER
  5
208
100
AcDbSymbolTableRecord
100
AcDbLayerTableRecord
  2
SUPERFICI
 70
0
 62
7
  6
CONTINUOUS
370
-3
390
F
  0
LAYER
  5
209
100
AcDbSymbolTableRecord
100
AcDbLayerTableRecord
  2
TRASH
 70
0
 62
7
  6
CONTINUOUS
370
-3
390
F
  0
ENDTAB
  0
TABLE
  2
STYLE
  5
3
100
AcDbSymbolTable
 70
1
  0
STYLE
  5
11
100
AcDbSymbolTableRecord
100
AcDbTextStyleTableRecord
  2
STANDARD
 70
0
 40
0.0
 41
0.8
 50
0.0
 71
0
 42
0.2
  3
txt
  4

  0
STYLE
  5
20A
100
AcDbSymbolTableRecord
100
AcDbTextStyleTableRecord
  2
TEXTSTYLE_1
 70
0
 40
0.0
 41
0.8
 50
0.0
 71
0
 42
0.2
  3
gdt
  4

  0
ENDTAB
  0
TABLE
  2
VIEW
  5
6
100
AcDbSymbolTable
 70
0
  0
ENDTAB
  0
TABLE
  2
UCS
  5
7
100
AcDbSymbolTable
 70
0
  0
ENDTAB
  0
TABLE
  2
APPID
  5
9
100
AcDbSymbolTable
 70
1
  0
APPID
  5
20B
100
AcDbSymbolTableRecord
100
AcDbRegAppTableRecord
  2
ACAD
 70
0
  0
ENDTAB
  0
TABLE
  2
BLOCK_RECORD
  5
1
100
AcDbSymbolTable
 70
0
  0
BLOCK_RECORD
  5
20C
100
AcDbSymbolTableRecord
100
AcDbBlockTableRecord
  2
*Model_Space
  0
BLOCK_RECORD
  5
20D
100
AcDbSymbolTableRecord
100
AcDbBlockTableRecord
  2
*Paper_Space
  0
BLOCK_RECORD
  5
20E
100
AcDbSymbolTableRecord
100
AcDbBlockTableRecord
  2
_FILLED
  0
BLOCK_RECORD
  5
20F
100
AcDbSymbolTableRecord
100
AcDbBlockTableRecord
  2
*D0
  0
BLOCK_RECORD
  5
210
100
AcDbSymbolTableRecord
100
AcDbBlockTableRecord
  2
*D1
  0
BLOCK_RECORD
  5
211
100
AcDbSymbolTableRecord
100
AcDbBlockTableRecord
  2
*D2
  0
ENDTAB
  0
TABLE
  2
DIMSTYLE
  5
A
100
AcDbSymbolTable
 70
1
100
AcDbDimStyleTable
 71
0
  0
DIMSTYLE
105
212
100
AcDbSymbolTableRecord
100
AcDbDimStyleTableRecord
  2
STANDARD
 70
0
  3

  4

 40
1.0
 41
3.0
 42
0.0625
 43
0.38
 44
0.18
 45
0.0
 46
0.0
 47
0.01
 48
0.01
140
3.0
141
0.09
142
0.0
143
25.4
144
1.0
145
0.0
146
1.0
147
0.09
 71
1.0
 72
0.0
 73
0
 74
0
 75
0
 76
0
 77
1
 78
8
170
0
171
2
172
0
173
0
174
0
175
0
176
0
177
0
178
0
270
2
271
2
272
2
273
2
274
2
275
0
280
0
281
0
282
0
283
1
284
8
285
0
286
0
287
3
288
0
340
11
341
20E
342
20E
343
20E
344
20E
  0
DIMSTYLE
105
213
100
AcDbSymbolTableRecord
100
AcDbDimStyleTableRecord
  2
DIMSTYLE_1
 70
0
  3

  4

 40
1.0
 41
3.0
 42
0.0625
 43
0.38
 44
0.18
 45
0.0
 46
0.0
 47
0.0
 48
0.0
140
3.0
141
0.09
142
0.0
143
25.4
144
1.0
145
0.0
146
1.0
147
0.09
 71
0.0
 72
0.0
 73
0
 74
0
 75
0
 76
0
 77
1
 78
8
170
0
171
2
172
0
173
0
174
0
175
0
176
0
177
0
178
0
270
2
271
2
272
2
273
2
274
2
275
0
280
0
281
0
282
0
283
1
284
8
285
0
286
0
287
3
288
0
340
11
341
20E
342
20E
343
20E
344
20E
  0
DIMSTYLE
105
214
100
AcDbSymbolTableRecord
100
AcDbDimStyleTableRecord
  2
DIMSTYLE_2
 70
0
  3

  4

 40
1.0
 41
3.0
 42
0.0625
 43
0.38
 44
0.18
 45
0.0
 46
0.0
 47
0.0
 48
0.0
140
3.0
141
0.09
142
0.0
143
25.4
144
1.0
145
0.0
146
1.0
147
0.09
 71
0.0
 72
0.0
 73
0
 74
0
 75
0
 76
0
 77
1
 78
8
170
0
171
2
172
0
173
0
174
0
175
0
176
0
177
0
178
0
270
2
271
1
272
1
273
2
274
2
275
0
280
0
281
0
282
0
283
1
284
8
285
0
286
0
287
3
288
0
340
11
341
20E
342
20E
343
20E
344
20E
  0
ENDTAB
  0
ENDSEC
  0
SECTION
  2
BLOCKS
  0
BLOCK
  5
20
100
AcDbEntity
  8
0
100
AcDbBlockBegin
  2
*Model_Space
 70
0
 10
0.0
 20
0.0
 30
0.0
  3
*Model_Space
  1

  0
ENDBLK
  5
21
100
AcDbEntity
  8
0
100
AcDbBlockEnd
  0
BLOCK
  5
1C
100
AcDbEntity
  8
0
100
AcDbBlockBegin
  2
*Paper_Space
 70
0
 10
0.0
 20
0.0
 30
0.0
  3
*Paper_Space
  1

  0
ENDBLK
  5
1D
100
AcDbEntity
  8
0
100
AcDbBlockEnd
  0
BLOCK
  5
215
100
AcDbEntity
  8
0
100
AcDbBlockBegin
  2
_FILLED
 70
64
 10
0.0
 20
0.0
  3
_FILLED
  1

  0
SOLID
  5
216
100
AcDbEntity
  8
0
  6
BYBLOCK
 62
0
100
AcDbTrace
 10
0.0
 20
0.0
 11
-1.0
 21
0.3166666667
 12
-1.0
 22
-0.3166666667
 13
-1.0
 23
-0.3166666667
  0
ENDBLK
  5
217
100
AcDbEntity
  8
0
  6
BYBLOCK
 62
0
100
AcDbBlockEnd
  0
BLOCK
  5
218
100
AcDbEntity
  8
0
100
AcDbBlockBegin
 62
7
  6
CONTINUOUS
  2
*D0
 70
65
 10
0.0
 20
0.0
  3
*D0
  1

  0
MTEXT
  5
219
100
AcDbEntity
  8
0
100
AcDbMText
 62
7
  6
CONTINUOUS
  7
STANDARD
 71
2
 72
1
 10
-25.8415911111
 20
21.0431786522
 30
0.0
 11
1.0
 21
0.0
 31
0.0
 44
0.9
  1
9,8
 40
3.0
 41
6.4285714286
  0
LINE
  5
21A
100
AcDbEntity
  8
0
100
AcDbLine
 62
7
  6
CONTINUOUS
 10
-20.9417459912
 20
0.8180920821
 11
-20.9417459912
 21
18.7931786522
  0
LINE
  5
21B
100
AcDbEntity
  8
0
100
AcDbLine
 62
7
  6
CONTINUOUS
 10
-30.741436231
 20
9.4651469797
 11
-30.741436231
 21
18.7931786522
  0
LINE
  5
21C
100
AcDbEntity
  8
0
100
AcDbLine
 62
7
  6
CONTINUOUS
 10
-20.9417459912
 20
17.2931786522
 11
-16.9417459912
 21
17.2931786522
  0
LINE
  5
21D
100
AcDbEntity
  8
0
100
AcDbLine
 62
7
  6
CONTINUOUS
 10
-16.9417459912
 20
17.2931786522
 11
-25.8415911111
 21
17.2931786522
  0
LINE
  5
21E
100
AcDbEntity
  8
0
100
AcDbLine
 62
7
  6
CONTINUOUS
 10
-30.741436231
 20
17.2931786522
 11
-34.741436231
 21
17.2931786522
  0
LINE
  5
21F
100
AcDbEntity
  8
0
100
AcDbLine
 62
7
  6
CONTINUOUS
 10
-34.741436231
 20
17.2931786522
 11
-25.8415911111
 21
17.2931786522
  0
INSERT
  5
220
100
AcDbEntity
  8
0
100
AcDbBlockReference
 62
7
  6
CONTINUOUS
  2
_FILLED
 10
-20.9417459912
 20
17.2931786522
 41
3.0
 42
3.0
 43
3.0
 50
180.0
  0
INSERT
  5
221
100
AcDbEntity
  8
0
100
AcDbBlockReference
 62
7
  6
CONTINUOUS
  2
_FILLED
 10
-30.741436231
 20
17.2931786522
 41
3.0
 42
3.0
 43
3.0
  0
ENDBLK
  5
222
100
AcDbEntity
  8
0
  6
BYBLOCK
 62
0
100
AcDbBlockEnd
  0
BLOCK
  5
223
100
AcDbEntity
  8
0
100
AcDbBlockBegin
 62
7
  6
CONTINUOUS
  2
*D1
 70
65
 10
0.0
 20
0.0
  3
*D1
  1

  0
MTEXT
  5
224
100
AcDbEntity
  8
0
100
AcDbMText
 62
7
  6
CONTINUOUS
  7
STANDARD
 71
2
 72
1
 10
15.2344622222
 20
21.0431786522
 30
0.0
 11
1.0
 21
0.0
 31
0.0
 44
0.9
  1
49,6
 40
3.0
 41
8.7857142857
  0
LINE
  5
225
100
AcDbEntity
  8
0
100
AcDbLine
 62
7
  6
CONTINUOUS
 10
-9.5655377778
 20
5.7757235873
 11
-9.5655377778
 21
18.7931786522
  0
LINE
  5
226
100
AcDbEntity
  8
0
100
AcDbLine
 62
7
  6
CONTINUOUS
 10
40.0344622222
 20
5.7757235873
 11
40.0344622222
 21
18.7931786522
  0
LINE
  5
227
100
AcDbEntity
  8
0
100
AcDbLine
 62
7
  6
CONTINUOUS
 10
-9.5655377778
 20
17.2931786522
 11
15.2344622222
 21
17.2931786522
  0
LINE
  5
228
100
AcDbEntity
  8
0
100
AcDbLine
 62
7
  6
CONTINUOUS
 10
40.0344622222
 20
17.2931786522
 11
15.2344622222
 21
17.2931786522
  0
INSERT
  5
229
100
AcDbEntity
  8
0
100
AcDbBlockReference
 62
7
  6
CONTINUOUS
  2
_FILLED
 10
-9.5655377778
 20
17.2931786522
 41
3.0
 42
3.0
 43
3.0
 50
180.0
  0
INSERT
  5
22A
100
AcDbEntity
  8
0
100
AcDbBlockReference
 62
7
  6
CONTINUOUS
  2
_FILLED
 10
40.0344622222
 20
17.2931786522
 41
3.0
 42
3.0
 43
3.0
  0
ENDBLK
  5
22B
100
AcDbEntity
  8
0
  6
BYBLOCK
 62
0
100
AcDbBlockEnd
  0
BLOCK
  5
22C
100
AcDbEntity
  8
0
100
AcDbBlockBegin
 62
7
  6
CONTINUOUS
  2
*D2
 70
65
 10
0.0
 20
0.0
  3
*D2
  1

  0
MTEXT
  5
22D
100
AcDbEntity
  8
0
100
AcDbMText
 62
7
  6
CONTINUOUS
  7
STANDARD
 71
2
 72
1
 10
44.2844622222
 20
0.0545244444
 30
0.0
 11
0.0
 21
1.0
 31
0.0
 44
0.9
  1
18,5
 40
3.0
 41
7.9285714286
  0
LINE
  5
22E
100
AcDbEntity
  8
0
100
AcDbLine
 62
7
  6
CONTINUOUS
 10
40.2443536491
 20
9.2931786522
 11
49.5344622222
 21
9.2931786522
  0
LINE
  5
22F
100
AcDbEntity
  8
0
100
AcDbLine
 62
7
  6
CONTINUOUS
 10
40.2844622208
 20
-9.1841297634
 11
49.5344622222
 21
-9.1841297634
  0
LINE
  5
230
100
AcDbEntity
  8
0
100
AcDbLine
 62
7
  6
CONTINUOUS
 10
48.0344622222
 20
9.2931786522
 11
48.0344622222
 21
0.0545244444
  0
LINE
  5
231
100
AcDbEntity
  8
0
100
AcDbLine
 62
7
  6
CONTINUOUS
 10
48.0344622222
 20
-9.1841297634
 11
48.0344622222
 21
0.0545244444
  0
INSERT
  5
232
100
AcDbEntity
  8
0
100
AcDbBlockReference
 62
7
  6
CONTINUOUS
  2
_FILLED
 10
48.0344622222
 20
9.2931786522
 41
3.0
 42
3.0
 43
3.0
 50
90.0
  0
INSERT
  5
233
100
AcDbEntity
  8
0
100
AcDbBlockReference
 62
7
  6
CONTINUOUS
  2
_FILLED
 10
48.0344622222
 20
-9.1841297634
 41
3.0
 42
3.0
 43
3.0
 50
270.0
  0
ENDBLK
  5
234
100
AcDbEntity
  8
0
  6
BYBLOCK
 62
0
100
AcDbBlockEnd
  0
ENDSEC
  0
SECTION
  2
ENTITIES
  0
DIMENSION
  5
235
100
AcDbEntity
  8
0
100
AcDbDimension
 62
7
  6
CONTINUOUS
  2
*D0
 10
-30.741436231
 20
17.2931786522
 11
-29.0558768254
 21
19.5431786522
 70
160
 71
2
 42
9.7996902397
  3
DIMSTYLE_1
100
AcDbAlignedDimension
 13
-20.9417459912
 23
0.8180920821
 14
-30.741436231
 24
9.4651469797
 50
180.0
100
AcDbRotatedDimension
  0
DIMENSION
  5
236
100
AcDbEntity
  8
0
100
AcDbDimension
 62
7
  6
CONTINUOUS
  2
*D1
 10
40.0344622222
 20
17.2931786522
 11
10.8416050794
 21
19.5431786522
 70
160
 71
2
 42
49.6
  3
DIMSTYLE_1
100
AcDbAlignedDimension
 13
-9.5655377778
 23
5.7757235873
 14
40.0344622222
 24
5.7757235873
100
AcDbRotatedDimension
  0
DIMENSION
  5
237
100
AcDbEntity
  8
0
100
AcDbDimension
 62
7
  6
CONTINUOUS
  2
*D2
 10
48.0344622222
 20
-9.1841297634
 11
47.5607540576
 21
-3.4895337577
 70
160
 71
2
 42
18.4773084156
  3
DIMSTYLE_2
100
AcDbAlignedDimension
 13
40.2443536491
 23
9.2931786522
 14
40.2844622208
 24
-9.1841297634
 50
270.0
100
AcDbRotatedDimension
  0
LINE
  5
238
100
AcDbEntity
  8
RACCORDO
100
AcDbLine
 62
7
  6
CONTINUOUS
 10
-9.5655377778
 20
-3.7841297634
 11
-9.5655377778
 21
-8.93415832
  0
LINE
  5
239
100
AcDbEntity
  8
DRAFT
100
AcDbLine
 62
7
  6
CONTINUOUS
 10
-9.5655377778
 20
-3.7841297634
 11
-9.5655377778
 21
5.2757235873
  0
LINE
  5
23A
100
AcDbEntity
  8
RACCORDO
100
AcDbLine
 62
7
  6
CONTINUOUS
 10
-9.5253911284
 20
9.0432167285
 11
-9.5253911284
 21
5.3158702366
  0
LINE
  5
23B
100
AcDbEntity
  8
RACCORDO
100
AcDbLine
 62
7
  6
CONTINUOUS
 10
-9.5219001155
 20
-8.9123411505
 11
-9.5219001155
 21
-8.6310424429
  0
LINE
  5
23C
100
AcDbEntity
  8
RACCORDO
100
AcDbLine
 62
253
  6
CONTINUOUS
 10
-9.1976834108
 20
9.2154328583
 11
-9.2035175816
 21
-7.3501292538
  0
LINE
  5
23D
100
AcDbEntity
  8
RACCORDO
100
AcDbLine
 62
253
  6
CONTINUOUS
 10
-9.4642872113
 20
-8.0490503685
 11
-9.5219001155
 21
-8.6310424429
  0
LINE
  5
23E
100
AcDbEntity
  8
RACCORDO
100
AcDbLine
 62
253
  6
CONTINUOUS
 10
-9.2143252875
 20
-8.2952523067
 11
-9.2726197935
 21
-8.8841297634
  0
LINE
  5
23F
100
AcDbEntity
  8
DRAFT
100
AcDbLine
 62
7
  6
CONTINUOUS
 10
-9.5253911284
 20
5.3158702366
 11
-9.5655377778
 21
5.2757235873
  0
LINE
  5
240
100
AcDbEntity
  8
RACCORDO
100
AcDbLine
 62
253
  6
CONTINUOUS
 10
-9.4476453346
 20
8.9654709346
 11
-9.5253911284
 21
9.0432167285
  0
LINE
  5
241
100
AcDbEntity
  8
RACCORDO
100
AcDbLine
 62
253
  6
CONTINUOUS
 10
-9.1976834108
 20
9.2154328583
 11
-9.2754292047
 21
9.2931786522
  0
LINE
  5
242
100
AcDbEntity
  8
DRAFT
100
AcDbLine
 62
7
  6
CONTINUOUS
 10
31.4021536758
 20
-9.1841297634
 11
31.8844622222
 21
-9.1684214013
  0
LINE
  5
243
100
AcDbEntity
  8
DRAFT
100
AcDbLine
 62
7
  6
CONTINUOUS
 10
17.6021536758
 20
-9.1841297634
 11
18.0844622222
 21
-9.1684214013
  0
LINE
  5
244
100
AcDbEntity
  8
DRAFT
100
AcDbLine
 62
7
  6
CONTINUOUS
 10
6.4021536758
 20
-9.1841297634
 11
6.8844622222
 21
-9.1684214013
  0
LINE
  5
245
100
AcDbEntity
  8
RACCORDO
100
AcDbLine
 62
7
  6
CONTINUOUS
 10
39.7844622208
 20
-9.1841297634
 11
37.8667707686
 21
-9.1841297634
  0
LINE
  5
246
100
AcDbEntity
  8
DRAFT
100
AcDbLine
 62
7
  6
CONTINUOUS
 10
31.4021536758
 20
-9.1841297634
 11
24.0667707686
 21
-9.1841297634
  0
LINE
  5
247
100
AcDbEntity
  8
DRAFT
100
AcDbLine
 62
7
  6
CONTINUOUS
 10
17.6021536758
 20
-9.1841297634
 11
12.8667707686
 21
-9.1841297634
  0
LINE
  5
248
100
AcDbEntity
  8
DRAFT
100
AcDbLine
 62
7
  6
CONTINUOUS
 10
6.4021536758
 20
-9.1841297634
 11
-0.9332292314
 21
-9.1841297634
  0
LINE
  5
249
100
AcDbEntity
  8
RACCORDO
100
AcDbLine
 62
7
  6
CONTINUOUS
 10
-7.3978463242
 20
-9.1841297634
 11
-9.3155377763
 21
-9.1841297634
  0
LINE
  5
24A
100
AcDbEntity
  8
DRAFT
100
AcDbLine
 62
7
  6
CONTINUOUS
 10
-6.9155377778
 20
-9.1684214013
 11
-1.4155377778
 21
-9.1684214013
  0
LINE
  5
24B
100
AcDbEntity
  8
DRAFT
100
AcDbLine
 62
7
  6
CONTINUOUS
 10
6.8844622222
 20
-9.1684214013
 11
12.3844622222
 21
-9.1684214013
  0
LINE
  5
24C
100
AcDbEntity
  8
DRAFT
100
AcDbLine
 62
7
  6
CONTINUOUS
 10
18.0844622222
 20
-9.1684214013
 11
23.5844622222
 21
-9.1684214013
  0
LINE
  5
24D
100
AcDbEntity
  8
DRAFT
100
AcDbLine
 62
7
  6
CONTINUOUS
 10
31.8844622222
 20
-9.1684214013
 11
37.3844622222
 21
-9.1684214013
  0
LINE
  5
24E
100
AcDbEntity
  8
RACCORDO
100
AcDbLine
 62
7
  6
CONTINUOUS
 10
39.7408245585
 20
-9.1623125939
 11
-9.271900114
 21
-9.1623125939
  0
LINE
  5
24F
100
AcDbEntity
  8
RACCORDO
100
AcDbLine
 62
7
  6
CONTINUOUS
 10
39.7415442379
 20
-8.8841297634
 11
-9.2726197935
 21
-8.8841297634
  0
LINE
  5
250
100
AcDbEntity
  8
DRAFT
100
AcDbLine
 62
7
  6
CONTINUOUS
 10
-0.9332292314
 20
-9.1841297634
 11
-1.4155377778
 21
-9.1684214013
  0
LINE
  5
251
100
AcDbEntity
  8
DRAFT
100
AcDbLine
 62
7
  6
CONTINUOUS
 10
12.8667707686
 20
-9.1841297634
 11
12.3844622222
 21
-9.1684214013
  0
LINE
  5
252
100
AcDbEntity
  8
DRAFT
100
AcDbLine
 62
7
  6
CONTINUOUS
 10
24.0667707686
 20
-9.1841297634
 11
23.5844622222
 21
-9.1684214013
  0
LINE
  5
253
100
AcDbEntity
  8
DRAFT
100
AcDbLine
 62
7
  6
CONTINUOUS
 10
-7.3978463242
 20
-9.1841297634
 11
-6.9155377778
 21
-9.1684214013
  0
LINE
  5
254
100
AcDbEntity
  8
RACCORDO
100
AcDbLine
 62
253
  6
CONTINUOUS
 10
-9.2143252875
 20
-8.2952523067
 11
39.6832497319
 21
-8.2952523067
  0
LINE
  5
255
100
AcDbEntity
  8
RACCORDO
100
AcDbLine
 62
253
  6
CONTINUOUS
 10
-9.2035175816
 20
-7.3501292538
 11
39.672442026
 21
-7.3501292538
  0
LINE
  5
256
100
AcDbEntity
  8
DRAFT
100
AcDbLine
 62
7
  6
CONTINUOUS
 10
37.8667707686
 20
-9.1841297634
 11
37.3844622222
 21
-9.1684214013
  0
LINE
  5
257
100
AcDbEntity
  8
RACCORDO
100
AcDbLine
 62
253
  6
CONTINUOUS
 10
-9.5219001155
 20
-8.9123411505
 11
-9.5655377778
 21
-8.93415832
  0
LINE
  5
258
100
AcDbEntity
  8
RACCORDO
100
AcDbLine
 62
253
  6
CONTINUOUS
 10
-9.271900114
 20
-9.1623125939
 11
-9.3155377763
 21
-9.1841297634
  0
LINE
  5
259
100
AcDbEntity
  8
RACCORDO
100
AcDbLine
 62
253
  6
CONTINUOUS
 10
39.7844622208
 20
-9.1841297634
 11
39.7408245585
 21
-9.1623125939
  0
LINE
  5
25A
100
AcDbEntity
  8
RACCORDO
100
AcDbLine
 62
253
  6
CONTINUOUS
 10
40.0344622222
 20
-8.93415832
 11
39.9908245599
 21
-8.9123411505
  0
LINE
  5
25B
100
AcDbEntity
  8
DRAFT
100
AcDbLine
 62
7
  6
CONTINUOUS
 10
36.4681884156
 20
9.2931786522
 11
36.2844622222
 21
9.2565230159
  0
LINE
  5
25C
100
AcDbEntity
  8
DRAFT
100
AcDbLine
 62
7
  6
CONTINUOUS
 10
-5.9992639712
 20
9.2931786522
 11
-5.8155377778
 21
9.2565230159
  0
LINE
  5
25D
100
AcDbEntity
  8
RACCORDO
100
AcDbLine
 62
253
  6
CONTINUOUS
 10
39.916569779
 20
8.9654709346
 11
-9.1976834108
 21
8.9651469779
  0
LINE
  5
25E
100
AcDbEntity
  8
RACCORDO
100
AcDbLine
 62
253
  6
CONTINUOUS
 10
-9.1976834108
 20
8.9651469762
 11
-9.4476453346
 21
8.9654709346
  0
LINE
  5
25F
100
AcDbEntity
  8
RACCORDO
100
AcDbLine
 62
253
  6
CONTINUOUS
 10
39.7443536491
 20
9.2931786522
 11
39.6666078552
 21
9.2154328583
  0
LINE
  5
260
100
AcDbEntity
  8
RACCORDO
100
AcDbLine
 62
253
  6
CONTINUOUS
 10
39.6666078552
 20
9.2154328583
 11
-9.1976834108
 21
9.2154328583
  0
LINE
  5
261
100
AcDbEntity
  8
DRAFT
100
AcDbLine
 62
7
  6
CONTINUOUS
 10
-5.8155377778
 20
9.2565230159
 11
36.2844622222
 21
9.2565230159
  0
LINE
  5
262
100
AcDbEntity
  8
RACCORDO
100
AcDbLine
 62
7
  6
CONTINUOUS
 10
-9.2754292047
 20
9.2931786522
 11
-5.9992639712
 21
9.2931786522
  0
LINE
  5
263
100
AcDbEntity
  8
RACCORDO
100
AcDbLine
 62
7
  6
CONTINUOUS
 10
36.4681884156
 20
9.2931786522
 11
39.7443536491
 21
9.2931786522
  0
LINE
  5
264
100
AcDbEntity
  8
RACCORDO
100
AcDbLine
 62
253
  6
CONTINUOUS
 10
39.9943155729
 20
9.0432167285
 11
39.916569779
 21
8.9654709346
  0
LINE
  5
265
100
AcDbEntity
  8
DRAFT
100
AcDbLine
 62
7
  6
CONTINUOUS
 10
39.9943155729
 20
5.3158702366
 11
40.0344622222
 21
5.2757235873
  0
LINE
  5
266
100
AcDbEntity
  8
RACCORDO
100
AcDbLine
 62
253
  6
CONTINUOUS
 10
39.7415442379
 20
-8.8841297634
 11
39.6832497319
 21
-8.2952523067
  0
LINE
  5
267
100
AcDbEntity
  8
RACCORDO
100
AcDbLine
 62
253
  6
CONTINUOUS
 10
39.9908245599
 20
-8.6310424429
 11
39.9332116557
 21
-8.0490503685
  0
LINE
  5
268
100
AcDbEntity
  8
RACCORDO
100
AcDbLine
 62
253
  6
CONTINUOUS
 10
39.672442026
 20
-7.3501292538
 11
39.6666078552
 21
9.2154328583
  0
LINE
  5
269
100
AcDbEntity
  8
RACCORDO
100
AcDbLine
 62
7
  6
CONTINUOUS
 10
39.9908245599
 20
-8.6310424429
 11
39.9908245599
 21
-8.9123411505
  0
LINE
  5
26A
100
AcDbEntity
  8
RACCORDO
100
AcDbLine
 62
7
  6
CONTINUOUS
 10
39.9943155729
 20
9.0432167285
 11
39.9943155729
 21
5.3158702366
  0
LINE
  5
26B
100
AcDbEntity
  8
RACCORDO
100
AcDbLine
 62
7
  6
CONTINUOUS
 10
40.0344622222
 20
-8.93415832
 11
40.0344622222
 21
-3.7841297634
  0
LINE
  5
26C
100
AcDbEntity
  8
DRAFT
100
AcDbLine
 62
7
  6
CONTINUOUS
 10
40.0344622222
 20
-3.7841297634
 11
40.0344622222
 21
5.2757235873
  0
LINE
  5
26D
100
AcDbEntity
  8
RACCORDO
100
AcDbLine
 62
7
  6
CONTINUOUS
 10
-23.7417459912
 20
-9.1841297634
 11
-26.2417459912
 21
-9.1623125939
  0
LINE
  5
26E
100
AcDbEntity
  8
RACCORDO
100
AcDbLine
 62
253
  6
CONTINUOUS
 10
-23.7417459912
 20
-8.93415832
 11
-26.2417459912
 21
-8.9123411505
  0
LINE
  5
26F
100
AcDbEntity
  8
RACCORDO
100
AcDbLine
 62
7
  6
CONTINUOUS
 10
-26.2417459912
 20
-8.8841297634
 11
-29.581436005
 21
-8.2952523067
  0
LINE
  5
270
100
AcDbEntity
  8
RACCORDO
100
AcDbLine
 62
253
  6
CONTINUOUS
 10
-26.2417459912
 20
-8.6310424429
 11
-29.5423870622
 21
-8.0490503685
  0
LINE
  5
271
100
AcDbEntity
  8
RACCORDO
100
AcDbLine
 62
253
  6
CONTINUOUS
 10
-30.4070000786
 20
-7.3501292584
 11
-30.1615601178
 21
-7.3402080822
  0
LINE
  5
272
100
AcDbEntity
  8
RACCORDO
100
AcDbLine
 62
7
  6
CONTINUOUS
 10
-20.9417459912
 20
-3.6863516088
 11
-23.7417459912
 21
-3.7841297634
  0
LINE
  5
273
100
AcDbEntity
  8
RACCORDO
100
AcDbLine
 62
7
  6
CONTINUOUS
 10
-26.2417459912
 20
-9.1623125939
 11
-26.2417459912
 21
-8.6310424429
  0
LINE
  5
274
100
AcDbEntity
  8
RACCORDO
100
AcDbLine
 62
7
  6
CONTINUOUS
 10
-26.0417459912
 20
9.2931786522
 11
-26.0417459912
 21
5.3158702366
  0
LINE
  5
275
100
AcDbEntity
  8
RACCORDO
100
AcDbLine
 62
7
  6
CONTINUOUS
 10
-20.9417459912
 20
0.3180920821
 11
-23.7417459912
 21
0.4158702366
  0
LINE
  5
276
100
AcDbEntity
  8
RACCORDO
100
AcDbLine
 62
7
  6
CONTINUOUS
 10
-23.7417459912
 20
-9.1841297634
 11
-23.7417459912
 21
-3.7841297634
  0
LINE
  5
277
100
AcDbEntity
  8
DRAFT
100
AcDbLine
 62
7
  6
CONTINUOUS
 10
-23.7417459912
 20
-3.7841297634
 11
-23.7417459912
 21
5.2757235873
  0
LINE
  5
278
100
AcDbEntity
  8
RACCORDO
100
AcDbLine
 62
253
  6
CONTINUOUS
 10
-21.568576067
 20
0.3399814707
 11
-21.568576067
 21
-3.7082409974
  0
LINE
  5
279
100
AcDbEntity
  8
RACCORDO
100
AcDbLine
 62
7
  6
CONTINUOUS
 10
-20.9417459912
 20
0.3180920821
 11
-20.9417459912
 21
-3.6863516088
  0
LINE
  5
27A
100
AcDbEntity
  8
DRAFT
100
AcDbLine
 62
7
  6
CONTINUOUS
 10
-26.0417459912
 20
5.3158702366
 11
-23.7417459912
 21
5.2757235873
  0
LINE
  5
27B
100
AcDbEntity
  8
RACCORDO
100
AcDbLine
 62
253
  6
CONTINUOUS
 10
-26.0417459912
 20
9.0432167285
 11
-30.4957995382
 21
8.9654709346
  0
LINE
  5
27C
100
AcDbEntity
  8
RACCORDO
100
AcDbLine
 62
253
  6
CONTINUOUS
 10
-30.4957995382
 20
8.9654709346
 11
-30.7414362267
 21
8.9651469762
  0
LINE
  5
27D
100
AcDbEntity
  8
RACCORDO
100
AcDbLine
 62
7
  6
CONTINUOUS
 10
-26.0417459912
 20
9.2931786522
 11
-30.4957995382
 21
9.2154328584
  0
ARC
  5
27E
100
AcDbEntity
  8
RACCORDO
100
AcDbCircle
 62
253
  6
CONTINUOUS
 10
39.6665169856
 20
8.9653800647
 40
0.2500532235
100
AcDbArc
 50
0.0208214416
 51
89.9791786124
  0
ARC
  5
27F
100
AcDbEntity
  8
RACCORDO
100
AcDbCircle
 62
253
  6
CONTINUOUS
 10
-9.1975925745
 20
8.9653800981
 40
0.2500532235
100
AcDbArc
 50
90.0208137446
 51
179.9791861971
  0
ARC
  5
280
100
AcDbEntity
  8
RACCORDO
100
AcDbCircle
 62
7
  6
CONTINUOUS
 10
394.2582069499
 20
9.5158702366
 40
425.0
100
AcDbArc
 50
180.0742450053
 51
182.2743633295
  0
ARC
  5
281
100
AcDbEntity
  8
RACCORDO
100
AcDbCircle
 62
253
  6
CONTINUOUS
 10
394.2537955593
 20
9.5158691365
 40
424.7499517054
100
AcDbArc
 50
180.0742448651
 51
182.2743634403
  0
ARC
  5
282
100
AcDbEntity
  8
RACCORDO
100
AcDbCircle
 62
7
  6
CONTINUOUS
 10
-29.4077878273
 20
-7.3104445537
 40
1.0
100
AcDbArc
 50
182.2743630675
 51
260.0
  0
ARC
  5
283
100
AcDbEntity
  8
RACCORDO
100
AcDbCircle
 62
253
  6
CONTINUOUS
 10
-29.4121508448
 20
-7.3104444803
 40
0.7500000869
100
AcDbArc
 50
182.2743686825
 51
259.9999946476
  0
ARC
  5
284
100
AcDbEntity
  8
RACCORDO
100
AcDbCircle
 62
7
  6
CONTINUOUS
 10
-30.4914364409
 20
8.9654709345
 40
0.25
100
AcDbArc
 50
90.9999995145
 51
180.074245401
  0
SPLINE
  5
285
100
AcDbEntity
  8
RACCORDO
100
AcDbSpline
 62
253
  6
CONTINUOUS
 70
0
 71
3
 72
11
 73
7
 74
5
 42
0.0000001
 43
0.0000001
 44
0.0000000001
 12
0.2504334585
 22
0.0001733452
 32
0.0
 13
0.100736939
 23
0.2292793412
 33
0.0
 40
0.0
 40
0.0
 40
0.0
 40
0.0
 40
0.3780098772
 40
0.6998301196
 40
0.9177084861
 40
1.0
 40
1.0
 40
1.0
 40
1.0
 10
39.672442026
 20
-7.3501292584
 30
0.0
 10
39.7039974663
 20
-7.3501074163
 30
0.0
 10
39.7613709097
 20
-7.3485903866
 30
0.0
 10
39.8416741422
 20
-7.3504502946
 30
0.0
 10
39.8860564314
 20
-7.340373356
 30
0.0
 10
39.9196406847
 20
-7.3464973303
 30
0.0
 10
39.9224039498
 20
-7.3402080822
 30
0.0
 11
39.672442026
 21
-7.3501292584
 31
0.0
 11
39.7671049532
 21
-7.3493249969
 31
0.0
 11
39.847670526
 21
-7.3471630319
 31
0.0
 11
39.9021407911
 21
-7.3439653245
 31
0.0
 11
39.9224039498
 21
-7.3402080822
 31
0.0
  0
SPLINE
  5
286
100
AcDbEntity
  8
RACCORDO
100
AcDbSpline
 62
253
  6
CONTINUOUS
 70
0
 71
3
 72
11
 73
7
 74
5
 42
0.0000001
 43
0.0000001
 44
0.0000000001
 12
-0.2504333316
 22
0.0001733277
 32
0.0
 13
-0.1010123895
 23
0.2291579822
 33
0.0
 40
0.0
 40
0.0
 40
0.0
 40
0.0
 40
0.3779972671
 40
0.699810898
 40
0.9176929983
 40
1.0
 40
1.0
 40
1.0
 40
1.0
 10
-9.2035175816
 20
-7.3501285592
 30
0.0
 10
-9.2350719533
 20
-7.3501067201
 30
0.0
 10
-9.2924458883
 20
-7.3485905175
 30
0.0
 10
-9.3727403257
 20
-7.350447821
 30
0.0
 10
-9.4171382808
 20
-7.3403760933
 30
0.0
 10
-9.4507081627
 20
-7.3464951844
 30
0.0
 10
-9.453479505
 20
-7.3402080822
 30
0.0
 11
-9.2035175816
 21
-7.3501285592
 31
0.0
 11
-9.2981773032
 21
-7.3493243686
 31
0.0
 11
-9.3787411836
 21
-7.3471625797
 31
0.0
 11
-9.4332123713
 21
-7.3439651045
 31
0.0
 11
-9.453479505
 21
-7.3402080822
 31
0.0
  0
SPLINE
  5
287
100
AcDbEntity
  8
RACCORDO
100
AcDbSpline
 62
253
  6
CONTINUOUS
 70
0
 71
3
 72
11
 73
7
 74
5
 42
0.0000001
 43
0.0000001
 44
0.0000000001
 12
-0.3868383203
 22
0.0011547038
 32
0.0
 13
-0.0011902476
 23
0.3868382126
 33
0.0
 40
0.0
 40
0.0
 40
0.0
 40
0.0
 40
0.2516413811
 40
0.5024677949
 40
0.7518503681
 40
1.0
 40
1.0
 40
1.0
 40
1.0
 10
-9.2143252875
 20
-8.2952523067
 30
0.0
 10
-9.2467734639
 20
-8.2951554496
 30
0.0
 10
-9.3122131841
 20
-8.2822460891
 30
0.0
 10
-9.3951435194
 20
-8.227566511
 30
0.0
 10
-9.4509439675
 20
-8.145870519
 30
0.0
 10
-9.4641887581
 20
-8.0810482885
 30
0.0
 10
-9.4642872113
 20
-8.0490503685
 30
0.0
 11
-9.2143252875
 21
-8.2952523067
 31
0.0
 11
-9.3098070194
 21
-8.2762976066
 31
0.0
 11
-9.3908078396
 21
-8.2228782282
 31
0.0
 11
-9.4450430354
 21
-8.143095841
 31
0.0
 11
-9.4642872113
 21
-8.0490503685
 31
0.0
  0
SPLINE
  5
288
100
AcDbEntity
  8
RACCORDO
100
AcDbSpline
 62
253
  6
CONTINUOUS
 70
0
 71
3
 72
13
 73
9
 74
7
 42
0.0000001
 43
0.0000001
 44
0.0000000001
 12
-0.0699509031
 22
0.9426502413
 32
0.0
 13
-0.0004954643
 23
0.9452419589
 33
0.0
 40
0.0
 40
0.0
 40
0.0
 40
0.0
 40
0.0677155337
 40
0.1850281607
 40
0.346045714
 40
0.5424775674
 40
0.7642722767
 40
1.0
 40
1.0
 40
1.0
 40
1.0
 10
39.6832497319
 20
-8.2952523067
 30
0.0
 10
39.681670811
 20
-8.273974952
 30
0.0
 10
39.6798767792
 20
-8.2156778254
 30
0.0
 10
39.6773767655
 20
-8.1066891248
 30
0.0
 10
39.6754215473
 20
-7.9571048133
 30
0.0
 10
39.6737991065
 20
-7.7746058714
 30
0.0
 10
39.6727658167
 20
-7.5685586993
 30
0.0
 10
39.6724809576
 20
-7.4244024988
 30
0.0
 10
39.672442026
 20
-7.3501292538
 30
0.0
 11
39.6832497319
 21
-8.2952523067
 31
0.0
 11
39.6804189207
 21
-8.2313073629
 31
0.0
 11
39.6778461014
 21
-8.1204483813
 31
0.0
 11
39.6756629449
 21
-7.9682634712
 31
0.0
 11
39.6739827866
 21
-7.7825954177
 31
0.0
 11
39.6728907772
 21
-7.5729485675
 31
0.0
 11
39.672442026
 21
-7.3501292538
 31
0.0
  0
SPLINE
  5
289
100
AcDbEntity
  8
RACCORDO
100
AcDbSpline
 62
253
  6
CONTINUOUS
 70
0
 71
3
 72
13
 73
9
 74
7
 42
0.0000001
 43
0.0000001
 44
0.0000000001
 12
-0.0004954716
 22
-0.9452419604
 32
0.0
 13
-0.0699509959
 23
-0.942650236
 33
0.0
 40
0.0
 40
0.0
 40
0.0
 40
0.0
 40
0.2357793101
 40
0.4575736482
 40
0.6540338805
 40
0.815005641
 40
0.9323058392
 40
1.0
 40
1.0
 40
1.0
 40
1.0
 10
-9.2035175816
 20
-7.3501292538
 30
0.0
 10
-9.2035565222
 20
-7.4244187529
 30
0.0
 10
-9.203841454
 20
-7.5685910908
 30
0.0
 10
-9.2048750359
 20
-7.7746633406
 30
0.0
 10
-9.2064976462
 20
-7.9571566784
 30
0.0
 10
-9.2084531331
 20
-8.1067315788
 30
0.0
 10
-9.210952748
 20
-8.2156952114
 30
0.0
 10
-9.2127468628
 20
-8.2739816679
 30
0.0
 10
-9.2143252875
 20
-8.2952523067
 30
0.0
 11
-9.2035175816
 21
-7.3501292538
 31
0.0
 11
-9.203966506
 21
-7.5729973296
 31
0.0
 11
-9.2050586816
 21
-7.7826438285
 31
0.0
 11
-9.2067393613
 21
-7.9683387036
 31
0.0
 11
-9.2089222342
 21
-8.1204803282
 31
0.0
 11
-9.2114951013
 21
-8.2313275575
 31
0.0
 11
-9.2143252875
 21
-8.2952523067
 31
0.0
  0
SPLINE
  5
28A
100
AcDbEntity
  8
RACCORDO
100
AcDbSpline
 62
253
  6
CONTINUOUS
 70
0
 71
3
 72
13
 73
9
 74
7
 42
0.0000001
 43
0.0000001
 44
0.0000000001
 12
-0.0004941888
 22
-0.7090008054
 32
0.0
 13
-0.0697491553
 23
-0.7055617915
 33
0.0
 40
0.0
 40
0.0
 40
0.0
 40
0.0
 40
0.2354949282
 40
0.4573351294
 40
0.6539519062
 40
0.8150554721
 40
0.9323678204
 40
1.0
 40
1.0
 40
1.0
 40
1.0
 10
-9.4534795054
 20
-7.3402080822
 30
0.0
 10
-9.4535182984
 20
-7.3958634468
 30
0.0
 10
-9.4538029868
 20
-7.5039467552
 30
0.0
 10
-9.4548360583
 20
-7.6584959846
 30
0.0
 10
-9.4564585823
 20
-7.7954527776
 30
0.0
 10
-9.4584170701
 20
-7.9077134222
 30
0.0
 10
-9.4609139332
 20
-7.9894384576
 30
0.0
 10
-9.4627147821
 20
-8.0331441412
 30
0.0
 10
-9.4642872113
 20
-8.0490503685
 30
0.0
 11
-9.4534795054
 21
-7.3402080822
 31
0.0
 11
-9.4539275649
 21
-7.5071736154
 31
0.0
 11
-9.4550193652
 21
-7.6644547455
 31
0.0
 11
-9.4567010078
 21
-7.803846089
 31
0.0
 11
-9.4588859038
 21
-7.918047776
 31
0.0
 11
-9.4614600527
 21
-8.0011825028
 31
0.0
 11
-9.4642872113
 21
-8.0490503685
 31
0.0
  0
SPLINE
  5
28B
100
AcDbEntity
  8
RACCORDO
100
AcDbSpline
 62
253
  6
CONTINUOUS
 70
0
 71
3
 72
10
 73
6
 74
4
 42
0.0000001
 43
0.0000001
 44
0.0000000001
 12
-0.0003688182
 22
-16.305680328
 32
0.0
 13
-0.0113038293
 23
-16.305676414
 33
0.0
 40
0.0
 40
0.0
 40
0.0
 40
0.0
 40
0.3334166282
 40
0.6667561514
 40
1.0
 40
1.0
 40
1.0
 40
1.0
 10
-9.4476453346
 20
8.9654709346
 30
0.0
 10
-9.4476863246
 20
7.1532759492
 30
0.0
 10
-9.4481731036
 20
3.5293050577
 30
0.0
 10
-9.4501176648
 20
-1.9059214126
 30
0.0
 10
-9.4522238615
 20
-5.5289526282
 30
0.0
 10
-9.4534795054
 20
-7.3402080822
 30
0.0
 11
-9.4476453346
 21
8.9654709346
 31
0.0
 11
-9.448375649
 21
3.5288860261
 31
0.0
 11
-9.4503204051
 21
-1.9064413326
 31
0.0
 11
-9.4534795054
 21
-7.3402080822
 31
0.0
  0
SPLINE
  5
28C
100
AcDbEntity
  8
RACCORDO
100
AcDbSpline
 62
253
  6
CONTINUOUS
 70
0
 71
3
 72
10
 73
6
 74
4
 42
0.0000001
 43
0.0000001
 44
0.0000000001
 12
-0.0113038293
 22
16.305676414
 32
0.0
 13
-0.0003688182
 23
16.305680328
 33
0.0
 40
0.0
 40
0.0
 40
0.0
 40
0.0
 40
0.3332438486
 40
0.6665833718
 40
1.0
 40
1.0
 40
1.0
 40
1.0
 10
39.9224039498
 20
-7.3402080822
 30
0.0
 10
39.921148306
 20
-5.5289526282
 30
0.0
 10
39.9190421092
 20
-1.9059214126
 30
0.0
 10
39.9170975481
 20
3.5293050577
 30
0.0
 10
39.9166107691
 20
7.1532759492
 30
0.0
 10
39.916569779
 20
8.9654709346
 30
0.0
 11
39.9224039498
 21
-7.3402080822
 31
0.0
 11
39.9192448495
 21
-1.9064413326
 31
0.0
 11
39.9173000935
 21
3.5288860261
 31
0.0
 11
39.916569779
 21
8.9654709346
 31
0.0
  0
SPLINE
  5
28D
100
AcDbEntity
  8
RACCORDO
100
AcDbSpline
 62
253
  6
CONTINUOUS
 70
0
 71
3
 72
13
 73
9
 74
7
 42
0.0000001
 43
0.0000001
 44
0.0000000001
 12
-0.0697489894
 22
0.7055618059
 32
0.0
 13
-0.0004941837
 23
0.7090008034
 33
0.0
 40
0.0
 40
0.0
 40
0.0
 40
0.0
 40
0.0676534718
 40
0.1849783837
 40
0.3461279362
 40
0.5427161078
 40
0.7645564899
 40
1.0
 40
1.0
 40
1.0
 40
1.0
 10
39.9332116557
 20
-8.0490503685
 30
0.0
 10
39.9316387353
 20
-8.0331391332
 30
0.0
 10
39.929837962
 20
-7.9894254224
 30
0.0
 10
39.9273407013
 20
-7.9076815317
 30
0.0
 10
39.9253824833
 20
-7.7954137991
 30
0.0
 10
39.9237601284
 20
-7.6584528551
 30
0.0
 10
39.9227273497
 20
-7.5039224937
 30
0.0
 10
39.9224427339
 20
-7.3958512949
 30
0.0
 10
39.9224039498
 20
-7.3402080822
 30
0.0
 11
39.9332116557
 21
-8.0490503685
 31
0.0
 11
39.9303838741
 21
-8.0011674172
 31
0.0
 11
39.9278097695
 21
-7.9180237774
 31
0.0
 11
39.9256245893
 21
-7.8037894856
 31
0.0
 11
39.9239434701
 21
-7.6644184189
 31
0.0
 11
39.9228518367
 21
-7.5071371598
 31
0.0
 11
39.9224039498
 21
-7.3402080822
 31
0.0
  0
SPLINE
  5
28E
100
AcDbEntity
  8
RACCORDO
100
AcDbSpline
 62
253
  6
CONTINUOUS
 70
0
 71
3
 72
11
 73
7
 74
5
 42
0.0000001
 43
0.0000001
 44
0.0000000001
 12
0.3868383218
 22
0.0011547067
 32
0.0
 13
0.0011902477
 23
0.386838214
 33
0.0
 40
0.0
 40
0.0
 40
0.0
 40
0.0
 40
0.2516483956
 40
0.5024782957
 40
0.7518586407
 40
1.0
 40
1.0
 40
1.0
 40
1.0
 10
39.6832497319
 20
-8.2952523067
 30
0.0
 10
39.7156988129
 20
-8.2951554467
 30
0.0
 10
39.7811399419
 20
-8.2822454416
 30
0.0
 10
39.8640704936
 20
-8.2275640781
 30
0.0
 10
39.9198691598
 20
-8.1458680329
 30
0.0
 10
39.9331132058
 20
-8.0810472219
 30
0.0
 10
39.9332116557
 20
-8.0490503685
 30
0.0
 11
39.6832497319
 21
-8.2952523067
 31
0.0
 11
39.7787340223
 21
-8.2762965569
 31
0.0
 11
39.859735234
 21
-8.2228753219
 31
0.0
 11
39.9139687503
 21
-8.1430928349
 31
0.0
 11
39.9332116557
 21
-8.0490503685
 31
0.0
  0
SPLINE
  5
28F
100
AcDbEntity
  8
RACCORDO
100
AcDbSpline
 62
253
  6
CONTINUOUS
 70
0
 71
3
 72
12
 73
8
 74
6
 42
0.0000001
 43
0.0000001
 44
0.0000000001
 12
-0.0043622966
 22
0.2499919495
 32
0.0
 13
0.2499919264
 23
0.004363624
 33
0.0
 40
0.0
 40
0.0
 40
0.0
 40
0.0
 40
0.3040328247
 40
0.583174716
 40
0.8071236719
 40
0.9503224416
 40
1.0
 40
1.0
 40
1.0
 40
1.0
 10
-30.4957995382
 20
8.9654709346
 30
0.0
 10
-30.496241632
 20
8.9908061875
 30
0.0
 10
-30.4973366194
 20
9.0398588719
 30
0.0
 10
-30.4964889048
 20
9.105342539
 30
0.0
 10
-30.5003737339
 20
9.1638311584
 30
0.0
 10
-30.492728591
 20
9.1897330848
 30
0.0
 10
-30.4999392011
 20
9.2153606003
 30
0.0
 10
-30.4957995382
 20
9.2154328584
 30
0.0
 11
-30.4957995382
 21
8.9654709346
 31
0.0
 11
-30.4969192658
 21
9.0414800168
 31
0.0
 11
-30.4975246055
 21
9.1112712406
 31
0.0
 11
-30.4975325422
 21
9.1672651991
 31
0.0
 11
-30.4969378629
 21
9.2030642496
 31
0.0
 11
-30.4957995382
 21
9.2154328584
 31
0.0
  0
SPLINE
  5
290
100
AcDbEntity
  8
RACCORDO
100
AcDbSpline
 62
253
  6
CONTINUOUS
 70
0
 71
3
 72
11
 73
7
 74
5
 42
0.0000001
 43
0.0000001
 44
0.0000000001
 12
-0.2455491785
 22
0.0432969453
 32
0.0
 13
0.0432841608
 23
0.2455514324
 33
0.0
 40
0.0
 40
0.0
 40
0.0
 40
0.0
 40
0.0763210498
 40
0.2929665421
 40
0.6172433082
 40
1.0
 40
1.0
 40
1.0
 40
1.0
 10
-29.581436005
 20
-8.2952523067
 30
0.0
 10
-29.587682862
 20
-8.2941508173
 30
0.0
 10
-29.5698100568
 20
-8.2575558396
 30
0.0
 10
-29.5752921795
 20
-8.2180976204
 30
0.0
 10
-29.5560132461
 20
-8.1366652555
 30
0.0
 10
-29.5479094962
 20
-8.0803791865
 30
0.0
 10
-29.5423870622
 20
-8.0490503685
 30
0.0
 11
-29.581436005
 21
-8.2952523067
 31
0.0
 11
-29.5797602776
 21
-8.2762965569
 31
0.0
 11
-29.5717545564
 21
-8.2228753219
 31
0.0
 11
-29.5586334015
 21
-8.1430928349
 31
0.0
 11
-29.5423870622
 21
-8.0490503685
 31
0.0
  0
ELLIPSE
  5
291
100
AcDbEntity
  8
RACCORDO
100
AcDbEllipse
 62
7
  6
CONTINUOUS
 10
39.7442774909
 20
9.0431405702
 30
0.0
 11
0.1768305473
 21
0.1768305473
 31
0.0
 40
0.9996954599
 41
-0.7852458701
 42
0.7852458702
  0
ELLIPSE
  5
292
100
AcDbEntity
  8
RACCORDO
100
AcDbEllipse
 62
7
  6
CONTINUOUS
 10
-9.2753530464
 20
9.0431405702
 30
0.0
 11
0.1768305473
 21
-0.1768305473
 31
0.0
 40
0.9996954599
 41
2.3563467834
 42
3.9268385237
  0
ELLIPSE
  5
293
100
AcDbEntity
  8
RACCORDO
100
AcDbEllipse
 62
7
  6
CONTINUOUS
 10
-9.3154996958
 20
-8.9341202438
 30
0.0
 11
0.2236527791
 21
0.1118178731
 31
0.0
 40
0.9998096356
 41
2.6780516535
 42
4.2486956813
  0
ELLIPSE
  5
294
100
AcDbEntity
  8
RACCORDO
100
AcDbEllipse
 62
7
  6
CONTINUOUS
 10
39.7844241402
 20
-8.9341202438
 30
0.0
 11
0.2236527791
 21
-0.1118178731
 31
0.0
 40
0.9998096356
 41
-1.1071030277
 42
0.4635410001
  0
ELLIPSE
  5
295
100
AcDbEntity
  8
RACCORDO
100
AcDbEllipse
 62
7
  6
CONTINUOUS
 10
-9.2718620334
 20
-8.6302731104
 30
0.0
 11
0.0250113895
 21
0.2526592035
 31
0.0
 40
0.9846622838
 41
-4.6121910857
 42
-3.0444253421
  0
ELLIPSE
  5
296
100
AcDbEntity
  8
RACCORDO
100
AcDbEllipse
 62
7
  6
CONTINUOUS
 10
-9.2718620334
 20
-8.9123030743
 30
0.0
 11
-0.2236527791
 21
-0.1118178731
 31
-0.0
 40
0.9998096356
 41
-0.4635410001
 42
1.1071030277
  0
ELLIPSE
  5
297
100
AcDbEntity
  8
RACCORDO
100
AcDbEllipse
 62
7
  6
CONTINUOUS
 10
39.7407864779
 20
-8.9123030743
 30
0.0
 11
-0.2236527791
 21
0.1118178731
 31
-0.0
 40
0.9998096356
 41
2.0344896259
 42
3.6051336537
  0
ELLIPSE
  5
298
100
AcDbEntity
  8
RACCORDO
100
AcDbEllipse
 62
7
  6
CONTINUOUS
 10
39.7407864779
 20
-8.6302731104
 30
0.0
 11
-0.0250113895
 21
0.2526592035
 31
0.0
 40
0.9846622838
 41
-3.2387599651
 42
-1.6709942215
  0
ENDSEC
  0
SECTION
  2
OBJECTS
  0
DICTIONARY
  5
C
100
AcDbDictionary
280
0
281
1
  3
ACAD_GROUP
350
D
  3
ACAD_MLINESTYLE
350
17
  3
ACAD_LAYOUT
350
1A
  3
ACAD_PLOTSETTINGS
350
19
  3
ACAD_PLOTSTYLENAME
350
E
  0
DICTIONARY
  5
D
102
{ACAD_REACTORS
330
C
102
}
100
AcDbDictionary
280
0
281
1
  0
ACDBDICTIONARYWDFLT
  5
E
102
{ACAD_REACTORS
330
C
102
}
100
AcDbDictionary
281
1
  3
Normal
350
F
100
AcDbDictionaryWithDefault
340
F
  0
DICTIONARY
  5
17
102
{ACAD_REACTORS
330
C
102
}
100
AcDbDictionary
280
0
281
1
  3
Standard
350
18
  0
DICTIONARY
  5
19
102
{ACAD_REACTORS
330
C
102
}
100
AcDbDictionary
281
1
  0
DICTIONARY
  5
1A
102
{ACAD_REACTORS
330
C
102
}
100
AcDbDictionary
281
1
  3
Model
350
299
  3
Layout1
350
29A
  0
ACDBPLACEHOLDER
  5
F
102
{ACAD_REACTORS
330
E
102
}
  0
MLINESTYLE
  5
18
102
{ACAD_REACTORS
330
17
102
}
100
AcDbMlineStyle
  2
STANDARD
 70
0
  3

 62
256
 51
90.0
 52
90.0
 71
2
 49
0.5
 62
256
  6
BYLAYER
 49
-0.5
 62
256
  6
BYLAYER
  0
LAYOUT
  5
299
102
{ACAD_REACTORS
330
1A
102
}
100
AcDbPlotSettings
  1

  2
none_device
  4
ISO_A4_(297.00_x_210.00_MM)
  6

 40
0.0
 41
0.0
 42
0.0
 43
0.0
 44
297.0
 45
210.0
 46
0.0
 47
0.0
 48
0.0
 49
0.0
140
0.0
141
0.0
142
1.0
143
1.0
 70
1024
 72
1
 73
0
 74
0
  7

 75
0
147
1.0
148
0.0
149
0.0
100
AcDbLayout
  1
Model
 70
0
 71
0
 10
0.0
 20
0.0
 11
297.0
 21
210.0
 12
0.0
 22
0.0
 32
0.0
 14
0.0
 24
0.0
 34
0.0
 15
0.0
 25
0.0
 35
0.0
146
0.0
 13
0.0
 23
0.0
 33
0.0
 16
1.0
 26
0.0
 36
0.0
 17
0.0
 27
1.0
 37
0.0
 76
0
330
20C
345
0
346
0
  0
LAYOUT
  5
29A
102
{ACAD_REACTORS
330
1A
102
}
100
AcDbPlotSettings
  1

  2
none_device
  4
ISO_A4_(297.00_x_210.00_MM)
  6

 40
0.0
 41
0.0
 42
0.0
 43
0.0
 44
297.0
 45
210.0
 46
0.0
 47
0.0
 48
0.0
 49
0.0
140
0.0
141
0.0
142
1.0
143
1.0
 70
0
 72
1
 73
0
 74
0
  7

 75
0
147
1.0
148
0.0
149
0.0
100
AcDbLayout
  1
Layout1
 70
0
 71
1
 10
0.0
 20
0.0
 11
297.0
 21
210.0
 12
0.0
 22
0.0
 32
0.0
 14
0.0
 24
0.0
 34
0.0
 15
0.0
 25
0.0
 35
0.0
146
0.0
 13
0.0
 23
0.0
 33
0.0
 16
1.0
 26
0.0
 36
0.0
 17
0.0
 27
1.0
 37
0.0
 76
0
330
20D
345
0
346
0
  0
ENDSEC
  0
EOF
