  0
SECTION
  2
HEADER
  9
$ACADVER
  1
AC1015
  9
$DWGCODEPAGE
  3
ANSI_1252
  9
$EXTMAX
 10
297.0
 20
210.0
 30
0.0
  9
$EXTMIN
 10
0.0
 20
0.0
 30
0.0
  9
$LIMMIN
 10
0.0
 20
0.0
  9
$LIMMAX
 10
297.0
 20
210.0
  9
$VIEWCTR
 10
148.5
 20
105.0
  9
$VIEWSIZE
 40
210.0
  9
$CLAYER
  8
0
  9
$LTSCALE
 40
16.335
  9
$CELTYPE
  6
BYLAYER
  9
$DIMSCALE
 40
1.0
  9
$DIMASZ
 40
3.0
  9
$DIMEXO
 40
1.85625
  9
$DIMDLI
 40
11.286
  9
$DIMEXE
 40
5.346
  9
$DIMCEN
 40
2.673
  9
$DIMLFAC
 40
1.0
  9
$DIMBLK
  1
_FILLED
  9
$DIMTXT
 40
3.0
  9
$DIMTOL
 70
1
  9
$DIMLIM
 70
0
  9
$DIMTFAC
 40
1.0
  9
$DIMTP
 40
0.01
  9
$DIMTM
 40
0.01
  9
$PDMODE
 70
3
  9
$PDSIZE
 40
3.0
  9
$HANDSEED
  5
5FE
  9
$TILEMODE
 70
1
  9
$MEASUREMENT
 70
1
  9
$INSUNITS
 70
4
  0
ENDSEC
  0
SECTION
  2
CLASSES
  0
CLASS
  1
ACDBDICTIONARYWDFLT
  2
AcDbDictionaryWithDefault
  3
AutoCAD 2000
 90
0
280
0
281
0
  0
CLASS
  1
ACDBPLACEHOLDER
  2
AcDbPlaceHolder
  3
AutoCAD 2000
 90
0
280
0
281
0
  0
CLASS
  1
LAYOUT
  2
AcDbLayout
  3
AutoCAD 2000
 90
0
280
0
281
0
  0
ENDSEC
  0
SECTION
  2
TABLES
  0
TABLE
  2
VPORT
  5
8
100
AcDbSymbolTable
 70
2
  0
VPORT
  5
1F4
100
AcDbSymbolTableRecord
100
AcDbViewportTableRecord
  2
*ACTIVE
 70
0
 10
0.0
 20
0.0
 11
1.0
 21
1.0
 12
148.5
 22
105.0
 13
0.0
 23
0.0
 14
1.0
 24
1.0
 15
0.0
 25
0.0
 16
0.0
 26
0.0
 36
1.0
 17
0.0
 27
0.0
 37
0.0
 40
210.0
 41
1.4142857143
 42
50.0
 43
0.0
 44
0.0
 50
0.0
 51
0.0
 71
0
 72
100
 73
1
 74
1
 75
0
 76
0
 77
0
 78
0
  0
ENDTAB
  0
TABLE
  2
LTYPE
  5
5
100
AcDbSymbolTable
 70
6
  0
LTYPE
  5
14
100
AcDbSymbolTableRecord
100
AcDbLinetypeTableRecord
  2
BYBLOCK
 70
0
  3

 72
65
 73
0
 40
0.0
  0
LTYPE
  5
15
100
AcDbSymbolTableRecord
100
AcDbLinetypeTableRecord
  2
BYLAYER
 70
0
  3

 72
65
 73
0
 40
0.0
  0
LTYPE
  5
16
100
AcDbSymbolTableRecord
100
AcDbLinetypeTableRecord
  2
CONTINUOUS
 70
64
  3
Solid line
 72
65
 73
0
 40
0.0
  0
LTYPE
  5
1F5
100
AcDbSymbolTableRecord
100
AcDbLinetypeTableRecord
  2
CENTER
 70
64
  3
____ _ ____ _ ____ _ ____ _ ____ _ ____ _ ____
 72
65
 73
4
 40
0.6
 49
0.375
 74
0
 49
-0.075
 74
0
 49
0.075
 74
0
 49
-0.075
 74
0
  0
LTYPE
  5
1F6
100
AcDbSymbolTableRecord
100
AcDbLinetypeTableRecord
  2
HIDDEN
 70
64
  3
- - - - - - - - - - - - - - - - - - - -
 72
65
 73
2
 40
0.2
 49
0.1
 74
0
 49
-0.1
 74
0
  0
LTYPE
  5
1F7
100
AcDbSymbolTableRecord
100
AcDbLinetypeTableRecord
  2
PHANTOM
 70
64
  3
_____ _ _ _____ _ _ _____ _ _ _____
 72
65
 73
6
 40
0.8
 49
0.45
 74
0
 49
-0.05
 74
0
 49
0.1
 74
0
 49
-0.05
 74
0
 49
0.1
 74
0
 49
-0.05
 74
0
  0
LTYPE
  5
1F8
100
AcDbSymbolTableRecord
100
AcDbLinetypeTableRecord
  2
DOT
 70
64
  3
. . . . . . . . . . . . . . . . . . . .
 72
65
 73
2
 40
0.2
 49
0.1
 74
0
 49
-0.1
 74
0
  0
LTYPE
  5
1F9
100
AcDbSymbolTableRecord
100
AcDbLinetypeTableRecord
  2
DASHED
 70
64
  3
- - - - - - - - - - - - - - - - - - - -
 72
65
 73
2
 40
0.2
 49
0.1
 74
0
 49
-0.1
 74
0
  0
ENDTAB
  0
TABLE
  2
LAYER
  5
2
100
AcDbSymbolTable
 70
36
  0
LAYER
  5
10
100
AcDbSymbolTableRecord
100
AcDbLayerTableRecord
  2
0
 70
0
 62
7
  6
CONTINUOUS
370
-3
390
F
  0
LAYER
  5
1FA
100
AcDbSymbolTableRecord
100
AcDbLayerTableRecord
  2
DEFAULT_1
 70
0
 62
7
  6
CENTER
370
-3
390
F
  0
LAYER
  5
1FB
100
AcDbSymbolTableRecord
100
AcDbLayerTableRecord
  2
DEFAULT_2
 70
0
 62
7
  6
HIDDEN
370
-3
390
F
  0
LAYER
  5
1FC
100
AcDbSymbolTableRecord
100
AcDbLayerTableRecord
  2
DEFAULT_3
 70
0
 62
7
  6
PHANTOM
370
-3
390
F
  0
LAYER
  5
1FD
100
AcDbSymbolTableRecord
100
AcDbLayerTableRecord
  2
1615-LED-1-1-VIMAR_110000
 70
0
 62
7
  6
CONTINUOUS
370
-3
390
F
  0
LAYER
  5
1FE
100
AcDbSymbolTableRecord
100
AcDbLayerTableRecord
  2
200A_170000
 70
0
 62
7
  6
CONTINUOUS
370
-3
390
F
  0
LAYER
  5
1FF
100
AcDbSymbolTableRecord
100
AcDbLayerTableRecord
  2
2125-CC-RF-VIMAR_65000
 70
0
 62
7
  6
CONTINUOUS
370
-3
390
F
  0
LAYER
  5
200
100
AcDbSymbolTableRecord
100
AcDbLayerTableRecord
  2
2125-CC-RF-VIMAR_65000_1
 70
0
 62
7
  6
CONTINUOUS
370
-3
390
F
  0
LAYER
  5
201
100
AcDbSymbolTableRecord
100
AcDbLayerTableRecord
  2
2125-R1-RF-VIMAR_60000
 70
0
 62
7
  6
CONTINUOUS
370
-3
390
F
  0
LAYER
  5
202
100
AcDbSymbolTableRecord
100
AcDbLayerTableRecord
  2
3216-CS2-RF_1_180000
 70
0
 62
7
  6
CONTINUOUS
370
-3
390
F
  0
LAYER
  5
203
100
AcDbSymbolTableRecord
100
AcDbLayerTableRecord
  2
3216-CS2-RF_1_180000_1
 70
0
 62
7
  6
CONTINUOUS
370
-3
390
F
  0
LAYER
  5
204
100
AcDbSymbolTableRecord
100
AcDbLayerTableRecord
  2
3216-CS2-RF_1_180000_2
 70
0
 62
7
  6
CONTINUOUS
370
-3
390
F
  0
LAYER
  5
205
100
AcDbSymbolTableRecord
100
AcDbLayerTableRecord
  2
43000435A0
 70
0
 62
7
  6
CONTINUOUS
370
-3
390
F
  0
LAYER
  5
206
100
AcDbSymbolTableRecord
100
AcDbLayerTableRecord
  2
ASSI
 70
0
 62
7
  6
CONTINUOUS
370
-3
390
F
  0
LAYER
  5
207
100
AcDbSymbolTableRecord
100
AcDbLayerTableRecord
  2
CAPC1608N_80000
 70
0
 62
7
  6
CONTINUOUS
370
-3
390
F
  0
LAYER
  5
208
100
AcDbSymbolTableRecord
100
AcDbLayerTableRecord
  2
CAPC1608N_80000_1
 70
0
 62
7
  6
CONTINUOUS
370
-3
390
F
  0
LAYER
  5
209
100
AcDbSymbolTableRecord
100
AcDbLayerTableRecord
  2
CAPC1608N_80000_10
 70
0
 62
7
  6
CONTINUOUS
370
-3
390
F
  0
LAYER
  5
20A
100
AcDbSymbolTableRecord
100
AcDbLayerTableRecord
  2
CAPC1608N_80000_11
 70
0
 62
7
  6
CONTINUOUS
370
-3
390
F
  0
LAYER
  5
20B
100
AcDbSymbolTableRecord
100
AcDbLayerTableRecord
  2
CAPC1608N_80000_12
 70
0
 62
7
  6
CONTINUOUS
370
-3
390
F
  0
LAYER
  5
20C
100
AcDbSymbolTableRecord
100
AcDbLayerTableRecord
  2
CAPC1608N_80000_13
 70
0
 62
7
  6
CONTINUOUS
370
-3
390
F
  0
LAYER
  5
20D
100
AcDbSymbolTableRecord
100
AcDbLayerTableRecord
  2
CAPC1608N_80000_14
 70
0
 62
7
  6
CONTINUOUS
370
-3
390
F
  0
LAYER
  5
20E
100
AcDbSymbolTableRecord
100
AcDbLayerTableRecord
  2
CAPC1608N_80000_15
 70
0
 62
7
  6
CONTINUOUS
370
-3
390
F
  0
LAYER
  5
20F
100
AcDbSymbolTableRecord
100
AcDbLayerTableRecord
  2
CAPC1608N_80000_16
 70
0
 62
7
  6
CONTINUOUS
370
-3
390
F
  0
LAYER
  5
210
100
AcDbSymbolTableRecord
100
AcDbLayerTableRecord
  2
CAPC1608N_80000_17
 70
0
 62
7
  6
CONTINUOUS
370
-3
390
F
  0
LAYER
  5
211
100
AcDbSymbolTableRecord
100
AcDbLayerTableRecord
  2
CAPC1608N_80000_18
 70
0
 62
7
  6
CONTINUOUS
370
-3
390
F
  0
LAYER
  5
212
100
AcDbSymbolTableRecord
100
AcDbLayerTableRecord
  2
CAPC1608N_80000_19
 70
0
 62
7
  6
CONTINUOUS
370
-3
390
F
  0
LAYER
  5
213
100
AcDbSymbolTableRecord
100
AcDbLayerTableRecord
  2
CAPC1608N_80000_2
 70
0
 62
7
  6
CONTINUOUS
370
-3
390
F
  0
LAYER
  5
214
100
AcDbSymbolTableRecord
100
AcDbLayerTableRecord
  2
CAPC1608N_80000_20
 70
0
 62
7
  6
CONTINUOUS
370
-3
390
F
  0
LAYER
  5
215
100
AcDbSymbolTableRecord
100
AcDbLayerTableRecord
  2
CAPC1608N_80000_21
 70
0
 62
7
  6
CONTINUOUS
370
-3
390
F
  0
LAYER
  5
216
100
AcDbSymbolTableRecord
100
AcDbLayerTableRecord
  2
CAPC1608N_80000_3
 70
0
 62
7
  6
CONTINUOUS
370
-3
390
F
  0
LAYER
  5
217
100
AcDbSymbolTableRecord
100
AcDbLayerTableRecord
  2
CAPC1608N_80000_4
 70
0
 62
7
  6
CONTINUOUS
370
-3
390
F
  0
LAYER
  5
218
100
AcDbSymbolTableRecord
100
AcDbLayerTableRecord
  2
CAPC1608N_80000_5
 70
0
 62
7
  6
CONTINUOUS
370
-3
390
F
  0
LAYER
  5
219
100
AcDbSymbolTableRecord
100
AcDbLayerTableRecord
  2
CAPC1608N_80000_6
 70
0
 62
7
  6
CONTINUOUS
370
-3
390
F
  0
LAYER
  5
21A
100
AcDbSymbolTableRecord
100
AcDbLayerTableRecord
  2
CAPC1608N_80000_7
 70
0
 62
7
  6
CONTINUOUS
370
-3
390
F
  0
LAYER
  5
21B
100
AcDbSymbolTableRecord
100
AcDbLayerTableRecord
  2
CAPC1608N_80000_8
 70
0
 62
7
  6
CONTINUOUS
370
-3
390
F
  0
LAYER
  5
21C
100
AcDbSymbolTableRecord
100
AcDbLayerTableRecord
  2
CAPC1608N_80000_9
 70
0
 62
7
  6
CONTINUOUS
370
-3
390
F
  0
LAYER
  5
21D
100
AcDbSymbolTableRecord
100
AcDbLayerTableRecord
  2
CC-0603-VIMAR_1000
 70
0
 62
7
  6
CONTINUOUS
370
-3
390
F
  0
LAYER
  5
21E
100
AcDbSymbolTableRecord
100
AcDbLayerTableRecord
  2
CC-0603-VIMAR_1000_1
 70
0
 62
7
  6
CONTINUOUS
370
-3
390
F
  0
LAYER
  5
21F
100
AcDbSymbolTableRecord
100
AcDbLayerTableRecord
  2
CC-0603-VIMAR_1000_2
 70
0
 62
7
  6
CONTINUOUS
370
-3
390
F
  0
LAYER
  5
220
100
AcDbSymbolTableRecord
100
AcDbLayerTableRecord
  2
CN-1S-HEADER-PIH-1_254000
 70
0
 62
7
  6
CONTINUOUS
370
-3
390
F
  0
LAYER
  5
221
100
AcDbSymbolTableRecord
100
AcDbLayerTableRecord
  2
CN-1S-HEADER-PIH-1_254000_1
 70
0
 62
7
  6
CONTINUOUS
370
-3
390
F
  0
LAYER
  5
222
100
AcDbSymbolTableRecord
100
AcDbLayerTableRecord
  2
CN-1S-HEADER-PIH-1_254000_2
 70
0
 62
7
  6
CONTINUOUS
370
-3
390
F
  0
LAYER
  5
223
100
AcDbSymbolTableRecord
100
AcDbLayerTableRecord
  2
CN-1S-HEADER-PIH-1_254000_3
 70
0
 62
7
  6
CONTINUOUS
370
-3
390
F
  0
LAYER
  5
224
100
AcDbSymbolTableRecord
100
AcDbLayerTableRecord
  2
CN-1S-HEADER-PIH-1_254000_4
 70
0
 62
7
  6
CONTINUOUS
370
-3
390
F
  0
LAYER
  5
225
100
AcDbSymbolTableRecord
100
AcDbLayerTableRecord
  2
CN-1S-HEADER-PIH-1_254000_5
 70
0
 62
7
  6
CONTINUOUS
370
-3
390
F
  0
LAYER
  5
226
100
AcDbSymbolTableRecord
100
AcDbLayerTableRecord
  2
CN-1S-HEADER-PIH-1_254000_6
 70
0
 62
7
  6
CONTINUOUS
370
-3
390
F
  0
LAYER
  5
227
100
AcDbSymbolTableRecord
100
AcDbLayerTableRecord
  2
CN-1S-HEADER-PIH-1_254000_7
 70
0
 62
7
  6
CONTINUOUS
370
-3
390
F
  0
LAYER
  5
228
100
AcDbSymbolTableRecord
100
AcDbLayerTableRecord
  2
CN-243-VIMAR_850000
 70
0
 62
7
  6
CONTINUOUS
370
-3
390
F
  0
LAYER
  5
229
100
AcDbSymbolTableRecord
100
AcDbLayerTableRecord
  2
CN-243-VIMAR_850000_1
 70
0
 62
7
  6
CONTINUOUS
370
-3
390
F
  0
LAYER
  5
22A
100
AcDbSymbolTableRecord
100
AcDbLayerTableRecord
  2
CN1-TP10_SMD-VIMAR_10000
 70
0
 62
7
  6
CONTINUOUS
370
-3
390
F
  0
LAYER
  5
22B
100
AcDbSymbolTableRecord
100
AcDbLayerTableRecord
  2
CN1-TP10_SMD-VIMAR_10000_1
 70
0
 62
7
  6
CONTINUOUS
370
-3
390
F
  0
LAYER
  5
22C
100
AcDbSymbolTableRecord
100
AcDbLayerTableRecord
  2
CN1-TP10_SMD-VIMAR_10000_2
 70
0
 62
7
  6
CONTINUOUS
370
-3
390
F
  0
LAYER
  5
22D
100
AcDbSymbolTableRecord
100
AcDbLayerTableRecord
  2
CN1-TP10_SMD-VIMAR_10000_3
 70
0
 62
7
  6
CONTINUOUS
370
-3
390
F
  0
LAYER
  5
22E
100
AcDbSymbolTableRecord
100
AcDbLayerTableRecord
  2
COLOR5
 70
0
 62
7
  6
CONTINUOUS
370
-3
390
F
  0
LAYER
  5
22F
100
AcDbSymbolTableRecord
100
AcDbLayerTableRecord
  2
COLORE_MATERIALE
 70
0
 62
7
  6
CONTINUOUS
370
-3
390
F
  0
LAYER
  5
230
100
AcDbSymbolTableRecord
100
AcDbLayerTableRecord
  2
COORDINATE
 70
0
 62
7
  6
CONTINUOUS
370
-3
390
F
  0
LAYER
  5
231
100
AcDbSymbolTableRecord
100
AcDbLayerTableRecord
  2
COORD_ORIGINE
 70
0
 62
7
  6
CONTINUOUS
370
-3
390
F
  0
LAYER
  5
232
100
AcDbSymbolTableRecord
100
AcDbLayerTableRecord
  2
COPY-PUBBLISH
 70
0
 62
7
  6
CONTINUOUS
370
-3
390
F
  0
LAYER
  5
233
100
AcDbSymbolTableRecord
100
AcDbLayerTableRecord
  2
COPY_PUBLISH
 70
0
 62
7
  6
CONTINUOUS
370
-3
390
F
  0
LAYER
  5
234
100
AcDbSymbolTableRecord
100
AcDbLayerTableRecord
  2
COSMETIC
 70
0
 62
7
  6
CONTINUOUS
370
-3
390
F
  0
LAYER
  5
235
100
AcDbSymbolTableRecord
100
AcDbLayerTableRecord
  2
COSMETICI
 70
0
 62
7
  6
CONTINUOUS
370
-3
390
F
  0
LAYER
  5
236
100
AcDbSymbolTableRecord
100
AcDbLayerTableRecord
  2
CP-CE1-RF_550000
 70
0
 62
7
  6
CONTINUOUS
370
-3
390
F
  0
LAYER
  5
237
100
AcDbSymbolTableRecord
100
AcDbLayerTableRecord
  2
CP-CE10-RF-VIMAR_630000
 70
0
 62
7
  6
CONTINUOUS
370
-3
390
F
  0
LAYER
  5
238
100
AcDbSymbolTableRecord
100
AcDbLayerTableRecord
  2
CP-CE10-RF-VIMAR_630000_1
 70
0
 62
7
  6
CONTINUOUS
370
-3
390
F
  0
LAYER
  5
239
100
AcDbSymbolTableRecord
100
AcDbLayerTableRecord
  2
CP-CE4-RF_550000
 70
0
 62
7
  6
CONTINUOUS
370
-3
390
F
  0
LAYER
  5
23A
100
AcDbSymbolTableRecord
100
AcDbLayerTableRecord
  2
CP-CE4-RF_550000_1
 70
0
 62
7
  6
CONTINUOUS
370
-3
390
F
  0
LAYER
  5
23B
100
AcDbSymbolTableRecord
100
AcDbLayerTableRecord
  2
CP-DO-214AC-D-VIMAR_240000
 70
0
 62
7
  6
CONTINUOUS
370
-3
390
F
  0
LAYER
  5
23C
100
AcDbSymbolTableRecord
100
AcDbLayerTableRecord
  2
CP-DO-214AC-VIMAR_240000
 70
0
 62
7
  6
CONTINUOUS
370
-3
390
F
  0
LAYER
  5
23D
100
AcDbSymbolTableRecord
100
AcDbLayerTableRecord
  2
CURVE
 70
0
 62
7
  6
CONTINUOUS
370
-3
390
F
  0
LAYER
  5
23E
100
AcDbSymbolTableRecord
100
AcDbLayerTableRecord
  2
CURVE_LED_TASTO
 70
0
 62
7
  6
CONTINUOUS
370
-3
390
F
  0
LAYER
  5
23F
100
AcDbSymbolTableRecord
100
AcDbLayerTableRecord
  2
DRAFT
 70
0
 62
7
  6
CONTINUOUS
370
-3
390
F
  0
LAYER
  5
240
100
AcDbSymbolTableRecord
100
AcDbLayerTableRecord
  2
E4_MARK_10000
 70
0
 62
7
  6
CONTINUOUS
370
-3
390
F
  0
LAYER
  5
241
100
AcDbSymbolTableRecord
100
AcDbLayerTableRecord
  2
I3-TO5-H1-VIMAR_980000
 70
0
 62
7
  6
CONTINUOUS
370
-3
390
F
  0
LAYER
  5
242
100
AcDbSymbolTableRecord
100
AcDbLayerTableRecord
  2
IGES_SCRITTE
 70
0
 62
7
  6
CONTINUOUS
370
-3
390
F
  0
LAYER
  5
243
100
AcDbSymbolTableRecord
100
AcDbLayerTableRecord
  2
IMPORT_IGES
 70
0
 62
7
  6
CONTINUOUS
370
-3
390
F
  0
LAYER
  5
244
100
AcDbSymbolTableRecord
100
AcDbLayerTableRecord
  2
INTF_1
 70
0
 62
7
  6
CONTINUOUS
370
-3
390
F
  0
LAYER
  5
245
100
AcDbSymbolTableRecord
100
AcDbLayerTableRecord
  2
INTF_10
 70
0
 62
7
  6
CONTINUOUS
370
-3
390
F
  0
LAYER
  5
246
100
AcDbSymbolTableRecord
100
AcDbLayerTableRecord
  2
INTF_3
 70
0
 62
7
  6
CONTINUOUS
370
-3
390
F
  0
LAYER
  5
247
100
AcDbSymbolTableRecord
100
AcDbLayerTableRecord
  2
INTF_BLANK
 70
0
 62
7
  6
CONTINUOUS
370
-3
390
F
  0
LAYER
  5
248
100
AcDbSymbolTableRecord
100
AcDbLayerTableRecord
  2
LDR_VIMAR_700000
 70
0
 62
7
  6
CONTINUOUS
370
-3
390
F
  0
LAYER
  5
249
100
AcDbSymbolTableRecord
100
AcDbLayerTableRecord
  2
LOGO_RESIST-RESTYLING_10000
 70
0
 62
7
  6
CONTINUOUS
370
-3
390
F
  0
LAYER
  5
24A
100
AcDbSymbolTableRecord
100
AcDbLayerTableRecord
  2
MM3-SOT-89-RF-VIMAR_150000
 70
0
 62
7
  6
CONTINUOUS
370
-3
390
F
  0
LAYER
  5
24B
100
AcDbSymbolTableRecord
100
AcDbLayerTableRecord
  2
MM3-X-6-VIMAR_430000
 70
0
 62
7
  6
CONTINUOUS
370
-3
390
F
  0
LAYER
  5
24C
100
AcDbSymbolTableRecord
100
AcDbLayerTableRecord
  2
MM4-SWITCH-8-VIMAR_500000
 70
0
 62
7
  6
CONTINUOUS
370
-3
390
F
  0
LAYER
  5
24D
100
AcDbSymbolTableRecord
100
AcDbLayerTableRecord
  2
MM5-FMT-RF_120000
 70
0
 62
7
  6
CONTINUOUS
370
-3
390
F
  0
LAYER
  5
24E
100
AcDbSymbolTableRecord
100
AcDbLayerTableRecord
  2
NO-PB_MARK_10000
 70
0
 62
7
  6
CONTINUOUS
370
-3
390
F
  0
LAYER
  5
24F
100
AcDbSymbolTableRecord
100
AcDbLayerTableRecord
  2
NOTE
 70
0
 62
7
  6
CONTINUOUS
370
-3
390
F
  0
LAYER
  5
250
100
AcDbSymbolTableRecord
100
AcDbLayerTableRecord
  2
PIANI
 70
0
 62
7
  6
CONTINUOUS
370
-3
390
F
  0
LAYER
  5
251
100
AcDbSymbolTableRecord
100
AcDbLayerTableRecord
  2
PIANI_ORIGINE
 70
0
 62
7
  6
CONTINUOUS
370
-3
390
F
  0
LAYER
  5
252
100
AcDbSymbolTableRecord
100
AcDbLayerTableRecord
  2
PIANI_RIF
 70
0
 62
7
  6
CONTINUOUS
370
-3
390
F
  0
LAYER
  5
253
100
AcDbSymbolTableRecord
100
AcDbLayerTableRecord
  2
PIANI_RIFERIMENTO
 70
0
 62
7
  6
CONTINUOUS
370
-3
390
F
  0
LAYER
  5
254
100
AcDbSymbolTableRecord
100
AcDbLayerTableRecord
  2
PUNTI
 70
0
 62
7
  6
CONTINUOUS
370
-3
390
F
  0
LAYER
  5
255
100
AcDbSymbolTableRecord
100
AcDbLayerTableRecord
  2
QFP50P1200X1200X120-64N_120000
 70
0
 62
7
  6
CONTINUOUS
370
-3
390
F
  0
LAYER
  5
256
100
AcDbSymbolTableRecord
100
AcDbLayerTableRecord
  2
RACCORDO
 70
0
 62
7
  6
CONTINUOUS
370
-3
390
F
  0
LAYER
  5
257
100
AcDbSymbolTableRecord
100
AcDbLayerTableRecord
  2
RD-C25-NTC-1-VIMAR_1800000
 70
0
 62
7
  6
CONTINUOUS
370
-3
390
F
  0
LAYER
  5
258
100
AcDbSymbolTableRecord
100
AcDbLayerTableRecord
  2
RESC1608N_45000
 70
0
 62
7
  6
CONTINUOUS
370
-3
390
F
  0
LAYER
  5
259
100
AcDbSymbolTableRecord
100
AcDbLayerTableRecord
  2
RESC1608N_45000_1
 70
0
 62
7
  6
CONTINUOUS
370
-3
390
F
  0
LAYER
  5
25A
100
AcDbSymbolTableRecord
100
AcDbLayerTableRecord
  2
RESC1608N_45000_10
 70
0
 62
7
  6
CONTINUOUS
370
-3
390
F
  0
LAYER
  5
25B
100
AcDbSymbolTableRecord
100
AcDbLayerTableRecord
  2
RESC1608N_45000_11
 70
0
 62
7
  6
CONTINUOUS
370
-3
390
F
  0
LAYER
  5
25C
100
AcDbSymbolTableRecord
100
AcDbLayerTableRecord
  2
RESC1608N_45000_12
 70
0
 62
7
  6
CONTINUOUS
370
-3
390
F
  0
LAYER
  5
25D
100
AcDbSymbolTableRecord
100
AcDbLayerTableRecord
  2
RESC1608N_45000_13
 70
0
 62
7
  6
CONTINUOUS
370
-3
390
F
  0
LAYER
  5
25E
100
AcDbSymbolTableRecord
100
AcDbLayerTableRecord
  2
RESC1608N_45000_14
 70
0
 62
7
  6
CONTINUOUS
370
-3
390
F
  0
LAYER
  5
25F
100
AcDbSymbolTableRecord
100
AcDbLayerTableRecord
  2
RESC1608N_45000_15
 70
0
 62
7
  6
CONTINUOUS
370
-3
390
F
  0
LAYER
  5
260
100
AcDbSymbolTableRecord
100
AcDbLayerTableRecord
  2
RESC1608N_45000_16
 70
0
 62
7
  6
CONTINUOUS
370
-3
390
F
  0
LAYER
  5
261
100
AcDbSymbolTableRecord
100
AcDbLayerTableRecord
  2
RESC1608N_45000_17
 70
0
 62
7
  6
CONTINUOUS
370
-3
390
F
  0
LAYER
  5
262
100
AcDbSymbolTableRecord
100
AcDbLayerTableRecord
  2
RESC1608N_45000_18
 70
0
 62
7
  6
CONTINUOUS
370
-3
390
F
  0
LAYER
  5
263
100
AcDbSymbolTableRecord
100
AcDbLayerTableRecord
  2
RESC1608N_45000_19
 70
0
 62
7
  6
CONTINUOUS
370
-3
390
F
  0
LAYER
  5
264
100
AcDbSymbolTableRecord
100
AcDbLayerTableRecord
  2
RESC1608N_45000_2
 70
0
 62
7
  6
CONTINUOUS
370
-3
390
F
  0
LAYER
  5
265
100
AcDbSymbolTableRecord
100
AcDbLayerTableRecord
  2
RESC1608N_45000_20
 70
0
 62
7
  6
CONTINUOUS
370
-3
390
F
  0
LAYER
  5
266
100
AcDbSymbolTableRecord
100
AcDbLayerTableRecord
  2
RESC1608N_45000_21
 70
0
 62
7
  6
CONTINUOUS
370
-3
390
F
  0
LAYER
  5
267
100
AcDbSymbolTableRecord
100
AcDbLayerTableRecord
  2
RESC1608N_45000_22
 70
0
 62
7
  6
CONTINUOUS
370
-3
390
F
  0
LAYER
  5
268
100
AcDbSymbolTableRecord
100
AcDbLayerTableRecord
  2
RESC1608N_45000_3
 70
0
 62
7
  6
CONTINUOUS
370
-3
390
F
  0
LAYER
  5
269
100
AcDbSymbolTableRecord
100
AcDbLayerTableRecord
  2
RESC1608N_45000_4
 70
0
 62
7
  6
CONTINUOUS
370
-3
390
F
  0
LAYER
  5
26A
100
AcDbSymbolTableRecord
100
AcDbLayerTableRecord
  2
RESC1608N_45000_5
 70
0
 62
7
  6
CONTINUOUS
370
-3
390
F
  0
LAYER
  5
26B
100
AcDbSymbolTableRecord
100
AcDbLayerTableRecord
  2
RESC1608N_45000_6
 70
0
 62
7
  6
CONTINUOUS
370
-3
390
F
  0
LAYER
  5
26C
100
AcDbSymbolTableRecord
100
AcDbLayerTableRecord
  2
RESC1608N_45000_7
 70
0
 62
7
  6
CONTINUOUS
370
-3
390
F
  0
LAYER
  5
26D
100
AcDbSymbolTableRecord
100
AcDbLayerTableRecord
  2
RESC1608N_45000_8
 70
0
 62
7
  6
CONTINUOUS
370
-3
390
F
  0
LAYER
  5
26E
100
AcDbSymbolTableRecord
100
AcDbLayerTableRecord
  2
RESC1608N_45000_9
 70
0
 62
7
  6
CONTINUOUS
370
-3
390
F
  0
LAYER
  5
26F
100
AcDbSymbolTableRecord
100
AcDbLayerTableRecord
  2
RESC6432X70N_70000
 70
0
 62
7
  6
CONTINUOUS
370
-3
390
F
  0
LAYER
  5
270
100
AcDbSymbolTableRecord
100
AcDbLayerTableRecord
  2
RGB____0____0____0__
 70
0
 62
7
  6
CONTINUOUS
370
-3
390
F
  0
LAYER
  5
271
100
AcDbSymbolTableRecord
100
AcDbLayerTableRecord
  2
SHELL
 70
0
 62
7
  6
CONTINUOUS
370
-3
390
F
  0
LAYER
  5
272
100
AcDbSymbolTableRecord
100
AcDbLayerTableRecord
  2
SMUSSO
 70
0
 62
7
  6
CONTINUOUS
370
-3
390
F
  0
LAYER
  5
273
100
AcDbSymbolTableRecord
100
AcDbLayerTableRecord
  2
SNAPLINE
 70
0
 62
7
  6
CONTINUOUS
370
-3
390
F
  0
LAYER
  5
274
100
AcDbSymbolTableRecord
100
AcDbLayerTableRecord
  2
SOLIDO
 70
0
 62
7
  6
CONTINUOUS
370
-3
390
F
  0
LAYER
  5
275
100
AcDbSymbolTableRecord
100
AcDbLayerTableRecord
  2
SOP20-1-VIMAR_270000
 70
0
 62
7
  6
CONTINUOUS
370
-3
390
F
  0
LAYER
  5
276
100
AcDbSymbolTableRecord
100
AcDbLayerTableRecord
  2
SOP8-T1-RF-FINE-VIMAR_150000
 70
0
 62
7
  6
CONTINUOUS
370
-3
390
F
  0
LAYER
  5
277
100
AcDbSymbolTableRecord
100
AcDbLayerTableRecord
  2
SUPERFICI
 70
0
 62
7
  6
CONTINUOUS
370
-3
390
F
  0
LAYER
  5
278
100
AcDbSymbolTableRecord
100
AcDbLayerTableRecord
  2
SUP_PRO
 70
0
 62
7
  6
CONTINUOUS
370
-3
390
F
  0
LAYER
  5
279
100
AcDbSymbolTableRecord
100
AcDbLayerTableRecord
  2
TP15_SMD_0
 70
0
 62
7
  6
CONTINUOUS
370
-3
390
F
  0
LAYER
  5
27A
100
AcDbSymbolTableRecord
100
AcDbLayerTableRecord
  2
TP15_SMD_0_1
 70
0
 62
7
  6
CONTINUOUS
370
-3
390
F
  0
LAYER
  5
27B
100
AcDbSymbolTableRecord
100
AcDbLayerTableRecord
  2
TP15_SMD_0_2
 70
0
 62
7
  6
CONTINUOUS
370
-3
390
F
  0
LAYER
  5
27C
100
AcDbSymbolTableRecord
100
AcDbLayerTableRecord
  2
TP15_SMD_0_3
 70
0
 62
7
  6
CONTINUOUS
370
-3
390
F
  0
LAYER
  5
27D
100
AcDbSymbolTableRecord
100
AcDbLayerTableRecord
  2
TP15_SMD_0_4
 70
0
 62
7
  6
CONTINUOUS
370
-3
390
F
  0
LAYER
  5
27E
100
AcDbSymbolTableRecord
100
AcDbLayerTableRecord
  2
TP15_SMD_0_5
 70
0
 62
7
  6
CONTINUOUS
370
-3
390
F
  0
LAYER
  5
27F
100
AcDbSymbolTableRecord
100
AcDbLayerTableRecord
  2
TP15_SMD_0_6
 70
0
 62
7
  6
CONTINUOUS
370
-3
390
F
  0
LAYER
  5
280
100
AcDbSymbolTableRecord
100
AcDbLayerTableRecord
  2
TP15_SMD_0_7
 70
0
 62
7
  6
CONTINUOUS
370
-3
390
F
  0
LAYER
  5
281
100
AcDbSymbolTableRecord
100
AcDbLayerTableRecord
  2
TRASH
 70
0
 62
7
  6
CONTINUOUS
370
-3
390
F
  0
LAYER
  5
282
100
AcDbSymbolTableRecord
100
AcDbLayerTableRecord
  2
XSEC_DATUMS
 70
0
 62
7
  6
CONTINUOUS
370
-3
390
F
  0
LAYER
  5
283
100
AcDbSymbolTableRecord
100
AcDbLayerTableRecord
  2
___SHELL
 70
0
 62
7
  6
CONTINUOUS
370
-3
390
F
  0
ENDTAB
  0
TABLE
  2
STYLE
  5
3
100
AcDbSymbolTable
 70
1
  0
STYLE
  5
11
100
AcDbSymbolTableRecord
100
AcDbTextStyleTableRecord
  2
STANDARD
 70
0
 40
0.0
 41
0.8
 50
0.0
 71
0
 42
0.2
  3
txt
  4

  0
STYLE
  5
284
100
AcDbSymbolTableRecord
100
AcDbTextStyleTableRecord
  2
TEXTSTYLE_1
 70
0
 40
0.0
 41
0.8
 50
0.0
 71
0
 42
0.2
  3
gdt
  4

  0
ENDTAB
  0
TABLE
  2
VIEW
  5
6
100
AcDbSymbolTable
 70
0
  0
ENDTAB
  0
TABLE
  2
UCS
  5
7
100
AcDbSymbolTable
 70
0
  0
ENDTAB
  0
TABLE
  2
APPID
  5
9
100
AcDbSymbolTable
 70
1
  0
APPID
  5
285
100
AcDbSymbolTableRecord
100
AcDbRegAppTableRecord
  2
ACAD
 70
0
  0
ENDTAB
  0
TABLE
  2
BLOCK_RECORD
  5
1
100
AcDbSymbolTable
 70
0
  0
BLOCK_RECORD
  5
286
100
AcDbSymbolTableRecord
100
AcDbBlockTableRecord
  2
*Model_Space
  0
BLOCK_RECORD
  5
287
100
AcDbSymbolTableRecord
100
AcDbBlockTableRecord
  2
*Paper_Space
  0
BLOCK_RECORD
  5
288
100
AcDbSymbolTableRecord
100
AcDbBlockTableRecord
  2
_FILLED
  0
BLOCK_RECORD
  5
289
100
AcDbSymbolTableRecord
100
AcDbBlockTableRecord
  2
*D0
  0
BLOCK_RECORD
  5
28A
100
AcDbSymbolTableRecord
100
AcDbBlockTableRecord
  2
*D1
  0
BLOCK_RECORD
  5
28B
100
AcDbSymbolTableRecord
100
AcDbBlockTableRecord
  2
*D2
  0
BLOCK_RECORD
  5
28C
100
AcDbSymbolTableRecord
100
AcDbBlockTableRecord
  2
*D3
  0
ENDTAB
  0
TABLE
  2
DIMSTYLE
  5
A
100
AcDbSymbolTable
 70
1
100
AcDbDimStyleTable
 71
0
  0
DIMSTYLE
105
28D
100
AcDbSymbolTableRecord
100
AcDbDimStyleTableRecord
  2
STANDARD
 70
0
  3

  4

 40
1.0
 41
3.0
 42
0.0625
 43
0.38
 44
0.18
 45
0.0
 46
0.0
 47
0.01
 48
0.01
140
3.0
141
0.09
142
0.0
143
25.4
144
1.0
145
0.0
146
1.0
147
0.09
 71
1.0
 72
0.0
 73
0
 74
0
 75
0
 76
0
 77
1
 78
8
170
0
171
2
172
0
173
0
174
0
175
0
176
0
177
0
178
0
270
2
271
2
272
2
273
2
274
2
275
0
280
0
281
0
282
0
283
1
284
8
285
0
286
0
287
3
288
0
340
11
341
288
342
288
343
288
344
288
  0
DIMSTYLE
105
28E
100
AcDbSymbolTableRecord
100
AcDbDimStyleTableRecord
  2
DIMSTYLE_1
 70
0
  3

  4

 40
1.0
 41
3.0
 42
0.0625
 43
0.38
 44
0.18
 45
0.0
 46
0.0
 47
0.0
 48
0.0
140
3.0
141
0.09
142
0.0
143
25.4
144
1.0
145
0.0
146
1.0
147
0.09
 71
0.0
 72
0.0
 73
0
 74
0
 75
0
 76
0
 77
1
 78
8
170
0
171
2
172
0
173
0
174
0
175
0
176
0
177
0
178
0
270
2
271
2
272
2
273
2
274
2
275
0
280
0
281
0
282
0
283
1
284
8
285
0
286
0
287
3
288
0
340
11
341
288
342
288
343
288
344
288
  0
ENDTAB
  0
ENDSEC
  0
SECTION
  2
BLOCKS
  0
BLOCK
  5
20
100
AcDbEntity
  8
0
100
AcDbBlockBegin
  2
*Model_Space
 70
0
 10
0.0
 20
0.0
 30
0.0
  3
*Model_Space
  1

  0
ENDBLK
  5
21
100
AcDbEntity
  8
0
100
AcDbBlockEnd
  0
BLOCK
  5
1C
100
AcDbEntity
  8
0
100
AcDbBlockBegin
  2
*Paper_Space
 70
0
 10
0.0
 20
0.0
 30
0.0
  3
*Paper_Space
  1

  0
ENDBLK
  5
1D
100
AcDbEntity
  8
0
100
AcDbBlockEnd
  0
BLOCK
  5
28F
100
AcDbEntity
  8
0
100
AcDbBlockBegin
  2
_FILLED
 70
64
 10
0.0
 20
0.0
  3
_FILLED
  1

  0
SOLID
  5
290
100
AcDbEntity
  8
0
  6
BYBLOCK
 62
0
100
AcDbTrace
 10
0.0
 20
0.0
 11
-1.0
 21
0.3166666667
 12
-1.0
 22
-0.3166666667
 13
-1.0
 23
-0.3166666667
  0
ENDBLK
  5
291
100
AcDbEntity
  8
0
  6
BYBLOCK
 62
0
100
AcDbBlockEnd
  0
BLOCK
  5
292
100
AcDbEntity
  8
0
100
AcDbBlockBegin
 62
7
  6
CONTINUOUS
  2
*D0
 70
65
 10
0.0
 20
0.0
  3
*D0
  1

  0
MTEXT
  5
293
100
AcDbEntity
  8
0
100
AcDbMText
 62
7
  6
CONTINUOUS
  7
STANDARD
 71
2
 72
1
 10
63.7658600249
 20
-0.0437799917
 30
0.0
 11
0.0
 21
1.0
 31
0.0
 44
0.9
  1
50
 40
3.0
 41
4.5
  0
LINE
  5
294
100
AcDbEntity
  8
0
100
AcDbLine
 62
7
  6
CONTINUOUS
 10
53.6158600249
 20
24.9562200083
 11
69.0158600249
 21
24.9562200083
  0
LINE
  5
295
100
AcDbEntity
  8
0
100
AcDbLine
 62
7
  6
CONTINUOUS
 10
53.6158600249
 20
-25.0437799917
 11
69.0158600249
 21
-25.0437799917
  0
LINE
  5
296
100
AcDbEntity
  8
0
100
AcDbLine
 62
7
  6
CONTINUOUS
 10
67.5158600249
 20
24.9562200083
 11
67.5158600249
 21
-0.0437799917
  0
LINE
  5
297
100
AcDbEntity
  8
0
100
AcDbLine
 62
7
  6
CONTINUOUS
 10
67.5158600249
 20
-25.0437799917
 11
67.5158600249
 21
-0.0437799917
  0
INSERT
  5
298
100
AcDbEntity
  8
0
100
AcDbBlockReference
 62
7
  6
CONTINUOUS
  2
_FILLED
 10
67.5158600249
 20
24.9562200083
 41
3.0
 42
3.0
 43
3.0
 50
90.0
  0
INSERT
  5
299
100
AcDbEntity
  8
0
100
AcDbBlockReference
 62
7
  6
CONTINUOUS
  2
_FILLED
 10
67.5158600249
 20
-25.0437799917
 41
3.0
 42
3.0
 43
3.0
 50
270.0
  0
ENDBLK
  5
29A
100
AcDbEntity
  8
0
  6
BYBLOCK
 62
0
100
AcDbBlockEnd
  0
BLOCK
  5
29B
100
AcDbEntity
  8
0
100
AcDbBlockBegin
 62
7
  6
CONTINUOUS
  2
*D1
 70
65
 10
0.0
 20
0.0
  3
*D1
  1

  0
MTEXT
  5
29C
100
AcDbEntity
  8
0
100
AcDbMText
 62
7
  6
CONTINUOUS
  7
STANDARD
 71
2
 72
1
 10
34.6158600249
 20
36.7062200083
 30
0.0
 11
1.0
 21
0.0
 31
0.0
 44
0.9
  1
49,8
 40
3.0
 41
8.7857142857
  0
LINE
  5
29D
100
AcDbEntity
  8
0
100
AcDbLine
 62
7
  6
CONTINUOUS
 10
59.5158600249
 20
24.2062200083
 11
59.5158600249
 21
34.4562200083
  0
LINE
  5
29E
100
AcDbEntity
  8
0
100
AcDbLine
 62
7
  6
CONTINUOUS
 10
9.7158600249
 20
24.2062200083
 11
9.7158600249
 21
34.4562200083
  0
LINE
  5
29F
100
AcDbEntity
  8
0
100
AcDbLine
 62
7
  6
CONTINUOUS
 10
59.5158600249
 20
32.9562200083
 11
34.6158600249
 21
32.9562200083
  0
LINE
  5
2A0
100
AcDbEntity
  8
0
100
AcDbLine
 62
7
  6
CONTINUOUS
 10
9.7158600249
 20
32.9562200083
 11
34.6158600249
 21
32.9562200083
  0
INSERT
  5
2A1
100
AcDbEntity
  8
0
100
AcDbBlockReference
 62
7
  6
CONTINUOUS
  2
_FILLED
 10
59.5158600249
 20
32.9562200083
 41
3.0
 42
3.0
 43
3.0
  0
INSERT
  5
2A2
100
AcDbEntity
  8
0
100
AcDbBlockReference
 62
7
  6
CONTINUOUS
  2
_FILLED
 10
9.7158600249
 20
32.9562200083
 41
3.0
 42
3.0
 43
3.0
 50
180.0
  0
ENDBLK
  5
2A3
100
AcDbEntity
  8
0
  6
BYBLOCK
 62
0
100
AcDbBlockEnd
  0
BLOCK
  5
2A4
100
AcDbEntity
  8
0
100
AcDbBlockBegin
 62
7
  6
CONTINUOUS
  2
*D2
 70
65
 10
0.0
 20
0.0
  3
*D2
  1

  0
MTEXT
  5
2A5
100
AcDbEntity
  8
0
100
AcDbMText
 62
7
  6
CONTINUOUS
  7
STANDARD
 71
2
 72
1
 10
-16.0021566314
 20
36.7062200083
 30
0.0
 11
1.0
 21
0.0
 31
0.0
 44
0.9
  1
19,5
 40
3.0
 41
7.9285714286
  0
LINE
  5
2A6
100
AcDbEntity
  8
0
100
AcDbLine
 62
7
  6
CONTINUOUS
 10
-6.2521566314
 20
18.4465850395
 11
-6.2521566314
 21
34.4562200083
  0
LINE
  5
2A7
100
AcDbEntity
  8
0
100
AcDbLine
 62
7
  6
CONTINUOUS
 10
-25.7521566314
 20
24.4562200083
 11
-25.7521566314
 21
34.4562200083
  0
LINE
  5
2A8
100
AcDbEntity
  8
0
100
AcDbLine
 62
7
  6
CONTINUOUS
 10
-6.2521566314
 20
32.9562200083
 11
-16.0021566314
 21
32.9562200083
  0
LINE
  5
2A9
100
AcDbEntity
  8
0
100
AcDbLine
 62
7
  6
CONTINUOUS
 10
-25.7521566314
 20
32.9562200083
 11
-16.0021566314
 21
32.9562200083
  0
INSERT
  5
2AA
100
AcDbEntity
  8
0
100
AcDbBlockReference
 62
7
  6
CONTINUOUS
  2
_FILLED
 10
-6.2521566314
 20
32.9562200083
 41
3.0
 42
3.0
 43
3.0
  0
INSERT
  5
2AB
100
AcDbEntity
  8
0
100
AcDbBlockReference
 62
7
  6
CONTINUOUS
  2
_FILLED
 10
-25.7521566314
 20
32.9562200083
 41
3.0
 42
3.0
 43
3.0
 50
180.0
  0
ENDBLK
  5
2AC
100
AcDbEntity
  8
0
  6
BYBLOCK
 62
0
100
AcDbBlockEnd
  0
BLOCK
  5
2AD
100
AcDbEntity
  8
0
100
AcDbBlockBegin
 62
7
  6
CONTINUOUS
  2
*D3
 70
65
 10
0.0
 20
0.0
  3
*D3
  1

  0
MTEXT
  5
2AE
100
AcDbEntity
  8
0
100
AcDbMText
 62
7
  6
CONTINUOUS
  7
STANDARD
 71
2
 72
1
 10
-24.7521566314
 20
46.7062200083
 30
0.0
 11
1.0
 21
0.0
 31
0.0
 44
0.9
  1
37
 40
3.0
 41
4.5
  0
LINE
  5
2AF
100
AcDbEntity
  8
0
100
AcDbLine
 62
7
  6
CONTINUOUS
 10
-6.2521566314
 20
18.4465850395
 11
-6.2521566314
 21
44.4562200083
  0
LINE
  5
2B0
100
AcDbEntity
  8
0
100
AcDbLine
 62
7
  6
CONTINUOUS
 10
-43.2521566314
 20
1.9562200083
 11
-43.2521566314
 21
44.4562200083
  0
LINE
  5
2B1
100
AcDbEntity
  8
0
100
AcDbLine
 62
7
  6
CONTINUOUS
 10
-6.2521566314
 20
42.9562200083
 11
-24.7521566314
 21
42.9562200083
  0
LINE
  5
2B2
100
AcDbEntity
  8
0
100
AcDbLine
 62
7
  6
CONTINUOUS
 10
-43.2521566314
 20
42.9562200083
 11
-24.7521566314
 21
42.9562200083
  0
INSERT
  5
2B3
100
AcDbEntity
  8
0
100
AcDbBlockReference
 62
7
  6
CONTINUOUS
  2
_FILLED
 10
-6.2521566314
 20
42.9562200083
 41
3.0
 42
3.0
 43
3.0
 50
0.0
  0
INSERT
  5
2B4
100
AcDbEntity
  8
0
100
AcDbBlockReference
 62
7
  6
CONTINUOUS
  2
_FILLED
 10
-43.2521566314
 20
42.9562200083
 41
3.0
 42
3.0
 43
3.0
 50
180.0
  0
ENDBLK
  5
2B5
100
AcDbEntity
  8
0
  6
BYBLOCK
 62
0
100
AcDbBlockEnd
  0
ENDSEC
  0
SECTION
  2
ENTITIES
  0
DIMENSION
  5
2B6
100
AcDbEntity
  8
0
100
AcDbDimension
 62
7
  6
CONTINUOUS
  2
*D0
 10
67.5158600249
 20
-25.0437799917
 11
66.2740256612
 21
-2.0552724848
 70
160
 71
2
 42
50.0
  3
DIMSTYLE_1
100
AcDbAlignedDimension
 13
53.6158600249
 23
24.9562200083
 14
53.6158600249
 24
-25.0437799917
 50
270.0
100
AcDbRotatedDimension
  0
DIMENSION
  5
2B7
100
AcDbEntity
  8
0
100
AcDbDimension
 62
7
  6
CONTINUOUS
  2
*D1
 10
9.7158600249
 20
32.9562200083
 11
30.2230028821
 21
35.2062200083
 70
160
 71
2
 42
49.8
  3
DIMSTYLE_1
100
AcDbAlignedDimension
 13
59.5158600249
 23
24.2062200083
 14
9.7158600249
 24
24.2062200083
 50
180.0
100
AcDbRotatedDimension
  0
DIMENSION
  5
2B8
100
AcDbEntity
  8
0
100
AcDbDimension
 62
7
  6
CONTINUOUS
  2
*D2
 10
-25.7521566314
 20
32.9562200083
 11
-19.9664423457
 21
35.2062200083
 70
160
 71
2
 42
19.5
  3
DIMSTYLE_1
100
AcDbAlignedDimension
 13
-6.2521566314
 23
18.4465850395
 14
-25.7521566314
 24
24.4562200083
 50
180.0
100
AcDbRotatedDimension
  0
DIMENSION
  5
2B9
100
AcDbEntity
  8
0
100
AcDbDimension
 62
7
  6
CONTINUOUS
  2
*D3
 10
-43.2521566314
 20
42.9562200083
 11
-27.0021566314
 21
45.2062200083
 70
160
 71
2
 42
37.0
  3
DIMSTYLE_1
100
AcDbAlignedDimension
 13
-6.2521566314
 23
18.4465850395
 14
-43.2521566314
 24
1.9562200083
 50
180.0
100
AcDbRotatedDimension
  0
LINE
  5
2BA
100
AcDbEntity
  8
RACCORDO
100
AcDbLine
 62
7
  6
CONTINUOUS
 10
11.8558051773
 20
22.5961651606
 11
11.6800333379
 21
22.4203933213
  0
LINE
  5
2BB
100
AcDbEntity
  8
RACCORDO
100
AcDbLine
 62
7
  6
CONTINUOUS
 10
11.8558051773
 20
-22.683725144
 11
11.6800333379
 21
-22.5079533047
  0
LINE
  5
2BC
100
AcDbEntity
  8
RACCORDO
100
AcDbLine
 62
7
  6
CONTINUOUS
 10
16.022335921
 20
22.5626959044
 11
15.8605283995
 21
22.4008883828
  0
LINE
  5
2BD
100
AcDbEntity
  8
RACCORDO
100
AcDbLine
 62
7
  6
CONTINUOUS
 10
16.022335921
 20
-22.6502558877
 11
15.8605283995
 21
-22.4884483662
  0
LINE
  5
2BE
100
AcDbEntity
  8
RACCORDO
100
AcDbLine
 62
7
  6
CONTINUOUS
 10
9.7158600249
 20
-23.7937799917
 11
9.7158600249
 21
23.7062200083
  0
LINE
  5
2BF
100
AcDbEntity
  8
RACCORDO
100
AcDbLine
 62
253
  6
CONTINUOUS
 10
9.751686712
 20
-23.7937799917
 11
9.751686712
 21
-22.2579913809
  0
LINE
  5
2C0
100
AcDbEntity
  8
RACCORDO
100
AcDbLine
 62
253
  6
CONTINUOUS
 10
9.751686712
 20
22.1704313975
 11
9.751686712
 21
23.7062200083
  0
LINE
  5
2C1
100
AcDbEntity
  8
RACCORDO
100
AcDbLine
 62
7
  6
CONTINUOUS
 10
9.8380454794
 20
-18.8437799917
 11
9.8380454794
 21
-18.0906926712
  0
LINE
  5
2C2
100
AcDbEntity
  8
RACCORDO
100
AcDbLine
 62
7
  6
CONTINUOUS
 10
9.8380454794
 20
18.0031326879
 11
9.8380454794
 21
18.7562200083
  0
LINE
  5
2C3
100
AcDbEntity
  8
RACCORDO
100
AcDbLine
 62
253
  6
CONTINUOUS
 10
9.8424854039
 20
-22.1671926889
 11
9.8424854039
 21
-18.8437799917
  0
LINE
  5
2C4
100
AcDbEntity
  8
RACCORDO
100
AcDbLine
 62
253
  6
CONTINUOUS
 10
9.8424854039
 20
18.7562200083
 11
9.8424854039
 21
22.0796327056
  0
LINE
  5
2C5
100
AcDbEntity
  8
RACCORDO
100
AcDbLine
 62
253
  6
CONTINUOUS
 10
10.0924473277
 20
-18.8437799917
 11
10.0924473277
 21
-22.4171546127
  0
LINE
  5
2C6
100
AcDbEntity
  8
RACCORDO
100
AcDbLine
 62
253
  6
CONTINUOUS
 10
10.0924473277
 20
18.7562200083
 11
10.0924473277
 21
22.3295946294
  0
LINE
  5
2C7
100
AcDbEntity
  8
0
100
AcDbLine
 62
7
  6
CONTINUOUS
 10
16.1158600249
 20
-25.0437799917
 11
28.1158600249
 21
-25.0437799917
  0
LINE
  5
2C8
100
AcDbEntity
  8
0
100
AcDbLine
 62
7
  6
CONTINUOUS
 10
41.1158600249
 20
-25.0437799917
 11
53.1158600249
 21
-25.0437799917
  0
LINE
  5
2C9
100
AcDbEntity
  8
0
100
AcDbLine
 62
253
  6
CONTINUOUS
 10
16.1158600249
 20
-24.3437799917
 11
28.1158600249
 21
-24.3437799917
  0
LINE
  5
2CA
100
AcDbEntity
  8
0
100
AcDbLine
 62
253
  6
CONTINUOUS
 10
41.1158600249
 20
-24.3437799917
 11
53.1158600249
 21
-24.3437799917
  0
LINE
  5
2CB
100
AcDbEntity
  8
RACCORDO
100
AcDbLine
 62
7
  6
CONTINUOUS
 10
11.4658219429
 20
-24.0437799917
 11
9.965898107
 21
-24.0437799917
  0
LINE
  5
2CC
100
AcDbEntity
  8
RACCORDO
100
AcDbLine
 62
7
  6
CONTINUOUS
 10
16.1158600249
 20
-24.0437799917
 11
18.1825937901
 21
-24.0437799917
  0
LINE
  5
2CD
100
AcDbEntity
  8
RACCORDO
100
AcDbLine
 62
7
  6
CONTINUOUS
 10
26.0491262598
 20
-24.0437799917
 11
28.1158600249
 21
-24.0437799917
  0
LINE
  5
2CE
100
AcDbEntity
  8
RACCORDO
100
AcDbLine
 62
7
  6
CONTINUOUS
 10
41.1158600249
 20
-24.0437799917
 11
43.1825937901
 21
-24.0437799917
  0
LINE
  5
2CF
100
AcDbEntity
  8
RACCORDO
100
AcDbLine
 62
7
  6
CONTINUOUS
 10
51.0491262598
 20
-24.0437799917
 11
53.1158600249
 21
-24.0437799917
  0
LINE
  5
2D0
100
AcDbEntity
  8
RACCORDO
100
AcDbLine
 62
7
  6
CONTINUOUS
 10
57.765898107
 20
-24.0437799917
 11
59.2658219429
 21
-24.0437799917
  0
LINE
  5
2D1
100
AcDbEntity
  8
RACCORDO
100
AcDbLine
 62
7
  6
CONTINUOUS
 10
51.4158600249
 20
-23.9021894515
 11
50.8579416398
 21
-23.9021894515
  0
LINE
  5
2D2
100
AcDbEntity
  8
RACCORDO
100
AcDbLine
 62
7
  6
CONTINUOUS
 10
43.3737784101
 20
-23.9021894515
 11
42.8158600249
 21
-23.9021894515
  0
LINE
  5
2D3
100
AcDbEntity
  8
RACCORDO
100
AcDbLine
 62
7
  6
CONTINUOUS
 10
26.4158600249
 20
-23.9021894515
 11
25.8579416398
 21
-23.9021894515
  0
LINE
  5
2D4
100
AcDbEntity
  8
RACCORDO
100
AcDbLine
 62
7
  6
CONTINUOUS
 10
18.3737784101
 20
-23.9021894515
 11
17.8158600249
 21
-23.9021894515
  0
LINE
  5
2D5
100
AcDbEntity
  8
RACCORDO
100
AcDbLine
 62
253
  6
CONTINUOUS
 10
11.7158600249
 20
-23.7937799917
 11
9.7158600249
 21
-23.7937799917
  0
LINE
  5
2D6
100
AcDbEntity
  8
RACCORDO
100
AcDbLine
 62
253
  6
CONTINUOUS
 10
57.5158600249
 20
-23.7937799917
 11
59.5158600249
 21
-23.7937799917
  0
LINE
  5
2D7
100
AcDbEntity
  8
RACCORDO
100
AcDbLine
 62
7
  6
CONTINUOUS
 10
51.4158600249
 20
-23.521766845
 11
50.8201897924
 21
-23.521766845
  0
LINE
  5
2D8
100
AcDbEntity
  8
RACCORDO
100
AcDbLine
 62
7
  6
CONTINUOUS
 10
43.4115302575
 20
-23.521766845
 11
42.8158600249
 21
-23.521766845
  0
LINE
  5
2D9
100
AcDbEntity
  8
RACCORDO
100
AcDbLine
 62
7
  6
CONTINUOUS
 10
26.4158600249
 20
-23.521766845
 11
25.8201897924
 21
-23.521766845
  0
LINE
  5
2DA
100
AcDbEntity
  8
RACCORDO
100
AcDbLine
 62
7
  6
CONTINUOUS
 10
18.4115302575
 20
-23.521766845
 11
17.8158600249
 21
-23.521766845
  0
LINE
  5
2DB
100
AcDbEntity
  8
RACCORDO
100
AcDbLine
 62
7
  6
CONTINUOUS
 10
55.0141899948
 20
-23.2937799917
 11
53.1158600249
 21
-23.2937799917
  0
LINE
  5
2DC
100
AcDbEntity
  8
RACCORDO
100
AcDbLine
 62
7
  6
CONTINUOUS
 10
41.1158600249
 20
-23.2937799917
 11
39.2175300551
 21
-23.2937799917
  0
LINE
  5
2DD
100
AcDbEntity
  8
RACCORDO
100
AcDbLine
 62
7
  6
CONTINUOUS
 10
30.0141899948
 20
-23.2937799917
 11
28.1158600249
 21
-23.2937799917
  0
LINE
  5
2DE
100
AcDbEntity
  8
RACCORDO
100
AcDbLine
 62
7
  6
CONTINUOUS
 10
16.1158600249
 20
-23.2937799917
 11
14.2175300551
 21
-23.2937799917
  0
LINE
  5
2DF
100
AcDbEntity
  8
RACCORDO
100
AcDbLine
 62
253
  6
CONTINUOUS
 10
9.8957271592
 20
17.420445859
 11
9.8380454794
 21
18.0031326879
  0
LINE
  5
2E0
100
AcDbEntity
  8
RACCORDO
100
AcDbLine
 62
253
  6
CONTINUOUS
 10
10.145689083
 20
17.6666477973
 11
10.0873258014
 21
18.2562200083
  0
LINE
  5
2E1
100
AcDbEntity
  8
RACCORDO
100
AcDbLine
 62
253
  6
CONTINUOUS
 10
11.6800333379
 20
-23.7937799917
 11
11.6800333379
 21
-22.5079533047
  0
LINE
  5
2E2
100
AcDbEntity
  8
RACCORDO
100
AcDbLine
 62
253
  6
CONTINUOUS
 10
11.6800333379
 20
22.4203933213
 11
11.6800333379
 21
23.7062200083
  0
LINE
  5
2E3
100
AcDbEntity
  8
RACCORDO
100
AcDbLine
 62
7
  6
CONTINUOUS
 10
11.7158600249
 20
-23.7937799917
 11
11.7158600249
 21
-22.5437799917
  0
LINE
  5
2E4
100
AcDbEntity
  8
RACCORDO
100
AcDbLine
 62
7
  6
CONTINUOUS
 10
11.7158600249
 20
22.4562200083
 11
11.7158600249
 21
23.7062200083
  0
LINE
  5
2E5
100
AcDbEntity
  8
RACCORDO
100
AcDbLine
 62
253
  6
CONTINUOUS
 10
9.8380454794
 20
-18.0906926712
 11
9.8957271592
 21
-17.5080058424
  0
LINE
  5
2E6
100
AcDbEntity
  8
RACCORDO
100
AcDbLine
 62
253
  6
CONTINUOUS
 10
10.0873258014
 20
-18.3437799917
 11
10.145689083
 21
-17.7542077807
  0
LINE
  5
2E7
100
AcDbEntity
  8
DRAFT
100
AcDbLine
 62
7
  6
CONTINUOUS
 10
26.1419787782
 20
22.5626959044
 11
25.9971017392
 21
22.4178188655
  0
LINE
  5
2E8
100
AcDbEntity
  8
RACCORDO
100
AcDbLine
 62
253
  6
CONTINUOUS
 10
55.2717863417
 20
-23.0437799917
 11
53.2093841289
 21
-23.0437799917
  0
LINE
  5
2E9
100
AcDbEntity
  8
RACCORDO
100
AcDbLine
 62
253
  6
CONTINUOUS
 10
41.022335921
 20
-23.0437799917
 11
38.9599337082
 21
-23.0437799917
  0
LINE
  5
2EA
100
AcDbEntity
  8
RACCORDO
100
AcDbLine
 62
253
  6
CONTINUOUS
 10
30.2717863417
 20
-23.0437799917
 11
28.2093841289
 21
-23.0437799917
  0
LINE
  5
2EB
100
AcDbEntity
  8
RACCORDO
100
AcDbLine
 62
253
  6
CONTINUOUS
 10
16.022335921
 20
-23.0437799917
 11
13.9599337082
 21
-23.0437799917
  0
LINE
  5
2EC
100
AcDbEntity
  8
RACCORDO
100
AcDbLine
 62
7
  6
CONTINUOUS
 10
12.8556528724
 20
-22.700875576
 11
13.9587644406
 21
-22.700875576
  0
LINE
  5
2ED
100
AcDbEntity
  8
RACCORDO
100
AcDbLine
 62
7
  6
CONTINUOUS
 10
30.2729556093
 20
-22.700875576
 11
30.6760671775
 21
-22.700875576
  0
LINE
  5
2EE
100
AcDbEntity
  8
RACCORDO
100
AcDbLine
 62
7
  6
CONTINUOUS
 10
38.5556528724
 20
-22.700875576
 11
38.9587644406
 21
-22.700875576
  0
LINE
  5
2EF
100
AcDbEntity
  8
RACCORDO
100
AcDbLine
 62
7
  6
CONTINUOUS
 10
55.2729556093
 20
-22.700875576
 11
56.3760671775
 21
-22.700875576
  0
LINE
  5
2F0
100
AcDbEntity
  8
DRAFT
100
AcDbLine
 62
7
  6
CONTINUOUS
 10
16.022335921
 20
-22.6502558877
 11
16.1158600249
 21
-22.6502558877
  0
LINE
  5
2F1
100
AcDbEntity
  8
DRAFT
100
AcDbLine
 62
7
  6
CONTINUOUS
 10
28.1158600249
 20
-22.6502558877
 11
28.2093841289
 21
-22.6502558877
  0
LINE
  5
2F2
100
AcDbEntity
  8
DRAFT
100
AcDbLine
 62
7
  6
CONTINUOUS
 10
41.022335921
 20
-22.6502558877
 11
41.1158600249
 21
-22.6502558877
  0
LINE
  5
2F3
100
AcDbEntity
  8
DRAFT
100
AcDbLine
 62
7
  6
CONTINUOUS
 10
53.1158600249
 20
-22.6502558877
 11
53.2093841289
 21
-22.6502558877
  0
LINE
  5
2F4
100
AcDbEntity
  8
DRAFT
100
AcDbLine
 62
7
  6
CONTINUOUS
 10
31.8333150899
 20
-22.5263249268
 11
37.39840496
 21
-22.5263249268
  0
LINE
  5
2F5
100
AcDbEntity
  8
DRAFT
100
AcDbLine
 62
7
  6
CONTINUOUS
 10
50.9971017392
 20
-22.5053788488
 11
43.2346183106
 21
-22.5053788488
  0
LINE
  5
2F6
100
AcDbEntity
  8
DRAFT
100
AcDbLine
 62
7
  6
CONTINUOUS
 10
25.9971017392
 20
-22.5053788488
 11
18.2346183106
 21
-22.5053788488
  0
LINE
  5
2F7
100
AcDbEntity
  8
RACCORDO
100
AcDbLine
 62
253
  6
CONTINUOUS
 10
10.0924473277
 20
-22.4171546127
 11
59.1392727222
 21
-22.4171546127
  0
LINE
  5
2F8
100
AcDbEntity
  8
RACCORDO
100
AcDbLine
 62
253
  6
CONTINUOUS
 10
9.8424854039
 20
-22.1671926889
 11
59.389234646
 21
-22.1671926889
  0
LINE
  5
2F9
100
AcDbEntity
  8
DRAFT
100
AcDbLine
 62
7
  6
CONTINUOUS
 10
26.1419787782
 20
-22.6502558877
 11
25.9971017392
 21
-22.5053788488
  0
LINE
  5
2FA
100
AcDbEntity
  8
RACCORDO
100
AcDbLine
 62
7
  6
CONTINUOUS
 10
13.9587644406
 20
-22.7937799917
 11
13.9587644406
 21
-22.700875576
  0
LINE
  5
2FB
100
AcDbEntity
  8
RACCORDO
100
AcDbLine
 62
7
  6
CONTINUOUS
 10
13.9587644406
 20
22.6133155927
 11
13.9587644406
 21
22.7062200083
  0
LINE
  5
2FC
100
AcDbEntity
  8
RACCORDO
100
AcDbLine
 62
253
  6
CONTINUOUS
 10
14.1711916504
 20
22.9562200083
 11
14.1711916504
 21
22.4008883828
  0
LINE
  5
2FD
100
AcDbEntity
  8
RACCORDO
100
AcDbLine
 62
253
  6
CONTINUOUS
 10
14.1711916504
 20
-22.4884483662
 11
14.1711916504
 21
-23.0437799917
  0
LINE
  5
2FE
100
AcDbEntity
  8
RACCORDO
100
AcDbLine
 62
253
  6
CONTINUOUS
 10
15.8605283995
 20
22.9562200083
 11
15.8605283995
 21
22.4008883828
  0
LINE
  5
2FF
100
AcDbEntity
  8
RACCORDO
100
AcDbLine
 62
253
  6
CONTINUOUS
 10
15.8605283995
 20
-22.4884483662
 11
15.8605283995
 21
-23.0437799917
  0
LINE
  5
300
100
AcDbEntity
  8
RACCORDO
100
AcDbLine
 62
7
  6
CONTINUOUS
 10
16.022335921
 20
22.9562200083
 11
16.022335921
 21
22.5626959044
  0
LINE
  5
301
100
AcDbEntity
  8
RACCORDO
100
AcDbLine
 62
7
  6
CONTINUOUS
 10
16.022335921
 20
-22.6502558877
 11
16.022335921
 21
-23.0437799917
  0
LINE
  5
302
100
AcDbEntity
  8
RACCORDO
100
AcDbLine
 62
7
  6
CONTINUOUS
 10
30.2729556093
 20
22.6133155927
 11
30.0605283995
 21
22.4008883828
  0
LINE
  5
303
100
AcDbEntity
  8
RACCORDO
100
AcDbLine
 62
7
  6
CONTINUOUS
 10
9.8380454794
 20
-18.8437799917
 11
59.3936745705
 21
-18.8437799917
  0
LINE
  5
304
100
AcDbEntity
  8
RACCORDO
100
AcDbLine
 62
7
  6
CONTINUOUS
 10
30.2729556093
 20
-22.700875576
 11
30.0605283995
 21
-22.4884483662
  0
LINE
  5
305
100
AcDbEntity
  8
0
100
AcDbLine
 62
7
  6
CONTINUOUS
 10
16.1158600249
 20
23.9562200083
 11
16.1158600249
 21
22.4069688568
  0
LINE
  5
306
100
AcDbEntity
  8
0
100
AcDbLine
 62
7
  6
CONTINUOUS
 10
16.1158600249
 20
-24.0437799917
 11
16.1158600249
 21
-22.4945288402
  0
LINE
  5
307
100
AcDbEntity
  8
0
100
AcDbLine
 62
7
  6
CONTINUOUS
 10
16.1158600249
 20
-24.0437799917
 11
16.1158600249
 21
-25.0437799917
  0
LINE
  5
308
100
AcDbEntity
  8
0
100
AcDbLine
 62
7
  6
CONTINUOUS
 10
16.1158600249
 20
23.9562200083
 11
16.1158600249
 21
24.9562200083
  0
LINE
  5
309
100
AcDbEntity
  8
RACCORDO
100
AcDbLine
 62
7
  6
CONTINUOUS
 10
17.6158600249
 20
23.9562200083
 11
17.6158600249
 21
23.4960102605
  0
LINE
  5
30A
100
AcDbEntity
  8
RACCORDO
100
AcDbLine
 62
7
  6
CONTINUOUS
 10
17.6158600249
 20
-23.5835702439
 11
17.6158600249
 21
-24.0437799917
  0
LINE
  5
30B
100
AcDbEntity
  8
RACCORDO
100
AcDbLine
 62
253
  6
CONTINUOUS
 10
17.8158600249
 20
23.8146294682
 11
17.8158600249
 21
23.4342068617
  0
LINE
  5
30C
100
AcDbEntity
  8
RACCORDO
100
AcDbLine
 62
253
  6
CONTINUOUS
 10
17.8158600249
 20
-23.9021894515
 11
17.8158600249
 21
-23.521766845
  0
LINE
  5
30D
100
AcDbEntity
  8
DRAFT
100
AcDbLine
 62
7
  6
CONTINUOUS
 10
18.0897412717
 20
23.2062200083
 11
18.0897412717
 21
22.5626959044
  0
LINE
  5
30E
100
AcDbEntity
  8
DRAFT
100
AcDbLine
 62
7
  6
CONTINUOUS
 10
18.0897412717
 20
-22.6502558877
 11
18.0897412717
 21
-23.2937799917
  0
LINE
  5
30F
100
AcDbEntity
  8
RACCORDO
100
AcDbLine
 62
7
  6
CONTINUOUS
 10
59.1443942485
 20
-18.3437799917
 11
10.0873258014
 21
-18.3437799917
  0
LINE
  5
310
100
AcDbEntity
  8
RACCORDO
100
AcDbLine
 62
253
  6
CONTINUOUS
 10
10.145689083
 20
-17.7542077807
 11
59.0860309669
 21
-17.7542077807
  0
LINE
  5
311
100
AcDbEntity
  8
RACCORDO
100
AcDbLine
 62
253
  6
CONTINUOUS
 10
10.156496912
 20
-16.8088472447
 11
59.0752231379
 21
-16.8088472447
  0
LINE
  5
312
100
AcDbEntity
  8
RACCORDO
100
AcDbLine
 62
7
  6
CONTINUOUS
 10
18.3818327298
 20
23.7736511569
 11
18.5004526849
 21
22.4178188655
  0
LINE
  5
313
100
AcDbEntity
  8
RACCORDO
100
AcDbLine
 62
7
  6
CONTINUOUS
 10
18.5004526849
 20
-22.5053788488
 11
18.3818327298
 21
-23.8612111402
  0
LINE
  5
314
100
AcDbEntity
  8
RACCORDO
100
AcDbLine
 62
7
  6
CONTINUOUS
 10
37.5558051773
 20
22.5961651606
 11
37.39840496
 21
22.4387649434
  0
LINE
  5
315
100
AcDbEntity
  8
RACCORDO
100
AcDbLine
 62
7
  6
CONTINUOUS
 10
37.5558051773
 20
-22.683725144
 11
37.39840496
 21
-22.5263249268
  0
LINE
  5
316
100
AcDbEntity
  8
RACCORDO
100
AcDbLine
 62
7
  6
CONTINUOUS
 10
41.022335921
 20
22.5626959044
 11
40.8605283995
 21
22.4008883828
  0
LINE
  5
317
100
AcDbEntity
  8
RACCORDO
100
AcDbLine
 62
7
  6
CONTINUOUS
 10
41.022335921
 20
-22.6502558877
 11
40.8605283995
 21
-22.4884483662
  0
LINE
  5
318
100
AcDbEntity
  8
RACCORDO
100
AcDbLine
 62
7
  6
CONTINUOUS
 10
25.8498873201
 20
-23.8612111402
 11
25.731267365
 21
-22.5053788488
  0
LINE
  5
319
100
AcDbEntity
  8
RACCORDO
100
AcDbLine
 62
7
  6
CONTINUOUS
 10
25.3158600249
 20
-5.8437799917
 11
25.3158600249
 21
8.7562200083
  0
LINE
  5
31A
100
AcDbEntity
  8
RACCORDO
100
AcDbLine
 62
7
  6
CONTINUOUS
 10
25.731267365
 20
22.4178188655
 11
25.8498873201
 21
23.7736511569
  0
LINE
  5
31B
100
AcDbEntity
  8
COPY-PUBBLISH
100
AcDbLine
 62
7
  6
CONTINUOUS
 10
28.9441807004
 20
9.2562200083
 11
28.9027559164
 21
9.2147952243
  0
LINE
  5
31C
100
AcDbEntity
  8
DRAFT
100
AcDbLine
 62
7
  6
CONTINUOUS
 10
26.1419787782
 20
23.2062200083
 11
26.1419787782
 21
22.5626959044
  0
LINE
  5
31D
100
AcDbEntity
  8
DRAFT
100
AcDbLine
 62
7
  6
CONTINUOUS
 10
26.1419787782
 20
-22.6502558877
 11
26.1419787782
 21
-23.2937799917
  0
LINE
  5
31E
100
AcDbEntity
  8
RACCORDO
100
AcDbLine
 62
253
  6
CONTINUOUS
 10
26.4158600249
 20
23.8146294682
 11
26.4158600249
 21
23.4342068617
  0
LINE
  5
31F
100
AcDbEntity
  8
RACCORDO
100
AcDbLine
 62
253
  6
CONTINUOUS
 10
26.4158600249
 20
-23.9021894515
 11
26.4158600249
 21
-23.521766845
  0
LINE
  5
320
100
AcDbEntity
  8
RACCORDO
100
AcDbLine
 62
7
  6
CONTINUOUS
 10
26.6158600249
 20
-24.0437799917
 11
26.6158600249
 21
-23.5835702439
  0
LINE
  5
321
100
AcDbEntity
  8
RACCORDO
100
AcDbLine
 62
7
  6
CONTINUOUS
 10
26.6158600249
 20
23.4960102605
 11
26.6158600249
 21
23.9562200083
  0
LINE
  5
322
100
AcDbEntity
  8
COPY-PUBBLISH
100
AcDbLine
 62
253
  6
CONTINUOUS
 10
26.8289641335
 20
9.2562200083
 11
26.8289641335
 21
9.2147952243
  0
LINE
  5
323
100
AcDbEntity
  8
COPY-PUBBLISH
100
AcDbLine
 62
253
  6
CONTINUOUS
 10
26.8289641335
 20
-6.3023552077
 11
26.8289641335
 21
-6.3437799917
  0
LINE
  5
324
100
AcDbEntity
  8
COPY-PUBBLISH
100
AcDbLine
 62
253
  6
CONTINUOUS
 10
27.3288879811
 20
9.2562200083
 11
27.3288879811
 21
9.2062200083
  0
LINE
  5
325
100
AcDbEntity
  8
COPY-PUBBLISH
100
AcDbLine
 62
253
  6
CONTINUOUS
 10
27.3288879811
 20
-6.2937799917
 11
27.3288879811
 21
-6.3437799917
  0
LINE
  5
326
100
AcDbEntity
  8
COPY-PUBBLISH
100
AcDbLine
 62
7
  6
CONTINUOUS
 10
28.9441807004
 20
-6.3437799917
 11
28.9027559164
 21
-6.3023552077
  0
LINE
  5
327
100
AcDbEntity
  8
0
100
AcDbLine
 62
7
  6
CONTINUOUS
 10
28.1158600249
 20
23.9562200083
 11
28.1158600249
 21
22.4069688568
  0
LINE
  5
328
100
AcDbEntity
  8
0
100
AcDbLine
 62
7
  6
CONTINUOUS
 10
28.1158600249
 20
-24.0437799917
 11
28.1158600249
 21
-22.4945288402
  0
LINE
  5
329
100
AcDbEntity
  8
0
100
AcDbLine
 62
7
  6
CONTINUOUS
 10
28.1158600249
 20
-24.0437799917
 11
28.1158600249
 21
-25.0437799917
  0
LINE
  5
32A
100
AcDbEntity
  8
0
100
AcDbLine
 62
7
  6
CONTINUOUS
 10
28.1158600249
 20
23.9562200083
 11
28.1158600249
 21
24.9562200083
  0
LINE
  5
32B
100
AcDbEntity
  8
RACCORDO
100
AcDbLine
 62
7
  6
CONTINUOUS
 10
28.2093841289
 20
-23.0437799917
 11
28.2093841289
 21
-22.6502558877
  0
LINE
  5
32C
100
AcDbEntity
  8
RACCORDO
100
AcDbLine
 62
7
  6
CONTINUOUS
 10
28.2093841289
 20
22.5626959044
 11
28.2093841289
 21
22.9562200083
  0
LINE
  5
32D
100
AcDbEntity
  8
RACCORDO
100
AcDbLine
 62
253
  6
CONTINUOUS
 10
28.3711916504
 20
-23.0437799917
 11
28.3711916504
 21
-22.4884483662
  0
LINE
  5
32E
100
AcDbEntity
  8
RACCORDO
100
AcDbLine
 62
253
  6
CONTINUOUS
 10
28.3711916504
 20
22.4008883828
 11
28.3711916504
 21
22.9562200083
  0
LINE
  5
32F
100
AcDbEntity
  8
COPY-PUBBLISH
100
AcDbLine
 62
253
  6
CONTINUOUS
 10
28.4028320688
 20
-6.3437799917
 11
28.4028320688
 21
-6.2937799917
  0
LINE
  5
330
100
AcDbEntity
  8
COPY-PUBBLISH
100
AcDbLine
 62
253
  6
CONTINUOUS
 10
28.4028320688
 20
9.2062200083
 11
28.4028320688
 21
9.2562200083
  0
LINE
  5
331
100
AcDbEntity
  8
COPY-PUBBLISH
100
AcDbLine
 62
253
  6
CONTINUOUS
 10
28.9027559164
 20
-6.3437799917
 11
28.9027559164
 21
-6.3023552077
  0
LINE
  5
332
100
AcDbEntity
  8
COPY-PUBBLISH
100
AcDbLine
 62
253
  6
CONTINUOUS
 10
28.9027559164
 20
9.2147952243
 11
28.9027559164
 21
9.2562200083
  0
LINE
  5
333
100
AcDbEntity
  8
RACCORDO
100
AcDbLine
 62
253
  6
CONTINUOUS
 10
30.0605283995
 20
-23.0437799917
 11
30.0605283995
 21
-22.4884483662
  0
LINE
  5
334
100
AcDbEntity
  8
RACCORDO
100
AcDbLine
 62
253
  6
CONTINUOUS
 10
30.0605283995
 20
22.4008883828
 11
30.0605283995
 21
22.9562200083
  0
LINE
  5
335
100
AcDbEntity
  8
RACCORDO
100
AcDbLine
 62
7
  6
CONTINUOUS
 10
43.4158600249
 20
-6.3437799917
 11
25.8158600249
 21
-6.3437799917
  0
LINE
  5
336
100
AcDbEntity
  8
COPY-PUBBLISH
100
AcDbLine
 62
7
  6
CONTINUOUS
 10
27.3288879811
 20
-6.2937799917
 11
28.4028320688
 21
-6.2937799917
  0
LINE
  5
337
100
AcDbEntity
  8
COPY-PUBBLISH
100
AcDbLine
 62
7
  6
CONTINUOUS
 10
40.8288879811
 20
-6.2937799917
 11
41.9028320688
 21
-6.2937799917
  0
LINE
  5
338
100
AcDbEntity
  8
RACCORDO
100
AcDbLine
 62
7
  6
CONTINUOUS
 10
30.2729556093
 20
22.7062200083
 11
30.2729556093
 21
22.6133155927
  0
LINE
  5
339
100
AcDbEntity
  8
RACCORDO
100
AcDbLine
 62
7
  6
CONTINUOUS
 10
30.2729556093
 20
-22.700875576
 11
30.2729556093
 21
-22.7937799917
  0
LINE
  5
33A
100
AcDbEntity
  8
DRAFT
100
AcDbLine
 62
7
  6
CONTINUOUS
 10
51.1419787782
 20
22.5626959044
 11
50.9971017392
 21
22.4178188655
  0
LINE
  5
33B
100
AcDbEntity
  8
RACCORDO
100
AcDbLine
 62
253
  6
CONTINUOUS
 10
25.4046258276
 20
-5.7550903414
 11
25.3158981012
 21
-5.8438180679
  0
LINE
  5
33C
100
AcDbEntity
  8
DRAFT
100
AcDbLine
 62
7
  6
CONTINUOUS
 10
51.1419787782
 20
-22.6502558877
 11
50.9971017392
 21
-22.5053788488
  0
LINE
  5
33D
100
AcDbEntity
  8
RACCORDO
100
AcDbLine
 62
253
  6
CONTINUOUS
 10
9.8424854039
 20
-22.1671926889
 11
9.751686712
 21
-22.2579913809
  0
LINE
  5
33E
100
AcDbEntity
  8
RACCORDO
100
AcDbLine
 62
253
  6
CONTINUOUS
 10
25.9045334396
 20
-6.2550304247
 11
25.8158219487
 21
-6.3437419155
  0
LINE
  5
33F
100
AcDbEntity
  8
RACCORDO
100
AcDbLine
 62
253
  6
CONTINUOUS
 10
10.0924473277
 20
-22.4171546127
 11
10.0128769095
 21
-22.4967250309
  0
LINE
  5
340
100
AcDbEntity
  8
RACCORDO
100
AcDbLine
 62
7
  6
CONTINUOUS
 10
55.2729556093
 20
22.6133155927
 11
55.0605283995
 21
22.4008883828
  0
LINE
  5
341
100
AcDbEntity
  8
COPY-PUBBLISH
100
AcDbLine
 62
7
  6
CONTINUOUS
 10
26.7875393495
 20
-6.3437799917
 11
26.8289641335
 21
-6.3023552077
  0
LINE
  5
342
100
AcDbEntity
  8
COPY-PUBBLISH
100
AcDbLine
 62
7
  6
CONTINUOUS
 10
42.4441807004
 20
9.2562200083
 11
42.4027559164
 21
9.2147952243
  0
LINE
  5
343
100
AcDbEntity
  8
RACCORDO
100
AcDbLine
 62
253
  6
CONTINUOUS
 10
43.3271866104
 20
9.1674704413
 11
43.4158981012
 21
9.2561819321
  0
LINE
  5
344
100
AcDbEntity
  8
RACCORDO
100
AcDbLine
 62
253
  6
CONTINUOUS
 10
9.751686712
 20
22.1704313975
 11
9.8424854039
 21
22.0796327056
  0
LINE
  5
345
100
AcDbEntity
  8
RACCORDO
100
AcDbLine
 62
253
  6
CONTINUOUS
 10
10.0128769095
 20
22.4091650475
 11
10.0924473277
 21
22.3295946294
  0
LINE
  5
346
100
AcDbEntity
  8
RACCORDO
100
AcDbLine
 62
7
  6
CONTINUOUS
 10
55.2729556093
 20
-22.700875576
 11
55.0605283995
 21
-22.4884483662
  0
LINE
  5
347
100
AcDbEntity
  8
RACCORDO
100
AcDbLine
 62
253
  6
CONTINUOUS
 10
25.3158981012
 20
8.7562580845
 11
25.4046250164
 21
8.6675311693
  0
LINE
  5
348
100
AcDbEntity
  8
RACCORDO
100
AcDbLine
 62
253
  6
CONTINUOUS
 10
43.8270942222
 20
8.667530358
 11
43.9158219487
 21
8.7562580845
  0
LINE
  5
349
100
AcDbEntity
  8
RACCORDO
100
AcDbLine
 62
7
  6
CONTINUOUS
 10
13.9587644406
 20
-22.700875576
 11
14.1711916504
 21
-22.4884483662
  0
LINE
  5
34A
100
AcDbEntity
  8
RACCORDO
100
AcDbLine
 62
253
  6
CONTINUOUS
 10
59.1392727222
 20
22.3295946294
 11
59.2188431404
 21
22.4091650475
  0
LINE
  5
34B
100
AcDbEntity
  8
RACCORDO
100
AcDbLine
 62
253
  6
CONTINUOUS
 10
59.389234646
 20
22.0796327056
 11
59.4800333379
 21
22.1704313975
  0
LINE
  5
34C
100
AcDbEntity
  8
RACCORDO
100
AcDbLine
 62
253
  6
CONTINUOUS
 10
25.8158219487
 20
9.2561819321
 11
25.9045459755
 21
9.1674579053
  0
LINE
  5
34D
100
AcDbEntity
  8
COPY-PUBBLISH
100
AcDbLine
 62
7
  6
CONTINUOUS
 10
26.7875393495
 20
9.2562200083
 11
26.8289641335
 21
9.2147952243
  0
LINE
  5
34E
100
AcDbEntity
  8
COPY-PUBBLISH
100
AcDbLine
 62
7
  6
CONTINUOUS
 10
42.4441807004
 20
-6.3437799917
 11
42.4027559164
 21
-6.3023552077
  0
LINE
  5
34F
100
AcDbEntity
  8
RACCORDO
100
AcDbLine
 62
7
  6
CONTINUOUS
 10
13.9587644406
 20
22.6133155927
 11
14.1711916504
 21
22.4008883828
  0
LINE
  5
350
100
AcDbEntity
  8
RACCORDO
100
AcDbLine
 62
253
  6
CONTINUOUS
 10
59.2188431404
 20
-22.4967250309
 11
59.1392727222
 21
-22.4171546127
  0
LINE
  5
351
100
AcDbEntity
  8
RACCORDO
100
AcDbLine
 62
253
  6
CONTINUOUS
 10
43.3271740744
 20
-6.2550178887
 11
43.4158981012
 21
-6.3437419155
  0
LINE
  5
352
100
AcDbEntity
  8
RACCORDO
100
AcDbLine
 62
253
  6
CONTINUOUS
 10
59.4800333379
 20
-22.2579913809
 11
59.389234646
 21
-22.1671926889
  0
LINE
  5
353
100
AcDbEntity
  8
RACCORDO
100
AcDbLine
 62
253
  6
CONTINUOUS
 10
43.8270950335
 20
-5.7550911527
 11
43.9158219487
 21
-5.8438180679
  0
LINE
  5
354
100
AcDbEntity
  8
RACCORDO
100
AcDbLine
 62
7
  6
CONTINUOUS
 10
38.9587644406
 20
-22.7937799917
 11
38.9587644406
 21
-22.700875576
  0
LINE
  5
355
100
AcDbEntity
  8
RACCORDO
100
AcDbLine
 62
7
  6
CONTINUOUS
 10
38.9587644406
 20
22.6133155927
 11
38.9587644406
 21
22.7062200083
  0
LINE
  5
356
100
AcDbEntity
  8
RACCORDO
100
AcDbLine
 62
253
  6
CONTINUOUS
 10
39.1711916504
 20
22.9562200083
 11
39.1711916504
 21
22.4008883828
  0
LINE
  5
357
100
AcDbEntity
  8
RACCORDO
100
AcDbLine
 62
253
  6
CONTINUOUS
 10
39.1711916504
 20
-23.0437799917
 11
39.1711916504
 21
-22.4884483662
  0
LINE
  5
358
100
AcDbEntity
  8
DRAFT
100
AcDbLine
 62
7
  6
CONTINUOUS
 10
18.2346183106
 20
-22.5053788488
 11
18.0897412717
 21
-22.6502558877
  0
LINE
  5
359
100
AcDbEntity
  8
DRAFT
100
AcDbLine
 62
7
  6
CONTINUOUS
 10
18.2346183106
 20
22.4178188655
 11
18.0897412717
 21
22.5626959044
  0
LINE
  5
35A
100
AcDbEntity
  8
COPY-PUBBLISH
100
AcDbLine
 62
253
  6
CONTINUOUS
 10
40.3289641335
 20
9.2562200083
 11
40.3289641335
 21
9.2147952243
  0
LINE
  5
35B
100
AcDbEntity
  8
COPY-PUBBLISH
100
AcDbLine
 62
253
  6
CONTINUOUS
 10
40.3289641335
 20
-6.3023552077
 11
40.3289641335
 21
-6.3437799917
  0
LINE
  5
35C
100
AcDbEntity
  8
COPY-PUBBLISH
100
AcDbLine
 62
253
  6
CONTINUOUS
 10
40.8288879811
 20
9.2562200083
 11
40.8288879811
 21
9.2062200083
  0
LINE
  5
35D
100
AcDbEntity
  8
COPY-PUBBLISH
100
AcDbLine
 62
253
  6
CONTINUOUS
 10
40.8288879811
 20
-6.2937799917
 11
40.8288879811
 21
-6.3437799917
  0
LINE
  5
35E
100
AcDbEntity
  8
RACCORDO
100
AcDbLine
 62
253
  6
CONTINUOUS
 10
40.8605283995
 20
22.9562200083
 11
40.8605283995
 21
22.4008883828
  0
LINE
  5
35F
100
AcDbEntity
  8
RACCORDO
100
AcDbLine
 62
253
  6
CONTINUOUS
 10
40.8605283995
 20
-23.0437799917
 11
40.8605283995
 21
-22.4884483662
  0
LINE
  5
360
100
AcDbEntity
  8
RACCORDO
100
AcDbLine
 62
7
  6
CONTINUOUS
 10
41.022335921
 20
22.9562200083
 11
41.022335921
 21
22.5626959044
  0
LINE
  5
361
100
AcDbEntity
  8
RACCORDO
100
AcDbLine
 62
7
  6
CONTINUOUS
 10
41.022335921
 20
-22.6502558877
 11
41.022335921
 21
-23.0437799917
  0
LINE
  5
362
100
AcDbEntity
  8
0
100
AcDbLine
 62
7
  6
CONTINUOUS
 10
41.1158600249
 20
23.9562200083
 11
41.1158600249
 21
22.4069688568
  0
LINE
  5
363
100
AcDbEntity
  8
0
100
AcDbLine
 62
7
  6
CONTINUOUS
 10
41.1158600249
 20
-24.0437799917
 11
41.1158600249
 21
-22.4945288402
  0
LINE
  5
364
100
AcDbEntity
  8
0
100
AcDbLine
 62
7
  6
CONTINUOUS
 10
41.1158600249
 20
-24.0437799917
 11
41.1158600249
 21
-25.0437799917
  0
LINE
  5
365
100
AcDbEntity
  8
0
100
AcDbLine
 62
7
  6
CONTINUOUS
 10
41.1158600249
 20
23.9562200083
 11
41.1158600249
 21
24.9562200083
  0
LINE
  5
366
100
AcDbEntity
  8
0
100
AcDbLine
 62
253
  6
CONTINUOUS
 10
41.6158600249
 20
-15.2937799917
 11
41.6158600249
 21
-16.5437799917
  0
LINE
  5
367
100
AcDbEntity
  8
0
100
AcDbLine
 62
253
  6
CONTINUOUS
 10
41.6158600249
 20
-12.7937799917
 11
41.6158600249
 21
-11.5437799917
  0
LINE
  5
368
100
AcDbEntity
  8
COPY-PUBBLISH
100
AcDbLine
 62
253
  6
CONTINUOUS
 10
41.9028320688
 20
-6.3437799917
 11
41.9028320688
 21
-6.2937799917
  0
LINE
  5
369
100
AcDbEntity
  8
COPY-PUBBLISH
100
AcDbLine
 62
253
  6
CONTINUOUS
 10
41.9028320688
 20
9.2062200083
 11
41.9028320688
 21
9.2562200083
  0
LINE
  5
36A
100
AcDbEntity
  8
COPY-PUBBLISH
100
AcDbLine
 62
253
  6
CONTINUOUS
 10
42.4027559164
 20
-6.3437799917
 11
42.4027559164
 21
-6.3023552077
  0
LINE
  5
36B
100
AcDbEntity
  8
COPY-PUBBLISH
100
AcDbLine
 62
253
  6
CONTINUOUS
 10
42.4027559164
 20
9.2147952243
 11
42.4027559164
 21
9.2562200083
  0
LINE
  5
36C
100
AcDbEntity
  8
RACCORDO
100
AcDbLine
 62
7
  6
CONTINUOUS
 10
42.6158600249
 20
23.9562200083
 11
42.6158600249
 21
23.4960102605
  0
LINE
  5
36D
100
AcDbEntity
  8
RACCORDO
100
AcDbLine
 62
7
  6
CONTINUOUS
 10
42.6158600249
 20
-23.5835702439
 11
42.6158600249
 21
-24.0437799917
  0
LINE
  5
36E
100
AcDbEntity
  8
RACCORDO
100
AcDbLine
 62
253
  6
CONTINUOUS
 10
42.8158600249
 20
23.8146294682
 11
42.8158600249
 21
23.4342068617
  0
LINE
  5
36F
100
AcDbEntity
  8
RACCORDO
100
AcDbLine
 62
253
  6
CONTINUOUS
 10
42.8158600249
 20
-23.9021894515
 11
42.8158600249
 21
-23.521766845
  0
LINE
  5
370
100
AcDbEntity
  8
DRAFT
100
AcDbLine
 62
7
  6
CONTINUOUS
 10
43.0897412717
 20
23.2062200083
 11
43.0897412717
 21
22.5626959044
  0
LINE
  5
371
100
AcDbEntity
  8
DRAFT
100
AcDbLine
 62
7
  6
CONTINUOUS
 10
43.0897412717
 20
-22.6502558877
 11
43.0897412717
 21
-23.2937799917
  0
LINE
  5
372
100
AcDbEntity
  8
RACCORDO
100
AcDbLine
 62
7
  6
CONTINUOUS
 10
43.9158600249
 20
-5.8437799917
 11
43.9158600249
 21
8.7562200083
  0
LINE
  5
373
100
AcDbEntity
  8
COPY-PUBBLISH
100
AcDbLine
 62
7
  6
CONTINUOUS
 10
40.2875393495
 20
-6.3437799917
 11
40.3289641335
 21
-6.3023552077
  0
LINE
  5
374
100
AcDbEntity
  8
COPY-PUBBLISH
100
AcDbLine
 62
7
  6
CONTINUOUS
 10
41.9028320688
 20
9.2062200083
 11
40.8288879811
 21
9.2062200083
  0
LINE
  5
375
100
AcDbEntity
  8
COPY-PUBBLISH
100
AcDbLine
 62
7
  6
CONTINUOUS
 10
28.4028320688
 20
9.2062200083
 11
27.3288879811
 21
9.2062200083
  0
LINE
  5
376
100
AcDbEntity
  8
RACCORDO
100
AcDbLine
 62
7
  6
CONTINUOUS
 10
43.4158600249
 20
9.2562200083
 11
25.8158600249
 21
9.2562200083
  0
LINE
  5
377
100
AcDbEntity
  8
RACCORDO
100
AcDbLine
 62
7
  6
CONTINUOUS
 10
43.3818327298
 20
23.7736511569
 11
43.5004526849
 21
22.4178188655
  0
LINE
  5
378
100
AcDbEntity
  8
RACCORDO
100
AcDbLine
 62
7
  6
CONTINUOUS
 10
43.5004526849
 20
-22.5053788488
 11
43.3818327298
 21
-23.8612111402
  0
LINE
  5
379
100
AcDbEntity
  8
RACCORDO
100
AcDbLine
 62
7
  6
CONTINUOUS
 10
28.2093841289
 20
-22.6502558877
 11
28.3711916504
 21
-22.4884483662
  0
LINE
  5
37A
100
AcDbEntity
  8
COPY-PUBBLISH
100
AcDbLine
 62
7
  6
CONTINUOUS
 10
40.2875393495
 20
9.2562200083
 11
40.3289641335
 21
9.2147952243
  0
LINE
  5
37B
100
AcDbEntity
  8
RACCORDO
100
AcDbLine
 62
7
  6
CONTINUOUS
 10
28.2093841289
 20
22.5626959044
 11
28.3711916504
 21
22.4008883828
  0
LINE
  5
37C
100
AcDbEntity
  8
RACCORDO
100
AcDbLine
 62
7
  6
CONTINUOUS
 10
50.8498873201
 20
-23.8612111402
 11
50.731267365
 21
-22.5053788488
  0
LINE
  5
37D
100
AcDbEntity
  8
0
100
AcDbLine
 62
253
  6
CONTINUOUS
 10
48.6158600249
 20
-15.2937799917
 11
48.6158600249
 21
-16.5437799917
  0
LINE
  5
37E
100
AcDbEntity
  8
0
100
AcDbLine
 62
253
  6
CONTINUOUS
 10
48.6158600249
 20
-12.7937799917
 11
48.6158600249
 21
-11.5437799917
  0
LINE
  5
37F
100
AcDbEntity
  8
RACCORDO
100
AcDbLine
 62
7
  6
CONTINUOUS
 10
50.731267365
 20
22.4178188655
 11
50.8498873201
 21
23.7736511569
  0
LINE
  5
380
100
AcDbEntity
  8
RACCORDO
100
AcDbLine
 62
7
  6
CONTINUOUS
 10
31.6759148726
 20
-22.683725144
 11
31.8333150899
 21
-22.5263249268
  0
LINE
  5
381
100
AcDbEntity
  8
RACCORDO
100
AcDbLine
 62
7
  6
CONTINUOUS
 10
31.6759148726
 20
22.5961651606
 11
31.8333150899
 21
22.4387649434
  0
LINE
  5
382
100
AcDbEntity
  8
DRAFT
100
AcDbLine
 62
7
  6
CONTINUOUS
 10
51.1419787782
 20
23.2062200083
 11
51.1419787782
 21
22.5626959044
  0
LINE
  5
383
100
AcDbEntity
  8
DRAFT
100
AcDbLine
 62
7
  6
CONTINUOUS
 10
51.1419787782
 20
-22.6502558877
 11
51.1419787782
 21
-23.2937799917
  0
LINE
  5
384
100
AcDbEntity
  8
RACCORDO
100
AcDbLine
 62
253
  6
CONTINUOUS
 10
10.156496912
 20
16.7212872613
 11
59.0752231379
 21
16.7212872613
  0
LINE
  5
385
100
AcDbEntity
  8
RACCORDO
100
AcDbLine
 62
253
  6
CONTINUOUS
 10
51.4158600249
 20
23.8146294682
 11
51.4158600249
 21
23.4342068617
  0
LINE
  5
386
100
AcDbEntity
  8
RACCORDO
100
AcDbLine
 62
253
  6
CONTINUOUS
 10
51.4158600249
 20
-23.9021894515
 11
51.4158600249
 21
-23.521766845
  0
LINE
  5
387
100
AcDbEntity
  8
RACCORDO
100
AcDbLine
 62
7
  6
CONTINUOUS
 10
51.6158600249
 20
-24.0437799917
 11
51.6158600249
 21
-23.5835702439
  0
LINE
  5
388
100
AcDbEntity
  8
RACCORDO
100
AcDbLine
 62
7
  6
CONTINUOUS
 10
51.6158600249
 20
23.4960102605
 11
51.6158600249
 21
23.9562200083
  0
LINE
  5
389
100
AcDbEntity
  8
0
100
AcDbLine
 62
7
  6
CONTINUOUS
 10
53.1158600249
 20
23.9562200083
 11
53.1158600249
 21
22.4069688568
  0
LINE
  5
38A
100
AcDbEntity
  8
0
100
AcDbLine
 62
7
  6
CONTINUOUS
 10
53.1158600249
 20
-24.0437799917
 11
53.1158600249
 21
-22.4945288402
  0
LINE
  5
38B
100
AcDbEntity
  8
0
100
AcDbLine
 62
7
  6
CONTINUOUS
 10
53.1158600249
 20
-24.0437799917
 11
53.1158600249
 21
-25.0437799917
  0
LINE
  5
38C
100
AcDbEntity
  8
0
100
AcDbLine
 62
7
  6
CONTINUOUS
 10
53.1158600249
 20
23.9562200083
 11
53.1158600249
 21
24.9562200083
  0
LINE
  5
38D
100
AcDbEntity
  8
RACCORDO
100
AcDbLine
 62
7
  6
CONTINUOUS
 10
53.2093841289
 20
-23.0437799917
 11
53.2093841289
 21
-22.6502558877
  0
LINE
  5
38E
100
AcDbEntity
  8
RACCORDO
100
AcDbLine
 62
7
  6
CONTINUOUS
 10
53.2093841289
 20
22.5626959044
 11
53.2093841289
 21
22.9562200083
  0
LINE
  5
38F
100
AcDbEntity
  8
RACCORDO
100
AcDbLine
 62
253
  6
CONTINUOUS
 10
53.3711916504
 20
-23.0437799917
 11
53.3711916504
 21
-22.4884483662
  0
LINE
  5
390
100
AcDbEntity
  8
RACCORDO
100
AcDbLine
 62
253
  6
CONTINUOUS
 10
53.3711916504
 20
22.4008883828
 11
53.3711916504
 21
22.9562200083
  0
LINE
  5
391
100
AcDbEntity
  8
RACCORDO
100
AcDbLine
 62
7
  6
CONTINUOUS
 10
38.9587644406
 20
-22.700875576
 11
39.1711916504
 21
-22.4884483662
  0
LINE
  5
392
100
AcDbEntity
  8
RACCORDO
100
AcDbLine
 62
253
  6
CONTINUOUS
 10
10.145689083
 20
17.6666477973
 11
59.0860309669
 21
17.6666477973
  0
LINE
  5
393
100
AcDbEntity
  8
RACCORDO
100
AcDbLine
 62
7
  6
CONTINUOUS
 10
59.1443942485
 20
18.2562200083
 11
10.0873258014
 21
18.2562200083
  0
LINE
  5
394
100
AcDbEntity
  8
RACCORDO
100
AcDbLine
 62
7
  6
CONTINUOUS
 10
9.8380454794
 20
18.7562200083
 11
59.3936745705
 21
18.7562200083
  0
LINE
  5
395
100
AcDbEntity
  8
RACCORDO
100
AcDbLine
 62
7
  6
CONTINUOUS
 10
38.9587644406
 20
22.6133155927
 11
39.1711916504
 21
22.4008883828
  0
LINE
  5
396
100
AcDbEntity
  8
RACCORDO
100
AcDbLine
 62
253
  6
CONTINUOUS
 10
55.0605283995
 20
-23.0437799917
 11
55.0605283995
 21
-22.4884483662
  0
LINE
  5
397
100
AcDbEntity
  8
RACCORDO
100
AcDbLine
 62
253
  6
CONTINUOUS
 10
55.0605283995
 20
22.4008883828
 11
55.0605283995
 21
22.9562200083
  0
LINE
  5
398
100
AcDbEntity
  8
RACCORDO
100
AcDbLine
 62
7
  6
CONTINUOUS
 10
55.2729556093
 20
22.7062200083
 11
55.2729556093
 21
22.6133155927
  0
LINE
  5
399
100
AcDbEntity
  8
RACCORDO
100
AcDbLine
 62
7
  6
CONTINUOUS
 10
55.2729556093
 20
-22.700875576
 11
55.2729556093
 21
-22.7937799917
  0
LINE
  5
39A
100
AcDbEntity
  8
RACCORDO
100
AcDbLine
 62
253
  6
CONTINUOUS
 10
59.0860309669
 20
-17.7542077807
 11
59.1443942485
 21
-18.3437799917
  0
LINE
  5
39B
100
AcDbEntity
  8
RACCORDO
100
AcDbLine
 62
253
  6
CONTINUOUS
 10
59.3359928907
 20
-17.5080058424
 11
59.3936745705
 21
-18.0906926712
  0
LINE
  5
39C
100
AcDbEntity
  8
RACCORDO
100
AcDbLine
 62
7
  6
CONTINUOUS
 10
57.5158600249
 20
23.7062200083
 11
57.5158600249
 21
22.4562200083
  0
LINE
  5
39D
100
AcDbEntity
  8
RACCORDO
100
AcDbLine
 62
7
  6
CONTINUOUS
 10
57.5158600249
 20
-22.5437799917
 11
57.5158600249
 21
-23.7937799917
  0
LINE
  5
39E
100
AcDbEntity
  8
RACCORDO
100
AcDbLine
 62
253
  6
CONTINUOUS
 10
57.551686712
 20
-23.7937799917
 11
57.551686712
 21
-22.5079533047
  0
LINE
  5
39F
100
AcDbEntity
  8
RACCORDO
100
AcDbLine
 62
253
  6
CONTINUOUS
 10
57.551686712
 20
22.4203933213
 11
57.551686712
 21
23.7062200083
  0
LINE
  5
3A0
100
AcDbEntity
  8
RACCORDO
100
AcDbLine
 62
253
  6
CONTINUOUS
 10
59.1443942485
 20
18.2562200083
 11
59.0860309669
 21
17.6666477973
  0
LINE
  5
3A1
100
AcDbEntity
  8
RACCORDO
100
AcDbLine
 62
253
  6
CONTINUOUS
 10
59.3936745705
 20
18.0031326879
 11
59.3359928907
 21
17.420445859
  0
LINE
  5
3A2
100
AcDbEntity
  8
DRAFT
100
AcDbLine
 62
7
  6
CONTINUOUS
 10
43.2346183106
 20
-22.5053788488
 11
43.0897412717
 21
-22.6502558877
  0
LINE
  5
3A3
100
AcDbEntity
  8
RACCORDO
100
AcDbLine
 62
253
  6
CONTINUOUS
 10
9.8424854039
 20
22.0796327056
 11
59.389234646
 21
22.0796327056
  0
LINE
  5
3A4
100
AcDbEntity
  8
RACCORDO
100
AcDbLine
 62
253
  6
CONTINUOUS
 10
10.0924473277
 20
22.3295946294
 11
59.1392727222
 21
22.3295946294
  0
LINE
  5
3A5
100
AcDbEntity
  8
DRAFT
100
AcDbLine
 62
7
  6
CONTINUOUS
 10
50.9971017392
 20
22.4178188655
 11
43.2346183106
 21
22.4178188655
  0
LINE
  5
3A6
100
AcDbEntity
  8
DRAFT
100
AcDbLine
 62
7
  6
CONTINUOUS
 10
25.9971017392
 20
22.4178188655
 11
18.2346183106
 21
22.4178188655
  0
LINE
  5
3A7
100
AcDbEntity
  8
DRAFT
100
AcDbLine
 62
7
  6
CONTINUOUS
 10
31.8333150899
 20
22.4387649434
 11
37.39840496
 21
22.4387649434
  0
LINE
  5
3A8
100
AcDbEntity
  8
DRAFT
100
AcDbLine
 62
7
  6
CONTINUOUS
 10
16.022335921
 20
22.5626959044
 11
16.1158600249
 21
22.5626959044
  0
LINE
  5
3A9
100
AcDbEntity
  8
DRAFT
100
AcDbLine
 62
7
  6
CONTINUOUS
 10
28.1158600249
 20
22.5626959044
 11
28.2093841289
 21
22.5626959044
  0
LINE
  5
3AA
100
AcDbEntity
  8
DRAFT
100
AcDbLine
 62
7
  6
CONTINUOUS
 10
41.022335921
 20
22.5626959044
 11
41.1158600249
 21
22.5626959044
  0
LINE
  5
3AB
100
AcDbEntity
  8
DRAFT
100
AcDbLine
 62
7
  6
CONTINUOUS
 10
53.1158600249
 20
22.5626959044
 11
53.2093841289
 21
22.5626959044
  0
LINE
  5
3AC
100
AcDbEntity
  8
RACCORDO
100
AcDbLine
 62
7
  6
CONTINUOUS
 10
56.3760671775
 20
22.6133155927
 11
55.2729556093
 21
22.6133155927
  0
LINE
  5
3AD
100
AcDbEntity
  8
RACCORDO
100
AcDbLine
 62
7
  6
CONTINUOUS
 10
38.9587644406
 20
22.6133155927
 11
38.5556528724
 21
22.6133155927
  0
LINE
  5
3AE
100
AcDbEntity
  8
RACCORDO
100
AcDbLine
 62
7
  6
CONTINUOUS
 10
30.6760671775
 20
22.6133155927
 11
30.2729556093
 21
22.6133155927
  0
LINE
  5
3AF
100
AcDbEntity
  8
RACCORDO
100
AcDbLine
 62
7
  6
CONTINUOUS
 10
13.9587644406
 20
22.6133155927
 11
12.8556528724
 21
22.6133155927
  0
LINE
  5
3B0
100
AcDbEntity
  8
RACCORDO
100
AcDbLine
 62
253
  6
CONTINUOUS
 10
55.2717863417
 20
22.9562200083
 11
53.2093841289
 21
22.9562200083
  0
LINE
  5
3B1
100
AcDbEntity
  8
RACCORDO
100
AcDbLine
 62
253
  6
CONTINUOUS
 10
41.022335921
 20
22.9562200083
 11
38.9599337082
 21
22.9562200083
  0
LINE
  5
3B2
100
AcDbEntity
  8
RACCORDO
100
AcDbLine
 62
253
  6
CONTINUOUS
 10
16.022335921
 20
22.9562200083
 11
13.9599337082
 21
22.9562200083
  0
LINE
  5
3B3
100
AcDbEntity
  8
RACCORDO
100
AcDbLine
 62
253
  6
CONTINUOUS
 10
28.2093841289
 20
22.9562200083
 11
30.2717863417
 21
22.9562200083
  0
LINE
  5
3B4
100
AcDbEntity
  8
RACCORDO
100
AcDbLine
 62
7
  6
CONTINUOUS
 10
14.2175300551
 20
23.2062200083
 11
16.1158600249
 21
23.2062200083
  0
LINE
  5
3B5
100
AcDbEntity
  8
RACCORDO
100
AcDbLine
 62
7
  6
CONTINUOUS
 10
28.1158600249
 20
23.2062200083
 11
30.0141899948
 21
23.2062200083
  0
LINE
  5
3B6
100
AcDbEntity
  8
RACCORDO
100
AcDbLine
 62
7
  6
CONTINUOUS
 10
39.2175300551
 20
23.2062200083
 11
41.1158600249
 21
23.2062200083
  0
LINE
  5
3B7
100
AcDbEntity
  8
RACCORDO
100
AcDbLine
 62
7
  6
CONTINUOUS
 10
53.1158600249
 20
23.2062200083
 11
55.0141899948
 21
23.2062200083
  0
LINE
  5
3B8
100
AcDbEntity
  8
RACCORDO
100
AcDbLine
 62
7
  6
CONTINUOUS
 10
17.8158600249
 20
23.4342068617
 11
18.4115302575
 21
23.4342068617
  0
LINE
  5
3B9
100
AcDbEntity
  8
RACCORDO
100
AcDbLine
 62
7
  6
CONTINUOUS
 10
25.8201897924
 20
23.4342068617
 11
26.4158600249
 21
23.4342068617
  0
LINE
  5
3BA
100
AcDbEntity
  8
RACCORDO
100
AcDbLine
 62
7
  6
CONTINUOUS
 10
42.8158600249
 20
23.4342068617
 11
43.4115302575
 21
23.4342068617
  0
LINE
  5
3BB
100
AcDbEntity
  8
RACCORDO
100
AcDbLine
 62
7
  6
CONTINUOUS
 10
50.8201897924
 20
23.4342068617
 11
51.4158600249
 21
23.4342068617
  0
LINE
  5
3BC
100
AcDbEntity
  8
RACCORDO
100
AcDbLine
 62
253
  6
CONTINUOUS
 10
9.7158600249
 20
23.7062200083
 11
11.7158600249
 21
23.7062200083
  0
LINE
  5
3BD
100
AcDbEntity
  8
RACCORDO
100
AcDbLine
 62
253
  6
CONTINUOUS
 10
57.5158600249
 20
23.7062200083
 11
59.5158600249
 21
23.7062200083
  0
LINE
  5
3BE
100
AcDbEntity
  8
DRAFT
100
AcDbLine
 62
7
  6
CONTINUOUS
 10
43.2346183106
 20
22.4178188655
 11
43.0897412717
 21
22.5626959044
  0
LINE
  5
3BF
100
AcDbEntity
  8
RACCORDO
100
AcDbLine
 62
253
  6
CONTINUOUS
 10
59.1392727222
 20
22.3295946294
 11
59.1392727222
 21
18.7562200083
  0
LINE
  5
3C0
100
AcDbEntity
  8
RACCORDO
100
AcDbLine
 62
253
  6
CONTINUOUS
 10
59.1392727222
 20
-18.8437799917
 11
59.1392727222
 21
-22.4171546127
  0
LINE
  5
3C1
100
AcDbEntity
  8
RACCORDO
100
AcDbLine
 62
253
  6
CONTINUOUS
 10
59.389234646
 20
22.0796327056
 11
59.389234646
 21
18.7562200083
  0
LINE
  5
3C2
100
AcDbEntity
  8
RACCORDO
100
AcDbLine
 62
253
  6
CONTINUOUS
 10
59.389234646
 20
-18.8437799917
 11
59.389234646
 21
-22.1671926889
  0
LINE
  5
3C3
100
AcDbEntity
  8
RACCORDO
100
AcDbLine
 62
7
  6
CONTINUOUS
 10
59.3936745705
 20
18.7562200083
 11
59.3936745705
 21
18.0031326879
  0
LINE
  5
3C4
100
AcDbEntity
  8
RACCORDO
100
AcDbLine
 62
7
  6
CONTINUOUS
 10
59.3936745705
 20
-18.0906926712
 11
59.3936745705
 21
-18.8437799917
  0
LINE
  5
3C5
100
AcDbEntity
  8
RACCORDO
100
AcDbLine
 62
253
  6
CONTINUOUS
 10
59.4800333379
 20
23.7062200083
 11
59.4800333379
 21
22.1704313975
  0
LINE
  5
3C6
100
AcDbEntity
  8
RACCORDO
100
AcDbLine
 62
253
  6
CONTINUOUS
 10
59.4800333379
 20
-22.2579913809
 11
59.4800333379
 21
-23.7937799917
  0
LINE
  5
3C7
100
AcDbEntity
  8
RACCORDO
100
AcDbLine
 62
7
  6
CONTINUOUS
 10
59.5158600249
 20
23.7062200083
 11
59.5158600249
 21
-23.7937799917
  0
LINE
  5
3C8
100
AcDbEntity
  8
RACCORDO
100
AcDbLine
 62
7
  6
CONTINUOUS
 10
17.8158600249
 20
23.8146294682
 11
18.3737784101
 21
23.8146294682
  0
LINE
  5
3C9
100
AcDbEntity
  8
RACCORDO
100
AcDbLine
 62
7
  6
CONTINUOUS
 10
25.8579416398
 20
23.8146294682
 11
26.4158600249
 21
23.8146294682
  0
LINE
  5
3CA
100
AcDbEntity
  8
RACCORDO
100
AcDbLine
 62
7
  6
CONTINUOUS
 10
42.8158600249
 20
23.8146294682
 11
43.3737784101
 21
23.8146294682
  0
LINE
  5
3CB
100
AcDbEntity
  8
RACCORDO
100
AcDbLine
 62
7
  6
CONTINUOUS
 10
50.8579416398
 20
23.8146294682
 11
51.4158600249
 21
23.8146294682
  0
LINE
  5
3CC
100
AcDbEntity
  8
RACCORDO
100
AcDbLine
 62
7
  6
CONTINUOUS
 10
53.1158600249
 20
23.9562200083
 11
51.0491262598
 21
23.9562200083
  0
LINE
  5
3CD
100
AcDbEntity
  8
RACCORDO
100
AcDbLine
 62
7
  6
CONTINUOUS
 10
43.1825937901
 20
23.9562200083
 11
41.1158600249
 21
23.9562200083
  0
LINE
  5
3CE
100
AcDbEntity
  8
RACCORDO
100
AcDbLine
 62
7
  6
CONTINUOUS
 10
28.1158600249
 20
23.9562200083
 11
26.0491262598
 21
23.9562200083
  0
LINE
  5
3CF
100
AcDbEntity
  8
RACCORDO
100
AcDbLine
 62
7
  6
CONTINUOUS
 10
18.1825937901
 20
23.9562200083
 11
16.1158600249
 21
23.9562200083
  0
LINE
  5
3D0
100
AcDbEntity
  8
RACCORDO
100
AcDbLine
 62
7
  6
CONTINUOUS
 10
9.965898107
 20
23.9562200083
 11
11.4658219429
 21
23.9562200083
  0
LINE
  5
3D1
100
AcDbEntity
  8
RACCORDO
100
AcDbLine
 62
7
  6
CONTINUOUS
 10
57.765898107
 20
23.9562200083
 11
59.2658219429
 21
23.9562200083
  0
LINE
  5
3D2
100
AcDbEntity
  8
0
100
AcDbLine
 62
253
  6
CONTINUOUS
 10
53.1158600249
 20
24.2562200083
 11
41.1158600249
 21
24.2562200083
  0
LINE
  5
3D3
100
AcDbEntity
  8
0
100
AcDbLine
 62
253
  6
CONTINUOUS
 10
28.1158600249
 20
24.2562200083
 11
16.1158600249
 21
24.2562200083
  0
LINE
  5
3D4
100
AcDbEntity
  8
0
100
AcDbLine
 62
7
  6
CONTINUOUS
 10
53.1158600249
 20
24.9562200083
 11
41.1158600249
 21
24.9562200083
  0
LINE
  5
3D5
100
AcDbEntity
  8
0
100
AcDbLine
 62
7
  6
CONTINUOUS
 10
28.1158600249
 20
24.9562200083
 11
16.1158600249
 21
24.9562200083
  0
LINE
  5
3D6
100
AcDbEntity
  8
RACCORDO
100
AcDbLine
 62
7
  6
CONTINUOUS
 10
53.2093841289
 20
-22.6502558877
 11
53.3711916504
 21
-22.4884483662
  0
LINE
  5
3D7
100
AcDbEntity
  8
RACCORDO
100
AcDbLine
 62
7
  6
CONTINUOUS
 10
53.2093841289
 20
22.5626959044
 11
53.3711916504
 21
22.4008883828
  0
LINE
  5
3D8
100
AcDbEntity
  8
RACCORDO
100
AcDbLine
 62
7
  6
CONTINUOUS
 10
57.3759148726
 20
-22.683725144
 11
57.551686712
 21
-22.5079533047
  0
LINE
  5
3D9
100
AcDbEntity
  8
RACCORDO
100
AcDbLine
 62
7
  6
CONTINUOUS
 10
57.3759148726
 20
22.5961651606
 11
57.551686712
 21
22.4203933213
  0
LINE
  5
3DA
100
AcDbEntity
  8
0
100
AcDbLine
 62
7
  6
CONTINUOUS
 10
-25.4521566314
 20
-25.0437799917
 11
-24.9379936474
 21
-25.0437799917
  0
LINE
  5
3DB
100
AcDbEntity
  8
0
100
AcDbLine
 62
7
  6
CONTINUOUS
 10
-25.4521566314
 20
-24.6437799917
 11
-24.9379936474
 21
-24.6437799917
  0
LINE
  5
3DC
100
AcDbEntity
  8
0
100
AcDbLine
 62
253
  6
CONTINUOUS
 10
-25.7521566314
 20
-24.3437799917
 11
-26.1521566314
 21
-24.3437799917
  0
LINE
  5
3DD
100
AcDbEntity
  8
RACCORDO
100
AcDbLine
 62
7
  6
CONTINUOUS
 10
-27.002155587
 20
-24.0437799917
 11
-24.2521566314
 21
-24.0437799917
  0
LINE
  5
3DE
100
AcDbEntity
  8
RACCORDO
100
AcDbLine
 62
253
  6
CONTINUOUS
 10
-27.2521566314
 20
-23.7937799917
 11
-24.2521566314
 21
-23.7937799917
  0
LINE
  5
3DF
100
AcDbEntity
  8
RACCORDO
100
AcDbLine
 62
7
  6
CONTINUOUS
 10
-15.7521566314
 20
-23.2937799917
 11
-24.2521566314
 21
-23.2937799917
  0
LINE
  5
3E0
100
AcDbEntity
  8
RACCORDO
100
AcDbLine
 62
7
  6
CONTINUOUS
 10
-27.2521566314
 20
-23.2937799917
 11
-28.0021566303
 21
-23.2937799917
  0
LINE
  5
3E1
100
AcDbEntity
  8
RACCORDO
100
AcDbLine
 62
253
  6
CONTINUOUS
 10
-15.3191439295
 20
-23.0437799917
 11
-24.2521566314
 21
-23.0437799917
  0
LINE
  5
3E2
100
AcDbEntity
  8
RACCORDO
100
AcDbLine
 62
253
  6
CONTINUOUS
 10
-27.2521566314
 20
-23.0437799917
 11
-28.2521566314
 21
-23.0437799917
  0
LINE
  5
3E3
100
AcDbEntity
  8
RACCORDO
100
AcDbLine
 62
253
  6
CONTINUOUS
 10
-31.506519733
 20
-22.1671926889
 11
-31.7521566314
 21
-22.1671926889
  0
LINE
  5
3E4
100
AcDbEntity
  8
RACCORDO
100
AcDbLine
 62
7
  6
CONTINUOUS
 10
-15.2521566314
 20
-21.0223218018
 11
-24.2521566314
 21
-20.9437799917
  0
LINE
  5
3E5
100
AcDbEntity
  8
RACCORDO
100
AcDbLine
 62
7
  6
CONTINUOUS
 10
-15.2521566314
 20
-22.700875576
 11
-24.2521566314
 21
-22.5437799917
  0
LINE
  5
3E6
100
AcDbEntity
  8
RACCORDO
100
AcDbLine
 62
7
  6
CONTINUOUS
 10
-26.9479335285
 20
-22.4967250309
 11
-31.506519733
 21
-22.4171546127
  0
LINE
  5
3E7
100
AcDbEntity
  8
RACCORDO
100
AcDbLine
 62
253
  6
CONTINUOUS
 10
-26.3046661555
 20
-22.2579913809
 11
-31.506519733
 21
-22.1671926889
  0
LINE
  5
3E8
100
AcDbEntity
  8
DRAFT
100
AcDbLine
 62
7
  6
CONTINUOUS
 10
-15.2521566314
 20
-20.1692293424
 11
-24.2521566314
 21
-20.3263249268
  0
LINE
  5
3E9
100
AcDbEntity
  8
ASSI
100
AcDbLine
 62
7
  6
CONTINUOUS
 10
-15.2521566314
 20
-20.1692293424
 11
-24.2521566314
 21
-20.3263249268
  0
LINE
  5
3EA
100
AcDbEntity
  8
RACCORDO
100
AcDbLine
 62
7
  6
CONTINUOUS
 10
-7.0873220859
 20
-19.4267116253
 11
-15.2521566314
 21
-19.5692293424
  0
LINE
  5
3EB
100
AcDbEntity
  8
ASSI
100
AcDbLine
 62
7
  6
CONTINUOUS
 10
-7.0873220859
 20
-19.4267116253
 11
-15.2521566314
 21
-19.5692293424
  0
LINE
  5
3EC
100
AcDbEntity
  8
RACCORDO
100
AcDbLine
 62
253
  6
CONTINUOUS
 10
-24.2521566314
 20
-19.5722470866
 11
-9.1833312282
 21
-19.463297601
  0
LINE
  5
3ED
100
AcDbEntity
  8
ASSI
100
AcDbLine
 62
253
  6
CONTINUOUS
 10
-24.2521566314
 20
-19.5722470866
 11
-9.1833312282
 21
-19.463297601
  0
LINE
  5
3EE
100
AcDbEntity
  8
RACCORDO
100
AcDbLine
 62
7
  6
CONTINUOUS
 10
-31.7521566314
 20
-18.8437799917
 11
-31.2521566314
 21
-18.8437799917
  0
LINE
  5
3EF
100
AcDbEntity
  8
RACCORDO
100
AcDbLine
 62
7
  6
CONTINUOUS
 10
-34.5957867932
 20
-17.7542077807
 11
-31.2521566314
 21
-18.3437799917
  0
LINE
  5
3F0
100
AcDbEntity
  8
RACCORDO
100
AcDbLine
 62
253
  6
CONTINUOUS
 10
-34.5567378504
 20
-17.5080058424
 11
-31.2521566314
 21
-18.0906926712
  0
LINE
  5
3F1
100
AcDbEntity
  8
RACCORDO
100
AcDbLine
 62
253
  6
CONTINUOUS
 10
-24.2521566314
 20
-18.1582527511
 11
-7.0873220859
 21
-18.0342146913
  0
LINE
  5
3F2
100
AcDbEntity
  8
ASSI
100
AcDbLine
 62
253
  6
CONTINUOUS
 10
-24.2521566314
 20
-18.1582527511
 11
-7.0873220859
 21
-18.0342146913
  0
LINE
  5
3F3
100
AcDbEntity
  8
RACCORDO
100
AcDbLine
 62
253
  6
CONTINUOUS
 10
-6.2521566314
 20
-18.0341450228
 11
-7.0873220859
 21
-18.0341450199
  0
LINE
  5
3F4
100
AcDbEntity
  8
ASSI
100
AcDbLine
 62
253
  6
CONTINUOUS
 10
-6.2521566314
 20
-18.0341450228
 11
-7.0873220859
 21
-18.0341450199
  0
LINE
  5
3F5
100
AcDbEntity
  8
CURVE
100
AcDbLine
 62
253
  6
CONTINUOUS
 10
-11.5168145446
 20
-17.0437799917
 11
-13.0163576649
 21
-17.0437799917
  0
LINE
  5
3F6
100
AcDbEntity
  8
RACCORDO
100
AcDbLine
 62
253
  6
CONTINUOUS
 10
-35.1759179588
 20
-16.7989854404
 11
-35.4213602134
 21
-16.8088472424
  0
LINE
  5
3F7
100
AcDbEntity
  8
CURVE
100
AcDbLine
 62
253
  6
CONTINUOUS
 10
-13.766129225
 20
-13.5437799917
 11
-13.0163576649
 21
-13.5437799917
  0
LINE
  5
3F8
100
AcDbEntity
  8
CURVE
100
AcDbLine
 62
253
  6
CONTINUOUS
 10
-9.9958489514
 20
-13.5437799917
 11
-9.5888299616
 21
-13.5437799917
  0
LINE
  5
3F9
100
AcDbEntity
  8
CURVE
100
AcDbLine
 62
253
  6
CONTINUOUS
 10
-10.7670429845
 20
-13.5437799917
 11
-11.5168145446
 21
-13.5437799917
  0
LINE
  5
3FA
100
AcDbEntity
  8
CURVE
100
AcDbLine
 62
253
  6
CONTINUOUS
 10
-8.0964276657
 20
-12.7294939917
 11
-8.7747919821
 21
-12.7294939917
  0
LINE
  5
3FB
100
AcDbEntity
  8
CURVE
100
AcDbLine
 62
253
  6
CONTINUOUS
 10
-21.1674426314
 20
12.7856500083
 11
-18.2677896314
 21
13.6753350083
  0
LINE
  5
3FC
100
AcDbEntity
  8
IMPORT_IGES
100
AcDbLine
 62
7
  6
CONTINUOUS
 10
-10.2736554896
 20
-9.6001138161
 11
-10.2521566314
 21
-9.5979251801
  0
LINE
  5
3FD
100
AcDbEntity
  8
CURVE
100
AcDbLine
 62
253
  6
CONTINUOUS
 10
-8.7747919821
 20
-11.6437799917
 11
-8.0964276657
 21
-11.6437799917
  0
LINE
  5
3FE
100
AcDbEntity
  8
RACCORDO
100
AcDbLine
 62
7
  6
CONTINUOUS
 10
-7.0873220859
 20
-10.4451377457
 11
-20.2259780217
 21
-10.312730491
  0
LINE
  5
3FF
100
AcDbEntity
  8
ASSI
100
AcDbLine
 62
7
  6
CONTINUOUS
 10
-7.0873220859
 20
-10.4451377457
 11
-20.2259780217
 21
-10.312730491
  0
LINE
  5
400
100
AcDbEntity
  8
0
100
AcDbLine
 62
253
  6
CONTINUOUS
 10
-24.8452885491
 20
24.5415369632
 11
-24.7216817514
 21
24.9219595697
  0
LINE
  5
401
100
AcDbEntity
  8
CURVE
100
AcDbLine
 62
253
  6
CONTINUOUS
 10
-10.8958232697
 20
15.7990773453
 11
-10.6244360543
 21
15.9347915663
  0
LINE
  5
402
100
AcDbEntity
  8
IMPORT_IGES
100
AcDbLine
 62
7
  6
CONTINUOUS
 10
-19.2521566314
 20
-9.6247200994
 11
-10.8192939197
 21
-9.6247200994
  0
LINE
  5
403
100
AcDbEntity
  8
IMPORT_IGES
100
AcDbLine
 62
253
  6
CONTINUOUS
 10
-11.9535411773
 20
-9.4247200994
 11
-13.8521566314
 21
-9.4247200994
  0
LINE
  5
404
100
AcDbEntity
  8
IMPORT_IGES
100
AcDbLine
 62
253
  6
CONTINUOUS
 10
-15.0521566314
 20
-9.4247200994
 11
-19.2521566314
 21
-9.4247200994
  0
LINE
  5
405
100
AcDbEntity
  8
RACCORDO
100
AcDbLine
 62
7
  6
CONTINUOUS
 10
-10.2514667407
 20
-9.5705418637
 11
-6.5495386707
 21
-9.6638076188
  0
LINE
  5
406
100
AcDbEntity
  8
ASSI
100
AcDbLine
 62
7
  6
CONTINUOUS
 10
-10.2514667407
 20
-9.5705418637
 11
-6.5495386707
 21
-9.6638076188
  0
LINE
  5
407
100
AcDbEntity
  8
0
100
AcDbLine
 62
253
  6
CONTINUOUS
 10
-24.8452885491
 20
-24.6290969466
 11
-24.7216817514
 21
-25.0095195531
  0
LINE
  5
408
100
AcDbEntity
  8
RACCORDO
100
AcDbLine
 62
7
  6
CONTINUOUS
 10
-31.7521566314
 20
22.0796327056
 11
-31.7521566314
 21
18.7562200083
  0
LINE
  5
409
100
AcDbEntity
  8
RACCORDO
100
AcDbLine
 62
7
  6
CONTINUOUS
 10
-31.7521566314
 20
-18.8437799917
 11
-31.7521566314
 21
-22.1671926889
  0
LINE
  5
40A
100
AcDbEntity
  8
RACCORDO
100
AcDbLine
 62
253
  6
CONTINUOUS
 10
-31.506519733
 20
22.0796327056
 11
-31.506519733
 21
18.7562200083
  0
LINE
  5
40B
100
AcDbEntity
  8
RACCORDO
100
AcDbLine
 62
253
  6
CONTINUOUS
 10
-31.506519733
 20
-18.8437799917
 11
-31.506519733
 21
-22.1671926889
  0
LINE
  5
40C
100
AcDbEntity
  8
RACCORDO
100
AcDbLine
 62
7
  6
CONTINUOUS
 10
-31.2521566314
 20
18.7562200083
 11
-31.2521566314
 21
18.0031326879
  0
LINE
  5
40D
100
AcDbEntity
  8
RACCORDO
100
AcDbLine
 62
7
  6
CONTINUOUS
 10
-31.2521566314
 20
-18.0906926712
 11
-31.2521566314
 21
-18.8437799917
  0
LINE
  5
40E
100
AcDbEntity
  8
CURVE
100
AcDbLine
 62
253
  6
CONTINUOUS
 10
-9.5388871079
 20
15.1205057873
 11
-9.8102743516
 21
14.9847915663
  0
LINE
  5
40F
100
AcDbEntity
  8
CURVE
100
AcDbLine
 62
253
  6
CONTINUOUS
 10
-18.2677896314
 20
9.6745340083
 11
-20.1612086314
 21
8.9644780083
  0
LINE
  5
410
100
AcDbEntity
  8
CURVE
100
AcDbLine
 62
253
  6
CONTINUOUS
 10
-21.1674426314
 20
9.1214060083
 11
-19.5575466314
 21
9.7202840083
  0
LINE
  5
411
100
AcDbEntity
  8
RACCORDO
100
AcDbLine
 62
7
  6
CONTINUOUS
 10
-10.2514667407
 20
-6.3170181196
 11
-6.5495386707
 21
-6.2237523645
  0
LINE
  5
412
100
AcDbEntity
  8
ASSI
100
AcDbLine
 62
7
  6
CONTINUOUS
 10
-10.2514667407
 20
-6.3170181196
 11
-6.5495386707
 21
-6.2237523645
  0
LINE
  5
413
100
AcDbEntity
  8
IMPORT_IGES
100
AcDbLine
 62
253
  6
CONTINUOUS
 10
-19.2521566314
 20
-6.462839884
 11
-15.0521566314
 21
-6.462839884
  0
LINE
  5
414
100
AcDbEntity
  8
IMPORT_IGES
100
AcDbLine
 62
253
  6
CONTINUOUS
 10
-13.8521566314
 20
-6.462839884
 11
-11.9535411773
 21
-6.462839884
  0
LINE
  5
415
100
AcDbEntity
  8
IMPORT_IGES
100
AcDbLine
 62
7
  6
CONTINUOUS
 10
-19.2521566314
 20
-6.262839884
 11
-10.8192719326
 21
-6.262839884
  0
LINE
  5
416
100
AcDbEntity
  8
RACCORDO
100
AcDbLine
 62
7
  6
CONTINUOUS
 10
-40.6288458201
 20
-6.1772379484
 11
-35.7060785808
 21
-6.2631651702
  0
LINE
  5
417
100
AcDbEntity
  8
RACCORDO
100
AcDbLine
 62
253
  6
CONTINUOUS
 10
-41.0380931008
 20
-5.9516912253
 11
-36.4108500823
 21
-6.0320526489
  0
LINE
  5
418
100
AcDbEntity
  8
RACCORDO
100
AcDbLine
 62
7
  6
CONTINUOUS
 10
-28.2521566314
 20
-23.0437799917
 11
-28.2521566314
 21
-22.473959732
  0
LINE
  5
419
100
AcDbEntity
  8
RACCORDO
100
AcDbLine
 62
7
  6
CONTINUOUS
 10
-28.2521566314
 20
22.3863997486
 11
-28.2521566314
 21
22.9562200083
  0
LINE
  5
41A
100
AcDbEntity
  8
RACCORDO
100
AcDbLine
 62
7
  6
CONTINUOUS
 10
-20.2259780217
 20
-5.5748294924
 11
-7.0873220859
 21
-5.4424222377
  0
LINE
  5
41B
100
AcDbEntity
  8
ASSI
100
AcDbLine
 62
7
  6
CONTINUOUS
 10
-20.2259780217
 20
-5.5748294924
 11
-7.0873220859
 21
-5.4424222377
  0
LINE
  5
41C
100
AcDbEntity
  8
RACCORDO
100
AcDbLine
 62
253
  6
CONTINUOUS
 10
-36.1730015034
 20
-5.7550911527
 11
-35.7134781777
 21
-5.7631121622
  0
LINE
  5
41D
100
AcDbEntity
  8
RACCORDO
100
AcDbLine
 62
253
  6
CONTINUOUS
 10
-27.4221033315
 20
-23.0437799917
 11
-27.4221033315
 21
-22.4884483662
  0
LINE
  5
41E
100
AcDbEntity
  8
RACCORDO
100
AcDbLine
 62
253
  6
CONTINUOUS
 10
-27.4221033315
 20
22.4008883828
 11
-27.4221033315
 21
22.9562200083
  0
LINE
  5
41F
100
AcDbEntity
  8
RACCORDO
100
AcDbLine
 62
7
  6
CONTINUOUS
 10
-27.2521566314
 20
-23.7937799917
 11
-27.2521566314
 21
-22.491428535
  0
LINE
  5
420
100
AcDbEntity
  8
RACCORDO
100
AcDbLine
 62
7
  6
CONTINUOUS
 10
-27.2521566314
 20
22.4038685516
 11
-27.2521566314
 21
23.7062200083
  0
LINE
  5
421
100
AcDbEntity
  8
RACCORDO
100
AcDbLine
 62
253
  6
CONTINUOUS
 10
-26.3046661555
 20
23.7062200083
 11
-26.3046661555
 21
22.1704313975
  0
LINE
  5
422
100
AcDbEntity
  8
RACCORDO
100
AcDbLine
 62
253
  6
CONTINUOUS
 10
-26.3046661555
 20
-22.2579913809
 11
-26.3046661555
 21
-23.7937799917
  0
LINE
  5
423
100
AcDbEntity
  8
0
100
AcDbLine
 62
7
  6
CONTINUOUS
 10
-26.1521566314
 20
-24.0437799917
 11
-26.1521566314
 21
-24.3437799917
  0
LINE
  5
424
100
AcDbEntity
  8
0
100
AcDbLine
 62
7
  6
CONTINUOUS
 10
-26.1521566314
 20
23.9562200083
 11
-26.1521566314
 21
24.2562200083
  0
LINE
  5
425
100
AcDbEntity
  8
CURVE
100
AcDbLine
 62
253
  6
CONTINUOUS
 10
-11.167210485
 20
15.5276484503
 11
-10.8958232697
 21
15.7990773453
  0
LINE
  5
426
100
AcDbEntity
  8
CURVE
100
AcDbLine
 62
253
  6
CONTINUOUS
 10
-11.167210485
 20
12.8133628978
 11
-10.8958232697
 21
12.994315268
  0
LINE
  5
427
100
AcDbEntity
  8
CURVE
100
AcDbLine
 62
253
  6
CONTINUOUS
 10
-18.2677896314
 20
5.6336260083
 11
-21.1674426314
 21
4.7143800083
  0
LINE
  5
428
100
AcDbEntity
  8
0
100
AcDbLine
 62
7
  6
CONTINUOUS
 10
-25.7521566314
 20
-24.0437799917
 11
-25.7521566314
 21
-24.3437799917
  0
LINE
  5
429
100
AcDbEntity
  8
0
100
AcDbLine
 62
7
  6
CONTINUOUS
 10
-25.7521566314
 20
23.9562200083
 11
-25.7521566314
 21
24.2562200083
  0
LINE
  5
42A
100
AcDbEntity
  8
0
100
AcDbLine
 62
253
  6
CONTINUOUS
 10
-25.4521566314
 20
-24.6437799917
 11
-25.4521566314
 21
-25.0437799917
  0
LINE
  5
42B
100
AcDbEntity
  8
0
100
AcDbLine
 62
253
  6
CONTINUOUS
 10
-25.4521566314
 20
24.5562200083
 11
-25.4521566314
 21
24.9562200083
  0
LINE
  5
42C
100
AcDbEntity
  8
0
100
AcDbLine
 62
253
  6
CONTINUOUS
 10
-24.9379936474
 20
-24.6437799917
 11
-24.9379936474
 21
-25.0437799917
  0
LINE
  5
42D
100
AcDbEntity
  8
0
100
AcDbLine
 62
253
  6
CONTINUOUS
 10
-24.9379936474
 20
24.5562200083
 11
-24.9379936474
 21
24.9562200083
  0
LINE
  5
42E
100
AcDbEntity
  8
RACCORDO
100
AcDbLine
 62
7
  6
CONTINUOUS
 10
-24.2521566314
 20
23.9562200083
 11
-24.2521566314
 21
-24.0437799917
  0
LINE
  5
42F
100
AcDbEntity
  8
CURVE
100
AcDbLine
 62
253
  6
CONTINUOUS
 10
-9.2674998642
 20
15.3919342293
 11
-9.5388871079
 21
15.1205057873
  0
LINE
  5
430
100
AcDbEntity
  8
CURVE
100
AcDbLine
 62
253
  6
CONTINUOUS
 10
-10.081661567
 20
14.4419342293
 11
-10.3530488389
 21
14.1705057873
  0
LINE
  5
431
100
AcDbEntity
  8
SMUSSO
100
AcDbLine
 62
7
  6
CONTINUOUS
 10
-20.2259780217
 20
-5.5748294924
 11
-19.2521566314
 21
-6.4210952631
  0
LINE
  5
432
100
AcDbEntity
  8
ASSI
100
AcDbLine
 62
7
  6
CONTINUOUS
 10
-20.2259780217
 20
-5.5748294924
 11
-19.2521566314
 21
-6.4210952631
  0
LINE
  5
433
100
AcDbEntity
  8
CURVE
100
AcDbLine
 62
253
  6
CONTINUOUS
 10
-12.2665861048
 20
-12.0437799917
 11
-10.7670429845
 21
-13.5437799917
  0
LINE
  5
434
100
AcDbEntity
  8
CURVE
100
AcDbLine
 62
253
  6
CONTINUOUS
 10
-10.3530488389
 20
12.8133628978
 11
-10.081661567
 21
13.0847913398
  0
LINE
  5
435
100
AcDbEntity
  8
CURVE
100
AcDbLine
 62
253
  6
CONTINUOUS
 10
-10.081661567
 20
11.5919342293
 11
-10.3530488389
 21
11.3205056741
  0
LINE
  5
436
100
AcDbEntity
  8
CURVE
100
AcDbLine
 62
253
  6
CONTINUOUS
 10
-9.2674998642
 20
12.4062200083
 11
-9.5388871079
 21
12.1347913398
  0
LINE
  5
437
100
AcDbEntity
  8
CURVE
100
AcDbLine
 62
253
  6
CONTINUOUS
 10
-10.2671952778
 20
-13.2723509917
 11
-9.9958489514
 21
-13.5437799917
  0
LINE
  5
438
100
AcDbEntity
  8
CURVE
100
AcDbLine
 62
253
  6
CONTINUOUS
 10
-21.1676166314
 20
7.9289760083
 11
-21.1676166314
 21
7.3237050083
  0
LINE
  5
439
100
AcDbEntity
  8
CURVE
100
AcDbLine
 62
253
  6
CONTINUOUS
 10
-21.1674426314
 20
4.7143800083
 11
-21.1674426314
 21
5.3718920083
  0
LINE
  5
43A
100
AcDbEntity
  8
CURVE
100
AcDbLine
 62
253
  6
CONTINUOUS
 10
-21.1674426314
 20
6.4942290083
 11
-21.1674426314
 21
7.0990870083
  0
LINE
  5
43B
100
AcDbEntity
  8
CURVE
100
AcDbLine
 62
253
  6
CONTINUOUS
 10
-21.1674426314
 20
8.5166340083
 11
-21.1674426314
 21
9.1214060083
  0
LINE
  5
43C
100
AcDbEntity
  8
CURVE
100
AcDbLine
 62
253
  6
CONTINUOUS
 10
-21.1674426314
 20
10.3255550083
 11
-21.1674426314
 21
10.9244120083
  0
LINE
  5
43D
100
AcDbEntity
  8
CURVE
100
AcDbLine
 62
253
  6
CONTINUOUS
 10
-21.1674426314
 20
12.2001220083
 11
-21.1674426314
 21
12.7856500083
  0
LINE
  5
43E
100
AcDbEntity
  8
SMUSSO
100
AcDbLine
 62
7
  6
CONTINUOUS
 10
-20.2259780217
 20
-10.312730491
 11
-20.2259780217
 21
-5.5748294924
  0
LINE
  5
43F
100
AcDbEntity
  8
ASSI
100
AcDbLine
 62
7
  6
CONTINUOUS
 10
-20.2259780217
 20
-10.312730491
 11
-20.2259780217
 21
-5.5748294924
  0
LINE
  5
440
100
AcDbEntity
  8
CURVE
100
AcDbLine
 62
253
  6
CONTINUOUS
 10
-19.8774467914
 20
14.7817447774
 11
-19.8774467914
 21
14.4358381813
  0
LINE
  5
441
100
AcDbEntity
  8
CURVE
100
AcDbLine
 62
253
  6
CONTINUOUS
 10
-10.3530488389
 20
12.4062200083
 11
-10.48874239
 21
12.2252676381
  0
LINE
  5
442
100
AcDbEntity
  8
CURVE
100
AcDbLine
 62
253
  6
CONTINUOUS
 10
-9.5388871079
 20
10.6419343426
 11
-9.2674998642
 21
10.9133628978
  0
LINE
  5
443
100
AcDbEntity
  8
CURVE
100
AcDbLine
 62
253
  6
CONTINUOUS
 10
-21.1674426314
 20
5.3718920083
 11
-19.1715216314
 21
5.9246180083
  0
LINE
  5
444
100
AcDbEntity
  8
CURVE
100
AcDbLine
 62
253
  6
CONTINUOUS
 10
-8.0964276657
 20
-11.6437799917
 11
-7.8250813393
 21
-11.9152089917
  0
LINE
  5
445
100
AcDbEntity
  8
CURVE
100
AcDbLine
 62
253
  6
CONTINUOUS
 10
-19.4025536522
 20
14.4559080699
 11
-19.4025536522
 21
14.7804401259
  0
LINE
  5
446
100
AcDbEntity
  8
CURVE
100
AcDbLine
 62
253
  6
CONTINUOUS
 10
-19.2945936314
 20
12.1801390083
 11
-19.2945936314
 21
12.7596440083
  0
LINE
  5
447
100
AcDbEntity
  8
IMPORT_IGES
100
AcDbLine
 62
7
  6
CONTINUOUS
 10
-19.2521566314
 20
-9.6246723733
 11
-19.2521566314
 21
-6.2628497564
  0
LINE
  5
448
100
AcDbEntity
  8
CURVE
100
AcDbLine
 62
253
  6
CONTINUOUS
 10
-18.8466636314
 20
12.8806070083
 11
-18.8466636314
 21
12.0563280083
  0
LINE
  5
449
100
AcDbEntity
  8
CURVE
100
AcDbLine
 62
253
  6
CONTINUOUS
 10
-18.2677896314
 20
13.6753350083
 11
-18.2677896314
 21
13.0374040083
  0
LINE
  5
44A
100
AcDbEntity
  8
CURVE
100
AcDbLine
 62
253
  6
CONTINUOUS
 10
-18.2677896314
 20
11.8893110083
 11
-18.2677896314
 21
11.2906060083
  0
LINE
  5
44B
100
AcDbEntity
  8
CURVE
100
AcDbLine
 62
253
  6
CONTINUOUS
 10
-18.2677896314
 20
11.1955620083
 11
-18.2677896314
 21
10.6034460083
  0
LINE
  5
44C
100
AcDbEntity
  8
CURVE
100
AcDbLine
 62
253
  6
CONTINUOUS
 10
-18.2677896314
 20
9.7594240083
 11
-18.2677896314
 21
9.6745340083
  0
LINE
  5
44D
100
AcDbEntity
  8
CURVE
100
AcDbLine
 62
253
  6
CONTINUOUS
 10
-18.2677896314
 20
8.8338600083
 11
-18.2677896314
 21
8.2548130083
  0
LINE
  5
44E
100
AcDbEntity
  8
CURVE
100
AcDbLine
 62
253
  6
CONTINUOUS
 10
-18.2677896314
 20
6.1670220083
 11
-18.2677896314
 21
5.6336260083
  0
LINE
  5
44F
100
AcDbEntity
  8
CURVE
100
AcDbLine
 62
253
  6
CONTINUOUS
 10
-18.2677896314
 20
7.3237050083
 11
-18.2677896314
 21
7.9289760083
  0
LINE
  5
450
100
AcDbEntity
  8
CURVE
100
AcDbLine
 62
253
  6
CONTINUOUS
 10
-18.2677895379
 20
13.8530721088
 11
-18.2677895379
 21
14.4559080699
  0
LINE
  5
451
100
AcDbEntity
  8
CURVE
100
AcDbLine
 62
253
  6
CONTINUOUS
 10
-18.2677895379
 20
15.3827977148
 11
-18.2677895379
 21
15.9649984383
  0
LINE
  5
452
100
AcDbEntity
  8
RACCORDO
100
AcDbLine
 62
253
  6
CONTINUOUS
 10
-16.234704225
 20
22.5961651606
 11
-16.234704225
 21
20.9261872555
  0
LINE
  5
453
100
AcDbEntity
  8
RACCORDO
100
AcDbLine
 62
253
  6
CONTINUOUS
 10
-16.234704225
 20
-21.0137472389
 11
-16.234704225
 21
-22.683725144
  0
LINE
  5
454
100
AcDbEntity
  8
CURVE
100
AcDbLine
 62
253
  6
CONTINUOUS
 10
-21.1676166314
 20
7.3237050083
 11
-18.2677896314
 21
7.3237050083
  0
LINE
  5
455
100
AcDbEntity
  8
CURVE
100
AcDbLine
 62
253
  6
CONTINUOUS
 10
-18.2677896314
 20
7.9289760083
 11
-21.1676166314
 21
7.9289760083
  0
LINE
  5
456
100
AcDbEntity
  8
CURVE
100
AcDbLine
 62
253
  6
CONTINUOUS
 10
-19.1715216314
 20
5.9246180083
 11
-21.1674426314
 21
6.4942290083
  0
LINE
  5
457
100
AcDbEntity
  8
CURVE
100
AcDbLine
 62
253
  6
CONTINUOUS
 10
-21.1674426314
 20
7.0990870083
 11
-18.2677896314
 21
6.1670220083
  0
LINE
  5
458
100
AcDbEntity
  8
CURVE
100
AcDbLine
 62
253
  6
CONTINUOUS
 10
-15.2645796782
 20
8.7934120083
 11
-15.2645796782
 21
9.5523070083
  0
LINE
  5
459
100
AcDbEntity
  8
CURVE
100
AcDbLine
 62
253
  6
CONTINUOUS
 10
-15.2645796782
 20
11.4187250083
 11
-15.2645796782
 21
12.5974840083
  0
LINE
  5
45A
100
AcDbEntity
  8
CURVE
100
AcDbLine
 62
253
  6
CONTINUOUS
 10
-15.2645796782
 20
14.1675700083
 11
-15.2645796782
 21
15.5524740083
  0
LINE
  5
45B
100
AcDbEntity
  8
RACCORDO
100
AcDbLine
 62
7
  6
CONTINUOUS
 10
-15.2521566314
 20
22.7062200083
 11
-15.2521566314
 21
20.9347618184
  0
LINE
  5
45C
100
AcDbEntity
  8
ASSI
100
AcDbLine
 62
7
  6
CONTINUOUS
 10
-15.2521566314
 20
20.081669359
 11
-15.2521566314
 21
19.481669359
  0
LINE
  5
45D
100
AcDbEntity
  8
ASSI
100
AcDbLine
 62
7
  6
CONTINUOUS
 10
-15.2521566314
 20
-19.5692293424
 11
-15.2521566314
 21
-20.1692293424
  0
LINE
  5
45E
100
AcDbEntity
  8
DRAFT
100
AcDbLine
 62
7
  6
CONTINUOUS
 10
-15.2521566314
 20
-21.0223218018
 11
-15.2521566314
 21
-19.5692293424
  0
LINE
  5
45F
100
AcDbEntity
  8
RACCORDO
100
AcDbLine
 62
7
  6
CONTINUOUS
 10
-15.2521566314
 20
-21.0223218018
 11
-15.2521566314
 21
-22.7937799917
  0
LINE
  5
460
100
AcDbEntity
  8
DRAFT
100
AcDbLine
 62
7
  6
CONTINUOUS
 10
-15.2521566314
 20
19.481669359
 11
-15.2521566314
 21
20.9347618184
  0
LINE
  5
461
100
AcDbEntity
  8
IMPORT_IGES
100
AcDbLine
 62
7
  6
CONTINUOUS
 10
-15.0521566314
 20
-6.462839884
 11
-15.0521566314
 21
-9.4247200994
  0
LINE
  5
462
100
AcDbEntity
  8
IMPORT_IGES
100
AcDbLine
 62
7
  6
CONTINUOUS
 10
-13.8521566314
 20
-9.4247200994
 11
-13.8521566314
 21
-6.462839884
  0
LINE
  5
463
100
AcDbEntity
  8
SMUSSO
100
AcDbLine
 62
7
  6
CONTINUOUS
 10
-19.2521566314
 20
-9.4664647203
 11
-20.2259780217
 21
-10.312730491
  0
LINE
  5
464
100
AcDbEntity
  8
ASSI
100
AcDbLine
 62
7
  6
CONTINUOUS
 10
-19.2521566314
 20
-9.4664647203
 11
-20.2259780217
 21
-10.312730491
  0
LINE
  5
465
100
AcDbEntity
  8
CURVE
100
AcDbLine
 62
253
  6
CONTINUOUS
 10
-21.1674426314
 20
10.9244120083
 11
-18.2677896314
 21
11.1955620083
  0
LINE
  5
466
100
AcDbEntity
  8
CURVE
100
AcDbLine
 62
253
  6
CONTINUOUS
 10
-18.2677896314
 20
10.6034460083
 11
-20.1533156314
 21
10.4790910083
  0
LINE
  5
467
100
AcDbEntity
  8
RACCORDO
100
AcDbLine
 62
253
  6
CONTINUOUS
 10
-36.1730479806
 20
8.667530358
 11
-35.6622658422
 21
8.6764460934
  0
LINE
  5
468
100
AcDbEntity
  8
RACCORDO
100
AcDbLine
 62
253
  6
CONTINUOUS
 10
-36.4100520458
 20
8.9452117483
 11
-41.0381140811
 21
8.8641322947
  0
LINE
  5
469
100
AcDbEntity
  8
RACCORDO
100
AcDbLine
 62
7
  6
CONTINUOUS
 10
-35.65157546
 20
9.1765565423
 11
-40.6288458044
 21
9.0896779653
  0
LINE
  5
46A
100
AcDbEntity
  8
CURVE
100
AcDbLine
 62
253
  6
CONTINUOUS
 10
-11.167210485
 20
10.0990771754
 11
-9.2674998642
 21
10.0990771754
  0
LINE
  5
46B
100
AcDbEntity
  8
CURVE
100
AcDbLine
 62
253
  6
CONTINUOUS
 10
-10.2173551746
 20
10.6419343426
 11
-9.5388871079
 21
10.6419343426
  0
LINE
  5
46C
100
AcDbEntity
  8
CURVE
100
AcDbLine
 62
253
  6
CONTINUOUS
 10
-20.1612086314
 20
8.9644780083
 11
-18.2677896314
 21
8.8338600083
  0
LINE
  5
46D
100
AcDbEntity
  8
CURVE
100
AcDbLine
 62
253
  6
CONTINUOUS
 10
-18.2677896314
 20
8.2548130083
 11
-21.1674426314
 21
8.5166340083
  0
LINE
  5
46E
100
AcDbEntity
  8
CURVE
100
AcDbLine
 62
253
  6
CONTINUOUS
 10
-16.7632400674
 20
7.9957240083
 11
-15.8702011579
 21
7.7637790083
  0
LINE
  5
46F
100
AcDbEntity
  8
CURVE
100
AcDbLine
 62
253
  6
CONTINUOUS
 10
-15.2645796782
 20
7.6064840083
 11
-12.2665861048
 21
6.8278280083
  0
LINE
  5
470
100
AcDbEntity
  8
CURVE
100
AcDbLine
 62
253
  6
CONTINUOUS
 10
-12.8837150784
 20
7.5208450083
 11
-14.9464506056
 21
8.0565900083
  0
LINE
  5
471
100
AcDbEntity
  8
CURVE
100
AcDbLine
 62
253
  6
CONTINUOUS
 10
-12.2665861048
 20
5.8707300083
 11
-14.8008409698
 21
6.5380310083
  0
LINE
  5
472
100
AcDbEntity
  8
CURVE
100
AcDbLine
 62
253
  6
CONTINUOUS
 10
-15.4136382632
 20
6.7118580083
 11
-16.3082456948
 21
6.9474200083
  0
LINE
  5
473
100
AcDbEntity
  8
CURVE
100
AcDbLine
 62
253
  6
CONTINUOUS
 10
-19.5575466314
 20
9.7202840083
 11
-21.1674426314
 21
10.3255550083
  0
LINE
  5
474
100
AcDbEntity
  8
CURVE
100
AcDbLine
 62
253
  6
CONTINUOUS
 10
-16.3082456948
 20
6.9474200083
 11
-16.7632400674
 21
7.9957240083
  0
LINE
  5
475
100
AcDbEntity
  8
CURVE
100
AcDbLine
 62
253
  6
CONTINUOUS
 10
-15.4136382632
 20
6.7118580083
 11
-15.8702011579
 21
7.7637790083
  0
LINE
  5
476
100
AcDbEntity
  8
CURVE
100
AcDbLine
 62
253
  6
CONTINUOUS
 10
-13.0163576649
 20
-17.0437799917
 11
-13.0163576649
 21
-13.5437799917
  0
LINE
  5
477
100
AcDbEntity
  8
CURVE
100
AcDbLine
 62
253
  6
CONTINUOUS
 10
-12.2665861048
 20
15.3158950083
 11
-12.2665861048
 21
13.5669750083
  0
LINE
  5
478
100
AcDbEntity
  8
CURVE
100
AcDbLine
 62
253
  6
CONTINUOUS
 10
-12.2665861048
 20
12.2088390083
 11
-12.2665861048
 21
10.7180520083
  0
LINE
  5
479
100
AcDbEntity
  8
CURVE
100
AcDbLine
 62
253
  6
CONTINUOUS
 10
-12.2665861048
 20
5.8707300083
 11
-12.2665861048
 21
6.8278280083
  0
LINE
  5
47A
100
AcDbEntity
  8
CURVE
100
AcDbLine
 62
253
  6
CONTINUOUS
 10
-12.2665861048
 20
7.9405730083
 11
-12.2665861048
 21
9.6928710083
  0
LINE
  5
47B
100
AcDbEntity
  8
IMPORT_IGES
100
AcDbLine
 62
7
  6
CONTINUOUS
 10
-11.9535411773
 20
-6.4587393161
 11
-11.9535411773
 21
-9.4247200994
  0
LINE
  5
47C
100
AcDbEntity
  8
CURVE
100
AcDbLine
 62
253
  6
CONTINUOUS
 10
-11.5168145446
 20
-13.5437799917
 11
-11.5168145446
 21
-17.0437799917
  0
LINE
  5
47D
100
AcDbEntity
  8
CURVE
100
AcDbLine
 62
253
  6
CONTINUOUS
 10
-18.2677896314
 20
13.0374040083
 11
-18.8466636314
 21
12.8806070083
  0
LINE
  5
47E
100
AcDbEntity
  8
CURVE
100
AcDbLine
 62
253
  6
CONTINUOUS
 10
-19.2945936314
 20
12.7596440083
 11
-20.3706916314
 21
12.4815140083
  0
LINE
  5
47F
100
AcDbEntity
  8
CURVE
100
AcDbLine
 62
253
  6
CONTINUOUS
 10
-9.5388871079
 20
11.5919342293
 11
-10.081661567
 21
11.5919342293
  0
LINE
  5
480
100
AcDbEntity
  8
CURVE
100
AcDbLine
 62
253
  6
CONTINUOUS
 10
-9.5388871079
 20
12.1347913398
 11
-10.081661567
 21
12.1347913398
  0
LINE
  5
481
100
AcDbEntity
  8
CURVE
100
AcDbLine
 62
253
  6
CONTINUOUS
 10
-10.48874239
 20
12.2252676381
 11
-10.8958232697
 21
12.2252676381
  0
LINE
  5
482
100
AcDbEntity
  8
CURVE
100
AcDbLine
 62
253
  6
CONTINUOUS
 10
-14.8008409698
 20
8.9316000083
 11
-12.9096661716
 21
8.4404140083
  0
LINE
  5
483
100
AcDbEntity
  8
CURVE
100
AcDbLine
 62
253
  6
CONTINUOUS
 10
-14.9501544771
 20
9.4533370083
 11
-12.582855744
 21
8.8384890083
  0
LINE
  5
484
100
AcDbEntity
  8
CURVE
100
AcDbLine
 62
253
  6
CONTINUOUS
 10
-16.7632400674
 20
10.8607660083
 11
-12.2665861048
 21
9.6928710083
  0
LINE
  5
485
100
AcDbEntity
  8
CURVE
100
AcDbLine
 62
253
  6
CONTINUOUS
 10
-14.9911779781
 20
10.8883220083
 11
-12.7642384804
 21
10.3099290083
  0
LINE
  5
486
100
AcDbEntity
  8
CURVE
100
AcDbLine
 62
253
  6
CONTINUOUS
 10
-15.2645796782
 20
9.5523070083
 11
-16.3196352246
 21
9.8387020083
  0
LINE
  5
487
100
AcDbEntity
  8
CURVE
100
AcDbLine
 62
253
  6
CONTINUOUS
 10
-18.2677896314
 20
11.2906060083
 11
-21.1674426314
 21
12.2001220083
  0
LINE
  5
488
100
AcDbEntity
  8
CURVE
100
AcDbLine
 62
253
  6
CONTINUOUS
 10
-20.1533156314
 20
10.4790910083
 11
-18.2677896314
 21
9.7594240083
  0
LINE
  5
489
100
AcDbEntity
  8
CURVE
100
AcDbLine
 62
253
  6
CONTINUOUS
 10
-16.7632400674
 20
10.8607660083
 11
-16.3196352246
 21
9.8387020083
  0
LINE
  5
48A
100
AcDbEntity
  8
CURVE
100
AcDbLine
 62
253
  6
CONTINUOUS
 10
-15.2645796782
 20
7.6064840083
 11
-14.8008409698
 21
6.5380310083
  0
LINE
  5
48B
100
AcDbEntity
  8
CURVE
100
AcDbLine
 62
253
  6
CONTINUOUS
 10
-11.167210485
 20
12.4062200083
 11
-11.167210485
 21
12.8133628978
  0
LINE
  5
48C
100
AcDbEntity
  8
CURVE
100
AcDbLine
 62
253
  6
CONTINUOUS
 10
-11.167210485
 20
13.6276484503
 11
-11.167210485
 21
14.4419342293
  0
LINE
  5
48D
100
AcDbEntity
  8
CURVE
100
AcDbLine
 62
253
  6
CONTINUOUS
 10
-11.167210485
 20
15.3919342293
 11
-11.167210485
 21
15.5276484503
  0
LINE
  5
48E
100
AcDbEntity
  8
CURVE
100
AcDbLine
 62
253
  6
CONTINUOUS
 10
-10.3530488389
 20
14.1705057873
 11
-10.3530488389
 21
13.6276484503
  0
LINE
  5
48F
100
AcDbEntity
  8
CURVE
100
AcDbLine
 62
253
  6
CONTINUOUS
 10
-10.3530488389
 20
11.3205056741
 11
-10.3530488389
 21
10.7324105276
  0
LINE
  5
490
100
AcDbEntity
  8
CURVE
100
AcDbLine
 62
253
  6
CONTINUOUS
 10
-10.3530488389
 20
12.4062200083
 11
-10.3530488389
 21
12.8133628978
  0
LINE
  5
491
100
AcDbEntity
  8
CURVE
100
AcDbLine
 62
253
  6
CONTINUOUS
 10
-10.2671952778
 20
-11.6437799917
 11
-10.2671952778
 21
-13.2723509917
  0
LINE
  5
492
100
AcDbEntity
  8
IMPORT_IGES
100
AcDbLine
 62
7
  6
CONTINUOUS
 10
-10.2521566314
 20
-6.2896348033
 11
-10.2521566314
 21
-9.5979251801
  0
LINE
  5
493
100
AcDbEntity
  8
CURVE
100
AcDbLine
 62
253
  6
CONTINUOUS
 10
-9.3174846349
 20
-13.2723509917
 11
-9.3174846349
 21
-11.6437799917
  0
LINE
  5
494
100
AcDbEntity
  8
CURVE
100
AcDbLine
 62
253
  6
CONTINUOUS
 10
-9.2674998642
 20
15.5276484503
 11
-9.2674998642
 21
15.3919342293
  0
LINE
  5
495
100
AcDbEntity
  8
CURVE
100
AcDbLine
 62
253
  6
CONTINUOUS
 10
-9.2674998642
 20
12.8133628978
 11
-9.2674998642
 21
12.4062200083
  0
LINE
  5
496
100
AcDbEntity
  8
CURVE
100
AcDbLine
 62
253
  6
CONTINUOUS
 10
-9.2674998642
 20
10.9133628978
 11
-9.2674998642
 21
11.3205056741
  0
LINE
  5
497
100
AcDbEntity
  8
CURVE
100
AcDbLine
 62
253
  6
CONTINUOUS
 10
-9.2674998642
 20
13.6276484503
 11
-9.2674998642
 21
14.1705057873
  0
LINE
  5
498
100
AcDbEntity
  8
IMPORT_IGES
100
AcDbLine
 62
7
  6
CONTINUOUS
 10
-9.2521566314
 20
-6.2918416683
 11
-9.2521566314
 21
-9.5957183151
  0
LINE
  5
499
100
AcDbEntity
  8
CURVE
100
AcDbLine
 62
253
  6
CONTINUOUS
 10
-10.8958232697
 20
12.994315268
 11
-10.48874239
 21
12.994315268
  0
LINE
  5
49A
100
AcDbEntity
  8
CURVE
100
AcDbLine
 62
253
  6
CONTINUOUS
 10
-10.081661567
 20
13.0847913398
 11
-9.5388871079
 21
13.0847913398
  0
LINE
  5
49B
100
AcDbEntity
  8
CURVE
100
AcDbLine
 62
253
  6
CONTINUOUS
 10
-10.3530488389
 20
13.6276484503
 11
-11.167210485
 21
13.6276484503
  0
LINE
  5
49C
100
AcDbEntity
  8
CURVE
100
AcDbLine
 62
253
  6
CONTINUOUS
 10
-21.1335652376
 20
13.8530721088
 11
-18.2677895379
 21
13.8530721088
  0
LINE
  5
49D
100
AcDbEntity
  8
CURVE
100
AcDbLine
 62
253
  6
CONTINUOUS
 10
-19.8774467914
 20
14.4358381813
 11
-20.6734581485
 21
14.4358381813
  0
LINE
  5
49E
100
AcDbEntity
  8
CURVE
100
AcDbLine
 62
253
  6
CONTINUOUS
 10
-9.5388871079
 20
14.4419342293
 11
-10.081661567
 21
14.4419342293
  0
LINE
  5
49F
100
AcDbEntity
  8
CURVE
100
AcDbLine
 62
253
  6
CONTINUOUS
 10
-18.2677895379
 20
14.4559080699
 11
-19.4025536522
 21
14.4559080699
  0
LINE
  5
4A0
100
AcDbEntity
  8
CURVE
100
AcDbLine
 62
253
  6
CONTINUOUS
 10
-14.7400564896
 20
11.7398160083
 11
-13.5728471141
 21
11.4366620083
  0
LINE
  5
4A1
100
AcDbEntity
  8
CURVE
100
AcDbLine
 62
253
  6
CONTINUOUS
 10
-14.9415600956
 20
12.2464070083
 11
-13.7950554118
 21
11.9486300083
  0
LINE
  5
4A2
100
AcDbEntity
  8
CURVE
100
AcDbLine
 62
253
  6
CONTINUOUS
 10
-20.3706916314
 20
12.4815140083
 11
-19.2945936314
 21
12.1801390083
  0
LINE
  5
4A3
100
AcDbEntity
  8
CURVE
100
AcDbLine
 62
253
  6
CONTINUOUS
 10
-18.8466636314
 20
12.0563280083
 11
-18.2677896314
 21
11.8893110083
  0
LINE
  5
4A4
100
AcDbEntity
  8
CURVE
100
AcDbLine
 62
253
  6
CONTINUOUS
 10
-13.7950554118
 20
11.9486300083
 11
-13.5728471141
 21
11.4366620083
  0
LINE
  5
4A5
100
AcDbEntity
  8
CURVE
100
AcDbLine
 62
253
  6
CONTINUOUS
 10
-13.1196611905
 20
11.3091120083
 11
-13.8089561766
 21
12.8972470083
  0
LINE
  5
4A6
100
AcDbEntity
  8
CURVE
100
AcDbLine
 62
253
  6
CONTINUOUS
 10
-14.0290141295
 20
13.4042600083
 11
-14.4466148951
 21
14.3664110083
  0
LINE
  5
4A7
100
AcDbEntity
  8
RACCORDO
100
AcDbLine
 62
7
  6
CONTINUOUS
 10
-8.9521566314
 20
-6.2842835186
 11
-8.9521566314
 21
-9.6032764648
  0
LINE
  5
4A8
100
AcDbEntity
  8
CURVE
100
AcDbLine
 62
253
  6
CONTINUOUS
 10
-8.7747919821
 20
-13.5437799917
 11
-8.7747919821
 21
-11.6437799917
  0
LINE
  5
4A9
100
AcDbEntity
  8
RACCORDO
100
AcDbLine
 62
7
  6
CONTINUOUS
 10
-7.9521566314
 20
-6.2590896863
 11
-7.9521566314
 21
-9.6284702971
  0
LINE
  5
4AA
100
AcDbEntity
  8
CURVE
100
AcDbLine
 62
253
  6
CONTINUOUS
 10
-7.8250813393
 20
-11.9152089917
 11
-7.8250813393
 21
-12.4580659917
  0
LINE
  5
4AB
100
AcDbEntity
  8
RACCORDO
100
AcDbLine
 62
253
  6
CONTINUOUS
 10
-7.0873220859
 20
-10.4451377457
 11
-7.0873220859
 21
-18.0342146913
  0
LINE
  5
4AC
100
AcDbEntity
  8
ASSI
100
AcDbLine
 62
253
  6
CONTINUOUS
 10
-7.0873220859
 20
-10.4451377457
 11
-7.0873220859
 21
-18.0342146913
  0
LINE
  5
4AD
100
AcDbEntity
  8
RACCORDO
100
AcDbLine
 62
253
  6
CONTINUOUS
 10
-7.0873220859
 20
-5.4424222377
 11
-7.0873220859
 21
17.9466534186
  0
LINE
  5
4AE
100
AcDbEntity
  8
ASSI
100
AcDbLine
 62
253
  6
CONTINUOUS
 10
-7.0873220859
 20
-5.4424222377
 11
-7.0873220859
 21
17.9466534186
  0
LINE
  5
4AF
100
AcDbEntity
  8
CURVE
100
AcDbLine
 62
253
  6
CONTINUOUS
 10
-12.2665861048
 20
-12.0437799917
 11
-13.766129225
 21
-13.5437799917
  0
LINE
  5
4B0
100
AcDbEntity
  8
CURVE
100
AcDbLine
 62
253
  6
CONTINUOUS
 10
-9.8102743516
 20
14.9847915663
 11
-10.6244360543
 21
14.9847915663
  0
LINE
  5
4B1
100
AcDbEntity
  8
CURVE
100
AcDbLine
 62
253
  6
CONTINUOUS
 10
-19.6213219614
 20
15.4091951631
 11
-19.6384563842
 21
15.4091951631
  0
LINE
  5
4B2
100
AcDbEntity
  8
CURVE
100
AcDbLine
 62
253
  6
CONTINUOUS
 10
-10.6244360543
 20
15.9347915663
 11
-9.8102743516
 21
15.9347915663
  0
LINE
  5
4B3
100
AcDbEntity
  8
RACCORDO
100
AcDbLine
 62
253
  6
CONTINUOUS
 10
-35.1759179588
 20
16.7114254571
 11
-35.421360271
 21
16.7212872613
  0
LINE
  5
4B4
100
AcDbEntity
  8
CURVE
100
AcDbLine
 62
253
  6
CONTINUOUS
 10
-13.2346081685
 20
12.7480740083
 11
-12.6241431645
 21
12.5895210083
  0
LINE
  5
4B5
100
AcDbEntity
  8
CURVE
100
AcDbLine
 62
253
  6
CONTINUOUS
 10
-14.6060483191
 20
13.1042720083
 11
-13.8089561766
 21
12.8972470083
  0
LINE
  5
4B6
100
AcDbEntity
  8
CURVE
100
AcDbLine
 62
253
  6
CONTINUOUS
 10
-12.8669521857
 20
13.1024430083
 11
-13.4546661214
 21
13.2550870083
  0
LINE
  5
4B7
100
AcDbEntity
  8
CURVE
100
AcDbLine
 62
253
  6
CONTINUOUS
 10
-14.0290141295
 20
13.4042600083
 11
-14.8362331865
 21
13.6139150083
  0
LINE
  5
4B8
100
AcDbEntity
  8
CURVE
100
AcDbLine
 62
253
  6
CONTINUOUS
 10
-13.5131802933
 20
14.2091170083
 11
-12.9795688737
 21
14.0705240083
  0
LINE
  5
4B9
100
AcDbEntity
  8
CURVE
100
AcDbLine
 62
253
  6
CONTINUOUS
 10
-13.7309299495
 20
14.7108120083
 11
-12.554954245
 21
14.4053810083
  0
LINE
  5
4BA
100
AcDbEntity
  8
CURVE
100
AcDbLine
 62
253
  6
CONTINUOUS
 10
-14.9559407141
 20
15.0289790083
 11
-14.1316658536
 21
14.8148930083
  0
LINE
  5
4BB
100
AcDbEntity
  8
CURVE
100
AcDbLine
 62
253
  6
CONTINUOUS
 10
-10.7601296054
 20
10.9133628978
 11
-10.2173551746
 21
10.6419343426
  0
LINE
  5
4BC
100
AcDbEntity
  8
CURVE
100
AcDbLine
 62
253
  6
CONTINUOUS
 10
-10.6244360543
 20
9.5562200083
 11
-11.167210485
 21
10.0990771754
  0
LINE
  5
4BD
100
AcDbEntity
  8
CURVE
100
AcDbLine
 62
253
  6
CONTINUOUS
 10
-14.1316658536
 20
14.8148930083
 11
-13.4546661214
 21
13.2550870083
  0
LINE
  5
4BE
100
AcDbEntity
  8
CURVE
100
AcDbLine
 62
253
  6
CONTINUOUS
 10
-13.2346081685
 20
12.7480740083
 11
-12.7810283649
 21
11.7030270083
  0
LINE
  5
4BF
100
AcDbEntity
  8
CURVE
100
AcDbLine
 62
253
  6
CONTINUOUS
 10
-13.7309299495
 20
14.7108120083
 11
-13.5131802933
 21
14.2091170083
  0
LINE
  5
4C0
100
AcDbEntity
  8
RACCORDO
100
AcDbLine
 62
253
  6
CONTINUOUS
 10
-6.4451767321
 20
-9.6773520581
 11
-6.4451767321
 21
-6.2102068308
  0
LINE
  5
4C1
100
AcDbEntity
  8
ASSI
100
AcDbLine
 62
7
  6
CONTINUOUS
 10
-6.2521566314
 20
-18.5768410844
 11
-6.2521566314
 21
-9.8429999504
  0
LINE
  5
4C2
100
AcDbEntity
  8
ASSI
100
AcDbLine
 62
7
  6
CONTINUOUS
 10
-6.2521566314
 20
-6.044560033
 11
-6.2521566314
 21
18.489281101
  0
LINE
  5
4C3
100
AcDbEntity
  8
RACCORDO
100
AcDbLine
 62
7
  6
CONTINUOUS
 10
-6.2521566314
 20
-18.5768410844
 11
-6.2521566314
 21
19.1037169452
  0
LINE
  5
4C4
100
AcDbEntity
  8
RACCORDO
100
AcDbLine
 62
253
  6
CONTINUOUS
 10
-31.2521566314
 20
18.0031326879
 11
-34.5567378504
 21
17.420445859
  0
LINE
  5
4C5
100
AcDbEntity
  8
RACCORDO
100
AcDbLine
 62
253
  6
CONTINUOUS
 10
-7.0873220859
 20
17.9465850395
 11
-6.2521566314
 21
17.9465850395
  0
LINE
  5
4C6
100
AcDbEntity
  8
ASSI
100
AcDbLine
 62
253
  6
CONTINUOUS
 10
-7.0873220859
 20
17.9465850395
 11
-6.2521566314
 21
17.9465850395
  0
LINE
  5
4C7
100
AcDbEntity
  8
RACCORDO
100
AcDbLine
 62
7
  6
CONTINUOUS
 10
-31.2521566314
 20
18.7562200083
 11
-31.7521566314
 21
18.7562200083
  0
LINE
  5
4C8
100
AcDbEntity
  8
RACCORDO
100
AcDbLine
 62
253
  6
CONTINUOUS
 10
-6.3130217651
 20
18.8038997061
 11
-6.2521566314
 21
18.8038996971
  0
LINE
  5
4C9
100
AcDbEntity
  8
RACCORDO
100
AcDbLine
 62
253
  6
CONTINUOUS
 10
-7.0873220859
 20
17.9466534186
 11
-24.2521566314
 21
18.0706926968
  0
LINE
  5
4CA
100
AcDbEntity
  8
ASSI
100
AcDbLine
 62
253
  6
CONTINUOUS
 10
-7.0873220859
 20
17.9466534186
 11
-24.2521566314
 21
18.0706926968
  0
LINE
  5
4CB
100
AcDbEntity
  8
CURVE
100
AcDbLine
 62
253
  6
CONTINUOUS
 10
-12.2665861048
 20
15.3158950083
 11
-14.7319769512
 21
15.9562200083
  0
LINE
  5
4CC
100
AcDbEntity
  8
CURVE
100
AcDbLine
 62
253
  6
CONTINUOUS
 10
-10.8958232697
 20
12.2252676381
 11
-11.167210485
 21
12.4062200083
  0
LINE
  5
4CD
100
AcDbEntity
  8
CURVE
100
AcDbLine
 62
253
  6
CONTINUOUS
 10
-11.167210485
 20
11.3205056741
 11
-10.7601296054
 21
10.9133628978
  0
LINE
  5
4CE
100
AcDbEntity
  8
CURVE
100
AcDbLine
 62
253
  6
CONTINUOUS
 10
-9.2674998642
 20
11.3205056741
 11
-9.5388871079
 21
11.5919342293
  0
LINE
  5
4CF
100
AcDbEntity
  8
CURVE
100
AcDbLine
 62
253
  6
CONTINUOUS
 10
-10.081661567
 20
12.1347913398
 11
-10.3530488389
 21
12.4062200083
  0
LINE
  5
4D0
100
AcDbEntity
  8
CURVE
100
AcDbLine
 62
253
  6
CONTINUOUS
 10
-10.48874239
 20
12.994315268
 11
-10.3530488389
 21
12.8133628978
  0
LINE
  5
4D1
100
AcDbEntity
  8
CURVE
100
AcDbLine
 62
253
  6
CONTINUOUS
 10
-9.5888299616
 20
-13.5437799917
 11
-9.3174846349
 21
-13.2723509917
  0
LINE
  5
4D2
100
AcDbEntity
  8
CURVE
100
AcDbLine
 62
253
  6
CONTINUOUS
 10
-7.8250813393
 20
-12.4580659917
 11
-8.0964276657
 21
-12.7294939917
  0
LINE
  5
4D3
100
AcDbEntity
  8
RACCORDO
100
AcDbLine
 62
7
  6
CONTINUOUS
 10
-31.2521566314
 20
18.2562200083
 11
-34.5957867932
 21
17.6666477973
  0
LINE
  5
4D4
100
AcDbEntity
  8
RACCORDO
100
AcDbLine
 62
7
  6
CONTINUOUS
 10
-15.2521566314
 20
20.9347618184
 11
-24.2521566314
 21
20.8562200083
  0
LINE
  5
4D5
100
AcDbEntity
  8
RACCORDO
100
AcDbLine
 62
253
  6
CONTINUOUS
 10
-9.1833312282
 20
19.3757376176
 11
-24.2521566314
 21
19.4846871032
  0
LINE
  5
4D6
100
AcDbEntity
  8
ASSI
100
AcDbLine
 62
253
  6
CONTINUOUS
 10
-9.1833312282
 20
19.3757376176
 11
-24.2521566314
 21
19.4846871032
  0
LINE
  5
4D7
100
AcDbEntity
  8
RACCORDO
100
AcDbLine
 62
7
  6
CONTINUOUS
 10
-15.2521566314
 20
19.481669359
 11
-7.0873220859
 21
19.3391516419
  0
LINE
  5
4D8
100
AcDbEntity
  8
ASSI
100
AcDbLine
 62
7
  6
CONTINUOUS
 10
-15.2521566314
 20
19.481669359
 11
-7.0873220859
 21
19.3391516419
  0
LINE
  5
4D9
100
AcDbEntity
  8
DRAFT
100
AcDbLine
 62
7
  6
CONTINUOUS
 10
-15.2521566314
 20
20.081669359
 11
-24.2521566314
 21
20.2387649434
  0
LINE
  5
4DA
100
AcDbEntity
  8
ASSI
100
AcDbLine
 62
7
  6
CONTINUOUS
 10
-15.2521566314
 20
20.081669359
 11
-24.2521566314
 21
20.2387649434
  0
LINE
  5
4DB
100
AcDbEntity
  8
RACCORDO
100
AcDbLine
 62
7
  6
CONTINUOUS
 10
-6.4451767321
 20
19.3035951106
 11
-6.9245747058
 21
19.3203360568
  0
LINE
  5
4DC
100
AcDbEntity
  8
CURVE
100
AcDbLine
 62
253
  6
CONTINUOUS
 10
-10.6244360543
 20
14.9847915663
 11
-10.8958232697
 21
15.1205057873
  0
LINE
  5
4DD
100
AcDbEntity
  8
CURVE
100
AcDbLine
 62
253
  6
CONTINUOUS
 10
-9.8102743516
 20
15.9347915663
 11
-9.5388871079
 21
15.7990773453
  0
LINE
  5
4DE
100
AcDbEntity
  8
CURVE
100
AcDbLine
 62
253
  6
CONTINUOUS
 10
-9.5388871079
 20
13.0847913398
 11
-9.2674998642
 21
12.8133628978
  0
LINE
  5
4DF
100
AcDbEntity
  8
CURVE
100
AcDbLine
 62
253
  6
CONTINUOUS
 10
-10.8958232697
 20
15.1205057873
 11
-11.167210485
 21
15.3919342293
  0
LINE
  5
4E0
100
AcDbEntity
  8
CURVE
100
AcDbLine
 62
253
  6
CONTINUOUS
 10
-9.2674998642
 20
14.1705057873
 11
-9.5388871079
 21
14.4419342293
  0
LINE
  5
4E1
100
AcDbEntity
  8
0
100
AcDbLine
 62
7
  6
CONTINUOUS
 10
-24.8452885491
 20
-24.6290969466
 11
-20.7356055401
 21
-23.2937799917
  0
LINE
  5
4E2
100
AcDbEntity
  8
RACCORDO
100
AcDbLine
 62
253
  6
CONTINUOUS
 10
-31.506519733
 20
22.0796327056
 11
-26.3046661555
 21
22.1704313975
  0
LINE
  5
4E3
100
AcDbEntity
  8
RACCORDO
100
AcDbLine
 62
7
  6
CONTINUOUS
 10
-31.506519733
 20
22.3295946294
 11
-26.9479335285
 21
22.4091650475
  0
LINE
  5
4E4
100
AcDbEntity
  8
RACCORDO
100
AcDbLine
 62
7
  6
CONTINUOUS
 10
-15.2521566314
 20
22.6133155927
 11
-24.2521566314
 21
22.4562200083
  0
LINE
  5
4E5
100
AcDbEntity
  8
RACCORDO
100
AcDbLine
 62
253
  6
CONTINUOUS
 10
-31.506519733
 20
22.0796327056
 11
-31.7521566314
 21
22.0796327056
  0
LINE
  5
4E6
100
AcDbEntity
  8
RACCORDO
100
AcDbLine
 62
253
  6
CONTINUOUS
 10
-15.3191439295
 20
22.9562200083
 11
-24.2521566314
 21
22.9562200083
  0
LINE
  5
4E7
100
AcDbEntity
  8
RACCORDO
100
AcDbLine
 62
253
  6
CONTINUOUS
 10
-27.2521566314
 20
22.9562200083
 11
-28.2521566314
 21
22.9562200083
  0
LINE
  5
4E8
100
AcDbEntity
  8
RACCORDO
100
AcDbLine
 62
7
  6
CONTINUOUS
 10
-15.7521566314
 20
23.2062200083
 11
-24.2521566314
 21
23.2062200083
  0
LINE
  5
4E9
100
AcDbEntity
  8
RACCORDO
100
AcDbLine
 62
7
  6
CONTINUOUS
 10
-27.2521566314
 20
23.2062200083
 11
-28.0021566314
 21
23.2062200083
  0
LINE
  5
4EA
100
AcDbEntity
  8
0
100
AcDbLine
 62
7
  6
CONTINUOUS
 10
-24.8452885491
 20
24.5415369632
 11
-20.7356055401
 21
23.2062200083
  0
LINE
  5
4EB
100
AcDbEntity
  8
CURVE
100
AcDbLine
 62
253
  6
CONTINUOUS
 10
-9.5388871079
 20
15.7990773453
 11
-9.2674998642
 21
15.5276484503
  0
LINE
  5
4EC
100
AcDbEntity
  8
0
100
AcDbLine
 62
7
  6
CONTINUOUS
 10
-24.7216817514
 20
-25.0095195531
 11
-19.4411783491
 21
-23.2937799917
  0
LINE
  5
4ED
100
AcDbEntity
  8
RACCORDO
100
AcDbLine
 62
253
  6
CONTINUOUS
 10
-27.2521566314
 20
23.7062200083
 11
-24.2521566314
 21
23.7062200083
  0
LINE
  5
4EE
100
AcDbEntity
  8
RACCORDO
100
AcDbLine
 62
7
  6
CONTINUOUS
 10
-27.0021555862
 20
23.9562200083
 11
-24.2521566314
 21
23.9562200083
  0
LINE
  5
4EF
100
AcDbEntity
  8
0
100
AcDbLine
 62
253
  6
CONTINUOUS
 10
-25.7521566314
 20
24.2562200083
 11
-26.1521566314
 21
24.2562200083
  0
LINE
  5
4F0
100
AcDbEntity
  8
0
100
AcDbLine
 62
7
  6
CONTINUOUS
 10
-25.4521566314
 20
24.5562200083
 11
-24.9379936474
 21
24.5562200083
  0
LINE
  5
4F1
100
AcDbEntity
  8
0
100
AcDbLine
 62
7
  6
CONTINUOUS
 10
-25.4521566314
 20
24.9562200083
 11
-24.9379936474
 21
24.9562200083
  0
LINE
  5
4F2
100
AcDbEntity
  8
0
100
AcDbLine
 62
7
  6
CONTINUOUS
 10
-24.7216817514
 20
24.9219595697
 11
-19.4411783491
 21
23.2062200083
  0
ARC
  5
4F3
100
AcDbEntity
  8
RACCORDO
100
AcDbCircle
 62
253
  6
CONTINUOUS
 10
25.9047230637
 20
-5.7549169527
 40
0.5001063786
100
AcDbArc
 50
180.0208079909
 51
269.9791920315
  0
ARC
  5
4F4
100
AcDbEntity
  8
RACCORDO
100
AcDbCircle
 62
7
  6
CONTINUOUS
 10
25.8158600249
 20
-5.8437799917
 40
0.5
100
AcDbArc
 50
180.0
 51
270.0
  0
ARC
  5
4F5
100
AcDbEntity
  8
RACCORDO
100
AcDbCircle
 62
253
  6
CONTINUOUS
 10
10.0925385507
 20
-22.1671014659
 40
0.2500537654
100
AcDbArc
 50
180.0209023393
 51
269.9790976607
  0
ARC
  5
4F6
100
AcDbEntity
  8
RACCORDO
100
AcDbCircle
 62
253
  6
CONTINUOUS
 10
10.0016721008
 20
-23.7938002095
 40
0.2499830824
100
AcDbArc
 50
179.9953661406
 51
269.9976148102
  0
ARC
  5
4F7
100
AcDbEntity
  8
RACCORDO
100
AcDbCircle
 62
253
  6
CONTINUOUS
 10
28.6211751169
 20
-23.0438015319
 40
0.2499809641
100
AcDbArc
 50
179.9950630216
 51
269.9950623545
  0
ARC
  5
4F8
100
AcDbEntity
  8
RACCORDO
100
AcDbCircle
 62
253
  6
CONTINUOUS
 10
29.810544933
 20
-23.0438015319
 40
0.2499809641
100
AcDbArc
 50
270.0049376454
 51
0.0049369786
  0
ARC
  5
4F9
100
AcDbEntity
  8
RACCORDO
100
AcDbCircle
 62
253
  6
CONTINUOUS
 10
14.4211751169
 20
-23.0438015319
 40
0.2499809641
100
AcDbArc
 50
179.9950630216
 51
269.9950623545
  0
ARC
  5
4FA
100
AcDbEntity
  8
RACCORDO
100
AcDbCircle
 62
253
  6
CONTINUOUS
 10
15.610544933
 20
-23.0438015319
 40
0.2499809641
100
AcDbArc
 50
270.0049376457
 51
0.0049369783
  0
ARC
  5
4FB
100
AcDbEntity
  8
RACCORDO
100
AcDbCircle
 62
253
  6
CONTINUOUS
 10
11.4300498715
 20
-23.7938015319
 40
0.2499809641
100
AcDbArc
 50
270.0049376455
 51
0.0049369784
  0
ARC
  5
4FC
100
AcDbEntity
  8
RACCORDO
100
AcDbCircle
 62
7
  6
CONTINUOUS
 10
18.1825937901
 20
-23.8437799917
 40
0.2
100
AcDbArc
 50
270.0
 51
355.0
  0
ARC
  5
4FD
100
AcDbEntity
  8
RACCORDO
100
AcDbCircle
 62
7
  6
CONTINUOUS
 10
26.0491262598
 20
-23.8437799917
 40
0.2
100
AcDbArc
 50
185.0
 51
270.0
  0
ARC
  5
4FE
100
AcDbEntity
  8
RACCORDO
100
AcDbCircle
 62
253
  6
CONTINUOUS
 10
25.9047230836
 20
8.6673569496
 40
0.5001064014
100
AcDbArc
 50
90.0208102483
 51
179.9791897517
  0
ARC
  5
4FF
100
AcDbEntity
  8
RACCORDO
100
AcDbCircle
 62
7
  6
CONTINUOUS
 10
25.8158600249
 20
8.7562200083
 40
0.5
100
AcDbArc
 50
90.0
 51
180.0
  0
ARC
  5
500
100
AcDbEntity
  8
RACCORDO
100
AcDbCircle
 62
253
  6
CONTINUOUS
 10
10.092538555
 20
22.0795414783
 40
0.2500537654
100
AcDbArc
 50
90.0209033102
 51
179.9790966898
  0
ARC
  5
501
100
AcDbEntity
  8
RACCORDO
100
AcDbCircle
 62
253
  6
CONTINUOUS
 10
29.8105449188
 20
22.9562415627
 40
0.2499809641
100
AcDbArc
 50
359.9950597773
 51
89.9950591101
  0
ARC
  5
502
100
AcDbEntity
  8
RACCORDO
100
AcDbCircle
 62
253
  6
CONTINUOUS
 10
28.6211751311
 20
22.9562415627
 40
0.2499809641
100
AcDbArc
 50
90.0049408906
 51
180.0049402231
  0
ARC
  5
503
100
AcDbEntity
  8
RACCORDO
100
AcDbCircle
 62
253
  6
CONTINUOUS
 10
10.0016701926
 20
23.7062415627
 40
0.2499809641
100
AcDbArc
 50
90.0049408905
 51
180.004940223
  0
ARC
  5
504
100
AcDbEntity
  8
RACCORDO
100
AcDbCircle
 62
253
  6
CONTINUOUS
 10
11.4300498573
 20
23.7062415627
 40
0.2499809641
100
AcDbArc
 50
359.9950597773
 51
89.9950591101
  0
ARC
  5
505
100
AcDbEntity
  8
RACCORDO
100
AcDbCircle
 62
253
  6
CONTINUOUS
 10
14.4211751311
 20
22.9562415627
 40
0.2499809641
100
AcDbArc
 50
90.0049408976
 51
180.0049402304
  0
ARC
  5
506
100
AcDbEntity
  8
RACCORDO
100
AcDbCircle
 62
253
  6
CONTINUOUS
 10
15.6105449188
 20
22.9562415627
 40
0.2499809641
100
AcDbArc
 50
359.9950597691
 51
89.9950591017
  0
ARC
  5
507
100
AcDbEntity
  8
RACCORDO
100
AcDbCircle
 62
7
  6
CONTINUOUS
 10
26.0491262598
 20
23.7562200083
 40
0.2
100
AcDbArc
 50
90.0
 51
175.0
  0
ARC
  5
508
100
AcDbEntity
  8
RACCORDO
100
AcDbCircle
 62
7
  6
CONTINUOUS
 10
18.1825937901
 20
23.7562200083
 40
0.2
100
AcDbArc
 50
5.0
 51
90.0
  0
CIRCLE
  5
509
100
AcDbEntity
  8
0
100
AcDbCircle
 62
7
  6
CONTINUOUS
 10
48.6158600675
 20
-14.0437799917
 40
2.5
  0
CIRCLE
  5
50A
100
AcDbEntity
  8
0
100
AcDbCircle
 62
7
  6
CONTINUOUS
 10
41.6158599939
 20
-14.0437799917
 40
2.5
  0
CIRCLE
  5
50B
100
AcDbEntity
  8
0
100
AcDbCircle
 62
7
  6
CONTINUOUS
 10
48.6158600249
 20
-14.0437799917
 40
1.25
  0
CIRCLE
  5
50C
100
AcDbEntity
  8
0
100
AcDbCircle
 62
7
  6
CONTINUOUS
 10
41.6158600249
 20
-14.0437799917
 40
1.25
  0
CIRCLE
  5
50D
100
AcDbEntity
  8
RACCORDO
100
AcDbCircle
 62
7
  6
CONTINUOUS
 10
41.6158600249
 20
-14.0437799917
 40
1.225
  0
CIRCLE
  5
50E
100
AcDbEntity
  8
RACCORDO
100
AcDbCircle
 62
253
  6
CONTINUOUS
 10
41.6158600249
 20
-14.0437799917
 40
1.0459181267
  0
ARC
  5
50F
100
AcDbEntity
  8
RACCORDO
100
AcDbCircle
 62
253
  6
CONTINUOUS
 10
43.3269969769
 20
-5.7549169438
 40
0.500106389
100
AcDbArc
 50
270.0208090263
 51
359.9791909876
  0
ARC
  5
510
100
AcDbEntity
  8
RACCORDO
100
AcDbCircle
 62
7
  6
CONTINUOUS
 10
43.4158600249
 20
-5.8437799917
 40
0.5
100
AcDbArc
 50
270.0
 51
360.0
  0
ARC
  5
511
100
AcDbEntity
  8
RACCORDO
100
AcDbCircle
 62
253
  6
CONTINUOUS
 10
59.1391814992
 20
-22.1671014659
 40
0.2500537654
100
AcDbArc
 50
270.0209023393
 51
359.9790976607
  0
ARC
  5
512
100
AcDbEntity
  8
RACCORDO
100
AcDbCircle
 62
253
  6
CONTINUOUS
 10
40.610544933
 20
-23.0438015319
 40
0.2499809641
100
AcDbArc
 50
270.0049376454
 51
0.0049369786
  0
ARC
  5
513
100
AcDbEntity
  8
RACCORDO
100
AcDbCircle
 62
253
  6
CONTINUOUS
 10
57.8016701784
 20
-23.7938015319
 40
0.2499809641
100
AcDbArc
 50
179.9950630217
 51
269.9950623544
  0
ARC
  5
514
100
AcDbEntity
  8
RACCORDO
100
AcDbCircle
 62
253
  6
CONTINUOUS
 10
59.2300498715
 20
-23.7938015319
 40
0.2499809641
100
AcDbArc
 50
270.0049376455
 51
0.0049369784
  0
ARC
  5
515
100
AcDbEntity
  8
RACCORDO
100
AcDbCircle
 62
253
  6
CONTINUOUS
 10
53.6211751169
 20
-23.0438015319
 40
0.2499809641
100
AcDbArc
 50
179.9950630216
 51
269.9950623545
  0
ARC
  5
516
100
AcDbEntity
  8
RACCORDO
100
AcDbCircle
 62
253
  6
CONTINUOUS
 10
54.810544933
 20
-23.0438015319
 40
0.2499809641
100
AcDbArc
 50
270.0049376454
 51
0.0049369786
  0
ARC
  5
517
100
AcDbEntity
  8
RACCORDO
100
AcDbCircle
 62
253
  6
CONTINUOUS
 10
39.4211751169
 20
-23.0438015319
 40
0.2499809641
100
AcDbArc
 50
179.9950630216
 51
269.9950623545
  0
ARC
  5
518
100
AcDbEntity
  8
RACCORDO
100
AcDbCircle
 62
7
  6
CONTINUOUS
 10
43.1825937901
 20
-23.8437799917
 40
0.2
100
AcDbArc
 50
270.0
 51
355.0
  0
ARC
  5
519
100
AcDbEntity
  8
RACCORDO
100
AcDbCircle
 62
7
  6
CONTINUOUS
 10
51.0491262598
 20
-23.8437799917
 40
0.2
100
AcDbArc
 50
185.0
 51
270.0
  0
ARC
  5
51A
100
AcDbEntity
  8
RACCORDO
100
AcDbCircle
 62
253
  6
CONTINUOUS
 10
43.3269969364
 20
8.6673569195
 40
0.5001063786
100
AcDbArc
 50
0.0208136923
 51
89.9791863288
  0
ARC
  5
51B
100
AcDbEntity
  8
RACCORDO
100
AcDbCircle
 62
7
  6
CONTINUOUS
 10
43.4158600249
 20
8.7562200083
 40
0.5
100
AcDbArc
 50
0.0
 51
90.0
  0
ARC
  5
51C
100
AcDbEntity
  8
RACCORDO
100
AcDbCircle
 62
253
  6
CONTINUOUS
 10
59.1391814949
 20
22.0795414783
 40
0.2500537654
100
AcDbArc
 50
0.0209033102
 51
89.9790966898
  0
ARC
  5
51D
100
AcDbEntity
  8
RACCORDO
100
AcDbCircle
 62
253
  6
CONTINUOUS
 10
59.2300479483
 20
23.706240227
 40
0.2499830824
100
AcDbArc
 50
359.9953659466
 51
89.9976148102
  0
ARC
  5
51E
100
AcDbEntity
  8
RACCORDO
100
AcDbCircle
 62
253
  6
CONTINUOUS
 10
53.6211751311
 20
22.9562415627
 40
0.2499809641
100
AcDbArc
 50
90.0049408976
 51
180.0049402304
  0
ARC
  5
51F
100
AcDbEntity
  8
RACCORDO
100
AcDbCircle
 62
253
  6
CONTINUOUS
 10
54.8105449188
 20
22.9562415627
 40
0.2499809641
100
AcDbArc
 50
359.9950597692
 51
89.9950591017
  0
ARC
  5
520
100
AcDbEntity
  8
RACCORDO
100
AcDbCircle
 62
253
  6
CONTINUOUS
 10
39.4211751311
 20
22.9562415627
 40
0.2499809641
100
AcDbArc
 50
90.0049408976
 51
180.0049402304
  0
ARC
  5
521
100
AcDbEntity
  8
RACCORDO
100
AcDbCircle
 62
253
  6
CONTINUOUS
 10
40.6105449188
 20
22.9562415627
 40
0.2499809641
100
AcDbArc
 50
359.9950597691
 51
89.9950591016
  0
ARC
  5
522
100
AcDbEntity
  8
RACCORDO
100
AcDbCircle
 62
253
  6
CONTINUOUS
 10
57.8016701926
 20
23.7062415627
 40
0.2499809641
100
AcDbArc
 50
90.0049408905
 51
180.004940223
  0
ARC
  5
523
100
AcDbEntity
  8
RACCORDO
100
AcDbCircle
 62
7
  6
CONTINUOUS
 10
51.0491262598
 20
23.7562200083
 40
0.2
100
AcDbArc
 50
90.0
 51
175.0
  0
ARC
  5
524
100
AcDbEntity
  8
RACCORDO
100
AcDbCircle
 62
7
  6
CONTINUOUS
 10
43.1825937901
 20
23.7562200083
 40
0.2
100
AcDbArc
 50
5.0
 51
90.0
  0
ARC
  5
525
100
AcDbEntity
  8
RACCORDO
100
AcDbCircle
 62
253
  6
CONTINUOUS
 10
-212.4537867144
 20
-18.7522893405
 40
205.3676931213
100
AcDbArc
 50
359.8118421925
 51
0.2003368916
  0
ARC
  5
526
100
AcDbEntity
  8
ASSI
100
AcDbCircle
 62
253
  6
CONTINUOUS
 10
-212.4537867144
 20
-18.7522893405
 40
205.3676931213
100
AcDbArc
 50
359.8118421925
 51
0.2003368916
  0
ARC
  5
527
100
AcDbEntity
  8
RACCORDO
100
AcDbCircle
 62
7
  6
CONTINUOUS
 10
-34.4221386155
 20
-16.7694000276
 40
1.0
100
AcDbArc
 50
182.2607456281
 51
260.0
  0
ARC
  5
528
100
AcDbEntity
  8
RACCORDO
100
AcDbCircle
 62
7
  6
CONTINUOUS
 10
-7.1021566314
 20
-18.5768410844
 40
0.85
100
AcDbArc
 50
271.0
 51
360.0
  0
ARC
  5
529
100
AcDbEntity
  8
ASSI
100
AcDbCircle
 62
7
  6
CONTINUOUS
 10
-7.1021566314
 20
-18.5768410844
 40
0.85
100
AcDbArc
 50
271.0
 51
360.0
  0
ARC
  5
52A
100
AcDbEntity
  8
RACCORDO
100
AcDbCircle
 62
253
  6
CONTINUOUS
 10
-34.4265017143
 20
-16.7694000252
 40
0.7500000029
100
AcDbArc
 50
182.2607458089
 51
259.9999998192
  0
ARC
  5
52B
100
AcDbEntity
  8
0
100
AcDbCircle
 62
7
  6
CONTINUOUS
 10
-24.9379936474
 20
-24.3437799917
 40
0.7
100
AcDbArc
 50
270.0
 51
288.0
  0
ARC
  5
52C
100
AcDbEntity
  8
0
100
AcDbCircle
 62
7
  6
CONTINUOUS
 10
-25.4521566314
 20
-24.3437799917
 40
0.7
100
AcDbArc
 50
180.0
 51
270.0
  0
ARC
  5
52D
100
AcDbEntity
  8
RACCORDO
100
AcDbCircle
 62
7
  6
CONTINUOUS
 10
-40.6201229519
 20
-5.6773140426
 40
0.5
100
AcDbArc
 50
213.2801614554
 51
269.0
  0
ARC
  5
52E
100
AcDbEntity
  8
RACCORDO
100
AcDbCircle
 62
7
  6
CONTINUOUS
 10
-15.7521566314
 20
-22.7937799917
 40
0.5
100
AcDbArc
 50
270.0
 51
360.0
  0
ARC
  5
52F
100
AcDbEntity
  8
0
100
AcDbCircle
 62
7
  6
CONTINUOUS
 10
-24.9379936474
 20
-24.3437799917
 40
0.3
100
AcDbArc
 50
270.0
 51
288.0
  0
ARC
  5
530
100
AcDbEntity
  8
0
100
AcDbCircle
 62
7
  6
CONTINUOUS
 10
-25.4521566314
 20
-24.3437799917
 40
0.3
100
AcDbArc
 50
180.0
 51
270.0
  0
ARC
  5
531
100
AcDbEntity
  8
RACCORDO
100
AcDbCircle
 62
7
  6
CONTINUOUS
 10
-28.0021566314
 20
-23.0437799917
 40
0.25
100
AcDbArc
 50
180.0
 51
270.0000002417
  0
ARC
  5
532
100
AcDbEntity
  8
RACCORDO
100
AcDbCircle
 62
7
  6
CONTINUOUS
 10
-27.0021566314
 20
-23.7937799917
 40
0.25
100
AcDbArc
 50
180.0
 51
270.0000000133
  0
ARC
  5
533
100
AcDbEntity
  8
RACCORDO
100
AcDbCircle
 62
7
  6
CONTINUOUS
 10
-31.5021566314
 20
-22.1671926889
 40
0.25
100
AcDbArc
 50
180.0
 51
269.0
  0
ARC
  5
534
100
AcDbEntity
  8
RACCORDO
100
AcDbCircle
 62
253
  6
CONTINUOUS
 10
-212.4536387604
 20
18.6647296038
 40
205.3675451676
100
AcDbArc
 50
359.7996625355
 51
0.1881578744
  0
ARC
  5
535
100
AcDbEntity
  8
ASSI
100
AcDbCircle
 62
253
  6
CONTINUOUS
 10
-212.4536387604
 20
18.6647296038
 40
205.3675451676
100
AcDbArc
 50
359.7996625355
 51
0.1881578744
  0
ARC
  5
536
100
AcDbEntity
  8
COPY-PUBBLISH
100
AcDbCircle
 62
7
  6
CONTINUOUS
 10
-29.7521566314
 20
1.4562200083
 40
13.5
100
AcDbArc
 50
146.7033188383
 51
213.2966939907
  0
ARC
  5
537
100
AcDbEntity
  8
RACCORDO
100
AcDbCircle
 62
253
  6
CONTINUOUS
 10
-29.9099851026
 20
1.4560190834
 40
9.9163067547
100
AcDbArc
 50
179.9988390699
 51
229.036701515
  0
ARC
  5
538
100
AcDbEntity
  8
RACCORDO
100
AcDbCircle
 62
253
  6
CONTINUOUS
 10
-29.9099968427
 20
1.4564401974
 40
9.9162909984
100
AcDbArc
 50
130.9571145098
 51
180.0012722385
  0
ARC
  5
539
100
AcDbEntity
  8
RACCORDO
100
AcDbCircle
 62
7
  6
CONTINUOUS
 10
-34.4221386155
 20
16.6818400443
 40
1.0
100
AcDbArc
 50
100.0
 51
177.7392543719
  0
ARC
  5
53A
100
AcDbEntity
  8
RACCORDO
100
AcDbCircle
 62
7
  6
CONTINUOUS
 10
-7.1021566314
 20
18.489281101
 40
0.85
100
AcDbArc
 50
0.0
 51
89.0
  0
ARC
  5
53B
100
AcDbEntity
  8
ASSI
100
AcDbCircle
 62
7
  6
CONTINUOUS
 10
-7.1021566314
 20
18.489281101
 40
0.85
100
AcDbArc
 50
0.0
 51
89.0
  0
ARC
  5
53C
100
AcDbEntity
  8
RACCORDO
100
AcDbCircle
 62
253
  6
CONTINUOUS
 10
-34.4265017143
 20
16.6818400418
 40
0.7500000029
100
AcDbArc
 50
100.0000001805
 51
177.7392541915
  0
ARC
  5
53D
100
AcDbEntity
  8
0
100
AcDbCircle
 62
7
  6
CONTINUOUS
 10
-24.9379936474
 20
24.2562200083
 40
0.7
100
AcDbArc
 50
72.0
 51
90.0
  0
ARC
  5
53E
100
AcDbEntity
  8
0
100
AcDbCircle
 62
7
  6
CONTINUOUS
 10
-25.4521566314
 20
24.2562200083
 40
0.7
100
AcDbArc
 50
90.0
 51
180.0
  0
ARC
  5
53F
100
AcDbEntity
  8
CURVE
100
AcDbCircle
 62
253
  6
CONTINUOUS
 10
-14.6792281176
 20
15.3334760812
 40
0.6249777511
100
AcDbArc
 50
94.841618397
 51
159.4876391896
  0
ARC
  5
540
100
AcDbEntity
  8
CURVE
100
AcDbCircle
 62
253
  6
CONTINUOUS
 10
-12.8265692023
 20
10.89340093
 40
0.5867956926
100
AcDbArc
 50
276.0976272851
 51
342.612964555
  0
ARC
  5
541
100
AcDbEntity
  8
CURVE
100
AcDbCircle
 62
253
  6
CONTINUOUS
 10
-12.8065047671
 20
12.0599791899
 40
0.5600614581
100
AcDbArc
 50
15.4139502484
 51
70.9975109447
  0
ARC
  5
542
100
AcDbEntity
  8
CURVE
100
AcDbCircle
 62
253
  6
CONTINUOUS
 10
-12.8022630249
 20
8.0646255248
 40
0.5498498385
100
AcDbArc
 50
261.4810876505
 51
346.9612399715
  0
ARC
  5
543
100
AcDbEntity
  8
CURVE
100
AcDbCircle
 62
253
  6
CONTINUOUS
 10
-14.7403842109
 20
12.5975994942
 40
0.5241864831
100
AcDbArc
 50
75.1506224185
 51
180.0126228844
  0
ARC
  5
544
100
AcDbEntity
  8
RACCORDO
100
AcDbCircle
 62
7
  6
CONTINUOUS
 10
-40.6201229519
 20
8.5897540592
 40
0.5
100
AcDbArc
 50
91.0
 51
146.7198385446
  0
ARC
  5
545
100
AcDbEntity
  8
RACCORDO
100
AcDbCircle
 62
7
  6
CONTINUOUS
 10
-15.7521566314
 20
22.7062200083
 40
0.5
100
AcDbArc
 50
0.0
 51
90.0
  0
ARC
  5
546
100
AcDbEntity
  8
CURVE
100
AcDbCircle
 62
253
  6
CONTINUOUS
 10
-12.7464151276
 20
13.5668698496
 40
0.4798211949
100
AcDbArc
 50
255.4505066319
 51
0.0125568689
  0
ARC
  5
547
100
AcDbEntity
  8
0
100
AcDbCircle
 62
7
  6
CONTINUOUS
 10
-24.9379936474
 20
24.2562200083
 40
0.3
100
AcDbArc
 50
72.0
 51
90.0
  0
ARC
  5
548
100
AcDbEntity
  8
0
100
AcDbCircle
 62
7
  6
CONTINUOUS
 10
-25.4521566314
 20
24.2562200083
 40
0.3
100
AcDbArc
 50
90.0
 51
180.0
  0
ARC
  5
549
100
AcDbEntity
  8
RACCORDO
100
AcDbCircle
 62
7
  6
CONTINUOUS
 10
-28.0021566314
 20
22.9562200083
 40
0.25
100
AcDbArc
 50
89.9999999893
 51
180.0
  0
ARC
  5
54A
100
AcDbEntity
  8
RACCORDO
100
AcDbCircle
 62
7
  6
CONTINUOUS
 10
-27.0021566314
 20
23.7062200083
 40
0.25
100
AcDbArc
 50
89.999999784
 51
180.0
  0
ARC
  5
54B
100
AcDbEntity
  8
RACCORDO
100
AcDbCircle
 62
7
  6
CONTINUOUS
 10
-31.5021566314
 20
22.0796327056
 40
0.25
100
AcDbArc
 50
91.0
 51
180.0
  0
ARC
  5
54C
100
AcDbEntity
  8
RACCORDO
100
AcDbCircle
 62
7
  6
CONTINUOUS
 10
-6.4521566314
 20
19.1037026588
 40
0.2
100
AcDbArc
 50
0.0040927493
 51
88.0001428247
  0
ARC
  5
54D
100
AcDbEntity
  8
RACCORDO
100
AcDbCircle
 62
7
  6
CONTINUOUS
 10
389.2478433686
 20
-0.0437799917
 40
425.0
100
AcDbArc
 50
177.7392543719
 51
182.2607456281
  0
ARC
  5
54E
100
AcDbEntity
  8
RACCORDO
100
AcDbCircle
 62
253
  6
CONTINUOUS
 10
389.243480267
 20
-0.0437799917
 40
424.75
100
AcDbArc
 50
177.7392543719
 51
182.2607456281
  0
SPLINE
  5
54F
100
AcDbEntity
  8
RACCORDO
100
AcDbSpline
 62
7
  6
CONTINUOUS
 70
0
 71
3
 72
15
 73
11
 74
9
 42
0.0000001
 43
0.0000001
 44
0.0000000001
 12
-0.2198589173
 22
0.0
 32
0.0
 13
0.0
 23
-0.2198589173
 33
0.0
 40
0.0
 40
0.0
 40
0.0
 40
0.0
 40
0.1775508236
 40
0.3489475586
 40
0.508349136
 40
0.6505618283
 40
0.771445581
 40
0.8685458831
 40
0.9424410166
 40
1.0
 40
1.0
 40
1.0
 40
1.0
 10
17.8158600249
 20
-23.9021894515
 30
0.0
 10
17.802847981
 20
-23.9021894515
 30
0.0
 10
17.7772676417
 20
-23.9029544146
 30
0.0
 10
17.7401452807
 20
-23.906370716
 30
0.0
 10
17.705891164
 20
-23.911907117
 30
0.0
 10
17.6757944952
 20
-23.9193443367
 30
0.0
 10
17.6509021745
 20
-23.9283625745
 30
0.0
 10
17.6320701733
 20
-23.9387124314
 30
0.0
 10
17.6194425896
 20
-23.9501595946
 30
0.0
 10
17.6158600249
 20
-23.9597745652
 30
0.0
 10
17.6158600249
 20
-23.9639928504
 30
0.0
 11
17.8158600249
 21
-23.9021894515
 31
0.0
 11
17.7768419605
 21
-23.9033769865
 31
0.0
 11
17.7393233385
 21
-23.9068939552
 31
0.0
 11
17.7047459783
 21
-23.9126052023
 31
0.0
 11
17.6744386687
 21
-23.920291248
 31
0.0
 11
17.6495661025
 21
-23.9296567217
 31
0.0
 11
17.6310841184
 21
-23.9403417136
 31
0.0
 11
17.6197029689
 21
-23.9519356054
 31
0.0
 11
17.6158600249
 21
-23.9639928504
 31
0.0
  0
SPLINE
  5
550
100
AcDbEntity
  8
RACCORDO
100
AcDbSpline
 62
7
  6
CONTINUOUS
 70
0
 71
3
 72
15
 73
11
 74
9
 42
0.0000001
 43
0.0000001
 44
0.0000000001
 12
0.0
 22
0.2198589173
 32
0.0
 13
-0.2198589173
 23
0.0
 33
0.0
 40
0.0
 40
0.0
 40
0.0
 40
0.0
 40
0.0575589834
 40
0.1314541169
 40
0.228554419
 40
0.3494381717
 40
0.491650864
 40
0.6510524414
 40
0.8224491764
 40
1.0
 40
1.0
 40
1.0
 40
1.0
 10
26.6158600249
 20
-23.9639928504
 30
0.0
 10
26.6158600249
 20
-23.9597745652
 30
0.0
 10
26.6122774603
 20
-23.9501595946
 30
0.0
 10
26.5996498766
 20
-23.9387124314
 30
0.0
 10
26.5808178754
 20
-23.9283625745
 30
0.0
 10
26.5559255547
 20
-23.9193443367
 30
0.0
 10
26.5258288859
 20
-23.911907117
 30
0.0
 10
26.4915747692
 20
-23.906370716
 30
0.0
 10
26.4544524082
 20
-23.9029544146
 30
0.0
 10
26.4288720689
 20
-23.9021894515
 30
0.0
 10
26.4158600249
 20
-23.9021894515
 30
0.0
 11
26.6158600249
 21
-23.9639928504
 31
0.0
 11
26.612017081
 21
-23.9519356054
 31
0.0
 11
26.6006359315
 21
-23.9403417136
 31
0.0
 11
26.5821539474
 21
-23.9296567217
 31
0.0
 11
26.5572813812
 21
-23.920291248
 31
0.0
 11
26.5269740716
 21
-23.9126052023
 31
0.0
 11
26.4923967114
 21
-23.9068939552
 31
0.0
 11
26.4548780894
 21
-23.9033769865
 31
0.0
 11
26.4158600249
 21
-23.9021894515
 31
0.0
  0
SPLINE
  5
551
100
AcDbEntity
  8
RACCORDO
100
AcDbSpline
 62
7
  6
CONTINUOUS
 70
0
 71
3
 72
15
 73
11
 74
9
 42
0.0000001
 43
0.0000001
 44
0.0000000001
 12
-0.2198589173
 22
0.0
 32
0.0
 13
0.0
 23
-0.2198589173
 33
0.0
 40
0.0
 40
0.0
 40
0.0
 40
0.0
 40
0.1775508236
 40
0.3489475586
 40
0.508349136
 40
0.6505618283
 40
0.771445581
 40
0.8685458831
 40
0.9424410166
 40
1.0
 40
1.0
 40
1.0
 40
1.0
 10
42.8158600249
 20
-23.9021894515
 30
0.0
 10
42.802847981
 20
-23.9021894515
 30
0.0
 10
42.7772676417
 20
-23.9029544146
 30
0.0
 10
42.7401452807
 20
-23.906370716
 30
0.0
 10
42.705891164
 20
-23.911907117
 30
0.0
 10
42.6757944952
 20
-23.9193443367
 30
0.0
 10
42.6509021745
 20
-23.9283625745
 30
0.0
 10
42.6320701733
 20
-23.9387124314
 30
0.0
 10
42.6194425896
 20
-23.9501595946
 30
0.0
 10
42.6158600249
 20
-23.9597745652
 30
0.0
 10
42.6158600249
 20
-23.9639928504
 30
0.0
 11
42.8158600249
 21
-23.9021894515
 31
0.0
 11
42.7768419605
 21
-23.9033769865
 31
0.0
 11
42.7393233385
 21
-23.9068939552
 31
0.0
 11
42.7047459783
 21
-23.9126052023
 31
0.0
 11
42.6744386687
 21
-23.920291248
 31
0.0
 11
42.6495661025
 21
-23.9296567217
 31
0.0
 11
42.6310841184
 21
-23.9403417136
 31
0.0
 11
42.6197029689
 21
-23.9519356054
 31
0.0
 11
42.6158600249
 21
-23.9639928504
 31
0.0
  0
SPLINE
  5
552
100
AcDbEntity
  8
RACCORDO
100
AcDbSpline
 62
7
  6
CONTINUOUS
 70
0
 71
3
 72
15
 73
11
 74
9
 42
0.0000001
 43
0.0000001
 44
0.0000000001
 12
0.0
 22
0.2198589173
 32
0.0
 13
-0.2198589173
 23
0.0
 33
0.0
 40
0.0
 40
0.0
 40
0.0
 40
0.0
 40
0.0575589834
 40
0.1314541169
 40
0.228554419
 40
0.3494381717
 40
0.491650864
 40
0.6510524414
 40
0.8224491764
 40
1.0
 40
1.0
 40
1.0
 40
1.0
 10
51.6158600249
 20
-23.9639928504
 30
0.0
 10
51.6158600249
 20
-23.9597745652
 30
0.0
 10
51.6122774603
 20
-23.9501595946
 30
0.0
 10
51.5996498766
 20
-23.9387124314
 30
0.0
 10
51.5808178754
 20
-23.9283625745
 30
0.0
 10
51.5559255547
 20
-23.9193443367
 30
0.0
 10
51.5258288859
 20
-23.911907117
 30
0.0
 10
51.4915747692
 20
-23.906370716
 30
0.0
 10
51.4544524082
 20
-23.9029544146
 30
0.0
 10
51.4288720689
 20
-23.9021894515
 30
0.0
 10
51.4158600249
 20
-23.9021894515
 30
0.0
 11
51.6158600249
 21
-23.9639928504
 31
0.0
 11
51.612017081
 21
-23.9519356054
 31
0.0
 11
51.6006359315
 21
-23.9403417136
 31
0.0
 11
51.5821539474
 21
-23.9296567217
 31
0.0
 11
51.5572813812
 21
-23.920291248
 31
0.0
 11
51.5269740716
 21
-23.9126052023
 31
0.0
 11
51.4923967114
 21
-23.9068939552
 31
0.0
 11
51.4548780894
 21
-23.9033769865
 31
0.0
 11
51.4158600249
 21
-23.9021894515
 31
0.0
  0
SPLINE
  5
553
100
AcDbEntity
  8
RACCORDO
100
AcDbSpline
 62
7
  6
CONTINUOUS
 70
0
 71
3
 72
15
 73
11
 74
9
 42
0.0000001
 43
0.0000001
 44
0.0000000001
 12
0.2198589173
 22
0.0
 32
0.0
 13
0.0
 23
0.2198589173
 33
0.0
 40
0.0
 40
0.0
 40
0.0
 40
0.0
 40
0.1775508236
 40
0.3489475586
 40
0.508349136
 40
0.6505618283
 40
0.771445581
 40
0.8685458831
 40
0.9424410166
 40
1.0
 40
1.0
 40
1.0
 40
1.0
 10
26.4158600249
 20
23.8146294682
 30
0.0
 10
26.4288720689
 20
23.8146294682
 30
0.0
 10
26.4544524082
 20
23.8153944312
 30
0.0
 10
26.4915747692
 20
23.8188107326
 30
0.0
 10
26.5258288859
 20
23.8243471336
 30
0.0
 10
26.5559255547
 20
23.8317843534
 30
0.0
 10
26.5808178754
 20
23.8408025911
 30
0.0
 10
26.5996498766
 20
23.851152448
 30
0.0
 10
26.6122774603
 20
23.8625996112
 30
0.0
 10
26.6158600249
 20
23.8722145818
 30
0.0
 10
26.6158600249
 20
23.8764328671
 30
0.0
 11
26.4158600249
 21
23.8146294682
 31
0.0
 11
26.4548780894
 21
23.8158170032
 31
0.0
 11
26.4923967114
 21
23.8193339718
 31
0.0
 11
26.5269740716
 21
23.825045219
 31
0.0
 11
26.5572813812
 21
23.8327312646
 31
0.0
 11
26.5821539474
 21
23.8420967383
 31
0.0
 11
26.6006359315
 21
23.8527817302
 31
0.0
 11
26.612017081
 21
23.8643756221
 31
0.0
 11
26.6158600249
 21
23.8764328671
 31
0.0
  0
SPLINE
  5
554
100
AcDbEntity
  8
RACCORDO
100
AcDbSpline
 62
7
  6
CONTINUOUS
 70
0
 71
3
 72
15
 73
11
 74
9
 42
0.0000001
 43
0.0000001
 44
0.0000000001
 12
0.0
 22
-0.2198589173
 32
0.0
 13
0.2198589173
 23
0.0
 33
0.0
 40
0.0
 40
0.0
 40
0.0
 40
0.0
 40
0.0575589834
 40
0.1314541169
 40
0.228554419
 40
0.3494381717
 40
0.491650864
 40
0.6510524414
 40
0.8224491764
 40
1.0
 40
1.0
 40
1.0
 40
1.0
 10
17.6158600249
 20
23.8764328671
 30
0.0
 10
17.6158600249
 20
23.8722145818
 30
0.0
 10
17.6194425896
 20
23.8625996112
 30
0.0
 10
17.6320701733
 20
23.851152448
 30
0.0
 10
17.6509021745
 20
23.8408025911
 30
0.0
 10
17.6757944952
 20
23.8317843534
 30
0.0
 10
17.705891164
 20
23.8243471336
 30
0.0
 10
17.7401452807
 20
23.8188107326
 30
0.0
 10
17.7772676417
 20
23.8153944312
 30
0.0
 10
17.802847981
 20
23.8146294682
 30
0.0
 10
17.8158600249
 20
23.8146294682
 30
0.0
 11
17.6158600249
 21
23.8764328671
 31
0.0
 11
17.6197029689
 21
23.8643756221
 31
0.0
 11
17.6310841184
 21
23.8527817302
 31
0.0
 11
17.6495661025
 21
23.8420967383
 31
0.0
 11
17.6744386687
 21
23.8327312646
 31
0.0
 11
17.7047459783
 21
23.825045219
 31
0.0
 11
17.7393233385
 21
23.8193339718
 31
0.0
 11
17.7768419605
 21
23.8158170032
 31
0.0
 11
17.8158600249
 21
23.8146294682
 31
0.0
  0
SPLINE
  5
555
100
AcDbEntity
  8
RACCORDO
100
AcDbSpline
 62
7
  6
CONTINUOUS
 70
0
 71
3
 72
15
 73
11
 74
9
 42
0.0000001
 43
0.0000001
 44
0.0000000001
 12
0.2198589173
 22
0.0
 32
0.0
 13
0.0
 23
0.2198589173
 33
0.0
 40
0.0
 40
0.0
 40
0.0
 40
0.0
 40
0.1775508236
 40
0.3489475586
 40
0.508349136
 40
0.6505618283
 40
0.771445581
 40
0.8685458831
 40
0.9424410166
 40
1.0
 40
1.0
 40
1.0
 40
1.0
 10
51.4158600249
 20
23.8146294682
 30
0.0
 10
51.4288720689
 20
23.8146294682
 30
0.0
 10
51.4544524082
 20
23.8153944312
 30
0.0
 10
51.4915747692
 20
23.8188107326
 30
0.0
 10
51.5258288859
 20
23.8243471336
 30
0.0
 10
51.5559255547
 20
23.8317843534
 30
0.0
 10
51.5808178754
 20
23.8408025911
 30
0.0
 10
51.5996498766
 20
23.851152448
 30
0.0
 10
51.6122774603
 20
23.8625996112
 30
0.0
 10
51.6158600249
 20
23.8722145818
 30
0.0
 10
51.6158600249
 20
23.8764328671
 30
0.0
 11
51.4158600249
 21
23.8146294682
 31
0.0
 11
51.4548780894
 21
23.8158170032
 31
0.0
 11
51.4923967114
 21
23.8193339718
 31
0.0
 11
51.5269740716
 21
23.825045219
 31
0.0
 11
51.5572813812
 21
23.8327312646
 31
0.0
 11
51.5821539474
 21
23.8420967383
 31
0.0
 11
51.6006359315
 21
23.8527817302
 31
0.0
 11
51.612017081
 21
23.8643756221
 31
0.0
 11
51.6158600249
 21
23.8764328671
 31
0.0
  0
SPLINE
  5
556
100
AcDbEntity
  8
RACCORDO
100
AcDbSpline
 62
7
  6
CONTINUOUS
 70
0
 71
3
 72
15
 73
11
 74
9
 42
0.0000001
 43
0.0000001
 44
0.0000000001
 12
0.0
 22
-0.2198589173
 32
0.0
 13
0.2198589173
 23
0.0
 33
0.0
 40
0.0
 40
0.0
 40
0.0
 40
0.0
 40
0.0575589834
 40
0.1314541169
 40
0.228554419
 40
0.3494381717
 40
0.491650864
 40
0.6510524414
 40
0.8224491764
 40
1.0
 40
1.0
 40
1.0
 40
1.0
 10
42.6158600249
 20
23.8764328671
 30
0.0
 10
42.6158600249
 20
23.8722145818
 30
0.0
 10
42.6194425896
 20
23.8625996112
 30
0.0
 10
42.6320701733
 20
23.851152448
 30
0.0
 10
42.6509021745
 20
23.8408025911
 30
0.0
 10
42.6757944952
 20
23.8317843534
 30
0.0
 10
42.705891164
 20
23.8243471336
 30
0.0
 10
42.7401452807
 20
23.8188107326
 30
0.0
 10
42.7772676417
 20
23.8153944312
 30
0.0
 10
42.802847981
 20
23.8146294682
 30
0.0
 10
42.8158600249
 20
23.8146294682
 30
0.0
 11
42.6158600249
 21
23.8764328671
 31
0.0
 11
42.6197029689
 21
23.8643756221
 31
0.0
 11
42.6310841184
 21
23.8527817302
 31
0.0
 11
42.6495661025
 21
23.8420967383
 31
0.0
 11
42.6744386687
 21
23.8327312646
 31
0.0
 11
42.7047459783
 21
23.825045219
 31
0.0
 11
42.7393233385
 21
23.8193339718
 31
0.0
 11
42.7768419605
 21
23.8158170032
 31
0.0
 11
42.8158600249
 21
23.8146294682
 31
0.0
  0
SPLINE
  5
557
100
AcDbEntity
  8
RACCORDO
100
AcDbSpline
 62
253
  6
CONTINUOUS
 70
0
 71
3
 72
10
 73
6
 74
4
 42
0.0000001
 43
0.0000001
 44
0.0000000001
 12
0.2747529308
 22
0.1897344284
 32
0.0
 13
0.0050569482
 23
0.3338603803
 33
0.0
 40
0.0
 40
0.0
 40
0.0
 40
0.0
 40
0.3565540078
 40
0.6869446819
 40
1.0
 40
1.0
 40
1.0
 40
1.0
 10
43.662229323
 20
-6.032456982
 30
0.0
 10
43.6948840759
 20
-6.0099067917
 30
0.0
 10
43.7529081496
 20
-5.9584017125
 30
0.0
 10
43.8118726273
 20
-5.8619089205
 30
0.0
 10
43.8265747543
 20
-5.7899374975
 30
0.0
 10
43.8271024558
 20
-5.755098575
 30
0.0
 11
43.662229323
 21
-6.032456982
 31
0.0
 11
43.7503984329
 21
-5.9524582085
 31
0.0
 11
43.8067679613
 21
-5.8576303713
 31
0.0
 11
43.8271024558
 21
-5.755098575
 31
0.0
  0
SPLINE
  5
558
100
AcDbEntity
  8
RACCORDO
100
AcDbSpline
 62
253
  6
CONTINUOUS
 70
0
 71
3
 72
11
 73
7
 74
5
 42
0.0000001
 43
0.0000001
 44
0.0000000001
 12
0.4204650353
 22
0.0052941599
 32
0.0
 13
0.202379623
 23
0.3685937631
 33
0.0
 40
0.0
 40
0.0
 40
0.0
 40
0.0
 40
0.2331033214
 40
0.4749995835
 40
0.7318378289
 40
1.0
 40
1.0
 40
1.0
 40
1.0
 10
43.3271786082
 20
-6.2550224226
 30
0.0
 10
43.359849207
 20
-6.2546110605
 30
0.0
 10
43.4266773017
 20
-6.2436285495
 30
0.0
 10
43.5200363758
 20
-6.1981105229
 30
0.0
 10
43.6016482218
 20
-6.1263962701
 30
0.0
 10
43.6441391366
 20
-6.0654046166
 30
0.0
 10
43.662229323
 20
-6.032456982
 30
0.0
 11
43.3271786082
 21
-6.2550224226
 31
0.0
 11
43.4239390364
 21
-6.2393618125
 31
0.0
 11
43.5156488812
 21
-6.1953658025
 31
0.0
 11
43.5972411931
 21
-6.1246077074
 31
0.0
 11
43.662229323
 21
-6.032456982
 31
0.0
  0
SPLINE
  5
559
100
AcDbEntity
  8
RACCORDO
100
AcDbSpline
 62
253
  6
CONTINUOUS
 70
0
 71
3
 72
11
 73
7
 74
5
 42
0.0000001
 43
0.0000001
 44
0.0000000001
 12
0.2023788505
 22
-0.368592356
 32
0.0
 13
0.4204634302
 23
-0.0052941397
 33
0.0
 40
0.0
 40
0.0
 40
0.0
 40
0.0
 40
0.2676192207
 40
0.5221227787
 40
0.7647864634
 40
1.0
 40
1.0
 40
1.0
 40
1.0
 10
25.5694907269
 20
-6.032456982
 30
0.0
 10
25.587544217
 20
-6.0653377817
 30
0.0
 10
25.6297894555
 20
-6.1260027582
 30
0.0
 10
25.711039709
 20
-6.1976326164
 30
0.0
 10
25.8043368606
 20
-6.243461427
 30
0.0
 10
25.8715752115
 20
-6.2546073381
 30
0.0
 10
25.9045414417
 20
-6.2550224226
 30
0.0
 11
25.5694907269
 21
-6.032456982
 31
0.0
 11
25.6343249964
 21
-6.1244363108
 31
0.0
 11
25.7150530001
 21
-6.1946917369
 31
0.0
 11
25.8069264353
 21
-6.2390909394
 31
0.0
 11
25.9045414417
 21
-6.2550224226
 31
0.0
  0
SPLINE
  5
55A
100
AcDbEntity
  8
RACCORDO
100
AcDbSpline
 62
253
  6
CONTINUOUS
 70
0
 71
3
 72
10
 73
6
 74
4
 42
0.0000001
 43
0.0000001
 44
0.0000000001
 12
0.0050569727
 22
-0.3338619996
 32
0.0
 13
0.2747542634
 23
-0.1897353487
 33
0.0
 40
0.0
 40
0.0
 40
0.0
 40
0.0
 40
0.3110194662
 40
0.6423389613
 40
1.0
 40
1.0
 40
1.0
 40
1.0
 10
25.4046175941
 20
-5.755098575
 30
0.0
 10
25.4051418664
 20
-5.789711102
 30
0.0
 10
25.4197231099
 20
-5.8615534386
 30
0.0
 10
25.4785509774
 20
-5.9581537227
 30
0.0
 10
25.5367344285
 20
-6.0098366681
 30
0.0
 10
25.5694907269
 20
-6.032456982
 30
0.0
 11
25.4046175941
 21
-5.755098575
 31
0.0
 11
25.4247029399
 21
-5.8569872193
 31
0.0
 11
25.4810834152
 21
-5.9521698072
 31
0.0
 11
25.5694907269
 21
-6.032456982
 31
0.0
  0
SPLINE
  5
55B
100
AcDbEntity
  8
RACCORDO
100
AcDbSpline
 62
253
  6
CONTINUOUS
 70
0
 71
3
 72
16
 73
12
 74
10
 42
0.0000001
 43
0.0000001
 44
0.0000000001
 12
0.1507203039
 22
-7.4871016659
 32
0.0
 13
-0.0
 23
-7.4886185619
 33
0.0
 40
0.0
 40
0.0
 40
0.0
 40
0.0
 40
0.114706033
 40
0.2338883939
 40
0.3546313684
 40
0.4695864658
 40
0.5767003442
 40
0.6790724919
 40
0.7814334388
 40
0.887539663
 40
1.0
 40
1.0
 40
1.0
 40
1.0
 10
25.5694478004
 20
8.9444926666
 30
0.0
 10
25.5752106432
 20
8.6582207562
 30
0.0
 10
25.5854840008
 20
8.0744751974
 30
0.0
 10
25.597682906
 20
7.1893248604
 30
0.0
 10
25.6073698924
 20
6.3035220838
 30
0.0
 10
25.6147361382
 20
5.4478238637
 30
0.0
 10
25.6201753006
 20
4.6379697889
 30
0.0
 10
25.6241429699
 20
3.8595452594
 30
0.0
 10
25.6269539179
 20
3.0836310514
 30
0.0
 10
25.6287109697
 20
2.2825314898
 30
0.0
 10
25.6291145825
 20
1.7369441973
 30
0.0
 10
25.6291145825
 20
1.4562200083
 30
0.0
 11
25.5694478004
 21
8.9444926666
 31
0.0
 11
25.5847515296
 21
8.0856392745
 31
0.0
 11
25.597208738
 21
7.1932149748
 31
0.0
 11
25.6071685859
 21
6.289071751
 31
0.0
 11
25.614623576
 21
5.428249155
 31
0.0
 11
25.62003344
 21
4.6261324201
 31
0.0
 11
25.6239547354
 21
3.8595164838
 31
0.0
 11
25.6267407092
 21
3.0929794592
 31
0.0
 11
25.6284892859
 21
2.2983923431
 31
0.0
 11
25.6291145825
 21
1.4562200083
 31
0.0
  0
SPLINE
  5
55C
100
AcDbEntity
  8
RACCORDO
100
AcDbSpline
 62
253
  6
CONTINUOUS
 70
0
 71
3
 72
29
 73
25
 74
23
 42
0.0000001
 43
0.0000001
 44
0.0000000001
 12
-18.08860698
 22
-0.4373526826
 32
0.0
 13
-18.0885972192
 23
0.4377561977
 33
0.0
 40
0.0
 40
0.0
 40
0.0
 40
0.0
 40
0.0436483208
 40
0.093141125
 40
0.1456169178
 40
0.1956025973
 40
0.2420313348
 40
0.2860198914
 40
0.3291031786
 40
0.3721591531
 40
0.4154584418
 40
0.4592832537
 40
0.5035700742
 40
0.5478181152
 40
0.5915459156
 40
0.634797831
 40
0.6778525873
 40
0.7210099537
 40
0.7653229107
 40
0.812312339
 40
0.8631704682
 40
0.914648068
 40
0.9609312455
 40
1.0
 40
1.0
 40
1.0
 40
1.0
 10
43.6622643586
 20
8.9452117483
 30
0.0
 10
43.3990852518
 20
8.9388485116
 30
0.0
 10
42.8374572216
 20
8.9264631778
 30
0.0
 10
41.9593179299
 20
8.9117913437
 30
0.0
 10
41.0429211139
 20
8.8992636615
 30
0.0
 10
40.1449729135
 20
8.8894214077
 30
0.0
 10
39.2981940114
 20
8.8818689155
 30
0.0
 10
38.493032837
 20
8.8760630957
 30
0.0
 10
37.7082057995
 20
8.8715725692
 30
0.0
 10
36.9275305058
 20
8.8681772223
 30
0.0
 10
36.1423791317
 20
8.8657858105
 30
0.0
 10
35.3498017753
 20
8.8643760309
 30
0.0
 10
34.5515010675
 20
8.863956912
 30
0.0
 10
33.7537855654
 20
8.8645365173
 30
0.0
 10
32.9623132272
 20
8.8661048178
 30
0.0
 10
32.1780405317
 20
8.8686557965
 30
0.0
 10
31.3972122664
 20
8.8722206504
 30
0.0
 10
30.609990308
 20
8.8769064535
 30
0.0
 10
29.7990458177
 20
8.8829663824
 30
0.0
 10
28.9416692205
 20
8.8908667785
 30
0.0
 10
28.041102619
 20
8.9011314908
 30
0.0
 10
27.1448231927
 20
8.9136653166
 30
0.0
 10
26.3196939048
 20
8.9283631791
 30
0.0
 10
25.8050141217
 20
8.9387918034
 30
0.0
 10
25.5694478004
 20
8.9444926666
 30
0.0
 11
43.6622643586
 21
8.9452117483
 31
0.0
 11
42.8726860673
 21
8.9278993405
 31
0.0
 11
41.9773004097
 21
8.9125318133
 31
0.0
 11
41.0278984758
 21
8.8994975046
 31
0.0
 11
40.1235181154
 21
8.8895053578
 31
0.0
 11
39.2834751628
 21
8.8819832737
 31
0.0
 11
38.4875717497
 21
8.8762232999
 31
0.0
 11
37.7080401768
 21
8.8717499886
 31
0.0
 11
36.9289973724
 21
8.8683523662
 31
0.0
 11
36.1455483094
 21
8.8659599131
 31
0.0
 11
35.352588093
 21
8.8645458094
 31
0.0
 11
34.5512671938
 21
8.8641240173
 31
0.0
 11
33.7506480673
 21
8.8647072386
 31
0.0
 11
32.9594434674
 21
8.8662790469
 31
0.0
 11
32.1768520805
 21
8.8688312848
 31
0.0
 11
31.3978320709
 21
8.8723976692
 31
0.0
 11
30.6169612021
 21
8.877060211
 31
0.0
 11
29.8151898164
 21
8.8830716892
 31
0.0
 11
28.9650045988
 21
8.8909489017
 31
0.0
 11
28.0448433249
 21
8.9014830652
 31
0.0
 11
27.1135073116
 21
8.9147290597
 31
0.0
 11
26.2761948598
 21
8.9295087371
 31
0.0
 11
25.5694478004
 21
8.9444926666
 31
0.0
  0
SPLINE
  5
55D
100
AcDbEntity
  8
RACCORDO
100
AcDbSpline
 62
253
  6
CONTINUOUS
 70
0
 71
3
 72
16
 73
12
 74
10
 42
0.0000001
 43
0.0000001
 44
0.0000000001
 12
0.0
 22
7.4893373871
 32
0.0
 13
0.1504241396
 23
7.4878265923
 33
0.0
 40
0.0
 40
0.0
 40
0.0
 40
0.0
 40
0.1124227273
 40
0.2184477153
 40
0.3207217135
 40
0.4229953639
 40
0.5300588173
 40
0.6450344236
 40
0.7658245368
 40
0.8851003572
 40
1.0
 40
1.0
 40
1.0
 40
1.0
 10
43.6026054674
 20
1.4562200083
 30
0.0
 10
43.6026054674
 20
1.7368772532
 30
0.0
 10
43.603008803
 20
2.2822202238
 30
0.0
 10
43.6047642323
 20
3.0828829291
 30
0.0
 10
43.6075715603
 20
3.8582058679
 30
0.0
 10
43.6115341159
 20
4.6361162978
 30
0.0
 10
43.6169678544
 20
5.4457275652
 30
0.0
 10
43.6243310746
 20
6.3015509494
 30
0.0
 10
43.6340171527
 20
7.187840999
 30
0.0
 10
43.6462304325
 20
8.0739105273
 30
0.0
 10
43.656503132
 20
8.6584288813
 30
0.0
 10
43.6622643586
 20
8.9452117483
 30
0.0
 11
43.6026054674
 21
1.4562200083
 31
0.0
 11
43.6032304653
 21
2.2981915109
 31
0.0
 11
43.6049772003
 21
3.0922464965
 31
0.0
 11
43.6077596022
 21
3.8582059213
 31
0.0
 11
43.6116749868
 21
4.6241577878
 31
0.0
 11
43.6170791197
 21
5.4259739011
 31
0.0
 11
43.6245316067
 21
6.2870327571
 31
0.0
 11
43.6344915187
 21
7.1916158383
 31
0.0
 11
43.6469557569
 21
8.0848257375
 31
0.0
 11
43.6622643586
 21
8.9452117483
 31
0.0
  0
SPLINE
  5
55E
100
AcDbEntity
  8
RACCORDO
100
AcDbSpline
 62
253
  6
CONTINUOUS
 70
0
 71
3
 72
16
 73
12
 74
10
 42
0.0000001
 43
0.0000001
 44
0.0000000001
 12
-0.0
 22
-7.4893373864
 32
0.0
 13
-0.1504241399
 23
-7.4878265915
 33
0.0
 40
0.0
 40
0.0
 40
0.0
 40
0.0
 40
0.1124227273
 40
0.2184477153
 40
0.3207217135
 40
0.422995364
 40
0.5300588174
 40
0.6450344236
 40
0.7658245369
 40
0.8851003573
 40
1.0
 40
1.0
 40
1.0
 40
1.0
 10
25.6291145825
 20
1.4562200083
 30
0.0
 10
25.6291145825
 20
1.1755627635
 30
0.0
 10
25.6287112469
 20
0.6302197928
 30
0.0
 10
25.6269558176
 20
-0.1704429124
 30
0.0
 10
25.6241484896
 20
-0.9457658513
 30
0.0
 10
25.620185934
 20
-1.7236762812
 30
0.0
 10
25.6147521954
 20
-2.5332875486
 30
0.0
 10
25.6073889753
 20
-3.3891109328
 30
0.0
 10
25.5977028972
 20
-4.2754009824
 30
0.0
 10
25.5854896174
 20
-5.1614705104
 30
0.0
 10
25.5752169179
 20
-5.7459888641
 30
0.0
 10
25.5694556912
 20
-6.0327717309
 30
0.0
 11
25.6291145825
 21
1.4562200083
 31
0.0
 11
25.6284895846
 21
0.6142485057
 31
0.0
 11
25.6267428496
 21
-0.1798064798
 31
0.0
 11
25.6239604477
 21
-0.9457659047
 31
0.0
 11
25.6200450631
 21
-1.7117177712
 31
0.0
 11
25.6146409302
 21
-2.5135338844
 31
0.0
 11
25.6071884432
 21
-3.3745927405
 31
0.0
 11
25.5972285312
 21
-4.2791758217
 31
0.0
 11
25.584764293
 21
-5.1723857208
 31
0.0
 11
25.5694556912
 21
-6.0327717309
 31
0.0
  0
SPLINE
  5
55F
100
AcDbEntity
  8
RACCORDO
100
AcDbSpline
 62
253
  6
CONTINUOUS
 70
0
 71
3
 72
29
 73
25
 74
23
 42
0.0000001
 43
0.0000001
 44
0.0000000001
 12
17.4185837758
 22
0.4213629125
 32
0.0
 13
17.4185837758
 23
-0.4213629125
 33
0.0
 40
0.0
 40
0.0
 40
0.0
 40
0.0
 40
0.0436502886
 40
0.093110764
 40
0.1456261933
 40
0.195620278
 40
0.2420480898
 40
0.286032584
 40
0.3291140887
 40
0.3721717399
 40
0.4154703439
 40
0.4592944974
 40
0.5035812845
 40
0.5478298654
 40
0.5915580162
 40
0.6348099222
 40
0.6778658729
 40
0.7210278053
 40
0.7653442169
 40
0.8123354552
 40
0.8631612197
 40
0.9146400775
 40
0.9609365536
 40
1.0
 40
1.0
 40
1.0
 40
1.0
 10
25.9045334396
 20
-6.2550304247
 30
0.0
 10
26.1579755093
 20
-6.2488995537
 30
0.0
 10
26.6986339343
 20
-6.2374313504
 30
0.0
 10
27.5442955611
 20
-6.2230967136
 30
0.0
 10
28.4268407706
 20
-6.2110911868
 30
0.0
 10
29.2918014701
 20
-6.2015957524
 30
0.0
 10
30.1072348588
 20
-6.1943271474
 30
0.0
 10
30.8825328068
 20
-6.1887361726
 30
0.0
 10
31.6382649508
 20
-6.1844126624
 30
0.0
 10
32.3900187453
 20
-6.181143323
 30
0.0
 10
33.1460893514
 20
-6.1788407817
 30
0.0
 10
33.9093009416
 20
-6.1774834867
 30
0.0
 10
34.6780309976
 20
-6.1770801358
 30
0.0
 10
35.4462033835
 20
-6.1776385215
 30
0.0
 10
36.2083639967
 20
-6.1791489861
 30
0.0
 10
36.9635954482
 20
-6.1816057873
 30
0.0
 10
37.71553454
 20
-6.1850389307
 30
0.0
 10
38.4736506045
 20
-6.1895522172
 30
0.0
 10
39.2546141089
 20
-6.1953872046
 30
0.0
 10
40.0800751939
 20
-6.2030000274
 30
0.0
 10
40.9471143724
 20
-6.2128590654
 30
0.0
 10
41.8100895028
 20
-6.2250148733
 30
0.0
 10
42.6047150661
 20
-6.2388858602
 30
0.0
 10
43.1003641033
 20
-6.2495312595
 30
0.0
 10
43.3271740744
 20
-6.2550178887
 30
0.0
 11
25.9045334396
 21
-6.2550304247
 31
0.0
 11
26.6649057269
 21
-6.2386530898
 31
0.0
 11
27.5265622849
 21
-6.2238636633
 31
0.0
 11
28.4414880654
 21
-6.2113021406
 31
0.0
 11
29.3125158196
 21
-6.2016790883
 31
0.0
 11
30.1214267086
 21
-6.1944363657
 31
0.0
 11
30.8877783729
 21
-6.188890687
 31
0.0
 11
31.6384043472
 21
-6.1845835576
 31
0.0
 11
32.3886199279
 21
-6.1813119423
 31
0.0
 11
33.1430374104
 21
-6.1790084241
 31
0.0
 11
33.9066142011
 21
-6.1776469769
 31
0.0
 11
34.6782528785
 21
-6.1772410526
 31
0.0
 11
35.4492257666
 21
-6.1778029234
 31
0.0
 11
36.211129548
 21
-6.1793167754
 31
0.0
 11
36.9647328868
 21
-6.1817747338
 31
0.0
 11
37.7149181099
 21
-6.1852093911
 31
0.0
 11
38.466944379
 21
-6.1897000716
 31
0.0
 11
39.239077625
 21
-6.1954898517
 31
0.0
 11
40.0578027537
 21
-6.203076282
 31
0.0
 11
40.9433165562
 21
-6.2132140058
 31
0.0
 11
41.8401769788
 21
-6.225969105
 31
0.0
 11
42.6467063088
 21
-6.2402052284
 31
0.0
 11
43.3271740744
 21
-6.2550178887
 31
0.0
  0
SPLINE
  5
560
100
AcDbEntity
  8
RACCORDO
100
AcDbSpline
 62
253
  6
CONTINUOUS
 70
0
 71
3
 72
29
 73
25
 74
23
 42
0.0000001
 43
0.0000001
 44
0.0000000001
 12
-17.4185837759
 22
-0.4213629125
 32
0.0
 13
-17.4185837759
 23
0.4213629125
 33
0.0
 40
0.0
 40
0.0
 40
0.0
 40
0.0
 40
0.043647031
 40
0.0931379207
 40
0.1456119111
 40
0.1955992567
 40
0.2420307343
 40
0.2860214585
 40
0.3291061214
 40
0.3721629528
 40
0.4154628878
 40
0.4592881229
 40
0.5035749979
 40
0.547822998
 40
0.5915510492
 40
0.6348035154
 40
0.677859041
 40
0.72101799
 40
0.7653338224
 40
0.8123265325
 40
0.8631820686
 40
0.9146519244
 40
0.9609323815
 40
1.0
 40
1.0
 40
1.0
 40
1.0
 10
43.3271866104
 20
9.1674704413
 30
0.0
 10
43.073763455
 20
9.1613400279
 30
0.0
 10
42.5329473441
 20
9.1498683723
 30
0.0
 10
41.687368636
 20
9.1355360704
 30
0.0
 10
40.804926588
 20
9.1235321238
 30
0.0
 10
39.940224403
 20
9.1140388168
 30
0.0
 10
39.1247726869
 20
9.1067694259
 30
0.0
 10
38.3493989272
 20
9.1011775141
 30
0.0
 10
37.593617021
 20
9.096853483
 30
0.0
 10
36.8418419168
 20
9.0935838559
 30
0.0
 10
36.0857620603
 20
9.0912811053
 30
0.0
 10
35.3225359473
 20
9.0899236332
 30
0.0
 10
34.5538024719
 20
9.0895201428
 30
0.0
 10
33.7856335273
 20
9.0900783829
 30
0.0
 10
33.023473612
 20
9.0915886943
 30
0.0
 10
32.2682419535
 20
9.0940453459
 30
0.0
 10
31.5163194032
 20
9.0974782585
 30
0.0
 10
30.7582264971
 20
9.1019911986
 30
0.0
 10
29.9772751339
 20
9.1078258085
 30
0.0
 10
29.151635959
 20
9.1154399494
 30
0.0
 10
28.2844676143
 20
9.1253006429
 30
0.0
 10
27.4214649076
 20
9.1374577016
 30
0.0
 10
26.6269604214
 20
9.1513269019
 30
0.0
 10
26.1313801706
 20
9.1619706902
 30
0.0
 10
25.9045459755
 20
9.1674579053
 30
0.0
 11
43.3271866104
 21
9.1674704413
 31
0.0
 11
42.5668710723
 21
9.1510941967
 31
0.0
 11
41.7046846497
 21
9.136296427
 31
0.0
 11
40.7904808133
 21
9.1237452077
 31
0.0
 11
39.9195704821
 21
9.114122734
 31
0.0
 11
39.1105957289
 21
9.1068788136
 31
0.0
 11
38.3441355195
 21
9.1013319556
 31
0.0
 11
37.5934545217
 21
9.0970242732
 31
0.0
 11
36.8432532254
 21
9.0937525253
 31
0.0
 11
36.0888125532
 21
9.0914487546
 31
0.0
 11
35.3252169163
 21
9.0900871218
 31
0.0
 11
34.5535767068
 21
9.0896810581
 31
0.0
 11
33.782613939
 21
9.0902427775
 31
0.0
 11
33.0207118931
 21
9.0917564739
 31
0.0
 11
32.2670987924
 21
9.0942143138
 31
0.0
 11
31.5169209745
 21
9.0976487818
 31
0.0
 11
30.7649466859
 21
9.102138942
 31
0.0
 11
29.9928235288
 21
9.1079283613
 31
0.0
 11
29.1740727552
 21
9.1155147044
 31
0.0
 11
28.2880402582
 21
9.1256586436
 31
0.0
 11
27.3913366808
 21
9.1384123951
 31
0.0
 11
26.5850864205
 21
9.1526438171
 31
0.0
 11
25.9045459755
 21
9.1674579053
 31
0.0
  0
SPLINE
  5
561
100
AcDbEntity
  8
RACCORDO
100
AcDbSpline
 62
253
  6
CONTINUOUS
 70
0
 71
3
 72
16
 73
12
 74
10
 42
0.0000001
 43
0.0000001
 44
0.0000000001
 12
-0.1507203043
 22
7.4871016649
 32
0.0
 13
0.0
 23
7.4886185609
 33
0.0
 40
0.0
 40
0.0
 40
0.0
 40
0.0
 40
0.1147060329
 40
0.2338883938
 40
0.3546313683
 40
0.4695864657
 40
0.5767003442
 40
0.6790724918
 40
0.7814334388
 40
0.887539663
 40
1.0
 40
1.0
 40
1.0
 40
1.0
 10
43.6622722495
 20
-6.0320526489
 30
0.0
 10
43.6565094068
 20
-5.7457807389
 30
0.0
 10
43.646236049
 20
-5.1620351804
 30
0.0
 10
43.6340371439
 20
-4.2768848438
 30
0.0
 10
43.6243501575
 20
-3.3910820672
 30
0.0
 10
43.6169839117
 20
-2.535383847
 30
0.0
 10
43.6115447493
 20
-1.7255297722
 30
0.0
 10
43.6075770799
 20
-0.9471052428
 30
0.0
 10
43.604766132
 20
-0.1711910348
 30
0.0
 10
43.6030090802
 20
0.6299085268
 30
0.0
 10
43.6026054674
 20
1.1754958193
 30
0.0
 10
43.6026054674
 20
1.4562200083
 30
0.0
 11
43.6622722495
 21
-6.0320526489
 31
0.0
 11
43.6469685203
 21
-5.1731992579
 31
0.0
 11
43.6345113119
 21
-4.2807749582
 31
0.0
 11
43.624551464
 21
-3.3766317344
 31
0.0
 11
43.6170964739
 21
-2.5158091384
 31
0.0
 11
43.6116866099
 21
-1.7136924035
 31
0.0
 11
43.6077653145
 21
-0.9470764672
 31
0.0
 11
43.6049793407
 21
-0.1805394426
 31
0.0
 11
43.603230764
 21
0.6140476735
 31
0.0
 11
43.6026054674
 21
1.4562200083
 31
0.0
  0
SPLINE
  5
562
100
AcDbEntity
  8
RACCORDO
100
AcDbSpline
 62
253
  6
CONTINUOUS
 70
0
 71
3
 72
29
 73
25
 74
23
 42
0.0000001
 43
0.0000001
 44
0.0000000001
 12
18.0886069799
 22
0.4373526831
 32
0.0
 13
18.088597219
 23
-0.4377561982
 33
0.0
 40
0.0
 40
0.0
 40
0.0
 40
0.0
 40
0.0436506836
 40
0.0931119769
 40
0.1456278343
 40
0.1956196407
 40
0.2420447835
 40
0.2860273022
 40
0.3291075528
 40
0.3721644338
 40
0.4154624682
 40
0.459286272
 40
0.5035731136
 40
0.5478219086
 40
0.5915500201
 40
0.634801592
 40
0.6778570089
 40
0.7210176191
 40
0.7653314844
 40
0.8123199747
 40
0.8631490507
 40
0.9146361493
 40
0.9609352945
 40
1.0
 40
1.0
 40
1.0
 40
1.0
 10
25.5694556912
 20
-6.0327717309
 30
0.0
 10
25.8326490444
 20
-6.0264081497
 30
0.0
 10
26.3941013177
 20
-6.0140267488
 30
0.0
 10
27.2723064177
 20
-5.9993526327
 30
0.0
 10
28.1887917674
 20
-5.9868233866
 30
0.0
 10
29.0869968717
 20
-5.9769789012
 30
0.0
 10
29.9337546347
 20
-5.9694271113
 30
0.0
 10
30.738839401
 20
-5.9636221379
 30
0.0
 10
31.5236171775
 20
-5.9591320442
 30
0.0
 10
32.3042720598
 20
-5.955736903
 30
0.0
 10
33.0894152567
 20
-5.9533456238
 30
0.0
 10
33.8819790947
 20
-5.9519359482
 30
0.0
 10
34.6802783975
 20
-5.9515168984
 30
0.0
 10
35.4780004509
 20
-5.9520965857
 30
0.0
 10
36.2694771412
 20
-5.9536649848
 30
0.0
 10
37.0537536246
 20
-5.9562160676
 30
0.0
 10
37.8346033662
 20
-5.9597811191
 30
0.0
 10
38.6218543501
 20
-5.9644672515
 30
0.0
 10
39.4328182237
 20
-5.9705275645
 30
0.0
 10
40.2900194179
 20
-5.9784266255
 30
0.0
 10
41.1904624329
 20
-5.9886896881
 30
0.0
 10
42.0867202422
 20
-6.0012222681
 30
0.0
 10
42.9119786905
 20
-6.0159221808
 30
0.0
 10
43.4267303416
 20
-6.0263523766
 30
0.0
 10
43.6622722495
 20
-6.0320526489
 30
0.0
 11
25.5694556912
 21
-6.0327717309
 31
0.0
 11
26.3590767263
 21
-6.0154585027
 31
0.0
 11
27.2538922999
 21
-6.0000998809
 31
0.0
 11
28.2040190823
 21
-5.9870550666
 31
0.0
 11
29.1085103011
 21
-5.9770622857
 31
0.0
 11
29.948488217
 21
-5.9695413006
 31
0.0
 11
30.744282387
 21
-5.9637824172
 31
0.0
 11
31.5237590176
 21
-5.9593095734
 31
0.0
 11
32.3028182266
 21
-5.9559119961
 31
0.0
 11
33.0862445937
 21
-5.9535197205
 31
0.0
 11
33.8791865696
 21
-5.9521057297
 31
0.0
 11
34.6805078505
 21
-5.9516840063
 31
0.0
 11
35.4811406206
 21
-5.9522673151
 31
0.0
 11
36.272350849
 21
-5.9538392248
 31
0.0
 11
37.0549360201
 21
-5.9563915342
 31
0.0
 11
37.8339679808
 21
-5.9599580732
 31
0.0
 11
38.6148975422
 21
-5.9646211239
 31
0.0
 11
39.4166853602
 21
-5.9706329634
 31
0.0
 11
40.2668536035
 21
-5.9785103017
 31
0.0
 11
41.18648923
 21
-5.989038119
 31
0.0
 11
42.1179971091
 21
-6.0022856231
 31
0.0
 11
42.9555984376
 21
-6.0170701595
 31
0.0
 11
43.6622722495
 21
-6.0320526489
 31
0.0
  0
SPLINE
  5
563
100
AcDbEntity
  8
RACCORDO
100
AcDbSpline
 62
253
  6
CONTINUOUS
 70
0
 71
3
 72
19
 73
15
 74
13
 42
0.0000001
 43
0.0000001
 44
0.0000000001
 12
-0.2899768609
 22
-14.4203675271
 32
0.0
 13
0.2899768609
 23
-14.4203675271
 33
0.0
 40
0.0
 40
0.0
 40
0.0
 40
0.0
 40
0.0667166087
 40
0.1422839932
 40
0.2251316907
 40
0.3135887071
 40
0.4058422955
 40
0.5000053577
 40
0.5941682755
 40
0.6864214581
 40
0.7748779383
 40
0.8577251799
 40
0.9332936248
 40
1.0
 40
1.0
 40
1.0
 40
1.0
 10
43.8270942222
 20
8.667530358
 30
0.0
 10
43.8206454647
 20
8.3468376856
 30
0.0
 10
43.8089748809
 20
7.6628664058
 30
0.0
 10
43.7950580413
 20
6.5805743672
 30
0.0
 10
43.7839045634
 20
5.3937226178
 30
0.0
 10
43.7757548299
 20
4.1266219033
 30
0.0
 10
43.7707935474
 20
2.8051028563
 30
0.0
 10
43.7691278001
 20
1.4561430141
 30
0.0
 10
43.7707939225
 20
0.1071851234
 30
0.0
 10
43.7757555856
 20
-1.2143286986
 30
0.0
 10
43.7839056246
 20
-2.4814226911
 30
0.0
 10
43.7950597067
 20
-3.6682747616
 30
0.0
 10
43.8089759171
 20
-4.7505205139
 30
0.0
 10
43.8206472651
 20
-5.4344476703
 30
0.0
 10
43.8270950335
 20
-5.7550911527
 30
0.0
 11
43.8270942222
 21
8.667530358
 31
0.0
 11
43.8103329817
 21
7.7054038328
 31
0.0
 11
43.7961078121
 21
6.61556691
 31
0.0
 11
43.7847292388
 21
5.4206853187
 31
0.0
 11
43.7764296028
 21
4.1448717518
 31
0.0
 11
43.7713810005
 21
2.8142817374
 31
0.0
 11
43.7696868911
 21
1.4561423202
 31
0.0
 11
43.7713813849
 21
0.0980049853
 31
0.0
 11
43.7764303579
 21
-1.2325791743
 31
0.0
 11
43.7847303516
 21
-2.5083850039
 31
0.0
 11
43.796109304
 21
-3.7032600177
 31
0.0
 11
43.8103352237
 21
-4.7931122249
 31
0.0
 11
43.8270950335
 21
-5.7550911527
 31
0.0
  0
SPLINE
  5
564
100
AcDbEntity
  8
RACCORDO
100
AcDbSpline
 62
253
  6
CONTINUOUS
 70
0
 71
3
 72
19
 73
15
 74
13
 42
0.0000001
 43
0.0000001
 44
0.0000000001
 12
0.2899768609
 22
14.4203675271
 32
0.0
 13
-0.2899768609
 23
14.4203675271
 33
0.0
 40
0.0
 40
0.0
 40
0.0
 40
0.0
 40
0.0667166087
 40
0.1422839932
 40
0.2251316907
 40
0.3135887071
 40
0.4058422955
 40
0.5000053577
 40
0.5941682755
 40
0.6864214581
 40
0.7748779383
 40
0.8577251799
 40
0.9332936248
 40
1.0
 40
1.0
 40
1.0
 40
1.0
 10
25.4046258276
 20
-5.7550903414
 30
0.0
 10
25.4110745852
 20
-5.4343976689
 30
0.0
 10
25.422745169
 20
-4.7504263892
 30
0.0
 10
25.4366620086
 20
-3.6681343506
 30
0.0
 10
25.4478154865
 20
-2.4812826011
 30
0.0
 10
25.45596522
 20
-1.2141818866
 30
0.0
 10
25.4609265025
 20
0.1073371604
 30
0.0
 10
25.4625922498
 20
1.4562970025
 30
0.0
 10
25.4609261274
 20
2.8052548932
 30
0.0
 10
25.4559644643
 20
4.1267687152
 30
0.0
 10
25.4478144253
 20
5.3938627077
 30
0.0
 10
25.4366603432
 20
6.5807147783
 30
0.0
 10
25.4227441328
 20
7.6629605305
 30
0.0
 10
25.4110727848
 20
8.3468876869
 30
0.0
 10
25.4046250164
 20
8.6675311693
 30
0.0
 11
25.4046258276
 21
-5.7550903414
 31
0.0
 11
25.4213870682
 21
-4.7929638161
 31
0.0
 11
25.4356122378
 21
-3.7031268934
 31
0.0
 11
25.4469908111
 21
-2.508245302
 31
0.0
 11
25.4552904471
 21
-1.2324317351
 31
0.0
 11
25.4603390494
 21
0.0981582792
 31
0.0
 11
25.4620331588
 21
1.4562976964
 31
0.0
 11
25.460338665
 21
2.8144350313
 31
0.0
 11
25.455289692
 21
4.1450191909
 31
0.0
 11
25.4469896983
 21
5.4208250206
 31
0.0
 11
25.4356107459
 21
6.6157000343
 31
0.0
 11
25.4213848262
 21
7.7055522416
 31
0.0
 11
25.4046250164
 21
8.6675311693
 31
0.0
  0
SPLINE
  5
565
100
AcDbEntity
  8
RACCORDO
100
AcDbSpline
 62
253
  6
CONTINUOUS
 70
0
 71
3
 72
10
 73
6
 74
4
 42
0.0000001
 43
0.0000001
 44
0.0000000001
 12
-0.2747530955
 22
-0.1897345422
 32
0.0
 13
-0.0050569512
 23
-0.3338605805
 33
0.0
 40
0.0
 40
0.0
 40
0.0
 40
0.0
 40
0.3561755566
 40
0.6877905701
 40
1.0
 40
1.0
 40
1.0
 40
1.0
 10
25.5694907269
 20
8.9448969987
 30
0.0
 10
25.5368706147
 20
8.9223707299
 30
0.0
 10
25.478771449
 20
8.8708144257
 30
0.0
 10
25.4198142703
 20
8.7742942925
 30
0.0
 10
25.40514387
 20
8.7022833988
 30
0.0
 10
25.4046175941
 20
8.6675385916
 30
0.0
 11
25.5694907269
 21
8.9448969987
 31
0.0
 11
25.4814029355
 21
8.8649965509
 31
0.0
 11
25.4248483372
 21
8.769803074
 31
0.0
 11
25.4046175941
 21
8.6675385916
 31
0.0
  0
SPLINE
  5
566
100
AcDbEntity
  8
RACCORDO
100
AcDbSpline
 62
253
  6
CONTINUOUS
 70
0
 71
3
 72
11
 73
7
 74
5
 42
0.0000001
 43
0.0000001
 44
0.0000000001
 12
-0.4204641262
 22
-0.0052941485
 32
0.0
 13
-0.2023791855
 23
-0.3685929662
 33
0.0
 40
0.0
 40
0.0
 40
0.0
 40
0.0
 40
0.2334994531
 40
0.4768969089
 40
0.7325202338
 40
1.0
 40
1.0
 40
1.0
 40
1.0
 10
25.9045414417
 20
9.1674624392
 30
0.0
 10
25.8718153938
 20
9.1670503789
 30
0.0
 10
25.804720418
 20
9.1560067413
 30
0.0
 10
25.7113219063
 20
9.1103085568
 30
0.0
 10
25.6298549061
 20
9.0385404452
 30
0.0
 10
25.5875348393
 20
8.9777607188
 30
0.0
 10
25.5694907269
 20
8.9448969987
 30
0.0
 11
25.9045414417
 21
9.1674624392
 31
0.0
 11
25.8076206862
 21
9.1517511956
 31
0.0
 11
25.7153997579
 21
9.1073618313
 31
0.0
 11
25.6342856923
 21
9.0368325158
 31
0.0
 11
25.5694907269
 21
8.9448969987
 31
0.0
  0
SPLINE
  5
567
100
AcDbEntity
  8
RACCORDO
100
AcDbSpline
 62
253
  6
CONTINUOUS
 70
0
 71
3
 72
11
 73
7
 74
5
 42
0.0000001
 43
0.0000001
 44
0.0000000001
 12
-0.2023788505
 22
0.368592356
 32
0.0
 13
-0.4204634302
 23
0.0052941397
 33
0.0
 40
0.0
 40
0.0
 40
0.0
 40
0.0
 40
0.2676192207
 40
0.5221227787
 40
0.7647864634
 40
1.0
 40
1.0
 40
1.0
 40
1.0
 10
43.662229323
 20
8.9448969987
 30
0.0
 10
43.6441758329
 20
8.9777777984
 30
0.0
 10
43.6019305944
 20
9.0384427749
 30
0.0
 10
43.5206803409
 20
9.1100726331
 30
0.0
 10
43.4273831893
 20
9.1559014436
 30
0.0
 10
43.3601448384
 20
9.1670473547
 30
0.0
 10
43.3271786082
 20
9.1674624392
 30
0.0
 11
43.662229323
 21
8.9448969987
 31
0.0
 11
43.5973950535
 21
9.0368763275
 31
0.0
 11
43.5166670498
 21
9.1071317536
 31
0.0
 11
43.4247936146
 21
9.1515309561
 31
0.0
 11
43.3271786082
 21
9.1674624392
 31
0.0
  0
SPLINE
  5
568
100
AcDbEntity
  8
RACCORDO
100
AcDbSpline
 62
253
  6
CONTINUOUS
 70
0
 71
3
 72
10
 73
6
 74
4
 42
0.0000001
 43
0.0000001
 44
0.0000000001
 12
-0.0050569727
 22
0.3338619996
 32
0.0
 13
-0.2747542634
 23
0.1897353487
 33
0.0
 40
0.0
 40
0.0
 40
0.0
 40
0.0
 40
0.3110194662
 40
0.6423389613
 40
1.0
 40
1.0
 40
1.0
 40
1.0
 10
43.8271024558
 20
8.6675385916
 30
0.0
 10
43.8265781835
 20
8.7021511186
 30
0.0
 10
43.81199694
 20
8.7739934552
 30
0.0
 10
43.7531690725
 20
8.8705937394
 30
0.0
 10
43.6949856214
 20
8.9222766847
 30
0.0
 10
43.662229323
 20
8.9448969987
 30
0.0
 11
43.8271024558
 21
8.6675385916
 31
0.0
 11
43.80701711
 21
8.769427236
 31
0.0
 11
43.7506366347
 21
8.8646098239
 31
0.0
 11
43.662229323
 21
8.9448969987
 31
0.0
  0
SPLINE
  5
569
100
AcDbEntity
  8
RACCORDO
100
AcDbSpline
 62
7
  6
CONTINUOUS
 70
0
 71
3
 72
22
 73
18
 74
16
 42
0.0000001
 43
0.0000001
 44
0.0000000001
 12
0.3979247295
 22
0.0
 32
0.0
 13
0.004009957
 23
-0.3979045245
 33
0.0
 40
0.0
 40
0.0
 40
0.0
 40
0.0
 40
0.0571817296
 40
0.1149827187
 40
0.1734414671
 40
0.2326372393
 40
0.2926905908
 40
0.353751357
 40
0.4160117869
 40
0.4797104153
 40
0.545138913
 40
0.6126527996
 40
0.6826865208
 40
0.755772001
 40
0.8325270026
 40
0.913672593
 40
1.0
 40
1.0
 40
1.0
 40
1.0
 10
55.0141899948
 20
23.2062200083
 30
0.0
 10
55.0217746696
 20
23.2062200083
 30
0.0
 10
55.0370343825
 20
23.2055584023
 30
0.0
 10
55.0598720956
 20
23.2025602954
 30
0.0
 10
55.0826202683
 20
23.1975023036
 30
0.0
 10
55.1051106483
 20
23.1903398987
 30
0.0
 10
55.1271767209
 20
23.1810285036
 30
0.0
 10
55.148645347
 20
23.1695200164
 30
0.0
 10
55.1693317889
 20
23.1557601831
 30
0.0
 10
55.1890333434
 20
23.1396855521
 30
0.0
 10
55.2075200962
 20
23.1212216376
 30
0.0
 10
55.2245230808
 20
23.1002820755
 30
0.0
 10
55.2397186937
 20
23.0767692086
 30
0.0
 10
55.2527057485
 20
23.0505830818
 30
0.0
 10
55.2629784306
 20
23.021635344
 30
0.0
 10
55.2698947375
 20
22.9898989562
 30
0.0
 10
55.2716709519
 20
22.9676700303
 30
0.0
 10
55.2717863417
 20
22.9562200083
 30
0.0
 11
55.0141899948
 21
23.2062200083
 31
0.0
 11
55.0369226469
 21
23.2052340306
 31
0.0
 11
55.0597273853
 21
23.2022399893
 31
0.0
 11
55.0824348444
 21
23.1971901978
 31
0.0
 11
55.1048792985
 21
23.1900413339
 31
0.0
 11
55.1268955182
 21
23.1807494562
 31
0.0
 11
55.1483094578
 21
23.1692683405
 31
0.0
 11
55.1689366556
 21
23.155545455
 31
0.0
 11
55.1885747306
 21
23.1395195518
 31
0.0
 11
55.2069941658
 21
23.1211190688
 31
0.0
 11
55.2239267353
 21
23.1002614509
 31
0.0
 11
55.2390503899
 21
23.0768539984
 31
0.0
 11
55.251968808
 21
23.0507981461
 31
0.0
 11
55.2621804514
 21
23.0220130862
 31
0.0
 11
55.2690515605
 21
22.9904627861
 31
0.0
 11
55.2717863417
 21
22.9562200083
 31
0.0
  0
SPLINE
  5
56A
100
AcDbEntity
  8
RACCORDO
100
AcDbSpline
 62
7
  6
CONTINUOUS
 70
0
 71
3
 72
22
 73
18
 74
16
 42
0.0000001
 43
0.0000001
 44
0.0000000001
 12
0.3979247295
 22
0.0
 32
0.0
 13
0.004009957
 23
-0.3979045245
 33
0.0
 40
0.0
 40
0.0
 40
0.0
 40
0.0
 40
0.0571817296
 40
0.1149827187
 40
0.1734414671
 40
0.2326372393
 40
0.2926905908
 40
0.353751357
 40
0.4160117869
 40
0.4797104153
 40
0.545138913
 40
0.6126527996
 40
0.6826865208
 40
0.755772001
 40
0.8325270026
 40
0.913672593
 40
1.0
 40
1.0
 40
1.0
 40
1.0
 10
30.0141899948
 20
23.2062200083
 30
0.0
 10
30.0217746696
 20
23.2062200083
 30
0.0
 10
30.0370343825
 20
23.2055584023
 30
0.0
 10
30.0598720956
 20
23.2025602954
 30
0.0
 10
30.0826202683
 20
23.1975023036
 30
0.0
 10
30.1051106483
 20
23.1903398987
 30
0.0
 10
30.1271767209
 20
23.1810285036
 30
0.0
 10
30.148645347
 20
23.1695200164
 30
0.0
 10
30.1693317889
 20
23.1557601831
 30
0.0
 10
30.1890333434
 20
23.1396855521
 30
0.0
 10
30.2075200962
 20
23.1212216376
 30
0.0
 10
30.2245230808
 20
23.1002820755
 30
0.0
 10
30.2397186937
 20
23.0767692086
 30
0.0
 10
30.2527057485
 20
23.0505830818
 30
0.0
 10
30.2629784306
 20
23.021635344
 30
0.0
 10
30.2698947375
 20
22.9898989562
 30
0.0
 10
30.2716709519
 20
22.9676700303
 30
0.0
 10
30.2717863417
 20
22.9562200083
 30
0.0
 11
30.0141899948
 21
23.2062200083
 31
0.0
 11
30.0369226469
 21
23.2052340306
 31
0.0
 11
30.0597273853
 21
23.2022399893
 31
0.0
 11
30.0824348444
 21
23.1971901978
 31
0.0
 11
30.1048792985
 21
23.1900413339
 31
0.0
 11
30.1268955182
 21
23.1807494562
 31
0.0
 11
30.1483094578
 21
23.1692683405
 31
0.0
 11
30.1689366556
 21
23.155545455
 31
0.0
 11
30.1885747306
 21
23.1395195518
 31
0.0
 11
30.2069941658
 21
23.1211190688
 31
0.0
 11
30.2239267353
 21
23.1002614509
 31
0.0
 11
30.2390503899
 21
23.0768539984
 31
0.0
 11
30.251968808
 21
23.0507981461
 31
0.0
 11
30.2621804514
 21
23.0220130862
 31
0.0
 11
30.2690515605
 21
22.9904627861
 31
0.0
 11
30.2717863417
 21
22.9562200083
 31
0.0
  0
SPLINE
  5
56B
100
AcDbEntity
  8
RACCORDO
100
AcDbSpline
 62
7
  6
CONTINUOUS
 70
0
 71
3
 72
22
 73
18
 74
16
 42
0.0000001
 43
0.0000001
 44
0.0000000001
 12
-0.3979247295
 22
0.0
 32
0.0
 13
-0.004009957
 23
0.3979045245
 33
0.0
 40
0.0
 40
0.0
 40
0.0
 40
0.0
 40
0.0571817296
 40
0.1149827187
 40
0.1734414671
 40
0.2326372393
 40
0.2926905908
 40
0.353751357
 40
0.4160117869
 40
0.4797104153
 40
0.545138913
 40
0.6126527996
 40
0.6826865208
 40
0.755772001
 40
0.8325270026
 40
0.913672593
 40
1.0
 40
1.0
 40
1.0
 40
1.0
 10
14.2175300551
 20
-23.2937799917
 30
0.0
 10
14.2099453803
 20
-23.2937799917
 30
0.0
 10
14.1946856674
 20
-23.2931183857
 30
0.0
 10
14.1718479543
 20
-23.2901202788
 30
0.0
 10
14.1490997816
 20
-23.2850622869
 30
0.0
 10
14.1266094016
 20
-23.2778998821
 30
0.0
 10
14.104543329
 20
-23.268588487
 30
0.0
 10
14.0830747029
 20
-23.2570799998
 30
0.0
 10
14.062388261
 20
-23.2433201665
 30
0.0
 10
14.0426867065
 20
-23.2272455354
 30
0.0
 10
14.0241999537
 20
-23.2087816209
 30
0.0
 10
14.0071969691
 20
-23.1878420589
 30
0.0
 10
13.9920013562
 20
-23.1643291919
 30
0.0
 10
13.9790143014
 20
-23.1381430652
 30
0.0
 10
13.9687416193
 20
-23.1091953274
 30
0.0
 10
13.9618253124
 20
-23.0774589396
 30
0.0
 10
13.960049098
 20
-23.0552300136
 30
0.0
 10
13.9599337082
 20
-23.0437799917
 30
0.0
 11
14.2175300551
 21
-23.2937799917
 31
0.0
 11
14.194797403
 21
-23.292794014
 31
0.0
 11
14.1719926646
 21
-23.2897999726
 31
0.0
 11
14.1492852055
 21
-23.2847501812
 31
0.0
 11
14.1268407514
 21
-23.2776013172
 31
0.0
 11
14.1048245317
 21
-23.2683094396
 31
0.0
 11
14.0834105921
 21
-23.2568283239
 31
0.0
 11
14.0627833943
 21
-23.2431054384
 31
0.0
 11
14.0431453193
 21
-23.2270795352
 31
0.0
 11
14.0247258841
 21
-23.2086790522
 31
0.0
 11
14.0077933146
 21
-23.1878214343
 31
0.0
 11
13.99266966
 21
-23.1644139818
 31
0.0
 11
13.9797512419
 21
-23.1383581295
 31
0.0
 11
13.9695395985
 21
-23.1095730696
 31
0.0
 11
13.9626684894
 21
-23.0780227694
 31
0.0
 11
13.9599337082
 21
-23.0437799917
 31
0.0
  0
SPLINE
  5
56C
100
AcDbEntity
  8
RACCORDO
100
AcDbSpline
 62
7
  6
CONTINUOUS
 70
0
 71
3
 72
22
 73
18
 74
16
 42
0.0000001
 43
0.0000001
 44
0.0000000001
 12
-0.3979247295
 22
0.0
 32
0.0
 13
-0.004009957
 23
0.3979045245
 33
0.0
 40
0.0
 40
0.0
 40
0.0
 40
0.0
 40
0.0571817296
 40
0.1149827187
 40
0.1734414671
 40
0.2326372393
 40
0.2926905908
 40
0.353751357
 40
0.4160117869
 40
0.4797104153
 40
0.545138913
 40
0.6126527996
 40
0.6826865208
 40
0.755772001
 40
0.8325270026
 40
0.913672593
 40
1.0
 40
1.0
 40
1.0
 40
1.0
 10
39.2175300551
 20
-23.2937799917
 30
0.0
 10
39.2099453803
 20
-23.2937799917
 30
0.0
 10
39.1946856674
 20
-23.2931183857
 30
0.0
 10
39.1718479543
 20
-23.2901202788
 30
0.0
 10
39.1490997816
 20
-23.2850622869
 30
0.0
 10
39.1266094016
 20
-23.2778998821
 30
0.0
 10
39.104543329
 20
-23.268588487
 30
0.0
 10
39.0830747029
 20
-23.2570799998
 30
0.0
 10
39.062388261
 20
-23.2433201665
 30
0.0
 10
39.0426867065
 20
-23.2272455354
 30
0.0
 10
39.0241999537
 20
-23.2087816209
 30
0.0
 10
39.0071969691
 20
-23.1878420589
 30
0.0
 10
38.9920013562
 20
-23.1643291919
 30
0.0
 10
38.9790143014
 20
-23.1381430652
 30
0.0
 10
38.9687416193
 20
-23.1091953274
 30
0.0
 10
38.9618253124
 20
-23.0774589396
 30
0.0
 10
38.960049098
 20
-23.0552300136
 30
0.0
 10
38.9599337082
 20
-23.0437799917
 30
0.0
 11
39.2175300551
 21
-23.2937799917
 31
0.0
 11
39.194797403
 21
-23.292794014
 31
0.0
 11
39.1719926646
 21
-23.2897999726
 31
0.0
 11
39.1492852055
 21
-23.2847501812
 31
0.0
 11
39.1268407514
 21
-23.2776013172
 31
0.0
 11
39.1048245317
 21
-23.2683094396
 31
0.0
 11
39.0834105921
 21
-23.2568283239
 31
0.0
 11
39.0627833943
 21
-23.2431054384
 31
0.0
 11
39.0431453193
 21
-23.2270795352
 31
0.0
 11
39.0247258841
 21
-23.2086790522
 31
0.0
 11
39.0077933146
 21
-23.1878214343
 31
0.0
 11
38.99266966
 21
-23.1644139818
 31
0.0
 11
38.9797512419
 21
-23.1383581295
 31
0.0
 11
38.9695395985
 21
-23.1095730696
 31
0.0
 11
38.9626684894
 21
-23.0780227694
 31
0.0
 11
38.9599337082
 21
-23.0437799917
 31
0.0
  0
SPLINE
  5
56D
100
AcDbEntity
  8
RACCORDO
100
AcDbSpline
 62
7
  6
CONTINUOUS
 70
0
 71
3
 72
22
 73
18
 74
16
 42
0.0000001
 43
0.0000001
 44
0.0000000001
 12
0.004009957
 22
0.3979045245
 32
0.0
 13
0.3979247295
 23
0.0
 33
0.0
 40
0.0
 40
0.0
 40
0.0
 40
0.0
 40
0.086327407
 40
0.1674729974
 40
0.244227999
 40
0.3173134792
 40
0.3873472004
 40
0.454861087
 40
0.5202895847
 40
0.5839882131
 40
0.646248643
 40
0.7073094092
 40
0.7673627607
 40
0.8265585329
 40
0.8850172813
 40
0.9428182704
 40
1.0
 40
1.0
 40
1.0
 40
1.0
 10
13.9599337082
 20
22.9562200083
 30
0.0
 10
13.960049098
 20
22.9676700303
 30
0.0
 10
13.9618253124
 20
22.9898989562
 30
0.0
 10
13.9687416193
 20
23.021635344
 30
0.0
 10
13.9790143014
 20
23.0505830818
 30
0.0
 10
13.9920013562
 20
23.0767692086
 30
0.0
 10
14.0071969691
 20
23.1002820755
 30
0.0
 10
14.0241999537
 20
23.1212216376
 30
0.0
 10
14.0426867065
 20
23.1396855521
 30
0.0
 10
14.062388261
 20
23.1557601831
 30
0.0
 10
14.0830747029
 20
23.1695200164
 30
0.0
 10
14.104543329
 20
23.1810285036
 30
0.0
 10
14.1266094016
 20
23.1903398987
 30
0.0
 10
14.1490997816
 20
23.1975023036
 30
0.0
 10
14.1718479543
 20
23.2025602954
 30
0.0
 10
14.1946856674
 20
23.2055584023
 30
0.0
 10
14.2099453803
 20
23.2062200083
 30
0.0
 10
14.2175300551
 20
23.2062200083
 30
0.0
 11
13.9599337082
 21
22.9562200083
 31
0.0
 11
13.9626684894
 21
22.9904627861
 31
0.0
 11
13.9695395985
 21
23.0220130862
 31
0.0
 11
13.9797512419
 21
23.0507981461
 31
0.0
 11
13.99266966
 21
23.0768539984
 31
0.0
 11
14.0077933146
 21
23.1002614509
 31
0.0
 11
14.0247258841
 21
23.1211190688
 31
0.0
 11
14.0431453193
 21
23.1395195518
 31
0.0
 11
14.0627833943
 21
23.155545455
 31
0.0
 11
14.0834105921
 21
23.1692683405
 31
0.0
 11
14.1048245317
 21
23.1807494562
 31
0.0
 11
14.1268407514
 21
23.1900413339
 31
0.0
 11
14.1492852055
 21
23.1971901978
 31
0.0
 11
14.1719926646
 21
23.2022399893
 31
0.0
 11
14.194797403
 21
23.2052340306
 31
0.0
 11
14.2175300551
 21
23.2062200083
 31
0.0
  0
SPLINE
  5
56E
100
AcDbEntity
  8
RACCORDO
100
AcDbSpline
 62
7
  6
CONTINUOUS
 70
0
 71
3
 72
22
 73
18
 74
16
 42
0.0000001
 43
0.0000001
 44
0.0000000001
 12
-0.004009957
 22
-0.3979045245
 32
0.0
 13
-0.3979247295
 23
0.0
 33
0.0
 40
0.0
 40
0.0
 40
0.0
 40
0.0
 40
0.086327407
 40
0.1674729974
 40
0.244227999
 40
0.3173134792
 40
0.3873472004
 40
0.454861087
 40
0.5202895847
 40
0.5839882131
 40
0.646248643
 40
0.7073094092
 40
0.7673627607
 40
0.8265585329
 40
0.8850172813
 40
0.9428182704
 40
1.0
 40
1.0
 40
1.0
 40
1.0
 10
55.2717863417
 20
-23.0437799917
 30
0.0
 10
55.2716709519
 20
-23.0552300136
 30
0.0
 10
55.2698947375
 20
-23.0774589396
 30
0.0
 10
55.2629784306
 20
-23.1091953274
 30
0.0
 10
55.2527057485
 20
-23.1381430652
 30
0.0
 10
55.2397186937
 20
-23.1643291919
 30
0.0
 10
55.2245230808
 20
-23.1878420589
 30
0.0
 10
55.2075200962
 20
-23.2087816209
 30
0.0
 10
55.1890333434
 20
-23.2272455354
 30
0.0
 10
55.1693317889
 20
-23.2433201665
 30
0.0
 10
55.148645347
 20
-23.2570799998
 30
0.0
 10
55.1271767209
 20
-23.268588487
 30
0.0
 10
55.1051106483
 20
-23.2778998821
 30
0.0
 10
55.0826202683
 20
-23.2850622869
 30
0.0
 10
55.0598720956
 20
-23.2901202788
 30
0.0
 10
55.0370343825
 20
-23.2931183857
 30
0.0
 10
55.0217746696
 20
-23.2937799917
 30
0.0
 10
55.0141899948
 20
-23.2937799917
 30
0.0
 11
55.2717863417
 21
-23.0437799917
 31
0.0
 11
55.2690515605
 21
-23.0780227694
 31
0.0
 11
55.2621804514
 21
-23.1095730696
 31
0.0
 11
55.251968808
 21
-23.1383581295
 31
0.0
 11
55.2390503899
 21
-23.1644139818
 31
0.0
 11
55.2239267353
 21
-23.1878214343
 31
0.0
 11
55.2069941658
 21
-23.2086790522
 31
0.0
 11
55.1885747306
 21
-23.2270795352
 31
0.0
 11
55.1689366556
 21
-23.2431054384
 31
0.0
 11
55.1483094578
 21
-23.2568283239
 31
0.0
 11
55.1268955182
 21
-23.2683094396
 31
0.0
 11
55.1048792985
 21
-23.2776013172
 31
0.0
 11
55.0824348444
 21
-23.2847501812
 31
0.0
 11
55.0597273853
 21
-23.2897999726
 31
0.0
 11
55.0369226469
 21
-23.292794014
 31
0.0
 11
55.0141899948
 21
-23.2937799917
 31
0.0
  0
SPLINE
  5
56F
100
AcDbEntity
  8
RACCORDO
100
AcDbSpline
 62
7
  6
CONTINUOUS
 70
0
 71
3
 72
22
 73
18
 74
16
 42
0.0000001
 43
0.0000001
 44
0.0000000001
 12
-0.004009957
 22
-0.3979045245
 32
0.0
 13
-0.3979247295
 23
0.0
 33
0.0
 40
0.0
 40
0.0
 40
0.0
 40
0.0
 40
0.086327407
 40
0.1674729974
 40
0.244227999
 40
0.3173134792
 40
0.3873472004
 40
0.454861087
 40
0.5202895847
 40
0.5839882131
 40
0.646248643
 40
0.7073094092
 40
0.7673627607
 40
0.8265585329
 40
0.8850172813
 40
0.9428182704
 40
1.0
 40
1.0
 40
1.0
 40
1.0
 10
30.2717863417
 20
-23.0437799917
 30
0.0
 10
30.2716709519
 20
-23.0552300136
 30
0.0
 10
30.2698947375
 20
-23.0774589396
 30
0.0
 10
30.2629784306
 20
-23.1091953274
 30
0.0
 10
30.2527057485
 20
-23.1381430652
 30
0.0
 10
30.2397186937
 20
-23.1643291919
 30
0.0
 10
30.2245230808
 20
-23.1878420589
 30
0.0
 10
30.2075200962
 20
-23.2087816209
 30
0.0
 10
30.1890333434
 20
-23.2272455354
 30
0.0
 10
30.1693317889
 20
-23.2433201665
 30
0.0
 10
30.148645347
 20
-23.2570799998
 30
0.0
 10
30.1271767209
 20
-23.268588487
 30
0.0
 10
30.1051106483
 20
-23.2778998821
 30
0.0
 10
30.0826202683
 20
-23.2850622869
 30
0.0
 10
30.0598720956
 20
-23.2901202788
 30
0.0
 10
30.0370343825
 20
-23.2931183857
 30
0.0
 10
30.0217746696
 20
-23.2937799917
 30
0.0
 10
30.0141899948
 20
-23.2937799917
 30
0.0
 11
30.2717863417
 21
-23.0437799917
 31
0.0
 11
30.2690515605
 21
-23.0780227694
 31
0.0
 11
30.2621804514
 21
-23.1095730696
 31
0.0
 11
30.251968808
 21
-23.1383581295
 31
0.0
 11
30.2390503899
 21
-23.1644139818
 31
0.0
 11
30.2239267353
 21
-23.1878214343
 31
0.0
 11
30.2069941658
 21
-23.2086790522
 31
0.0
 11
30.1885747306
 21
-23.2270795352
 31
0.0
 11
30.1689366556
 21
-23.2431054384
 31
0.0
 11
30.1483094578
 21
-23.2568283239
 31
0.0
 11
30.1268955182
 21
-23.2683094396
 31
0.0
 11
30.1048792985
 21
-23.2776013172
 31
0.0
 11
30.0824348444
 21
-23.2847501812
 31
0.0
 11
30.0597273853
 21
-23.2897999726
 31
0.0
 11
30.0369226469
 21
-23.292794014
 31
0.0
 11
30.0141899948
 21
-23.2937799917
 31
0.0
  0
SPLINE
  5
570
100
AcDbEntity
  8
RACCORDO
100
AcDbSpline
 62
7
  6
CONTINUOUS
 70
0
 71
3
 72
22
 73
18
 74
16
 42
0.0000001
 43
0.0000001
 44
0.0000000001
 12
0.004009957
 22
0.3979045245
 32
0.0
 13
0.3979247295
 23
0.0
 33
0.0
 40
0.0
 40
0.0
 40
0.0
 40
0.0
 40
0.086327407
 40
0.1674729974
 40
0.244227999
 40
0.3173134792
 40
0.3873472004
 40
0.454861087
 40
0.5202895847
 40
0.5839882131
 40
0.646248643
 40
0.7073094092
 40
0.7673627607
 40
0.8265585329
 40
0.8850172813
 40
0.9428182704
 40
1.0
 40
1.0
 40
1.0
 40
1.0
 10
38.9599337082
 20
22.9562200083
 30
0.0
 10
38.960049098
 20
22.9676700303
 30
0.0
 10
38.9618253124
 20
22.9898989562
 30
0.0
 10
38.9687416193
 20
23.021635344
 30
0.0
 10
38.9790143014
 20
23.0505830818
 30
0.0
 10
38.9920013562
 20
23.0767692086
 30
0.0
 10
39.0071969691
 20
23.1002820755
 30
0.0
 10
39.0241999537
 20
23.1212216376
 30
0.0
 10
39.0426867065
 20
23.1396855521
 30
0.0
 10
39.062388261
 20
23.1557601831
 30
0.0
 10
39.0830747029
 20
23.1695200164
 30
0.0
 10
39.104543329
 20
23.1810285036
 30
0.0
 10
39.1266094016
 20
23.1903398987
 30
0.0
 10
39.1490997816
 20
23.1975023036
 30
0.0
 10
39.1718479543
 20
23.2025602954
 30
0.0
 10
39.1946856674
 20
23.2055584023
 30
0.0
 10
39.2099453803
 20
23.2062200083
 30
0.0
 10
39.2175300551
 20
23.2062200083
 30
0.0
 11
38.9599337082
 21
22.9562200083
 31
0.0
 11
38.9626684894
 21
22.9904627861
 31
0.0
 11
38.9695395985
 21
23.0220130862
 31
0.0
 11
38.9797512419
 21
23.0507981461
 31
0.0
 11
38.99266966
 21
23.0768539984
 31
0.0
 11
39.0077933146
 21
23.1002614509
 31
0.0
 11
39.0247258841
 21
23.1211190688
 31
0.0
 11
39.0431453193
 21
23.1395195518
 31
0.0
 11
39.0627833943
 21
23.155545455
 31
0.0
 11
39.0834105921
 21
23.1692683405
 31
0.0
 11
39.1048245317
 21
23.1807494562
 31
0.0
 11
39.1268407514
 21
23.1900413339
 31
0.0
 11
39.1492852055
 21
23.1971901978
 31
0.0
 11
39.1719926646
 21
23.2022399893
 31
0.0
 11
39.194797403
 21
23.2052340306
 31
0.0
 11
39.2175300551
 21
23.2062200083
 31
0.0
  0
SPLINE
  5
571
100
AcDbEntity
  8
RACCORDO
100
AcDbSpline
 62
7
  6
CONTINUOUS
 70
0
 71
3
 72
20
 73
16
 74
14
 42
0.0000001
 43
0.0000001
 44
0.0000000001
 12
0.3915127388
 22
0.0072778726
 32
0.0
 13
0.0138874425
 23
-0.3913340401
 33
0.0
 40
0.0
 40
0.0
 40
0.0
 40
0.0
 40
0.0996688304
 40
0.1926793192
 40
0.2802384294
 40
0.3633094437
 40
0.4426619515
 40
0.518918239
 40
0.5925867298
 40
0.6640897943
 40
0.7337840761
 40
0.8019749107
 40
0.8689274142
 40
0.9348707883
 40
1.0
 40
1.0
 40
1.0
 40
1.0
 10
59.2188431404
 20
22.4091650475
 30
0.0
 10
59.231850346
 20
22.4094068399
 30
0.0
 10
59.2570716151
 20
22.4080068141
 30
0.0
 10
59.293037937
 20
22.4007617652
 30
0.0
 10
59.3256501694
 20
22.38946915
 30
0.0
 10
59.3549449707
 20
22.3749080365
 30
0.0
 10
59.3809989209
 20
22.3576895225
 30
0.0
 10
59.4038888677
 20
22.3383051623
 30
0.0
 10
59.4236865143
 20
22.3171619249
 30
0.0
 10
59.4404542138
 20
22.2946071392
 30
0.0
 10
59.4542452602
 20
22.2709461066
 30
0.0
 10
59.4651052703
 20
22.2464555567
 30
0.0
 10
59.4730743656
 20
22.221391898
 30
0.0
 10
59.4781897605
 20
22.1960059749
 30
0.0
 10
59.4797318452
 20
22.1789271567
 30
0.0
 10
59.4800333379
 20
22.1704313975
 30
0.0
 11
59.2188431404
 21
22.4091650475
 31
0.0
 11
59.257811409
 21
22.4070001494
 31
0.0
 11
59.2935151688
 21
22.3998073211
 31
0.0
 11
59.3259127433
 21
22.388584291
 31
0.0
 11
59.3550396193
 21
22.3741012119
 31
0.0
 11
59.3809596231
 21
22.3569641882
 31
0.0
 11
59.4037428279
 21
22.337662038
 31
0.0
 11
59.4234550322
 21
22.3166005513
 31
0.0
 11
59.4401545362
 21
22.2941265308
 31
0.0
 11
59.4538917593
 21
22.2705451261
 31
0.0
 11
59.4647102884
 21
22.2461327005
 31
0.0
 11
59.4726489418
 21
22.2211462262
 31
0.0
 11
59.4777441005
 21
22.1958317674
 31
0.0
 11
59.4800333379
 21
22.1704313975
 31
0.0
  0
SPLINE
  5
572
100
AcDbEntity
  8
RACCORDO
100
AcDbSpline
 62
7
  6
CONTINUOUS
 70
0
 71
3
 72
20
 73
16
 74
14
 42
0.0000001
 43
0.0000001
 44
0.0000000001
 12
0.0138874425
 22
0.3913340401
 32
0.0
 13
0.3915127388
 23
-0.0072778726
 33
0.0
 40
0.0
 40
0.0
 40
0.0
 40
0.0
 40
0.0651292117
 40
0.1310725858
 40
0.1980250893
 40
0.2662159239
 40
0.3359102057
 40
0.4074132702
 40
0.481081761
 40
0.5573380485
 40
0.6366905563
 40
0.7197615706
 40
0.8073206808
 40
0.9003311696
 40
1.0
 40
1.0
 40
1.0
 40
1.0
 10
9.751686712
 20
22.1704313975
 30
0.0
 10
9.7519882047
 20
22.1789271567
 30
0.0
 10
9.7535302894
 20
22.1960059749
 30
0.0
 10
9.7586456843
 20
22.221391898
 30
0.0
 10
9.7666147796
 20
22.2464555567
 30
0.0
 10
9.7774747897
 20
22.2709461066
 30
0.0
 10
9.7912658361
 20
22.2946071392
 30
0.0
 10
9.8080335356
 20
22.3171619249
 30
0.0
 10
9.8278311822
 20
22.3383051623
 30
0.0
 10
9.850721129
 20
22.3576895225
 30
0.0
 10
9.8767750792
 20
22.3749080365
 30
0.0
 10
9.9060698805
 20
22.38946915
 30
0.0
 10
9.9386821129
 20
22.4007617652
 30
0.0
 10
9.9746484348
 20
22.4080068141
 30
0.0
 10
9.9998697039
 20
22.4094068399
 30
0.0
 10
10.0128769095
 20
22.4091650475
 30
0.0
 11
9.751686712
 21
22.1704313975
 31
0.0
 11
9.7539759494
 21
22.1958317674
 31
0.0
 11
9.7590711081
 21
22.2211462262
 31
0.0
 11
9.7670097615
 21
22.2461327005
 31
0.0
 11
9.7778282906
 21
22.2705451261
 31
0.0
 11
9.7915655137
 21
22.2941265308
 31
0.0
 11
9.8082650177
 21
22.3166005513
 31
0.0
 11
9.827977222
 21
22.337662038
 31
0.0
 11
9.8507604268
 21
22.3569641882
 31
0.0
 11
9.8766804306
 21
22.3741012119
 31
0.0
 11
9.9058073066
 21
22.388584291
 31
0.0
 11
9.9382048811
 21
22.3998073211
 31
0.0
 11
9.9739086409
 21
22.4070001494
 31
0.0
 11
10.0128769095
 21
22.4091650475
 31
0.0
  0
SPLINE
  5
573
100
AcDbEntity
  8
RACCORDO
100
AcDbSpline
 62
7
  6
CONTINUOUS
 70
0
 71
3
 72
20
 73
16
 74
14
 42
0.0000001
 43
0.0000001
 44
0.0000000001
 12
-0.3915127388
 22
-0.0072778726
 32
0.0
 13
-0.0138874425
 23
0.3913340401
 33
0.0
 40
0.0
 40
0.0
 40
0.0
 40
0.0
 40
0.0996688304
 40
0.1926793192
 40
0.2802384294
 40
0.3633094437
 40
0.4426619515
 40
0.518918239
 40
0.5925867298
 40
0.6640897943
 40
0.7337840761
 40
0.8019749107
 40
0.8689274142
 40
0.9348707883
 40
1.0
 40
1.0
 40
1.0
 40
1.0
 10
10.0128769095
 20
-22.4967250309
 30
0.0
 10
9.9998697039
 20
-22.4969668233
 30
0.0
 10
9.9746484348
 20
-22.4955667974
 30
0.0
 10
9.9386821129
 20
-22.4883217485
 30
0.0
 10
9.9060698805
 20
-22.4770291334
 30
0.0
 10
9.8767750792
 20
-22.4624680199
 30
0.0
 10
9.850721129
 20
-22.4452495059
 30
0.0
 10
9.8278311822
 20
-22.4258651456
 30
0.0
 10
9.8080335356
 20
-22.4047219082
 30
0.0
 10
9.7912658361
 20
-22.3821671226
 30
0.0
 10
9.7774747897
 20
-22.35850609
 30
0.0
 10
9.7666147796
 20
-22.3340155401
 30
0.0
 10
9.7586456843
 20
-22.3089518813
 30
0.0
 10
9.7535302894
 20
-22.2835659583
 30
0.0
 10
9.7519882047
 20
-22.2664871401
 30
0.0
 10
9.751686712
 20
-22.2579913809
 30
0.0
 11
10.0128769095
 21
-22.4967250309
 31
0.0
 11
9.9739086409
 21
-22.4945601328
 31
0.0
 11
9.9382048811
 21
-22.4873673045
 31
0.0
 11
9.9058073066
 21
-22.4761442743
 31
0.0
 11
9.8766804306
 21
-22.4616611953
 31
0.0
 11
9.8507604268
 21
-22.4445241715
 31
0.0
 11
9.827977222
 21
-22.4252220214
 31
0.0
 11
9.8082650177
 21
-22.4041605346
 31
0.0
 11
9.7915655137
 21
-22.3816865141
 31
0.0
 11
9.7778282906
 21
-22.3581051095
 31
0.0
 11
9.7670097615
 21
-22.3336926839
 31
0.0
 11
9.7590711081
 21
-22.3087062095
 31
0.0
 11
9.7539759494
 21
-22.2833917508
 31
0.0
 11
9.751686712
 21
-22.2579913809
 31
0.0
  0
SPLINE
  5
574
100
AcDbEntity
  8
RACCORDO
100
AcDbSpline
 62
7
  6
CONTINUOUS
 70
0
 71
3
 72
20
 73
16
 74
14
 42
0.0000001
 43
0.0000001
 44
0.0000000001
 12
-0.0138874425
 22
-0.3913340401
 32
0.0
 13
-0.3915127388
 23
0.0072778726
 33
0.0
 40
0.0
 40
0.0
 40
0.0
 40
0.0
 40
0.0651292117
 40
0.1310725858
 40
0.1980250893
 40
0.2662159239
 40
0.3359102057
 40
0.4074132702
 40
0.481081761
 40
0.5573380485
 40
0.6366905563
 40
0.7197615706
 40
0.8073206808
 40
0.9003311696
 40
1.0
 40
1.0
 40
1.0
 40
1.0
 10
59.4800333379
 20
-22.2579913809
 30
0.0
 10
59.4797318452
 20
-22.2664871401
 30
0.0
 10
59.4781897605
 20
-22.2835659583
 30
0.0
 10
59.4730743656
 20
-22.3089518813
 30
0.0
 10
59.4651052703
 20
-22.3340155401
 30
0.0
 10
59.4542452602
 20
-22.35850609
 30
0.0
 10
59.4404542138
 20
-22.3821671226
 30
0.0
 10
59.4236865143
 20
-22.4047219082
 30
0.0
 10
59.4038888677
 20
-22.4258651456
 30
0.0
 10
59.3809989209
 20
-22.4452495059
 30
0.0
 10
59.3549449707
 20
-22.4624680199
 30
0.0
 10
59.3256501694
 20
-22.4770291334
 30
0.0
 10
59.293037937
 20
-22.4883217485
 30
0.0
 10
59.2570716151
 20
-22.4955667974
 30
0.0
 10
59.231850346
 20
-22.4969668233
 30
0.0
 10
59.2188431404
 20
-22.4967250309
 30
0.0
 11
59.4800333379
 21
-22.2579913809
 31
0.0
 11
59.4777441005
 21
-22.2833917508
 31
0.0
 11
59.4726489418
 21
-22.3087062095
 31
0.0
 11
59.4647102884
 21
-22.3336926839
 31
0.0
 11
59.4538917593
 21
-22.3581051095
 31
0.0
 11
59.4401545362
 21
-22.3816865141
 31
0.0
 11
59.4234550322
 21
-22.4041605346
 31
0.0
 11
59.4037428279
 21
-22.4252220214
 31
0.0
 11
59.3809596231
 21
-22.4445241715
 31
0.0
 11
59.3550396193
 21
-22.4616611953
 31
0.0
 11
59.3259127433
 21
-22.4761442743
 31
0.0
 11
59.2935151688
 21
-22.4873673045
 31
0.0
 11
59.257811409
 21
-22.4945601328
 31
0.0
 11
59.2188431404
 21
-22.4967250309
 31
0.0
  0
SPLINE
  5
575
100
AcDbEntity
  8
RACCORDO
100
AcDbSpline
 62
253
  6
CONTINUOUS
 70
0
 71
3
 72
19
 73
15
 74
13
 42
0.0000001
 43
0.0000001
 44
0.0000000001
 12
-0.0011970217
 22
0.389039856
 32
0.0
 13
-0.3890399643
 23
0.0011612812
 33
0.0
 40
0.0
 40
0.0
 40
0.0
 40
0.0
 40
0.0826431981
 40
0.1653615879
 40
0.2481915298
 40
0.3311616827
 40
0.4142910691
 40
0.4975878253
 40
0.5810487111
 40
0.6646593945
 40
0.7483954765
 40
0.8322241706
 40
0.9161065195
 40
1.0
 40
1.0
 40
1.0
 40
1.0
 10
59.3359928907
 20
17.420445859
 30
0.0
 10
59.3359599155
 20
17.431163025
 30
0.0
 10
59.3344679462
 20
17.4526298027
 30
0.0
 10
59.3279943637
 20
17.4842491134
 30
0.0
 10
59.317395419
 20
17.5147848667
 30
0.0
 10
59.3028526176
 20
17.5437088778
 30
0.0
 10
59.2846147115
 20
17.570530176
 30
0.0
 10
59.2629933401
 20
17.5947914397
 30
0.0
 10
59.2383576496
 20
17.6160799288
 30
0.0
 10
59.2111277039
 20
17.6340335581
 30
0.0
 10
59.1817681006
 20
17.6483471759
 30
0.0
 10
59.1507770234
 20
17.6587775878
 30
0.0
 10
59.1186891649
 20
17.6651475778
 30
0.0
 10
59.0969102725
 20
17.6666153226
 30
0.0
 10
59.0860309669
 20
17.6666477973
 30
0.0
 11
59.3359928907
 21
17.420445859
 31
0.0
 11
59.3337639761
 21
17.4525201563
 31
0.0
 11
59.327312599
 21
17.484047767
 31
0.0
 11
59.3167487189
 21
17.5144913217
 31
0.0
 11
59.3022523906
 21
17.5433319279
 31
0.0
 11
59.284070695
 21
17.5700780142
 31
0.0
 11
59.2625135282
 21
17.5942737093
 31
0.0
 11
59.2379483193
 21
17.6155066113
 31
0.0
 11
59.2107937676
 21
17.6334148176
 31
0.0
 11
59.1815127066
 21
17.6476930931
 31
0.0
 11
59.1506042147
 21
17.6580980728
 31
0.0
 11
59.1185951093
 21
17.6644524095
 31
0.0
 11
59.0860309669
 21
17.6666477973
 31
0.0
  0
SPLINE
  5
576
100
AcDbEntity
  8
RACCORDO
100
AcDbSpline
 62
253
  6
CONTINUOUS
 70
0
 71
3
 72
23
 73
19
 74
17
 42
0.0000001
 43
0.0000001
 44
0.0000000001
 12
-0.0700000742
 22
-0.9428891632
 32
0.0
 13
-0.000488812
 23
-0.9454838685
 33
0.0
 40
0.0
 40
0.0
 40
0.0
 40
0.0
 40
0.0193342359
 40
0.0460049196
 40
0.0798260927
 40
0.1205556898
 40
0.1679023771
 40
0.2215268417
 40
0.2810435695
 40
0.3460248286
 40
0.4160040148
 40
0.4904786776
 40
0.5689135904
 40
0.6507444569
 40
0.7353838449
 40
0.8222247059
 40
0.9106403026
 40
1.0
 40
1.0
 40
1.0
 40
1.0
 10
59.0860309669
 20
17.6666477973
 30
0.0
 10
59.0855798343
 20
17.6605711168
 30
0.0
 10
59.0847834784
 20
17.6460922051
 30
0.0
 10
59.0837613991
 20
17.6209549349
 30
0.0
 10
59.0827618232
 20
17.5890689991
 30
0.0
 10
59.0817913452
 20
17.550663812
 30
0.0
 10
59.080862978
 20
17.5060147261
 30
0.0
 10
59.0799842179
 20
17.455442719
 30
0.0
 10
59.0791627199
 20
17.3993113607
 30
0.0
 10
59.0784049297
 20
17.3380243172
 30
0.0
 10
59.0777167378
 20
17.2720220213
 30
0.0
 10
59.0771033611
 20
17.2017787506
 30
0.0
 10
59.0765694081
 20
17.1277995416
 30
0.0
 10
59.0761188527
 20
17.0506161953
 30
0.0
 10
59.0757550295
 20
16.9707831355
 30
0.0
 10
59.0754806247
 20
16.8888744551
 30
0.0
 10
59.0752976467
 20
16.8054778589
 30
0.0
 10
59.075237698
 20
16.7494499788
 30
0.0
 10
59.0752231379
 20
16.7212872613
 30
0.0
 11
59.0860309669
 21
17.6666477973
 31
0.0
 11
59.0849470908
 21
17.6483997477
 31
0.0
 11
59.0838873912
 21
17.6232053193
 31
0.0
 11
59.0828594079
 21
17.5912444691
 31
0.0
 11
59.0818705805
 21
17.5527479845
 31
0.0
 11
59.0809279974
 21
17.5079923739
 31
0.0
 11
59.0800384297
 21
17.4572991055
 31
0.0
 11
59.0792082779
 21
17.4010331156
 31
0.0
 11
59.0784435087
 21
17.3395991352
 31
0.0
 11
59.0777496128
 21
17.2734385733
 31
0.0
 11
59.0771315721
 21
17.203026684
 31
0.0
 11
59.0765938285
 21
17.128869679
 31
0.0
 11
59.0761402482
 21
17.051501234
 31
0.0
 11
59.075774085
 21
16.9714768851
 31
0.0
 11
59.0754979651
 21
16.8893707052
 31
0.0
 11
59.0753138778
 21
16.8057753762
 31
0.0
 11
59.0752231379
 21
16.7212872613
 31
0.0
  0
SPLINE
  5
577
100
AcDbEntity
  8
RACCORDO
100
AcDbSpline
 62
253
  6
CONTINUOUS
 70
0
 71
3
 72
23
 73
19
 74
17
 42
0.0000001
 43
0.0000001
 44
0.0000000001
 12
-0.0698586154
 22
-0.7057358495
 32
0.0
 13
-0.0004888256
 23
-0.7091847971
 33
0.0
 40
0.0
 40
0.0
 40
0.0
 40
0.0
 40
0.0193522189
 40
0.0460378732
 40
0.0798692254
 40
0.1206059423
 40
0.1679575549
 40
0.221585325
 40
0.2811040999
 40
0.3460862197
 40
0.4160651857
 40
0.4905386588
 40
0.5689715011
 40
0.6507994965
 40
0.7354352772
 40
0.8222718812
 40
0.9106826073
 40
1.0
 40
1.0
 40
1.0
 40
1.0
 10
59.3359928907
 20
17.420445859
 30
0.0
 10
59.335542251
 20
17.4158933408
 30
0.0
 10
59.334745835
 20
17.4050369741
 30
0.0
 10
59.3337236954
 20
17.3861840469
 30
0.0
 10
59.3327239829
 20
17.3622683816
 30
0.0
 10
59.3317534334
 20
17.3334634156
 30
0.0
 10
59.3308250004
 20
17.2999751215
 30
0.0
 10
59.3299461853
 20
17.2620442505
 30
0.0
 10
59.3291246403
 20
17.2199434614
 30
0.0
 10
59.3283668119
 20
17.1739755855
 30
0.0
 10
59.327678591
 20
17.1244710409
 30
0.0
 10
59.3270651949
 20
17.0717856084
 30
0.0
 10
59.3265312314
 20
17.0162981286
 30
0.0
 10
59.3260806755
 20
16.9584075185
 30
0.0
 10
59.3257168594
 20
16.898529656
 30
0.0
 10
59.3254424723
 20
16.8370951782
 30
0.0
 10
59.3252595442
 20
16.7745536482
 30
0.0
 10
59.3251996153
 20
16.7325396361
 30
0.0
 10
59.3251850617
 20
16.7114254571
 30
0.0
 11
59.3359928907
 21
17.420445859
 31
0.0
 11
59.3349093158
 21
17.4067643989
 31
0.0
 11
59.3338495552
 21
17.3878690295
 31
0.0
 11
59.3328215215
 21
17.3638983778
 31
0.0
 11
59.3318326395
 21
17.33502544
 31
0.0
 11
59.3308900054
 21
17.3014576209
 31
0.0
 11
59.330000389
 21
17.2634360186
 31
0.0
 11
59.3291701932
 21
17.2212343634
 31
0.0
 11
59.3284053877
 21
17.1751563677
 31
0.0
 11
59.327711464
 21
17.1255331887
 31
0.0
 11
59.3270934047
 21
17.0727213378
 31
0.0
 11
59.3265556514
 21
17.0171005447
 31
0.0
 11
59.3261020706
 21
16.9590711333
 31
0.0
 11
59.3257359154
 21
16.8990498269
 31
0.0
 11
59.3254598129
 21
16.8374672318
 31
0.0
 11
59.3252757503
 21
16.7747679442
 31
0.0
 11
59.3251850617
 21
16.7114254571
 31
0.0
  0
SPLINE
  5
578
100
AcDbEntity
  8
RACCORDO
100
AcDbSpline
 62
253
  6
CONTINUOUS
 70
0
 71
3
 72
19
 73
15
 74
13
 42
0.0000001
 43
0.0000001
 44
0.0000000001
 12
-0.1012985839
 22
0.229175786
 32
0.0
 13
-0.2505651897
 23
0.0001723933
 33
0.0
 40
0.0
 40
0.0
 40
0.0
 40
0.0
 40
0.0117481096
 40
0.0393125153
 40
0.0827512818
 40
0.1414392926
 40
0.2144328825
 40
0.3005299988
 40
0.3983015925
 40
0.5061195145
 40
0.6221854808
 40
0.7445620207
 40
0.8712053759
 40
1.0
 40
1.0
 40
1.0
 40
1.0
 10
59.3251850617
 20
16.7114254571
 30
0.0
 10
59.3247883728
 20
16.7123229178
 30
0.0
 10
59.3208655874
 20
16.7129489689
 30
0.0
 10
59.3146630051
 20
16.7143037588
 30
0.0
 10
59.3035585934
 20
16.7152962611
 30
0.0
 10
59.289110652
 20
16.7164530524
 30
0.0
 10
59.270898691
 20
16.7174654686
 30
0.0
 10
59.2494831064
 20
16.7184163294
 30
0.0
 10
59.2251291529
 20
16.7192477482
 30
0.0
 10
59.1982748146
 20
16.7199566585
 30
0.0
 10
59.1693594237
 20
16.7205259697
 30
0.0
 10
59.1388697093
 20
16.720946717
 30
0.0
 10
59.1073149034
 20
16.7212110836
 30
0.0
 10
59.0859802877
 20
16.7212798602
 30
0.0
 10
59.0752231379
 20
16.7212872613
 30
0.0
 11
59.3251850617
 21
16.7114254571
 31
0.0
 11
59.3225309843
 21
16.7126986635
 31
0.0
 11
59.3157387093
 21
16.7139505653
 31
0.0
 11
59.3049218915
 21
16.7151602146
 31
0.0
 11
59.2902615288
 21
16.7163073702
 31
0.0
 11
59.2720029326
 21
16.7173728369
 31
0.0
 11
59.2504516237
 21
16.7183387861
 31
0.0
 11
59.2259682198
 21
16.7191890548
 31
0.0
 11
59.1989624012
 21
16.7199094153
 31
0.0
 11
59.1698860557
 21
16.7204878139
 31
0.0
 11
59.1392257174
 21
16.7209145723
 31
0.0
 11
59.1074944251
 21
16.7211825494
 31
0.0
 11
59.0752231379
 21
16.7212872613
 31
0.0
  0
SPLINE
  5
579
100
AcDbEntity
  8
RACCORDO
100
AcDbSpline
 62
253
  6
CONTINUOUS
 70
0
 71
3
 72
15
 73
11
 74
9
 42
0.0000001
 43
0.0000001
 44
0.0000000001
 12
-0.0230916843
 22
-33.530129162
 32
0.0
 13
0.0230916844
 23
-33.530129162
 33
0.0
 40
0.0
 40
0.0
 40
0.0
 40
0.0
 40
0.1249574409
 40
0.2499513596
 40
0.3749695996
 40
0.5
 40
0.6250304004
 40
0.7500486404
 40
0.8750425591
 40
1.0
 40
1.0
 40
1.0
 40
1.0
 10
59.0752231379
 20
16.7212872613
 30
0.0
 10
59.074261312
 20
15.3246742165
 30
0.0
 10
59.0725781572
 20
12.5310402537
 30
0.0
 10
59.0707749236
 20
8.3401132598
 30
0.0
 10
59.0696929131
 20
4.1483705689
 30
0.0
 10
59.0693322313
 20
-0.0437799917
 30
0.0
 10
59.0696929131
 20
-4.2359305524
 30
0.0
 10
59.0707749236
 20
-8.4276732432
 30
0.0
 10
59.0725781572
 20
-12.6186002371
 30
0.0
 10
59.074261312
 20
-15.4122341999
 30
0.0
 10
59.0752231379
 20
-16.8088472447
 30
0.0
 11
59.0752231379
 21
16.7212872613
 31
0.0
 11
59.0726986516
 21
12.5314478937
 31
0.0
 11
59.0708952717
 21
8.3403850494
 31
0.0
 11
59.0698131736
 21
4.148506463
 31
0.0
 11
59.0694524625
 21
-0.0437799917
 31
0.0
 11
59.0698131736
 21
-4.2360664465
 31
0.0
 11
59.0708952717
 21
-8.4279450329
 31
0.0
 11
59.0726986516
 21
-12.6190078772
 31
0.0
 11
59.0752231379
 21
-16.8088472447
 31
0.0
  0
SPLINE
  5
57A
100
AcDbEntity
  8
RACCORDO
100
AcDbSpline
 62
253
  6
CONTINUOUS
 70
0
 71
3
 72
15
 73
11
 74
9
 42
0.0000001
 43
0.0000001
 44
0.0000000001
 12
-0.0230916843
 22
-33.5104055503
 32
0.0
 13
0.0230916844
 23
-33.5104055503
 33
0.0
 40
0.0
 40
0.0
 40
0.0
 40
0.0
 40
0.124957426
 40
0.2499513488
 40
0.3749695927
 40
0.4999999972
 40
0.6250304017
 40
0.7500486456
 40
0.8750425684
 40
1.0
 40
1.0
 40
1.0
 40
1.0
 10
59.3251850617
 20
16.7114254571
 30
0.0
 10
59.3242232359
 20
15.3156341161
 30
0.0
 10
59.3225400811
 20
12.5236435892
 30
0.0
 10
59.3207368475
 20
8.3351819229
 30
0.0
 10
59.319654837
 20
4.1459048277
 30
0.0
 10
59.3192941551
 20
-0.0437798977
 30
0.0
 10
59.3196548369
 20
-4.2334646232
 30
0.0
 10
59.3207368474
 20
-8.4227417187
 30
0.0
 10
59.3225400811
 20
-12.6112034476
 30
0.0
 10
59.3242232359
 20
-15.403194037
 30
0.0
 10
59.3251850617
 20
-16.7989854404
 30
0.0
 11
59.3251850617
 21
16.7114254571
 31
0.0
 11
59.3226605756
 21
12.5240512009
 31
0.0
 11
59.3208571956
 21
8.3354535526
 31
0.0
 11
59.3197750974
 21
4.1460406418
 31
0.0
 11
59.3194143863
 21
-0.0437798977
 31
0.0
 11
59.3197750974
 21
-4.2336004373
 31
0.0
 11
59.3208571955
 21
-8.4230133484
 31
0.0
 11
59.3226605755
 21
-12.6116109969
 31
0.0
 11
59.3251850617
 21
-16.7989854404
 31
0.0
  0
SPLINE
  5
57B
100
AcDbEntity
  8
RACCORDO
100
AcDbSpline
 62
253
  6
CONTINUOUS
 70
0
 71
3
 72
19
 73
15
 74
13
 42
0.0000001
 43
0.0000001
 44
0.0000000001
 12
-0.1012995785
 22
-0.2291753454
 32
0.0
 13
-0.2505651887
 23
-0.0001723931
 33
0.0
 40
0.0
 40
0.0
 40
0.0
 40
0.0
 40
0.0117481308
 40
0.0393125553
 40
0.082751336
 40
0.1414393561
 40
0.2144329505
 40
0.3005300668
 40
0.3983016563
 40
0.5061195703
 40
0.6221855256
 40
0.7445620519
 40
0.871205392
 40
1.0
 40
1.0
 40
1.0
 40
1.0
 10
59.3251850617
 20
-16.7989854404
 30
0.0
 10
59.3247883682
 20
-16.7998829011
 30
0.0
 10
59.3208655844
 20
-16.8005089513
 30
0.0
 10
59.3146629929
 20
-16.8018637417
 30
0.0
 10
59.3035585802
 20
-16.8028562436
 30
0.0
 10
59.2891106355
 20
-16.8040130348
 30
0.0
 10
59.2708986737
 20
-16.8050254507
 30
0.0
 10
59.249483089
 20
-16.8059763113
 30
0.0
 10
59.2251291367
 20
-16.8068077299
 30
0.0
 10
59.1982748004
 20
-16.8075166401
 30
0.0
 10
59.1693594124
 20
-16.808085951
 30
0.0
 10
59.1388697013
 20
-16.8085066983
 30
0.0
 10
59.1073148993
 20
-16.8087710648
 30
0.0
 10
59.0859802863
 20
-16.8088398413
 30
0.0
 10
59.0752231379
 20
-16.8088472424
 30
0.0
 11
59.3251850617
 21
-16.7989854404
 31
0.0
 11
59.3225309783
 21
-16.8002586466
 31
0.0
 11
59.3157386985
 21
-16.8015105482
 31
0.0
 11
59.3049218772
 21
-16.8027201973
 31
0.0
 11
59.2902615122
 21
-16.8038673526
 31
0.0
 11
59.2720029149
 21
-16.8049328191
 31
0.0
 11
59.2504516061
 21
-16.8058987681
 31
0.0
 11
59.2259682033
 21
-16.8067490365
 31
0.0
 11
59.1989623867
 21
-16.8074693968
 31
0.0
 11
59.1698860441
 21
-16.8080477953
 31
0.0
 11
59.1392257093
 21
-16.8084745535
 31
0.0
 11
59.1074944209
 21
-16.8087425306
 31
0.0
 11
59.0752231379
 21
-16.8088472424
 31
0.0
  0
SPLINE
  5
57C
100
AcDbEntity
  8
RACCORDO
100
AcDbSpline
 62
253
  6
CONTINUOUS
 70
0
 71
3
 72
23
 73
19
 74
17
 42
0.0000001
 43
0.0000001
 44
0.0000000001
 12
0.0004887806
 22
-0.9454838684
 32
0.0
 13
0.0700009921
 23
-0.942889095
 33
0.0
 40
0.0
 40
0.0
 40
0.0
 40
0.0
 40
0.0893598524
 40
0.1777754134
 40
0.2646162714
 40
0.3492556695
 40
0.4310865126
 40
0.5095214133
 40
0.5839960823
 40
0.6539752694
 40
0.7189565156
 40
0.7784732279
 40
0.8320976907
 40
0.8794443809
 40
0.920173962
 40
0.9539951251
 40
0.9806658063
 40
1.0
 40
1.0
 40
1.0
 40
1.0
 10
59.0752231379
 20
-16.8088472447
 30
0.0
 10
59.075237697
 20
-16.837010011
 30
0.0
 10
59.0752976479
 20
-16.8930379287
 30
0.0
 10
59.0754806242
 20
-16.9764345616
 30
0.0
 10
59.0757550305
 20
-17.0583432329
 30
0.0
 10
59.0761188535
 20
-17.1381762876
 30
0.0
 10
59.0765694095
 20
-17.2153596258
 30
0.0
 10
59.0771033628
 20
-17.2893388256
 30
0.0
 10
59.07771674
 20
-17.3595820947
 30
0.0
 10
59.0784049323
 20
-17.4255843888
 30
0.0
 10
59.0791627228
 20
-17.4868714237
 30
0.0
 10
59.0799842207
 20
-17.5430027724
 30
0.0
 10
59.0808629811
 20
-17.5935747749
 30
0.0
 10
59.0817913477
 20
-17.6382238562
 30
0.0
 10
59.0827618273
 20
-17.676629036
 30
0.0
 10
59.0837613994
 20
-17.708514963
 30
0.0
 10
59.0847834863
 20
-17.7336522154
 30
0.0
 10
59.0855798293
 20
-17.7481311139
 30
0.0
 10
59.0860309669
 20
-17.7542077807
 30
0.0
 11
59.0752231379
 21
-16.8088472447
 31
0.0
 11
59.0753138783
 21
-16.8933355062
 31
0.0
 11
59.0754979651
 21
-16.9769308013
 31
0.0
 11
59.0757740857
 21
-17.0590369783
 31
0.0
 11
59.0761402491
 21
-17.1390613368
 31
0.0
 11
59.0765938298
 21
-17.2164297597
 31
0.0
 11
59.0771315738
 21
-17.2905867533
 31
0.0
 11
59.077749615
 21
-17.3609986484
 31
0.0
 11
59.0784435114
 21
-17.4271592112
 31
0.0
 11
59.0792082807
 21
-17.4885931794
 31
0.0
 11
59.0800384325
 21
-17.5448591545
 31
0.0
 11
59.0809280003
 21
-17.5955524214
 31
0.0
 11
59.0818705836
 21
-17.6403080346
 31
0.0
 11
59.0828594109
 21
-17.6788045041
 31
0.0
 11
59.0838873938
 21
-17.7107653448
 31
0.0
 11
59.0849470944
 21
-17.7359597709
 31
0.0
 11
59.0860309669
 21
-17.7542077807
 31
0.0
  0
SPLINE
  5
57D
100
AcDbEntity
  8
RACCORDO
100
AcDbSpline
 62
253
  6
CONTINUOUS
 70
0
 71
3
 72
23
 73
19
 74
17
 42
0.0000001
 43
0.0000001
 44
0.0000000001
 12
0.0004888139
 22
-0.7091847972
 32
0.0
 13
0.0698582329
 23
-0.7057358874
 33
0.0
 40
0.0
 40
0.0
 40
0.0
 40
0.0
 40
0.0893259703
 40
0.1777369282
 40
0.2645737278
 40
0.3492096525
 40
0.4310376786
 40
0.5094704789
 40
0.583943813
 40
0.6539223209
 40
0.7189036535
 40
0.7784214314
 40
0.8320482227
 40
0.8793988891
 40
0.9201346845
 40
0.9539651469
 40
0.9806500075
 40
1.0
 40
1.0
 40
1.0
 40
1.0
 10
59.3251850617
 20
-16.7989854404
 30
0.0
 10
59.3251996163
 20
-16.8201016472
 30
0.0
 10
59.3252595519
 20
-16.8621177418
 30
0.0
 10
59.3254424946
 20
-16.9246614005
 30
0.0
 10
59.3257168928
 20
-16.9860960133
 30
0.0
 10
59.3260807197
 20
-17.0459739633
 30
0.0
 10
59.3265312875
 20
-17.1038646047
 30
0.0
 10
59.3270652631
 20
-17.1593520488
 30
0.0
 10
59.3276786711
 20
-17.2120373301
 30
0.0
 10
59.3283669024
 20
-17.2615415473
 30
0.0
 10
59.3291247382
 20
-17.307508893
 30
0.0
 10
59.3299462876
 20
-17.3496090288
 30
0.0
 10
59.3308251045
 20
-17.3875392088
 30
0.0
 10
59.331753539
 20
-17.4210268296
 30
0.0
 10
59.3327240865
 20
-17.4498311435
 30
0.0
 10
59.333723801
 20
-17.4737461923
 30
0.0
 10
59.334745912
 20
-17.4925981958
 30
0.0
 10
59.3355423053
 20
-17.5034538477
 30
0.0
 10
59.3359928907
 20
-17.5080058424
 30
0.0
 11
59.3251850617
 21
-16.7989854404
 31
0.0
 11
59.3252757636
 21
-16.8623340107
 31
0.0
 11
59.3254598357
 21
-16.9250334626
 31
0.0
 11
59.325735949
 21
-16.9866161964
 31
0.0
 11
59.3261021155
 21
-17.0466376048
 31
0.0
 11
59.326555708
 21
-17.104667038
 31
0.0
 11
59.3270934737
 21
-17.1602878011
 31
0.0
 11
59.3277115457
 21
-17.2130995534
 31
0.0
 11
59.32840548
 21
-17.2627224073
 31
0.0
 11
59.3291702926
 21
-17.3087998445
 31
0.0
 11
59.3300004918
 21
-17.3510007926
 31
0.0
 11
59.3308901104
 21
-17.3890217004
 31
0.0
 11
59.3318327457
 21
-17.4225888482
 31
0.0
 11
59.3328216276
 21
-17.4514611321
 31
0.0
 11
59.3338496603
 21
-17.4754311523
 31
0.0
 11
59.3349094193
 21
-17.494325958
 31
0.0
 11
59.3359928907
 21
-17.5080058424
 31
0.0
  0
SPLINE
  5
57E
100
AcDbEntity
  8
RACCORDO
100
AcDbSpline
 62
253
  6
CONTINUOUS
 70
0
 71
3
 72
19
 73
15
 74
13
 42
0.0000001
 43
0.0000001
 44
0.0000000001
 12
-0.0011970217
 22
-0.389039856
 32
0.0
 13
-0.3890399643
 23
-0.0011612811
 33
0.0
 40
0.0
 40
0.0
 40
0.0
 40
0.0
 40
0.0826432099
 40
0.1653616092
 40
0.2481915581
 40
0.3311617156
 40
0.4142911043
 40
0.4975878605
 40
0.5810487441
 40
0.6646594235
 40
0.7483954997
 40
0.8322241868
 40
0.9161065278
 40
1.0
 40
1.0
 40
1.0
 40
1.0
 10
59.3359928907
 20
-17.5080058424
 30
0.0
 10
59.3359599155
 20
-17.5187230099
 30
0.0
 10
59.3344679458
 20
-17.5401897904
 30
0.0
 10
59.3279943617
 20
-17.5718091045
 30
0.0
 10
59.3173954149
 20
-17.60234486
 30
0.0
 10
59.3028526113
 20
-17.6312688721
 30
0.0
 10
59.2846147033
 20
-17.65809017
 30
0.0
 10
59.2629933305
 20
-17.6823514325
 30
0.0
 10
59.2383576395
 20
-17.7036399197
 30
0.0
 10
59.2111276942
 20
-17.7215935469
 30
0.0
 10
59.1817680923
 20
-17.7359071625
 30
0.0
 10
59.1507770173
 20
-17.7463375727
 30
0.0
 10
59.1186891617
 20
-17.7527075615
 30
0.0
 10
59.0969102714
 20
-17.754175306
 30
0.0
 10
59.0860309669
 20
-17.7542077807
 30
0.0
 11
59.3359928907
 21
-17.5080058424
 31
0.0
 11
59.3337639755
 21
-17.5400801442
 31
0.0
 11
59.3273125968
 21
-17.5716077583
 31
0.0
 11
59.3167487146
 21
-17.6020513152
 31
0.0
 11
59.3022523841
 21
-17.6308919223
 31
0.0
 11
59.2840706866
 21
-17.6576380084
 31
0.0
 11
59.2625135185
 21
-17.6818337022
 31
0.0
 11
59.237948309
 21
-17.7030666024
 31
0.0
 11
59.2107937578
 21
-17.7209748066
 31
0.0
 11
59.1815126982
 21
-17.73525308
 31
0.0
 11
59.1506042086
 21
-17.7456580578
 31
0.0
 11
59.1185951061
 21
-17.7520123933
 31
0.0
 11
59.0860309669
 21
-17.7542077807
 31
0.0
  0
SPLINE
  5
57F
100
AcDbEntity
  8
RACCORDO
100
AcDbSpline
 62
253
  6
CONTINUOUS
 70
0
 71
3
 72
19
 73
15
 74
13
 42
0.0000001
 43
0.0000001
 44
0.0000000001
 12
0.0011970217
 22
0.389039856
 32
0.0
 13
0.3890399643
 23
0.0011612811
 33
0.0
 40
0.0
 40
0.0
 40
0.0
 40
0.0
 40
0.0826432099
 40
0.1653616092
 40
0.2481915581
 40
0.3311617156
 40
0.4142911043
 40
0.4975878605
 40
0.5810487441
 40
0.6646594235
 40
0.7483954997
 40
0.8322241868
 40
0.9161065278
 40
1.0
 40
1.0
 40
1.0
 40
1.0
 10
9.8957271592
 20
17.420445859
 30
0.0
 10
9.8957601344
 20
17.4311630265
 30
0.0
 10
9.8972521041
 20
17.452629807
 30
0.0
 10
9.9037256882
 20
17.4842491211
 30
0.0
 10
9.914324635
 20
17.5147848767
 30
0.0
 10
9.9288674386
 20
17.5437088887
 30
0.0
 10
9.9471053466
 20
17.5705301866
 30
0.0
 10
9.9687267194
 20
17.5947914491
 30
0.0
 10
9.9933624104
 20
17.6160799364
 30
0.0
 10
10.0205923556
 20
17.6340335635
 30
0.0
 10
10.0499519575
 20
17.6483471792
 30
0.0
 10
10.0809430326
 20
17.6587775893
 30
0.0
 10
10.1130308882
 20
17.6651475781
 30
0.0
 10
10.1348097785
 20
17.6666153226
 30
0.0
 10
10.145689083
 20
17.6666477973
 30
0.0
 11
9.8957271592
 21
17.420445859
 31
0.0
 11
9.8979560744
 21
17.4525201608
 31
0.0
 11
9.9044074531
 21
17.484047775
 31
0.0
 11
9.9149713353
 21
17.5144913318
 31
0.0
 11
9.9294676658
 21
17.5433319389
 31
0.0
 11
9.9476493633
 21
17.5700780251
 31
0.0
 11
9.9692065314
 21
17.5942737189
 31
0.0
 11
9.9937717409
 21
17.615506619
 31
0.0
 11
10.0209262921
 21
17.6334148232
 31
0.0
 11
10.0502073517
 21
17.6476930966
 31
0.0
 11
10.0811158413
 21
17.6580980744
 31
0.0
 11
10.1131249438
 21
17.6644524099
 31
0.0
 11
10.145689083
 21
17.6666477973
 31
0.0
  0
SPLINE
  5
580
100
AcDbEntity
  8
RACCORDO
100
AcDbSpline
 62
253
  6
CONTINUOUS
 70
0
 71
3
 72
19
 73
15
 74
13
 42
0.0000001
 43
0.0000001
 44
0.0000000001
 12
0.1013001648
 22
0.2291750856
 32
0.0
 13
0.2505651882
 23
0.0001723931
 33
0.0
 40
0.0
 40
0.0
 40
0.0
 40
0.0
 40
0.0117481433
 40
0.0393125788
 40
0.0827513678
 40
0.1414393933
 40
0.2144329905
 40
0.3005301068
 40
0.3983016937
 40
0.5061196031
 40
0.6221855519
 40
0.7445620703
 40
0.8712054015
 40
1.0
 40
1.0
 40
1.0
 40
1.0
 10
9.9065349882
 20
16.7114254571
 30
0.0
 10
9.9069316845
 20
16.7123229177
 30
0.0
 10
9.9108544672
 20
16.7129489673
 30
0.0
 10
9.9170570641
 20
16.714303758
 30
0.0
 10
9.9281614774
 20
16.7152962597
 30
0.0
 10
9.9426094242
 20
16.7164530508
 30
0.0
 10
9.9608213863
 20
16.7174654666
 30
0.0
 10
9.9822369711
 20
16.718416327
 30
0.0
 10
10.0065909227
 20
16.7192477454
 30
0.0
 10
10.0334452578
 20
16.7199566555
 30
0.0
 10
10.0623606442
 20
16.7205259664
 30
0.0
 10
10.0928503532
 20
16.7209467135
 30
0.0
 10
10.124405153
 20
16.7212110799
 30
0.0
 10
10.1457397644
 20
16.7212798565
 30
0.0
 10
10.156496912
 20
16.7212872576
 30
0.0
 11
9.9065349882
 21
16.7114254571
 31
0.0
 11
9.9091890751
 21
16.7126986631
 31
0.0
 11
9.9159813578
 21
16.7139505646
 31
0.0
 11
9.9267981811
 21
16.7151602134
 31
0.0
 11
9.9414585475
 21
16.7163073686
 31
0.0
 11
9.9597171455
 21
16.7173728349
 31
0.0
 11
9.9812684542
 21
16.7183387838
 31
0.0
 11
10.0057518564
 21
16.7191890521
 31
0.0
 11
10.0327576717
 21
16.7199094123
 31
0.0
 11
10.0618340125
 21
16.7204878106
 31
0.0
 11
10.0924943453
 21
16.7209145687
 31
0.0
 11
10.1242256314
 21
16.7211825458
 31
0.0
 11
10.156496912
 21
16.7212872576
 31
0.0
  0
SPLINE
  5
581
100
AcDbEntity
  8
RACCORDO
100
AcDbSpline
 62
253
  6
CONTINUOUS
 70
0
 71
3
 72
23
 73
19
 74
17
 42
0.0000001
 43
0.0000001
 44
0.0000000001
 12
-0.000488812
 22
0.9454838685
 32
0.0
 13
-0.0700000742
 23
0.9428891632
 33
0.0
 40
0.0
 40
0.0
 40
0.0
 40
0.0
 40
0.0893596974
 40
0.1777752941
 40
0.2646161551
 40
0.3492555431
 40
0.4310864096
 40
0.5095213224
 40
0.5839959852
 40
0.6539751714
 40
0.7189564305
 40
0.7784731583
 40
0.8320976229
 40
0.8794443102
 40
0.9201739073
 40
0.9539950804
 40
0.9806657641
 40
1.0
 40
1.0
 40
1.0
 40
1.0
 10
10.156496912
 20
16.7212872613
 30
0.0
 10
10.1564823519
 20
16.7494499788
 30
0.0
 10
10.1564224032
 20
16.8054778589
 30
0.0
 10
10.1562394252
 20
16.8888744551
 30
0.0
 10
10.1559650204
 20
16.9707831355
 30
0.0
 10
10.1556011972
 20
17.0506161953
 30
0.0
 10
10.1551506418
 20
17.1277995416
 30
0.0
 10
10.1546166888
 20
17.2017787506
 30
0.0
 10
10.1540033121
 20
17.2720220213
 30
0.0
 10
10.1533151202
 20
17.3380243172
 30
0.0
 10
10.15255733
 20
17.3993113607
 30
0.0
 10
10.151735832
 20
17.455442719
 30
0.0
 10
10.1508570719
 20
17.5060147261
 30
0.0
 10
10.1499287047
 20
17.550663812
 30
0.0
 10
10.1489582267
 20
17.5890689991
 30
0.0
 10
10.1479586508
 20
17.6209549349
 30
0.0
 10
10.1469365715
 20
17.6460922051
 30
0.0
 10
10.1461402156
 20
17.6605711168
 30
0.0
 10
10.145689083
 20
17.6666477973
 30
0.0
 11
10.156496912
 21
16.7212872613
 31
0.0
 11
10.1564061721
 21
16.8057753762
 31
0.0
 11
10.1562220848
 21
16.8893707052
 31
0.0
 11
10.1559459649
 21
16.9714768851
 31
0.0
 11
10.1555798017
 21
17.051501234
 31
0.0
 11
10.1551262214
 21
17.128869679
 31
0.0
 11
10.1545884778
 21
17.203026684
 31
0.0
 11
10.1539704371
 21
17.2734385733
 31
0.0
 11
10.1532765412
 21
17.3395991352
 31
0.0
 11
10.152511772
 21
17.4010331156
 31
0.0
 11
10.1516816202
 21
17.4572991055
 31
0.0
 11
10.1507920525
 21
17.5079923739
 31
0.0
 11
10.1498494694
 21
17.5527479845
 31
0.0
 11
10.148860642
 21
17.5912444691
 31
0.0
 11
10.1478326587
 21
17.6232053193
 31
0.0
 11
10.1467729591
 21
17.6483997477
 31
0.0
 11
10.145689083
 21
17.6666477973
 31
0.0
  0
SPLINE
  5
582
100
AcDbEntity
  8
RACCORDO
100
AcDbSpline
 62
253
  6
CONTINUOUS
 70
0
 71
3
 72
23
 73
19
 74
17
 42
0.0000001
 43
0.0000001
 44
0.0000000001
 12
-0.0004888256
 22
0.7091847971
 32
0.0
 13
-0.0698586155
 23
0.7057358494
 33
0.0
 40
0.0
 40
0.0
 40
0.0
 40
0.0
 40
0.0893173927
 40
0.1777281188
 40
0.2645647228
 40
0.3492005035
 40
0.4310284989
 40
0.5094613412
 40
0.5839348143
 40
0.6539137803
 40
0.7188959001
 40
0.778414675
 40
0.8320424451
 40
0.8793940577
 40
0.9201307746
 40
0.9539621268
 40
0.9806477811
 40
1.0
 40
1.0
 40
1.0
 40
1.0
 10
9.9065349882
 20
16.7114254571
 30
0.0
 10
9.9065204346
 20
16.7325396361
 30
0.0
 10
9.9064605057
 20
16.7745536482
 30
0.0
 10
9.9062775776
 20
16.8370951782
 30
0.0
 10
9.9060031905
 20
16.898529656
 30
0.0
 10
9.9056393744
 20
16.9584075185
 30
0.0
 10
9.9051888185
 20
17.0162981286
 30
0.0
 10
9.904654855
 20
17.0717856084
 30
0.0
 10
9.9040414589
 20
17.1244710409
 30
0.0
 10
9.903353238
 20
17.1739755855
 30
0.0
 10
9.9025954096
 20
17.2199434614
 30
0.0
 10
9.9017738646
 20
17.2620442505
 30
0.0
 10
9.9008950495
 20
17.2999751215
 30
0.0
 10
9.8999666165
 20
17.3334634156
 30
0.0
 10
9.898996067
 20
17.3622683816
 30
0.0
 10
9.8979963545
 20
17.3861840469
 30
0.0
 10
9.8969742149
 20
17.4050369741
 30
0.0
 10
9.8961777989
 20
17.4158933408
 30
0.0
 10
9.8957271592
 20
17.420445859
 30
0.0
 11
9.9065349882
 21
16.7114254571
 31
0.0
 11
9.9064442996
 21
16.7747679442
 31
0.0
 11
9.906260237
 21
16.8374672318
 31
0.0
 11
9.9059841345
 21
16.8990498269
 31
0.0
 11
9.9056179793
 21
16.9590711333
 31
0.0
 11
9.9051643985
 21
17.0171005447
 31
0.0
 11
9.9046266452
 21
17.0727213378
 31
0.0
 11
9.9040085859
 21
17.1255331887
 31
0.0
 11
9.9033146622
 21
17.1751563677
 31
0.0
 11
9.9025498567
 21
17.2212343634
 31
0.0
 11
9.9017196609
 21
17.2634360186
 31
0.0
 11
9.9008300445
 21
17.3014576209
 31
0.0
 11
9.8998874104
 21
17.33502544
 31
0.0
 11
9.8988985284
 21
17.3638983778
 31
0.0
 11
9.8978704947
 21
17.3878690295
 31
0.0
 11
9.8968107341
 21
17.4067643989
 31
0.0
 11
9.8957271592
 21
17.420445859
 31
0.0
  0
SPLINE
  5
583
100
AcDbEntity
  8
RACCORDO
100
AcDbSpline
 62
253
  6
CONTINUOUS
 70
0
 71
3
 72
19
 73
15
 74
13
 42
0.0000001
 43
0.0000001
 44
0.0000000001
 12
0.1012985834
 22
-0.2291757862
 32
0.0
 13
0.2505651897
 23
-0.0001723933
 33
0.0
 40
0.0
 40
0.0
 40
0.0
 40
0.0
 40
0.0117481096
 40
0.0393125153
 40
0.0827512818
 40
0.1414392925
 40
0.2144328824
 40
0.3005299988
 40
0.3983015925
 40
0.5061195144
 40
0.6221854808
 40
0.7445620206
 40
0.8712053759
 40
1.0
 40
1.0
 40
1.0
 40
1.0
 10
9.9065349882
 20
-16.7989854404
 30
0.0
 10
9.9069316771
 20
-16.7998829012
 30
0.0
 10
9.9108544625
 20
-16.8005089522
 30
0.0
 10
9.9170570447
 20
-16.8018637422
 30
0.0
 10
9.9281614565
 20
-16.8028562444
 30
0.0
 10
9.9426093979
 20
-16.8040130358
 30
0.0
 10
9.9608213589
 20
-16.805025452
 30
0.0
 10
9.9822369435
 20
-16.8059763127
 30
0.0
 10
10.006590897
 20
-16.8068077316
 30
0.0
 10
10.0334452353
 20
-16.8075166419
 30
0.0
 10
10.0623606261
 20
-16.8080859531
 30
0.0
 10
10.0928503406
 20
-16.8085067004
 30
0.0
 10
10.1244051465
 20
-16.808771067
 30
0.0
 10
10.1457397622
 20
-16.8088398436
 30
0.0
 10
10.156496912
 20
-16.8088472447
 30
0.0
 11
9.9065349882
 21
-16.7989854404
 31
0.0
 11
9.9091890656
 21
-16.8002586468
 31
0.0
 11
9.9159813406
 21
-16.8015105487
 31
0.0
 11
9.9267981583
 21
-16.8027201979
 31
0.0
 11
9.9414585211
 21
-16.8038673536
 31
0.0
 11
9.9597171173
 21
-16.8049328202
 31
0.0
 11
9.9812684262
 21
-16.8058987695
 31
0.0
 11
10.0057518301
 21
-16.8067490381
 31
0.0
 11
10.0327576487
 21
-16.8074693987
 31
0.0
 11
10.0618339942
 21
-16.8080477973
 31
0.0
 11
10.0924943325
 21
-16.8084745556
 31
0.0
 11
10.1242256248
 21
-16.8087425328
 31
0.0
 11
10.156496912
 21
-16.8088472447
 31
0.0
  0
SPLINE
  5
584
100
AcDbEntity
  8
RACCORDO
100
AcDbSpline
 62
253
  6
CONTINUOUS
 70
0
 71
3
 72
15
 73
11
 74
9
 42
0.0000001
 43
0.0000001
 44
0.0000000001
 12
0.0230916844
 22
33.530129162
 32
0.0
 13
-0.0230916843
 23
33.530129162
 33
0.0
 40
0.0
 40
0.0
 40
0.0
 40
0.0
 40
0.1249574409
 40
0.2499513596
 40
0.3749695996
 40
0.5
 40
0.6250304004
 40
0.7500486404
 40
0.8750425591
 40
1.0
 40
1.0
 40
1.0
 40
1.0
 10
10.156496912
 20
-16.8088472447
 30
0.0
 10
10.1574587379
 20
-15.4122341999
 30
0.0
 10
10.1591418927
 20
-12.6186002371
 30
0.0
 10
10.1609451263
 20
-8.4276732432
 30
0.0
 10
10.1620271368
 20
-4.2359305524
 30
0.0
 10
10.1623878186
 20
-0.0437799917
 30
0.0
 10
10.1620271368
 20
4.1483705689
 30
0.0
 10
10.1609451263
 20
8.3401132598
 30
0.0
 10
10.1591418927
 20
12.5310402537
 30
0.0
 10
10.1574587379
 20
15.3246742165
 30
0.0
 10
10.156496912
 20
16.7212872613
 30
0.0
 11
10.156496912
 21
-16.8088472447
 31
0.0
 11
10.1590213983
 21
-12.6190078772
 31
0.0
 11
10.1608247782
 21
-8.4279450329
 31
0.0
 11
10.1619068763
 21
-4.2360664465
 31
0.0
 11
10.1622675874
 21
-0.0437799917
 31
0.0
 11
10.1619068763
 21
4.148506463
 31
0.0
 11
10.1608247782
 21
8.3403850494
 31
0.0
 11
10.1590213983
 21
12.5314478937
 31
0.0
 11
10.156496912
 21
16.7212872613
 31
0.0
  0
SPLINE
  5
585
100
AcDbEntity
  8
RACCORDO
100
AcDbSpline
 62
253
  6
CONTINUOUS
 70
0
 71
3
 72
15
 73
11
 74
9
 42
0.0000001
 43
0.0000001
 44
0.0000000001
 12
0.0230916844
 22
33.5104055503
 32
0.0
 13
-0.0230916843
 23
33.5104055503
 33
0.0
 40
0.0
 40
0.0
 40
0.0
 40
0.0
 40
0.1249574316
 40
0.2499513544
 40
0.3749695983
 40
0.5000000028
 40
0.6250304073
 40
0.7500486512
 40
0.875042574
 40
1.0
 40
1.0
 40
1.0
 40
1.0
 10
9.9065349882
 20
-16.7989854404
 30
0.0
 10
9.907496814
 20
-15.403194037
 30
0.0
 10
9.9091799688
 20
-12.6112034476
 30
0.0
 10
9.9109832025
 20
-8.4227417187
 30
0.0
 10
9.912065213
 20
-4.2334646232
 30
0.0
 10
9.9124258948
 20
-0.0437798977
 30
0.0
 10
9.9120652129
 20
4.1459048277
 30
0.0
 10
9.9109832024
 20
8.3351819229
 30
0.0
 10
9.9091799688
 20
12.5236435892
 30
0.0
 10
9.907496814
 20
15.3156341161
 30
0.0
 10
9.9065349882
 20
16.7114254571
 30
0.0
 11
9.9065349882
 21
-16.7989854404
 31
0.0
 11
9.9090594744
 21
-12.6116109969
 31
0.0
 11
9.9108628544
 21
-8.4230133484
 31
0.0
 11
9.9119449525
 21
-4.2336004373
 31
0.0
 11
9.9123056636
 21
-0.0437798977
 31
0.0
 11
9.9119449525
 21
4.1460406418
 31
0.0
 11
9.9108628543
 21
8.3354535526
 31
0.0
 11
9.9090594743
 21
12.5240512009
 31
0.0
 11
9.9065349882
 21
16.7114254571
 31
0.0
  0
SPLINE
  5
586
100
AcDbEntity
  8
RACCORDO
100
AcDbSpline
 62
253
  6
CONTINUOUS
 70
0
 71
3
 72
19
 73
15
 74
13
 42
0.0000001
 43
0.0000001
 44
0.0000000001
 12
0.0011970217
 22
-0.389039856
 32
0.0
 13
0.3890399643
 23
-0.0011612812
 33
0.0
 40
0.0
 40
0.0
 40
0.0
 40
0.0
 40
0.0826431902
 40
0.1653615736
 40
0.2481915104
 40
0.33116166
 40
0.4142910447
 40
0.4975878008
 40
0.5810486879
 40
0.6646593742
 40
0.7483954601
 40
0.8322241591
 40
0.9161065136
 40
1.0
 40
1.0
 40
1.0
 40
1.0
 10
9.8957271592
 20
-17.5080058424
 30
0.0
 10
9.8957601344
 20
-17.5187230073
 30
0.0
 10
9.8972521035
 20
-17.5401897832
 30
0.0
 10
9.9037256848
 20
-17.5718090915
 30
0.0
 10
9.9143246281
 20
-17.6023448433
 30
0.0
 10
9.9288674279
 20
-17.6312688537
 30
0.0
 10
9.9471053326
 20
-17.6580901519
 30
0.0
 10
9.9687267031
 20
-17.6823514164
 30
0.0
 10
9.9933623932
 20
-17.7036399068
 30
0.0
 10
10.0205923392
 20
-17.7215935376
 30
0.0
 10
10.0499519434
 20
-17.7359071569
 30
0.0
 10
10.0809430222
 20
-17.7463375701
 30
0.0
 10
10.1130308827
 20
-17.752707561
 30
0.0
 10
10.1348097767
 20
-17.754175306
 30
0.0
 10
10.145689083
 20
-17.7542077807
 30
0.0
 11
9.8957271592
 21
-17.5080058424
 31
0.0
 11
9.8979560733
 21
-17.5400801366
 31
0.0
 11
9.9044074494
 21
-17.5716077449
 31
0.0
 11
9.914971328
 21
-17.6020512981
 31
0.0
 11
9.9294676549
 21
-17.6308919036
 31
0.0
 11
9.9476493491
 21
-17.6576379901
 31
0.0
 11
9.9692065149
 21
-17.6818336859
 31
0.0
 11
9.9937717234
 21
-17.7030665892
 31
0.0
 11
10.0209262754
 21
-17.720974797
 31
0.0
 11
10.0502073374
 21
-17.7352530741
 31
0.0
 11
10.0811158309
 21
-17.745658055
 31
0.0
 11
10.1131249383
 21
-17.7520123926
 31
0.0
 11
10.145689083
 21
-17.7542077807
 31
0.0
  0
SPLINE
  5
587
100
AcDbEntity
  8
RACCORDO
100
AcDbSpline
 62
253
  6
CONTINUOUS
 70
0
 71
3
 72
23
 73
19
 74
17
 42
0.0000001
 43
0.0000001
 44
0.0000000001
 12
0.0700009922
 22
0.942889095
 32
0.0
 13
0.0004887806
 23
0.9454838684
 33
0.0
 40
0.0
 40
0.0
 40
0.0
 40
0.0
 40
0.0193341937
 40
0.0460048749
 40
0.079826038
 40
0.1205556191
 40
0.1679023093
 40
0.2215267721
 40
0.2810434844
 40
0.3460247306
 40
0.4160039177
 40
0.4904785867
 40
0.5689134874
 40
0.6507443305
 40
0.7353837286
 40
0.8222245866
 40
0.9106401476
 40
1.0
 40
1.0
 40
1.0
 40
1.0
 10
10.145689083
 20
-17.7542077807
 30
0.0
 10
10.1461402206
 20
-17.7481311139
 30
0.0
 10
10.1469365636
 20
-17.7336522154
 30
0.0
 10
10.1479586505
 20
-17.708514963
 30
0.0
 10
10.1489582226
 20
-17.676629036
 30
0.0
 10
10.1499287022
 20
-17.6382238562
 30
0.0
 10
10.1508570688
 20
-17.5935747749
 30
0.0
 10
10.1517358292
 20
-17.5430027724
 30
0.0
 10
10.1525573271
 20
-17.4868714237
 30
0.0
 10
10.1533151176
 20
-17.4255843888
 30
0.0
 10
10.1540033099
 20
-17.3595820947
 30
0.0
 10
10.1546166871
 20
-17.2893388256
 30
0.0
 10
10.1551506404
 20
-17.2153596258
 30
0.0
 10
10.1556011964
 20
-17.1381762876
 30
0.0
 10
10.1559650194
 20
-17.0583432329
 30
0.0
 10
10.1562394257
 20
-16.9764345616
 30
0.0
 10
10.156422402
 20
-16.8930379287
 30
0.0
 10
10.1564823528
 20
-16.837010011
 30
0.0
 10
10.156496912
 20
-16.8088472447
 30
0.0
 11
10.145689083
 21
-17.7542077807
 31
0.0
 11
10.1467729555
 21
-17.7359597709
 31
0.0
 11
10.1478326561
 21
-17.7107653448
 31
0.0
 11
10.148860639
 21
-17.6788045041
 31
0.0
 11
10.1498494663
 21
-17.6403080346
 31
0.0
 11
10.1507920496
 21
-17.5955524214
 31
0.0
 11
10.1516816174
 21
-17.5448591545
 31
0.0
 11
10.1525117692
 21
-17.4885931794
 31
0.0
 11
10.1532765385
 21
-17.4271592112
 31
0.0
 11
10.1539704349
 21
-17.3609986484
 31
0.0
 11
10.1545884761
 21
-17.2905867533
 31
0.0
 11
10.1551262201
 21
-17.2164297597
 31
0.0
 11
10.1555798008
 21
-17.1390613368
 31
0.0
 11
10.1559459642
 21
-17.0590369783
 31
0.0
 11
10.1562220848
 21
-16.9769308013
 31
0.0
 11
10.1564061716
 21
-16.8933355062
 31
0.0
 11
10.156496912
 21
-16.8088472447
 31
0.0
  0
SPLINE
  5
588
100
AcDbEntity
  8
RACCORDO
100
AcDbSpline
 62
253
  6
CONTINUOUS
 70
0
 71
3
 72
23
 73
19
 74
17
 42
0.0000001
 43
0.0000001
 44
0.0000000001
 12
0.0698582329
 22
0.7057358874
 32
0.0
 13
0.0004888139
 23
0.7091847972
 33
0.0
 40
0.0
 40
0.0
 40
0.0
 40
0.0
 40
0.0193499925
 40
0.0460348531
 40
0.0798653155
 40
0.1206011109
 40
0.1679517773
 40
0.2215785686
 40
0.2810963465
 40
0.3460776791
 40
0.416056187
 40
0.4905295211
 40
0.5689623214
 40
0.6507903475
 40
0.7354262722
 40
0.8222630718
 40
0.9106740297
 40
1.0
 40
1.0
 40
1.0
 40
1.0
 10
9.8957271592
 20
-17.5080058424
 30
0.0
 10
9.8961777446
 20
-17.5034538477
 30
0.0
 10
9.8969741379
 20
-17.4925981958
 30
0.0
 10
9.8979962489
 20
-17.4737461923
 30
0.0
 10
9.8989959634
 20
-17.4498311435
 30
0.0
 10
9.8999665109
 20
-17.4210268296
 30
0.0
 10
9.9008949454
 20
-17.3875392088
 30
0.0
 10
9.9017737623
 20
-17.3496090288
 30
0.0
 10
9.9025953117
 20
-17.307508893
 30
0.0
 10
9.9033531475
 20
-17.2615415473
 30
0.0
 10
9.9040413788
 20
-17.2120373301
 30
0.0
 10
9.9046547868
 20
-17.1593520488
 30
0.0
 10
9.9051887624
 20
-17.1038646047
 30
0.0
 10
9.9056393302
 20
-17.0459739633
 30
0.0
 10
9.9060031571
 20
-16.9860960133
 30
0.0
 10
9.9062775553
 20
-16.9246614005
 30
0.0
 10
9.906460498
 20
-16.8621177418
 30
0.0
 10
9.9065204336
 20
-16.8201016472
 30
0.0
 10
9.9065349882
 20
-16.7989854404
 30
0.0
 11
9.8957271592
 21
-17.5080058424
 31
0.0
 11
9.8968106306
 21
-17.494325958
 31
0.0
 11
9.8978703896
 21
-17.4754311523
 31
0.0
 11
9.8988984223
 21
-17.4514611321
 31
0.0
 11
9.8998873042
 21
-17.4225888482
 31
0.0
 11
9.9008299395
 21
-17.3890217004
 31
0.0
 11
9.9017195581
 21
-17.3510007926
 31
0.0
 11
9.9025497573
 21
-17.3087998445
 31
0.0
 11
9.9033145699
 21
-17.2627224073
 31
0.0
 11
9.9040085042
 21
-17.2130995534
 31
0.0
 11
9.9046265762
 21
-17.1602878011
 31
0.0
 11
9.9051643419
 21
-17.104667038
 31
0.0
 11
9.9056179344
 21
-17.0466376048
 31
0.0
 11
9.9059841009
 21
-16.9866161964
 31
0.0
 11
9.9062602142
 21
-16.9250334626
 31
0.0
 11
9.9064442863
 21
-16.8623340107
 31
0.0
 11
9.9065349882
 21
-16.7989854404
 31
0.0
  0
SPLINE
  5
589
100
AcDbEntity
  8
RACCORDO
100
AcDbSpline
 62
7
  6
CONTINUOUS
 70
0
 71
3
 72
15
 73
11
 74
9
 42
0.0000001
 43
0.0000001
 44
0.0000000001
 12
0.0
 22
0.2198589173
 32
0.0
 13
0.2198589173
 23
0.0
 33
0.0
 40
0.0
 40
0.0
 40
0.0
 40
0.0
 40
0.0575589834
 40
0.1314541169
 40
0.228554419
 40
0.3494381717
 40
0.491650864
 40
0.6510524414
 40
0.8224491764
 40
1.0
 40
1.0
 40
1.0
 40
1.0
 10
17.6158600249
 20
-23.5835702439
 30
0.0
 10
17.6158600249
 20
-23.5793519586
 30
0.0
 10
17.6194425896
 20
-23.5697369881
 30
0.0
 10
17.6320701733
 20
-23.5582898248
 30
0.0
 10
17.6509021745
 20
-23.547939968
 30
0.0
 10
17.6757944952
 20
-23.5389217302
 30
0.0
 10
17.705891164
 20
-23.5314845105
 30
0.0
 10
17.7401452807
 20
-23.5259481095
 30
0.0
 10
17.7772676417
 20
-23.5225318081
 30
0.0
 10
17.802847981
 20
-23.521766845
 30
0.0
 10
17.8158600249
 20
-23.521766845
 30
0.0
 11
17.6158600249
 21
-23.5835702439
 31
0.0
 11
17.6197029689
 21
-23.5715129989
 31
0.0
 11
17.6310841184
 21
-23.5599191071
 31
0.0
 11
17.6495661025
 21
-23.5492341152
 31
0.0
 11
17.6744386687
 21
-23.5398686415
 31
0.0
 11
17.7047459783
 21
-23.5321825958
 31
0.0
 11
17.7393233385
 21
-23.5264713486
 31
0.0
 11
17.7768419605
 21
-23.52295438
 31
0.0
 11
17.8158600249
 21
-23.521766845
 31
0.0
  0
SPLINE
  5
58A
100
AcDbEntity
  8
RACCORDO
100
AcDbSpline
 62
7
  6
CONTINUOUS
 70
0
 71
3
 72
15
 73
11
 74
9
 42
0.0000001
 43
0.0000001
 44
0.0000000001
 12
0.2198589173
 22
0.0
 32
0.0
 13
0.0
 23
-0.2198589173
 33
0.0
 40
0.0
 40
0.0
 40
0.0
 40
0.0
 40
0.1775508236
 40
0.3489475586
 40
0.508349136
 40
0.6505618283
 40
0.771445581
 40
0.8685458831
 40
0.9424410166
 40
1.0
 40
1.0
 40
1.0
 40
1.0
 10
26.4158600249
 20
-23.521766845
 30
0.0
 10
26.4288720689
 20
-23.521766845
 30
0.0
 10
26.4544524082
 20
-23.5225318081
 30
0.0
 10
26.4915747692
 20
-23.5259481095
 30
0.0
 10
26.5258288859
 20
-23.5314845105
 30
0.0
 10
26.5559255547
 20
-23.5389217302
 30
0.0
 10
26.5808178754
 20
-23.547939968
 30
0.0
 10
26.5996498766
 20
-23.5582898248
 30
0.0
 10
26.6122774603
 20
-23.5697369881
 30
0.0
 10
26.6158600249
 20
-23.5793519586
 30
0.0
 10
26.6158600249
 20
-23.5835702439
 30
0.0
 11
26.4158600249
 21
-23.521766845
 31
0.0
 11
26.4548780894
 21
-23.52295438
 31
0.0
 11
26.4923967114
 21
-23.5264713486
 31
0.0
 11
26.5269740716
 21
-23.5321825958
 31
0.0
 11
26.5572813812
 21
-23.5398686415
 31
0.0
 11
26.5821539474
 21
-23.5492341152
 31
0.0
 11
26.6006359315
 21
-23.5599191071
 31
0.0
 11
26.612017081
 21
-23.5715129989
 31
0.0
 11
26.6158600249
 21
-23.5835702439
 31
0.0
  0
SPLINE
  5
58B
100
AcDbEntity
  8
RACCORDO
100
AcDbSpline
 62
7
  6
CONTINUOUS
 70
0
 71
3
 72
15
 73
11
 74
9
 42
0.0000001
 43
0.0000001
 44
0.0000000001
 12
0.0
 22
0.2198589173
 32
0.0
 13
0.2198589173
 23
0.0
 33
0.0
 40
0.0
 40
0.0
 40
0.0
 40
0.0
 40
0.0575589834
 40
0.1314541169
 40
0.228554419
 40
0.3494381717
 40
0.491650864
 40
0.6510524414
 40
0.8224491764
 40
1.0
 40
1.0
 40
1.0
 40
1.0
 10
42.6158600249
 20
-23.5835702439
 30
0.0
 10
42.6158600249
 20
-23.5793519586
 30
0.0
 10
42.6194425896
 20
-23.5697369881
 30
0.0
 10
42.6320701733
 20
-23.5582898248
 30
0.0
 10
42.6509021745
 20
-23.547939968
 30
0.0
 10
42.6757944952
 20
-23.5389217302
 30
0.0
 10
42.705891164
 20
-23.5314845105
 30
0.0
 10
42.7401452807
 20
-23.5259481095
 30
0.0
 10
42.7772676417
 20
-23.5225318081
 30
0.0
 10
42.802847981
 20
-23.521766845
 30
0.0
 10
42.8158600249
 20
-23.521766845
 30
0.0
 11
42.6158600249
 21
-23.5835702439
 31
0.0
 11
42.6197029689
 21
-23.5715129989
 31
0.0
 11
42.6310841184
 21
-23.5599191071
 31
0.0
 11
42.6495661025
 21
-23.5492341152
 31
0.0
 11
42.6744386687
 21
-23.5398686415
 31
0.0
 11
42.7047459783
 21
-23.5321825958
 31
0.0
 11
42.7393233385
 21
-23.5264713486
 31
0.0
 11
42.7768419605
 21
-23.52295438
 31
0.0
 11
42.8158600249
 21
-23.521766845
 31
0.0
  0
SPLINE
  5
58C
100
AcDbEntity
  8
RACCORDO
100
AcDbSpline
 62
7
  6
CONTINUOUS
 70
0
 71
3
 72
15
 73
11
 74
9
 42
0.0000001
 43
0.0000001
 44
0.0000000001
 12
0.2198589173
 22
0.0
 32
0.0
 13
0.0
 23
-0.2198589173
 33
0.0
 40
0.0
 40
0.0
 40
0.0
 40
0.0
 40
0.1775508236
 40
0.3489475586
 40
0.508349136
 40
0.6505618283
 40
0.771445581
 40
0.8685458831
 40
0.9424410166
 40
1.0
 40
1.0
 40
1.0
 40
1.0
 10
51.4158600249
 20
-23.521766845
 30
0.0
 10
51.4288720689
 20
-23.521766845
 30
0.0
 10
51.4544524082
 20
-23.5225318081
 30
0.0
 10
51.4915747692
 20
-23.5259481095
 30
0.0
 10
51.5258288859
 20
-23.5314845105
 30
0.0
 10
51.5559255547
 20
-23.5389217302
 30
0.0
 10
51.5808178754
 20
-23.547939968
 30
0.0
 10
51.5996498766
 20
-23.5582898248
 30
0.0
 10
51.6122774603
 20
-23.5697369881
 30
0.0
 10
51.6158600249
 20
-23.5793519586
 30
0.0
 10
51.6158600249
 20
-23.5835702439
 30
0.0
 11
51.4158600249
 21
-23.521766845
 31
0.0
 11
51.4548780894
 21
-23.52295438
 31
0.0
 11
51.4923967114
 21
-23.5264713486
 31
0.0
 11
51.5269740716
 21
-23.5321825958
 31
0.0
 11
51.5572813812
 21
-23.5398686415
 31
0.0
 11
51.5821539474
 21
-23.5492341152
 31
0.0
 11
51.6006359315
 21
-23.5599191071
 31
0.0
 11
51.612017081
 21
-23.5715129989
 31
0.0
 11
51.6158600249
 21
-23.5835702439
 31
0.0
  0
SPLINE
  5
58D
100
AcDbEntity
  8
RACCORDO
100
AcDbSpline
 62
7
  6
CONTINUOUS
 70
0
 71
3
 72
15
 73
11
 74
9
 42
0.0000001
 43
0.0000001
 44
0.0000000001
 12
0.0
 22
-0.2198589173
 32
0.0
 13
-0.2198589173
 23
0.0
 33
0.0
 40
0.0
 40
0.0
 40
0.0
 40
0.0
 40
0.0575589834
 40
0.1314541169
 40
0.228554419
 40
0.3494381717
 40
0.491650864
 40
0.6510524414
 40
0.8224491764
 40
1.0
 40
1.0
 40
1.0
 40
1.0
 10
26.6158600249
 20
23.4960102605
 30
0.0
 10
26.6158600249
 20
23.4917919753
 30
0.0
 10
26.6122774603
 20
23.4821770047
 30
0.0
 10
26.5996498766
 20
23.4707298415
 30
0.0
 10
26.5808178754
 20
23.4603799846
 30
0.0
 10
26.5559255547
 20
23.4513617468
 30
0.0
 10
26.5258288859
 20
23.4439245271
 30
0.0
 10
26.4915747692
 20
23.4383881261
 30
0.0
 10
26.4544524082
 20
23.4349718247
 30
0.0
 10
26.4288720689
 20
23.4342068617
 30
0.0
 10
26.4158600249
 20
23.4342068617
 30
0.0
 11
26.6158600249
 21
23.4960102605
 31
0.0
 11
26.612017081
 21
23.4839530155
 31
0.0
 11
26.6006359315
 21
23.4723591237
 31
0.0
 11
26.5821539474
 21
23.4616741318
 31
0.0
 11
26.5572813812
 21
23.4523086581
 31
0.0
 11
26.5269740716
 21
23.4446226124
 31
0.0
 11
26.4923967114
 21
23.4389113653
 31
0.0
 11
26.4548780894
 21
23.4353943966
 31
0.0
 11
26.4158600249
 21
23.4342068617
 31
0.0
  0
SPLINE
  5
58E
100
AcDbEntity
  8
RACCORDO
100
AcDbSpline
 62
7
  6
CONTINUOUS
 70
0
 71
3
 72
15
 73
11
 74
9
 42
0.0000001
 43
0.0000001
 44
0.0000000001
 12
-0.2198589173
 22
0.0
 32
0.0
 13
0.0
 23
0.2198589173
 33
0.0
 40
0.0
 40
0.0
 40
0.0
 40
0.0
 40
0.1775508236
 40
0.3489475586
 40
0.508349136
 40
0.6505618283
 40
0.771445581
 40
0.8685458831
 40
0.9424410166
 40
1.0
 40
1.0
 40
1.0
 40
1.0
 10
17.8158600249
 20
23.4342068617
 30
0.0
 10
17.802847981
 20
23.4342068617
 30
0.0
 10
17.7772676417
 20
23.4349718247
 30
0.0
 10
17.7401452807
 20
23.4383881261
 30
0.0
 10
17.705891164
 20
23.4439245271
 30
0.0
 10
17.6757944952
 20
23.4513617468
 30
0.0
 10
17.6509021745
 20
23.4603799846
 30
0.0
 10
17.6320701733
 20
23.4707298415
 30
0.0
 10
17.6194425896
 20
23.4821770047
 30
0.0
 10
17.6158600249
 20
23.4917919753
 30
0.0
 10
17.6158600249
 20
23.4960102605
 30
0.0
 11
17.8158600249
 21
23.4342068617
 31
0.0
 11
17.7768419605
 21
23.4353943966
 31
0.0
 11
17.7393233385
 21
23.4389113653
 31
0.0
 11
17.7047459783
 21
23.4446226124
 31
0.0
 11
17.6744386687
 21
23.4523086581
 31
0.0
 11
17.6495661025
 21
23.4616741318
 31
0.0
 11
17.6310841184
 21
23.4723591237
 31
0.0
 11
17.6197029689
 21
23.4839530155
 31
0.0
 11
17.6158600249
 21
23.4960102605
 31
0.0
  0
SPLINE
  5
58F
100
AcDbEntity
  8
RACCORDO
100
AcDbSpline
 62
7
  6
CONTINUOUS
 70
0
 71
3
 72
15
 73
11
 74
9
 42
0.0000001
 43
0.0000001
 44
0.0000000001
 12
0.0
 22
-0.2198589173
 32
0.0
 13
-0.2198589173
 23
0.0
 33
0.0
 40
0.0
 40
0.0
 40
0.0
 40
0.0
 40
0.0575589834
 40
0.1314541169
 40
0.228554419
 40
0.3494381717
 40
0.491650864
 40
0.6510524414
 40
0.8224491764
 40
1.0
 40
1.0
 40
1.0
 40
1.0
 10
51.6158600249
 20
23.4960102605
 30
0.0
 10
51.6158600249
 20
23.4917919753
 30
0.0
 10
51.6122774603
 20
23.4821770047
 30
0.0
 10
51.5996498766
 20
23.4707298415
 30
0.0
 10
51.5808178754
 20
23.4603799846
 30
0.0
 10
51.5559255547
 20
23.4513617468
 30
0.0
 10
51.5258288859
 20
23.4439245271
 30
0.0
 10
51.4915747692
 20
23.4383881261
 30
0.0
 10
51.4544524082
 20
23.4349718247
 30
0.0
 10
51.4288720689
 20
23.4342068617
 30
0.0
 10
51.4158600249
 20
23.4342068617
 30
0.0
 11
51.6158600249
 21
23.4960102605
 31
0.0
 11
51.612017081
 21
23.4839530155
 31
0.0
 11
51.6006359315
 21
23.4723591237
 31
0.0
 11
51.5821539474
 21
23.4616741318
 31
0.0
 11
51.5572813812
 21
23.4523086581
 31
0.0
 11
51.5269740716
 21
23.4446226124
 31
0.0
 11
51.4923967114
 21
23.4389113653
 31
0.0
 11
51.4548780894
 21
23.4353943966
 31
0.0
 11
51.4158600249
 21
23.4342068617
 31
0.0
  0
SPLINE
  5
590
100
AcDbEntity
  8
RACCORDO
100
AcDbSpline
 62
7
  6
CONTINUOUS
 70
0
 71
3
 72
15
 73
11
 74
9
 42
0.0000001
 43
0.0000001
 44
0.0000000001
 12
-0.2198589173
 22
0.0
 32
0.0
 13
0.0
 23
0.2198589173
 33
0.0
 40
0.0
 40
0.0
 40
0.0
 40
0.0
 40
0.1775508236
 40
0.3489475586
 40
0.508349136
 40
0.6505618283
 40
0.771445581
 40
0.8685458831
 40
0.9424410166
 40
1.0
 40
1.0
 40
1.0
 40
1.0
 10
42.8158600249
 20
23.4342068617
 30
0.0
 10
42.802847981
 20
23.4342068617
 30
0.0
 10
42.7772676417
 20
23.4349718247
 30
0.0
 10
42.7401452807
 20
23.4383881261
 30
0.0
 10
42.705891164
 20
23.4439245271
 30
0.0
 10
42.6757944952
 20
23.4513617468
 30
0.0
 10
42.6509021745
 20
23.4603799846
 30
0.0
 10
42.6320701733
 20
23.4707298415
 30
0.0
 10
42.6194425896
 20
23.4821770047
 30
0.0
 10
42.6158600249
 20
23.4917919753
 30
0.0
 10
42.6158600249
 20
23.4960102605
 30
0.0
 11
42.8158600249
 21
23.4342068617
 31
0.0
 11
42.7768419605
 21
23.4353943966
 31
0.0
 11
42.7393233385
 21
23.4389113653
 31
0.0
 11
42.7047459783
 21
23.4446226124
 31
0.0
 11
42.6744386687
 21
23.4523086581
 31
0.0
 11
42.6495661025
 21
23.4616741318
 31
0.0
 11
42.6310841184
 21
23.4723591237
 31
0.0
 11
42.6197029689
 21
23.4839530155
 31
0.0
 11
42.6158600249
 21
23.4960102605
 31
0.0
  0
SPLINE
  5
591
100
AcDbEntity
  8
IMPORT_IGES
100
AcDbSpline
 62
7
  6
CONTINUOUS
 70
0
 71
3
 72
11
 73
7
 74
5
 42
0.0000001
 43
0.0000001
 44
0.0000000001
 12
-0.5439013225
 22
-0.0542389511
 32
0.0
 13
-0.5466052659
 23
0.0000097553
 33
0.0
 40
0.0
 40
0.0
 40
0.0
 40
0.0
 40
0.2907401259
 40
0.5514182247
 40
0.7904316966
 40
1.0
 40
1.0
 40
1.0
 40
1.0
 10
-10.2736554896
 20
-9.6001138161
 30
0.0
 10
-10.3263668026
 20
-9.6053702959
 30
0.0
 10
-10.4265740705
 20
-9.6129631429
 30
0.0
 10
-10.570407274
 20
-9.6203831425
 30
0.0
 10
-10.6995952194
 20
-9.6239937031
 30
0.0
 10
-10.7813274887
 20
-9.6247206852
 30
0.0
 10
-10.8195112014
 20
-9.6247200037
 30
0.0
 11
-10.2736554896
 21
-9.6001138161
 31
0.0
 11
-10.4320741525
 21
-9.6127052865
 31
0.0
 11
-10.5743735861
 21
-9.6200022098
 31
0.0
 11
-10.7049657309
 21
-9.6237016906
 31
0.0
 11
-10.8195112014
 21
-9.6247200037
 31
0.0
  0
SPLINE
  5
592
100
AcDbEntity
  8
IMPORT_IGES
100
AcDbSpline
 62
7
  6
CONTINUOUS
 70
0
 71
3
 72
12
 73
8
 74
6
 42
0.0000001
 43
0.0000001
 44
0.0000000001
 12
-0.5654787528
 22
0.057567111
 32
0.0
 13
-0.5684090303
 23
-0.0000356621
 33
0.0
 40
0.0
 40
0.0
 40
0.0
 40
0.0
 40
0.2784102143
 40
0.5329379023
 40
0.7660693951
 40
0.9799408959
 40
1.0
 40
1.0
 40
1.0
 40
1.0
 10
-10.2521566314
 20
-6.2896348033
 30
0.0
 10
-10.304634985
 20
-6.2842923793
 30
0.0
 10
-10.4052838209
 20
-6.2759148784
 30
0.0
 10
-10.5502269635
 20
-6.2680098013
 30
0.0
 10
-10.6830898109
 20
-6.2638613477
 30
0.0
 10
-10.7715824414
 20
-6.2628760981
 30
0.0
 10
-10.8159052038
 20
-6.2628396446
 30
0.0
 10
-10.8197057958
 20
-6.262839883
 30
0.0
 11
-10.2521566314
 21
-6.2896348033
 31
0.0
 11
-10.4098446739
 21
-6.2763249185
 31
0.0
 11
-10.5542999463
 21
-6.2683742841
 31
0.0
 11
-10.6867467718
 21
-6.2642099729
 31
0.0
 11
-10.8083040242
 21
-6.2628492565
 31
0.0
 11
-10.8197057958
 21
-6.262839883
 31
0.0
  0
SPLINE
  5
593
100
AcDbEntity
  8
IMPORT_IGES
100
AcDbSpline
 62
7
  6
CONTINUOUS
 70
0
 71
3
 72
25
 73
21
 74
19
 42
0.0000001
 43
0.0000001
 44
0.0000000001
 12
0.0
 22
-1.3888673144
 32
0.0
 13
0.0
 23
1.3888673144
 33
0.0
 40
0.0
 40
0.0
 40
0.0
 40
0.0
 40
0.0349653968
 40
0.0730952714
 40
0.1137653303
 40
0.158777954
 40
0.2098856324
 40
0.2684184933
 40
0.3352000235
 40
0.4116668712
 40
0.4978114776
 40
0.5855262911
 40
0.6639119057
 40
0.7315410239
 40
0.7901430369
 40
0.8412291252
 40
0.8862359102
 40
0.9269088143
 40
0.9650298748
 40
1.0
 40
1.0
 40
1.0
 40
1.0
 10
-13.8521566314
 20
-9.4247200994
 30
0.0
 10
-13.8521566314
 20
-9.4409075316
 30
0.0
 10
-13.8577294858
 20
-9.4749978831
 30
0.0
 10
-13.8835221691
 20
-9.5220837749
 30
0.0
 10
-13.926636356
 20
-9.5612356983
 30
0.0
 10
-13.9838516801
 20
-9.5897157613
 30
0.0
 10
-14.0532860289
 20
-9.6084067223
 30
0.0
 10
-14.1344066676
 20
-9.6190604564
 30
0.0
 10
-14.2277531802
 20
-9.6237598405
 30
0.0
 10
-14.3339544697
 20
-9.6248035684
 30
0.0
 10
-14.4498438012
 20
-9.6246744946
 30
0.0
 10
-14.5666213189
 20
-9.6248091564
 30
0.0
 10
-14.6748307055
 20
-9.6238269131
 30
0.0
 10
-14.7694926419
 20
-9.6191141333
 30
0.0
 10
-14.851025728
 20
-9.6084091461
 30
0.0
 10
-14.920477414
 20
-9.5897086006
 30
0.0
 10
-14.9776816097
 20
-9.5612323228
 30
0.0
 10
-15.0207910786
 20
-9.5220831017
 30
0.0
 10
-15.0465832504
 20
-9.4749982697
 30
0.0
 10
-15.0521566314
 20
-9.4409097206
 30
0.0
 10
-15.0521566314
 20
-9.4247200994
 30
0.0
 11
-13.8521566314
 21
-9.4247200994
 31
0.0
 11
-13.8600050811
 21
-9.4726439817
 31
0.0
 11
-13.8851880396
 21
-9.51923044
 31
0.0
 11
-13.9264764308
 21
-9.5577772897
 31
0.0
 11
-13.9819493898
 21
-9.5866055973
 31
0.0
 11
-14.0502106467
 21
-9.6060687539
 31
0.0
 11
-14.1306904645
 21
-9.6175480711
 31
0.0
 11
-14.2232836577
 21
-9.6229508533
 31
0.0
 11
-14.3294735067
 21
-9.6245773871
 31
0.0
 11
-14.4491168498
 21
-9.6247200993
 31
0.0
 11
-14.5709410228
 21
-9.6245947466
 31
0.0
 11
-14.6797964033
 21
-9.6229893526
 31
0.0
 11
-14.773566838
 21
-9.617553299
 31
0.0
 11
-14.8541417844
 21
-9.6060607566
 31
0.0
 11
-14.9223731214
 21
-9.5866020224
 31
0.0
 11
-14.9778382781
 21
-9.5577762868
 31
0.0
 11
-15.0191287659
 21
-9.5192258923
 31
0.0
 11
-15.044306063
 21
-9.4726502893
 31
0.0
 11
-15.0521566314
 21
-9.4247200994
 31
0.0
  0
SPLINE
  5
594
100
AcDbEntity
  8
IMPORT_IGES
100
AcDbSpline
 62
7
  6
CONTINUOUS
 70
0
 71
3
 72
30
 73
26
 74
24
 42
0.0000001
 43
0.0000001
 44
0.0000000001
 12
-1.1803580001
 22
0.0000210659
 32
0.0
 13
-0.0
 23
1.1803445593
 33
0.0
 40
0.0
 40
0.0
 40
0.0
 40
0.0
 40
0.0045873548
 40
0.0980332901
 40
0.1840465682
 40
0.2632966537
 40
0.3363791211
 40
0.4038191619
 40
0.4660710028
 40
0.5235371357
 40
0.5765855332
 40
0.6255514288
 40
0.6707413919
 40
0.7124355544
 40
0.7508896623
 40
0.7863054667
 40
0.8189238372
 40
0.8489714964
 40
0.8766458834
 40
0.9020909759
 40
0.9254411567
 40
0.9468039729
 40
0.9662780486
 40
0.9841003076
 40
1.0
 40
1.0
 40
1.0
 40
1.0
 10
-10.8195112014
 20
-9.6247200037
 30
0.0
 10
-10.8213161084
 20
-9.6247199715
 30
0.0
 10
-10.8598875704
 20
-9.6247030335
 30
0.0
 10
-10.9323007954
 20
-9.6240192409
 30
0.0
 10
-11.0340592466
 20
-9.6213619767
 30
0.0
 10
-11.1277568222
 20
-9.6174162582
 30
0.0
 10
-11.2140855007
 20
-9.6124292556
 30
0.0
 10
-11.2936559905
 20
-9.606590359
 30
0.0
 10
-11.3670048122
 20
-9.6000473331
 30
0.0
 10
-11.4346074009
 20
-9.5929162157
 30
0.0
 10
-11.4968923272
 20
-9.5852875278
 30
0.0
 10
-11.5542496318
 20
-9.5772303101
 30
0.0
 10
-11.6070332608
 20
-9.5687951751
 30
0.0
 10
-11.6555634656
 20
-9.5600161251
 30
0.0
 10
-11.7001159143
 20
-9.5509138836
 30
0.0
 10
-11.7409455623
 20
-9.5414920044
 30
0.0
 10
-11.77828782
 20
-9.5317336282
 30
0.0
 10
-11.8123631473
 20
-9.5215929887
 30
0.0
 10
-11.843333158
 20
-9.5109967165
 30
0.0
 10
-11.8712905018
 20
-9.4998346621
 30
0.0
 10
-11.8962255794
 20
-9.4879380492
 30
0.0
 10
-11.9180024508
 20
-9.4750486116
 30
0.0
 10
-11.936180618
 20
-9.4606833338
 30
0.0
 10
-11.949669261
 20
-9.4443074096
 30
0.0
 10
-11.9535411773
 20
-9.4309758045
 30
0.0
 10
-11.9535411773
 20
-9.4247200994
 30
0.0
 11
-10.8195112014
 21
-9.6247200037
 31
0.0
 11
-10.8249259222
 21
-9.6247176259
 31
0.0
 11
-10.935219373
 21
-9.623672628
 31
0.0
 11
-11.0367097887
 21
-9.6210112256
 31
0.0
 11
-11.1301687566
 21
-9.6170611288
 31
0.0
 11
-11.2162866914
 21
-9.6120692388
 31
0.0
 11
-11.2956743342
 21
-9.6062247694
 31
0.0
 11
-11.3688605067
 21
-9.5996755696
 31
0.0
 11
-11.4363137522
 21
-9.5925378883
 31
0.0
 11
-11.4984617877
 21
-9.584901893
 31
0.0
 11
-11.5556928674
 21
-9.576836301
 31
0.0
 11
-11.6083598133
 21
-9.5683912262
 31
0.0
 11
-11.6567817225
 21
-9.5596000314
 31
0.0
 11
-11.7012451594
 21
-9.5504801124
 31
0.0
 11
-11.7419684921
 21
-9.5410414366
 31
0.0
 11
-11.7792064956
 21
-9.5312612711
 31
0.0
 11
-11.8131831552
 21
-9.5210894624
 31
0.0
 11
-11.8440655221
 21
-9.5104451198
 31
0.0
 11
-11.8719212237
 21
-9.4992157105
 31
0.0
 11
-11.8967350929
 21
-9.487220091
 31
0.0
 11
-11.9183149457
 21
-9.4741766797
 31
0.0
 11
-11.9361197285
 21
-9.4596387504
 31
0.0
 11
-11.9488498837
 21
-9.4428914061
 31
0.0
 11
-11.9535411773
 21
-9.4247200994
 31
0.0
  0
SPLINE
  5
595
100
AcDbEntity
  8
IMPORT_IGES
100
AcDbSpline
 62
7
  6
CONTINUOUS
 70
0
 71
3
 72
25
 73
21
 74
19
 42
0.0000001
 43
0.0000001
 44
0.0000000001
 12
0.0
 22
1.3891448485
 32
0.0
 13
-0.0
 23
-1.3891448485
 33
0.0
 40
0.0
 40
0.0
 40
0.0
 40
0.0
 40
0.0384168371
 40
0.0761976261
 40
0.1165625881
 40
0.1613050521
 40
0.2121174281
 40
0.2702728461
 40
0.3365641327
 40
0.4124064932
 40
0.4977787127
 40
0.5847365544
 40
0.6625241638
 40
0.7296848002
 40
0.7879133692
 40
0.8387030153
 40
0.8834384143
 40
0.9238060311
 40
0.9615782648
 40
1.0
 40
1.0
 40
1.0
 40
1.0
 10
-15.0530458565
 20
-6.462839884
 30
0.0
 10
-15.0530458565
 20
-6.4450510335
 30
0.0
 10
-15.0453929628
 20
-6.4096752515
 30
0.0
 10
-15.0181087391
 20
-6.3621661552
 30
0.0
 10
-14.9743772623
 20
-6.3242735715
 30
0.0
 10
-14.9172275474
 20
-6.2967251263
 30
0.0
 10
-14.8480758442
 20
-6.2786369576
 30
0.0
 10
-14.7674512744
 20
-6.2683196827
 30
0.0
 10
-14.6747716335
 20
-6.2637696002
 30
0.0
 10
-14.5694235943
 20
-6.2627592768
 30
0.0
 10
-14.454508284
 20
-6.2628839348
 30
0.0
 10
-14.338692339
 20
-6.2627537694
 30
0.0
 10
-14.2313063609
 20
-6.2637029693
 30
0.0
 10
-14.1372868769
 20
-6.2682659731
 30
0.0
 10
-14.0562383396
 20
-6.2786345914
 30
0.0
 10
-13.9870685534
 20
-6.2967326435
 30
0.0
 10
-13.9299311452
 20
-6.324277032
 30
0.0
 10
-13.8862047735
 20
-6.3621665167
 30
0.0
 10
-13.8589207936
 20
-6.4096746034
 30
0.0
 10
-13.8512672927
 20
-6.4450487655
 30
0.0
 10
-13.8512672927
 20
-6.462839884
 30
0.0
 11
-15.0530458565
 21
-6.462839884
 31
0.0
 11
-15.0427406641
 21
-6.4104777621
 31
0.0
 11
-15.016489039
 21
-6.3650320113
 31
0.0
 11
-14.9746982803
 21
-6.327646332
 31
0.0
 11
-14.9191634506
 21
-6.2997362443
 31
0.0
 11
-14.8511389257
 21
-6.2808944778
 31
0.0
 11
-14.7711206841
 21
-6.2697810996
 31
0.0
 11
-14.6791810875
 21
-6.2645516628
 31
0.0
 11
-14.5738368168
 21
-6.2629779677
 31
0.0
 11
-14.4552425183
 21
-6.2628398841
 31
0.0
 11
-14.3344455408
 21
-6.2629607503
 31
0.0
 11
-14.2263984354
 21
-6.2645131294
 31
0.0
 11
-14.1332511294
 21
-6.2697757699
 31
0.0
 11
-14.0531321978
 21
-6.2809028479
 31
0.0
 11
-13.9851392184
 21
-6.2997402149
 31
0.0
 11
-13.9296137808
 21
-6.3276471349
 31
0.0
 11
-13.8878209387
 21
-6.3650360168
 31
0.0
 11
-13.8615749868
 21
-6.4104713198
 31
0.0
 11
-13.8512672927
 21
-6.462839884
 31
0.0
  0
SPLINE
  5
596
100
AcDbEntity
  8
IMPORT_IGES
100
AcDbSpline
 62
7
  6
CONTINUOUS
 70
0
 71
3
 72
29
 73
25
 74
23
 42
0.0000001
 43
0.0000001
 44
0.0000000001
 12
-1.1761777247
 22
-0.0000737937
 32
0.0
 13
0.0
 23
-1.1761620097
 33
0.0
 40
0.0
 40
0.0
 40
0.0
 40
0.0
 40
0.0852546285
 40
0.172582233
 40
0.2529830587
 40
0.3270748841
 40
0.3954044718
 40
0.458449712
 40
0.5166293551
 40
0.5703200487
 40
0.6198663463
 40
0.6655795804
 40
0.7077530794
 40
0.7466302504
 40
0.7824175789
 40
0.8153798864
 40
0.8457604182
 40
0.8737388481
 40
0.89948208
 40
0.9231271304
 40
0.9447847294
 40
0.9645439095
 40
0.9829866841
 40
1.0
 40
1.0
 40
1.0
 40
1.0
 10
-10.8197057958
 20
-6.262839883
 30
0.0
 10
-10.8531306608
 20
-6.2628419801
 30
0.0
 10
-10.9207930362
 20
-6.2633729767
 30
0.0
 10
-11.0199524476
 20
-6.2657306215
 30
0.0
 10
-11.1146878388
 20
-6.269504626
 30
0.0
 10
-11.2019154308
 20
-6.2743462663
 30
0.0
 10
-11.2822699627
 20
-6.2800578087
 30
0.0
 10
-11.3563101312
 20
-6.2864857559
 30
0.0
 10
-11.4245288462
 20
-6.2935097978
 30
0.0
 10
-11.487366837
 20
-6.3010358082
 30
0.0
 10
-11.5452221017
 20
-6.3089912987
 30
0.0
 10
-11.5984586042
 20
-6.3173228243
 30
0.0
 10
-11.6473985729
 20
-6.3259923823
 30
0.0
 10
-11.6923202451
 20
-6.3349747338
 30
0.0
 10
-11.7334859231
 20
-6.3442615954
 30
0.0
 10
-11.7711506649
 20
-6.3538669609
 30
0.0
 10
-11.8055461984
 20
-6.3638309868
 30
0.0
 10
-11.836851608
 20
-6.3742185583
 30
0.0
 10
-11.8651646605
 20
-6.3851256513
 30
0.0
 10
-11.8905406111
 20
-6.3966994268
 30
0.0
 10
-11.9127851143
 20
-6.4091655061
 30
0.0
 10
-11.9320194129
 20
-6.4229947798
 30
0.0
 10
-11.9463917196
 20
-6.438921027
 30
0.0
 10
-11.9535411773
 20
-6.4520691775
 30
0.0
 10
-11.9535411773
 20
-6.4587393161
 30
0.0
 11
-10.8197057958
 21
-6.262839883
 31
0.0
 11
-10.9199761773
 21
-6.2636295077
 31
0.0
 11
-11.0226583272
 21
-6.2660810383
 31
0.0
 11
-11.1171472168
 21
-6.2698592481
 31
0.0
 11
-11.2041563529
 21
-6.2747054078
 31
0.0
 11
-11.2843194494
 21
-6.2804219494
 31
0.0
 11
-11.3581912398
 21
-6.2868555431
 31
0.0
 11
-11.4262578329
 21
-6.2938857622
 31
0.0
 11
-11.4889559032
 21
-6.3014185154
 31
0.0
 11
-11.5466837045
 21
-6.3093818783
 31
0.0
 11
-11.5997990609
 21
-6.3177221352
 31
0.0
 11
-11.6486362233
 21
-6.3264040711
 31
0.0
 11
-11.6934678798
 21
-6.3354027421
 31
0.0
 11
-11.7345192653
 21
-6.3447029917
 31
0.0
 11
-11.7720748546
 21
-6.354326616
 31
0.0
 11
-11.8063811463
 21
-6.3643208496
 31
0.0
 11
-11.8375922335
 21
-6.3747491591
 31
0.0
 11
-11.8658146662
 21
-6.3857156708
 31
0.0
 11
-11.8910619214
 21
-6.3973773603
 31
0.0
 11
-11.9132011746
 21
-6.4099757455
 31
0.0
 11
-11.9318186979
 21
-6.4238856443
 31
0.0
 11
-11.9462011315
 21
-6.4401237186
 31
0.0
 11
-11.9535411773
 21
-6.4587393161
 31
0.0
  0
SPLINE
  5
597
100
AcDbEntity
  8
RACCORDO
100
AcDbSpline
 62
253
  6
CONTINUOUS
 70
0
 71
3
 72
12
 73
8
 74
6
 42
0.0000001
 43
0.0000001
 44
0.0000000001
 12
0.0012811853
 22
0.2785052662
 32
0.0
 13
-0.2790653333
 23
0.0121717621
 33
0.0
 40
0.0
 40
0.0
 40
0.0
 40
0.0
 40
0.1050812331
 40
0.4755643329
 40
0.7598682918
 40
0.9386812276
 40
1.0
 40
1.0
 40
1.0
 40
1.0
 10
-6.4426577855
 20
19.0245355649
 30
0.0
 10
-6.4426129094
 20
19.0342907905
 30
0.0
 10
-6.4425482582
 20
19.0783064345
 30
0.0
 10
-6.4438283897
 20
19.1472348253
 30
0.0
 10
-6.438543918
 20
19.2313377382
 30
0.0
 10
-6.4494973778
 20
19.268081207
 30
0.0
 10
-6.4394727508
 20
19.3033463248
 30
0.0
 10
-6.4451767321
 20
19.3035951106
 30
0.0
 11
-6.4426577855
 21
19.0245355649
 31
0.0
 11
-6.4426266113
 21
19.0536994776
 31
0.0
 11
-6.4422915645
 21
19.1571862203
 31
0.0
 11
-6.4426269009
 21
19.236600322
 31
0.0
 11
-6.4436117201
 21
19.2865385458
 31
0.0
 11
-6.4451767321
 21
19.3035951106
 31
0.0
  0
SPLINE
  5
598
100
AcDbEntity
  8
RACCORDO
100
AcDbSpline
 62
253
  6
CONTINUOUS
 70
0
 71
3
 72
12
 73
8
 74
6
 42
0.0000001
 43
0.0000001
 44
0.0000000001
 12
-0.4999841204
 22
-0.0087272553
 32
0.0
 13
0.0087245979
 23
-0.4999841668
 33
0.0
 40
0.0
 40
0.0
 40
0.0
 40
0.0
 40
0.0493263498
 40
0.1917639428
 40
0.4135190033
 40
0.6927041356
 40
1.0
 40
1.0
 40
1.0
 40
1.0
 10
-36.1725762794
 20
9.1674624392
 30
0.0
 10
-36.1807970766
 20
9.1673189446
 30
0.0
 10
-36.1664844619
 20
9.1163656997
 30
0.0
 10
-36.1816601926
 20
9.0649880895
 30
0.0
 10
-36.1739660942
 20
8.9485647746
 30
0.0
 10
-36.1756753192
 20
8.8174222714
 30
0.0
 10
-36.1734699571
 20
8.7187529472
 30
0.0
 10
-36.1725762794
 20
8.6675385916
 30
0.0
 11
-36.1725762794
 21
9.1674624392
 31
0.0
 11
-36.1748465908
 21
9.1429009946
 31
0.0
 11
-36.1760386838
 21
9.071683588
 31
0.0
 11
-36.1760344518
 21
8.96079269
 31
0.0
 11
-36.1748350622
 21
8.8211884461
 31
0.0
 11
-36.1725762794
 21
8.6675385916
 31
0.0
  0
SPLINE
  5
599
100
AcDbEntity
  8
RACCORDO
100
AcDbSpline
 62
253
  6
CONTINUOUS
 70
0
 71
3
 72
11
 73
7
 74
5
 42
0.0000001
 43
0.0000001
 44
0.0000000001
 12
0.1218550099
 22
0.3217473936
 32
0.0
 13
0.3439970564
 23
0.006004491
 33
0.0
 40
0.0
 40
0.0
 40
0.0
 40
0.0
 40
0.2978499656
 40
0.5608513374
 40
0.7908904502
 40
1.0
 40
1.0
 40
1.0
 40
1.0
 10
-36.4104536703
 20
8.9448969987
 30
0.0
 10
-36.3983555001
 20
8.9768411487
 30
0.0
 10
-36.3704421856
 20
9.0353126749
 30
0.0
 10
-36.3139248435
 20
9.1074195122
 30
0.0
 10
-36.2471470518
 20
9.1549546362
 30
0.0
 10
-36.1965539693
 20
9.1670439071
 30
0.0
 10
-36.1725762794
 20
9.1674624392
 30
0.0
 11
-36.4104536703
 21
8.9448969987
 31
0.0
 11
-36.3652767617
 21
9.0368763275
 31
0.0
 11
-36.3082522316
 21
9.1071317536
 31
0.0
 11
-36.242734179
 21
9.1515309561
 31
0.0
 11
-36.1725762794
 21
9.1674624392
 31
0.0
  0
SPLINE
  5
59A
100
AcDbEntity
  8
RACCORDO
100
AcDbSpline
 62
253
  6
CONTINUOUS
 70
0
 71
3
 72
10
 73
6
 74
4
 42
0.0000001
 43
0.0000001
 44
0.0000000001
 12
-0.239482856
 22
0.2759766099
 32
0.0
 13
-0.2354712669
 23
0.2794072476
 33
0.0
 40
0.0
 40
0.0
 40
0.0
 40
0.0
 40
0.3686131219
 40
0.7117924614
 40
1.0
 40
1.0
 40
1.0
 40
1.0
 10
-36.1725762794
 20
8.6675385916
 30
0.0
 10
-36.2020017872
 20
8.7014481249
 30
0.0
 10
-36.2587087502
 20
8.7670263358
 30
0.0
 10
-36.3380257389
 20
8.8594594655
 30
0.0
 10
-36.3878321388
 20
8.9180545736
 30
0.0
 10
-36.4104536703
 20
8.9448969987
 30
0.0
 11
-36.1725762794
 21
8.6675385916
 31
0.0
 11
-36.2606680311
 21
8.769427236
 31
0.0
 11
-36.3423051945
 21
8.8646098239
 31
0.0
 11
-36.4104536703
 21
8.9448969987
 31
0.0
  0
SPLINE
  5
59B
100
AcDbEntity
  8
RACCORDO
100
AcDbSpline
 62
253
  6
CONTINUOUS
 70
0
 71
3
 72
12
 73
8
 74
6
 42
0.0000001
 43
0.0000001
 44
0.0000000001
 12
-0.0087246032
 22
-0.4999844689
 32
0.0
 13
0.4999844226
 23
-0.0087272606
 33
0.0
 40
0.0
 40
0.0
 40
0.0
 40
0.0
 40
0.3091395835
 40
0.5879732139
 40
0.8091623614
 40
0.9510826177
 40
1.0
 40
1.0
 40
1.0
 40
1.0
 10
-36.1725762794
 20
-5.755098575
 30
0.0
 10
-36.1734753195
 20
-5.8066202385
 30
0.0
 10
-36.1756882406
 20
-5.9055458493
 30
0.0
 10
-36.1739725316
 20
-6.0368355777
 30
0.0
 10
-36.1816434494
 20
-6.1530091226
 30
0.0
 10
-36.1665217841
 20
-6.2041882901
 30
0.0
 10
-36.1807289225
 20
-6.2548801176
 30
0.0
 10
-36.1725762794
 20
-6.2550224226
 30
0.0
 11
-36.1725762794
 21
-5.755098575
 31
0.0
 11
-36.1748459358
 21
-5.9096704334
 31
0.0
 11
-36.1760380212
 21
-6.0490990455
 31
0.0
 11
-36.1760356422
 21
-6.1597070198
 31
0.0
 11
-36.1748391645
 21
-6.2306656595
 31
0.0
 11
-36.1725762794
 21
-6.2550224226
 31
0.0
  0
SPLINE
  5
59C
100
AcDbEntity
  8
RACCORDO
100
AcDbSpline
 62
253
  6
CONTINUOUS
 70
0
 71
3
 72
10
 73
6
 74
4
 42
0.0000001
 43
0.0000001
 44
0.0000000001
 12
0.2354712674
 22
0.2794072481
 32
0.0
 13
0.2394828565
 23
0.2759766105
 33
0.0
 40
0.0
 40
0.0
 40
0.0
 40
0.0
 40
0.2871698081
 40
0.6290639043
 40
1.0
 40
1.0
 40
1.0
 40
1.0
 10
-36.4104536703
 20
-6.032456982
 30
0.0
 10
-36.3879135907
 20
-6.0057112068
 30
0.0
 10
-36.3382912219
 20
-5.9473310157
 30
0.0
 10
-36.2589761876
 20
-5.8548962099
 30
0.0
 10
-36.2021872247
 20
-5.7892218038
 30
0.0
 10
-36.1725762794
 20
-5.755098575
 30
0.0
 11
-36.4104536703
 21
-6.032456982
 31
0.0
 11
-36.3425513774
 21
-5.9524582085
 31
0.0
 11
-36.261221957
 21
-5.8576303713
 31
0.0
 11
-36.1725762794
 21
-5.755098575
 31
0.0
  0
SPLINE
  5
59D
100
AcDbEntity
  8
RACCORDO
100
AcDbSpline
 62
253
  6
CONTINUOUS
 70
0
 71
3
 72
11
 73
7
 74
5
 42
0.0000001
 43
0.0000001
 44
0.0000000001
 12
-0.344002262
 22
0.0060045818
 32
0.0
 13
-0.1218568538
 23
0.3217522625
 33
0.0
 40
0.0
 40
0.0
 40
0.0
 40
0.0
 40
0.2071980133
 40
0.4363105068
 40
0.701568968
 40
1.0
 40
1.0
 40
1.0
 40
1.0
 10
-36.1725762794
 20
-6.2550224226
 30
0.0
 10
-36.1963351412
 20
-6.2546077101
 30
0.0
 10
-36.2466001888
 20
-6.2427083107
 30
0.0
 10
-36.3134973124
 20
-6.1954523204
 30
0.0
 10
-36.3702680687
 20
-6.1232262504
 30
0.0
 10
-36.3983317147
 20
-6.0644639353
 30
0.0
 10
-36.4104536703
 20
-6.032456982
 30
0.0
 11
-36.1725762794
 21
-6.2550224226
 31
0.0
 11
-36.2421222698
 21
-6.2393618125
 31
0.0
 11
-36.3075293183
 21
-6.1953658025
 31
0.0
 11
-36.3651687325
 21
-6.1246077074
 31
0.0
 11
-36.4104536703
 21
-6.032456982
 31
0.0
  0
SPLINE
  5
59E
100
AcDbEntity
  8
RACCORDO
100
AcDbSpline
 62
253
  6
CONTINUOUS
 70
0
 71
3
 72
19
 73
15
 74
13
 42
0.0000001
 43
0.0000001
 44
0.0000000001
 12
-12.333669303
 22
-10.7059880272
 32
0.0
 13
12.333669303
 23
-10.7059880272
 33
0.0
 40
0.0
 40
0.0
 40
0.0
 40
0.0
 40
0.0832303554
 40
0.1665537701
 40
0.2498948114
 40
0.3332605915
 40
0.4166339981
 40
0.5000037221
 40
0.583373415
 40
0.6667467475
 40
0.7501125218
 40
0.8334538466
 40
0.9167795865
 40
1.0
 40
1.0
 40
1.0
 40
1.0
 10
-36.1730479806
 20
8.667530358
 30
0.0
 10
-36.5152265404
 20
8.3705092953
 30
0.0
 10
-37.1581580355
 20
7.7260014497
 30
0.0
 10
-37.9756007526
 20
6.6330721012
 30
0.0
 10
-38.6297206704
 20
5.4340202911
 30
0.0
 10
-39.1067864623
 20
4.1539766589
 30
0.0
 10
-39.3969908146
 20
2.8189175035
 30
0.0
 10
-39.4943770597
 20
1.4561422396
 30
0.0
 10
-39.3969687564
 20
0.0933688778
 30
0.0
 10
-39.1067427253
 20
-1.2416847277
 30
0.0
 10
-38.6296568818
 20
-2.5217226842
 30
0.0
 10
-37.9755071094
 20
-3.7207727576
 30
0.0
 10
-37.158080872
 20
-4.8136683418
 30
0.0
 10
-36.51513919
 20
-5.458105569
 30
0.0
 10
-36.1730015034
 20
-5.7550911527
 30
0.0
 11
-36.1730479806
 21
8.667530358
 31
0.0
 11
-37.1332988102
 21
7.7054038328
 31
0.0
 11
-37.9482582292
 21
6.61556691
 31
0.0
 11
-38.6001362555
 21
5.4206853187
 31
0.0
 11
-39.0756220869
 21
4.1448717518
 31
0.0
 11
-39.3648563195
 21
2.8142817374
 31
0.0
 11
-39.4619117769
 21
1.4561423202
 31
0.0
 11
-39.3648342951
 21
0.0980049853
 31
0.0
 11
-39.075578826
 21
-1.2325791743
 31
0.0
 11
-38.6000725056
 21
-2.5083850039
 31
0.0
 11
-37.9481727565
 21
-3.7032600177
 31
0.0
 11
-37.1331703657
 21
-4.7931122249
 31
0.0
 11
-36.1730015034
 21
-5.7550911527
 31
0.0
  0
SPLINE
  5
59F
100
AcDbEntity
  8
CURVE
100
AcDbSpline
 62
253
  6
CONTINUOUS
 70
0
 71
3
 72
10
 73
6
 74
4
 42
0.0000001
 43
0.0000001
 44
0.0000000001
 12
-0.1042013299
 22
-0.576127726
 32
0.0
 13
-0.5843655009
 23
0.0331139741
 33
0.0
 40
0.0
 40
0.0
 40
0.0
 40
0.0
 40
0.3333333333
 40
0.6666666667
 40
1.0
 40
1.0
 40
1.0
 40
1.0
 10
-12.5549544838
 20
14.4053810515
 30
0.0
 10
-12.5665324093
 20
14.3413668598
 30
0.0
 10
-12.621959529
 20
14.2169993122
 30
0.0
 10
-12.7808069013
 20
14.0917299792
 30
0.0
 10
-12.9146393736
 20
14.0668446779
 30
0.0
 10
-12.9795688737
 20
14.0705240083
 30
0.0
 11
-12.5549544838
 21
14.4053810515
 31
0.0
 11
-12.6345773112
 21
14.2272129769
 31
0.0
 11
-12.7877904573
 21
14.106386876
 31
0.0
 11
-12.9795688737
 21
14.0705240083
 31
0.0
  0
SPLINE
  5
5A0
100
AcDbEntity
  8
CURVE
100
AcDbSpline
 62
253
  6
CONTINUOUS
 70
0
 71
3
 72
14
 73
10
 74
8
 42
0.0000001
 43
0.0000001
 44
0.0000000001
 12
-0.5261894647
 22
0.763604354
 32
0.0
 13
0.2406837807
 23
0.8956031423
 33
0.0
 40
0.0
 40
0.0
 40
0.0
 40
0.0
 40
0.1250414313
 40
0.25036883
 40
0.3758998099
 40
0.5009272891
 40
0.6259612396
 40
0.7512676546
 40
1.0
 40
1.0
 40
1.0
 40
1.0
 10
-14.4466148324
 20
14.3664108979
 30
0.0
 10
-14.4685466604
 20
14.3982382917
 30
0.0
 10
-14.5228102907
 20
14.4569953707
 30
0.0
 10
-14.632595022
 20
14.5007435427
 30
0.0
 10
-14.7432545775
 20
14.5333069743
 30
0.0
 10
-14.8487016075
 20
14.5895403025
 30
0.0
 10
-14.9144160495
 20
14.6889911105
 30
0.0
 10
-14.9720345949
 20
14.8319002452
 30
0.0
 10
-14.975896416
 20
14.9547236204
 30
0.0
 10
-14.9559411356
 20
15.0289787771
 30
0.0
 11
-14.4466148324
 21
14.3664108979
 31
0.0
 11
-14.5274522259
 21
14.4495405345
 31
0.0
 11
-14.6326819662
 21
14.4988570319
 31
0.0
 11
-14.7425444532
 21
14.5373182902
 31
0.0
 11
-14.8420933984
 21
14.5967421832
 31
0.0
 11
-14.9106454205
 21
14.6902557712
 31
0.0
 11
-14.9533718364
 21
14.7983213205
 31
0.0
 11
-14.9559411356
 21
15.0289787771
 31
0.0
  0
SPLINE
  5
5A1
100
AcDbEntity
  8
CURVE
100
AcDbSpline
 62
253
  6
CONTINUOUS
 70
0
 71
3
 72
10
 73
6
 74
4
 42
0.0000001
 43
0.0000001
 44
0.0000000001
 12
-0.5028123884
 22
0.293953331
 32
0.0
 13
0.1634816873
 23
0.5591425489
 33
0.0
 40
0.0
 40
0.0
 40
0.0
 40
0.0
 40
0.3333333333
 40
0.6666666667
 40
1.0
 40
1.0
 40
1.0
 40
1.0
 10
-14.7400565013
 20
11.7398159882
 30
0.0
 10
-14.7959245445
 20
11.7724774694
 30
0.0
 10
-14.894391963
 20
11.8640892715
 30
0.0
 10
-14.9683571723
 20
12.0500418396
 30
0.0
 10
-14.9597247275
 20
12.1842800584
 30
0.0
 10
-14.9415600956
 20
12.2464070083
 30
0.0
 11
-14.7400565013
 21
11.7398159882
 31
0.0
 11
-14.8821026432
 21
11.8721784156
 31
0.0
 11
-14.9538715262
 21
12.0526092996
 31
0.0
 11
-14.9415600956
 21
12.2464070083
 31
0.0
  0
SPLINE
  5
5A2
100
AcDbEntity
  8
CURVE
100
AcDbSpline
 62
253
  6
CONTINUOUS
 70
0
 71
3
 72
10
 73
6
 74
4
 42
0.0000001
 43
0.0000001
 44
0.0000000001
 12
0.1088269423
 22
-0.6089301708
 32
0.0
 13
0.5581849705
 23
-0.2664159798
 33
0.0
 40
0.0
 40
0.0
 40
0.0
 40
0.0
 40
0.5008086493
 40
0.7509685551
 40
1.0
 40
1.0
 40
1.0
 40
1.0
 10
-15.2645795749
 20
11.4187252199
 30
0.0
 10
-15.2464124169
 20
11.3170727212
 30
0.0
 10
-15.2185067197
 20
11.1629036441
 30
0.0
 10
-15.120384172
 20
10.9782502198
 30
0.0
 10
-15.0375128579
 20
10.9104372367
 30
0.0
 10
-14.9911776547
 20
10.8883219179
 30
0.0
 11
-15.2645795749
 21
11.4187252199
 31
0.0
 11
-15.1888322411
 21
11.1183404941
 31
0.0
 11
-15.1117627497
 21
10.9841605179
 31
0.0
 11
-14.9911776547
 21
10.8883219179
 31
0.0
  0
SPLINE
  5
5A3
100
AcDbEntity
  8
CURVE
100
AcDbSpline
 62
253
  6
CONTINUOUS
 70
0
 71
3
 72
19
 73
15
 74
13
 42
0.0000001
 43
0.0000001
 44
0.0000000001
 12
0.7764921354
 22
-0.372790673
 32
0.0
 13
-0.8582556101
 23
0.1458022984
 33
0.0
 40
0.0
 40
0.0
 40
0.0
 40
0.0
 40
0.0688135795
 40
0.1396905812
 40
0.2090530515
 40
0.2794866408
 40
0.3487116065
 40
0.4187461968
 40
0.4897215871
 40
0.5586392501
 40
0.697833439
 40
0.8363858844
 40
0.9749227105
 40
1.0
 40
1.0
 40
1.0
 40
1.0
 10
-12.781028529
 20
11.7030266227
 30
0.0
 10
-12.7632174612
 20
11.6944756025
 30
0.0
 10
-12.7236004208
 20
11.6851013576
 30
0.0
 10
-12.6647276461
 20
11.6758122394
 30
0.0
 10
-12.6070504473
 20
11.6509841829
 30
0.0
 10
-12.5731853413
 20
11.5971678717
 30
0.0
 10
-12.5710640521
 20
11.5337900912
 30
0.0
 10
-12.60196386
 20
11.4801958216
 30
0.0
 10
-12.6371756081
 20
11.4316350244
 30
0.0
 10
-12.6877823421
 20
11.3693613051
 30
0.0
 10
-12.7701839255
 20
11.3082055824
 30
0.0
 10
-12.8876915284
 20
11.2807831313
 30
0.0
 10
-12.9742307498
 20
11.2674244367
 30
0.0
 10
-13.0212640701
 20
11.2733871501
 30
0.0
 10
-13.0284383115
 20
11.2746059256
 30
0.0
 11
-12.781028529
 21
11.7030266227
 31
0.0
 11
-12.7242530512
 21
11.6860084081
 31
0.0
 11
-12.6645819881
 21
11.6731150606
 31
0.0
 11
-12.6111899076
 21
11.6463054156
 31
0.0
 11
-12.5783853035
 21
11.5952663113
 31
0.0
 11
-12.5764780323
 21
11.5356629608
 31
0.0
 11
-12.6025475282
 21
11.4812566894
 31
0.0
 11
-12.638010368
 21
11.4314538776
 31
0.0
 11
-12.6763256248
 21
11.3861086597
 31
0.0
 11
-12.7734462293
 21
11.3158032336
 31
0.0
 11
-12.8879812262
 21
11.2822830399
 31
0.0
 11
-13.006850497
 21
11.27186933
 31
0.0
 11
-13.0284383115
 21
11.2746059256
 31
0.0
  0
SPLINE
  5
5A4
100
AcDbEntity
  8
CURVE
100
AcDbSpline
 62
253
  6
CONTINUOUS
 70
0
 71
3
 72
10
 73
6
 74
4
 42
0.0000001
 43
0.0000001
 44
0.0000000001
 12
-0.4591335606
 22
0.3497973252
 32
0.0
 13
0.2045308121
 23
0.5398443494
 33
0.0
 40
0.0
 40
0.0
 40
0.0
 40
0.0
 40
0.3333333333
 40
0.6666666667
 40
1.0
 40
1.0
 40
1.0
 40
1.0
 10
-14.8008408427
 20
8.9316001752
 30
0.0
 10
-14.8518556828
 20
8.9704665447
 30
0.0
 10
-14.9381930835
 20
9.0715771274
 30
0.0
 10
-14.9926490658
 20
9.2618590925
 30
0.0
 10
-14.9728801229
 20
9.3933543028
 30
0.0
 10
-14.9501544771
 20
9.4533370083
 30
0.0
 11
-14.8008408427
 21
8.9316001752
 31
0.0
 11
-14.9256847304
 21
9.0780131426
 31
0.0
 11
-14.978630833
 21
9.2630192342
 31
0.0
 11
-14.9501544771
 21
9.4533370083
 31
0.0
  0
SPLINE
  5
5A5
100
AcDbEntity
  8
CURVE
100
AcDbSpline
 62
253
  6
CONTINUOUS
 70
0
 71
3
 72
10
 73
6
 74
4
 42
0.0000001
 43
0.0000001
 44
0.0000000001
 12
0.0538574927
 22
-0.5627218555
 32
0.0
 13
-0.5622854892
 23
-0.0565740703
 33
0.0
 40
0.0
 40
0.0
 40
0.0
 40
0.0
 40
0.3333333333
 40
0.6666666667
 40
1.0
 40
1.0
 40
1.0
 40
1.0
 10
-12.5828555541
 20
8.8384890265
 30
0.0
 10
-12.5768713882
 20
8.7759643759
 30
0.0
 10
-12.598523555
 20
8.6452858328
 30
0.0
 10
-12.7232549719
 20
8.4933554536
 30
0.0
 10
-12.8471900061
 20
8.4467000161
 30
0.0
 10
-12.9096661716
 20
8.4404140083
 30
0.0
 11
-12.5828555541
 21
8.8384890265
 31
0.0
 11
-12.6138990828
 21
8.6526337387
 31
0.0
 11
-12.733450161
 21
8.5070133241
 31
0.0
 11
-12.9096661716
 21
8.4404140083
 31
0.0
  0
SPLINE
  5
5A6
100
AcDbEntity
  8
CURVE
100
AcDbSpline
 62
253
  6
CONTINUOUS
 70
0
 71
3
 72
11
 73
7
 74
5
 42
0.0000001
 43
0.0000001
 44
0.0000000001
 12
0.0344593959
 22
-0.8497707982
 32
0.0
 13
0.7709800688
 23
-0.3587573696
 33
0.0
 40
0.0
 40
0.0
 40
0.0
 40
0.0
 40
0.2506923719
 40
0.5010197925
 40
0.7504414484
 40
1.0
 40
1.0
 40
1.0
 40
1.0
 10
-15.2645795749
 20
8.7934118582
 30
0.0
 10
-15.2617000057
 20
8.7224015058
 30
0.0
 10
-15.2593647659
 20
8.5804296539
 30
0.0
 10
-15.2278433721
 20
8.3684353366
 30
0.0
 10
-15.1292271103
 20
8.1734944428
 30
0.0
 10
-15.0105856897
 20
8.0864333637
 30
0.0
 10
-14.9464508
 20
8.0565897072
 30
0.0
 11
-15.2645795749
 21
8.7934118582
 31
0.0
 11
-15.2546788741
 21
8.5804357386
 31
0.0
 11
-15.2165695742
 21
8.3709796179
 31
0.0
 11
-15.1160097144
 21
8.1842127667
 31
0.0
 11
-14.9464508
 21
8.0565897072
 31
0.0
  0
SPLINE
  5
5A7
100
AcDbEntity
  8
CURVE
100
AcDbSpline
 62
253
  6
CONTINUOUS
 70
0
 71
3
 72
17
 73
13
 74
11
 42
0.0000001
 43
0.0000001
 44
0.0000000001
 12
0.7521154005
 22
0.0113600479
 32
0.0
 13
0.0165505447
 23
-0.7409896985
 33
0.0
 40
0.0
 40
0.0
 40
0.0
 40
0.0
 40
0.125
 40
0.25
 40
0.375
 40
0.4375
 40
0.5
 40
0.5625
 40
0.625
 40
0.75
 40
0.875
 40
1.0
 40
1.0
 40
1.0
 40
1.0
 10
-20.3278924805
 20
15.2519218574
 30
0.0
 10
-20.2965543388
 20
15.2523951927
 30
0.0
 10
-20.2349034028
 20
15.247487506
 30
0.0
 10
-20.1444501251
 20
15.2245591622
 30
0.0
 10
-20.0734441673
 20
15.1916430564
 30
0.0
 10
-20.0223402615
 20
15.1562213364
 30
0.0
 10
-19.9880374687
 20
15.1251622728
 30
0.0
 10
-19.9587852077
 20
15.0893424608
 30
0.0
 10
-19.9269760092
 20
15.0364031133
 30
0.0
 10
-19.8996622764
 20
14.9635741427
 30
0.0
 10
-19.8824127864
 20
14.8737181674
 30
0.0
 10
-19.8781363974
 20
14.8126193482
 30
0.0
 10
-19.8774467914
 20
14.7817447774
 30
0.0
 11
-20.3278924805
 21
15.2519218574
 31
0.0
 11
-20.2352405905
 21
15.244893037
 31
0.0
 11
-20.1453244798
 21
15.2217973317
 31
0.0
 11
-20.0611432625
 21
15.1820302235
 31
0.0
 11
-20.0230111176
 21
15.1554725408
 31
0.0
 11
-19.988879224
 21
15.1243688147
 31
0.0
 11
-19.9596844347
 21
15.088695011
 31
0.0
 11
-19.9357581598
 21
15.0491942977
 31
0.0
 11
-19.9022501079
 21
14.963163941
 31
0.0
 11
-19.8842186042
 21
14.8734194585
 31
0.0
 11
-19.8774467914
 21
14.7817447774
 31
0.0
  0
SPLINE
  5
5A8
100
AcDbEntity
  8
CURVE
100
AcDbSpline
 62
253
  6
CONTINUOUS
 70
0
 71
3
 72
15
 73
11
 74
9
 42
0.0000001
 43
0.0000001
 44
0.0000000001
 12
0.069738073
 22
0.6008671796
 32
0.0
 13
0.5336134643
 23
0.00822159
 33
0.0
 40
0.0
 40
0.0
 40
0.0
 40
0.0
 40
0.125
 40
0.25
 40
0.375
 40
0.5
 40
0.625
 40
0.75
 40
0.875
 40
1.0
 40
1.0
 40
1.0
 40
1.0
 10
-20.6905291227
 20
14.9099983934
 30
0.0
 10
-20.6876233697
 20
14.9350345259
 30
0.0
 10
-20.6778608955
 20
14.9817243065
 30
0.0
 10
-20.6524089446
 20
15.0478835949
 30
0.0
 10
-20.6161303244
 20
15.1082591379
 30
0.0
 10
-20.5700404281
 20
15.1594757695
 30
0.0
 10
-20.5155764022
 20
15.199475863
 30
0.0
 10
-20.4552409269
 20
15.2287990833
 30
0.0
 10
-20.3924672016
 20
15.2468106476
 30
0.0
 10
-20.35020597
 20
15.2515780964
 30
0.0
 10
-20.3279720757
 20
15.2519206627
 30
0.0
 11
-20.6905291227
 21
14.9099983934
 31
0.0
 11
-20.6760595222
 21
14.9810784094
 31
0.0
 11
-20.6506044997
 21
15.0469196374
 31
0.0
 11
-20.6144951117
 21
15.1067326527
 31
0.0
 11
-20.5686447399
 21
15.1576063464
 31
0.0
 11
-20.5145978273
 21
15.1976963841
 31
0.0
 11
-20.4548345519
 21
15.2269138073
 31
0.0
 11
-20.3923641813
 21
15.2450005824
 31
0.0
 11
-20.3279720757
 21
15.2519206627
 31
0.0
  0
SPLINE
  5
5A9
100
AcDbEntity
  8
CURVE
100
AcDbSpline
 62
253
  6
CONTINUOUS
 70
0
 71
3
 72
12
 73
8
 74
6
 42
0.0000001
 43
0.0000001
 44
0.0000000001
 12
-0.0822648538
 22
0.4821116612
 32
0.0
 13
0.05442517
 23
0.4689303421
 33
0.0
 40
0.0
 40
0.0
 40
0.0
 40
0.0
 40
0.1666666667
 40
0.3333333333
 40
0.5
 40
0.6666666667
 40
1.0
 40
1.0
 40
1.0
 40
1.0
 10
-20.6734581485
 20
14.4358381813
 30
0.0
 10
-20.6780284181
 20
14.4626221625
 30
0.0
 10
-20.6864683678
 20
14.5158427035
 30
0.0
 10
-20.6955984083
 20
14.5954667973
 30
0.0
 10
-20.7004477601
 20
14.6744819976
 30
0.0
 10
-20.7016271965
 20
14.7794615566
 30
0.0
 10
-20.6965763636
 20
14.8578950221
 30
0.0
 10
-20.6905291225
 20
14.9099983934
 30
0.0
 11
-20.6734581485
 21
14.4358381813
 31
0.0
 11
-20.6858800538
 21
14.5158082506
 31
0.0
 11
-20.6948849602
 21
14.5953653151
 31
0.0
 11
-20.6997869643
 21
14.6744352424
 31
0.0
 11
-20.7006728474
 21
14.7531831998
 31
0.0
 11
-20.6905291225
 21
14.9099983934
 31
0.0
  0
SPLINE
  5
5AA
100
AcDbEntity
  8
CURVE
100
AcDbSpline
 62
253
  6
CONTINUOUS
 70
0
 71
3
 72
13
 73
9
 74
7
 42
0.0000001
 43
0.0000001
 44
0.0000000001
 12
-0.4226936496
 22
-1.1699983563
 32
0.0
 13
0.2610030295
 23
-1.7741184216
 33
0.0
 40
0.0
 40
0.0
 40
0.0
 40
0.0
 40
0.125
 40
0.25
 40
0.375
 40
0.5
 40
0.75
 40
1.0
 40
1.0
 40
1.0
 40
1.0
 10
-21.1030363929
 20
15.3467893339
 30
0.0
 10
-21.1206486283
 20
15.2980394024
 30
0.0
 10
-21.1500779155
 20
15.1969016396
 30
0.0
 10
-21.1793155155
 20
15.0326968597
 30
0.0
 10
-21.1961365567
 20
14.8581260048
 30
0.0
 10
-21.20535818
 20
14.6132365124
 30
0.0
 10
-21.1909083317
 20
14.28485177
 30
0.0
 10
-21.15531549
 20
14.0009153106
 30
0.0
 10
-21.1335652376
 20
13.8530721088
 30
0.0
 11
-21.1030363929
 21
15.3467893339
 31
0.0
 11
-21.147593527
 21
15.194818617
 31
0.0
 11
-21.1772460891
 21
15.0309691805
 31
0.0
 11
-21.1944857528
 21
14.8566099607
 31
0.0
 11
-21.2013209823
 21
14.672974027
 31
0.0
 11
-21.1849000909
 21
14.2795446036
 31
0.0
 11
-21.1335652376
 21
13.8530721088
 31
0.0
  0
SPLINE
  5
5AB
100
AcDbEntity
  8
CURVE
100
AcDbSpline
 62
253
  6
CONTINUOUS
 70
0
 71
3
 72
35
 73
31
 74
29
 42
0.0000001
 43
0.0000001
 44
0.0000000001
 12
-0.1029357124
 22
0.7977517711
 32
0.0
 13
-0.9753782549
 23
-2.7037247537
 33
0.0
 40
0.0
 40
0.0
 40
0.0
 40
0.0
 40
0.03125
 40
0.0625
 40
0.09375
 40
0.109375
 40
0.125
 40
0.140625
 40
0.15625
 40
0.1875
 40
0.25
 40
0.3125
 40
0.375
 40
0.4375
 40
0.5
 40
0.5625
 40
0.625
 40
0.6875
 40
0.71875
 40
0.75
 40
0.78125
 40
0.8125
 40
0.84375
 40
0.875
 40
0.90625
 40
0.921875
 40
0.9375
 40
0.953125
 40
0.96875
 40
1.0
 40
1.0
 40
1.0
 40
1.0
 10
-19.6384563842
 20
15.4091951631
 30
0.0
 10
-19.6395286312
 20
15.4175050774
 30
0.0
 10
-19.6439935786
 20
15.4339684735
 30
0.0
 10
-19.6563476948
 20
15.4575423277
 30
0.0
 10
-19.6702183807
 20
15.4768278248
 30
0.0
 10
-19.682625335
 20
15.4922915798
 30
0.0
 10
-19.6922036048
 20
15.5038992524
 30
0.0
 10
-19.7018776656
 20
15.5154938103
 30
0.0
 10
-19.7150494081
 20
15.5310071616
 30
0.0
 10
-19.7392006252
 20
15.5586470132
 30
0.0
 10
-19.7778125222
 20
15.5996524836
 30
0.0
 10
-19.8326796118
 20
15.6490253456
 30
0.0
 10
-19.8993709465
 20
15.696295235
 30
0.0
 10
-19.9780360719
 20
15.7395563681
 30
0.0
 10
-20.0702815578
 20
15.7770908685
 30
0.0
 10
-20.1757768776
 20
15.8052059692
 30
0.0
 10
-20.2938795063
 20
15.820537413
 30
0.0
 10
-20.4051429787
 20
15.8202327402
 30
0.0
 10
-20.5036295569
 20
15.809106613
 30
0.0
 10
-20.580263302
 20
15.793870276
 30
0.0
 10
-20.660949036
 20
15.769428071
 30
0.0
 10
-20.7411579736
 20
15.7350812608
 30
0.0
 10
-20.8183836792
 20
15.690985414
 30
0.0
 10
-20.8913095017
 20
15.6374381166
 30
0.0
 10
-20.947435091
 20
15.5848105285
 30
0.0
 10
-20.9886263045
 20
15.5384450779
 30
0.0
 10
-21.0168617989
 20
15.5025682453
 30
0.0
 10
-21.0425685692
 20
15.4657933542
 30
0.0
 10
-21.073886566
 20
15.4148350464
 30
0.0
 10
-21.0928762027
 20
15.3749531335
 30
0.0
 10
-21.1030363929
 20
15.3467893339
 30
0.0
 11
-19.6384563842
 21
15.4091951631
 31
0.0
 11
-19.6449363611
 21
15.4337816002
 31
0.0
 11
-19.6570628126
 21
15.4574704514
 31
0.0
 11
-19.6734293197
 21
15.48069671
 31
0.0
 11
-19.682670844
 21
15.4922932225
 31
0.0
 11
-19.69221957
 21
15.5038970666
 31
0.0
 11
-19.70191179
 21
15.5155005529
 31
0.0
 11
-19.7118088852
 21
15.5271522279
 31
0.0
 11
-19.732574288
 21
15.5508512439
 31
0.0
 11
-19.7792346577
 21
15.5996801998
 31
0.0
 11
-19.8346503193
 21
15.6486748502
 31
0.0
 11
-19.9013665783
 21
15.6956271089
 31
0.0
 11
-19.9802994653
 21
15.7386019293
 31
0.0
 11
-20.0724898635
 21
15.7755209685
 31
0.0
 11
-20.1778780958
 21
15.8030753597
 31
0.0
 11
-20.2964484293
 21
15.8179212378
 31
0.0
 11
-20.4305542733
 21
15.8165443426
 31
0.0
 11
-20.5040910255
 21
15.8079579894
 31
0.0
 11
-20.5809386335
 21
15.7923359647
 31
0.0
 11
-20.66086957
 21
15.7677773035
 31
0.0
 11
-20.7406607683
 21
15.7334564214
 31
0.0
 11
-20.817667032
 21
15.6894101722
 31
0.0
 11
-20.8903803158
 21
15.6358371485
 31
0.0
 11
-20.9574237896
 21
15.5728638842
 31
0.0
 11
-20.9881833185
 21
15.5382612871
 31
0.0
 11
-21.0164403449
 21
15.5024185689
 31
0.0
 11
-21.0421988571
 21
15.4655527142
 31
0.0
 11
-21.0655571934
 21
15.4273898253
 31
0.0
 11
-21.1030363929
 21
15.3467893339
 31
0.0
  0
SPLINE
  5
5AC
100
AcDbEntity
  8
CURVE
100
AcDbSpline
 62
253
  6
CONTINUOUS
 70
0
 71
3
 72
15
 73
11
 74
9
 42
0.0000001
 43
0.0000001
 44
0.0000000001
 12
-0.8014222296
 22
-0.2183406444
 32
0.0
 13
-0.2485374434
 23
-0.6232913942
 33
0.0
 40
0.0
 40
0.0
 40
0.0
 40
0.0
 40
0.125
 40
0.25
 40
0.375
 40
0.5
 40
0.625
 40
0.75
 40
0.875
 40
1.0
 40
1.0
 40
1.0
 40
1.0
 10
-19.0525405945
 20
15.7580976159
 30
0.0
 10
-19.0859331874
 20
15.749000089
 30
0.0
 10
-19.1504442993
 20
15.7319765758
 30
0.0
 10
-19.2380699881
 20
15.7049114039
 30
0.0
 10
-19.318854727
 20
15.6738477643
 30
0.0
 10
-19.3938295278
 20
15.6381774187
 30
0.0
 10
-19.4643917706
 20
15.5957088102
 30
0.0
 10
-19.5287925008
 20
15.5448159348
 30
0.0
 10
-19.5841782194
 20
15.4829946235
 30
0.0
 10
-19.6109662346
 20
15.4351656379
 30
0.0
 10
-19.6213219614
 20
15.4091951631
 30
0.0
 11
-19.0525405945
 21
15.7580976159
 31
0.0
 11
-19.1489208028
 21
15.7317215921
 31
0.0
 11
-19.2369298298
 21
15.7042449926
 31
0.0
 11
-19.317886404
 21
15.6730799799
 31
0.0
 11
-19.3930941014
 21
15.6370443749
 31
0.0
 11
-19.4633648518
 21
15.5943047657
 31
0.0
 11
-19.5272899988
 21
15.5429945288
 31
0.0
 11
-19.5816442701
 21
15.481340929
 31
0.0
 11
-19.6213219614
 21
15.4091951631
 31
0.0
  0
SPLINE
  5
5AD
100
AcDbEntity
  8
CURVE
100
AcDbSpline
 62
253
  6
CONTINUOUS
 70
0
 71
3
 72
10
 73
6
 74
4
 42
0.0000001
 43
0.0000001
 44
0.0000000001
 12
-0.7651353046
 22
-0.2078085815
 32
0.0
 13
-0.8028501755
 23
-0.218729676
 33
0.0
 40
0.0
 40
0.0
 40
0.0
 40
0.0
 40
0.3333333333
 40
0.6666666667
 40
1.0
 40
1.0
 40
1.0
 40
1.0
 10
-18.2677895379
 20
15.9649984383
 30
0.0
 10
-18.3528045718
 20
15.941908596
 30
0.0
 10
-18.5247014102
 20
15.8973601472
 30
0.0
 10
-18.7860778826
 20
15.8294207877
 30
0.0
 10
-18.9633350195
 20
15.7824009136
 30
0.0
 10
-19.0525405946
 20
15.7580976163
 30
0.0
 11
-18.2677895379
 21
15.9649984383
 31
0.0
 11
-18.525289946
 21
15.8971740328
 31
0.0
 11
-18.7868294214
 21
15.8289890458
 31
0.0
 11
-19.0525405946
 21
15.7580976163
 31
0.0
  0
SPLINE
  5
5AE
100
AcDbEntity
  8
CURVE
100
AcDbSpline
 62
253
  6
CONTINUOUS
 70
0
 71
3
 72
12
 73
8
 74
6
 42
0.0000001
 43
0.0000001
 44
0.0000000001
 12
0.8033689675
 22
0.3019063099
 32
0.0
 13
0.9406851675
 23
0.2704507629
 33
0.0
 40
0.0
 40
0.0
 40
0.0
 40
0.0
 40
0.3333333333
 40
0.5
 40
0.6666666667
 40
0.8333333333
 40
1.0
 40
1.0
 40
1.0
 40
1.0
 10
-19.1473027106
 20
15.1180359967
 30
0.0
 10
-19.058039492
 20
15.1515811423
 30
0.0
 10
-18.9183396451
 20
15.1955499427
 30
0.0
 10
-18.723935866
 20
15.2503199611
 30
0.0
 10
-18.5750379014
 20
15.2928209432
 30
0.0
 10
-18.4233816641
 20
15.3375279889
 30
0.0
 10
-18.320049825
 20
15.3677726724
 30
0.0
 10
-18.2677895379
 20
15.3827977148
 30
0.0
 11
-19.1473027106
 21
15.1180359967
 31
0.0
 11
-18.8690605906
 21
15.2089211932
 31
0.0
 11
-18.723420011
 21
15.2505572058
 31
0.0
 11
-18.5745781893
 21
15.2931886204
 31
0.0
 11
-18.4228247439
 21
15.3376379855
 31
0.0
 11
-18.2677895379
 21
15.3827977148
 31
0.0
  0
SPLINE
  5
5AF
100
AcDbEntity
  8
CURVE
100
AcDbSpline
 62
253
  6
CONTINUOUS
 70
0
 71
3
 72
14
 73
10
 74
8
 42
0.0000001
 43
0.0000001
 44
0.0000000001
 12
0.0
 22
0.4553151781
 32
0.0
 13
0.5136009614
 23
0.1931624593
 33
0.0
 40
0.0
 40
0.0
 40
0.0
 40
0.0
 40
0.125
 40
0.25
 40
0.375
 40
0.5
 40
0.625
 40
0.75
 40
1.0
 40
1.0
 40
1.0
 40
1.0
 10
-19.4025536522
 20
14.7804401259
 30
0.0
 10
-19.4025536522
 20
14.7994115917
 30
0.0
 10
-19.3997512673
 20
14.835461874
 30
0.0
 10
-19.3875757291
 20
14.8879875565
 30
0.0
 10
-19.367729489
 20
14.9362818143
 30
0.0
 10
-19.339439813
 20
14.9808031671
 30
0.0
 10
-19.3035546954
 20
15.0214188702
 30
0.0
 10
-19.2453840623
 20
15.0707965618
 30
0.0
 10
-19.1901636286
 20
15.1019162816
 30
0.0
 10
-19.1473635484
 20
15.1180131532
 30
0.0
 11
-19.4025536522
 21
14.7804401259
 31
0.0
 11
-19.3984226071
 21
14.8352035838
 31
0.0
 11
-19.3862972788
 21
14.887282319
 31
0.0
 11
-19.3663222497
 21
14.9356529968
 31
0.0
 11
-19.338173906
 21
14.9801522254
 31
0.0
 11
-19.3022642192
 21
15.0208217978
 31
0.0
 11
-19.2586386696
 21
15.0577950779
 31
0.0
 11
-19.1473635484
 21
15.1180131532
 31
0.0
  0
SPLINE
  5
5B0
100
AcDbEntity
  8
CURVE
100
AcDbSpline
 62
253
  6
CONTINUOUS
 70
0
 71
3
 72
8
 73
4
 74
2
 42
0.0000001
 43
0.0000001
 44
0.0000000001
 12
-0.0968522599
 22
0.016453469
 32
0.0
 13
-0.0820662287
 23
0.0520903595
 33
0.0
 40
0.0
 40
0.0
 40
0.0
 40
0.0
 40
1.0
 40
1.0
 40
1.0
 40
1.0
 10
-13.0284383115
 20
11.2746059256
 30
0.0
 10
-13.0607223982
 20
11.2800904153
 30
0.0
 10
-13.0923058387
 20
11.2917484169
 30
0.0
 10
-13.1196612482
 20
11.3091118701
 30
0.0
 11
-13.0284383115
 21
11.2746059256
 31
0.0
 11
-13.1196612482
 21
11.3091118701
 31
0.0
  0
SPLINE
  5
5B1
100
AcDbEntity
  8
RACCORDO
100
AcDbSpline
 62
253
  6
CONTINUOUS
 70
0
 71
3
 72
19
 73
15
 74
13
 42
0.0000001
 43
0.0000001
 44
0.0000000001
 12
-0.2501390078
 22
0.0
 32
0.0
 13
0.0000000002
 23
0.2501390078
 33
0.0
 40
0.0
 40
0.0
 40
0.0
 40
0.0
 40
0.0088483039
 40
0.0344511261
 40
0.0765295386
 40
0.1343876952
 40
0.2070441271
 40
0.2932598122
 40
0.3915620187
 40
0.5002704011
 40
0.6175261282
 40
0.7413238738
 40
0.8695462299
 40
1.0
 40
1.0
 40
1.0
 40
1.0
 10
-27.4177402299
 20
-23.2937799917
 30
0.0
 10
-27.4184779985
 20
-23.2937799917
 30
0.0
 10
-27.4180165353
 20
-23.2893243729
 30
0.0
 10
-27.419307345
 20
-23.2844762083
 30
0.0
 10
-27.4193512504
 20
-23.2731727322
 30
0.0
 10
-27.4200368704
 20
-23.2591557271
 30
0.0
 10
-27.4204220599
 20
-23.2409525127
 30
0.0
 10
-27.4208664067
 20
-23.2195612795
 30
0.0
 10
-27.4212266266
 20
-23.1950992349
 30
0.0
 10
-27.4215407029
 20
-23.168068651
 30
0.0
 10
-27.4217882677
 20
-23.138905172
 30
0.0
 10
-27.4219691871
 20
-23.1081160018
 30
0.0
 10
-27.4220788543
 20
-23.0762254939
 30
0.0
 10
-27.4221033315
 20
-23.0546571839
 30
0.0
 10
-27.4221033315
 20
-23.0437799917
 30
0.0
 11
-27.4177402299
 21
-23.2937799917
 31
0.0
 11
-27.4183097288
 21
-23.2916412083
 31
0.0
 11
-27.4188694834
 21
-23.2852614529
 31
0.0
 11
-27.4194099163
 21
-23.2747498841
 31
0.0
 11
-27.4199217803
 21
-23.2602863568
 31
0.0
 11
-27.4203963175
 21
-23.2421183452
 31
0.0
 11
-27.4208254083
 21
-23.2205567085
 31
0.0
 11
-27.4212017109
 21
-23.1959703717
 31
0.0
 11
-27.4215187866
 21
-23.1687800135
 31
0.0
 11
-27.4217712101
 21
-23.1394508684
 31
0.0
 11
-27.4219546624
 21
-23.1084847666
 31
0.0
 11
-27.4220660046
 21
-23.0764115469
 31
0.0
 11
-27.4221033315
 21
-23.0437799917
 31
0.0
  0
SPLINE
  5
5B2
100
AcDbEntity
  8
RACCORDO
100
AcDbSpline
 62
7
  6
CONTINUOUS
 70
0
 71
3
 72
20
 73
16
 74
14
 42
0.0000001
 43
0.0000001
 44
0.0000000001
 12
-0.6199988484
 22
-0.3049563664
 32
0.0
 13
-0.6908339516
 23
0.0120585515
 33
0.0
 40
0.0
 40
0.0
 40
0.0
 40
0.0
 40
0.0833318998
 40
0.1667539802
 40
0.2499280154
 40
0.332535188
 40
0.4142677393
 40
0.4948207415
 40
0.5738884979
 40
0.6511607364
 40
0.726321413
 40
0.7990528517
 40
0.8690491446
 40
0.9360607811
 40
1.0
 40
1.0
 40
1.0
 40
1.0
 10
-26.3046661555
 20
-22.2579913809
 30
0.0
 10
-26.3218880495
 20
-22.2664622453
 30
0.0
 10
-26.3563473099
 20
-22.2834195756
 30
0.0
 10
-26.4080493171
 20
-22.3087229764
 30
0.0
 10
-26.4597232128
 20
-22.3337031653
 30
0.0
 10
-26.511238353
 20
-22.3581147876
 30
0.0
 10
-26.5624730942
 20
-22.3817020807
 30
0.0
 10
-26.6133104722
 20
-22.4041910636
 30
0.0
 10
-26.6636343404
 20
-22.4252800556
 30
0.0
 10
-26.7133256098
 20
-22.4446276563
 30
0.0
 10
-26.7622584023
 20
-22.4618364484
 30
0.0
 10
-26.810292311
 20
-22.4764304159
 30
0.0
 10
-26.8572733046
 20
-22.4878225521
 30
0.0
 10
-26.9030029018
 20
-22.4952680327
 30
0.0
 10
-26.933209734
 20
-22.4969820357
 30
0.0
 10
-26.9479335285
 20
-22.4967250309
 30
0.0
 11
-26.3046661555
 21
-22.2579913809
 31
0.0
 11
-26.356337848
 21
-22.2833917508
 31
0.0
 11
-26.4081210484
 21
-22.3087062095
 31
0.0
 11
-26.4598730544
 21
-22.3336926839
 31
0.0
 11
-26.511465341
 21
-22.3581051095
 31
0.0
 11
-26.5627783925
 21
-22.3816865141
 31
0.0
 11
-26.6136964166
 21
-22.4041605346
 31
0.0
 11
-26.664104364
 21
-22.4252220214
 31
0.0
 11
-26.713883513
 21
-22.4445241715
 31
0.0
 11
-26.7629059426
 21
-22.4616611953
 31
0.0
 11
-26.8110266713
 21
-22.4761442743
 31
0.0
 11
-26.8580696403
 21
-22.4873673045
 31
0.0
 11
-26.9038084927
 21
-22.4945601328
 31
0.0
 11
-26.9479335285
 21
-22.4967250309
 31
0.0
  0
SPLINE
  5
5B3
100
AcDbEntity
  8
RACCORDO
100
AcDbSpline
 62
253
  6
CONTINUOUS
 70
0
 71
3
 72
19
 73
15
 74
13
 42
0.0000001
 43
0.0000001
 44
0.0000000001
 12
-0.0432911178
 22
0.2455909323
 32
0.0
 13
0.2455886771
 23
0.0433039099
 33
0.0
 40
0.0
 40
0.0
 40
0.0
 40
0.0
 40
0.1305746931
 40
0.25887272
 40
0.3827080197
 40
0.499970675
 40
0.6086629365
 40
0.7069333724
 40
0.7931086041
 40
0.8657221965
 40
0.9235405237
 40
0.9655863688
 40
0.9911665513
 40
1.0
 40
1.0
 40
1.0
 40
1.0
 10
-34.5567378504
 20
17.420445859
 30
0.0
 10
-34.5586220918
 20
17.4311351792
 30
0.0
 10
-34.5623340822
 20
17.45233159
 30
0.0
 10
-34.5677507523
 20
17.4836801074
 30
0.0
 10
-34.5729063135
 20
17.5139501265
 30
0.0
 10
-34.5777148176
 20
17.5426278689
 30
0.0
 10
-34.5820887936
 20
17.5692171772
 30
0.0
 10
-34.5859732432
 20
17.5932886604
 30
0.0
 10
-34.5892435239
 20
17.6143573848
 30
0.0
 10
-34.5920218528
 20
17.6322852723
 30
0.0
 10
-34.5937777962
 20
17.6461553333
 30
0.0
 10
-34.5957025937
 20
17.6572526494
 30
0.0
 10
-34.595270448
 20
17.6622289271
 30
0.0
 10
-34.5965099248
 20
17.6665202897
 30
0.0
 10
-34.5957867932
 20
17.6666477973
 30
0.0
 11
-34.5567378504
 21
17.420445859
 31
0.0
 11
-34.5623545085
 21
17.4525201563
 31
0.0
 11
-34.5678010677
 21
17.484047767
 31
0.0
 11
-34.5729846946
 21
17.5144913217
 31
0.0
 11
-34.5778170373
 21
17.5433319279
 31
0.0
 11
-34.5822157313
 21
17.5700780142
 31
0.0
 11
-34.5861058034
 21
17.5942737093
 31
0.0
 11
-34.5894209495
 21
17.6155066113
 31
0.0
 11
-34.592104665
 21
17.6334148176
 31
0.0
 11
-34.5941112074
 21
17.6476930931
 31
0.0
 11
-34.5954063763
 21
17.6580980728
 31
0.0
 11
-34.5959680963
 21
17.6644524095
 31
0.0
 11
-34.5957867932
 21
17.6666477973
 31
0.0
  0
SPLINE
  5
5B4
100
AcDbEntity
  8
RACCORDO
100
AcDbSpline
 62
253
  6
CONTINUOUS
 70
0
 71
3
 72
20
 73
16
 74
14
 42
0.0000001
 43
0.0000001
 44
0.0000000001
 12
-0.250027573
 22
0.0043642475
 32
0.0
 13
0.0043629186
 23
0.2500275961
 33
0.0
 40
0.0
 40
0.0
 40
0.0
 40
0.0
 40
0.00758363
 40
0.0294350164
 40
0.065393723
 40
0.1149595343
 40
0.1774183209
 40
0.251863689
 40
0.337212826
 40
0.4322231749
 40
0.5355109201
 40
0.6455713397
 40
0.7608008379
 40
0.8795203788
 40
1.0
 40
1.0
 40
1.0
 40
1.0
 10
-31.506519733
 20
-22.4171546127
 30
0.0
 10
-31.5071517719
 20
-22.4171435805
 30
0.0
 10
-31.5067766961
 20
-22.4133674773
 30
0.0
 10
-31.5077869881
 20
-22.4091890539
 30
0.0
 10
-31.5077246598
 20
-22.3995369439
 30
0.0
 10
-31.5081298454
 20
-22.3875098501
 30
0.0
 10
-31.5082345506
 20
-22.3718513369
 30
0.0
 10
-31.5083376094
 20
-22.3533659615
 30
0.0
 10
-31.5083253187
 20
-22.3321132443
 30
0.0
 10
-31.5082344777
 20
-22.3084741135
 30
0.0
 10
-31.5080537882
 20
-22.2827701375
 30
0.0
 10
-31.507789326
 20
-22.2553831025
 30
0.0
 10
-31.5074436245
 20
-22.2267100674
 30
0.0
 10
-31.5070219348
 20
-22.1971696075
 30
0.0
 10
-31.5066949473
 20
-22.1772337656
 30
0.0
 10
-31.506519733
 20
-22.1671926889
 30
0.0
 11
-31.506519733
 21
-22.4171546127
 31
0.0
 11
-31.5070135856
 21
-22.4153236394
 31
0.0
 11
-31.5074366402
 21
-22.4098757595
 31
0.0
 11
-31.5077827303
 21
-22.4008903846
 31
0.0
 11
-31.508046811
 21
-22.3884984909
 31
0.0
 11
-31.5082250328
 21
-22.3728807101
 31
0.0
 11
-31.508314798
 21
-22.3542646965
 31
0.0
 11
-31.508314798
 21
-22.3329218083
 31
0.0
 11
-31.5082250328
 21
-22.3091631523
 31
0.0
 11
-31.508046811
 21
-22.2833350491
 31
0.0
 11
-31.5077827303
 21
-22.2558139847
 31
0.0
 11
-31.5074366402
 21
-22.2270011228
 31
0.0
 11
-31.5070135856
 21
-22.197316457
 31
0.0
 11
-31.506519733
 21
-22.1671926889
 31
0.0
  0
SPLINE
  5
5B5
100
AcDbEntity
  8
RACCORDO
100
AcDbSpline
 62
253
  6
CONTINUOUS
 70
0
 71
3
 72
19
 73
15
 74
13
 42
0.0000001
 43
0.0000001
 44
0.0000000001
 12
-0.0432911177
 22
-0.2455909323
 32
0.0
 13
0.245588677
 23
-0.0433039099
 33
0.0
 40
0.0
 40
0.0
 40
0.0
 40
0.0
 40
0.1305747116
 40
0.2588727524
 40
0.3827080609
 40
0.4999707199
 40
0.6086629805
 40
0.7069334114
 40
0.7931086356
 40
0.8657222191
 40
0.9235405375
 40
0.9655863754
 40
0.9911665531
 40
1.0
 40
1.0
 40
1.0
 40
1.0
 10
-34.5567378504
 20
-17.5080058424
 30
0.0
 10
-34.5586220921
 20
-17.5186951641
 30
0.0
 10
-34.5623340829
 20
-17.5398915775
 30
0.0
 10
-34.5677507535
 20
-17.5712400984
 30
0.0
 10
-34.5729063151
 20
-17.6015101196
 30
0.0
 10
-34.5777148193
 20
-17.6301878629
 30
0.0
 10
-34.5820887952
 20
-17.6567771711
 30
0.0
 10
-34.5859732446
 20
-17.6808486532
 30
0.0
 10
-34.589243525
 20
-17.7019173758
 30
0.0
 10
-34.5920218535
 20
-17.7198452612
 30
0.0
 10
-34.5937777966
 20
-17.7337153203
 30
0.0
 10
-34.5957025938
 20
-17.7448126346
 30
0.0
 10
-34.5952704481
 20
-17.7497889113
 30
0.0
 10
-34.5965099247
 20
-17.7540802731
 30
0.0
 10
-34.5957867932
 20
-17.7542077807
 30
0.0
 11
-34.5567378504
 21
-17.5080058424
 31
0.0
 11
-34.5623545093
 21
-17.5400801442
 31
0.0
 11
-34.5678010691
 21
-17.5716077583
 31
0.0
 11
-34.5729846963
 21
-17.6020513152
 31
0.0
 11
-34.5778170391
 21
-17.6308919223
 31
0.0
 11
-34.582215733
 21
-17.6576380084
 31
0.0
 11
-34.5861058048
 21
-17.6818337022
 31
0.0
 11
-34.5894209507
 21
-17.7030666024
 31
0.0
 11
-34.5921046658
 21
-17.7209748066
 31
0.0
 11
-34.5941112078
 21
-17.73525308
 31
0.0
 11
-34.5954063765
 21
-17.7456580578
 31
0.0
 11
-34.5959680963
 21
-17.7520123933
 31
0.0
 11
-34.5957867932
 21
-17.7542077807
 31
0.0
  0
SPLINE
  5
5B6
100
AcDbEntity
  8
RACCORDO
100
AcDbSpline
 62
253
  6
CONTINUOUS
 70
0
 71
3
 72
19
 73
15
 74
13
 42
0.0000001
 43
0.0000001
 44
0.0000000001
 12
0.0
 22
-0.2501390077
 32
0.0
 13
0.2501390077
 23
0.0
 33
0.0
 40
0.0
 40
0.0
 40
0.0
 40
0.0
 40
0.1304537413
 40
0.2586760716
 40
0.3824737972
 40
0.4997295119
 40
0.6084378905
 40
0.7067401018
 40
0.792955799
 40
0.8656122483
 40
0.9234704244
 40
0.9655488553
 40
0.991151691
 40
1.0
 40
1.0
 40
1.0
 40
1.0
 10
-26.3046661555
 20
-23.7937799917
 30
0.0
 10
-26.3046661555
 20
-23.8046571815
 30
0.0
 10
-26.3046416783
 20
-23.8262254869
 30
0.0
 10
-26.3045320112
 20
-23.8581159886
 30
0.0
 10
-26.3043510919
 20
-23.888905154
 30
0.0
 10
-26.304103527
 20
-23.9180686299
 30
0.0
 10
-26.3037894509
 20
-23.9450992129
 30
0.0
 10
-26.303429231
 20
-23.9695612586
 30
0.0
 10
-26.3029848843
 20
-23.9909524946
 30
0.0
 10
-26.3025996948
 20
-24.0091557132
 30
0.0
 10
-26.3019140747
 20
-24.0231727228
 30
0.0
 10
-26.3018701695
 20
-24.0344762035
 30
0.0
 10
-26.3005793591
 20
-24.0393243703
 30
0.0
 10
-26.301040823
 20
-24.0437799917
 30
0.0
 10
-26.3003030539
 20
-24.0437799917
 30
0.0
 11
-26.3046661555
 21
-23.7937799917
 31
0.0
 11
-26.3046288286
 21
-23.8264115397
 31
0.0
 11
-26.3045174865
 21
-23.858484753
 31
0.0
 11
-26.3043340342
 21
-23.8894508498
 31
0.0
 11
-26.3040816108
 21
-23.9187799917
 31
0.0
 11
-26.3037645352
 21
-23.9459703489
 31
0.0
 11
-26.3033882327
 21
-23.970556687
 31
0.0
 11
-26.3029591419
 21
-23.9921183268
 31
0.0
 11
-26.3024846047
 21
-24.0102863426
 31
0.0
 11
-26.3019727406
 21
-24.0247498748
 31
0.0
 11
-26.3014323077
 21
-24.0352614483
 31
0.0
 11
-26.300872553
 21
-24.041641207
 31
0.0
 11
-26.3003030539
 21
-24.0437799917
 31
0.0
  0
SPLINE
  5
5B7
100
AcDbEntity
  8
RACCORDO
100
AcDbSpline
 62
7
  6
CONTINUOUS
 70
0
 71
3
 72
20
 73
16
 74
14
 42
0.0000001
 43
0.0000001
 44
0.0000000001
 12
0.6908339516
 22
0.0120585515
 32
0.0
 13
0.6199988484
 23
-0.3049563664
 33
0.0
 40
0.0
 40
0.0
 40
0.0
 40
0.0
 40
0.0639392189
 40
0.1309508554
 40
0.2009471483
 40
0.273678587
 40
0.3488392636
 40
0.4261115021
 40
0.5051792585
 40
0.5857322607
 40
0.667464812
 40
0.7500719846
 40
0.8332460198
 40
0.9166681002
 40
1.0
 40
1.0
 40
1.0
 40
1.0
 10
-26.9479335285
 20
22.4091650475
 30
0.0
 10
-26.933209734
 20
22.4094220523
 30
0.0
 10
-26.9030029018
 20
22.4077080493
 30
0.0
 10
-26.8572733046
 20
22.4002625687
 30
0.0
 10
-26.810292311
 20
22.3888704325
 30
0.0
 10
-26.7622584023
 20
22.374276465
 30
0.0
 10
-26.7133256098
 20
22.357067673
 30
0.0
 10
-26.6636343404
 20
22.3377200723
 30
0.0
 10
-26.6133104722
 20
22.3166310802
 30
0.0
 10
-26.5624730942
 20
22.2941420973
 30
0.0
 10
-26.511238353
 20
22.2705548043
 30
0.0
 10
-26.4597232128
 20
22.2461431819
 30
0.0
 10
-26.4080493171
 20
22.221162993
 30
0.0
 10
-26.3563473099
 20
22.1958595922
 30
0.0
 10
-26.3218880495
 20
22.178902262
 30
0.0
 10
-26.3046661555
 20
22.1704313975
 30
0.0
 11
-26.9479335285
 21
22.4091650475
 31
0.0
 11
-26.9038084927
 21
22.4070001494
 31
0.0
 11
-26.8580696403
 21
22.3998073211
 31
0.0
 11
-26.8110266713
 21
22.388584291
 31
0.0
 11
-26.7629059426
 21
22.3741012119
 31
0.0
 11
-26.713883513
 21
22.3569641882
 31
0.0
 11
-26.664104364
 21
22.337662038
 31
0.0
 11
-26.6136964166
 21
22.3166005513
 31
0.0
 11
-26.5627783925
 21
22.2941265308
 31
0.0
 11
-26.511465341
 21
22.2705451261
 31
0.0
 11
-26.4598730544
 21
22.2461327005
 31
0.0
 11
-26.4081210484
 21
22.2211462262
 31
0.0
 11
-26.356337848
 21
22.1958317674
 31
0.0
 11
-26.3046661555
 21
22.1704313975
 31
0.0
  0
SPLINE
  5
5B8
100
AcDbEntity
  8
RACCORDO
100
AcDbSpline
 62
253
  6
CONTINUOUS
 70
0
 71
3
 72
19
 73
15
 74
13
 42
0.0000001
 43
0.0000001
 44
0.0000000001
 12
-0.0000000002
 22
0.2501390078
 32
0.0
 13
0.2501390078
 23
0.0
 33
0.0
 40
0.0
 40
0.0
 40
0.0
 40
0.0
 40
0.130453757
 40
0.2586761014
 40
0.3824738379
 40
0.4997295595
 40
0.6084379402
 40
0.706740149
 40
0.7929558396
 40
0.8656122794
 40
0.9234704449
 40
0.9655488657
 40
0.9911516938
 40
1.0
 40
1.0
 40
1.0
 40
1.0
 10
-27.4221033315
 20
22.9562200083
 30
0.0
 10
-27.4221033315
 20
22.9670971994
 30
0.0
 10
-27.4220788543
 20
22.9886655073
 30
0.0
 10
-27.4219691871
 20
23.0205560124
 30
0.0
 10
-27.4217882678
 20
23.0513451805
 30
0.0
 10
-27.421540703
 20
23.0805086581
 30
0.0
 10
-27.4212266267
 20
23.1075392416
 30
0.0
 10
-27.4208664068
 20
23.1320012867
 30
0.0
 10
-27.4204220601
 20
23.1533925212
 30
0.0
 10
-27.4200368706
 20
23.1715957375
 30
0.0
 10
-27.4193512506
 20
23.1856127446
 30
0.0
 10
-27.4193073452
 20
23.1969162228
 30
0.0
 10
-27.4180165352
 20
23.2017643884
 30
0.0
 10
-27.4184779987
 20
23.2062200083
 30
0.0
 10
-27.4177402299
 20
23.2062200083
 30
0.0
 11
-27.4221033315
 21
22.9562200083
 31
0.0
 11
-27.4220660046
 21
22.9888515603
 31
0.0
 11
-27.4219546624
 21
23.020924777
 31
0.0
 11
-27.4217712102
 21
23.0518908766
 31
0.0
 11
-27.4215187867
 21
23.0812200202
 31
0.0
 11
-27.421201711
 21
23.108410378
 31
0.0
 11
-27.4208254085
 21
23.1329967154
 31
0.0
 11
-27.4203963177
 21
23.1545583536
 31
0.0
 11
-27.4199217805
 21
23.1727263671
 31
0.0
 11
-27.4194099164
 21
23.1871898966
 31
0.0
 11
-27.4188694836
 21
23.1977014675
 31
0.0
 11
-27.4183097289
 21
23.2040812244
 31
0.0
 11
-27.4177402299
 21
23.2062200083
 31
0.0
  0
SPLINE
  5
5B9
100
AcDbEntity
  8
RACCORDO
100
AcDbSpline
 62
253
  6
CONTINUOUS
 70
0
 71
3
 72
20
 73
16
 74
14
 42
0.0000001
 43
0.0000001
 44
0.0000000001
 12
-0.250027573
 22
-0.0043642475
 32
0.0
 13
0.0043629186
 23
-0.2500275961
 33
0.0
 40
0.0
 40
0.0
 40
0.0
 40
0.0
 40
0.00758363
 40
0.0294350164
 40
0.065393723
 40
0.1149595343
 40
0.1774183209
 40
0.251863689
 40
0.337212826
 40
0.4322231749
 40
0.5355109201
 40
0.6455713397
 40
0.7608008379
 40
0.8795203788
 40
1.0
 40
1.0
 40
1.0
 40
1.0
 10
-31.506519733
 20
22.3295946294
 30
0.0
 10
-31.5071517719
 20
22.3295835971
 30
0.0
 10
-31.5067766961
 20
22.325807494
 30
0.0
 10
-31.5077869881
 20
22.3216290706
 30
0.0
 10
-31.5077246598
 20
22.3119769605
 30
0.0
 10
-31.5081298454
 20
22.2999498668
 30
0.0
 10
-31.5082345506
 20
22.2842913535
 30
0.0
 10
-31.5083376094
 20
22.2658059781
 30
0.0
 10
-31.5083253187
 20
22.244553261
 30
0.0
 10
-31.5082344777
 20
22.2209141302
 30
0.0
 10
-31.5080537882
 20
22.1952101542
 30
0.0
 10
-31.507789326
 20
22.1678231191
 30
0.0
 10
-31.5074436245
 20
22.139150084
 30
0.0
 10
-31.5070219348
 20
22.1096096242
 30
0.0
 10
-31.5066949473
 20
22.0896737823
 30
0.0
 10
-31.506519733
 20
22.0796327056
 30
0.0
 11
-31.506519733
 21
22.3295946294
 31
0.0
 11
-31.5070135856
 21
22.3277636561
 31
0.0
 11
-31.5074366402
 21
22.3223157762
 31
0.0
 11
-31.5077827303
 21
22.3133304012
 31
0.0
 11
-31.508046811
 21
22.3009385075
 31
0.0
 11
-31.5082250328
 21
22.2853207267
 31
0.0
 11
-31.508314798
 21
22.2667047131
 31
0.0
 11
-31.508314798
 21
22.2453618249
 31
0.0
 11
-31.5082250328
 21
22.2216031689
 31
0.0
 11
-31.508046811
 21
22.1957750657
 31
0.0
 11
-31.5077827303
 21
22.1682540013
 31
0.0
 11
-31.5074366402
 21
22.1394411394
 31
0.0
 11
-31.5070135856
 21
22.1097564736
 31
0.0
 11
-31.506519733
 21
22.0796327056
 31
0.0
  0
SPLINE
  5
5BA
100
AcDbEntity
  8
RACCORDO
100
AcDbSpline
 62
253
  6
CONTINUOUS
 70
0
 71
3
 72
19
 73
15
 74
13
 42
0.0000001
 43
0.0000001
 44
0.0000000001
 12
-0.2501390077
 22
0.0
 32
0.0
 13
0.0
 23
-0.2501390077
 33
0.0
 40
0.0
 40
0.0
 40
0.0
 40
0.0
 40
0.008848309
 40
0.0344511447
 40
0.0765295756
 40
0.1343877517
 40
0.207044201
 40
0.2932598982
 40
0.3915621095
 40
0.5002704881
 40
0.6175262028
 40
0.7413239284
 40
0.8695462587
 40
1.0
 40
1.0
 40
1.0
 40
1.0
 10
-26.3003030539
 20
23.9562200083
 30
0.0
 10
-26.301040823
 20
23.9562200083
 30
0.0
 10
-26.3005793591
 20
23.951764387
 30
0.0
 10
-26.3018701695
 20
23.9469162201
 30
0.0
 10
-26.3019140747
 20
23.9356127394
 30
0.0
 10
-26.3025996948
 20
23.9215957298
 30
0.0
 10
-26.3029848843
 20
23.9033925112
 30
0.0
 10
-26.303429231
 20
23.8820012752
 30
0.0
 10
-26.3037894509
 20
23.8575392295
 30
0.0
 10
-26.304103527
 20
23.8305086466
 30
0.0
 10
-26.3043510919
 20
23.8013451706
 30
0.0
 10
-26.3045320112
 20
23.7705560053
 30
0.0
 10
-26.3046416783
 20
23.7386655035
 30
0.0
 10
-26.3046661555
 20
23.7170971981
 30
0.0
 10
-26.3046661555
 20
23.7062200083
 30
0.0
 11
-26.3003030539
 21
23.9562200083
 31
0.0
 11
-26.300872553
 21
23.9540812237
 31
0.0
 11
-26.3014323077
 21
23.9477014649
 31
0.0
 11
-26.3019727406
 21
23.9371898914
 31
0.0
 11
-26.3024846047
 21
23.9227263593
 31
0.0
 11
-26.3029591419
 21
23.9045583434
 31
0.0
 11
-26.3033882327
 21
23.8829967036
 31
0.0
 11
-26.3037645352
 21
23.8584103656
 31
0.0
 11
-26.3040816108
 21
23.8312200083
 31
0.0
 11
-26.3043340342
 21
23.8018908664
 31
0.0
 11
-26.3045174865
 21
23.7709247696
 31
0.0
 11
-26.3046288286
 21
23.7388515564
 31
0.0
 11
-26.3046661555
 21
23.7062200083
 31
0.0
  0
ELLIPSE
  5
5BB
100
AcDbEntity
  8
COPY-PUBBLISH
100
AcDbEllipse
 62
7
  6
CONTINUOUS
 10
41.9028320688
 20
-6.3025075241
 30
0.0
 11
0.5
 21
-0.0
 31
0.0
 40
0.0174550649
 41
0.0174532925
 42
1.5707963268
  0
ELLIPSE
  5
5BC
100
AcDbEntity
  8
COPY-PUBBLISH
100
AcDbEllipse
 62
7
  6
CONTINUOUS
 10
40.8288879811
 20
-6.3025075241
 30
0.0
 11
0.5
 21
0.0
 31
0.0
 40
0.0174550649
 41
1.5707963268
 42
3.1241393611
  0
ELLIPSE
  5
5BD
100
AcDbEntity
  8
COPY-PUBBLISH
100
AcDbEllipse
 62
7
  6
CONTINUOUS
 10
28.4028320688
 20
-6.3025075241
 30
0.0
 11
0.5
 21
-0.0
 31
0.0
 40
0.0174550649
 41
0.0174532925
 42
1.5707963268
  0
ELLIPSE
  5
5BE
100
AcDbEntity
  8
COPY-PUBBLISH
100
AcDbEllipse
 62
7
  6
CONTINUOUS
 10
27.3288879811
 20
-6.3025075241
 30
0.0
 11
0.5
 21
0.0
 31
0.0
 40
0.0174550649
 41
1.5707963268
 42
3.1241393611
  0
ELLIPSE
  5
5BF
100
AcDbEntity
  8
COPY-PUBBLISH
100
AcDbEllipse
 62
7
  6
CONTINUOUS
 10
28.4028320688
 20
9.2149475408
 30
0.0
 11
0.5
 21
-0.0
 31
0.0
 40
0.0174550649
 41
-1.5707963268
 42
-0.0174532925
  0
ELLIPSE
  5
5C0
100
AcDbEntity
  8
COPY-PUBBLISH
100
AcDbEllipse
 62
7
  6
CONTINUOUS
 10
27.3288879811
 20
9.2149475408
 30
0.0
 11
0.5
 21
0.0
 31
0.0
 40
0.0174550649
 41
-3.1241393611
 42
-1.5707963268
  0
ELLIPSE
  5
5C1
100
AcDbEntity
  8
COPY-PUBBLISH
100
AcDbEllipse
 62
7
  6
CONTINUOUS
 10
41.9028320688
 20
9.2149475408
 30
0.0
 11
0.5
 21
-0.0
 31
0.0
 40
0.0174550649
 41
-1.5707963268
 42
-0.0174532925
  0
ELLIPSE
  5
5C2
100
AcDbEntity
  8
COPY-PUBBLISH
100
AcDbEllipse
 62
7
  6
CONTINUOUS
 10
40.8288879811
 20
9.2149475408
 30
0.0
 11
0.5
 21
0.0
 31
0.0
 40
0.0174550649
 41
-3.1241393611
 42
-1.5707963268
  0
ELLIPSE
  5
5C3
100
AcDbEntity
  8
RACCORDO
100
AcDbEllipse
 62
7
  6
CONTINUOUS
 10
9.965898107
 20
-23.7937799917
 30
0.0
 11
0.250038082
 21
0.0
 31
0.0
 40
0.9998476952
 41
3.1415926536
 42
4.7123889804
  0
ELLIPSE
  5
5C4
100
AcDbEntity
  8
RACCORDO
100
AcDbEllipse
 62
7
  6
CONTINUOUS
 10
59.2658219429
 20
23.7062200083
 30
0.0
 11
0.250038082
 21
0.0
 31
0.0
 40
0.9998476952
 41
-0.0
 42
1.5707963268
  0
ELLIPSE
  5
5C5
100
AcDbEntity
  8
RACCORDO
100
AcDbEllipse
 62
7
  6
CONTINUOUS
 10
55.2642280768
 20
22.7062200083
 30
0.0
 11
-0.0
 21
0.5
 31
0.0
 40
0.0174550649
 41
-1.5707963268
 42
-1.0471975512
  0
ELLIPSE
  5
5C6
100
AcDbEntity
  8
RACCORDO
100
AcDbEllipse
 62
7
  6
CONTINUOUS
 10
38.9674919731
 20
22.7062200083
 30
0.0
 11
-0.0
 21
0.5
 31
0.0
 40
0.0174550649
 41
1.0471975512
 42
1.5707963268
  0
ELLIPSE
  5
5C7
100
AcDbEntity
  8
RACCORDO
100
AcDbEllipse
 62
7
  6
CONTINUOUS
 10
30.2642280768
 20
22.7062200083
 30
0.0
 11
-0.0
 21
0.5
 31
0.0
 40
0.0174550649
 41
-1.5707963268
 42
-1.0471975512
  0
ELLIPSE
  5
5C8
100
AcDbEntity
  8
RACCORDO
100
AcDbEllipse
 62
7
  6
CONTINUOUS
 10
13.9674919731
 20
22.7062200083
 30
0.0
 11
-0.0
 21
0.5
 31
0.0
 40
0.0174550649
 41
1.0471975512
 42
1.5707963268
  0
ELLIPSE
  5
5C9
100
AcDbEntity
  8
RACCORDO
100
AcDbEllipse
 62
7
  6
CONTINUOUS
 10
13.9674919731
 20
-22.7937799917
 30
0.0
 11
-0.0
 21
0.5
 31
0.0
 40
0.0174550649
 41
-4.7123889804
 42
-4.1887902048
  0
ELLIPSE
  5
5CA
100
AcDbEntity
  8
RACCORDO
100
AcDbEllipse
 62
7
  6
CONTINUOUS
 10
30.2642280768
 20
-22.7937799917
 30
0.0
 11
0.0
 21
0.5
 31
0.0
 40
0.0174550649
 41
-2.0943951024
 42
-1.5707963268
  0
ELLIPSE
  5
5CB
100
AcDbEntity
  8
RACCORDO
100
AcDbEllipse
 62
7
  6
CONTINUOUS
 10
55.2642280768
 20
-22.7937799917
 30
0.0
 11
-0.0
 21
0.5
 31
0.0
 40
0.0174550649
 41
-2.0943951024
 42
-1.5707963268
  0
ELLIPSE
  5
5CC
100
AcDbEntity
  8
RACCORDO
100
AcDbEllipse
 62
7
  6
CONTINUOUS
 10
38.9674919731
 20
-22.7937799917
 30
0.0
 11
0.0
 21
0.5
 31
0.0
 40
0.0174550649
 41
-4.7123889804
 42
-4.1887902048
  0
ELLIPSE
  5
5CD
100
AcDbEntity
  8
RACCORDO
100
AcDbEllipse
 62
7
  6
CONTINUOUS
 10
30.6760671775
 20
-22.6834205111
 30
0.0
 11
1.0
 21
-0.0
 31
0.0
 40
0.0174550649
 41
-1.5707963268
 42
-0.0174532925
  0
ELLIPSE
  5
5CE
100
AcDbEntity
  8
RACCORDO
100
AcDbEllipse
 62
7
  6
CONTINUOUS
 10
38.5556528724
 20
-22.6834205111
 30
0.0
 11
1.0
 21
-0.0
 31
0.0
 40
0.0174550649
 41
-3.1241393611
 42
-1.5707963268
  0
ELLIPSE
  5
5CF
100
AcDbEntity
  8
RACCORDO
100
AcDbEllipse
 62
7
  6
CONTINUOUS
 10
38.5556528724
 20
22.5958605277
 30
0.0
 11
1.0
 21
0.0
 31
0.0
 40
0.0174550649
 41
1.5707963268
 42
3.1241393611
  0
ELLIPSE
  5
5D0
100
AcDbEntity
  8
RACCORDO
100
AcDbEllipse
 62
7
  6
CONTINUOUS
 10
30.6760671775
 20
22.5958605277
 30
0.0
 11
1.0
 21
0.0
 31
0.0
 40
0.0174550649
 41
0.0174532925
 42
1.5707963268
  0
ELLIPSE
  5
5D1
100
AcDbEntity
  8
RACCORDO
100
AcDbEllipse
 62
7
  6
CONTINUOUS
 10
12.8556528724
 20
-22.6834205111
 30
0.0
 11
1.0
 21
0.0
 31
0.0
 40
0.0174550649
 41
-3.1241393611
 42
-1.5707963268
  0
ELLIPSE
  5
5D2
100
AcDbEntity
  8
RACCORDO
100
AcDbEllipse
 62
7
  6
CONTINUOUS
 10
56.3760671775
 20
-22.6834205111
 30
0.0
 11
1.0
 21
-0.0
 31
0.0
 40
0.0174550649
 41
-1.5707963268
 42
-0.0174532925
  0
ELLIPSE
  5
5D3
100
AcDbEntity
  8
RACCORDO
100
AcDbEllipse
 62
7
  6
CONTINUOUS
 10
56.3760671775
 20
22.5958605277
 30
0.0
 11
1.0
 21
0.0
 31
0.0
 40
0.0174550649
 41
0.0174532925
 42
1.5707963268
  0
ELLIPSE
  5
5D4
100
AcDbEntity
  8
RACCORDO
100
AcDbEllipse
 62
7
  6
CONTINUOUS
 10
12.8556528724
 20
22.5958605277
 30
0.0
 11
1.0
 21
0.0
 31
0.0
 40
0.0174550649
 41
1.5707963268
 42
3.1241393611
  0
ELLIPSE
  5
5D5
100
AcDbEntity
  8
RACCORDO
100
AcDbEllipse
 62
7
  6
CONTINUOUS
 10
9.965898107
 20
23.7062200083
 30
0.0
 11
0.250038082
 21
0.0
 31
0.0
 40
0.9998476952
 41
1.5707963268
 42
3.1415926536
  0
ELLIPSE
  5
5D6
100
AcDbEntity
  8
RACCORDO
100
AcDbEllipse
 62
7
  6
CONTINUOUS
 10
11.4658219429
 20
23.7062200083
 30
0.0
 11
0.250038082
 21
0.0
 31
0.0
 40
0.9998476952
 41
-0.0
 42
1.5707963268
  0
ELLIPSE
  5
5D7
100
AcDbEntity
  8
RACCORDO
100
AcDbEllipse
 62
7
  6
CONTINUOUS
 10
11.4658219429
 20
-23.7937799917
 30
0.0
 11
0.250038082
 21
-0.0
 31
0.0
 40
0.9998476952
 41
-1.5707963268
 42
0.0
  0
ELLIPSE
  5
5D8
100
AcDbEntity
  8
RACCORDO
100
AcDbEllipse
 62
7
  6
CONTINUOUS
 10
57.765898107
 20
23.7062200083
 30
0.0
 11
0.250038082
 21
-0.0
 31
0.0
 40
0.9998476952
 41
1.5707963268
 42
3.1415926536
  0
ELLIPSE
  5
5D9
100
AcDbEntity
  8
RACCORDO
100
AcDbEllipse
 62
7
  6
CONTINUOUS
 10
57.765898107
 20
-23.7937799917
 30
0.0
 11
0.250038082
 21
0.0
 31
0.0
 40
0.9998476952
 41
3.1415926536
 42
4.7123889804
  0
ELLIPSE
  5
5DA
100
AcDbEntity
  8
RACCORDO
100
AcDbEllipse
 62
7
  6
CONTINUOUS
 10
59.2658219429
 20
-23.7937799917
 30
0.0
 11
0.250038082
 21
0.0
 31
0.0
 40
0.9998476952
 41
-1.5707963268
 42
-0.0
  0
ELLIPSE
  5
5DB
100
AcDbEntity
  8
RACCORDO
100
AcDbEllipse
 62
7
  6
CONTINUOUS
 10
28.4594222109
 20
-23.0437799917
 30
0.0
 11
0.250038082
 21
-0.0
 31
0.0
 40
0.9998476952
 41
-3.1415926536
 42
-1.5707963268
  0
ELLIPSE
  5
5DC
100
AcDbEntity
  8
RACCORDO
100
AcDbEllipse
 62
7
  6
CONTINUOUS
 10
15.772297839
 20
-23.0437799917
 30
0.0
 11
0.250038082
 21
0.0
 31
0.0
 40
0.9998476952
 41
-1.5707963268
 42
-0.0
  0
ELLIPSE
  5
5DD
100
AcDbEntity
  8
RACCORDO
100
AcDbEllipse
 62
7
  6
CONTINUOUS
 10
15.0158600249
 20
22.4011457358
 30
0.0
 11
0.8447970412
 21
0.0
 31
0.0
 40
0.0174550649
 41
-3.1241393611
 42
-0.0174532925
  0
ELLIPSE
  5
5DE
100
AcDbEntity
  8
RACCORDO
100
AcDbEllipse
 62
7
  6
CONTINUOUS
 10
29.2158600249
 20
22.4011457358
 30
0.0
 11
0.8447970412
 21
0.0
 31
0.0
 40
0.0174550649
 41
-3.1241393611
 42
-0.0174532925
  0
ELLIPSE
  5
5DF
100
AcDbEntity
  8
RACCORDO
100
AcDbEllipse
 62
7
  6
CONTINUOUS
 10
53.4594222109
 20
22.9562200083
 30
0.0
 11
0.250038082
 21
-0.0
 31
0.0
 40
0.9998476952
 41
1.5707963268
 42
3.1415926536
  0
ELLIPSE
  5
5E0
100
AcDbEntity
  8
RACCORDO
100
AcDbEllipse
 62
7
  6
CONTINUOUS
 10
40.0158600249
 20
22.4011457358
 30
0.0
 11
0.8447970412
 21
-0.0
 31
0.0
 40
0.0174550649
 41
-3.1241393611
 42
-0.0174532925
  0
ELLIPSE
  5
5E1
100
AcDbEntity
  8
RACCORDO
100
AcDbEllipse
 62
7
  6
CONTINUOUS
 10
54.2158600249
 20
22.4011457358
 30
0.0
 11
0.8447970412
 21
-0.0
 31
0.0
 40
0.0174550649
 41
-3.1241393611
 42
-0.0174532925
  0
ELLIPSE
  5
5E2
100
AcDbEntity
  8
RACCORDO
100
AcDbEllipse
 62
7
  6
CONTINUOUS
 10
54.2158600249
 20
-22.4887057192
 30
0.0
 11
0.8447970412
 21
-0.0
 31
0.0
 40
0.0174550649
 41
0.0174532925
 42
3.1241393611
  0
ELLIPSE
  5
5E3
100
AcDbEntity
  8
RACCORDO
100
AcDbEllipse
 62
7
  6
CONTINUOUS
 10
40.0158600249
 20
-22.4887057192
 30
0.0
 11
0.8447970412
 21
0.0
 31
0.0
 40
0.0174550649
 41
0.0174532925
 42
3.1241393611
  0
ELLIPSE
  5
5E4
100
AcDbEntity
  8
RACCORDO
100
AcDbEllipse
 62
7
  6
CONTINUOUS
 10
29.2158600249
 20
-22.4887057192
 30
0.0
 11
0.8447970412
 21
0.0
 31
0.0
 40
0.0174550649
 41
0.0174532925
 42
3.1241393611
  0
ELLIPSE
  5
5E5
100
AcDbEntity
  8
RACCORDO
100
AcDbEllipse
 62
7
  6
CONTINUOUS
 10
15.0158600249
 20
-22.4887057192
 30
0.0
 11
0.8447970412
 21
0.0
 31
0.0
 40
0.0174550649
 41
0.0174532925
 42
3.1241393611
  0
ELLIPSE
  5
5E6
100
AcDbEntity
  8
RACCORDO
100
AcDbEllipse
 62
7
  6
CONTINUOUS
 10
40.772297839
 20
22.9562200083
 30
0.0
 11
0.250038082
 21
-0.0
 31
0.0
 40
0.9998476952
 41
0.0
 42
1.5707963268
  0
ELLIPSE
  5
5E7
100
AcDbEntity
  8
RACCORDO
100
AcDbEllipse
 62
7
  6
CONTINUOUS
 10
59.1436364884
 20
18.0023633553
 30
0.0
 11
0.0250113895
 21
0.2526592035
 31
0.0
 40
0.9846622838
 41
-1.4705984321
 42
0.0971673115
  0
ELLIPSE
  5
5E8
100
AcDbEntity
  8
RACCORDO
100
AcDbEllipse
 62
7
  6
CONTINUOUS
 10
59.1436364884
 20
-18.0899233387
 30
0.0
 11
-0.0250113895
 21
0.2526592035
 31
0.0
 40
0.9846622838
 41
-3.2387599651
 42
-1.6709942215
  0
ELLIPSE
  5
5E9
100
AcDbEntity
  8
RACCORDO
100
AcDbEllipse
 62
7
  6
CONTINUOUS
 10
10.0880835615
 20
18.0023633553
 30
0.0
 11
-0.0250113895
 21
0.2526592035
 31
0.0
 40
0.9846622838
 41
-0.0971673115
 42
1.4705984321
  0
ELLIPSE
  5
5EA
100
AcDbEntity
  8
RACCORDO
100
AcDbEllipse
 62
7
  6
CONTINUOUS
 10
28.4594222109
 20
22.9562200083
 30
0.0
 11
0.250038082
 21
0.0
 31
0.0
 40
0.9998476952
 41
1.5707963268
 42
3.1415926536
  0
ELLIPSE
  5
5EB
100
AcDbEntity
  8
RACCORDO
100
AcDbEllipse
 62
7
  6
CONTINUOUS
 10
10.0880835615
 20
-18.0899233387
 30
0.0
 11
0.0250113895
 21
0.2526592035
 31
0.0
 40
0.9846622838
 41
-4.6121910857
 42
-3.0444253421
  0
ELLIPSE
  5
5EC
100
AcDbEntity
  8
RACCORDO
100
AcDbEllipse
 62
7
  6
CONTINUOUS
 10
10.7158600249
 20
22.4206870849
 30
0.0
 11
0.9643201836
 21
-0.0
 31
0.0
 40
0.0174550649
 41
-2.3876467058
 42
-0.0174532925
  0
ELLIPSE
  5
5ED
100
AcDbEntity
  8
RACCORDO
100
AcDbEllipse
 62
7
  6
CONTINUOUS
 10
10.7158600249
 20
-22.5082470683
 30
0.0
 11
0.9643201836
 21
0.0
 31
0.0
 40
0.0174550649
 41
0.0174532925
 42
2.3876467058
  0
ELLIPSE
  5
5EE
100
AcDbEntity
  8
RACCORDO
100
AcDbEllipse
 62
7
  6
CONTINUOUS
 10
58.5158600249
 20
22.4206870849
 30
0.0
 11
0.9643201836
 21
0.0
 31
0.0
 40
0.0174550649
 41
-3.1241393611
 42
-0.7539459478
  0
ELLIPSE
  5
5EF
100
AcDbEntity
  8
RACCORDO
100
AcDbEllipse
 62
7
  6
CONTINUOUS
 10
58.5158600249
 20
-22.5082470683
 30
0.0
 11
0.9643201836
 21
-0.0
 31
0.0
 40
0.0174550649
 41
0.7539459478
 42
3.1241393611
  0
ELLIPSE
  5
5F0
100
AcDbEntity
  8
RACCORDO
100
AcDbEllipse
 62
7
  6
CONTINUOUS
 10
15.772297839
 20
22.9562200083
 30
0.0
 11
0.250038082
 21
-0.0
 31
0.0
 40
0.9998476952
 41
0.0
 42
1.5707963268
  0
ELLIPSE
  5
5F1
100
AcDbEntity
  8
RACCORDO
100
AcDbEllipse
 62
7
  6
CONTINUOUS
 10
53.4594222109
 20
-23.0437799917
 30
0.0
 11
0.250038082
 21
0.0
 31
0.0
 40
0.9998476952
 41
3.1415926536
 42
4.7123889804
  0
ELLIPSE
  5
5F2
100
AcDbEntity
  8
RACCORDO
100
AcDbEllipse
 62
7
  6
CONTINUOUS
 10
40.772297839
 20
-23.0437799917
 30
0.0
 11
0.250038082
 21
0.0
 31
0.0
 40
0.9998476952
 41
-1.5707963268
 42
-0.0
  0
ELLIPSE
  5
5F3
100
AcDbEntity
  8
RACCORDO
100
AcDbEllipse
 62
7
  6
CONTINUOUS
 10
-6.5521566314
 20
-9.8369533385
 30
0.0
 11
0.2999543919
 21
-0.0090657793
 31
0.0
 40
0.576998777
 41
0.0174373622
 42
1.5795070427
  0
ELLIPSE
  5
5F4
100
AcDbEntity
  8
RACCORDO
100
AcDbEllipse
 62
7
  6
CONTINUOUS
 10
-6.5521566314
 20
-6.0506066449
 30
0.0
 11
0.2999543919
 21
0.0090657793
 31
0.0
 40
0.576998777
 41
-1.5795070427
 42
-0.0174373622
  0
ELLIPSE
  5
5F5
100
AcDbEntity
  8
RACCORDO
100
AcDbEllipse
 62
7
  6
CONTINUOUS
 10
-7.1021566314
 20
-9.9541657643
 30
0.0
 11
0.8498707771
 21
-0.0256863746
 31
0.0
 40
0.576998777
 41
-1.5359056721
 42
0.0174373622
  0
ELLIPSE
  5
5F6
100
AcDbEntity
  8
RACCORDO
100
AcDbEllipse
 62
7
  6
CONTINUOUS
 10
-7.1021566314
 20
-5.933394219
 30
0.0
 11
0.8498707771
 21
0.0256863746
 31
0.0
 40
0.576998777
 41
-0.0174373622
 42
1.5359056721
  0
ELLIPSE
  5
5F7
100
AcDbEntity
  8
ASSI
100
AcDbEllipse
 62
7
  6
CONTINUOUS
 10
-6.5521566314
 20
-9.8369533385
 30
0.0
 11
0.2999543919
 21
-0.0090657793
 31
0.0
 40
0.576998777
 41
0.0174373622
 42
1.5795070427
  0
ELLIPSE
  5
5F8
100
AcDbEntity
  8
ASSI
100
AcDbEllipse
 62
7
  6
CONTINUOUS
 10
-6.5521566314
 20
-6.0506066449
 30
0.0
 11
0.2999543919
 21
0.0090657793
 31
0.0
 40
0.576998777
 41
-1.5795070427
 42
-0.0174373622
  0
ELLIPSE
  5
5F9
100
AcDbEntity
  8
ASSI
100
AcDbEllipse
 62
7
  6
CONTINUOUS
 10
-7.1021566314
 20
-5.933394219
 30
0.0
 11
0.8498707771
 21
0.0256863746
 31
0.0
 40
0.576998777
 41
-0.0174373622
 42
1.5359056721
  0
ELLIPSE
  5
5FA
100
AcDbEntity
  8
ASSI
100
AcDbEllipse
 62
7
  6
CONTINUOUS
 10
-7.1021566314
 20
-9.9541657643
 30
0.0
 11
0.8498707771
 21
-0.0256863746
 31
0.0
 40
0.576998777
 41
-1.5359056721
 42
0.0174373622
  0
ELLIPSE
  5
5FB
100
AcDbEntity
  8
CURVE
100
AcDbEllipse
 62
253
  6
CONTINUOUS
 10
-14.6925219724
 20
14.1675700083
 30
0.0
 11
-0.0
 21
0.572706
 31
0.0
 40
0.9996954135
 41
-4.7123889804
 42
-3.3956298954
  0
ENDSEC
  0
SECTION
  2
OBJECTS
  0
DICTIONARY
  5
C
100
AcDbDictionary
280
0
281
1
  3
ACAD_GROUP
350
D
  3
ACAD_MLINESTYLE
350
17
  3
ACAD_LAYOUT
350
1A
  3
ACAD_PLOTSETTINGS
350
19
  3
ACAD_PLOTSTYLENAME
350
E
  0
DICTIONARY
  5
D
102
{ACAD_REACTORS
330
C
102
}
100
AcDbDictionary
280
0
281
1
  0
ACDBDICTIONARYWDFLT
  5
E
102
{ACAD_REACTORS
330
C
102
}
100
AcDbDictionary
281
1
  3
Normal
350
F
100
AcDbDictionaryWithDefault
340
F
  0
DICTIONARY
  5
17
102
{ACAD_REACTORS
330
C
102
}
100
AcDbDictionary
280
0
281
1
  3
Standard
350
18
  0
DICTIONARY
  5
19
102
{ACAD_REACTORS
330
C
102
}
100
AcDbDictionary
281
1
  0
DICTIONARY
  5
1A
102
{ACAD_REACTORS
330
C
102
}
100
AcDbDictionary
281
1
  3
Model
350
5FC
  3
Layout1
350
5FD
  0
ACDBPLACEHOLDER
  5
F
102
{ACAD_REACTORS
330
E
102
}
  0
MLINESTYLE
  5
18
102
{ACAD_REACTORS
330
17
102
}
100
AcDbMlineStyle
  2
STANDARD
 70
0
  3

 62
256
 51
90.0
 52
90.0
 71
2
 49
0.5
 62
256
  6
BYLAYER
 49
-0.5
 62
256
  6
BYLAYER
  0
LAYOUT
  5
5FC
102
{ACAD_REACTORS
330
1A
102
}
100
AcDbPlotSettings
  1

  2
none_device
  4
ISO_A4_(297.00_x_210.00_MM)
  6

 40
0.0
 41
0.0
 42
0.0
 43
0.0
 44
297.0
 45
210.0
 46
0.0
 47
0.0
 48
0.0
 49
0.0
140
0.0
141
0.0
142
1.0
143
1.0
 70
1024
 72
1
 73
0
 74
0
  7

 75
0
147
1.0
148
0.0
149
0.0
100
AcDbLayout
  1
Model
 70
0
 71
0
 10
0.0
 20
0.0
 11
297.0
 21
210.0
 12
0.0
 22
0.0
 32
0.0
 14
0.0
 24
0.0
 34
0.0
 15
0.0
 25
0.0
 35
0.0
146
0.0
 13
0.0
 23
0.0
 33
0.0
 16
1.0
 26
0.0
 36
0.0
 17
0.0
 27
1.0
 37
0.0
 76
0
330
286
345
0
346
0
  0
LAYOUT
  5
5FD
102
{ACAD_REACTORS
330
1A
102
}
100
AcDbPlotSettings
  1

  2
none_device
  4
ISO_A4_(297.00_x_210.00_MM)
  6

 40
0.0
 41
0.0
 42
0.0
 43
0.0
 44
297.0
 45
210.0
 46
0.0
 47
0.0
 48
0.0
 49
0.0
140
0.0
141
0.0
142
1.0
143
1.0
 70
0
 72
1
 73
0
 74
0
  7

 75
0
147
1.0
148
0.0
149
0.0
100
AcDbLayout
  1
Layout1
 70
0
 71
1
 10
0.0
 20
0.0
 11
297.0
 21
210.0
 12
0.0
 22
0.0
 32
0.0
 14
0.0
 24
0.0
 34
0.0
 15
0.0
 25
0.0
 35
0.0
146
0.0
 13
0.0
 23
0.0
 33
0.0
 16
1.0
 26
0.0
 36
0.0
 17
0.0
 27
1.0
 37
0.0
 76
0
330
287
345
0
346
0
  0
ENDSEC
  0
EOF
