  0
SECTION
  2
HEADER
  9
$ACADVER
  1
AC1015
  9
$DWGCODEPAGE
  3
ANSI_1252
  9
$EXTMAX
 10
297.0
 20
210.0
 30
0.0
  9
$EXTMIN
 10
0.0
 20
0.0
 30
0.0
  9
$LIMMIN
 10
0.0
 20
0.0
  9
$LIMMAX
 10
297.0
 20
210.0
  9
$VIEWCTR
 10
148.5
 20
105.0
  9
$VIEWSIZE
 40
210.0
  9
$CLAYER
  8
0
  9
$LTSCALE
 40
16.335
  9
$CELTYPE
  6
BYLAYER
  9
$DIMSCALE
 40
1.0
  9
$DIMASZ
 40
3.0
  9
$DIMEXO
 40
0.5
  9
$DIMDLI
 40
11.286
  9
$DIMEXE
 40
1.5
  9
$DIMCEN
 40
2.673
  9
$DIMLFAC
 40
1.0
  9
$DIMBLK
  1
_FILLED
  9
$DIMTXT
 40
3.0
  9
$DIMTOL
 70
1
  9
$DIMLIM
 70
0
  9
$DIMTFAC
 40
1.0
  9
$DIMTP
 40
0.01
  9
$DIMTM
 40
0.01
  9
$DIMGAP
 40
0.625
  9
$DIMDSEP
 70
44
  9
$PDMODE
 70
3
  9
$PDSIZE
 40
3.0
  9
$HANDSEED
  5
456
  9
$TILEMODE
 70
1
  9
$MEASUREMENT
 70
1
  9
$INSUNITS
 70
4
  0
ENDSEC
  0
SECTION
  2
CLASSES
  0
CLASS
  1
ACDBDICTIONARYWDFLT
  2
AcDbDictionaryWithDefault
  3
AutoCAD 2000
 90
0
280
0
281
0
  0
CLASS
  1
ACDBPLACEHOLDER
  2
AcDbPlaceHolder
  3
AutoCAD 2000
 90
0
280
0
281
0
  0
CLASS
  1
LAYOUT
  2
AcDbLayout
  3
AutoCAD 2000
 90
0
280
0
281
0
  0
ENDSEC
  0
SECTION
  2
TABLES
  0
TABLE
  2
VPORT
  5
8
100
AcDbSymbolTable
 70
2
  0
VPORT
  5
1F4
100
AcDbSymbolTableRecord
100
AcDbViewportTableRecord
  2
*ACTIVE
 70
0
 10
0.0
 20
0.0
 11
1.0
 21
1.0
 12
148.5
 22
105.0
 13
0.0
 23
0.0
 14
1.0
 24
1.0
 15
0.0
 25
0.0
 16
0.0
 26
0.0
 36
1.0
 17
0.0
 27
0.0
 37
0.0
 40
210.0
 41
1.4142857143
 42
50.0
 43
0.0
 44
0.0
 50
0.0
 51
0.0
 71
0
 72
100
 73
1
 74
1
 75
0
 76
0
 77
0
 78
0
  0
ENDTAB
  0
TABLE
  2
LTYPE
  5
5
100
AcDbSymbolTable
 70
6
  0
LTYPE
  5
14
100
AcDbSymbolTableRecord
100
AcDbLinetypeTableRecord
  2
BYBLOCK
 70
0
  3

 72
65
 73
0
 40
0.0
  0
LTYPE
  5
15
100
AcDbSymbolTableRecord
100
AcDbLinetypeTableRecord
  2
BYLAYER
 70
0
  3

 72
65
 73
0
 40
0.0
  0
LTYPE
  5
16
100
AcDbSymbolTableRecord
100
AcDbLinetypeTableRecord
  2
CONTINUOUS
 70
64
  3
Solid line
 72
65
 73
0
 40
0.0
  0
LTYPE
  5
1F5
100
AcDbSymbolTableRecord
100
AcDbLinetypeTableRecord
  2
CENTER
 70
64
  3
____ _ ____ _ ____ _ ____ _ ____ _ ____ _ ____
 72
65
 73
4
 40
0.6
 49
0.375
 74
0
 49
-0.075
 74
0
 49
0.075
 74
0
 49
-0.075
 74
0
  0
LTYPE
  5
1F6
100
AcDbSymbolTableRecord
100
AcDbLinetypeTableRecord
  2
HIDDEN
 70
64
  3
- - - - - - - - - - - - - - - - - - - -
 72
65
 73
2
 40
0.2
 49
0.1
 74
0
 49
-0.1
 74
0
  0
LTYPE
  5
1F7
100
AcDbSymbolTableRecord
100
AcDbLinetypeTableRecord
  2
PHANTOM
 70
64
  3
_____ _ _ _____ _ _ _____ _ _ _____
 72
65
 73
6
 40
0.8
 49
0.45
 74
0
 49
-0.05
 74
0
 49
0.1
 74
0
 49
-0.05
 74
0
 49
0.1
 74
0
 49
-0.05
 74
0
  0
LTYPE
  5
1F8
100
AcDbSymbolTableRecord
100
AcDbLinetypeTableRecord
  2
DOT
 70
64
  3
. . . . . . . . . . . . . . . . . . . .
 72
65
 73
2
 40
0.2
 49
0.1
 74
0
 49
-0.1
 74
0
  0
LTYPE
  5
1F9
100
AcDbSymbolTableRecord
100
AcDbLinetypeTableRecord
  2
DASHED
 70
64
  3
- - - - - - - - - - - - - - - - - - - -
 72
65
 73
2
 40
0.2
 49
0.1
 74
0
 49
-0.1
 74
0
  0
ENDTAB
  0
TABLE
  2
LAYER
  5
2
100
AcDbSymbolTable
 70
36
  0
LAYER
  5
10
100
AcDbSymbolTableRecord
100
AcDbLayerTableRecord
  2
0
 70
0
 62
7
  6
CONTINUOUS
370
-3
390
F
  0
LAYER
  5
1FA
100
AcDbSymbolTableRecord
100
AcDbLayerTableRecord
  2
DEFAULT_1
 70
0
 62
7
  6
CENTER
370
-3
390
F
  0
LAYER
  5
1FB
100
AcDbSymbolTableRecord
100
AcDbLayerTableRecord
  2
DEFAULT_2
 70
0
 62
7
  6
HIDDEN
370
-3
390
F
  0
LAYER
  5
1FC
100
AcDbSymbolTableRecord
100
AcDbLayerTableRecord
  2
DEFAULT_3
 70
0
 62
7
  6
PHANTOM
370
-3
390
F
  0
LAYER
  5
1FD
100
AcDbSymbolTableRecord
100
AcDbLayerTableRecord
  2
ASSI
 70
0
 62
7
  6
CONTINUOUS
370
-3
390
F
  0
LAYER
  5
1FE
100
AcDbSymbolTableRecord
100
AcDbLayerTableRecord
  2
COLOR1
 70
0
 62
7
  6
CONTINUOUS
370
-3
390
F
  0
LAYER
  5
1FF
100
AcDbSymbolTableRecord
100
AcDbLayerTableRecord
  2
COORDINATE
 70
0
 62
7
  6
CONTINUOUS
370
-3
390
F
  0
LAYER
  5
200
100
AcDbSymbolTableRecord
100
AcDbLayerTableRecord
  2
COORD_ORIGINE
 70
0
 62
7
  6
CONTINUOUS
370
-3
390
F
  0
LAYER
  5
201
100
AcDbSymbolTableRecord
100
AcDbLayerTableRecord
  2
COPY_PUBLISH
 70
0
 62
7
  6
CONTINUOUS
370
-3
390
F
  0
LAYER
  5
202
100
AcDbSymbolTableRecord
100
AcDbLayerTableRecord
  2
COSMETICI
 70
0
 62
7
  6
CONTINUOUS
370
-3
390
F
  0
LAYER
  5
203
100
AcDbSymbolTableRecord
100
AcDbLayerTableRecord
  2
CURVE
 70
0
 62
7
  6
CONTINUOUS
370
-3
390
F
  0
LAYER
  5
204
100
AcDbSymbolTableRecord
100
AcDbLayerTableRecord
  2
CURVE_LED_TASTO
 70
0
 62
7
  6
CONTINUOUS
370
-3
390
F
  0
LAYER
  5
205
100
AcDbSymbolTableRecord
100
AcDbLayerTableRecord
  2
DRAFT
 70
0
 62
7
  6
CONTINUOUS
370
-3
390
F
  0
LAYER
  5
206
100
AcDbSymbolTableRecord
100
AcDbLayerTableRecord
  2
IMPORT_IGES
 70
0
 62
7
  6
CONTINUOUS
370
-3
390
F
  0
LAYER
  5
207
100
AcDbSymbolTableRecord
100
AcDbLayerTableRecord
  2
INTF_YELLOW
 70
0
 62
7
  6
CONTINUOUS
370
-3
390
F
  0
LAYER
  5
208
100
AcDbSymbolTableRecord
100
AcDbLayerTableRecord
  2
NOTE
 70
0
 62
7
  6
CONTINUOUS
370
-3
390
F
  0
LAYER
  5
209
100
AcDbSymbolTableRecord
100
AcDbLayerTableRecord
  2
PIANI
 70
0
 62
7
  6
CONTINUOUS
370
-3
390
F
  0
LAYER
  5
20A
100
AcDbSymbolTableRecord
100
AcDbLayerTableRecord
  2
PIANI_ORIGINE
 70
0
 62
7
  6
CONTINUOUS
370
-3
390
F
  0
LAYER
  5
20B
100
AcDbSymbolTableRecord
100
AcDbLayerTableRecord
  2
PIANI_RIFERIMENTO
 70
0
 62
7
  6
CONTINUOUS
370
-3
390
F
  0
LAYER
  5
20C
100
AcDbSymbolTableRecord
100
AcDbLayerTableRecord
  2
PUNTI
 70
0
 62
7
  6
CONTINUOUS
370
-3
390
F
  0
LAYER
  5
20D
100
AcDbSymbolTableRecord
100
AcDbLayerTableRecord
  2
RACCORDO
 70
0
 62
7
  6
CONTINUOUS
370
-3
390
F
  0
LAYER
  5
20E
100
AcDbSymbolTableRecord
100
AcDbLayerTableRecord
  2
SCRITTE
 70
0
 62
7
  6
CONTINUOUS
370
-3
390
F
  0
LAYER
  5
20F
100
AcDbSymbolTableRecord
100
AcDbLayerTableRecord
  2
SIMBOLI
 70
0
 62
7
  6
CONTINUOUS
370
-3
390
F
  0
LAYER
  5
210
100
AcDbSymbolTableRecord
100
AcDbLayerTableRecord
  2
SMUSSO
 70
0
 62
7
  6
CONTINUOUS
370
-3
390
F
  0
LAYER
  5
211
100
AcDbSymbolTableRecord
100
AcDbLayerTableRecord
  2
SNAPLINE
 70
0
 62
7
  6
CONTINUOUS
370
-3
390
F
  0
LAYER
  5
212
100
AcDbSymbolTableRecord
100
AcDbLayerTableRecord
  2
SUPERFICI
 70
0
 62
7
  6
CONTINUOUS
370
-3
390
F
  0
LAYER
  5
213
100
AcDbSymbolTableRecord
100
AcDbLayerTableRecord
  2
TRASH
 70
0
 62
7
  6
CONTINUOUS
370
-3
390
F
  0
ENDTAB
  0
TABLE
  2
STYLE
  5
3
100
AcDbSymbolTable
 70
1
  0
STYLE
  5
11
100
AcDbSymbolTableRecord
100
AcDbTextStyleTableRecord
  2
STANDARD
 70
0
 40
0.0
 41
0.8
 50
0.0
 71
0
 42
0.2
  3
txt
  4

  0
STYLE
  5
214
100
AcDbSymbolTableRecord
100
AcDbTextStyleTableRecord
  2
TEXTSTYLE_1
 70
0
 40
0.0
 41
0.8
 50
0.0
 71
0
 42
0.2
  3
gdt
  4

  0
ENDTAB
  0
TABLE
  2
VIEW
  5
6
100
AcDbSymbolTable
 70
0
  0
ENDTAB
  0
TABLE
  2
UCS
  5
7
100
AcDbSymbolTable
 70
0
  0
ENDTAB
  0
TABLE
  2
APPID
  5
9
100
AcDbSymbolTable
 70
1
  0
APPID
  5
215
100
AcDbSymbolTableRecord
100
AcDbRegAppTableRecord
  2
ACAD
 70
0
  0
ENDTAB
  0
TABLE
  2
BLOCK_RECORD
  5
1
100
AcDbSymbolTable
 70
0
  0
BLOCK_RECORD
  5
216
100
AcDbSymbolTableRecord
100
AcDbBlockTableRecord
  2
*Model_Space
  0
BLOCK_RECORD
  5
217
100
AcDbSymbolTableRecord
100
AcDbBlockTableRecord
  2
*Paper_Space
  0
BLOCK_RECORD
  5
218
100
AcDbSymbolTableRecord
100
AcDbBlockTableRecord
  2
_FILLED
  0
BLOCK_RECORD
  5
219
100
AcDbSymbolTableRecord
100
AcDbBlockTableRecord
  2
*D0
  0
BLOCK_RECORD
  5
21A
100
AcDbSymbolTableRecord
100
AcDbBlockTableRecord
  2
*D1
  0
BLOCK_RECORD
  5
21B
100
AcDbSymbolTableRecord
100
AcDbBlockTableRecord
  2
*D2
  0
ENDTAB
  0
TABLE
  2
DIMSTYLE
  5
A
100
AcDbSymbolTable
 70
1
100
AcDbDimStyleTable
 71
0
  0
DIMSTYLE
105
21C
100
AcDbSymbolTableRecord
100
AcDbDimStyleTableRecord
  2
STANDARD
 70
0
  3

  4

 40
1.0
 41
3.0
 42
0.5
 43
0.38
 44
1.5
 45
0.0
 46
0.0
 47
0.01
 48
0.01
140
3.0
141
0.09
142
0.0
143
25.4
144
1.0
145
0.0
146
1.0
147
0.625
 71
1.0
 72
0.0
 73
0
 74
0
 75
0
 76
0
 77
1
 78
8
170
0
171
2
172
0
173
0
174
0
175
0
176
0
177
0
178
0
270
2
271
2
272
2
273
2
274
2
275
0
280
0
281
0
282
0
283
1
284
8
285
0
286
0
287
3
288
0
340
11
278
44
341
218
342
218
343
218
344
218
  0
DIMSTYLE
105
21D
100
AcDbSymbolTableRecord
100
AcDbDimStyleTableRecord
  2
DIMSTYLE_1
 70
0
  3

  4

 40
1.0
 41
3.0
 42
0.5
 43
0.38
 44
1.5
 45
0.0
 46
0.0
 47
0.0
 48
0.0
140
3.0
141
0.09
142
0.0
143
25.4
144
1.0
145
0.0
146
1.0
147
0.75
 71
0.0
 72
0.0
 73
0
 74
0
 75
0
 76
0
 77
1
 78
8
170
0
171
2
172
0
173
0
174
0
175
0
176
0
177
0
178
0
270
2
271
2
272
2
273
2
274
2
275
0
280
0
281
0
282
0
283
1
284
8
285
0
286
0
287
3
288
0
340
11
278
44
341
218
342
218
343
218
344
218
  0
ENDTAB
  0
ENDSEC
  0
SECTION
  2
BLOCKS
  0
BLOCK
  5
20
100
AcDbEntity
  8
0
100
AcDbBlockBegin
  2
*Model_Space
 70
0
 10
0.0
 20
0.0
 30
0.0
  3
*Model_Space
  1

  0
ENDBLK
  5
21
100
AcDbEntity
  8
0
100
AcDbBlockEnd
  0
BLOCK
  5
1C
100
AcDbEntity
  8
0
100
AcDbBlockBegin
  2
*Paper_Space
 70
0
 10
0.0
 20
0.0
 30
0.0
  3
*Paper_Space
  1

  0
ENDBLK
  5
1D
100
AcDbEntity
  8
0
100
AcDbBlockEnd
  0
BLOCK
  5
21E
100
AcDbEntity
  8
0
100
AcDbBlockBegin
  2
_FILLED
 70
64
 10
0.0
 20
0.0
  3
_FILLED
  1

  0
SOLID
  5
21F
100
AcDbEntity
  8
0
  6
BYBLOCK
 62
0
100
AcDbTrace
 10
0.0
 20
0.0
 11
-1.0
 21
0.3166666667
 12
-1.0
 22
-0.3166666667
 13
-1.0
 23
-0.3166666667
  0
ENDBLK
  5
220
100
AcDbEntity
  8
0
  6
BYBLOCK
 62
0
100
AcDbBlockEnd
  0
BLOCK
  5
221
100
AcDbEntity
  8
0
100
AcDbBlockBegin
 62
7
  6
CONTINUOUS
  2
*D0
 70
65
 10
0.0
 20
0.0
  3
*D0
  1

  0
MTEXT
  5
222
100
AcDbEntity
  8
0
100
AcDbMText
 62
7
  6
CONTINUOUS
  7
STANDARD
 71
2
 72
1
 10
2.5663159342
 20
14.3488333809
 30
0.0
 11
0.0
 21
1.0
 31
0.0
 44
0.9
  1
36,8
 40
3.0
 41
8.5714285714
  0
LINE
  5
223
100
AcDbEntity
  8
0
100
AcDbLine
 62
7
  6
CONTINUOUS
 10
-1.4828204522
 20
-4.0511666191
 11
7.8163159342
 21
-4.0511666191
  0
LINE
  5
224
100
AcDbEntity
  8
0
100
AcDbLine
 62
7
  6
CONTINUOUS
 10
-1.4828204522
 20
32.7488333809
 11
7.8163159342
 21
32.7488333809
  0
LINE
  5
225
100
AcDbEntity
  8
0
100
AcDbLine
 62
7
  6
CONTINUOUS
 10
6.3163159342
 20
-4.0511666191
 11
6.3163159342
 21
14.3488333809
  0
LINE
  5
226
100
AcDbEntity
  8
0
100
AcDbLine
 62
7
  6
CONTINUOUS
 10
6.3163159342
 20
32.7488333809
 11
6.3163159342
 21
14.3488333809
  0
INSERT
  5
227
100
AcDbEntity
  8
0
100
AcDbBlockReference
 62
7
  6
CONTINUOUS
  2
_FILLED
 10
6.3163159342
 20
-4.0511666191
 41
3.0
 42
3.0
 43
3.0
 50
270.0
  0
INSERT
  5
228
100
AcDbEntity
  8
0
100
AcDbBlockReference
 62
7
  6
CONTINUOUS
  2
_FILLED
 10
6.3163159342
 20
32.7488333809
 41
3.0
 42
3.0
 43
3.0
 50
90.0
  0
ENDBLK
  5
229
100
AcDbEntity
  8
0
  6
BYBLOCK
 62
0
100
AcDbBlockEnd
  0
BLOCK
  5
22A
100
AcDbEntity
  8
0
100
AcDbBlockBegin
 62
7
  6
CONTINUOUS
  2
*D1
 70
65
 10
0.0
 20
0.0
  3
*D1
  1

  0
MTEXT
  5
22B
100
AcDbEntity
  8
0
100
AcDbMText
 62
7
  6
CONTINUOUS
  7
STANDARD
 71
2
 72
1
 10
-14.0836840658
 20
44.4988333809
 30
0.0
 11
1.0
 21
0.0
 31
0.0
 44
0.9
  1
24,8
 40
3.0
 41
8.7857142857
  0
LINE
  5
22C
100
AcDbEntity
  8
0
100
AcDbLine
 62
7
  6
CONTINUOUS
 10
-1.6836840658
 20
32.9451285964
 11
-1.6836840658
 21
42.2488333809
  0
LINE
  5
22D
100
AcDbEntity
  8
0
100
AcDbLine
 62
7
  6
CONTINUOUS
 10
-26.4836840658
 20
32.9451285964
 11
-26.4836840658
 21
42.2488333809
  0
LINE
  5
22E
100
AcDbEntity
  8
0
100
AcDbLine
 62
7
  6
CONTINUOUS
 10
-1.6836840658
 20
40.7488333809
 11
-14.0836840658
 21
40.7488333809
  0
LINE
  5
22F
100
AcDbEntity
  8
0
100
AcDbLine
 62
7
  6
CONTINUOUS
 10
-26.4836840658
 20
40.7488333809
 11
-14.0836840658
 21
40.7488333809
  0
INSERT
  5
230
100
AcDbEntity
  8
0
100
AcDbBlockReference
 62
7
  6
CONTINUOUS
  2
_FILLED
 10
-1.6836840658
 20
40.7488333809
 41
3.0
 42
3.0
 43
3.0
  0
INSERT
  5
231
100
AcDbEntity
  8
0
100
AcDbBlockReference
 62
7
  6
CONTINUOUS
  2
_FILLED
 10
-26.4836840658
 20
40.7488333809
 41
3.0
 42
3.0
 43
3.0
 50
180.0
  0
ENDBLK
  5
232
100
AcDbEntity
  8
0
  6
BYBLOCK
 62
0
100
AcDbBlockEnd
  0
BLOCK
  5
233
100
AcDbEntity
  8
0
100
AcDbBlockBegin
 62
7
  6
CONTINUOUS
  2
*D2
 70
65
 10
0.0
 20
0.0
  3
*D2
  1

  0
MTEXT
  5
234
100
AcDbEntity
  8
0
100
AcDbMText
 62
7
  6
CONTINUOUS
  7
STANDARD
 71
2
 72
1
 10
-51.9691567505
 20
44.4988333809
 30
0.0
 11
1.0
 21
0.0
 31
0.0
 44
0.9
  1
12
 40
3.0
 41
4.0714285714
  0
LINE
  5
235
100
AcDbEntity
  8
0
100
AcDbLine
 62
7
  6
CONTINUOUS
 10
-45.9691567505
 20
16.0674173268
 11
-45.9691567505
 21
42.2488333809
  0
LINE
  5
236
100
AcDbEntity
  8
0
100
AcDbLine
 62
7
  6
CONTINUOUS
 10
-57.9691567505
 20
14.8488333809
 11
-57.9691567505
 21
42.2488333809
  0
LINE
  5
237
100
AcDbEntity
  8
0
100
AcDbLine
 62
7
  6
CONTINUOUS
 10
-45.9691567505
 20
40.7488333809
 11
-51.9691567505
 21
40.7488333809
  0
LINE
  5
238
100
AcDbEntity
  8
0
100
AcDbLine
 62
7
  6
CONTINUOUS
 10
-57.9691567505
 20
40.7488333809
 11
-51.9691567505
 21
40.7488333809
  0
INSERT
  5
239
100
AcDbEntity
  8
0
100
AcDbBlockReference
 62
7
  6
CONTINUOUS
  2
_FILLED
 10
-45.9691567505
 20
40.7488333809
 41
3.0
 42
3.0
 43
3.0
  0
INSERT
  5
23A
100
AcDbEntity
  8
0
100
AcDbBlockReference
 62
7
  6
CONTINUOUS
  2
_FILLED
 10
-57.9691567505
 20
40.7488333809
 41
3.0
 42
3.0
 43
3.0
 50
180.0
  0
ENDBLK
  5
23B
100
AcDbEntity
  8
0
  6
BYBLOCK
 62
0
100
AcDbBlockEnd
  0
ENDSEC
  0
SECTION
  2
ENTITIES
  0
DIMENSION
  5
23C
100
AcDbEntity
  8
0
100
AcDbDimension
 62
7
  6
CONTINUOUS
  2
*D0
 10
6.3163159342
 20
32.7488333809
 11
6.3163159342
 21
14.3488333809
 70
160
 71
2
 42
36.8
  3
DIMSTYLE_1
100
AcDbAlignedDimension
 13
-1.9828204522
 23
-4.0511666191
 14
-1.9828204522
 24
32.7488333809
 50
90.0
100
AcDbRotatedDimension
  0
DIMENSION
  5
23D
100
AcDbEntity
  8
0
100
AcDbDimension
 62
7
  6
CONTINUOUS
  2
*D1
 10
-26.4836840658
 20
40.7488333809
 11
-14.0836840658
 21
40.7488333809
 70
160
 71
2
 42
24.8
  3
DIMSTYLE_1
100
AcDbAlignedDimension
 13
-1.6836840658
 23
32.4451285964
 14
-26.4836840658
 24
32.4451285964
 50
180.0
100
AcDbRotatedDimension
  0
DIMENSION
  5
23E
100
AcDbEntity
  8
0
100
AcDbDimension
 62
7
  6
CONTINUOUS
  2
*D2
 10
-57.9691567505
 20
40.7488333809
 11
-51.9691567505
 21
40.7488333809
 70
160
 71
2
 42
12.0
  3
DIMSTYLE_1
100
AcDbAlignedDimension
 13
-45.9691567505
 23
15.5674173268
 14
-57.9691567505
 24
14.3488333809
 50
180.0
100
AcDbRotatedDimension
  0
LWPOLYLINE
  5
23F
100
AcDbEntity
  8
RACCORDO
100
AcDbPolyline
 62
253
  6
CONTINUOUS
 90
16
 70
0
 10
-26.3686643059
 20
30.7227522497
 10
-26.3682657264
 20
30.7231799902
 10
-26.3674574416
 20
30.7236071456
 10
-26.3662405571
 20
30.7240331318
 10
-26.3646167372
 20
30.7244573661
 10
-26.3625882029
 20
30.7248792683
 10
-26.3601577286
 20
30.7252982614
 10
-26.3573286384
 20
30.7257137723
 10
-26.3541048017
 20
30.7261252326
 10
-26.3504906279
 20
30.7265320797
 10
-26.3464910601
 20
30.7269337571
 10
-26.3421115684
 20
30.7273297154
 10
-26.3373581428
 20
30.7277194131
 10
-26.3322372846
 20
30.7281023171
 10
-26.3267559976
 20
30.7284779038
 10
-26.3209217786
 20
30.7288456594
  0
LWPOLYLINE
  5
240
100
AcDbEntity
  8
ASSI
100
AcDbPolyline
 62
253
  6
CONTINUOUS
 90
16
 70
0
 10
-26.3686643059
 20
30.7227522497
 10
-26.3682657264
 20
30.7231799902
 10
-26.3674574416
 20
30.7236071456
 10
-26.3662405571
 20
30.7240331318
 10
-26.3646167372
 20
30.7244573661
 10
-26.3625882029
 20
30.7248792683
 10
-26.3601577286
 20
30.7252982614
 10
-26.3573286384
 20
30.7257137723
 10
-26.3541048017
 20
30.7261252326
 10
-26.3504906279
 20
30.7265320797
 10
-26.3464910601
 20
30.7269337571
 10
-26.3421115684
 20
30.7273297154
 10
-26.3373581428
 20
30.7277194131
 10
-26.3322372846
 20
30.7281023171
 10
-26.3267559976
 20
30.7284779038
 10
-26.3209217786
 20
30.7288456594
  0
LWPOLYLINE
  5
241
100
AcDbEntity
  8
RACCORDO
100
AcDbPolyline
 62
253
  6
CONTINUOUS
 90
17
 70
0
 10
-26.3686643059
 20
-2.0250854879
 10
-26.3682657274
 20
-2.0255132284
 10
-26.3674574436
 20
-2.0259403838
 10
-26.3662405601
 20
-2.0263663701
 10
-26.3646167411
 20
-2.0267906044
 10
-26.3625882076
 20
-2.0272125067
 10
-26.360157734
 20
-2.0276314998
 10
-26.3573286445
 20
-2.0280470107
 10
-26.3541048086
 20
-2.0284584711
 10
-26.3504906353
 20
-2.0288653182
 10
-26.346491068
 20
-2.0292669956
 10
-26.3421115768
 20
-2.029662954
 10
-26.3373581516
 20
-2.0300526517
 10
-26.3322372938
 20
-2.0304355557
 10
-26.3267560071
 20
-2.0308111424
 10
-26.3209217884
 20
-2.0311788981
 10
-26.3082269448
 20
-2.0318889159
  0
LWPOLYLINE
  5
242
100
AcDbEntity
  8
ASSI
100
AcDbPolyline
 62
253
  6
CONTINUOUS
 90
17
 70
0
 10
-26.3686643059
 20
-2.0250854879
 10
-26.3682657274
 20
-2.0255132284
 10
-26.3674574436
 20
-2.0259403838
 10
-26.3662405601
 20
-2.0263663701
 10
-26.3646167411
 20
-2.0267906044
 10
-26.3625882076
 20
-2.0272125067
 10
-26.360157734
 20
-2.0276314998
 10
-26.3573286445
 20
-2.0280470107
 10
-26.3541048086
 20
-2.0284584711
 10
-26.3504906353
 20
-2.0288653182
 10
-26.346491068
 20
-2.0292669956
 10
-26.3421115768
 20
-2.029662954
 10
-26.3373581516
 20
-2.0300526517
 10
-26.3322372938
 20
-2.0304355557
 10
-26.3267560071
 20
-2.0308111424
 10
-26.3209217884
 20
-2.0311788981
 10
-26.3082269448
 20
-2.0318889159
  0
LINE
  5
243
100
AcDbEntity
  8
RACCORDO
100
AcDbLine
 62
7
  6
CONTINUOUS
 10
-1.9828204522
 20
-4.0511666191
 11
-26.1845476795
 21
-4.0511666191
  0
LINE
  5
244
100
AcDbEntity
  8
ASSI
100
AcDbLine
 62
7
  6
CONTINUOUS
 10
-1.9828204522
 20
-4.0511666191
 11
-26.1845476795
 21
-4.0511666191
  0
LINE
  5
245
100
AcDbEntity
  8
RACCORDO
100
AcDbLine
 62
253
  6
CONTINUOUS
 10
-1.8464463494
 20
-2.0311788978
 11
-1.8591411932
 21
-2.0318889155
  0
LINE
  5
246
100
AcDbEntity
  8
ASSI
100
AcDbLine
 62
253
  6
CONTINUOUS
 10
-1.8464463494
 20
-2.0311788978
 11
-1.8591411932
 21
-2.0318889155
  0
LINE
  5
247
100
AcDbEntity
  8
RACCORDO
100
AcDbLine
 62
253
  6
CONTINUOUS
 10
-1.8591411932
 20
-2.0318889155
 11
-1.8731459474
 21
-2.0325617254
  0
LINE
  5
248
100
AcDbEntity
  8
ASSI
100
AcDbLine
 62
253
  6
CONTINUOUS
 10
-1.8591411932
 20
-2.0318889155
 11
-1.8731459474
 21
-2.0325617254
  0
LINE
  5
249
100
AcDbEntity
  8
RACCORDO
100
AcDbLine
 62
253
  6
CONTINUOUS
 10
-1.8731459474
 20
-2.0325617254
 11
-1.8883840205
 21
-2.0331936481
  0
LINE
  5
24A
100
AcDbEntity
  8
ASSI
100
AcDbLine
 62
253
  6
CONTINUOUS
 10
-1.8731459474
 20
-2.0325617254
 11
-1.8883840205
 21
-2.0331936481
  0
LINE
  5
24B
100
AcDbEntity
  8
RACCORDO
100
AcDbLine
 62
253
  6
CONTINUOUS
 10
-1.8883840205
 20
-2.0331936481
 11
-1.9047720759
 21
-2.0337812275
  0
LINE
  5
24C
100
AcDbEntity
  8
ASSI
100
AcDbLine
 62
253
  6
CONTINUOUS
 10
-1.8883840205
 20
-2.0331936481
 11
-1.9047720759
 21
-2.0337812275
  0
LINE
  5
24D
100
AcDbEntity
  8
RACCORDO
100
AcDbLine
 62
253
  6
CONTINUOUS
 10
-1.9047720759
 20
-2.0337812275
 11
-1.9222204879
 21
-2.0343212501
  0
LINE
  5
24E
100
AcDbEntity
  8
ASSI
100
AcDbLine
 62
253
  6
CONTINUOUS
 10
-1.9047720759
 20
-2.0337812275
 11
-1.9222204879
 21
-2.0343212501
  0
LINE
  5
24F
100
AcDbEntity
  8
RACCORDO
100
AcDbLine
 62
253
  6
CONTINUOUS
 10
-1.9222204879
 20
-2.0343212501
 11
-1.9501710748
 21
-2.0350357299
  0
LINE
  5
250
100
AcDbEntity
  8
ASSI
100
AcDbLine
 62
253
  6
CONTINUOUS
 10
-1.9222204879
 20
-2.0343212501
 11
-1.9501710748
 21
-2.0350357299
  0
LINE
  5
251
100
AcDbEntity
  8
RACCORDO
100
AcDbLine
 62
253
  6
CONTINUOUS
 10
-1.9501710748
 20
-2.0350357299
 11
-1.9799477801
 21
-2.0356278399
  0
LINE
  5
252
100
AcDbEntity
  8
ASSI
100
AcDbLine
 62
253
  6
CONTINUOUS
 10
-1.9501710748
 20
-2.0350357299
 11
-1.9799477801
 21
-2.0356278399
  0
LINE
  5
253
100
AcDbEntity
  8
RACCORDO
100
AcDbLine
 62
253
  6
CONTINUOUS
 10
-1.9799477801
 20
-2.0356278399
 11
-2.0111844049
 21
-2.0360902983
  0
LINE
  5
254
100
AcDbEntity
  8
ASSI
100
AcDbLine
 62
253
  6
CONTINUOUS
 10
-1.9799477801
 20
-2.0356278399
 11
-2.0111844049
 21
-2.0360902983
  0
LINE
  5
255
100
AcDbEntity
  8
RACCORDO
100
AcDbLine
 62
253
  6
CONTINUOUS
 10
-2.0111844049
 20
-2.0360902983
 11
-2.0434967961
 21
-2.0364174178
  0
LINE
  5
256
100
AcDbEntity
  8
ASSI
100
AcDbLine
 62
253
  6
CONTINUOUS
 10
-2.0111844049
 20
-2.0360902983
 11
-2.0434967961
 21
-2.0364174178
  0
LINE
  5
257
100
AcDbEntity
  8
RACCORDO
100
AcDbLine
 62
253
  6
CONTINUOUS
 10
-2.0434967961
 20
-2.0364174178
 11
-2.0875652664
 21
-2.0366363427
  0
LINE
  5
258
100
AcDbEntity
  8
ASSI
100
AcDbLine
 62
253
  6
CONTINUOUS
 10
-2.0434967961
 20
-2.0364174178
 11
-2.0875652664
 21
-2.0366363427
  0
LINE
  5
259
100
AcDbEntity
  8
RACCORDO
100
AcDbLine
 62
253
  6
CONTINUOUS
 10
-26.0787977304
 20
-2.9829053831
 11
-2.0885704013
 21
-2.9829053831
  0
LINE
  5
25A
100
AcDbEntity
  8
ASSI
100
AcDbLine
 62
253
  6
CONTINUOUS
 10
-26.0787977304
 20
-2.9829053831
 11
-2.0885704013
 21
-2.9829053831
  0
LINE
  5
25B
100
AcDbEntity
  8
RACCORDO
100
AcDbLine
 62
253
  6
CONTINUOUS
 10
-26.090880562
 20
-2.0366051761
 11
-2.0875652664
 21
-2.0366363427
  0
LINE
  5
25C
100
AcDbEntity
  8
ASSI
100
AcDbLine
 62
253
  6
CONTINUOUS
 10
-26.090880562
 20
-2.0366051761
 11
-2.0875652664
 21
-2.0366363427
  0
LINE
  5
25D
100
AcDbEntity
  8
RACCORDO
100
AcDbLine
 62
253
  6
CONTINUOUS
 10
-26.1238713377
 20
-2.0364174185
 11
-26.090880562
 21
-2.0366051761
  0
LINE
  5
25E
100
AcDbEntity
  8
ASSI
100
AcDbLine
 62
253
  6
CONTINUOUS
 10
-26.1238713377
 20
-2.0364174185
 11
-26.090880562
 21
-2.0366051761
  0
LINE
  5
25F
100
AcDbEntity
  8
RACCORDO
100
AcDbLine
 62
253
  6
CONTINUOUS
 10
-26.15618373
 20
-2.0360902991
 11
-26.1238713377
 21
-2.0364174185
  0
LINE
  5
260
100
AcDbEntity
  8
ASSI
100
AcDbLine
 62
253
  6
CONTINUOUS
 10
-26.15618373
 20
-2.0360902991
 11
-26.1238713377
 21
-2.0364174185
  0
LINE
  5
261
100
AcDbEntity
  8
RACCORDO
100
AcDbLine
 62
253
  6
CONTINUOUS
 10
-26.1874203558
 20
-2.0356278406
 11
-26.15618373
 21
-2.0360902991
  0
LINE
  5
262
100
AcDbEntity
  8
ASSI
100
AcDbLine
 62
253
  6
CONTINUOUS
 10
-26.1874203558
 20
-2.0356278406
 11
-26.15618373
 21
-2.0360902991
  0
LINE
  5
263
100
AcDbEntity
  8
RACCORDO
100
AcDbLine
 62
253
  6
CONTINUOUS
 10
-26.217197062
 20
-2.0350357305
 11
-26.1874203558
 21
-2.0356278406
  0
LINE
  5
264
100
AcDbEntity
  8
ASSI
100
AcDbLine
 62
253
  6
CONTINUOUS
 10
-26.217197062
 20
-2.0350357305
 11
-26.1874203558
 21
-2.0356278406
  0
LINE
  5
265
100
AcDbEntity
  8
RACCORDO
100
AcDbLine
 62
253
  6
CONTINUOUS
 10
-26.2451476496
 20
-2.0343212507
 11
-26.217197062
 21
-2.0350357305
  0
LINE
  5
266
100
AcDbEntity
  8
ASSI
100
AcDbLine
 62
253
  6
CONTINUOUS
 10
-26.2451476496
 20
-2.0343212507
 11
-26.217197062
 21
-2.0350357305
  0
LINE
  5
267
100
AcDbEntity
  8
RACCORDO
100
AcDbLine
 62
253
  6
CONTINUOUS
 10
-26.2625960619
 20
-2.033781228
 11
-26.2451476496
 21
-2.0343212507
  0
LINE
  5
268
100
AcDbEntity
  8
ASSI
100
AcDbLine
 62
253
  6
CONTINUOUS
 10
-26.2625960619
 20
-2.033781228
 11
-26.2451476496
 21
-2.0343212507
  0
LINE
  5
269
100
AcDbEntity
  8
RACCORDO
100
AcDbLine
 62
253
  6
CONTINUOUS
 10
-26.2789841175
 20
-2.0331936486
 11
-26.2625960619
 21
-2.033781228
  0
LINE
  5
26A
100
AcDbEntity
  8
ASSI
100
AcDbLine
 62
253
  6
CONTINUOUS
 10
-26.2789841175
 20
-2.0331936486
 11
-26.2625960619
 21
-2.033781228
  0
LINE
  5
26B
100
AcDbEntity
  8
RACCORDO
100
AcDbLine
 62
253
  6
CONTINUOUS
 10
-26.2942221906
 20
-2.0325617259
 11
-26.2789841175
 21
-2.0331936486
  0
LINE
  5
26C
100
AcDbEntity
  8
ASSI
100
AcDbLine
 62
253
  6
CONTINUOUS
 10
-26.2942221906
 20
-2.0325617259
 11
-26.2789841175
 21
-2.0331936486
  0
LINE
  5
26D
100
AcDbEntity
  8
RACCORDO
100
AcDbLine
 62
253
  6
CONTINUOUS
 10
-26.3082269448
 20
-2.0318889159
 11
-26.2942221906
 21
-2.0325617259
  0
LINE
  5
26E
100
AcDbEntity
  8
ASSI
100
AcDbLine
 62
253
  6
CONTINUOUS
 10
-26.3082269448
 20
-2.0318889159
 11
-26.2942221906
 21
-2.0325617259
  0
LINE
  5
26F
100
AcDbEntity
  8
RACCORDO
100
AcDbLine
 62
253
  6
CONTINUOUS
 10
-26.3752721879
 20
31.3178689163
 11
-26.3758251719
 21
31.3332149471
  0
LINE
  5
270
100
AcDbEntity
  8
ASSI
100
AcDbLine
 62
253
  6
CONTINUOUS
 10
-26.3752721879
 20
31.3178689163
 11
-26.3758251719
 21
31.3332149471
  0
LINE
  5
271
100
AcDbEntity
  8
RACCORDO
100
AcDbLine
 62
253
  6
CONTINUOUS
 10
-26.3744697899
 20
31.2919157301
 11
-26.3752721879
 21
31.3178689163
  0
LINE
  5
272
100
AcDbEntity
  8
ASSI
100
AcDbLine
 62
253
  6
CONTINUOUS
 10
-26.3744697899
 20
31.2919157301
 11
-26.3752721879
 21
31.3178689163
  0
LINE
  5
273
100
AcDbEntity
  8
RACCORDO
100
AcDbLine
 62
253
  6
CONTINUOUS
 10
-26.3734573995
 20
31.2520678142
 11
-26.3744697899
 21
31.2919157301
  0
LINE
  5
274
100
AcDbEntity
  8
ASSI
100
AcDbLine
 62
253
  6
CONTINUOUS
 10
-26.3734573995
 20
31.2520678142
 11
-26.3744697899
 21
31.2919157301
  0
LWPOLYLINE
  5
275
100
AcDbEntity
  8
RACCORDO
100
AcDbPolyline
 62
253
  6
CONTINUOUS
 90
46
 70
0
 10
-26.3787520389
 20
-2.6874630572
 10
-26.3785383554
 20
-2.6977540073
 10
-26.3779608917
 20
-2.7080324678
 10
-26.3770203488
 20
-2.7182859643
 10
-26.3757178682
 20
-2.7285020527
 10
-26.3740550305
 20
-2.7386683341
 10
-26.3720338539
 20
-2.7487724703
 10
-26.3696567913
 20
-2.7588021983
 10
-26.3669267278
 20
-2.7687453457
 10
-26.3638469765
 20
-2.7785898449
 10
-26.3604212753
 20
-2.7883237482
 10
-26.3566537818
 20
-2.7979352419
 10
-26.3525490684
 20
-2.8074126612
 10
-26.3481121167
 20
-2.8167445036
 10
-26.3433483117
 20
-2.8259194438
 10
-26.3382634349
 20
-2.8349263464
 10
-26.3328636575
 20
-2.8437542802
 10
-26.3271555332
 20
-2.8523925313
 10
-26.3211459894
 20
-2.8608306158
 10
-26.3148423197
 20
-2.8690582928
 10
-26.3082521745
 20
-2.8770655769
 10
-26.3013835519
 20
-2.8848427499
 10
-26.2942447881
 20
-2.8923803731
 10
-26.2868445469
 20
-2.8996692985
 10
-26.2791918098
 20
-2.9067006798
 10
-26.2712958644
 20
-2.9134659835
 10
-26.2631662936
 20
-2.9199569988
 10
-26.254812964
 20
-2.9261658479
 10
-26.2462460134
 20
-2.9320849953
 10
-26.2374758393
 20
-2.9377072574
 10
-26.2285130854
 20
-2.9430258107
 10
-26.2193686295
 20
-2.9480342003
 10
-26.2100535698
 20
-2.9527263478
 10
-26.2005792113
 20
-2.9570965586
 10
-26.1909570528
 20
-2.9611395286
 10
-26.1811987721
 20
-2.9648503513
 10
-26.1713162124
 20
-2.9682245229
 10
-26.1613213676
 20
-2.9712579484
 10
-26.151226368
 20
-2.9739469463
 10
-26.1410434654
 20
-2.976288253
 10
-26.1307850182
 20
-2.978279027
 10
-26.1204634767
 20
-2.9799168523
 10
-26.1100913675
 20
-2.9811997411
 10
-26.0996812788
 20
-2.9821261363
 10
-26.0892458448
 20
-2.9826949138
 10
-26.0787977304
 20
-2.9829053831
  0
LWPOLYLINE
  5
276
100
AcDbEntity
  8
ASSI
100
AcDbPolyline
 62
253
  6
CONTINUOUS
 90
46
 70
0
 10
-26.3787520389
 20
-2.6874630572
 10
-26.3785383554
 20
-2.6977540073
 10
-26.3779608917
 20
-2.7080324678
 10
-26.3770203488
 20
-2.7182859643
 10
-26.3757178682
 20
-2.7285020527
 10
-26.3740550305
 20
-2.7386683341
 10
-26.3720338539
 20
-2.7487724703
 10
-26.3696567913
 20
-2.7588021983
 10
-26.3669267278
 20
-2.7687453457
 10
-26.3638469765
 20
-2.7785898449
 10
-26.3604212753
 20
-2.7883237482
 10
-26.3566537818
 20
-2.7979352419
 10
-26.3525490684
 20
-2.8074126612
 10
-26.3481121167
 20
-2.8167445036
 10
-26.3433483117
 20
-2.8259194438
 10
-26.3382634349
 20
-2.8349263464
 10
-26.3328636575
 20
-2.8437542802
 10
-26.3271555332
 20
-2.8523925313
 10
-26.3211459894
 20
-2.8608306158
 10
-26.3148423197
 20
-2.8690582928
 10
-26.3082521745
 20
-2.8770655769
 10
-26.3013835519
 20
-2.8848427499
 10
-26.2942447881
 20
-2.8923803731
 10
-26.2868445469
 20
-2.8996692985
 10
-26.2791918098
 20
-2.9067006798
 10
-26.2712958644
 20
-2.9134659835
 10
-26.2631662936
 20
-2.9199569988
 10
-26.254812964
 20
-2.9261658479
 10
-26.2462460134
 20
-2.9320849953
 10
-26.2374758393
 20
-2.9377072574
 10
-26.2285130854
 20
-2.9430258107
 10
-26.2193686295
 20
-2.9480342003
 10
-26.2100535698
 20
-2.9527263478
 10
-26.2005792113
 20
-2.9570965586
 10
-26.1909570528
 20
-2.9611395286
 10
-26.1811987721
 20
-2.9648503513
 10
-26.1713162124
 20
-2.9682245229
 10
-26.1613213676
 20
-2.9712579484
 10
-26.151226368
 20
-2.9739469463
 10
-26.1410434654
 20
-2.976288253
 10
-26.1307850182
 20
-2.978279027
 10
-26.1204634767
 20
-2.9799168523
 10
-26.1100913675
 20
-2.9811997411
 10
-26.0996812788
 20
-2.9821261363
 10
-26.0892458448
 20
-2.9826949138
 10
-26.0787977304
 20
-2.9829053831
  0
LINE
  5
277
100
AcDbEntity
  8
RACCORDO
100
AcDbLine
 62
253
  6
CONTINUOUS
 10
-26.3722983339
 20
31.194400365
 11
-26.3734573995
 21
31.2520678142
  0
LINE
  5
278
100
AcDbEntity
  8
ASSI
100
AcDbLine
 62
253
  6
CONTINUOUS
 10
-26.3722983339
 20
31.194400365
 11
-26.3734573995
 21
31.2520678142
  0
LINE
  5
279
100
AcDbEntity
  8
RACCORDO
100
AcDbLine
 62
253
  6
CONTINUOUS
 10
-26.0735030671
 20
31.4904793006
 11
-26.0747790098
 21
31.5603140719
  0
LINE
  5
27A
100
AcDbEntity
  8
ASSI
100
AcDbLine
 62
253
  6
CONTINUOUS
 10
-26.0735030671
 20
31.4904793006
 11
-26.0747790098
 21
31.5603140719
  0
LINE
  5
27B
100
AcDbEntity
  8
RACCORDO
100
AcDbLine
 62
253
  6
CONTINUOUS
 10
-26.3710876688
 20
31.1149027512
 11
-26.3722983339
 21
31.194400365
  0
LINE
  5
27C
100
AcDbEntity
  8
ASSI
100
AcDbLine
 62
253
  6
CONTINUOUS
 10
-26.3710876688
 20
31.1149027512
 11
-26.3722983339
 21
31.194400365
  0
LINE
  5
27D
100
AcDbEntity
  8
RACCORDO
100
AcDbLine
 62
253
  6
CONTINUOUS
 10
-26.0719173481
 20
31.3719244454
 11
-26.0735030671
 21
31.4904793006
  0
LINE
  5
27E
100
AcDbEntity
  8
ASSI
100
AcDbLine
 62
253
  6
CONTINUOUS
 10
-26.0719173481
 20
31.3719244454
 11
-26.0735030671
 21
31.4904793006
  0
LINE
  5
27F
100
AcDbEntity
  8
RACCORDO
100
AcDbLine
 62
253
  6
CONTINUOUS
 10
-26.369823273
 20
30.9944383014
 11
-26.3710876688
 21
31.1149027512
  0
LINE
  5
280
100
AcDbEntity
  8
ASSI
100
AcDbLine
 62
253
  6
CONTINUOUS
 10
-26.369823273
 20
30.9944383014
 11
-26.3710876688
 21
31.1149027512
  0
LINE
  5
281
100
AcDbEntity
  8
RACCORDO
100
AcDbLine
 62
253
  6
CONTINUOUS
 10
-26.0701450507
 20
31.1673736422
 11
-26.0719173481
 21
31.3719244454
  0
LINE
  5
282
100
AcDbEntity
  8
ASSI
100
AcDbLine
 62
253
  6
CONTINUOUS
 10
-26.0701450507
 20
31.1673736422
 11
-26.0719173481
 21
31.3719244454
  0
LINE
  5
283
100
AcDbEntity
  8
RACCORDO
100
AcDbLine
 62
253
  6
CONTINUOUS
 10
-26.3689353313
 20
30.8447889765
 11
-26.369823273
 21
30.9944383014
  0
LINE
  5
284
100
AcDbEntity
  8
ASSI
100
AcDbLine
 62
253
  6
CONTINUOUS
 10
-26.3689353313
 20
30.8447889765
 11
-26.369823273
 21
30.9944383014
  0
LINE
  5
285
100
AcDbEntity
  8
RACCORDO
100
AcDbLine
 62
253
  6
CONTINUOUS
 10
-26.0688654192
 20
30.859298066
 11
-26.0701450507
 21
31.1673736422
  0
LINE
  5
286
100
AcDbEntity
  8
ASSI
100
AcDbLine
 62
253
  6
CONTINUOUS
 10
-26.0688654192
 20
30.859298066
 11
-26.0701450507
 21
31.1673736422
  0
LINE
  5
287
100
AcDbEntity
  8
RACCORDO
100
AcDbLine
 62
253
  6
CONTINUOUS
 10
-26.3686643059
 20
30.7227522497
 11
-26.3689353313
 21
30.8447889765
  0
LINE
  5
288
100
AcDbEntity
  8
ASSI
100
AcDbLine
 62
253
  6
CONTINUOUS
 10
-26.3686643059
 20
30.7227522497
 11
-26.3689353313
 21
30.8447889765
  0
LWPOLYLINE
  5
289
100
AcDbEntity
  8
RACCORDO
100
AcDbPolyline
 62
253
  6
CONTINUOUS
 90
3
 70
0
 10
-26.3672926578
 20
28.5404290237
 10
-26.3679539947
 20
29.6316339386
 10
-26.3686643059
 20
30.7227522497
  0
LWPOLYLINE
  5
28A
100
AcDbEntity
  8
ASSI
100
AcDbPolyline
 62
253
  6
CONTINUOUS
 90
3
 70
0
 10
-26.3672926578
 20
28.5404290237
 10
-26.3679539947
 20
29.6316339386
 10
-26.3686643059
 20
30.7227522497
  0
LWPOLYLINE
  5
28B
100
AcDbEntity
  8
RACCORDO
100
AcDbPolyline
 62
253
  6
CONTINUOUS
 90
3
 70
0
 10
-26.0673383492
 20
28.5504631603
 10
-26.0679996861
 20
29.6424413544
 10
-26.0687099974
 20
30.7343184745
  0
LWPOLYLINE
  5
28C
100
AcDbEntity
  8
ASSI
100
AcDbPolyline
 62
253
  6
CONTINUOUS
 90
3
 70
0
 10
-26.0673383492
 20
28.5504631603
 10
-26.0679996861
 20
29.6424413544
 10
-26.0687099974
 20
30.7343184745
  0
LINE
  5
28D
100
AcDbEntity
  8
RACCORDO
100
AcDbLine
 62
253
  6
CONTINUOUS
 10
-26.0687099974
 20
30.7343184745
 11
-26.0688654192
 21
30.859298066
  0
LINE
  5
28E
100
AcDbEntity
  8
ASSI
100
AcDbLine
 62
253
  6
CONTINUOUS
 10
-26.0687099974
 20
30.7343184745
 11
-26.0688654192
 21
30.859298066
  0
LWPOLYLINE
  5
28F
100
AcDbEntity
  8
RACCORDO
100
AcDbPolyline
 62
253
  6
CONTINUOUS
 90
3
 70
0
 10
-26.3651370534
 20
24.1747433264
 10
-26.3656024862
 20
25.2662802121
 10
-26.3672926578
 20
28.5404290237
  0
LWPOLYLINE
  5
290
100
AcDbEntity
  8
ASSI
100
AcDbPolyline
 62
253
  6
CONTINUOUS
 90
3
 70
0
 10
-26.3651370534
 20
24.1747433264
 10
-26.3656024862
 20
25.2662802121
 10
-26.3672926578
 20
28.5404290237
  0
LWPOLYLINE
  5
291
100
AcDbEntity
  8
RACCORDO
100
AcDbPolyline
 62
253
  6
CONTINUOUS
 90
3
 70
0
 10
-26.0651827448
 20
24.1816840024
 10
-26.0656481776
 20
25.2739943135
 10
-26.0673383492
 20
28.5504631603
  0
LWPOLYLINE
  5
292
100
AcDbEntity
  8
ASSI
100
AcDbPolyline
 62
253
  6
CONTINUOUS
 90
3
 70
0
 10
-26.0651827448
 20
24.1816840024
 10
-26.0656481776
 20
25.2739943135
 10
-26.0673383492
 20
28.5504631603
  0
LINE
  5
293
100
AcDbEntity
  8
RACCORDO
100
AcDbLine
 62
253
  6
CONTINUOUS
 10
-26.3640346722
 20
20.8997647112
 11
-26.3651370534
 21
24.1747433264
  0
LINE
  5
294
100
AcDbEntity
  8
ASSI
100
AcDbLine
 62
253
  6
CONTINUOUS
 10
-26.3640346722
 20
20.8997647112
 11
-26.3651370534
 21
24.1747433264
  0
LINE
  5
295
100
AcDbEntity
  8
RACCORDO
100
AcDbLine
 62
253
  6
CONTINUOUS
 10
-26.0640803636
 20
20.9043920459
 11
-26.0651827448
 21
24.1816840024
  0
LINE
  5
296
100
AcDbEntity
  8
ASSI
100
AcDbLine
 62
253
  6
CONTINUOUS
 10
-26.0640803636
 20
20.9043920459
 11
-26.0651827448
 21
24.1816840024
  0
LINE
  5
297
100
AcDbEntity
  8
RACCORDO
100
AcDbLine
 62
7
  6
CONTINUOUS
 10
-26.4836840658
 20
32.4451285964
 11
-26.4836840658
 21
-3.7474618346
  0
LINE
  5
298
100
AcDbEntity
  8
ASSI
100
AcDbLine
 62
7
  6
CONTINUOUS
 10
-26.4836840658
 20
32.4451285964
 11
-26.4836840658
 21
-3.7474618346
  0
LINE
  5
299
100
AcDbEntity
  8
RACCORDO
100
AcDbLine
 62
253
  6
CONTINUOUS
 10
-26.3632507242
 20
16.5325565481
 11
-26.3640346722
 21
20.8997647112
  0
LINE
  5
29A
100
AcDbEntity
  8
ASSI
100
AcDbLine
 62
253
  6
CONTINUOUS
 10
-26.3632507242
 20
16.5325565481
 11
-26.3640346722
 21
20.8997647112
  0
LINE
  5
29B
100
AcDbEntity
  8
RACCORDO
100
AcDbLine
 62
253
  6
CONTINUOUS
 10
-26.0632964156
 20
16.534096618
 11
-26.0640803636
 21
20.9043920459
  0
LINE
  5
29C
100
AcDbEntity
  8
ASSI
100
AcDbLine
 62
253
  6
CONTINUOUS
 10
-26.0632964156
 20
16.534096618
 11
-26.0640803636
 21
20.9043920459
  0
LINE
  5
29D
100
AcDbEntity
  8
RACCORDO
100
AcDbLine
 62
253
  6
CONTINUOUS
 10
-26.3632507242
 20
12.1651102854
 11
-26.3632507242
 21
16.5325565481
  0
LINE
  5
29E
100
AcDbEntity
  8
ASSI
100
AcDbLine
 62
253
  6
CONTINUOUS
 10
-26.3632507242
 20
12.1651102854
 11
-26.3632507242
 21
16.5325565481
  0
LINE
  5
29F
100
AcDbEntity
  8
RACCORDO
100
AcDbLine
 62
253
  6
CONTINUOUS
 10
-26.363765194
 20
8.8896554601
 11
-26.3632507242
 21
12.1651102854
  0
LINE
  5
2A0
100
AcDbEntity
  8
ASSI
100
AcDbLine
 62
253
  6
CONTINUOUS
 10
-26.363765194
 20
8.8896554601
 11
-26.3632507242
 21
12.1651102854
  0
LINE
  5
2A1
100
AcDbEntity
  8
RACCORDO
100
AcDbLine
 62
253
  6
CONTINUOUS
 10
-26.0632964156
 20
12.1635701438
 11
-26.0632964156
 21
16.534096618
  0
LINE
  5
2A2
100
AcDbEntity
  8
ASSI
100
AcDbLine
 62
253
  6
CONTINUOUS
 10
-26.0632964156
 20
12.1635701438
 11
-26.0632964156
 21
16.534096618
  0
LINE
  5
2A3
100
AcDbEntity
  8
RACCORDO
100
AcDbLine
 62
253
  6
CONTINUOUS
 10
-26.0638108854
 20
8.8858016405
 11
-26.0632964156
 21
12.1635701438
  0
LINE
  5
2A4
100
AcDbEntity
  8
ASSI
100
AcDbLine
 62
253
  6
CONTINUOUS
 10
-26.0638108854
 20
8.8858016405
 11
-26.0632964156
 21
12.1635701438
  0
LINE
  5
2A5
100
AcDbEntity
  8
RACCORDO
100
AcDbLine
 62
253
  6
CONTINUOUS
 10
-26.364720606
 20
5.6145253231
 11
-26.363765194
 21
8.8896554601
  0
LINE
  5
2A6
100
AcDbEntity
  8
ASSI
100
AcDbLine
 62
253
  6
CONTINUOUS
 10
-26.364720606
 20
5.6145253231
 11
-26.363765194
 21
8.8896554601
  0
LINE
  5
2A7
100
AcDbEntity
  8
RACCORDO
100
AcDbLine
 62
253
  6
CONTINUOUS
 10
-26.0647662974
 20
5.6083580548
 11
-26.0638108854
 21
8.8858016405
  0
LINE
  5
2A8
100
AcDbEntity
  8
ASSI
100
AcDbLine
 62
253
  6
CONTINUOUS
 10
-26.0647662974
 20
5.6083580548
 11
-26.0638108854
 21
8.8858016405
  0
LWPOLYLINE
  5
2A9
100
AcDbEntity
  8
RACCORDO
100
AcDbPolyline
 62
253
  6
CONTINUOUS
 90
4
 70
0
 10
-26.3666802952
 20
1.2485293282
 10
-26.3661169035
 20
2.3399146781
 10
-26.3656024862
 20
3.4313866238
 10
-26.364720606
 20
5.6145253231
  0
LWPOLYLINE
  5
2AA
100
AcDbEntity
  8
ASSI
100
AcDbPolyline
 62
253
  6
CONTINUOUS
 90
4
 70
0
 10
-26.3666802952
 20
1.2485293282
 10
-26.3661169035
 20
2.3399146781
 10
-26.3656024862
 20
3.4313866238
 10
-26.364720606
 20
5.6145253231
  0
LWPOLYLINE
  5
2AB
100
AcDbEntity
  8
RACCORDO
100
AcDbPolyline
 62
253
  6
CONTINUOUS
 90
4
 70
0
 10
-26.0667259866
 20
1.2392756522
 10
-26.0661625949
 20
2.3314343404
 10
-26.0656481776
 20
3.4236724483
 10
-26.0647662974
 20
5.6083580548
  0
LWPOLYLINE
  5
2AC
100
AcDbEntity
  8
ASSI
100
AcDbPolyline
 62
253
  6
CONTINUOUS
 90
4
 70
0
 10
-26.0667259866
 20
1.2392756522
 10
-26.0661625949
 20
2.3314343404
 10
-26.0656481776
 20
3.4236724483
 10
-26.0647662974
 20
5.6083580548
  0
LINE
  5
2AD
100
AcDbEntity
  8
RACCORDO
100
AcDbLine
 62
253
  6
CONTINUOUS
 10
-26.3679539947
 20
-0.933967145
 11
-26.3666802952
 21
1.2485293282
  0
LINE
  5
2AE
100
AcDbEntity
  8
ASSI
100
AcDbLine
 62
253
  6
CONTINUOUS
 10
-26.3679539947
 20
-0.933967145
 11
-26.3666802952
 21
1.2485293282
  0
LINE
  5
2AF
100
AcDbEntity
  8
RACCORDO
100
AcDbLine
 62
253
  6
CONTINUOUS
 10
-26.0679996861
 20
-0.9447745926
 11
-26.0667259866
 21
1.2392756522
  0
LINE
  5
2B0
100
AcDbEntity
  8
ASSI
100
AcDbLine
 62
253
  6
CONTINUOUS
 10
-26.0679996861
 20
-0.9447745926
 11
-26.0667259866
 21
1.2392756522
  0
LINE
  5
2B1
100
AcDbEntity
  8
RACCORDO
100
AcDbLine
 62
253
  6
CONTINUOUS
 10
-26.0696209881
 20
-2.3787917986
 11
-26.0679996861
 21
-0.9447745926
  0
LINE
  5
2B2
100
AcDbEntity
  8
ASSI
100
AcDbLine
 62
253
  6
CONTINUOUS
 10
-26.0696209881
 20
-2.3787917986
 11
-26.0679996861
 21
-0.9447745926
  0
LINE
  5
2B3
100
AcDbEntity
  8
RACCORDO
100
AcDbLine
 62
253
  6
CONTINUOUS
 10
-26.3691653099
 20
-2.1982414443
 11
-26.3679539947
 21
-0.933967145
  0
LINE
  5
2B4
100
AcDbEntity
  8
ASSI
100
AcDbLine
 62
253
  6
CONTINUOUS
 10
-26.3691653099
 20
-2.1982414443
 11
-26.3679539947
 21
-0.933967145
  0
LINE
  5
2B5
100
AcDbEntity
  8
RACCORDO
100
AcDbLine
 62
253
  6
CONTINUOUS
 10
-26.0713203803
 20
-2.6168162357
 11
-26.0696209881
 21
-2.3787917986
  0
LINE
  5
2B6
100
AcDbEntity
  8
ASSI
100
AcDbLine
 62
253
  6
CONTINUOUS
 10
-26.0713203803
 20
-2.6168162357
 11
-26.0696209881
 21
-2.3787917986
  0
LINE
  5
2B7
100
AcDbEntity
  8
RACCORDO
100
AcDbLine
 62
253
  6
CONTINUOUS
 10
-26.3702475881
 20
-2.3436325453
 11
-26.3691653099
 21
-2.1982414443
  0
LINE
  5
2B8
100
AcDbEntity
  8
ASSI
100
AcDbLine
 62
253
  6
CONTINUOUS
 10
-26.3702475881
 20
-2.3436325453
 11
-26.3691653099
 21
-2.1982414443
  0
LINE
  5
2B9
100
AcDbEntity
  8
RACCORDO
100
AcDbLine
 62
253
  6
CONTINUOUS
 10
-26.3714678736
 20
-2.4448926458
 11
-26.3702475881
 21
-2.3436325453
  0
LINE
  5
2BA
100
AcDbEntity
  8
ASSI
100
AcDbLine
 62
253
  6
CONTINUOUS
 10
-26.3714678736
 20
-2.4448926458
 11
-26.3702475881
 21
-2.3436325453
  0
LINE
  5
2BB
100
AcDbEntity
  8
RACCORDO
100
AcDbLine
 62
253
  6
CONTINUOUS
 10
-26.0730243036
 20
-2.7612981486
 11
-26.0713203803
 21
-2.6168162357
  0
LINE
  5
2BC
100
AcDbEntity
  8
ASSI
100
AcDbLine
 62
253
  6
CONTINUOUS
 10
-26.0730243036
 20
-2.7612981486
 11
-26.0713203803
 21
-2.6168162357
  0
LINE
  5
2BD
100
AcDbEntity
  8
RACCORDO
100
AcDbLine
 62
253
  6
CONTINUOUS
 10
-26.0742559044
 20
-2.8362937752
 11
-26.0730243036
 21
-2.7612981486
  0
LINE
  5
2BE
100
AcDbEntity
  8
ASSI
100
AcDbLine
 62
253
  6
CONTINUOUS
 10
-26.0742559044
 20
-2.8362937752
 11
-26.0730243036
 21
-2.7612981486
  0
LINE
  5
2BF
100
AcDbEntity
  8
RACCORDO
100
AcDbLine
 62
253
  6
CONTINUOUS
 10
-26.3727467772
 20
-2.5208028682
 11
-26.3714678736
 21
-2.4448926458
  0
LINE
  5
2C0
100
AcDbEntity
  8
ASSI
100
AcDbLine
 62
253
  6
CONTINUOUS
 10
-26.3727467772
 20
-2.5208028682
 11
-26.3714678736
 21
-2.4448926458
  0
LINE
  5
2C1
100
AcDbEntity
  8
RACCORDO
100
AcDbLine
 62
253
  6
CONTINUOUS
 10
-26.0747790114
 20
-2.8626473276
 11
-26.0742559044
 21
-2.8362937752
  0
LINE
  5
2C2
100
AcDbEntity
  8
ASSI
100
AcDbLine
 62
253
  6
CONTINUOUS
 10
-26.0747790114
 20
-2.8626473276
 11
-26.0742559044
 21
-2.8362937752
  0
LWPOLYLINE
  5
2C3
100
AcDbEntity
  8
RACCORDO
100
AcDbPolyline
 62
253
  6
CONTINUOUS
 90
46
 70
0
 10
-26.3787520389
 20
31.385129819
 10
-26.3785383553
 20
31.3954207699
 10
-26.3779608916
 20
31.4056992312
 10
-26.3770203486
 20
31.4159527284
 10
-26.3757178677
 20
31.4261688174
 10
-26.3740550298
 20
31.4363350994
 10
-26.372033853
 20
31.4464392362
 10
-26.3696567901
 20
31.4564689647
 10
-26.3669267263
 20
31.4664121126
 10
-26.3638469747
 20
31.4762566122
 10
-26.3604212732
 20
31.4859905158
 10
-26.3566537793
 20
31.4956020098
 10
-26.3525490655
 20
31.5050794293
 10
-26.3481121135
 20
31.514411272
 10
-26.3433483081
 20
31.5235862122
 10
-26.3382634309
 20
31.5325931149
 10
-26.3328636533
 20
31.5414210488
 10
-26.3271555286
 20
31.5500592998
 10
-26.3211459845
 20
31.5584973843
 10
-26.3148423145
 20
31.5667250612
 10
-26.308252169
 20
31.5747323451
 10
-26.3013835462
 20
31.5825095179
 10
-26.2942447822
 20
31.5900471409
 10
-26.2868445409
 20
31.5973360661
 10
-26.2791918037
 20
31.6043674471
 10
-26.2712958582
 20
31.6111327505
 10
-26.2631662874
 20
31.6176237654
 10
-26.2548129577
 20
31.6238326142
 10
-26.2462460072
 20
31.6297517613
 10
-26.2374758332
 20
31.6353740231
 10
-26.2285130794
 20
31.640692576
 10
-26.2193686237
 20
31.6457009652
 10
-26.2100535642
 20
31.6503931124
 10
-26.200579206
 20
31.6547633228
 10
-26.1909570478
 20
31.6588062925
 10
-26.1811987674
 20
31.6625171148
 10
-26.1713162081
 20
31.6658912862
 10
-26.1613213637
 20
31.6689247114
 10
-26.1512263645
 20
31.671613709
 10
-26.1410434623
 20
31.6739550155
 10
-26.1307850156
 20
31.6759457893
 10
-26.1204634746
 20
31.6775836144
 10
-26.1100913659
 20
31.6788665031
 10
-26.0996812777
 20
31.6797928982
 10
-26.0892458442
 20
31.6803616756
 10
-26.0787977304
 20
31.6805721449
  0
LWPOLYLINE
  5
2C4
100
AcDbEntity
  8
ASSI
100
AcDbPolyline
 62
253
  6
CONTINUOUS
 90
46
 70
0
 10
-26.3787520389
 20
31.385129819
 10
-26.3785383553
 20
31.3954207699
 10
-26.3779608916
 20
31.4056992312
 10
-26.3770203486
 20
31.4159527284
 10
-26.3757178677
 20
31.4261688174
 10
-26.3740550298
 20
31.4363350994
 10
-26.372033853
 20
31.4464392362
 10
-26.3696567901
 20
31.4564689647
 10
-26.3669267263
 20
31.4664121126
 10
-26.3638469747
 20
31.4762566122
 10
-26.3604212732
 20
31.4859905158
 10
-26.3566537793
 20
31.4956020098
 10
-26.3525490655
 20
31.5050794293
 10
-26.3481121135
 20
31.514411272
 10
-26.3433483081
 20
31.5235862122
 10
-26.3382634309
 20
31.5325931149
 10
-26.3328636533
 20
31.5414210488
 10
-26.3271555286
 20
31.5500592998
 10
-26.3211459845
 20
31.5584973843
 10
-26.3148423145
 20
31.5667250612
 10
-26.308252169
 20
31.5747323451
 10
-26.3013835462
 20
31.5825095179
 10
-26.2942447822
 20
31.5900471409
 10
-26.2868445409
 20
31.5973360661
 10
-26.2791918037
 20
31.6043674471
 10
-26.2712958582
 20
31.6111327505
 10
-26.2631662874
 20
31.6176237654
 10
-26.2548129577
 20
31.6238326142
 10
-26.2462460072
 20
31.6297517613
 10
-26.2374758332
 20
31.6353740231
 10
-26.2285130794
 20
31.640692576
 10
-26.2193686237
 20
31.6457009652
 10
-26.2100535642
 20
31.6503931124
 10
-26.200579206
 20
31.6547633228
 10
-26.1909570478
 20
31.6588062925
 10
-26.1811987674
 20
31.6625171148
 10
-26.1713162081
 20
31.6658912862
 10
-26.1613213637
 20
31.6689247114
 10
-26.1512263645
 20
31.671613709
 10
-26.1410434623
 20
31.6739550155
 10
-26.1307850156
 20
31.6759457893
 10
-26.1204634746
 20
31.6775836144
 10
-26.1100913659
 20
31.6788665031
 10
-26.0996812777
 20
31.6797928982
 10
-26.0892458442
 20
31.6803616756
 10
-26.0787977304
 20
31.6805721449
  0
LINE
  5
2C5
100
AcDbEntity
  8
RACCORDO
100
AcDbLine
 62
253
  6
CONTINUOUS
 10
-26.3737038682
 20
-2.5649076201
 11
-26.3727467772
 21
-2.5208028682
  0
LINE
  5
2C6
100
AcDbEntity
  8
ASSI
100
AcDbLine
 62
253
  6
CONTINUOUS
 10
-26.3737038682
 20
-2.5649076201
 11
-26.3727467772
 21
-2.5208028682
  0
LINE
  5
2C7
100
AcDbEntity
  8
RACCORDO
100
AcDbLine
 62
253
  6
CONTINUOUS
 10
-26.3744698448
 20
-2.5942509043
 11
-26.3737038682
 21
-2.5649076201
  0
LINE
  5
2C8
100
AcDbEntity
  8
ASSI
100
AcDbLine
 62
253
  6
CONTINUOUS
 10
-26.3744698448
 20
-2.5942509043
 11
-26.3737038682
 21
-2.5649076201
  0
LINE
  5
2C9
100
AcDbEntity
  8
RACCORDO
100
AcDbLine
 62
253
  6
CONTINUOUS
 10
-26.375272244
 20
-2.620203807
 11
-26.3744698448
 21
-2.5942509043
  0
LINE
  5
2CA
100
AcDbEntity
  8
ASSI
100
AcDbLine
 62
253
  6
CONTINUOUS
 10
-26.375272244
 20
-2.620203807
 11
-26.3744698448
 21
-2.5942509043
  0
LINE
  5
2CB
100
AcDbEntity
  8
RACCORDO
100
AcDbLine
 62
253
  6
CONTINUOUS
 10
-26.3758252283
 20
-2.6355496503
 11
-26.375272244
 21
-2.620203807
  0
LINE
  5
2CC
100
AcDbEntity
  8
ASSI
100
AcDbLine
 62
253
  6
CONTINUOUS
 10
-26.3758252283
 20
-2.6355496503
 11
-26.375272244
 21
-2.620203807
  0
LINE
  5
2CD
100
AcDbEntity
  8
RACCORDO
100
AcDbLine
 62
253
  6
CONTINUOUS
 10
-26.3787520389
 20
31.385129819
 11
-26.4836840658
 21
32.4451285964
  0
LINE
  5
2CE
100
AcDbEntity
  8
ASSI
100
AcDbLine
 62
253
  6
CONTINUOUS
 10
-26.3787520389
 20
31.385129819
 11
-26.4836840658
 21
32.4451285964
  0
LINE
  5
2CF
100
AcDbEntity
  8
RACCORDO
100
AcDbLine
 62
253
  6
CONTINUOUS
 10
-26.0787977304
 20
31.6805721449
 11
-26.1845476795
 21
32.7488333809
  0
LINE
  5
2D0
100
AcDbEntity
  8
ASSI
100
AcDbLine
 62
253
  6
CONTINUOUS
 10
-26.0787977304
 20
31.6805721449
 11
-26.1845476795
 21
32.7488333809
  0
LWPOLYLINE
  5
2D1
100
AcDbEntity
  8
RACCORDO
100
AcDbPolyline
 62
253
  6
CONTINUOUS
 90
6
 70
0
 10
-26.3772600813
 20
31.3644487664
 10
-26.3775548027
 20
31.3694444621
 10
-26.3778514166
 20
31.3740113784
 10
-26.3781497315
 20
31.3781463047
 10
-26.3784499389
 20
31.3818524516
 10
-26.3787520389
 20
31.385129819
  0
LWPOLYLINE
  5
2D2
100
AcDbEntity
  8
ASSI
100
AcDbPolyline
 62
253
  6
CONTINUOUS
 90
6
 70
0
 10
-26.3772600813
 20
31.3644487664
 10
-26.3775548027
 20
31.3694444621
 10
-26.3778514166
 20
31.3740113784
 10
-26.3781497315
 20
31.3781463047
 10
-26.3784499389
 20
31.3818524516
 10
-26.3787520389
 20
31.385129819
  0
LWPOLYLINE
  5
2D3
100
AcDbEntity
  8
RACCORDO
100
AcDbPolyline
 62
253
  6
CONTINUOUS
 90
4
 70
0
 10
-26.0778969575
 20
31.6646855497
 10
-26.0781953023
 20
31.6705984388
 10
-26.0784955599
 20
31.6758950903
 10
-26.0787977304
 20
31.6805721449
  0
LWPOLYLINE
  5
2D4
100
AcDbEntity
  8
ASSI
100
AcDbPolyline
 62
253
  6
CONTINUOUS
 90
4
 70
0
 10
-26.0778969575
 20
31.6646855497
 10
-26.0781953023
 20
31.6705984388
 10
-26.0784955599
 20
31.6758950903
 10
-26.0787977304
 20
31.6805721449
  0
LINE
  5
2D5
100
AcDbEntity
  8
RACCORDO
100
AcDbLine
 62
253
  6
CONTINUOUS
 10
-26.3766780512
 20
31.3531991834
 11
-26.3772600813
 21
31.3644487664
  0
LINE
  5
2D6
100
AcDbEntity
  8
ASSI
100
AcDbLine
 62
253
  6
CONTINUOUS
 10
-26.3766780512
 20
31.3531991834
 11
-26.3772600813
 21
31.3644487664
  0
LINE
  5
2D7
100
AcDbEntity
  8
RACCORDO
100
AcDbLine
 62
253
  6
CONTINUOUS
 10
-26.0773056373
 20
31.651026479
 11
-26.0778969575
 21
31.6646855497
  0
LINE
  5
2D8
100
AcDbEntity
  8
ASSI
100
AcDbLine
 62
253
  6
CONTINUOUS
 10
-26.0773056373
 20
31.651026479
 11
-26.0778969575
 21
31.6646855497
  0
LWPOLYLINE
  5
2D9
100
AcDbEntity
  8
RACCORDO
100
AcDbPolyline
 62
253
  6
CONTINUOUS
 90
3
 70
0
 10
-26.3758251719
 20
31.3332149471
 10
-26.3761064473
 20
31.3402841381
 10
-26.3766780512
 20
31.3531991834
  0
LWPOLYLINE
  5
2DA
100
AcDbEntity
  8
ASSI
100
AcDbPolyline
 62
253
  6
CONTINUOUS
 90
3
 70
0
 10
-26.3758251719
 20
31.3332149471
 10
-26.3761064473
 20
31.3402841381
 10
-26.3766780512
 20
31.3531991834
  0
LINE
  5
2DB
100
AcDbEntity
  8
RACCORDO
100
AcDbLine
 62
253
  6
CONTINUOUS
 10
-26.076723631
 20
31.6349522346
 11
-26.0773056373
 21
31.651026479
  0
LINE
  5
2DC
100
AcDbEntity
  8
ASSI
100
AcDbLine
 62
253
  6
CONTINUOUS
 10
-26.076723631
 20
31.6349522346
 11
-26.0773056373
 21
31.651026479
  0
LINE
  5
2DD
100
AcDbEntity
  8
RACCORDO
100
AcDbLine
 62
253
  6
CONTINUOUS
 10
-26.0758707722
 20
31.6064029725
 11
-26.076723631
 21
31.6349522346
  0
LINE
  5
2DE
100
AcDbEntity
  8
ASSI
100
AcDbLine
 62
253
  6
CONTINUOUS
 10
-26.0758707722
 20
31.6064029725
 11
-26.076723631
 21
31.6349522346
  0
LWPOLYLINE
  5
2DF
100
AcDbEntity
  8
RACCORDO
100
AcDbPolyline
 62
253
  6
CONTINUOUS
 90
3
 70
0
 10
-26.0747790098
 20
31.5603140719
 10
-26.0750466375
 20
31.5726751555
 10
-26.0758707722
 20
31.6064029725
  0
LWPOLYLINE
  5
2E0
100
AcDbEntity
  8
ASSI
100
AcDbPolyline
 62
253
  6
CONTINUOUS
 90
3
 70
0
 10
-26.0747790098
 20
31.5603140719
 10
-26.0750466375
 20
31.5726751555
 10
-26.0758707722
 20
31.6064029725
  0
LINE
  5
2E1
100
AcDbEntity
  8
RACCORDO
100
AcDbLine
 62
253
  6
CONTINUOUS
 10
-26.0755925203
 20
-2.8980601494
 11
-26.0747790114
 21
-2.8626473276
  0
LINE
  5
2E2
100
AcDbEntity
  8
ASSI
100
AcDbLine
 62
253
  6
CONTINUOUS
 10
-26.0755925203
 20
-2.8980601494
 11
-26.0747790114
 21
-2.8626473276
  0
LINE
  5
2E3
100
AcDbEntity
  8
RACCORDO
100
AcDbLine
 62
253
  6
CONTINUOUS
 10
-26.0764363299
 20
-2.9283551015
 11
-26.0755925203
 21
-2.8980601494
  0
LINE
  5
2E4
100
AcDbEntity
  8
ASSI
100
AcDbLine
 62
253
  6
CONTINUOUS
 10
-26.0764363299
 20
-2.9283551015
 11
-26.0755925203
 21
-2.8980601494
  0
LINE
  5
2E5
100
AcDbEntity
  8
RACCORDO
100
AcDbLine
 62
253
  6
CONTINUOUS
 10
-26.0770134013
 20
-2.9456221271
 11
-26.0764363299
 21
-2.9283551015
  0
LINE
  5
2E6
100
AcDbEntity
  8
ASSI
100
AcDbLine
 62
253
  6
CONTINUOUS
 10
-26.0770134013
 20
-2.9456221271
 11
-26.0764363299
 21
-2.9283551015
  0
LINE
  5
2E7
100
AcDbEntity
  8
RACCORDO
100
AcDbLine
 62
253
  6
CONTINUOUS
 10
-26.3763907993
 20
-2.6492798118
 11
-26.3758252283
 21
-2.6355496503
  0
LINE
  5
2E8
100
AcDbEntity
  8
ASSI
100
AcDbLine
 62
253
  6
CONTINUOUS
 10
-26.3763907993
 20
-2.6492798118
 11
-26.3758252283
 21
-2.6355496503
  0
LWPOLYLINE
  5
2E9
100
AcDbEntity
  8
RACCORDO
100
AcDbPolyline
 62
253
  6
CONTINUOUS
 90
6
 70
0
 10
-26.0787977304
 20
-2.9829053831
 10
-26.0784955608
 20
-2.9782283323
 10
-26.0781953038
 20
-2.9729316844
 10
-26.0778969594
 20
-2.9670187983
 10
-26.0776003429
 20
-2.9604934394
 10
-26.0770134013
 20
-2.9456221271
  0
LWPOLYLINE
  5
2EA
100
AcDbEntity
  8
ASSI
100
AcDbPolyline
 62
253
  6
CONTINUOUS
 90
6
 70
0
 10
-26.0787977304
 20
-2.9829053831
 10
-26.0784955608
 20
-2.9782283323
 10
-26.0781953038
 20
-2.9729316844
 10
-26.0778969594
 20
-2.9670187983
 10
-26.0776003429
 20
-2.9604934394
 10
-26.0770134013
 20
-2.9456221271
  0
LWPOLYLINE
  5
2EB
100
AcDbEntity
  8
RACCORDO
100
AcDbPolyline
 62
253
  6
CONTINUOUS
 90
8
 70
0
 10
-26.3787520389
 20
-2.6874630572
 10
-26.3784499641
 20
-2.6841860305
 10
-26.3781497756
 20
-2.6804801609
 10
-26.3778514733
 20
-2.6763454483
 10
-26.3775548636
 20
-2.6717786603
 10
-26.3772601402
 20
-2.6667830294
 10
-26.3769678843
 20
-2.661368253
 10
-26.3763907993
 20
-2.6492798118
  0
LWPOLYLINE
  5
2EC
100
AcDbEntity
  8
ASSI
100
AcDbPolyline
 62
253
  6
CONTINUOUS
 90
8
 70
0
 10
-26.3787520389
 20
-2.6874630572
 10
-26.3784499641
 20
-2.6841860305
 10
-26.3781497756
 20
-2.6804801609
 10
-26.3778514733
 20
-2.6763454483
 10
-26.3775548636
 20
-2.6717786603
 10
-26.3772601402
 20
-2.6667830294
 10
-26.3769678843
 20
-2.661368253
 10
-26.3763907993
 20
-2.6492798118
  0
LINE
  5
2ED
100
AcDbEntity
  8
RACCORDO
100
AcDbLine
 62
253
  6
CONTINUOUS
 10
-26.4836840658
 20
-3.7474618346
 11
-26.3787520389
 21
-2.6874630572
  0
LINE
  5
2EE
100
AcDbEntity
  8
ASSI
100
AcDbLine
 62
253
  6
CONTINUOUS
 10
-26.4836840658
 20
-3.7474618346
 11
-26.3787520389
 21
-2.6874630572
  0
LINE
  5
2EF
100
AcDbEntity
  8
RACCORDO
100
AcDbLine
 62
253
  6
CONTINUOUS
 10
-26.1845476795
 20
-4.0511666191
 11
-26.0787977304
 21
-2.9829053831
  0
LINE
  5
2F0
100
AcDbEntity
  8
ASSI
100
AcDbLine
 62
253
  6
CONTINUOUS
 10
-26.1845476795
 20
-4.0511666191
 11
-26.0787977304
 21
-2.9829053831
  0
LINE
  5
2F1
100
AcDbEntity
  8
CURVE
100
AcDbLine
 62
252
  6
CONTINUOUS
 10
-14.1709337377
 20
5.5420774544
 11
-14.1455345885
 21
5.5453769777
  0
LINE
  5
2F2
100
AcDbEntity
  8
CURVE
100
AcDbLine
 62
252
  6
CONTINUOUS
 10
-14.1457509494
 20
5.5453491225
 11
-14.1202432904
 21
5.5476635291
  0
LINE
  5
2F3
100
AcDbEntity
  8
CURVE
100
AcDbLine
 62
252
  6
CONTINUOUS
 10
-14.1204566497
 20
5.5476453377
 11
-14.0948817324
 21
5.5489694642
  0
LWPOLYLINE
  5
2F4
100
AcDbEntity
  8
CURVE
100
AcDbPolyline
 62
252
  6
CONTINUOUS
 90
8
 70
0
 10
-14.0732423926
 20
4.2481284731
 10
-14.0476020886
 20
4.2486837041
 10
-14.0220235048
 20
4.2502517078
 10
-13.9965419042
 20
4.2528259105
 10
-13.9711925494
 20
4.2563997388
 10
-13.9460107034
 20
4.2609666192
 10
-13.9210316291
 20
4.2665199781
 10
-13.8962905893
 20
4.273053242
  0
LINE
  5
2F5
100
AcDbEntity
  8
CURVE
100
AcDbLine
 62
252
  6
CONTINUOUS
 10
-14.0950920499
 20
5.5489610704
 11
-14.0694905777
 21
5.5492899752
  0
LWPOLYLINE
  5
2F6
100
AcDbEntity
  8
CURVE
100
AcDbPolyline
 62
252
  6
CONTINUOUS
 90
15
 70
0
 10
-14.0732204509
 20
4.248128521
 10
-14.0988861652
 20
4.2485899499
 10
-14.1245343952
 20
4.2500654243
 10
-14.150121031
 20
4.2525496599
 10
-14.1756019628
 20
4.2560373726
 10
-14.2009330808
 20
4.2605232782
 10
-14.2260702753
 20
4.2660020923
 10
-14.2509694365
 20
4.2724685309
 10
-14.2755864545
 20
4.2799173098
 10
-14.2998790426
 20
4.2883412727
 10
-14.3238122057
 20
4.2977257755
 10
-14.3473527717
 20
4.3080543024
 10
-14.3704675687
 20
4.3193103371
 10
-14.3931234244
 20
4.3314773637
 10
-14.415287167
 20
4.3445388662
  0
LINE
  5
2F7
100
AcDbEntity
  8
CURVE
100
AcDbLine
 62
252
  6
CONTINUOUS
 10
-14.0696983613
 20
5.549291291
 11
-14.0441098083
 21
5.5486217173
  0
LINE
  5
2F8
100
AcDbEntity
  8
CURVE
100
AcDbLine
 62
252
  6
CONTINUOUS
 10
-14.0443159634
 20
5.5486324625
 11
-14.0187766808
 21
5.5469671984
  0
LINE
  5
2F9
100
AcDbEntity
  8
CURVE
100
AcDbLine
 62
252
  6
CONTINUOUS
 10
-14.0189819087
 20
5.5469870177
 11
-13.9935277707
 21
5.5443303894
  0
LINE
  5
2FA
100
AcDbEntity
  8
CURVE
100
AcDbLine
 62
252
  6
CONTINUOUS
 10
-13.9937324178
 20
5.5443588813
 11
-13.9683996532
 21
5.5407152613
  0
LINE
  5
2FB
100
AcDbEntity
  8
CURVE
100
AcDbLine
 62
252
  6
CONTINUOUS
 10
-14.2454009206
 20
5.5264600266
 11
-14.2205802895
 21
5.5326817045
  0
LINE
  5
2FC
100
AcDbEntity
  8
CURVE
100
AcDbLine
 62
252
  6
CONTINUOUS
 10
-14.2207999346
 20
5.5326278769
 11
-14.1957437513
 21
5.5378812575
  0
LINE
  5
2FD
100
AcDbEntity
  8
CURVE
100
AcDbLine
 62
252
  6
CONTINUOUS
 10
-14.1959638032
 20
5.5378353626
 11
-14.1707149632
 21
5.5421146178
  0
LINE
  5
2FE
100
AcDbEntity
  8
CURVE
100
AcDbLine
 62
252
  6
CONTINUOUS
 10
-13.9686037114
 20
5.5407519787
 11
-13.9434289037
 21
5.536125785
  0
LINE
  5
2FF
100
AcDbEntity
  8
CURVE
100
AcDbLine
 62
252
  6
CONTINUOUS
 10
-13.94363201
 20
5.5361702347
 11
-13.9186520976
 21
5.5305659316
  0
LINE
  5
300
100
AcDbEntity
  8
CURVE
100
AcDbLine
 62
252
  6
CONTINUOUS
 10
-13.9188535343
 20
5.5306175744
 11
-13.8941058102
 21
5.5240396719
  0
LINE
  5
301
100
AcDbEntity
  8
CURVE
100
AcDbLine
 62
252
  6
CONTINUOUS
 10
-13.8943045051
 20
5.5240979228
 11
-13.8698266168
 21
5.5165509771
  0
LINE
  5
302
100
AcDbEntity
  8
CURVE
100
AcDbLine
 62
252
  6
CONTINUOUS
 10
-13.8700211428
 20
5.5166152051
 11
-13.8458509163
 21
5.5081062213
  0
LINE
  5
303
100
AcDbEntity
  8
CURVE
100
AcDbLine
 62
252
  6
CONTINUOUS
 10
-13.8460396066
 20
5.5081757658
 11
-13.8222144017
 21
5.4987213923
  0
LINE
  5
304
100
AcDbEntity
  8
CURVE
100
AcDbLine
 62
252
  6
CONTINUOUS
 10
-13.8223958095
 20
5.498795628
 11
-13.7989525892
 21
5.4884148812
  0
LINE
  5
305
100
AcDbEntity
  8
CURVE
100
AcDbLine
 62
252
  6
CONTINUOUS
 10
-13.7991256028
 20
5.4884932343
 11
-13.7761009955
 21
5.4772050789
  0
LINE
  5
306
100
AcDbEntity
  8
CURVE
100
AcDbLine
 62
252
  6
CONTINUOUS
 10
-13.776264838
 20
5.4772870273
 11
-13.7536951369
 21
5.4651103765
  0
LINE
  5
307
100
AcDbEntity
  8
CURVE
100
AcDbLine
 62
252
  6
CONTINUOUS
 10
-11.5740345756
 20
3.3988333809
 11
-12.6136840658
 21
3.9988333809
  0
LINE
  5
308
100
AcDbEntity
  8
CURVE
100
AcDbLine
 62
252
  6
CONTINUOUS
 10
-15.6436840658
 20
5.7488333809
 11
-16.5959281536
 21
6.2988333809
  0
LINE
  5
309
100
AcDbEntity
  8
CURVE
100
AcDbLine
 62
252
  6
CONTINUOUS
 10
-13.7538493664
 20
5.4651954497
 11
-13.7317705298
 21
5.4521491651
  0
LINE
  5
30A
100
AcDbEntity
  8
CURVE
100
AcDbLine
 62
252
  6
CONTINUOUS
 10
-13.7319150394
 20
5.4522369441
 11
-13.7103626907
 21
5.4383398357
  0
LINE
  5
30B
100
AcDbEntity
  8
CURVE
100
AcDbLine
 62
252
  6
CONTINUOUS
 10
-11.3036840658
 20
26.6288333809
 11
-12.6136840658
 21
25.3188333809
  0
LINE
  5
30C
100
AcDbEntity
  8
CURVE
100
AcDbLine
 62
252
  6
CONTINUOUS
 10
-15.5836840658
 20
22.3488333809
 11
-16.8636840658
 21
21.0688333809
  0
LINE
  5
30D
100
AcDbEntity
  8
CURVE
100
AcDbLine
 62
252
  6
CONTINUOUS
 10
-13.7104977084
 20
5.4384299532
 11
-13.689507136
 21
5.4237007793
  0
LINE
  5
30E
100
AcDbEntity
  8
CURVE
100
AcDbLine
 62
252
  6
CONTINUOUS
 10
-13.6896332249
 20
5.4237929195
 11
-13.6692390208
 21
5.4082517907
  0
LINE
  5
30F
100
AcDbEntity
  8
CURVE
100
AcDbLine
 62
252
  6
CONTINUOUS
 10
-13.6693569842
 20
5.4083456778
 11
-13.6495920552
 21
5.3920182794
  0
LINE
  5
310
100
AcDbEntity
  8
CURVE
100
AcDbLine
 62
252
  6
CONTINUOUS
 10
-13.6497025578
 20
5.3921136314
 11
-13.6305995876
 21
5.3750270587
  0
LINE
  5
311
100
AcDbEntity
  8
CURVE
100
AcDbLine
 62
252
  6
CONTINUOUS
 10
-13.6307030615
 20
5.3751235757
 11
-13.6122949668
 21
5.3573049419
  0
LINE
  5
312
100
AcDbEntity
  8
CURVE
100
AcDbLine
 62
252
  6
CONTINUOUS
 10
-13.6123916106
 20
5.3574023062
 11
-13.5947104195
 21
5.3388801278
  0
LINE
  5
313
100
AcDbEntity
  8
CURVE
100
AcDbLine
 62
252
  6
CONTINUOUS
 10
-14.5539261164
 20
4.4593558537
 11
-14.5710034516
 21
4.4787733389
  0
LWPOLYLINE
  5
314
100
AcDbEntity
  8
CURVE
100
AcDbPolyline
 62
252
  6
CONTINUOUS
 90
3
 70
0
 10
-14.5873110365
 20
4.4988442887
 10
-14.6028205843
 20
4.5195319522
 10
-14.6175044049
 20
4.5408015329
  0
LINE
  5
315
100
AcDbEntity
  8
CURVE
100
AcDbLine
 62
252
  6
CONTINUOUS
 10
-13.5948002302
 20
5.3389779731
 11
-13.5778736849
 21
5.319786358
  0
LWPOLYLINE
  5
316
100
AcDbEntity
  8
CURVE
100
AcDbPolyline
 62
252
  6
CONTINUOUS
 90
3
 70
0
 10
-14.6313371939
 20
4.5626260524
 10
-14.6442942435
 20
4.5849804869
 10
-14.6563508457
 20
4.6078398126
  0
LWPOLYLINE
  5
317
100
AcDbEntity
  8
0
100
AcDbPolyline
 62
7
  6
CONTINUOUS
 90
151
 70
0
 10
-16.5836840658
 20
14.3488333809
 10
-16.5831377386
 20
14.4008445666
 10
-16.5815025955
 20
14.4527945875
 10
-16.5787786366
 20
14.5046834429
 10
-16.5749632305
 20
14.5565385805
 10
-16.5700590086
 20
14.608332551
 10
-16.5640738648
 20
14.6599830082
 10
-16.5570081777
 20
14.7114778604
 10
-16.5488615687
 20
14.7628291979
 10
-16.5396407958
 20
14.8139909474
 10
-16.5293415868
 20
14.8649774745
 10
-16.517968214
 20
14.9157744124
 10
-16.5055402516
 20
14.9662925893
 10
-16.4920603544
 20
15.0165162084
 10
-16.4775258677
 20
15.0664610655
 10
-16.4619484012
 20
15.1160853772
 10
-16.4453221369
 20
15.1654030251
 10
-16.4276528929
 20
15.2144001268
 10
-16.4089697334
 20
15.2629932538
 10
-16.389275443
 20
15.3111709245
 10
-16.3685672372
 20
15.3589446198
 10
-16.346865827
 20
15.4062653554
 10
-16.3241673946
 20
15.4531388423
 10
-16.3004757577
 20
15.4995593689
 10
-16.2758230806
 20
15.5454608173
 10
-16.2502077616
 20
15.590842246
 10
-16.2236314024
 20
15.6357045964
 10
-16.1961309712
 20
15.679984574
 10
-16.1677090372
 20
15.723676211
 10
-16.1383630313
 20
15.7667854755
 10
-16.1081222143
 20
15.8092669775
 10
-16.0769784184
 20
15.8511290975
 10
-16.0449398113
 20
15.8923634554
 10
-16.0120601575
 20
15.9328995207
 10
-15.9783478072
 20
15.972725213
 10
-15.9437944102
 20
16.0118526134
 10
-15.9084286798
 20
16.0502474334
 10
-15.8722386009
 20
16.0879203452
 10
-15.8352361886
 20
16.1248606775
 10
-15.7974862022
 20
16.1610021268
 10
-15.7589985649
 20
16.196333269
 10
-15.7197633535
 20
16.2308655294
 10
-15.6798155576
 20
16.264566879
 10
-15.639144761
 20
16.2974443438
 10
-15.59776138
 20
16.3294908991
 10
-15.555731653
 20
16.3606534395
 10
-15.5130608119
 20
16.3909259479
 10
-15.4697436248
 20
16.4203144429
 10
-15.4258306346
 20
16.4487838727
 10
-15.3813194128
 20
16.4763344897
 10
-15.3362123879
 20
16.5029660431
 10
-15.290567389
 20
16.5286427268
 10
-15.2443798257
 20
16.5533649169
 10
-15.1976542883
 20
16.5771322388
 10
-15.1504623771
 20
16.5999077608
 10
-15.1028123199
 20
16.6216863072
 10
-15.0546958888
 20
16.6424730552
 10
-15.0061600006
 20
16.6622466028
 10
-14.9571914653
 20
16.6810103733
 10
-14.907803473
 20
16.6987609448
 10
-14.8580825101
 20
16.7154666474
 10
-14.8080427711
 20
16.7311213798
 10
-14.7576700616
 20
16.7457312445
 10
-14.7070082841
 20
16.7592828774
 10
-14.6560418905
 20
16.7717787622
 10
-14.604786429
 20
16.7832164163
 10
-14.5533324476
 20
16.7935750255
 10
-14.5016934383
 20
16.8028503368
 10
-14.4498559092
 20
16.8110466042
 10
-14.3978699318
 20
16.8181557741
 10
-14.3457246231
 20
16.8241779651
 10
-14.2934308662
 20
16.8291130593
 10
-14.2410713821
 20
16.8329526476
 10
-14.1886518205
 20
16.8356944982
 10
-14.1361665317
 20
16.8373408432
 10
-14.0836812876
 20
16.8378899696
 10
-14.0311961446
 20
16.8373407369
 10
-13.9787110464
 20
16.8356942855
 10
-13.9262915955
 20
16.8329523239
 10
-13.8739320401
 20
16.8291126147
 10
-13.821638132
 20
16.824177395
 10
-13.7694927296
 20
16.8181550841
 10
-13.7175067853
 20
16.8110458063
 10
-13.6656693466
 20
16.8028494369
 10
-13.6140304148
 20
16.7935740221
 10
-13.5625764739
 20
16.7832153064
 10
-13.5113210399
 20
16.7717775446
 10
-13.4603546619
 20
16.7592815482
 10
-13.4096928672
 20
16.7457297915
 10
-13.3593201285
 20
16.7311197992
 10
-13.3092804128
 20
16.7154649579
 10
-13.2595595881
 20
16.6987591882
 10
-13.2101717864
 20
16.6810085682
 10
-13.1612033708
 20
16.6622447212
 10
-13.1126674338
 20
16.6424710283
 10
-13.0645508828
 20
16.6216841069
 10
-13.016900803
 20
16.5999054348
 10
-12.9697090894
 20
16.5771298942
 10
-12.9229838471
 20
16.5533626014
 10
-12.8767964765
 20
16.5286403855
 10
-12.8311514408
 20
16.5029635517
 10
-12.7860442769
 20
16.4763317933
 10
-12.7415329955
 20
16.4487810208
 10
-12.6976201271
 20
16.4203115464
 10
-12.6543031413
 20
16.3909230564
 10
-12.6116324572
 20
16.3606505228
 10
-12.5696027848
 20
16.3294878891
 10
-12.5282194141
 20
16.2974412103
 10
-12.4875486347
 20
16.2645636255
 10
-12.4476008698
 20
16.2308621596
 10
-12.4083656962
 20
16.1963297864
 10
-12.3698781336
 20
16.1609985685
 10
-12.3321283015
 20
16.1248571259
 10
-12.2951260804
 20
16.0879168375
 10
-12.258936132
 20
16.050243904
 10
-12.2235703908
 20
16.0118489061
 10
-12.1890169222
 20
15.9727212621
 10
-12.1553045839
 20
15.9328954297
 10
-12.1224251306
 20
15.892359458
 10
-12.0903868075
 20
15.851125297
 10
-12.0592432088
 20
15.8092632558
 10
-12.0290023892
 20
15.7667815573
 10
-11.9996562939
 20
15.7236719782
 10
-11.9712343533
 20
15.6799801582
 10
-11.943734104
 20
15.6357002946
 10
-11.9171580094
 20
15.5908381899
 10
-11.8915428894
 20
15.5454568918
 10
-11.8668902644
 20
15.4995553197
 10
-11.8431986141
 20
15.4531345543
 10
-11.8205001978
 20
15.4062608855
 10
-11.7987988733
 20
15.3589400951
 10
-11.7780907828
 20
15.3111664017
 10
-11.7583966122
 20
15.2629887504
 10
-11.7397135778
 20
15.2143956791
 10
-11.7220444633
 20
15.1653986506
 10
-11.705418305
 20
15.1160809974
 10
-11.6898408922
 20
15.0664564955
 10
-11.6753064356
 20
15.0165113699
 10
-11.6618266037
 20
14.9662876267
 10
-11.6493987842
 20
14.9157696518
 10
-11.6380255894
 20
14.8649730604
 10
-11.627726525
 20
14.8139867037
 10
-11.618505821
 20
14.7628247152
 10
-11.6103592474
 20
14.7114729626
 10
-11.6032936202
 20
14.6599778985
 10
-11.5973085931
 20
14.6083275091
 10
-11.5924045124
 20
14.5565338097
 10
-11.5885892337
 20
14.5046792969
 10
-11.5858653757
 20
14.4527914699
 10
-11.5842303197
 20
14.400842831
 10
-11.5836840658
 20
14.3488333809
  0
LWPOLYLINE
  5
318
100
AcDbEntity
  8
ASSI
100
AcDbPolyline
 62
7
  6
CONTINUOUS
 90
151
 70
0
 10
-16.5836840658
 20
14.3488333809
 10
-16.5831377386
 20
14.4008445666
 10
-16.5815025955
 20
14.4527945875
 10
-16.5787786366
 20
14.5046834429
 10
-16.5749632305
 20
14.5565385805
 10
-16.5700590086
 20
14.608332551
 10
-16.5640738648
 20
14.6599830082
 10
-16.5570081777
 20
14.7114778604
 10
-16.5488615687
 20
14.7628291979
 10
-16.5396407958
 20
14.8139909474
 10
-16.5293415868
 20
14.8649774745
 10
-16.517968214
 20
14.9157744124
 10
-16.5055402516
 20
14.9662925893
 10
-16.4920603544
 20
15.0165162084
 10
-16.4775258677
 20
15.0664610655
 10
-16.4619484012
 20
15.1160853772
 10
-16.4453221369
 20
15.1654030251
 10
-16.4276528929
 20
15.2144001268
 10
-16.4089697334
 20
15.2629932538
 10
-16.389275443
 20
15.3111709245
 10
-16.3685672372
 20
15.3589446198
 10
-16.346865827
 20
15.4062653554
 10
-16.3241673946
 20
15.4531388423
 10
-16.3004757577
 20
15.4995593689
 10
-16.2758230806
 20
15.5454608173
 10
-16.2502077616
 20
15.590842246
 10
-16.2236314024
 20
15.6357045964
 10
-16.1961309712
 20
15.679984574
 10
-16.1677090372
 20
15.723676211
 10
-16.1383630313
 20
15.7667854755
 10
-16.1081222143
 20
15.8092669775
 10
-16.0769784184
 20
15.8511290975
 10
-16.0449398113
 20
15.8923634554
 10
-16.0120601575
 20
15.9328995207
 10
-15.9783478072
 20
15.972725213
 10
-15.9437944102
 20
16.0118526134
 10
-15.9084286798
 20
16.0502474334
 10
-15.8722386009
 20
16.0879203452
 10
-15.8352361886
 20
16.1248606775
 10
-15.7974862022
 20
16.1610021268
 10
-15.7589985649
 20
16.196333269
 10
-15.7197633535
 20
16.2308655294
 10
-15.6798155576
 20
16.264566879
 10
-15.639144761
 20
16.2974443438
 10
-15.59776138
 20
16.3294908991
 10
-15.555731653
 20
16.3606534395
 10
-15.5130608119
 20
16.3909259479
 10
-15.4697436248
 20
16.4203144429
 10
-15.4258306346
 20
16.4487838727
 10
-15.3813194128
 20
16.4763344897
 10
-15.3362123879
 20
16.5029660431
 10
-15.290567389
 20
16.5286427268
 10
-15.2443798257
 20
16.5533649169
 10
-15.1976542883
 20
16.5771322388
 10
-15.1504623771
 20
16.5999077608
 10
-15.1028123199
 20
16.6216863072
 10
-15.0546958888
 20
16.6424730552
 10
-15.0061600006
 20
16.6622466028
 10
-14.9571914653
 20
16.6810103733
 10
-14.907803473
 20
16.6987609448
 10
-14.8580825101
 20
16.7154666474
 10
-14.8080427711
 20
16.7311213798
 10
-14.7576700616
 20
16.7457312445
 10
-14.7070082841
 20
16.7592828774
 10
-14.6560418905
 20
16.7717787622
 10
-14.604786429
 20
16.7832164163
 10
-14.5533324476
 20
16.7935750255
 10
-14.5016934383
 20
16.8028503368
 10
-14.4498559092
 20
16.8110466042
 10
-14.3978699318
 20
16.8181557741
 10
-14.3457246231
 20
16.8241779651
 10
-14.2934308662
 20
16.8291130593
 10
-14.2410713821
 20
16.8329526476
 10
-14.1886518205
 20
16.8356944982
 10
-14.1361665317
 20
16.8373408432
 10
-14.0836812876
 20
16.8378899696
 10
-14.0311961446
 20
16.8373407369
 10
-13.9787110464
 20
16.8356942855
 10
-13.9262915955
 20
16.8329523239
 10
-13.8739320401
 20
16.8291126147
 10
-13.821638132
 20
16.824177395
 10
-13.7694927296
 20
16.8181550841
 10
-13.7175067853
 20
16.8110458063
 10
-13.6656693466
 20
16.8028494369
 10
-13.6140304148
 20
16.7935740221
 10
-13.5625764739
 20
16.7832153064
 10
-13.5113210399
 20
16.7717775446
 10
-13.4603546619
 20
16.7592815482
 10
-13.4096928672
 20
16.7457297915
 10
-13.3593201285
 20
16.7311197992
 10
-13.3092804128
 20
16.7154649579
 10
-13.2595595881
 20
16.6987591882
 10
-13.2101717864
 20
16.6810085682
 10
-13.1612033708
 20
16.6622447212
 10
-13.1126674338
 20
16.6424710283
 10
-13.0645508828
 20
16.6216841069
 10
-13.016900803
 20
16.5999054348
 10
-12.9697090894
 20
16.5771298942
 10
-12.9229838471
 20
16.5533626014
 10
-12.8767964765
 20
16.5286403855
 10
-12.8311514408
 20
16.5029635517
 10
-12.7860442769
 20
16.4763317933
 10
-12.7415329955
 20
16.4487810208
 10
-12.6976201271
 20
16.4203115464
 10
-12.6543031413
 20
16.3909230564
 10
-12.6116324572
 20
16.3606505228
 10
-12.5696027848
 20
16.3294878891
 10
-12.5282194141
 20
16.2974412103
 10
-12.4875486347
 20
16.2645636255
 10
-12.4476008698
 20
16.2308621596
 10
-12.4083656962
 20
16.1963297864
 10
-12.3698781336
 20
16.1609985685
 10
-12.3321283015
 20
16.1248571259
 10
-12.2951260804
 20
16.0879168375
 10
-12.258936132
 20
16.050243904
 10
-12.2235703908
 20
16.0118489061
 10
-12.1890169222
 20
15.9727212621
 10
-12.1553045839
 20
15.9328954297
 10
-12.1224251306
 20
15.892359458
 10
-12.0903868075
 20
15.851125297
 10
-12.0592432088
 20
15.8092632558
 10
-12.0290023892
 20
15.7667815573
 10
-11.9996562939
 20
15.7236719782
 10
-11.9712343533
 20
15.6799801582
 10
-11.943734104
 20
15.6357002946
 10
-11.9171580094
 20
15.5908381899
 10
-11.8915428894
 20
15.5454568918
 10
-11.8668902644
 20
15.4995553197
 10
-11.8431986141
 20
15.4531345543
 10
-11.8205001978
 20
15.4062608855
 10
-11.7987988733
 20
15.3589400951
 10
-11.7780907828
 20
15.3111664017
 10
-11.7583966122
 20
15.2629887504
 10
-11.7397135778
 20
15.2143956791
 10
-11.7220444633
 20
15.1653986506
 10
-11.705418305
 20
15.1160809974
 10
-11.6898408922
 20
15.0664564955
 10
-11.6753064356
 20
15.0165113699
 10
-11.6618266037
 20
14.9662876267
 10
-11.6493987842
 20
14.9157696518
 10
-11.6380255894
 20
14.8649730604
 10
-11.627726525
 20
14.8139867037
 10
-11.618505821
 20
14.7628247152
 10
-11.6103592474
 20
14.7114729626
 10
-11.6032936202
 20
14.6599778985
 10
-11.5973085931
 20
14.6083275091
 10
-11.5924045124
 20
14.5565338097
 10
-11.5885892337
 20
14.5046792969
 10
-11.5858653757
 20
14.4527914699
 10
-11.5842303197
 20
14.400842831
 10
-11.5836840658
 20
14.3488333809
  0
LINE
  5
319
100
AcDbEntity
  8
CURVE
100
AcDbLine
 62
252
  6
CONTINUOUS
 10
-13.4554618662
 20
5.0993076581
 11
-13.4481745774
 21
5.0751436898
  0
LWPOLYLINE
  5
31A
100
AcDbEntity
  8
CURVE
100
AcDbPolyline
 62
252
  6
CONTINUOUS
 90
6
 70
0
 10
-13.4418311832
 20
5.0507668273
 10
-13.4364280882
 20
5.0261967715
 10
-13.4319616967
 20
5.0014532233
 10
-13.4284330245
 20
4.9765392125
 10
-13.4258615337
 20
4.9513910836
 10
-13.4242712975
 20
4.9259285101
  0
LWPOLYLINE
  5
31B
100
AcDbEntity
  8
CURVE
100
AcDbPolyline
 62
252
  6
CONTINUOUS
 90
28
 70
0
 10
-14.7248172038
 20
4.9073545759
 10
-14.7248109299
 20
4.8861226516
 10
-14.7241272951
 20
4.8651634887
 10
-14.7227749389
 20
4.844436286
 10
-14.7207625007
 20
4.8239002428
 10
-14.7180986198
 20
4.803514558
 10
-14.7138631174
 20
4.7781982312
 10
-14.708623779
 20
4.7530723702
 10
-14.7023811489
 20
4.7281562574
 10
-14.6951357709
 20
4.703469175
 10
-14.6868912855
 20
4.6790368602
 10
-14.6776637173
 20
4.654910869
 10
-14.6674721871
 20
4.6311492123
 10
-14.6563358155
 20
4.607809901
 10
-14.6442747614
 20
4.5849455426
 10
-14.6313133355
 20
4.5625871301
 10
-14.6174768864
 20
4.5407602531
 10
-14.6027907628
 20
4.5194905011
 10
-14.5872807458
 20
4.4988051932
 10
-14.570974347
 20
4.4787385655
 10
-14.5538995103
 20
4.4593265838
 10
-14.5360841799
 20
4.4406052138
 10
-14.5175566591
 20
4.4226093244
 10
-14.4983466894
 20
4.4053693971
 10
-14.4784843714
 20
4.388914817
 10
-14.4579998059
 20
4.3732749688
 10
-14.4369236137
 20
4.358477107
 10
-14.4152884963
 20
4.3445399645
  0
LINE
  5
31C
100
AcDbEntity
  8
CURVE
100
AcDbLine
 62
252
  6
CONTINUOUS
 10
-14.0836840658
 20
1.9488333809
 11
-14.0836840658
 21
3.1488333373
  0
LINE
  5
31D
100
AcDbEntity
  8
CURVE
100
AcDbLine
 62
252
  6
CONTINUOUS
 10
-14.0836840658
 20
6.6488333809
 11
-14.0836840658
 21
7.7488334279
  0
LINE
  5
31E
100
AcDbEntity
  8
CURVE
100
AcDbLine
 62
252
  6
CONTINUOUS
 10
-14.0836840658
 20
19.9188333809
 11
-14.0836840658
 21
21.7688333462
  0
LINE
  5
31F
100
AcDbEntity
  8
CURVE
100
AcDbLine
 62
252
  6
CONTINUOUS
 10
-14.0836840658
 20
25.9788333809
 11
-14.0836840658
 21
27.7788333628
  0
LWPOLYLINE
  5
320
100
AcDbEntity
  8
CURVE
100
AcDbPolyline
 62
252
  6
CONTINUOUS
 90
89
 70
0
 10
-15.0836840658
 20
23.8488333809
 10
-15.0831371143
 20
23.8821804662
 10
-15.0815087401
 20
23.9151397436
 10
-15.0788171676
 20
23.9477942325
 10
-15.0750806212
 20
23.9802269519
 10
-15.0703125023
 20
24.0125025693
 10
-15.064506921
 20
24.0446123441
 10
-15.0576531647
 20
24.0765291842
 10
-15.0497405207
 20
24.108225997
 10
-15.0407633099
 20
24.1396727693
 10
-15.0307359889
 20
24.1708278034
 10
-15.0196780475
 20
24.2016464809
 10
-15.0076089759
 20
24.2320841829
 10
-14.9945477717
 20
24.2620990319
 10
-14.9805114626
 20
24.2916601137
 10
-14.9655165839
 20
24.3207392554
 10
-14.9495796707
 20
24.3493082838
 10
-14.9302348983
 20
24.3812979532
 10
-14.9097128504
 20
24.412543221
 10
-14.8880450667
 20
24.4430027534
 10
-14.8652630871
 20
24.4726352169
 10
-14.8413984514
 20
24.5013992776
 10
-14.8164826993
 20
24.529253602
 10
-14.7905473706
 20
24.5561568562
 10
-14.7636258193
 20
24.5820693867
 10
-14.7357586569
 20
24.6069582604
 10
-14.7069883088
 20
24.630792224
 10
-14.6773572007
 20
24.6535400246
 10
-14.646907758
 20
24.6751704091
 10
-14.6156824065
 20
24.6956521244
 10
-14.5837235716
 20
24.7149539174
 10
-14.5510733217
 20
24.7330459616
 10
-14.517772296
 20
24.7499041367
 10
-14.4838607764
 20
24.7655057488
 10
-14.4493790447
 20
24.7798281043
 10
-14.414367383
 20
24.7928485094
 10
-14.3788660731
 20
24.8045442703
 10
-14.3429153969
 20
24.8148926932
 10
-14.3065587917
 20
24.8238742124
 10
-14.2698523164
 20
24.8314817742
 10
-14.232855185
 20
24.837711453
 10
-14.1956266117
 20
24.8425593229
 10
-14.1582258107
 20
24.8460214585
 10
-14.1207119962
 20
24.8480939339
 10
-14.0831443823
 20
24.8487728236
 10
-14.0455816751
 20
24.8480554353
 10
-14.0080805489
 20
24.8459440101
 10
-13.9706971698
 20
24.8424420226
 10
-13.9334877041
 20
24.8375529476
 10
-13.8965083178
 20
24.8312802595
 10
-13.8598151773
 20
24.823627433
 10
-13.8234644486
 20
24.8145979427
 10
-13.7875101579
 20
24.804198623
 10
-13.7519977709
 20
24.7924497472
 10
-13.7169706133
 20
24.7793749485
 10
-13.6824720107
 20
24.76499786
 10
-13.6485452888
 20
24.749342115
 10
-13.6152337732
 20
24.7324313465
 10
-13.5825807895
 20
24.7142891877
 10
-13.5506292907
 20
24.6949405849
 10
-13.5194207385
 20
24.674415737
 10
-13.4889962218
 20
24.652746156
 10
-13.4593968295
 20
24.6299633539
 10
-13.4306636506
 20
24.6060988429
 10
-13.402837774
 20
24.5811841349
 10
-13.3759602887
 20
24.5552507419
 10
-13.35007061
 20
24.5283316972
 10
-13.3252014592
 20
24.5004661184
 10
-13.301383884
 20
24.4716946443
 10
-13.2786489321
 20
24.4420579139
 10
-13.2570276511
 20
24.4115965659
 10
-13.2365510888
 20
24.3803512391
 10
-13.2172502929
 20
24.3483625724
 10
-13.2013503558
 20
24.3197949355
 10
-13.1863913213
 20
24.2907181381
 10
-13.1723901246
 20
24.2611610252
 10
-13.1593637012
 20
24.2311524419
 10
-13.1473294157
 20
24.2007240123
 10
-13.1363063487
 20
24.1699184781
 10
-13.1263140101
 20
24.1387813603
 10
-13.1173719096
 20
24.1073581797
 10
-13.1094944092
 20
24.0756913529
 10
-13.1026752792
 20
24.0438108791
 10
-13.0969031425
 20
24.0117436535
 10
-13.0921666215
 20
23.9795165708
 10
-13.0884591714
 20
23.9471381346
 10
-13.0857935773
 20
23.9145432818
 10
-13.0841874568
 20
23.8816485582
 10
-13.0836584273
 20
23.8483705092
  0
LWPOLYLINE
  5
321
100
AcDbEntity
  8
CURVE
100
AcDbPolyline
 62
252
  6
CONTINUOUS
 90
6
 70
0
 10
-14.7248172038
 20
4.9073545759
 10
-14.7238855063
 20
4.9337073041
 10
-14.7219391016
 20
4.9596128214
 10
-14.7189995534
 20
4.9851508353
 10
-14.7150884254
 20
5.0104010527
 10
-14.7102236181
 20
5.0354262798
  0
LWPOLYLINE
  5
322
100
AcDbEntity
  8
CURVE
100
AcDbPolyline
 62
252
  6
CONTINUOUS
 90
19
 70
0
 10
-13.4236864779
 20
4.9001020202
 10
-13.4242727447
 20
4.9259621095
 10
-13.4258645391
 20
4.9514274954
 10
-13.4284378119
 20
4.9765785526
 10
-13.4319685137
 20
5.001495656
 10
-13.4364372189
 20
5.0262425163
 10
-13.4418429964
 20
5.050816187
 10
-13.4481895383
 20
5.0751970576
 10
-13.4554805371
 20
5.0993655175
 10
-13.463716475
 20
5.1232956629
 10
-13.4728849944
 20
5.146936417
 10
-13.4829705277
 20
5.1702304101
 10
-13.493957507
 20
5.1931202724
 10
-13.5058305248
 20
5.2155538947
 10
-13.5185748138
 20
5.2375002107
 10
-13.5321757667
 20
5.2589334151
 10
-13.5466187762
 20
5.2798277023
 10
-13.5618872409
 20
5.3001557471
 10
-13.5779565829
 20
5.3198841454
  0
LWPOLYLINE
  5
323
100
AcDbEntity
  8
CURVE
100
AcDbPolyline
 62
252
  6
CONTINUOUS
 90
89
 70
0
 10
-13.0836584273
 20
23.8483705092
 10
-13.0842200105
 20
23.8150340108
 10
-13.0858619448
 20
23.7820848223
 10
-13.088566256
 20
23.749440266
 10
-13.0923149702
 20
23.7170176641
 10
-13.0970948975
 20
23.6847525966
 10
-13.1029119848
 20
23.6526536758
 10
-13.1097769634
 20
23.6207477717
 10
-13.1177005645
 20
23.5890617544
 10
-13.1266884647
 20
23.5576254582
 10
-13.1367261227
 20
23.5264805732
 10
-13.1477939421
 20
23.4956717539
 10
-13.1598723271
 20
23.4652436546
 10
-13.1729421951
 20
23.4352381891
 10
-13.1869865185
 20
23.4056863092
 10
-13.201988783
 20
23.3766162262
 10
-13.2179324746
 20
23.3480561517
 10
-13.2372842857
 20
23.316076619
 10
-13.2578126902
 20
23.284841357
 10
-13.279486232
 20
23.2543916557
 10
-13.3022734548
 20
23.2247688047
 10
-13.3261429024
 20
23.1960140941
 10
-13.3510631187
 20
23.1681688138
 10
-13.3770026474
 20
23.1412742535
 10
-13.4039282002
 20
23.1153700339
 10
-13.4317991597
 20
23.090489098
 10
-13.4605730766
 20
23.0666627197
 10
-13.4902075011
 20
23.0439221728
 10
-13.520659984
 20
23.022298731
 10
-13.5518880755
 20
23.0018236681
 10
-13.5838493263
 20
22.9825282579
 10
-13.6165016414
 20
22.9644423462
 10
-13.6498043441
 20
22.9475900666
 10
-13.6837171123
 20
22.9319941246
 10
-13.7181996238
 20
22.9176772257
 10
-13.7532115566
 20
22.9046620755
 10
-13.7887125885
 20
22.8929713796
 10
-13.8246623973
 20
22.8826278434
 10
-13.8610175098
 20
22.8736510309
 10
-13.897721848
 20
22.8660479388
 10
-13.9347161827
 20
22.8598224225
 10
-13.9719412848
 20
22.8549783372
 10
-14.0093379251
 20
22.8515195379
 10
-14.0468468743
 20
22.84944988
 10
-14.0844089035
 20
22.8487732186
 10
-14.1219652948
 20
22.8494921905
 10
-14.1594593769
 20
22.8516045588
 10
-14.1968349897
 20
22.8551068682
 10
-14.2340359732
 20
22.8599956634
 10
-14.2710061674
 20
22.8662674892
 10
-14.3076894124
 20
22.8739188901
 10
-14.3440295481
 20
22.882946411
 10
-14.3799725698
 20
22.8933432312
 10
-14.4154730934
 20
22.9050890692
 10
-14.4504878899
 20
22.9181602779
 10
-14.4849737304
 20
22.9325332105
 10
-14.5188873861
 20
22.94818422
 10
-14.5521856279
 20
22.9650896596
 10
-14.5848252271
 20
22.9832258824
 10
-14.6167633253
 20
23.0025679292
 10
-14.6479585471
 20
23.0230855922
 10
-14.6783698878
 20
23.0447473516
 10
-14.7079563425
 20
23.0675216872
 10
-14.7366769064
 20
23.0913770792
 10
-14.7644905748
 20
23.1162820076
 10
-14.791356343
 20
23.1422049523
 10
-14.8172348782
 20
23.1691128841
 10
-14.8420935362
 20
23.1969667353
 10
-14.865901345
 20
23.2257259293
 10
-14.8886273324
 20
23.2553498891
 10
-14.9102405264
 20
23.2857980379
 10
-14.9307099548
 20
23.3170297987
 10
-14.9500046457
 20
23.3490045949
 10
-14.9659001415
 20
23.3775598982
 10
-14.9808556153
 20
23.4066242449
 10
-14.9948541668
 20
23.4361688585
 10
-15.0078788956
 20
23.4661649625
 10
-15.0199125176
 20
23.4965810064
 10
-15.0309362156
 20
23.5273743424
 10
-15.0409307884
 20
23.5584995487
 10
-15.0498770353
 20
23.5899112033
 10
-15.057760817
 20
23.6215670024
 10
-15.0645882422
 20
23.6534371144
 10
-15.0703704811
 20
23.6854948258
 10
-15.0751187042
 20
23.7177134232
 10
-15.0788392259
 20
23.7500844895
 10
-15.0815189368
 20
23.7826727941
 10
-15.0831398719
 20
23.8155614027
 10
-15.0836840658
 20
23.8488333809
  0
LWPOLYLINE
  5
324
100
AcDbEntity
  8
0
100
AcDbPolyline
 62
7
  6
CONTINUOUS
 90
151
 70
0
 10
-11.5836840658
 20
14.3488333809
 10
-11.584230393
 20
14.2968221952
 10
-11.5858655361
 20
14.2448721743
 10
-11.588589495
 20
14.1929833189
 10
-11.5924049011
 20
14.1411281813
 10
-11.597309123
 20
14.0893342108
 10
-11.6032942668
 20
14.0376837536
 10
-11.6103599539
 20
13.9861889014
 10
-11.6185065629
 20
13.934837564
 10
-11.6277273358
 20
13.8836758145
 10
-11.6380265448
 20
13.8326892873
 10
-11.6493999176
 20
13.7818923494
 10
-11.66182788
 20
13.7313741725
 10
-11.6753077772
 20
13.6811505534
 10
-11.6898422639
 20
13.6312056964
 10
-11.7054197304
 20
13.5815813846
 10
-11.7220459947
 20
13.5322637367
 10
-11.7397152388
 20
13.4832666351
 10
-11.7583983982
 20
13.4346735081
 10
-11.7780926886
 20
13.3864958374
 10
-11.7988008944
 20
13.338722142
 10
-11.8205023046
 20
13.2914014064
 10
-11.843200737
 20
13.2445279196
 10
-11.8668923739
 20
13.1981073929
 10
-11.891545051
 20
13.1522059446
 10
-11.91716037
 20
13.1068245158
 10
-11.9437367292
 20
13.0619621655
 10
-11.9712371604
 20
13.0176821878
 10
-11.9996590944
 20
12.9739905508
 10
-12.0290051003
 20
12.9308812863
 10
-12.0592459173
 20
12.8883997844
 10
-12.0903897132
 20
12.8465376644
 10
-12.1224283203
 20
12.8053033064
 10
-12.1553079741
 20
12.7647672411
 10
-12.1890203244
 20
12.7249415488
 10
-12.2235737214
 20
12.6858141484
 10
-12.2589394518
 20
12.6474193285
 10
-12.2951295307
 20
12.6097464167
 10
-12.332131943
 20
12.5728060844
 10
-12.3698819294
 20
12.536664635
 10
-12.4083695667
 20
12.5013334928
 10
-12.4476047782
 20
12.4668012324
 10
-12.4875525741
 20
12.4330998829
 10
-12.5282233706
 20
12.400222418
 10
-12.5696067516
 20
12.3681758627
 10
-12.6116364786
 20
12.3370133223
 10
-12.6543073197
 20
12.3067408139
 10
-12.6976245068
 20
12.277352319
 10
-12.741537497
 20
12.2488828891
 10
-12.7860487188
 20
12.2213322721
 10
-12.8311557437
 20
12.1947007187
 10
-12.8768007426
 20
12.169024035
 10
-12.9229883059
 20
12.144301845
 10
-12.9697138433
 20
12.120534523
 10
-13.0169057545
 20
12.097759001
 10
-13.0645558117
 20
12.0759804547
 10
-13.1126722428
 20
12.0551937067
 10
-13.161208131
 20
12.0354201591
 10
-13.2101766663
 20
12.0166563885
 10
-13.2595646586
 20
11.998905817
 10
-13.3092856215
 20
11.9822001144
 10
-13.3593253605
 20
11.966545382
 10
-13.4096980701
 20
11.9519355173
 10
-13.4603598475
 20
11.9383838844
 10
-13.5113262411
 20
11.9258879996
 10
-13.5625817026
 20
11.9144503456
 10
-13.614035684
 20
11.9040917363
 10
-13.6656746933
 20
11.894816425
 10
-13.7175122224
 20
11.8866201576
 10
-13.7694981998
 20
11.8795109878
 10
-13.8216435085
 20
11.8734887967
 10
-13.8739372654
 20
11.8685537025
 10
-13.9262967495
 20
11.8647141143
 10
-13.9787163111
 20
11.8619722636
 10
-14.0312015999
 20
11.8603259186
 10
-14.083686844
 20
11.8597767922
 10
-14.136171987
 20
11.8603260249
 10
-14.1886570852
 20
11.8619724763
 10
-14.2410765361
 20
11.864714438
 10
-14.2934360915
 20
11.8685541471
 10
-14.3457299996
 20
11.8734893669
 10
-14.397875402
 20
11.8795116777
 10
-14.4498613463
 20
11.8866209555
 10
-14.501698785
 20
11.8948173249
 10
-14.5533377169
 20
11.9040927397
 10
-14.6047916577
 20
11.9144514554
 10
-14.6560470917
 20
11.9258892172
 10
-14.7070134697
 20
11.9383852137
 10
-14.7576752644
 20
11.9519369703
 10
-14.8080480031
 20
11.9665469626
 10
-14.8580877188
 20
11.9822018039
 10
-14.9078085435
 20
11.9989075736
 10
-14.9571963452
 20
12.0166581936
 10
-15.0061647608
 20
12.0354220406
 10
-15.0547006978
 20
12.0551957336
 10
-15.1028172489
 20
12.0759826549
 10
-15.1504673286
 20
12.097761327
 10
-15.1976590422
 20
12.1205368676
 10
-15.2443842845
 20
12.1443041604
 10
-15.2905716551
 20
12.1690263764
 10
-15.3362166908
 20
12.1947032101
 10
-15.3813238547
 20
12.2213349685
 10
-15.4258351361
 20
12.248885741
 10
-15.4697480045
 20
12.2773552154
 10
-15.5130649904
 20
12.3067437054
 10
-15.5557356744
 20
12.3370162391
 10
-15.5977653468
 20
12.3681788728
 10
-15.6391487175
 20
12.4002255515
 10
-15.6798194969
 20
12.4331031363
 10
-15.7197672618
 20
12.4668046022
 10
-15.7590024354
 20
12.5013369755
 10
-15.797489998
 20
12.5366681934
 10
-15.8352398301
 20
12.5728096359
 10
-15.8722420512
 20
12.6097499243
 10
-15.9084319997
 20
12.6474228578
 10
-15.9437977408
 20
12.6858178558
 10
-15.9783512094
 20
12.7249454997
 10
-16.0120635477
 20
12.7647713321
 10
-16.0449430011
 20
12.8053073039
 10
-16.0769813241
 20
12.8465414648
 10
-16.1081249228
 20
12.888403506
 10
-16.1383657424
 20
12.9308852045
 10
-16.1677118377
 20
12.9739947836
 10
-16.1961337783
 20
13.0176866036
 10
-16.2236340276
 20
13.0619664672
 10
-16.2502101222
 20
13.1068285719
 10
-16.2758252422
 20
13.15220987
 10
-16.3004778672
 20
13.1981114421
 10
-16.3241695175
 20
13.2445322075
 10
-16.3468679338
 20
13.2914058763
 10
-16.3685692583
 20
13.3387266667
 10
-16.3892773488
 20
13.3865003601
 10
-16.4089715195
 20
13.4346780115
 10
-16.4276545538
 20
13.4832710827
 10
-16.4453236683
 20
13.5322681113
 10
-16.4619498266
 20
13.5815857645
 10
-16.4775272395
 20
13.6312102664
 10
-16.4920616961
 20
13.681155392
 10
-16.5055415279
 20
13.7313791351
 10
-16.5179693474
 20
13.7818971101
 10
-16.5293425422
 20
13.8326937014
 10
-16.5396416066
 20
13.8836800581
 10
-16.5488623106
 20
13.9348420467
 10
-16.5570088843
 20
13.9861937993
 10
-16.5640745114
 20
14.0376888633
 10
-16.5700595386
 20
14.0893392527
 10
-16.5749636192
 20
14.1411329521
 10
-16.5787788979
 20
14.192987465
 10
-16.5815027559
 20
14.2448752919
 10
-16.5831378119
 20
14.2968239309
 10
-16.5836840658
 20
14.3488333809
  0
LWPOLYLINE
  5
325
100
AcDbEntity
  8
ASSI
100
AcDbPolyline
 62
7
  6
CONTINUOUS
 90
151
 70
0
 10
-11.5836840658
 20
14.3488333809
 10
-11.584230393
 20
14.2968221952
 10
-11.5858655361
 20
14.2448721743
 10
-11.588589495
 20
14.1929833189
 10
-11.5924049011
 20
14.1411281813
 10
-11.597309123
 20
14.0893342108
 10
-11.6032942668
 20
14.0376837536
 10
-11.6103599539
 20
13.9861889014
 10
-11.6185065629
 20
13.934837564
 10
-11.6277273358
 20
13.8836758145
 10
-11.6380265448
 20
13.8326892873
 10
-11.6493999176
 20
13.7818923494
 10
-11.66182788
 20
13.7313741725
 10
-11.6753077772
 20
13.6811505534
 10
-11.6898422639
 20
13.6312056964
 10
-11.7054197304
 20
13.5815813846
 10
-11.7220459947
 20
13.5322637367
 10
-11.7397152388
 20
13.4832666351
 10
-11.7583983982
 20
13.4346735081
 10
-11.7780926886
 20
13.3864958374
 10
-11.7988008944
 20
13.338722142
 10
-11.8205023046
 20
13.2914014064
 10
-11.843200737
 20
13.2445279196
 10
-11.8668923739
 20
13.1981073929
 10
-11.891545051
 20
13.1522059446
 10
-11.91716037
 20
13.1068245158
 10
-11.9437367292
 20
13.0619621655
 10
-11.9712371604
 20
13.0176821878
 10
-11.9996590944
 20
12.9739905508
 10
-12.0290051003
 20
12.9308812863
 10
-12.0592459173
 20
12.8883997844
 10
-12.0903897132
 20
12.8465376644
 10
-12.1224283203
 20
12.8053033064
 10
-12.1553079741
 20
12.7647672411
 10
-12.1890203244
 20
12.7249415488
 10
-12.2235737214
 20
12.6858141484
 10
-12.2589394518
 20
12.6474193285
 10
-12.2951295307
 20
12.6097464167
 10
-12.332131943
 20
12.5728060844
 10
-12.3698819294
 20
12.536664635
 10
-12.4083695667
 20
12.5013334928
 10
-12.4476047782
 20
12.4668012324
 10
-12.4875525741
 20
12.4330998829
 10
-12.5282233706
 20
12.400222418
 10
-12.5696067516
 20
12.3681758627
 10
-12.6116364786
 20
12.3370133223
 10
-12.6543073197
 20
12.3067408139
 10
-12.6976245068
 20
12.277352319
 10
-12.741537497
 20
12.2488828891
 10
-12.7860487188
 20
12.2213322721
 10
-12.8311557437
 20
12.1947007187
 10
-12.8768007426
 20
12.169024035
 10
-12.9229883059
 20
12.144301845
 10
-12.9697138433
 20
12.120534523
 10
-13.0169057545
 20
12.097759001
 10
-13.0645558117
 20
12.0759804547
 10
-13.1126722428
 20
12.0551937067
 10
-13.161208131
 20
12.0354201591
 10
-13.2101766663
 20
12.0166563885
 10
-13.2595646586
 20
11.998905817
 10
-13.3092856215
 20
11.9822001144
 10
-13.3593253605
 20
11.966545382
 10
-13.4096980701
 20
11.9519355173
 10
-13.4603598475
 20
11.9383838844
 10
-13.5113262411
 20
11.9258879996
 10
-13.5625817026
 20
11.9144503456
 10
-13.614035684
 20
11.9040917363
 10
-13.6656746933
 20
11.894816425
 10
-13.7175122224
 20
11.8866201576
 10
-13.7694981998
 20
11.8795109878
 10
-13.8216435085
 20
11.8734887967
 10
-13.8739372654
 20
11.8685537025
 10
-13.9262967495
 20
11.8647141143
 10
-13.9787163111
 20
11.8619722636
 10
-14.0312015999
 20
11.8603259186
 10
-14.083686844
 20
11.8597767922
 10
-14.136171987
 20
11.8603260249
 10
-14.1886570852
 20
11.8619724763
 10
-14.2410765361
 20
11.864714438
 10
-14.2934360915
 20
11.8685541471
 10
-14.3457299996
 20
11.8734893669
 10
-14.397875402
 20
11.8795116777
 10
-14.4498613463
 20
11.8866209555
 10
-14.501698785
 20
11.8948173249
 10
-14.5533377169
 20
11.9040927397
 10
-14.6047916577
 20
11.9144514554
 10
-14.6560470917
 20
11.9258892172
 10
-14.7070134697
 20
11.9383852137
 10
-14.7576752644
 20
11.9519369703
 10
-14.8080480031
 20
11.9665469626
 10
-14.8580877188
 20
11.9822018039
 10
-14.9078085435
 20
11.9989075736
 10
-14.9571963452
 20
12.0166581936
 10
-15.0061647608
 20
12.0354220406
 10
-15.0547006978
 20
12.0551957336
 10
-15.1028172489
 20
12.0759826549
 10
-15.1504673286
 20
12.097761327
 10
-15.1976590422
 20
12.1205368676
 10
-15.2443842845
 20
12.1443041604
 10
-15.2905716551
 20
12.1690263764
 10
-15.3362166908
 20
12.1947032101
 10
-15.3813238547
 20
12.2213349685
 10
-15.4258351361
 20
12.248885741
 10
-15.4697480045
 20
12.2773552154
 10
-15.5130649904
 20
12.3067437054
 10
-15.5557356744
 20
12.3370162391
 10
-15.5977653468
 20
12.3681788728
 10
-15.6391487175
 20
12.4002255515
 10
-15.6798194969
 20
12.4331031363
 10
-15.7197672618
 20
12.4668046022
 10
-15.7590024354
 20
12.5013369755
 10
-15.797489998
 20
12.5366681934
 10
-15.8352398301
 20
12.5728096359
 10
-15.8722420512
 20
12.6097499243
 10
-15.9084319997
 20
12.6474228578
 10
-15.9437977408
 20
12.6858178558
 10
-15.9783512094
 20
12.7249454997
 10
-16.0120635477
 20
12.7647713321
 10
-16.0449430011
 20
12.8053073039
 10
-16.0769813241
 20
12.8465414648
 10
-16.1081249228
 20
12.888403506
 10
-16.1383657424
 20
12.9308852045
 10
-16.1677118377
 20
12.9739947836
 10
-16.1961337783
 20
13.0176866036
 10
-16.2236340276
 20
13.0619664672
 10
-16.2502101222
 20
13.1068285719
 10
-16.2758252422
 20
13.15220987
 10
-16.3004778672
 20
13.1981114421
 10
-16.3241695175
 20
13.2445322075
 10
-16.3468679338
 20
13.2914058763
 10
-16.3685692583
 20
13.3387266667
 10
-16.3892773488
 20
13.3865003601
 10
-16.4089715195
 20
13.4346780115
 10
-16.4276545538
 20
13.4832710827
 10
-16.4453236683
 20
13.5322681113
 10
-16.4619498266
 20
13.5815857645
 10
-16.4775272395
 20
13.6312102664
 10
-16.4920616961
 20
13.681155392
 10
-16.5055415279
 20
13.7313791351
 10
-16.5179693474
 20
13.7818971101
 10
-16.5293425422
 20
13.8326937014
 10
-16.5396416066
 20
13.8836800581
 10
-16.5488623106
 20
13.9348420467
 10
-16.5570088843
 20
13.9861937993
 10
-16.5640745114
 20
14.0376888633
 10
-16.5700595386
 20
14.0893392527
 10
-16.5749636192
 20
14.1411329521
 10
-16.5787788979
 20
14.192987465
 10
-16.5815027559
 20
14.2448752919
 10
-16.5831378119
 20
14.2968239309
 10
-16.5836840658
 20
14.3488333809
  0
LWPOLYLINE
  5
326
100
AcDbEntity
  8
CURVE
100
AcDbPolyline
 62
252
  6
CONTINUOUS
 90
5
 70
0
 10
-13.4479609914
 20
4.7229425791
 10
-13.4552709633
 20
4.6987874314
 10
-13.4635449866
 20
4.6748528117
 10
-13.4727664924
 20
4.6511901692
 10
-13.4829143294
 20
4.6278585805
  0
LWPOLYLINE
  5
327
100
AcDbEntity
  8
CURVE
100
AcDbPolyline
 62
252
  6
CONTINUOUS
 90
3
 70
0
 10
-14.6716589029
 20
5.1566316793
 10
-14.6611425126
 20
5.1798579628
 10
-14.6497274219
 20
5.2026345436
  0
LWPOLYLINE
  5
328
100
AcDbEntity
  8
CURVE
100
AcDbPolyline
 62
252
  6
CONTINUOUS
 90
4
 70
0
 10
-13.5059054844
 20
4.5824206315
 10
-13.5187130616
 20
4.5604069941
 10
-13.5323754884
 20
4.5389098557
 10
-13.5468781753
 20
4.5179628627
  0
LWPOLYLINE
  5
329
100
AcDbEntity
  8
CURVE
100
AcDbPolyline
 62
252
  6
CONTINUOUS
 90
12
 70
0
 10
-14.5955094999
 20
5.2884077595
 10
-14.6103314637
 20
5.267781986
 10
-14.6243253352
 20
5.2465852762
 10
-14.6374739196
 20
5.22484101
 10
-14.6497600221
 20
5.2025725674
 10
-14.6611663761
 20
5.179807916
 10
-14.671675428
 20
5.1565933727
 10
-14.6812695525
 20
5.1329798424
 10
-14.6899311242
 20
5.1090182296
 10
-14.6976454716
 20
5.084754627
 10
-14.7044097386
 20
5.0602158782
 10
-14.7102240231
 20
5.0354240149
  0
LINE
  5
32A
100
AcDbEntity
  8
CURVE
100
AcDbLine
 62
252
  6
CONTINUOUS
 10
-14.5955094999
 20
5.2884077595
 11
-14.5797989348
 21
5.3085369978
  0
LINE
  5
32B
100
AcDbEntity
  8
CURVE
100
AcDbLine
 62
252
  6
CONTINUOUS
 10
-14.5798790642
 20
5.308438193
 11
-14.563383324
 21
5.3279428921
  0
LINE
  5
32C
100
AcDbEntity
  8
CURVE
100
AcDbLine
 62
252
  6
CONTINUOUS
 10
-14.563469479
 20
5.3278447872
 11
-14.5462214688
 21
5.346693705
  0
LINE
  5
32D
100
AcDbEntity
  8
CURVE
100
AcDbLine
 62
252
  6
CONTINUOUS
 10
-14.5463124922
 20
5.3465980194
 11
-14.5283447609
 21
5.3647608484
  0
LINE
  5
32E
100
AcDbEntity
  8
CURVE
100
AcDbLine
 62
252
  6
CONTINUOUS
 10
-14.5284398516
 20
5.3646683666
 11
-14.5097846975
 21
5.3821162181
  0
LINE
  5
32F
100
AcDbEntity
  8
CURVE
100
AcDbLine
 62
252
  6
CONTINUOUS
 10
-14.5098834911
 20
5.3820269249
 11
-14.4905731986
 21
5.3987336452
  0
LINE
  5
330
100
AcDbEntity
  8
CURVE
100
AcDbLine
 62
252
  6
CONTINUOUS
 10
-14.4906760867
 20
5.3986472669
 11
-14.4707422898
 21
5.4145874445
  0
LINE
  5
331
100
AcDbEntity
  8
CURVE
100
AcDbLine
 62
252
  6
CONTINUOUS
 10
-14.4708505008
 20
5.4145035842
 11
-14.4503239964
 21
5.429651931
  0
LINE
  5
332
100
AcDbEntity
  8
CURVE
100
AcDbLine
 62
252
  6
CONTINUOUS
 10
-14.4504395951
 20
5.4295700683
 11
-14.4293500298
 21
5.443902851
  0
LINE
  5
333
100
AcDbEntity
  8
CURVE
100
AcDbLine
 62
252
  6
CONTINUOUS
 10
-14.4294756485
 20
5.4438224069
 11
-14.4078508441
 21
5.4573216767
  0
LINE
  5
334
100
AcDbEntity
  8
CURVE
100
AcDbLine
 62
252
  6
CONTINUOUS
 10
-14.4079886054
 20
5.4572422708
 11
-14.3858565792
 21
5.4698913116
  0
LINE
  5
335
100
AcDbEntity
  8
CURVE
100
AcDbLine
 62
252
  6
CONTINUOUS
 10
-11.3036840658
 20
21.0688333809
 11
-12.6136840658
 21
22.3788333809
  0
LINE
  5
336
100
AcDbEntity
  8
CURVE
100
AcDbLine
 62
252
  6
CONTINUOUS
 10
-15.5936840658
 20
25.3588333809
 11
-16.8636840658
 21
26.6288333809
  0
LWPOLYLINE
  5
337
100
AcDbEntity
  8
CURVE
100
AcDbPolyline
 62
252
  6
CONTINUOUS
 90
27
 70
0
 10
-13.7328041465
 20
4.3452008646
 10
-13.7112802317
 20
4.3590601506
 10
-13.6903260654
 20
4.3737487155
 10
-13.6699773368
 20
4.3892454494
 10
-13.6502632415
 20
4.405523363
 10
-13.6312113518
 20
4.422553997
 10
-13.6128492399
 20
4.4403088921
 10
-13.595204478
 20
4.4587595889
 10
-13.5783046383
 20
4.4778776281
 10
-13.5621772932
 20
4.4976345505
 10
-13.5468500148
 20
4.5180018967
 10
-13.5323481166
 20
4.5389503966
 10
-13.5186878775
 20
4.5604475361
 10
-13.5058833173
 20
4.5824599907
 10
-13.493948456
 20
4.6049544354
 10
-13.4828984985
 20
4.6278933082
 10
-13.4727533882
 20
4.6512220977
 10
-13.4635342534
 20
4.674882055
 10
-13.4552622225
 20
4.6988144313
 10
-13.4479538609
 20
4.722968018
 10
-13.4416074834
 20
4.7473217674
 10
-13.4362168419
 20
4.7718621717
 10
-13.4317756885
 20
4.7965757235
 10
-13.428282509
 20
4.8214631723
 10
-13.4257547244
 20
4.8465822963
 10
-13.4242144898
 20
4.8720051309
 10
-13.4236839602
 20
4.8978037115
  0
LWPOLYLINE
  5
338
100
AcDbEntity
  8
CURVE
100
AcDbPolyline
 62
252
  6
CONTINUOUS
 90
8
 70
0
 10
-13.7327919373
 20
4.3452099763
 10
-13.7548458047
 20
4.3322006602
 10
-13.7773953776
 20
4.3200590641
 10
-13.8004032389
 20
4.308805022
 10
-13.8238319715
 20
4.2984583681
 10
-13.8476441585
 20
4.2890389364
 10
-13.8718023828
 20
4.2805665611
 10
-13.8962695887
 20
4.273058863
  0
LINE
  5
339
100
AcDbEntity
  8
CURVE
100
AcDbLine
 62
252
  6
CONTINUOUS
 10
-15.6436840658
 20
3.9488333809
 11
-16.5959281536
 21
3.3988333809
  0
LINE
  5
33A
100
AcDbEntity
  8
CURVE
100
AcDbLine
 62
252
  6
CONTINUOUS
 10
-11.5740345756
 20
6.2988333809
 11
-12.6136840658
 21
5.6988333809
  0
LINE
  5
33B
100
AcDbEntity
  8
CURVE
100
AcDbLine
 62
252
  6
CONTINUOUS
 10
-14.3860078272
 20
5.4698128273
 11
-14.363397375
 21
5.4815946595
  0
LINE
  5
33C
100
AcDbEntity
  8
CURVE
100
AcDbLine
 62
252
  6
CONTINUOUS
 10
-14.363562675
 20
5.4815172432
 11
-14.3405033713
 21
5.4924146238
  0
LINE
  5
33D
100
AcDbEntity
  8
CURVE
100
AcDbLine
 62
252
  6
CONTINUOUS
 10
-14.3406825099
 20
5.4923386855
 11
-14.3172047082
 21
5.5023341083
  0
LINE
  5
33E
100
AcDbEntity
  8
CURVE
100
AcDbLine
 62
252
  6
CONTINUOUS
 10
-14.3173966933
 20
5.5022603213
 11
-14.2935315254
 21
5.5113360165
  0
LINE
  5
33F
100
AcDbEntity
  8
CURVE
100
AcDbLine
 62
252
  6
CONTINUOUS
 10
-14.2937345862
 20
5.5112653175
 11
-14.2695139629
 21
5.5194032521
  0
LINE
  5
340
100
AcDbEntity
  8
CURVE
100
AcDbLine
 62
252
  6
CONTINUOUS
 10
-14.2697255499
 20
5.5193368412
 11
-14.2451839145
 21
5.5265207668
  0
LINE
  5
341
100
AcDbEntity
  8
RACCORDO
100
AcDbLine
 62
253
  6
CONTINUOUS
 10
-2.0885704013
 20
-2.9829053831
 11
-1.9828204522
 21
-4.0511666191
  0
LINE
  5
342
100
AcDbEntity
  8
ASSI
100
AcDbLine
 62
253
  6
CONTINUOUS
 10
-2.0885704013
 20
-2.9829053831
 11
-1.9828204522
 21
-4.0511666191
  0
LINE
  5
343
100
AcDbEntity
  8
RACCORDO
100
AcDbLine
 62
253
  6
CONTINUOUS
 10
-1.9828204522
 20
32.7488333809
 11
-2.0885704013
 21
31.6805721449
  0
LINE
  5
344
100
AcDbEntity
  8
ASSI
100
AcDbLine
 62
253
  6
CONTINUOUS
 10
-1.9828204522
 20
32.7488333809
 11
-2.0885704013
 21
31.6805721449
  0
LINE
  5
345
100
AcDbEntity
  8
CURVE
100
AcDbLine
 62
252
  6
CONTINUOUS
 10
-10.1536840658
 20
23.8488333809
 11
-12.0036840658
 21
23.8488333809
  0
LINE
  5
346
100
AcDbEntity
  8
CURVE
100
AcDbLine
 62
252
  6
CONTINUOUS
 10
-16.2136840658
 20
23.8488333809
 11
-18.0136840658
 21
23.8488333809
  0
LINE
  5
347
100
AcDbEntity
  8
RACCORDO
100
AcDbLine
 62
253
  6
CONTINUOUS
 10
-1.7886160927
 20
-2.6874630572
 11
-1.6836840658
 21
-3.7474618346
  0
LINE
  5
348
100
AcDbEntity
  8
ASSI
100
AcDbLine
 62
253
  6
CONTINUOUS
 10
-1.7886160927
 20
-2.6874630572
 11
-1.6836840658
 21
-3.7474618346
  0
LWPOLYLINE
  5
349
100
AcDbEntity
  8
RACCORDO
100
AcDbPolyline
 62
253
  6
CONTINUOUS
 90
6
 70
0
 10
-1.7901079914
 20
-2.6667830294
 10
-1.789813268
 20
-2.6717786603
 10
-1.7895166583
 20
-2.6763454483
 10
-1.789218356
 20
-2.6804801609
 10
-1.7889181675
 20
-2.6841860305
 10
-1.7886160927
 20
-2.6874630572
  0
LWPOLYLINE
  5
34A
100
AcDbEntity
  8
ASSI
100
AcDbPolyline
 62
253
  6
CONTINUOUS
 90
6
 70
0
 10
-1.7901079914
 20
-2.6667830294
 10
-1.789813268
 20
-2.6717786603
 10
-1.7895166583
 20
-2.6763454483
 10
-1.789218356
 20
-2.6804801609
 10
-1.7889181675
 20
-2.6841860305
 10
-1.7886160927
 20
-2.6874630572
  0
LWPOLYLINE
  5
34B
100
AcDbEntity
  8
RACCORDO
100
AcDbPolyline
 62
253
  6
CONTINUOUS
 90
4
 70
0
 10
-2.0894711722
 20
-2.9670187983
 10
-2.0891728278
 20
-2.9729316844
 10
-2.0888725708
 20
-2.9782283323
 10
-2.0885704013
 20
-2.9829053831
  0
LWPOLYLINE
  5
34C
100
AcDbEntity
  8
ASSI
100
AcDbPolyline
 62
253
  6
CONTINUOUS
 90
4
 70
0
 10
-2.0894711722
 20
-2.9670187983
 10
-2.0891728278
 20
-2.9729316844
 10
-2.0888725708
 20
-2.9782283323
 10
-2.0885704013
 20
-2.9829053831
  0
LINE
  5
34D
100
AcDbEntity
  8
RACCORDO
100
AcDbLine
 62
253
  6
CONTINUOUS
 10
-1.7906900236
 20
-2.6555336052
 11
-1.7901079914
 21
-2.6667830294
  0
LINE
  5
34E
100
AcDbEntity
  8
ASSI
100
AcDbLine
 62
253
  6
CONTINUOUS
 10
-1.7906900236
 20
-2.6555336052
 11
-1.7901079914
 21
-2.6667830294
  0
LINE
  5
34F
100
AcDbEntity
  8
RACCORDO
100
AcDbLine
 62
253
  6
CONTINUOUS
 10
-1.7912616277
 20
-2.6426187478
 11
-1.7906900236
 21
-2.6555336052
  0
LINE
  5
350
100
AcDbEntity
  8
ASSI
100
AcDbLine
 62
253
  6
CONTINUOUS
 10
-1.7912616277
 20
-2.6426187478
 11
-1.7906900236
 21
-2.6555336052
  0
LINE
  5
351
100
AcDbEntity
  8
RACCORDO
100
AcDbLine
 62
253
  6
CONTINUOUS
 10
-2.0900624927
 20
-2.9533597292
 11
-2.0894711722
 21
-2.9670187983
  0
LINE
  5
352
100
AcDbEntity
  8
ASSI
100
AcDbLine
 62
253
  6
CONTINUOUS
 10
-2.0900624927
 20
-2.9533597292
 11
-2.0894711722
 21
-2.9670187983
  0
LINE
  5
353
100
AcDbEntity
  8
RACCORDO
100
AcDbLine
 62
253
  6
CONTINUOUS
 10
-1.7918211655
 20
-2.6280732821
 11
-1.7912616277
 21
-2.6426187478
  0
LINE
  5
354
100
AcDbEntity
  8
ASSI
100
AcDbLine
 62
253
  6
CONTINUOUS
 10
-1.7918211655
 20
-2.6280732821
 11
-1.7912616277
 21
-2.6426187478
  0
LINE
  5
355
100
AcDbEntity
  8
RACCORDO
100
AcDbLine
 62
253
  6
CONTINUOUS
 10
-2.0906444992
 20
-2.9372854853
 11
-2.0900624927
 21
-2.9533597292
  0
LINE
  5
356
100
AcDbEntity
  8
ASSI
100
AcDbLine
 62
253
  6
CONTINUOUS
 10
-2.0906444992
 20
-2.9372854853
 11
-2.0900624927
 21
-2.9533597292
  0
LINE
  5
357
100
AcDbEntity
  8
RACCORDO
100
AcDbLine
 62
253
  6
CONTINUOUS
 10
-1.7926346984
 20
-2.6032840468
 11
-1.7918211655
 21
-2.6280732821
  0
LINE
  5
358
100
AcDbEntity
  8
ASSI
100
AcDbLine
 62
253
  6
CONTINUOUS
 10
-1.7926346984
 20
-2.6032840468
 11
-1.7918211655
 21
-2.6280732821
  0
LINE
  5
359
100
AcDbEntity
  8
RACCORDO
100
AcDbLine
 62
253
  6
CONTINUOUS
 10
-2.0914973577
 20
-2.9087362257
 11
-2.0906444992
 21
-2.9372854853
  0
LINE
  5
35A
100
AcDbEntity
  8
ASSI
100
AcDbLine
 62
253
  6
CONTINUOUS
 10
-2.0914973577
 20
-2.9087362257
 11
-2.0906444992
 21
-2.9372854853
  0
LINE
  5
35B
100
AcDbEntity
  8
RACCORDO
100
AcDbLine
 62
253
  6
CONTINUOUS
 10
-1.7934133077
 20
-2.5750530487
 11
-1.7926346984
 21
-2.6032840468
  0
LINE
  5
35C
100
AcDbEntity
  8
ASSI
100
AcDbLine
 62
253
  6
CONTINUOUS
 10
-1.7934133077
 20
-2.5750530487
 11
-1.7926346984
 21
-2.6032840468
  0
LINE
  5
35D
100
AcDbEntity
  8
RACCORDO
100
AcDbLine
 62
253
  6
CONTINUOUS
 10
-2.0923214926
 20
-2.8750084116
 11
-2.0914973577
 21
-2.9087362257
  0
LINE
  5
35E
100
AcDbEntity
  8
ASSI
100
AcDbLine
 62
253
  6
CONTINUOUS
 10
-2.0923214926
 20
-2.8750084116
 11
-2.0914973577
 21
-2.9087362257
  0
LINE
  5
35F
100
AcDbEntity
  8
RACCORDO
100
AcDbLine
 62
253
  6
CONTINUOUS
 10
-1.7943894585
 20
-2.5323410185
 11
-1.7934133077
 21
-2.5750530487
  0
LINE
  5
360
100
AcDbEntity
  8
ASSI
100
AcDbLine
 62
253
  6
CONTINUOUS
 10
-1.7943894585
 20
-2.5323410185
 11
-1.7934133077
 21
-2.5750530487
  0
LINE
  5
361
100
AcDbEntity
  8
RACCORDO
100
AcDbLine
 62
253
  6
CONTINUOUS
 10
-2.0936186547
 20
-2.8078211712
 11
-2.0923214926
 21
-2.8750084116
  0
LINE
  5
362
100
AcDbEntity
  8
ASSI
100
AcDbLine
 62
253
  6
CONTINUOUS
 10
-2.0936186547
 20
-2.8078211712
 11
-2.0923214926
 21
-2.8750084116
  0
LWPOLYLINE
  5
363
100
AcDbEntity
  8
RACCORDO
100
AcDbPolyline
 62
253
  6
CONTINUOUS
 90
3
 70
0
 10
-1.7957012662
 20
-2.4582962143
 10
-1.7954964454
 20
-2.4714084685
 10
-1.7943894585
 20
-2.5323410185
  0
LWPOLYLINE
  5
364
100
AcDbEntity
  8
ASSI
100
AcDbPolyline
 62
253
  6
CONTINUOUS
 90
3
 70
0
 10
-1.7957012662
 20
-2.4582962143
 10
-1.7954964454
 20
-2.4714084685
 10
-1.7943894585
 20
-2.5323410185
  0
LINE
  5
365
100
AcDbEntity
  8
RACCORDO
100
AcDbLine
 62
253
  6
CONTINUOUS
 10
-2.0952401493
 20
-2.6925660066
 11
-2.0936186547
 21
-2.8078211712
  0
LINE
  5
366
100
AcDbEntity
  8
ASSI
100
AcDbLine
 62
253
  6
CONTINUOUS
 10
-2.0952401493
 20
-2.6925660066
 11
-2.0936186547
 21
-2.8078211712
  0
LINE
  5
367
100
AcDbEntity
  8
RACCORDO
100
AcDbLine
 62
253
  6
CONTINUOUS
 10
-2.0970748372
 20
-2.4917260273
 11
-2.0952401493
 21
-2.6925660066
  0
LINE
  5
368
100
AcDbEntity
  8
ASSI
100
AcDbLine
 62
253
  6
CONTINUOUS
 10
-2.0970748372
 20
-2.4917260273
 11
-2.0952401493
 21
-2.6925660066
  0
LINE
  5
369
100
AcDbEntity
  8
RACCORDO
100
AcDbLine
 62
253
  6
CONTINUOUS
 10
-2.0984486898
 20
-2.1863800282
 11
-2.0970748372
 21
-2.4917260273
  0
LINE
  5
36A
100
AcDbEntity
  8
ASSI
100
AcDbLine
 62
253
  6
CONTINUOUS
 10
-2.0984486898
 20
-2.1863800282
 11
-2.0970748372
 21
-2.4917260273
  0
LINE
  5
36B
100
AcDbEntity
  8
RACCORDO
100
AcDbLine
 62
253
  6
CONTINUOUS
 10
-2.0986581343
 20
-2.0366517126
 11
-2.0984486898
 21
-2.1863800282
  0
LINE
  5
36C
100
AcDbEntity
  8
ASSI
100
AcDbLine
 62
253
  6
CONTINUOUS
 10
-2.0986581343
 20
-2.0366517126
 11
-2.0984486898
 21
-2.1863800282
  0
LWPOLYLINE
  5
36D
100
AcDbEntity
  8
RACCORDO
100
AcDbPolyline
 62
253
  6
CONTINUOUS
 90
4
 70
0
 10
-2.100642145
 20
1.2392756522
 10
-2.1000297824
 20
0.1472036015
 10
-2.0993684455
 20
-0.9447745926
 10
-2.0986581343
 20
-2.0366517126
  0
LWPOLYLINE
  5
36E
100
AcDbEntity
  8
ASSI
100
AcDbPolyline
 62
253
  6
CONTINUOUS
 90
4
 70
0
 10
-2.100642145
 20
1.2392756522
 10
-2.1000297824
 20
0.1472036015
 10
-2.0993684455
 20
-0.9447745926
 10
-2.0986581343
 20
-2.0366517126
  0
LWPOLYLINE
  5
36F
100
AcDbEntity
  8
RACCORDO
100
AcDbPolyline
 62
253
  6
CONTINUOUS
 90
4
 70
0
 10
-2.1026018342
 20
5.6083580548
 10
-2.1021853869
 20
4.5159827594
 10
-2.101719954
 20
3.4236724483
 10
-2.100642145
 20
1.2392756522
  0
LWPOLYLINE
  5
370
100
AcDbEntity
  8
ASSI
100
AcDbPolyline
 62
253
  6
CONTINUOUS
 90
4
 70
0
 10
-2.1026018342
 20
5.6083580548
 10
-2.1021853869
 20
4.5159827594
 10
-2.101719954
 20
3.4236724483
 10
-2.100642145
 20
1.2392756522
  0
LINE
  5
371
100
AcDbEntity
  8
RACCORDO
100
AcDbLine
 62
253
  6
CONTINUOUS
 10
-2.1035572462
 20
8.8858016405
 11
-2.1026018342
 21
5.6083580548
  0
LINE
  5
372
100
AcDbEntity
  8
ASSI
100
AcDbLine
 62
253
  6
CONTINUOUS
 10
-2.1035572462
 20
8.8858016405
 11
-2.1026018342
 21
5.6083580548
  0
LINE
  5
373
100
AcDbEntity
  8
RACCORDO
100
AcDbLine
 62
253
  6
CONTINUOUS
 10
-2.104071716
 20
12.1635701438
 11
-2.1035572462
 21
8.8858016405
  0
LINE
  5
374
100
AcDbEntity
  8
ASSI
100
AcDbLine
 62
253
  6
CONTINUOUS
 10
-2.104071716
 20
12.1635701438
 11
-2.1035572462
 21
8.8858016405
  0
LINE
  5
375
100
AcDbEntity
  8
RACCORDO
100
AcDbLine
 62
253
  6
CONTINUOUS
 10
-2.1039492229
 20
17.6267101866
 11
-2.104071716
 21
12.1635701438
  0
LINE
  5
376
100
AcDbEntity
  8
ASSI
100
AcDbLine
 62
253
  6
CONTINUOUS
 10
-2.1039492229
 20
17.6267101866
 11
-2.104071716
 21
12.1635701438
  0
LINE
  5
377
100
AcDbEntity
  8
RACCORDO
100
AcDbLine
 62
253
  6
CONTINUOUS
 10
-2.103287768
 20
20.9043920459
 11
-2.1039492229
 21
17.6267101866
  0
LINE
  5
378
100
AcDbEntity
  8
ASSI
100
AcDbLine
 62
253
  6
CONTINUOUS
 10
-2.103287768
 20
20.9043920459
 11
-2.1039492229
 21
17.6267101866
  0
LWPOLYLINE
  5
379
100
AcDbEntity
  8
RACCORDO
100
AcDbPolyline
 62
253
  6
CONTINUOUS
 90
3
 70
0
 10
-2.1012055367
 20
26.3662324214
 10
-2.101719954
 20
25.2739943135
 10
-2.103287768
 20
20.9043920459
  0
LWPOLYLINE
  5
37A
100
AcDbEntity
  8
ASSI
100
AcDbPolyline
 62
253
  6
CONTINUOUS
 90
3
 70
0
 10
-2.1012055367
 20
26.3662324214
 10
-2.101719954
 20
25.2739943135
 10
-2.103287768
 20
20.9043920459
  0
LWPOLYLINE
  5
37B
100
AcDbEntity
  8
RACCORDO
100
AcDbPolyline
 62
253
  6
CONTINUOUS
 90
3
 70
0
 10
-2.0986581343
 20
30.7343184745
 10
-2.0993684455
 20
29.6424413544
 10
-2.1012055367
 20
26.3662324214
  0
LWPOLYLINE
  5
37C
100
AcDbEntity
  8
ASSI
100
AcDbPolyline
 62
253
  6
CONTINUOUS
 90
3
 70
0
 10
-2.0986581343
 20
30.7343184745
 10
-2.0993684455
 20
29.6424413544
 10
-2.1012055367
 20
26.3662324214
  0
LINE
  5
37D
100
AcDbEntity
  8
RACCORDO
100
AcDbLine
 62
253
  6
CONTINUOUS
 10
-2.0977471441
 20
31.0764585309
 11
-2.0986581343
 21
30.7343184745
  0
LINE
  5
37E
100
AcDbEntity
  8
ASSI
100
AcDbLine
 62
253
  6
CONTINUOUS
 10
-2.0977471441
 20
31.0764585309
 11
-2.0986581343
 21
30.7343184745
  0
LINE
  5
37F
100
AcDbEntity
  8
RACCORDO
100
AcDbLine
 62
253
  6
CONTINUOUS
 10
-2.0960477527
 20
31.314482972
 11
-2.0977471441
 21
31.0764585309
  0
LINE
  5
380
100
AcDbEntity
  8
ASSI
100
AcDbLine
 62
253
  6
CONTINUOUS
 10
-2.0960477527
 20
31.314482972
 11
-2.0977471441
 21
31.0764585309
  0
LINE
  5
381
100
AcDbEntity
  8
RACCORDO
100
AcDbLine
 62
253
  6
CONTINUOUS
 10
-2.0943438296
 20
31.458964889
 11
-2.0960477527
 21
31.314482972
  0
LINE
  5
382
100
AcDbEntity
  8
ASSI
100
AcDbLine
 62
253
  6
CONTINUOUS
 10
-2.0943438296
 20
31.458964889
 11
-2.0960477527
 21
31.314482972
  0
LINE
  5
383
100
AcDbEntity
  8
RACCORDO
100
AcDbLine
 62
253
  6
CONTINUOUS
 10
-2.0931122288
 20
31.5339605197
 11
-2.0943438296
 21
31.458964889
  0
LINE
  5
384
100
AcDbEntity
  8
ASSI
100
AcDbLine
 62
253
  6
CONTINUOUS
 10
-2.0931122288
 20
31.5339605197
 11
-2.0943438296
 21
31.458964889
  0
LINE
  5
385
100
AcDbEntity
  8
RACCORDO
100
AcDbLine
 62
253
  6
CONTINUOUS
 10
-1.7946214055
 20
31.2184670258
 11
-1.7957013122
 21
31.1559599611
  0
LINE
  5
386
100
AcDbEntity
  8
ASSI
100
AcDbLine
 62
253
  6
CONTINUOUS
 10
-1.7946214055
 20
31.2184670258
 11
-1.7957013122
 21
31.1559599611
  0
LINE
  5
387
100
AcDbEntity
  8
RACCORDO
100
AcDbLine
 62
253
  6
CONTINUOUS
 10
-2.0920503266
 20
31.5844819194
 11
-2.0931122288
 21
31.5339605197
  0
LINE
  5
388
100
AcDbEntity
  8
ASSI
100
AcDbLine
 62
253
  6
CONTINUOUS
 10
-2.0920503266
 20
31.5844819194
 11
-2.0931122288
 21
31.5339605197
  0
LINE
  5
389
100
AcDbEntity
  8
RACCORDO
100
AcDbLine
 62
253
  6
CONTINUOUS
 10
-1.793664317
 20
31.2625721604
 11
-1.7946214055
 21
31.2184670258
  0
LINE
  5
38A
100
AcDbEntity
  8
ASSI
100
AcDbLine
 62
253
  6
CONTINUOUS
 10
-1.793664317
 20
31.2625721604
 11
-1.7946214055
 21
31.2184670258
  0
LINE
  5
38B
100
AcDbEntity
  8
RACCORDO
100
AcDbLine
 62
253
  6
CONTINUOUS
 10
-1.7928983417
 20
31.2919157301
 11
-1.793664317
 21
31.2625721604
  0
LINE
  5
38C
100
AcDbEntity
  8
ASSI
100
AcDbLine
 62
253
  6
CONTINUOUS
 10
-1.7928983417
 20
31.2919157301
 11
-1.793664317
 21
31.2625721604
  0
LINE
  5
38D
100
AcDbEntity
  8
RACCORDO
100
AcDbLine
 62
253
  6
CONTINUOUS
 10
-2.0912160919
 20
31.6165034147
 11
-2.0920503266
 21
31.5844819194
  0
LINE
  5
38E
100
AcDbEntity
  8
ASSI
100
AcDbLine
 62
253
  6
CONTINUOUS
 10
-2.0912160919
 20
31.6165034147
 11
-2.0920503266
 21
31.5844819194
  0
LINE
  5
38F
100
AcDbEntity
  8
RACCORDO
100
AcDbLine
 62
253
  6
CONTINUOUS
 10
-2.0906445006
 20
31.6349522346
 11
-2.0912160919
 21
31.6165034147
  0
LINE
  5
390
100
AcDbEntity
  8
ASSI
100
AcDbLine
 62
253
  6
CONTINUOUS
 10
-2.0906445006
 20
31.6349522346
 11
-2.0912160919
 21
31.6165034147
  0
LINE
  5
391
100
AcDbEntity
  8
RACCORDO
100
AcDbLine
 62
253
  6
CONTINUOUS
 10
-1.7920959437
 20
31.3178689163
 11
-1.7928983417
 21
31.2919157301
  0
LINE
  5
392
100
AcDbEntity
  8
ASSI
100
AcDbLine
 62
253
  6
CONTINUOUS
 10
-1.7920959437
 20
31.3178689163
 11
-1.7928983417
 21
31.2919157301
  0
LINE
  5
393
100
AcDbEntity
  8
RACCORDO
100
AcDbLine
 62
253
  6
CONTINUOUS
 10
-1.7915429598
 20
31.3332149471
 11
-1.7920959437
 21
31.3178689163
  0
LINE
  5
394
100
AcDbEntity
  8
ASSI
100
AcDbLine
 62
253
  6
CONTINUOUS
 10
-1.7915429598
 20
31.3332149471
 11
-1.7920959437
 21
31.3178689163
  0
LINE
  5
395
100
AcDbEntity
  8
RACCORDO
100
AcDbLine
 62
253
  6
CONTINUOUS
 10
-2.0900624943
 20
31.651026479
 11
-2.0906445006
 21
31.6349522346
  0
LINE
  5
396
100
AcDbEntity
  8
ASSI
100
AcDbLine
 62
253
  6
CONTINUOUS
 10
-2.0900624943
 20
31.651026479
 11
-2.0906445006
 21
31.6349522346
  0
LINE
  5
397
100
AcDbEntity
  8
RACCORDO
100
AcDbLine
 62
253
  6
CONTINUOUS
 10
-1.7909773891
 20
31.3469452962
 11
-1.7915429598
 21
31.3332149471
  0
LINE
  5
398
100
AcDbEntity
  8
ASSI
100
AcDbLine
 62
253
  6
CONTINUOUS
 10
-1.7909773891
 20
31.3469452962
 11
-1.7915429598
 21
31.3332149471
  0
LWPOLYLINE
  5
399
100
AcDbEntity
  8
RACCORDO
100
AcDbPolyline
 62
253
  6
CONTINUOUS
 90
5
 70
0
 10
-2.0885704013
 20
31.6805721449
 10
-2.0888725717
 20
31.6758950903
 10
-2.0891728293
 20
31.6705984388
 10
-2.0894711741
 20
31.6646855497
 10
-2.0900624943
 20
31.651026479
  0
LWPOLYLINE
  5
39A
100
AcDbEntity
  8
ASSI
100
AcDbPolyline
 62
253
  6
CONTINUOUS
 90
5
 70
0
 10
-2.0885704013
 20
31.6805721449
 10
-2.0888725717
 20
31.6758950903
 10
-2.0891728293
 20
31.6705984388
 10
-2.0894711741
 20
31.6646855497
 10
-2.0900624943
 20
31.651026479
  0
LWPOLYLINE
  5
39B
100
AcDbEntity
  8
RACCORDO
100
AcDbPolyline
 62
253
  6
CONTINUOUS
 90
8
 70
0
 10
-1.7886160927
 20
31.385129819
 10
-1.7889181927
 20
31.3818524516
 10
-1.7892184001
 20
31.3781463047
 10
-1.789516715
 20
31.3740113784
 10
-1.789813329
 20
31.3694444621
 10
-1.7901080504
 20
31.3644487664
 10
-1.7904003041
 20
31.3590339229
 10
-1.7909773891
 20
31.3469452962
  0
LWPOLYLINE
  5
39C
100
AcDbEntity
  8
ASSI
100
AcDbPolyline
 62
253
  6
CONTINUOUS
 90
8
 70
0
 10
-1.7886160927
 20
31.385129819
 10
-1.7889181927
 20
31.3818524516
 10
-1.7892184001
 20
31.3781463047
 10
-1.789516715
 20
31.3740113784
 10
-1.789813329
 20
31.3694444621
 10
-1.7901080504
 20
31.3644487664
 10
-1.7904003041
 20
31.3590339229
 10
-1.7909773891
 20
31.3469452962
  0
LINE
  5
39D
100
AcDbEntity
  8
RACCORDO
100
AcDbLine
 62
253
  6
CONTINUOUS
 10
-1.6836840658
 20
32.4451285964
 11
-1.7886160927
 21
31.385129819
  0
LINE
  5
39E
100
AcDbEntity
  8
ASSI
100
AcDbLine
 62
253
  6
CONTINUOUS
 10
-1.6836840658
 20
32.4451285964
 11
-1.7886160927
 21
31.385129819
  0
LWPOLYLINE
  5
39F
100
AcDbEntity
  8
RACCORDO
100
AcDbPolyline
 62
253
  6
CONTINUOUS
 90
46
 70
0
 10
-1.7886160927
 20
31.385129819
 10
-1.7888297763
 20
31.3954207694
 10
-1.7894072399
 20
31.4056992303
 10
-1.7903477829
 20
31.4159527271
 10
-1.7916502636
 20
31.4261688157
 10
-1.7933131014
 20
31.4363350974
 10
-1.7953342781
 20
31.4464392338
 10
-1.7977113408
 20
31.4564689621
 10
-1.8004414045
 20
31.4664121097
 10
-1.8035211558
 20
31.476256609
 10
-1.8069468572
 20
31.4859905124
 10
-1.8107143508
 20
31.4956020063
 10
-1.8148190644
 20
31.5050794256
 10
-1.8192560163
 20
31.5144112682
 10
-1.8240198215
 20
31.5235862084
 10
-1.8291046984
 20
31.532593111
 10
-1.8345044759
 20
31.5414210449
 10
-1.8402126004
 20
31.550059296
 10
-1.8462221443
 20
31.5584973804
 10
-1.8525258141
 20
31.5667250574
 10
-1.8591159595
 20
31.5747323414
 10
-1.8659845821
 20
31.5825095144
 10
-1.873123346
 20
31.5900471375
 10
-1.8805235872
 20
31.5973360628
 10
-1.8881763244
 20
31.604367444
 10
-1.8960722699
 20
31.6111327475
 10
-1.9042018407
 20
31.6176237627
 10
-1.9125551703
 20
31.6238326116
 10
-1.9211221208
 20
31.6297517589
 10
-1.929892295
 20
31.6353740209
 10
-1.9388550488
 20
31.640692574
 10
-1.9479995046
 20
31.6457009635
 10
-1.9573145642
 20
31.6503931108
 10
-1.9667889226
 20
31.6547633214
 10
-1.976411081
 20
31.6588062913
 10
-1.9861693615
 20
31.6625171139
 10
-1.9960519211
 20
31.6658912854
 10
-2.0060467657
 20
31.6689247107
 10
-2.0161417651
 20
31.6716137085
 10
-2.0263246675
 20
31.6739550151
 10
-2.0365831145
 20
31.6759457891
 10
-2.0469046558
 20
31.6775836143
 10
-2.0572767648
 20
31.678866503
 10
-2.0676868533
 20
31.6797928982
 10
-2.0781222871
 20
31.6803616756
 10
-2.0885704013
 20
31.6805721449
  0
LWPOLYLINE
  5
3A0
100
AcDbEntity
  8
ASSI
100
AcDbPolyline
 62
253
  6
CONTINUOUS
 90
46
 70
0
 10
-1.7886160927
 20
31.385129819
 10
-1.7888297763
 20
31.3954207694
 10
-1.7894072399
 20
31.4056992303
 10
-1.7903477829
 20
31.4159527271
 10
-1.7916502636
 20
31.4261688157
 10
-1.7933131014
 20
31.4363350974
 10
-1.7953342781
 20
31.4464392338
 10
-1.7977113408
 20
31.4564689621
 10
-1.8004414045
 20
31.4664121097
 10
-1.8035211558
 20
31.476256609
 10
-1.8069468572
 20
31.4859905124
 10
-1.8107143508
 20
31.4956020063
 10
-1.8148190644
 20
31.5050794256
 10
-1.8192560163
 20
31.5144112682
 10
-1.8240198215
 20
31.5235862084
 10
-1.8291046984
 20
31.532593111
 10
-1.8345044759
 20
31.5414210449
 10
-1.8402126004
 20
31.550059296
 10
-1.8462221443
 20
31.5584973804
 10
-1.8525258141
 20
31.5667250574
 10
-1.8591159595
 20
31.5747323414
 10
-1.8659845821
 20
31.5825095144
 10
-1.873123346
 20
31.5900471375
 10
-1.8805235872
 20
31.5973360628
 10
-1.8881763244
 20
31.604367444
 10
-1.8960722699
 20
31.6111327475
 10
-1.9042018407
 20
31.6176237627
 10
-1.9125551703
 20
31.6238326116
 10
-1.9211221208
 20
31.6297517589
 10
-1.929892295
 20
31.6353740209
 10
-1.9388550488
 20
31.640692574
 10
-1.9479995046
 20
31.6457009635
 10
-1.9573145642
 20
31.6503931108
 10
-1.9667889226
 20
31.6547633214
 10
-1.976411081
 20
31.6588062913
 10
-1.9861693615
 20
31.6625171139
 10
-1.9960519211
 20
31.6658912854
 10
-2.0060467657
 20
31.6689247107
 10
-2.0161417651
 20
31.6716137085
 10
-2.0263246675
 20
31.6739550151
 10
-2.0365831145
 20
31.6759457891
 10
-2.0469046558
 20
31.6775836143
 10
-2.0572767648
 20
31.678866503
 10
-2.0676868533
 20
31.6797928982
 10
-2.0781222871
 20
31.6803616756
 10
-2.0885704013
 20
31.6805721449
  0
LINE
  5
3A1
100
AcDbEntity
  8
RACCORDO
100
AcDbLine
 62
253
  6
CONTINUOUS
 10
-1.7969654895
 20
-2.3588343617
 11
-1.7957012662
 21
-2.4582962143
  0
LINE
  5
3A2
100
AcDbEntity
  8
ASSI
100
AcDbLine
 62
253
  6
CONTINUOUS
 10
-1.7969654895
 20
-2.3588343617
 11
-1.7957012662
 21
-2.4582962143
  0
LINE
  5
3A3
100
AcDbEntity
  8
RACCORDO
100
AcDbLine
 62
253
  6
CONTINUOUS
 10
-1.7981112551
 20
-2.2150483555
 11
-1.7969654895
 21
-2.3588343617
  0
LINE
  5
3A4
100
AcDbEntity
  8
ASSI
100
AcDbLine
 62
253
  6
CONTINUOUS
 10
-1.7981112551
 20
-2.2150483555
 11
-1.7969654895
 21
-2.3588343617
  0
LINE
  5
3A5
100
AcDbEntity
  8
RACCORDO
100
AcDbLine
 62
253
  6
CONTINUOUS
 10
-1.7986880987
 20
-2.042675711
 11
-1.7981112551
 21
-2.2150483555
  0
LINE
  5
3A6
100
AcDbEntity
  8
ASSI
100
AcDbLine
 62
253
  6
CONTINUOUS
 10
-1.7986880987
 20
-2.042675711
 11
-1.7981112551
 21
-2.2150483555
  0
LWPOLYLINE
  5
3A7
100
AcDbEntity
  8
RACCORDO
100
AcDbPolyline
 62
253
  6
CONTINUOUS
 90
4
 70
0
 10
-1.8006878364
 20
1.2485293282
 10
-1.8000754738
 20
0.1572377937
 10
-1.7994141369
 20
-0.933967145
 10
-1.7986880987
 20
-2.042675711
  0
LWPOLYLINE
  5
3A8
100
AcDbEntity
  8
ASSI
100
AcDbPolyline
 62
253
  6
CONTINUOUS
 90
4
 70
0
 10
-1.8006878364
 20
1.2485293282
 10
-1.8000754738
 20
0.1572377937
 10
-1.7994141369
 20
-0.933967145
 10
-1.7986880987
 20
-2.042675711
  0
LWPOLYLINE
  5
3A9
100
AcDbEntity
  8
RACCORDO
100
AcDbPolyline
 62
253
  6
CONTINUOUS
 90
4
 70
0
 10
-1.8026475256
 20
5.6145253231
 10
-1.8022310783
 20
4.522923507
 10
-1.8017656454
 20
3.4313866238
 10
-1.8006878364
 20
1.2485293282
  0
LWPOLYLINE
  5
3AA
100
AcDbEntity
  8
ASSI
100
AcDbPolyline
 62
253
  6
CONTINUOUS
 90
4
 70
0
 10
-1.8026475256
 20
5.6145253231
 10
-1.8022310783
 20
4.522923507
 10
-1.8017656454
 20
3.4313866238
 10
-1.8006878364
 20
1.2485293282
  0
LINE
  5
3AB
100
AcDbEntity
  8
RACCORDO
100
AcDbLine
 62
253
  6
CONTINUOUS
 10
-1.8036029377
 20
8.8896554601
 11
-1.8026475256
 21
5.6145253231
  0
LINE
  5
3AC
100
AcDbEntity
  8
ASSI
100
AcDbLine
 62
253
  6
CONTINUOUS
 10
-1.8036029377
 20
8.8896554601
 11
-1.8026475256
 21
5.6145253231
  0
LINE
  5
3AD
100
AcDbEntity
  8
RACCORDO
100
AcDbLine
 62
253
  6
CONTINUOUS
 10
-1.8041174074
 20
12.1651102854
 11
-1.8036029377
 21
8.8896554601
  0
LINE
  5
3AE
100
AcDbEntity
  8
ASSI
100
AcDbLine
 62
253
  6
CONTINUOUS
 10
-1.8041174074
 20
12.1651102854
 11
-1.8036029377
 21
8.8896554601
  0
LINE
  5
3AF
100
AcDbEntity
  8
RACCORDO
100
AcDbLine
 62
7
  6
CONTINUOUS
 10
-1.6836840658
 20
32.4451285964
 11
-1.6836840658
 21
-3.7474618346
  0
LINE
  5
3B0
100
AcDbEntity
  8
ASSI
100
AcDbLine
 62
7
  6
CONTINUOUS
 10
-1.6836840658
 20
32.4451285964
 11
-1.6836840658
 21
-3.7474618346
  0
LINE
  5
3B1
100
AcDbEntity
  8
RACCORDO
100
AcDbLine
 62
253
  6
CONTINUOUS
 10
-1.8039949143
 20
17.6243964684
 11
-1.8041174074
 21
12.1651102854
  0
LINE
  5
3B2
100
AcDbEntity
  8
ASSI
100
AcDbLine
 62
253
  6
CONTINUOUS
 10
-1.8039949143
 20
17.6243964684
 11
-1.8041174074
 21
12.1651102854
  0
LINE
  5
3B3
100
AcDbEntity
  8
RACCORDO
100
AcDbLine
 62
253
  6
CONTINUOUS
 10
-1.8033334594
 20
20.8997647112
 11
-1.8039949143
 21
17.6243964684
  0
LINE
  5
3B4
100
AcDbEntity
  8
ASSI
100
AcDbLine
 62
253
  6
CONTINUOUS
 10
-1.8033334594
 20
20.8997647112
 11
-1.8039949143
 21
17.6243964684
  0
LWPOLYLINE
  5
3B5
100
AcDbEntity
  8
RACCORDO
100
AcDbPolyline
 62
253
  6
CONTINUOUS
 90
3
 70
0
 10
-1.801251228
 20
26.3577521605
 10
-1.8017656454
 20
25.2662802121
 10
-1.8033334594
 20
20.8997647112
  0
LWPOLYLINE
  5
3B6
100
AcDbEntity
  8
ASSI
100
AcDbPolyline
 62
253
  6
CONTINUOUS
 90
3
 70
0
 10
-1.801251228
 20
26.3577521605
 10
-1.8017656454
 20
25.2662802121
 10
-1.8033334594
 20
20.8997647112
  0
LINE
  5
3B7
100
AcDbEntity
  8
RACCORDO
100
AcDbLine
 62
253
  6
CONTINUOUS
 10
-1.7994141369
 20
29.6316339386
 11
-1.801251228
 21
26.3577521605
  0
LINE
  5
3B8
100
AcDbEntity
  8
ASSI
100
AcDbLine
 62
253
  6
CONTINUOUS
 10
-1.7994141369
 20
29.6316339386
 11
-1.801251228
 21
26.3577521605
  0
LINE
  5
3B9
100
AcDbEntity
  8
RACCORDO
100
AcDbLine
 62
253
  6
CONTINUOUS
 10
-1.7982028394
 20
30.8959048069
 11
-1.7994141369
 21
29.6316339386
  0
LINE
  5
3BA
100
AcDbEntity
  8
ASSI
100
AcDbLine
 62
253
  6
CONTINUOUS
 10
-1.7982028394
 20
30.8959048069
 11
-1.7994141369
 21
29.6316339386
  0
LINE
  5
3BB
100
AcDbEntity
  8
RACCORDO
100
AcDbLine
 62
253
  6
CONTINUOUS
 10
-1.7971205764
 20
31.0412959853
 11
-1.7982028394
 21
30.8959048069
  0
LINE
  5
3BC
100
AcDbEntity
  8
ASSI
100
AcDbLine
 62
253
  6
CONTINUOUS
 10
-1.7971205764
 20
31.0412959853
 11
-1.7982028394
 21
30.8959048069
  0
LWPOLYLINE
  5
3BD
100
AcDbEntity
  8
RACCORDO
100
AcDbPolyline
 62
253
  6
CONTINUOUS
 90
3
 70
0
 10
-1.7957013122
 20
31.1559599611
 10
-1.7959003025
 20
31.1425563302
 10
-1.7971205764
 20
31.0412959853
  0
LWPOLYLINE
  5
3BE
100
AcDbEntity
  8
ASSI
100
AcDbPolyline
 62
253
  6
CONTINUOUS
 90
3
 70
0
 10
-1.7957013122
 20
31.1559599611
 10
-1.7959003025
 20
31.1425563302
 10
-1.7971205764
 20
31.0412959853
  0
LWPOLYLINE
  5
3BF
100
AcDbEntity
  8
RACCORDO
100
AcDbPolyline
 62
253
  6
CONTINUOUS
 90
46
 70
0
 10
-1.7886160927
 20
-2.6874630572
 10
-1.7888297763
 20
-2.697754008
 10
-1.78940724
 20
-2.7080324693
 10
-1.790347783
 20
-2.7182859665
 10
-1.7916502639
 20
-2.7285020555
 10
-1.7933131018
 20
-2.7386683376
 10
-1.7953342786
 20
-2.7487724743
 10
-1.7977113415
 20
-2.7588022029
 10
-1.8004414053
 20
-2.7687453508
 10
-1.8035211569
 20
-2.7785898504
 10
-1.8069468584
 20
-2.788323754
 10
-1.8107143523
 20
-2.797935248
 10
-1.8148190661
 20
-2.8074126675
 10
-1.8192560181
 20
-2.8167445101
 10
-1.8240198235
 20
-2.8259194504
 10
-1.8291047007
 20
-2.8349263531
 10
-1.8345044783
 20
-2.8437542869
 10
-1.840212603
 20
-2.852392538
 10
-1.8462221471
 20
-2.8608306224
 10
-1.8525258171
 20
-2.8690582994
 10
-1.8591159626
 20
-2.8770655833
 10
-1.8659845854
 20
-2.8848427561
 10
-1.8731233494
 20
-2.8923803791
 10
-1.8805235907
 20
-2.8996693042
 10
-1.888176328
 20
-2.9067006853
 10
-1.8960722734
 20
-2.9134659887
 10
-1.9042018442
 20
-2.9199570036
 10
-1.9125551739
 20
-2.9261658523
 10
-1.9211221244
 20
-2.9320849995
 10
-1.9298922985
 20
-2.9377072612
 10
-1.9388550522
 20
-2.9430258142
 10
-1.9479995079
 20
-2.9480342034
 10
-1.9573145674
 20
-2.9527263505
 10
-1.9667889256
 20
-2.9570965609
 10
-1.9764110838
 20
-2.9611395307
 10
-1.9861693642
 20
-2.964850353
 10
-1.9960519235
 20
-2.9682245243
 10
-2.0060467679
 20
-2.9712579495
 10
-2.0161417671
 20
-2.9739469472
 10
-2.0263246693
 20
-2.9762882536
 10
-2.036583116
 20
-2.9782790275
 10
-2.046904657
 20
-2.9799168526
 10
-2.0572767657
 20
-2.9811997412
 10
-2.0676868539
 20
-2.9821261364
 10
-2.0781222874
 20
-2.9826949138
 10
-2.0885704013
 20
-2.9829053831
  0
LWPOLYLINE
  5
3C0
100
AcDbEntity
  8
ASSI
100
AcDbPolyline
 62
253
  6
CONTINUOUS
 90
46
 70
0
 10
-1.7886160927
 20
-2.6874630572
 10
-1.7888297763
 20
-2.697754008
 10
-1.78940724
 20
-2.7080324693
 10
-1.790347783
 20
-2.7182859665
 10
-1.7916502639
 20
-2.7285020555
 10
-1.7933131018
 20
-2.7386683376
 10
-1.7953342786
 20
-2.7487724743
 10
-1.7977113415
 20
-2.7588022029
 10
-1.8004414053
 20
-2.7687453508
 10
-1.8035211569
 20
-2.7785898504
 10
-1.8069468584
 20
-2.788323754
 10
-1.8107143523
 20
-2.797935248
 10
-1.8148190661
 20
-2.8074126675
 10
-1.8192560181
 20
-2.8167445101
 10
-1.8240198235
 20
-2.8259194504
 10
-1.8291047007
 20
-2.8349263531
 10
-1.8345044783
 20
-2.8437542869
 10
-1.840212603
 20
-2.852392538
 10
-1.8462221471
 20
-2.8608306224
 10
-1.8525258171
 20
-2.8690582994
 10
-1.8591159626
 20
-2.8770655833
 10
-1.8659845854
 20
-2.8848427561
 10
-1.8731233494
 20
-2.8923803791
 10
-1.8805235907
 20
-2.8996693042
 10
-1.888176328
 20
-2.9067006853
 10
-1.8960722734
 20
-2.9134659887
 10
-1.9042018442
 20
-2.9199570036
 10
-1.9125551739
 20
-2.9261658523
 10
-1.9211221244
 20
-2.9320849995
 10
-1.9298922985
 20
-2.9377072612
 10
-1.9388550522
 20
-2.9430258142
 10
-1.9479995079
 20
-2.9480342034
 10
-1.9573145674
 20
-2.9527263505
 10
-1.9667889256
 20
-2.9570965609
 10
-1.9764110838
 20
-2.9611395307
 10
-1.9861693642
 20
-2.964850353
 10
-1.9960519235
 20
-2.9682245243
 10
-2.0060467679
 20
-2.9712579495
 10
-2.0161417671
 20
-2.9739469472
 10
-2.0263246693
 20
-2.9762882536
 10
-2.036583116
 20
-2.9782790275
 10
-2.046904657
 20
-2.9799168526
 10
-2.0572767657
 20
-2.9811997412
 10
-2.0676868539
 20
-2.9821261364
 10
-2.0781222874
 20
-2.9826949138
 10
-2.0885704013
 20
-2.9829053831
  0
LINE
  5
3C1
100
AcDbEntity
  8
RACCORDO
100
AcDbLine
 62
253
  6
CONTINUOUS
 10
-26.1129298739
 20
30.7341623993
 11
-26.0687099974
 21
30.7343184731
  0
LINE
  5
3C2
100
AcDbEntity
  8
ASSI
100
AcDbLine
 62
253
  6
CONTINUOUS
 10
-26.1129298739
 20
30.7341623993
 11
-26.0687099974
 21
30.7343184731
  0
LWPOLYLINE
  5
3C3
100
AcDbEntity
  8
RACCORDO
100
AcDbPolyline
 62
253
  6
CONTINUOUS
 90
3
 70
0
 10
-2.054438255
 20
30.7341624005
 10
-2.0654401961
 20
30.7342250149
 10
-26.0687099974
 20
30.7343184745
  0
LWPOLYLINE
  5
3C4
100
AcDbEntity
  8
ASSI
100
AcDbPolyline
 62
253
  6
CONTINUOUS
 90
3
 70
0
 10
-2.054438255
 20
30.7341624005
 10
-2.0654401961
 20
30.7342250149
 10
-26.0687099974
 20
30.7343184745
  0
LINE
  5
3C5
100
AcDbEntity
  8
RACCORDO
100
AcDbLine
 62
253
  6
CONTINUOUS
 10
-26.3209217786
 20
30.7288456594
 11
-26.3082269347
 21
30.729555677
  0
LINE
  5
3C6
100
AcDbEntity
  8
ASSI
100
AcDbLine
 62
253
  6
CONTINUOUS
 10
-26.3209217786
 20
30.7288456594
 11
-26.3082269347
 21
30.729555677
  0
LINE
  5
3C7
100
AcDbEntity
  8
RACCORDO
100
AcDbLine
 62
253
  6
CONTINUOUS
 10
-26.3082269347
 20
30.729555677
 11
-26.2942221804
 21
30.730228487
  0
LINE
  5
3C8
100
AcDbEntity
  8
ASSI
100
AcDbLine
 62
253
  6
CONTINUOUS
 10
-26.3082269347
 20
30.729555677
 11
-26.2942221804
 21
30.730228487
  0
LINE
  5
3C9
100
AcDbEntity
  8
RACCORDO
100
AcDbLine
 62
253
  6
CONTINUOUS
 10
-26.2942221804
 20
30.730228487
 11
-26.2789841074
 21
30.7308604096
  0
LINE
  5
3CA
100
AcDbEntity
  8
ASSI
100
AcDbLine
 62
253
  6
CONTINUOUS
 10
-26.2942221804
 20
30.730228487
 11
-26.2789841074
 21
30.7308604096
  0
LINE
  5
3CB
100
AcDbEntity
  8
RACCORDO
100
AcDbLine
 62
253
  6
CONTINUOUS
 10
-26.2789841074
 20
30.7308604096
 11
-26.2625960521
 21
30.7314479889
  0
LINE
  5
3CC
100
AcDbEntity
  8
ASSI
100
AcDbLine
 62
253
  6
CONTINUOUS
 10
-26.2789841074
 20
30.7308604096
 11
-26.2625960521
 21
30.7314479889
  0
LINE
  5
3CD
100
AcDbEntity
  8
RACCORDO
100
AcDbLine
 62
253
  6
CONTINUOUS
 10
-26.2625960521
 20
30.7314479889
 11
-26.2451476403
 21
30.7319880116
  0
LINE
  5
3CE
100
AcDbEntity
  8
ASSI
100
AcDbLine
 62
253
  6
CONTINUOUS
 10
-26.2625960521
 20
30.7314479889
 11
-26.2451476403
 21
30.7319880116
  0
LINE
  5
3CF
100
AcDbEntity
  8
RACCORDO
100
AcDbLine
 62
253
  6
CONTINUOUS
 10
-26.2451476403
 20
30.7319880116
 11
-26.2171970537
 21
30.7327024913
  0
LINE
  5
3D0
100
AcDbEntity
  8
ASSI
100
AcDbLine
 62
253
  6
CONTINUOUS
 10
-26.2451476403
 20
30.7319880116
 11
-26.2171970537
 21
30.7327024913
  0
LINE
  5
3D1
100
AcDbEntity
  8
RACCORDO
100
AcDbLine
 62
253
  6
CONTINUOUS
 10
-26.2171970537
 20
30.7327024913
 11
-26.1874203489
 21
30.7332946013
  0
LINE
  5
3D2
100
AcDbEntity
  8
ASSI
100
AcDbLine
 62
253
  6
CONTINUOUS
 10
-26.2171970537
 20
30.7327024913
 11
-26.1874203489
 21
30.7332946013
  0
LINE
  5
3D3
100
AcDbEntity
  8
RACCORDO
100
AcDbLine
 62
253
  6
CONTINUOUS
 10
-26.1874203489
 20
30.7332946013
 11
-26.1561837248
 21
30.7337570597
  0
LINE
  5
3D4
100
AcDbEntity
  8
ASSI
100
AcDbLine
 62
253
  6
CONTINUOUS
 10
-26.1874203489
 20
30.7332946013
 11
-26.1561837248
 21
30.7337570597
  0
LWPOLYLINE
  5
3D5
100
AcDbEntity
  8
RACCORDO
100
AcDbPolyline
 62
253
  6
CONTINUOUS
 90
3
 70
0
 10
-26.1561837248
 20
30.7337570597
 10
-26.1238713343
 20
30.7340841791
 10
-26.1129298739
 20
30.7341623993
  0
LWPOLYLINE
  5
3D6
100
AcDbEntity
  8
ASSI
100
AcDbPolyline
 62
253
  6
CONTINUOUS
 90
3
 70
0
 10
-26.1561837248
 20
30.7337570597
 10
-26.1238713343
 20
30.7340841791
 10
-26.1129298739
 20
30.7341623993
  0
LINE
  5
3D7
100
AcDbEntity
  8
RACCORDO
100
AcDbLine
 62
253
  6
CONTINUOUS
 10
-26.0787977304
 20
31.6805721449
 11
-2.0885704013
 21
31.6805721449
  0
LINE
  5
3D8
100
AcDbEntity
  8
ASSI
100
AcDbLine
 62
253
  6
CONTINUOUS
 10
-26.0787977304
 20
31.6805721449
 11
-2.0885704013
 21
31.6805721449
  0
LINE
  5
3D9
100
AcDbEntity
  8
RACCORDO
100
AcDbLine
 62
253
  6
CONTINUOUS
 10
-2.0218550675
 20
30.7338813719
 11
-2.054438255
 21
30.7341624005
  0
LINE
  5
3DA
100
AcDbEntity
  8
ASSI
100
AcDbLine
 62
253
  6
CONTINUOUS
 10
-2.0218550675
 20
30.7338813719
 11
-2.054438255
 21
30.7341624005
  0
LINE
  5
3DB
100
AcDbEntity
  8
RACCORDO
100
AcDbLine
 62
253
  6
CONTINUOUS
 10
-1.9902164168
 20
30.7334634754
 11
-2.0218550675
 21
30.7338813719
  0
LINE
  5
3DC
100
AcDbEntity
  8
ASSI
100
AcDbLine
 62
253
  6
CONTINUOUS
 10
-1.9902164168
 20
30.7334634754
 11
-2.0218550675
 21
30.7338813719
  0
LINE
  5
3DD
100
AcDbEntity
  8
RACCORDO
100
AcDbLine
 62
253
  6
CONTINUOUS
 10
-1.9599114003
 20
30.7329138505
 11
-1.9902164168
 21
30.7334634754
  0
LINE
  5
3DE
100
AcDbEntity
  8
ASSI
100
AcDbLine
 62
253
  6
CONTINUOUS
 10
-1.9599114003
 20
30.7329138505
 11
-1.9902164168
 21
30.7334634754
  0
LINE
  5
3DF
100
AcDbEntity
  8
RACCORDO
100
AcDbLine
 62
253
  6
CONTINUOUS
 10
-1.9313127141
 20
30.7322392565
 11
-1.9599114003
 21
30.7329138505
  0
LINE
  5
3E0
100
AcDbEntity
  8
ASSI
100
AcDbLine
 62
253
  6
CONTINUOUS
 10
-1.9313127141
 20
30.7322392565
 11
-1.9599114003
 21
30.7329138505
  0
LINE
  5
3E1
100
AcDbEntity
  8
RACCORDO
100
AcDbLine
 62
253
  6
CONTINUOUS
 10
-1.9133695654
 20
30.7317241366
 11
-1.9313127141
 21
30.7322392565
  0
LINE
  5
3E2
100
AcDbEntity
  8
ASSI
100
AcDbLine
 62
253
  6
CONTINUOUS
 10
-1.9133695654
 20
30.7317241366
 11
-1.9313127141
 21
30.7322392565
  0
LINE
  5
3E3
100
AcDbEntity
  8
RACCORDO
100
AcDbLine
 62
253
  6
CONTINUOUS
 10
-1.8964397539
 20
30.7311599497
 11
-1.9133695654
 21
30.7317241366
  0
LINE
  5
3E4
100
AcDbEntity
  8
ASSI
100
AcDbLine
 62
253
  6
CONTINUOUS
 10
-1.8964397539
 20
30.7311599497
 11
-1.9133695654
 21
30.7317241366
  0
LINE
  5
3E5
100
AcDbEntity
  8
RACCORDO
100
AcDbLine
 62
253
  6
CONTINUOUS
 10
-1.8806158683
 20
30.7305497814
 11
-1.8964397539
 21
30.7311599497
  0
LINE
  5
3E6
100
AcDbEntity
  8
ASSI
100
AcDbLine
 62
253
  6
CONTINUOUS
 10
-1.8806158683
 20
30.7305497814
 11
-1.8964397539
 21
30.7311599497
  0
LINE
  5
3E7
100
AcDbEntity
  8
RACCORDO
100
AcDbLine
 62
253
  6
CONTINUOUS
 10
-1.8659844489
 20
30.7298969686
 11
-1.8806158683
 21
30.7305497814
  0
LINE
  5
3E8
100
AcDbEntity
  8
ASSI
100
AcDbLine
 62
253
  6
CONTINUOUS
 10
-1.8659844489
 20
30.7298969686
 11
-1.8806158683
 21
30.7305497814
  0
LINE
  5
3E9
100
AcDbEntity
  8
RACCORDO
100
AcDbLine
 62
7
  6
CONTINUOUS
 10
-1.9828204522
 20
32.7488333809
 11
-26.1845476795
 21
32.7488333809
  0
LINE
  5
3EA
100
AcDbEntity
  8
ASSI
100
AcDbLine
 62
7
  6
CONTINUOUS
 10
-1.9828204522
 20
32.7488333809
 11
-26.1845476795
 21
32.7488333809
  0
LWPOLYLINE
  5
3EB
100
AcDbEntity
  8
RACCORDO
100
AcDbPolyline
 62
253
  6
CONTINUOUS
 90
16
 70
0
 10
-1.7987038257
 20
-2.0250854879
 10
-1.7991024049
 20
-2.0255132283
 10
-1.7999106893
 20
-2.0259403838
 10
-1.8011275734
 20
-2.02636637
 10
-1.802751393
 20
-2.0267906044
 10
-1.804779927
 20
-2.0272125066
 10
-1.807210401
 20
-2.0276314997
 10
-1.810039491
 20
-2.0280470105
 10
-1.8132633273
 20
-2.0284584709
 10
-1.8168775009
 20
-2.028865318
 10
-1.8208770686
 20
-2.0292669954
 10
-1.8252565601
 20
-2.0296629538
 10
-1.8300099855
 20
-2.0300526514
 10
-1.8351308436
 20
-2.0304355555
 10
-1.8406121305
 20
-2.0308111421
 10
-1.8464463494
 20
-2.0311788978
  0
LWPOLYLINE
  5
3EC
100
AcDbEntity
  8
ASSI
100
AcDbPolyline
 62
253
  6
CONTINUOUS
 90
16
 70
0
 10
-1.7987038257
 20
-2.0250854879
 10
-1.7991024049
 20
-2.0255132283
 10
-1.7999106893
 20
-2.0259403838
 10
-1.8011275734
 20
-2.02636637
 10
-1.802751393
 20
-2.0267906044
 10
-1.804779927
 20
-2.0272125066
 10
-1.807210401
 20
-2.0276314997
 10
-1.810039491
 20
-2.0280470105
 10
-1.8132633273
 20
-2.0284584709
 10
-1.8168775009
 20
-2.028865318
 10
-1.8208770686
 20
-2.0292669954
 10
-1.8252565601
 20
-2.0296629538
 10
-1.8300099855
 20
-2.0300526514
 10
-1.8351308436
 20
-2.0304355555
 10
-1.8406121305
 20
-2.0308111421
 10
-1.8464463494
 20
-2.0311788978
  0
LWPOLYLINE
  5
3ED
100
AcDbEntity
  8
RACCORDO
100
AcDbPolyline
 62
253
  6
CONTINUOUS
 90
18
 70
0
 10
-1.7987038257
 20
30.7227522497
 10
-1.7991024042
 20
30.7231799902
 10
-1.799910688
 20
30.7236071457
 10
-1.8011275716
 20
30.7240331319
 10
-1.8027513905
 20
30.7244573663
 10
-1.804779924
 20
30.7248792685
 10
-1.8072103976
 20
30.7252982616
 10
-1.8100394871
 20
30.7257137725
 10
-1.8132633231
 20
30.7261252329
 10
-1.8168774963
 20
30.7265320801
 10
-1.8208770636
 20
30.7269337575
 10
-1.8252565548
 20
30.7273297158
 10
-1.83000998
 20
30.7277194135
 10
-1.8351308378
 20
30.7281023176
 10
-1.8406121245
 20
30.7284779043
 10
-1.8464463432
 20
30.72884566
 10
-1.8526255144
 20
30.7292050816
 10
-1.8659844489
 20
30.7298969686
  0
LWPOLYLINE
  5
3EE
100
AcDbEntity
  8
ASSI
100
AcDbPolyline
 62
253
  6
CONTINUOUS
 90
18
 70
0
 10
-1.7987038257
 20
30.7227522497
 10
-1.7991024042
 20
30.7231799902
 10
-1.799910688
 20
30.7236071457
 10
-1.8011275716
 20
30.7240331319
 10
-1.8027513905
 20
30.7244573663
 10
-1.804779924
 20
30.7248792685
 10
-1.8072103976
 20
30.7252982616
 10
-1.8100394871
 20
30.7257137725
 10
-1.8132633231
 20
30.7261252329
 10
-1.8168774963
 20
30.7265320801
 10
-1.8208770636
 20
30.7269337575
 10
-1.8252565548
 20
30.7273297158
 10
-1.83000998
 20
30.7277194135
 10
-1.8351308378
 20
30.7281023176
 10
-1.8406121245
 20
30.7284779043
 10
-1.8464463432
 20
30.72884566
 10
-1.8526255144
 20
30.7292050816
 10
-1.8659844489
 20
30.7298969686
  0
LINE
  5
3EF
100
AcDbEntity
  8
RACCORDO
100
AcDbLine
 62
7
  6
CONTINUOUS
 10
-56.8275672769
 20
-2.9829053831
 11
-50.7691567505
 21
-4.0511666191
  0
LINE
  5
3F0
100
AcDbEntity
  8
ASSI
100
AcDbLine
 62
7
  6
CONTINUOUS
 10
-56.8275672769
 20
-2.9829053831
 11
-50.7691567505
 21
-4.0511666191
  0
LINE
  5
3F1
100
AcDbEntity
  8
RACCORDO
100
AcDbLine
 62
253
  6
CONTINUOUS
 10
-56.7807085456
 20
-2.6874630572
 11
-50.7691567505
 21
-3.7474618346
  0
LINE
  5
3F2
100
AcDbEntity
  8
ASSI
100
AcDbLine
 62
253
  6
CONTINUOUS
 10
-56.7807085456
 20
-2.6874630572
 11
-50.7691567505
 21
-3.7474618346
  0
LWPOLYLINE
  5
3F3
100
AcDbEntity
  8
RACCORDO
100
AcDbPolyline
 62
253
  6
CONTINUOUS
 90
3
 70
0
 10
-57.6523564338
 20
-2.0366051753
 10
-57.6529708777
 20
-2.0366363427
 10
-57.6531755938
 20
-2.0366517118
  0
LWPOLYLINE
  5
3F4
100
AcDbEntity
  8
ASSI
100
AcDbPolyline
 62
253
  6
CONTINUOUS
 90
3
 70
0
 10
-57.6523564338
 20
-2.0366051753
 10
-57.6529708777
 20
-2.0366363427
 10
-57.6531755938
 20
-2.0366517118
  0
LINE
  5
3F5
100
AcDbEntity
  8
RACCORDO
100
AcDbLine
 62
253
  6
CONTINUOUS
 10
-57.645826564
 20
-2.0363236988
 11
-57.6523564338
 21
-2.0366051753
  0
LINE
  5
3F6
100
AcDbEntity
  8
ASSI
100
AcDbLine
 62
253
  6
CONTINUOUS
 10
-57.645826564
 20
-2.0363236988
 11
-57.6523564338
 21
-2.0366051753
  0
LINE
  5
3F7
100
AcDbEntity
  8
RACCORDO
100
AcDbLine
 62
253
  6
CONTINUOUS
 10
-57.3586343817
 20
-2.0250854879
 11
-57.645826564
 21
-2.0363236988
  0
LINE
  5
3F8
100
AcDbEntity
  8
ASSI
100
AcDbLine
 62
253
  6
CONTINUOUS
 10
-57.3586343817
 20
-2.0250854879
 11
-57.645826564
 21
-2.0363236988
  0
LWPOLYLINE
  5
3F9
100
AcDbEntity
  8
RACCORDO
100
AcDbPolyline
 62
253
  6
CONTINUOUS
 90
55
 70
0
 10
-57.3586343817
 20
-2.0250854879
 10
-57.3577333849
 20
-2.042675711
 10
-57.3563929399
 20
-2.0602166748
 10
-57.3546130468
 20
-2.0777083791
 10
-57.3523920169
 20
-2.0951621346
 10
-57.3497315388
 20
-2.1125666308
 10
-57.3466366781
 20
-2.1298879352
 10
-57.3431066183
 20
-2.1471255956
 10
-57.3391421758
 20
-2.1642800644
 10
-57.3347508658
 20
-2.1813187659
 10
-57.3299318845
 20
-2.1982414443
 10
-57.3246860356
 20
-2.2150483555
 10
-57.3190232451
 20
-2.2317076915
 10
-57.3129427245
 20
-2.2482191776
 10
-57.3064452622
 20
-2.2645830886
 10
-57.2995431502
 20
-2.2807684412
 10
-57.2922356156
 20
-2.2967749094
 10
-57.2845234313
 20
-2.3126028192
 10
-57.2764212071
 20
-2.328222165
 10
-57.2679282059
 20
-2.3436325453
 10
-57.2590451648
 20
-2.3588343617
 10
-57.2497889055
 20
-2.3737988124
 10
-57.2401587219
 20
-2.3885254461
 10
-57.23015532
 20
-2.4030147142
 10
-57.2197976394
 20
-2.4172391698
 10
-57.2090850065
 20
-2.431198314
 10
-57.1980180949
 20
-2.4448926458
 10
-57.1866178652
 20
-2.4582962143
 10
-57.1748836851
 20
-2.4714084685
 10
-57.1628161869
 20
-2.4842299596
 10
-57.1504382286
 20
-2.4967363898
 10
-57.1377492247
 20
-2.5089271594
 10
-57.1247497606
 20
-2.5208028682
 10
-57.11146445
 20
-2.5323410185
 10
-57.0978927477
 20
-2.5435409735
 10
-57.084035199
 20
-2.55440337
 10
-57.0699180528
 20
-2.5649076201
 10
-57.0555408093
 20
-2.5750530487
 10
-57.0409039685
 20
-2.584840331
 10
-57.0260352787
 20
-2.5942509043
 10
-57.0109343107
 20
-2.6032840468
 10
-56.9956014937
 20
-2.6119404803
 10
-56.980065865
 20
-2.620203807
 10
-56.964327045
 20
-2.6280732821
 10
-56.9483854132
 20
-2.6355496503
 10
-56.9322711445
 20
-2.6426187478
 10
-56.9159838747
 20
-2.6492798118
 10
-56.899523968
 20
-2.6555336052
 10
-56.8829226916
 20
-2.661368253
 10
-56.8661793667
 20
-2.6667830294
 10
-56.8492946722
 20
-2.6717786603
 10
-56.8323019124
 20
-2.6763454483
 10
-56.8152121887
 20
-2.6804801609
 10
-56.7980143998
 20
-2.6841860305
 10
-56.7807085456
 20
-2.6874630572
  0
LWPOLYLINE
  5
3FA
100
AcDbEntity
  8
ASSI
100
AcDbPolyline
 62
253
  6
CONTINUOUS
 90
55
 70
0
 10
-57.3586343817
 20
-2.0250854879
 10
-57.3577333849
 20
-2.042675711
 10
-57.3563929399
 20
-2.0602166748
 10
-57.3546130468
 20
-2.0777083791
 10
-57.3523920169
 20
-2.0951621346
 10
-57.3497315388
 20
-2.1125666308
 10
-57.3466366781
 20
-2.1298879352
 10
-57.3431066183
 20
-2.1471255956
 10
-57.3391421758
 20
-2.1642800644
 10
-57.3347508658
 20
-2.1813187659
 10
-57.3299318845
 20
-2.1982414443
 10
-57.3246860356
 20
-2.2150483555
 10
-57.3190232451
 20
-2.2317076915
 10
-57.3129427245
 20
-2.2482191776
 10
-57.3064452622
 20
-2.2645830886
 10
-57.2995431502
 20
-2.2807684412
 10
-57.2922356156
 20
-2.2967749094
 10
-57.2845234313
 20
-2.3126028192
 10
-57.2764212071
 20
-2.328222165
 10
-57.2679282059
 20
-2.3436325453
 10
-57.2590451648
 20
-2.3588343617
 10
-57.2497889055
 20
-2.3737988124
 10
-57.2401587219
 20
-2.3885254461
 10
-57.23015532
 20
-2.4030147142
 10
-57.2197976394
 20
-2.4172391698
 10
-57.2090850065
 20
-2.431198314
 10
-57.1980180949
 20
-2.4448926458
 10
-57.1866178652
 20
-2.4582962143
 10
-57.1748836851
 20
-2.4714084685
 10
-57.1628161869
 20
-2.4842299596
 10
-57.1504382286
 20
-2.4967363898
 10
-57.1377492247
 20
-2.5089271594
 10
-57.1247497606
 20
-2.5208028682
 10
-57.11146445
 20
-2.5323410185
 10
-57.0978927477
 20
-2.5435409735
 10
-57.084035199
 20
-2.55440337
 10
-57.0699180528
 20
-2.5649076201
 10
-57.0555408093
 20
-2.5750530487
 10
-57.0409039685
 20
-2.584840331
 10
-57.0260352787
 20
-2.5942509043
 10
-57.0109343107
 20
-2.6032840468
 10
-56.9956014937
 20
-2.6119404803
 10
-56.980065865
 20
-2.620203807
 10
-56.964327045
 20
-2.6280732821
 10
-56.9483854132
 20
-2.6355496503
 10
-56.9322711445
 20
-2.6426187478
 10
-56.9159838747
 20
-2.6492798118
 10
-56.899523968
 20
-2.6555336052
 10
-56.8829226916
 20
-2.661368253
 10
-56.8661793667
 20
-2.6667830294
 10
-56.8492946722
 20
-2.6717786603
 10
-56.8323019124
 20
-2.6763454483
 10
-56.8152121887
 20
-2.6804801609
 10
-56.7980143998
 20
-2.6841860305
 10
-56.7807085456
 20
-2.6874630572
  0
LINE
  5
3FB
100
AcDbEntity
  8
CURVE
100
AcDbLine
 62
252
  6
CONTINUOUS
 10
-57.8286587401
 20
3.4216393591
 11
-57.8287704942
 21
3.4259853281
  0
LINE
  5
3FC
100
AcDbEntity
  8
CURVE
100
AcDbLine
 62
252
  6
CONTINUOUS
 10
-57.8648562262
 20
4.9337085208
 11
-57.8491112804
 21
4.248128521
  0
LINE
  5
3FD
100
AcDbEntity
  8
CURVE
100
AcDbLine
 62
252
  6
CONTINUOUS
 10
-57.878050557
 20
5.5492899752
 11
-57.8646837599
 21
4.9259285101
  0
LINE
  5
3FE
100
AcDbEntity
  8
CURVE
100
AcDbLine
 62
252
  6
CONTINUOUS
 10
-57.8993980843
 20
6.6488333809
 11
-57.9000333669
 21
6.6839721254
  0
LINE
  5
3FF
100
AcDbEntity
  8
CURVE
100
AcDbLine
 62
252
  6
CONTINUOUS
 10
-57.8841494523
 20
22.8487732186
 11
-57.8751233234
 21
23.2886055179
  0
LINE
  5
400
100
AcDbEntity
  8
CURVE
100
AcDbLine
 62
252
  6
CONTINUOUS
 10
-57.8758417611
 20
23.2543916557
 11
-57.8623027794
 21
23.8784959039
  0
LINE
  5
401
100
AcDbEntity
  8
CURVE
100
AcDbLine
 62
252
  6
CONTINUOUS
 10
-57.8626452576
 20
23.8632134196
 11
-57.8465632426
 21
24.5561568562
  0
LINE
  5
402
100
AcDbEntity
  8
CURVE
100
AcDbLine
 62
252
  6
CONTINUOUS
 10
-57.8465850103
 20
24.5552507419
 11
-57.8394325662
 21
24.8487728236
  0
LINE
  5
403
100
AcDbEntity
  8
CURVE
100
AcDbLine
 62
252
  6
CONTINUOUS
 10
-57.7992892411
 20
26.3637627618
 11
-57.7991744174
 21
26.3678220727
  0
LWPOLYLINE
  5
404
100
AcDbEntity
  8
RACCORDO
100
AcDbPolyline
 62
253
  6
CONTINUOUS
 90
31
 70
0
 10
-57.3586343817
 20
30.7227522497
 10
-57.3993280829
 20
29.6316339386
 10
-57.4372160478
 20
28.5404290237
 10
-57.4722982763
 20
27.4491375051
 10
-57.5045749636
 20
26.3577521605
 10
-57.5340459146
 20
25.2662802121
 10
-57.5607105442
 20
24.1747433264
 10
-57.5845687964
 20
23.0831415102
 10
-57.6056207272
 20
21.9914747567
 10
-57.6238659193
 20
20.8997647112
 10
-57.6393043171
 20
19.8080113734
 10
-57.6519359762
 20
18.7162147436
 10
-57.6617606463
 20
17.6243964684
 10
-57.6687782718
 20
16.5325565481
 10
-57.6729889083
 20
15.4406949824
 10
-57.6743924724
 20
14.3488334168
 10
-57.6729889085
 20
13.2569718511
 10
-57.6687782722
 20
12.1651102854
 10
-57.6617606469
 20
11.0732703651
 10
-57.651935977
 20
9.9814520899
 10
-57.639304318
 20
8.8896554601
 10
-57.6238659204
 20
7.7979021222
 10
-57.6056207285
 20
6.7061920767
 10
-57.5845687979
 20
5.6145253231
 10
-57.5607105459
 20
4.522923507
 10
-57.5340459166
 20
3.4313866238
 10
-57.5045749659
 20
2.3399146781
 10
-57.4722982785
 20
1.2485293282
 10
-57.4372160495
 20
0.1572377937
 10
-57.3993280839
 20
-0.933967145
 10
-57.3586343817
 20
-2.0250854879
  0
LWPOLYLINE
  5
405
100
AcDbEntity
  8
ASSI
100
AcDbPolyline
 62
253
  6
CONTINUOUS
 90
31
 70
0
 10
-57.3586343817
 20
30.7227522497
 10
-57.3993280829
 20
29.6316339386
 10
-57.4372160478
 20
28.5404290237
 10
-57.4722982763
 20
27.4491375051
 10
-57.5045749636
 20
26.3577521605
 10
-57.5340459146
 20
25.2662802121
 10
-57.5607105442
 20
24.1747433264
 10
-57.5845687964
 20
23.0831415102
 10
-57.6056207272
 20
21.9914747567
 10
-57.6238659193
 20
20.8997647112
 10
-57.6393043171
 20
19.8080113734
 10
-57.6519359762
 20
18.7162147436
 10
-57.6617606463
 20
17.6243964684
 10
-57.6687782718
 20
16.5325565481
 10
-57.6729889083
 20
15.4406949824
 10
-57.6743924724
 20
14.3488334168
 10
-57.6729889085
 20
13.2569718511
 10
-57.6687782722
 20
12.1651102854
 10
-57.6617606469
 20
11.0732703651
 10
-57.651935977
 20
9.9814520899
 10
-57.639304318
 20
8.8896554601
 10
-57.6238659204
 20
7.7979021222
 10
-57.6056207285
 20
6.7061920767
 10
-57.5845687979
 20
5.6145253231
 10
-57.5607105459
 20
4.522923507
 10
-57.5340459166
 20
3.4313866238
 10
-57.5045749659
 20
2.3399146781
 10
-57.4722982785
 20
1.2485293282
 10
-57.4372160495
 20
0.1572377937
 10
-57.3993280839
 20
-0.933967145
 10
-57.3586343817
 20
-2.0250854879
  0
LWPOLYLINE
  5
406
100
AcDbEntity
  8
RACCORDO
100
AcDbPolyline
 62
253
  6
CONTINUOUS
 90
11
 70
0
 10
-56.8261711048
 20
-2.964850353
 10
-56.8265935615
 20
-2.9682245243
 10
-56.8269539755
 20
-2.9712579495
 10
-56.8272519095
 20
-2.9739469472
 10
-56.8274870018
 20
-2.9762882536
 10
-56.8276589671
 20
-2.9782790275
 10
-56.8277675967
 20
-2.9799168526
 10
-56.8278127587
 20
-2.9811997412
 10
-56.8277943984
 20
-2.9821261364
 10
-56.827712538
 20
-2.9826949138
 10
-56.8275672769
 20
-2.9829053831
  0
LWPOLYLINE
  5
407
100
AcDbEntity
  8
ASSI
100
AcDbPolyline
 62
253
  6
CONTINUOUS
 90
11
 70
0
 10
-56.8261711048
 20
-2.964850353
 10
-56.8265935615
 20
-2.9682245243
 10
-56.8269539755
 20
-2.9712579495
 10
-56.8272519095
 20
-2.9739469472
 10
-56.8274870018
 20
-2.9762882536
 10
-56.8276589671
 20
-2.9782790275
 10
-56.8277675967
 20
-2.9799168526
 10
-56.8278127587
 20
-2.9811997412
 10
-56.8277943984
 20
-2.9821261364
 10
-56.827712538
 20
-2.9826949138
 10
-56.8275672769
 20
-2.9829053831
  0
LINE
  5
408
100
AcDbEntity
  8
RACCORDO
100
AcDbLine
 62
253
  6
CONTINUOUS
 10
-56.8251421888
 20
-2.9570965609
 11
-56.8261711048
 21
-2.964850353
  0
LINE
  5
409
100
AcDbEntity
  8
ASSI
100
AcDbLine
 62
253
  6
CONTINUOUS
 10
-56.8251421888
 20
-2.9570965609
 11
-56.8261711048
 21
-2.964850353
  0
LINE
  5
40A
100
AcDbEntity
  8
RACCORDO
100
AcDbLine
 62
253
  6
CONTINUOUS
 10
-56.8238722212
 20
-2.9480342034
 11
-56.8251421888
 21
-2.9570965609
  0
LINE
  5
40B
100
AcDbEntity
  8
ASSI
100
AcDbLine
 62
253
  6
CONTINUOUS
 10
-56.8238722212
 20
-2.9480342034
 11
-56.8251421888
 21
-2.9570965609
  0
LINE
  5
40C
100
AcDbEntity
  8
RACCORDO
100
AcDbLine
 62
253
  6
CONTINUOUS
 10
-56.8223673652
 20
-2.9377072612
 11
-56.8238722212
 21
-2.9480342034
  0
LINE
  5
40D
100
AcDbEntity
  8
ASSI
100
AcDbLine
 62
253
  6
CONTINUOUS
 10
-56.8223673652
 20
-2.9377072612
 11
-56.8238722212
 21
-2.9480342034
  0
LINE
  5
40E
100
AcDbEntity
  8
RACCORDO
100
AcDbLine
 62
253
  6
CONTINUOUS
 10
-56.8196859444
 20
-2.9199570036
 11
-56.8223673652
 21
-2.9377072612
  0
LINE
  5
40F
100
AcDbEntity
  8
ASSI
100
AcDbLine
 62
253
  6
CONTINUOUS
 10
-56.8196859444
 20
-2.9199570036
 11
-56.8223673652
 21
-2.9377072612
  0
LINE
  5
410
100
AcDbEntity
  8
RACCORDO
100
AcDbLine
 62
253
  6
CONTINUOUS
 10
-56.8153659186
 20
-2.8923803791
 11
-56.8196859444
 21
-2.9199570036
  0
LINE
  5
411
100
AcDbEntity
  8
ASSI
100
AcDbLine
 62
253
  6
CONTINUOUS
 10
-56.8153659186
 20
-2.8923803791
 11
-56.8196859444
 21
-2.9199570036
  0
LINE
  5
412
100
AcDbEntity
  8
RACCORDO
100
AcDbLine
 62
253
  6
CONTINUOUS
 10
-56.8088894425
 20
-2.852392538
 11
-56.8153659186
 21
-2.8923803791
  0
LINE
  5
413
100
AcDbEntity
  8
ASSI
100
AcDbLine
 62
253
  6
CONTINUOUS
 10
-56.8088894425
 20
-2.852392538
 11
-56.8153659186
 21
-2.8923803791
  0
LINE
  5
414
100
AcDbEntity
  8
RACCORDO
100
AcDbLine
 62
253
  6
CONTINUOUS
 10
-56.7998020469
 20
-2.797935248
 11
-56.8088894425
 21
-2.852392538
  0
LINE
  5
415
100
AcDbEntity
  8
ASSI
100
AcDbLine
 62
253
  6
CONTINUOUS
 10
-56.7998020469
 20
-2.797935248
 11
-56.8088894425
 21
-2.852392538
  0
LINE
  5
416
100
AcDbEntity
  8
RACCORDO
100
AcDbLine
 62
253
  6
CONTINUOUS
 10
-56.7878918666
 20
-2.7285020555
 11
-56.7998020469
 21
-2.797935248
  0
LINE
  5
417
100
AcDbEntity
  8
ASSI
100
AcDbLine
 62
253
  6
CONTINUOUS
 10
-56.7878918666
 20
-2.7285020555
 11
-56.7998020469
 21
-2.797935248
  0
LINE
  5
418
100
AcDbEntity
  8
RACCORDO
100
AcDbLine
 62
253
  6
CONTINUOUS
 10
-56.7807085456
 20
-2.6874630572
 11
-56.7878918666
 21
-2.7285020555
  0
LINE
  5
419
100
AcDbEntity
  8
ASSI
100
AcDbLine
 62
253
  6
CONTINUOUS
 10
-56.7807085456
 20
-2.6874630572
 11
-56.7878918666
 21
-2.7285020555
  0
LINE
  5
41A
100
AcDbEntity
  8
DRAFT
100
AcDbLine
 62
7
  6
CONTINUOUS
 10
-50.7691567505
 20
13.1134942062
 11
-45.9691567505
 21
13.1302494351
  0
LINE
  5
41B
100
AcDbEntity
  8
RACCORDO
100
AcDbLine
 62
253
  6
CONTINUOUS
 10
-56.7807085456
 20
31.385129819
 11
-56.7914017832
 21
31.4464392338
  0
LINE
  5
41C
100
AcDbEntity
  8
ASSI
100
AcDbLine
 62
253
  6
CONTINUOUS
 10
-56.7807085456
 20
31.385129819
 11
-56.7914017832
 21
31.4464392338
  0
LINE
  5
41D
100
AcDbEntity
  8
RACCORDO
100
AcDbLine
 62
253
  6
CONTINUOUS
 10
-56.7914017832
 20
31.4464392338
 11
-56.801401523
 21
31.5050794256
  0
LINE
  5
41E
100
AcDbEntity
  8
ASSI
100
AcDbLine
 62
253
  6
CONTINUOUS
 10
-56.7914017832
 20
31.4464392338
 11
-56.801401523
 21
31.5050794256
  0
LINE
  5
41F
100
AcDbEntity
  8
RACCORDO
100
AcDbLine
 62
253
  6
CONTINUOUS
 10
-56.801401523
 20
31.5050794256
 11
-56.8102724069
 21
31.5584973804
  0
LINE
  5
420
100
AcDbEntity
  8
ASSI
100
AcDbLine
 62
253
  6
CONTINUOUS
 10
-56.801401523
 20
31.5050794256
 11
-56.8102724069
 21
31.5584973804
  0
LINE
  5
421
100
AcDbEntity
  8
RACCORDO
100
AcDbLine
 62
253
  6
CONTINUOUS
 10
-56.8102724069
 20
31.5584973804
 11
-56.8165219806
 21
31.5973360628
  0
LINE
  5
422
100
AcDbEntity
  8
ASSI
100
AcDbLine
 62
253
  6
CONTINUOUS
 10
-56.8102724069
 20
31.5584973804
 11
-56.8165219806
 21
31.5973360628
  0
LINE
  5
423
100
AcDbEntity
  8
RACCORDO
100
AcDbLine
 62
253
  6
CONTINUOUS
 10
-56.8165219806
 20
31.5973360628
 11
-56.819685944
 21
31.6176237627
  0
LINE
  5
424
100
AcDbEntity
  8
ASSI
100
AcDbLine
 62
253
  6
CONTINUOUS
 10
-56.8165219806
 20
31.5973360628
 11
-56.819685944
 21
31.6176237627
  0
LINE
  5
425
100
AcDbEntity
  8
RACCORDO
100
AcDbLine
 62
253
  6
CONTINUOUS
 10
-56.819685944
 20
31.6176237627
 11
-56.8223673649
 21
31.6353740209
  0
LINE
  5
426
100
AcDbEntity
  8
ASSI
100
AcDbLine
 62
253
  6
CONTINUOUS
 10
-56.819685944
 20
31.6176237627
 11
-56.8223673649
 21
31.6353740209
  0
LINE
  5
427
100
AcDbEntity
  8
RACCORDO
100
AcDbLine
 62
253
  6
CONTINUOUS
 10
-56.8223673649
 20
31.6353740209
 11
-56.823872221
 21
31.6457009635
  0
LINE
  5
428
100
AcDbEntity
  8
ASSI
100
AcDbLine
 62
253
  6
CONTINUOUS
 10
-56.8223673649
 20
31.6353740209
 11
-56.823872221
 21
31.6457009635
  0
LINE
  5
429
100
AcDbEntity
  8
RACCORDO
100
AcDbLine
 62
253
  6
CONTINUOUS
 10
-56.823872221
 20
31.6457009635
 11
-56.8251421887
 21
31.6547633214
  0
LINE
  5
42A
100
AcDbEntity
  8
ASSI
100
AcDbLine
 62
253
  6
CONTINUOUS
 10
-56.823872221
 20
31.6457009635
 11
-56.8251421887
 21
31.6547633214
  0
LWPOLYLINE
  5
42B
100
AcDbEntity
  8
RACCORDO
100
AcDbPolyline
 62
253
  6
CONTINUOUS
 90
12
 70
0
 10
-56.8251421887
 20
31.6547633214
 10
-56.8261711047
 20
31.6625171139
 10
-56.8265935614
 20
31.6658912854
 10
-56.8269539755
 20
31.6689247107
 10
-56.8272519095
 20
31.6716137085
 10
-56.8274870018
 20
31.6739550151
 10
-56.8276589671
 20
31.6759457891
 10
-56.8277675967
 20
31.6775836143
 10
-56.8278127587
 20
31.678866503
 10
-56.8277943984
 20
31.6797928982
 10
-56.827712538
 20
31.6803616756
 10
-56.8275672769
 20
31.6805721449
  0
LWPOLYLINE
  5
42C
100
AcDbEntity
  8
ASSI
100
AcDbPolyline
 62
253
  6
CONTINUOUS
 90
12
 70
0
 10
-56.8251421887
 20
31.6547633214
 10
-56.8261711047
 20
31.6625171139
 10
-56.8265935614
 20
31.6658912854
 10
-56.8269539755
 20
31.6689247107
 10
-56.8272519095
 20
31.6716137085
 10
-56.8274870018
 20
31.6739550151
 10
-56.8276589671
 20
31.6759457891
 10
-56.8277675967
 20
31.6775836143
 10
-56.8278127587
 20
31.678866503
 10
-56.8277943984
 20
31.6797928982
 10
-56.827712538
 20
31.6803616756
 10
-56.8275672769
 20
31.6805721449
  0
LINE
  5
42D
100
AcDbEntity
  8
DRAFT
100
AcDbLine
 62
7
  6
CONTINUOUS
 10
-50.7691567505
 20
15.5841725557
 11
-45.9691567505
 21
15.5674173268
  0
LINE
  5
42E
100
AcDbEntity
  8
RACCORDO
100
AcDbLine
 62
7
  6
CONTINUOUS
 10
-50.7691567505
 20
32.7488333809
 11
-50.7691567505
 21
-4.0511666191
  0
LINE
  5
42F
100
AcDbEntity
  8
ASSI
100
AcDbLine
 62
7
  6
CONTINUOUS
 10
-50.7691567505
 20
32.7488333809
 11
-50.7691567505
 21
-4.0511666191
  0
LINE
  5
430
100
AcDbEntity
  8
DRAFT
100
AcDbLine
 62
7
  6
CONTINUOUS
 10
-45.9691567505
 20
15.5674173268
 11
-45.9691567505
 21
13.1302494351
  0
LWPOLYLINE
  5
431
100
AcDbEntity
  8
RACCORDO
100
AcDbPolyline
 62
253
  6
CONTINUOUS
 90
5
 70
0
 10
-57.3586343817
 20
30.7227522497
 10
-57.6513331227
 20
30.7342250149
 10
-57.6523564542
 20
30.7342719379
 10
-57.6529708981
 20
30.7343031053
 10
-57.6531756142
 20
30.7343184745
  0
LWPOLYLINE
  5
432
100
AcDbEntity
  8
ASSI
100
AcDbPolyline
 62
253
  6
CONTINUOUS
 90
5
 70
0
 10
-57.3586343817
 20
30.7227522497
 10
-57.6513331227
 20
30.7342250149
 10
-57.6523564542
 20
30.7342719379
 10
-57.6529708981
 20
30.7343031053
 10
-57.6531756142
 20
30.7343184745
  0
LWPOLYLINE
  5
433
100
AcDbEntity
  8
RACCORDO
100
AcDbPolyline
 62
253
  6
CONTINUOUS
 90
55
 70
0
 10
-56.7807085456
 20
31.385129819
 10
-56.7980158427
 20
31.3818524516
 10
-56.8152147145
 20
31.3781463047
 10
-56.832305161
 20
31.3740113784
 10
-56.8492981643
 20
31.3694444621
 10
-56.8661827424
 20
31.3644487664
 10
-56.8829259483
 20
31.3590339229
 10
-56.8995272219
 20
31.3531991834
 10
-56.9159871234
 20
31.3469452962
 10
-56.9322743862
 20
31.3402841381
 10
-56.9483886467
 20
31.3332149471
 10
-56.9643302685
 20
31.3257384853
 10
-56.9800690752
 20
31.3178689163
 10
-56.9956046868
 20
31.3096054954
 10
-57.0109374833
 20
31.3009489674
 10
-57.0260384286
 20
31.2919157301
 10
-57.0409070936
 20
31.2825050619
 10
-57.0555439073
 20
31.2727176844
 10
-57.0699211213
 20
31.2625721604
 10
-57.084038236
 20
31.2520678142
 10
-57.0978957508
 20
31.2412053214
 10
-57.1114674155
 20
31.2300052711
 10
-57.1247526854
 20
31.2184670258
 10
-57.1377521052
 20
31.206591223
 10
-57.1504410578
 20
31.194400365
 10
-57.1628189566
 20
31.1818938526
 10
-57.1748863882
 20
31.169072285
 10
-57.1866204957
 20
31.1559599611
 10
-57.1980206464
 20
31.1425563302
 10
-57.209087473
 20
31.1288619432
 10
-57.2198000164
 20
31.1149027512
 10
-57.2301576023
 20
31.100678257
 10
-57.240160905
 20
31.0861889579
 10
-57.2497909888
 20
31.071462297
 10
-57.2590471486
 20
31.056497822
 10
-57.2679300896
 20
31.0412959853
 10
-57.2764229913
 20
31.0258855869
 10
-57.284525117
 20
31.010266225
 10
-57.2922372033
 20
30.9944383014
 10
-57.2995446405
 20
30.9784318217
 10
-57.3064466555
 20
30.9622464596
 10
-57.3129440213
 20
30.9458825414
 10
-57.3190244463
 20
30.9293710513
 10
-57.3246871419
 20
30.9127117151
 10
-57.3299328967
 20
30.8959048069
 10
-57.3347517843
 20
30.8789821333
 10
-57.3391430003
 20
30.8619434376
 10
-57.3431073491
 20
30.8447889765
 10
-57.3466373178
 20
30.8275513259
 10
-57.3497320961
 20
30.8102299125
 10
-57.3523924942
 20
30.7928253096
 10
-57.3546134301
 20
30.7753718124
 10
-57.3563932096
 20
30.7578808525
 10
-57.3577335268
 20
30.7403409983
 10
-57.3586343817
 20
30.7227522497
  0
LWPOLYLINE
  5
434
100
AcDbEntity
  8
ASSI
100
AcDbPolyline
 62
253
  6
CONTINUOUS
 90
55
 70
0
 10
-56.7807085456
 20
31.385129819
 10
-56.7980158427
 20
31.3818524516
 10
-56.8152147145
 20
31.3781463047
 10
-56.832305161
 20
31.3740113784
 10
-56.8492981643
 20
31.3694444621
 10
-56.8661827424
 20
31.3644487664
 10
-56.8829259483
 20
31.3590339229
 10
-56.8995272219
 20
31.3531991834
 10
-56.9159871234
 20
31.3469452962
 10
-56.9322743862
 20
31.3402841381
 10
-56.9483886467
 20
31.3332149471
 10
-56.9643302685
 20
31.3257384853
 10
-56.9800690752
 20
31.3178689163
 10
-56.9956046868
 20
31.3096054954
 10
-57.0109374833
 20
31.3009489674
 10
-57.0260384286
 20
31.2919157301
 10
-57.0409070936
 20
31.2825050619
 10
-57.0555439073
 20
31.2727176844
 10
-57.0699211213
 20
31.2625721604
 10
-57.084038236
 20
31.2520678142
 10
-57.0978957508
 20
31.2412053214
 10
-57.1114674155
 20
31.2300052711
 10
-57.1247526854
 20
31.2184670258
 10
-57.1377521052
 20
31.206591223
 10
-57.1504410578
 20
31.194400365
 10
-57.1628189566
 20
31.1818938526
 10
-57.1748863882
 20
31.169072285
 10
-57.1866204957
 20
31.1559599611
 10
-57.1980206464
 20
31.1425563302
 10
-57.209087473
 20
31.1288619432
 10
-57.2198000164
 20
31.1149027512
 10
-57.2301576023
 20
31.100678257
 10
-57.240160905
 20
31.0861889579
 10
-57.2497909888
 20
31.071462297
 10
-57.2590471486
 20
31.056497822
 10
-57.2679300896
 20
31.0412959853
 10
-57.2764229913
 20
31.0258855869
 10
-57.284525117
 20
31.010266225
 10
-57.2922372033
 20
30.9944383014
 10
-57.2995446405
 20
30.9784318217
 10
-57.3064466555
 20
30.9622464596
 10
-57.3129440213
 20
30.9458825414
 10
-57.3190244463
 20
30.9293710513
 10
-57.3246871419
 20
30.9127117151
 10
-57.3299328967
 20
30.8959048069
 10
-57.3347517843
 20
30.8789821333
 10
-57.3391430003
 20
30.8619434376
 10
-57.3431073491
 20
30.8447889765
 10
-57.3466373178
 20
30.8275513259
 10
-57.3497320961
 20
30.8102299125
 10
-57.3523924942
 20
30.7928253096
 10
-57.3546134301
 20
30.7753718124
 10
-57.3563932096
 20
30.7578808525
 10
-57.3577335268
 20
30.7403409983
 10
-57.3586343817
 20
30.7227522497
  0
LINE
  5
435
100
AcDbEntity
  8
RACCORDO
100
AcDbLine
 62
253
  6
CONTINUOUS
 10
-50.7691567505
 20
32.4451285964
 11
-56.7807085456
 21
31.385129819
  0
LINE
  5
436
100
AcDbEntity
  8
ASSI
100
AcDbLine
 62
253
  6
CONTINUOUS
 10
-50.7691567505
 20
32.4451285964
 11
-56.7807085456
 21
31.385129819
  0
LINE
  5
437
100
AcDbEntity
  8
RACCORDO
100
AcDbLine
 62
7
  6
CONTINUOUS
 10
-50.7691567505
 20
32.7488333809
 11
-56.8275672769
 21
31.6805721449
  0
LINE
  5
438
100
AcDbEntity
  8
ASSI
100
AcDbLine
 62
7
  6
CONTINUOUS
 10
-50.7691567505
 20
32.7488333809
 11
-56.8275672769
 21
31.6805721449
  0
CIRCLE
  5
439
100
AcDbEntity
  8
0
100
AcDbCircle
 62
7
  6
CONTINUOUS
 10
-14.0836840658
 20
14.3488333809
 40
1.25
  0
CIRCLE
  5
43A
100
AcDbEntity
  8
ASSI
100
AcDbCircle
 62
7
  6
CONTINUOUS
 10
-14.0836840658
 20
14.3488333809
 40
1.25
  0
CIRCLE
  5
43B
100
AcDbEntity
  8
RACCORDO
100
AcDbCircle
 62
7
  6
CONTINUOUS
 10
-14.0836840658
 20
14.3488333809
 40
1.225
  0
CIRCLE
  5
43C
100
AcDbEntity
  8
RACCORDO
100
AcDbCircle
 62
253
  6
CONTINUOUS
 10
-14.0836840658
 20
14.3488333809
 40
1.0459181267
  0
ARC
  5
43D
100
AcDbEntity
  8
RACCORDO
100
AcDbCircle
 62
7
  6
CONTINUOUS
 10
367.0308432495
 20
14.3488333809
 40
425.0
100
AcDbArc
 50
177.7904661733
 51
182.2095338267
  0
ARC
  5
43E
100
AcDbEntity
  8
ASSI
100
AcDbCircle
 62
7
  6
CONTINUOUS
 10
367.0308432495
 20
14.3488333809
 40
425.0
100
AcDbArc
 50
177.7904661733
 51
182.2095338267
  0
ARC
  5
43F
100
AcDbEntity
  8
CURVE
100
AcDbCircle
 62
252
  6
CONTINUOUS
 10
367.0308432495
 20
14.3488333809
 40
425.0
100
AcDbArc
 50
178.9996322717
 51
179.2490667561
  0
ARC
  5
440
100
AcDbEntity
  8
CURVE
100
AcDbCircle
 62
252
  6
CONTINUOUS
 10
367.0308432495
 20
14.3488333809
 40
425.0
100
AcDbArc
 50
178.2208798468
 51
178.4319221006
  0
ARC
  5
441
100
AcDbEntity
  8
CURVE
100
AcDbCircle
 62
252
  6
CONTINUOUS
 10
367.0308432495
 20
14.3488333809
 40
425.0
100
AcDbArc
 50
181.5100871285
 51
181.6719258921
  0
ARC
  5
442
100
AcDbEntity
  8
CURVE
100
AcDbCircle
 62
252
  6
CONTINUOUS
 10
367.0308432495
 20
14.3488333809
 40
425.0
100
AcDbArc
 50
180.8898055195
 51
181.0333835556
  0
ARC
  5
443
100
AcDbEntity
  8
RACCORDO
100
AcDbCircle
 62
7
  6
CONTINUOUS
 10
-56.6539190993
 20
30.6957643919
 40
1.0
100
AcDbArc
 50
100.0
 51
177.7904661733
  0
ARC
  5
444
100
AcDbEntity
  8
RACCORDO
100
AcDbCircle
 62
7
  6
CONTINUOUS
 10
-56.6539190993
 20
-1.9980976301
 40
1.0
100
AcDbArc
 50
182.2095338267
 51
260.0
  0
ARC
  5
445
100
AcDbEntity
  8
ASSI
100
AcDbCircle
 62
7
  6
CONTINUOUS
 10
-56.6539190993
 20
30.6957643919
 40
1.0
100
AcDbArc
 50
100.0
 51
177.7904661733
  0
ARC
  5
446
100
AcDbEntity
  8
ASSI
100
AcDbCircle
 62
7
  6
CONTINUOUS
 10
-56.6539190993
 20
-1.9980976301
 40
1.0
100
AcDbArc
 50
182.2095338267
 51
260.0
  0
ELLIPSE
  5
447
100
AcDbEntity
  8
RACCORDO
100
AcDbEllipse
 62
7
  6
CONTINUOUS
 10
-26.1836383674
 20
-3.7465386355
 30
0.0
 11
0.0300136675
 21
0.3031910442
 31
0.0
 40
0.9846622838
 41
-4.6121910857
 42
-3.0444253421
  0
ELLIPSE
  5
448
100
AcDbEntity
  8
RACCORDO
100
AcDbEllipse
 62
7
  6
CONTINUOUS
 10
-26.1836383674
 20
32.4442053974
 30
0.0
 11
-0.0300136675
 21
0.3031910442
 31
0.0
 40
0.9846622838
 41
-0.0971673115
 42
1.4705984321
  0
ELLIPSE
  5
449
100
AcDbEntity
  8
RACCORDO
100
AcDbEllipse
 62
7
  6
CONTINUOUS
 10
-1.9837297642
 20
32.4442053974
 30
0.0
 11
0.0300136675
 21
0.3031910442
 31
0.0
 40
0.9846622838
 41
-1.4705984321
 42
0.0971673115
  0
ELLIPSE
  5
44A
100
AcDbEntity
  8
RACCORDO
100
AcDbEllipse
 62
7
  6
CONTINUOUS
 10
-1.9837297642
 20
-3.7465386355
 30
0.0
 11
-0.0300136675
 21
0.3031910442
 31
0.0
 40
0.9846622838
 41
-3.2387599651
 42
-1.6709942215
  0
ELLIPSE
  5
44B
100
AcDbEntity
  8
ASSI
100
AcDbEllipse
 62
7
  6
CONTINUOUS
 10
-26.1836383674
 20
-3.7465386355
 30
0.0
 11
0.0300136675
 21
0.3031910442
 31
0.0
 40
0.9846622838
 41
-4.6121910857
 42
-3.0444253421
  0
ELLIPSE
  5
44C
100
AcDbEntity
  8
ASSI
100
AcDbEllipse
 62
7
  6
CONTINUOUS
 10
-26.1836383674
 20
32.4442053974
 30
0.0
 11
-0.0300136675
 21
0.3031910442
 31
0.0
 40
0.9846622838
 41
-0.0971673115
 42
1.4705984321
  0
ELLIPSE
  5
44D
100
AcDbEntity
  8
ASSI
100
AcDbEllipse
 62
7
  6
CONTINUOUS
 10
-1.9837297642
 20
32.4442053974
 30
0.0
 11
0.0300136675
 21
0.3031910442
 31
0.0
 40
0.9846622838
 41
-1.4705984321
 42
0.0971673115
  0
ELLIPSE
  5
44E
100
AcDbEntity
  8
ASSI
100
AcDbEllipse
 62
7
  6
CONTINUOUS
 10
-1.9837297642
 20
-3.7465386355
 30
0.0
 11
-0.0300136675
 21
0.3031910442
 31
0.0
 40
0.9846622838
 41
-3.2387599651
 42
-1.6709942215
  0
ELLIPSE
  5
44F
100
AcDbEntity
  8
CURVE
100
AcDbEllipse
 62
252
  6
CONTINUOUS
 10
367.0308432495
 20
14.3488333809
 30
0.0
 11
425.0
 21
0.0
 31
0.0
 40
1.0
 41
3.1226974116
 42
3.12578023
  0
ELLIPSE
  5
450
100
AcDbEntity
  8
CURVE
100
AcDbEllipse
 62
252
  6
CONTINUOUS
 10
367.0308432495
 20
14.3488333809
 30
0.0
 11
-0.0
 21
425.0
 31
0.0
 40
1.0
 41
1.5418981872
 42
1.5449816951
  0
ELLIPSE
  5
451
100
AcDbEntity
  8
CURVE
100
AcDbEllipse
 62
252
  6
CONTINUOUS
 10
367.0308432495
 20
14.3488333809
 30
0.0
 11
425.0
 21
0.0
 31
0.0
 40
1.0
 41
-3.1226503444
 42
-3.121238307
  0
ELLIPSE
  5
452
100
AcDbEntity
  8
CURVE
100
AcDbEllipse
 62
252
  6
CONTINUOUS
 10
367.0308432495
 20
14.3488333809
 30
0.0
 11
0.0
 21
425.0
 31
0.0
 40
1.0
 41
1.5951516758
 42
1.5965005952
  0
ELLIPSE
  5
453
100
AcDbEntity
  8
CURVE
100
AcDbEllipse
 62
252
  6
CONTINUOUS
 10
367.0308432495
 20
14.3488333809
 30
0.0
 11
0.0
 21
425.0
 31
0.0
 40
1.0
 41
-4.6866755677
 42
-4.6866214231
  0
ENDSEC
  0
SECTION
  2
OBJECTS
  0
DICTIONARY
  5
C
100
AcDbDictionary
280
0
281
1
  3
ACAD_GROUP
350
D
  3
ACAD_MLINESTYLE
350
17
  3
ACAD_LAYOUT
350
1A
  3
ACAD_PLOTSETTINGS
350
19
  3
ACAD_PLOTSTYLENAME
350
E
  0
DICTIONARY
  5
D
102
{ACAD_REACTORS
330
C
102
}
100
AcDbDictionary
280
0
281
1
  0
ACDBDICTIONARYWDFLT
  5
E
102
{ACAD_REACTORS
330
C
102
}
100
AcDbDictionary
281
1
  3
Normal
350
F
100
AcDbDictionaryWithDefault
340
F
  0
DICTIONARY
  5
17
102
{ACAD_REACTORS
330
C
102
}
100
AcDbDictionary
280
0
281
1
  3
Standard
350
18
  0
DICTIONARY
  5
19
102
{ACAD_REACTORS
330
C
102
}
100
AcDbDictionary
281
1
  0
DICTIONARY
  5
1A
102
{ACAD_REACTORS
330
C
102
}
100
AcDbDictionary
281
1
  3
Model
350
454
  3
Layout1
350
455
  0
ACDBPLACEHOLDER
  5
F
102
{ACAD_REACTORS
330
E
102
}
  0
MLINESTYLE
  5
18
102
{ACAD_REACTORS
330
17
102
}
100
AcDbMlineStyle
  2
STANDARD
 70
0
  3

 62
256
 51
90.0
 52
90.0
 71
2
 49
0.5
 62
256
  6
BYLAYER
 49
-0.5
 62
256
  6
BYLAYER
  0
LAYOUT
  5
454
102
{ACAD_REACTORS
330
1A
102
}
100
AcDbPlotSettings
  1

  2
none_device
  4
ISO_A4_(297.00_x_210.00_MM)
  6

 40
0.0
 41
0.0
 42
0.0
 43
0.0
 44
297.0
 45
210.0
 46
0.0
 47
0.0
 48
0.0
 49
0.0
140
0.0
141
0.0
142
1.0
143
1.0
 70
1024
 72
1
 73
0
 74
0
  7

 75
0
147
1.0
148
0.0
149
0.0
100
AcDbLayout
  1
Model
 70
0
 71
0
 10
0.0
 20
0.0
 11
297.0
 21
210.0
 12
0.0
 22
0.0
 32
0.0
 14
0.0
 24
0.0
 34
0.0
 15
0.0
 25
0.0
 35
0.0
146
0.0
 13
0.0
 23
0.0
 33
0.0
 16
1.0
 26
0.0
 36
0.0
 17
0.0
 27
1.0
 37
0.0
 76
0
330
216
345
0
346
0
  0
LAYOUT
  5
455
102
{ACAD_REACTORS
330
1A
102
}
100
AcDbPlotSettings
  1

  2
none_device
  4
ISO_A4_(297.00_x_210.00_MM)
  6

 40
0.0
 41
0.0
 42
0.0
 43
0.0
 44
297.0
 45
210.0
 46
0.0
 47
0.0
 48
0.0
 49
0.0
140
0.0
141
0.0
142
1.0
143
1.0
 70
0
 72
1
 73
0
 74
0
  7

 75
0
147
1.0
148
0.0
149
0.0
100
AcDbLayout
  1
Layout1
 70
0
 71
1
 10
0.0
 20
0.0
 11
297.0
 21
210.0
 12
0.0
 22
0.0
 32
0.0
 14
0.0
 24
0.0
 34
0.0
 15
0.0
 25
0.0
 35
0.0
146
0.0
 13
0.0
 23
0.0
 33
0.0
 16
1.0
 26
0.0
 36
0.0
 17
0.0
 27
1.0
 37
0.0
 76
0
330
217
345
0
346
0
  0
ENDSEC
  0
EOF
