0
SECTION
2
HEADER
9
$ACADVER
1
AC1015
9
$DWGCODEPAGE
3
ANSI_1252
9
$EXTMAX
10
558.8000000000
20
431.8000000000
30
0.0000000000
9
$EXTMIN
10
0.0000000000
20
0.0000000000
30
0.0000000000
9
$LIMMIN
10
0.0000000000
20
0.0000000000
9
$LIMMAX
10
558.8000000000
20
431.8000000000
9
$VIEWCTR
10
279.4000000000
20
215.9000000000
9
$VIEWSIZE
40
431.8000000000
9
$CLAYER
8
0
9
$LTSCALE
40
30.7340000000
9
$CELTYPE
6
BYLAYER
9
$DIMSCALE
40
1
9
$DIMASZ
40
3.0000000000
9
$DIMEXO
40
3.4925000000
9
$DIMDLI
40
21.2344000000
9
$DIMEXE
40
10.0584000000
9
$DIMCEN
40
5.0292000000
9
$DIMLFAC
40
1.0000000000
9
$DIMBLK
1
_FILLED
9
$DIMTXT
40
3.0000000000
9
$DIMTOL
70
1
9
$DIMLIM
70
0
9
$DIMTFAC
40
1.0000000000
9
$DIMTP
40
0.0100000000
9
$DIMTM
40
0.0100000000
9
$PDMODE
70
3
9
$PDSIZE
40
3.0000000000
9
$HANDSEED
5
2B3
9
$MEASUREMENT
70
1
9
$INSUNITS
70
4
0
ENDSEC
0
SECTION
2
CLASSES
0
CLASS
1
ACDBDICTIONARYWDFLT
2
AcDbDictionaryWithDefault
3
AutoCAD 2000
90
0
280
0
281
0
0
CLASS
1
ACDBPLACEHOLDER
2
AcDbPlaceHolder
3
AutoCAD 2000
90
0
280
0
281
0
0
CLASS
1
LAYOUT
2
AcDbLayout
3
AutoCAD 2000
90
0
280
0
281
0
0
ENDSEC
0
SECTION
2
TABLES
0
TABLE
2
VPORT
5
8
100
AcDbSymbolTable
70
2
0
VPORT
5
1F4
100
AcDbSymbolTableRecord
100
AcDbViewportTableRecord
2
*ACTIVE
70
0
10
0.0
20
0.0
11
1.0
21
1.0
12
279.4000000000
22
215.9000000000
13
0.0
23
0.0
14
1.0
24
1.0
15
0.0
25
0.0
16
0.0
26
0.0
36
1.0
17
0.0
27
0.0
37
0.0
40
431.8000000000
41
1.2941176471
42
50.0
43
0.0
44
0.0
50
0.0
51
0.0
71
0
72
100
73
1
74
1
75
0
76
0
77
0
78
0
0
ENDTAB
0
TABLE
2
LTYPE
5
5
100
AcDbSymbolTable
70
6
0
LTYPE
5
14
100
AcDbSymbolTableRecord
100
AcDbLinetypeTableRecord
2
BYBLOCK
70
0
3

72
65
73
0
40
0.0
0
LTYPE
5
15
100
AcDbSymbolTableRecord
100
AcDbLinetypeTableRecord
2
BYLAYER
70
0
3

72
65
73
0
40
0.0
0
LTYPE
5
16
100
AcDbSymbolTableRecord
100
AcDbLinetypeTableRecord
2
CONTINUOUS
70
64
3
Solid line
72
65
73
0
40
0
0
LTYPE
5
1F5
100
AcDbSymbolTableRecord
100
AcDbLinetypeTableRecord
2
CENTER
70
64
3
____ _ ____ _ ____ _ ____ _ ____ _ ____ _ ____
72
65
73
4
40
0.6
49
0.375
74
0
49
-0.075
74
0
49
0.075
74
0
49
-0.075
74
0
0
LTYPE
5
1F6
100
AcDbSymbolTableRecord
100
AcDbLinetypeTableRecord
2
HIDDEN
70
64
3
- - - - - - - - - - - - - - - - - - - -
72
65
73
2
40
0.2
49
0.1
74
0
49
-0.1
74
0
0
LTYPE
5
1F7
100
AcDbSymbolTableRecord
100
AcDbLinetypeTableRecord
2
PHANTOM
70
64
3
_____ _ _ _____ _ _ _____ _ _ _____
72
65
73
6
40
0.8
49
0.45
74
0
49
-0.05
74
0
49
0.1
74
0
49
-0.05
74
0
49
0.1
74
0
49
-0.05
74
0
0
LTYPE
5
1F8
100
AcDbSymbolTableRecord
100
AcDbLinetypeTableRecord
2
DOT
70
64
3
. . . . . . . . . . . . . . . . . . . .
72
65
73
2
40
0.2
49
0.1
74
0
49
-0.1
74
0
0
LTYPE
5
1F9
100
AcDbSymbolTableRecord
100
AcDbLinetypeTableRecord
2
DASHED
70
64
3
- - - - - - - - - - - - - - - - - - - -
72
65
73
2
40
0.2
49
0.1
74
0
49
-0.1
74
0
0
ENDTAB
0
TABLE
2
LAYER
5
2
100
AcDbSymbolTable
70
36
0
LAYER
5
10
100
AcDbSymbolTableRecord
100
AcDbLayerTableRecord
2
0
70
0
62
7
6
CONTINUOUS
370
-3
390
F
0
LAYER
5
1FA
100
AcDbSymbolTableRecord
100
AcDbLayerTableRecord
2
DEFAULT_1
70
0
62
7
6
CENTER
370
-3
390
F
0
LAYER
5
1FB
100
AcDbSymbolTableRecord
100
AcDbLayerTableRecord
2
DEFAULT_2
70
0
62
0
6
HIDDEN
370
-3
390
F
0
LAYER
5
1FC
100
AcDbSymbolTableRecord
100
AcDbLayerTableRecord
2
DEFAULT_3
70
0
62
7
6
PHANTOM
370
-3
390
F
0
LAYER
5
1FD
100
AcDbSymbolTableRecord
100
AcDbLayerTableRecord
2
ASSI
70
0
62
7
6
CONTINUOUS
370
-3
390
F
0
LAYER
5
1FE
100
AcDbSymbolTableRecord
100
AcDbLayerTableRecord
2
COORDINATE
70
0
62
7
6
CONTINUOUS
370
-3
390
F
0
LAYER
5
1FF
100
AcDbSymbolTableRecord
100
AcDbLayerTableRecord
2
COORD_ORIGINE
70
0
62
7
6
CONTINUOUS
370
-3
390
F
0
LAYER
5
200
100
AcDbSymbolTableRecord
100
AcDbLayerTableRecord
2
CURVE
70
0
62
7
6
CONTINUOUS
370
-3
390
F
0
LAYER
5
201
100
AcDbSymbolTableRecord
100
AcDbLayerTableRecord
2
CURVE_LED_TASTO
70
0
62
7
6
CONTINUOUS
370
-3
390
F
0
LAYER
5
202
100
AcDbSymbolTableRecord
100
AcDbLayerTableRecord
2
DRAFT
70
0
62
7
6
CONTINUOUS
370
-3
390
F
0
LAYER
5
203
100
AcDbSymbolTableRecord
100
AcDbLayerTableRecord
2
PIANI
70
0
62
7
6
CONTINUOUS
370
-3
390
F
0
LAYER
5
204
100
AcDbSymbolTableRecord
100
AcDbLayerTableRecord
2
PIANI_ORIGINE
70
0
62
7
6
CONTINUOUS
370
-3
390
F
0
LAYER
5
205
100
AcDbSymbolTableRecord
100
AcDbLayerTableRecord
2
PIANI_RIFERIMENTO
70
0
62
7
6
CONTINUOUS
370
-3
390
F
0
LAYER
5
206
100
AcDbSymbolTableRecord
100
AcDbLayerTableRecord
2
PUNTI
70
0
62
7
6
CONTINUOUS
370
-3
390
F
0
LAYER
5
207
100
AcDbSymbolTableRecord
100
AcDbLayerTableRecord
2
RACCORDO
70
0
62
7
6
CONTINUOUS
370
-3
390
F
0
LAYER
5
208
100
AcDbSymbolTableRecord
100
AcDbLayerTableRecord
2
SCRITTE
70
0
62
7
6
CONTINUOUS
370
-3
390
F
0
LAYER
5
209
100
AcDbSymbolTableRecord
100
AcDbLayerTableRecord
2
SNAPLINE
70
0
62
7
6
CONTINUOUS
370
-3
390
F
0
LAYER
5
20A
100
AcDbSymbolTableRecord
100
AcDbLayerTableRecord
2
SUPERFICI
70
0
62
7
6
CONTINUOUS
370
-3
390
F
0
LAYER
5
20B
100
AcDbSymbolTableRecord
100
AcDbLayerTableRecord
2
TRASH
70
0
62
7
6
CONTINUOUS
370
-3
390
F
0
ENDTAB
0
TABLE
2
STYLE
5
3
100
AcDbSymbolTable
70
1
0
STYLE
5
11
100
AcDbSymbolTableRecord
100
AcDbTextStyleTableRecord
2
STANDARD
70
0
40
0.0
41
0.8000000000
50
0.0
71
0
42
0.2
3
txt
4

0
ENDTAB
0
TABLE
2
VIEW
5
6
100
AcDbSymbolTable
70
0
0
ENDTAB
0
TABLE
2
UCS
5
7
100
AcDbSymbolTable
70
0
0
ENDTAB
0
TABLE
2
APPID
5
9
100
AcDbSymbolTable
70
1
0
APPID
5
20C
100
AcDbSymbolTableRecord
100
AcDbRegAppTableRecord
2
ACAD
70
0
0
ENDTAB
0
TABLE
2
BLOCK_RECORD
5
1
100
AcDbSymbolTable
70
0
0
BLOCK_RECORD
5
1F
100
AcDbSymbolTableRecord
100
AcDbBlockTableRecord
2
*MODEL_SPACE
0
BLOCK_RECORD
5
1B
100
AcDbSymbolTableRecord
100
AcDbBlockTableRecord
2
*PAPER_SPACE
0
BLOCK_RECORD
5
20D
100
AcDbSymbolTableRecord
100
AcDbBlockTableRecord
2
_FILLED
0
BLOCK_RECORD
5
20E
100
AcDbSymbolTableRecord
100
AcDbBlockTableRecord
2
*D0
0
BLOCK_RECORD
5
20F
100
AcDbSymbolTableRecord
100
AcDbBlockTableRecord
2
*D1
0
BLOCK_RECORD
5
210
100
AcDbSymbolTableRecord
100
AcDbBlockTableRecord
2
*D2
0
BLOCK_RECORD
5
211
100
AcDbSymbolTableRecord
100
AcDbBlockTableRecord
2
*D3
0
ENDTAB
0
TABLE
2
DIMSTYLE
5
A
100
AcDbSymbolTable
70
1
100
AcDbDimStyleTable
71
0
0
DIMSTYLE
105
212
100
AcDbSymbolTableRecord
100
AcDbDimStyleTableRecord
2
STANDARD
70
0
3

4

40
1.0
41
3.0000000000
42
0.0625
43
0.38
44
0.18
45
0.0
46
0.0
47
0.0100000000
48
0.0100000000
140
3.0000000000
141
0.09
142
0.0
143
25.4
144
1.0000000000
145
0.0
146
1.0000000000
147
0.09
71
1
72
0
73
0
74
0
75
0
76
0
77
1
78
8
170
0
171
2
172
0
173
0
174
0
175
0
176
0
177
0
178
0
270
2
271
2
272
2
273
2
274
2
275
0
280
0
281
0
282
0
283
1
284
8
285
0
286
0
287
3
288
0
340
11
341
20D
342
20D
343
20D
344
20D
0
DIMSTYLE
105
213
100
AcDbSymbolTableRecord
100
AcDbDimStyleTableRecord
2
DIMSTYLE_1
70
0
3

4

40
1.0
41
3.0000000000
42
0.0625
43
0.38
44
0.18
45
0.0
46
0.0
47
0.0000000000
48
0.0000000000
140
3.0000000000
141
0.09
142
0.0
143
25.4
144
1.0000000000
145
0.0
146
1.0000000000
147
0.09
71
0
72
0
73
0
74
0
75
0
76
0
77
1
78
8
170
0
171
2
172
0
173
0
174
0
175
0
176
0
177
0
178
0
270
2
271
2
272
2
273
2
274
2
275
0
280
0
281
0
282
0
283
1
284
8
285
0
286
0
287
3
288
0
340
11
341
20D
342
20D
343
20D
344
20D
0
ENDTAB
0
ENDSEC
0
SECTION
2
BLOCKS
0
BLOCK
5
20
100
AcDbEntity
8
0
100
AcDbBlockBegin
2
*MODEL_SPACE
70
0
10
0.0
20
0.0
30
0.0
3
*MODEL_SPACE
1

0
ENDBLK
5
21
100
AcDbEntity
8
0
100
AcDbBlockEnd
0
BLOCK
5
1C
100
AcDbEntity
8
0
100
AcDbBlockBegin
2
*PAPER_SPACE
70
0
10
0.0
20
0.0
30
0.0
3
*PAPER_SPACE
1

0
ENDBLK
5
1D
100
AcDbEntity
8
0
100
AcDbBlockEnd
0
BLOCK
5
214
100
AcDbEntity
8
0
100
AcDbBlockBegin
62
0
6
CONTINUOUS
2
*D0
70
65
10
0.0000000000
20
0.0000000000
3
*D0
1

0
TEXT
5
215
100
AcDbEntity
8
0
100
AcDbText
62
0
6
CONTINUOUS
10
-42.5053200257
20
37.1500000000
7
STANDARD
40
3.0000000000
1
12
41
0.6785714286
72
0
100
AcDbText
0
LINE
5
216
100
AcDbEntity
8
0
100
AcDbLine
62
0
6
CONTINUOUS
10
-34.4460414346
20
1.7185839459
11
-34.4460414346
21
37.9000000000
0
LINE
5
217
100
AcDbEntity
8
0
100
AcDbLine
62
0
6
CONTINUOUS
10
-46.4460414346
20
0.5000000000
11
-46.4460414346
21
37.9000000000
0
LINE
5
218
100
AcDbEntity
8
0
100
AcDbLine
62
0
6
CONTINUOUS
10
-34.4460414346
20
36.4000000000
11
-40.4460414346
21
36.4000000000
0
LINE
5
219
100
AcDbEntity
8
0
100
AcDbLine
62
0
6
CONTINUOUS
10
-46.4460414346
20
36.4000000000
11
-40.4460414346
21
36.4000000000
0
INSERT
5
21A
100
AcDbEntity
8
0
100
AcDbBlockReference
62
0
6
CONTINUOUS
2
_FILLED
10
-34.4460414346
20
36.4000000000
41
  3.000000
42
  3.000000
43
  3.000000
0
INSERT
5
21B
100
AcDbEntity
8
0
100
AcDbBlockReference
62
0
6
CONTINUOUS
2
_FILLED
10
-46.4460414346
20
36.4000000000
41
  3.000000
42
  3.000000
43
  3.000000
50
180.000000
0
ENDBLK
5
21C
100
AcDbEntity
8
0
6
BYBLOCK
62
0
100
AcDbBlockEnd
0
BLOCK
5
21D
100
AcDbEntity
8
0
100
AcDbBlockBegin
62
0
6
CONTINUOUS
2
*D1
70
65
10
0.0000000000
20
0.0000000000
3
*D1
1

0
TEXT
5
21E
100
AcDbEntity
8
0
100
AcDbText
62
0
6
CONTINUOUS
10
-45.6318881779
20
27.1500000000
7
STANDARD
40
3.0000000000
1
7,2
41
0.7142857143
72
0
100
AcDbText
0
LINE
5
21F
100
AcDbEntity
8
0
100
AcDbLine
62
0
6
CONTINUOUS
10
-39.2460414346
20
18.5962952155
11
-39.2460414346
21
27.9000000000
0
LINE
5
220
100
AcDbEntity
8
0
100
AcDbLine
62
0
6
CONTINUOUS
10
-46.4460414346
20
0.5000000000
11
-46.4460414346
21
27.9000000000
0
LINE
5
221
100
AcDbEntity
8
0
100
AcDbLine
62
0
6
CONTINUOUS
10
-39.2460414346
20
26.4000000000
11
-35.2460414346
21
26.4000000000
0
LINE
5
222
100
AcDbEntity
8
0
100
AcDbLine
62
0
6
CONTINUOUS
10
-35.2460414346
20
26.4000000000
11
-42.8460414346
21
26.4000000000
0
LINE
5
223
100
AcDbEntity
8
0
100
AcDbLine
62
0
6
CONTINUOUS
10
-46.4460414346
20
26.4000000000
11
-50.4460414346
21
26.4000000000
0
LINE
5
224
100
AcDbEntity
8
0
100
AcDbLine
62
0
6
CONTINUOUS
10
-50.4460414346
20
26.4000000000
11
-42.8460414346
21
26.4000000000
0
INSERT
5
225
100
AcDbEntity
8
0
100
AcDbBlockReference
62
0
6
CONTINUOUS
2
_FILLED
10
-39.2460414346
20
26.4000000000
41
  3.000000
42
  3.000000
43
  3.000000
50
180.000000
0
INSERT
5
226
100
AcDbEntity
8
0
100
AcDbBlockReference
62
0
6
CONTINUOUS
2
_FILLED
10
-46.4460414346
20
26.4000000000
41
  3.000000
42
  3.000000
43
  3.000000
0
ENDBLK
5
227
100
AcDbEntity
8
0
6
BYBLOCK
62
0
100
AcDbBlockEnd
0
BLOCK
5
228
100
AcDbEntity
8
0
100
AcDbBlockBegin
62
0
6
CONTINUOUS
2
*D2
70
65
10
0.0000000000
20
0.0000000000
3
*D2
1

0
TEXT
5
229
100
AcDbEntity
8
0
100
AcDbText
62
0
6
CONTINUOUS
10
-4.5021640621
20
27.1500000000
7
STANDARD
40
3.0000000000
1
49,6
41
0.7321428571
72
0
100
AcDbText
0
LINE
5
22A
100
AcDbEntity
8
0
100
AcDbLine
62
0
6
CONTINUOUS
10
24.8000000000
20
18.5962952155
11
24.8000000000
21
27.9000000000
0
LINE
5
22B
100
AcDbEntity
8
0
100
AcDbLine
62
0
6
CONTINUOUS
10
-24.8000000000
20
18.5962952155
11
-24.8000000000
21
27.9000000000
0
LINE
5
22C
100
AcDbEntity
8
0
100
AcDbLine
62
0
6
CONTINUOUS
10
24.8000000000
20
26.4000000000
11
-0.0000000000
21
26.4000000000
0
LINE
5
22D
100
AcDbEntity
8
0
100
AcDbLine
62
0
6
CONTINUOUS
10
-24.8000000000
20
26.4000000000
11
-0.0000000000
21
26.4000000000
0
INSERT
5
22E
100
AcDbEntity
8
0
100
AcDbBlockReference
62
0
6
CONTINUOUS
2
_FILLED
10
24.8000000000
20
26.4000000000
41
  3.000000
42
  3.000000
43
  3.000000
0
INSERT
5
22F
100
AcDbEntity
8
0
100
AcDbBlockReference
62
0
6
CONTINUOUS
2
_FILLED
10
-24.8000000000
20
26.4000000000
41
  3.000000
42
  3.000000
43
  3.000000
50
180.000000
0
ENDBLK
5
230
100
AcDbEntity
8
0
6
BYBLOCK
62
0
100
AcDbBlockEnd
0
BLOCK
5
231
100
AcDbEntity
8
0
100
AcDbBlockBegin
62
0
6
CONTINUOUS
2
*D3
70
65
10
0.0000000000
20
0.0000000000
3
*D3
1

0
TEXT
5
232
100
AcDbEntity
8
0
100
AcDbText
62
0
6
CONTINUOUS
10
32.0500000000
20
-3.3192525596
7
STANDARD
40
3.0000000000
1
36,8
50
90.0000000000
41
0.7142857143
72
0
100
AcDbText
0
LINE
5
233
100
AcDbEntity
8
0
100
AcDbLine
62
0
6
CONTINUOUS
10
25.0008636137
20
-18.4000000000
11
34.3000000000
21
-18.4000000000
0
LINE
5
234
100
AcDbEntity
8
0
100
AcDbLine
62
0
6
CONTINUOUS
10
25.0008636137
20
18.4000000000
11
34.3000000000
21
18.4000000000
0
LINE
5
235
100
AcDbEntity
8
0
100
AcDbLine
62
0
6
CONTINUOUS
10
32.8000000000
20
-18.4000000000
11
32.8000000000
21
0.0000000000
0
LINE
5
236
100
AcDbEntity
8
0
100
AcDbLine
62
0
6
CONTINUOUS
10
32.8000000000
20
18.4000000000
11
32.8000000000
21
0.0000000000
0
INSERT
5
237
100
AcDbEntity
8
0
100
AcDbBlockReference
62
0
6
CONTINUOUS
2
_FILLED
10
32.8000000000
20
-18.4000000000
41
  3.000000
42
  3.000000
43
  3.000000
50
270.000000
0
INSERT
5
238
100
AcDbEntity
8
0
100
AcDbBlockReference
62
0
6
CONTINUOUS
2
_FILLED
10
32.8000000000
20
18.4000000000
41
  3.000000
42
  3.000000
43
  3.000000
50
 90.000000
0
ENDBLK
5
239
100
AcDbEntity
8
0
6
BYBLOCK
62
0
100
AcDbBlockEnd
0
BLOCK
5
23A
100
AcDbEntity
8
0
100
AcDbBlockBegin
2
_FILLED
70
64
10
0.0000000000
20
0.0000000000
3
_FILLED
1

0
SOLID
5
23B
100
AcDbEntity
8
0
6
BYBLOCK
62
0
100
AcDbTrace
10
0.0000000000
20
0.0000000000
11
-1.0000000000
21
0.3166666667
12
-1.0000000000
22
-0.3166666667
13
-1.0000000000
23
-0.3166666667
0
ENDBLK
5
23C
100
AcDbEntity
8
0
6
BYBLOCK
62
0
100
AcDbBlockEnd
0
ENDSEC
0
SECTION
2
ENTITIES
0
DIMENSION
5
23D
100
AcDbEntity
8
0
100
AcDbDimension
62
0
6
CONTINUOUS
2
*D0
10
-46.4460414346
20
36.4000000000
11
-40.4696057400
21
38.6500000000
70
160
42
12.000000
3
DIMSTYLE_1
100
AcDbAlignedDimension
13
-34.4460414346
23
1.7185839459
14
-46.4460414346
24
0.5000000000
50
180.000000
100
AcDbRotatedDimension
0
DIMENSION
5
23E
100
AcDbEntity
8
0
100
AcDbDimension
62
0
6
CONTINUOUS
2
*D1
10
-46.4460414346
20
26.4000000000
11
-42.4176024636
21
28.6500000000
70
160
42
7.200000
3
DIMSTYLE_1
100
AcDbAlignedDimension
13
-39.2460414346
23
18.5962952155
14
-46.4460414346
24
0.5000000000
50
180.000000
100
AcDbRotatedDimension
0
DIMENSION
5
23F
100
AcDbEntity
8
0
100
AcDbDimension
62
0
6
CONTINUOUS
2
*D2
10
-24.8000000000
20
26.4000000000
11
-0.1093069193
21
28.6500000000
70
160
42
49.600000
3
DIMSTYLE_1
100
AcDbAlignedDimension
13
24.8000000000
23
18.5962952155
14
-24.8000000000
24
18.5962952155
50
180.000000
100
AcDbRotatedDimension
0
DIMENSION
5
240
100
AcDbEntity
8
0
100
AcDbDimension
62
0
6
CONTINUOUS
2
*D3
10
32.8000000000
20
18.4000000000
11
30.5500000000
21
0.9664617261
70
160
42
36.800000
3
DIMSTYLE_1
100
AcDbAlignedDimension
13
25.0008636137
23
-18.4000000000
14
25.0008636137
24
18.4000000000
50
90.000000
100
AcDbRotatedDimension
0
LINE
5
241
100
AcDbEntity
8
0
100
AcDbLine
62
0
6
CONTINUOUS
10
-24.8000000000
20
18.0962952155
11
-24.8000000000
21
-18.0962952155
0
LINE
5
242
100
AcDbEntity
8
0
100
AcDbLine
62
0
6
CONTINUOUS
10
-24.6950679731
20
17.0362964381
11
-24.8000000000
21
18.0962952155
0
LINE
5
243
100
AcDbEntity
8
0
100
AcDbLine
62
0
6
CONTINUOUS
10
-24.3951136646
20
17.3317387640
11
-24.5008636137
21
18.4000000000
0
LINE
5
244
100
AcDbEntity
8
0
100
AcDbLine
62
0
6
CONTINUOUS
10
-24.8000000000
20
-18.0962952155
11
-24.6950679731
21
-17.0362964381
0
LINE
5
245
100
AcDbEntity
8
0
100
AcDbLine
62
0
6
CONTINUOUS
10
-24.5008636137
20
-18.4000000000
11
-24.3951136646
21
-17.3317387640
0
LINE
5
246
100
AcDbEntity
8
0
100
AcDbLine
62
0
6
CONTINUOUS
10
24.5008636137
20
-18.4000000000
11
-24.5008636137
21
-18.4000000000
0
LINE
5
247
100
AcDbEntity
8
0
100
AcDbLine
62
0
6
CONTINUOUS
10
-24.3951136646
20
-17.3317387640
11
24.3951136646
21
-17.3317387640
0
LINE
5
248
100
AcDbEntity
8
0
100
AcDbLine
62
0
6
CONTINUOUS
10
-24.3850259316
20
-16.3854850935
11
24.3850259316
21
-16.3854850935
0
LINE
5
249
100
AcDbEntity
8
0
100
AcDbLine
62
0
6
CONTINUOUS
10
7.9500000000
20
-14.6617552853
11
-7.9500000000
21
-14.6617552853
0
LINE
5
24A
100
AcDbEntity
8
0
100
AcDbLine
62
0
6
CONTINUOUS
10
7.9500000000
20
-14.6500000000
11
-7.9500000000
21
-14.6500000000
0
LINE
5
24B
100
AcDbEntity
8
0
100
AcDbLine
62
0
6
CONTINUOUS
10
-7.9000000000
20
-14.6000000000
11
7.9000000000
21
-14.6000000000
0
LINE
5
24C
100
AcDbEntity
8
0
100
AcDbLine
62
0
6
CONTINUOUS
10
-7.9500000000
20
-14.5500000000
11
7.9500000000
21
-14.5500000000
0
LINE
5
24D
100
AcDbEntity
8
0
100
AcDbLine
62
0
6
CONTINUOUS
10
10.0500000000
20
-12.5500000000
11
10.0623455729
21
-12.5500000000
0
LINE
5
24E
100
AcDbEntity
8
0
100
AcDbLine
62
0
6
CONTINUOUS
10
-10.0500000000
20
-12.5500000000
11
-10.0623455729
21
-12.5500000000
0
LINE
5
24F
100
AcDbEntity
8
0
100
AcDbLine
62
0
6
CONTINUOUS
10
-10.0500000000
20
-9.6938911925
11
-10.0565451508
21
-9.6873460417
0
LINE
5
250
100
AcDbEntity
8
0
100
AcDbLine
62
0
6
CONTINUOUS
10
-10.0565451508
20
-6.7126539583
11
-10.0565451508
21
-9.6873460417
0
LINE
5
251
100
AcDbEntity
8
0
100
AcDbLine
62
0
6
CONTINUOUS
10
-10.0561088075
20
-6.7126539583
11
-10.0561088075
21
-6.9000000000
0
LINE
5
252
100
AcDbEntity
8
0
100
AcDbLine
62
0
6
CONTINUOUS
10
-10.0561088075
20
-9.5000000000
11
-10.0561088075
21
-9.6873460417
0
LINE
5
253
100
AcDbEntity
8
0
100
AcDbLine
62
0
6
CONTINUOUS
10
-10.0500000000
20
-6.4500000000
11
-10.0500000000
21
-6.7061088075
0
LINE
5
254
100
AcDbEntity
8
0
100
AcDbLine
62
0
6
CONTINUOUS
10
-10.0500000000
20
-9.6938911925
11
-10.0500000000
21
-12.5500000000
0
LINE
5
255
100
AcDbEntity
8
0
100
AcDbLine
62
0
6
CONTINUOUS
10
9.9500000000
20
-11.0000000000
11
10.0565451508
21
-11.0000000000
0
LINE
5
256
100
AcDbEntity
8
0
100
AcDbLine
62
0
6
CONTINUOUS
10
-9.9500000000
20
-6.4500000000
11
-9.9500000000
21
-12.5500000000
0
LINE
5
257
100
AcDbEntity
8
0
100
AcDbLine
62
0
6
CONTINUOUS
10
-10.0565451508
20
-9.5000000000
11
-9.9500000000
21
-9.5000000000
0
LINE
5
258
100
AcDbEntity
8
0
100
AcDbLine
62
0
6
CONTINUOUS
10
-7.9500000000
20
-14.6500000000
11
-7.9500000000
21
-14.6617552853
0
LINE
5
259
100
AcDbEntity
8
0
100
AcDbLine
62
0
6
CONTINUOUS
10
-7.9500000000
20
-4.3500000000
11
-7.9500000000
21
-4.3362300640
0
LINE
5
25A
100
AcDbEntity
8
0
100
AcDbLine
62
0
6
CONTINUOUS
10
-10.0565451508
20
-6.9000000000
11
-9.9500000000
21
-6.9000000000
0
LINE
5
25B
100
AcDbEntity
8
0
100
AcDbLine
62
0
6
CONTINUOUS
10
9.9500000000
20
-6.9000000000
11
10.0565451508
21
-6.9000000000
0
LINE
5
25C
100
AcDbEntity
8
0
100
AcDbLine
62
0
6
CONTINUOUS
10
10.0500000000
20
-6.4500000000
11
10.0635358350
21
-6.4500000000
0
LINE
5
25D
100
AcDbEntity
8
0
100
AcDbLine
62
0
6
CONTINUOUS
10
-10.0500000000
20
-6.4500000000
11
-10.0635358350
21
-6.4500000000
0
LINE
5
25E
100
AcDbEntity
8
0
100
AcDbLine
62
0
6
CONTINUOUS
10
-7.9500000000
20
-4.4500000000
11
7.9500000000
21
-4.4500000000
0
LINE
5
25F
100
AcDbEntity
8
0
100
AcDbLine
62
0
6
CONTINUOUS
10
-7.9500000000
20
-4.3500000000
11
7.9500000000
21
-4.3500000000
0
LINE
5
260
100
AcDbEntity
8
0
100
AcDbLine
62
0
6
CONTINUOUS
10
7.9500000000
20
-4.3362300640
11
-7.9500000000
21
-4.3362300640
0
LINE
5
261
100
AcDbEntity
8
0
100
AcDbLine
62
0
6
CONTINUOUS
10
-10.0500000000
20
-6.7061088075
11
-10.0565451508
21
-6.7126539583
0
LINE
5
262
100
AcDbEntity
8
0
100
AcDbLine
62
0
6
CONTINUOUS
10
10.0500000000
20
-6.7061088075
11
10.0565451508
21
-6.7126539583
0
LINE
5
263
100
AcDbEntity
8
0
100
AcDbLine
62
0
6
CONTINUOUS
10
7.9500000000
20
-14.6500000000
11
7.9500000000
21
-14.6617552853
0
LINE
5
264
100
AcDbEntity
8
0
100
AcDbLine
62
0
6
CONTINUOUS
10
7.9500000000
20
-4.3500000000
11
7.9500000000
21
-4.3362300640
0
LINE
5
265
100
AcDbEntity
8
0
100
AcDbLine
62
0
6
CONTINUOUS
10
9.9500000000
20
-6.4500000000
11
9.9500000000
21
-12.5500000000
0
LINE
5
266
100
AcDbEntity
8
0
100
AcDbLine
62
0
6
CONTINUOUS
10
10.0500000000
20
-12.5500000000
11
10.0500000000
21
-11.1938911925
0
LINE
5
267
100
AcDbEntity
8
0
100
AcDbLine
62
0
6
CONTINUOUS
10
10.0500000000
20
-6.7061088075
11
10.0500000000
21
-6.4500000000
0
LINE
5
268
100
AcDbEntity
8
0
100
AcDbLine
62
0
6
CONTINUOUS
10
10.0561088075
20
-11.1873460417
11
10.0561088075
21
-11.0000000000
0
LINE
5
269
100
AcDbEntity
8
0
100
AcDbLine
62
0
6
CONTINUOUS
10
10.0561088075
20
-6.9000000000
11
10.0561088075
21
-6.7126539583
0
LINE
5
26A
100
AcDbEntity
8
0
100
AcDbLine
62
0
6
CONTINUOUS
10
10.0565451508
20
-6.7126539583
11
10.0565451508
21
-11.1873460417
0
LINE
5
26B
100
AcDbEntity
8
0
100
AcDbLine
62
0
6
CONTINUOUS
10
10.0500000000
20
-11.1938911925
11
10.0565451508
21
-11.1873460417
0
LINE
5
26C
100
AcDbEntity
8
0
100
AcDbLine
62
0
6
CONTINUOUS
10
-24.3850259316
20
16.3854850935
11
24.3850259316
21
16.3854850935
0
LINE
5
26D
100
AcDbEntity
8
0
100
AcDbLine
62
0
6
CONTINUOUS
10
-24.3951136646
20
17.3317387640
11
24.3951136646
21
17.3317387640
0
LINE
5
26E
100
AcDbEntity
8
0
100
AcDbLine
62
0
6
CONTINUOUS
10
24.5008636137
20
18.4000000000
11
-24.5008636137
21
18.4000000000
0
LINE
5
26F
100
AcDbEntity
8
0
100
AcDbLine
62
0
6
CONTINUOUS
10
24.3951136646
20
-17.3317387640
11
24.5008636137
21
-18.4000000000
0
LINE
5
270
100
AcDbEntity
8
0
100
AcDbLine
62
0
6
CONTINUOUS
10
24.6950679731
20
-17.0362964381
11
24.8000000000
21
-18.0962952155
0
LINE
5
271
100
AcDbEntity
8
0
100
AcDbLine
62
0
6
CONTINUOUS
10
24.5008636137
20
18.4000000000
11
24.3951136646
21
17.3317387640
0
LINE
5
272
100
AcDbEntity
8
0
100
AcDbLine
62
0
6
CONTINUOUS
10
24.8000000000
20
18.0962952155
11
24.6950679731
21
17.0362964381
0
LINE
5
273
100
AcDbEntity
8
0
100
AcDbLine
62
0
6
CONTINUOUS
10
24.8000000000
20
18.0962952155
11
24.8000000000
21
-18.0962952155
0
LINE
5
274
100
AcDbEntity
8
0
100
AcDbLine
62
0
6
CONTINUOUS
10
-45.3044519610
20
-17.3317387640
11
-39.2460414346
21
-18.4000000000
0
LINE
5
275
100
AcDbEntity
8
0
100
AcDbLine
62
0
6
CONTINUOUS
10
-45.2575932296
20
-17.0362964381
11
-39.2460414346
21
-18.0962952155
0
LINE
5
276
100
AcDbEntity
8
0
100
AcDbLine
62
0
6
CONTINUOUS
10
-45.8355190657
20
-16.3739188688
11
-46.1300602536
21
-16.3854850918
0
LINE
5
277
100
AcDbEntity
8
0
100
AcDbLine
62
0
6
CONTINUOUS
10
-39.2460414346
20
-1.2353391747
11
-34.4460414346
21
-1.2185839459
0
LINE
5
278
100
AcDbEntity
8
0
100
AcDbLine
62
0
6
CONTINUOUS
10
-39.2460414346
20
18.4000000000
11
-39.2460414346
21
-18.4000000000
0
LINE
5
279
100
AcDbEntity
8
0
100
AcDbLine
62
0
6
CONTINUOUS
10
-39.2460414346
20
1.2353391747
11
-34.4460414346
21
1.2185839459
0
LINE
5
27A
100
AcDbEntity
8
0
100
AcDbLine
62
0
6
CONTINUOUS
10
-34.4460414346
20
1.2185839459
11
-34.4460414346
21
-1.2185839459
0
LINE
5
27B
100
AcDbEntity
8
0
100
AcDbLine
62
0
6
CONTINUOUS
10
-45.8355190657
20
16.3739188688
11
-46.1300602982
21
16.3854850935
0
LINE
5
27C
100
AcDbEntity
8
0
100
AcDbLine
62
0
6
CONTINUOUS
10
-39.2460414346
20
18.0962952155
11
-45.2575932296
21
17.0362964381
0
LINE
5
27D
100
AcDbEntity
8
0
100
AcDbLine
62
0
6
CONTINUOUS
10
-39.2460414346
20
18.4000000000
11
-45.3044519610
21
17.3317387640
0
CIRCLE
5
27E
100
AcDbEntity
8
0
100
AcDbCircle
62
0
6
CONTINUOUS
10
-0.0000000000
20
0.0000000000
40
1.2250000000
0
CIRCLE
5
27F
100
AcDbEntity
8
0
100
AcDbCircle
62
0
6
CONTINUOUS
10
-0.0000000000
20
0.0000000000
40
1.0459181267
0
ARC
5
280
100
AcDbEntity
8
0
100
AcDbCircle
62
0
6
CONTINUOUS
10
-7.9000000000
20
-12.6000000000
40
2.0000000000
100
AcDbArc
50
224.7163345880
51
270.0000000000
0
ARC
5
281
100
AcDbEntity
8
0
100
AcDbCircle
62
0
6
CONTINUOUS
10
7.9000000000
20
-12.6000000000
40
2.0000000000
100
AcDbArc
50
270.0000000000
51
315.2843596918
0
ARC
5
282
100
AcDbEntity
8
0
100
AcDbCircle
62
0
6
CONTINUOUS
10
-7.9500000000
20
-12.5500000000
40
2.0000000000
100
AcDbArc
50
180.0000000000
51
270.0000000000
0
ARC
5
283
100
AcDbEntity
8
0
100
AcDbCircle
62
0
6
CONTINUOUS
10
-7.9500000000
20
-6.4500000000
40
2.0000000000
100
AcDbArc
50
90.0000000000
51
180.0000000000
0
ARC
5
284
100
AcDbEntity
8
0
100
AcDbCircle
62
0
6
CONTINUOUS
10
7.9500000000
20
-12.5500000000
40
2.0000000000
100
AcDbArc
50
270.0000000000
51
360.0000000000
0
ARC
5
285
100
AcDbEntity
8
0
100
AcDbCircle
62
0
6
CONTINUOUS
10
7.9500000000
20
-6.4500000000
40
2.0000000000
100
AcDbArc
50
0.0000000000
51
90.0000000000
0
CIRCLE
5
286
100
AcDbEntity
8
0
100
AcDbCircle
62
0
6
CONTINUOUS
10
-0.0000000000
20
0.0000000000
40
1.2500000000
0
ARC
5
287
100
AcDbEntity
8
0
100
AcDbCircle
62
0
6
CONTINUOUS
10
7.9500000000
20
-12.5500000000
40
2.1000000000
100
AcDbArc
50
270.0000000000
51
360.0000000000
0
ARC
5
288
100
AcDbEntity
8
0
100
AcDbCircle
62
0
6
CONTINUOUS
10
-7.9500000000
20
-12.5500000000
40
2.1000000000
100
AcDbArc
50
180.0000000000
51
270.0000000000
0
ARC
5
289
100
AcDbEntity
8
0
100
AcDbCircle
62
0
6
CONTINUOUS
10
-7.9500000000
20
-6.4500000000
40
2.1000000000
100
AcDbArc
50
90.0000000000
51
180.0000000000
0
ARC
5
28A
100
AcDbEntity
8
0
100
AcDbCircle
62
0
6
CONTINUOUS
10
7.9500000000
20
-6.4500000000
40
2.1000000000
100
AcDbArc
50
0.0000000000
51
90.0000000000
0
ARC
5
28B
100
AcDbEntity
8
0
100
AcDbCircle
62
0
6
CONTINUOUS
10
-45.1308037833
20
16.3469310110
40
1.0000000000
100
AcDbArc
50
100.0000000000
51
177.7904661733
0
ARC
5
28C
100
AcDbEntity
8
0
100
AcDbCircle
62
0
6
CONTINUOUS
10
378.5539585654
20
-0.0000000000
40
425.0000000000
100
AcDbArc
50
177.7904661733
51
182.2095338267
0
ARC
5
28D
100
AcDbEntity
8
0
100
AcDbCircle
62
0
6
CONTINUOUS
10
-45.1308037833
20
-16.3469310110
40
1.0000000000
100
AcDbArc
50
182.2095338267
51
260.0000000000
0
SPLINE
5
28E
100
AcDbEntity
8
0
100
AcDbSpline
62
0
6
CONTINUOUS
70
0
71
3
72
21
73
17
74
15
42
0.0000001000
43
0.0000001000
44
0.0000000001
12
-0.4732934017
22
0.0000000000
32
0.0000000000
13
0.0000000000
23
0.4732934017
33
0.0000000000
40
0.0000000000
40
0.0000000000
40
0.0000000000
40
0.0000000000
40
0.0701557286
40
0.1407494898
40
0.2113035808
40
0.2816602098
40
0.3525770160
40
0.4238147851
40
0.4949398023
40
0.5662715703
40
0.6382459406
40
0.7103943951
40
0.7823476459
40
0.8547745344
40
0.9275102805
40
1.0000000000
40
1.0000000000
40
1.0000000000
40
1.0000000000
10
-24.5008636137
20
-18.4000000000
30
0.0000000000
10
-24.5119316948
20
-18.4000000000
30
0.0000000000
10
-24.5341571496
20
-18.3987498265
30
0.0000000000
10
-24.5670850448
20
-18.3931295627
30
0.0000000000
10
-24.5992031509
20
-18.3838209974
30
0.0000000000
10
-24.6301162990
20
-18.3709413879
30
0.0000000000
10
-24.6594815330
20
-18.3546161052
30
0.0000000000
10
-24.6869193236
20
-18.3350156933
30
0.0000000000
10
-24.7120299307
20
-18.3124141833
30
0.0000000000
10
-24.7345322471
20
-18.2870591791
30
0.0000000000
10
-24.7541487590
20
-18.2592120490
30
0.0000000000
10
-24.7705704132
20
-18.2292573964
30
0.0000000000
10
-24.7835788425
20
-18.1975947425
30
0.0000000000
10
-24.7930126759
20
-18.1645913911
30
0.0000000000
10
-24.7987267075
20
-18.1306632907
30
0.0000000000
10
-24.8000000000
20
-18.1077315175
30
0.0000000000
10
-24.8000000000
20
-18.0962952155
30
0.0000000000
11
-24.5008636137
21
-18.4000000000
31
0.0000000000
11
-24.5340153955
21
-18.3981342190
31
0.0000000000
11
-24.5669508211
21
-18.3925137051
31
0.0000000000
11
-24.5990240046
21
-18.3832191348
31
0.0000000000
11
-24.6297628788
21
-18.3704141796
31
0.0000000000
11
-24.6590998492
21
-18.3541072821
31
0.0000000000
11
-24.6865367185
21
-18.3345110697
31
0.0000000000
11
-24.7115593557
21
-18.3119929595
31
0.0000000000
11
-24.7339715461
21
-18.2867444138
31
0.0000000000
11
-24.7535920399
21
-18.2588973299
31
0.0000000000
11
-24.7700100887
21
-18.2289558580
31
0.0000000000
11
-24.7829541844
21
-18.1974567575
31
0.0000000000
11
-24.7923777943
21
-18.1644983449
31
0.0000000000
11
-24.7980961851
21
-18.1305512590
31
0.0000000000
11
-24.8000000000
21
-18.0962952155
31
0.0000000000
0
SPLINE
5
28F
100
AcDbEntity
8
0
100
AcDbSpline
62
0
6
CONTINUOUS
70
0
71
3
72
21
73
17
74
15
42
0.0000001000
43
0.0000001000
44
0.0000000001
12
0.0000000000
22
0.4732934017
32
0.0000000000
13
0.4732934017
23
0.0000000000
33
0.0000000000
40
0.0000000000
40
0.0000000000
40
0.0000000000
40
0.0000000000
40
0.0724897195
40
0.1452254656
40
0.2176523541
40
0.2896056049
40
0.3617540594
40
0.4337284297
40
0.5050601977
40
0.5761852149
40
0.6474229840
40
0.7183397902
40
0.7886964192
40
0.8592505102
40
0.9298442714
40
1.0000000000
40
1.0000000000
40
1.0000000000
40
1.0000000000
10
-24.8000000000
20
18.0962952155
30
0.0000000000
10
-24.8000000000
20
18.1077315175
30
0.0000000000
10
-24.7987267075
20
18.1306632907
30
0.0000000000
10
-24.7930126759
20
18.1645913911
30
0.0000000000
10
-24.7835788425
20
18.1975947425
30
0.0000000000
10
-24.7705704132
20
18.2292573964
30
0.0000000000
10
-24.7541487590
20
18.2592120490
30
0.0000000000
10
-24.7345322471
20
18.2870591791
30
0.0000000000
10
-24.7120299307
20
18.3124141833
30
0.0000000000
10
-24.6869193236
20
18.3350156933
30
0.0000000000
10
-24.6594815330
20
18.3546161052
30
0.0000000000
10
-24.6301162990
20
18.3709413879
30
0.0000000000
10
-24.5992031509
20
18.3838209974
30
0.0000000000
10
-24.5670850448
20
18.3931295627
30
0.0000000000
10
-24.5341571496
20
18.3987498265
30
0.0000000000
10
-24.5119316948
20
18.4000000000
30
0.0000000000
10
-24.5008636137
20
18.4000000000
30
0.0000000000
11
-24.8000000000
21
18.0962952155
31
0.0000000000
11
-24.7980961851
21
18.1305512590
31
0.0000000000
11
-24.7923777943
21
18.1644983449
31
0.0000000000
11
-24.7829541844
21
18.1974567575
31
0.0000000000
11
-24.7700100887
21
18.2289558580
31
0.0000000000
11
-24.7535920399
21
18.2588973299
31
0.0000000000
11
-24.7339715461
21
18.2867444138
31
0.0000000000
11
-24.7115593557
21
18.3119929595
31
0.0000000000
11
-24.6865367185
21
18.3345110697
31
0.0000000000
11
-24.6590998492
21
18.3541072821
31
0.0000000000
11
-24.6297628788
21
18.3704141796
31
0.0000000000
11
-24.5990240046
21
18.3832191348
31
0.0000000000
11
-24.5669508211
21
18.3925137051
31
0.0000000000
11
-24.5340153955
21
18.3981342190
31
0.0000000000
11
-24.5008636137
21
18.4000000000
31
0.0000000000
0
SPLINE
5
290
100
AcDbEntity
8
0
100
AcDbSpline
62
0
6
CONTINUOUS
70
0
71
3
72
21
73
17
74
15
42
0.0000001000
43
0.0000001000
44
0.0000000001
12
0.4732934017
22
0.0000000000
32
0.0000000000
13
0.0000000000
23
-0.4732934017
33
0.0000000000
40
0.0000000000
40
0.0000000000
40
0.0000000000
40
0.0000000000
40
0.0701557286
40
0.1407494898
40
0.2113035808
40
0.2816602098
40
0.3525770160
40
0.4238147851
40
0.4949398023
40
0.5662715703
40
0.6382459406
40
0.7103943951
40
0.7823476459
40
0.8547745344
40
0.9275102805
40
1.0000000000
40
1.0000000000
40
1.0000000000
40
1.0000000000
10
24.5008636137
20
18.4000000000
30
0.0000000000
10
24.5119316948
20
18.4000000000
30
0.0000000000
10
24.5341571496
20
18.3987498265
30
0.0000000000
10
24.5670850448
20
18.3931295627
30
0.0000000000
10
24.5992031509
20
18.3838209974
30
0.0000000000
10
24.6301162990
20
18.3709413879
30
0.0000000000
10
24.6594815330
20
18.3546161052
30
0.0000000000
10
24.6869193236
20
18.3350156933
30
0.0000000000
10
24.7120299307
20
18.3124141833
30
0.0000000000
10
24.7345322471
20
18.2870591791
30
0.0000000000
10
24.7541487590
20
18.2592120490
30
0.0000000000
10
24.7705704132
20
18.2292573964
30
0.0000000000
10
24.7835788425
20
18.1975947425
30
0.0000000000
10
24.7930126759
20
18.1645913911
30
0.0000000000
10
24.7987267075
20
18.1306632907
30
0.0000000000
10
24.8000000000
20
18.1077315175
30
0.0000000000
10
24.8000000000
20
18.0962952155
30
0.0000000000
11
24.5008636137
21
18.4000000000
31
0.0000000000
11
24.5340153955
21
18.3981342190
31
0.0000000000
11
24.5669508211
21
18.3925137051
31
0.0000000000
11
24.5990240046
21
18.3832191348
31
0.0000000000
11
24.6297628788
21
18.3704141796
31
0.0000000000
11
24.6590998492
21
18.3541072821
31
0.0000000000
11
24.6865367185
21
18.3345110697
31
0.0000000000
11
24.7115593557
21
18.3119929595
31
0.0000000000
11
24.7339715461
21
18.2867444138
31
0.0000000000
11
24.7535920399
21
18.2588973299
31
0.0000000000
11
24.7700100887
21
18.2289558580
31
0.0000000000
11
24.7829541844
21
18.1974567575
31
0.0000000000
11
24.7923777943
21
18.1644983449
31
0.0000000000
11
24.7980961851
21
18.1305512590
31
0.0000000000
11
24.8000000000
21
18.0962952155
31
0.0000000000
0
SPLINE
5
291
100
AcDbEntity
8
0
100
AcDbSpline
62
0
6
CONTINUOUS
70
0
71
3
72
21
73
17
74
15
42
0.0000001000
43
0.0000001000
44
0.0000000001
12
0.0000000000
22
-0.4732934017
32
0.0000000000
13
-0.4732934017
23
-0.0000000000
33
0.0000000000
40
0.0000000000
40
0.0000000000
40
0.0000000000
40
0.0000000000
40
0.0724897195
40
0.1452254656
40
0.2176523541
40
0.2896056049
40
0.3617540594
40
0.4337284297
40
0.5050601977
40
0.5761852149
40
0.6474229840
40
0.7183397902
40
0.7886964192
40
0.8592505102
40
0.9298442714
40
1.0000000000
40
1.0000000000
40
1.0000000000
40
1.0000000000
10
24.8000000000
20
-18.0962952155
30
0.0000000000
10
24.8000000000
20
-18.1077315175
30
0.0000000000
10
24.7987267075
20
-18.1306632907
30
0.0000000000
10
24.7930126759
20
-18.1645913911
30
0.0000000000
10
24.7835788425
20
-18.1975947425
30
0.0000000000
10
24.7705704132
20
-18.2292573964
30
0.0000000000
10
24.7541487590
20
-18.2592120490
30
0.0000000000
10
24.7345322471
20
-18.2870591791
30
0.0000000000
10
24.7120299307
20
-18.3124141833
30
0.0000000000
10
24.6869193236
20
-18.3350156933
30
0.0000000000
10
24.6594815330
20
-18.3546161052
30
0.0000000000
10
24.6301162990
20
-18.3709413879
30
0.0000000000
10
24.5992031509
20
-18.3838209974
30
0.0000000000
10
24.5670850448
20
-18.3931295627
30
0.0000000000
10
24.5341571496
20
-18.3987498265
30
0.0000000000
10
24.5119316948
20
-18.4000000000
30
0.0000000000
10
24.5008636137
20
-18.4000000000
30
0.0000000000
11
24.8000000000
21
-18.0962952155
31
0.0000000000
11
24.7980961851
21
-18.1305512590
31
0.0000000000
11
24.7923777943
21
-18.1644983449
31
0.0000000000
11
24.7829541844
21
-18.1974567575
31
0.0000000000
11
24.7700100887
21
-18.2289558580
31
0.0000000000
11
24.7535920399
21
-18.2588973299
31
0.0000000000
11
24.7339715461
21
-18.2867444138
31
0.0000000000
11
24.7115593557
21
-18.3119929595
31
0.0000000000
11
24.6865367185
21
-18.3345110697
31
0.0000000000
11
24.6590998492
21
-18.3541072821
31
0.0000000000
11
24.6297628788
21
-18.3704141796
31
0.0000000000
11
24.5990240046
21
-18.3832191348
31
0.0000000000
11
24.5669508211
21
-18.3925137051
31
0.0000000000
11
24.5340153955
21
-18.3981342190
31
0.0000000000
11
24.5008636137
21
-18.4000000000
31
0.0000000000
0
SPLINE
5
292
100
AcDbEntity
8
0
100
AcDbSpline
62
0
6
CONTINUOUS
70
0
71
3
72
10
73
6
74
4
42
0.0000001000
43
0.0000001000
44
0.0000000001
12
-0.0015726514
22
6.0999999170
32
0.0000000000
13
-0.0008079957
23
6.1000000662
33
0.0000000000
40
0.0000000000
40
0.0000000000
40
0.0000000000
40
0.0000000000
40
0.3332963982
40
0.6666322759
40
1.0000000000
40
1.0000000000
40
1.0000000000
40
1.0000000000
10
-10.0623455729
20
-12.5500000000
30
0.0000000000
10
-10.0625202925
20
-11.8722973328
30
0.0000000000
10
-10.0628414217
20
-10.5168117161
30
0.0000000000
10
-10.0632381712
20
-8.4834783811
30
0.0000000000
10
-10.0634460485
20
-7.1278477130
30
0.0000000000
10
-10.0635358350
20
-6.4500000000
30
0.0000000000
11
-10.0623455729
21
-12.5500000000
31
0.0000000000
11
-10.0628272436
21
-10.5168919880
31
0.0000000000
11
-10.0632240006
21
-8.4835431330
31
0.0000000000
11
-10.0635358350
21
-6.4500000000
31
0.0000000000
0
SPLINE
5
293
100
AcDbEntity
8
0
100
AcDbSpline
62
0
6
CONTINUOUS
70
0
71
3
72
53
73
49
74
47
42
0.0000001000
43
0.0000001000
44
0.0000000001
12
0.0000000000
22
-7.8352824469
32
0.0000000000
13
0.0000000000
23
7.8352824469
33
0.0000000000
40
0.0000000000
40
0.0000000000
40
0.0000000000
40
0.0000000000
40
0.0216297225
40
0.0432714177
40
0.0649021541
40
0.0865565552
40
0.1081997555
40
0.1298687968
40
0.1515374670
40
0.1732219214
40
0.1949237680
40
0.2166264549
40
0.2383599994
40
0.2600892288
40
0.2818509279
40
0.3036127406
40
0.3253969325
40
0.3471936789
40
0.3689941777
40
0.3908187683
40
0.4126349545
40
0.4344772448
40
0.4563081729
40
0.4781569837
40
0.5000005538
40
0.5218440320
40
0.5436929207
40
0.5655238225
40
0.5873660912
40
0.6091823223
40
0.6310068022
40
0.6528074003
40
0.6746040023
40
0.6963882875
40
0.7181500656
40
0.7399117298
40
0.7616410439
40
0.7833744355
40
0.8050772747
40
0.8267789191
40
0.8484635085
40
0.8701321134
40
0.8918011255
40
0.9134444429
40
0.9350986460
40
0.9567295945
40
0.9783710358
40
1.0000000000
40
1.0000000000
40
1.0000000000
40
1.0000000000
10
2.5000000000
20
-0.0000000000
30
0.0000000000
10
2.5000000000
20
-0.0564916616
30
0.0000000000
10
2.4961325952
20
-0.1695443758
30
0.0000000000
10
2.4787552144
20
-0.3382867943
30
0.0000000000
10
2.4498733212
20
-0.5055182963
30
0.0000000000
10
2.4096276449
20
-0.6703865022
30
0.0000000000
10
2.3581782942
20
-0.8322143996
30
0.0000000000
10
2.2957776435
20
-0.9901832771
30
0.0000000000
10
2.2226827288
20
-1.1436163711
30
0.0000000000
10
2.1392361058
20
-1.2917730386
30
0.0000000000
10
2.0458156128
20
-1.4339581422
30
0.0000000000
10
1.9428275698
20
-1.5695348210
30
0.0000000000
10
1.8307768962
20
-1.6978183970
30
0.0000000000
10
1.7101232848
20
-1.8182641134
30
0.0000000000
10
1.5814766137
20
-1.9302452900
30
0.0000000000
10
1.4453757011
20
-2.0332754369
30
0.0000000000
10
1.3024884040
20
-2.1268339950
30
0.0000000000
10
1.1534652049
20
-2.2104796700
30
0.0000000000
10
0.9989913173
20
-2.2838170245
30
0.0000000000
10
0.8398301617
20
-2.3464726022
30
0.0000000000
10
0.6766653413
20
-2.3981688105
30
0.0000000000
10
0.5103407666
20
-2.4386306901
30
0.0000000000
10
0.3415621170
20
-2.4676803705
30
0.0000000000
10
0.1711930166
20
-2.4851649091
30
0.0000000000
10
-0.0000041051
20
-2.4910023349
30
0.0000000000
10
-0.1712014092
20
-2.4851643348
30
0.0000000000
10
-0.3415703484
20
-2.4676792458
30
0.0000000000
10
-0.5103489769
20
-2.4386289826
30
0.0000000000
10
-0.6766734104
20
-2.3981665559
30
0.0000000000
10
-0.8398378413
20
-2.3464698714
30
0.0000000000
10
-0.9989988738
20
-2.2838137470
30
0.0000000000
10
-1.1534721589
20
-2.2104760686
30
0.0000000000
10
-1.3024952018
20
-2.1268298630
30
0.0000000000
10
-1.4453820252
20
-2.0332709871
30
0.0000000000
10
-1.5814826601
20
-1.9302403714
30
0.0000000000
10
-1.7101290175
20
-1.8182587749
30
0.0000000000
10
-1.8307820603
20
-1.6978128683
30
0.0000000000
10
-1.9428324865
20
-1.5695287881
30
0.0000000000
10
-2.0458197979
20
-1.4339522158
30
0.0000000000
10
-2.1392399893
20
-1.2917666519
30
0.0000000000
10
-2.2226860195
20
-1.1436100451
30
0.0000000000
10
-2.2957805227
20
-0.9901766388
30
0.0000000000
10
-2.3581807481
20
-0.8322075304
30
0.0000000000
10
-2.4096295317
20
-0.6703797526
30
0.0000000000
10
-2.4498748200
20
-0.5055111023
30
0.0000000000
10
-2.4787561280
20
-0.3382801318
30
0.0000000000
10
-2.4961328215
20
-0.1695397476
30
0.0000000000
10
-2.5000000000
20
-0.0564896811
30
0.0000000000
10
-2.5000000000
20
0.0000000000
30
0.0000000000
11
2.5000000000
21
-0.0000000000
31
0.0000000000
11
2.4942051321
21
-0.1693758838
31
0.0000000000
11
2.4768355290
21
-0.3380527142
31
0.0000000000
11
2.4479920846
21
-0.5050632495
31
0.0000000000
11
2.4077569969
21
-0.6698919072
31
0.0000000000
11
2.3563779520
21
-0.8315018369
31
0.0000000000
11
2.2940019080
21
-0.9894116728
31
0.0000000000
11
2.2209832536
21
-1.1426878152
31
0.0000000000
11
2.1376049446
21
-1.2907262127
31
0.0000000000
11
2.0442347914
21
-1.4328376106
31
0.0000000000
11
1.9413755262
21
-1.5682475274
31
0.0000000000
11
1.8293529426
21
-1.6965015728
31
0.0000000000
11
1.7088621931
21
-1.8167871706
31
0.0000000000
11
1.5802529508
21
-1.9287380623
31
0.0000000000
11
1.4443050040
21
-2.0316545260
31
0.0000000000
11
1.3015080422
21
-2.1251558519
31
0.0000000000
11
1.1525811647
21
-2.2087491843
31
0.0000000000
11
0.9982755387
21
-2.2820081587
31
0.0000000000
11
0.8391593510
21
-2.3446473258
31
0.0000000000
11
0.6762070313
21
-2.3962772681
31
0.0000000000
11
0.5099165747
21
-2.4367316809
31
0.0000000000
11
0.3413438872
21
-2.4657465107
31
0.0000000000
11
0.1710467876
21
-2.4832240178
31
0.0000000000
11
-0.0000043418
21
-2.4890565887
31
0.0000000000
11
-0.1710547320
21
-2.4832234753
31
0.0000000000
11
-0.3413523806
21
-2.4657453452
31
0.0000000000
11
-0.5099247676
21
-2.4367299814
31
0.0000000000
11
-0.6762149267
21
-2.3962750595
31
0.0000000000
11
-0.8391674092
21
-2.3446444670
31
0.0000000000
11
-0.9982825870
21
-2.2820051023
31
0.0000000000
11
-1.1525886797
21
-2.2087452971
31
0.0000000000
11
-1.3015143069
21
-2.1251520487
31
0.0000000000
11
-1.4443115927
21
-2.0316498830
31
0.0000000000
11
-1.5802589972
21
-1.9287331517
31
0.0000000000
11
-1.7088676899
21
-1.8167820456
31
0.0000000000
11
-1.8293585305
21
-1.6964956000
31
0.0000000000
11
-1.9413799359
21
-1.5682421161
31
0.0000000000
11
-2.0442395107
21
-1.4328309363
31
0.0000000000
11
-2.1376083723
21
-1.2907205855
31
0.0000000000
11
-2.2209867767
21
-1.1426810271
31
0.0000000000
11
-2.2940047551
21
-0.9894051294
31
0.0000000000
11
-2.3563802685
21
-0.8314953297
31
0.0000000000
11
-2.4077591114
21
-0.6698843734
31
0.0000000000
11
-2.4479933627
21
-0.5050571085
31
0.0000000000
11
-2.4768366115
21
-0.3380448523
31
0.0000000000
11
-2.4942055384
21
-0.1693699528
31
0.0000000000
11
-2.5000000000
21
0.0000000000
31
0.0000000000
0
SPLINE
5
294
100
AcDbEntity
8
0
100
AcDbSpline
62
0
6
CONTINUOUS
70
0
71
3
72
53
73
49
74
47
42
0.0000001000
43
0.0000001000
44
0.0000000001
12
0.0000000000
22
7.8352824469
32
0.0000000000
13
0.0000000000
23
-7.8352824469
33
0.0000000000
40
0.0000000000
40
0.0000000000
40
0.0000000000
40
0.0000000000
40
0.0216297225
40
0.0432714177
40
0.0649021541
40
0.0865565552
40
0.1081997555
40
0.1298687968
40
0.1515374670
40
0.1732219214
40
0.1949237680
40
0.2166264549
40
0.2383599994
40
0.2600892288
40
0.2818509279
40
0.3036127406
40
0.3253969325
40
0.3471936789
40
0.3689941777
40
0.3908187683
40
0.4126349545
40
0.4344772448
40
0.4563081729
40
0.4781569837
40
0.5000005538
40
0.5218440320
40
0.5436929207
40
0.5655238225
40
0.5873660912
40
0.6091823223
40
0.6310068022
40
0.6528074003
40
0.6746040023
40
0.6963882875
40
0.7181500656
40
0.7399117298
40
0.7616410439
40
0.7833744355
40
0.8050772747
40
0.8267789191
40
0.8484635085
40
0.8701321134
40
0.8918011255
40
0.9134444429
40
0.9350986460
40
0.9567295945
40
0.9783710358
40
1.0000000000
40
1.0000000000
40
1.0000000000
40
1.0000000000
10
-2.5000000000
20
0.0000000000
30
0.0000000000
10
-2.5000000000
20
0.0564916616
30
0.0000000000
10
-2.4961325952
20
0.1695443758
30
0.0000000000
10
-2.4787552144
20
0.3382867943
30
0.0000000000
10
-2.4498733212
20
0.5055182963
30
0.0000000000
10
-2.4096276449
20
0.6703865022
30
0.0000000000
10
-2.3581782942
20
0.8322143996
30
0.0000000000
10
-2.2957776435
20
0.9901832771
30
0.0000000000
10
-2.2226827288
20
1.1436163711
30
0.0000000000
10
-2.1392361058
20
1.2917730386
30
0.0000000000
10
-2.0458156128
20
1.4339581422
30
0.0000000000
10
-1.9428275698
20
1.5695348210
30
0.0000000000
10
-1.8307768962
20
1.6978183970
30
0.0000000000
10
-1.7101232848
20
1.8182641134
30
0.0000000000
10
-1.5814766137
20
1.9302452900
30
0.0000000000
10
-1.4453757011
20
2.0332754369
30
0.0000000000
10
-1.3024884040
20
2.1268339950
30
0.0000000000
10
-1.1534652049
20
2.2104796700
30
0.0000000000
10
-0.9989913173
20
2.2838170245
30
0.0000000000
10
-0.8398301617
20
2.3464726022
30
0.0000000000
10
-0.6766653413
20
2.3981688105
30
0.0000000000
10
-0.5103407666
20
2.4386306901
30
0.0000000000
10
-0.3415621170
20
2.4676803705
30
0.0000000000
10
-0.1711930166
20
2.4851649091
30
0.0000000000
10
0.0000041051
20
2.4910023349
30
0.0000000000
10
0.1712014092
20
2.4851643348
30
0.0000000000
10
0.3415703484
20
2.4676792458
30
0.0000000000
10
0.5103489769
20
2.4386289826
30
0.0000000000
10
0.6766734104
20
2.3981665559
30
0.0000000000
10
0.8398378413
20
2.3464698714
30
0.0000000000
10
0.9989988738
20
2.2838137470
30
0.0000000000
10
1.1534721589
20
2.2104760686
30
0.0000000000
10
1.3024952018
20
2.1268298630
30
0.0000000000
10
1.4453820252
20
2.0332709871
30
0.0000000000
10
1.5814826601
20
1.9302403714
30
0.0000000000
10
1.7101290175
20
1.8182587749
30
0.0000000000
10
1.8307820603
20
1.6978128683
30
0.0000000000
10
1.9428324865
20
1.5695287881
30
0.0000000000
10
2.0458197979
20
1.4339522158
30
0.0000000000
10
2.1392399893
20
1.2917666519
30
0.0000000000
10
2.2226860195
20
1.1436100451
30
0.0000000000
10
2.2957805227
20
0.9901766388
30
0.0000000000
10
2.3581807481
20
0.8322075304
30
0.0000000000
10
2.4096295317
20
0.6703797526
30
0.0000000000
10
2.4498748200
20
0.5055111023
30
0.0000000000
10
2.4787561280
20
0.3382801318
30
0.0000000000
10
2.4961328215
20
0.1695397476
30
0.0000000000
10
2.5000000000
20
0.0564896811
30
0.0000000000
10
2.5000000000
20
-0.0000000000
30
0.0000000000
11
-2.5000000000
21
0.0000000000
31
0.0000000000
11
-2.4942051321
21
0.1693758838
31
0.0000000000
11
-2.4768355290
21
0.3380527142
31
0.0000000000
11
-2.4479920846
21
0.5050632495
31
0.0000000000
11
-2.4077569969
21
0.6698919072
31
0.0000000000
11
-2.3563779520
21
0.8315018369
31
0.0000000000
11
-2.2940019080
21
0.9894116728
31
0.0000000000
11
-2.2209832536
21
1.1426878152
31
0.0000000000
11
-2.1376049446
21
1.2907262127
31
0.0000000000
11
-2.0442347914
21
1.4328376106
31
0.0000000000
11
-1.9413755262
21
1.5682475274
31
0.0000000000
11
-1.8293529426
21
1.6965015728
31
0.0000000000
11
-1.7088621931
21
1.8167871706
31
0.0000000000
11
-1.5802529508
21
1.9287380623
31
0.0000000000
11
-1.4443050040
21
2.0316545260
31
0.0000000000
11
-1.3015080422
21
2.1251558519
31
0.0000000000
11
-1.1525811647
21
2.2087491843
31
0.0000000000
11
-0.9982755387
21
2.2820081587
31
0.0000000000
11
-0.8391593510
21
2.3446473258
31
0.0000000000
11
-0.6762070313
21
2.3962772681
31
0.0000000000
11
-0.5099165747
21
2.4367316809
31
0.0000000000
11
-0.3413438872
21
2.4657465107
31
0.0000000000
11
-0.1710467876
21
2.4832240178
31
0.0000000000
11
0.0000043418
21
2.4890565887
31
0.0000000000
11
0.1710547320
21
2.4832234753
31
0.0000000000
11
0.3413523806
21
2.4657453452
31
0.0000000000
11
0.5099247676
21
2.4367299814
31
0.0000000000
11
0.6762149267
21
2.3962750595
31
0.0000000000
11
0.8391674092
21
2.3446444670
31
0.0000000000
11
0.9982825870
21
2.2820051023
31
0.0000000000
11
1.1525886797
21
2.2087452971
31
0.0000000000
11
1.3015143069
21
2.1251520487
31
0.0000000000
11
1.4443115927
21
2.0316498830
31
0.0000000000
11
1.5802589972
21
1.9287331517
31
0.0000000000
11
1.7088676899
21
1.8167820456
31
0.0000000000
11
1.8293585305
21
1.6964956000
31
0.0000000000
11
1.9413799359
21
1.5682421161
31
0.0000000000
11
2.0442395107
21
1.4328309363
31
0.0000000000
11
2.1376083723
21
1.2907205855
31
0.0000000000
11
2.2209867767
21
1.1426810271
31
0.0000000000
11
2.2940047551
21
0.9894051294
31
0.0000000000
11
2.3563802685
21
0.8314953297
31
0.0000000000
11
2.4077591114
21
0.6698843734
31
0.0000000000
11
2.4479933627
21
0.5050571085
31
0.0000000000
11
2.4768366115
21
0.3380448523
31
0.0000000000
11
2.4942055384
21
0.1693699528
31
0.0000000000
11
2.5000000000
21
-0.0000000000
31
0.0000000000
0
SPLINE
5
295
100
AcDbEntity
8
0
100
AcDbSpline
62
0
6
CONTINUOUS
70
0
71
3
72
29
73
25
74
23
42
0.0000001000
43
0.0000001000
44
0.0000000001
12
3.3194729536
22
0.0000000000
32
0.0000000000
13
-0.0004396918
23
-3.3194729244
33
0.0000000000
40
0.0000000000
40
0.0000000000
40
0.0000000000
40
0.0000000000
40
0.0454544980
40
0.0909089289
40
0.1363634115
40
0.1818176910
40
0.2272722065
40
0.2727265464
40
0.3181807504
40
0.3636348758
40
0.4090890718
40
0.4545434089
40
0.4999972343
40
0.5454514669
40
0.5909054313
40
0.6363600949
40
0.6818139068
40
0.7272686160
40
0.7727228337
40
0.8181777383
40
0.8636327472
40
0.9090882117
40
0.9545439194
40
1.0000000000
40
1.0000000000
40
1.0000000000
40
1.0000000000
10
7.9500000000
20
-4.3362300640
30
0.0000000000
10
8.0002949923
20
-4.3362300640
30
0.0000000000
10
8.1009218949
20
-4.3398235868
30
0.0000000000
10
8.2510634168
20
-4.3559669663
30
0.0000000000
10
8.3996783567
20
-4.3827811354
30
0.0000000000
10
8.5459995647
20
-4.4201294894
30
0.0000000000
10
8.6892838028
20
-4.4678216512
30
0.0000000000
10
8.8288001828
20
-4.5256146071
30
0.0000000000
10
8.9638375689
20
-4.5932136558
30
0.0000000000
10
9.0937079659
20
-4.6702743857
30
0.0000000000
10
9.2177497605
20
-4.7564042586
30
0.0000000000
10
9.3353303518
20
-4.8511640951
30
0.0000000000
10
9.4458507893
20
-4.9540711716
30
0.0000000000
10
9.5487474727
20
-5.0646007279
30
0.0000000000
10
9.6434968159
20
-5.1821904894
30
0.0000000000
10
9.7296149461
20
-5.3062401540
30
0.0000000000
10
9.8066636284
20
-5.4361185538
30
0.0000000000
10
9.8742494404
20
-5.5711626669
30
0.0000000000
10
9.9320285421
20
-5.7106857219
30
0.0000000000
10
9.9797059544
20
-5.8539760480
30
0.0000000000
10
10.0170387631
20
-6.0003036429
30
0.0000000000
10
10.0438363158
20
-6.1489249642
30
0.0000000000
10
10.0599618307
20
-6.2990727067
30
0.0000000000
10
10.0635424972
20
-6.3997032571
30
0.0000000000
10
10.0635358350
20
-6.4500000000
30
0.0000000000
11
7.9500000000
21
-4.3362300640
31
0.0000000000
11
8.1007888270
21
-4.3416157743
31
0.0000000000
11
8.2508089697
21
-4.3577454298
31
0.0000000000
11
8.3992962726
21
-4.3845368762
31
0.0000000000
11
8.5454931778
21
-4.4218533910
31
0.0000000000
11
8.6886560207
21
-4.4695051920
31
0.0000000000
11
8.8280538864
21
-4.5272490477
31
0.0000000000
11
8.9629765043
21
-4.5947906558
31
0.0000000000
11
9.0927364465
21
-4.6717858528
31
0.0000000000
11
9.2166728103
21
-4.7578425285
31
0.0000000000
11
9.3341540835
21
-4.8525223336
31
0.0000000000
11
9.4445798948
21
-4.9553413138
31
0.0000000000
11
9.5473896771
21
-5.0657775349
31
0.0000000000
11
9.6420578601
21
-5.1832665849
31
0.0000000000
11
9.7281038078
21
-5.3072122866
31
0.0000000000
11
9.8050860490
21
-5.4369787054
31
0.0000000000
11
9.8726151297
21
-5.5719094692
31
0.0000000000
11
9.9303446460
21
-5.7113128350
31
0.0000000000
11
9.9779817551
21
-5.8544819285
31
0.0000000000
11
10.0152827494
21
-6.0006852929
31
0.0000000000
11
10.0420575759
21
-6.1491789057
31
0.0000000000
11
10.0581693737
21
-6.2992052301
31
0.0000000000
11
10.0635358350
21
-6.4500000000
31
0.0000000000
0
SPLINE
5
296
100
AcDbEntity
8
0
100
AcDbSpline
62
0
6
CONTINUOUS
70
0
71
3
72
29
73
25
74
23
42
0.0000001000
43
0.0000001000
44
0.0000000001
12
-0.0004396918
22
3.3194729244
32
0.0000000000
13
3.3194729536
23
0.0000000000
33
0.0000000000
40
0.0000000000
40
0.0000000000
40
0.0000000000
40
0.0000000000
40
0.0454560795
40
0.0909117841
40
0.1363672528
40
0.1818222658
40
0.2272771690
40
0.2727313906
40
0.3181860964
40
0.3636399113
40
0.4090945713
40
0.4545485372
40
0.5000027675
40
0.5454565945
40
0.5909109300
40
0.6363651282
40
0.6818192506
40
0.7272734538
40
0.7727277944
40
0.8181823124
40
0.8636365887
40
0.9090910683
40
0.9545455013
40
1.0000000000
40
1.0000000000
40
1.0000000000
40
1.0000000000
10
-10.0635358350
20
-6.4500000000
30
0.0000000000
10
-10.0635424972
20
-6.3997032582
30
0.0000000000
10
-10.0599618310
20
-6.2990727125
30
0.0000000000
10
-10.0438363167
20
-6.1489249700
30
0.0000000000
10
-10.0170387634
20
-6.0003036429
30
0.0000000000
10
-9.9797059524
20
-5.8539760407
30
0.0000000000
10
-9.9320285371
20
-5.7106857080
30
0.0000000000
10
-9.8742494347
20
-5.5711626543
30
0.0000000000
10
-9.8066636199
20
-5.4361185382
30
0.0000000000
10
-9.7296149388
20
-5.3062401427
30
0.0000000000
10
-9.6434968072
20
-5.1821904780
30
0.0000000000
10
-9.5487474664
20
-5.0646007208
30
0.0000000000
10
-9.4458507819
20
-4.9540711644
30
0.0000000000
10
-9.3353303458
20
-4.8511640900
30
0.0000000000
10
-9.2177497525
20
-4.7564042525
30
0.0000000000
10
-9.0937079596
20
-4.6702743817
30
0.0000000000
10
-8.9638375638
20
-4.5932136532
30
0.0000000000
10
-8.8288001807
20
-4.5256146061
30
0.0000000000
10
-8.6892837981
20
-4.4678216493
30
0.0000000000
10
-8.5459995599
20
-4.4201294880
30
0.0000000000
10
-8.3996783556
20
-4.3827811354
30
0.0000000000
10
-8.2510634204
20
-4.3559669669
30
0.0000000000
10
-8.1009218987
20
-4.3398235869
30
0.0000000000
10
-8.0002949930
20
-4.3362300640
30
0.0000000000
10
-7.9500000000
20
-4.3362300640
30
0.0000000000
11
-10.0635358350
21
-6.4500000000
31
0.0000000000
11
-10.0581693739
21
-6.2992052336
31
0.0000000000
11
-10.0420575779
21
-6.1491789195
31
0.0000000000
11
-10.0152827494
21
-6.0006852929
31
0.0000000000
11
-9.9779817512
21
-5.8544819154
31
0.0000000000
11
-9.9303446429
21
-5.7113128266
31
0.0000000000
11
-9.8726151206
21
-5.5719094494
31
0.0000000000
11
-9.8050860439
21
-5.4369786960
31
0.0000000000
11
-9.7281037966
21
-5.3072122691
31
0.0000000000
11
-9.6420578550
21
-5.1832665781
31
0.0000000000
11
-9.5473896682
21
-5.0657775246
31
0.0000000000
11
-9.4445798904
21
-4.9553413094
31
0.0000000000
11
-9.3341540750
21
-4.8525223262
31
0.0000000000
11
-9.2166728055
21
-4.7578425249
31
0.0000000000
11
-9.0927364356
21
-4.6717858457
31
0.0000000000
11
-8.9629765013
21
-4.5947906542
31
0.0000000000
11
-8.8280538858
21
-4.5272490474
31
0.0000000000
11
-8.6886560179
21
-4.4695051909
31
0.0000000000
11
-8.5454931668
21
-4.4218533878
31
0.0000000000
11
-8.3992962720
21
-4.3845368760
31
0.0000000000
11
-8.2508089787
21
-4.3577454310
31
0.0000000000
11
-8.1007888293
21
-4.3416157744
31
0.0000000000
11
-7.9500000000
21
-4.3362300640
31
0.0000000000
0
SPLINE
5
297
100
AcDbEntity
8
0
100
AcDbSpline
62
0
6
CONTINUOUS
70
0
71
3
72
20
73
16
74
14
42
0.0000001000
43
0.0000001000
44
0.0000000001
12
0.0014365767
22
-0.4668967676
32
0.0000000000
13
0.4668968976
23
-0.0013936835
33
0.0000000000
40
0.0000000000
40
0.0000000000
40
0.0000000000
40
0.0000000000
40
0.0762841333
40
0.1526297652
40
0.2290660988
40
0.3056169935
40
0.3822995864
40
0.4591233227
40
0.5360894479
40
0.6131909793
40
0.6904131519
40
0.7677342997
40
0.8451271193
40
0.9225602381
40
1.0000000000
40
1.0000000000
40
1.0000000000
40
1.0000000000
10
-24.6950679731
20
-17.0362964381
30
0.0000000000
10
-24.6950314438
20
-17.0481687098
30
0.0000000000
10
-24.6935008119
20
-17.0719439176
30
0.0000000000
10
-24.6868694514
20
-17.1070580223
30
0.0000000000
10
-24.6759988344
20
-17.1411481566
30
0.0000000000
10
-24.6610475389
20
-17.1737118241
30
0.0000000000
10
-24.6422334532
20
-17.2042778303
30
0.0000000000
10
-24.6198305518
20
-17.2324018715
30
0.0000000000
10
-24.5941648048
20
-17.2576759790
30
0.0000000000
10
-24.5656094324
20
-17.2797335724
30
0.0000000000
10
-24.5345792358
20
-17.2982549254
30
0.0000000000
10
-24.5015253288
20
-17.3129716630
30
0.0000000000
10
-24.4669257316
20
-17.3236706017
30
0.0000000000
10
-24.4312892023
20
-17.3301967409
30
0.0000000000
10
-24.4071657927
20
-17.3317027885
30
0.0000000000
10
-24.3951136646
20
-17.3317387640
30
0.0000000000
11
-24.6950679731
21
-17.0362964381
31
0.0000000000
11
-24.6927800275
21
-17.0718398600
31
0.0000000000
11
-24.6861681498
21
-17.1068669756
31
0.0000000000
11
-24.6753283845
21
-17.1408689772
31
0.0000000000
11
-24.6604181907
21
-17.1733519482
31
0.0000000000
11
-24.6416541551
21
-17.2038440375
31
0.0000000000
11
-24.6193088457
21
-17.2319023136
31
0.0000000000
11
-24.5937068526
21
-17.2571191987
31
0.0000000000
11
-24.5652200729
21
-17.2791283893
31
0.0000000000
11
-24.5342623085
21
-17.2976101772
31
0.0000000000
11
-24.5012832551
21
-17.3122960938
31
0.0000000000
11
-24.4667619703
21
-17.3229728095
31
0.0000000000
11
-24.4311999139
21
-17.3294852330
31
0.0000000000
11
-24.3951136646
21
-17.3317387640
31
0.0000000000
0
SPLINE
5
298
100
AcDbEntity
8
0
100
AcDbSpline
62
0
6
CONTINUOUS
70
0
71
3
72
23
73
19
74
17
42
0.0000001000
43
0.0000001000
44
0.0000000001
12
0.0654167177
22
0.9440975659
32
0.0000000000
13
0.0004462523
23
0.9463611159
33
0.0000000000
40
0.0000000000
40
0.0000000000
40
0.0000000000
40
0.0000000000
40
0.0193268239
40
0.0459943367
40
0.0798153825
40
0.1205476041
40
0.1678990384
40
0.2215296910
40
0.2810535788
40
0.3460423989
40
0.4160287934
40
0.4905094767
40
0.5689484769
40
0.6507809359
40
0.7354185112
40
0.8222530022
40
0.9106576825
40
1.0000000000
40
1.0000000000
40
1.0000000000
40
1.0000000000
10
-24.3951136646
20
-17.3317387640
30
0.0000000000
10
-24.3946922321
20
-17.3256566282
30
0.0000000000
10
-24.3939484998
20
-17.3111650221
30
0.0000000000
10
-24.3929940018
20
-17.2860051114
30
0.0000000000
10
-24.3920605358
20
-17.2540878385
30
0.0000000000
10
-24.3911542682
20
-17.2156431536
30
0.0000000000
10
-24.3902873693
20
-17.1709471292
30
0.0000000000
10
-24.3894668502
20
-17.1203215092
30
0.0000000000
10
-24.3886998668
20
-17.0641307015
30
0.0000000000
10
-24.3879924452
20
-17.0027792727
30
0.0000000000
10
-24.3873500922
20
-16.9367087173
30
0.0000000000
10
-24.3867776842
20
-16.8663944652
30
0.0000000000
10
-24.3862795278
20
-16.7923426770
30
0.0000000000
10
-24.3858593343
20
-16.7150863290
30
0.0000000000
10
-24.3855202215
20
-16.6351811708
30
0.0000000000
10
-24.3852646902
20
-16.5532024605
30
0.0000000000
10
-24.3850946245
20
-16.4697393985
30
0.0000000000
10
-24.3850392213
20
-16.4136684586
30
0.0000000000
10
-24.3850259316
20
-16.3854850935
30
0.0000000000
11
-24.3951136646
21
-17.3317387640
31
0.0000000000
11
-24.3941013996
21
-17.3134766406
31
0.0000000000
11
-24.3931117252
21
-17.2882589531
31
0.0000000000
11
-24.3921517020
21
-17.2562664278
31
0.0000000000
11
-24.3912282835
21
-17.2177300948
31
0.0000000000
11
-24.3903480986
21
-17.1729271787
31
0.0000000000
11
-24.3895174809
21
-17.1221800061
31
0.0000000000
11
-24.3887424121
21
-17.0658542393
31
0.0000000000
11
-24.3880284699
21
-17.0043554841
31
0.0000000000
11
-24.3873807880
21
-16.9381262413
31
0.0000000000
11
-24.3868040239
21
-16.8676429706
31
0.0000000000
11
-24.3863023280
21
-16.7934130380
31
0.0000000000
11
-24.3858793109
21
-16.7159711275
31
0.0000000000
11
-24.3855380133
21
-16.6358741355
31
0.0000000000
11
-24.3852808855
21
-16.5536977429
31
0.0000000000
11
-24.3851097843
21
-16.4700351566
31
0.0000000000
11
-24.3850259316
21
-16.3854850935
31
0.0000000000
0
SPLINE
5
299
100
AcDbEntity
8
0
100
AcDbSpline
62
0
6
CONTINUOUS
70
0
71
3
72
23
73
19
74
17
42
0.0000001000
43
0.0000001000
44
0.0000000001
12
0.0652627498
22
0.6593089659
32
0.0000000000
13
0.0004462989
23
0.6625310105
33
0.0000000000
40
0.0000000000
40
0.0000000000
40
0.0000000000
40
0.0000000000
40
0.0193475382
40
0.0460319690
40
0.0798640991
40
0.1206036029
40
0.1679595142
40
0.2215925152
40
0.2811170707
40
0.3461052088
40
0.4160898245
40
0.4905677929
40
0.5690031284
40
0.6508310710
40
0.7354633785
40
0.8222919582
40
0.9106901622
40
1.0000000000
40
1.0000000000
40
1.0000000000
40
1.0000000000
10
-24.6950679731
20
-17.0362964381
30
0.0000000000
10
-24.6946470819
20
-17.0320444363
30
0.0000000000
10
-24.6939032941
20
-17.0219035453
30
0.0000000000
10
-24.6929487402
20
-17.0042919757
30
0.0000000000
10
-24.6920151409
20
-16.9819490725
30
0.0000000000
10
-24.6911088073
20
-16.9550372943
30
0.0000000000
10
-24.6902418491
20
-16.9237492990
30
0.0000000000
10
-24.6894212805
20
-16.8883103221
30
0.0000000000
10
-24.6886542536
20
-16.8489753668
30
0.0000000000
10
-24.6879467939
20
-16.8060276298
30
0.0000000000
10
-24.6873044085
20
-16.7597761690
30
0.0000000000
10
-24.6867319751
20
-16.7105538546
30
0.0000000000
10
-24.6862337999
20
-16.6587150862
30
0.0000000000
10
-24.6858135970
20
-16.6046330383
30
0.0000000000
10
-24.6854744797
20
-16.5486967933
30
0.0000000000
10
-24.6852189562
20
-16.4913090898
30
0.0000000000
10
-24.6850489162
20
-16.4328880642
30
0.0000000000
10
-24.6849935264
20
-16.3936423811
30
0.0000000000
10
-24.6849802401
20
-16.3739188688
30
0.0000000000
11
-24.6950679731
21
-17.0362964381
31
0.0000000000
11
-24.6940560456
21
-17.0235180962
31
0.0000000000
11
-24.6930663173
21
-17.0058665547
31
0.0000000000
11
-24.6921062541
21
-16.9834722843
31
0.0000000000
11
-24.6911827893
21
-16.9564968957
31
0.0000000000
11
-24.6903025612
21
-16.9251344788
31
0.0000000000
11
-24.6894719013
21
-16.8896106547
31
0.0000000000
11
-24.6886967934
21
-16.8501813997
31
0.0000000000
11
-24.6879828157
21
-16.8071306533
31
0.0000000000
11
-24.6873351029
21
-16.7607681888
31
0.0000000000
11
-24.6867583137
21
-16.7114275852
31
0.0000000000
11
-24.6862565999
21
-16.6594641533
31
0.0000000000
11
-24.6858335731
21
-16.6052522420
31
0.0000000000
11
-24.6854922726
21
-16.5491817398
31
0.0000000000
11
-24.6852351511
21
-16.4916556747
31
0.0000000000
11
-24.6850640612
21
-16.4330893599
31
0.0000000000
11
-24.6849802401
21
-16.3739188688
31
0.0000000000
0
SPLINE
5
29A
100
AcDbEntity
8
0
100
AcDbSpline
62
0
6
CONTINUOUS
70
0
71
3
72
20
73
16
74
14
42
0.0000001000
43
0.0000001000
44
0.0000000001
12
0.1238943965
22
-0.2739402685
32
0.0000000000
13
0.3006543718
23
-0.0002021791
33
0.0000000000
40
0.0000000000
40
0.0000000000
40
0.0000000000
40
0.0000000000
40
0.0102691964
40
0.0339884996
40
0.0712966001
40
0.1217563601
40
0.1846839009
40
0.2591997085
40
0.3442517430
40
0.4386341778
40
0.5410062053
40
0.6499119544
40
0.7638016910
40
0.8810541835
40
1.0000000000
40
1.0000000000
40
1.0000000000
40
1.0000000000
10
-24.6849802401
20
-16.3739188688
30
0.0000000000
10
-24.6845561415
20
-16.3748565842
30
0.0000000000
10
-24.6805445560
20
-16.3755958290
30
0.0000000000
10
-24.6741005162
20
-16.3770209784
30
0.0000000000
10
-24.6626758095
20
-16.3781341370
30
0.0000000000
10
-24.6477542767
20
-16.3793968925
30
0.0000000000
10
-24.6289076883
20
-16.3805305952
30
0.0000000000
10
-24.6066520505
20
-16.3816069426
30
0.0000000000
10
-24.5812140541
20
-16.3825723193
30
0.0000000000
10
-24.5529862321
20
-16.3834224226
30
0.0000000000
10
-24.5223612168
20
-16.3841401774
30
0.0000000000
10
-24.4897786100
20
-16.3847157371
30
0.0000000000
10
-24.4557020847
20
-16.3851400770
30
0.0000000000
10
-24.4206178131
20
-16.3854069577
30
0.0000000000
10
-24.3969464581
20
-16.3854770774
30
0.0000000000
10
-24.3850259316
20
-16.3854850935
30
0.0000000000
11
-24.6849802401
21
-16.3739188688
31
0.0000000000
11
-24.6822178134
21
-16.3752978279
31
0.0000000000
11
-24.6752172451
21
-16.3766571222
31
0.0000000000
11
-24.6640783678
21
-16.3779773673
31
0.0000000000
11
-24.6489600287
21
-16.3792397357
31
0.0000000000
11
-24.6300778248
21
-16.3804262252
31
0.0000000000
11
-24.6077010282
21
-16.3815199157
31
0.0000000000
11
-24.5821487458
21
-16.3825052106
31
0.0000000000
11
-24.5537853691
21
-16.3833680589
31
0.0000000000
11
-24.5230153777
21
-16.3840961558
31
0.0000000000
11
-24.4902775707
21
-16.3846791183
31
0.0000000000
11
-24.4560388097
21
-16.3851086329
31
0.0000000000
11
-24.4207873608
21
-16.3853785745
31
0.0000000000
11
-24.3850259316
21
-16.3854850935
31
0.0000000000
0
SPLINE
5
29B
100
AcDbEntity
8
0
100
AcDbSpline
62
0
6
CONTINUOUS
70
0
71
3
72
15
73
11
74
9
42
0.0000001000
43
0.0000001000
44
0.0000000001
12
0.0220545067
22
32.7709651995
32
0.0000000000
13
-0.0220545067
23
32.7709651995
33
0.0000000000
40
0.0000000000
40
0.0000000000
40
0.0000000000
40
0.0000000000
40
0.1249593477
40
0.2499535395
40
0.3749709621
40
0.5000000000
40
0.6250290379
40
0.7500464605
40
0.8750406523
40
1.0000000000
40
1.0000000000
40
1.0000000000
40
1.0000000000
10
-24.3850259316
20
-16.3854850935
30
0.0000000000
10
-24.3841072926
20
-15.0204722819
30
0.0000000000
10
-24.3824997115
20
-12.2900658734
30
0.0000000000
10
-24.3807774369
20
-8.1940118391
30
0.0000000000
10
-24.3797440080
20
-4.0971963006
30
0.0000000000
10
-24.3793995210
20
-0.0000000000
30
0.0000000000
10
-24.3797440080
20
4.0971963005
30
0.0000000000
10
-24.3807774369
20
8.1940118390
30
0.0000000000
10
-24.3824997115
20
12.2900658733
30
0.0000000000
10
-24.3841072926
20
15.0204722819
30
0.0000000000
10
-24.3850259316
20
16.3854850935
30
0.0000000000
11
-24.3850259316
21
-16.3854850935
31
0.0000000000
11
-24.3826147842
21
-12.2904464411
31
0.0000000000
11
-24.3808923761
21
-8.1942655660
31
0.0000000000
11
-24.3798588672
21
-4.0973231620
31
0.0000000000
11
-24.3795143536
21
-0.0000000000
31
0.0000000000
11
-24.3798588672
21
4.0973231619
31
0.0000000000
11
-24.3808923761
21
8.1942655659
31
0.0000000000
11
-24.3826147842
21
12.2904464410
31
0.0000000000
11
-24.3850259316
21
16.3854850935
31
0.0000000000
0
SPLINE
5
29C
100
AcDbEntity
8
0
100
AcDbSpline
62
0
6
CONTINUOUS
70
0
71
3
72
15
73
11
74
9
42
0.0000001000
43
0.0000001000
44
0.0000000001
12
0.0220545067
22
32.7478327464
32
0.0000000000
13
-0.0220545067
23
32.7478327464
33
0.0000000000
40
0.0000000000
40
0.0000000000
40
0.0000000000
40
0.0000000000
40
0.1249593399
40
0.2499535351
40
0.3749709611
40
0.5000000024
40
0.6250290436
40
0.7500464697
40
0.8750406649
40
1.0000000000
40
1.0000000000
40
1.0000000000
40
1.0000000000
10
-24.6849802401
20
-16.3739188688
30
0.0000000000
10
-24.6840616012
20
-15.0098696815
30
0.0000000000
10
-24.6824540201
20
-12.2813906675
30
0.0000000000
10
-24.6807317455
20
-8.1882279768
30
0.0000000000
10
-24.6796983165
20
-4.0943041963
30
0.0000000000
10
-24.6793538296
20
0.0000000774
30
0.0000000000
10
-24.6796983166
20
4.0943043511
30
0.0000000000
10
-24.6807317455
20
8.1882281314
30
0.0000000000
10
-24.6824540202
20
12.2813907705
30
0.0000000000
10
-24.6840616013
20
15.0098697329
30
0.0000000000
10
-24.6849802401
20
16.3739188688
30
0.0000000000
11
-24.6849802401
21
-16.3739188688
31
0.0000000000
11
-24.6825690929
21
-12.2817710892
31
0.0000000000
11
-24.6808466847
21
-8.1884815245
31
0.0000000000
11
-24.6798131758
21
-4.0944309681
31
0.0000000000
11
-24.6794686621
21
0.0000000775
31
0.0000000000
11
-24.6798131758
21
4.0944311229
31
0.0000000000
11
-24.6808466847
21
8.1884816791
31
0.0000000000
11
-24.6825690930
21
12.2817712436
31
0.0000000000
11
-24.6849802401
21
16.3739188688
31
0.0000000000
0
SPLINE
5
29D
100
AcDbEntity
8
0
100
AcDbSpline
62
0
6
CONTINUOUS
70
0
71
3
72
20
73
16
74
14
42
0.0000001000
43
0.0000001000
44
0.0000000001
12
0.1238956194
22
0.2739397142
32
0.0000000000
13
0.3006543707
23
0.0002021789
33
0.0000000000
40
0.0000000000
40
0.0000000000
40
0.0000000000
40
0.0000000000
40
0.0102692162
40
0.0339885374
40
0.0712966520
40
0.1217564220
40
0.1846839685
40
0.2591997778
40
0.3442518104
40
0.4386342396
40
0.5410062586
40
0.6499119967
40
0.7638017203
40
0.8810541985
40
1.0000000000
40
1.0000000000
40
1.0000000000
40
1.0000000000
10
-24.6849802401
20
16.3739188688
30
0.0000000000
10
-24.6845561365
20
16.3748565842
30
0.0000000000
10
-24.6805445522
20
16.3755958279
30
0.0000000000
10
-24.6741005024
20
16.3770209778
30
0.0000000000
10
-24.6626757942
20
16.3781341360
30
0.0000000000
10
-24.6477542572
20
16.3793968914
30
0.0000000000
10
-24.6289076676
20
16.3805305938
30
0.0000000000
10
-24.6066520292
20
16.3816069409
30
0.0000000000
10
-24.5812140335
20
16.3825723173
30
0.0000000000
10
-24.5529862132
20
16.3834224204
30
0.0000000000
10
-24.5223612005
20
16.3841401750
30
0.0000000000
10
-24.4897785971
20
16.3847157345
30
0.0000000000
10
-24.4557020758
20
16.3851400743
30
0.0000000000
10
-24.4206178085
20
16.3854069549
30
0.0000000000
10
-24.3969464566
20
16.3854770746
30
0.0000000000
10
-24.3850259316
20
16.3854850907
30
0.0000000000
11
-24.6849802401
21
16.3739188688
31
0.0000000000
11
-24.6822178066
21
16.3752978277
31
0.0000000000
11
-24.6752172328
21
16.3766571217
31
0.0000000000
11
-24.6640783512
21
16.3779773665
31
0.0000000000
11
-24.6489600092
21
16.3792397346
31
0.0000000000
11
-24.6300778036
21
16.3804262238
31
0.0000000000
11
-24.6077010065
21
16.3815199141
31
0.0000000000
11
-24.5821487248
21
16.3825052087
31
0.0000000000
11
-24.5537853499
21
16.3833680567
31
0.0000000000
11
-24.5230153611
21
16.3840961534
31
0.0000000000
11
-24.4902775576
21
16.3846791157
31
0.0000000000
11
-24.4560388006
21
16.3851086302
31
0.0000000000
11
-24.4207873561
21
16.3853785717
31
0.0000000000
11
-24.3850259316
21
16.3854850907
31
0.0000000000
0
SPLINE
5
29E
100
AcDbEntity
8
0
100
AcDbSpline
62
0
6
CONTINUOUS
70
0
71
3
72
23
73
19
74
17
42
0.0000001000
43
0.0000001000
44
0.0000000001
12
-0.0004462892
22
0.9463611160
32
0.0000000000
13
-0.0654154629
23
0.9440976529
33
0.0000000000
40
0.0000000000
40
0.0000000000
40
0.0000000000
40
0.0000000000
40
0.0893422249
40
0.1777469231
40
0.2645814179
40
0.3492189865
40
0.4310514592
40
0.5094904669
40
0.5839711464
40
0.6539575402
40
0.7189463681
40
0.7784702654
40
0.8321009189
40
0.8794523517
40
0.9201845833
40
0.9540056346
40
0.9806731503
40
1.0000000000
40
1.0000000000
40
1.0000000000
40
1.0000000000
10
-24.3850259316
20
16.3854850935
30
0.0000000000
10
-24.3850392224
20
16.4136684294
30
0.0000000000
10
-24.3850946231
20
16.4697393458
30
0.0000000000
10
-24.3852646908
20
16.5532023854
30
0.0000000000
10
-24.3855202205
20
16.6351811004
30
0.0000000000
10
-24.3858593336
20
16.7150862620
30
0.0000000000
10
-24.3862795264
20
16.7923426146
30
0.0000000000
10
-24.3867776825
20
16.8663944083
30
0.0000000000
10
-24.3873500900
20
16.9367086614
30
0.0000000000
10
-24.3879924426
20
17.0027792178
30
0.0000000000
10
-24.3886998639
20
17.0641306519
30
0.0000000000
10
-24.3894668474
20
17.1203214654
30
0.0000000000
10
-24.3902873662
20
17.1709470882
30
0.0000000000
10
-24.3911542660
20
17.2156431155
30
0.0000000000
10
-24.3920605314
20
17.2540878050
30
0.0000000000
10
-24.3929940027
20
17.2860050834
30
0.0000000000
10
-24.3939484900
20
17.3111650055
30
0.0000000000
10
-24.3946922396
20
17.3256566195
30
0.0000000000
10
-24.3951136646
20
17.3317387640
30
0.0000000000
11
-24.3850259316
21
16.3854850935
31
0.0000000000
11
-24.3851097838
21
16.4700350690
31
0.0000000000
11
-24.3852808855
21
16.5536976722
31
0.0000000000
11
-24.3855380125
21
16.6358740685
31
0.0000000000
11
-24.3858793099
21
16.7159710541
31
0.0000000000
11
-24.3863023266
21
16.7934129776
31
0.0000000000
11
-24.3868040221
21
16.8676429173
31
0.0000000000
11
-24.3873807858
21
16.9381261844
31
0.0000000000
11
-24.3880284673
21
17.0043554266
31
0.0000000000
11
-24.3887424093
21
17.0658541892
31
0.0000000000
11
-24.3895174781
21
17.1221799649
31
0.0000000000
11
-24.3903480957
21
17.1729271384
31
0.0000000000
11
-24.3912282806
21
17.2177300531
31
0.0000000000
11
-24.3921516991
21
17.2562663955
31
0.0000000000
11
-24.3931117229
21
17.2882589261
31
0.0000000000
11
-24.3941013963
21
17.3134766163
31
0.0000000000
11
-24.3951136646
21
17.3317387640
31
0.0000000000
0
SPLINE
5
29F
100
AcDbEntity
8
0
100
AcDbSpline
62
0
6
CONTINUOUS
70
0
71
3
72
23
73
19
74
17
42
0.0000001000
43
0.0000001000
44
0.0000000001
12
-0.0004463113
22
0.6625310104
32
0.0000000000
13
-0.0652631569
23
0.6593089255
33
0.0000000000
40
0.0000000000
40
0.0000000000
40
0.0000000000
40
0.0000000000
40
0.0893017967
40
0.1776998333
40
0.2645282976
40
0.3491605405
40
0.4309885119
40
0.5094239455
40
0.5839020984
40
0.6538871463
40
0.7188759694
40
0.7784013749
40
0.8320352228
40
0.8793919653
40
0.9201322848
40
0.9539652142
40
0.9806503729
40
1.0000000000
40
1.0000000000
40
1.0000000000
40
1.0000000000
10
-24.6849802401
20
16.3739188688
30
0.0000000000
10
-24.6849935256
20
16.3936406053
30
0.0000000000
10
-24.6850489094
20
16.4328844756
30
0.0000000000
10
-24.6852189368
20
16.4913036629
30
0.0000000000
10
-24.6854744509
20
16.5486912897
30
0.0000000000
10
-24.6858135591
20
16.6046275014
30
0.0000000000
10
-24.6862337522
20
16.6587095632
30
0.0000000000
10
-24.6867319175
20
16.7105484004
30
0.0000000000
10
-24.6873043413
20
16.7597708728
30
0.0000000000
10
-24.6879467181
20
16.8060226212
30
0.0000000000
10
-24.6886541715
20
16.8489707928
30
0.0000000000
10
-24.6894211943
20
16.8883062743
30
0.0000000000
10
-24.6902417607
20
16.9237458097
30
0.0000000000
10
-24.6911087170
20
16.9550343560
30
0.0000000000
10
-24.6920150516
20
16.9819466746
30
0.0000000000
10
-24.6929486485
20
17.0042900959
30
0.0000000000
10
-24.6939032273
20
17.0219024636
30
0.0000000000
10
-24.6946470338
20
17.0320439775
30
0.0000000000
10
-24.6950679731
20
17.0362964381
30
0.0000000000
11
-24.6849802401
21
16.3739188688
31
0.0000000000
11
-24.6850640496
21
16.4330840325
31
0.0000000000
11
-24.6852351313
21
16.4916502363
31
0.0000000000
11
-24.6854922436
21
16.5491762250
31
0.0000000000
11
-24.6858335347
21
16.6052466845
31
0.0000000000
11
-24.6862565518
21
16.6594586149
31
0.0000000000
11
-24.6867582555
21
16.7114221119
31
0.0000000000
11
-24.6873350345
21
16.7607628379
31
0.0000000000
11
-24.6879827386
21
16.8071255888
31
0.0000000000
11
-24.6886967101
21
16.8501767893
31
0.0000000000
11
-24.6894718145
21
16.8896066076
31
0.0000000000
11
-24.6903024719
21
16.9251309929
31
0.0000000000
11
-24.6911826983
21
16.9564939608
31
0.0000000000
11
-24.6921061625
21
16.9834698901
31
0.0000000000
11
-24.6930662259
21
17.0058646906
31
0.0000000000
11
-24.6940559550
21
17.0235167151
31
0.0000000000
11
-24.6950679731
21
17.0362964381
31
0.0000000000
0
SPLINE
5
2A0
100
AcDbEntity
8
0
100
AcDbSpline
62
0
6
CONTINUOUS
70
0
71
3
72
10
73
6
74
4
42
0.0000001000
43
0.0000001000
44
0.0000000001
12
-0.0008079957
22
-6.1000000662
32
0.0000000000
13
-0.0015726514
23
-6.0999999170
33
0.0000000000
40
0.0000000000
40
0.0000000000
40
0.0000000000
40
0.0000000000
40
0.3333677241
40
0.6667036018
40
1.0000000000
40
1.0000000000
40
1.0000000000
40
1.0000000000
10
10.0635358350
20
-6.4500000000
30
0.0000000000
10
10.0634460485
20
-7.1278477130
30
0.0000000000
10
10.0632381712
20
-8.4834783811
30
0.0000000000
10
10.0628414217
20
-10.5168117161
30
0.0000000000
10
10.0625202925
20
-11.8722973328
30
0.0000000000
10
10.0623455729
20
-12.5500000000
30
0.0000000000
11
10.0635358350
21
-6.4500000000
31
0.0000000000
11
10.0632240006
21
-8.4835431330
31
0.0000000000
11
10.0628272436
21
-10.5168919880
31
0.0000000000
11
10.0623455729
21
-12.5500000000
31
0.0000000000
0
SPLINE
5
2A1
100
AcDbEntity
8
0
100
AcDbSpline
62
0
6
CONTINUOUS
70
0
71
3
72
20
73
16
74
14
42
0.0000001000
43
0.0000001000
44
0.0000000001
12
0.0014365767
22
0.4668967676
32
0.0000000000
13
0.4668968976
23
0.0013936835
33
0.0000000000
40
0.0000000000
40
0.0000000000
40
0.0000000000
40
0.0000000000
40
0.0762841454
40
0.1526297873
40
0.2290661287
40
0.3056170291
40
0.3822996253
40
0.4591233628
40
0.5360894869
40
0.6131910154
40
0.6904131830
40
0.7677343244
40
0.8451271365
40
0.9225602469
40
1.0000000000
40
1.0000000000
40
1.0000000000
40
1.0000000000
10
-24.6950679731
20
17.0362964381
30
0.0000000000
10
-24.6950314438
20
17.0481687117
30
0.0000000000
10
-24.6935008114
20
17.0719439229
30
0.0000000000
10
-24.6868694491
20
17.1070580321
30
0.0000000000
10
-24.6759988296
20
17.1411481695
30
0.0000000000
10
-24.6610475313
20
17.1737118386
30
0.0000000000
10
-24.6422334430
20
17.2042778450
30
0.0000000000
10
-24.6198305394
20
17.2324018853
30
0.0000000000
10
-24.5941647912
20
17.2576759908
30
0.0000000000
10
-24.5656094186
20
17.2797335817
30
0.0000000000
10
-24.5345792230
20
17.2982549319
30
0.0000000000
10
-24.5015253181
20
17.3129716669
30
0.0000000000
10
-24.4669257239
20
17.3236706035
30
0.0000000000
10
-24.4312891982
20
17.3301967412
30
0.0000000000
10
-24.4071657914
20
17.3317027885
30
0.0000000000
10
-24.3951136646
20
17.3317387640
30
0.0000000000
11
-24.6950679731
21
17.0362964381
31
0.0000000000
11
-24.6927800268
21
17.0718398656
31
0.0000000000
11
-24.6861681473
21
17.1068669856
31
0.0000000000
11
-24.6753283794
21
17.1408689903
31
0.0000000000
11
-24.6604181828
21
17.1733519629
31
0.0000000000
11
-24.6416541446
21
17.2038440525
31
0.0000000000
11
-24.6193088331
21
17.2319023275
31
0.0000000000
11
-24.5937068388
21
17.2571192107
31
0.0000000000
11
-24.5652200590
21
17.2791283988
31
0.0000000000
11
-24.5342622955
21
17.2976101839
31
0.0000000000
11
-24.5012832443
21
17.3122960979
31
0.0000000000
11
-24.4667619625
21
17.3229728114
31
0.0000000000
11
-24.4311999098
21
17.3294852335
31
0.0000000000
11
-24.3951136646
21
17.3317387640
31
0.0000000000
0
SPLINE
5
2A2
100
AcDbEntity
8
0
100
AcDbSpline
62
0
6
CONTINUOUS
70
0
71
3
72
20
73
16
74
14
42
0.0000001000
43
0.0000001000
44
0.0000000001
12
-0.0014365767
22
0.4668967676
32
0.0000000000
13
-0.4668968976
23
0.0013936835
33
0.0000000000
40
0.0000000000
40
0.0000000000
40
0.0000000000
40
0.0000000000
40
0.0762841383
40
0.1526297744
40
0.2290661112
40
0.3056170084
40
0.3822996028
40
0.4591233397
40
0.5360894644
40
0.6131909947
40
0.6904131651
40
0.7677343102
40
0.8451271267
40
0.9225602418
40
1.0000000000
40
1.0000000000
40
1.0000000000
40
1.0000000000
10
24.6950679731
20
17.0362964381
30
0.0000000000
10
24.6950314438
20
17.0481687106
30
0.0000000000
10
24.6935008117
20
17.0719439198
30
0.0000000000
10
24.6868694505
20
17.1070580264
30
0.0000000000
10
24.6759988324
20
17.1411481620
30
0.0000000000
10
24.6610475358
20
17.1737118302
30
0.0000000000
10
24.6422334489
20
17.2042778365
30
0.0000000000
10
24.6198305466
20
17.2324018773
30
0.0000000000
10
24.5941647991
20
17.2576759840
30
0.0000000000
10
24.5656094266
20
17.2797335764
30
0.0000000000
10
24.5345792303
20
17.2982549281
30
0.0000000000
10
24.5015253243
20
17.3129716647
30
0.0000000000
10
24.4669257283
20
17.3236706025
30
0.0000000000
10
24.4312892005
20
17.3301967410
30
0.0000000000
10
24.4071657922
20
17.3317027885
30
0.0000000000
10
24.3951136646
20
17.3317387640
30
0.0000000000
11
24.6950679731
21
17.0362964381
31
0.0000000000
11
24.6927800272
21
17.0718398623
31
0.0000000000
11
24.6861681488
21
17.1068669797
31
0.0000000000
11
24.6753283824
21
17.1408689826
31
0.0000000000
11
24.6604181874
21
17.1733519544
31
0.0000000000
11
24.6416541507
21
17.2038440438
31
0.0000000000
11
24.6193088404
21
17.2319023195
31
0.0000000000
11
24.5937068468
21
17.2571192037
31
0.0000000000
11
24.5652200670
21
17.2791283933
31
0.0000000000
11
24.5342623030
21
17.2976101801
31
0.0000000000
11
24.5012832505
21
17.3122960955
31
0.0000000000
11
24.4667619669
21
17.3229728103
31
0.0000000000
11
24.4311999122
21
17.3294852332
31
0.0000000000
11
24.3951136646
21
17.3317387640
31
0.0000000000
0
SPLINE
5
2A3
100
AcDbEntity
8
0
100
AcDbSpline
62
0
6
CONTINUOUS
70
0
71
3
72
23
73
19
74
17
42
0.0000001000
43
0.0000001000
44
0.0000000001
12
-0.0654154629
22
-0.9440976529
32
0.0000000000
13
-0.0004462892
23
-0.9463611160
33
0.0000000000
40
0.0000000000
40
0.0000000000
40
0.0000000000
40
0.0000000000
40
0.0193268497
40
0.0459943654
40
0.0798154167
40
0.1205476483
40
0.1678990811
40
0.2215297346
40
0.2810536319
40
0.3460424598
40
0.4160288536
40
0.4905095331
40
0.5689485408
40
0.6507810135
40
0.7354185821
40
0.8222530769
40
0.9106577751
40
1.0000000000
40
1.0000000000
40
1.0000000000
40
1.0000000000
10
24.3951136646
20
17.3317387640
30
0.0000000000
10
24.3946922396
20
17.3256566195
30
0.0000000000
10
24.3939484900
20
17.3111650055
30
0.0000000000
10
24.3929940027
20
17.2860050834
30
0.0000000000
10
24.3920605314
20
17.2540878050
30
0.0000000000
10
24.3911542660
20
17.2156431155
30
0.0000000000
10
24.3902873662
20
17.1709470882
30
0.0000000000
10
24.3894668474
20
17.1203214654
30
0.0000000000
10
24.3886998639
20
17.0641306519
30
0.0000000000
10
24.3879924426
20
17.0027792178
30
0.0000000000
10
24.3873500900
20
16.9367086614
30
0.0000000000
10
24.3867776825
20
16.8663944083
30
0.0000000000
10
24.3862795264
20
16.7923426146
30
0.0000000000
10
24.3858593336
20
16.7150862620
30
0.0000000000
10
24.3855202205
20
16.6351811004
30
0.0000000000
10
24.3852646908
20
16.5532023854
30
0.0000000000
10
24.3850946231
20
16.4697393458
30
0.0000000000
10
24.3850392224
20
16.4136684294
30
0.0000000000
10
24.3850259316
20
16.3854850935
30
0.0000000000
11
24.3951136646
21
17.3317387640
31
0.0000000000
11
24.3941013963
21
17.3134766163
31
0.0000000000
11
24.3931117229
21
17.2882589261
31
0.0000000000
11
24.3921516991
21
17.2562663955
31
0.0000000000
11
24.3912282806
21
17.2177300531
31
0.0000000000
11
24.3903480957
21
17.1729271384
31
0.0000000000
11
24.3895174781
21
17.1221799649
31
0.0000000000
11
24.3887424093
21
17.0658541892
31
0.0000000000
11
24.3880284673
21
17.0043554266
31
0.0000000000
11
24.3873807858
21
16.9381261844
31
0.0000000000
11
24.3868040221
21
16.8676429173
31
0.0000000000
11
24.3863023266
21
16.7934129776
31
0.0000000000
11
24.3858793099
21
16.7159710541
31
0.0000000000
11
24.3855380125
21
16.6358740685
31
0.0000000000
11
24.3852808855
21
16.5536976722
31
0.0000000000
11
24.3851097838
21
16.4700350690
31
0.0000000000
11
24.3850259316
21
16.3854850935
31
0.0000000000
0
SPLINE
5
2A4
100
AcDbEntity
8
0
100
AcDbSpline
62
0
6
CONTINUOUS
70
0
71
3
72
23
73
19
74
17
42
0.0000001000
43
0.0000001000
44
0.0000000001
12
-0.0652631569
22
-0.6593089255
32
0.0000000000
13
-0.0004463113
23
-0.6625310104
33
0.0000000000
40
0.0000000000
40
0.0000000000
40
0.0000000000
40
0.0000000000
40
0.0193496271
40
0.0460347858
40
0.0798677152
40
0.1206080347
40
0.1679647772
40
0.2215986251
40
0.2811240306
40
0.3461128537
40
0.4160979016
40
0.4905760545
40
0.5690114881
40
0.6508394595
40
0.7354717024
40
0.8223001667
40
0.9106982033
40
1.0000000000
40
1.0000000000
40
1.0000000000
40
1.0000000000
10
24.6950679731
20
17.0362964381
30
0.0000000000
10
24.6946470338
20
17.0320439775
30
0.0000000000
10
24.6939032273
20
17.0219024636
30
0.0000000000
10
24.6929486485
20
17.0042900959
30
0.0000000000
10
24.6920150516
20
16.9819466746
30
0.0000000000
10
24.6911087170
20
16.9550343560
30
0.0000000000
10
24.6902417607
20
16.9237458097
30
0.0000000000
10
24.6894211943
20
16.8883062743
30
0.0000000000
10
24.6886541715
20
16.8489707928
30
0.0000000000
10
24.6879467181
20
16.8060226212
30
0.0000000000
10
24.6873043413
20
16.7597708728
30
0.0000000000
10
24.6867319175
20
16.7105484004
30
0.0000000000
10
24.6862337522
20
16.6587095632
30
0.0000000000
10
24.6858135591
20
16.6046275014
30
0.0000000000
10
24.6854744509
20
16.5486912897
30
0.0000000000
10
24.6852189368
20
16.4913036629
30
0.0000000000
10
24.6850489094
20
16.4328844756
30
0.0000000000
10
24.6849935256
20
16.3936406053
30
0.0000000000
10
24.6849802401
20
16.3739188688
30
0.0000000000
11
24.6950679731
21
17.0362964381
31
0.0000000000
11
24.6940559550
21
17.0235167151
31
0.0000000000
11
24.6930662259
21
17.0058646906
31
0.0000000000
11
24.6921061625
21
16.9834698901
31
0.0000000000
11
24.6911826983
21
16.9564939608
31
0.0000000000
11
24.6903024719
21
16.9251309929
31
0.0000000000
11
24.6894718145
21
16.8896066076
31
0.0000000000
11
24.6886967101
21
16.8501767893
31
0.0000000000
11
24.6879827386
21
16.8071255888
31
0.0000000000
11
24.6873350345
21
16.7607628379
31
0.0000000000
11
24.6867582555
21
16.7114221119
31
0.0000000000
11
24.6862565518
21
16.6594586149
31
0.0000000000
11
24.6858335347
21
16.6052466845
31
0.0000000000
11
24.6854922436
21
16.5491762250
31
0.0000000000
11
24.6852351313
21
16.4916502363
31
0.0000000000
11
24.6850640496
21
16.4330840325
31
0.0000000000
11
24.6849802401
21
16.3739188688
31
0.0000000000
0
SPLINE
5
2A5
100
AcDbEntity
8
0
100
AcDbSpline
62
0
6
CONTINUOUS
70
0
71
3
72
20
73
16
74
14
42
0.0000001000
43
0.0000001000
44
0.0000000001
12
-0.1238943969
22
0.2739402683
32
0.0000000000
13
-0.3006543718
23
0.0002021791
33
0.0000000000
40
0.0000000000
40
0.0000000000
40
0.0000000000
40
0.0000000000
40
0.0102691964
40
0.0339884996
40
0.0712966002
40
0.1217563601
40
0.1846839009
40
0.2591997085
40
0.3442517431
40
0.4386341778
40
0.5410062053
40
0.6499119544
40
0.7638016910
40
0.8810541835
40
1.0000000000
40
1.0000000000
40
1.0000000000
40
1.0000000000
10
24.6849802401
20
16.3739188688
30
0.0000000000
10
24.6845561415
20
16.3748565842
30
0.0000000000
10
24.6805445560
20
16.3755958290
30
0.0000000000
10
24.6741005162
20
16.3770209784
30
0.0000000000
10
24.6626758095
20
16.3781341370
30
0.0000000000
10
24.6477542767
20
16.3793968925
30
0.0000000000
10
24.6289076883
20
16.3805305952
30
0.0000000000
10
24.6066520505
20
16.3816069426
30
0.0000000000
10
24.5812140541
20
16.3825723193
30
0.0000000000
10
24.5529862321
20
16.3834224226
30
0.0000000000
10
24.5223612168
20
16.3841401774
30
0.0000000000
10
24.4897786100
20
16.3847157371
30
0.0000000000
10
24.4557020847
20
16.3851400770
30
0.0000000000
10
24.4206178131
20
16.3854069577
30
0.0000000000
10
24.3969464581
20
16.3854770774
30
0.0000000000
10
24.3850259316
20
16.3854850935
30
0.0000000000
11
24.6849802401
21
16.3739188688
31
0.0000000000
11
24.6822178134
21
16.3752978279
31
0.0000000000
11
24.6752172451
21
16.3766571222
31
0.0000000000
11
24.6640783678
21
16.3779773673
31
0.0000000000
11
24.6489600287
21
16.3792397357
31
0.0000000000
11
24.6300778248
21
16.3804262252
31
0.0000000000
11
24.6077010282
21
16.3815199157
31
0.0000000000
11
24.5821487458
21
16.3825052106
31
0.0000000000
11
24.5537853691
21
16.3833680589
31
0.0000000000
11
24.5230153777
21
16.3840961558
31
0.0000000000
11
24.4902775707
21
16.3846791183
31
0.0000000000
11
24.4560388097
21
16.3851086329
31
0.0000000000
11
24.4207873608
21
16.3853785745
31
0.0000000000
11
24.3850259316
21
16.3854850935
31
0.0000000000
0
SPLINE
5
2A6
100
AcDbEntity
8
0
100
AcDbSpline
62
0
6
CONTINUOUS
70
0
71
3
72
15
73
11
74
9
42
0.0000001000
43
0.0000001000
44
0.0000000001
12
-0.0220545067
22
-32.7709651995
32
0.0000000000
13
0.0220545067
23
-32.7709651995
33
0.0000000000
40
0.0000000000
40
0.0000000000
40
0.0000000000
40
0.0000000000
40
0.1249593477
40
0.2499535395
40
0.3749709621
40
0.5000000000
40
0.6250290379
40
0.7500464605
40
0.8750406523
40
1.0000000000
40
1.0000000000
40
1.0000000000
40
1.0000000000
10
24.3850259316
20
16.3854850935
30
0.0000000000
10
24.3841072926
20
15.0204722819
30
0.0000000000
10
24.3824997115
20
12.2900658733
30
0.0000000000
10
24.3807774369
20
8.1940118390
30
0.0000000000
10
24.3797440080
20
4.0971963005
30
0.0000000000
10
24.3793995210
20
-0.0000000000
30
0.0000000000
10
24.3797440080
20
-4.0971963006
30
0.0000000000
10
24.3807774369
20
-8.1940118391
30
0.0000000000
10
24.3824997115
20
-12.2900658734
30
0.0000000000
10
24.3841072926
20
-15.0204722819
30
0.0000000000
10
24.3850259316
20
-16.3854850935
30
0.0000000000
11
24.3850259316
21
16.3854850935
31
0.0000000000
11
24.3826147842
21
12.2904464410
31
0.0000000000
11
24.3808923761
21
8.1942655659
31
0.0000000000
11
24.3798588672
21
4.0973231619
31
0.0000000000
11
24.3795143536
21
-0.0000000000
31
0.0000000000
11
24.3798588672
21
-4.0973231620
31
0.0000000000
11
24.3808923761
21
-8.1942655660
31
0.0000000000
11
24.3826147842
21
-12.2904464411
31
0.0000000000
11
24.3850259316
21
-16.3854850935
31
0.0000000000
0
SPLINE
5
2A7
100
AcDbEntity
8
0
100
AcDbSpline
62
0
6
CONTINUOUS
70
0
71
3
72
15
73
11
74
9
42
0.0000001000
43
0.0000001000
44
0.0000000001
12
-0.0220545067
22
-32.7478327464
32
0.0000000000
13
0.0220545067
23
-32.7478327464
33
0.0000000000
40
0.0000000000
40
0.0000000000
40
0.0000000000
40
0.0000000000
40
0.1249593351
40
0.2499535303
40
0.3749709564
40
0.4999999976
40
0.6250290389
40
0.7500464649
40
0.8750406601
40
1.0000000000
40
1.0000000000
40
1.0000000000
40
1.0000000000
10
24.6849802401
20
16.3739188688
30
0.0000000000
10
24.6840616013
20
15.0098697329
30
0.0000000000
10
24.6824540202
20
12.2813907705
30
0.0000000000
10
24.6807317455
20
8.1882281314
30
0.0000000000
10
24.6796983166
20
4.0943043511
30
0.0000000000
10
24.6793538296
20
0.0000000774
30
0.0000000000
10
24.6796983165
20
-4.0943041963
30
0.0000000000
10
24.6807317455
20
-8.1882279768
30
0.0000000000
10
24.6824540201
20
-12.2813906675
30
0.0000000000
10
24.6840616012
20
-15.0098696815
30
0.0000000000
10
24.6849802401
20
-16.3739188688
30
0.0000000000
11
24.6849802401
21
16.3739188688
31
0.0000000000
11
24.6825690930
21
12.2817712436
31
0.0000000000
11
24.6808466847
21
8.1884816791
31
0.0000000000
11
24.6798131758
21
4.0944311229
31
0.0000000000
11
24.6794686621
21
0.0000000775
31
0.0000000000
11
24.6798131758
21
-4.0944309681
31
0.0000000000
11
24.6808466847
21
-8.1884815245
31
0.0000000000
11
24.6825690929
21
-12.2817710892
31
0.0000000000
11
24.6849802401
21
-16.3739188688
31
0.0000000000
0
SPLINE
5
2A8
100
AcDbEntity
8
0
100
AcDbSpline
62
0
6
CONTINUOUS
70
0
71
3
72
20
73
16
74
14
42
0.0000001000
43
0.0000001000
44
0.0000000001
12
-0.1238951642
22
-0.2739399205
32
0.0000000000
13
-0.3006543712
23
-0.0002021789
33
0.0000000000
40
0.0000000000
40
0.0000000000
40
0.0000000000
40
0.0000000000
40
0.0102692089
40
0.0339885234
40
0.0712966328
40
0.1217563990
40
0.1846839434
40
0.2591997521
40
0.3442517854
40
0.4386342167
40
0.5410062388
40
0.6499119810
40
0.7638017094
40
0.8810541929
40
1.0000000000
40
1.0000000000
40
1.0000000000
40
1.0000000000
10
24.6849802401
20
-16.3739188688
30
0.0000000000
10
24.6845561383
20
-16.3748565842
30
0.0000000000
10
24.6805445536
20
-16.3755958283
30
0.0000000000
10
24.6741005075
20
-16.3770209781
30
0.0000000000
10
24.6626757999
20
-16.3781341364
30
0.0000000000
10
24.6477542645
20
-16.3793968918
30
0.0000000000
10
24.6289076753
20
-16.3805305944
30
0.0000000000
10
24.6066520371
20
-16.3816069416
30
0.0000000000
10
24.5812140412
20
-16.3825723181
30
0.0000000000
10
24.5529862202
20
-16.3834224213
30
0.0000000000
10
24.5223612065
20
-16.3841401760
30
0.0000000000
10
24.4897786019
20
-16.3847157356
30
0.0000000000
10
24.4557020791
20
-16.3851400754
30
0.0000000000
10
24.4206178102
20
-16.3854069560
30
0.0000000000
10
24.3969464572
20
-16.3854770757
30
0.0000000000
10
24.3850259316
20
-16.3854850918
30
0.0000000000
11
24.6849802401
21
-16.3739188688
31
0.0000000000
11
24.6822178091
21
-16.3752978278
31
0.0000000000
11
24.6752172374
21
-16.3766571219
31
0.0000000000
11
24.6640783574
21
-16.3779773668
31
0.0000000000
11
24.6489600164
21
-16.3792397350
31
0.0000000000
11
24.6300778115
21
-16.3804262244
31
0.0000000000
11
24.6077010145
21
-16.3815199147
31
0.0000000000
11
24.5821487326
21
-16.3825052094
31
0.0000000000
11
24.5537853570
21
-16.3833680576
31
0.0000000000
11
24.5230153673
21
-16.3840961544
31
0.0000000000
11
24.4902775624
21
-16.3846791168
31
0.0000000000
11
24.4560388040
21
-16.3851086313
31
0.0000000000
11
24.4207873578
21
-16.3853785728
31
0.0000000000
11
24.3850259316
21
-16.3854850918
31
0.0000000000
0
SPLINE
5
2A9
100
AcDbEntity
8
0
100
AcDbSpline
62
0
6
CONTINUOUS
70
0
71
3
72
23
73
19
74
17
42
0.0000001000
43
0.0000001000
44
0.0000000001
12
0.0004462523
22
-0.9463611159
32
0.0000000000
13
0.0654167177
23
-0.9440975659
33
0.0000000000
40
0.0000000000
40
0.0000000000
40
0.0000000000
40
0.0000000000
40
0.0893423175
40
0.1777469978
40
0.2645814888
40
0.3492190641
40
0.4310515231
40
0.5094905233
40
0.5839712066
40
0.6539576011
40
0.7189464212
40
0.7784703090
40
0.8321009616
40
0.8794523959
40
0.9201846175
40
0.9540056633
40
0.9806731761
40
1.0000000000
40
1.0000000000
40
1.0000000000
40
1.0000000000
10
24.3850259316
20
-16.3854850935
30
0.0000000000
10
24.3850392213
20
-16.4136684586
30
0.0000000000
10
24.3850946245
20
-16.4697393985
30
0.0000000000
10
24.3852646902
20
-16.5532024605
30
0.0000000000
10
24.3855202215
20
-16.6351811708
30
0.0000000000
10
24.3858593343
20
-16.7150863290
30
0.0000000000
10
24.3862795278
20
-16.7923426770
30
0.0000000000
10
24.3867776842
20
-16.8663944652
30
0.0000000000
10
24.3873500922
20
-16.9367087173
30
0.0000000000
10
24.3879924452
20
-17.0027792727
30
0.0000000000
10
24.3886998668
20
-17.0641307015
30
0.0000000000
10
24.3894668502
20
-17.1203215092
30
0.0000000000
10
24.3902873693
20
-17.1709471292
30
0.0000000000
10
24.3911542682
20
-17.2156431536
30
0.0000000000
10
24.3920605358
20
-17.2540878385
30
0.0000000000
10
24.3929940018
20
-17.2860051114
30
0.0000000000
10
24.3939484998
20
-17.3111650221
30
0.0000000000
10
24.3946922321
20
-17.3256566282
30
0.0000000000
10
24.3951136646
20
-17.3317387640
30
0.0000000000
11
24.3850259316
21
-16.3854850935
31
0.0000000000
11
24.3851097843
21
-16.4700351566
31
0.0000000000
11
24.3852808855
21
-16.5536977429
31
0.0000000000
11
24.3855380133
21
-16.6358741355
31
0.0000000000
11
24.3858793109
21
-16.7159711275
31
0.0000000000
11
24.3863023280
21
-16.7934130380
31
0.0000000000
11
24.3868040239
21
-16.8676429706
31
0.0000000000
11
24.3873807880
21
-16.9381262413
31
0.0000000000
11
24.3880284699
21
-17.0043554841
31
0.0000000000
11
24.3887424121
21
-17.0658542393
31
0.0000000000
11
24.3895174809
21
-17.1221800061
31
0.0000000000
11
24.3903480986
21
-17.1729271787
31
0.0000000000
11
24.3912282835
21
-17.2177300948
31
0.0000000000
11
24.3921517020
21
-17.2562664278
31
0.0000000000
11
24.3931117252
21
-17.2882589531
31
0.0000000000
11
24.3941013996
21
-17.3134766406
31
0.0000000000
11
24.3951136646
21
-17.3317387640
31
0.0000000000
0
SPLINE
5
2AA
100
AcDbEntity
8
0
100
AcDbSpline
62
0
6
CONTINUOUS
70
0
71
3
72
23
73
19
74
17
42
0.0000001000
43
0.0000001000
44
0.0000000001
12
0.0004462989
22
-0.6625310105
32
0.0000000000
13
0.0652627498
23
-0.6593089659
33
0.0000000000
40
0.0000000000
40
0.0000000000
40
0.0000000000
40
0.0000000000
40
0.0893098378
40
0.1777080418
40
0.2645366215
40
0.3491689290
40
0.4309968716
40
0.5094322071
40
0.5839101755
40
0.6538947912
40
0.7188829293
40
0.7784074848
40
0.8320404858
40
0.8793963971
40
0.9201359009
40
0.9539680310
40
0.9806524618
40
1.0000000000
40
1.0000000000
40
1.0000000000
40
1.0000000000
10
24.6849802401
20
-16.3739188688
30
0.0000000000
10
24.6849935264
20
-16.3936423811
30
0.0000000000
10
24.6850489162
20
-16.4328880642
30
0.0000000000
10
24.6852189562
20
-16.4913090898
30
0.0000000000
10
24.6854744797
20
-16.5486967933
30
0.0000000000
10
24.6858135970
20
-16.6046330383
30
0.0000000000
10
24.6862337999
20
-16.6587150862
30
0.0000000000
10
24.6867319751
20
-16.7105538546
30
0.0000000000
10
24.6873044085
20
-16.7597761690
30
0.0000000000
10
24.6879467939
20
-16.8060276298
30
0.0000000000
10
24.6886542536
20
-16.8489753668
30
0.0000000000
10
24.6894212805
20
-16.8883103221
30
0.0000000000
10
24.6902418491
20
-16.9237492990
30
0.0000000000
10
24.6911088073
20
-16.9550372943
30
0.0000000000
10
24.6920151409
20
-16.9819490725
30
0.0000000000
10
24.6929487402
20
-17.0042919757
30
0.0000000000
10
24.6939032941
20
-17.0219035453
30
0.0000000000
10
24.6946470819
20
-17.0320444363
30
0.0000000000
10
24.6950679731
20
-17.0362964381
30
0.0000000000
11
24.6849802401
21
-16.3739188688
31
0.0000000000
11
24.6850640612
21
-16.4330893599
31
0.0000000000
11
24.6852351511
21
-16.4916556747
31
0.0000000000
11
24.6854922726
21
-16.5491817398
31
0.0000000000
11
24.6858335731
21
-16.6052522420
31
0.0000000000
11
24.6862565999
21
-16.6594641533
31
0.0000000000
11
24.6867583137
21
-16.7114275852
31
0.0000000000
11
24.6873351029
21
-16.7607681888
31
0.0000000000
11
24.6879828157
21
-16.8071306533
31
0.0000000000
11
24.6886967934
21
-16.8501813997
31
0.0000000000
11
24.6894719013
21
-16.8896106547
31
0.0000000000
11
24.6903025612
21
-16.9251344788
31
0.0000000000
11
24.6911827893
21
-16.9564968957
31
0.0000000000
11
24.6921062541
21
-16.9834722843
31
0.0000000000
11
24.6930663173
21
-17.0058665547
31
0.0000000000
11
24.6940560456
21
-17.0235180962
31
0.0000000000
11
24.6950679731
21
-17.0362964381
31
0.0000000000
0
SPLINE
5
2AB
100
AcDbEntity
8
0
100
AcDbSpline
62
0
6
CONTINUOUS
70
0
71
3
72
20
73
16
74
14
42
0.0000001000
43
0.0000001000
44
0.0000000001
12
-0.0014365767
22
-0.4668967676
32
0.0000000000
13
-0.4668968976
23
-0.0013936835
33
0.0000000000
40
0.0000000000
40
0.0000000000
40
0.0000000000
40
0.0000000000
40
0.0762841454
40
0.1526297873
40
0.2290661287
40
0.3056170291
40
0.3822996253
40
0.4591233628
40
0.5360894869
40
0.6131910154
40
0.6904131830
40
0.7677343244
40
0.8451271365
40
0.9225602469
40
1.0000000000
40
1.0000000000
40
1.0000000000
40
1.0000000000
10
24.6950679731
20
-17.0362964381
30
0.0000000000
10
24.6950314438
20
-17.0481687117
30
0.0000000000
10
24.6935008114
20
-17.0719439229
30
0.0000000000
10
24.6868694491
20
-17.1070580321
30
0.0000000000
10
24.6759988296
20
-17.1411481695
30
0.0000000000
10
24.6610475313
20
-17.1737118386
30
0.0000000000
10
24.6422334430
20
-17.2042778450
30
0.0000000000
10
24.6198305394
20
-17.2324018853
30
0.0000000000
10
24.5941647912
20
-17.2576759908
30
0.0000000000
10
24.5656094186
20
-17.2797335817
30
0.0000000000
10
24.5345792230
20
-17.2982549319
30
0.0000000000
10
24.5015253181
20
-17.3129716669
30
0.0000000000
10
24.4669257239
20
-17.3236706035
30
0.0000000000
10
24.4312891982
20
-17.3301967412
30
0.0000000000
10
24.4071657914
20
-17.3317027885
30
0.0000000000
10
24.3951136646
20
-17.3317387640
30
0.0000000000
11
24.6950679731
21
-17.0362964381
31
0.0000000000
11
24.6927800268
21
-17.0718398656
31
0.0000000000
11
24.6861681473
21
-17.1068669856
31
0.0000000000
11
24.6753283794
21
-17.1408689903
31
0.0000000000
11
24.6604181828
21
-17.1733519629
31
0.0000000000
11
24.6416541446
21
-17.2038440525
31
0.0000000000
11
24.6193088331
21
-17.2319023275
31
0.0000000000
11
24.5937068388
21
-17.2571192107
31
0.0000000000
11
24.5652200590
21
-17.2791283988
31
0.0000000000
11
24.5342622955
21
-17.2976101839
31
0.0000000000
11
24.5012832443
21
-17.3122960979
31
0.0000000000
11
24.4667619625
21
-17.3229728114
31
0.0000000000
11
24.4311999098
21
-17.3294852335
31
0.0000000000
11
24.3951136646
21
-17.3317387640
31
0.0000000000
0
SPLINE
5
2AC
100
AcDbEntity
8
0
100
AcDbSpline
62
0
6
CONTINUOUS
70
0
71
3
72
29
73
25
74
23
42
0.0000001000
43
0.0000001000
44
0.0000000001
12
-3.3167798421
22
0.0000000000
32
0.0000000000
13
-0.0008551046
23
3.3167797319
33
0.0000000000
40
0.0000000000
40
0.0000000000
40
0.0000000000
40
0.0000000000
40
0.0454386510
40
0.0908776702
40
0.1363175868
40
0.1817584061
40
0.2272011339
40
0.2726453623
40
0.3180916713
40
0.3635398824
40
0.4089907632
40
0.4544437839
40
0.4998989179
40
0.5453561925
40
0.5908156623
40
0.6362770568
40
0.6817396536
40
0.7272037853
40
0.7726688972
40
0.8181349874
40
0.8636011222
40
0.9090676524
40
0.9545339856
40
1.0000000000
40
1.0000000000
40
1.0000000000
40
1.0000000000
10
-7.9500000000
20
-14.6617552853
30
0.0000000000
10
-8.0002366673
20
-14.6617552853
30
0.0000000000
10
-8.1007473142
20
-14.6581680586
30
0.0000000000
10
-8.2507174946
20
-14.6420527528
30
0.0000000000
10
-8.3991672230
20
-14.6152844702
30
0.0000000000
10
-8.5453322929
20
-14.5779984899
30
0.0000000000
10
-8.6884717148
20
-14.5303835011
30
0.0000000000
10
-8.8278568684
20
-14.4726803641
30
0.0000000000
10
-8.9627777466
20
-14.4051816553
30
0.0000000000
10
-9.0925477686
20
-14.3282291899
30
0.0000000000
10
-9.2165053107
20
-14.2422134056
30
0.0000000000
10
-9.3340182596
20
-14.1475708700
30
0.0000000000
10
-9.4444865815
20
-14.0447827789
30
0.0000000000
10
-9.5473465037
20
-13.9343715666
30
0.0000000000
10
-9.6420726935
20
-13.8168988327
30
0.0000000000
10
-9.7281807150
20
-13.6929630258
30
0.0000000000
10
-9.8052303778
20
-13.5631956049
30
0.0000000000
10
-9.8728276139
20
-13.4282582291
30
0.0000000000
10
-9.9306269952
20
-13.2888384654
30
0.0000000000
10
-9.9783326577
20
-13.1456479508
30
0.0000000000
10
-10.0157008441
20
-12.9994177226
30
0.0000000000
10
-10.0425405679
20
-12.8508916162
30
0.0000000000
10
-10.0587149005
20
-12.7008371584
30
0.0000000000
10
-10.0623326135
20
-12.6002669184
30
0.0000000000
10
-10.0623455729
20
-12.5500000000
30
0.0000000000
11
-7.9500000000
21
-14.6617552853
31
0.0000000000
11
-8.1006140782
21
-14.6563790313
31
0.0000000000
11
-8.2504627086
21
-14.6402774581
31
0.0000000000
11
-8.3987848046
21
-14.6135318843
31
0.0000000000
11
-8.5448252316
21
-14.5762778103
31
0.0000000000
11
-8.6878435008
21
-14.5287030771
31
0.0000000000
11
-8.8271098112
21
-14.4710491462
31
0.0000000000
11
-8.9619163499
21
-14.4036076275
31
0.0000000000
11
-9.0915754980
21
-14.3267209020
31
0.0000000000
11
-9.2154282932
21
-14.2407777928
31
0.0000000000
11
-9.3328414978
21
-14.1462155787
31
0.0000000000
11
-9.4432160002
21
-14.0435147726
31
0.0000000000
11
-9.5459885344
21
-13.9331973513
31
0.0000000000
11
-9.6406344628
21
-13.8158241384
31
0.0000000000
11
-9.7266698025
21
-13.6919929297
31
0.0000000000
11
-9.8036538296
21
-13.5623360357
31
0.0000000000
11
-9.8711939166
21
-13.4275127342
31
0.0000000000
11
-9.9289441954
21
-13.2882113642
31
0.0000000000
11
-9.9766096537
21
-13.1451416287
31
0.0000000000
11
-10.0139459961
21
-12.9990355470
31
0.0000000000
11
-10.0407630322
21
-12.8506366528
31
0.0000000000
11
-10.0569236389
21
-12.7007032577
31
0.0000000000
11
-10.0623455729
21
-12.5500000000
31
0.0000000000
0
SPLINE
5
2AD
100
AcDbEntity
8
0
100
AcDbSpline
62
0
6
CONTINUOUS
70
0
71
3
72
29
73
25
74
23
42
0.0000001000
43
0.0000001000
44
0.0000000001
12
-0.0008551046
22
-3.3167797319
32
0.0000000000
13
-3.3167798421
23
-0.0000000000
33
0.0000000000
40
0.0000000000
40
0.0000000000
40
0.0000000000
40
0.0000000000
40
0.0454660138
40
0.0909323450
40
0.1363988778
40
0.1818650151
40
0.2273311031
40
0.2727962134
40
0.3182603466
40
0.3637229451
40
0.4091843383
40
0.4546438081
40
0.5001010824
40
0.5455562166
40
0.5910092374
40
0.6364601195
40
0.6819083288
40
0.7273546364
40
0.7727988664
40
0.8182415965
40
0.8636824131
40
0.9091223270
40
0.9545613483
40
1.0000000000
40
1.0000000000
40
1.0000000000
40
1.0000000000
10
10.0623455729
20
-12.5500000000
30
0.0000000000
10
10.0623326135
20
-12.6002669176
30
0.0000000000
10
10.0587149007
20
-12.7008371548
30
0.0000000000
10
10.0425405684
20
-12.8508916126
30
0.0000000000
10
10.0157008443
20
-12.9994177225
30
0.0000000000
10
9.9783326568
20
-13.1456479538
30
0.0000000000
10
9.9306269945
20
-13.2888384670
30
0.0000000000
10
9.8728276143
20
-13.4282582282
30
0.0000000000
10
9.8052303776
20
-13.5631956057
30
0.0000000000
10
9.7281807135
20
-13.6929630283
30
0.0000000000
10
9.6420726914
20
-13.8168988354
30
0.0000000000
10
9.5473465026
20
-13.9343715678
30
0.0000000000
10
9.4444865803
20
-14.0447827801
30
0.0000000000
10
9.3340182584
20
-14.1475708711
30
0.0000000000
10
9.2165053080
20
-14.2422134077
30
0.0000000000
10
9.0925477662
20
-14.3282291915
30
0.0000000000
10
8.9627777459
20
-14.4051816555
30
0.0000000000
10
8.8278568693
20
-14.4726803637
30
0.0000000000
10
8.6884717133
20
-14.5303835018
30
0.0000000000
10
8.5453322899
20
-14.5779984907
30
0.0000000000
10
8.3991672232
20
-14.6152844699
30
0.0000000000
10
8.2507174984
20
-14.6420527522
30
0.0000000000
10
8.1007473180
20
-14.6581680584
30
0.0000000000
10
8.0002366680
20
-14.6617552853
30
0.0000000000
10
7.9500000000
20
-14.6617552853
30
0.0000000000
11
10.0623455729
21
-12.5500000000
31
0.0000000000
11
10.0569236391
21
-12.7007032555
31
0.0000000000
11
10.0407630335
21
-12.8506366442
31
0.0000000000
11
10.0139459962
21
-12.9990355469
31
0.0000000000
11
9.9766096514
21
-13.1451416368
31
0.0000000000
11
9.9289441951
21
-13.2882113652
31
0.0000000000
11
9.8711939183
21
-13.4275127304
31
0.0000000000
11
9.8036538294
21
-13.5623360362
31
0.0000000000
11
9.7266697991
21
-13.6919929349
31
0.0000000000
11
9.6406344616
21
-13.8158241401
31
0.0000000000
11
9.5459885330
21
-13.9331973529
31
0.0000000000
11
9.4432159995
21
-14.0435147733
31
0.0000000000
11
9.3328414963
21
-14.1462155799
31
0.0000000000
11
9.2154282916
21
-14.2407777940
31
0.0000000000
11
9.0915754928
21
-14.3267209054
31
0.0000000000
11
8.9619163495
21
-14.4036076277
31
0.0000000000
11
8.8271098152
21
-14.4710491443
31
0.0000000000
11
8.6878434999
21
-14.5287030775
31
0.0000000000
11
8.5448252236
21
-14.5762778127
31
0.0000000000
11
8.3987848048
21
-14.6135318843
31
0.0000000000
11
8.2504627176
21
-14.6402774568
31
0.0000000000
11
8.1006140805
21
-14.6563790311
31
0.0000000000
11
7.9500000000
21
-14.6617552853
31
0.0000000000
0
SPLINE
5
2AE
100
AcDbEntity
8
0
100
AcDbSpline
62
0
6
CONTINUOUS
70
0
71
3
72
20
73
16
74
14
42
0.0000001000
43
0.0000001000
44
0.0000000001
12
-0.0519499151
22
0.2947123733
32
0.0000000000
13
0.2947096670
23
0.0519652658
33
0.0000000000
40
0.0000000000
40
0.0000000000
40
0.0000000000
40
0.0000000000
40
0.1205817788
40
0.2393683808
40
0.3546348472
40
0.4647074054
40
0.5679878197
40
0.6629766651
40
0.7482952039
40
0.8227055890
40
0.8851292094
40
0.9346632238
40
0.9705962376
40
0.9924295739
40
1.0000000000
40
1.0000000000
40
1.0000000000
40
1.0000000000
10
-45.2575932296
20
17.0362964381
30
0.0000000000
10
-45.2596813007
20
17.0481420855
30
0.0000000000
10
-45.2638021442
20
17.0716613110
30
0.0000000000
10
-45.2698344304
20
17.1065187275
30
0.0000000000
10
-45.2756141257
20
17.1403560514
30
0.0000000000
10
-45.2810568993
20
17.1726810636
30
0.0000000000
10
-45.2860856710
20
17.2030265076
30
0.0000000000
10
-45.2906219212
20
17.2309438082
30
0.0000000000
10
-45.2946191861
20
17.2560523135
30
0.0000000000
10
-45.2979621369
20
17.2779099475
30
0.0000000000
10
-45.3007759880
20
17.2964266604
30
0.0000000000
10
-45.3025517743
20
17.3107076925
30
0.0000000000
10
-45.3044449331
20
17.3220970649
30
0.0000000000
10
-45.3040286123
20
17.3272173744
30
0.0000000000
10
-45.3051956536
20
17.3316076309
30
0.0000000000
10
-45.3044519610
20
17.3317387640
30
0.0000000000
11
-45.2575932296
21
17.0362964381
31
0.0000000000
11
-45.2638205581
21
17.0718398623
31
0.0000000000
11
-45.2698813732
21
17.1068669797
31
0.0000000000
11
-45.2756876349
21
17.1408689826
31
0.0000000000
11
-45.2811550008
21
17.1733519544
31
0.0000000000
11
-45.2862040514
21
17.2038440438
31
0.0000000000
11
-45.2907614436
21
17.2319023195
31
0.0000000000
11
-45.2947609762
21
17.2571192037
31
0.0000000000
11
-45.2981445515
21
17.2791283933
31
0.0000000000
11
-45.3008630194
21
17.2976101801
31
0.0000000000
11
-45.3028768910
21
17.3122960955
31
0.0000000000
11
-45.3041569126
21
17.3229728103
31
0.0000000000
11
-45.3046844905
21
17.3294852332
31
0.0000000000
11
-45.3044519610
21
17.3317387640
31
0.0000000000
0
SPLINE
5
2AF
100
AcDbEntity
8
0
100
AcDbSpline
62
0
6
CONTINUOUS
70
0
71
3
72
23
73
19
74
17
42
0.0000001000
43
0.0000001000
44
0.0000000001
12
-0.9356689586
22
-0.1649926386
32
0.0000000000
13
-0.0366402594
23
-0.9493979473
33
0.0000000000
40
0.0000000000
40
0.0000000000
40
0.0000000000
40
0.0000000000
40
0.0624881003
40
0.1249924520
40
0.1874975778
40
0.2500019767
40
0.3125060978
40
0.3750102009
40
0.4375138270
40
0.5000167185
40
0.5625190408
40
0.6250210080
40
0.6875225438
40
0.7500232782
40
0.8125235530
40
0.8750239345
40
0.9375230233
40
1.0000000000
40
1.0000000000
40
1.0000000000
40
1.0000000000
10
-45.2575932296
20
17.0362964381
30
0.0000000000
10
-45.2770826215
20
17.0328597459
30
0.0000000000
10
-45.3157949735
20
17.0243273824
30
0.0000000000
10
-45.3725564610
20
17.0066560715
30
0.0000000000
10
-45.4276250073
20
16.9842344516
30
0.0000000000
10
-45.4805936498
20
16.9572260810
30
0.0000000000
10
-45.5310824899
20
16.9258253994
30
0.0000000000
10
-45.5787278344
20
16.8902584380
30
0.0000000000
10
-45.6231868107
20
16.8507813203
30
0.0000000000
10
-45.6641393691
20
16.8076783801
30
0.0000000000
10
-45.7012909173
20
16.7612599003
30
0.0000000000
10
-45.7343742312
20
16.7118599361
30
0.0000000000
10
-45.7631512782
20
16.6598341592
30
0.0000000000
10
-45.7874150456
20
16.6055569597
30
0.0000000000
10
-45.8069911624
20
16.5494192562
30
0.0000000000
10
-45.8217386496
20
16.4918236738
30
0.0000000000
10
-45.8315506456
20
16.4331971534
30
0.0000000000
10
-45.8347560082
20
16.3936907066
30
0.0000000000
10
-45.8355190657
20
16.3739188688
30
0.0000000000
11
-45.2575932296
21
17.0362964381
31
0.0000000000
11
-45.3155717078
21
17.0235167151
31
0.0000000000
11
-45.3722732505
21
17.0058646906
31
0.0000000000
11
-45.4272752428
21
16.9834698901
31
0.0000000000
11
-45.4801804738
21
16.9564939608
31
0.0000000000
11
-45.5306086121
21
16.9251309929
31
0.0000000000
11
-45.5781969395
21
16.8896066076
31
0.0000000000
11
-45.6226026425
21
16.8501767893
31
0.0000000000
11
-45.6635060442
21
16.8071255888
31
0.0000000000
11
-45.7006129873
21
16.7607628379
31
0.0000000000
11
-45.7336566340
21
16.7114221119
31
0.0000000000
11
-45.7623992182
21
16.6594586149
31
0.0000000000
11
-45.7866338486
21
16.6052466845
31
0.0000000000
11
-45.8061864043
21
16.5491762250
31
0.0000000000
11
-45.8209163580
21
16.4916502363
31
0.0000000000
11
-45.8307176235
21
16.4330840325
31
0.0000000000
11
-45.8355190657
21
16.3739188688
31
0.0000000000
0
SPLINE
5
2B0
100
AcDbEntity
8
0
100
AcDbSpline
62
0
6
CONTINUOUS
70
0
71
3
72
15
73
11
74
9
42
0.0000001000
43
0.0000001000
44
0.0000000001
12
-1.2628707407
22
-32.7314756765
32
0.0000000000
13
1.2628707436
23
-32.7314756763
33
0.0000000000
40
0.0000000000
40
0.0000000000
40
0.0000000000
40
0.0000000000
40
0.1249999925
40
0.2499999970
40
0.3749999984
40
0.4999999976
40
0.6249999969
40
0.7499999983
40
0.8750000028
40
1.0000000000
40
1.0000000000
40
1.0000000000
40
1.0000000000
10
-45.8355190657
20
16.3739188688
30
0.0000000000
10
-45.8881386768
20
15.0101074643
30
0.0000000000
10
-45.9802301033
20
12.2819589233
30
0.0000000000
10
-46.0789082041
20
8.1886092156
30
0.0000000000
10
-46.1381188437
20
4.0944944122
30
0.0000000000
10
-46.1578563124
20
0.0000000774
30
0.0000000000
10
-46.1381188452
20
-4.0944942574
30
0.0000000000
10
-46.0789082071
20
-8.1886090610
30
0.0000000000
10
-45.9802301064
20
-12.2819588204
30
0.0000000000
10
-45.8881386789
20
-15.0101074129
30
0.0000000000
10
-45.8355190657
20
-16.3739188688
30
0.0000000000
11
-45.8355190657
21
16.3739188688
31
0.0000000000
11
-45.9736535929
21
12.2817712436
31
0.0000000000
11
-46.0723302942
21
8.1884816791
31
0.0000000000
11
-46.1315399823
21
4.0944311229
31
0.0000000000
11
-46.1512771565
21
0.0000000775
31
0.0000000000
11
-46.1315399838
21
-4.0944309681
31
0.0000000000
11
-46.0723302972
21
-8.1884815245
31
0.0000000000
11
-45.9736535973
21
-12.2817710892
31
0.0000000000
11
-45.8355190657
21
-16.3739188688
31
0.0000000000
0
SPLINE
5
2B1
100
AcDbEntity
8
0
100
AcDbSpline
62
0
6
CONTINUOUS
70
0
71
3
72
23
73
19
74
17
42
0.0000001000
43
0.0000001000
44
0.0000000001
12
0.0366392354
22
-0.9493979868
32
0.0000000000
13
0.9356687809
23
-0.1649936465
33
0.0000000000
40
0.0000000000
40
0.0000000000
40
0.0000000000
40
0.0000000000
40
0.0624826220
40
0.1249819079
40
0.1874825042
40
0.2499830087
40
0.3124839648
40
0.3749857340
40
0.4374879373
40
0.4999903519
40
0.5624931524
40
0.6249965435
40
0.6875004141
40
0.7500043149
40
0.8125084854
40
0.8750133966
40
0.9375175502
40
1.0000000000
40
1.0000000000
40
1.0000000000
40
1.0000000000
10
-45.8355190657
20
-16.3739188688
30
0.0000000000
10
-45.8347559606
20
-16.3936924940
30
0.0000000000
10
-45.8315502526
20
-16.4332007836
30
0.0000000000
10
-45.8217375297
20
-16.4918291270
30
0.0000000000
10
-45.8069894989
20
-16.5494247825
30
0.0000000000
10
-45.7874128529
20
-16.6055625246
30
0.0000000000
10
-45.7631485189
20
-16.6598397099
30
0.0000000000
10
-45.7343708982
20
-16.7118654202
30
0.0000000000
10
-45.7012870227
20
-16.7612652235
30
0.0000000000
10
-45.6641349834
20
-16.8076834068
30
0.0000000000
10
-45.6231820639
20
-16.8507859016
30
0.0000000000
10
-45.5787228512
20
-16.8902624852
30
0.0000000000
10
-45.5310773619
20
-16.9258288877
30
0.0000000000
10
-45.4805884297
20
-16.9572290102
30
0.0000000000
10
-45.4276197527
20
-16.9842368512
30
0.0000000000
10
-45.3725512048
20
-17.0066579222
30
0.0000000000
10
-45.3157914265
20
-17.0243282647
30
0.0000000000
10
-45.2770808555
20
-17.0328600357
30
0.0000000000
10
-45.2575932296
20
-17.0362964381
30
0.0000000000
11
-45.8355190657
21
-16.3739188688
31
0.0000000000
11
-45.8307169597
21
-16.4330893599
31
0.0000000000
11
-45.8209152226
21
-16.4916556747
31
0.0000000000
11
-45.8061847449
21
-16.5491817398
31
0.0000000000
11
-45.7866316491
21
-16.6052522420
31
0.0000000000
11
-45.7623964595
21
-16.6594641533
31
0.0000000000
11
-45.7336532996
21
-16.7114275852
31
0.0000000000
11
-45.7006090671
21
-16.7607681888
31
0.0000000000
11
-45.6635016256
21
-16.8071306533
31
0.0000000000
11
-45.6225978716
21
-16.8501813997
31
0.0000000000
11
-45.5781919671
21
-16.8896106547
31
0.0000000000
11
-45.5306034963
21
-16.9251344788
31
0.0000000000
11
-45.4801752619
21
-16.9564968957
31
0.0000000000
11
-45.4272699988
21
-16.9834722843
31
0.0000000000
11
-45.3722680107
21
-17.0058665547
31
0.0000000000
11
-45.3155665148
21
-17.0235180962
31
0.0000000000
11
-45.2575932296
21
-17.0362964381
31
0.0000000000
0
SPLINE
5
2B2
100
AcDbEntity
8
0
100
AcDbSpline
62
0
6
CONTINUOUS
70
0
71
3
72
20
73
16
74
14
42
0.0000001000
43
0.0000001000
44
0.0000000001
12
-0.0519499149
22
-0.2947123733
32
0.0000000000
13
0.2947096670
23
-0.0519652658
33
0.0000000000
40
0.0000000000
40
0.0000000000
40
0.0000000000
40
0.0000000000
40
0.1205817900
40
0.2393684007
40
0.3546348731
40
0.4647074343
40
0.5679878490
40
0.6629766924
40
0.7482952273
40
0.8227056075
40
0.8851292224
40
0.9346632317
40
0.9705962413
40
0.9924295749
40
1.0000000000
40
1.0000000000
40
1.0000000000
40
1.0000000000
10
-45.2575932296
20
-17.0362964381
30
0.0000000000
10
-45.2596813008
20
-17.0481420866
30
0.0000000000
10
-45.2638021447
20
-17.0716613141
30
0.0000000000
10
-45.2698344313
20
-17.1065187331
30
0.0000000000
10
-45.2756141269
20
-17.1403560588
30
0.0000000000
10
-45.2810569006
20
-17.1726810719
30
0.0000000000
10
-45.2860856724
20
-17.2030265160
30
0.0000000000
10
-45.2906219224
20
-17.2309438161
30
0.0000000000
10
-45.2946191871
20
-17.2560523203
30
0.0000000000
10
-45.2979621377
20
-17.2779099529
30
0.0000000000
10
-45.3007759884
20
-17.2964266643
30
0.0000000000
10
-45.3025517746
20
-17.3107076950
30
0.0000000000
10
-45.3044449331
20
-17.3220970661
30
0.0000000000
10
-45.3040286124
20
-17.3272173750
30
0.0000000000
10
-45.3051956535
20
-17.3316076309
30
0.0000000000
10
-45.3044519610
20
-17.3317387640
30
0.0000000000
11
-45.2575932296
21
-17.0362964381
31
0.0000000000
11
-45.2638205586
21
-17.0718398656
31
0.0000000000
11
-45.2698813741
21
-17.1068669856
31
0.0000000000
11
-45.2756876361
21
-17.1408689903
31
0.0000000000
11
-45.2811550022
21
-17.1733519629
31
0.0000000000
11
-45.2862040527
21
-17.2038440525
31
0.0000000000
11
-45.2907614448
21
-17.2319023275
31
0.0000000000
11
-45.2947609772
21
-17.2571192107
31
0.0000000000
11
-45.2981445523
21
-17.2791283988
31
0.0000000000
11
-45.3008630199
21
-17.2976101839
31
0.0000000000
11
-45.3028768913
21
-17.3122960979
31
0.0000000000
11
-45.3041569127
21
-17.3229728114
31
0.0000000000
11
-45.3046844905
21
-17.3294852335
31
0.0000000000
11
-45.3044519610
21
-17.3317387640
31
0.0000000000
0
ENDSEC
0
SECTION
2
OBJECTS
0
DICTIONARY
5
C
100
AcDbDictionary
280
0
281
1
3
ACAD_GROUP
350
D
3
ACAD_MLINESTYLE
350
17
3
ACAD_LAYOUT
350
1A
3
ACAD_PLOTSETTINGS
350
19
3
ACAD_PLOTSTYLENAME
350
E
0
DICTIONARY
5
D
102
{ACAD_REACTORS
330
C
102
}
100
AcDbDictionary
280
0
281
1
0
ACDBDICTIONARYWDFLT
5
E
102
{ACAD_REACTORS
330
C
102
}
100
AcDbDictionary
281
1
3
Normal
350
F
100
AcDbDictionaryWithDefault
340
F
0
DICTIONARY
5
17
102
{ACAD_REACTORS
330
C
102
}
100
AcDbDictionary
280
0
281
1
3
Standard
350
18
0
DICTIONARY
5
19
102
{ACAD_REACTORS
330
C
102
}
100
AcDbDictionary
281
1
0
DICTIONARY
5
1A
102
{ACAD_REACTORS
330
C
102
}
100
AcDbDictionary
281
1
3
Layout1
350
1E
3
Model
350
22
0
ACDBPLACEHOLDER
5
F
102
{ACAD_REACTORS
330
E
102
}
0
MLINESTYLE
5
18
102
{ACAD_REACTORS
330
17
102
}
100
AcDbMlineStyle
2
STANDARD
70
0
3

62
256
51
90.0
52
90.0
71
2
49
0.5
62
256
6
BYLAYER
49
-0.5
62
256
6
BYLAYER
0
LAYOUT
5
1E
102
{ACAD_REACTORS
330
1A
102
}
100
AcDbPlotSettings
1

2

4

6

40
0.0
41
0.0
42
0.0
43
0.0
44
0.0
45
0.0
46
0.0
47
0.0
48
0.0
49
0.0
140
0.0
141
0.0
142
1.0
143
1.0
70
0
72
0
73
0
74
0
7

75
0
147
1.0
148
0.0
149
0.0
100
AcDbLayout
1
Layout1
70
0
71
0
10
0.0
20
0.0
11
0.0
21
0.0
12
0.0
22
0.0
32
0.0
14
0.0
24
0.0
34
0.0
15
0.0
25
0.0
35
0.0
146
0.0
13
0.0
23
0.0
33
0.0
16
0.0
26
0.0
36
0.0
17
0.0
27
0.0
37
0.0
76
0
330
1B
331
0
345
0
346
0
0
LAYOUT
5
22
102
{ACAD_REACTORS
330
1A
102
}
100
AcDbPlotSettings
1

2

4

6

40
0.0
41
0.0
42
0.0
43
0.0
44
0.0
45
0.0
46
0.0
47
0.0
48
0.0
49
0.0
140
0.0
141
0.0
142
1.0
143
1.0
70
0
72
0
73
0
74
0
7

75
0
147
1.0
148
0.0
149
0.0
100
AcDbLayout
1
Model
70
0
71
0
10
0.0
20
0.0
11
0.0
21
0.0
12
0.0
22
0.0
32
0.0
14
0.0
24
0.0
34
0.0
15
0.0
25
0.0
35
0.0
146
0.0
13
0.0
23
0.0
33
0.0
16
0.0
26
0.0
36
0.0
17
0.0
27
0.0
37
0.0
76
0
330
1F
331
0
345
0
346
0
0
ENDSEC
0
EOF
