0
SECTION
2
HEADER
9
$ACADVER
1
AC1015
9
$DWGCODEPAGE
3
ANSI_1252
9
$EXTMAX
10
558.8000000000
20
431.8000000000
30
0.0000000000
9
$EXTMIN
10
0.0000000000
20
0.0000000000
30
0.0000000000
9
$LIMMIN
10
0.0000000000
20
0.0000000000
9
$LIMMAX
10
558.8000000000
20
431.8000000000
9
$VIEWCTR
10
279.4000000000
20
215.9000000000
9
$VIEWSIZE
40
431.8000000000
9
$CLAYER
8
0
9
$LTSCALE
40
30.7340000000
9
$CELTYPE
6
BYLAYER
9
$DIMSCALE
40
1
9
$DIMASZ
40
3.0000000000
9
$DIMEXO
40
3.4925000000
9
$DIMDLI
40
21.2344000000
9
$DIMEXE
40
10.0584000000
9
$DIMCEN
40
5.0292000000
9
$DIMLFAC
40
1.0000000000
9
$DIMBLK
1
_FILLED
9
$DIMTXT
40
3.0000000000
9
$DIMTOL
70
1
9
$DIMLIM
70
0
9
$DIMTFAC
40
1.0000000000
9
$DIMTP
40
0.0100000000
9
$DIMTM
40
0.0100000000
9
$PDMODE
70
3
9
$PDSIZE
40
3.0000000000
9
$HANDSEED
5
2C7
9
$MEASUREMENT
70
1
9
$INSUNITS
70
4
0
ENDSEC
0
SECTION
2
CLASSES
0
CLASS
1
ACDBDICTIONARYWDFLT
2
AcDbDictionaryWithDefault
3
AutoCAD 2000
90
0
280
0
281
0
0
CLASS
1
ACDBPLACEHOLDER
2
AcDbPlaceHolder
3
AutoCAD 2000
90
0
280
0
281
0
0
CLASS
1
LAYOUT
2
AcDbLayout
3
AutoCAD 2000
90
0
280
0
281
0
0
ENDSEC
0
SECTION
2
TABLES
0
TABLE
2
VPORT
5
8
100
AcDbSymbolTable
70
2
0
VPORT
5
1F4
100
AcDbSymbolTableRecord
100
AcDbViewportTableRecord
2
*ACTIVE
70
0
10
0.0
20
0.0
11
1.0
21
1.0
12
279.4000000000
22
215.9000000000
13
0.0
23
0.0
14
1.0
24
1.0
15
0.0
25
0.0
16
0.0
26
0.0
36
1.0
17
0.0
27
0.0
37
0.0
40
431.8000000000
41
1.2941176471
42
50.0
43
0.0
44
0.0
50
0.0
51
0.0
71
0
72
100
73
1
74
1
75
0
76
0
77
0
78
0
0
ENDTAB
0
TABLE
2
LTYPE
5
5
100
AcDbSymbolTable
70
6
0
LTYPE
5
14
100
AcDbSymbolTableRecord
100
AcDbLinetypeTableRecord
2
BYBLOCK
70
0
3

72
65
73
0
40
0.0
0
LTYPE
5
15
100
AcDbSymbolTableRecord
100
AcDbLinetypeTableRecord
2
BYLAYER
70
0
3

72
65
73
0
40
0.0
0
LTYPE
5
16
100
AcDbSymbolTableRecord
100
AcDbLinetypeTableRecord
2
CONTINUOUS
70
64
3
Solid line
72
65
73
0
40
0
0
LTYPE
5
1F5
100
AcDbSymbolTableRecord
100
AcDbLinetypeTableRecord
2
CENTER
70
64
3
____ _ ____ _ ____ _ ____ _ ____ _ ____ _ ____
72
65
73
4
40
0.6
49
0.375
74
0
49
-0.075
74
0
49
0.075
74
0
49
-0.075
74
0
0
LTYPE
5
1F6
100
AcDbSymbolTableRecord
100
AcDbLinetypeTableRecord
2
HIDDEN
70
64
3
- - - - - - - - - - - - - - - - - - - -
72
65
73
2
40
0.2
49
0.1
74
0
49
-0.1
74
0
0
LTYPE
5
1F7
100
AcDbSymbolTableRecord
100
AcDbLinetypeTableRecord
2
PHANTOM
70
64
3
_____ _ _ _____ _ _ _____ _ _ _____
72
65
73
6
40
0.8
49
0.45
74
0
49
-0.05
74
0
49
0.1
74
0
49
-0.05
74
0
49
0.1
74
0
49
-0.05
74
0
0
LTYPE
5
1F8
100
AcDbSymbolTableRecord
100
AcDbLinetypeTableRecord
2
DOT
70
64
3
. . . . . . . . . . . . . . . . . . . .
72
65
73
2
40
0.2
49
0.1
74
0
49
-0.1
74
0
0
LTYPE
5
1F9
100
AcDbSymbolTableRecord
100
AcDbLinetypeTableRecord
2
DASHED
70
64
3
- - - - - - - - - - - - - - - - - - - -
72
65
73
2
40
0.2
49
0.1
74
0
49
-0.1
74
0
0
ENDTAB
0
TABLE
2
LAYER
5
2
100
AcDbSymbolTable
70
36
0
LAYER
5
10
100
AcDbSymbolTableRecord
100
AcDbLayerTableRecord
2
0
70
0
62
7
6
CONTINUOUS
370
-3
390
F
0
LAYER
5
1FA
100
AcDbSymbolTableRecord
100
AcDbLayerTableRecord
2
DEFAULT_1
70
0
62
7
6
CENTER
370
-3
390
F
0
LAYER
5
1FB
100
AcDbSymbolTableRecord
100
AcDbLayerTableRecord
2
DEFAULT_2
70
0
62
0
6
HIDDEN
370
-3
390
F
0
LAYER
5
1FC
100
AcDbSymbolTableRecord
100
AcDbLayerTableRecord
2
DEFAULT_3
70
0
62
7
6
PHANTOM
370
-3
390
F
0
LAYER
5
1FD
100
AcDbSymbolTableRecord
100
AcDbLayerTableRecord
2
ASSI
70
0
62
7
6
CONTINUOUS
370
-3
390
F
0
LAYER
5
1FE
100
AcDbSymbolTableRecord
100
AcDbLayerTableRecord
2
COORDINATE
70
0
62
7
6
CONTINUOUS
370
-3
390
F
0
LAYER
5
1FF
100
AcDbSymbolTableRecord
100
AcDbLayerTableRecord
2
COORD_ORIGINE
70
0
62
7
6
CONTINUOUS
370
-3
390
F
0
LAYER
5
200
100
AcDbSymbolTableRecord
100
AcDbLayerTableRecord
2
CURVE
70
0
62
7
6
CONTINUOUS
370
-3
390
F
0
LAYER
5
201
100
AcDbSymbolTableRecord
100
AcDbLayerTableRecord
2
CURVE_LED_TASTO
70
0
62
7
6
CONTINUOUS
370
-3
390
F
0
LAYER
5
202
100
AcDbSymbolTableRecord
100
AcDbLayerTableRecord
2
DRAFT
70
0
62
7
6
CONTINUOUS
370
-3
390
F
0
LAYER
5
203
100
AcDbSymbolTableRecord
100
AcDbLayerTableRecord
2
PIANI
70
0
62
7
6
CONTINUOUS
370
-3
390
F
0
LAYER
5
204
100
AcDbSymbolTableRecord
100
AcDbLayerTableRecord
2
PIANI_ORIGINE
70
0
62
7
6
CONTINUOUS
370
-3
390
F
0
LAYER
5
205
100
AcDbSymbolTableRecord
100
AcDbLayerTableRecord
2
PIANI_RIFERIMENTO
70
0
62
7
6
CONTINUOUS
370
-3
390
F
0
LAYER
5
206
100
AcDbSymbolTableRecord
100
AcDbLayerTableRecord
2
PUNTI
70
0
62
7
6
CONTINUOUS
370
-3
390
F
0
LAYER
5
207
100
AcDbSymbolTableRecord
100
AcDbLayerTableRecord
2
RACCORDO
70
0
62
7
6
CONTINUOUS
370
-3
390
F
0
LAYER
5
208
100
AcDbSymbolTableRecord
100
AcDbLayerTableRecord
2
SCRITTE
70
0
62
7
6
CONTINUOUS
370
-3
390
F
0
LAYER
5
209
100
AcDbSymbolTableRecord
100
AcDbLayerTableRecord
2
SNAPLINE
70
0
62
7
6
CONTINUOUS
370
-3
390
F
0
LAYER
5
20A
100
AcDbSymbolTableRecord
100
AcDbLayerTableRecord
2
SUPERFICI
70
0
62
7
6
CONTINUOUS
370
-3
390
F
0
LAYER
5
20B
100
AcDbSymbolTableRecord
100
AcDbLayerTableRecord
2
TRASH
70
0
62
7
6
CONTINUOUS
370
-3
390
F
0
ENDTAB
0
TABLE
2
STYLE
5
3
100
AcDbSymbolTable
70
1
0
STYLE
5
11
100
AcDbSymbolTableRecord
100
AcDbTextStyleTableRecord
2
STANDARD
70
0
40
0.0
41
0.8000000000
50
0.0
71
0
42
0.2
3
txt
4

0
ENDTAB
0
TABLE
2
VIEW
5
6
100
AcDbSymbolTable
70
0
0
ENDTAB
0
TABLE
2
UCS
5
7
100
AcDbSymbolTable
70
0
0
ENDTAB
0
TABLE
2
APPID
5
9
100
AcDbSymbolTable
70
1
0
APPID
5
20C
100
AcDbSymbolTableRecord
100
AcDbRegAppTableRecord
2
ACAD
70
0
0
ENDTAB
0
TABLE
2
BLOCK_RECORD
5
1
100
AcDbSymbolTable
70
0
0
BLOCK_RECORD
5
1F
100
AcDbSymbolTableRecord
100
AcDbBlockTableRecord
2
*MODEL_SPACE
0
BLOCK_RECORD
5
1B
100
AcDbSymbolTableRecord
100
AcDbBlockTableRecord
2
*PAPER_SPACE
0
BLOCK_RECORD
5
20D
100
AcDbSymbolTableRecord
100
AcDbBlockTableRecord
2
_FILLED
0
BLOCK_RECORD
5
20E
100
AcDbSymbolTableRecord
100
AcDbBlockTableRecord
2
*D0
0
BLOCK_RECORD
5
20F
100
AcDbSymbolTableRecord
100
AcDbBlockTableRecord
2
*D1
0
BLOCK_RECORD
5
210
100
AcDbSymbolTableRecord
100
AcDbBlockTableRecord
2
*D2
0
BLOCK_RECORD
5
211
100
AcDbSymbolTableRecord
100
AcDbBlockTableRecord
2
*D3
0
ENDTAB
0
TABLE
2
DIMSTYLE
5
A
100
AcDbSymbolTable
70
1
100
AcDbDimStyleTable
71
0
0
DIMSTYLE
105
212
100
AcDbSymbolTableRecord
100
AcDbDimStyleTableRecord
2
STANDARD
70
0
3

4

40
1.0
41
3.0000000000
42
0.0625
43
0.38
44
0.18
45
0.0
46
0.0
47
0.0100000000
48
0.0100000000
140
3.0000000000
141
0.09
142
0.0
143
25.4
144
1.0000000000
145
0.0
146
1.0000000000
147
0.09
71
1
72
0
73
0
74
0
75
0
76
0
77
1
78
8
170
0
171
2
172
0
173
0
174
0
175
0
176
0
177
0
178
0
270
2
271
2
272
2
273
2
274
2
275
0
280
0
281
0
282
0
283
1
284
8
285
0
286
0
287
3
288
0
340
11
341
20D
342
20D
343
20D
344
20D
0
DIMSTYLE
105
213
100
AcDbSymbolTableRecord
100
AcDbDimStyleTableRecord
2
DIMSTYLE_1
70
0
3

4

40
1.0
41
3.0000000000
42
0.0625
43
0.38
44
0.18
45
0.0
46
0.0
47
0.0000000000
48
0.0000000000
140
3.0000000000
141
0.09
142
0.0
143
25.4
144
1.0000000000
145
0.0
146
1.0000000000
147
0.09
71
0
72
0
73
0
74
0
75
0
76
0
77
1
78
8
170
0
171
2
172
0
173
0
174
0
175
0
176
0
177
0
178
0
270
2
271
2
272
2
273
2
274
2
275
0
280
0
281
0
282
0
283
1
284
8
285
0
286
0
287
3
288
0
340
11
341
20D
342
20D
343
20D
344
20D
0
ENDTAB
0
ENDSEC
0
SECTION
2
BLOCKS
0
BLOCK
5
20
100
AcDbEntity
8
0
100
AcDbBlockBegin
2
*MODEL_SPACE
70
0
10
0.0
20
0.0
30
0.0
3
*MODEL_SPACE
1

0
ENDBLK
5
21
100
AcDbEntity
8
0
100
AcDbBlockEnd
0
BLOCK
5
1C
100
AcDbEntity
8
0
100
AcDbBlockBegin
2
*PAPER_SPACE
70
0
10
0.0
20
0.0
30
0.0
3
*PAPER_SPACE
1

0
ENDBLK
5
1D
100
AcDbEntity
8
0
100
AcDbBlockEnd
0
BLOCK
5
214
100
AcDbEntity
8
0
100
AcDbBlockBegin
62
0
6
CONTINUOUS
2
*D0
70
65
10
0.0000000000
20
0.0000000000
3
*D0
1

0
TEXT
5
215
100
AcDbEntity
8
0
100
AcDbText
62
0
6
CONTINUOUS
10
-5.3049606645
20
27.1500000000
7
STANDARD
40
3.0000000000
1
49,6
41
0.7321428571
72
0
100
AcDbText
0
LINE
5
216
100
AcDbEntity
8
0
100
AcDbLine
62
0
6
CONTINUOUS
10
24.8000000000
20
18.5962952155
11
24.8000000000
21
27.9000000000
0
LINE
5
217
100
AcDbEntity
8
0
100
AcDbLine
62
0
6
CONTINUOUS
10
-24.8000000000
20
18.5962952155
11
-24.8000000000
21
27.9000000000
0
LINE
5
218
100
AcDbEntity
8
0
100
AcDbLine
62
0
6
CONTINUOUS
10
24.8000000000
20
26.4000000000
11
0.0000000000
21
26.4000000000
0
LINE
5
219
100
AcDbEntity
8
0
100
AcDbLine
62
0
6
CONTINUOUS
10
-24.8000000000
20
26.4000000000
11
0.0000000000
21
26.4000000000
0
INSERT
5
21A
100
AcDbEntity
8
0
100
AcDbBlockReference
62
0
6
CONTINUOUS
2
_FILLED
10
24.8000000000
20
26.4000000000
41
  3.000000
42
  3.000000
43
  3.000000
0
INSERT
5
21B
100
AcDbEntity
8
0
100
AcDbBlockReference
62
0
6
CONTINUOUS
2
_FILLED
10
-24.8000000000
20
26.4000000000
41
  3.000000
42
  3.000000
43
  3.000000
50
180.000000
0
ENDBLK
5
21C
100
AcDbEntity
8
0
6
BYBLOCK
62
0
100
AcDbBlockEnd
0
BLOCK
5
21D
100
AcDbEntity
8
0
100
AcDbBlockBegin
62
0
6
CONTINUOUS
2
*D1
70
65
10
0.0000000000
20
0.0000000000
3
*D1
1

0
TEXT
5
21E
100
AcDbEntity
8
0
100
AcDbText
62
0
6
CONTINUOUS
10
32.0500000000
20
-4.8908727295
7
STANDARD
40
3.0000000000
1
36,8
50
90.0000000000
41
0.7142857143
72
0
100
AcDbText
0
LINE
5
21F
100
AcDbEntity
8
0
100
AcDbLine
62
0
6
CONTINUOUS
10
25.0008636137
20
18.4000000000
11
34.3000000000
21
18.4000000000
0
LINE
5
220
100
AcDbEntity
8
0
100
AcDbLine
62
0
6
CONTINUOUS
10
25.0008636137
20
-18.4000000000
11
34.3000000000
21
-18.4000000000
0
LINE
5
221
100
AcDbEntity
8
0
100
AcDbLine
62
0
6
CONTINUOUS
10
32.8000000000
20
18.4000000000
11
32.8000000000
21
0.0000000000
0
LINE
5
222
100
AcDbEntity
8
0
100
AcDbLine
62
0
6
CONTINUOUS
10
32.8000000000
20
-18.4000000000
11
32.8000000000
21
0.0000000000
0
INSERT
5
223
100
AcDbEntity
8
0
100
AcDbBlockReference
62
0
6
CONTINUOUS
2
_FILLED
10
32.8000000000
20
18.4000000000
41
  3.000000
42
  3.000000
43
  3.000000
50
 90.000000
0
INSERT
5
224
100
AcDbEntity
8
0
100
AcDbBlockReference
62
0
6
CONTINUOUS
2
_FILLED
10
32.8000000000
20
-18.4000000000
41
  3.000000
42
  3.000000
43
  3.000000
50
270.000000
0
ENDBLK
5
225
100
AcDbEntity
8
0
6
BYBLOCK
62
0
100
AcDbBlockEnd
0
BLOCK
5
226
100
AcDbEntity
8
0
100
AcDbBlockBegin
62
0
6
CONTINUOUS
2
*D2
70
65
10
0.0000000000
20
0.0000000000
3
*D2
1

0
TEXT
5
227
100
AcDbEntity
8
0
100
AcDbText
62
0
6
CONTINUOUS
10
-42.5703896106
20
37.1500000000
7
STANDARD
40
3.0000000000
1
12
41
0.6785714286
72
0
100
AcDbText
0
LINE
5
228
100
AcDbEntity
8
0
100
AcDbLine
62
0
6
CONTINUOUS
10
-35.0299045218
20
1.7185839459
11
-35.0299045218
21
37.9000000000
0
LINE
5
229
100
AcDbEntity
8
0
100
AcDbLine
62
0
6
CONTINUOUS
10
-47.0299045218
20
0.5000000000
11
-47.0299045218
21
37.9000000000
0
LINE
5
22A
100
AcDbEntity
8
0
100
AcDbLine
62
0
6
CONTINUOUS
10
-35.0299045218
20
36.4000000000
11
-41.0299045218
21
36.4000000000
0
LINE
5
22B
100
AcDbEntity
8
0
100
AcDbLine
62
0
6
CONTINUOUS
10
-47.0299045218
20
36.4000000000
11
-41.0299045218
21
36.4000000000
0
INSERT
5
22C
100
AcDbEntity
8
0
100
AcDbBlockReference
62
0
6
CONTINUOUS
2
_FILLED
10
-35.0299045218
20
36.4000000000
41
  3.000000
42
  3.000000
43
  3.000000
0
INSERT
5
22D
100
AcDbEntity
8
0
100
AcDbBlockReference
62
0
6
CONTINUOUS
2
_FILLED
10
-47.0299045218
20
36.4000000000
41
  3.000000
42
  3.000000
43
  3.000000
50
180.000000
0
ENDBLK
5
22E
100
AcDbEntity
8
0
6
BYBLOCK
62
0
100
AcDbBlockEnd
0
BLOCK
5
22F
100
AcDbEntity
8
0
100
AcDbBlockBegin
62
0
6
CONTINUOUS
2
*D3
70
65
10
0.0000000000
20
0.0000000000
3
*D3
1

0
TEXT
5
230
100
AcDbEntity
8
0
100
AcDbText
62
0
6
CONTINUOUS
10
-46.2331503393
20
27.1500000000
7
STANDARD
40
3.0000000000
1
7,2
41
0.7142857143
72
0
100
AcDbText
0
LINE
5
231
100
AcDbEntity
8
0
100
AcDbLine
62
0
6
CONTINUOUS
10
-39.8299045218
20
18.5962952155
11
-39.8299045218
21
27.9000000000
0
LINE
5
232
100
AcDbEntity
8
0
100
AcDbLine
62
0
6
CONTINUOUS
10
-47.0299045218
20
0.5000000000
11
-47.0299045218
21
27.9000000000
0
LINE
5
233
100
AcDbEntity
8
0
100
AcDbLine
62
0
6
CONTINUOUS
10
-39.8299045218
20
26.4000000000
11
-35.8299045218
21
26.4000000000
0
LINE
5
234
100
AcDbEntity
8
0
100
AcDbLine
62
0
6
CONTINUOUS
10
-35.8299045218
20
26.4000000000
11
-43.4299045218
21
26.4000000000
0
LINE
5
235
100
AcDbEntity
8
0
100
AcDbLine
62
0
6
CONTINUOUS
10
-47.0299045218
20
26.4000000000
11
-51.0299045218
21
26.4000000000
0
LINE
5
236
100
AcDbEntity
8
0
100
AcDbLine
62
0
6
CONTINUOUS
10
-51.0299045218
20
26.4000000000
11
-43.4299045218
21
26.4000000000
0
INSERT
5
237
100
AcDbEntity
8
0
100
AcDbBlockReference
62
0
6
CONTINUOUS
2
_FILLED
10
-39.8299045218
20
26.4000000000
41
  3.000000
42
  3.000000
43
  3.000000
50
180.000000
0
INSERT
5
238
100
AcDbEntity
8
0
100
AcDbBlockReference
62
0
6
CONTINUOUS
2
_FILLED
10
-47.0299045218
20
26.4000000000
41
  3.000000
42
  3.000000
43
  3.000000
0
ENDBLK
5
239
100
AcDbEntity
8
0
6
BYBLOCK
62
0
100
AcDbBlockEnd
0
BLOCK
5
23A
100
AcDbEntity
8
0
100
AcDbBlockBegin
2
_FILLED
70
64
10
0.0000000000
20
0.0000000000
3
_FILLED
1

0
SOLID
5
23B
100
AcDbEntity
8
0
6
BYBLOCK
62
0
100
AcDbTrace
10
0.0000000000
20
0.0000000000
11
-1.0000000000
21
0.3166666667
12
-1.0000000000
22
-0.3166666667
13
-1.0000000000
23
-0.3166666667
0
ENDBLK
5
23C
100
AcDbEntity
8
0
6
BYBLOCK
62
0
100
AcDbBlockEnd
0
ENDSEC
0
SECTION
2
ENTITIES
0
DIMENSION
5
23D
100
AcDbEntity
8
0
100
AcDbDimension
62
0
6
CONTINUOUS
2
*D0
10
-24.8000000000
20
26.4000000000
11
-0.9121035216
21
28.6500000000
70
160
42
49.600000
3
DIMSTYLE_1
100
AcDbAlignedDimension
13
24.8000000000
23
18.5962952155
14
-24.8000000000
24
18.5962952155
50
180.000000
100
AcDbRotatedDimension
0
DIMENSION
5
23E
100
AcDbEntity
8
0
100
AcDbDimension
62
0
6
CONTINUOUS
2
*D1
10
32.8000000000
20
-18.4000000000
11
30.5500000000
21
-0.6051584438
70
160
42
36.800000
3
DIMSTYLE_1
100
AcDbAlignedDimension
13
25.0008636137
23
18.4000000000
14
25.0008636137
24
-18.4000000000
50
270.000000
100
AcDbRotatedDimension
0
DIMENSION
5
23F
100
AcDbEntity
8
0
100
AcDbDimension
62
0
6
CONTINUOUS
2
*D2
10
-47.0299045218
20
36.4000000000
11
-40.5346753249
21
38.6500000000
70
160
42
12.000000
3
DIMSTYLE_1
100
AcDbAlignedDimension
13
-35.0299045218
23
1.7185839459
14
-47.0299045218
24
0.5000000000
50
180.000000
100
AcDbRotatedDimension
0
DIMENSION
5
240
100
AcDbEntity
8
0
100
AcDbDimension
62
0
6
CONTINUOUS
2
*D3
10
-47.0299045218
20
26.4000000000
11
-43.0188646250
21
28.6500000000
70
160
42
7.200000
3
DIMSTYLE_1
100
AcDbAlignedDimension
13
-39.8299045218
23
18.5962952155
14
-47.0299045218
24
0.5000000000
50
180.000000
100
AcDbRotatedDimension
0
LINE
5
241
100
AcDbEntity
8
0
100
AcDbLine
62
0
6
CONTINUOUS
10
-24.8000000000
20
18.0962952155
11
-24.8000000000
21
-18.0962952155
0
LINE
5
242
100
AcDbEntity
8
0
100
AcDbLine
62
0
6
CONTINUOUS
10
-24.6950679731
20
17.0362964381
11
-24.8000000000
21
18.0962952155
0
LINE
5
243
100
AcDbEntity
8
0
100
AcDbLine
62
0
6
CONTINUOUS
10
-24.3951136646
20
17.3317387640
11
-24.5008636137
21
18.4000000000
0
LINE
5
244
100
AcDbEntity
8
0
100
AcDbLine
62
0
6
CONTINUOUS
10
-24.3850259316
20
-16.3854850935
11
-24.3850259316
21
16.3854850935
0
LINE
5
245
100
AcDbEntity
8
0
100
AcDbLine
62
0
6
CONTINUOUS
10
-24.8000000000
20
-18.0962952155
11
-24.6950679731
21
-17.0362964381
0
LINE
5
246
100
AcDbEntity
8
0
100
AcDbLine
62
0
6
CONTINUOUS
10
-24.5008636137
20
-18.4000000000
11
-24.3951136646
21
-17.3317387640
0
LINE
5
247
100
AcDbEntity
8
0
100
AcDbLine
62
0
6
CONTINUOUS
10
24.5008636137
20
-18.4000000000
11
-24.5008636137
21
-18.4000000000
0
LINE
5
248
100
AcDbEntity
8
0
100
AcDbLine
62
0
6
CONTINUOUS
10
-24.3951136646
20
-17.3317387640
11
24.3951136646
21
-17.3317387640
0
LINE
5
249
100
AcDbEntity
8
0
100
AcDbLine
62
0
6
CONTINUOUS
10
-24.3850259316
20
-16.3854850935
11
24.3850259316
21
-16.3854850935
0
LINE
5
24A
100
AcDbEntity
8
CURVE
100
AcDbLine
6
CONTINUOUS
10
-2.3999999666
20
-11.3000000000
11
-3.2399999750
21
-11.3000000000
0
LINE
5
24B
100
AcDbEntity
8
CURVE
100
AcDbLine
6
CONTINUOUS
10
-0.7200000668
20
-9.2999999106
11
0.9600000668
21
-9.2999999106
0
LINE
5
24C
100
AcDbEntity
8
CURVE
100
AcDbLine
6
CONTINUOUS
10
2.0800000000
20
-9.2999999106
11
3.7600001335
21
-9.2999999106
0
LINE
5
24D
100
AcDbEntity
8
CURVE
100
AcDbLine
6
CONTINUOUS
10
-3.2399999750
20
-7.8000000000
11
-2.3999999666
21
-7.8000000000
0
LINE
5
24E
100
AcDbEntity
8
CURVE
100
AcDbLine
6
CONTINUOUS
10
-0.7200000668
20
-7.8000000000
11
0.9600000668
21
-7.8000000000
0
LINE
5
24F
100
AcDbEntity
8
CURVE
100
AcDbLine
6
CONTINUOUS
10
2.0800000000
20
-7.8000000000
11
3.7600001335
21
-7.8000000000
0
LINE
5
250
100
AcDbEntity
8
CURVE
100
AcDbLine
6
CONTINUOUS
10
-1.0999999666
20
7.8000000000
11
-1.9399999750
21
7.8000000000
0
LINE
5
251
100
AcDbEntity
8
CURVE
100
AcDbLine
6
CONTINUOUS
10
-1.9399999750
20
11.3000000000
11
-1.0999999666
21
11.3000000000
0
LINE
5
252
100
AcDbEntity
8
0
100
AcDbLine
62
0
6
CONTINUOUS
10
-24.3850259316
20
16.3854850935
11
24.3850259316
21
16.3854850935
0
LINE
5
253
100
AcDbEntity
8
0
100
AcDbLine
62
0
6
CONTINUOUS
10
-24.3951136646
20
17.3317387640
11
24.3951136646
21
17.3317387640
0
LINE
5
254
100
AcDbEntity
8
0
100
AcDbLine
62
0
6
CONTINUOUS
10
24.5008636137
20
18.4000000000
11
-24.5008636137
21
18.4000000000
0
LINE
5
255
100
AcDbEntity
8
0
100
AcDbLine
62
0
6
CONTINUOUS
10
24.3951136646
20
-17.3317387640
11
24.5008636137
21
-18.4000000000
0
LINE
5
256
100
AcDbEntity
8
0
100
AcDbLine
62
0
6
CONTINUOUS
10
24.6950679731
20
-17.0362964381
11
24.8000000000
21
-18.0962952155
0
LINE
5
257
100
AcDbEntity
8
0
100
AcDbLine
62
0
6
CONTINUOUS
10
24.5008636137
20
18.4000000000
11
24.3951136646
21
17.3317387640
0
LINE
5
258
100
AcDbEntity
8
0
100
AcDbLine
62
0
6
CONTINUOUS
10
24.8000000000
20
18.0962952155
11
24.6950679731
21
17.0362964381
0
LINE
5
259
100
AcDbEntity
8
0
100
AcDbLine
62
0
6
CONTINUOUS
10
24.3850259316
20
16.3854850935
11
24.3850259316
21
-16.3854850935
0
LINE
5
25A
100
AcDbEntity
8
0
100
AcDbLine
62
0
6
CONTINUOUS
10
24.8000000000
20
18.0962952155
11
24.8000000000
21
-18.0962952155
0
LINE
5
25B
100
AcDbEntity
8
0
100
AcDbLine
62
0
6
CONTINUOUS
10
-45.8883150483
20
-17.3317387640
11
-39.8299045218
21
-18.4000000000
0
LINE
5
25C
100
AcDbEntity
8
0
100
AcDbLine
62
0
6
CONTINUOUS
10
-45.8414563169
20
-17.0362964381
11
-39.8299045218
21
-18.0962952155
0
LINE
5
25D
100
AcDbEntity
8
0
100
AcDbLine
62
0
6
CONTINUOUS
10
-46.4193821530
20
-16.3739188688
11
-46.7139233409
21
-16.3854850918
0
LINE
5
25E
100
AcDbEntity
8
CURVE
100
AcDbLine
6
CONTINUOUS
10
-46.9220043300
20
-9.5761955178
11
-46.9224592238
21
-9.5559907290
0
LINE
5
25F
100
AcDbEntity
8
CURVE
100
AcDbLine
6
CONTINUOUS
10
-46.9224592238
20
9.5559907285
11
-46.9220043300
21
9.5761955173
0
LINE
5
260
100
AcDbEntity
8
0
100
AcDbLine
62
0
6
CONTINUOUS
10
-39.8299045218
20
-1.2353391747
11
-35.0299045218
21
-1.2185839459
0
LINE
5
261
100
AcDbEntity
8
0
100
AcDbLine
62
0
6
CONTINUOUS
10
-39.8299045218
20
18.4000000000
11
-39.8299045218
21
-18.4000000000
0
LINE
5
262
100
AcDbEntity
8
0
100
AcDbLine
62
0
6
CONTINUOUS
10
-39.8299045218
20
1.2353391747
11
-35.0299045218
21
1.2185839459
0
LINE
5
263
100
AcDbEntity
8
0
100
AcDbLine
62
0
6
CONTINUOUS
10
-35.0299045218
20
1.2185839459
11
-35.0299045218
21
-1.2185839459
0
LINE
5
264
100
AcDbEntity
8
0
100
AcDbLine
62
0
6
CONTINUOUS
10
-46.4193821530
20
16.3739188688
11
-46.7139233855
21
16.3854850935
0
LINE
5
265
100
AcDbEntity
8
0
100
AcDbLine
62
0
6
CONTINUOUS
10
-39.8299045218
20
18.0962952155
11
-45.8414563169
21
17.0362964381
0
LINE
5
266
100
AcDbEntity
8
0
100
AcDbLine
62
0
6
CONTINUOUS
10
-39.8299045218
20
18.4000000000
11
-45.8883150483
21
17.3317387640
0
CIRCLE
5
267
100
AcDbEntity
8
0
100
AcDbCircle
62
0
6
CONTINUOUS
10
-0.0000000000
20
0.0000000000
40
1.2250000000
0
CIRCLE
5
268
100
AcDbEntity
8
0
100
AcDbCircle
62
0
6
CONTINUOUS
10
-0.0000000000
20
0.0000000000
40
1.0459181267
0
CIRCLE
5
269
100
AcDbEntity
8
0
100
AcDbCircle
62
0
6
CONTINUOUS
10
0.0000000000
20
0.0000000000
40
1.2500000000
0
ARC
5
26A
100
AcDbEntity
8
0
100
AcDbCircle
62
0
6
CONTINUOUS
10
-45.7146668706
20
16.3469310110
40
1.0000000000
100
AcDbArc
50
100.0000000000
51
177.7904661733
0
ARC
5
26B
100
AcDbEntity
8
0
100
AcDbCircle
62
0
6
CONTINUOUS
10
377.9700954782
20
0.0000000000
40
425.0000000000
100
AcDbArc
50
177.7904661733
51
182.2095338267
0
ARC
5
26C
100
AcDbEntity
8
0
100
AcDbCircle
62
0
6
CONTINUOUS
10
-45.7146668706
20
-16.3469310110
40
1.0000000000
100
AcDbArc
50
182.2095338267
51
260.0000000000
0
ARC
5
26D
100
AcDbEntity
8
CURVE
100
AcDbCircle
6
CONTINUOUS
10
377.9700954782
20
0.0000000000
40
425.0000000000
100
AcDbArc
50
178.4764267860
51
178.9483948879
0
ARC
5
26E
100
AcDbEntity
8
CURVE
100
AcDbCircle
6
CONTINUOUS
10
377.9700954782
20
0.0000000000
40
425.0000000000
100
AcDbArc
50
181.0516051121
51
181.5235732140
0
SPLINE
5
26F
100
AcDbEntity
8
0
100
AcDbSpline
62
0
6
CONTINUOUS
70
0
71
3
72
23
73
19
74
17
42
0.0000001000
43
0.0000001000
44
0.0000000001
12
0.0654167177
22
0.9440975659
32
0.0000000000
13
0.0004462523
23
0.9463611159
33
0.0000000000
40
0.0000000000
40
0.0000000000
40
0.0000000000
40
0.0000000000
40
0.0193268239
40
0.0459943367
40
0.0798153825
40
0.1205476041
40
0.1678990384
40
0.2215296910
40
0.2810535788
40
0.3460423989
40
0.4160287934
40
0.4905094767
40
0.5689484769
40
0.6507809359
40
0.7354185112
40
0.8222530022
40
0.9106576825
40
1.0000000000
40
1.0000000000
40
1.0000000000
40
1.0000000000
10
-24.3951136646
20
-17.3317387640
30
0.0000000000
10
-24.3946922321
20
-17.3256566282
30
0.0000000000
10
-24.3939484998
20
-17.3111650221
30
0.0000000000
10
-24.3929940018
20
-17.2860051114
30
0.0000000000
10
-24.3920605358
20
-17.2540878385
30
0.0000000000
10
-24.3911542682
20
-17.2156431536
30
0.0000000000
10
-24.3902873693
20
-17.1709471292
30
0.0000000000
10
-24.3894668502
20
-17.1203215092
30
0.0000000000
10
-24.3886998668
20
-17.0641307015
30
0.0000000000
10
-24.3879924452
20
-17.0027792727
30
0.0000000000
10
-24.3873500922
20
-16.9367087173
30
0.0000000000
10
-24.3867776842
20
-16.8663944652
30
0.0000000000
10
-24.3862795278
20
-16.7923426770
30
0.0000000000
10
-24.3858593343
20
-16.7150863290
30
0.0000000000
10
-24.3855202215
20
-16.6351811708
30
0.0000000000
10
-24.3852646902
20
-16.5532024605
30
0.0000000000
10
-24.3850946245
20
-16.4697393985
30
0.0000000000
10
-24.3850392213
20
-16.4136684586
30
0.0000000000
10
-24.3850259316
20
-16.3854850935
30
0.0000000000
11
-24.3951136646
21
-17.3317387640
31
0.0000000000
11
-24.3941013996
21
-17.3134766406
31
0.0000000000
11
-24.3931117252
21
-17.2882589531
31
0.0000000000
11
-24.3921517020
21
-17.2562664278
31
0.0000000000
11
-24.3912282835
21
-17.2177300948
31
0.0000000000
11
-24.3903480986
21
-17.1729271787
31
0.0000000000
11
-24.3895174809
21
-17.1221800061
31
0.0000000000
11
-24.3887424121
21
-17.0658542393
31
0.0000000000
11
-24.3880284699
21
-17.0043554841
31
0.0000000000
11
-24.3873807880
21
-16.9381262413
31
0.0000000000
11
-24.3868040239
21
-16.8676429706
31
0.0000000000
11
-24.3863023280
21
-16.7934130380
31
0.0000000000
11
-24.3858793109
21
-16.7159711275
31
0.0000000000
11
-24.3855380133
21
-16.6358741355
31
0.0000000000
11
-24.3852808855
21
-16.5536977429
31
0.0000000000
11
-24.3851097843
21
-16.4700351566
31
0.0000000000
11
-24.3850259316
21
-16.3854850935
31
0.0000000000
0
SPLINE
5
270
100
AcDbEntity
8
0
100
AcDbSpline
62
0
6
CONTINUOUS
70
0
71
3
72
23
73
19
74
17
42
0.0000001000
43
0.0000001000
44
0.0000000001
12
0.0652627498
22
0.6593089659
32
0.0000000000
13
0.0004462989
23
0.6625310105
33
0.0000000000
40
0.0000000000
40
0.0000000000
40
0.0000000000
40
0.0000000000
40
0.0193475382
40
0.0460319690
40
0.0798640991
40
0.1206036029
40
0.1679595142
40
0.2215925152
40
0.2811170707
40
0.3461052088
40
0.4160898245
40
0.4905677929
40
0.5690031284
40
0.6508310710
40
0.7354633785
40
0.8222919582
40
0.9106901622
40
1.0000000000
40
1.0000000000
40
1.0000000000
40
1.0000000000
10
-24.6950679731
20
-17.0362964381
30
0.0000000000
10
-24.6946470819
20
-17.0320444363
30
0.0000000000
10
-24.6939032941
20
-17.0219035453
30
0.0000000000
10
-24.6929487402
20
-17.0042919757
30
0.0000000000
10
-24.6920151409
20
-16.9819490725
30
0.0000000000
10
-24.6911088073
20
-16.9550372943
30
0.0000000000
10
-24.6902418491
20
-16.9237492990
30
0.0000000000
10
-24.6894212805
20
-16.8883103221
30
0.0000000000
10
-24.6886542536
20
-16.8489753668
30
0.0000000000
10
-24.6879467939
20
-16.8060276298
30
0.0000000000
10
-24.6873044085
20
-16.7597761690
30
0.0000000000
10
-24.6867319751
20
-16.7105538546
30
0.0000000000
10
-24.6862337999
20
-16.6587150862
30
0.0000000000
10
-24.6858135970
20
-16.6046330383
30
0.0000000000
10
-24.6854744797
20
-16.5486967933
30
0.0000000000
10
-24.6852189562
20
-16.4913090898
30
0.0000000000
10
-24.6850489162
20
-16.4328880642
30
0.0000000000
10
-24.6849935264
20
-16.3936423811
30
0.0000000000
10
-24.6849802401
20
-16.3739188688
30
0.0000000000
11
-24.6950679731
21
-17.0362964381
31
0.0000000000
11
-24.6940560456
21
-17.0235180962
31
0.0000000000
11
-24.6930663173
21
-17.0058665547
31
0.0000000000
11
-24.6921062541
21
-16.9834722843
31
0.0000000000
11
-24.6911827893
21
-16.9564968957
31
0.0000000000
11
-24.6903025612
21
-16.9251344788
31
0.0000000000
11
-24.6894719013
21
-16.8896106547
31
0.0000000000
11
-24.6886967934
21
-16.8501813997
31
0.0000000000
11
-24.6879828157
21
-16.8071306533
31
0.0000000000
11
-24.6873351029
21
-16.7607681888
31
0.0000000000
11
-24.6867583137
21
-16.7114275852
31
0.0000000000
11
-24.6862565999
21
-16.6594641533
31
0.0000000000
11
-24.6858335731
21
-16.6052522420
31
0.0000000000
11
-24.6854922726
21
-16.5491817398
31
0.0000000000
11
-24.6852351511
21
-16.4916556747
31
0.0000000000
11
-24.6850640612
21
-16.4330893599
31
0.0000000000
11
-24.6849802401
21
-16.3739188688
31
0.0000000000
0
SPLINE
5
271
100
AcDbEntity
8
0
100
AcDbSpline
62
0
6
CONTINUOUS
70
0
71
3
72
20
73
16
74
14
42
0.0000001000
43
0.0000001000
44
0.0000000001
12
0.1238943965
22
-0.2739402685
32
0.0000000000
13
0.3006543718
23
-0.0002021791
33
0.0000000000
40
0.0000000000
40
0.0000000000
40
0.0000000000
40
0.0000000000
40
0.0102691964
40
0.0339884996
40
0.0712966001
40
0.1217563601
40
0.1846839009
40
0.2591997085
40
0.3442517430
40
0.4386341778
40
0.5410062053
40
0.6499119544
40
0.7638016910
40
0.8810541835
40
1.0000000000
40
1.0000000000
40
1.0000000000
40
1.0000000000
10
-24.6849802401
20
-16.3739188688
30
0.0000000000
10
-24.6845561415
20
-16.3748565842
30
0.0000000000
10
-24.6805445560
20
-16.3755958290
30
0.0000000000
10
-24.6741005162
20
-16.3770209784
30
0.0000000000
10
-24.6626758095
20
-16.3781341370
30
0.0000000000
10
-24.6477542767
20
-16.3793968925
30
0.0000000000
10
-24.6289076883
20
-16.3805305952
30
0.0000000000
10
-24.6066520505
20
-16.3816069426
30
0.0000000000
10
-24.5812140541
20
-16.3825723193
30
0.0000000000
10
-24.5529862321
20
-16.3834224226
30
0.0000000000
10
-24.5223612168
20
-16.3841401774
30
0.0000000000
10
-24.4897786100
20
-16.3847157371
30
0.0000000000
10
-24.4557020847
20
-16.3851400770
30
0.0000000000
10
-24.4206178131
20
-16.3854069577
30
0.0000000000
10
-24.3969464581
20
-16.3854770774
30
0.0000000000
10
-24.3850259316
20
-16.3854850935
30
0.0000000000
11
-24.6849802401
21
-16.3739188688
31
0.0000000000
11
-24.6822178134
21
-16.3752978279
31
0.0000000000
11
-24.6752172451
21
-16.3766571222
31
0.0000000000
11
-24.6640783678
21
-16.3779773673
31
0.0000000000
11
-24.6489600287
21
-16.3792397357
31
0.0000000000
11
-24.6300778248
21
-16.3804262252
31
0.0000000000
11
-24.6077010282
21
-16.3815199157
31
0.0000000000
11
-24.5821487458
21
-16.3825052106
31
0.0000000000
11
-24.5537853691
21
-16.3833680589
31
0.0000000000
11
-24.5230153777
21
-16.3840961558
31
0.0000000000
11
-24.4902775707
21
-16.3846791183
31
0.0000000000
11
-24.4560388097
21
-16.3851086329
31
0.0000000000
11
-24.4207873608
21
-16.3853785745
31
0.0000000000
11
-24.3850259316
21
-16.3854850935
31
0.0000000000
0
SPLINE
5
272
100
AcDbEntity
8
0
100
AcDbSpline
62
0
6
CONTINUOUS
70
0
71
3
72
15
73
11
74
9
42
0.0000001000
43
0.0000001000
44
0.0000000001
12
0.0220545067
22
32.7709651995
32
0.0000000000
13
-0.0220545067
23
32.7709651995
33
0.0000000000
40
0.0000000000
40
0.0000000000
40
0.0000000000
40
0.0000000000
40
0.1249593477
40
0.2499535395
40
0.3749709621
40
0.5000000000
40
0.6250290379
40
0.7500464605
40
0.8750406523
40
1.0000000000
40
1.0000000000
40
1.0000000000
40
1.0000000000
10
-24.3850259316
20
-16.3854850935
30
0.0000000000
10
-24.3841072926
20
-15.0204722819
30
0.0000000000
10
-24.3824997115
20
-12.2900658734
30
0.0000000000
10
-24.3807774369
20
-8.1940118391
30
0.0000000000
10
-24.3797440080
20
-4.0971963006
30
0.0000000000
10
-24.3793995210
20
-0.0000000000
30
0.0000000000
10
-24.3797440080
20
4.0971963005
30
0.0000000000
10
-24.3807774369
20
8.1940118390
30
0.0000000000
10
-24.3824997115
20
12.2900658733
30
0.0000000000
10
-24.3841072926
20
15.0204722819
30
0.0000000000
10
-24.3850259316
20
16.3854850935
30
0.0000000000
11
-24.3850259316
21
-16.3854850935
31
0.0000000000
11
-24.3826147842
21
-12.2904464411
31
0.0000000000
11
-24.3808923761
21
-8.1942655660
31
0.0000000000
11
-24.3798588672
21
-4.0973231620
31
0.0000000000
11
-24.3795143536
21
-0.0000000000
31
0.0000000000
11
-24.3798588672
21
4.0973231619
31
0.0000000000
11
-24.3808923761
21
8.1942655659
31
0.0000000000
11
-24.3826147842
21
12.2904464410
31
0.0000000000
11
-24.3850259316
21
16.3854850935
31
0.0000000000
0
SPLINE
5
273
100
AcDbEntity
8
0
100
AcDbSpline
62
0
6
CONTINUOUS
70
0
71
3
72
20
73
16
74
14
42
0.0000001000
43
0.0000001000
44
0.0000000001
12
0.1238956194
22
0.2739397142
32
0.0000000000
13
0.3006543707
23
0.0002021789
33
0.0000000000
40
0.0000000000
40
0.0000000000
40
0.0000000000
40
0.0000000000
40
0.0102692162
40
0.0339885374
40
0.0712966520
40
0.1217564220
40
0.1846839685
40
0.2591997778
40
0.3442518104
40
0.4386342396
40
0.5410062586
40
0.6499119967
40
0.7638017203
40
0.8810541985
40
1.0000000000
40
1.0000000000
40
1.0000000000
40
1.0000000000
10
-24.6849802401
20
16.3739188688
30
0.0000000000
10
-24.6845561365
20
16.3748565842
30
0.0000000000
10
-24.6805445522
20
16.3755958279
30
0.0000000000
10
-24.6741005024
20
16.3770209778
30
0.0000000000
10
-24.6626757942
20
16.3781341360
30
0.0000000000
10
-24.6477542572
20
16.3793968914
30
0.0000000000
10
-24.6289076676
20
16.3805305938
30
0.0000000000
10
-24.6066520292
20
16.3816069409
30
0.0000000000
10
-24.5812140335
20
16.3825723173
30
0.0000000000
10
-24.5529862132
20
16.3834224204
30
0.0000000000
10
-24.5223612005
20
16.3841401750
30
0.0000000000
10
-24.4897785971
20
16.3847157345
30
0.0000000000
10
-24.4557020758
20
16.3851400743
30
0.0000000000
10
-24.4206178085
20
16.3854069549
30
0.0000000000
10
-24.3969464566
20
16.3854770746
30
0.0000000000
10
-24.3850259316
20
16.3854850907
30
0.0000000000
11
-24.6849802401
21
16.3739188688
31
0.0000000000
11
-24.6822178066
21
16.3752978277
31
0.0000000000
11
-24.6752172328
21
16.3766571217
31
0.0000000000
11
-24.6640783512
21
16.3779773665
31
0.0000000000
11
-24.6489600092
21
16.3792397346
31
0.0000000000
11
-24.6300778036
21
16.3804262238
31
0.0000000000
11
-24.6077010065
21
16.3815199141
31
0.0000000000
11
-24.5821487248
21
16.3825052087
31
0.0000000000
11
-24.5537853499
21
16.3833680567
31
0.0000000000
11
-24.5230153611
21
16.3840961534
31
0.0000000000
11
-24.4902775576
21
16.3846791157
31
0.0000000000
11
-24.4560388006
21
16.3851086302
31
0.0000000000
11
-24.4207873561
21
16.3853785717
31
0.0000000000
11
-24.3850259316
21
16.3854850907
31
0.0000000000
0
SPLINE
5
274
100
AcDbEntity
8
0
100
AcDbSpline
62
0
6
CONTINUOUS
70
0
71
3
72
23
73
19
74
17
42
0.0000001000
43
0.0000001000
44
0.0000000001
12
-0.0004462892
22
0.9463611160
32
0.0000000000
13
-0.0654154629
23
0.9440976529
33
0.0000000000
40
0.0000000000
40
0.0000000000
40
0.0000000000
40
0.0000000000
40
0.0893422249
40
0.1777469231
40
0.2645814179
40
0.3492189865
40
0.4310514592
40
0.5094904669
40
0.5839711464
40
0.6539575402
40
0.7189463681
40
0.7784702654
40
0.8321009189
40
0.8794523517
40
0.9201845833
40
0.9540056346
40
0.9806731503
40
1.0000000000
40
1.0000000000
40
1.0000000000
40
1.0000000000
10
-24.3850259316
20
16.3854850935
30
0.0000000000
10
-24.3850392224
20
16.4136684294
30
0.0000000000
10
-24.3850946231
20
16.4697393458
30
0.0000000000
10
-24.3852646908
20
16.5532023854
30
0.0000000000
10
-24.3855202205
20
16.6351811004
30
0.0000000000
10
-24.3858593336
20
16.7150862620
30
0.0000000000
10
-24.3862795264
20
16.7923426146
30
0.0000000000
10
-24.3867776825
20
16.8663944083
30
0.0000000000
10
-24.3873500900
20
16.9367086614
30
0.0000000000
10
-24.3879924426
20
17.0027792178
30
0.0000000000
10
-24.3886998639
20
17.0641306519
30
0.0000000000
10
-24.3894668474
20
17.1203214654
30
0.0000000000
10
-24.3902873662
20
17.1709470882
30
0.0000000000
10
-24.3911542660
20
17.2156431155
30
0.0000000000
10
-24.3920605314
20
17.2540878050
30
0.0000000000
10
-24.3929940027
20
17.2860050834
30
0.0000000000
10
-24.3939484900
20
17.3111650055
30
0.0000000000
10
-24.3946922396
20
17.3256566195
30
0.0000000000
10
-24.3951136646
20
17.3317387640
30
0.0000000000
11
-24.3850259316
21
16.3854850935
31
0.0000000000
11
-24.3851097838
21
16.4700350690
31
0.0000000000
11
-24.3852808855
21
16.5536976722
31
0.0000000000
11
-24.3855380125
21
16.6358740685
31
0.0000000000
11
-24.3858793099
21
16.7159710541
31
0.0000000000
11
-24.3863023266
21
16.7934129776
31
0.0000000000
11
-24.3868040221
21
16.8676429173
31
0.0000000000
11
-24.3873807858
21
16.9381261844
31
0.0000000000
11
-24.3880284673
21
17.0043554266
31
0.0000000000
11
-24.3887424093
21
17.0658541892
31
0.0000000000
11
-24.3895174781
21
17.1221799649
31
0.0000000000
11
-24.3903480957
21
17.1729271384
31
0.0000000000
11
-24.3912282806
21
17.2177300531
31
0.0000000000
11
-24.3921516991
21
17.2562663955
31
0.0000000000
11
-24.3931117229
21
17.2882589261
31
0.0000000000
11
-24.3941013963
21
17.3134766163
31
0.0000000000
11
-24.3951136646
21
17.3317387640
31
0.0000000000
0
SPLINE
5
275
100
AcDbEntity
8
0
100
AcDbSpline
62
0
6
CONTINUOUS
70
0
71
3
72
23
73
19
74
17
42
0.0000001000
43
0.0000001000
44
0.0000000001
12
-0.0004463113
22
0.6625310104
32
0.0000000000
13
-0.0652631569
23
0.6593089255
33
0.0000000000
40
0.0000000000
40
0.0000000000
40
0.0000000000
40
0.0000000000
40
0.0893017967
40
0.1776998333
40
0.2645282976
40
0.3491605405
40
0.4309885119
40
0.5094239455
40
0.5839020984
40
0.6538871463
40
0.7188759694
40
0.7784013749
40
0.8320352228
40
0.8793919653
40
0.9201322848
40
0.9539652142
40
0.9806503729
40
1.0000000000
40
1.0000000000
40
1.0000000000
40
1.0000000000
10
-24.6849802401
20
16.3739188688
30
0.0000000000
10
-24.6849935256
20
16.3936406053
30
0.0000000000
10
-24.6850489094
20
16.4328844756
30
0.0000000000
10
-24.6852189368
20
16.4913036629
30
0.0000000000
10
-24.6854744509
20
16.5486912897
30
0.0000000000
10
-24.6858135591
20
16.6046275014
30
0.0000000000
10
-24.6862337522
20
16.6587095632
30
0.0000000000
10
-24.6867319175
20
16.7105484004
30
0.0000000000
10
-24.6873043413
20
16.7597708728
30
0.0000000000
10
-24.6879467181
20
16.8060226212
30
0.0000000000
10
-24.6886541715
20
16.8489707928
30
0.0000000000
10
-24.6894211943
20
16.8883062743
30
0.0000000000
10
-24.6902417607
20
16.9237458097
30
0.0000000000
10
-24.6911087170
20
16.9550343560
30
0.0000000000
10
-24.6920150516
20
16.9819466746
30
0.0000000000
10
-24.6929486485
20
17.0042900959
30
0.0000000000
10
-24.6939032273
20
17.0219024636
30
0.0000000000
10
-24.6946470338
20
17.0320439775
30
0.0000000000
10
-24.6950679731
20
17.0362964381
30
0.0000000000
11
-24.6849802401
21
16.3739188688
31
0.0000000000
11
-24.6850640496
21
16.4330840325
31
0.0000000000
11
-24.6852351313
21
16.4916502363
31
0.0000000000
11
-24.6854922436
21
16.5491762250
31
0.0000000000
11
-24.6858335347
21
16.6052466845
31
0.0000000000
11
-24.6862565518
21
16.6594586149
31
0.0000000000
11
-24.6867582555
21
16.7114221119
31
0.0000000000
11
-24.6873350345
21
16.7607628379
31
0.0000000000
11
-24.6879827386
21
16.8071255888
31
0.0000000000
11
-24.6886967101
21
16.8501767893
31
0.0000000000
11
-24.6894718145
21
16.8896066076
31
0.0000000000
11
-24.6903024719
21
16.9251309929
31
0.0000000000
11
-24.6911826983
21
16.9564939608
31
0.0000000000
11
-24.6921061625
21
16.9834698901
31
0.0000000000
11
-24.6930662259
21
17.0058646906
31
0.0000000000
11
-24.6940559550
21
17.0235167151
31
0.0000000000
11
-24.6950679731
21
17.0362964381
31
0.0000000000
0
SPLINE
5
276
100
AcDbEntity
8
0
100
AcDbSpline
62
0
6
CONTINUOUS
70
0
71
3
72
23
73
19
74
17
42
0.0000001000
43
0.0000001000
44
0.0000000001
12
-0.0654154629
22
-0.9440976529
32
0.0000000000
13
-0.0004462892
23
-0.9463611160
33
0.0000000000
40
0.0000000000
40
0.0000000000
40
0.0000000000
40
0.0000000000
40
0.0193268497
40
0.0459943654
40
0.0798154167
40
0.1205476483
40
0.1678990811
40
0.2215297346
40
0.2810536319
40
0.3460424598
40
0.4160288536
40
0.4905095331
40
0.5689485408
40
0.6507810135
40
0.7354185821
40
0.8222530769
40
0.9106577751
40
1.0000000000
40
1.0000000000
40
1.0000000000
40
1.0000000000
10
24.3951136646
20
17.3317387640
30
0.0000000000
10
24.3946922396
20
17.3256566195
30
0.0000000000
10
24.3939484900
20
17.3111650055
30
0.0000000000
10
24.3929940027
20
17.2860050834
30
0.0000000000
10
24.3920605314
20
17.2540878050
30
0.0000000000
10
24.3911542660
20
17.2156431155
30
0.0000000000
10
24.3902873662
20
17.1709470882
30
0.0000000000
10
24.3894668474
20
17.1203214654
30
0.0000000000
10
24.3886998639
20
17.0641306519
30
0.0000000000
10
24.3879924426
20
17.0027792178
30
0.0000000000
10
24.3873500900
20
16.9367086614
30
0.0000000000
10
24.3867776825
20
16.8663944083
30
0.0000000000
10
24.3862795264
20
16.7923426146
30
0.0000000000
10
24.3858593336
20
16.7150862620
30
0.0000000000
10
24.3855202205
20
16.6351811004
30
0.0000000000
10
24.3852646908
20
16.5532023854
30
0.0000000000
10
24.3850946231
20
16.4697393458
30
0.0000000000
10
24.3850392224
20
16.4136684294
30
0.0000000000
10
24.3850259316
20
16.3854850935
30
0.0000000000
11
24.3951136646
21
17.3317387640
31
0.0000000000
11
24.3941013963
21
17.3134766163
31
0.0000000000
11
24.3931117229
21
17.2882589261
31
0.0000000000
11
24.3921516991
21
17.2562663955
31
0.0000000000
11
24.3912282806
21
17.2177300531
31
0.0000000000
11
24.3903480957
21
17.1729271384
31
0.0000000000
11
24.3895174781
21
17.1221799649
31
0.0000000000
11
24.3887424093
21
17.0658541892
31
0.0000000000
11
24.3880284673
21
17.0043554266
31
0.0000000000
11
24.3873807858
21
16.9381261844
31
0.0000000000
11
24.3868040221
21
16.8676429173
31
0.0000000000
11
24.3863023266
21
16.7934129776
31
0.0000000000
11
24.3858793099
21
16.7159710541
31
0.0000000000
11
24.3855380125
21
16.6358740685
31
0.0000000000
11
24.3852808855
21
16.5536976722
31
0.0000000000
11
24.3851097838
21
16.4700350690
31
0.0000000000
11
24.3850259316
21
16.3854850935
31
0.0000000000
0
SPLINE
5
277
100
AcDbEntity
8
0
100
AcDbSpline
62
0
6
CONTINUOUS
70
0
71
3
72
23
73
19
74
17
42
0.0000001000
43
0.0000001000
44
0.0000000001
12
-0.0652631569
22
-0.6593089255
32
0.0000000000
13
-0.0004463113
23
-0.6625310104
33
0.0000000000
40
0.0000000000
40
0.0000000000
40
0.0000000000
40
0.0000000000
40
0.0193496271
40
0.0460347858
40
0.0798677152
40
0.1206080347
40
0.1679647772
40
0.2215986251
40
0.2811240306
40
0.3461128537
40
0.4160979016
40
0.4905760545
40
0.5690114881
40
0.6508394595
40
0.7354717024
40
0.8223001667
40
0.9106982033
40
1.0000000000
40
1.0000000000
40
1.0000000000
40
1.0000000000
10
24.6950679731
20
17.0362964381
30
0.0000000000
10
24.6946470338
20
17.0320439775
30
0.0000000000
10
24.6939032273
20
17.0219024636
30
0.0000000000
10
24.6929486485
20
17.0042900959
30
0.0000000000
10
24.6920150516
20
16.9819466746
30
0.0000000000
10
24.6911087170
20
16.9550343560
30
0.0000000000
10
24.6902417607
20
16.9237458097
30
0.0000000000
10
24.6894211943
20
16.8883062743
30
0.0000000000
10
24.6886541715
20
16.8489707928
30
0.0000000000
10
24.6879467181
20
16.8060226212
30
0.0000000000
10
24.6873043413
20
16.7597708728
30
0.0000000000
10
24.6867319175
20
16.7105484004
30
0.0000000000
10
24.6862337522
20
16.6587095632
30
0.0000000000
10
24.6858135591
20
16.6046275014
30
0.0000000000
10
24.6854744509
20
16.5486912897
30
0.0000000000
10
24.6852189368
20
16.4913036629
30
0.0000000000
10
24.6850489094
20
16.4328844756
30
0.0000000000
10
24.6849935256
20
16.3936406053
30
0.0000000000
10
24.6849802401
20
16.3739188688
30
0.0000000000
11
24.6950679731
21
17.0362964381
31
0.0000000000
11
24.6940559550
21
17.0235167151
31
0.0000000000
11
24.6930662259
21
17.0058646906
31
0.0000000000
11
24.6921061625
21
16.9834698901
31
0.0000000000
11
24.6911826983
21
16.9564939608
31
0.0000000000
11
24.6903024719
21
16.9251309929
31
0.0000000000
11
24.6894718145
21
16.8896066076
31
0.0000000000
11
24.6886967101
21
16.8501767893
31
0.0000000000
11
24.6879827386
21
16.8071255888
31
0.0000000000
11
24.6873350345
21
16.7607628379
31
0.0000000000
11
24.6867582555
21
16.7114221119
31
0.0000000000
11
24.6862565518
21
16.6594586149
31
0.0000000000
11
24.6858335347
21
16.6052466845
31
0.0000000000
11
24.6854922436
21
16.5491762250
31
0.0000000000
11
24.6852351313
21
16.4916502363
31
0.0000000000
11
24.6850640496
21
16.4330840325
31
0.0000000000
11
24.6849802401
21
16.3739188688
31
0.0000000000
0
SPLINE
5
278
100
AcDbEntity
8
0
100
AcDbSpline
62
0
6
CONTINUOUS
70
0
71
3
72
20
73
16
74
14
42
0.0000001000
43
0.0000001000
44
0.0000000001
12
-0.1238943969
22
0.2739402683
32
0.0000000000
13
-0.3006543718
23
0.0002021791
33
0.0000000000
40
0.0000000000
40
0.0000000000
40
0.0000000000
40
0.0000000000
40
0.0102691964
40
0.0339884996
40
0.0712966002
40
0.1217563601
40
0.1846839009
40
0.2591997085
40
0.3442517431
40
0.4386341778
40
0.5410062053
40
0.6499119544
40
0.7638016910
40
0.8810541835
40
1.0000000000
40
1.0000000000
40
1.0000000000
40
1.0000000000
10
24.6849802401
20
16.3739188688
30
0.0000000000
10
24.6845561415
20
16.3748565842
30
0.0000000000
10
24.6805445560
20
16.3755958290
30
0.0000000000
10
24.6741005162
20
16.3770209784
30
0.0000000000
10
24.6626758095
20
16.3781341370
30
0.0000000000
10
24.6477542767
20
16.3793968925
30
0.0000000000
10
24.6289076883
20
16.3805305952
30
0.0000000000
10
24.6066520505
20
16.3816069426
30
0.0000000000
10
24.5812140541
20
16.3825723193
30
0.0000000000
10
24.5529862321
20
16.3834224226
30
0.0000000000
10
24.5223612168
20
16.3841401774
30
0.0000000000
10
24.4897786100
20
16.3847157371
30
0.0000000000
10
24.4557020847
20
16.3851400770
30
0.0000000000
10
24.4206178131
20
16.3854069577
30
0.0000000000
10
24.3969464581
20
16.3854770774
30
0.0000000000
10
24.3850259316
20
16.3854850935
30
0.0000000000
11
24.6849802401
21
16.3739188688
31
0.0000000000
11
24.6822178134
21
16.3752978279
31
0.0000000000
11
24.6752172451
21
16.3766571222
31
0.0000000000
11
24.6640783678
21
16.3779773673
31
0.0000000000
11
24.6489600287
21
16.3792397357
31
0.0000000000
11
24.6300778248
21
16.3804262252
31
0.0000000000
11
24.6077010282
21
16.3815199157
31
0.0000000000
11
24.5821487458
21
16.3825052106
31
0.0000000000
11
24.5537853691
21
16.3833680589
31
0.0000000000
11
24.5230153777
21
16.3840961558
31
0.0000000000
11
24.4902775707
21
16.3846791183
31
0.0000000000
11
24.4560388097
21
16.3851086329
31
0.0000000000
11
24.4207873608
21
16.3853785745
31
0.0000000000
11
24.3850259316
21
16.3854850935
31
0.0000000000
0
SPLINE
5
279
100
AcDbEntity
8
0
100
AcDbSpline
62
0
6
CONTINUOUS
70
0
71
3
72
15
73
11
74
9
42
0.0000001000
43
0.0000001000
44
0.0000000001
12
-0.0220545067
22
-32.7709651995
32
0.0000000000
13
0.0220545067
23
-32.7709651995
33
0.0000000000
40
0.0000000000
40
0.0000000000
40
0.0000000000
40
0.0000000000
40
0.1249593477
40
0.2499535395
40
0.3749709621
40
0.5000000000
40
0.6250290379
40
0.7500464605
40
0.8750406523
40
1.0000000000
40
1.0000000000
40
1.0000000000
40
1.0000000000
10
24.3850259316
20
16.3854850935
30
0.0000000000
10
24.3841072926
20
15.0204722819
30
0.0000000000
10
24.3824997115
20
12.2900658733
30
0.0000000000
10
24.3807774369
20
8.1940118390
30
0.0000000000
10
24.3797440080
20
4.0971963005
30
0.0000000000
10
24.3793995210
20
-0.0000000000
30
0.0000000000
10
24.3797440080
20
-4.0971963006
30
0.0000000000
10
24.3807774369
20
-8.1940118391
30
0.0000000000
10
24.3824997115
20
-12.2900658734
30
0.0000000000
10
24.3841072926
20
-15.0204722819
30
0.0000000000
10
24.3850259316
20
-16.3854850935
30
0.0000000000
11
24.3850259316
21
16.3854850935
31
0.0000000000
11
24.3826147842
21
12.2904464410
31
0.0000000000
11
24.3808923761
21
8.1942655659
31
0.0000000000
11
24.3798588672
21
4.0973231619
31
0.0000000000
11
24.3795143536
21
-0.0000000000
31
0.0000000000
11
24.3798588672
21
-4.0973231620
31
0.0000000000
11
24.3808923761
21
-8.1942655660
31
0.0000000000
11
24.3826147842
21
-12.2904464411
31
0.0000000000
11
24.3850259316
21
-16.3854850935
31
0.0000000000
0
SPLINE
5
27A
100
AcDbEntity
8
0
100
AcDbSpline
62
0
6
CONTINUOUS
70
0
71
3
72
20
73
16
74
14
42
0.0000001000
43
0.0000001000
44
0.0000000001
12
-0.1238951642
22
-0.2739399205
32
0.0000000000
13
-0.3006543712
23
-0.0002021789
33
0.0000000000
40
0.0000000000
40
0.0000000000
40
0.0000000000
40
0.0000000000
40
0.0102692089
40
0.0339885234
40
0.0712966328
40
0.1217563990
40
0.1846839434
40
0.2591997521
40
0.3442517854
40
0.4386342167
40
0.5410062388
40
0.6499119810
40
0.7638017094
40
0.8810541929
40
1.0000000000
40
1.0000000000
40
1.0000000000
40
1.0000000000
10
24.6849802401
20
-16.3739188688
30
0.0000000000
10
24.6845561383
20
-16.3748565842
30
0.0000000000
10
24.6805445536
20
-16.3755958283
30
0.0000000000
10
24.6741005075
20
-16.3770209781
30
0.0000000000
10
24.6626757999
20
-16.3781341364
30
0.0000000000
10
24.6477542645
20
-16.3793968918
30
0.0000000000
10
24.6289076753
20
-16.3805305944
30
0.0000000000
10
24.6066520371
20
-16.3816069416
30
0.0000000000
10
24.5812140412
20
-16.3825723181
30
0.0000000000
10
24.5529862202
20
-16.3834224213
30
0.0000000000
10
24.5223612065
20
-16.3841401760
30
0.0000000000
10
24.4897786019
20
-16.3847157356
30
0.0000000000
10
24.4557020791
20
-16.3851400754
30
0.0000000000
10
24.4206178102
20
-16.3854069560
30
0.0000000000
10
24.3969464572
20
-16.3854770757
30
0.0000000000
10
24.3850259316
20
-16.3854850918
30
0.0000000000
11
24.6849802401
21
-16.3739188688
31
0.0000000000
11
24.6822178091
21
-16.3752978278
31
0.0000000000
11
24.6752172374
21
-16.3766571219
31
0.0000000000
11
24.6640783574
21
-16.3779773668
31
0.0000000000
11
24.6489600164
21
-16.3792397350
31
0.0000000000
11
24.6300778115
21
-16.3804262244
31
0.0000000000
11
24.6077010145
21
-16.3815199147
31
0.0000000000
11
24.5821487326
21
-16.3825052094
31
0.0000000000
11
24.5537853570
21
-16.3833680576
31
0.0000000000
11
24.5230153673
21
-16.3840961544
31
0.0000000000
11
24.4902775624
21
-16.3846791168
31
0.0000000000
11
24.4560388040
21
-16.3851086313
31
0.0000000000
11
24.4207873578
21
-16.3853785728
31
0.0000000000
11
24.3850259316
21
-16.3854850918
31
0.0000000000
0
SPLINE
5
27B
100
AcDbEntity
8
0
100
AcDbSpline
62
0
6
CONTINUOUS
70
0
71
3
72
23
73
19
74
17
42
0.0000001000
43
0.0000001000
44
0.0000000001
12
0.0004462523
22
-0.9463611159
32
0.0000000000
13
0.0654167177
23
-0.9440975659
33
0.0000000000
40
0.0000000000
40
0.0000000000
40
0.0000000000
40
0.0000000000
40
0.0893423175
40
0.1777469978
40
0.2645814888
40
0.3492190641
40
0.4310515231
40
0.5094905233
40
0.5839712066
40
0.6539576011
40
0.7189464212
40
0.7784703090
40
0.8321009616
40
0.8794523959
40
0.9201846175
40
0.9540056633
40
0.9806731761
40
1.0000000000
40
1.0000000000
40
1.0000000000
40
1.0000000000
10
24.3850259316
20
-16.3854850935
30
0.0000000000
10
24.3850392213
20
-16.4136684586
30
0.0000000000
10
24.3850946245
20
-16.4697393985
30
0.0000000000
10
24.3852646902
20
-16.5532024605
30
0.0000000000
10
24.3855202215
20
-16.6351811708
30
0.0000000000
10
24.3858593343
20
-16.7150863290
30
0.0000000000
10
24.3862795278
20
-16.7923426770
30
0.0000000000
10
24.3867776842
20
-16.8663944652
30
0.0000000000
10
24.3873500922
20
-16.9367087173
30
0.0000000000
10
24.3879924452
20
-17.0027792727
30
0.0000000000
10
24.3886998668
20
-17.0641307015
30
0.0000000000
10
24.3894668502
20
-17.1203215092
30
0.0000000000
10
24.3902873693
20
-17.1709471292
30
0.0000000000
10
24.3911542682
20
-17.2156431536
30
0.0000000000
10
24.3920605358
20
-17.2540878385
30
0.0000000000
10
24.3929940018
20
-17.2860051114
30
0.0000000000
10
24.3939484998
20
-17.3111650221
30
0.0000000000
10
24.3946922321
20
-17.3256566282
30
0.0000000000
10
24.3951136646
20
-17.3317387640
30
0.0000000000
11
24.3850259316
21
-16.3854850935
31
0.0000000000
11
24.3851097843
21
-16.4700351566
31
0.0000000000
11
24.3852808855
21
-16.5536977429
31
0.0000000000
11
24.3855380133
21
-16.6358741355
31
0.0000000000
11
24.3858793109
21
-16.7159711275
31
0.0000000000
11
24.3863023280
21
-16.7934130380
31
0.0000000000
11
24.3868040239
21
-16.8676429706
31
0.0000000000
11
24.3873807880
21
-16.9381262413
31
0.0000000000
11
24.3880284699
21
-17.0043554841
31
0.0000000000
11
24.3887424121
21
-17.0658542393
31
0.0000000000
11
24.3895174809
21
-17.1221800061
31
0.0000000000
11
24.3903480986
21
-17.1729271787
31
0.0000000000
11
24.3912282835
21
-17.2177300948
31
0.0000000000
11
24.3921517020
21
-17.2562664278
31
0.0000000000
11
24.3931117252
21
-17.2882589531
31
0.0000000000
11
24.3941013996
21
-17.3134766406
31
0.0000000000
11
24.3951136646
21
-17.3317387640
31
0.0000000000
0
SPLINE
5
27C
100
AcDbEntity
8
0
100
AcDbSpline
62
0
6
CONTINUOUS
70
0
71
3
72
23
73
19
74
17
42
0.0000001000
43
0.0000001000
44
0.0000000001
12
0.0004462989
22
-0.6625310105
32
0.0000000000
13
0.0652627498
23
-0.6593089659
33
0.0000000000
40
0.0000000000
40
0.0000000000
40
0.0000000000
40
0.0000000000
40
0.0893098378
40
0.1777080418
40
0.2645366215
40
0.3491689290
40
0.4309968716
40
0.5094322071
40
0.5839101755
40
0.6538947912
40
0.7188829293
40
0.7784074848
40
0.8320404858
40
0.8793963971
40
0.9201359009
40
0.9539680310
40
0.9806524618
40
1.0000000000
40
1.0000000000
40
1.0000000000
40
1.0000000000
10
24.6849802401
20
-16.3739188688
30
0.0000000000
10
24.6849935264
20
-16.3936423811
30
0.0000000000
10
24.6850489162
20
-16.4328880642
30
0.0000000000
10
24.6852189562
20
-16.4913090898
30
0.0000000000
10
24.6854744797
20
-16.5486967933
30
0.0000000000
10
24.6858135970
20
-16.6046330383
30
0.0000000000
10
24.6862337999
20
-16.6587150862
30
0.0000000000
10
24.6867319751
20
-16.7105538546
30
0.0000000000
10
24.6873044085
20
-16.7597761690
30
0.0000000000
10
24.6879467939
20
-16.8060276298
30
0.0000000000
10
24.6886542536
20
-16.8489753668
30
0.0000000000
10
24.6894212805
20
-16.8883103221
30
0.0000000000
10
24.6902418491
20
-16.9237492990
30
0.0000000000
10
24.6911088073
20
-16.9550372943
30
0.0000000000
10
24.6920151409
20
-16.9819490725
30
0.0000000000
10
24.6929487402
20
-17.0042919757
30
0.0000000000
10
24.6939032941
20
-17.0219035453
30
0.0000000000
10
24.6946470819
20
-17.0320444363
30
0.0000000000
10
24.6950679731
20
-17.0362964381
30
0.0000000000
11
24.6849802401
21
-16.3739188688
31
0.0000000000
11
24.6850640612
21
-16.4330893599
31
0.0000000000
11
24.6852351511
21
-16.4916556747
31
0.0000000000
11
24.6854922726
21
-16.5491817398
31
0.0000000000
11
24.6858335731
21
-16.6052522420
31
0.0000000000
11
24.6862565999
21
-16.6594641533
31
0.0000000000
11
24.6867583137
21
-16.7114275852
31
0.0000000000
11
24.6873351029
21
-16.7607681888
31
0.0000000000
11
24.6879828157
21
-16.8071306533
31
0.0000000000
11
24.6886967934
21
-16.8501813997
31
0.0000000000
11
24.6894719013
21
-16.8896106547
31
0.0000000000
11
24.6903025612
21
-16.9251344788
31
0.0000000000
11
24.6911827893
21
-16.9564968957
31
0.0000000000
11
24.6921062541
21
-16.9834722843
31
0.0000000000
11
24.6930663173
21
-17.0058665547
31
0.0000000000
11
24.6940560456
21
-17.0235180962
31
0.0000000000
11
24.6950679731
21
-17.0362964381
31
0.0000000000
0
SPLINE
5
27D
100
AcDbEntity
8
0
100
AcDbSpline
62
0
6
CONTINUOUS
70
0
71
3
72
53
73
49
74
47
42
0.0000001000
43
0.0000001000
44
0.0000000001
12
0.0000000000
22
-7.8352824469
32
0.0000000000
13
-0.0000000000
23
7.8352824469
33
0.0000000000
40
0.0000000000
40
0.0000000000
40
0.0000000000
40
0.0000000000
40
0.0216297225
40
0.0432714177
40
0.0649021541
40
0.0865565552
40
0.1081997555
40
0.1298687968
40
0.1515374670
40
0.1732219214
40
0.1949237680
40
0.2166264549
40
0.2383599994
40
0.2600892288
40
0.2818509279
40
0.3036127406
40
0.3253969325
40
0.3471936789
40
0.3689941777
40
0.3908187683
40
0.4126349545
40
0.4344772448
40
0.4563081729
40
0.4781569837
40
0.5000005538
40
0.5218440320
40
0.5436929207
40
0.5655238225
40
0.5873660912
40
0.6091823223
40
0.6310068022
40
0.6528074003
40
0.6746040023
40
0.6963882875
40
0.7181500656
40
0.7399117298
40
0.7616410439
40
0.7833744355
40
0.8050772747
40
0.8267789191
40
0.8484635085
40
0.8701321134
40
0.8918011255
40
0.9134444429
40
0.9350986460
40
0.9567295945
40
0.9783710358
40
1.0000000000
40
1.0000000000
40
1.0000000000
40
1.0000000000
10
2.5000000000
20
-0.0000000000
30
0.0000000000
10
2.5000000000
20
-0.0564916616
30
0.0000000000
10
2.4961325952
20
-0.1695443758
30
0.0000000000
10
2.4787552144
20
-0.3382867943
30
0.0000000000
10
2.4498733212
20
-0.5055182963
30
0.0000000000
10
2.4096276449
20
-0.6703865022
30
0.0000000000
10
2.3581782942
20
-0.8322143996
30
0.0000000000
10
2.2957776435
20
-0.9901832771
30
0.0000000000
10
2.2226827288
20
-1.1436163711
30
0.0000000000
10
2.1392361058
20
-1.2917730386
30
0.0000000000
10
2.0458156128
20
-1.4339581422
30
0.0000000000
10
1.9428275698
20
-1.5695348210
30
0.0000000000
10
1.8307768962
20
-1.6978183970
30
0.0000000000
10
1.7101232848
20
-1.8182641134
30
0.0000000000
10
1.5814766137
20
-1.9302452900
30
0.0000000000
10
1.4453757011
20
-2.0332754369
30
0.0000000000
10
1.3024884040
20
-2.1268339950
30
0.0000000000
10
1.1534652049
20
-2.2104796700
30
0.0000000000
10
0.9989913173
20
-2.2838170245
30
0.0000000000
10
0.8398301617
20
-2.3464726022
30
0.0000000000
10
0.6766653413
20
-2.3981688105
30
0.0000000000
10
0.5103407666
20
-2.4386306901
30
0.0000000000
10
0.3415621170
20
-2.4676803705
30
0.0000000000
10
0.1711930166
20
-2.4851649091
30
0.0000000000
10
-0.0000041051
20
-2.4910023349
30
0.0000000000
10
-0.1712014092
20
-2.4851643348
30
0.0000000000
10
-0.3415703484
20
-2.4676792458
30
0.0000000000
10
-0.5103489769
20
-2.4386289826
30
0.0000000000
10
-0.6766734104
20
-2.3981665559
30
0.0000000000
10
-0.8398378413
20
-2.3464698714
30
0.0000000000
10
-0.9989988738
20
-2.2838137470
30
0.0000000000
10
-1.1534721589
20
-2.2104760686
30
0.0000000000
10
-1.3024952018
20
-2.1268298630
30
0.0000000000
10
-1.4453820252
20
-2.0332709871
30
0.0000000000
10
-1.5814826601
20
-1.9302403714
30
0.0000000000
10
-1.7101290175
20
-1.8182587749
30
0.0000000000
10
-1.8307820603
20
-1.6978128683
30
0.0000000000
10
-1.9428324865
20
-1.5695287881
30
0.0000000000
10
-2.0458197979
20
-1.4339522158
30
0.0000000000
10
-2.1392399893
20
-1.2917666519
30
0.0000000000
10
-2.2226860195
20
-1.1436100451
30
0.0000000000
10
-2.2957805227
20
-0.9901766388
30
0.0000000000
10
-2.3581807481
20
-0.8322075304
30
0.0000000000
10
-2.4096295317
20
-0.6703797526
30
0.0000000000
10
-2.4498748200
20
-0.5055111023
30
0.0000000000
10
-2.4787561280
20
-0.3382801318
30
0.0000000000
10
-2.4961328215
20
-0.1695397476
30
0.0000000000
10
-2.5000000000
20
-0.0564896811
30
0.0000000000
10
-2.5000000000
20
0.0000000000
30
0.0000000000
11
2.5000000000
21
-0.0000000000
31
0.0000000000
11
2.4942051321
21
-0.1693758838
31
0.0000000000
11
2.4768355290
21
-0.3380527142
31
0.0000000000
11
2.4479920846
21
-0.5050632495
31
0.0000000000
11
2.4077569969
21
-0.6698919072
31
0.0000000000
11
2.3563779520
21
-0.8315018369
31
0.0000000000
11
2.2940019080
21
-0.9894116728
31
0.0000000000
11
2.2209832536
21
-1.1426878152
31
0.0000000000
11
2.1376049446
21
-1.2907262127
31
0.0000000000
11
2.0442347914
21
-1.4328376106
31
0.0000000000
11
1.9413755262
21
-1.5682475274
31
0.0000000000
11
1.8293529426
21
-1.6965015728
31
0.0000000000
11
1.7088621931
21
-1.8167871706
31
0.0000000000
11
1.5802529508
21
-1.9287380623
31
0.0000000000
11
1.4443050040
21
-2.0316545260
31
0.0000000000
11
1.3015080422
21
-2.1251558519
31
0.0000000000
11
1.1525811647
21
-2.2087491843
31
0.0000000000
11
0.9982755387
21
-2.2820081587
31
0.0000000000
11
0.8391593510
21
-2.3446473258
31
0.0000000000
11
0.6762070313
21
-2.3962772681
31
0.0000000000
11
0.5099165747
21
-2.4367316809
31
0.0000000000
11
0.3413438872
21
-2.4657465107
31
0.0000000000
11
0.1710467876
21
-2.4832240178
31
0.0000000000
11
-0.0000043418
21
-2.4890565887
31
0.0000000000
11
-0.1710547320
21
-2.4832234753
31
0.0000000000
11
-0.3413523806
21
-2.4657453452
31
0.0000000000
11
-0.5099247676
21
-2.4367299814
31
0.0000000000
11
-0.6762149267
21
-2.3962750595
31
0.0000000000
11
-0.8391674092
21
-2.3446444670
31
0.0000000000
11
-0.9982825870
21
-2.2820051023
31
0.0000000000
11
-1.1525886797
21
-2.2087452971
31
0.0000000000
11
-1.3015143069
21
-2.1251520487
31
0.0000000000
11
-1.4443115927
21
-2.0316498830
31
0.0000000000
11
-1.5802589972
21
-1.9287331517
31
0.0000000000
11
-1.7088676899
21
-1.8167820456
31
0.0000000000
11
-1.8293585305
21
-1.6964956000
31
0.0000000000
11
-1.9413799359
21
-1.5682421161
31
0.0000000000
11
-2.0442395107
21
-1.4328309363
31
0.0000000000
11
-2.1376083723
21
-1.2907205855
31
0.0000000000
11
-2.2209867767
21
-1.1426810271
31
0.0000000000
11
-2.2940047551
21
-0.9894051294
31
0.0000000000
11
-2.3563802685
21
-0.8314953297
31
0.0000000000
11
-2.4077591114
21
-0.6698843734
31
0.0000000000
11
-2.4479933627
21
-0.5050571085
31
0.0000000000
11
-2.4768366115
21
-0.3380448523
31
0.0000000000
11
-2.4942055384
21
-0.1693699528
31
0.0000000000
11
-2.5000000000
21
0.0000000000
31
0.0000000000
0
SPLINE
5
27E
100
AcDbEntity
8
0
100
AcDbSpline
62
0
6
CONTINUOUS
70
0
71
3
72
53
73
49
74
47
42
0.0000001000
43
0.0000001000
44
0.0000000001
12
0.0000000000
22
7.8352824469
32
0.0000000000
13
-0.0000000000
23
-7.8352824469
33
0.0000000000
40
0.0000000000
40
0.0000000000
40
0.0000000000
40
0.0000000000
40
0.0216297225
40
0.0432714177
40
0.0649021541
40
0.0865565552
40
0.1081997555
40
0.1298687968
40
0.1515374670
40
0.1732219214
40
0.1949237680
40
0.2166264549
40
0.2383599994
40
0.2600892288
40
0.2818509279
40
0.3036127406
40
0.3253969325
40
0.3471936789
40
0.3689941777
40
0.3908187683
40
0.4126349545
40
0.4344772448
40
0.4563081729
40
0.4781569837
40
0.5000005538
40
0.5218440320
40
0.5436929207
40
0.5655238225
40
0.5873660912
40
0.6091823223
40
0.6310068022
40
0.6528074003
40
0.6746040023
40
0.6963882875
40
0.7181500656
40
0.7399117298
40
0.7616410439
40
0.7833744355
40
0.8050772747
40
0.8267789191
40
0.8484635085
40
0.8701321134
40
0.8918011255
40
0.9134444429
40
0.9350986460
40
0.9567295945
40
0.9783710358
40
1.0000000000
40
1.0000000000
40
1.0000000000
40
1.0000000000
10
-2.5000000000
20
0.0000000000
30
0.0000000000
10
-2.5000000000
20
0.0564916616
30
0.0000000000
10
-2.4961325952
20
0.1695443758
30
0.0000000000
10
-2.4787552144
20
0.3382867943
30
0.0000000000
10
-2.4498733212
20
0.5055182963
30
0.0000000000
10
-2.4096276449
20
0.6703865022
30
0.0000000000
10
-2.3581782942
20
0.8322143996
30
0.0000000000
10
-2.2957776435
20
0.9901832771
30
0.0000000000
10
-2.2226827288
20
1.1436163711
30
0.0000000000
10
-2.1392361058
20
1.2917730386
30
0.0000000000
10
-2.0458156128
20
1.4339581422
30
0.0000000000
10
-1.9428275698
20
1.5695348210
30
0.0000000000
10
-1.8307768962
20
1.6978183970
30
0.0000000000
10
-1.7101232848
20
1.8182641134
30
0.0000000000
10
-1.5814766137
20
1.9302452900
30
0.0000000000
10
-1.4453757011
20
2.0332754369
30
0.0000000000
10
-1.3024884040
20
2.1268339950
30
0.0000000000
10
-1.1534652049
20
2.2104796700
30
0.0000000000
10
-0.9989913173
20
2.2838170245
30
0.0000000000
10
-0.8398301617
20
2.3464726022
30
0.0000000000
10
-0.6766653413
20
2.3981688105
30
0.0000000000
10
-0.5103407666
20
2.4386306901
30
0.0000000000
10
-0.3415621170
20
2.4676803705
30
0.0000000000
10
-0.1711930166
20
2.4851649091
30
0.0000000000
10
0.0000041051
20
2.4910023349
30
0.0000000000
10
0.1712014092
20
2.4851643348
30
0.0000000000
10
0.3415703484
20
2.4676792458
30
0.0000000000
10
0.5103489769
20
2.4386289826
30
0.0000000000
10
0.6766734104
20
2.3981665559
30
0.0000000000
10
0.8398378413
20
2.3464698714
30
0.0000000000
10
0.9989988738
20
2.2838137470
30
0.0000000000
10
1.1534721589
20
2.2104760686
30
0.0000000000
10
1.3024952018
20
2.1268298630
30
0.0000000000
10
1.4453820252
20
2.0332709871
30
0.0000000000
10
1.5814826601
20
1.9302403714
30
0.0000000000
10
1.7101290175
20
1.8182587749
30
0.0000000000
10
1.8307820603
20
1.6978128683
30
0.0000000000
10
1.9428324865
20
1.5695287881
30
0.0000000000
10
2.0458197979
20
1.4339522158
30
0.0000000000
10
2.1392399893
20
1.2917666519
30
0.0000000000
10
2.2226860195
20
1.1436100451
30
0.0000000000
10
2.2957805227
20
0.9901766388
30
0.0000000000
10
2.3581807481
20
0.8322075304
30
0.0000000000
10
2.4096295317
20
0.6703797526
30
0.0000000000
10
2.4498748200
20
0.5055111023
30
0.0000000000
10
2.4787561280
20
0.3382801318
30
0.0000000000
10
2.4961328215
20
0.1695397476
30
0.0000000000
10
2.5000000000
20
0.0564896811
30
0.0000000000
10
2.5000000000
20
-0.0000000000
30
0.0000000000
11
-2.5000000000
21
0.0000000000
31
0.0000000000
11
-2.4942051321
21
0.1693758838
31
0.0000000000
11
-2.4768355290
21
0.3380527142
31
0.0000000000
11
-2.4479920846
21
0.5050632495
31
0.0000000000
11
-2.4077569969
21
0.6698919072
31
0.0000000000
11
-2.3563779520
21
0.8315018369
31
0.0000000000
11
-2.2940019080
21
0.9894116728
31
0.0000000000
11
-2.2209832536
21
1.1426878152
31
0.0000000000
11
-2.1376049446
21
1.2907262127
31
0.0000000000
11
-2.0442347914
21
1.4328376106
31
0.0000000000
11
-1.9413755262
21
1.5682475274
31
0.0000000000
11
-1.8293529426
21
1.6965015728
31
0.0000000000
11
-1.7088621931
21
1.8167871706
31
0.0000000000
11
-1.5802529508
21
1.9287380623
31
0.0000000000
11
-1.4443050040
21
2.0316545260
31
0.0000000000
11
-1.3015080422
21
2.1251558519
31
0.0000000000
11
-1.1525811647
21
2.2087491843
31
0.0000000000
11
-0.9982755387
21
2.2820081587
31
0.0000000000
11
-0.8391593510
21
2.3446473258
31
0.0000000000
11
-0.6762070313
21
2.3962772681
31
0.0000000000
11
-0.5099165747
21
2.4367316809
31
0.0000000000
11
-0.3413438872
21
2.4657465107
31
0.0000000000
11
-0.1710467876
21
2.4832240178
31
0.0000000000
11
0.0000043418
21
2.4890565887
31
0.0000000000
11
0.1710547320
21
2.4832234753
31
0.0000000000
11
0.3413523806
21
2.4657453452
31
0.0000000000
11
0.5099247676
21
2.4367299814
31
0.0000000000
11
0.6762149267
21
2.3962750595
31
0.0000000000
11
0.8391674092
21
2.3446444670
31
0.0000000000
11
0.9982825870
21
2.2820051023
31
0.0000000000
11
1.1525886797
21
2.2087452971
31
0.0000000000
11
1.3015143069
21
2.1251520487
31
0.0000000000
11
1.4443115927
21
2.0316498830
31
0.0000000000
11
1.5802589972
21
1.9287331517
31
0.0000000000
11
1.7088676899
21
1.8167820456
31
0.0000000000
11
1.8293585305
21
1.6964956000
31
0.0000000000
11
1.9413799359
21
1.5682421161
31
0.0000000000
11
2.0442395107
21
1.4328309363
31
0.0000000000
11
2.1376083723
21
1.2907205855
31
0.0000000000
11
2.2209867767
21
1.1426810271
31
0.0000000000
11
2.2940047551
21
0.9894051294
31
0.0000000000
11
2.3563802685
21
0.8314953297
31
0.0000000000
11
2.4077591114
21
0.6698843734
31
0.0000000000
11
2.4479933627
21
0.5050571085
31
0.0000000000
11
2.4768366115
21
0.3380448523
31
0.0000000000
11
2.4942055384
21
0.1693699528
31
0.0000000000
11
2.5000000000
21
-0.0000000000
31
0.0000000000
0
SPLINE
5
27F
100
AcDbEntity
8
0
100
AcDbSpline
62
0
6
CONTINUOUS
70
0
71
3
72
21
73
17
74
15
42
0.0000001000
43
0.0000001000
44
0.0000000001
12
-0.4732934017
22
0.0000000000
32
0.0000000000
13
0.0000000000
23
0.4732934017
33
0.0000000000
40
0.0000000000
40
0.0000000000
40
0.0000000000
40
0.0000000000
40
0.0701557286
40
0.1407494898
40
0.2113035808
40
0.2816602098
40
0.3525770160
40
0.4238147851
40
0.4949398023
40
0.5662715703
40
0.6382459406
40
0.7103943951
40
0.7823476459
40
0.8547745344
40
0.9275102805
40
1.0000000000
40
1.0000000000
40
1.0000000000
40
1.0000000000
10
-24.5008636137
20
-18.4000000000
30
0.0000000000
10
-24.5119316948
20
-18.4000000000
30
0.0000000000
10
-24.5341571496
20
-18.3987498265
30
0.0000000000
10
-24.5670850448
20
-18.3931295627
30
0.0000000000
10
-24.5992031509
20
-18.3838209974
30
0.0000000000
10
-24.6301162990
20
-18.3709413879
30
0.0000000000
10
-24.6594815330
20
-18.3546161052
30
0.0000000000
10
-24.6869193236
20
-18.3350156933
30
0.0000000000
10
-24.7120299307
20
-18.3124141833
30
0.0000000000
10
-24.7345322471
20
-18.2870591791
30
0.0000000000
10
-24.7541487590
20
-18.2592120490
30
0.0000000000
10
-24.7705704132
20
-18.2292573964
30
0.0000000000
10
-24.7835788425
20
-18.1975947425
30
0.0000000000
10
-24.7930126759
20
-18.1645913911
30
0.0000000000
10
-24.7987267075
20
-18.1306632907
30
0.0000000000
10
-24.8000000000
20
-18.1077315175
30
0.0000000000
10
-24.8000000000
20
-18.0962952155
30
0.0000000000
11
-24.5008636137
21
-18.4000000000
31
0.0000000000
11
-24.5340153955
21
-18.3981342190
31
0.0000000000
11
-24.5669508211
21
-18.3925137051
31
0.0000000000
11
-24.5990240046
21
-18.3832191348
31
0.0000000000
11
-24.6297628788
21
-18.3704141796
31
0.0000000000
11
-24.6590998492
21
-18.3541072821
31
0.0000000000
11
-24.6865367185
21
-18.3345110697
31
0.0000000000
11
-24.7115593557
21
-18.3119929595
31
0.0000000000
11
-24.7339715461
21
-18.2867444138
31
0.0000000000
11
-24.7535920399
21
-18.2588973299
31
0.0000000000
11
-24.7700100887
21
-18.2289558580
31
0.0000000000
11
-24.7829541844
21
-18.1974567575
31
0.0000000000
11
-24.7923777943
21
-18.1644983449
31
0.0000000000
11
-24.7980961851
21
-18.1305512590
31
0.0000000000
11
-24.8000000000
21
-18.0962952155
31
0.0000000000
0
SPLINE
5
280
100
AcDbEntity
8
0
100
AcDbSpline
62
0
6
CONTINUOUS
70
0
71
3
72
21
73
17
74
15
42
0.0000001000
43
0.0000001000
44
0.0000000001
12
0.0000000000
22
0.4732934017
32
0.0000000000
13
0.4732934017
23
0.0000000000
33
0.0000000000
40
0.0000000000
40
0.0000000000
40
0.0000000000
40
0.0000000000
40
0.0724897195
40
0.1452254656
40
0.2176523541
40
0.2896056049
40
0.3617540594
40
0.4337284297
40
0.5050601977
40
0.5761852149
40
0.6474229840
40
0.7183397902
40
0.7886964192
40
0.8592505102
40
0.9298442714
40
1.0000000000
40
1.0000000000
40
1.0000000000
40
1.0000000000
10
-24.8000000000
20
18.0962952155
30
0.0000000000
10
-24.8000000000
20
18.1077315175
30
0.0000000000
10
-24.7987267075
20
18.1306632907
30
0.0000000000
10
-24.7930126759
20
18.1645913911
30
0.0000000000
10
-24.7835788425
20
18.1975947425
30
0.0000000000
10
-24.7705704132
20
18.2292573964
30
0.0000000000
10
-24.7541487590
20
18.2592120490
30
0.0000000000
10
-24.7345322471
20
18.2870591791
30
0.0000000000
10
-24.7120299307
20
18.3124141833
30
0.0000000000
10
-24.6869193236
20
18.3350156933
30
0.0000000000
10
-24.6594815330
20
18.3546161052
30
0.0000000000
10
-24.6301162990
20
18.3709413879
30
0.0000000000
10
-24.5992031509
20
18.3838209974
30
0.0000000000
10
-24.5670850448
20
18.3931295627
30
0.0000000000
10
-24.5341571496
20
18.3987498265
30
0.0000000000
10
-24.5119316948
20
18.4000000000
30
0.0000000000
10
-24.5008636137
20
18.4000000000
30
0.0000000000
11
-24.8000000000
21
18.0962952155
31
0.0000000000
11
-24.7980961851
21
18.1305512590
31
0.0000000000
11
-24.7923777943
21
18.1644983449
31
0.0000000000
11
-24.7829541844
21
18.1974567575
31
0.0000000000
11
-24.7700100887
21
18.2289558580
31
0.0000000000
11
-24.7535920399
21
18.2588973299
31
0.0000000000
11
-24.7339715461
21
18.2867444138
31
0.0000000000
11
-24.7115593557
21
18.3119929595
31
0.0000000000
11
-24.6865367185
21
18.3345110697
31
0.0000000000
11
-24.6590998492
21
18.3541072821
31
0.0000000000
11
-24.6297628788
21
18.3704141796
31
0.0000000000
11
-24.5990240046
21
18.3832191348
31
0.0000000000
11
-24.5669508211
21
18.3925137051
31
0.0000000000
11
-24.5340153955
21
18.3981342190
31
0.0000000000
11
-24.5008636137
21
18.4000000000
31
0.0000000000
0
SPLINE
5
281
100
AcDbEntity
8
0
100
AcDbSpline
62
0
6
CONTINUOUS
70
0
71
3
72
21
73
17
74
15
42
0.0000001000
43
0.0000001000
44
0.0000000001
12
0.4732934017
22
0.0000000000
32
0.0000000000
13
-0.0000000000
23
-0.4732934017
33
0.0000000000
40
0.0000000000
40
0.0000000000
40
0.0000000000
40
0.0000000000
40
0.0701557286
40
0.1407494898
40
0.2113035808
40
0.2816602098
40
0.3525770160
40
0.4238147851
40
0.4949398023
40
0.5662715703
40
0.6382459406
40
0.7103943951
40
0.7823476459
40
0.8547745344
40
0.9275102805
40
1.0000000000
40
1.0000000000
40
1.0000000000
40
1.0000000000
10
24.5008636137
20
18.4000000000
30
0.0000000000
10
24.5119316948
20
18.4000000000
30
0.0000000000
10
24.5341571496
20
18.3987498265
30
0.0000000000
10
24.5670850448
20
18.3931295627
30
0.0000000000
10
24.5992031509
20
18.3838209974
30
0.0000000000
10
24.6301162990
20
18.3709413879
30
0.0000000000
10
24.6594815330
20
18.3546161052
30
0.0000000000
10
24.6869193236
20
18.3350156933
30
0.0000000000
10
24.7120299307
20
18.3124141833
30
0.0000000000
10
24.7345322471
20
18.2870591791
30
0.0000000000
10
24.7541487590
20
18.2592120490
30
0.0000000000
10
24.7705704132
20
18.2292573964
30
0.0000000000
10
24.7835788425
20
18.1975947425
30
0.0000000000
10
24.7930126759
20
18.1645913911
30
0.0000000000
10
24.7987267075
20
18.1306632907
30
0.0000000000
10
24.8000000000
20
18.1077315175
30
0.0000000000
10
24.8000000000
20
18.0962952155
30
0.0000000000
11
24.5008636137
21
18.4000000000
31
0.0000000000
11
24.5340153955
21
18.3981342190
31
0.0000000000
11
24.5669508211
21
18.3925137051
31
0.0000000000
11
24.5990240046
21
18.3832191348
31
0.0000000000
11
24.6297628788
21
18.3704141796
31
0.0000000000
11
24.6590998492
21
18.3541072821
31
0.0000000000
11
24.6865367185
21
18.3345110697
31
0.0000000000
11
24.7115593557
21
18.3119929595
31
0.0000000000
11
24.7339715461
21
18.2867444138
31
0.0000000000
11
24.7535920399
21
18.2588973299
31
0.0000000000
11
24.7700100887
21
18.2289558580
31
0.0000000000
11
24.7829541844
21
18.1974567575
31
0.0000000000
11
24.7923777943
21
18.1644983449
31
0.0000000000
11
24.7980961851
21
18.1305512590
31
0.0000000000
11
24.8000000000
21
18.0962952155
31
0.0000000000
0
SPLINE
5
282
100
AcDbEntity
8
0
100
AcDbSpline
62
0
6
CONTINUOUS
70
0
71
3
72
21
73
17
74
15
42
0.0000001000
43
0.0000001000
44
0.0000000001
12
0.0000000000
22
-0.4732934017
32
0.0000000000
13
-0.4732934017
23
0.0000000000
33
0.0000000000
40
0.0000000000
40
0.0000000000
40
0.0000000000
40
0.0000000000
40
0.0724897195
40
0.1452254656
40
0.2176523541
40
0.2896056049
40
0.3617540594
40
0.4337284297
40
0.5050601977
40
0.5761852149
40
0.6474229840
40
0.7183397902
40
0.7886964192
40
0.8592505102
40
0.9298442714
40
1.0000000000
40
1.0000000000
40
1.0000000000
40
1.0000000000
10
24.8000000000
20
-18.0962952155
30
0.0000000000
10
24.8000000000
20
-18.1077315175
30
0.0000000000
10
24.7987267075
20
-18.1306632907
30
0.0000000000
10
24.7930126759
20
-18.1645913911
30
0.0000000000
10
24.7835788425
20
-18.1975947425
30
0.0000000000
10
24.7705704132
20
-18.2292573964
30
0.0000000000
10
24.7541487590
20
-18.2592120490
30
0.0000000000
10
24.7345322471
20
-18.2870591791
30
0.0000000000
10
24.7120299307
20
-18.3124141833
30
0.0000000000
10
24.6869193236
20
-18.3350156933
30
0.0000000000
10
24.6594815330
20
-18.3546161052
30
0.0000000000
10
24.6301162990
20
-18.3709413879
30
0.0000000000
10
24.5992031509
20
-18.3838209974
30
0.0000000000
10
24.5670850448
20
-18.3931295627
30
0.0000000000
10
24.5341571496
20
-18.3987498265
30
0.0000000000
10
24.5119316948
20
-18.4000000000
30
0.0000000000
10
24.5008636137
20
-18.4000000000
30
0.0000000000
11
24.8000000000
21
-18.0962952155
31
0.0000000000
11
24.7980961851
21
-18.1305512590
31
0.0000000000
11
24.7923777943
21
-18.1644983449
31
0.0000000000
11
24.7829541844
21
-18.1974567575
31
0.0000000000
11
24.7700100887
21
-18.2289558580
31
0.0000000000
11
24.7535920399
21
-18.2588973299
31
0.0000000000
11
24.7339715461
21
-18.2867444138
31
0.0000000000
11
24.7115593557
21
-18.3119929595
31
0.0000000000
11
24.6865367185
21
-18.3345110697
31
0.0000000000
11
24.6590998492
21
-18.3541072821
31
0.0000000000
11
24.6297628788
21
-18.3704141796
31
0.0000000000
11
24.5990240046
21
-18.3832191348
31
0.0000000000
11
24.5669508211
21
-18.3925137051
31
0.0000000000
11
24.5340153955
21
-18.3981342190
31
0.0000000000
11
24.5008636137
21
-18.4000000000
31
0.0000000000
0
SPLINE
5
283
100
AcDbEntity
8
0
100
AcDbSpline
62
0
6
CONTINUOUS
70
0
71
3
72
53
73
49
74
47
42
0.0000001000
43
0.0000001000
44
0.0000000001
12
0.0000000000
22
-7.8352824469
32
0.0000000000
13
-0.0000000000
23
7.8352824469
33
0.0000000000
40
0.0000000000
40
0.0000000000
40
0.0000000000
40
0.0000000000
40
0.0216297225
40
0.0432714177
40
0.0649021541
40
0.0865565552
40
0.1081997555
40
0.1298687968
40
0.1515374670
40
0.1732219214
40
0.1949237680
40
0.2166264549
40
0.2383599994
40
0.2600892288
40
0.2818509279
40
0.3036127406
40
0.3253969325
40
0.3471936789
40
0.3689941777
40
0.3908187683
40
0.4126349545
40
0.4344772448
40
0.4563081729
40
0.4781569837
40
0.5000005538
40
0.5218440320
40
0.5436929207
40
0.5655238225
40
0.5873660912
40
0.6091823223
40
0.6310068022
40
0.6528074003
40
0.6746040023
40
0.6963882875
40
0.7181500656
40
0.7399117298
40
0.7616410439
40
0.7833744355
40
0.8050772747
40
0.8267789191
40
0.8484635085
40
0.8701321134
40
0.8918011255
40
0.9134444429
40
0.9350986460
40
0.9567295945
40
0.9783710358
40
1.0000000000
40
1.0000000000
40
1.0000000000
40
1.0000000000
10
2.5000000000
20
-0.0000000000
30
0.0000000000
10
2.5000000000
20
-0.0564916616
30
0.0000000000
10
2.4961325952
20
-0.1695443758
30
0.0000000000
10
2.4787552144
20
-0.3382867943
30
0.0000000000
10
2.4498733212
20
-0.5055182963
30
0.0000000000
10
2.4096276449
20
-0.6703865022
30
0.0000000000
10
2.3581782942
20
-0.8322143996
30
0.0000000000
10
2.2957776435
20
-0.9901832771
30
0.0000000000
10
2.2226827288
20
-1.1436163711
30
0.0000000000
10
2.1392361058
20
-1.2917730386
30
0.0000000000
10
2.0458156128
20
-1.4339581422
30
0.0000000000
10
1.9428275698
20
-1.5695348210
30
0.0000000000
10
1.8307768962
20
-1.6978183970
30
0.0000000000
10
1.7101232848
20
-1.8182641134
30
0.0000000000
10
1.5814766137
20
-1.9302452900
30
0.0000000000
10
1.4453757011
20
-2.0332754369
30
0.0000000000
10
1.3024884040
20
-2.1268339950
30
0.0000000000
10
1.1534652049
20
-2.2104796700
30
0.0000000000
10
0.9989913173
20
-2.2838170245
30
0.0000000000
10
0.8398301617
20
-2.3464726022
30
0.0000000000
10
0.6766653413
20
-2.3981688105
30
0.0000000000
10
0.5103407666
20
-2.4386306901
30
0.0000000000
10
0.3415621170
20
-2.4676803705
30
0.0000000000
10
0.1711930166
20
-2.4851649091
30
0.0000000000
10
-0.0000041051
20
-2.4910023349
30
0.0000000000
10
-0.1712014092
20
-2.4851643348
30
0.0000000000
10
-0.3415703484
20
-2.4676792458
30
0.0000000000
10
-0.5103489769
20
-2.4386289826
30
0.0000000000
10
-0.6766734104
20
-2.3981665559
30
0.0000000000
10
-0.8398378413
20
-2.3464698714
30
0.0000000000
10
-0.9989988738
20
-2.2838137470
30
0.0000000000
10
-1.1534721589
20
-2.2104760686
30
0.0000000000
10
-1.3024952018
20
-2.1268298630
30
0.0000000000
10
-1.4453820252
20
-2.0332709871
30
0.0000000000
10
-1.5814826601
20
-1.9302403714
30
0.0000000000
10
-1.7101290175
20
-1.8182587749
30
0.0000000000
10
-1.8307820603
20
-1.6978128683
30
0.0000000000
10
-1.9428324865
20
-1.5695287881
30
0.0000000000
10
-2.0458197979
20
-1.4339522158
30
0.0000000000
10
-2.1392399893
20
-1.2917666519
30
0.0000000000
10
-2.2226860195
20
-1.1436100451
30
0.0000000000
10
-2.2957805227
20
-0.9901766388
30
0.0000000000
10
-2.3581807481
20
-0.8322075304
30
0.0000000000
10
-2.4096295317
20
-0.6703797526
30
0.0000000000
10
-2.4498748200
20
-0.5055111023
30
0.0000000000
10
-2.4787561280
20
-0.3382801318
30
0.0000000000
10
-2.4961328215
20
-0.1695397476
30
0.0000000000
10
-2.5000000000
20
-0.0564896811
30
0.0000000000
10
-2.5000000000
20
0.0000000000
30
0.0000000000
11
2.5000000000
21
-0.0000000000
31
0.0000000000
11
2.4942051321
21
-0.1693758838
31
0.0000000000
11
2.4768355290
21
-0.3380527142
31
0.0000000000
11
2.4479920846
21
-0.5050632495
31
0.0000000000
11
2.4077569969
21
-0.6698919072
31
0.0000000000
11
2.3563779520
21
-0.8315018369
31
0.0000000000
11
2.2940019080
21
-0.9894116728
31
0.0000000000
11
2.2209832536
21
-1.1426878152
31
0.0000000000
11
2.1376049446
21
-1.2907262127
31
0.0000000000
11
2.0442347914
21
-1.4328376106
31
0.0000000000
11
1.9413755262
21
-1.5682475274
31
0.0000000000
11
1.8293529426
21
-1.6965015728
31
0.0000000000
11
1.7088621931
21
-1.8167871706
31
0.0000000000
11
1.5802529508
21
-1.9287380623
31
0.0000000000
11
1.4443050040
21
-2.0316545260
31
0.0000000000
11
1.3015080422
21
-2.1251558519
31
0.0000000000
11
1.1525811647
21
-2.2087491843
31
0.0000000000
11
0.9982755387
21
-2.2820081587
31
0.0000000000
11
0.8391593510
21
-2.3446473258
31
0.0000000000
11
0.6762070313
21
-2.3962772681
31
0.0000000000
11
0.5099165747
21
-2.4367316809
31
0.0000000000
11
0.3413438872
21
-2.4657465107
31
0.0000000000
11
0.1710467876
21
-2.4832240178
31
0.0000000000
11
-0.0000043418
21
-2.4890565887
31
0.0000000000
11
-0.1710547320
21
-2.4832234753
31
0.0000000000
11
-0.3413523806
21
-2.4657453452
31
0.0000000000
11
-0.5099247676
21
-2.4367299814
31
0.0000000000
11
-0.6762149267
21
-2.3962750595
31
0.0000000000
11
-0.8391674092
21
-2.3446444670
31
0.0000000000
11
-0.9982825870
21
-2.2820051023
31
0.0000000000
11
-1.1525886797
21
-2.2087452971
31
0.0000000000
11
-1.3015143069
21
-2.1251520487
31
0.0000000000
11
-1.4443115927
21
-2.0316498830
31
0.0000000000
11
-1.5802589972
21
-1.9287331517
31
0.0000000000
11
-1.7088676899
21
-1.8167820456
31
0.0000000000
11
-1.8293585305
21
-1.6964956000
31
0.0000000000
11
-1.9413799359
21
-1.5682421161
31
0.0000000000
11
-2.0442395107
21
-1.4328309363
31
0.0000000000
11
-2.1376083723
21
-1.2907205855
31
0.0000000000
11
-2.2209867767
21
-1.1426810271
31
0.0000000000
11
-2.2940047551
21
-0.9894051294
31
0.0000000000
11
-2.3563802685
21
-0.8314953297
31
0.0000000000
11
-2.4077591114
21
-0.6698843734
31
0.0000000000
11
-2.4479933627
21
-0.5050571085
31
0.0000000000
11
-2.4768366115
21
-0.3380448523
31
0.0000000000
11
-2.4942055384
21
-0.1693699528
31
0.0000000000
11
-2.5000000000
21
0.0000000000
31
0.0000000000
0
SPLINE
5
284
100
AcDbEntity
8
0
100
AcDbSpline
62
0
6
CONTINUOUS
70
0
71
3
72
20
73
16
74
14
42
0.0000001000
43
0.0000001000
44
0.0000000001
12
0.0014365767
22
-0.4668967676
32
0.0000000000
13
0.4668968976
23
-0.0013936835
33
0.0000000000
40
0.0000000000
40
0.0000000000
40
0.0000000000
40
0.0000000000
40
0.0762841333
40
0.1526297652
40
0.2290660988
40
0.3056169935
40
0.3822995864
40
0.4591233227
40
0.5360894479
40
0.6131909793
40
0.6904131519
40
0.7677342997
40
0.8451271193
40
0.9225602381
40
1.0000000000
40
1.0000000000
40
1.0000000000
40
1.0000000000
10
-24.6950679731
20
-17.0362964381
30
0.0000000000
10
-24.6950314438
20
-17.0481687098
30
0.0000000000
10
-24.6935008119
20
-17.0719439176
30
0.0000000000
10
-24.6868694514
20
-17.1070580223
30
0.0000000000
10
-24.6759988344
20
-17.1411481566
30
0.0000000000
10
-24.6610475389
20
-17.1737118241
30
0.0000000000
10
-24.6422334532
20
-17.2042778303
30
0.0000000000
10
-24.6198305518
20
-17.2324018715
30
0.0000000000
10
-24.5941648048
20
-17.2576759790
30
0.0000000000
10
-24.5656094324
20
-17.2797335724
30
0.0000000000
10
-24.5345792358
20
-17.2982549254
30
0.0000000000
10
-24.5015253288
20
-17.3129716630
30
0.0000000000
10
-24.4669257316
20
-17.3236706017
30
0.0000000000
10
-24.4312892023
20
-17.3301967409
30
0.0000000000
10
-24.4071657927
20
-17.3317027885
30
0.0000000000
10
-24.3951136646
20
-17.3317387640
30
0.0000000000
11
-24.6950679731
21
-17.0362964381
31
0.0000000000
11
-24.6927800275
21
-17.0718398600
31
0.0000000000
11
-24.6861681498
21
-17.1068669756
31
0.0000000000
11
-24.6753283845
21
-17.1408689772
31
0.0000000000
11
-24.6604181907
21
-17.1733519482
31
0.0000000000
11
-24.6416541551
21
-17.2038440375
31
0.0000000000
11
-24.6193088457
21
-17.2319023136
31
0.0000000000
11
-24.5937068526
21
-17.2571191987
31
0.0000000000
11
-24.5652200729
21
-17.2791283893
31
0.0000000000
11
-24.5342623085
21
-17.2976101772
31
0.0000000000
11
-24.5012832551
21
-17.3122960938
31
0.0000000000
11
-24.4667619703
21
-17.3229728095
31
0.0000000000
11
-24.4311999139
21
-17.3294852330
31
0.0000000000
11
-24.3951136646
21
-17.3317387640
31
0.0000000000
0
SPLINE
5
285
100
AcDbEntity
8
0
100
AcDbSpline
62
0
6
CONTINUOUS
70
0
71
3
72
23
73
19
74
17
42
0.0000001000
43
0.0000001000
44
0.0000000001
12
0.0654167177
22
0.9440975659
32
0.0000000000
13
0.0004462523
23
0.9463611159
33
0.0000000000
40
0.0000000000
40
0.0000000000
40
0.0000000000
40
0.0000000000
40
0.0193268239
40
0.0459943367
40
0.0798153825
40
0.1205476041
40
0.1678990384
40
0.2215296910
40
0.2810535788
40
0.3460423989
40
0.4160287934
40
0.4905094767
40
0.5689484769
40
0.6507809359
40
0.7354185112
40
0.8222530022
40
0.9106576825
40
1.0000000000
40
1.0000000000
40
1.0000000000
40
1.0000000000
10
-24.3951136646
20
-17.3317387640
30
0.0000000000
10
-24.3946922321
20
-17.3256566282
30
0.0000000000
10
-24.3939484998
20
-17.3111650221
30
0.0000000000
10
-24.3929940018
20
-17.2860051114
30
0.0000000000
10
-24.3920605358
20
-17.2540878385
30
0.0000000000
10
-24.3911542682
20
-17.2156431536
30
0.0000000000
10
-24.3902873693
20
-17.1709471292
30
0.0000000000
10
-24.3894668502
20
-17.1203215092
30
0.0000000000
10
-24.3886998668
20
-17.0641307015
30
0.0000000000
10
-24.3879924452
20
-17.0027792727
30
0.0000000000
10
-24.3873500922
20
-16.9367087173
30
0.0000000000
10
-24.3867776842
20
-16.8663944652
30
0.0000000000
10
-24.3862795278
20
-16.7923426770
30
0.0000000000
10
-24.3858593343
20
-16.7150863290
30
0.0000000000
10
-24.3855202215
20
-16.6351811708
30
0.0000000000
10
-24.3852646902
20
-16.5532024605
30
0.0000000000
10
-24.3850946245
20
-16.4697393985
30
0.0000000000
10
-24.3850392213
20
-16.4136684586
30
0.0000000000
10
-24.3850259316
20
-16.3854850935
30
0.0000000000
11
-24.3951136646
21
-17.3317387640
31
0.0000000000
11
-24.3941013996
21
-17.3134766406
31
0.0000000000
11
-24.3931117252
21
-17.2882589531
31
0.0000000000
11
-24.3921517020
21
-17.2562664278
31
0.0000000000
11
-24.3912282835
21
-17.2177300948
31
0.0000000000
11
-24.3903480986
21
-17.1729271787
31
0.0000000000
11
-24.3895174809
21
-17.1221800061
31
0.0000000000
11
-24.3887424121
21
-17.0658542393
31
0.0000000000
11
-24.3880284699
21
-17.0043554841
31
0.0000000000
11
-24.3873807880
21
-16.9381262413
31
0.0000000000
11
-24.3868040239
21
-16.8676429706
31
0.0000000000
11
-24.3863023280
21
-16.7934130380
31
0.0000000000
11
-24.3858793109
21
-16.7159711275
31
0.0000000000
11
-24.3855380133
21
-16.6358741355
31
0.0000000000
11
-24.3852808855
21
-16.5536977429
31
0.0000000000
11
-24.3851097843
21
-16.4700351566
31
0.0000000000
11
-24.3850259316
21
-16.3854850935
31
0.0000000000
0
SPLINE
5
286
100
AcDbEntity
8
0
100
AcDbSpline
62
0
6
CONTINUOUS
70
0
71
3
72
23
73
19
74
17
42
0.0000001000
43
0.0000001000
44
0.0000000001
12
0.0652627498
22
0.6593089659
32
0.0000000000
13
0.0004462989
23
0.6625310105
33
0.0000000000
40
0.0000000000
40
0.0000000000
40
0.0000000000
40
0.0000000000
40
0.0193475382
40
0.0460319690
40
0.0798640991
40
0.1206036029
40
0.1679595142
40
0.2215925152
40
0.2811170707
40
0.3461052088
40
0.4160898245
40
0.4905677929
40
0.5690031284
40
0.6508310710
40
0.7354633785
40
0.8222919582
40
0.9106901622
40
1.0000000000
40
1.0000000000
40
1.0000000000
40
1.0000000000
10
-24.6950679731
20
-17.0362964381
30
0.0000000000
10
-24.6946470819
20
-17.0320444363
30
0.0000000000
10
-24.6939032941
20
-17.0219035453
30
0.0000000000
10
-24.6929487402
20
-17.0042919757
30
0.0000000000
10
-24.6920151409
20
-16.9819490725
30
0.0000000000
10
-24.6911088073
20
-16.9550372943
30
0.0000000000
10
-24.6902418491
20
-16.9237492990
30
0.0000000000
10
-24.6894212805
20
-16.8883103221
30
0.0000000000
10
-24.6886542536
20
-16.8489753668
30
0.0000000000
10
-24.6879467939
20
-16.8060276298
30
0.0000000000
10
-24.6873044085
20
-16.7597761690
30
0.0000000000
10
-24.6867319751
20
-16.7105538546
30
0.0000000000
10
-24.6862337999
20
-16.6587150862
30
0.0000000000
10
-24.6858135970
20
-16.6046330383
30
0.0000000000
10
-24.6854744797
20
-16.5486967933
30
0.0000000000
10
-24.6852189562
20
-16.4913090898
30
0.0000000000
10
-24.6850489162
20
-16.4328880642
30
0.0000000000
10
-24.6849935264
20
-16.3936423811
30
0.0000000000
10
-24.6849802401
20
-16.3739188688
30
0.0000000000
11
-24.6950679731
21
-17.0362964381
31
0.0000000000
11
-24.6940560456
21
-17.0235180962
31
0.0000000000
11
-24.6930663173
21
-17.0058665547
31
0.0000000000
11
-24.6921062541
21
-16.9834722843
31
0.0000000000
11
-24.6911827893
21
-16.9564968957
31
0.0000000000
11
-24.6903025612
21
-16.9251344788
31
0.0000000000
11
-24.6894719013
21
-16.8896106547
31
0.0000000000
11
-24.6886967934
21
-16.8501813997
31
0.0000000000
11
-24.6879828157
21
-16.8071306533
31
0.0000000000
11
-24.6873351029
21
-16.7607681888
31
0.0000000000
11
-24.6867583137
21
-16.7114275852
31
0.0000000000
11
-24.6862565999
21
-16.6594641533
31
0.0000000000
11
-24.6858335731
21
-16.6052522420
31
0.0000000000
11
-24.6854922726
21
-16.5491817398
31
0.0000000000
11
-24.6852351511
21
-16.4916556747
31
0.0000000000
11
-24.6850640612
21
-16.4330893599
31
0.0000000000
11
-24.6849802401
21
-16.3739188688
31
0.0000000000
0
SPLINE
5
287
100
AcDbEntity
8
0
100
AcDbSpline
62
0
6
CONTINUOUS
70
0
71
3
72
19
73
15
74
13
42
0.0000001000
43
0.0000001000
44
0.0000000001
12
0.1238618155
22
-0.2738682292
32
0.0000000000
13
0.3005753075
23
-0.0002021260
33
0.0000000000
40
0.0000000000
40
0.0000000000
40
0.0000000000
40
0.0000000000
40
0.0337343966
40
0.0710523107
40
0.1215253438
40
0.1844694373
40
0.2590048458
40
0.3440792527
40
0.4384865142
40
0.5408854699
40
0.6498198660
40
0.7637395605
40
0.8810228956
40
1.0000000000
40
1.0000000000
40
1.0000000000
40
1.0000000000
10
-24.6849802401
20
-16.3739188688
30
0.0000000000
10
-24.6835874389
20
-16.3769984619
30
0.0000000000
10
-24.6740137742
20
-16.3760985711
30
0.0000000000
10
-24.6631070586
20
-16.3784530748
30
0.0000000000
10
-24.6475895762
20
-16.3792750854
30
0.0000000000
10
-24.6289654857
20
-16.3805733403
30
0.0000000000
10
-24.6066329287
20
-16.3815928007
30
0.0000000000
10
-24.5812201052
20
-16.3825767945
30
0.0000000000
10
-24.5529843843
20
-16.3834210561
30
0.0000000000
10
-24.5223617644
20
-16.3841405824
30
0.0000000000
10
-24.4897784519
20
-16.3847156202
30
0.0000000000
10
-24.4557021295
20
-16.3851401101
30
0.0000000000
10
-24.4206177999
20
-16.3854069480
30
0.0000000000
10
-24.3969464581
20
-16.3854770774
30
0.0000000000
10
-24.3850259316
20
-16.3854850935
30
0.0000000000
11
-24.6849802401
21
-16.3739188688
31
0.0000000000
11
-24.6752172451
21
-16.3766571222
31
0.0000000000
11
-24.6640783678
21
-16.3779773673
31
0.0000000000
11
-24.6489600287
21
-16.3792397357
31
0.0000000000
11
-24.6300778248
21
-16.3804262252
31
0.0000000000
11
-24.6077010282
21
-16.3815199157
31
0.0000000000
11
-24.5821487458
21
-16.3825052106
31
0.0000000000
11
-24.5537853691
21
-16.3833680589
31
0.0000000000
11
-24.5230153777
21
-16.3840961558
31
0.0000000000
11
-24.4902775707
21
-16.3846791183
31
0.0000000000
11
-24.4560388097
21
-16.3851086329
31
0.0000000000
11
-24.4207873608
21
-16.3853785745
31
0.0000000000
11
-24.3850259316
21
-16.3854850935
31
0.0000000000
0
SPLINE
5
288
100
AcDbEntity
8
0
100
AcDbSpline
62
0
6
CONTINUOUS
70
0
71
3
72
15
73
11
74
9
42
0.0000001000
43
0.0000001000
44
0.0000000001
12
0.0220545067
22
32.7478327464
32
0.0000000000
13
-0.0220545067
23
32.7478327464
33
0.0000000000
40
0.0000000000
40
0.0000000000
40
0.0000000000
40
0.0000000000
40
0.1249593399
40
0.2499535351
40
0.3749709611
40
0.5000000024
40
0.6250290436
40
0.7500464697
40
0.8750406649
40
1.0000000000
40
1.0000000000
40
1.0000000000
40
1.0000000000
10
-24.6849802401
20
-16.3739188688
30
0.0000000000
10
-24.6840616012
20
-15.0098696815
30
0.0000000000
10
-24.6824540201
20
-12.2813906675
30
0.0000000000
10
-24.6807317455
20
-8.1882279768
30
0.0000000000
10
-24.6796983165
20
-4.0943041963
30
0.0000000000
10
-24.6793538296
20
0.0000000774
30
0.0000000000
10
-24.6796983166
20
4.0943043511
30
0.0000000000
10
-24.6807317455
20
8.1882281314
30
0.0000000000
10
-24.6824540202
20
12.2813907705
30
0.0000000000
10
-24.6840616013
20
15.0098697329
30
0.0000000000
10
-24.6849802401
20
16.3739188688
30
0.0000000000
11
-24.6849802401
21
-16.3739188688
31
0.0000000000
11
-24.6825690929
21
-12.2817710892
31
0.0000000000
11
-24.6808466847
21
-8.1884815245
31
0.0000000000
11
-24.6798131758
21
-4.0944309681
31
0.0000000000
11
-24.6794686621
21
0.0000000775
31
0.0000000000
11
-24.6798131758
21
4.0944311229
31
0.0000000000
11
-24.6808466847
21
8.1884816791
31
0.0000000000
11
-24.6825690930
21
12.2817712436
31
0.0000000000
11
-24.6849802401
21
16.3739188688
31
0.0000000000
0
SPLINE
5
289
100
AcDbEntity
8
0
100
AcDbSpline
62
0
6
CONTINUOUS
70
0
71
3
72
19
73
15
74
13
42
0.0000001000
43
0.0000001000
44
0.0000000001
12
0.1238630382
22
0.2738676754
32
0.0000000000
13
0.3005753067
23
0.0002021257
33
0.0000000000
40
0.0000000000
40
0.0000000000
40
0.0000000000
40
0.0000000000
40
0.0337344356
40
0.0710523638
40
0.1215254068
40
0.1844695059
40
0.2590049161
40
0.3440793209
40
0.4384865767
40
0.5408855239
40
0.6498199088
40
0.7637395902
40
0.8810229107
40
1.0000000000
40
1.0000000000
40
1.0000000000
40
1.0000000000
10
-24.6849802401
20
16.3739188688
30
0.0000000000
10
-24.6835874235
20
16.3769984593
30
0.0000000000
10
-24.6740137706
20
16.3760985716
30
0.0000000000
10
-24.6631070399
20
16.3784530732
30
0.0000000000
10
-24.6475895581
20
16.3792750845
30
0.0000000000
10
-24.6289654645
20
16.3805733388
30
0.0000000000
10
-24.6066329075
20
16.3815927990
30
0.0000000000
10
-24.5812200846
20
16.3825767925
30
0.0000000000
10
-24.5529843654
20
16.3834210539
30
0.0000000000
10
-24.5223617481
20
16.3841405800
30
0.0000000000
10
-24.4897784390
20
16.3847156176
30
0.0000000000
10
-24.4557021206
20
16.3851401074
30
0.0000000000
10
-24.4206177954
20
16.3854069452
30
0.0000000000
10
-24.3969464566
20
16.3854770746
30
0.0000000000
10
-24.3850259316
20
16.3854850907
30
0.0000000000
11
-24.6849802401
21
16.3739188688
31
0.0000000000
11
-24.6752172328
21
16.3766571217
31
0.0000000000
11
-24.6640783512
21
16.3779773665
31
0.0000000000
11
-24.6489600092
21
16.3792397346
31
0.0000000000
11
-24.6300778036
21
16.3804262238
31
0.0000000000
11
-24.6077010065
21
16.3815199141
31
0.0000000000
11
-24.5821487248
21
16.3825052087
31
0.0000000000
11
-24.5537853499
21
16.3833680567
31
0.0000000000
11
-24.5230153611
21
16.3840961534
31
0.0000000000
11
-24.4902775576
21
16.3846791157
31
0.0000000000
11
-24.4560388006
21
16.3851086302
31
0.0000000000
11
-24.4207873561
21
16.3853785717
31
0.0000000000
11
-24.3850259316
21
16.3854850907
31
0.0000000000
0
SPLINE
5
28A
100
AcDbEntity
8
0
100
AcDbSpline
62
0
6
CONTINUOUS
70
0
71
3
72
23
73
19
74
17
42
0.0000001000
43
0.0000001000
44
0.0000000001
12
-0.0004462892
22
0.9463611160
32
0.0000000000
13
-0.0654154629
23
0.9440976529
33
0.0000000000
40
0.0000000000
40
0.0000000000
40
0.0000000000
40
0.0000000000
40
0.0893422249
40
0.1777469231
40
0.2645814179
40
0.3492189865
40
0.4310514592
40
0.5094904669
40
0.5839711464
40
0.6539575402
40
0.7189463681
40
0.7784702654
40
0.8321009189
40
0.8794523517
40
0.9201845833
40
0.9540056346
40
0.9806731503
40
1.0000000000
40
1.0000000000
40
1.0000000000
40
1.0000000000
10
-24.3850259316
20
16.3854850935
30
0.0000000000
10
-24.3850392224
20
16.4136684294
30
0.0000000000
10
-24.3850946231
20
16.4697393458
30
0.0000000000
10
-24.3852646908
20
16.5532023854
30
0.0000000000
10
-24.3855202205
20
16.6351811004
30
0.0000000000
10
-24.3858593336
20
16.7150862620
30
0.0000000000
10
-24.3862795264
20
16.7923426146
30
0.0000000000
10
-24.3867776825
20
16.8663944083
30
0.0000000000
10
-24.3873500900
20
16.9367086614
30
0.0000000000
10
-24.3879924426
20
17.0027792178
30
0.0000000000
10
-24.3886998639
20
17.0641306519
30
0.0000000000
10
-24.3894668474
20
17.1203214654
30
0.0000000000
10
-24.3902873662
20
17.1709470882
30
0.0000000000
10
-24.3911542660
20
17.2156431155
30
0.0000000000
10
-24.3920605314
20
17.2540878050
30
0.0000000000
10
-24.3929940027
20
17.2860050834
30
0.0000000000
10
-24.3939484900
20
17.3111650055
30
0.0000000000
10
-24.3946922396
20
17.3256566195
30
0.0000000000
10
-24.3951136646
20
17.3317387640
30
0.0000000000
11
-24.3850259316
21
16.3854850935
31
0.0000000000
11
-24.3851097838
21
16.4700350690
31
0.0000000000
11
-24.3852808855
21
16.5536976722
31
0.0000000000
11
-24.3855380125
21
16.6358740685
31
0.0000000000
11
-24.3858793099
21
16.7159710541
31
0.0000000000
11
-24.3863023266
21
16.7934129776
31
0.0000000000
11
-24.3868040221
21
16.8676429173
31
0.0000000000
11
-24.3873807858
21
16.9381261844
31
0.0000000000
11
-24.3880284673
21
17.0043554266
31
0.0000000000
11
-24.3887424093
21
17.0658541892
31
0.0000000000
11
-24.3895174781
21
17.1221799649
31
0.0000000000
11
-24.3903480957
21
17.1729271384
31
0.0000000000
11
-24.3912282806
21
17.2177300531
31
0.0000000000
11
-24.3921516991
21
17.2562663955
31
0.0000000000
11
-24.3931117229
21
17.2882589261
31
0.0000000000
11
-24.3941013963
21
17.3134766163
31
0.0000000000
11
-24.3951136646
21
17.3317387640
31
0.0000000000
0
SPLINE
5
28B
100
AcDbEntity
8
0
100
AcDbSpline
62
0
6
CONTINUOUS
70
0
71
3
72
23
73
19
74
17
42
0.0000001000
43
0.0000001000
44
0.0000000001
12
-0.0004463113
22
0.6625310104
32
0.0000000000
13
-0.0652631569
23
0.6593089255
33
0.0000000000
40
0.0000000000
40
0.0000000000
40
0.0000000000
40
0.0000000000
40
0.0893017967
40
0.1776998333
40
0.2645282976
40
0.3491605405
40
0.4309885119
40
0.5094239455
40
0.5839020984
40
0.6538871463
40
0.7188759694
40
0.7784013749
40
0.8320352228
40
0.8793919653
40
0.9201322848
40
0.9539652142
40
0.9806503729
40
1.0000000000
40
1.0000000000
40
1.0000000000
40
1.0000000000
10
-24.6849802401
20
16.3739188688
30
0.0000000000
10
-24.6849935256
20
16.3936406053
30
0.0000000000
10
-24.6850489094
20
16.4328844756
30
0.0000000000
10
-24.6852189368
20
16.4913036629
30
0.0000000000
10
-24.6854744509
20
16.5486912897
30
0.0000000000
10
-24.6858135591
20
16.6046275014
30
0.0000000000
10
-24.6862337522
20
16.6587095632
30
0.0000000000
10
-24.6867319175
20
16.7105484004
30
0.0000000000
10
-24.6873043413
20
16.7597708728
30
0.0000000000
10
-24.6879467181
20
16.8060226212
30
0.0000000000
10
-24.6886541715
20
16.8489707928
30
0.0000000000
10
-24.6894211943
20
16.8883062743
30
0.0000000000
10
-24.6902417607
20
16.9237458097
30
0.0000000000
10
-24.6911087170
20
16.9550343560
30
0.0000000000
10
-24.6920150516
20
16.9819466746
30
0.0000000000
10
-24.6929486485
20
17.0042900959
30
0.0000000000
10
-24.6939032273
20
17.0219024636
30
0.0000000000
10
-24.6946470338
20
17.0320439775
30
0.0000000000
10
-24.6950679731
20
17.0362964381
30
0.0000000000
11
-24.6849802401
21
16.3739188688
31
0.0000000000
11
-24.6850640496
21
16.4330840325
31
0.0000000000
11
-24.6852351313
21
16.4916502363
31
0.0000000000
11
-24.6854922436
21
16.5491762250
31
0.0000000000
11
-24.6858335347
21
16.6052466845
31
0.0000000000
11
-24.6862565518
21
16.6594586149
31
0.0000000000
11
-24.6867582555
21
16.7114221119
31
0.0000000000
11
-24.6873350345
21
16.7607628379
31
0.0000000000
11
-24.6879827386
21
16.8071255888
31
0.0000000000
11
-24.6886967101
21
16.8501767893
31
0.0000000000
11
-24.6894718145
21
16.8896066076
31
0.0000000000
11
-24.6903024719
21
16.9251309929
31
0.0000000000
11
-24.6911826983
21
16.9564939608
31
0.0000000000
11
-24.6921061625
21
16.9834698901
31
0.0000000000
11
-24.6930662259
21
17.0058646906
31
0.0000000000
11
-24.6940559550
21
17.0235167151
31
0.0000000000
11
-24.6950679731
21
17.0362964381
31
0.0000000000
0
SPLINE
5
28C
100
AcDbEntity
8
0
100
AcDbSpline
62
0
6
CONTINUOUS
70
0
71
3
72
20
73
16
74
14
42
0.0000001000
43
0.0000001000
44
0.0000000001
12
0.0014365767
22
0.4668967676
32
0.0000000000
13
0.4668968976
23
0.0013936835
33
0.0000000000
40
0.0000000000
40
0.0000000000
40
0.0000000000
40
0.0000000000
40
0.0762841454
40
0.1526297873
40
0.2290661287
40
0.3056170291
40
0.3822996253
40
0.4591233628
40
0.5360894869
40
0.6131910154
40
0.6904131830
40
0.7677343244
40
0.8451271365
40
0.9225602469
40
1.0000000000
40
1.0000000000
40
1.0000000000
40
1.0000000000
10
-24.6950679731
20
17.0362964381
30
0.0000000000
10
-24.6950314438
20
17.0481687117
30
0.0000000000
10
-24.6935008114
20
17.0719439229
30
0.0000000000
10
-24.6868694491
20
17.1070580321
30
0.0000000000
10
-24.6759988296
20
17.1411481695
30
0.0000000000
10
-24.6610475313
20
17.1737118386
30
0.0000000000
10
-24.6422334430
20
17.2042778450
30
0.0000000000
10
-24.6198305394
20
17.2324018853
30
0.0000000000
10
-24.5941647912
20
17.2576759908
30
0.0000000000
10
-24.5656094186
20
17.2797335817
30
0.0000000000
10
-24.5345792230
20
17.2982549319
30
0.0000000000
10
-24.5015253181
20
17.3129716669
30
0.0000000000
10
-24.4669257239
20
17.3236706035
30
0.0000000000
10
-24.4312891982
20
17.3301967412
30
0.0000000000
10
-24.4071657914
20
17.3317027885
30
0.0000000000
10
-24.3951136646
20
17.3317387640
30
0.0000000000
11
-24.6950679731
21
17.0362964381
31
0.0000000000
11
-24.6927800268
21
17.0718398656
31
0.0000000000
11
-24.6861681473
21
17.1068669856
31
0.0000000000
11
-24.6753283794
21
17.1408689903
31
0.0000000000
11
-24.6604181828
21
17.1733519629
31
0.0000000000
11
-24.6416541446
21
17.2038440525
31
0.0000000000
11
-24.6193088331
21
17.2319023275
31
0.0000000000
11
-24.5937068388
21
17.2571192107
31
0.0000000000
11
-24.5652200590
21
17.2791283988
31
0.0000000000
11
-24.5342622955
21
17.2976101839
31
0.0000000000
11
-24.5012832443
21
17.3122960979
31
0.0000000000
11
-24.4667619625
21
17.3229728114
31
0.0000000000
11
-24.4311999098
21
17.3294852335
31
0.0000000000
11
-24.3951136646
21
17.3317387640
31
0.0000000000
0
SPLINE
5
28D
100
AcDbEntity
8
0
100
AcDbSpline
62
0
6
CONTINUOUS
70
0
71
3
72
20
73
16
74
14
42
0.0000001000
43
0.0000001000
44
0.0000000001
12
-0.0014365767
22
0.4668967676
32
0.0000000000
13
-0.4668968976
23
0.0013936835
33
0.0000000000
40
0.0000000000
40
0.0000000000
40
0.0000000000
40
0.0000000000
40
0.0762841383
40
0.1526297744
40
0.2290661112
40
0.3056170084
40
0.3822996028
40
0.4591233397
40
0.5360894644
40
0.6131909947
40
0.6904131651
40
0.7677343102
40
0.8451271267
40
0.9225602418
40
1.0000000000
40
1.0000000000
40
1.0000000000
40
1.0000000000
10
24.6950679731
20
17.0362964381
30
0.0000000000
10
24.6950314438
20
17.0481687106
30
0.0000000000
10
24.6935008117
20
17.0719439198
30
0.0000000000
10
24.6868694505
20
17.1070580264
30
0.0000000000
10
24.6759988324
20
17.1411481620
30
0.0000000000
10
24.6610475358
20
17.1737118302
30
0.0000000000
10
24.6422334489
20
17.2042778365
30
0.0000000000
10
24.6198305466
20
17.2324018773
30
0.0000000000
10
24.5941647991
20
17.2576759840
30
0.0000000000
10
24.5656094266
20
17.2797335764
30
0.0000000000
10
24.5345792303
20
17.2982549281
30
0.0000000000
10
24.5015253243
20
17.3129716647
30
0.0000000000
10
24.4669257283
20
17.3236706025
30
0.0000000000
10
24.4312892005
20
17.3301967410
30
0.0000000000
10
24.4071657922
20
17.3317027885
30
0.0000000000
10
24.3951136646
20
17.3317387640
30
0.0000000000
11
24.6950679731
21
17.0362964381
31
0.0000000000
11
24.6927800272
21
17.0718398623
31
0.0000000000
11
24.6861681488
21
17.1068669797
31
0.0000000000
11
24.6753283824
21
17.1408689826
31
0.0000000000
11
24.6604181874
21
17.1733519544
31
0.0000000000
11
24.6416541507
21
17.2038440438
31
0.0000000000
11
24.6193088404
21
17.2319023195
31
0.0000000000
11
24.5937068468
21
17.2571192037
31
0.0000000000
11
24.5652200670
21
17.2791283933
31
0.0000000000
11
24.5342623030
21
17.2976101801
31
0.0000000000
11
24.5012832505
21
17.3122960955
31
0.0000000000
11
24.4667619669
21
17.3229728103
31
0.0000000000
11
24.4311999122
21
17.3294852332
31
0.0000000000
11
24.3951136646
21
17.3317387640
31
0.0000000000
0
SPLINE
5
28E
100
AcDbEntity
8
0
100
AcDbSpline
62
0
6
CONTINUOUS
70
0
71
3
72
23
73
19
74
17
42
0.0000001000
43
0.0000001000
44
0.0000000001
12
-0.0654154629
22
-0.9440976529
32
0.0000000000
13
-0.0004462892
23
-0.9463611160
33
0.0000000000
40
0.0000000000
40
0.0000000000
40
0.0000000000
40
0.0000000000
40
0.0193268497
40
0.0459943654
40
0.0798154167
40
0.1205476483
40
0.1678990811
40
0.2215297346
40
0.2810536319
40
0.3460424598
40
0.4160288536
40
0.4905095331
40
0.5689485408
40
0.6507810135
40
0.7354185821
40
0.8222530769
40
0.9106577751
40
1.0000000000
40
1.0000000000
40
1.0000000000
40
1.0000000000
10
24.3951136646
20
17.3317387640
30
0.0000000000
10
24.3946922396
20
17.3256566195
30
0.0000000000
10
24.3939484900
20
17.3111650055
30
0.0000000000
10
24.3929940027
20
17.2860050834
30
0.0000000000
10
24.3920605314
20
17.2540878050
30
0.0000000000
10
24.3911542660
20
17.2156431155
30
0.0000000000
10
24.3902873662
20
17.1709470882
30
0.0000000000
10
24.3894668474
20
17.1203214654
30
0.0000000000
10
24.3886998639
20
17.0641306519
30
0.0000000000
10
24.3879924426
20
17.0027792178
30
0.0000000000
10
24.3873500900
20
16.9367086614
30
0.0000000000
10
24.3867776825
20
16.8663944083
30
0.0000000000
10
24.3862795264
20
16.7923426146
30
0.0000000000
10
24.3858593336
20
16.7150862620
30
0.0000000000
10
24.3855202205
20
16.6351811004
30
0.0000000000
10
24.3852646908
20
16.5532023854
30
0.0000000000
10
24.3850946231
20
16.4697393458
30
0.0000000000
10
24.3850392224
20
16.4136684294
30
0.0000000000
10
24.3850259316
20
16.3854850935
30
0.0000000000
11
24.3951136646
21
17.3317387640
31
0.0000000000
11
24.3941013963
21
17.3134766163
31
0.0000000000
11
24.3931117229
21
17.2882589261
31
0.0000000000
11
24.3921516991
21
17.2562663955
31
0.0000000000
11
24.3912282806
21
17.2177300531
31
0.0000000000
11
24.3903480957
21
17.1729271384
31
0.0000000000
11
24.3895174781
21
17.1221799649
31
0.0000000000
11
24.3887424093
21
17.0658541892
31
0.0000000000
11
24.3880284673
21
17.0043554266
31
0.0000000000
11
24.3873807858
21
16.9381261844
31
0.0000000000
11
24.3868040221
21
16.8676429173
31
0.0000000000
11
24.3863023266
21
16.7934129776
31
0.0000000000
11
24.3858793099
21
16.7159710541
31
0.0000000000
11
24.3855380125
21
16.6358740685
31
0.0000000000
11
24.3852808855
21
16.5536976722
31
0.0000000000
11
24.3851097838
21
16.4700350690
31
0.0000000000
11
24.3850259316
21
16.3854850935
31
0.0000000000
0
SPLINE
5
28F
100
AcDbEntity
8
0
100
AcDbSpline
62
0
6
CONTINUOUS
70
0
71
3
72
23
73
19
74
17
42
0.0000001000
43
0.0000001000
44
0.0000000001
12
-0.0652631569
22
-0.6593089255
32
0.0000000000
13
-0.0004463113
23
-0.6625310104
33
0.0000000000
40
0.0000000000
40
0.0000000000
40
0.0000000000
40
0.0000000000
40
0.0193496271
40
0.0460347858
40
0.0798677152
40
0.1206080347
40
0.1679647772
40
0.2215986251
40
0.2811240306
40
0.3461128537
40
0.4160979016
40
0.4905760545
40
0.5690114881
40
0.6508394595
40
0.7354717024
40
0.8223001667
40
0.9106982033
40
1.0000000000
40
1.0000000000
40
1.0000000000
40
1.0000000000
10
24.6950679731
20
17.0362964381
30
0.0000000000
10
24.6946470338
20
17.0320439775
30
0.0000000000
10
24.6939032273
20
17.0219024636
30
0.0000000000
10
24.6929486485
20
17.0042900959
30
0.0000000000
10
24.6920150516
20
16.9819466746
30
0.0000000000
10
24.6911087170
20
16.9550343560
30
0.0000000000
10
24.6902417607
20
16.9237458097
30
0.0000000000
10
24.6894211943
20
16.8883062743
30
0.0000000000
10
24.6886541715
20
16.8489707928
30
0.0000000000
10
24.6879467181
20
16.8060226212
30
0.0000000000
10
24.6873043413
20
16.7597708728
30
0.0000000000
10
24.6867319175
20
16.7105484004
30
0.0000000000
10
24.6862337522
20
16.6587095632
30
0.0000000000
10
24.6858135591
20
16.6046275014
30
0.0000000000
10
24.6854744509
20
16.5486912897
30
0.0000000000
10
24.6852189368
20
16.4913036629
30
0.0000000000
10
24.6850489094
20
16.4328844756
30
0.0000000000
10
24.6849935256
20
16.3936406053
30
0.0000000000
10
24.6849802401
20
16.3739188688
30
0.0000000000
11
24.6950679731
21
17.0362964381
31
0.0000000000
11
24.6940559550
21
17.0235167151
31
0.0000000000
11
24.6930662259
21
17.0058646906
31
0.0000000000
11
24.6921061625
21
16.9834698901
31
0.0000000000
11
24.6911826983
21
16.9564939608
31
0.0000000000
11
24.6903024719
21
16.9251309929
31
0.0000000000
11
24.6894718145
21
16.8896066076
31
0.0000000000
11
24.6886967101
21
16.8501767893
31
0.0000000000
11
24.6879827386
21
16.8071255888
31
0.0000000000
11
24.6873350345
21
16.7607628379
31
0.0000000000
11
24.6867582555
21
16.7114221119
31
0.0000000000
11
24.6862565518
21
16.6594586149
31
0.0000000000
11
24.6858335347
21
16.6052466845
31
0.0000000000
11
24.6854922436
21
16.5491762250
31
0.0000000000
11
24.6852351313
21
16.4916502363
31
0.0000000000
11
24.6850640496
21
16.4330840325
31
0.0000000000
11
24.6849802401
21
16.3739188688
31
0.0000000000
0
SPLINE
5
290
100
AcDbEntity
8
0
100
AcDbSpline
62
0
6
CONTINUOUS
70
0
71
3
72
19
73
15
74
13
42
0.0000001000
43
0.0000001000
44
0.0000000001
12
-0.1238618159
22
0.2738682291
32
0.0000000000
13
-0.3005753075
23
0.0002021260
33
0.0000000000
40
0.0000000000
40
0.0000000000
40
0.0000000000
40
0.0000000000
40
0.0337343966
40
0.0710523108
40
0.1215253439
40
0.1844694373
40
0.2590048458
40
0.3440792527
40
0.4384865142
40
0.5408854699
40
0.6498198660
40
0.7637395605
40
0.8810228956
40
1.0000000000
40
1.0000000000
40
1.0000000000
40
1.0000000000
10
24.6849802401
20
16.3739188688
30
0.0000000000
10
24.6835874389
20
16.3769984619
30
0.0000000000
10
24.6740137742
20
16.3760985711
30
0.0000000000
10
24.6631070586
20
16.3784530748
30
0.0000000000
10
24.6475895762
20
16.3792750854
30
0.0000000000
10
24.6289654857
20
16.3805733403
30
0.0000000000
10
24.6066329287
20
16.3815928007
30
0.0000000000
10
24.5812201052
20
16.3825767945
30
0.0000000000
10
24.5529843843
20
16.3834210561
30
0.0000000000
10
24.5223617644
20
16.3841405824
30
0.0000000000
10
24.4897784519
20
16.3847156202
30
0.0000000000
10
24.4557021295
20
16.3851401101
30
0.0000000000
10
24.4206177999
20
16.3854069480
30
0.0000000000
10
24.3969464581
20
16.3854770774
30
0.0000000000
10
24.3850259316
20
16.3854850935
30
0.0000000000
11
24.6849802401
21
16.3739188688
31
0.0000000000
11
24.6752172451
21
16.3766571222
31
0.0000000000
11
24.6640783678
21
16.3779773673
31
0.0000000000
11
24.6489600287
21
16.3792397357
31
0.0000000000
11
24.6300778248
21
16.3804262252
31
0.0000000000
11
24.6077010282
21
16.3815199157
31
0.0000000000
11
24.5821487458
21
16.3825052106
31
0.0000000000
11
24.5537853691
21
16.3833680589
31
0.0000000000
11
24.5230153777
21
16.3840961558
31
0.0000000000
11
24.4902775707
21
16.3846791183
31
0.0000000000
11
24.4560388097
21
16.3851086329
31
0.0000000000
11
24.4207873608
21
16.3853785745
31
0.0000000000
11
24.3850259316
21
16.3854850935
31
0.0000000000
0
SPLINE
5
291
100
AcDbEntity
8
0
100
AcDbSpline
62
0
6
CONTINUOUS
70
0
71
3
72
15
73
11
74
9
42
0.0000001000
43
0.0000001000
44
0.0000000001
12
-0.0220545067
22
-32.7478327464
32
0.0000000000
13
0.0220545067
23
-32.7478327464
33
0.0000000000
40
0.0000000000
40
0.0000000000
40
0.0000000000
40
0.0000000000
40
0.1249593351
40
0.2499535303
40
0.3749709564
40
0.4999999976
40
0.6250290389
40
0.7500464649
40
0.8750406601
40
1.0000000000
40
1.0000000000
40
1.0000000000
40
1.0000000000
10
24.6849802401
20
16.3739188688
30
0.0000000000
10
24.6840616013
20
15.0098697329
30
0.0000000000
10
24.6824540202
20
12.2813907705
30
0.0000000000
10
24.6807317455
20
8.1882281314
30
0.0000000000
10
24.6796983166
20
4.0943043511
30
0.0000000000
10
24.6793538296
20
0.0000000774
30
0.0000000000
10
24.6796983165
20
-4.0943041963
30
0.0000000000
10
24.6807317455
20
-8.1882279768
30
0.0000000000
10
24.6824540201
20
-12.2813906675
30
0.0000000000
10
24.6840616012
20
-15.0098696815
30
0.0000000000
10
24.6849802401
20
-16.3739188688
30
0.0000000000
11
24.6849802401
21
16.3739188688
31
0.0000000000
11
24.6825690930
21
12.2817712436
31
0.0000000000
11
24.6808466847
21
8.1884816791
31
0.0000000000
11
24.6798131758
21
4.0944311229
31
0.0000000000
11
24.6794686621
21
0.0000000775
31
0.0000000000
11
24.6798131758
21
-4.0944309681
31
0.0000000000
11
24.6808466847
21
-8.1884815245
31
0.0000000000
11
24.6825690929
21
-12.2817710892
31
0.0000000000
11
24.6849802401
21
-16.3739188688
31
0.0000000000
0
SPLINE
5
292
100
AcDbEntity
8
0
100
AcDbSpline
62
0
6
CONTINUOUS
70
0
71
3
72
19
73
15
74
13
42
0.0000001000
43
0.0000001000
44
0.0000000001
12
-0.1238625831
22
-0.2738678816
32
0.0000000000
13
-0.3005753070
23
-0.0002021258
33
0.0000000000
40
0.0000000000
40
0.0000000000
40
0.0000000000
40
0.0000000000
40
0.0337344211
40
0.0710523441
40
0.1215253834
40
0.1844694805
40
0.2590048900
40
0.3440792956
40
0.4384865535
40
0.5408855038
40
0.6498198929
40
0.7637395792
40
0.8810229051
40
1.0000000000
40
1.0000000000
40
1.0000000000
40
1.0000000000
10
24.6849802401
20
-16.3739188688
30
0.0000000000
10
24.6835874293
20
-16.3769984603
30
0.0000000000
10
24.6740137720
20
-16.3760985715
30
0.0000000000
10
24.6631070469
20
-16.3784530739
30
0.0000000000
10
24.6475895649
20
-16.3792750849
30
0.0000000000
10
24.6289654724
20
-16.3805733394
30
0.0000000000
10
24.6066329154
20
-16.3815927997
30
0.0000000000
10
24.5812200922
20
-16.3825767933
30
0.0000000000
10
24.5529843724
20
-16.3834210548
30
0.0000000000
10
24.5223617541
20
-16.3841405810
30
0.0000000000
10
24.4897784438
20
-16.3847156186
30
0.0000000000
10
24.4557021239
20
-16.3851401085
30
0.0000000000
10
24.4206177971
20
-16.3854069463
30
0.0000000000
10
24.3969464572
20
-16.3854770757
30
0.0000000000
10
24.3850259316
20
-16.3854850918
30
0.0000000000
11
24.6849802401
21
-16.3739188688
31
0.0000000000
11
24.6752172374
21
-16.3766571219
31
0.0000000000
11
24.6640783574
21
-16.3779773668
31
0.0000000000
11
24.6489600164
21
-16.3792397350
31
0.0000000000
11
24.6300778115
21
-16.3804262244
31
0.0000000000
11
24.6077010145
21
-16.3815199147
31
0.0000000000
11
24.5821487326
21
-16.3825052094
31
0.0000000000
11
24.5537853570
21
-16.3833680576
31
0.0000000000
11
24.5230153673
21
-16.3840961544
31
0.0000000000
11
24.4902775624
21
-16.3846791168
31
0.0000000000
11
24.4560388040
21
-16.3851086313
31
0.0000000000
11
24.4207873578
21
-16.3853785728
31
0.0000000000
11
24.3850259316
21
-16.3854850918
31
0.0000000000
0
SPLINE
5
293
100
AcDbEntity
8
0
100
AcDbSpline
62
0
6
CONTINUOUS
70
0
71
3
72
23
73
19
74
17
42
0.0000001000
43
0.0000001000
44
0.0000000001
12
0.0004462523
22
-0.9463611159
32
0.0000000000
13
0.0654167177
23
-0.9440975659
33
0.0000000000
40
0.0000000000
40
0.0000000000
40
0.0000000000
40
0.0000000000
40
0.0893423175
40
0.1777469978
40
0.2645814888
40
0.3492190641
40
0.4310515231
40
0.5094905233
40
0.5839712066
40
0.6539576011
40
0.7189464212
40
0.7784703090
40
0.8321009616
40
0.8794523959
40
0.9201846175
40
0.9540056633
40
0.9806731761
40
1.0000000000
40
1.0000000000
40
1.0000000000
40
1.0000000000
10
24.3850259316
20
-16.3854850935
30
0.0000000000
10
24.3850392213
20
-16.4136684586
30
0.0000000000
10
24.3850946245
20
-16.4697393985
30
0.0000000000
10
24.3852646902
20
-16.5532024605
30
0.0000000000
10
24.3855202215
20
-16.6351811708
30
0.0000000000
10
24.3858593343
20
-16.7150863290
30
0.0000000000
10
24.3862795278
20
-16.7923426770
30
0.0000000000
10
24.3867776842
20
-16.8663944652
30
0.0000000000
10
24.3873500922
20
-16.9367087173
30
0.0000000000
10
24.3879924452
20
-17.0027792727
30
0.0000000000
10
24.3886998668
20
-17.0641307015
30
0.0000000000
10
24.3894668502
20
-17.1203215092
30
0.0000000000
10
24.3902873693
20
-17.1709471292
30
0.0000000000
10
24.3911542682
20
-17.2156431536
30
0.0000000000
10
24.3920605358
20
-17.2540878385
30
0.0000000000
10
24.3929940018
20
-17.2860051114
30
0.0000000000
10
24.3939484998
20
-17.3111650221
30
0.0000000000
10
24.3946922321
20
-17.3256566282
30
0.0000000000
10
24.3951136646
20
-17.3317387640
30
0.0000000000
11
24.3850259316
21
-16.3854850935
31
0.0000000000
11
24.3851097843
21
-16.4700351566
31
0.0000000000
11
24.3852808855
21
-16.5536977429
31
0.0000000000
11
24.3855380133
21
-16.6358741355
31
0.0000000000
11
24.3858793109
21
-16.7159711275
31
0.0000000000
11
24.3863023280
21
-16.7934130380
31
0.0000000000
11
24.3868040239
21
-16.8676429706
31
0.0000000000
11
24.3873807880
21
-16.9381262413
31
0.0000000000
11
24.3880284699
21
-17.0043554841
31
0.0000000000
11
24.3887424121
21
-17.0658542393
31
0.0000000000
11
24.3895174809
21
-17.1221800061
31
0.0000000000
11
24.3903480986
21
-17.1729271787
31
0.0000000000
11
24.3912282835
21
-17.2177300948
31
0.0000000000
11
24.3921517020
21
-17.2562664278
31
0.0000000000
11
24.3931117252
21
-17.2882589531
31
0.0000000000
11
24.3941013996
21
-17.3134766406
31
0.0000000000
11
24.3951136646
21
-17.3317387640
31
0.0000000000
0
SPLINE
5
294
100
AcDbEntity
8
0
100
AcDbSpline
62
0
6
CONTINUOUS
70
0
71
3
72
23
73
19
74
17
42
0.0000001000
43
0.0000001000
44
0.0000000001
12
0.0004462989
22
-0.6625310105
32
0.0000000000
13
0.0652627498
23
-0.6593089659
33
0.0000000000
40
0.0000000000
40
0.0000000000
40
0.0000000000
40
0.0000000000
40
0.0893098378
40
0.1777080418
40
0.2645366215
40
0.3491689290
40
0.4309968716
40
0.5094322071
40
0.5839101755
40
0.6538947912
40
0.7188829293
40
0.7784074848
40
0.8320404858
40
0.8793963971
40
0.9201359009
40
0.9539680310
40
0.9806524618
40
1.0000000000
40
1.0000000000
40
1.0000000000
40
1.0000000000
10
24.6849802401
20
-16.3739188688
30
0.0000000000
10
24.6849935264
20
-16.3936423811
30
0.0000000000
10
24.6850489162
20
-16.4328880642
30
0.0000000000
10
24.6852189562
20
-16.4913090898
30
0.0000000000
10
24.6854744797
20
-16.5486967933
30
0.0000000000
10
24.6858135970
20
-16.6046330383
30
0.0000000000
10
24.6862337999
20
-16.6587150862
30
0.0000000000
10
24.6867319751
20
-16.7105538546
30
0.0000000000
10
24.6873044085
20
-16.7597761690
30
0.0000000000
10
24.6879467939
20
-16.8060276298
30
0.0000000000
10
24.6886542536
20
-16.8489753668
30
0.0000000000
10
24.6894212805
20
-16.8883103221
30
0.0000000000
10
24.6902418491
20
-16.9237492990
30
0.0000000000
10
24.6911088073
20
-16.9550372943
30
0.0000000000
10
24.6920151409
20
-16.9819490725
30
0.0000000000
10
24.6929487402
20
-17.0042919757
30
0.0000000000
10
24.6939032941
20
-17.0219035453
30
0.0000000000
10
24.6946470819
20
-17.0320444363
30
0.0000000000
10
24.6950679731
20
-17.0362964381
30
0.0000000000
11
24.6849802401
21
-16.3739188688
31
0.0000000000
11
24.6850640612
21
-16.4330893599
31
0.0000000000
11
24.6852351511
21
-16.4916556747
31
0.0000000000
11
24.6854922726
21
-16.5491817398
31
0.0000000000
11
24.6858335731
21
-16.6052522420
31
0.0000000000
11
24.6862565999
21
-16.6594641533
31
0.0000000000
11
24.6867583137
21
-16.7114275852
31
0.0000000000
11
24.6873351029
21
-16.7607681888
31
0.0000000000
11
24.6879828157
21
-16.8071306533
31
0.0000000000
11
24.6886967934
21
-16.8501813997
31
0.0000000000
11
24.6894719013
21
-16.8896106547
31
0.0000000000
11
24.6903025612
21
-16.9251344788
31
0.0000000000
11
24.6911827893
21
-16.9564968957
31
0.0000000000
11
24.6921062541
21
-16.9834722843
31
0.0000000000
11
24.6930663173
21
-17.0058665547
31
0.0000000000
11
24.6940560456
21
-17.0235180962
31
0.0000000000
11
24.6950679731
21
-17.0362964381
31
0.0000000000
0
SPLINE
5
295
100
AcDbEntity
8
0
100
AcDbSpline
62
0
6
CONTINUOUS
70
0
71
3
72
20
73
16
74
14
42
0.0000001000
43
0.0000001000
44
0.0000000001
12
-0.0014365767
22
-0.4668967676
32
0.0000000000
13
-0.4668968976
23
-0.0013936835
33
0.0000000000
40
0.0000000000
40
0.0000000000
40
0.0000000000
40
0.0000000000
40
0.0762841454
40
0.1526297873
40
0.2290661287
40
0.3056170291
40
0.3822996253
40
0.4591233628
40
0.5360894869
40
0.6131910154
40
0.6904131830
40
0.7677343244
40
0.8451271365
40
0.9225602469
40
1.0000000000
40
1.0000000000
40
1.0000000000
40
1.0000000000
10
24.6950679731
20
-17.0362964381
30
0.0000000000
10
24.6950314438
20
-17.0481687117
30
0.0000000000
10
24.6935008114
20
-17.0719439229
30
0.0000000000
10
24.6868694491
20
-17.1070580321
30
0.0000000000
10
24.6759988296
20
-17.1411481695
30
0.0000000000
10
24.6610475313
20
-17.1737118386
30
0.0000000000
10
24.6422334430
20
-17.2042778450
30
0.0000000000
10
24.6198305394
20
-17.2324018853
30
0.0000000000
10
24.5941647912
20
-17.2576759908
30
0.0000000000
10
24.5656094186
20
-17.2797335817
30
0.0000000000
10
24.5345792230
20
-17.2982549319
30
0.0000000000
10
24.5015253181
20
-17.3129716669
30
0.0000000000
10
24.4669257239
20
-17.3236706035
30
0.0000000000
10
24.4312891982
20
-17.3301967412
30
0.0000000000
10
24.4071657914
20
-17.3317027885
30
0.0000000000
10
24.3951136646
20
-17.3317387640
30
0.0000000000
11
24.6950679731
21
-17.0362964381
31
0.0000000000
11
24.6927800268
21
-17.0718398656
31
0.0000000000
11
24.6861681473
21
-17.1068669856
31
0.0000000000
11
24.6753283794
21
-17.1408689903
31
0.0000000000
11
24.6604181828
21
-17.1733519629
31
0.0000000000
11
24.6416541446
21
-17.2038440525
31
0.0000000000
11
24.6193088331
21
-17.2319023275
31
0.0000000000
11
24.5937068388
21
-17.2571192107
31
0.0000000000
11
24.5652200590
21
-17.2791283988
31
0.0000000000
11
24.5342622955
21
-17.2976101839
31
0.0000000000
11
24.5012832443
21
-17.3122960979
31
0.0000000000
11
24.4667619625
21
-17.3229728114
31
0.0000000000
11
24.4311999098
21
-17.3294852335
31
0.0000000000
11
24.3951136646
21
-17.3317387640
31
0.0000000000
0
SPLINE
5
296
100
AcDbEntity
8
0
100
AcDbSpline
62
0
6
CONTINUOUS
70
0
71
3
72
53
73
49
74
47
42
0.0000001000
43
0.0000001000
44
0.0000000001
12
0.0000000000
22
7.8352824469
32
0.0000000000
13
-0.0000000000
23
-7.8352824469
33
0.0000000000
40
0.0000000000
40
0.0000000000
40
0.0000000000
40
0.0000000000
40
0.0216297225
40
0.0432714177
40
0.0649021541
40
0.0865565552
40
0.1081997555
40
0.1298687968
40
0.1515374670
40
0.1732219214
40
0.1949237680
40
0.2166264549
40
0.2383599994
40
0.2600892288
40
0.2818509279
40
0.3036127406
40
0.3253969325
40
0.3471936789
40
0.3689941777
40
0.3908187683
40
0.4126349545
40
0.4344772448
40
0.4563081729
40
0.4781569837
40
0.5000005538
40
0.5218440320
40
0.5436929207
40
0.5655238225
40
0.5873660912
40
0.6091823223
40
0.6310068022
40
0.6528074003
40
0.6746040023
40
0.6963882875
40
0.7181500656
40
0.7399117298
40
0.7616410439
40
0.7833744355
40
0.8050772747
40
0.8267789191
40
0.8484635085
40
0.8701321134
40
0.8918011255
40
0.9134444429
40
0.9350986460
40
0.9567295945
40
0.9783710358
40
1.0000000000
40
1.0000000000
40
1.0000000000
40
1.0000000000
10
-2.5000000000
20
0.0000000000
30
0.0000000000
10
-2.5000000000
20
0.0564916616
30
0.0000000000
10
-2.4961325952
20
0.1695443758
30
0.0000000000
10
-2.4787552144
20
0.3382867943
30
0.0000000000
10
-2.4498733212
20
0.5055182963
30
0.0000000000
10
-2.4096276449
20
0.6703865022
30
0.0000000000
10
-2.3581782942
20
0.8322143996
30
0.0000000000
10
-2.2957776435
20
0.9901832771
30
0.0000000000
10
-2.2226827288
20
1.1436163711
30
0.0000000000
10
-2.1392361058
20
1.2917730386
30
0.0000000000
10
-2.0458156128
20
1.4339581422
30
0.0000000000
10
-1.9428275698
20
1.5695348210
30
0.0000000000
10
-1.8307768962
20
1.6978183970
30
0.0000000000
10
-1.7101232848
20
1.8182641134
30
0.0000000000
10
-1.5814766137
20
1.9302452900
30
0.0000000000
10
-1.4453757011
20
2.0332754369
30
0.0000000000
10
-1.3024884040
20
2.1268339950
30
0.0000000000
10
-1.1534652049
20
2.2104796700
30
0.0000000000
10
-0.9989913173
20
2.2838170245
30
0.0000000000
10
-0.8398301617
20
2.3464726022
30
0.0000000000
10
-0.6766653413
20
2.3981688105
30
0.0000000000
10
-0.5103407666
20
2.4386306901
30
0.0000000000
10
-0.3415621170
20
2.4676803705
30
0.0000000000
10
-0.1711930166
20
2.4851649091
30
0.0000000000
10
0.0000041051
20
2.4910023349
30
0.0000000000
10
0.1712014092
20
2.4851643348
30
0.0000000000
10
0.3415703484
20
2.4676792458
30
0.0000000000
10
0.5103489769
20
2.4386289826
30
0.0000000000
10
0.6766734104
20
2.3981665559
30
0.0000000000
10
0.8398378413
20
2.3464698714
30
0.0000000000
10
0.9989988738
20
2.2838137470
30
0.0000000000
10
1.1534721589
20
2.2104760686
30
0.0000000000
10
1.3024952018
20
2.1268298630
30
0.0000000000
10
1.4453820252
20
2.0332709871
30
0.0000000000
10
1.5814826601
20
1.9302403714
30
0.0000000000
10
1.7101290175
20
1.8182587749
30
0.0000000000
10
1.8307820603
20
1.6978128683
30
0.0000000000
10
1.9428324865
20
1.5695287881
30
0.0000000000
10
2.0458197979
20
1.4339522158
30
0.0000000000
10
2.1392399893
20
1.2917666519
30
0.0000000000
10
2.2226860195
20
1.1436100451
30
0.0000000000
10
2.2957805227
20
0.9901766388
30
0.0000000000
10
2.3581807481
20
0.8322075304
30
0.0000000000
10
2.4096295317
20
0.6703797526
30
0.0000000000
10
2.4498748200
20
0.5055111023
30
0.0000000000
10
2.4787561280
20
0.3382801318
30
0.0000000000
10
2.4961328215
20
0.1695397476
30
0.0000000000
10
2.5000000000
20
0.0564896811
30
0.0000000000
10
2.5000000000
20
-0.0000000000
30
0.0000000000
11
-2.5000000000
21
0.0000000000
31
0.0000000000
11
-2.4942051321
21
0.1693758838
31
0.0000000000
11
-2.4768355290
21
0.3380527142
31
0.0000000000
11
-2.4479920846
21
0.5050632495
31
0.0000000000
11
-2.4077569969
21
0.6698919072
31
0.0000000000
11
-2.3563779520
21
0.8315018369
31
0.0000000000
11
-2.2940019080
21
0.9894116728
31
0.0000000000
11
-2.2209832536
21
1.1426878152
31
0.0000000000
11
-2.1376049446
21
1.2907262127
31
0.0000000000
11
-2.0442347914
21
1.4328376106
31
0.0000000000
11
-1.9413755262
21
1.5682475274
31
0.0000000000
11
-1.8293529426
21
1.6965015728
31
0.0000000000
11
-1.7088621931
21
1.8167871706
31
0.0000000000
11
-1.5802529508
21
1.9287380623
31
0.0000000000
11
-1.4443050040
21
2.0316545260
31
0.0000000000
11
-1.3015080422
21
2.1251558519
31
0.0000000000
11
-1.1525811647
21
2.2087491843
31
0.0000000000
11
-0.9982755387
21
2.2820081587
31
0.0000000000
11
-0.8391593510
21
2.3446473258
31
0.0000000000
11
-0.6762070313
21
2.3962772681
31
0.0000000000
11
-0.5099165747
21
2.4367316809
31
0.0000000000
11
-0.3413438872
21
2.4657465107
31
0.0000000000
11
-0.1710467876
21
2.4832240178
31
0.0000000000
11
0.0000043418
21
2.4890565887
31
0.0000000000
11
0.1710547320
21
2.4832234753
31
0.0000000000
11
0.3413523806
21
2.4657453452
31
0.0000000000
11
0.5099247676
21
2.4367299814
31
0.0000000000
11
0.6762149267
21
2.3962750595
31
0.0000000000
11
0.8391674092
21
2.3446444670
31
0.0000000000
11
0.9982825870
21
2.2820051023
31
0.0000000000
11
1.1525886797
21
2.2087452971
31
0.0000000000
11
1.3015143069
21
2.1251520487
31
0.0000000000
11
1.4443115927
21
2.0316498830
31
0.0000000000
11
1.5802589972
21
1.9287331517
31
0.0000000000
11
1.7088676899
21
1.8167820456
31
0.0000000000
11
1.8293585305
21
1.6964956000
31
0.0000000000
11
1.9413799359
21
1.5682421161
31
0.0000000000
11
2.0442395107
21
1.4328309363
31
0.0000000000
11
2.1376083723
21
1.2907205855
31
0.0000000000
11
2.2209867767
21
1.1426810271
31
0.0000000000
11
2.2940047551
21
0.9894051294
31
0.0000000000
11
2.3563802685
21
0.8314953297
31
0.0000000000
11
2.4077591114
21
0.6698843734
31
0.0000000000
11
2.4479933627
21
0.5050571085
31
0.0000000000
11
2.4768366115
21
0.3380448523
31
0.0000000000
11
2.4942055384
21
0.1693699528
31
0.0000000000
11
2.5000000000
21
-0.0000000000
31
0.0000000000
0
SPLINE
5
297
100
AcDbEntity
8
CURVE
100
AcDbSpline
6
CONTINUOUS
70
0
71
3
72
51
73
47
74
45
42
0.0000001000
43
0.0000001000
44
0.0000000001
12
0.0000000000
22
2.9661424485
32
0.0737120619
13
0.0000000000
23
4.0338575138
33
0.0836231164
40
0.0000000000
40
0.0000000000
40
0.0000000000
40
0.0000000000
40
0.0625000000
40
0.1250000000
40
0.1875000000
40
0.2500000000
40
0.2812500000
40
0.3125000000
40
0.3437500000
40
0.3750000000
40
0.4062500000
40
0.4218750000
40
0.4375000000
40
0.4531250000
40
0.4609375000
40
0.4687500000
40
0.4765625000
40
0.4843750000
40
0.4882812500
40
0.4921875000
40
0.4960937500
40
0.4980468750
40
0.4990234375
40
0.5000000000
40
0.5009765625
40
0.5019531250
40
0.5039062500
40
0.5078125000
40
0.5117187500
40
0.5156250000
40
0.5234375000
40
0.5312500000
40
0.5390625000
40
0.5468750000
40
0.5625000000
40
0.5781250000
40
0.5937500000
40
0.6250000000
40
0.6562500000
40
0.6875000000
40
0.7187500000
40
0.7500000000
40
0.8125000000
40
0.8750000000
40
0.9375000000
40
1.0000000000
40
1.0000000000
40
1.0000000000
40
1.0000000000
10
-0.7200000668
20
-11.3000000000
30
5.8497499117
10
-0.7200000668
20
-11.2382053657
30
5.8512855796
10
-0.7200000668
20
-11.1146160970
30
5.8543569155
10
-0.7200000668
20
-10.9292321939
30
5.8589639194
10
-0.7200000668
20
-10.7438482909
30
5.8635709233
10
-0.7200000668
20
-10.5893617050
30
5.8674100931
10
-0.7200000668
20
-10.4657724363
30
5.8704814291
10
-0.7200000668
20
-10.3730804849
30
5.8727849310
10
-0.7200000668
20
-10.2803885332
30
5.8750884329
10
-0.7200000668
20
-10.1876965822
30
5.8773919349
10
-0.7200000668
20
-10.1104532877
30
5.8793115198
10
-0.7200000668
20
-10.0486586566
30
5.8808471877
10
-0.7200000668
20
-10.0023126711
30
5.8819989388
10
-0.7200000668
20
-9.9636910550
30
5.8829587310
10
-0.7200000668
20
-9.9327936759
30
5.8837265655
10
-0.7200000668
20
-9.9096208772
30
5.8843024393
10
-0.7200000668
20
-9.8864471790
30
5.8848783213
10
-0.7200000668
20
-9.8671385659
30
5.8853581971
10
-0.7200000668
20
-9.8516854001
30
5.8857421559
10
-0.7200000668
20
-9.8401126706
30
5.8860299659
10
-0.7200000668
20
-9.8304141946
30
5.8862703137
10
-0.7200000668
20
-9.8237322834
30
5.8864375638
10
-0.7200000668
20
-9.8197469426
30
5.8865346864
10
-0.7200000668
20
-9.8172286767
30
5.8866031588
10
-0.7200000668
20
-9.8129110052
30
5.8866883341
10
-0.7200000668
20
-9.8077817626
30
5.8867960749
10
-0.7200000668
20
-9.7985131531
30
5.8869873360
10
-0.7200000668
20
-9.7854251709
30
5.8872591469
10
-0.7200000668
20
-9.7696541505
30
5.8875859275
10
-0.7200000668
20
-9.7486489832
30
5.8880214227
10
-0.7200000668
20
-9.7223846798
30
5.8885658646
10
-0.7200000668
20
-9.6908708784
30
5.8892191636
10
-0.7200000668
20
-9.6593561773
30
5.8898724709
10
-0.7200000668
20
-9.6173368902
30
5.8907435445
10
-0.7200000668
20
-9.5648126734
30
5.8918323874
10
-0.7200000668
20
-9.5017836595
30
5.8931389985
10
-0.7200000668
20
-9.4177449581
30
5.8948811468
10
-0.7200000668
20
-9.3126965869
30
5.8970588321
10
-0.7200000668
20
-9.1866385391
30
5.8996720545
10
-0.7200000668
20
-9.0605804919
30
5.9022852769
10
-0.7200000668
20
-8.9345224446
30
5.9048984993
10
-0.7200000668
20
-8.7664450482
30
5.9083827958
10
-0.7200000668
20
-8.5563483027
30
5.9127381664
10
-0.7200000668
20
-8.3042322081
30
5.9179646112
10
-0.7200000668
20
-8.0521161135
30
5.9231910560
10
-0.7200000668
20
-7.8840387171
30
5.9266753525
10
-0.7200000668
20
-7.8000000189
30
5.9284175008
11
-0.7200000668
21
-11.3000000000
31
5.8497499117
11
-0.7200000668
21
-11.1146160970
31
5.8543569155
11
-0.7200000668
21
-10.9292321939
31
5.8589639194
11
-0.7200000668
21
-10.7438482909
31
5.8635709233
11
-0.7200000668
21
-10.5584643879
31
5.8681779271
11
-0.7200000668
21
-10.4657724364
31
5.8704814291
11
-0.7200000668
21
-10.3730804848
31
5.8727849310
11
-0.7200000668
21
-10.2803885333
31
5.8750884329
11
-0.7200000668
21
-10.1876965818
31
5.8773919349
11
-0.7200000668
21
-10.0950046303
31
5.8796954368
11
-0.7200000668
21
-10.0486586545
31
5.8808471878
11
-0.7200000668
21
-10.0023126788
31
5.8819989387
11
-0.7200000668
21
-9.9559667030
31
5.8831506897
11
-0.7200000668
21
-9.9327937151
31
5.8837265652
11
-0.7200000668
21
-9.9096207273
31
5.8843024407
11
-0.7200000668
21
-9.8864477394
31
5.8848783161
11
-0.7200000668
21
-9.8632747515
31
5.8854541916
11
-0.7200000668
21
-9.8516882576
31
5.8857421294
11
-0.7200000668
21
-9.8401017636
31
5.8860300671
11
-0.7200000668
21
-9.8285152697
31
5.8863180048
11
-0.7200000668
21
-9.8227220227
31
5.8864619737
11
-0.7200000668
21
-9.8198253992
31
5.8865339582
11
-0.7200000668
21
-9.8169287757
31
5.8866059426
11
-0.7200000668
21
-9.8129894618
31
5.8866876058
11
-0.7200000668
21
-9.8090501478
31
5.8867692690
11
-0.7200000668
21
-9.8011715198
31
5.8869325954
11
-0.7200000668
21
-9.7854142639
31
5.8872592482
11
-0.7200000668
21
-9.7696570080
31
5.8875859010
11
-0.7200000668
21
-9.7538997521
31
5.8879125538
11
-0.7200000668
21
-9.7223852403
31
5.8885658594
11
-0.7200000668
21
-9.6908707284
31
5.8892191650
11
-0.7200000668
21
-9.6593562166
31
5.8898724706
11
-0.7200000668
21
-9.6278417048
31
5.8905257762
11
-0.7200000668
21
-9.5648126811
31
5.8918323874
11
-0.7200000668
21
-9.5017836575
31
5.8931389986
11
-0.7200000668
21
-9.4387546338
31
5.8944456097
11
-0.7200000668
21
-9.3126965865
31
5.8970588321
11
-0.7200000668
21
-9.1866385392
31
5.8996720545
11
-0.7200000668
21
-9.0605804919
31
5.9022852769
11
-0.7200000668
21
-8.9345224446
31
5.9048984993
11
-0.7200000668
21
-8.8084643973
31
5.9075117217
11
-0.7200000668
21
-8.5563483027
31
5.9127381664
11
-0.7200000668
21
-8.3042322081
31
5.9179646112
11
-0.7200000668
21
-8.0521161135
31
5.9231910560
11
-0.7200000668
21
-7.8000000189
31
5.9284175008
0
SPLINE
5
298
100
AcDbEntity
8
CURVE
100
AcDbSpline
6
CONTINUOUS
70
0
71
3
72
8
73
4
74
2
42
0.0000001000
43
0.0000001000
44
0.0000000001
12
-0.5600084725
22
-0.5000076169
32
-0.0127101804
13
-0.5599913315
23
-0.4999923124
33
-0.0132986147
40
0.0000000000
40
0.0000000000
40
0.0000000000
40
0.0000000000
40
1.0000000000
40
1.0000000000
40
1.0000000000
40
1.0000000000
10
-1.8400000000
20
-10.7999999776
30
5.8627543107
10
-2.0266694908
20
-10.9666691833
30
5.8585175839
10
-2.2133361895
20
-11.1333358959
30
5.8541827832
10
-2.3999999666
20
-11.3000000000
30
5.8497499117
11
-1.8400000000
21
-10.7999999776
31
5.8627543107
11
-2.3999999666
21
-11.3000000000
31
5.8497499117
0
SPLINE
5
299
100
AcDbEntity
8
CURVE
100
AcDbSpline
6
CONTINUOUS
70
0
71
3
72
47
73
43
74
41
42
0.0000001000
43
0.0000001000
44
0.0000000001
12
0.0000000000
22
-2.9663867020
32
-0.0631223165
13
0.0000000000
23
-2.0336131392
33
-0.0492594826
40
0.0000000000
40
0.0000000000
40
0.0000000000
40
0.0000000000
40
0.0625000000
40
0.1250000000
40
0.1875000000
40
0.2500000000
40
0.3125000000
40
0.3437500000
40
0.3750000000
40
0.4062500000
40
0.4218750000
40
0.4375000000
40
0.4531250000
40
0.4687500000
40
0.4765625000
40
0.4843750000
40
0.4882812500
40
0.4921875000
40
0.4960937500
40
0.4980468750
40
0.4990234375
40
0.5000000000
40
0.5009765625
40
0.5019531250
40
0.5039062500
40
0.5078125000
40
0.5117187500
40
0.5156250000
40
0.5234375000
40
0.5312500000
40
0.5468750000
40
0.5625000000
40
0.5781250000
40
0.5937500000
40
0.6250000000
40
0.6562500000
40
0.6875000000
40
0.7500000000
40
0.8125000000
40
0.8750000000
40
0.9375000000
40
1.0000000000
40
1.0000000000
40
1.0000000000
40
1.0000000000
10
-1.8400000000
20
-8.2999999702
30
5.9189452125
10
-1.8400000000
20
-8.3617996932
30
5.9176301642
10
-1.8400000000
20
-8.4853991391
30
5.9150000677
10
-1.8400000000
20
-8.6707983080
30
5.9110549229
10
-1.8400000000
20
-8.8561974768
30
5.9071097781
10
-1.8400000000
20
-9.0415966458
30
5.9031646334
10
-1.8400000000
20
-9.1960959529
30
5.8998770127
10
-1.8400000000
20
-9.3196953994
30
5.8972469162
10
-1.8400000000
20
-9.4123949822
30
5.8952743438
10
-1.8400000000
20
-9.4896446410
30
5.8936305334
10
-1.8400000000
20
-9.5514443536
30
5.8923154853
10
-1.8400000000
20
-9.5977941774
30
5.8913291986
10
-1.8400000000
20
-9.6441438509
30
5.8903429142
10
-1.8400000000
20
-9.6827690472
30
5.8895210035
10
-1.8400000000
20
-9.7136681552
30
5.8888634906
10
-1.8400000000
20
-9.7329824861
30
5.8884525095
10
-1.8400000000
20
-9.7484284810
30
5.8881238060
10
-1.8400000000
20
-9.7600279535
30
5.8878770557
10
-1.8400000000
20
-9.7696465386
30
5.8876721385
10
-1.8400000000
20
-9.7764730442
30
5.8875273070
10
-1.8400000000
20
-9.7802279182
30
5.8874467158
10
-1.8400000000
20
-9.7834553196
30
5.8873801604
10
-1.8400000000
20
-9.7851107306
30
5.8873369679
10
-1.8400000000
20
-9.7878662730
30
5.8872712287
10
-1.8400000000
20
-9.7924329962
30
5.8871599819
10
-1.8400000000
20
-9.7990904523
30
5.8869990729
10
-1.8400000000
20
-9.8070222291
30
5.8868068318
10
-1.8400000000
20
-9.8176179001
30
5.8865502135
10
-1.8400000000
20
-9.8308556515
30
5.8862295422
10
-1.8400000000
20
-9.8520398752
30
5.8857164114
10
-1.8400000000
20
-9.8785188434
30
5.8850750174
10
-1.8400000000
20
-9.9102941675
30
5.8843053362
10
-1.8400000000
20
-9.9420693412
30
5.8835356572
10
-1.8400000000
20
-9.9844362919
30
5.8825094179
10
-1.8400000000
20
-10.0373949623
30
5.8812266189
10
-1.8400000000
20
-10.1009453746
30
5.8796872601
10
-1.8400000000
20
-10.1856792548
30
5.8776347816
10
-1.8400000000
20
-10.2915966061
30
5.8750691836
10
-1.8400000000
20
-10.4186974272
30
5.8719904659
10
-1.8400000000
20
-10.5457982484
30
5.8689117482
10
-1.8400000000
20
-10.6728990696
30
5.8658330306
10
-1.8400000000
20
-10.7576329504
30
5.8637805521
10
-1.8400000000
20
-10.7999998908
30
5.8627543129
11
-1.8400000000
21
-8.2999999702
31
5.9189452125
11
-1.8400000000
21
-8.4853991391
31
5.9150000677
11
-1.8400000000
21
-8.6707983080
31
5.9110549229
11
-1.8400000000
21
-8.8561974768
31
5.9071097781
11
-1.8400000000
21
-9.0415966457
31
5.9031646334
11
-1.8400000000
21
-9.2269958146
31
5.8992194886
11
-1.8400000000
21
-9.3196953990
31
5.8972469162
11
-1.8400000000
21
-9.4123949835
31
5.8952743438
11
-1.8400000000
21
-9.5050945679
31
5.8933017714
11
-1.8400000000
21
-9.5514443601
31
5.8923154852
11
-1.8400000000
21
-9.5977941523
31
5.8913291990
11
-1.8400000000
21
-9.6441439446
31
5.8903429128
11
-1.8400000000
21
-9.6904937368
31
5.8893566266
11
-1.8400000000
21
-9.7136686329
31
5.8888634835
11
-1.8400000000
21
-9.7368435290
31
5.8883703404
11
-1.8400000000
21
-9.7484309771
31
5.8881237689
11
-1.8400000000
21
-9.7600184251
31
5.8878771973
11
-1.8400000000
21
-9.7716058732
31
5.8876306258
11
-1.8400000000
21
-9.7773995972
31
5.8875073400
11
-1.8400000000
21
-9.7802964592
31
5.8874456971
11
-1.8400000000
21
-9.7831933212
31
5.8873840542
11
-1.8400000000
21
-9.7851792716
31
5.8873359493
11
-1.8400000000
21
-9.7871652219
31
5.8872878443
11
-1.8400000000
21
-9.7911371225
31
5.8871916344
11
-1.8400000000
21
-9.7990809239
31
5.8869992145
11
-1.8400000000
21
-9.8070247252
31
5.8868067947
11
-1.8400000000
21
-9.8149685265
31
5.8866143748
11
-1.8400000000
21
-9.8308561292
31
5.8862295351
11
-1.8400000000
21
-9.8467437318
31
5.8858446954
11
-1.8400000000
21
-9.8785189371
31
5.8850750160
11
-1.8400000000
21
-9.9102941424
31
5.8843053366
11
-1.8400000000
21
-9.9420693477
31
5.8835356571
11
-1.8400000000
21
-9.9738445530
31
5.8827659777
11
-1.8400000000
21
-10.0373949636
31
5.8812266189
11
-1.8400000000
21
-10.1009453742
31
5.8796872601
11
-1.8400000000
21
-10.1644957848
31
5.8781479012
11
-1.8400000000
21
-10.2915966060
31
5.8750691836
11
-1.8400000000
21
-10.4186974272
31
5.8719904659
11
-1.8400000000
21
-10.5457982484
31
5.8689117482
11
-1.8400000000
21
-10.6728990696
31
5.8658330306
11
-1.8400000000
21
-10.7999998908
31
5.8627543129
0
SPLINE
5
29A
100
AcDbEntity
8
CURVE
100
AcDbSpline
6
CONTINUOUS
70
0
71
3
72
8
73
4
74
2
42
0.0000001000
43
0.0000001000
44
0.0000000001
12
0.5600061437
22
-0.5000054854
32
-0.0091781171
13
0.5599936603
23
-0.4999943396
33
-0.0097664579
40
0.0000000000
40
0.0000000000
40
0.0000000000
40
0.0000000000
40
1.0000000000
40
1.0000000000
40
1.0000000000
40
1.0000000000
10
-2.3999999666
20
-7.8000000000
30
5.9284175011
10
-2.2133312521
20
-7.9666684951
30
5.9253581287
10
-2.0266645534
20
-8.1333351903
30
5.9222006985
10
-1.8400000000
20
-8.2999999702
30
5.9189452125
11
-2.3999999666
21
-7.8000000000
31
5.9284175011
11
-1.8400000000
21
-8.2999999702
31
5.9189452125
0
SPLINE
5
29B
100
AcDbEntity
8
CURVE
100
AcDbSpline
6
CONTINUOUS
70
0
71
3
72
8
73
4
74
2
42
0.0000001000
43
0.0000001000
44
0.0000000001
12
0.5599937187
22
0.4999943396
32
0.0097664579
13
0.5600062021
23
0.5000054854
33
0.0091781171
40
0.0000000000
40
0.0000000000
40
0.0000000000
40
0.0000000000
40
1.0000000000
40
1.0000000000
40
1.0000000000
40
1.0000000000
10
-3.8000000000
20
-8.2999999702
30
5.9189452125
10
-3.6133354271
20
-8.1333351903
30
5.9222006985
10
-3.4266687090
20
-7.9666684951
30
5.9253581287
10
-3.2399999750
20
-7.8000000000
30
5.9284175011
11
-3.8000000000
21
-8.2999999702
31
5.9189452125
11
-3.2399999750
21
-7.8000000000
31
5.9284175011
0
SPLINE
5
29C
100
AcDbEntity
8
CURVE
100
AcDbSpline
6
CONTINUOUS
70
0
71
3
72
47
73
43
74
41
42
0.0000001000
43
0.0000001000
44
0.0000000001
12
0.0000000000
22
2.9662271438
32
0.0702212518
13
0.0000000000
23
2.0337726974
33
0.0421605483
40
0.0000000000
40
0.0000000000
40
0.0000000000
40
0.0000000000
40
0.0625000000
40
0.1250000000
40
0.1875000000
40
0.2500000000
40
0.3125000000
40
0.3437500000
40
0.3750000000
40
0.4062500000
40
0.4218750000
40
0.4375000000
40
0.4531250000
40
0.4687500000
40
0.4765625000
40
0.4843750000
40
0.4882812500
40
0.4921875000
40
0.4960937500
40
0.4980468750
40
0.4990234375
40
0.5000000000
40
0.5009765625
40
0.5019531250
40
0.5039062500
40
0.5078125000
40
0.5117187500
40
0.5156250000
40
0.5234375000
40
0.5312500000
40
0.5468750000
40
0.5625000000
40
0.5781250000
40
0.5937500000
40
0.6250000000
40
0.6562500000
40
0.6875000000
40
0.7500000000
40
0.8125000000
40
0.8750000000
40
0.9375000000
40
1.0000000000
40
1.0000000000
40
1.0000000000
40
1.0000000000
10
-3.8000000000
20
-10.7999999776
30
5.8627543107
10
-3.8000000000
20
-10.7382035788
30
5.8642172535
10
-3.8000000000
20
-10.6146107812
30
5.8671431389
10
-3.8000000000
20
-10.4292215847
30
5.8715319672
10
-3.8000000000
20
-10.2438323882
30
5.8759207954
10
-3.8000000000
20
-10.0584431916
30
5.8803096237
10
-3.8000000000
20
-9.9039521948
30
5.8839669805
10
-3.8000000000
20
-9.7803593966
30
5.8868928660
10
-3.8000000000
20
-9.6876648000
30
5.8890872801
10
-3.8000000000
20
-9.6104192964
30
5.8909159587
10
-3.8000000000
20
-9.5486229079
30
5.8923789011
10
-3.8000000000
20
-9.5022755772
30
5.8934761091
10
-3.8000000000
20
-9.4559283968
30
5.8945733126
10
-3.8000000000
20
-9.4173052782
30
5.8954876630
10
-3.8000000000
20
-9.3864078319
30
5.8962191117
10
-3.8000000000
20
-9.3670945405
30
5.8966763390
10
-3.8000000000
20
-9.3516493753
30
5.8970419562
10
-3.8000000000
20
-9.3400505302
30
5.8973166197
10
-3.8000000000
20
-9.3304324516
30
5.8975440728
10
-3.8000000000
20
-9.3236063325
30
5.8977061025
10
-3.8000000000
20
-9.3198516295
30
5.8977942993
10
-3.8000000000
20
-9.3166244970
30
5.8978728183
10
-3.8000000000
20
-9.3149688171
30
5.8979040471
10
-3.8000000000
20
-9.3122131037
30
5.8979621809
10
-3.8000000000
20
-9.3076459940
30
5.8980562294
10
-3.8000000000
20
-9.3009880314
30
5.8981946026
10
-3.8000000000
20
-9.2930556271
30
5.8983589305
10
-3.8000000000
20
-9.2824591265
30
5.8985786351
10
-3.8000000000
20
-9.2692203357
30
5.8988530601
10
-3.8000000000
20
-9.2480344502
30
5.8992922552
10
-3.8000000000
20
-9.2215534042
30
5.8998412095
10
-3.8000000000
20
-9.1897755871
30
5.9004999717
10
-3.8000000000
20
-9.1579979203
30
5.9011587293
10
-3.8000000000
20
-9.1156276454
30
5.9020370743
10
-3.8000000000
20
-9.0626648198
30
5.9031350051
10
-3.8000000000
20
-8.9991094214
30
5.9044525223
10
-3.8000000000
20
-8.9143688929
30
5.9062092118
10
-3.8000000000
20
-8.8084432313
30
5.9084050737
10
-3.8000000000
20
-8.6813324378
30
5.9110401080
10
-3.8000000000
20
-8.5542216442
30
5.9136751423
10
-3.8000000000
20
-8.4271108506
30
5.9163101765
10
-3.8000000000
20
-8.3423703215
30
5.9180668660
10
-3.8000000000
20
-8.3000000570
30
5.9189452108
11
-3.8000000000
21
-10.7999999776
31
5.8627543107
11
-3.8000000000
21
-10.6146107812
31
5.8671431389
11
-3.8000000000
21
-10.4292215847
31
5.8715319672
11
-3.8000000000
21
-10.2438323882
31
5.8759207954
11
-3.8000000000
21
-10.0584431917
31
5.8803096237
11
-3.8000000000
21
-9.8730539952
31
5.8846984519
11
-3.8000000000
21
-9.7803593970
31
5.8868928660
11
-3.8000000000
21
-9.6876647987
31
5.8890872801
11
-3.8000000000
21
-9.5949702005
31
5.8912816943
11
-3.8000000000
21
-9.5486229014
31
5.8923789013
11
-3.8000000000
21
-9.5022756022
31
5.8934761084
11
-3.8000000000
21
-9.4559283031
31
5.8945733154
11
-3.8000000000
21
-9.4095810040
31
5.8956705225
11
-3.8000000000
21
-9.3864073544
31
5.8962191260
11
-3.8000000000
21
-9.3632337049
31
5.8967677296
11
-3.8000000000
21
-9.3516468801
31
5.8970420313
11
-3.8000000000
21
-9.3400600553
31
5.8973163331
11
-3.8000000000
21
-9.3284732305
31
5.8975906349
11
-3.8000000000
21
-9.3226798181
31
5.8977277857
11
-3.8000000000
21
-9.3197831119
31
5.8977963612
11
-3.8000000000
21
-9.3168864057
31
5.8978649366
11
-3.8000000000
21
-9.3149002996
31
5.8979061090
11
-3.8000000000
21
-9.3129141934
31
5.8979472814
11
-3.8000000000
21
-9.3089419811
31
5.8980296263
11
-3.8000000000
21
-9.3009975565
31
5.8981943159
11
-3.8000000000
21
-9.2930531319
31
5.8983590056
11
-3.8000000000
21
-9.2851087073
31
5.8985236952
11
-3.8000000000
21
-9.2692198581
31
5.8988530745
11
-3.8000000000
21
-9.2533310089
31
5.8991824538
11
-3.8000000000
21
-9.2215533105
31
5.8998412123
11
-3.8000000000
21
-9.1897756122
31
5.9004999709
11
-3.8000000000
21
-9.1579979138
31
5.9011587295
11
-3.8000000000
21
-9.1262202154
31
5.9018174880
11
-3.8000000000
21
-9.0626648186
31
5.9031350052
11
-3.8000000000
21
-8.9991094218
31
5.9044525223
11
-3.8000000000
21
-8.9355540250
31
5.9057700394
11
-3.8000000000
21
-8.8084432314
31
5.9084050737
11
-3.8000000000
21
-8.6813324378
31
5.9110401080
11
-3.8000000000
21
-8.5542216442
31
5.9136751423
11
-3.8000000000
21
-8.4271108506
31
5.9163101765
11
-3.8000000000
21
-8.3000000570
31
5.9189452108
0
SPLINE
5
29D
100
AcDbEntity
8
CURVE
100
AcDbSpline
6
CONTINUOUS
70
0
71
3
72
8
73
4
74
2
42
0.0000001000
43
0.0000001000
44
0.0000000001
12
-0.5599913899
22
0.4999923124
32
0.0132986147
13
-0.5600085309
23
0.5000076169
33
0.0127101804
40
0.0000000000
40
0.0000000000
40
0.0000000000
40
0.0000000000
40
1.0000000000
40
1.0000000000
40
1.0000000000
40
1.0000000000
10
-3.2399999750
20
-11.3000000000
30
5.8497499117
10
-3.4266637716
20
-11.1333358959
30
5.8541827832
10
-3.6133304897
20
-10.9666691833
30
5.8585175839
10
-3.8000000000
20
-10.7999999776
30
5.8627543107
11
-3.2399999750
21
-11.3000000000
31
5.8497499117
11
-3.8000000000
21
-10.7999999776
31
5.8627543107
0
SPLINE
5
29E
100
AcDbEntity
8
CURVE
100
AcDbSpline
6
CONTINUOUS
70
0
71
3
72
51
73
47
74
45
42
0.0000001000
43
0.0000001000
44
0.0000000001
12
0.0000000000
22
2.9664589233
32
-0.0596317807
13
0.0000000000
23
4.0335410390
33
-0.0977033972
40
0.0000000000
40
0.0000000000
40
0.0000000000
40
0.0000000000
40
0.0625000000
40
0.1250000000
40
0.1875000000
40
0.2500000000
40
0.2812500000
40
0.3125000000
40
0.3437500000
40
0.3750000000
40
0.4062500000
40
0.4218750000
40
0.4375000000
40
0.4531250000
40
0.4609375000
40
0.4687500000
40
0.4765625000
40
0.4843750000
40
0.4882812500
40
0.4921875000
40
0.4960937500
40
0.4980468750
40
0.4990234375
40
0.5000000000
40
0.5009765625
40
0.5019531250
40
0.5039062500
40
0.5078125000
40
0.5117187500
40
0.5156250000
40
0.5234375000
40
0.5312500000
40
0.5390625000
40
0.5468750000
40
0.5625000000
40
0.5781250000
40
0.5937500000
40
0.6250000000
40
0.6562500000
40
0.6875000000
40
0.7187500000
40
0.7500000000
40
0.8125000000
40
0.8750000000
40
0.9375000000
40
1.0000000000
40
1.0000000000
40
1.0000000000
40
1.0000000000
10
2.5399999332
20
7.8000000000
30
5.9284175011
10
2.5399999332
20
7.8618012276
30
5.9271751723
10
2.5399999332
20
7.9854036827
30
5.9246905148
10
2.5399999332
20
8.1708073654
30
5.9209635285
10
2.5399999332
20
8.3562110481
30
5.9172365422
10
2.5399999332
20
8.5107141170
30
5.9141307203
10
2.5399999332
20
8.6343165722
30
5.9116460628
10
2.5399999332
20
8.7270184135
30
5.9097825696
10
2.5399999332
20
8.8197202550
30
5.9079190765
10
2.5399999332
20
8.9124220958
30
5.9060555833
10
2.5399999332
20
8.9896736319
30
5.9045026723
10
2.5399999332
20
9.0514748563
30
5.9032603437
10
2.5399999332
20
9.0978257866
30
5.9023285968
10
2.5399999332
20
9.1364515235
30
5.9015521424
10
2.5399999332
20
9.1673521992
30
5.9009309758
10
2.5399999332
20
9.1905274705
30
5.9004651092
10
2.5399999332
20
9.2137036407
30
5.8999992106
10
2.5399999332
20
9.2330143155
30
5.8996110617
10
2.5399999332
20
9.2484691269
30
5.8993003188
10
2.5399999332
20
9.2600431008
30
5.8990678729
10
2.5399999332
20
9.2697425814
30
5.8988722235
10
2.5399999332
20
9.2764252594
30
5.8987390850
10
2.5399999332
20
9.2804109392
30
5.8986570474
10
2.5399999332
20
9.2829297385
30
5.8986123043
10
2.5399999332
20
9.2872468767
30
5.8985033997
10
2.5399999332
20
9.2923757801
30
5.8983805739
10
2.5399999332
20
9.3016436229
30
5.8981552012
10
2.5399999332
20
9.3147306006
30
5.8978386919
10
2.5399999332
20
9.3305003765
30
5.8974565472
10
2.5399999332
20
9.3515038982
30
5.8969478360
10
2.5399999332
20
9.3777661398
30
5.8963116674
10
2.5399999332
20
9.4092774693
30
5.8955483849
10
2.5399999332
20
9.4407896977
30
5.8947850704
10
2.5399999332
20
9.4828056883
30
5.8937673289
10
2.5399999332
20
9.5353257843
30
5.8924951481
10
2.5399999332
20
9.5983498533
30
5.8909685329
10
2.5399999332
20
9.6823819615
30
5.8889330454
10
2.5399999332
20
9.7874220911
30
5.8863886861
10
2.5399999332
20
9.9134702491
30
5.8833354549
10
2.5399999332
20
10.0395184064
30
5.8802822238
10
2.5399999332
20
10.1655665639
30
5.8772289926
10
2.5399999332
20
10.3336307739
30
5.8731580177
10
2.5399999332
20
10.5437110363
30
5.8680692991
10
2.5399999332
20
10.7958073513
30
5.8619628368
10
2.5399999332
20
11.0479036662
30
5.8558563745
10
2.5399999332
20
11.2159678762
30
5.8517853996
10
2.5399999332
20
11.2999999811
30
5.8497499122
11
2.5399999332
21
7.8000000000
31
5.9284175011
11
2.5399999332
21
7.9854036827
31
5.9246905148
11
2.5399999332
21
8.1708073654
31
5.9209635285
11
2.5399999332
21
8.3562110481
31
5.9172365422
11
2.5399999332
21
8.5416147308
31
5.9135095559
11
2.5399999332
21
8.6343165722
31
5.9116460628
11
2.5399999332
21
8.7270184135
31
5.9097825696
11
2.5399999332
21
8.8197202549
31
5.9079190765
11
2.5399999332
21
8.9124220962
31
5.9060555833
11
2.5399999332
21
9.0051239376
31
5.9041920902
11
2.5399999332
21
9.0514748583
31
5.9032603436
11
2.5399999332
21
9.0978257789
31
5.9023285970
11
2.5399999332
21
9.1441766996
31
5.9013968505
11
2.5399999332
21
9.1673521600
31
5.9009309772
11
2.5399999332
21
9.1905276203
31
5.9004651039
11
2.5399999332
21
9.2137030806
31
5.8999992306
11
2.5399999332
21
9.2368785410
31
5.8995333573
11
2.5399999332
21
9.2484662711
31
5.8993004207
11
2.5399999332
21
9.2600540013
31
5.8990674840
11
2.5399999332
21
9.2716417315
31
5.8988345474
11
2.5399999332
21
9.2774355966
31
5.8987180791
11
2.5399999332
21
9.2803325291
31
5.8986598449
11
2.5399999332
21
9.2832294616
31
5.8986016107
11
2.5399999332
21
9.2871684666
31
5.8985061973
11
2.5399999332
21
9.2911074715
31
5.8984107838
11
2.5399999332
21
9.2989854813
31
5.8982199568
11
2.5399999332
21
9.3147415010
31
5.8978383029
11
2.5399999332
21
9.3304975207
31
5.8974566491
11
2.5399999332
21
9.3462535404
31
5.8970749952
11
2.5399999332
21
9.3777655798
31
5.8963116874
11
2.5399999332
21
9.4092776191
31
5.8955483796
11
2.5399999332
21
9.4407896585
31
5.8947850718
11
2.5399999332
21
9.4723016979
31
5.8940217640
11
2.5399999332
21
9.5353257766
31
5.8924951484
11
2.5399999332
21
9.5983498553
31
5.8909685328
11
2.5399999332
21
9.6613739341
31
5.8894419173
11
2.5399999332
21
9.7874220915
31
5.8863886861
11
2.5399999332
21
9.9134702490
31
5.8833354549
11
2.5399999332
21
10.0395184065
31
5.8802822238
11
2.5399999332
21
10.1655665639
31
5.8772289926
11
2.5399999332
21
10.2916147214
31
5.8741757615
11
2.5399999332
21
10.5437110363
31
5.8680692991
11
2.5399999332
21
10.7958073513
31
5.8619628368
11
2.5399999332
21
11.0479036662
31
5.8558563745
11
2.5399999332
21
11.2999999811
31
5.8497499122
0
SPLINE
5
29F
100
AcDbEntity
8
CURVE
100
AcDbSpline
6
CONTINUOUS
70
0
71
3
72
8
73
4
74
2
42
0.0000001000
43
0.0000001000
44
0.0000000001
12
1.9598074725
22
-3.4996562009
32
0.0930825900
13
1.9601703616
23
-3.5003042171
33
0.0642516993
40
0.0000000000
40
0.0000000000
40
0.0000000000
40
0.0000000000
40
1.0000000000
40
1.0000000000
40
1.0000000000
40
1.0000000000
10
0.5799999332
20
11.3000000000
30
5.8497499117
10
1.2332690907
20
10.1334479330
30
5.8807774417
10
1.8866098127
20
8.9667680724
30
5.9070002680
10
2.5399999332
20
7.8000000000
30
5.9284175011
11
0.5799999332
21
11.3000000000
31
5.8497499117
11
2.5399999332
21
7.8000000000
31
5.9284175011
0
SPLINE
5
2A0
100
AcDbEntity
8
CURVE
100
AcDbSpline
6
CONTINUOUS
70
0
71
3
72
51
73
47
74
45
42
0.0000001000
43
0.0000001000
44
0.0000000001
12
0.0000000000
22
2.9664589233
32
-0.0596317807
13
0.0000000000
23
4.0335410390
33
-0.0977033972
40
0.0000000000
40
0.0000000000
40
0.0000000000
40
0.0000000000
40
0.0625000000
40
0.1250000000
40
0.1875000000
40
0.2500000000
40
0.2812500000
40
0.3125000000
40
0.3437500000
40
0.3750000000
40
0.4062500000
40
0.4218750000
40
0.4375000000
40
0.4531250000
40
0.4609375000
40
0.4687500000
40
0.4765625000
40
0.4843750000
40
0.4882812500
40
0.4921875000
40
0.4960937500
40
0.4980468750
40
0.4990234375
40
0.5000000000
40
0.5009765625
40
0.5019531250
40
0.5039062500
40
0.5078125000
40
0.5117187500
40
0.5156250000
40
0.5234375000
40
0.5312500000
40
0.5390625000
40
0.5468750000
40
0.5625000000
40
0.5781250000
40
0.5937500000
40
0.6250000000
40
0.6562500000
40
0.6875000000
40
0.7187500000
40
0.7500000000
40
0.8125000000
40
0.8750000000
40
0.9375000000
40
1.0000000000
40
1.0000000000
40
1.0000000000
40
1.0000000000
10
0.5799999332
20
7.8000000000
30
5.9284175011
10
0.5799999332
20
7.8618012276
30
5.9271751723
10
0.5799999332
20
7.9854036827
30
5.9246905148
10
0.5799999332
20
8.1708073654
30
5.9209635285
10
0.5799999332
20
8.3562110481
30
5.9172365422
10
0.5799999332
20
8.5107141170
30
5.9141307203
10
0.5799999332
20
8.6343165722
30
5.9116460628
10
0.5799999332
20
8.7270184135
30
5.9097825696
10
0.5799999332
20
8.8197202550
30
5.9079190765
10
0.5799999332
20
8.9124220958
30
5.9060555833
10
0.5799999332
20
8.9896736319
30
5.9045026723
10
0.5799999332
20
9.0514748563
30
5.9032603437
10
0.5799999332
20
9.0978257866
30
5.9023285968
10
0.5799999332
20
9.1364515235
30
5.9015521424
10
0.5799999332
20
9.1673521992
30
5.9009309758
10
0.5799999332
20
9.1905274705
30
5.9004651092
10
0.5799999332
20
9.2137036407
30
5.8999992106
10
0.5799999332
20
9.2330143155
30
5.8996110617
10
0.5799999332
20
9.2484691269
30
5.8993003188
10
0.5799999332
20
9.2600431008
30
5.8990678729
10
0.5799999332
20
9.2697425814
30
5.8988722235
10
0.5799999332
20
9.2764252594
30
5.8987390850
10
0.5799999332
20
9.2804109392
30
5.8986570474
10
0.5799999332
20
9.2829297385
30
5.8986123043
10
0.5799999332
20
9.2872468767
30
5.8985033997
10
0.5799999332
20
9.2923757801
30
5.8983805739
10
0.5799999332
20
9.3016436229
30
5.8981552012
10
0.5799999332
20
9.3147306006
30
5.8978386919
10
0.5799999332
20
9.3305003765
30
5.8974565472
10
0.5799999332
20
9.3515038982
30
5.8969478360
10
0.5799999332
20
9.3777661398
30
5.8963116674
10
0.5799999332
20
9.4092774693
30
5.8955483849
10
0.5799999332
20
9.4407896977
30
5.8947850704
10
0.5799999332
20
9.4828056883
30
5.8937673289
10
0.5799999332
20
9.5353257843
30
5.8924951481
10
0.5799999332
20
9.5983498533
30
5.8909685329
10
0.5799999332
20
9.6823819615
30
5.8889330454
10
0.5799999332
20
9.7874220911
30
5.8863886861
10
0.5799999332
20
9.9134702491
30
5.8833354549
10
0.5799999332
20
10.0395184064
30
5.8802822238
10
0.5799999332
20
10.1655665639
30
5.8772289926
10
0.5799999332
20
10.3336307739
30
5.8731580177
10
0.5799999332
20
10.5437110363
30
5.8680692991
10
0.5799999332
20
10.7958073513
30
5.8619628368
10
0.5799999332
20
11.0479036662
30
5.8558563745
10
0.5799999332
20
11.2159678762
30
5.8517853996
10
0.5799999332
20
11.2999999811
30
5.8497499122
11
0.5799999332
21
7.8000000000
31
5.9284175011
11
0.5799999332
21
7.9854036827
31
5.9246905148
11
0.5799999332
21
8.1708073654
31
5.9209635285
11
0.5799999332
21
8.3562110481
31
5.9172365422
11
0.5799999332
21
8.5416147308
31
5.9135095559
11
0.5799999332
21
8.6343165722
31
5.9116460628
11
0.5799999332
21
8.7270184135
31
5.9097825696
11
0.5799999332
21
8.8197202549
31
5.9079190765
11
0.5799999332
21
8.9124220962
31
5.9060555833
11
0.5799999332
21
9.0051239376
31
5.9041920902
11
0.5799999332
21
9.0514748583
31
5.9032603436
11
0.5799999332
21
9.0978257789
31
5.9023285970
11
0.5799999332
21
9.1441766996
31
5.9013968505
11
0.5799999332
21
9.1673521600
31
5.9009309772
11
0.5799999332
21
9.1905276203
31
5.9004651039
11
0.5799999332
21
9.2137030806
31
5.8999992306
11
0.5799999332
21
9.2368785410
31
5.8995333573
11
0.5799999332
21
9.2484662711
31
5.8993004207
11
0.5799999332
21
9.2600540013
31
5.8990674840
11
0.5799999332
21
9.2716417315
31
5.8988345474
11
0.5799999332
21
9.2774355966
31
5.8987180791
11
0.5799999332
21
9.2803325291
31
5.8986598449
11
0.5799999332
21
9.2832294616
31
5.8986016107
11
0.5799999332
21
9.2871684666
31
5.8985061973
11
0.5799999332
21
9.2911074715
31
5.8984107838
11
0.5799999332
21
9.2989854813
31
5.8982199568
11
0.5799999332
21
9.3147415010
31
5.8978383029
11
0.5799999332
21
9.3304975207
31
5.8974566491
11
0.5799999332
21
9.3462535404
31
5.8970749952
11
0.5799999332
21
9.3777655798
31
5.8963116874
11
0.5799999332
21
9.4092776191
31
5.8955483796
11
0.5799999332
21
9.4407896585
31
5.8947850718
11
0.5799999332
21
9.4723016979
31
5.8940217640
11
0.5799999332
21
9.5353257766
31
5.8924951484
11
0.5799999332
21
9.5983498553
31
5.8909685328
11
0.5799999332
21
9.6613739341
31
5.8894419173
11
0.5799999332
21
9.7874220915
31
5.8863886861
11
0.5799999332
21
9.9134702490
31
5.8833354549
11
0.5799999332
21
10.0395184065
31
5.8802822238
11
0.5799999332
21
10.1655665639
31
5.8772289926
11
0.5799999332
21
10.2916147214
31
5.8741757615
11
0.5799999332
21
10.5437110363
31
5.8680692991
11
0.5799999332
21
10.7958073513
31
5.8619628368
11
0.5799999332
21
11.0479036662
31
5.8558563745
11
0.5799999332
21
11.2999999811
31
5.8497499122
0
SPLINE
5
2A1
100
AcDbEntity
8
CURVE
100
AcDbSpline
6
CONTINUOUS
70
0
71
3
72
8
73
4
74
2
42
0.0000001000
43
0.0000001000
44
0.0000000001
12
-0.5599936603
22
-0.4999943917
32
0.0097664590
13
-0.5600061437
23
-0.5000055376
33
0.0091781181
40
0.0000000000
40
0.0000000000
40
0.0000000000
40
0.0000000000
40
1.0000000000
40
1.0000000000
40
1.0000000000
40
1.0000000000
10
-0.5400000000
20
8.3000000224
30
5.9189452115
10
-0.7266645534
20
8.1333352251
30
5.9222006978
10
-0.9133312521
20
7.9666685125
30
5.9253581284
10
-1.0999999666
20
7.8000000000
30
5.9284175011
11
-0.5400000000
21
8.3000000224
31
5.9189452115
11
-1.0999999666
21
7.8000000000
31
5.9284175011
0
SPLINE
5
2A2
100
AcDbEntity
8
CURVE
100
AcDbSpline
6
CONTINUOUS
70
0
71
3
72
47
73
43
74
41
42
0.0000001000
43
0.0000001000
44
0.0000000001
12
0.0000000000
22
-2.9662271438
32
0.0702212522
13
0.0000000000
23
-2.0337726974
33
0.0421605486
40
0.0000000000
40
0.0000000000
40
0.0000000000
40
0.0000000000
40
0.0625000000
40
0.1250000000
40
0.1875000000
40
0.2500000000
40
0.3125000000
40
0.3437500000
40
0.3750000000
40
0.4062500000
40
0.4218750000
40
0.4375000000
40
0.4531250000
40
0.4687500000
40
0.4765625000
40
0.4843750000
40
0.4882812500
40
0.4921875000
40
0.4960937500
40
0.4980468750
40
0.4990234375
40
0.5000000000
40
0.5009765625
40
0.5019531250
40
0.5039062500
40
0.5078125000
40
0.5117187500
40
0.5156250000
40
0.5234375000
40
0.5312500000
40
0.5468750000
40
0.5625000000
40
0.5781250000
40
0.5937500000
40
0.6250000000
40
0.6562500000
40
0.6875000000
40
0.7500000000
40
0.8125000000
40
0.8750000000
40
0.9375000000
40
1.0000000000
40
1.0000000000
40
1.0000000000
40
1.0000000000
10
-0.5400000000
20
10.8000000298
30
5.8627543094
10
-0.5400000000
20
10.7382036310
30
5.8642172521
10
-0.5400000000
20
10.6146108333
30
5.8671431376
10
-0.5400000000
20
10.4292216368
30
5.8715319659
10
-0.5400000000
20
10.2438324404
30
5.8759207942
10
-0.5400000000
20
10.0584432438
30
5.8803096224
10
-0.5400000000
20
9.9039522470
30
5.8839669793
10
-0.5400000000
20
9.7803594488
30
5.8868928648
10
-0.5400000000
20
9.6876648522
30
5.8890872789
10
-0.5400000000
20
9.6104193485
30
5.8909159575
10
-0.5400000000
20
9.5486229601
30
5.8923789000
10
-0.5400000000
20
9.5022756293
30
5.8934761080
10
-0.5400000000
20
9.4559284489
30
5.8945733115
10
-0.5400000000
20
9.4173053303
30
5.8954876618
10
-0.5400000000
20
9.3864078841
30
5.8962191105
10
-0.5400000000
20
9.3670945927
30
5.8966763378
10
-0.5400000000
20
9.3516494274
30
5.8970419551
10
-0.5400000000
20
9.3400505823
30
5.8973166186
10
-0.5400000000
20
9.3304325038
30
5.8975440716
10
-0.5400000000
20
9.3236063847
30
5.8977061014
10
-0.5400000000
20
9.3198516816
30
5.8977942981
10
-0.5400000000
20
9.3166245491
30
5.8978728172
10
-0.5400000000
20
9.3149688693
30
5.8979040460
10
-0.5400000000
20
9.3122131559
30
5.8979621797
10
-0.5400000000
20
9.3076460461
30
5.8980562283
10
-0.5400000000
20
9.3009880836
30
5.8981946014
10
-0.5400000000
20
9.2930556793
30
5.8983589293
10
-0.5400000000
20
9.2824591787
30
5.8985786339
10
-0.5400000000
20
9.2692203878
30
5.8988530590
10
-0.5400000000
20
9.2480345024
30
5.8992922540
10
-0.5400000000
20
9.2215534564
30
5.8998412084
10
-0.5400000000
20
9.1897756393
30
5.9004999705
10
-0.5400000000
20
9.1579979725
30
5.9011587281
10
-0.5400000000
20
9.1156276976
30
5.9020370732
10
-0.5400000000
20
9.0626648720
30
5.9031350040
10
-0.5400000000
20
8.9991094736
30
5.9044525212
10
-0.5400000000
20
8.9143689451
30
5.9062092107
10
-0.5400000000
20
8.8084432835
30
5.9084050726
10
-0.5400000000
20
8.6813324900
30
5.9110401069
10
-0.5400000000
20
8.5542216964
30
5.9136751412
10
-0.5400000000
20
8.4271109028
30
5.9163101755
10
-0.5400000000
20
8.3423703737
30
5.9180668650
10
-0.5400000000
20
8.3000001092
30
5.9189452098
11
-0.5400000000
21
10.8000000298
31
5.8627543094
11
-0.5400000000
21
10.6146108333
31
5.8671431376
11
-0.5400000000
21
10.4292216368
31
5.8715319659
11
-0.5400000000
21
10.2438324403
31
5.8759207942
11
-0.5400000000
21
10.0584432439
31
5.8803096224
11
-0.5400000000
21
9.8730540474
31
5.8846984507
11
-0.5400000000
21
9.7803594491
31
5.8868928648
11
-0.5400000000
21
9.6876648509
31
5.8890872790
11
-0.5400000000
21
9.5949702526
31
5.8912816931
11
-0.5400000000
21
9.5486229535
31
5.8923789002
11
-0.5400000000
21
9.5022756544
31
5.8934761072
11
-0.5400000000
21
9.4559283553
31
5.8945733143
11
-0.5400000000
21
9.4095810561
31
5.8956705214
11
-0.5400000000
21
9.3864074066
31
5.8962191249
11
-0.5400000000
21
9.3632337570
31
5.8967677284
11
-0.5400000000
21
9.3516469322
31
5.8970420302
11
-0.5400000000
21
9.3400601075
31
5.8973163319
11
-0.5400000000
21
9.3284732827
31
5.8975906337
11
-0.5400000000
21
9.3226798703
31
5.8977277846
11
-0.5400000000
21
9.3197831641
31
5.8977963600
11
-0.5400000000
21
9.3168864579
31
5.8978649355
11
-0.5400000000
21
9.3149003518
31
5.8979061079
11
-0.5400000000
21
9.3129142456
31
5.8979472803
11
-0.5400000000
21
9.3089420333
31
5.8980296251
11
-0.5400000000
21
9.3009976087
31
5.8981943148
11
-0.5400000000
21
9.2930531841
31
5.8983590044
11
-0.5400000000
21
9.2851087595
31
5.8985236941
11
-0.5400000000
21
9.2692199103
31
5.8988530733
11
-0.5400000000
21
9.2533310611
31
5.8991824526
11
-0.5400000000
21
9.2215533627
31
5.8998412112
11
-0.5400000000
21
9.1897756643
31
5.9004999698
11
-0.5400000000
21
9.1579979659
31
5.9011587283
11
-0.5400000000
21
9.1262202675
31
5.9018174869
11
-0.5400000000
21
9.0626648707
31
5.9031350041
11
-0.5400000000
21
8.9991094739
31
5.9044525212
11
-0.5400000000
21
8.9355540771
31
5.9057700383
11
-0.5400000000
21
8.8084432835
31
5.9084050726
11
-0.5400000000
21
8.6813324900
31
5.9110401069
11
-0.5400000000
21
8.5542216964
31
5.9136751412
11
-0.5400000000
21
8.4271109028
31
5.9163101755
11
-0.5400000000
21
8.3000001092
31
5.9189452098
0
SPLINE
5
2A3
100
AcDbEntity
8
CURVE
100
AcDbSpline
6
CONTINUOUS
70
0
71
3
72
8
73
4
74
2
42
0.0000001000
43
0.0000001000
44
0.0000000001
12
0.5599913315
22
-0.4999922603
32
0.0132986133
13
0.5600084725
23
-0.5000075647
33
0.0127101791
40
0.0000000000
40
0.0000000000
40
0.0000000000
40
0.0000000000
40
1.0000000000
40
1.0000000000
40
1.0000000000
40
1.0000000000
10
-1.0999999666
20
11.3000000000
30
5.8497499117
10
-0.9133361895
20
11.1333359132
30
5.8541827828
10
-0.7266694908
20
10.9666692180
30
5.8585175830
10
-0.5400000000
20
10.8000000298
30
5.8627543094
11
-1.0999999666
21
11.3000000000
31
5.8497499117
11
-0.5400000000
21
10.8000000298
31
5.8627543094
0
SPLINE
5
2A4
100
AcDbEntity
8
CURVE
100
AcDbSpline
6
CONTINUOUS
70
0
71
3
72
8
73
4
74
2
42
0.0000001000
43
0.0000001000
44
0.0000000001
12
0.5600085309
22
0.5000075647
32
-0.0127101791
13
0.5599913899
23
0.4999922603
33
-0.0132986133
40
0.0000000000
40
0.0000000000
40
0.0000000000
40
0.0000000000
40
1.0000000000
40
1.0000000000
40
1.0000000000
40
1.0000000000
10
-2.5000000000
20
10.8000000298
30
5.8627543094
10
-2.3133304897
20
10.9666692180
30
5.8585175830
10
-2.1266637716
20
11.1333359132
30
5.8541827828
10
-1.9399999750
20
11.3000000000
30
5.8497499117
11
-2.5000000000
21
10.8000000298
31
5.8627543094
11
-1.9399999750
21
11.3000000000
31
5.8497499117
0
SPLINE
5
2A5
100
AcDbEntity
8
CURVE
100
AcDbSpline
6
CONTINUOUS
70
0
71
3
72
47
73
43
74
41
42
0.0000001000
43
0.0000001000
44
0.0000000001
12
0.0000000000
22
2.9663867020
32
-0.0631223169
13
0.0000000000
23
2.0336131392
33
-0.0492594829
40
0.0000000000
40
0.0000000000
40
0.0000000000
40
0.0000000000
40
0.0625000000
40
0.1250000000
40
0.1875000000
40
0.2500000000
40
0.3125000000
40
0.3437500000
40
0.3750000000
40
0.4062500000
40
0.4218750000
40
0.4375000000
40
0.4531250000
40
0.4687500000
40
0.4765625000
40
0.4843750000
40
0.4882812500
40
0.4921875000
40
0.4960937500
40
0.4980468750
40
0.4990234375
40
0.5000000000
40
0.5009765625
40
0.5019531250
40
0.5039062500
40
0.5078125000
40
0.5117187500
40
0.5156250000
40
0.5234375000
40
0.5312500000
40
0.5468750000
40
0.5625000000
40
0.5781250000
40
0.5937500000
40
0.6250000000
40
0.6562500000
40
0.6875000000
40
0.7500000000
40
0.8125000000
40
0.8750000000
40
0.9375000000
40
1.0000000000
40
1.0000000000
40
1.0000000000
40
1.0000000000
10
-2.5000000000
20
8.3000000224
30
5.9189452115
10
-2.5000000000
20
8.3617997453
30
5.9176301632
10
-2.5000000000
20
8.4853991912
30
5.9150000667
10
-2.5000000000
20
8.6707983601
30
5.9110549219
10
-2.5000000000
20
8.8561975290
30
5.9071097771
10
-2.5000000000
20
9.0415966979
30
5.9031646322
10
-2.5000000000
20
9.1960960051
30
5.8998770116
10
-2.5000000000
20
9.3196954515
30
5.8972469150
10
-2.5000000000
20
9.4123950343
30
5.8952743427
10
-2.5000000000
20
9.4896446931
30
5.8936305322
10
-2.5000000000
20
9.5514444057
30
5.8923154841
10
-2.5000000000
20
9.5977942296
30
5.8913291975
10
-2.5000000000
20
9.6441439030
30
5.8903429130
10
-2.5000000000
20
9.6827690993
30
5.8895210024
10
-2.5000000000
20
9.7136682074
30
5.8888634894
10
-2.5000000000
20
9.7329825382
30
5.8884525083
10
-2.5000000000
20
9.7484285332
30
5.8881238048
10
-2.5000000000
20
9.7600280057
30
5.8878770545
10
-2.5000000000
20
9.7696465907
30
5.8876721373
10
-2.5000000000
20
9.7764730964
30
5.8875273058
10
-2.5000000000
20
9.7802279704
30
5.8874467146
10
-2.5000000000
20
9.7834553718
30
5.8873801592
10
-2.5000000000
20
9.7851107827
30
5.8873369667
10
-2.5000000000
20
9.7878663252
30
5.8872712275
10
-2.5000000000
20
9.7924330484
30
5.8871599807
10
-2.5000000000
20
9.7990905044
30
5.8869990717
10
-2.5000000000
20
9.8070222813
30
5.8868068306
10
-2.5000000000
20
9.8176179522
30
5.8865502123
10
-2.5000000000
20
9.8308557037
30
5.8862295410
10
-2.5000000000
20
9.8520399273
30
5.8857164102
10
-2.5000000000
20
9.8785188956
30
5.8850750162
10
-2.5000000000
20
9.9102942196
30
5.8843053350
10
-2.5000000000
20
9.9420693933
30
5.8835356560
10
-2.5000000000
20
9.9844363441
30
5.8825094166
10
-2.5000000000
20
10.0373950145
30
5.8812266177
10
-2.5000000000
20
10.1009454267
30
5.8796872588
10
-2.5000000000
20
10.1856793070
30
5.8776347804
10
-2.5000000000
20
10.2915966582
30
5.8750691823
10
-2.5000000000
20
10.4186974794
30
5.8719904646
10
-2.5000000000
20
10.5457983006
30
5.8689117469
10
-2.5000000000
20
10.6728991218
30
5.8658330293
10
-2.5000000000
20
10.7576330026
30
5.8637805508
10
-2.5000000000
20
10.7999999430
30
5.8627543116
11
-2.5000000000
21
8.3000000224
31
5.9189452115
11
-2.5000000000
21
8.4853991912
31
5.9150000667
11
-2.5000000000
21
8.6707983601
31
5.9110549219
11
-2.5000000000
21
8.8561975290
31
5.9071097771
11
-2.5000000000
21
9.0415966979
31
5.9031646322
11
-2.5000000000
21
9.2269958667
31
5.8992194874
11
-2.5000000000
21
9.3196954512
31
5.8972469150
11
-2.5000000000
21
9.4123950356
31
5.8952743426
11
-2.5000000000
21
9.5050946201
31
5.8933017702
11
-2.5000000000
21
9.5514444123
31
5.8923154840
11
-2.5000000000
21
9.5977942045
31
5.8913291978
11
-2.5000000000
21
9.6441439967
31
5.8903429116
11
-2.5000000000
21
9.6904937889
31
5.8893566254
11
-2.5000000000
21
9.7136686850
31
5.8888634823
11
-2.5000000000
21
9.7368435811
31
5.8883703392
11
-2.5000000000
21
9.7484310292
31
5.8881237677
11
-2.5000000000
21
9.7600184773
31
5.8878771961
11
-2.5000000000
21
9.7716059253
31
5.8876306246
11
-2.5000000000
21
9.7773996493
31
5.8875073388
11
-2.5000000000
21
9.7802965114
31
5.8874456959
11
-2.5000000000
21
9.7831933734
31
5.8873840530
11
-2.5000000000
21
9.7851793237
31
5.8873359481
11
-2.5000000000
21
9.7871652740
31
5.8872878431
11
-2.5000000000
21
9.7911371747
31
5.8871916332
11
-2.5000000000
21
9.7990809760
31
5.8869992133
11
-2.5000000000
21
9.8070247773
31
5.8868067935
11
-2.5000000000
21
9.8149685787
31
5.8866143736
11
-2.5000000000
21
9.8308561813
31
5.8862295339
11
-2.5000000000
21
9.8467437840
31
5.8858446942
11
-2.5000000000
21
9.8785189893
31
5.8850750148
11
-2.5000000000
21
9.9102941946
31
5.8843053353
11
-2.5000000000
21
9.9420693999
31
5.8835356559
11
-2.5000000000
21
9.9738446052
31
5.8827659765
11
-2.5000000000
21
10.0373950158
31
5.8812266177
11
-2.5000000000
21
10.1009454264
31
5.8796872588
11
-2.5000000000
21
10.1644958370
31
5.8781479000
11
-2.5000000000
21
10.2915966582
31
5.8750691823
11
-2.5000000000
21
10.4186974794
31
5.8719904646
11
-2.5000000000
21
10.5457983006
31
5.8689117469
11
-2.5000000000
21
10.6728991218
31
5.8658330293
11
-2.5000000000
21
10.7999999430
31
5.8627543116
0
SPLINE
5
2A6
100
AcDbEntity
8
CURVE
100
AcDbSpline
6
CONTINUOUS
70
0
71
3
72
8
73
4
74
2
42
0.0000001000
43
0.0000001000
44
0.0000000001
12
-0.5600062021
22
0.5000055376
32
-0.0091781181
13
-0.5599937187
23
0.4999943917
33
-0.0097664590
40
0.0000000000
40
0.0000000000
40
0.0000000000
40
0.0000000000
40
1.0000000000
40
1.0000000000
40
1.0000000000
40
1.0000000000
10
-1.9399999750
20
7.8000000000
30
5.9284175011
10
-2.1266687090
20
7.9666685125
30
5.9253581284
10
-2.3133354271
20
8.1333352251
30
5.9222006978
10
-2.5000000000
20
8.3000000224
30
5.9189452115
11
-1.9399999750
21
7.8000000000
31
5.9284175011
11
-2.5000000000
21
8.3000000224
31
5.9189452115
0
SPLINE
5
2A7
100
AcDbEntity
8
CURVE
100
AcDbSpline
6
CONTINUOUS
70
0
71
3
72
51
73
47
74
45
42
0.0000001000
43
0.0000001000
44
0.0000000001
12
0.0000000000
22
2.9661424485
32
0.0737120619
13
0.0000000000
23
4.0338575138
33
0.0836231164
40
0.0000000000
40
0.0000000000
40
0.0000000000
40
0.0000000000
40
0.0625000000
40
0.1250000000
40
0.1875000000
40
0.2500000000
40
0.2812500000
40
0.3125000000
40
0.3437500000
40
0.3750000000
40
0.4062500000
40
0.4218750000
40
0.4375000000
40
0.4531250000
40
0.4609375000
40
0.4687500000
40
0.4765625000
40
0.4843750000
40
0.4882812500
40
0.4921875000
40
0.4960937500
40
0.4980468750
40
0.4990234375
40
0.5000000000
40
0.5009765625
40
0.5019531250
40
0.5039062500
40
0.5078125000
40
0.5117187500
40
0.5156250000
40
0.5234375000
40
0.5312500000
40
0.5390625000
40
0.5468750000
40
0.5625000000
40
0.5781250000
40
0.5937500000
40
0.6250000000
40
0.6562500000
40
0.6875000000
40
0.7187500000
40
0.7500000000
40
0.8125000000
40
0.8750000000
40
0.9375000000
40
1.0000000000
40
1.0000000000
40
1.0000000000
40
1.0000000000
10
2.0800000000
20
-11.3000000000
30
5.8497499117
10
2.0800000000
20
-11.2382053657
30
5.8512855796
10
2.0800000000
20
-11.1146160970
30
5.8543569155
10
2.0800000000
20
-10.9292321939
30
5.8589639194
10
2.0800000000
20
-10.7438482909
30
5.8635709233
10
2.0800000000
20
-10.5893617050
30
5.8674100931
10
2.0800000000
20
-10.4657724363
30
5.8704814291
10
2.0800000000
20
-10.3730804849
30
5.8727849310
10
2.0800000000
20
-10.2803885332
30
5.8750884329
10
2.0800000000
20
-10.1876965822
30
5.8773919349
10
2.0800000000
20
-10.1104532877
30
5.8793115198
10
2.0800000000
20
-10.0486586566
30
5.8808471877
10
2.0800000000
20
-10.0023126711
30
5.8819989388
10
2.0800000000
20
-9.9636910550
30
5.8829587310
10
2.0800000000
20
-9.9327936759
30
5.8837265655
10
2.0800000000
20
-9.9096208772
30
5.8843024393
10
2.0800000000
20
-9.8864471790
30
5.8848783213
10
2.0800000000
20
-9.8671385659
30
5.8853581971
10
2.0800000000
20
-9.8516854001
30
5.8857421559
10
2.0800000000
20
-9.8401126706
30
5.8860299659
10
2.0800000000
20
-9.8304141946
30
5.8862703137
10
2.0800000000
20
-9.8237322834
30
5.8864375638
10
2.0800000000
20
-9.8197469426
30
5.8865346864
10
2.0800000000
20
-9.8172286767
30
5.8866031588
10
2.0800000000
20
-9.8129110052
30
5.8866883341
10
2.0800000000
20
-9.8077817626
30
5.8867960749
10
2.0800000000
20
-9.7985131531
30
5.8869873360
10
2.0800000000
20
-9.7854251709
30
5.8872591469
10
2.0800000000
20
-9.7696541505
30
5.8875859275
10
2.0800000000
20
-9.7486489832
30
5.8880214227
10
2.0800000000
20
-9.7223846798
30
5.8885658646
10
2.0800000000
20
-9.6908708784
30
5.8892191636
10
2.0800000000
20
-9.6593561773
30
5.8898724709
10
2.0800000000
20
-9.6173368902
30
5.8907435445
10
2.0800000000
20
-9.5648126734
30
5.8918323874
10
2.0800000000
20
-9.5017836595
30
5.8931389985
10
2.0800000000
20
-9.4177449581
30
5.8948811468
10
2.0800000000
20
-9.3126965869
30
5.8970588321
10
2.0800000000
20
-9.1866385391
30
5.8996720545
10
2.0800000000
20
-9.0605804919
30
5.9022852769
10
2.0800000000
20
-8.9345224446
30
5.9048984993
10
2.0800000000
20
-8.7664450482
30
5.9083827958
10
2.0800000000
20
-8.5563483027
30
5.9127381664
10
2.0800000000
20
-8.3042322081
30
5.9179646112
10
2.0800000000
20
-8.0521161135
30
5.9231910560
10
2.0800000000
20
-7.8840387171
30
5.9266753525
10
2.0800000000
20
-7.8000000189
30
5.9284175008
11
2.0800000000
21
-11.3000000000
31
5.8497499117
11
2.0800000000
21
-11.1146160970
31
5.8543569155
11
2.0800000000
21
-10.9292321939
31
5.8589639194
11
2.0800000000
21
-10.7438482909
31
5.8635709233
11
2.0800000000
21
-10.5584643879
31
5.8681779271
11
2.0800000000
21
-10.4657724364
31
5.8704814291
11
2.0800000000
21
-10.3730804848
31
5.8727849310
11
2.0800000000
21
-10.2803885333
31
5.8750884329
11
2.0800000000
21
-10.1876965818
31
5.8773919349
11
2.0800000000
21
-10.0950046303
31
5.8796954368
11
2.0800000000
21
-10.0486586545
31
5.8808471878
11
2.0800000000
21
-10.0023126788
31
5.8819989387
11
2.0800000000
21
-9.9559667030
31
5.8831506897
11
2.0800000000
21
-9.9327937151
31
5.8837265652
11
2.0800000000
21
-9.9096207273
31
5.8843024407
11
2.0800000000
21
-9.8864477394
31
5.8848783161
11
2.0800000000
21
-9.8632747515
31
5.8854541916
11
2.0800000000
21
-9.8516882576
31
5.8857421294
11
2.0800000000
21
-9.8401017636
31
5.8860300671
11
2.0800000000
21
-9.8285152697
31
5.8863180048
11
2.0800000000
21
-9.8227220227
31
5.8864619737
11
2.0800000000
21
-9.8198253992
31
5.8865339582
11
2.0800000000
21
-9.8169287757
31
5.8866059426
11
2.0800000000
21
-9.8129894618
31
5.8866876058
11
2.0800000000
21
-9.8090501478
31
5.8867692690
11
2.0800000000
21
-9.8011715198
31
5.8869325954
11
2.0800000000
21
-9.7854142639
31
5.8872592482
11
2.0800000000
21
-9.7696570080
31
5.8875859010
11
2.0800000000
21
-9.7538997521
31
5.8879125538
11
2.0800000000
21
-9.7223852403
31
5.8885658594
11
2.0800000000
21
-9.6908707284
31
5.8892191650
11
2.0800000000
21
-9.6593562166
31
5.8898724706
11
2.0800000000
21
-9.6278417048
31
5.8905257762
11
2.0800000000
21
-9.5648126811
31
5.8918323874
11
2.0800000000
21
-9.5017836575
31
5.8931389986
11
2.0800000000
21
-9.4387546338
31
5.8944456097
11
2.0800000000
21
-9.3126965865
31
5.8970588321
11
2.0800000000
21
-9.1866385392
31
5.8996720545
11
2.0800000000
21
-9.0605804919
31
5.9022852769
11
2.0800000000
21
-8.9345224446
31
5.9048984993
11
2.0800000000
21
-8.8084643973
31
5.9075117217
11
2.0800000000
21
-8.5563483027
31
5.9127381664
11
2.0800000000
21
-8.3042322081
31
5.9179646112
11
2.0800000000
21
-8.0521161135
31
5.9231910560
11
2.0800000000
21
-7.8000000189
31
5.9284175008
0
SPLINE
5
2A8
100
AcDbEntity
8
0
100
AcDbSpline
62
0
6
CONTINUOUS
70
0
71
3
72
20
73
16
74
14
42
0.0000001000
43
0.0000001000
44
0.0000000001
12
-0.0519499149
22
-0.2947123733
32
0.0000000000
13
0.2947096670
23
-0.0519652658
33
0.0000000000
40
0.0000000000
40
0.0000000000
40
0.0000000000
40
0.0000000000
40
0.1205817900
40
0.2393684007
40
0.3546348731
40
0.4647074343
40
0.5679878490
40
0.6629766924
40
0.7482952273
40
0.8227056075
40
0.8851292224
40
0.9346632317
40
0.9705962413
40
0.9924295749
40
1.0000000000
40
1.0000000000
40
1.0000000000
40
1.0000000000
10
-45.8414563169
20
-17.0362964381
30
0.0000000000
10
-45.8435443881
20
-17.0481420866
30
0.0000000000
10
-45.8476652320
20
-17.0716613141
30
0.0000000000
10
-45.8536975186
20
-17.1065187331
30
0.0000000000
10
-45.8594772142
20
-17.1403560588
30
0.0000000000
10
-45.8649199879
20
-17.1726810719
30
0.0000000000
10
-45.8699487596
20
-17.2030265160
30
0.0000000000
10
-45.8744850097
20
-17.2309438161
30
0.0000000000
10
-45.8784822743
20
-17.2560523203
30
0.0000000000
10
-45.8818252249
20
-17.2779099529
30
0.0000000000
10
-45.8846390757
20
-17.2964266643
30
0.0000000000
10
-45.8864148619
20
-17.3107076950
30
0.0000000000
10
-45.8883080204
20
-17.3220970661
30
0.0000000000
10
-45.8878916997
20
-17.3272173750
30
0.0000000000
10
-45.8890587407
20
-17.3316076309
30
0.0000000000
10
-45.8883150483
20
-17.3317387640
30
0.0000000000
11
-45.8414563169
21
-17.0362964381
31
0.0000000000
11
-45.8476836459
21
-17.0718398656
31
0.0000000000
11
-45.8537444614
21
-17.1068669856
31
0.0000000000
11
-45.8595507234
21
-17.1408689903
31
0.0000000000
11
-45.8650180894
21
-17.1733519629
31
0.0000000000
11
-45.8700671400
21
-17.2038440525
31
0.0000000000
11
-45.8746245321
21
-17.2319023275
31
0.0000000000
11
-45.8786240645
21
-17.2571192107
31
0.0000000000
11
-45.8820076396
21
-17.2791283988
31
0.0000000000
11
-45.8847261072
21
-17.2976101839
31
0.0000000000
11
-45.8867399786
21
-17.3122960979
31
0.0000000000
11
-45.8880200000
21
-17.3229728114
31
0.0000000000
11
-45.8885475778
21
-17.3294852335
31
0.0000000000
11
-45.8883150483
21
-17.3317387640
31
0.0000000000
0
SPLINE
5
2A9
100
AcDbEntity
8
0
100
AcDbSpline
62
0
6
CONTINUOUS
70
0
71
3
72
15
73
11
74
9
42
0.0000001000
43
0.0000001000
44
0.0000000001
12
-1.2628707407
22
-32.7314756765
32
0.0000000000
13
1.2628707436
23
-32.7314756763
33
0.0000000000
40
0.0000000000
40
0.0000000000
40
0.0000000000
40
0.0000000000
40
0.1249999925
40
0.2499999970
40
0.3749999984
40
0.4999999976
40
0.6249999969
40
0.7499999983
40
0.8750000028
40
1.0000000000
40
1.0000000000
40
1.0000000000
40
1.0000000000
10
-46.4193821530
20
16.3739188688
30
0.0000000000
10
-46.4720017640
20
15.0101074643
30
0.0000000000
10
-46.5640931905
20
12.2819589233
30
0.0000000000
10
-46.6627712914
20
8.1886092156
30
0.0000000000
10
-46.7219819310
20
4.0944944122
30
0.0000000000
10
-46.7417193997
20
0.0000000774
30
0.0000000000
10
-46.7219819325
20
-4.0944942574
30
0.0000000000
10
-46.6627712944
20
-8.1886090610
30
0.0000000000
10
-46.5640931936
20
-12.2819588204
30
0.0000000000
10
-46.4720017661
20
-15.0101074129
30
0.0000000000
10
-46.4193821530
20
-16.3739188688
30
0.0000000000
11
-46.4193821530
21
16.3739188688
31
0.0000000000
11
-46.5575166801
21
12.2817712436
31
0.0000000000
11
-46.6561933815
21
8.1884816791
31
0.0000000000
11
-46.7154030696
21
4.0944311229
31
0.0000000000
11
-46.7351402438
21
0.0000000775
31
0.0000000000
11
-46.7154030710
21
-4.0944309681
31
0.0000000000
11
-46.6561933845
21
-8.1884815245
31
0.0000000000
11
-46.5575166846
21
-12.2817710892
31
0.0000000000
11
-46.4193821530
21
-16.3739188688
31
0.0000000000
0
SPLINE
5
2AA
100
AcDbEntity
8
0
100
AcDbSpline
62
0
6
CONTINUOUS
70
0
71
3
72
20
73
16
74
14
42
0.0000001000
43
0.0000001000
44
0.0000000001
12
-0.0519499151
22
0.2947123733
32
0.0000000000
13
0.2947096670
23
0.0519652658
33
0.0000000000
40
0.0000000000
40
0.0000000000
40
0.0000000000
40
0.0000000000
40
0.1205817788
40
0.2393683808
40
0.3546348472
40
0.4647074054
40
0.5679878197
40
0.6629766651
40
0.7482952039
40
0.8227055890
40
0.8851292094
40
0.9346632238
40
0.9705962376
40
0.9924295739
40
1.0000000000
40
1.0000000000
40
1.0000000000
40
1.0000000000
10
-45.8414563169
20
17.0362964381
30
0.0000000000
10
-45.8435443879
20
17.0481420855
30
0.0000000000
10
-45.8476652315
20
17.0716613110
30
0.0000000000
10
-45.8536975177
20
17.1065187275
30
0.0000000000
10
-45.8594772130
20
17.1403560514
30
0.0000000000
10
-45.8649199866
20
17.1726810636
30
0.0000000000
10
-45.8699487583
20
17.2030265076
30
0.0000000000
10
-45.8744850085
20
17.2309438082
30
0.0000000000
10
-45.8784822734
20
17.2560523135
30
0.0000000000
10
-45.8818252242
20
17.2779099475
30
0.0000000000
10
-45.8846390752
20
17.2964266604
30
0.0000000000
10
-45.8864148616
20
17.3107076925
30
0.0000000000
10
-45.8883080203
20
17.3220970649
30
0.0000000000
10
-45.8878916996
20
17.3272173744
30
0.0000000000
10
-45.8890587408
20
17.3316076309
30
0.0000000000
10
-45.8883150483
20
17.3317387640
30
0.0000000000
11
-45.8414563169
21
17.0362964381
31
0.0000000000
11
-45.8476836453
21
17.0718398623
31
0.0000000000
11
-45.8537444604
21
17.1068669797
31
0.0000000000
11
-45.8595507221
21
17.1408689826
31
0.0000000000
11
-45.8650180881
21
17.1733519544
31
0.0000000000
11
-45.8700671387
21
17.2038440438
31
0.0000000000
11
-45.8746245308
21
17.2319023195
31
0.0000000000
11
-45.8786240635
21
17.2571192037
31
0.0000000000
11
-45.8820076388
21
17.2791283933
31
0.0000000000
11
-45.8847261067
21
17.2976101801
31
0.0000000000
11
-45.8867399783
21
17.3122960955
31
0.0000000000
11
-45.8880199999
21
17.3229728103
31
0.0000000000
11
-45.8885475778
21
17.3294852332
31
0.0000000000
11
-45.8883150483
21
17.3317387640
31
0.0000000000
0
SPLINE
5
2AB
100
AcDbEntity
8
0
100
AcDbSpline
62
0
6
CONTINUOUS
70
0
71
3
72
15
73
11
74
9
42
0.0000001000
43
0.0000001000
44
0.0000000001
12
-1.2628707407
22
-32.7314756765
32
0.0000000000
13
1.2628707436
23
-32.7314756763
33
0.0000000000
40
0.0000000000
40
0.0000000000
40
0.0000000000
40
0.0000000000
40
0.1249999925
40
0.2499999970
40
0.3749999984
40
0.4999999976
40
0.6249999969
40
0.7499999983
40
0.8750000028
40
1.0000000000
40
1.0000000000
40
1.0000000000
40
1.0000000000
10
-46.4193821530
20
16.3739188688
30
0.0000000000
10
-46.4720017640
20
15.0101074643
30
0.0000000000
10
-46.5640931905
20
12.2819589233
30
0.0000000000
10
-46.6627712914
20
8.1886092156
30
0.0000000000
10
-46.7219819310
20
4.0944944122
30
0.0000000000
10
-46.7417193997
20
0.0000000774
30
0.0000000000
10
-46.7219819325
20
-4.0944942574
30
0.0000000000
10
-46.6627712944
20
-8.1886090610
30
0.0000000000
10
-46.5640931936
20
-12.2819588204
30
0.0000000000
10
-46.4720017661
20
-15.0101074129
30
0.0000000000
10
-46.4193821530
20
-16.3739188688
30
0.0000000000
11
-46.4193821530
21
16.3739188688
31
0.0000000000
11
-46.5575166801
21
12.2817712436
31
0.0000000000
11
-46.6561933815
21
8.1884816791
31
0.0000000000
11
-46.7154030696
21
4.0944311229
31
0.0000000000
11
-46.7351402438
21
0.0000000775
31
0.0000000000
11
-46.7154030710
21
-4.0944309681
31
0.0000000000
11
-46.6561933845
21
-8.1884815245
31
0.0000000000
11
-46.5575166846
21
-12.2817710892
31
0.0000000000
11
-46.4193821530
21
-16.3739188688
31
0.0000000000
0
SPLINE
5
2AC
100
AcDbEntity
8
0
100
AcDbSpline
62
0
6
CONTINUOUS
70
0
71
3
72
23
73
19
74
17
42
0.0000001000
43
0.0000001000
44
0.0000000001
12
-0.9356689586
22
-0.1649926386
32
0.0000000000
13
-0.0366402594
23
-0.9493979473
33
0.0000000000
40
0.0000000000
40
0.0000000000
40
0.0000000000
40
0.0000000000
40
0.0624881003
40
0.1249924520
40
0.1874975778
40
0.2500019767
40
0.3125060978
40
0.3750102009
40
0.4375138270
40
0.5000167185
40
0.5625190408
40
0.6250210080
40
0.6875225438
40
0.7500232782
40
0.8125235530
40
0.8750239345
40
0.9375230233
40
1.0000000000
40
1.0000000000
40
1.0000000000
40
1.0000000000
10
-45.8414563169
20
17.0362964381
30
0.0000000000
10
-45.8609457088
20
17.0328597459
30
0.0000000000
10
-45.8996580608
20
17.0243273824
30
0.0000000000
10
-45.9564195483
20
17.0066560715
30
0.0000000000
10
-46.0114880946
20
16.9842344516
30
0.0000000000
10
-46.0644567371
20
16.9572260810
30
0.0000000000
10
-46.1149455771
20
16.9258253994
30
0.0000000000
10
-46.1625909217
20
16.8902584380
30
0.0000000000
10
-46.2070498980
20
16.8507813203
30
0.0000000000
10
-46.2480024564
20
16.8076783801
30
0.0000000000
10
-46.2851540046
20
16.7612599003
30
0.0000000000
10
-46.3182373185
20
16.7118599361
30
0.0000000000
10
-46.3470143655
20
16.6598341592
30
0.0000000000
10
-46.3712781329
20
16.6055569597
30
0.0000000000
10
-46.3908542497
20
16.5494192562
30
0.0000000000
10
-46.4056017369
20
16.4918236738
30
0.0000000000
10
-46.4154137329
20
16.4331971534
30
0.0000000000
10
-46.4186190955
20
16.3936907066
30
0.0000000000
10
-46.4193821530
20
16.3739188688
30
0.0000000000
11
-45.8414563169
21
17.0362964381
31
0.0000000000
11
-45.8994347950
21
17.0235167151
31
0.0000000000
11
-45.9561363378
21
17.0058646906
31
0.0000000000
11
-46.0111383301
21
16.9834698901
31
0.0000000000
11
-46.0640435611
21
16.9564939608
31
0.0000000000
11
-46.1144716994
21
16.9251309929
31
0.0000000000
11
-46.1620600268
21
16.8896066076
31
0.0000000000
11
-46.2064657298
21
16.8501767893
31
0.0000000000
11
-46.2473691315
21
16.8071255888
31
0.0000000000
11
-46.2844760746
21
16.7607628379
31
0.0000000000
11
-46.3175197213
21
16.7114221119
31
0.0000000000
11
-46.3462623054
21
16.6594586149
31
0.0000000000
11
-46.3704969359
21
16.6052466845
31
0.0000000000
11
-46.3900494916
21
16.5491762250
31
0.0000000000
11
-46.4047794453
21
16.4916502363
31
0.0000000000
11
-46.4145807107
21
16.4330840325
31
0.0000000000
11
-46.4193821530
21
16.3739188688
31
0.0000000000
0
SPLINE
5
2AD
100
AcDbEntity
8
0
100
AcDbSpline
62
0
6
CONTINUOUS
70
0
71
3
72
19
73
15
74
13
42
0.0000001000
43
0.0000001000
44
0.0000000001
12
-0.0519449960
22
0.2946844677
32
0.0000000000
13
0.2946817616
23
0.0519603453
33
0.0000000000
40
0.0000000000
40
0.0000000000
40
0.0000000000
40
0.0000000000
40
0.1205931975
40
0.2393910481
40
0.3546684299
40
0.4647514115
40
0.5680416061
40
0.6630394467
40
0.7483660647
40
0.8227834963
40
0.8852130280
40
0.9347517331
40
0.9706881496
40
1.0000000000
40
1.0000000000
40
1.0000000000
40
1.0000000000
10
-45.8414563169
20
17.0362964381
30
0.0000000000
10
-45.8435443879
20
17.0481420855
30
0.0000000000
10
-45.8476652062
20
17.0716612851
30
0.0000000000
10
-45.8536976038
20
17.1065188159
30
0.0000000000
10
-45.8594769094
20
17.1403557398
30
0.0000000000
10
-45.8649210355
20
17.1726821403
30
0.0000000000
10
-45.8699452292
20
17.2030228850
30
0.0000000000
10
-45.8744965205
20
17.2309556251
30
0.0000000000
10
-45.8784460870
20
17.2560151691
30
0.0000000000
10
-45.8819337925
20
17.2780213903
30
0.0000000000
10
-45.8843330714
20
17.2961125545
30
0.0000000000
10
-45.8872019503
20
17.3115156212
30
0.0000000000
10
-45.8865266496
20
17.3209266482
30
0.0000000000
10
-45.8911942708
20
17.3312310794
30
0.0000000000
10
-45.8883150483
20
17.3317387640
30
0.0000000000
11
-45.8414563169
21
17.0362964381
31
0.0000000000
11
-45.8476836453
21
17.0718398623
31
0.0000000000
11
-45.8537444604
21
17.1068669797
31
0.0000000000
11
-45.8595507221
21
17.1408689826
31
0.0000000000
11
-45.8650180881
21
17.1733519544
31
0.0000000000
11
-45.8700671387
21
17.2038440438
31
0.0000000000
11
-45.8746245308
21
17.2319023195
31
0.0000000000
11
-45.8786240635
21
17.2571192037
31
0.0000000000
11
-45.8820076388
21
17.2791283933
31
0.0000000000
11
-45.8847261067
21
17.2976101801
31
0.0000000000
11
-45.8867399783
21
17.3122960955
31
0.0000000000
11
-45.8880199999
21
17.3229728103
31
0.0000000000
11
-45.8883150483
21
17.3317387640
31
0.0000000000
0
SPLINE
5
2AE
100
AcDbEntity
8
0
100
AcDbSpline
62
0
6
CONTINUOUS
70
0
71
3
72
19
73
15
74
13
42
0.0000001000
43
0.0000001000
44
0.0000000001
12
-0.0519449959
22
-0.2946844677
32
0.0000000000
13
0.2946817616
23
-0.0519603453
33
0.0000000000
40
0.0000000000
40
0.0000000000
40
0.0000000000
40
0.0000000000
40
0.1205932086
40
0.2393910680
40
0.3546684557
40
0.4647514404
40
0.5680416354
40
0.6630394739
40
0.7483660881
40
0.8227835147
40
0.8852130410
40
0.9347517410
40
0.9706881533
40
1.0000000000
40
1.0000000000
40
1.0000000000
40
1.0000000000
10
-45.8414563169
20
-17.0362964381
30
0.0000000000
10
-45.8435443881
20
-17.0481420866
30
0.0000000000
10
-45.8476652067
20
-17.0716612881
30
0.0000000000
10
-45.8536976047
20
-17.1065188215
30
0.0000000000
10
-45.8594769106
20
-17.1403557472
30
0.0000000000
10
-45.8649210368
20
-17.1726821486
30
0.0000000000
10
-45.8699452305
20
-17.2030228934
30
0.0000000000
10
-45.8744965217
20
-17.2309556329
30
0.0000000000
10
-45.8784460880
20
-17.2560151759
30
0.0000000000
10
-45.8819337932
20
-17.2780213958
30
0.0000000000
10
-45.8843330719
20
-17.2961125584
30
0.0000000000
10
-45.8872019505
20
-17.3115156235
30
0.0000000000
10
-45.8865266498
20
-17.3209266495
30
0.0000000000
10
-45.8911942705
20
-17.3312310794
30
0.0000000000
10
-45.8883150483
20
-17.3317387640
30
0.0000000000
11
-45.8414563169
21
-17.0362964381
31
0.0000000000
11
-45.8476836459
21
-17.0718398656
31
0.0000000000
11
-45.8537444614
21
-17.1068669856
31
0.0000000000
11
-45.8595507234
21
-17.1408689903
31
0.0000000000
11
-45.8650180894
21
-17.1733519629
31
0.0000000000
11
-45.8700671400
21
-17.2038440525
31
0.0000000000
11
-45.8746245321
21
-17.2319023275
31
0.0000000000
11
-45.8786240645
21
-17.2571192107
31
0.0000000000
11
-45.8820076396
21
-17.2791283988
31
0.0000000000
11
-45.8847261072
21
-17.2976101839
31
0.0000000000
11
-45.8867399786
21
-17.3122960979
31
0.0000000000
11
-45.8880200000
21
-17.3229728114
31
0.0000000000
11
-45.8883150483
21
-17.3317387640
31
0.0000000000
0
SPLINE
5
2AF
100
AcDbEntity
8
0
100
AcDbSpline
62
0
6
CONTINUOUS
70
0
71
3
72
23
73
19
74
17
42
0.0000001000
43
0.0000001000
44
0.0000000001
12
0.0366392354
22
-0.9493979868
32
0.0000000000
13
0.9356687809
23
-0.1649936465
33
0.0000000000
40
0.0000000000
40
0.0000000000
40
0.0000000000
40
0.0000000000
40
0.0624826220
40
0.1249819079
40
0.1874825042
40
0.2499830087
40
0.3124839648
40
0.3749857340
40
0.4374879373
40
0.4999903519
40
0.5624931524
40
0.6249965435
40
0.6875004141
40
0.7500043149
40
0.8125084854
40
0.8750133966
40
0.9375175502
40
1.0000000000
40
1.0000000000
40
1.0000000000
40
1.0000000000
10
-46.4193821530
20
-16.3739188688
30
0.0000000000
10
-46.4186190478
20
-16.3936924940
30
0.0000000000
10
-46.4154133399
20
-16.4332007836
30
0.0000000000
10
-46.4056006169
20
-16.4918291270
30
0.0000000000
10
-46.3908525861
20
-16.5494247825
30
0.0000000000
10
-46.3712759401
20
-16.6055625246
30
0.0000000000
10
-46.3470116062
20
-16.6598397099
30
0.0000000000
10
-46.3182339854
20
-16.7118654202
30
0.0000000000
10
-46.2851501100
20
-16.7612652235
30
0.0000000000
10
-46.2479980707
20
-16.8076834068
30
0.0000000000
10
-46.2070451512
20
-16.8507859016
30
0.0000000000
10
-46.1625859384
20
-16.8902624852
30
0.0000000000
10
-46.1149404491
20
-16.9258288877
30
0.0000000000
10
-46.0644515170
20
-16.9572290102
30
0.0000000000
10
-46.0114828400
20
-16.9842368512
30
0.0000000000
10
-45.9564142921
20
-17.0066579222
30
0.0000000000
10
-45.8996545138
20
-17.0243282647
30
0.0000000000
10
-45.8609439428
20
-17.0328600357
30
0.0000000000
10
-45.8414563169
20
-17.0362964381
30
0.0000000000
11
-46.4193821530
21
-16.3739188688
31
0.0000000000
11
-46.4145800469
21
-16.4330893599
31
0.0000000000
11
-46.4047783099
21
-16.4916556747
31
0.0000000000
11
-46.3900478322
21
-16.5491817398
31
0.0000000000
11
-46.3704947364
21
-16.6052522420
31
0.0000000000
11
-46.3462595468
21
-16.6594641533
31
0.0000000000
11
-46.3175163869
21
-16.7114275852
31
0.0000000000
11
-46.2844721544
21
-16.7607681888
31
0.0000000000
11
-46.2473647129
21
-16.8071306533
31
0.0000000000
11
-46.2064609589
21
-16.8501813997
31
0.0000000000
11
-46.1620550544
21
-16.8896106547
31
0.0000000000
11
-46.1144665836
21
-16.9251344788
31
0.0000000000
11
-46.0640383492
21
-16.9564968957
31
0.0000000000
11
-46.0111330861
21
-16.9834722843
31
0.0000000000
11
-45.9561310980
21
-17.0058665547
31
0.0000000000
11
-45.8994296021
21
-17.0235180962
31
0.0000000000
11
-45.8414563169
21
-17.0362964381
31
0.0000000000
0
SPLINE
5
2B0
100
AcDbEntity
8
CURVE
100
AcDbSpline
6
CONTINUOUS
70
0
71
3
72
8
73
4
74
2
42
0.0000001000
43
0.0000001000
44
0.0000000001
12
-0.0075060661
22
-0.2822079903
32
0.1580364746
13
-0.0073186067
23
-0.2822129140
33
0.1580392318
40
0.0000000000
40
0.0000000000
40
0.0000000000
40
0.0000000000
40
1.0000000000
40
1.0000000000
40
1.0000000000
40
1.0000000000
10
-46.8796544335
20
11.3000000000
30
0.5799999332
10
-46.8821564555
20
11.2059306699
30
0.6326787581
10
-46.8846272346
20
11.1118605088
30
0.6853580483
10
-46.8870667702
20
11.0177895375
30
0.7380377923
11
-46.8796544335
21
11.3000000000
31
0.5799999332
11
-46.8870667702
21
11.0177895375
31
0.7380377923
0
SPLINE
5
2B1
100
AcDbEntity
8
CURVE
100
AcDbSpline
6
CONTINUOUS
70
0
71
3
72
8
73
4
74
2
42
0.0000001000
43
0.0000001000
44
0.0000000001
12
-0.0046353815
22
-0.1787450232
32
0.1000972130
13
-0.0045601799
23
-0.1787469576
33
0.1000982962
40
0.0000000000
40
0.0000000000
40
0.0000000000
40
0.0000000000
40
1.0000000000
40
1.0000000000
40
1.0000000000
40
1.0000000000
10
-46.8870667702
20
11.0177895375
30
0.7380377923
10
-46.8886118973
20
10.9582078631
30
0.7714035299
10
-46.8901444910
20
10.8986258636
30
0.8047694496
10
-46.8916645509
20
10.8390435445
30
0.8381355483
11
-46.8870667702
21
11.0177895375
31
0.7380377923
11
-46.8916645509
21
10.8390435445
31
0.8381355483
0
SPLINE
5
2B2
100
AcDbEntity
8
CURVE
100
AcDbSpline
6
CONTINUOUS
70
0
71
3
72
8
73
4
74
2
42
0.0000001000
43
0.0000001000
44
0.0000000001
12
-0.0303808283
22
-1.1908478946
32
0.6668748210
13
-0.0270428777
23
-1.1909283713
33
0.6669198879
40
0.0000000000
40
0.0000000000
40
0.0000000000
40
0.0000000000
40
1.0000000000
40
1.0000000000
40
1.0000000000
40
1.0000000000
10
-46.8916645509
20
10.8390435445
30
0.8381355483
10
-46.9017914937
20
10.4420942463
30
1.0604271553
10
-46.9113621302
20
10.0451307556
30
1.2827267101
10
-46.9203764228
20
9.6481546318
30
1.5050333394
11
-46.8916645509
21
10.8390435445
31
0.8381355483
11
-46.9203764228
21
9.6481546318
31
1.5050333394
0
SPLINE
5
2B3
100
AcDbEntity
8
CURVE
100
AcDbSpline
6
CONTINUOUS
70
0
71
3
72
8
73
4
74
2
42
0.0000001000
43
0.0000001000
44
0.0000000001
12
-0.0040720403
22
-0.1793266353
32
0.1004229157
13
-0.0039963544
23
-0.1793283379
33
0.1004238692
40
0.0000000000
40
0.0000000000
40
0.0000000000
40
0.0000000000
40
1.0000000000
40
1.0000000000
40
1.0000000000
40
1.0000000000
10
-46.9203764228
20
9.6481546318
30
1.5050333394
10
-46.9217337695
20
9.5883790868
30
1.5385076447
10
-46.9230785020
20
9.5286032552
30
1.5719821103
10
-46.9244106202
20
9.4688271426
30
1.6054567334
11
-46.9203764228
21
9.6481546318
31
1.5050333394
11
-46.9244106202
21
9.4688271426
31
1.6054567334
0
SPLINE
5
2B4
100
AcDbEntity
8
CURVE
100
AcDbSpline
6
CONTINUOUS
70
0
71
3
72
8
73
4
74
2
42
0.0000001000
43
0.0000001000
44
0.0000000001
12
-0.0265551999
22
-1.1916109970
32
0.6673021583
13
-0.0232132427
23
-1.1916807845
33
0.6673412393
40
0.0000000000
40
0.0000000000
40
0.0000000000
40
0.0000000000
40
1.0000000000
40
1.0000000000
40
1.0000000000
40
1.0000000000
10
-46.9244106202
20
9.4688271426
30
1.6054567334
10
-46.9332623535
20
9.0716234769
30
1.8278907862
10
-46.9415571102
20
8.6744073990
30
2.0503317898
10
-46.9492948578
20
8.2771804708
30
2.2727788696
11
-46.9244106202
21
9.4688271426
31
1.6054567334
11
-46.9492948578
21
8.2771804708
31
2.2727788696
0
SPLINE
5
2B5
100
AcDbEntity
8
CURVE
100
AcDbSpline
6
CONTINUOUS
70
0
71
3
72
8
73
4
74
2
42
0.0000001000
43
0.0000001000
44
0.0000000001
12
-0.0034540551
22
-0.1773182302
32
0.0992982089
13
-0.0033800602
23
-0.1773196562
33
0.0992990075
40
0.0000000000
40
0.0000000000
40
0.0000000000
40
0.0000000000
40
1.0000000000
40
1.0000000000
40
1.0000000000
40
1.0000000000
10
-46.9492948578
20
8.2771804708
30
2.2727788696
10
-46.9504462095
20
8.2180743941
30
2.3058782726
10
-46.9515852287
20
8.1589680771
30
2.3389778101
10
-46.9527119154
20
8.0998615250
30
2.3720774792
11
-46.9492948578
21
8.2771804708
31
2.2727788696
11
-46.9527119154
21
8.0998615250
31
2.3720774792
0
SPLINE
5
2B6
100
AcDbEntity
8
CURVE
100
AcDbSpline
6
CONTINUOUS
70
0
71
3
72
8
73
4
74
2
42
0.0000001000
43
0.0000001000
44
0.0000000001
12
-0.0057159104
22
-0.2998595331
32
0.1679213385
13
-0.0055043041
23
-0.2998634920
33
0.1679235555
40
0.0000000000
40
0.0000000000
40
0.0000000000
40
0.0000000000
40
1.0000000000
40
1.0000000000
40
1.0000000000
40
1.0000000000
10
-46.9527119154
20
8.0998615250
30
2.3720774792
10
-46.9546172189
20
7.9999083473
30
2.4280512587
10
-46.9564872549
20
7.8999544973
30
2.4840254147
10
-46.9583220229
20
7.8000000000
30
2.5399999332
11
-46.9527119154
21
8.0998615250
31
2.3720774792
11
-46.9583220229
21
7.8000000000
31
2.5399999332
0
SPLINE
5
2B7
100
AcDbEntity
8
CURVE
100
AcDbSpline
6
CONTINUOUS
70
0
71
3
72
8
73
4
74
2
42
0.0000001000
43
0.0000001000
44
0.0000000001
12
-0.0020580581
22
-0.1053623932
32
-0.1180058681
13
-0.0020319325
23
-0.1053629003
33
-0.1180064360
40
0.0000000000
40
0.0000000000
40
0.0000000000
40
0.0000000000
40
1.0000000000
40
1.0000000000
40
1.0000000000
40
1.0000000000
10
-46.9488497333
20
8.3000000224
30
-0.5400000000
10
-46.9495357527
20
8.2648792246
30
-0.5793352894
10
-46.9502174178
20
8.2297583418
30
-0.6186706740
10
-46.9508947286
20
8.1946373750
30
-0.6580061527
11
-46.9488497333
21
8.3000000224
31
-0.5400000000
11
-46.9508947286
21
8.1946373750
31
-0.6580061527
0
SPLINE
5
2B8
100
AcDbEntity
8
CURVE
100
AcDbSpline
6
CONTINUOUS
70
0
71
3
72
8
73
4
74
2
42
0.0000001000
43
0.0000001000
44
0.0000000001
12
-0.0076105482
22
-0.3946338977
32
-0.4419899193
13
-0.0072440394
23
-0.3946407956
33
-0.4419976450
40
0.0000000000
40
0.0000000000
40
0.0000000000
40
0.0000000000
40
1.0000000000
40
1.0000000000
40
1.0000000000
40
1.0000000000
10
-46.9508947286
20
8.1946373750
30
-0.6580061527
10
-46.9534315780
20
8.0630927425
30
-0.8053361258
10
-46.9559073431
20
7.9315469319
30
-0.9526674183
10
-46.9583220229
20
7.8000000000
30
-1.0999999666
11
-46.9508947286
21
8.1946373750
31
-0.6580061527
11
-46.9583220229
21
7.8000000000
31
-1.0999999666
0
SPLINE
5
2B9
100
AcDbEntity
8
CURVE
100
AcDbSpline
6
CONTINUOUS
70
0
71
3
72
8
73
4
74
2
42
0.0000001000
43
0.0000001000
44
0.0000000001
12
-0.0099316527
22
-0.3734035532
32
0.4182119795
13
-0.0096034618
23
-0.3734121379
33
0.4182215945
40
0.0000000000
40
0.0000000000
40
0.0000000000
40
0.0000000000
40
1.0000000000
40
1.0000000000
40
1.0000000000
40
1.0000000000
10
-46.8796544335
20
11.3000000000
30
-1.0999999666
10
-46.8829649844
20
11.1755321489
30
-0.9605959734
10
-46.8862208374
20
11.0510628431
30
-0.8211903509
10
-46.8894219913
20
10.9265921304
30
-0.6817831527
11
-46.8796544335
21
11.3000000000
31
-1.0999999666
11
-46.8894219913
21
10.9265921304
31
-0.6817831527
0
SPLINE
5
2BA
100
AcDbEntity
8
CURVE
100
AcDbSpline
6
CONTINUOUS
70
0
71
3
72
8
73
4
74
2
42
0.0000001000
43
0.0000001000
44
0.0000000001
12
-0.0032556996
22
-0.1265916175
32
0.1417826115
13
-0.0032179801
23
-0.1265925819
33
0.1417836917
40
0.0000000000
40
0.0000000000
40
0.0000000000
40
0.0000000000
40
1.0000000000
40
1.0000000000
40
1.0000000000
40
1.0000000000
10
-46.8894219913
20
10.9265921304
30
-0.6817831527
10
-46.8905072245
20
10.8843949246
30
-0.6345222822
10
-46.8915861712
20
10.8421975571
30
-0.5872612306
10
-46.8926588312
20
10.8000000298
30
-0.5400000000
11
-46.8894219913
21
10.9265921304
31
-0.6817831527
11
-46.8926588312
21
10.8000000298
31
-0.5400000000
0
SPLINE
5
2BB
100
AcDbEntity
8
CURVE
100
AcDbSpline
6
CONTINUOUS
70
0
71
3
72
8
73
4
74
2
42
0.0000001000
43
0.0000001000
44
0.0000000001
12
0.0032179801
22
0.1265925819
32
0.1417837065
13
0.0032556996
23
0.1265916175
33
0.1417826263
40
0.0000000000
40
0.0000000000
40
0.0000000000
40
0.0000000000
40
1.0000000000
40
1.0000000000
40
1.0000000000
40
1.0000000000
10
-46.8926588312
20
10.8000000298
30
-2.5000000000
10
-46.8915861712
20
10.8421975571
30
-2.4527387645
10
-46.8905072245
20
10.8843949246
30
-2.4054777080
10
-46.8894219913
20
10.9265921304
30
-2.3582168325
11
-46.8926588312
21
10.8000000298
31
-2.5000000000
11
-46.8894219913
21
10.9265921304
31
-2.3582168325
0
SPLINE
5
2BC
100
AcDbEntity
8
CURVE
100
AcDbSpline
6
CONTINUOUS
70
0
71
3
72
8
73
4
74
2
42
0.0000001000
43
0.0000001000
44
0.0000000001
12
0.0096034618
22
0.3734121379
32
0.4182216381
13
0.0099316527
23
0.3734035532
33
0.4182120232
40
0.0000000000
40
0.0000000000
40
0.0000000000
40
0.0000000000
40
1.0000000000
40
1.0000000000
40
1.0000000000
40
1.0000000000
10
-46.8894219913
20
10.9265921304
30
-2.3582168325
10
-46.8862208374
20
11.0510628431
30
-2.2188096198
10
-46.8829649844
20
11.1755321489
30
-2.0794039827
10
-46.8796544335
20
11.3000000000
30
-1.9399999750
11
-46.8894219913
21
10.9265921304
31
-2.3582168325
11
-46.8796544335
21
11.3000000000
31
-1.9399999750
0
SPLINE
5
2BD
100
AcDbEntity
8
CURVE
100
AcDbSpline
6
CONTINUOUS
70
0
71
3
72
8
73
4
74
2
42
0.0000001000
43
0.0000001000
44
0.0000000001
12
0.0072440394
22
0.3946407956
32
-0.4419976911
13
0.0076105482
23
0.3946338977
33
-0.4419899654
40
0.0000000000
40
0.0000000000
40
0.0000000000
40
0.0000000000
40
1.0000000000
40
1.0000000000
40
1.0000000000
40
1.0000000000
10
-46.9583220229
20
7.8000000000
30
-1.9399999750
10
-46.9559073431
20
7.9315469319
30
-2.0873325387
10
-46.9534315780
20
8.0630927425
30
-2.2346638465
10
-46.9508947286
20
8.1946373750
30
-2.3819938350
11
-46.9583220229
21
7.8000000000
31
-1.9399999750
11
-46.9508947286
21
8.1946373750
31
-2.3819938350
0
SPLINE
5
2BE
100
AcDbEntity
8
CURVE
100
AcDbSpline
6
CONTINUOUS
70
0
71
3
72
8
73
4
74
2
42
0.0000001000
43
0.0000001000
44
0.0000000001
12
0.0020319325
22
0.1053629003
32
-0.1180064484
13
0.0020580581
23
0.1053623932
33
-0.1180058804
40
0.0000000000
40
0.0000000000
40
0.0000000000
40
0.0000000000
40
1.0000000000
40
1.0000000000
40
1.0000000000
40
1.0000000000
10
-46.9508947286
20
8.1946373750
30
-2.3819938350
10
-46.9502174178
20
8.2297583418
30
-2.4213293178
10
-46.9495357527
20
8.2648792246
30
-2.4606647065
10
-46.9488497333
20
8.3000000224
30
-2.5000000000
11
-46.9508947286
21
8.1946373750
31
-2.3819938350
11
-46.9488497333
21
8.3000000224
31
-2.5000000000
0
SPLINE
5
2BF
100
AcDbEntity
8
CURVE
100
AcDbSpline
6
CONTINUOUS
70
0
71
3
72
8
73
4
74
2
42
0.0000001000
43
0.0000001000
44
0.0000000001
12
0.0031477734
22
-0.1238307120
32
-0.1386903829
13
0.0031838651
23
-0.1238297893
33
-0.1386893495
40
0.0000000000
40
0.0000000000
40
0.0000000000
40
0.0000000000
40
1.0000000000
40
1.0000000000
40
1.0000000000
40
1.0000000000
10
-46.8926588325
20
-10.7999999776
30
-1.8400000000
10
-46.8916095747
20
-10.8412768816
30
-1.8862301276
10
-46.8905543016
20
-10.8825536327
30
-1.9324600840
10
-46.8894930133
20
-10.9238302291
30
-1.9786898672
11
-46.8926588325
21
-10.7999999776
31
-1.8400000000
11
-46.8894930133
21
-10.9238302291
31
-1.9786898672
0
SPLINE
5
2C0
100
AcDbEntity
8
CURVE
100
AcDbSpline
6
CONTINUOUS
70
0
71
3
72
8
73
4
74
2
42
0.0000001000
43
0.0000001000
44
0.0000000001
12
0.0096720473
22
-0.3761741019
32
-0.4213149502
13
0.0100051110
23
-0.3761653907
33
-0.4213051937
40
0.0000000000
40
0.0000000000
40
0.0000000000
40
0.0000000000
40
1.0000000000
40
1.0000000000
40
1.0000000000
40
1.0000000000
10
-46.8894930133
20
-10.9238302291
30
-1.9786898672
10
-46.8862689975
20
-11.0492215964
30
-2.1191281839
10
-46.8829894705
20
-11.1746115364
30
-2.2595649021
10
-46.8796544335
20
-11.3000000000
30
-2.3999999666
11
-46.8894930133
21
-10.9238302291
31
-1.9786898672
11
-46.8796544335
21
-11.3000000000
31
-2.3999999666
0
SPLINE
5
2C1
100
AcDbEntity
8
CURVE
100
AcDbSpline
6
CONTINUOUS
70
0
71
3
72
8
73
4
74
2
42
0.0000001000
43
0.0000001000
44
0.0000000001
12
0.0072294431
22
-0.3938456153
32
0.4411070892
13
0.0075944764
23
-0.3938387455
33
0.4410993950
40
0.0000000000
40
0.0000000000
40
0.0000000000
40
0.0000000000
40
1.0000000000
40
1.0000000000
40
1.0000000000
40
1.0000000000
10
-46.9583220229
20
-7.8000000000
30
-2.3999999666
10
-46.9559122086
20
-7.9312818718
30
-2.2529642702
10
-46.9534415548
20
-8.0625626268
30
-2.1059298246
10
-46.9509100627
20
-8.1938422086
30
-1.9588966930
11
-46.9583220229
21
-7.8000000000
31
-2.3999999666
11
-46.9509100627
21
-8.1938422086
31
-1.9588966930
0
SPLINE
5
2C2
100
AcDbEntity
8
CURVE
100
AcDbSpline
6
CONTINUOUS
70
0
71
3
72
8
73
4
74
2
42
0.0000001000
43
0.0000001000
44
0.0000000001
12
0.0020470677
22
-0.1061580184
32
0.1188969806
13
0.0020735891
23
-0.1061575036
33
0.1188964041
40
0.0000000000
40
0.0000000000
40
0.0000000000
40
0.0000000000
40
1.0000000000
40
1.0000000000
40
1.0000000000
40
1.0000000000
10
-46.9509100627
20
-8.1938422086
30
-1.9588966930
10
-46.9502277068
20
-8.2292282148
30
-1.9192643661
10
-46.9495409307
20
-8.2646141356
30
-1.8796321347
10
-46.9488497343
20
-8.2999999702
30
-1.8400000000
11
-46.9509100627
21
-8.1938422086
31
-1.9588966930
11
-46.9488497343
21
-8.2999999702
31
-1.8400000000
0
SPLINE
5
2C3
100
AcDbEntity
8
CURVE
100
AcDbSpline
6
CONTINUOUS
70
0
71
3
72
8
73
4
74
2
42
0.0000001000
43
0.0000001000
44
0.0000000001
12
-0.0020735891
22
0.1061575036
32
0.1188964165
13
-0.0020470677
23
0.1061580184
33
0.1188969930
40
0.0000000000
40
0.0000000000
40
0.0000000000
40
0.0000000000
40
1.0000000000
40
1.0000000000
40
1.0000000000
40
1.0000000000
10
-46.9488497343
20
-8.2999999702
30
-3.8000000000
10
-46.9495409307
20
-8.2646141356
30
-3.7603678612
10
-46.9502277068
20
-8.2292282148
30
-3.7207356256
10
-46.9509100627
20
-8.1938422086
30
-3.6811032946
11
-46.9488497343
21
-8.2999999702
31
-3.8000000000
11
-46.9509100627
21
-8.1938422086
31
-3.6811032946
0
SPLINE
5
2C4
100
AcDbEntity
8
CURVE
100
AcDbSpline
6
CONTINUOUS
70
0
71
3
72
8
73
4
74
2
42
0.0000001000
43
0.0000001000
44
0.0000000001
12
-0.0075944764
22
0.3938387455
32
0.4410994410
13
-0.0072294431
23
0.3938456153
33
0.4411071352
40
0.0000000000
40
0.0000000000
40
0.0000000000
40
0.0000000000
40
1.0000000000
40
1.0000000000
40
1.0000000000
40
1.0000000000
10
-46.9509100627
20
-8.1938422086
30
-3.6811032946
10
-46.9534415548
20
-8.0625626268
30
-3.5340701476
10
-46.9559122086
20
-7.9312818718
30
-3.3870356867
10
-46.9583220229
20
-7.8000000000
30
-3.2399999750
11
-46.9509100627
21
-8.1938422086
31
-3.6811032946
11
-46.9583220229
21
-7.8000000000
31
-3.2399999750
0
SPLINE
5
2C5
100
AcDbEntity
8
CURVE
100
AcDbSpline
6
CONTINUOUS
70
0
71
3
72
8
73
4
74
2
42
0.0000001000
43
0.0000001000
44
0.0000000001
12
-0.0100051110
22
0.3761653907
32
-0.4213052376
13
-0.0096720473
23
0.3761741019
33
-0.4213149941
40
0.0000000000
40
0.0000000000
40
0.0000000000
40
0.0000000000
40
1.0000000000
40
1.0000000000
40
1.0000000000
40
1.0000000000
10
-46.8796544335
20
-11.3000000000
30
-3.2399999750
10
-46.8829894705
20
-11.1746115364
30
-3.3804350542
10
-46.8862689975
20
-11.0492215964
30
-3.5208717870
10
-46.8894930133
20
-10.9238302291
30
-3.6613101183
11
-46.8796544335
21
-11.3000000000
31
-3.2399999750
11
-46.8894930133
21
-10.9238302291
31
-3.6613101183
0
SPLINE
5
2C6
100
AcDbEntity
8
CURVE
100
AcDbSpline
6
CONTINUOUS
70
0
71
3
72
8
73
4
74
2
42
0.0000001000
43
0.0000001000
44
0.0000000001
12
-0.0031838651
22
0.1238297893
32
-0.1386893640
13
-0.0031477734
23
0.1238307120
33
-0.1386903974
40
0.0000000000
40
0.0000000000
40
0.0000000000
40
0.0000000000
40
1.0000000000
40
1.0000000000
40
1.0000000000
40
1.0000000000
10
-46.8894930133
20
-10.9238302291
30
-3.6613101183
10
-46.8905543016
20
-10.8825536327
30
-3.7075399063
10
-46.8916095747
20
-10.8412768816
30
-3.7537698675
10
-46.8926588325
20
-10.7999999776
30
-3.8000000000
11
-46.8894930133
21
-10.9238302291
31
-3.6613101183
11
-46.8926588325
21
-10.7999999776
31
-3.8000000000
0
ENDSEC
0
SECTION
2
OBJECTS
0
DICTIONARY
5
C
100
AcDbDictionary
280
0
281
1
3
ACAD_GROUP
350
D
3
ACAD_MLINESTYLE
350
17
3
ACAD_LAYOUT
350
1A
3
ACAD_PLOTSETTINGS
350
19
3
ACAD_PLOTSTYLENAME
350
E
0
DICTIONARY
5
D
102
{ACAD_REACTORS
330
C
102
}
100
AcDbDictionary
280
0
281
1
0
ACDBDICTIONARYWDFLT
5
E
102
{ACAD_REACTORS
330
C
102
}
100
AcDbDictionary
281
1
3
Normal
350
F
100
AcDbDictionaryWithDefault
340
F
0
DICTIONARY
5
17
102
{ACAD_REACTORS
330
C
102
}
100
AcDbDictionary
280
0
281
1
3
Standard
350
18
0
DICTIONARY
5
19
102
{ACAD_REACTORS
330
C
102
}
100
AcDbDictionary
281
1
0
DICTIONARY
5
1A
102
{ACAD_REACTORS
330
C
102
}
100
AcDbDictionary
281
1
3
Layout1
350
1E
3
Model
350
22
0
ACDBPLACEHOLDER
5
F
102
{ACAD_REACTORS
330
E
102
}
0
MLINESTYLE
5
18
102
{ACAD_REACTORS
330
17
102
}
100
AcDbMlineStyle
2
STANDARD
70
0
3

62
256
51
90.0
52
90.0
71
2
49
0.5
62
256
6
BYLAYER
49
-0.5
62
256
6
BYLAYER
0
LAYOUT
5
1E
102
{ACAD_REACTORS
330
1A
102
}
100
AcDbPlotSettings
1

2

4

6

40
0.0
41
0.0
42
0.0
43
0.0
44
0.0
45
0.0
46
0.0
47
0.0
48
0.0
49
0.0
140
0.0
141
0.0
142
1.0
143
1.0
70
0
72
0
73
0
74
0
7

75
0
147
1.0
148
0.0
149
0.0
100
AcDbLayout
1
Layout1
70
0
71
0
10
0.0
20
0.0
11
0.0
21
0.0
12
0.0
22
0.0
32
0.0
14
0.0
24
0.0
34
0.0
15
0.0
25
0.0
35
0.0
146
0.0
13
0.0
23
0.0
33
0.0
16
0.0
26
0.0
36
0.0
17
0.0
27
0.0
37
0.0
76
0
330
1B
331
0
345
0
346
0
0
LAYOUT
5
22
102
{ACAD_REACTORS
330
1A
102
}
100
AcDbPlotSettings
1

2

4

6

40
0.0
41
0.0
42
0.0
43
0.0
44
0.0
45
0.0
46
0.0
47
0.0
48
0.0
49
0.0
140
0.0
141
0.0
142
1.0
143
1.0
70
0
72
0
73
0
74
0
7

75
0
147
1.0
148
0.0
149
0.0
100
AcDbLayout
1
Model
70
0
71
0
10
0.0
20
0.0
11
0.0
21
0.0
12
0.0
22
0.0
32
0.0
14
0.0
24
0.0
34
0.0
15
0.0
25
0.0
35
0.0
146
0.0
13
0.0
23
0.0
33
0.0
16
0.0
26
0.0
36
0.0
17
0.0
27
0.0
37
0.0
76
0
330
1F
331
0
345
0
346
0
0
ENDSEC
0
EOF
