0
SECTION
2
HEADER
9
$ACADVER
1
AC1015
9
$DWGCODEPAGE
3
ANSI_1252
9
$EXTMAX
10
558.8000000000
20
431.8000000000
30
0.0000000000
9
$EXTMIN
10
0.0000000000
20
0.0000000000
30
0.0000000000
9
$LIMMIN
10
0.0000000000
20
0.0000000000
9
$LIMMAX
10
558.8000000000
20
431.8000000000
9
$VIEWCTR
10
279.4000000000
20
215.9000000000
9
$VIEWSIZE
40
431.8000000000
9
$CLAYER
8
0
9
$LTSCALE
40
30.7340000000
9
$CELTYPE
6
BYLAYER
9
$DIMSCALE
40
1
9
$DIMASZ
40
3.0000000000
9
$DIMEXO
40
3.4925000000
9
$DIMDLI
40
21.2344000000
9
$DIMEXE
40
10.0584000000
9
$DIMCEN
40
5.0292000000
9
$DIMLFAC
40
1.0000000000
9
$DIMBLK
1
_FILLED
9
$DIMTXT
40
3.0000000000
9
$DIMTOL
70
1
9
$DIMLIM
70
0
9
$DIMTFAC
40
1.0000000000
9
$DIMTP
40
0.0100000000
9
$DIMTM
40
0.0100000000
9
$PDMODE
70
3
9
$PDSIZE
40
3.0000000000
9
$HANDSEED
5
2BD
9
$MEASUREMENT
70
1
9
$INSUNITS
70
4
0
ENDSEC
0
SECTION
2
CLASSES
0
CLASS
1
ACDBDICTIONARYWDFLT
2
AcDbDictionaryWithDefault
3
AutoCAD 2000
90
0
280
0
281
0
0
CLASS
1
ACDBPLACEHOLDER
2
AcDbPlaceHolder
3
AutoCAD 2000
90
0
280
0
281
0
0
CLASS
1
LAYOUT
2
AcDbLayout
3
AutoCAD 2000
90
0
280
0
281
0
0
ENDSEC
0
SECTION
2
TABLES
0
TABLE
2
VPORT
5
8
100
AcDbSymbolTable
70
2
0
VPORT
5
1F4
100
AcDbSymbolTableRecord
100
AcDbViewportTableRecord
2
*ACTIVE
70
0
10
0.0
20
0.0
11
1.0
21
1.0
12
279.4000000000
22
215.9000000000
13
0.0
23
0.0
14
1.0
24
1.0
15
0.0
25
0.0
16
0.0
26
0.0
36
1.0
17
0.0
27
0.0
37
0.0
40
431.8000000000
41
1.2941176471
42
50.0
43
0.0
44
0.0
50
0.0
51
0.0
71
0
72
100
73
1
74
1
75
0
76
0
77
0
78
0
0
ENDTAB
0
TABLE
2
LTYPE
5
5
100
AcDbSymbolTable
70
6
0
LTYPE
5
14
100
AcDbSymbolTableRecord
100
AcDbLinetypeTableRecord
2
BYBLOCK
70
0
3

72
65
73
0
40
0.0
0
LTYPE
5
15
100
AcDbSymbolTableRecord
100
AcDbLinetypeTableRecord
2
BYLAYER
70
0
3

72
65
73
0
40
0.0
0
LTYPE
5
16
100
AcDbSymbolTableRecord
100
AcDbLinetypeTableRecord
2
CONTINUOUS
70
64
3
Solid line
72
65
73
0
40
0
0
LTYPE
5
1F5
100
AcDbSymbolTableRecord
100
AcDbLinetypeTableRecord
2
CENTER
70
64
3
____ _ ____ _ ____ _ ____ _ ____ _ ____ _ ____
72
65
73
4
40
0.6
49
0.375
74
0
49
-0.075
74
0
49
0.075
74
0
49
-0.075
74
0
0
LTYPE
5
1F6
100
AcDbSymbolTableRecord
100
AcDbLinetypeTableRecord
2
HIDDEN
70
64
3
- - - - - - - - - - - - - - - - - - - -
72
65
73
2
40
0.2
49
0.1
74
0
49
-0.1
74
0
0
LTYPE
5
1F7
100
AcDbSymbolTableRecord
100
AcDbLinetypeTableRecord
2
PHANTOM
70
64
3
_____ _ _ _____ _ _ _____ _ _ _____
72
65
73
6
40
0.8
49
0.45
74
0
49
-0.05
74
0
49
0.1
74
0
49
-0.05
74
0
49
0.1
74
0
49
-0.05
74
0
0
LTYPE
5
1F8
100
AcDbSymbolTableRecord
100
AcDbLinetypeTableRecord
2
DOT
70
64
3
. . . . . . . . . . . . . . . . . . . .
72
65
73
2
40
0.2
49
0.1
74
0
49
-0.1
74
0
0
LTYPE
5
1F9
100
AcDbSymbolTableRecord
100
AcDbLinetypeTableRecord
2
DASHED
70
64
3
- - - - - - - - - - - - - - - - - - - -
72
65
73
2
40
0.2
49
0.1
74
0
49
-0.1
74
0
0
ENDTAB
0
TABLE
2
LAYER
5
2
100
AcDbSymbolTable
70
36
0
LAYER
5
10
100
AcDbSymbolTableRecord
100
AcDbLayerTableRecord
2
0
70
0
62
7
6
CONTINUOUS
370
-3
390
F
0
LAYER
5
1FA
100
AcDbSymbolTableRecord
100
AcDbLayerTableRecord
2
DEFAULT_1
70
0
62
7
6
CENTER
370
-3
390
F
0
LAYER
5
1FB
100
AcDbSymbolTableRecord
100
AcDbLayerTableRecord
2
DEFAULT_2
70
0
62
0
6
HIDDEN
370
-3
390
F
0
LAYER
5
1FC
100
AcDbSymbolTableRecord
100
AcDbLayerTableRecord
2
DEFAULT_3
70
0
62
7
6
PHANTOM
370
-3
390
F
0
LAYER
5
1FD
100
AcDbSymbolTableRecord
100
AcDbLayerTableRecord
2
ASSI
70
0
62
7
6
CONTINUOUS
370
-3
390
F
0
LAYER
5
1FE
100
AcDbSymbolTableRecord
100
AcDbLayerTableRecord
2
COORDINATE
70
0
62
7
6
CONTINUOUS
370
-3
390
F
0
LAYER
5
1FF
100
AcDbSymbolTableRecord
100
AcDbLayerTableRecord
2
COORD_ORIGINE
70
0
62
7
6
CONTINUOUS
370
-3
390
F
0
LAYER
5
200
100
AcDbSymbolTableRecord
100
AcDbLayerTableRecord
2
CURVE
70
0
62
7
6
CONTINUOUS
370
-3
390
F
0
LAYER
5
201
100
AcDbSymbolTableRecord
100
AcDbLayerTableRecord
2
CURVE_LED_TASTO
70
0
62
7
6
CONTINUOUS
370
-3
390
F
0
LAYER
5
202
100
AcDbSymbolTableRecord
100
AcDbLayerTableRecord
2
DRAFT
70
0
62
7
6
CONTINUOUS
370
-3
390
F
0
LAYER
5
203
100
AcDbSymbolTableRecord
100
AcDbLayerTableRecord
2
PIANI
70
0
62
7
6
CONTINUOUS
370
-3
390
F
0
LAYER
5
204
100
AcDbSymbolTableRecord
100
AcDbLayerTableRecord
2
PIANI_ORIGINE
70
0
62
7
6
CONTINUOUS
370
-3
390
F
0
LAYER
5
205
100
AcDbSymbolTableRecord
100
AcDbLayerTableRecord
2
PIANI_RIFERIMENTO
70
0
62
7
6
CONTINUOUS
370
-3
390
F
0
LAYER
5
206
100
AcDbSymbolTableRecord
100
AcDbLayerTableRecord
2
PUNTI
70
0
62
7
6
CONTINUOUS
370
-3
390
F
0
LAYER
5
207
100
AcDbSymbolTableRecord
100
AcDbLayerTableRecord
2
RACCORDO
70
0
62
7
6
CONTINUOUS
370
-3
390
F
0
LAYER
5
208
100
AcDbSymbolTableRecord
100
AcDbLayerTableRecord
2
SCRITTE
70
0
62
7
6
CONTINUOUS
370
-3
390
F
0
LAYER
5
209
100
AcDbSymbolTableRecord
100
AcDbLayerTableRecord
2
SNAPLINE
70
0
62
7
6
CONTINUOUS
370
-3
390
F
0
LAYER
5
20A
100
AcDbSymbolTableRecord
100
AcDbLayerTableRecord
2
SUPERFICI
70
0
62
7
6
CONTINUOUS
370
-3
390
F
0
LAYER
5
20B
100
AcDbSymbolTableRecord
100
AcDbLayerTableRecord
2
TRASH
70
0
62
7
6
CONTINUOUS
370
-3
390
F
0
ENDTAB
0
TABLE
2
STYLE
5
3
100
AcDbSymbolTable
70
1
0
STYLE
5
11
100
AcDbSymbolTableRecord
100
AcDbTextStyleTableRecord
2
STANDARD
70
0
40
0.0
41
0.8000000000
50
0.0
71
0
42
0.2
3
txt
4

0
ENDTAB
0
TABLE
2
VIEW
5
6
100
AcDbSymbolTable
70
0
0
ENDTAB
0
TABLE
2
UCS
5
7
100
AcDbSymbolTable
70
0
0
ENDTAB
0
TABLE
2
APPID
5
9
100
AcDbSymbolTable
70
1
0
APPID
5
20C
100
AcDbSymbolTableRecord
100
AcDbRegAppTableRecord
2
ACAD
70
0
0
ENDTAB
0
TABLE
2
BLOCK_RECORD
5
1
100
AcDbSymbolTable
70
0
0
BLOCK_RECORD
5
1F
100
AcDbSymbolTableRecord
100
AcDbBlockTableRecord
2
*MODEL_SPACE
0
BLOCK_RECORD
5
1B
100
AcDbSymbolTableRecord
100
AcDbBlockTableRecord
2
*PAPER_SPACE
0
BLOCK_RECORD
5
20D
100
AcDbSymbolTableRecord
100
AcDbBlockTableRecord
2
_FILLED
0
BLOCK_RECORD
5
20E
100
AcDbSymbolTableRecord
100
AcDbBlockTableRecord
2
*D0
0
BLOCK_RECORD
5
20F
100
AcDbSymbolTableRecord
100
AcDbBlockTableRecord
2
*D1
0
BLOCK_RECORD
5
210
100
AcDbSymbolTableRecord
100
AcDbBlockTableRecord
2
*D2
0
BLOCK_RECORD
5
211
100
AcDbSymbolTableRecord
100
AcDbBlockTableRecord
2
*D3
0
ENDTAB
0
TABLE
2
DIMSTYLE
5
A
100
AcDbSymbolTable
70
1
100
AcDbDimStyleTable
71
0
0
DIMSTYLE
105
212
100
AcDbSymbolTableRecord
100
AcDbDimStyleTableRecord
2
STANDARD
70
0
3

4

40
1.0
41
3.0000000000
42
0.0625
43
0.38
44
0.18
45
0.0
46
0.0
47
0.0100000000
48
0.0100000000
140
3.0000000000
141
0.09
142
0.0
143
25.4
144
1.0000000000
145
0.0
146
1.0000000000
147
0.09
71
1
72
0
73
0
74
0
75
0
76
0
77
1
78
8
170
0
171
2
172
0
173
0
174
0
175
0
176
0
177
0
178
0
270
2
271
2
272
2
273
2
274
2
275
0
280
0
281
0
282
0
283
1
284
8
285
0
286
0
287
3
288
0
340
11
341
20D
342
20D
343
20D
344
20D
0
DIMSTYLE
105
213
100
AcDbSymbolTableRecord
100
AcDbDimStyleTableRecord
2
DIMSTYLE_1
70
0
3

4

40
1.0
41
3.0000000000
42
0.0625
43
0.38
44
0.18
45
0.0
46
0.0
47
0.0000000000
48
0.0000000000
140
3.0000000000
141
0.09
142
0.0
143
25.4
144
1.0000000000
145
0.0
146
1.0000000000
147
0.09
71
0
72
0
73
0
74
0
75
0
76
0
77
1
78
8
170
0
171
2
172
0
173
0
174
0
175
0
176
0
177
0
178
0
270
2
271
2
272
2
273
2
274
2
275
0
280
0
281
0
282
0
283
1
284
8
285
0
286
0
287
3
288
0
340
11
341
20D
342
20D
343
20D
344
20D
0
ENDTAB
0
ENDSEC
0
SECTION
2
BLOCKS
0
BLOCK
5
20
100
AcDbEntity
8
0
100
AcDbBlockBegin
2
*MODEL_SPACE
70
0
10
0.0
20
0.0
30
0.0
3
*MODEL_SPACE
1

0
ENDBLK
5
21
100
AcDbEntity
8
0
100
AcDbBlockEnd
0
BLOCK
5
1C
100
AcDbEntity
8
0
100
AcDbBlockBegin
2
*PAPER_SPACE
70
0
10
0.0
20
0.0
30
0.0
3
*PAPER_SPACE
1

0
ENDBLK
5
1D
100
AcDbEntity
8
0
100
AcDbBlockEnd
0
BLOCK
5
214
100
AcDbEntity
8
0
100
AcDbBlockBegin
62
0
6
CONTINUOUS
2
*D0
70
65
10
0.0000000000
20
0.0000000000
3
*D0
1

0
TEXT
5
215
100
AcDbEntity
8
0
100
AcDbText
62
0
6
CONTINUOUS
10
-3.1585613782
20
27.1500000000
7
STANDARD
40
3.0000000000
1
49,6
41
0.7321428571
72
0
100
AcDbText
0
LINE
5
216
100
AcDbEntity
8
0
100
AcDbLine
62
0
6
CONTINUOUS
10
24.8000000000
20
18.5962952155
11
24.8000000000
21
27.9000000000
0
LINE
5
217
100
AcDbEntity
8
0
100
AcDbLine
62
0
6
CONTINUOUS
10
-24.8000000000
20
18.5962952155
11
-24.8000000000
21
27.9000000000
0
LINE
5
218
100
AcDbEntity
8
0
100
AcDbLine
62
0
6
CONTINUOUS
10
24.8000000000
20
26.4000000000
11
0.0000000000
21
26.4000000000
0
LINE
5
219
100
AcDbEntity
8
0
100
AcDbLine
62
0
6
CONTINUOUS
10
-24.8000000000
20
26.4000000000
11
0.0000000000
21
26.4000000000
0
INSERT
5
21A
100
AcDbEntity
8
0
100
AcDbBlockReference
62
0
6
CONTINUOUS
2
_FILLED
10
24.8000000000
20
26.4000000000
41
  3.000000
42
  3.000000
43
  3.000000
0
INSERT
5
21B
100
AcDbEntity
8
0
100
AcDbBlockReference
62
0
6
CONTINUOUS
2
_FILLED
10
-24.8000000000
20
26.4000000000
41
  3.000000
42
  3.000000
43
  3.000000
50
180.000000
0
ENDBLK
5
21C
100
AcDbEntity
8
0
6
BYBLOCK
62
0
100
AcDbBlockEnd
0
BLOCK
5
21D
100
AcDbEntity
8
0
100
AcDbBlockBegin
62
0
6
CONTINUOUS
2
*D1
70
65
10
0.0000000000
20
0.0000000000
3
*D1
1

0
TEXT
5
21E
100
AcDbEntity
8
0
100
AcDbText
62
0
6
CONTINUOUS
10
32.0500000000
20
-2.4614088625
7
STANDARD
40
3.0000000000
1
36,8
50
90.0000000000
41
0.7142857143
72
0
100
AcDbText
0
LINE
5
21F
100
AcDbEntity
8
0
100
AcDbLine
62
0
6
CONTINUOUS
10
25.0008636137
20
18.4000000000
11
34.3000000000
21
18.4000000000
0
LINE
5
220
100
AcDbEntity
8
0
100
AcDbLine
62
0
6
CONTINUOUS
10
25.0008636137
20
-18.4000000000
11
34.3000000000
21
-18.4000000000
0
LINE
5
221
100
AcDbEntity
8
0
100
AcDbLine
62
0
6
CONTINUOUS
10
32.8000000000
20
18.4000000000
11
32.8000000000
21
0.0000000000
0
LINE
5
222
100
AcDbEntity
8
0
100
AcDbLine
62
0
6
CONTINUOUS
10
32.8000000000
20
-18.4000000000
11
32.8000000000
21
0.0000000000
0
INSERT
5
223
100
AcDbEntity
8
0
100
AcDbBlockReference
62
0
6
CONTINUOUS
2
_FILLED
10
32.8000000000
20
18.4000000000
41
  3.000000
42
  3.000000
43
  3.000000
50
 90.000000
0
INSERT
5
224
100
AcDbEntity
8
0
100
AcDbBlockReference
62
0
6
CONTINUOUS
2
_FILLED
10
32.8000000000
20
-18.4000000000
41
  3.000000
42
  3.000000
43
  3.000000
50
270.000000
0
ENDBLK
5
225
100
AcDbEntity
8
0
6
BYBLOCK
62
0
100
AcDbBlockEnd
0
BLOCK
5
226
100
AcDbEntity
8
0
100
AcDbBlockBegin
62
0
6
CONTINUOUS
2
*D2
70
65
10
0.0000000000
20
0.0000000000
3
*D2
1

0
TEXT
5
227
100
AcDbEntity
8
0
100
AcDbText
62
0
6
CONTINUOUS
10
-43.9158877962
20
37.1500000000
7
STANDARD
40
3.0000000000
1
12
41
0.6785714286
72
0
100
AcDbText
0
LINE
5
228
100
AcDbEntity
8
0
100
AcDbLine
62
0
6
CONTINUOUS
10
-36.3511377186
20
1.7185839459
11
-36.3511377186
21
37.9000000000
0
LINE
5
229
100
AcDbEntity
8
0
100
AcDbLine
62
0
6
CONTINUOUS
10
-48.3511377186
20
0.5000000000
11
-48.3511377186
21
37.9000000000
0
LINE
5
22A
100
AcDbEntity
8
0
100
AcDbLine
62
0
6
CONTINUOUS
10
-36.3511377186
20
36.4000000000
11
-42.3511377186
21
36.4000000000
0
LINE
5
22B
100
AcDbEntity
8
0
100
AcDbLine
62
0
6
CONTINUOUS
10
-48.3511377186
20
36.4000000000
11
-42.3511377186
21
36.4000000000
0
INSERT
5
22C
100
AcDbEntity
8
0
100
AcDbBlockReference
62
0
6
CONTINUOUS
2
_FILLED
10
-36.3511377186
20
36.4000000000
41
  3.000000
42
  3.000000
43
  3.000000
0
INSERT
5
22D
100
AcDbEntity
8
0
100
AcDbBlockReference
62
0
6
CONTINUOUS
2
_FILLED
10
-48.3511377186
20
36.4000000000
41
  3.000000
42
  3.000000
43
  3.000000
50
180.000000
0
ENDBLK
5
22E
100
AcDbEntity
8
0
6
BYBLOCK
62
0
100
AcDbBlockEnd
0
BLOCK
5
22F
100
AcDbEntity
8
0
100
AcDbBlockBegin
62
0
6
CONTINUOUS
2
*D3
70
65
10
0.0000000000
20
0.0000000000
3
*D3
1

0
TEXT
5
230
100
AcDbEntity
8
0
100
AcDbText
62
0
6
CONTINUOUS
10
-47.5922692436
20
27.1500000000
7
STANDARD
40
3.0000000000
1
7,2
41
0.7142857143
72
0
100
AcDbText
0
LINE
5
231
100
AcDbEntity
8
0
100
AcDbLine
62
0
6
CONTINUOUS
10
-41.1511377186
20
18.5962952155
11
-41.1511377186
21
27.9000000000
0
LINE
5
232
100
AcDbEntity
8
0
100
AcDbLine
62
0
6
CONTINUOUS
10
-48.3511377186
20
0.5000000000
11
-48.3511377186
21
27.9000000000
0
LINE
5
233
100
AcDbEntity
8
0
100
AcDbLine
62
0
6
CONTINUOUS
10
-41.1511377186
20
26.4000000000
11
-37.1511377186
21
26.4000000000
0
LINE
5
234
100
AcDbEntity
8
0
100
AcDbLine
62
0
6
CONTINUOUS
10
-37.1511377186
20
26.4000000000
11
-44.7511377186
21
26.4000000000
0
LINE
5
235
100
AcDbEntity
8
0
100
AcDbLine
62
0
6
CONTINUOUS
10
-48.3511377186
20
26.4000000000
11
-52.3511377186
21
26.4000000000
0
LINE
5
236
100
AcDbEntity
8
0
100
AcDbLine
62
0
6
CONTINUOUS
10
-52.3511377186
20
26.4000000000
11
-44.7511377186
21
26.4000000000
0
INSERT
5
237
100
AcDbEntity
8
0
100
AcDbBlockReference
62
0
6
CONTINUOUS
2
_FILLED
10
-41.1511377186
20
26.4000000000
41
  3.000000
42
  3.000000
43
  3.000000
50
180.000000
0
INSERT
5
238
100
AcDbEntity
8
0
100
AcDbBlockReference
62
0
6
CONTINUOUS
2
_FILLED
10
-48.3511377186
20
26.4000000000
41
  3.000000
42
  3.000000
43
  3.000000
0
ENDBLK
5
239
100
AcDbEntity
8
0
6
BYBLOCK
62
0
100
AcDbBlockEnd
0
BLOCK
5
23A
100
AcDbEntity
8
0
100
AcDbBlockBegin
2
_FILLED
70
64
10
0.0000000000
20
0.0000000000
3
_FILLED
1

0
SOLID
5
23B
100
AcDbEntity
8
0
6
BYBLOCK
62
0
100
AcDbTrace
10
0.0000000000
20
0.0000000000
11
-1.0000000000
21
0.3166666667
12
-1.0000000000
22
-0.3166666667
13
-1.0000000000
23
-0.3166666667
0
ENDBLK
5
23C
100
AcDbEntity
8
0
6
BYBLOCK
62
0
100
AcDbBlockEnd
0
ENDSEC
0
SECTION
2
ENTITIES
0
DIMENSION
5
23D
100
AcDbEntity
8
0
100
AcDbDimension
62
0
6
CONTINUOUS
2
*D0
10
-24.8000000000
20
26.4000000000
11
1.2342957646
21
28.6500000000
70
160
42
49.600000
3
DIMSTYLE_1
100
AcDbAlignedDimension
13
24.8000000000
23
18.5962952155
14
-24.8000000000
24
18.5962952155
50
180.000000
100
AcDbRotatedDimension
0
DIMENSION
5
23E
100
AcDbEntity
8
0
100
AcDbDimension
62
0
6
CONTINUOUS
2
*D1
10
32.8000000000
20
-18.4000000000
11
30.5500000000
21
1.8243054233
70
160
42
36.800000
3
DIMSTYLE_1
100
AcDbAlignedDimension
13
25.0008636137
23
18.4000000000
14
25.0008636137
24
-18.4000000000
50
270.000000
100
AcDbRotatedDimension
0
DIMENSION
5
23F
100
AcDbEntity
8
0
100
AcDbDimension
62
0
6
CONTINUOUS
2
*D2
10
-48.3511377186
20
36.4000000000
11
-41.8801735105
21
38.6500000000
70
160
42
12.000000
3
DIMSTYLE_1
100
AcDbAlignedDimension
13
-36.3511377186
23
1.7185839459
14
-48.3511377186
24
0.5000000000
50
180.000000
100
AcDbRotatedDimension
0
DIMENSION
5
240
100
AcDbEntity
8
0
100
AcDbDimension
62
0
6
CONTINUOUS
2
*D3
10
-48.3511377186
20
26.4000000000
11
-44.3779835293
21
28.6500000000
70
160
42
7.200000
3
DIMSTYLE_1
100
AcDbAlignedDimension
13
-41.1511377186
23
18.5962952155
14
-48.3511377186
24
0.5000000000
50
180.000000
100
AcDbRotatedDimension
0
LINE
5
241
100
AcDbEntity
8
0
100
AcDbLine
62
0
6
CONTINUOUS
10
-24.8000000000
20
-18.0962952155
11
-24.8000000000
21
18.0962952155
0
LINE
5
242
100
AcDbEntity
8
0
100
AcDbLine
62
0
6
CONTINUOUS
10
-24.6950679731
20
17.0362964381
11
-24.8000000000
21
18.0962952155
0
LINE
5
243
100
AcDbEntity
8
0
100
AcDbLine
62
0
6
CONTINUOUS
10
-24.3951136646
20
17.3317387640
11
-24.5008636137
21
18.4000000000
0
LINE
5
244
100
AcDbEntity
8
0
100
AcDbLine
62
0
6
CONTINUOUS
10
-24.3850259316
20
-16.3854850935
11
-24.3850259316
21
16.3854850935
0
LINE
5
245
100
AcDbEntity
8
0
100
AcDbLine
62
0
6
CONTINUOUS
10
-24.8000000000
20
-18.0962952155
11
-24.6950679731
21
-17.0362964381
0
LINE
5
246
100
AcDbEntity
8
0
100
AcDbLine
62
0
6
CONTINUOUS
10
-24.5008636137
20
-18.4000000000
11
-24.3951136646
21
-17.3317387640
0
LINE
5
247
100
AcDbEntity
8
0
100
AcDbLine
62
0
6
CONTINUOUS
10
-24.5008636137
20
-18.4000000000
11
24.5008636137
21
-18.4000000000
0
LINE
5
248
100
AcDbEntity
8
0
100
AcDbLine
62
0
6
CONTINUOUS
10
24.3951136646
20
-17.3317387640
11
-24.3951136646
21
-17.3317387640
0
LINE
5
249
100
AcDbEntity
8
0
100
AcDbLine
62
0
6
CONTINUOUS
10
24.3850259316
20
-16.3854850935
11
-24.3850259316
21
-16.3854850935
0
LINE
5
24A
100
AcDbEntity
8
CURVE
100
AcDbLine
6
CONTINUOUS
10
-5.0000000000
20
-7.7000000000
11
5.0000000000
21
-7.7000000000
0
LINE
5
24B
100
AcDbEntity
8
CURVE
100
AcDbLine
6
CONTINUOUS
10
5.0000000000
20
7.7000000000
11
-5.0000000000
21
7.7000000000
0
LINE
5
24C
100
AcDbEntity
8
0
100
AcDbLine
62
0
6
CONTINUOUS
10
24.3850259316
20
16.3854850935
11
-24.3850259316
21
16.3854850935
0
LINE
5
24D
100
AcDbEntity
8
0
100
AcDbLine
62
0
6
CONTINUOUS
10
24.3951136646
20
17.3317387640
11
-24.3951136646
21
17.3317387640
0
LINE
5
24E
100
AcDbEntity
8
0
100
AcDbLine
62
0
6
CONTINUOUS
10
-24.5008636137
20
18.4000000000
11
24.5008636137
21
18.4000000000
0
LINE
5
24F
100
AcDbEntity
8
0
100
AcDbLine
62
0
6
CONTINUOUS
10
24.3951136646
20
-17.3317387640
11
24.5008636137
21
-18.4000000000
0
LINE
5
250
100
AcDbEntity
8
0
100
AcDbLine
62
0
6
CONTINUOUS
10
24.6950679731
20
-17.0362964381
11
24.8000000000
21
-18.0962952155
0
LINE
5
251
100
AcDbEntity
8
0
100
AcDbLine
62
0
6
CONTINUOUS
10
24.5008636137
20
18.4000000000
11
24.3951136646
21
17.3317387640
0
LINE
5
252
100
AcDbEntity
8
0
100
AcDbLine
62
0
6
CONTINUOUS
10
24.8000000000
20
18.0962952155
11
24.6950679731
21
17.0362964381
0
LINE
5
253
100
AcDbEntity
8
0
100
AcDbLine
62
0
6
CONTINUOUS
10
24.3850259316
20
16.3854850935
11
24.3850259316
21
-16.3854850935
0
LINE
5
254
100
AcDbEntity
8
0
100
AcDbLine
62
0
6
CONTINUOUS
10
24.8000000000
20
-18.0962952155
11
24.8000000000
21
18.0962952155
0
LINE
5
255
100
AcDbEntity
8
0
100
AcDbLine
62
0
6
CONTINUOUS
10
-47.2095482450
20
-17.3317387640
11
-41.1511377186
21
-18.4000000000
0
LINE
5
256
100
AcDbEntity
8
0
100
AcDbLine
62
0
6
CONTINUOUS
10
-47.1626895136
20
-17.0362964381
11
-41.1511377186
21
-18.0962952155
0
LINE
5
257
100
AcDbEntity
8
0
100
AcDbLine
62
0
6
CONTINUOUS
10
-47.7406153497
20
-16.3739188688
11
-48.0351565082
21
-16.3854850907
0
LINE
5
258
100
AcDbEntity
8
0
100
AcDbLine
62
0
6
CONTINUOUS
10
-41.1511377186
20
-1.2353391747
11
-36.3511377186
21
-1.2185839459
0
LINE
5
259
100
AcDbEntity
8
0
100
AcDbLine
62
0
6
CONTINUOUS
10
-41.1511377186
20
-18.4000000000
11
-41.1511377186
21
18.4000000000
0
LINE
5
25A
100
AcDbEntity
8
0
100
AcDbLine
62
0
6
CONTINUOUS
10
-41.1511377186
20
1.2353391747
11
-36.3511377186
21
1.2185839459
0
LINE
5
25B
100
AcDbEntity
8
0
100
AcDbLine
62
0
6
CONTINUOUS
10
-36.3511377186
20
1.2185839459
11
-36.3511377186
21
-1.2185839459
0
LINE
5
25C
100
AcDbEntity
8
0
100
AcDbLine
62
0
6
CONTINUOUS
10
-47.7406153497
20
16.3739188688
11
-48.0351565822
21
16.3854850935
0
LINE
5
25D
100
AcDbEntity
8
0
100
AcDbLine
62
0
6
CONTINUOUS
10
-41.1511377186
20
18.0962952155
11
-47.1626895136
21
17.0362964381
0
LINE
5
25E
100
AcDbEntity
8
0
100
AcDbLine
62
0
6
CONTINUOUS
10
-41.1511377186
20
18.4000000000
11
-47.2095482450
21
17.3317387640
0
CIRCLE
5
25F
100
AcDbEntity
8
0
100
AcDbCircle
62
0
6
CONTINUOUS
10
0.0000000000
20
0.0000000000
40
1.2250000000
0
CIRCLE
5
260
100
AcDbEntity
8
0
100
AcDbCircle
62
0
6
CONTINUOUS
10
0.0000000000
20
0.0000000000
40
1.0459181267
0
CIRCLE
5
261
100
AcDbEntity
8
0
100
AcDbCircle
62
0
6
CONTINUOUS
10
0.0000000000
20
0.0000000000
40
1.2500000000
0
ARC
5
262
100
AcDbEntity
8
0
100
AcDbCircle
62
0
6
CONTINUOUS
10
-47.0359000673
20
-16.3469310110
40
1.0000000000
100
AcDbArc
50
182.2095338267
51
260.0000000000
0
ARC
5
263
100
AcDbEntity
8
0
100
AcDbCircle
62
0
6
CONTINUOUS
10
376.6488622814
20
0.0000000000
40
425.0000000000
100
AcDbArc
50
177.7904661733
51
182.2095338267
0
ARC
5
264
100
AcDbEntity
8
0
100
AcDbCircle
62
0
6
CONTINUOUS
10
-47.0359000673
20
16.3469310110
40
1.0000000000
100
AcDbArc
50
100.0000000000
51
177.7904661733
0
SPLINE
5
265
100
AcDbEntity
8
0
100
AcDbSpline
62
0
6
CONTINUOUS
70
0
71
3
72
23
73
19
74
17
42
0.0000001000
43
0.0000001000
44
0.0000000001
12
-0.0654167177
22
-0.9440975659
32
0.0000000000
13
-0.0004462523
23
-0.9463611159
33
0.0000000000
40
0.0000000000
40
0.0000000000
40
0.0000000000
40
0.0000000000
40
0.0193268239
40
0.0459943367
40
0.0798153825
40
0.1205476041
40
0.1678990384
40
0.2215296910
40
0.2810535788
40
0.3460423989
40
0.4160287934
40
0.4905094767
40
0.5689484769
40
0.6507809359
40
0.7354185112
40
0.8222530022
40
0.9106576825
40
1.0000000000
40
1.0000000000
40
1.0000000000
40
1.0000000000
10
24.3951136646
20
17.3317387640
30
0.0000000000
10
24.3946922321
20
17.3256566282
30
0.0000000000
10
24.3939484998
20
17.3111650221
30
0.0000000000
10
24.3929940018
20
17.2860051114
30
0.0000000000
10
24.3920605358
20
17.2540878385
30
0.0000000000
10
24.3911542682
20
17.2156431536
30
0.0000000000
10
24.3902873693
20
17.1709471292
30
0.0000000000
10
24.3894668502
20
17.1203215092
30
0.0000000000
10
24.3886998668
20
17.0641307015
30
0.0000000000
10
24.3879924452
20
17.0027792727
30
0.0000000000
10
24.3873500922
20
16.9367087173
30
0.0000000000
10
24.3867776842
20
16.8663944652
30
0.0000000000
10
24.3862795278
20
16.7923426770
30
0.0000000000
10
24.3858593343
20
16.7150863290
30
0.0000000000
10
24.3855202215
20
16.6351811708
30
0.0000000000
10
24.3852646902
20
16.5532024605
30
0.0000000000
10
24.3850946245
20
16.4697393985
30
0.0000000000
10
24.3850392213
20
16.4136684586
30
0.0000000000
10
24.3850259316
20
16.3854850935
30
0.0000000000
11
24.3951136646
21
17.3317387640
31
0.0000000000
11
24.3941013996
21
17.3134766406
31
0.0000000000
11
24.3931117252
21
17.2882589531
31
0.0000000000
11
24.3921517020
21
17.2562664278
31
0.0000000000
11
24.3912282835
21
17.2177300948
31
0.0000000000
11
24.3903480986
21
17.1729271787
31
0.0000000000
11
24.3895174809
21
17.1221800061
31
0.0000000000
11
24.3887424121
21
17.0658542393
31
0.0000000000
11
24.3880284699
21
17.0043554841
31
0.0000000000
11
24.3873807880
21
16.9381262413
31
0.0000000000
11
24.3868040239
21
16.8676429706
31
0.0000000000
11
24.3863023280
21
16.7934130380
31
0.0000000000
11
24.3858793109
21
16.7159711275
31
0.0000000000
11
24.3855380133
21
16.6358741355
31
0.0000000000
11
24.3852808855
21
16.5536977429
31
0.0000000000
11
24.3851097843
21
16.4700351566
31
0.0000000000
11
24.3850259316
21
16.3854850935
31
0.0000000000
0
SPLINE
5
266
100
AcDbEntity
8
0
100
AcDbSpline
62
0
6
CONTINUOUS
70
0
71
3
72
23
73
19
74
17
42
0.0000001000
43
0.0000001000
44
0.0000000001
12
-0.0652627498
22
-0.6593089659
32
0.0000000000
13
-0.0004462989
23
-0.6625310105
33
0.0000000000
40
0.0000000000
40
0.0000000000
40
0.0000000000
40
0.0000000000
40
0.0193475382
40
0.0460319690
40
0.0798640991
40
0.1206036029
40
0.1679595142
40
0.2215925152
40
0.2811170707
40
0.3461052088
40
0.4160898245
40
0.4905677929
40
0.5690031284
40
0.6508310710
40
0.7354633785
40
0.8222919582
40
0.9106901622
40
1.0000000000
40
1.0000000000
40
1.0000000000
40
1.0000000000
10
24.6950679731
20
17.0362964381
30
0.0000000000
10
24.6946470819
20
17.0320444363
30
0.0000000000
10
24.6939032941
20
17.0219035453
30
0.0000000000
10
24.6929487402
20
17.0042919757
30
0.0000000000
10
24.6920151409
20
16.9819490725
30
0.0000000000
10
24.6911088073
20
16.9550372943
30
0.0000000000
10
24.6902418491
20
16.9237492990
30
0.0000000000
10
24.6894212805
20
16.8883103221
30
0.0000000000
10
24.6886542536
20
16.8489753668
30
0.0000000000
10
24.6879467939
20
16.8060276298
30
0.0000000000
10
24.6873044085
20
16.7597761690
30
0.0000000000
10
24.6867319751
20
16.7105538546
30
0.0000000000
10
24.6862337999
20
16.6587150862
30
0.0000000000
10
24.6858135970
20
16.6046330383
30
0.0000000000
10
24.6854744797
20
16.5486967933
30
0.0000000000
10
24.6852189562
20
16.4913090898
30
0.0000000000
10
24.6850489162
20
16.4328880642
30
0.0000000000
10
24.6849935264
20
16.3936423811
30
0.0000000000
10
24.6849802401
20
16.3739188688
30
0.0000000000
11
24.6950679731
21
17.0362964381
31
0.0000000000
11
24.6940560456
21
17.0235180962
31
0.0000000000
11
24.6930663173
21
17.0058665547
31
0.0000000000
11
24.6921062541
21
16.9834722843
31
0.0000000000
11
24.6911827893
21
16.9564968957
31
0.0000000000
11
24.6903025612
21
16.9251344788
31
0.0000000000
11
24.6894719013
21
16.8896106547
31
0.0000000000
11
24.6886967934
21
16.8501813997
31
0.0000000000
11
24.6879828157
21
16.8071306533
31
0.0000000000
11
24.6873351029
21
16.7607681888
31
0.0000000000
11
24.6867583137
21
16.7114275852
31
0.0000000000
11
24.6862565999
21
16.6594641533
31
0.0000000000
11
24.6858335731
21
16.6052522420
31
0.0000000000
11
24.6854922726
21
16.5491817398
31
0.0000000000
11
24.6852351511
21
16.4916556747
31
0.0000000000
11
24.6850640612
21
16.4330893599
31
0.0000000000
11
24.6849802401
21
16.3739188688
31
0.0000000000
0
SPLINE
5
267
100
AcDbEntity
8
0
100
AcDbSpline
62
0
6
CONTINUOUS
70
0
71
3
72
20
73
16
74
14
42
0.0000001000
43
0.0000001000
44
0.0000000001
12
-0.1238943965
22
0.2739402685
32
0.0000000000
13
-0.3006543718
23
0.0002021791
33
0.0000000000
40
0.0000000000
40
0.0000000000
40
0.0000000000
40
0.0000000000
40
0.0102691964
40
0.0339884996
40
0.0712966001
40
0.1217563601
40
0.1846839009
40
0.2591997085
40
0.3442517430
40
0.4386341778
40
0.5410062053
40
0.6499119544
40
0.7638016910
40
0.8810541835
40
1.0000000000
40
1.0000000000
40
1.0000000000
40
1.0000000000
10
24.6849802401
20
16.3739188688
30
0.0000000000
10
24.6845561415
20
16.3748565842
30
0.0000000000
10
24.6805445560
20
16.3755958290
30
0.0000000000
10
24.6741005162
20
16.3770209784
30
0.0000000000
10
24.6626758095
20
16.3781341370
30
0.0000000000
10
24.6477542767
20
16.3793968925
30
0.0000000000
10
24.6289076883
20
16.3805305952
30
0.0000000000
10
24.6066520505
20
16.3816069426
30
0.0000000000
10
24.5812140541
20
16.3825723193
30
0.0000000000
10
24.5529862321
20
16.3834224226
30
0.0000000000
10
24.5223612168
20
16.3841401774
30
0.0000000000
10
24.4897786100
20
16.3847157371
30
0.0000000000
10
24.4557020847
20
16.3851400770
30
0.0000000000
10
24.4206178131
20
16.3854069577
30
0.0000000000
10
24.3969464581
20
16.3854770774
30
0.0000000000
10
24.3850259316
20
16.3854850935
30
0.0000000000
11
24.6849802401
21
16.3739188688
31
0.0000000000
11
24.6822178134
21
16.3752978279
31
0.0000000000
11
24.6752172451
21
16.3766571222
31
0.0000000000
11
24.6640783678
21
16.3779773673
31
0.0000000000
11
24.6489600287
21
16.3792397357
31
0.0000000000
11
24.6300778248
21
16.3804262252
31
0.0000000000
11
24.6077010282
21
16.3815199157
31
0.0000000000
11
24.5821487458
21
16.3825052106
31
0.0000000000
11
24.5537853691
21
16.3833680589
31
0.0000000000
11
24.5230153777
21
16.3840961558
31
0.0000000000
11
24.4902775707
21
16.3846791183
31
0.0000000000
11
24.4560388097
21
16.3851086329
31
0.0000000000
11
24.4207873608
21
16.3853785745
31
0.0000000000
11
24.3850259316
21
16.3854850935
31
0.0000000000
0
SPLINE
5
268
100
AcDbEntity
8
0
100
AcDbSpline
62
0
6
CONTINUOUS
70
0
71
3
72
15
73
11
74
9
42
0.0000001000
43
0.0000001000
44
0.0000000001
12
-0.0220545067
22
-32.7709651995
32
0.0000000000
13
0.0220545067
23
-32.7709651995
33
0.0000000000
40
0.0000000000
40
0.0000000000
40
0.0000000000
40
0.0000000000
40
0.1249593477
40
0.2499535395
40
0.3749709621
40
0.5000000000
40
0.6250290379
40
0.7500464605
40
0.8750406523
40
1.0000000000
40
1.0000000000
40
1.0000000000
40
1.0000000000
10
24.3850259316
20
16.3854850935
30
0.0000000000
10
24.3841072926
20
15.0204722819
30
0.0000000000
10
24.3824997115
20
12.2900658734
30
0.0000000000
10
24.3807774369
20
8.1940118391
30
0.0000000000
10
24.3797440080
20
4.0971963006
30
0.0000000000
10
24.3793995210
20
0.0000000000
30
0.0000000000
10
24.3797440080
20
-4.0971963005
30
0.0000000000
10
24.3807774369
20
-8.1940118390
30
0.0000000000
10
24.3824997115
20
-12.2900658733
30
0.0000000000
10
24.3841072926
20
-15.0204722819
30
0.0000000000
10
24.3850259316
20
-16.3854850935
30
0.0000000000
11
24.3850259316
21
16.3854850935
31
0.0000000000
11
24.3826147842
21
12.2904464411
31
0.0000000000
11
24.3808923761
21
8.1942655660
31
0.0000000000
11
24.3798588672
21
4.0973231620
31
0.0000000000
11
24.3795143536
21
0.0000000000
31
0.0000000000
11
24.3798588672
21
-4.0973231619
31
0.0000000000
11
24.3808923761
21
-8.1942655659
31
0.0000000000
11
24.3826147842
21
-12.2904464410
31
0.0000000000
11
24.3850259316
21
-16.3854850935
31
0.0000000000
0
SPLINE
5
269
100
AcDbEntity
8
0
100
AcDbSpline
62
0
6
CONTINUOUS
70
0
71
3
72
20
73
16
74
14
42
0.0000001000
43
0.0000001000
44
0.0000000001
12
-0.1238956194
22
-0.2739397142
32
0.0000000000
13
-0.3006543707
23
-0.0002021789
33
0.0000000000
40
0.0000000000
40
0.0000000000
40
0.0000000000
40
0.0000000000
40
0.0102692162
40
0.0339885374
40
0.0712966520
40
0.1217564220
40
0.1846839685
40
0.2591997778
40
0.3442518104
40
0.4386342396
40
0.5410062586
40
0.6499119967
40
0.7638017203
40
0.8810541985
40
1.0000000000
40
1.0000000000
40
1.0000000000
40
1.0000000000
10
24.6849802401
20
-16.3739188688
30
0.0000000000
10
24.6845561365
20
-16.3748565842
30
0.0000000000
10
24.6805445522
20
-16.3755958279
30
0.0000000000
10
24.6741005024
20
-16.3770209778
30
0.0000000000
10
24.6626757942
20
-16.3781341360
30
0.0000000000
10
24.6477542572
20
-16.3793968914
30
0.0000000000
10
24.6289076676
20
-16.3805305938
30
0.0000000000
10
24.6066520292
20
-16.3816069409
30
0.0000000000
10
24.5812140335
20
-16.3825723173
30
0.0000000000
10
24.5529862132
20
-16.3834224204
30
0.0000000000
10
24.5223612005
20
-16.3841401750
30
0.0000000000
10
24.4897785971
20
-16.3847157345
30
0.0000000000
10
24.4557020758
20
-16.3851400743
30
0.0000000000
10
24.4206178085
20
-16.3854069549
30
0.0000000000
10
24.3969464566
20
-16.3854770746
30
0.0000000000
10
24.3850259316
20
-16.3854850907
30
0.0000000000
11
24.6849802401
21
-16.3739188688
31
0.0000000000
11
24.6822178066
21
-16.3752978277
31
0.0000000000
11
24.6752172328
21
-16.3766571217
31
0.0000000000
11
24.6640783512
21
-16.3779773665
31
0.0000000000
11
24.6489600092
21
-16.3792397346
31
0.0000000000
11
24.6300778036
21
-16.3804262238
31
0.0000000000
11
24.6077010065
21
-16.3815199141
31
0.0000000000
11
24.5821487248
21
-16.3825052087
31
0.0000000000
11
24.5537853499
21
-16.3833680567
31
0.0000000000
11
24.5230153611
21
-16.3840961534
31
0.0000000000
11
24.4902775576
21
-16.3846791157
31
0.0000000000
11
24.4560388006
21
-16.3851086302
31
0.0000000000
11
24.4207873561
21
-16.3853785717
31
0.0000000000
11
24.3850259316
21
-16.3854850907
31
0.0000000000
0
SPLINE
5
26A
100
AcDbEntity
8
0
100
AcDbSpline
62
0
6
CONTINUOUS
70
0
71
3
72
23
73
19
74
17
42
0.0000001000
43
0.0000001000
44
0.0000000001
12
0.0004462892
22
-0.9463611160
32
0.0000000000
13
0.0654154629
23
-0.9440976529
33
0.0000000000
40
0.0000000000
40
0.0000000000
40
0.0000000000
40
0.0000000000
40
0.0893422249
40
0.1777469231
40
0.2645814179
40
0.3492189865
40
0.4310514592
40
0.5094904669
40
0.5839711464
40
0.6539575402
40
0.7189463681
40
0.7784702654
40
0.8321009189
40
0.8794523517
40
0.9201845833
40
0.9540056346
40
0.9806731503
40
1.0000000000
40
1.0000000000
40
1.0000000000
40
1.0000000000
10
24.3850259316
20
-16.3854850935
30
0.0000000000
10
24.3850392224
20
-16.4136684294
30
0.0000000000
10
24.3850946231
20
-16.4697393458
30
0.0000000000
10
24.3852646908
20
-16.5532023854
30
0.0000000000
10
24.3855202205
20
-16.6351811004
30
0.0000000000
10
24.3858593336
20
-16.7150862620
30
0.0000000000
10
24.3862795264
20
-16.7923426146
30
0.0000000000
10
24.3867776825
20
-16.8663944083
30
0.0000000000
10
24.3873500900
20
-16.9367086614
30
0.0000000000
10
24.3879924426
20
-17.0027792178
30
0.0000000000
10
24.3886998639
20
-17.0641306519
30
0.0000000000
10
24.3894668474
20
-17.1203214654
30
0.0000000000
10
24.3902873662
20
-17.1709470882
30
0.0000000000
10
24.3911542660
20
-17.2156431155
30
0.0000000000
10
24.3920605314
20
-17.2540878050
30
0.0000000000
10
24.3929940027
20
-17.2860050834
30
0.0000000000
10
24.3939484900
20
-17.3111650055
30
0.0000000000
10
24.3946922396
20
-17.3256566195
30
0.0000000000
10
24.3951136646
20
-17.3317387640
30
0.0000000000
11
24.3850259316
21
-16.3854850935
31
0.0000000000
11
24.3851097838
21
-16.4700350690
31
0.0000000000
11
24.3852808855
21
-16.5536976722
31
0.0000000000
11
24.3855380125
21
-16.6358740685
31
0.0000000000
11
24.3858793099
21
-16.7159710541
31
0.0000000000
11
24.3863023266
21
-16.7934129776
31
0.0000000000
11
24.3868040221
21
-16.8676429173
31
0.0000000000
11
24.3873807858
21
-16.9381261844
31
0.0000000000
11
24.3880284673
21
-17.0043554266
31
0.0000000000
11
24.3887424093
21
-17.0658541892
31
0.0000000000
11
24.3895174781
21
-17.1221799649
31
0.0000000000
11
24.3903480957
21
-17.1729271384
31
0.0000000000
11
24.3912282806
21
-17.2177300531
31
0.0000000000
11
24.3921516991
21
-17.2562663955
31
0.0000000000
11
24.3931117229
21
-17.2882589261
31
0.0000000000
11
24.3941013963
21
-17.3134766163
31
0.0000000000
11
24.3951136646
21
-17.3317387640
31
0.0000000000
0
SPLINE
5
26B
100
AcDbEntity
8
0
100
AcDbSpline
62
0
6
CONTINUOUS
70
0
71
3
72
23
73
19
74
17
42
0.0000001000
43
0.0000001000
44
0.0000000001
12
0.0004463113
22
-0.6625310104
32
0.0000000000
13
0.0652631569
23
-0.6593089255
33
0.0000000000
40
0.0000000000
40
0.0000000000
40
0.0000000000
40
0.0000000000
40
0.0893017967
40
0.1776998333
40
0.2645282976
40
0.3491605405
40
0.4309885119
40
0.5094239455
40
0.5839020984
40
0.6538871463
40
0.7188759694
40
0.7784013749
40
0.8320352228
40
0.8793919653
40
0.9201322848
40
0.9539652142
40
0.9806503729
40
1.0000000000
40
1.0000000000
40
1.0000000000
40
1.0000000000
10
24.6849802401
20
-16.3739188688
30
0.0000000000
10
24.6849935256
20
-16.3936406053
30
0.0000000000
10
24.6850489094
20
-16.4328844756
30
0.0000000000
10
24.6852189368
20
-16.4913036629
30
0.0000000000
10
24.6854744509
20
-16.5486912897
30
0.0000000000
10
24.6858135591
20
-16.6046275014
30
0.0000000000
10
24.6862337522
20
-16.6587095632
30
0.0000000000
10
24.6867319175
20
-16.7105484004
30
0.0000000000
10
24.6873043413
20
-16.7597708728
30
0.0000000000
10
24.6879467181
20
-16.8060226212
30
0.0000000000
10
24.6886541715
20
-16.8489707928
30
0.0000000000
10
24.6894211943
20
-16.8883062743
30
0.0000000000
10
24.6902417607
20
-16.9237458097
30
0.0000000000
10
24.6911087170
20
-16.9550343560
30
0.0000000000
10
24.6920150516
20
-16.9819466746
30
0.0000000000
10
24.6929486485
20
-17.0042900959
30
0.0000000000
10
24.6939032273
20
-17.0219024636
30
0.0000000000
10
24.6946470338
20
-17.0320439775
30
0.0000000000
10
24.6950679731
20
-17.0362964381
30
0.0000000000
11
24.6849802401
21
-16.3739188688
31
0.0000000000
11
24.6850640496
21
-16.4330840325
31
0.0000000000
11
24.6852351313
21
-16.4916502363
31
0.0000000000
11
24.6854922436
21
-16.5491762250
31
0.0000000000
11
24.6858335347
21
-16.6052466845
31
0.0000000000
11
24.6862565518
21
-16.6594586149
31
0.0000000000
11
24.6867582555
21
-16.7114221119
31
0.0000000000
11
24.6873350345
21
-16.7607628379
31
0.0000000000
11
24.6879827386
21
-16.8071255888
31
0.0000000000
11
24.6886967101
21
-16.8501767893
31
0.0000000000
11
24.6894718145
21
-16.8896066076
31
0.0000000000
11
24.6903024719
21
-16.9251309929
31
0.0000000000
11
24.6911826983
21
-16.9564939608
31
0.0000000000
11
24.6921061625
21
-16.9834698901
31
0.0000000000
11
24.6930662259
21
-17.0058646906
31
0.0000000000
11
24.6940559550
21
-17.0235167151
31
0.0000000000
11
24.6950679731
21
-17.0362964381
31
0.0000000000
0
SPLINE
5
26C
100
AcDbEntity
8
0
100
AcDbSpline
62
0
6
CONTINUOUS
70
0
71
3
72
23
73
19
74
17
42
0.0000001000
43
0.0000001000
44
0.0000000001
12
0.0654154629
22
0.9440976529
32
0.0000000000
13
0.0004462892
23
0.9463611160
33
0.0000000000
40
0.0000000000
40
0.0000000000
40
0.0000000000
40
0.0000000000
40
0.0193268497
40
0.0459943654
40
0.0798154167
40
0.1205476483
40
0.1678990811
40
0.2215297346
40
0.2810536319
40
0.3460424598
40
0.4160288536
40
0.4905095331
40
0.5689485408
40
0.6507810135
40
0.7354185821
40
0.8222530769
40
0.9106577751
40
1.0000000000
40
1.0000000000
40
1.0000000000
40
1.0000000000
10
-24.3951136646
20
-17.3317387640
30
0.0000000000
10
-24.3946922396
20
-17.3256566195
30
0.0000000000
10
-24.3939484900
20
-17.3111650055
30
0.0000000000
10
-24.3929940027
20
-17.2860050834
30
0.0000000000
10
-24.3920605314
20
-17.2540878050
30
0.0000000000
10
-24.3911542660
20
-17.2156431155
30
0.0000000000
10
-24.3902873662
20
-17.1709470882
30
0.0000000000
10
-24.3894668474
20
-17.1203214654
30
0.0000000000
10
-24.3886998639
20
-17.0641306519
30
0.0000000000
10
-24.3879924426
20
-17.0027792178
30
0.0000000000
10
-24.3873500900
20
-16.9367086614
30
0.0000000000
10
-24.3867776825
20
-16.8663944083
30
0.0000000000
10
-24.3862795264
20
-16.7923426146
30
0.0000000000
10
-24.3858593336
20
-16.7150862620
30
0.0000000000
10
-24.3855202205
20
-16.6351811004
30
0.0000000000
10
-24.3852646908
20
-16.5532023854
30
0.0000000000
10
-24.3850946231
20
-16.4697393458
30
0.0000000000
10
-24.3850392224
20
-16.4136684294
30
0.0000000000
10
-24.3850259316
20
-16.3854850935
30
0.0000000000
11
-24.3951136646
21
-17.3317387640
31
0.0000000000
11
-24.3941013963
21
-17.3134766163
31
0.0000000000
11
-24.3931117229
21
-17.2882589261
31
0.0000000000
11
-24.3921516991
21
-17.2562663955
31
0.0000000000
11
-24.3912282806
21
-17.2177300531
31
0.0000000000
11
-24.3903480957
21
-17.1729271384
31
0.0000000000
11
-24.3895174781
21
-17.1221799649
31
0.0000000000
11
-24.3887424093
21
-17.0658541892
31
0.0000000000
11
-24.3880284673
21
-17.0043554266
31
0.0000000000
11
-24.3873807858
21
-16.9381261844
31
0.0000000000
11
-24.3868040221
21
-16.8676429173
31
0.0000000000
11
-24.3863023266
21
-16.7934129776
31
0.0000000000
11
-24.3858793099
21
-16.7159710541
31
0.0000000000
11
-24.3855380125
21
-16.6358740685
31
0.0000000000
11
-24.3852808855
21
-16.5536976722
31
0.0000000000
11
-24.3851097838
21
-16.4700350690
31
0.0000000000
11
-24.3850259316
21
-16.3854850935
31
0.0000000000
0
SPLINE
5
26D
100
AcDbEntity
8
0
100
AcDbSpline
62
0
6
CONTINUOUS
70
0
71
3
72
23
73
19
74
17
42
0.0000001000
43
0.0000001000
44
0.0000000001
12
0.0652631569
22
0.6593089255
32
0.0000000000
13
0.0004463113
23
0.6625310104
33
0.0000000000
40
0.0000000000
40
0.0000000000
40
0.0000000000
40
0.0000000000
40
0.0193496271
40
0.0460347858
40
0.0798677152
40
0.1206080347
40
0.1679647772
40
0.2215986251
40
0.2811240306
40
0.3461128537
40
0.4160979016
40
0.4905760545
40
0.5690114881
40
0.6508394595
40
0.7354717024
40
0.8223001667
40
0.9106982033
40
1.0000000000
40
1.0000000000
40
1.0000000000
40
1.0000000000
10
-24.6950679731
20
-17.0362964381
30
0.0000000000
10
-24.6946470338
20
-17.0320439775
30
0.0000000000
10
-24.6939032273
20
-17.0219024636
30
0.0000000000
10
-24.6929486485
20
-17.0042900959
30
0.0000000000
10
-24.6920150516
20
-16.9819466746
30
0.0000000000
10
-24.6911087170
20
-16.9550343560
30
0.0000000000
10
-24.6902417607
20
-16.9237458097
30
0.0000000000
10
-24.6894211943
20
-16.8883062743
30
0.0000000000
10
-24.6886541715
20
-16.8489707928
30
0.0000000000
10
-24.6879467181
20
-16.8060226212
30
0.0000000000
10
-24.6873043413
20
-16.7597708728
30
0.0000000000
10
-24.6867319175
20
-16.7105484004
30
0.0000000000
10
-24.6862337522
20
-16.6587095632
30
0.0000000000
10
-24.6858135591
20
-16.6046275014
30
0.0000000000
10
-24.6854744509
20
-16.5486912897
30
0.0000000000
10
-24.6852189368
20
-16.4913036629
30
0.0000000000
10
-24.6850489094
20
-16.4328844756
30
0.0000000000
10
-24.6849935256
20
-16.3936406053
30
0.0000000000
10
-24.6849802401
20
-16.3739188688
30
0.0000000000
11
-24.6950679731
21
-17.0362964381
31
0.0000000000
11
-24.6940559550
21
-17.0235167151
31
0.0000000000
11
-24.6930662259
21
-17.0058646906
31
0.0000000000
11
-24.6921061625
21
-16.9834698901
31
0.0000000000
11
-24.6911826983
21
-16.9564939608
31
0.0000000000
11
-24.6903024719
21
-16.9251309929
31
0.0000000000
11
-24.6894718145
21
-16.8896066076
31
0.0000000000
11
-24.6886967101
21
-16.8501767893
31
0.0000000000
11
-24.6879827386
21
-16.8071255888
31
0.0000000000
11
-24.6873350345
21
-16.7607628379
31
0.0000000000
11
-24.6867582555
21
-16.7114221119
31
0.0000000000
11
-24.6862565518
21
-16.6594586149
31
0.0000000000
11
-24.6858335347
21
-16.6052466845
31
0.0000000000
11
-24.6854922436
21
-16.5491762250
31
0.0000000000
11
-24.6852351313
21
-16.4916502363
31
0.0000000000
11
-24.6850640496
21
-16.4330840325
31
0.0000000000
11
-24.6849802401
21
-16.3739188688
31
0.0000000000
0
SPLINE
5
26E
100
AcDbEntity
8
0
100
AcDbSpline
62
0
6
CONTINUOUS
70
0
71
3
72
20
73
16
74
14
42
0.0000001000
43
0.0000001000
44
0.0000000001
12
0.1238943969
22
-0.2739402683
32
0.0000000000
13
0.3006543718
23
-0.0002021791
33
0.0000000000
40
0.0000000000
40
0.0000000000
40
0.0000000000
40
0.0000000000
40
0.0102691964
40
0.0339884996
40
0.0712966002
40
0.1217563601
40
0.1846839009
40
0.2591997085
40
0.3442517431
40
0.4386341778
40
0.5410062053
40
0.6499119544
40
0.7638016910
40
0.8810541835
40
1.0000000000
40
1.0000000000
40
1.0000000000
40
1.0000000000
10
-24.6849802401
20
-16.3739188688
30
0.0000000000
10
-24.6845561415
20
-16.3748565842
30
0.0000000000
10
-24.6805445560
20
-16.3755958290
30
0.0000000000
10
-24.6741005162
20
-16.3770209784
30
0.0000000000
10
-24.6626758095
20
-16.3781341370
30
0.0000000000
10
-24.6477542767
20
-16.3793968925
30
0.0000000000
10
-24.6289076883
20
-16.3805305952
30
0.0000000000
10
-24.6066520505
20
-16.3816069426
30
0.0000000000
10
-24.5812140541
20
-16.3825723193
30
0.0000000000
10
-24.5529862321
20
-16.3834224226
30
0.0000000000
10
-24.5223612168
20
-16.3841401774
30
0.0000000000
10
-24.4897786100
20
-16.3847157371
30
0.0000000000
10
-24.4557020847
20
-16.3851400770
30
0.0000000000
10
-24.4206178131
20
-16.3854069577
30
0.0000000000
10
-24.3969464581
20
-16.3854770774
30
0.0000000000
10
-24.3850259316
20
-16.3854850935
30
0.0000000000
11
-24.6849802401
21
-16.3739188688
31
0.0000000000
11
-24.6822178134
21
-16.3752978279
31
0.0000000000
11
-24.6752172451
21
-16.3766571222
31
0.0000000000
11
-24.6640783678
21
-16.3779773673
31
0.0000000000
11
-24.6489600287
21
-16.3792397357
31
0.0000000000
11
-24.6300778248
21
-16.3804262252
31
0.0000000000
11
-24.6077010282
21
-16.3815199157
31
0.0000000000
11
-24.5821487458
21
-16.3825052106
31
0.0000000000
11
-24.5537853691
21
-16.3833680589
31
0.0000000000
11
-24.5230153777
21
-16.3840961558
31
0.0000000000
11
-24.4902775707
21
-16.3846791183
31
0.0000000000
11
-24.4560388097
21
-16.3851086329
31
0.0000000000
11
-24.4207873608
21
-16.3853785745
31
0.0000000000
11
-24.3850259316
21
-16.3854850935
31
0.0000000000
0
SPLINE
5
26F
100
AcDbEntity
8
0
100
AcDbSpline
62
0
6
CONTINUOUS
70
0
71
3
72
15
73
11
74
9
42
0.0000001000
43
0.0000001000
44
0.0000000001
12
0.0220545067
22
32.7709651995
32
0.0000000000
13
-0.0220545067
23
32.7709651995
33
0.0000000000
40
0.0000000000
40
0.0000000000
40
0.0000000000
40
0.0000000000
40
0.1249593477
40
0.2499535395
40
0.3749709621
40
0.5000000000
40
0.6250290379
40
0.7500464605
40
0.8750406523
40
1.0000000000
40
1.0000000000
40
1.0000000000
40
1.0000000000
10
-24.3850259316
20
-16.3854850935
30
0.0000000000
10
-24.3841072926
20
-15.0204722819
30
0.0000000000
10
-24.3824997115
20
-12.2900658733
30
0.0000000000
10
-24.3807774369
20
-8.1940118390
30
0.0000000000
10
-24.3797440080
20
-4.0971963005
30
0.0000000000
10
-24.3793995210
20
0.0000000000
30
0.0000000000
10
-24.3797440080
20
4.0971963006
30
0.0000000000
10
-24.3807774369
20
8.1940118391
30
0.0000000000
10
-24.3824997115
20
12.2900658734
30
0.0000000000
10
-24.3841072926
20
15.0204722819
30
0.0000000000
10
-24.3850259316
20
16.3854850935
30
0.0000000000
11
-24.3850259316
21
-16.3854850935
31
0.0000000000
11
-24.3826147842
21
-12.2904464410
31
0.0000000000
11
-24.3808923761
21
-8.1942655659
31
0.0000000000
11
-24.3798588672
21
-4.0973231619
31
0.0000000000
11
-24.3795143536
21
0.0000000000
31
0.0000000000
11
-24.3798588672
21
4.0973231620
31
0.0000000000
11
-24.3808923761
21
8.1942655660
31
0.0000000000
11
-24.3826147842
21
12.2904464411
31
0.0000000000
11
-24.3850259316
21
16.3854850935
31
0.0000000000
0
SPLINE
5
270
100
AcDbEntity
8
0
100
AcDbSpline
62
0
6
CONTINUOUS
70
0
71
3
72
20
73
16
74
14
42
0.0000001000
43
0.0000001000
44
0.0000000001
12
0.1238951642
22
0.2739399205
32
0.0000000000
13
0.3006543712
23
0.0002021789
33
0.0000000000
40
0.0000000000
40
0.0000000000
40
0.0000000000
40
0.0000000000
40
0.0102692089
40
0.0339885234
40
0.0712966328
40
0.1217563990
40
0.1846839434
40
0.2591997521
40
0.3442517854
40
0.4386342167
40
0.5410062388
40
0.6499119810
40
0.7638017094
40
0.8810541929
40
1.0000000000
40
1.0000000000
40
1.0000000000
40
1.0000000000
10
-24.6849802401
20
16.3739188688
30
0.0000000000
10
-24.6845561383
20
16.3748565842
30
0.0000000000
10
-24.6805445536
20
16.3755958283
30
0.0000000000
10
-24.6741005075
20
16.3770209781
30
0.0000000000
10
-24.6626757999
20
16.3781341364
30
0.0000000000
10
-24.6477542645
20
16.3793968918
30
0.0000000000
10
-24.6289076753
20
16.3805305944
30
0.0000000000
10
-24.6066520371
20
16.3816069416
30
0.0000000000
10
-24.5812140412
20
16.3825723181
30
0.0000000000
10
-24.5529862202
20
16.3834224213
30
0.0000000000
10
-24.5223612065
20
16.3841401760
30
0.0000000000
10
-24.4897786019
20
16.3847157356
30
0.0000000000
10
-24.4557020791
20
16.3851400754
30
0.0000000000
10
-24.4206178102
20
16.3854069560
30
0.0000000000
10
-24.3969464572
20
16.3854770757
30
0.0000000000
10
-24.3850259316
20
16.3854850918
30
0.0000000000
11
-24.6849802401
21
16.3739188688
31
0.0000000000
11
-24.6822178091
21
16.3752978278
31
0.0000000000
11
-24.6752172374
21
16.3766571219
31
0.0000000000
11
-24.6640783574
21
16.3779773668
31
0.0000000000
11
-24.6489600164
21
16.3792397350
31
0.0000000000
11
-24.6300778115
21
16.3804262244
31
0.0000000000
11
-24.6077010145
21
16.3815199147
31
0.0000000000
11
-24.5821487326
21
16.3825052094
31
0.0000000000
11
-24.5537853570
21
16.3833680576
31
0.0000000000
11
-24.5230153673
21
16.3840961544
31
0.0000000000
11
-24.4902775624
21
16.3846791168
31
0.0000000000
11
-24.4560388040
21
16.3851086313
31
0.0000000000
11
-24.4207873578
21
16.3853785728
31
0.0000000000
11
-24.3850259316
21
16.3854850918
31
0.0000000000
0
SPLINE
5
271
100
AcDbEntity
8
0
100
AcDbSpline
62
0
6
CONTINUOUS
70
0
71
3
72
23
73
19
74
17
42
0.0000001000
43
0.0000001000
44
0.0000000001
12
-0.0004462523
22
0.9463611159
32
0.0000000000
13
-0.0654167177
23
0.9440975659
33
0.0000000000
40
0.0000000000
40
0.0000000000
40
0.0000000000
40
0.0000000000
40
0.0893423175
40
0.1777469978
40
0.2645814888
40
0.3492190641
40
0.4310515231
40
0.5094905233
40
0.5839712066
40
0.6539576011
40
0.7189464212
40
0.7784703090
40
0.8321009616
40
0.8794523959
40
0.9201846175
40
0.9540056633
40
0.9806731761
40
1.0000000000
40
1.0000000000
40
1.0000000000
40
1.0000000000
10
-24.3850259316
20
16.3854850935
30
0.0000000000
10
-24.3850392213
20
16.4136684586
30
0.0000000000
10
-24.3850946245
20
16.4697393985
30
0.0000000000
10
-24.3852646902
20
16.5532024605
30
0.0000000000
10
-24.3855202215
20
16.6351811708
30
0.0000000000
10
-24.3858593343
20
16.7150863290
30
0.0000000000
10
-24.3862795278
20
16.7923426770
30
0.0000000000
10
-24.3867776842
20
16.8663944652
30
0.0000000000
10
-24.3873500922
20
16.9367087173
30
0.0000000000
10
-24.3879924452
20
17.0027792727
30
0.0000000000
10
-24.3886998668
20
17.0641307015
30
0.0000000000
10
-24.3894668502
20
17.1203215092
30
0.0000000000
10
-24.3902873693
20
17.1709471292
30
0.0000000000
10
-24.3911542682
20
17.2156431536
30
0.0000000000
10
-24.3920605358
20
17.2540878385
30
0.0000000000
10
-24.3929940018
20
17.2860051114
30
0.0000000000
10
-24.3939484998
20
17.3111650221
30
0.0000000000
10
-24.3946922321
20
17.3256566282
30
0.0000000000
10
-24.3951136646
20
17.3317387640
30
0.0000000000
11
-24.3850259316
21
16.3854850935
31
0.0000000000
11
-24.3851097843
21
16.4700351566
31
0.0000000000
11
-24.3852808855
21
16.5536977429
31
0.0000000000
11
-24.3855380133
21
16.6358741355
31
0.0000000000
11
-24.3858793109
21
16.7159711275
31
0.0000000000
11
-24.3863023280
21
16.7934130380
31
0.0000000000
11
-24.3868040239
21
16.8676429706
31
0.0000000000
11
-24.3873807880
21
16.9381262413
31
0.0000000000
11
-24.3880284699
21
17.0043554841
31
0.0000000000
11
-24.3887424121
21
17.0658542393
31
0.0000000000
11
-24.3895174809
21
17.1221800061
31
0.0000000000
11
-24.3903480986
21
17.1729271787
31
0.0000000000
11
-24.3912282835
21
17.2177300948
31
0.0000000000
11
-24.3921517020
21
17.2562664278
31
0.0000000000
11
-24.3931117252
21
17.2882589531
31
0.0000000000
11
-24.3941013996
21
17.3134766406
31
0.0000000000
11
-24.3951136646
21
17.3317387640
31
0.0000000000
0
SPLINE
5
272
100
AcDbEntity
8
0
100
AcDbSpline
62
0
6
CONTINUOUS
70
0
71
3
72
23
73
19
74
17
42
0.0000001000
43
0.0000001000
44
0.0000000001
12
-0.0004462989
22
0.6625310105
32
0.0000000000
13
-0.0652627498
23
0.6593089659
33
0.0000000000
40
0.0000000000
40
0.0000000000
40
0.0000000000
40
0.0000000000
40
0.0893098378
40
0.1777080418
40
0.2645366215
40
0.3491689290
40
0.4309968716
40
0.5094322071
40
0.5839101755
40
0.6538947912
40
0.7188829293
40
0.7784074848
40
0.8320404858
40
0.8793963971
40
0.9201359009
40
0.9539680310
40
0.9806524618
40
1.0000000000
40
1.0000000000
40
1.0000000000
40
1.0000000000
10
-24.6849802401
20
16.3739188688
30
0.0000000000
10
-24.6849935264
20
16.3936423811
30
0.0000000000
10
-24.6850489162
20
16.4328880642
30
0.0000000000
10
-24.6852189562
20
16.4913090898
30
0.0000000000
10
-24.6854744797
20
16.5486967933
30
0.0000000000
10
-24.6858135970
20
16.6046330383
30
0.0000000000
10
-24.6862337999
20
16.6587150862
30
0.0000000000
10
-24.6867319751
20
16.7105538546
30
0.0000000000
10
-24.6873044085
20
16.7597761690
30
0.0000000000
10
-24.6879467939
20
16.8060276298
30
0.0000000000
10
-24.6886542536
20
16.8489753668
30
0.0000000000
10
-24.6894212805
20
16.8883103221
30
0.0000000000
10
-24.6902418491
20
16.9237492990
30
0.0000000000
10
-24.6911088073
20
16.9550372943
30
0.0000000000
10
-24.6920151409
20
16.9819490725
30
0.0000000000
10
-24.6929487402
20
17.0042919757
30
0.0000000000
10
-24.6939032941
20
17.0219035453
30
0.0000000000
10
-24.6946470819
20
17.0320444363
30
0.0000000000
10
-24.6950679731
20
17.0362964381
30
0.0000000000
11
-24.6849802401
21
16.3739188688
31
0.0000000000
11
-24.6850640612
21
16.4330893599
31
0.0000000000
11
-24.6852351511
21
16.4916556747
31
0.0000000000
11
-24.6854922726
21
16.5491817398
31
0.0000000000
11
-24.6858335731
21
16.6052522420
31
0.0000000000
11
-24.6862565999
21
16.6594641533
31
0.0000000000
11
-24.6867583137
21
16.7114275852
31
0.0000000000
11
-24.6873351029
21
16.7607681888
31
0.0000000000
11
-24.6879828157
21
16.8071306533
31
0.0000000000
11
-24.6886967934
21
16.8501813997
31
0.0000000000
11
-24.6894719013
21
16.8896106547
31
0.0000000000
11
-24.6903025612
21
16.9251344788
31
0.0000000000
11
-24.6911827893
21
16.9564968957
31
0.0000000000
11
-24.6921062541
21
16.9834722843
31
0.0000000000
11
-24.6930663173
21
17.0058665547
31
0.0000000000
11
-24.6940560456
21
17.0235180962
31
0.0000000000
11
-24.6950679731
21
17.0362964381
31
0.0000000000
0
SPLINE
5
273
100
AcDbEntity
8
0
100
AcDbSpline
62
0
6
CONTINUOUS
70
0
71
3
72
53
73
49
74
47
42
0.0000001000
43
0.0000001000
44
0.0000000001
12
0.0000000000
22
7.8352824469
32
0.0000000000
13
0.0000000000
23
-7.8352824469
33
0.0000000000
40
0.0000000000
40
0.0000000000
40
0.0000000000
40
0.0000000000
40
0.0216297225
40
0.0432714177
40
0.0649021541
40
0.0865565552
40
0.1081997555
40
0.1298687968
40
0.1515374670
40
0.1732219214
40
0.1949237680
40
0.2166264549
40
0.2383599994
40
0.2600892288
40
0.2818509279
40
0.3036127406
40
0.3253969325
40
0.3471936789
40
0.3689941777
40
0.3908187683
40
0.4126349545
40
0.4344772448
40
0.4563081729
40
0.4781569837
40
0.5000005538
40
0.5218440320
40
0.5436929207
40
0.5655238225
40
0.5873660912
40
0.6091823223
40
0.6310068022
40
0.6528074003
40
0.6746040023
40
0.6963882875
40
0.7181500656
40
0.7399117298
40
0.7616410439
40
0.7833744355
40
0.8050772747
40
0.8267789191
40
0.8484635085
40
0.8701321134
40
0.8918011255
40
0.9134444429
40
0.9350986460
40
0.9567295945
40
0.9783710358
40
1.0000000000
40
1.0000000000
40
1.0000000000
40
1.0000000000
10
-2.5000000000
20
0.0000000000
30
0.0000000000
10
-2.5000000000
20
0.0564916616
30
0.0000000000
10
-2.4961325952
20
0.1695443758
30
0.0000000000
10
-2.4787552144
20
0.3382867943
30
0.0000000000
10
-2.4498733212
20
0.5055182963
30
0.0000000000
10
-2.4096276449
20
0.6703865022
30
0.0000000000
10
-2.3581782942
20
0.8322143996
30
0.0000000000
10
-2.2957776435
20
0.9901832771
30
0.0000000000
10
-2.2226827288
20
1.1436163711
30
0.0000000000
10
-2.1392361058
20
1.2917730386
30
0.0000000000
10
-2.0458156128
20
1.4339581422
30
0.0000000000
10
-1.9428275698
20
1.5695348210
30
0.0000000000
10
-1.8307768962
20
1.6978183970
30
0.0000000000
10
-1.7101232848
20
1.8182641134
30
0.0000000000
10
-1.5814766137
20
1.9302452900
30
0.0000000000
10
-1.4453757011
20
2.0332754369
30
0.0000000000
10
-1.3024884040
20
2.1268339950
30
0.0000000000
10
-1.1534652049
20
2.2104796700
30
0.0000000000
10
-0.9989913173
20
2.2838170245
30
0.0000000000
10
-0.8398301617
20
2.3464726022
30
0.0000000000
10
-0.6766653413
20
2.3981688105
30
0.0000000000
10
-0.5103407666
20
2.4386306901
30
0.0000000000
10
-0.3415621170
20
2.4676803705
30
0.0000000000
10
-0.1711930166
20
2.4851649091
30
0.0000000000
10
0.0000041051
20
2.4910023349
30
0.0000000000
10
0.1712014092
20
2.4851643348
30
0.0000000000
10
0.3415703484
20
2.4676792458
30
0.0000000000
10
0.5103489769
20
2.4386289826
30
0.0000000000
10
0.6766734104
20
2.3981665559
30
0.0000000000
10
0.8398378413
20
2.3464698714
30
0.0000000000
10
0.9989988738
20
2.2838137470
30
0.0000000000
10
1.1534721589
20
2.2104760686
30
0.0000000000
10
1.3024952018
20
2.1268298630
30
0.0000000000
10
1.4453820252
20
2.0332709871
30
0.0000000000
10
1.5814826601
20
1.9302403714
30
0.0000000000
10
1.7101290175
20
1.8182587749
30
0.0000000000
10
1.8307820603
20
1.6978128683
30
0.0000000000
10
1.9428324865
20
1.5695287881
30
0.0000000000
10
2.0458197979
20
1.4339522158
30
0.0000000000
10
2.1392399893
20
1.2917666519
30
0.0000000000
10
2.2226860195
20
1.1436100451
30
0.0000000000
10
2.2957805227
20
0.9901766388
30
0.0000000000
10
2.3581807481
20
0.8322075304
30
0.0000000000
10
2.4096295317
20
0.6703797526
30
0.0000000000
10
2.4498748200
20
0.5055111023
30
0.0000000000
10
2.4787561280
20
0.3382801318
30
0.0000000000
10
2.4961328215
20
0.1695397476
30
0.0000000000
10
2.5000000000
20
0.0564896811
30
0.0000000000
10
2.5000000000
20
-0.0000000000
30
0.0000000000
11
-2.5000000000
21
0.0000000000
31
0.0000000000
11
-2.4942051321
21
0.1693758838
31
0.0000000000
11
-2.4768355290
21
0.3380527142
31
0.0000000000
11
-2.4479920846
21
0.5050632495
31
0.0000000000
11
-2.4077569969
21
0.6698919072
31
0.0000000000
11
-2.3563779520
21
0.8315018369
31
0.0000000000
11
-2.2940019080
21
0.9894116728
31
0.0000000000
11
-2.2209832536
21
1.1426878152
31
0.0000000000
11
-2.1376049446
21
1.2907262127
31
0.0000000000
11
-2.0442347914
21
1.4328376106
31
0.0000000000
11
-1.9413755262
21
1.5682475274
31
0.0000000000
11
-1.8293529426
21
1.6965015728
31
0.0000000000
11
-1.7088621931
21
1.8167871706
31
0.0000000000
11
-1.5802529508
21
1.9287380623
31
0.0000000000
11
-1.4443050040
21
2.0316545260
31
0.0000000000
11
-1.3015080422
21
2.1251558519
31
0.0000000000
11
-1.1525811647
21
2.2087491843
31
0.0000000000
11
-0.9982755387
21
2.2820081587
31
0.0000000000
11
-0.8391593510
21
2.3446473258
31
0.0000000000
11
-0.6762070313
21
2.3962772681
31
0.0000000000
11
-0.5099165747
21
2.4367316809
31
0.0000000000
11
-0.3413438872
21
2.4657465107
31
0.0000000000
11
-0.1710467876
21
2.4832240178
31
0.0000000000
11
0.0000043418
21
2.4890565887
31
0.0000000000
11
0.1710547320
21
2.4832234753
31
0.0000000000
11
0.3413523806
21
2.4657453452
31
0.0000000000
11
0.5099247676
21
2.4367299814
31
0.0000000000
11
0.6762149267
21
2.3962750595
31
0.0000000000
11
0.8391674092
21
2.3446444670
31
0.0000000000
11
0.9982825870
21
2.2820051023
31
0.0000000000
11
1.1525886797
21
2.2087452971
31
0.0000000000
11
1.3015143069
21
2.1251520487
31
0.0000000000
11
1.4443115927
21
2.0316498830
31
0.0000000000
11
1.5802589972
21
1.9287331517
31
0.0000000000
11
1.7088676899
21
1.8167820456
31
0.0000000000
11
1.8293585305
21
1.6964956000
31
0.0000000000
11
1.9413799359
21
1.5682421161
31
0.0000000000
11
2.0442395107
21
1.4328309363
31
0.0000000000
11
2.1376083723
21
1.2907205855
31
0.0000000000
11
2.2209867767
21
1.1426810271
31
0.0000000000
11
2.2940047551
21
0.9894051294
31
0.0000000000
11
2.3563802685
21
0.8314953297
31
0.0000000000
11
2.4077591114
21
0.6698843734
31
0.0000000000
11
2.4479933627
21
0.5050571085
31
0.0000000000
11
2.4768366115
21
0.3380448523
31
0.0000000000
11
2.4942055384
21
0.1693699528
31
0.0000000000
11
2.5000000000
21
-0.0000000000
31
0.0000000000
0
SPLINE
5
274
100
AcDbEntity
8
0
100
AcDbSpline
62
0
6
CONTINUOUS
70
0
71
3
72
53
73
49
74
47
42
0.0000001000
43
0.0000001000
44
0.0000000001
12
0.0000000000
22
-7.8352824469
32
0.0000000000
13
0.0000000000
23
7.8352824469
33
0.0000000000
40
0.0000000000
40
0.0000000000
40
0.0000000000
40
0.0000000000
40
0.0216297225
40
0.0432714177
40
0.0649021541
40
0.0865565552
40
0.1081997555
40
0.1298687968
40
0.1515374670
40
0.1732219214
40
0.1949237680
40
0.2166264549
40
0.2383599994
40
0.2600892288
40
0.2818509279
40
0.3036127406
40
0.3253969325
40
0.3471936789
40
0.3689941777
40
0.3908187683
40
0.4126349545
40
0.4344772448
40
0.4563081729
40
0.4781569837
40
0.5000005538
40
0.5218440320
40
0.5436929207
40
0.5655238225
40
0.5873660912
40
0.6091823223
40
0.6310068022
40
0.6528074003
40
0.6746040023
40
0.6963882875
40
0.7181500656
40
0.7399117298
40
0.7616410439
40
0.7833744355
40
0.8050772747
40
0.8267789191
40
0.8484635085
40
0.8701321134
40
0.8918011255
40
0.9134444429
40
0.9350986460
40
0.9567295945
40
0.9783710358
40
1.0000000000
40
1.0000000000
40
1.0000000000
40
1.0000000000
10
2.5000000000
20
-0.0000000000
30
0.0000000000
10
2.5000000000
20
-0.0564916616
30
0.0000000000
10
2.4961325952
20
-0.1695443758
30
0.0000000000
10
2.4787552144
20
-0.3382867943
30
0.0000000000
10
2.4498733212
20
-0.5055182963
30
0.0000000000
10
2.4096276449
20
-0.6703865022
30
0.0000000000
10
2.3581782942
20
-0.8322143996
30
0.0000000000
10
2.2957776435
20
-0.9901832771
30
0.0000000000
10
2.2226827288
20
-1.1436163711
30
0.0000000000
10
2.1392361058
20
-1.2917730386
30
0.0000000000
10
2.0458156128
20
-1.4339581422
30
0.0000000000
10
1.9428275698
20
-1.5695348210
30
0.0000000000
10
1.8307768962
20
-1.6978183970
30
0.0000000000
10
1.7101232848
20
-1.8182641134
30
0.0000000000
10
1.5814766137
20
-1.9302452900
30
0.0000000000
10
1.4453757011
20
-2.0332754369
30
0.0000000000
10
1.3024884040
20
-2.1268339950
30
0.0000000000
10
1.1534652049
20
-2.2104796700
30
0.0000000000
10
0.9989913173
20
-2.2838170245
30
0.0000000000
10
0.8398301617
20
-2.3464726022
30
0.0000000000
10
0.6766653413
20
-2.3981688105
30
0.0000000000
10
0.5103407666
20
-2.4386306901
30
0.0000000000
10
0.3415621170
20
-2.4676803705
30
0.0000000000
10
0.1711930166
20
-2.4851649091
30
0.0000000000
10
-0.0000041051
20
-2.4910023349
30
0.0000000000
10
-0.1712014092
20
-2.4851643348
30
0.0000000000
10
-0.3415703484
20
-2.4676792458
30
0.0000000000
10
-0.5103489769
20
-2.4386289826
30
0.0000000000
10
-0.6766734104
20
-2.3981665559
30
0.0000000000
10
-0.8398378413
20
-2.3464698714
30
0.0000000000
10
-0.9989988738
20
-2.2838137470
30
0.0000000000
10
-1.1534721589
20
-2.2104760686
30
0.0000000000
10
-1.3024952018
20
-2.1268298630
30
0.0000000000
10
-1.4453820252
20
-2.0332709871
30
0.0000000000
10
-1.5814826601
20
-1.9302403714
30
0.0000000000
10
-1.7101290175
20
-1.8182587749
30
0.0000000000
10
-1.8307820603
20
-1.6978128683
30
0.0000000000
10
-1.9428324865
20
-1.5695287881
30
0.0000000000
10
-2.0458197979
20
-1.4339522158
30
0.0000000000
10
-2.1392399893
20
-1.2917666519
30
0.0000000000
10
-2.2226860195
20
-1.1436100451
30
0.0000000000
10
-2.2957805227
20
-0.9901766388
30
0.0000000000
10
-2.3581807481
20
-0.8322075304
30
0.0000000000
10
-2.4096295317
20
-0.6703797526
30
0.0000000000
10
-2.4498748200
20
-0.5055111023
30
0.0000000000
10
-2.4787561280
20
-0.3382801318
30
0.0000000000
10
-2.4961328215
20
-0.1695397476
30
0.0000000000
10
-2.5000000000
20
-0.0564896811
30
0.0000000000
10
-2.5000000000
20
0.0000000000
30
0.0000000000
11
2.5000000000
21
-0.0000000000
31
0.0000000000
11
2.4942051321
21
-0.1693758838
31
0.0000000000
11
2.4768355290
21
-0.3380527142
31
0.0000000000
11
2.4479920846
21
-0.5050632495
31
0.0000000000
11
2.4077569969
21
-0.6698919072
31
0.0000000000
11
2.3563779520
21
-0.8315018369
31
0.0000000000
11
2.2940019080
21
-0.9894116728
31
0.0000000000
11
2.2209832536
21
-1.1426878152
31
0.0000000000
11
2.1376049446
21
-1.2907262127
31
0.0000000000
11
2.0442347914
21
-1.4328376106
31
0.0000000000
11
1.9413755262
21
-1.5682475274
31
0.0000000000
11
1.8293529426
21
-1.6965015728
31
0.0000000000
11
1.7088621931
21
-1.8167871706
31
0.0000000000
11
1.5802529508
21
-1.9287380623
31
0.0000000000
11
1.4443050040
21
-2.0316545260
31
0.0000000000
11
1.3015080422
21
-2.1251558519
31
0.0000000000
11
1.1525811647
21
-2.2087491843
31
0.0000000000
11
0.9982755387
21
-2.2820081587
31
0.0000000000
11
0.8391593510
21
-2.3446473258
31
0.0000000000
11
0.6762070313
21
-2.3962772681
31
0.0000000000
11
0.5099165747
21
-2.4367316809
31
0.0000000000
11
0.3413438872
21
-2.4657465107
31
0.0000000000
11
0.1710467876
21
-2.4832240178
31
0.0000000000
11
-0.0000043418
21
-2.4890565887
31
0.0000000000
11
-0.1710547320
21
-2.4832234753
31
0.0000000000
11
-0.3413523806
21
-2.4657453452
31
0.0000000000
11
-0.5099247676
21
-2.4367299814
31
0.0000000000
11
-0.6762149267
21
-2.3962750595
31
0.0000000000
11
-0.8391674092
21
-2.3446444670
31
0.0000000000
11
-0.9982825870
21
-2.2820051023
31
0.0000000000
11
-1.1525886797
21
-2.2087452971
31
0.0000000000
11
-1.3015143069
21
-2.1251520487
31
0.0000000000
11
-1.4443115927
21
-2.0316498830
31
0.0000000000
11
-1.5802589972
21
-1.9287331517
31
0.0000000000
11
-1.7088676899
21
-1.8167820456
31
0.0000000000
11
-1.8293585305
21
-1.6964956000
31
0.0000000000
11
-1.9413799359
21
-1.5682421161
31
0.0000000000
11
-2.0442395107
21
-1.4328309363
31
0.0000000000
11
-2.1376083723
21
-1.2907205855
31
0.0000000000
11
-2.2209867767
21
-1.1426810271
31
0.0000000000
11
-2.2940047551
21
-0.9894051294
31
0.0000000000
11
-2.3563802685
21
-0.8314953297
31
0.0000000000
11
-2.4077591114
21
-0.6698843734
31
0.0000000000
11
-2.4479933627
21
-0.5050571085
31
0.0000000000
11
-2.4768366115
21
-0.3380448523
31
0.0000000000
11
-2.4942055384
21
-0.1693699528
31
0.0000000000
11
-2.5000000000
21
0.0000000000
31
0.0000000000
0
SPLINE
5
275
100
AcDbEntity
8
0
100
AcDbSpline
62
0
6
CONTINUOUS
70
0
71
3
72
21
73
17
74
15
42
0.0000001000
43
0.0000001000
44
0.0000000001
12
0.4732934017
22
0.0000000000
32
0.0000000000
13
0.0000000000
23
-0.4732934017
33
0.0000000000
40
0.0000000000
40
0.0000000000
40
0.0000000000
40
0.0000000000
40
0.0701557286
40
0.1407494898
40
0.2113035808
40
0.2816602098
40
0.3525770160
40
0.4238147851
40
0.4949398023
40
0.5662715703
40
0.6382459406
40
0.7103943951
40
0.7823476459
40
0.8547745344
40
0.9275102805
40
1.0000000000
40
1.0000000000
40
1.0000000000
40
1.0000000000
10
24.5008636137
20
18.4000000000
30
0.0000000000
10
24.5119316948
20
18.4000000000
30
0.0000000000
10
24.5341571496
20
18.3987498265
30
0.0000000000
10
24.5670850448
20
18.3931295627
30
0.0000000000
10
24.5992031509
20
18.3838209974
30
0.0000000000
10
24.6301162990
20
18.3709413879
30
0.0000000000
10
24.6594815330
20
18.3546161052
30
0.0000000000
10
24.6869193236
20
18.3350156933
30
0.0000000000
10
24.7120299307
20
18.3124141833
30
0.0000000000
10
24.7345322471
20
18.2870591791
30
0.0000000000
10
24.7541487590
20
18.2592120490
30
0.0000000000
10
24.7705704132
20
18.2292573964
30
0.0000000000
10
24.7835788425
20
18.1975947425
30
0.0000000000
10
24.7930126759
20
18.1645913911
30
0.0000000000
10
24.7987267075
20
18.1306632907
30
0.0000000000
10
24.8000000000
20
18.1077315175
30
0.0000000000
10
24.8000000000
20
18.0962952155
30
0.0000000000
11
24.5008636137
21
18.4000000000
31
0.0000000000
11
24.5340153955
21
18.3981342190
31
0.0000000000
11
24.5669508211
21
18.3925137051
31
0.0000000000
11
24.5990240046
21
18.3832191348
31
0.0000000000
11
24.6297628788
21
18.3704141796
31
0.0000000000
11
24.6590998492
21
18.3541072821
31
0.0000000000
11
24.6865367185
21
18.3345110697
31
0.0000000000
11
24.7115593557
21
18.3119929595
31
0.0000000000
11
24.7339715461
21
18.2867444138
31
0.0000000000
11
24.7535920399
21
18.2588973299
31
0.0000000000
11
24.7700100887
21
18.2289558580
31
0.0000000000
11
24.7829541844
21
18.1974567575
31
0.0000000000
11
24.7923777943
21
18.1644983449
31
0.0000000000
11
24.7980961851
21
18.1305512590
31
0.0000000000
11
24.8000000000
21
18.0962952155
31
0.0000000000
0
SPLINE
5
276
100
AcDbEntity
8
0
100
AcDbSpline
62
0
6
CONTINUOUS
70
0
71
3
72
21
73
17
74
15
42
0.0000001000
43
0.0000001000
44
0.0000000001
12
0.0000000000
22
-0.4732934017
32
0.0000000000
13
-0.4732934017
23
-0.0000000000
33
0.0000000000
40
0.0000000000
40
0.0000000000
40
0.0000000000
40
0.0000000000
40
0.0724897195
40
0.1452254656
40
0.2176523541
40
0.2896056049
40
0.3617540594
40
0.4337284297
40
0.5050601977
40
0.5761852149
40
0.6474229840
40
0.7183397902
40
0.7886964192
40
0.8592505102
40
0.9298442714
40
1.0000000000
40
1.0000000000
40
1.0000000000
40
1.0000000000
10
24.8000000000
20
-18.0962952155
30
0.0000000000
10
24.8000000000
20
-18.1077315175
30
0.0000000000
10
24.7987267075
20
-18.1306632907
30
0.0000000000
10
24.7930126759
20
-18.1645913911
30
0.0000000000
10
24.7835788425
20
-18.1975947425
30
0.0000000000
10
24.7705704132
20
-18.2292573964
30
0.0000000000
10
24.7541487590
20
-18.2592120490
30
0.0000000000
10
24.7345322471
20
-18.2870591791
30
0.0000000000
10
24.7120299307
20
-18.3124141833
30
0.0000000000
10
24.6869193236
20
-18.3350156933
30
0.0000000000
10
24.6594815330
20
-18.3546161052
30
0.0000000000
10
24.6301162990
20
-18.3709413879
30
0.0000000000
10
24.5992031509
20
-18.3838209974
30
0.0000000000
10
24.5670850448
20
-18.3931295627
30
0.0000000000
10
24.5341571496
20
-18.3987498265
30
0.0000000000
10
24.5119316948
20
-18.4000000000
30
0.0000000000
10
24.5008636137
20
-18.4000000000
30
0.0000000000
11
24.8000000000
21
-18.0962952155
31
0.0000000000
11
24.7980961851
21
-18.1305512590
31
0.0000000000
11
24.7923777943
21
-18.1644983449
31
0.0000000000
11
24.7829541844
21
-18.1974567575
31
0.0000000000
11
24.7700100887
21
-18.2289558580
31
0.0000000000
11
24.7535920399
21
-18.2588973299
31
0.0000000000
11
24.7339715461
21
-18.2867444138
31
0.0000000000
11
24.7115593557
21
-18.3119929595
31
0.0000000000
11
24.6865367185
21
-18.3345110697
31
0.0000000000
11
24.6590998492
21
-18.3541072821
31
0.0000000000
11
24.6297628788
21
-18.3704141796
31
0.0000000000
11
24.5990240046
21
-18.3832191348
31
0.0000000000
11
24.5669508211
21
-18.3925137051
31
0.0000000000
11
24.5340153955
21
-18.3981342190
31
0.0000000000
11
24.5008636137
21
-18.4000000000
31
0.0000000000
0
SPLINE
5
277
100
AcDbEntity
8
0
100
AcDbSpline
62
0
6
CONTINUOUS
70
0
71
3
72
21
73
17
74
15
42
0.0000001000
43
0.0000001000
44
0.0000000001
12
-0.4732934017
22
0.0000000000
32
0.0000000000
13
0.0000000000
23
0.4732934017
33
0.0000000000
40
0.0000000000
40
0.0000000000
40
0.0000000000
40
0.0000000000
40
0.0701557286
40
0.1407494898
40
0.2113035808
40
0.2816602098
40
0.3525770160
40
0.4238147851
40
0.4949398023
40
0.5662715703
40
0.6382459406
40
0.7103943951
40
0.7823476459
40
0.8547745344
40
0.9275102805
40
1.0000000000
40
1.0000000000
40
1.0000000000
40
1.0000000000
10
-24.5008636137
20
-18.4000000000
30
0.0000000000
10
-24.5119316948
20
-18.4000000000
30
0.0000000000
10
-24.5341571496
20
-18.3987498265
30
0.0000000000
10
-24.5670850448
20
-18.3931295627
30
0.0000000000
10
-24.5992031509
20
-18.3838209974
30
0.0000000000
10
-24.6301162990
20
-18.3709413879
30
0.0000000000
10
-24.6594815330
20
-18.3546161052
30
0.0000000000
10
-24.6869193236
20
-18.3350156933
30
0.0000000000
10
-24.7120299307
20
-18.3124141833
30
0.0000000000
10
-24.7345322471
20
-18.2870591791
30
0.0000000000
10
-24.7541487590
20
-18.2592120490
30
0.0000000000
10
-24.7705704132
20
-18.2292573964
30
0.0000000000
10
-24.7835788425
20
-18.1975947425
30
0.0000000000
10
-24.7930126759
20
-18.1645913911
30
0.0000000000
10
-24.7987267075
20
-18.1306632907
30
0.0000000000
10
-24.8000000000
20
-18.1077315175
30
0.0000000000
10
-24.8000000000
20
-18.0962952155
30
0.0000000000
11
-24.5008636137
21
-18.4000000000
31
0.0000000000
11
-24.5340153955
21
-18.3981342190
31
0.0000000000
11
-24.5669508211
21
-18.3925137051
31
0.0000000000
11
-24.5990240046
21
-18.3832191348
31
0.0000000000
11
-24.6297628788
21
-18.3704141796
31
0.0000000000
11
-24.6590998492
21
-18.3541072821
31
0.0000000000
11
-24.6865367185
21
-18.3345110697
31
0.0000000000
11
-24.7115593557
21
-18.3119929595
31
0.0000000000
11
-24.7339715461
21
-18.2867444138
31
0.0000000000
11
-24.7535920399
21
-18.2588973299
31
0.0000000000
11
-24.7700100887
21
-18.2289558580
31
0.0000000000
11
-24.7829541844
21
-18.1974567575
31
0.0000000000
11
-24.7923777943
21
-18.1644983449
31
0.0000000000
11
-24.7980961851
21
-18.1305512590
31
0.0000000000
11
-24.8000000000
21
-18.0962952155
31
0.0000000000
0
SPLINE
5
278
100
AcDbEntity
8
0
100
AcDbSpline
62
0
6
CONTINUOUS
70
0
71
3
72
21
73
17
74
15
42
0.0000001000
43
0.0000001000
44
0.0000000001
12
0.0000000000
22
0.4732934017
32
0.0000000000
13
0.4732934017
23
0.0000000000
33
0.0000000000
40
0.0000000000
40
0.0000000000
40
0.0000000000
40
0.0000000000
40
0.0724897195
40
0.1452254656
40
0.2176523541
40
0.2896056049
40
0.3617540594
40
0.4337284297
40
0.5050601977
40
0.5761852149
40
0.6474229840
40
0.7183397902
40
0.7886964192
40
0.8592505102
40
0.9298442714
40
1.0000000000
40
1.0000000000
40
1.0000000000
40
1.0000000000
10
-24.8000000000
20
18.0962952155
30
0.0000000000
10
-24.8000000000
20
18.1077315175
30
0.0000000000
10
-24.7987267075
20
18.1306632907
30
0.0000000000
10
-24.7930126759
20
18.1645913911
30
0.0000000000
10
-24.7835788425
20
18.1975947425
30
0.0000000000
10
-24.7705704132
20
18.2292573964
30
0.0000000000
10
-24.7541487590
20
18.2592120490
30
0.0000000000
10
-24.7345322471
20
18.2870591791
30
0.0000000000
10
-24.7120299307
20
18.3124141833
30
0.0000000000
10
-24.6869193236
20
18.3350156933
30
0.0000000000
10
-24.6594815330
20
18.3546161052
30
0.0000000000
10
-24.6301162990
20
18.3709413879
30
0.0000000000
10
-24.5992031509
20
18.3838209974
30
0.0000000000
10
-24.5670850448
20
18.3931295627
30
0.0000000000
10
-24.5341571496
20
18.3987498265
30
0.0000000000
10
-24.5119316948
20
18.4000000000
30
0.0000000000
10
-24.5008636137
20
18.4000000000
30
0.0000000000
11
-24.8000000000
21
18.0962952155
31
0.0000000000
11
-24.7980961851
21
18.1305512590
31
0.0000000000
11
-24.7923777943
21
18.1644983449
31
0.0000000000
11
-24.7829541844
21
18.1974567575
31
0.0000000000
11
-24.7700100887
21
18.2289558580
31
0.0000000000
11
-24.7535920399
21
18.2588973299
31
0.0000000000
11
-24.7339715461
21
18.2867444138
31
0.0000000000
11
-24.7115593557
21
18.3119929595
31
0.0000000000
11
-24.6865367185
21
18.3345110697
31
0.0000000000
11
-24.6590998492
21
18.3541072821
31
0.0000000000
11
-24.6297628788
21
18.3704141796
31
0.0000000000
11
-24.5990240046
21
18.3832191348
31
0.0000000000
11
-24.5669508211
21
18.3925137051
31
0.0000000000
11
-24.5340153955
21
18.3981342190
31
0.0000000000
11
-24.5008636137
21
18.4000000000
31
0.0000000000
0
SPLINE
5
279
100
AcDbEntity
8
0
100
AcDbSpline
62
0
6
CONTINUOUS
70
0
71
3
72
53
73
49
74
47
42
0.0000001000
43
0.0000001000
44
0.0000000001
12
0.0000000000
22
7.8352824469
32
0.0000000000
13
0.0000000000
23
-7.8352824469
33
0.0000000000
40
0.0000000000
40
0.0000000000
40
0.0000000000
40
0.0000000000
40
0.0216297225
40
0.0432714177
40
0.0649021541
40
0.0865565552
40
0.1081997555
40
0.1298687968
40
0.1515374670
40
0.1732219214
40
0.1949237680
40
0.2166264549
40
0.2383599994
40
0.2600892288
40
0.2818509279
40
0.3036127406
40
0.3253969325
40
0.3471936789
40
0.3689941777
40
0.3908187683
40
0.4126349545
40
0.4344772448
40
0.4563081729
40
0.4781569837
40
0.5000005538
40
0.5218440320
40
0.5436929207
40
0.5655238225
40
0.5873660912
40
0.6091823223
40
0.6310068022
40
0.6528074003
40
0.6746040023
40
0.6963882875
40
0.7181500656
40
0.7399117298
40
0.7616410439
40
0.7833744355
40
0.8050772747
40
0.8267789191
40
0.8484635085
40
0.8701321134
40
0.8918011255
40
0.9134444429
40
0.9350986460
40
0.9567295945
40
0.9783710358
40
1.0000000000
40
1.0000000000
40
1.0000000000
40
1.0000000000
10
-2.5000000000
20
0.0000000000
30
0.0000000000
10
-2.5000000000
20
0.0564916616
30
0.0000000000
10
-2.4961325952
20
0.1695443758
30
0.0000000000
10
-2.4787552144
20
0.3382867943
30
0.0000000000
10
-2.4498733212
20
0.5055182963
30
0.0000000000
10
-2.4096276449
20
0.6703865022
30
0.0000000000
10
-2.3581782942
20
0.8322143996
30
0.0000000000
10
-2.2957776435
20
0.9901832771
30
0.0000000000
10
-2.2226827288
20
1.1436163711
30
0.0000000000
10
-2.1392361058
20
1.2917730386
30
0.0000000000
10
-2.0458156128
20
1.4339581422
30
0.0000000000
10
-1.9428275698
20
1.5695348210
30
0.0000000000
10
-1.8307768962
20
1.6978183970
30
0.0000000000
10
-1.7101232848
20
1.8182641134
30
0.0000000000
10
-1.5814766137
20
1.9302452900
30
0.0000000000
10
-1.4453757011
20
2.0332754369
30
0.0000000000
10
-1.3024884040
20
2.1268339950
30
0.0000000000
10
-1.1534652049
20
2.2104796700
30
0.0000000000
10
-0.9989913173
20
2.2838170245
30
0.0000000000
10
-0.8398301617
20
2.3464726022
30
0.0000000000
10
-0.6766653413
20
2.3981688105
30
0.0000000000
10
-0.5103407666
20
2.4386306901
30
0.0000000000
10
-0.3415621170
20
2.4676803705
30
0.0000000000
10
-0.1711930166
20
2.4851649091
30
0.0000000000
10
0.0000041051
20
2.4910023349
30
0.0000000000
10
0.1712014092
20
2.4851643348
30
0.0000000000
10
0.3415703484
20
2.4676792458
30
0.0000000000
10
0.5103489769
20
2.4386289826
30
0.0000000000
10
0.6766734104
20
2.3981665559
30
0.0000000000
10
0.8398378413
20
2.3464698714
30
0.0000000000
10
0.9989988738
20
2.2838137470
30
0.0000000000
10
1.1534721589
20
2.2104760686
30
0.0000000000
10
1.3024952018
20
2.1268298630
30
0.0000000000
10
1.4453820252
20
2.0332709871
30
0.0000000000
10
1.5814826601
20
1.9302403714
30
0.0000000000
10
1.7101290175
20
1.8182587749
30
0.0000000000
10
1.8307820603
20
1.6978128683
30
0.0000000000
10
1.9428324865
20
1.5695287881
30
0.0000000000
10
2.0458197979
20
1.4339522158
30
0.0000000000
10
2.1392399893
20
1.2917666519
30
0.0000000000
10
2.2226860195
20
1.1436100451
30
0.0000000000
10
2.2957805227
20
0.9901766388
30
0.0000000000
10
2.3581807481
20
0.8322075304
30
0.0000000000
10
2.4096295317
20
0.6703797526
30
0.0000000000
10
2.4498748200
20
0.5055111023
30
0.0000000000
10
2.4787561280
20
0.3382801318
30
0.0000000000
10
2.4961328215
20
0.1695397476
30
0.0000000000
10
2.5000000000
20
0.0564896811
30
0.0000000000
10
2.5000000000
20
-0.0000000000
30
0.0000000000
11
-2.5000000000
21
0.0000000000
31
0.0000000000
11
-2.4942051321
21
0.1693758838
31
0.0000000000
11
-2.4768355290
21
0.3380527142
31
0.0000000000
11
-2.4479920846
21
0.5050632495
31
0.0000000000
11
-2.4077569969
21
0.6698919072
31
0.0000000000
11
-2.3563779520
21
0.8315018369
31
0.0000000000
11
-2.2940019080
21
0.9894116728
31
0.0000000000
11
-2.2209832536
21
1.1426878152
31
0.0000000000
11
-2.1376049446
21
1.2907262127
31
0.0000000000
11
-2.0442347914
21
1.4328376106
31
0.0000000000
11
-1.9413755262
21
1.5682475274
31
0.0000000000
11
-1.8293529426
21
1.6965015728
31
0.0000000000
11
-1.7088621931
21
1.8167871706
31
0.0000000000
11
-1.5802529508
21
1.9287380623
31
0.0000000000
11
-1.4443050040
21
2.0316545260
31
0.0000000000
11
-1.3015080422
21
2.1251558519
31
0.0000000000
11
-1.1525811647
21
2.2087491843
31
0.0000000000
11
-0.9982755387
21
2.2820081587
31
0.0000000000
11
-0.8391593510
21
2.3446473258
31
0.0000000000
11
-0.6762070313
21
2.3962772681
31
0.0000000000
11
-0.5099165747
21
2.4367316809
31
0.0000000000
11
-0.3413438872
21
2.4657465107
31
0.0000000000
11
-0.1710467876
21
2.4832240178
31
0.0000000000
11
0.0000043418
21
2.4890565887
31
0.0000000000
11
0.1710547320
21
2.4832234753
31
0.0000000000
11
0.3413523806
21
2.4657453452
31
0.0000000000
11
0.5099247676
21
2.4367299814
31
0.0000000000
11
0.6762149267
21
2.3962750595
31
0.0000000000
11
0.8391674092
21
2.3446444670
31
0.0000000000
11
0.9982825870
21
2.2820051023
31
0.0000000000
11
1.1525886797
21
2.2087452971
31
0.0000000000
11
1.3015143069
21
2.1251520487
31
0.0000000000
11
1.4443115927
21
2.0316498830
31
0.0000000000
11
1.5802589972
21
1.9287331517
31
0.0000000000
11
1.7088676899
21
1.8167820456
31
0.0000000000
11
1.8293585305
21
1.6964956000
31
0.0000000000
11
1.9413799359
21
1.5682421161
31
0.0000000000
11
2.0442395107
21
1.4328309363
31
0.0000000000
11
2.1376083723
21
1.2907205855
31
0.0000000000
11
2.2209867767
21
1.1426810271
31
0.0000000000
11
2.2940047551
21
0.9894051294
31
0.0000000000
11
2.3563802685
21
0.8314953297
31
0.0000000000
11
2.4077591114
21
0.6698843734
31
0.0000000000
11
2.4479933627
21
0.5050571085
31
0.0000000000
11
2.4768366115
21
0.3380448523
31
0.0000000000
11
2.4942055384
21
0.1693699528
31
0.0000000000
11
2.5000000000
21
-0.0000000000
31
0.0000000000
0
SPLINE
5
27A
100
AcDbEntity
8
0
100
AcDbSpline
62
0
6
CONTINUOUS
70
0
71
3
72
20
73
16
74
14
42
0.0000001000
43
0.0000001000
44
0.0000000001
12
-0.0014365767
22
0.4668967676
32
0.0000000000
13
-0.4668968976
23
0.0013936835
33
0.0000000000
40
0.0000000000
40
0.0000000000
40
0.0000000000
40
0.0000000000
40
0.0762841333
40
0.1526297652
40
0.2290660988
40
0.3056169935
40
0.3822995864
40
0.4591233227
40
0.5360894479
40
0.6131909793
40
0.6904131519
40
0.7677342997
40
0.8451271193
40
0.9225602381
40
1.0000000000
40
1.0000000000
40
1.0000000000
40
1.0000000000
10
24.6950679731
20
17.0362964381
30
0.0000000000
10
24.6950314438
20
17.0481687098
30
0.0000000000
10
24.6935008119
20
17.0719439176
30
0.0000000000
10
24.6868694514
20
17.1070580223
30
0.0000000000
10
24.6759988344
20
17.1411481566
30
0.0000000000
10
24.6610475389
20
17.1737118241
30
0.0000000000
10
24.6422334532
20
17.2042778303
30
0.0000000000
10
24.6198305518
20
17.2324018715
30
0.0000000000
10
24.5941648048
20
17.2576759790
30
0.0000000000
10
24.5656094324
20
17.2797335724
30
0.0000000000
10
24.5345792358
20
17.2982549254
30
0.0000000000
10
24.5015253288
20
17.3129716630
30
0.0000000000
10
24.4669257316
20
17.3236706017
30
0.0000000000
10
24.4312892023
20
17.3301967409
30
0.0000000000
10
24.4071657927
20
17.3317027885
30
0.0000000000
10
24.3951136646
20
17.3317387640
30
0.0000000000
11
24.6950679731
21
17.0362964381
31
0.0000000000
11
24.6927800275
21
17.0718398600
31
0.0000000000
11
24.6861681498
21
17.1068669756
31
0.0000000000
11
24.6753283845
21
17.1408689772
31
0.0000000000
11
24.6604181907
21
17.1733519482
31
0.0000000000
11
24.6416541551
21
17.2038440375
31
0.0000000000
11
24.6193088457
21
17.2319023136
31
0.0000000000
11
24.5937068526
21
17.2571191987
31
0.0000000000
11
24.5652200729
21
17.2791283893
31
0.0000000000
11
24.5342623085
21
17.2976101772
31
0.0000000000
11
24.5012832551
21
17.3122960938
31
0.0000000000
11
24.4667619703
21
17.3229728095
31
0.0000000000
11
24.4311999139
21
17.3294852330
31
0.0000000000
11
24.3951136646
21
17.3317387640
31
0.0000000000
0
SPLINE
5
27B
100
AcDbEntity
8
0
100
AcDbSpline
62
0
6
CONTINUOUS
70
0
71
3
72
23
73
19
74
17
42
0.0000001000
43
0.0000001000
44
0.0000000001
12
-0.0654167177
22
-0.9440975659
32
0.0000000000
13
-0.0004462523
23
-0.9463611159
33
0.0000000000
40
0.0000000000
40
0.0000000000
40
0.0000000000
40
0.0000000000
40
0.0193268239
40
0.0459943367
40
0.0798153825
40
0.1205476041
40
0.1678990384
40
0.2215296910
40
0.2810535788
40
0.3460423989
40
0.4160287934
40
0.4905094767
40
0.5689484769
40
0.6507809359
40
0.7354185112
40
0.8222530022
40
0.9106576825
40
1.0000000000
40
1.0000000000
40
1.0000000000
40
1.0000000000
10
24.3951136646
20
17.3317387640
30
0.0000000000
10
24.3946922321
20
17.3256566282
30
0.0000000000
10
24.3939484998
20
17.3111650221
30
0.0000000000
10
24.3929940018
20
17.2860051114
30
0.0000000000
10
24.3920605358
20
17.2540878385
30
0.0000000000
10
24.3911542682
20
17.2156431536
30
0.0000000000
10
24.3902873693
20
17.1709471292
30
0.0000000000
10
24.3894668502
20
17.1203215092
30
0.0000000000
10
24.3886998668
20
17.0641307015
30
0.0000000000
10
24.3879924452
20
17.0027792727
30
0.0000000000
10
24.3873500922
20
16.9367087173
30
0.0000000000
10
24.3867776842
20
16.8663944652
30
0.0000000000
10
24.3862795278
20
16.7923426770
30
0.0000000000
10
24.3858593343
20
16.7150863290
30
0.0000000000
10
24.3855202215
20
16.6351811708
30
0.0000000000
10
24.3852646902
20
16.5532024605
30
0.0000000000
10
24.3850946245
20
16.4697393985
30
0.0000000000
10
24.3850392213
20
16.4136684586
30
0.0000000000
10
24.3850259316
20
16.3854850935
30
0.0000000000
11
24.3951136646
21
17.3317387640
31
0.0000000000
11
24.3941013996
21
17.3134766406
31
0.0000000000
11
24.3931117252
21
17.2882589531
31
0.0000000000
11
24.3921517020
21
17.2562664278
31
0.0000000000
11
24.3912282835
21
17.2177300948
31
0.0000000000
11
24.3903480986
21
17.1729271787
31
0.0000000000
11
24.3895174809
21
17.1221800061
31
0.0000000000
11
24.3887424121
21
17.0658542393
31
0.0000000000
11
24.3880284699
21
17.0043554841
31
0.0000000000
11
24.3873807880
21
16.9381262413
31
0.0000000000
11
24.3868040239
21
16.8676429706
31
0.0000000000
11
24.3863023280
21
16.7934130380
31
0.0000000000
11
24.3858793109
21
16.7159711275
31
0.0000000000
11
24.3855380133
21
16.6358741355
31
0.0000000000
11
24.3852808855
21
16.5536977429
31
0.0000000000
11
24.3851097843
21
16.4700351566
31
0.0000000000
11
24.3850259316
21
16.3854850935
31
0.0000000000
0
SPLINE
5
27C
100
AcDbEntity
8
0
100
AcDbSpline
62
0
6
CONTINUOUS
70
0
71
3
72
23
73
19
74
17
42
0.0000001000
43
0.0000001000
44
0.0000000001
12
-0.0652627498
22
-0.6593089659
32
0.0000000000
13
-0.0004462989
23
-0.6625310105
33
0.0000000000
40
0.0000000000
40
0.0000000000
40
0.0000000000
40
0.0000000000
40
0.0193475382
40
0.0460319690
40
0.0798640991
40
0.1206036029
40
0.1679595142
40
0.2215925152
40
0.2811170707
40
0.3461052088
40
0.4160898245
40
0.4905677929
40
0.5690031284
40
0.6508310710
40
0.7354633785
40
0.8222919582
40
0.9106901622
40
1.0000000000
40
1.0000000000
40
1.0000000000
40
1.0000000000
10
24.6950679731
20
17.0362964381
30
0.0000000000
10
24.6946470819
20
17.0320444363
30
0.0000000000
10
24.6939032941
20
17.0219035453
30
0.0000000000
10
24.6929487402
20
17.0042919757
30
0.0000000000
10
24.6920151409
20
16.9819490725
30
0.0000000000
10
24.6911088073
20
16.9550372943
30
0.0000000000
10
24.6902418491
20
16.9237492990
30
0.0000000000
10
24.6894212805
20
16.8883103221
30
0.0000000000
10
24.6886542536
20
16.8489753668
30
0.0000000000
10
24.6879467939
20
16.8060276298
30
0.0000000000
10
24.6873044085
20
16.7597761690
30
0.0000000000
10
24.6867319751
20
16.7105538546
30
0.0000000000
10
24.6862337999
20
16.6587150862
30
0.0000000000
10
24.6858135970
20
16.6046330383
30
0.0000000000
10
24.6854744797
20
16.5486967933
30
0.0000000000
10
24.6852189562
20
16.4913090898
30
0.0000000000
10
24.6850489162
20
16.4328880642
30
0.0000000000
10
24.6849935264
20
16.3936423811
30
0.0000000000
10
24.6849802401
20
16.3739188688
30
0.0000000000
11
24.6950679731
21
17.0362964381
31
0.0000000000
11
24.6940560456
21
17.0235180962
31
0.0000000000
11
24.6930663173
21
17.0058665547
31
0.0000000000
11
24.6921062541
21
16.9834722843
31
0.0000000000
11
24.6911827893
21
16.9564968957
31
0.0000000000
11
24.6903025612
21
16.9251344788
31
0.0000000000
11
24.6894719013
21
16.8896106547
31
0.0000000000
11
24.6886967934
21
16.8501813997
31
0.0000000000
11
24.6879828157
21
16.8071306533
31
0.0000000000
11
24.6873351029
21
16.7607681888
31
0.0000000000
11
24.6867583137
21
16.7114275852
31
0.0000000000
11
24.6862565999
21
16.6594641533
31
0.0000000000
11
24.6858335731
21
16.6052522420
31
0.0000000000
11
24.6854922726
21
16.5491817398
31
0.0000000000
11
24.6852351511
21
16.4916556747
31
0.0000000000
11
24.6850640612
21
16.4330893599
31
0.0000000000
11
24.6849802401
21
16.3739188688
31
0.0000000000
0
SPLINE
5
27D
100
AcDbEntity
8
0
100
AcDbSpline
62
0
6
CONTINUOUS
70
0
71
3
72
19
73
15
74
13
42
0.0000001000
43
0.0000001000
44
0.0000000001
12
-0.1238618155
22
0.2738682292
32
0.0000000000
13
-0.3005753075
23
0.0002021260
33
0.0000000000
40
0.0000000000
40
0.0000000000
40
0.0000000000
40
0.0000000000
40
0.0337343966
40
0.0710523107
40
0.1215253438
40
0.1844694373
40
0.2590048458
40
0.3440792527
40
0.4384865142
40
0.5408854699
40
0.6498198660
40
0.7637395605
40
0.8810228956
40
1.0000000000
40
1.0000000000
40
1.0000000000
40
1.0000000000
10
24.6849802401
20
16.3739188688
30
0.0000000000
10
24.6835874389
20
16.3769984619
30
0.0000000000
10
24.6740137742
20
16.3760985711
30
0.0000000000
10
24.6631070586
20
16.3784530748
30
0.0000000000
10
24.6475895762
20
16.3792750854
30
0.0000000000
10
24.6289654857
20
16.3805733403
30
0.0000000000
10
24.6066329287
20
16.3815928007
30
0.0000000000
10
24.5812201052
20
16.3825767945
30
0.0000000000
10
24.5529843843
20
16.3834210561
30
0.0000000000
10
24.5223617644
20
16.3841405824
30
0.0000000000
10
24.4897784519
20
16.3847156202
30
0.0000000000
10
24.4557021295
20
16.3851401101
30
0.0000000000
10
24.4206177999
20
16.3854069480
30
0.0000000000
10
24.3969464581
20
16.3854770774
30
0.0000000000
10
24.3850259316
20
16.3854850935
30
0.0000000000
11
24.6849802401
21
16.3739188688
31
0.0000000000
11
24.6752172451
21
16.3766571222
31
0.0000000000
11
24.6640783678
21
16.3779773673
31
0.0000000000
11
24.6489600287
21
16.3792397357
31
0.0000000000
11
24.6300778248
21
16.3804262252
31
0.0000000000
11
24.6077010282
21
16.3815199157
31
0.0000000000
11
24.5821487458
21
16.3825052106
31
0.0000000000
11
24.5537853691
21
16.3833680589
31
0.0000000000
11
24.5230153777
21
16.3840961558
31
0.0000000000
11
24.4902775707
21
16.3846791183
31
0.0000000000
11
24.4560388097
21
16.3851086329
31
0.0000000000
11
24.4207873608
21
16.3853785745
31
0.0000000000
11
24.3850259316
21
16.3854850935
31
0.0000000000
0
SPLINE
5
27E
100
AcDbEntity
8
0
100
AcDbSpline
62
0
6
CONTINUOUS
70
0
71
3
72
15
73
11
74
9
42
0.0000001000
43
0.0000001000
44
0.0000000001
12
-0.0220545067
22
-32.7478327464
32
0.0000000000
13
0.0220545067
23
-32.7478327464
33
0.0000000000
40
0.0000000000
40
0.0000000000
40
0.0000000000
40
0.0000000000
40
0.1249593399
40
0.2499535351
40
0.3749709611
40
0.5000000024
40
0.6250290436
40
0.7500464697
40
0.8750406649
40
1.0000000000
40
1.0000000000
40
1.0000000000
40
1.0000000000
10
24.6849802401
20
16.3739188688
30
0.0000000000
10
24.6840616012
20
15.0098696815
30
0.0000000000
10
24.6824540201
20
12.2813906675
30
0.0000000000
10
24.6807317455
20
8.1882279768
30
0.0000000000
10
24.6796983165
20
4.0943041963
30
0.0000000000
10
24.6793538296
20
-0.0000000774
30
0.0000000000
10
24.6796983166
20
-4.0943043511
30
0.0000000000
10
24.6807317455
20
-8.1882281314
30
0.0000000000
10
24.6824540202
20
-12.2813907705
30
0.0000000000
10
24.6840616013
20
-15.0098697329
30
0.0000000000
10
24.6849802401
20
-16.3739188688
30
0.0000000000
11
24.6849802401
21
16.3739188688
31
0.0000000000
11
24.6825690929
21
12.2817710892
31
0.0000000000
11
24.6808466847
21
8.1884815245
31
0.0000000000
11
24.6798131758
21
4.0944309681
31
0.0000000000
11
24.6794686621
21
-0.0000000775
31
0.0000000000
11
24.6798131758
21
-4.0944311229
31
0.0000000000
11
24.6808466847
21
-8.1884816791
31
0.0000000000
11
24.6825690930
21
-12.2817712436
31
0.0000000000
11
24.6849802401
21
-16.3739188688
31
0.0000000000
0
SPLINE
5
27F
100
AcDbEntity
8
0
100
AcDbSpline
62
0
6
CONTINUOUS
70
0
71
3
72
19
73
15
74
13
42
0.0000001000
43
0.0000001000
44
0.0000000001
12
-0.1238630382
22
-0.2738676754
32
0.0000000000
13
-0.3005753067
23
-0.0002021257
33
0.0000000000
40
0.0000000000
40
0.0000000000
40
0.0000000000
40
0.0000000000
40
0.0337344356
40
0.0710523638
40
0.1215254068
40
0.1844695059
40
0.2590049161
40
0.3440793209
40
0.4384865767
40
0.5408855239
40
0.6498199088
40
0.7637395902
40
0.8810229107
40
1.0000000000
40
1.0000000000
40
1.0000000000
40
1.0000000000
10
24.6849802401
20
-16.3739188688
30
0.0000000000
10
24.6835874235
20
-16.3769984593
30
0.0000000000
10
24.6740137706
20
-16.3760985716
30
0.0000000000
10
24.6631070399
20
-16.3784530732
30
0.0000000000
10
24.6475895581
20
-16.3792750845
30
0.0000000000
10
24.6289654645
20
-16.3805733388
30
0.0000000000
10
24.6066329075
20
-16.3815927990
30
0.0000000000
10
24.5812200846
20
-16.3825767925
30
0.0000000000
10
24.5529843654
20
-16.3834210539
30
0.0000000000
10
24.5223617481
20
-16.3841405800
30
0.0000000000
10
24.4897784390
20
-16.3847156176
30
0.0000000000
10
24.4557021206
20
-16.3851401074
30
0.0000000000
10
24.4206177954
20
-16.3854069452
30
0.0000000000
10
24.3969464566
20
-16.3854770746
30
0.0000000000
10
24.3850259316
20
-16.3854850907
30
0.0000000000
11
24.6849802401
21
-16.3739188688
31
0.0000000000
11
24.6752172328
21
-16.3766571217
31
0.0000000000
11
24.6640783512
21
-16.3779773665
31
0.0000000000
11
24.6489600092
21
-16.3792397346
31
0.0000000000
11
24.6300778036
21
-16.3804262238
31
0.0000000000
11
24.6077010065
21
-16.3815199141
31
0.0000000000
11
24.5821487248
21
-16.3825052087
31
0.0000000000
11
24.5537853499
21
-16.3833680567
31
0.0000000000
11
24.5230153611
21
-16.3840961534
31
0.0000000000
11
24.4902775576
21
-16.3846791157
31
0.0000000000
11
24.4560388006
21
-16.3851086302
31
0.0000000000
11
24.4207873561
21
-16.3853785717
31
0.0000000000
11
24.3850259316
21
-16.3854850907
31
0.0000000000
0
SPLINE
5
280
100
AcDbEntity
8
0
100
AcDbSpline
62
0
6
CONTINUOUS
70
0
71
3
72
23
73
19
74
17
42
0.0000001000
43
0.0000001000
44
0.0000000001
12
0.0004462892
22
-0.9463611160
32
0.0000000000
13
0.0654154629
23
-0.9440976529
33
0.0000000000
40
0.0000000000
40
0.0000000000
40
0.0000000000
40
0.0000000000
40
0.0893422249
40
0.1777469231
40
0.2645814179
40
0.3492189865
40
0.4310514592
40
0.5094904669
40
0.5839711464
40
0.6539575402
40
0.7189463681
40
0.7784702654
40
0.8321009189
40
0.8794523517
40
0.9201845833
40
0.9540056346
40
0.9806731503
40
1.0000000000
40
1.0000000000
40
1.0000000000
40
1.0000000000
10
24.3850259316
20
-16.3854850935
30
0.0000000000
10
24.3850392224
20
-16.4136684294
30
0.0000000000
10
24.3850946231
20
-16.4697393458
30
0.0000000000
10
24.3852646908
20
-16.5532023854
30
0.0000000000
10
24.3855202205
20
-16.6351811004
30
0.0000000000
10
24.3858593336
20
-16.7150862620
30
0.0000000000
10
24.3862795264
20
-16.7923426146
30
0.0000000000
10
24.3867776825
20
-16.8663944083
30
0.0000000000
10
24.3873500900
20
-16.9367086614
30
0.0000000000
10
24.3879924426
20
-17.0027792178
30
0.0000000000
10
24.3886998639
20
-17.0641306519
30
0.0000000000
10
24.3894668474
20
-17.1203214654
30
0.0000000000
10
24.3902873662
20
-17.1709470882
30
0.0000000000
10
24.3911542660
20
-17.2156431155
30
0.0000000000
10
24.3920605314
20
-17.2540878050
30
0.0000000000
10
24.3929940027
20
-17.2860050834
30
0.0000000000
10
24.3939484900
20
-17.3111650055
30
0.0000000000
10
24.3946922396
20
-17.3256566195
30
0.0000000000
10
24.3951136646
20
-17.3317387640
30
0.0000000000
11
24.3850259316
21
-16.3854850935
31
0.0000000000
11
24.3851097838
21
-16.4700350690
31
0.0000000000
11
24.3852808855
21
-16.5536976722
31
0.0000000000
11
24.3855380125
21
-16.6358740685
31
0.0000000000
11
24.3858793099
21
-16.7159710541
31
0.0000000000
11
24.3863023266
21
-16.7934129776
31
0.0000000000
11
24.3868040221
21
-16.8676429173
31
0.0000000000
11
24.3873807858
21
-16.9381261844
31
0.0000000000
11
24.3880284673
21
-17.0043554266
31
0.0000000000
11
24.3887424093
21
-17.0658541892
31
0.0000000000
11
24.3895174781
21
-17.1221799649
31
0.0000000000
11
24.3903480957
21
-17.1729271384
31
0.0000000000
11
24.3912282806
21
-17.2177300531
31
0.0000000000
11
24.3921516991
21
-17.2562663955
31
0.0000000000
11
24.3931117229
21
-17.2882589261
31
0.0000000000
11
24.3941013963
21
-17.3134766163
31
0.0000000000
11
24.3951136646
21
-17.3317387640
31
0.0000000000
0
SPLINE
5
281
100
AcDbEntity
8
0
100
AcDbSpline
62
0
6
CONTINUOUS
70
0
71
3
72
23
73
19
74
17
42
0.0000001000
43
0.0000001000
44
0.0000000001
12
0.0004463113
22
-0.6625310104
32
0.0000000000
13
0.0652631569
23
-0.6593089255
33
0.0000000000
40
0.0000000000
40
0.0000000000
40
0.0000000000
40
0.0000000000
40
0.0893017967
40
0.1776998333
40
0.2645282976
40
0.3491605405
40
0.4309885119
40
0.5094239455
40
0.5839020984
40
0.6538871463
40
0.7188759694
40
0.7784013749
40
0.8320352228
40
0.8793919653
40
0.9201322848
40
0.9539652142
40
0.9806503729
40
1.0000000000
40
1.0000000000
40
1.0000000000
40
1.0000000000
10
24.6849802401
20
-16.3739188688
30
0.0000000000
10
24.6849935256
20
-16.3936406053
30
0.0000000000
10
24.6850489094
20
-16.4328844756
30
0.0000000000
10
24.6852189368
20
-16.4913036629
30
0.0000000000
10
24.6854744509
20
-16.5486912897
30
0.0000000000
10
24.6858135591
20
-16.6046275014
30
0.0000000000
10
24.6862337522
20
-16.6587095632
30
0.0000000000
10
24.6867319175
20
-16.7105484004
30
0.0000000000
10
24.6873043413
20
-16.7597708728
30
0.0000000000
10
24.6879467181
20
-16.8060226212
30
0.0000000000
10
24.6886541715
20
-16.8489707928
30
0.0000000000
10
24.6894211943
20
-16.8883062743
30
0.0000000000
10
24.6902417607
20
-16.9237458097
30
0.0000000000
10
24.6911087170
20
-16.9550343560
30
0.0000000000
10
24.6920150516
20
-16.9819466746
30
0.0000000000
10
24.6929486485
20
-17.0042900959
30
0.0000000000
10
24.6939032273
20
-17.0219024636
30
0.0000000000
10
24.6946470338
20
-17.0320439775
30
0.0000000000
10
24.6950679731
20
-17.0362964381
30
0.0000000000
11
24.6849802401
21
-16.3739188688
31
0.0000000000
11
24.6850640496
21
-16.4330840325
31
0.0000000000
11
24.6852351313
21
-16.4916502363
31
0.0000000000
11
24.6854922436
21
-16.5491762250
31
0.0000000000
11
24.6858335347
21
-16.6052466845
31
0.0000000000
11
24.6862565518
21
-16.6594586149
31
0.0000000000
11
24.6867582555
21
-16.7114221119
31
0.0000000000
11
24.6873350345
21
-16.7607628379
31
0.0000000000
11
24.6879827386
21
-16.8071255888
31
0.0000000000
11
24.6886967101
21
-16.8501767893
31
0.0000000000
11
24.6894718145
21
-16.8896066076
31
0.0000000000
11
24.6903024719
21
-16.9251309929
31
0.0000000000
11
24.6911826983
21
-16.9564939608
31
0.0000000000
11
24.6921061625
21
-16.9834698901
31
0.0000000000
11
24.6930662259
21
-17.0058646906
31
0.0000000000
11
24.6940559550
21
-17.0235167151
31
0.0000000000
11
24.6950679731
21
-17.0362964381
31
0.0000000000
0
SPLINE
5
282
100
AcDbEntity
8
0
100
AcDbSpline
62
0
6
CONTINUOUS
70
0
71
3
72
20
73
16
74
14
42
0.0000001000
43
0.0000001000
44
0.0000000001
12
-0.0014365767
22
-0.4668967676
32
0.0000000000
13
-0.4668968976
23
-0.0013936835
33
0.0000000000
40
0.0000000000
40
0.0000000000
40
0.0000000000
40
0.0000000000
40
0.0762841454
40
0.1526297873
40
0.2290661287
40
0.3056170291
40
0.3822996253
40
0.4591233628
40
0.5360894869
40
0.6131910154
40
0.6904131830
40
0.7677343244
40
0.8451271365
40
0.9225602469
40
1.0000000000
40
1.0000000000
40
1.0000000000
40
1.0000000000
10
24.6950679731
20
-17.0362964381
30
0.0000000000
10
24.6950314438
20
-17.0481687117
30
0.0000000000
10
24.6935008114
20
-17.0719439229
30
0.0000000000
10
24.6868694491
20
-17.1070580321
30
0.0000000000
10
24.6759988296
20
-17.1411481695
30
0.0000000000
10
24.6610475313
20
-17.1737118386
30
0.0000000000
10
24.6422334430
20
-17.2042778450
30
0.0000000000
10
24.6198305394
20
-17.2324018853
30
0.0000000000
10
24.5941647912
20
-17.2576759908
30
0.0000000000
10
24.5656094186
20
-17.2797335817
30
0.0000000000
10
24.5345792230
20
-17.2982549319
30
0.0000000000
10
24.5015253181
20
-17.3129716669
30
0.0000000000
10
24.4669257239
20
-17.3236706035
30
0.0000000000
10
24.4312891982
20
-17.3301967412
30
0.0000000000
10
24.4071657914
20
-17.3317027885
30
0.0000000000
10
24.3951136646
20
-17.3317387640
30
0.0000000000
11
24.6950679731
21
-17.0362964381
31
0.0000000000
11
24.6927800268
21
-17.0718398656
31
0.0000000000
11
24.6861681473
21
-17.1068669856
31
0.0000000000
11
24.6753283794
21
-17.1408689903
31
0.0000000000
11
24.6604181828
21
-17.1733519629
31
0.0000000000
11
24.6416541446
21
-17.2038440525
31
0.0000000000
11
24.6193088331
21
-17.2319023275
31
0.0000000000
11
24.5937068388
21
-17.2571192107
31
0.0000000000
11
24.5652200590
21
-17.2791283988
31
0.0000000000
11
24.5342622955
21
-17.2976101839
31
0.0000000000
11
24.5012832443
21
-17.3122960979
31
0.0000000000
11
24.4667619625
21
-17.3229728114
31
0.0000000000
11
24.4311999098
21
-17.3294852335
31
0.0000000000
11
24.3951136646
21
-17.3317387640
31
0.0000000000
0
SPLINE
5
283
100
AcDbEntity
8
0
100
AcDbSpline
62
0
6
CONTINUOUS
70
0
71
3
72
20
73
16
74
14
42
0.0000001000
43
0.0000001000
44
0.0000000001
12
0.0014365767
22
-0.4668967676
32
0.0000000000
13
0.4668968976
23
-0.0013936835
33
0.0000000000
40
0.0000000000
40
0.0000000000
40
0.0000000000
40
0.0000000000
40
0.0762841383
40
0.1526297744
40
0.2290661112
40
0.3056170084
40
0.3822996028
40
0.4591233397
40
0.5360894644
40
0.6131909947
40
0.6904131651
40
0.7677343102
40
0.8451271267
40
0.9225602418
40
1.0000000000
40
1.0000000000
40
1.0000000000
40
1.0000000000
10
-24.6950679731
20
-17.0362964381
30
0.0000000000
10
-24.6950314438
20
-17.0481687106
30
0.0000000000
10
-24.6935008117
20
-17.0719439198
30
0.0000000000
10
-24.6868694505
20
-17.1070580264
30
0.0000000000
10
-24.6759988324
20
-17.1411481620
30
0.0000000000
10
-24.6610475358
20
-17.1737118302
30
0.0000000000
10
-24.6422334489
20
-17.2042778365
30
0.0000000000
10
-24.6198305466
20
-17.2324018773
30
0.0000000000
10
-24.5941647991
20
-17.2576759840
30
0.0000000000
10
-24.5656094266
20
-17.2797335764
30
0.0000000000
10
-24.5345792303
20
-17.2982549281
30
0.0000000000
10
-24.5015253243
20
-17.3129716647
30
0.0000000000
10
-24.4669257283
20
-17.3236706025
30
0.0000000000
10
-24.4312892005
20
-17.3301967410
30
0.0000000000
10
-24.4071657922
20
-17.3317027885
30
0.0000000000
10
-24.3951136646
20
-17.3317387640
30
0.0000000000
11
-24.6950679731
21
-17.0362964381
31
0.0000000000
11
-24.6927800272
21
-17.0718398623
31
0.0000000000
11
-24.6861681488
21
-17.1068669797
31
0.0000000000
11
-24.6753283824
21
-17.1408689826
31
0.0000000000
11
-24.6604181874
21
-17.1733519544
31
0.0000000000
11
-24.6416541507
21
-17.2038440438
31
0.0000000000
11
-24.6193088404
21
-17.2319023195
31
0.0000000000
11
-24.5937068468
21
-17.2571192037
31
0.0000000000
11
-24.5652200670
21
-17.2791283933
31
0.0000000000
11
-24.5342623030
21
-17.2976101801
31
0.0000000000
11
-24.5012832505
21
-17.3122960955
31
0.0000000000
11
-24.4667619669
21
-17.3229728103
31
0.0000000000
11
-24.4311999122
21
-17.3294852332
31
0.0000000000
11
-24.3951136646
21
-17.3317387640
31
0.0000000000
0
SPLINE
5
284
100
AcDbEntity
8
0
100
AcDbSpline
62
0
6
CONTINUOUS
70
0
71
3
72
23
73
19
74
17
42
0.0000001000
43
0.0000001000
44
0.0000000001
12
0.0654154629
22
0.9440976529
32
0.0000000000
13
0.0004462892
23
0.9463611160
33
0.0000000000
40
0.0000000000
40
0.0000000000
40
0.0000000000
40
0.0000000000
40
0.0193268497
40
0.0459943654
40
0.0798154167
40
0.1205476483
40
0.1678990811
40
0.2215297346
40
0.2810536319
40
0.3460424598
40
0.4160288536
40
0.4905095331
40
0.5689485408
40
0.6507810135
40
0.7354185821
40
0.8222530769
40
0.9106577751
40
1.0000000000
40
1.0000000000
40
1.0000000000
40
1.0000000000
10
-24.3951136646
20
-17.3317387640
30
0.0000000000
10
-24.3946922396
20
-17.3256566195
30
0.0000000000
10
-24.3939484900
20
-17.3111650055
30
0.0000000000
10
-24.3929940027
20
-17.2860050834
30
0.0000000000
10
-24.3920605314
20
-17.2540878050
30
0.0000000000
10
-24.3911542660
20
-17.2156431155
30
0.0000000000
10
-24.3902873662
20
-17.1709470882
30
0.0000000000
10
-24.3894668474
20
-17.1203214654
30
0.0000000000
10
-24.3886998639
20
-17.0641306519
30
0.0000000000
10
-24.3879924426
20
-17.0027792178
30
0.0000000000
10
-24.3873500900
20
-16.9367086614
30
0.0000000000
10
-24.3867776825
20
-16.8663944083
30
0.0000000000
10
-24.3862795264
20
-16.7923426146
30
0.0000000000
10
-24.3858593336
20
-16.7150862620
30
0.0000000000
10
-24.3855202205
20
-16.6351811004
30
0.0000000000
10
-24.3852646908
20
-16.5532023854
30
0.0000000000
10
-24.3850946231
20
-16.4697393458
30
0.0000000000
10
-24.3850392224
20
-16.4136684294
30
0.0000000000
10
-24.3850259316
20
-16.3854850935
30
0.0000000000
11
-24.3951136646
21
-17.3317387640
31
0.0000000000
11
-24.3941013963
21
-17.3134766163
31
0.0000000000
11
-24.3931117229
21
-17.2882589261
31
0.0000000000
11
-24.3921516991
21
-17.2562663955
31
0.0000000000
11
-24.3912282806
21
-17.2177300531
31
0.0000000000
11
-24.3903480957
21
-17.1729271384
31
0.0000000000
11
-24.3895174781
21
-17.1221799649
31
0.0000000000
11
-24.3887424093
21
-17.0658541892
31
0.0000000000
11
-24.3880284673
21
-17.0043554266
31
0.0000000000
11
-24.3873807858
21
-16.9381261844
31
0.0000000000
11
-24.3868040221
21
-16.8676429173
31
0.0000000000
11
-24.3863023266
21
-16.7934129776
31
0.0000000000
11
-24.3858793099
21
-16.7159710541
31
0.0000000000
11
-24.3855380125
21
-16.6358740685
31
0.0000000000
11
-24.3852808855
21
-16.5536976722
31
0.0000000000
11
-24.3851097838
21
-16.4700350690
31
0.0000000000
11
-24.3850259316
21
-16.3854850935
31
0.0000000000
0
SPLINE
5
285
100
AcDbEntity
8
0
100
AcDbSpline
62
0
6
CONTINUOUS
70
0
71
3
72
23
73
19
74
17
42
0.0000001000
43
0.0000001000
44
0.0000000001
12
0.0652631569
22
0.6593089255
32
0.0000000000
13
0.0004463113
23
0.6625310104
33
0.0000000000
40
0.0000000000
40
0.0000000000
40
0.0000000000
40
0.0000000000
40
0.0193496271
40
0.0460347858
40
0.0798677152
40
0.1206080347
40
0.1679647772
40
0.2215986251
40
0.2811240306
40
0.3461128537
40
0.4160979016
40
0.4905760545
40
0.5690114881
40
0.6508394595
40
0.7354717024
40
0.8223001667
40
0.9106982033
40
1.0000000000
40
1.0000000000
40
1.0000000000
40
1.0000000000
10
-24.6950679731
20
-17.0362964381
30
0.0000000000
10
-24.6946470338
20
-17.0320439775
30
0.0000000000
10
-24.6939032273
20
-17.0219024636
30
0.0000000000
10
-24.6929486485
20
-17.0042900959
30
0.0000000000
10
-24.6920150516
20
-16.9819466746
30
0.0000000000
10
-24.6911087170
20
-16.9550343560
30
0.0000000000
10
-24.6902417607
20
-16.9237458097
30
0.0000000000
10
-24.6894211943
20
-16.8883062743
30
0.0000000000
10
-24.6886541715
20
-16.8489707928
30
0.0000000000
10
-24.6879467181
20
-16.8060226212
30
0.0000000000
10
-24.6873043413
20
-16.7597708728
30
0.0000000000
10
-24.6867319175
20
-16.7105484004
30
0.0000000000
10
-24.6862337522
20
-16.6587095632
30
0.0000000000
10
-24.6858135591
20
-16.6046275014
30
0.0000000000
10
-24.6854744509
20
-16.5486912897
30
0.0000000000
10
-24.6852189368
20
-16.4913036629
30
0.0000000000
10
-24.6850489094
20
-16.4328844756
30
0.0000000000
10
-24.6849935256
20
-16.3936406053
30
0.0000000000
10
-24.6849802401
20
-16.3739188688
30
0.0000000000
11
-24.6950679731
21
-17.0362964381
31
0.0000000000
11
-24.6940559550
21
-17.0235167151
31
0.0000000000
11
-24.6930662259
21
-17.0058646906
31
0.0000000000
11
-24.6921061625
21
-16.9834698901
31
0.0000000000
11
-24.6911826983
21
-16.9564939608
31
0.0000000000
11
-24.6903024719
21
-16.9251309929
31
0.0000000000
11
-24.6894718145
21
-16.8896066076
31
0.0000000000
11
-24.6886967101
21
-16.8501767893
31
0.0000000000
11
-24.6879827386
21
-16.8071255888
31
0.0000000000
11
-24.6873350345
21
-16.7607628379
31
0.0000000000
11
-24.6867582555
21
-16.7114221119
31
0.0000000000
11
-24.6862565518
21
-16.6594586149
31
0.0000000000
11
-24.6858335347
21
-16.6052466845
31
0.0000000000
11
-24.6854922436
21
-16.5491762250
31
0.0000000000
11
-24.6852351313
21
-16.4916502363
31
0.0000000000
11
-24.6850640496
21
-16.4330840325
31
0.0000000000
11
-24.6849802401
21
-16.3739188688
31
0.0000000000
0
SPLINE
5
286
100
AcDbEntity
8
0
100
AcDbSpline
62
0
6
CONTINUOUS
70
0
71
3
72
19
73
15
74
13
42
0.0000001000
43
0.0000001000
44
0.0000000001
12
0.1238618159
22
-0.2738682291
32
0.0000000000
13
0.3005753075
23
-0.0002021260
33
0.0000000000
40
0.0000000000
40
0.0000000000
40
0.0000000000
40
0.0000000000
40
0.0337343966
40
0.0710523108
40
0.1215253439
40
0.1844694373
40
0.2590048458
40
0.3440792527
40
0.4384865142
40
0.5408854699
40
0.6498198660
40
0.7637395605
40
0.8810228956
40
1.0000000000
40
1.0000000000
40
1.0000000000
40
1.0000000000
10
-24.6849802401
20
-16.3739188688
30
0.0000000000
10
-24.6835874389
20
-16.3769984619
30
0.0000000000
10
-24.6740137742
20
-16.3760985711
30
0.0000000000
10
-24.6631070586
20
-16.3784530748
30
0.0000000000
10
-24.6475895762
20
-16.3792750854
30
0.0000000000
10
-24.6289654857
20
-16.3805733403
30
0.0000000000
10
-24.6066329287
20
-16.3815928007
30
0.0000000000
10
-24.5812201052
20
-16.3825767945
30
0.0000000000
10
-24.5529843843
20
-16.3834210561
30
0.0000000000
10
-24.5223617644
20
-16.3841405824
30
0.0000000000
10
-24.4897784519
20
-16.3847156202
30
0.0000000000
10
-24.4557021295
20
-16.3851401101
30
0.0000000000
10
-24.4206177999
20
-16.3854069480
30
0.0000000000
10
-24.3969464581
20
-16.3854770774
30
0.0000000000
10
-24.3850259316
20
-16.3854850935
30
0.0000000000
11
-24.6849802401
21
-16.3739188688
31
0.0000000000
11
-24.6752172451
21
-16.3766571222
31
0.0000000000
11
-24.6640783678
21
-16.3779773673
31
0.0000000000
11
-24.6489600287
21
-16.3792397357
31
0.0000000000
11
-24.6300778248
21
-16.3804262252
31
0.0000000000
11
-24.6077010282
21
-16.3815199157
31
0.0000000000
11
-24.5821487458
21
-16.3825052106
31
0.0000000000
11
-24.5537853691
21
-16.3833680589
31
0.0000000000
11
-24.5230153777
21
-16.3840961558
31
0.0000000000
11
-24.4902775707
21
-16.3846791183
31
0.0000000000
11
-24.4560388097
21
-16.3851086329
31
0.0000000000
11
-24.4207873608
21
-16.3853785745
31
0.0000000000
11
-24.3850259316
21
-16.3854850935
31
0.0000000000
0
SPLINE
5
287
100
AcDbEntity
8
0
100
AcDbSpline
62
0
6
CONTINUOUS
70
0
71
3
72
15
73
11
74
9
42
0.0000001000
43
0.0000001000
44
0.0000000001
12
0.0220545067
22
32.7478327464
32
0.0000000000
13
-0.0220545067
23
32.7478327464
33
0.0000000000
40
0.0000000000
40
0.0000000000
40
0.0000000000
40
0.0000000000
40
0.1249593351
40
0.2499535303
40
0.3749709564
40
0.4999999976
40
0.6250290389
40
0.7500464649
40
0.8750406601
40
1.0000000000
40
1.0000000000
40
1.0000000000
40
1.0000000000
10
-24.6849802401
20
-16.3739188688
30
0.0000000000
10
-24.6840616013
20
-15.0098697329
30
0.0000000000
10
-24.6824540202
20
-12.2813907705
30
0.0000000000
10
-24.6807317455
20
-8.1882281314
30
0.0000000000
10
-24.6796983166
20
-4.0943043511
30
0.0000000000
10
-24.6793538296
20
-0.0000000774
30
0.0000000000
10
-24.6796983165
20
4.0943041963
30
0.0000000000
10
-24.6807317455
20
8.1882279768
30
0.0000000000
10
-24.6824540201
20
12.2813906675
30
0.0000000000
10
-24.6840616012
20
15.0098696815
30
0.0000000000
10
-24.6849802401
20
16.3739188688
30
0.0000000000
11
-24.6849802401
21
-16.3739188688
31
0.0000000000
11
-24.6825690930
21
-12.2817712436
31
0.0000000000
11
-24.6808466847
21
-8.1884816791
31
0.0000000000
11
-24.6798131758
21
-4.0944311229
31
0.0000000000
11
-24.6794686621
21
-0.0000000775
31
0.0000000000
11
-24.6798131758
21
4.0944309681
31
0.0000000000
11
-24.6808466847
21
8.1884815245
31
0.0000000000
11
-24.6825690929
21
12.2817710892
31
0.0000000000
11
-24.6849802401
21
16.3739188688
31
0.0000000000
0
SPLINE
5
288
100
AcDbEntity
8
0
100
AcDbSpline
62
0
6
CONTINUOUS
70
0
71
3
72
19
73
15
74
13
42
0.0000001000
43
0.0000001000
44
0.0000000001
12
0.1238625831
22
0.2738678816
32
0.0000000000
13
0.3005753070
23
0.0002021258
33
0.0000000000
40
0.0000000000
40
0.0000000000
40
0.0000000000
40
0.0000000000
40
0.0337344211
40
0.0710523441
40
0.1215253834
40
0.1844694805
40
0.2590048900
40
0.3440792956
40
0.4384865535
40
0.5408855038
40
0.6498198929
40
0.7637395792
40
0.8810229051
40
1.0000000000
40
1.0000000000
40
1.0000000000
40
1.0000000000
10
-24.6849802401
20
16.3739188688
30
0.0000000000
10
-24.6835874293
20
16.3769984603
30
0.0000000000
10
-24.6740137720
20
16.3760985715
30
0.0000000000
10
-24.6631070469
20
16.3784530739
30
0.0000000000
10
-24.6475895649
20
16.3792750849
30
0.0000000000
10
-24.6289654724
20
16.3805733394
30
0.0000000000
10
-24.6066329154
20
16.3815927997
30
0.0000000000
10
-24.5812200922
20
16.3825767933
30
0.0000000000
10
-24.5529843724
20
16.3834210548
30
0.0000000000
10
-24.5223617541
20
16.3841405810
30
0.0000000000
10
-24.4897784438
20
16.3847156186
30
0.0000000000
10
-24.4557021239
20
16.3851401085
30
0.0000000000
10
-24.4206177971
20
16.3854069463
30
0.0000000000
10
-24.3969464572
20
16.3854770757
30
0.0000000000
10
-24.3850259316
20
16.3854850918
30
0.0000000000
11
-24.6849802401
21
16.3739188688
31
0.0000000000
11
-24.6752172374
21
16.3766571219
31
0.0000000000
11
-24.6640783574
21
16.3779773668
31
0.0000000000
11
-24.6489600164
21
16.3792397350
31
0.0000000000
11
-24.6300778115
21
16.3804262244
31
0.0000000000
11
-24.6077010145
21
16.3815199147
31
0.0000000000
11
-24.5821487326
21
16.3825052094
31
0.0000000000
11
-24.5537853570
21
16.3833680576
31
0.0000000000
11
-24.5230153673
21
16.3840961544
31
0.0000000000
11
-24.4902775624
21
16.3846791168
31
0.0000000000
11
-24.4560388040
21
16.3851086313
31
0.0000000000
11
-24.4207873578
21
16.3853785728
31
0.0000000000
11
-24.3850259316
21
16.3854850918
31
0.0000000000
0
SPLINE
5
289
100
AcDbEntity
8
0
100
AcDbSpline
62
0
6
CONTINUOUS
70
0
71
3
72
23
73
19
74
17
42
0.0000001000
43
0.0000001000
44
0.0000000001
12
-0.0004462523
22
0.9463611159
32
0.0000000000
13
-0.0654167177
23
0.9440975659
33
0.0000000000
40
0.0000000000
40
0.0000000000
40
0.0000000000
40
0.0000000000
40
0.0893423175
40
0.1777469978
40
0.2645814888
40
0.3492190641
40
0.4310515231
40
0.5094905233
40
0.5839712066
40
0.6539576011
40
0.7189464212
40
0.7784703090
40
0.8321009616
40
0.8794523959
40
0.9201846175
40
0.9540056633
40
0.9806731761
40
1.0000000000
40
1.0000000000
40
1.0000000000
40
1.0000000000
10
-24.3850259316
20
16.3854850935
30
0.0000000000
10
-24.3850392213
20
16.4136684586
30
0.0000000000
10
-24.3850946245
20
16.4697393985
30
0.0000000000
10
-24.3852646902
20
16.5532024605
30
0.0000000000
10
-24.3855202215
20
16.6351811708
30
0.0000000000
10
-24.3858593343
20
16.7150863290
30
0.0000000000
10
-24.3862795278
20
16.7923426770
30
0.0000000000
10
-24.3867776842
20
16.8663944652
30
0.0000000000
10
-24.3873500922
20
16.9367087173
30
0.0000000000
10
-24.3879924452
20
17.0027792727
30
0.0000000000
10
-24.3886998668
20
17.0641307015
30
0.0000000000
10
-24.3894668502
20
17.1203215092
30
0.0000000000
10
-24.3902873693
20
17.1709471292
30
0.0000000000
10
-24.3911542682
20
17.2156431536
30
0.0000000000
10
-24.3920605358
20
17.2540878385
30
0.0000000000
10
-24.3929940018
20
17.2860051114
30
0.0000000000
10
-24.3939484998
20
17.3111650221
30
0.0000000000
10
-24.3946922321
20
17.3256566282
30
0.0000000000
10
-24.3951136646
20
17.3317387640
30
0.0000000000
11
-24.3850259316
21
16.3854850935
31
0.0000000000
11
-24.3851097843
21
16.4700351566
31
0.0000000000
11
-24.3852808855
21
16.5536977429
31
0.0000000000
11
-24.3855380133
21
16.6358741355
31
0.0000000000
11
-24.3858793109
21
16.7159711275
31
0.0000000000
11
-24.3863023280
21
16.7934130380
31
0.0000000000
11
-24.3868040239
21
16.8676429706
31
0.0000000000
11
-24.3873807880
21
16.9381262413
31
0.0000000000
11
-24.3880284699
21
17.0043554841
31
0.0000000000
11
-24.3887424121
21
17.0658542393
31
0.0000000000
11
-24.3895174809
21
17.1221800061
31
0.0000000000
11
-24.3903480986
21
17.1729271787
31
0.0000000000
11
-24.3912282835
21
17.2177300948
31
0.0000000000
11
-24.3921517020
21
17.2562664278
31
0.0000000000
11
-24.3931117252
21
17.2882589531
31
0.0000000000
11
-24.3941013996
21
17.3134766406
31
0.0000000000
11
-24.3951136646
21
17.3317387640
31
0.0000000000
0
SPLINE
5
28A
100
AcDbEntity
8
0
100
AcDbSpline
62
0
6
CONTINUOUS
70
0
71
3
72
23
73
19
74
17
42
0.0000001000
43
0.0000001000
44
0.0000000001
12
-0.0004462989
22
0.6625310105
32
0.0000000000
13
-0.0652627498
23
0.6593089659
33
0.0000000000
40
0.0000000000
40
0.0000000000
40
0.0000000000
40
0.0000000000
40
0.0893098378
40
0.1777080418
40
0.2645366215
40
0.3491689290
40
0.4309968716
40
0.5094322071
40
0.5839101755
40
0.6538947912
40
0.7188829293
40
0.7784074848
40
0.8320404858
40
0.8793963971
40
0.9201359009
40
0.9539680310
40
0.9806524618
40
1.0000000000
40
1.0000000000
40
1.0000000000
40
1.0000000000
10
-24.6849802401
20
16.3739188688
30
0.0000000000
10
-24.6849935264
20
16.3936423811
30
0.0000000000
10
-24.6850489162
20
16.4328880642
30
0.0000000000
10
-24.6852189562
20
16.4913090898
30
0.0000000000
10
-24.6854744797
20
16.5486967933
30
0.0000000000
10
-24.6858135970
20
16.6046330383
30
0.0000000000
10
-24.6862337999
20
16.6587150862
30
0.0000000000
10
-24.6867319751
20
16.7105538546
30
0.0000000000
10
-24.6873044085
20
16.7597761690
30
0.0000000000
10
-24.6879467939
20
16.8060276298
30
0.0000000000
10
-24.6886542536
20
16.8489753668
30
0.0000000000
10
-24.6894212805
20
16.8883103221
30
0.0000000000
10
-24.6902418491
20
16.9237492990
30
0.0000000000
10
-24.6911088073
20
16.9550372943
30
0.0000000000
10
-24.6920151409
20
16.9819490725
30
0.0000000000
10
-24.6929487402
20
17.0042919757
30
0.0000000000
10
-24.6939032941
20
17.0219035453
30
0.0000000000
10
-24.6946470819
20
17.0320444363
30
0.0000000000
10
-24.6950679731
20
17.0362964381
30
0.0000000000
11
-24.6849802401
21
16.3739188688
31
0.0000000000
11
-24.6850640612
21
16.4330893599
31
0.0000000000
11
-24.6852351511
21
16.4916556747
31
0.0000000000
11
-24.6854922726
21
16.5491817398
31
0.0000000000
11
-24.6858335731
21
16.6052522420
31
0.0000000000
11
-24.6862565999
21
16.6594641533
31
0.0000000000
11
-24.6867583137
21
16.7114275852
31
0.0000000000
11
-24.6873351029
21
16.7607681888
31
0.0000000000
11
-24.6879828157
21
16.8071306533
31
0.0000000000
11
-24.6886967934
21
16.8501813997
31
0.0000000000
11
-24.6894719013
21
16.8896106547
31
0.0000000000
11
-24.6903025612
21
16.9251344788
31
0.0000000000
11
-24.6911827893
21
16.9564968957
31
0.0000000000
11
-24.6921062541
21
16.9834722843
31
0.0000000000
11
-24.6930663173
21
17.0058665547
31
0.0000000000
11
-24.6940560456
21
17.0235180962
31
0.0000000000
11
-24.6950679731
21
17.0362964381
31
0.0000000000
0
SPLINE
5
28B
100
AcDbEntity
8
0
100
AcDbSpline
62
0
6
CONTINUOUS
70
0
71
3
72
53
73
49
74
47
42
0.0000001000
43
0.0000001000
44
0.0000000001
12
0.0000000000
22
-7.8352824469
32
0.0000000000
13
0.0000000000
23
7.8352824469
33
0.0000000000
40
0.0000000000
40
0.0000000000
40
0.0000000000
40
0.0000000000
40
0.0216297225
40
0.0432714177
40
0.0649021541
40
0.0865565552
40
0.1081997555
40
0.1298687968
40
0.1515374670
40
0.1732219214
40
0.1949237680
40
0.2166264549
40
0.2383599994
40
0.2600892288
40
0.2818509279
40
0.3036127406
40
0.3253969325
40
0.3471936789
40
0.3689941777
40
0.3908187683
40
0.4126349545
40
0.4344772448
40
0.4563081729
40
0.4781569837
40
0.5000005538
40
0.5218440320
40
0.5436929207
40
0.5655238225
40
0.5873660912
40
0.6091823223
40
0.6310068022
40
0.6528074003
40
0.6746040023
40
0.6963882875
40
0.7181500656
40
0.7399117298
40
0.7616410439
40
0.7833744355
40
0.8050772747
40
0.8267789191
40
0.8484635085
40
0.8701321134
40
0.8918011255
40
0.9134444429
40
0.9350986460
40
0.9567295945
40
0.9783710358
40
1.0000000000
40
1.0000000000
40
1.0000000000
40
1.0000000000
10
2.5000000000
20
-0.0000000000
30
0.0000000000
10
2.5000000000
20
-0.0564916616
30
0.0000000000
10
2.4961325952
20
-0.1695443758
30
0.0000000000
10
2.4787552144
20
-0.3382867943
30
0.0000000000
10
2.4498733212
20
-0.5055182963
30
0.0000000000
10
2.4096276449
20
-0.6703865022
30
0.0000000000
10
2.3581782942
20
-0.8322143996
30
0.0000000000
10
2.2957776435
20
-0.9901832771
30
0.0000000000
10
2.2226827288
20
-1.1436163711
30
0.0000000000
10
2.1392361058
20
-1.2917730386
30
0.0000000000
10
2.0458156128
20
-1.4339581422
30
0.0000000000
10
1.9428275698
20
-1.5695348210
30
0.0000000000
10
1.8307768962
20
-1.6978183970
30
0.0000000000
10
1.7101232848
20
-1.8182641134
30
0.0000000000
10
1.5814766137
20
-1.9302452900
30
0.0000000000
10
1.4453757011
20
-2.0332754369
30
0.0000000000
10
1.3024884040
20
-2.1268339950
30
0.0000000000
10
1.1534652049
20
-2.2104796700
30
0.0000000000
10
0.9989913173
20
-2.2838170245
30
0.0000000000
10
0.8398301617
20
-2.3464726022
30
0.0000000000
10
0.6766653413
20
-2.3981688105
30
0.0000000000
10
0.5103407666
20
-2.4386306901
30
0.0000000000
10
0.3415621170
20
-2.4676803705
30
0.0000000000
10
0.1711930166
20
-2.4851649091
30
0.0000000000
10
-0.0000041051
20
-2.4910023349
30
0.0000000000
10
-0.1712014092
20
-2.4851643348
30
0.0000000000
10
-0.3415703484
20
-2.4676792458
30
0.0000000000
10
-0.5103489769
20
-2.4386289826
30
0.0000000000
10
-0.6766734104
20
-2.3981665559
30
0.0000000000
10
-0.8398378413
20
-2.3464698714
30
0.0000000000
10
-0.9989988738
20
-2.2838137470
30
0.0000000000
10
-1.1534721589
20
-2.2104760686
30
0.0000000000
10
-1.3024952018
20
-2.1268298630
30
0.0000000000
10
-1.4453820252
20
-2.0332709871
30
0.0000000000
10
-1.5814826601
20
-1.9302403714
30
0.0000000000
10
-1.7101290175
20
-1.8182587749
30
0.0000000000
10
-1.8307820603
20
-1.6978128683
30
0.0000000000
10
-1.9428324865
20
-1.5695287881
30
0.0000000000
10
-2.0458197979
20
-1.4339522158
30
0.0000000000
10
-2.1392399893
20
-1.2917666519
30
0.0000000000
10
-2.2226860195
20
-1.1436100451
30
0.0000000000
10
-2.2957805227
20
-0.9901766388
30
0.0000000000
10
-2.3581807481
20
-0.8322075304
30
0.0000000000
10
-2.4096295317
20
-0.6703797526
30
0.0000000000
10
-2.4498748200
20
-0.5055111023
30
0.0000000000
10
-2.4787561280
20
-0.3382801318
30
0.0000000000
10
-2.4961328215
20
-0.1695397476
30
0.0000000000
10
-2.5000000000
20
-0.0564896811
30
0.0000000000
10
-2.5000000000
20
0.0000000000
30
0.0000000000
11
2.5000000000
21
-0.0000000000
31
0.0000000000
11
2.4942051321
21
-0.1693758838
31
0.0000000000
11
2.4768355290
21
-0.3380527142
31
0.0000000000
11
2.4479920846
21
-0.5050632495
31
0.0000000000
11
2.4077569969
21
-0.6698919072
31
0.0000000000
11
2.3563779520
21
-0.8315018369
31
0.0000000000
11
2.2940019080
21
-0.9894116728
31
0.0000000000
11
2.2209832536
21
-1.1426878152
31
0.0000000000
11
2.1376049446
21
-1.2907262127
31
0.0000000000
11
2.0442347914
21
-1.4328376106
31
0.0000000000
11
1.9413755262
21
-1.5682475274
31
0.0000000000
11
1.8293529426
21
-1.6965015728
31
0.0000000000
11
1.7088621931
21
-1.8167871706
31
0.0000000000
11
1.5802529508
21
-1.9287380623
31
0.0000000000
11
1.4443050040
21
-2.0316545260
31
0.0000000000
11
1.3015080422
21
-2.1251558519
31
0.0000000000
11
1.1525811647
21
-2.2087491843
31
0.0000000000
11
0.9982755387
21
-2.2820081587
31
0.0000000000
11
0.8391593510
21
-2.3446473258
31
0.0000000000
11
0.6762070313
21
-2.3962772681
31
0.0000000000
11
0.5099165747
21
-2.4367316809
31
0.0000000000
11
0.3413438872
21
-2.4657465107
31
0.0000000000
11
0.1710467876
21
-2.4832240178
31
0.0000000000
11
-0.0000043418
21
-2.4890565887
31
0.0000000000
11
-0.1710547320
21
-2.4832234753
31
0.0000000000
11
-0.3413523806
21
-2.4657453452
31
0.0000000000
11
-0.5099247676
21
-2.4367299814
31
0.0000000000
11
-0.6762149267
21
-2.3962750595
31
0.0000000000
11
-0.8391674092
21
-2.3446444670
31
0.0000000000
11
-0.9982825870
21
-2.2820051023
31
0.0000000000
11
-1.1525886797
21
-2.2087452971
31
0.0000000000
11
-1.3015143069
21
-2.1251520487
31
0.0000000000
11
-1.4443115927
21
-2.0316498830
31
0.0000000000
11
-1.5802589972
21
-1.9287331517
31
0.0000000000
11
-1.7088676899
21
-1.8167820456
31
0.0000000000
11
-1.8293585305
21
-1.6964956000
31
0.0000000000
11
-1.9413799359
21
-1.5682421161
31
0.0000000000
11
-2.0442395107
21
-1.4328309363
31
0.0000000000
11
-2.1376083723
21
-1.2907205855
31
0.0000000000
11
-2.2209867767
21
-1.1426810271
31
0.0000000000
11
-2.2940047551
21
-0.9894051294
31
0.0000000000
11
-2.3563802685
21
-0.8314953297
31
0.0000000000
11
-2.4077591114
21
-0.6698843734
31
0.0000000000
11
-2.4479933627
21
-0.5050571085
31
0.0000000000
11
-2.4768366115
21
-0.3380448523
31
0.0000000000
11
-2.4942055384
21
-0.1693699528
31
0.0000000000
11
-2.5000000000
21
0.0000000000
31
0.0000000000
0
SPLINE
5
28C
100
AcDbEntity
8
0
100
AcDbSpline
62
0
6
CONTINUOUS
70
0
71
3
72
20
73
16
74
14
42
0.0000001000
43
0.0000001000
44
0.0000000001
12
0.0014365767
22
0.4668967676
32
0.0000000000
13
0.4668968976
23
0.0013936835
33
0.0000000000
40
0.0000000000
40
0.0000000000
40
0.0000000000
40
0.0000000000
40
0.0762841454
40
0.1526297873
40
0.2290661287
40
0.3056170291
40
0.3822996253
40
0.4591233628
40
0.5360894869
40
0.6131910154
40
0.6904131830
40
0.7677343244
40
0.8451271365
40
0.9225602469
40
1.0000000000
40
1.0000000000
40
1.0000000000
40
1.0000000000
10
-24.6950679731
20
17.0362964381
30
0.0000000000
10
-24.6950314438
20
17.0481687117
30
0.0000000000
10
-24.6935008114
20
17.0719439229
30
0.0000000000
10
-24.6868694491
20
17.1070580321
30
0.0000000000
10
-24.6759988296
20
17.1411481695
30
0.0000000000
10
-24.6610475313
20
17.1737118386
30
0.0000000000
10
-24.6422334430
20
17.2042778450
30
0.0000000000
10
-24.6198305394
20
17.2324018853
30
0.0000000000
10
-24.5941647912
20
17.2576759908
30
0.0000000000
10
-24.5656094186
20
17.2797335817
30
0.0000000000
10
-24.5345792230
20
17.2982549319
30
0.0000000000
10
-24.5015253181
20
17.3129716669
30
0.0000000000
10
-24.4669257239
20
17.3236706035
30
0.0000000000
10
-24.4312891982
20
17.3301967412
30
0.0000000000
10
-24.4071657914
20
17.3317027885
30
0.0000000000
10
-24.3951136646
20
17.3317387640
30
0.0000000000
11
-24.6950679731
21
17.0362964381
31
0.0000000000
11
-24.6927800268
21
17.0718398656
31
0.0000000000
11
-24.6861681473
21
17.1068669856
31
0.0000000000
11
-24.6753283794
21
17.1408689903
31
0.0000000000
11
-24.6604181828
21
17.1733519629
31
0.0000000000
11
-24.6416541446
21
17.2038440525
31
0.0000000000
11
-24.6193088331
21
17.2319023275
31
0.0000000000
11
-24.5937068388
21
17.2571192107
31
0.0000000000
11
-24.5652200590
21
17.2791283988
31
0.0000000000
11
-24.5342622955
21
17.2976101839
31
0.0000000000
11
-24.5012832443
21
17.3122960979
31
0.0000000000
11
-24.4667619625
21
17.3229728114
31
0.0000000000
11
-24.4311999098
21
17.3294852335
31
0.0000000000
11
-24.3951136646
21
17.3317387640
31
0.0000000000
0
SPLINE
5
28D
100
AcDbEntity
8
CURVE
100
AcDbSpline
6
CONTINUOUS
70
0
71
3
72
8
73
4
74
2
42
0.0000001000
43
0.0000001000
44
0.0000000001
12
4.9992359903
22
-4.9992359903
32
0.1494556778
13
5.0006486013
23
-5.0006486013
33
0.0906148598
40
0.0000000000
40
0.0000000000
40
0.0000000000
40
0.0000000000
40
1.0000000000
40
1.0000000000
40
1.0000000000
40
1.0000000000
10
0.0000000000
20
12.7000000000
30
5.8102046797
10
1.6664119968
20
11.0335880032
30
5.8600232390
10
3.3331171329
20
9.3668828671
30
5.9000363805
10
5.0000000000
20
7.7000000000
30
5.9302413338
11
0.0000000000
21
12.7000000000
31
5.8102046797
11
5.0000000000
21
7.7000000000
31
5.9302413338
0
SPLINE
5
28E
100
AcDbEntity
8
CURVE
100
AcDbSpline
6
CONTINUOUS
70
0
71
3
72
8
73
4
74
2
42
0.0000001000
43
0.0000001000
44
0.0000000001
12
-4.9992359903
22
4.9992359903
32
0.1494556778
13
-5.0006486013
23
5.0006486013
33
0.0906148598
40
0.0000000000
40
0.0000000000
40
0.0000000000
40
0.0000000000
40
1.0000000000
40
1.0000000000
40
1.0000000000
40
1.0000000000
10
0.0000000000
20
-12.7000000000
30
5.8102046797
10
-1.6664119968
20
-11.0335880032
30
5.8600232390
10
-3.3331171329
20
-9.3668828671
30
5.9000363805
10
-5.0000000000
20
-7.7000000000
30
5.9302413338
11
0.0000000000
21
-12.7000000000
31
5.8102046797
11
-5.0000000000
21
-7.7000000000
31
5.9302413338
0
SPLINE
5
28F
100
AcDbEntity
8
CURVE
100
AcDbSpline
6
CONTINUOUS
70
0
71
3
72
8
73
4
74
2
42
0.0000001000
43
0.0000001000
44
0.0000000001
12
-5.0006486013
22
-5.0006486013
32
-0.0906148598
13
-4.9992359903
23
-4.9992359903
33
-0.1494556778
40
0.0000000000
40
0.0000000000
40
0.0000000000
40
0.0000000000
40
1.0000000000
40
1.0000000000
40
1.0000000000
40
1.0000000000
10
5.0000000000
20
-7.7000000000
30
5.9302413338
10
3.3331171329
20
-9.3668828671
30
5.9000363805
10
1.6664119968
20
-11.0335880032
30
5.8600232390
10
0.0000000000
20
-12.7000000000
30
5.8102046797
11
5.0000000000
21
-7.7000000000
31
5.9302413338
11
0.0000000000
21
-12.7000000000
31
5.8102046797
0
SPLINE
5
290
100
AcDbEntity
8
CURVE
100
AcDbSpline
6
CONTINUOUS
70
0
71
3
72
8
73
4
74
2
42
0.0000001000
43
0.0000001000
44
0.0000000001
12
5.0006486013
22
5.0006486013
32
-0.0906148598
13
4.9992359903
23
4.9992359903
33
-0.1494556778
40
0.0000000000
40
0.0000000000
40
0.0000000000
40
0.0000000000
40
1.0000000000
40
1.0000000000
40
1.0000000000
40
1.0000000000
10
-5.0000000000
20
7.7000000000
30
5.9302413338
10
-3.3331171329
20
9.3668828671
30
5.9000363805
10
-1.6664119968
20
11.0335880032
30
5.8600232390
10
0.0000000000
20
12.7000000000
30
5.8102046797
11
-5.0000000000
21
7.7000000000
31
5.9302413338
11
0.0000000000
21
12.7000000000
31
5.8102046797
0
SPLINE
5
291
100
AcDbEntity
8
0
100
AcDbSpline
62
0
6
CONTINUOUS
70
0
71
3
72
20
73
16
74
14
42
0.0000001000
43
0.0000001000
44
0.0000000001
12
-0.0519499149
22
-0.2947123733
32
0.0000000000
13
0.2947096670
23
-0.0519652658
33
0.0000000000
40
0.0000000000
40
0.0000000000
40
0.0000000000
40
0.0000000000
40
0.1205817900
40
0.2393684007
40
0.3546348731
40
0.4647074343
40
0.5679878490
40
0.6629766924
40
0.7482952273
40
0.8227056075
40
0.8851292224
40
0.9346632317
40
0.9705962413
40
0.9924295749
40
1.0000000000
40
1.0000000000
40
1.0000000000
40
1.0000000000
10
-47.1626895136
20
-17.0362964381
30
0.0000000000
10
-47.1647775849
20
-17.0481420866
30
0.0000000000
10
-47.1688984287
20
-17.0716613141
30
0.0000000000
10
-47.1749307153
20
-17.1065187331
30
0.0000000000
10
-47.1807104109
20
-17.1403560588
30
0.0000000000
10
-47.1861531846
20
-17.1726810719
30
0.0000000000
10
-47.1911819564
20
-17.2030265160
30
0.0000000000
10
-47.1957182064
20
-17.2309438161
30
0.0000000000
10
-47.1997154711
20
-17.2560523203
30
0.0000000000
10
-47.2030584217
20
-17.2779099529
30
0.0000000000
10
-47.2058722725
20
-17.2964266643
30
0.0000000000
10
-47.2076480586
20
-17.3107076950
30
0.0000000000
10
-47.2095412171
20
-17.3220970661
30
0.0000000000
10
-47.2091248964
20
-17.3272173750
30
0.0000000000
10
-47.2102919375
20
-17.3316076309
30
0.0000000000
10
-47.2095482450
20
-17.3317387640
30
0.0000000000
11
-47.1626895136
21
-17.0362964381
31
0.0000000000
11
-47.1689168426
21
-17.0718398656
31
0.0000000000
11
-47.1749776582
21
-17.1068669856
31
0.0000000000
11
-47.1807839201
21
-17.1408689903
31
0.0000000000
11
-47.1862512862
21
-17.1733519629
31
0.0000000000
11
-47.1913003367
21
-17.2038440525
31
0.0000000000
11
-47.1958577288
21
-17.2319023275
31
0.0000000000
11
-47.1998572612
21
-17.2571192107
31
0.0000000000
11
-47.2032408363
21
-17.2791283988
31
0.0000000000
11
-47.2059593039
21
-17.2976101839
31
0.0000000000
11
-47.2079731753
21
-17.3122960979
31
0.0000000000
11
-47.2092531967
21
-17.3229728114
31
0.0000000000
11
-47.2097807745
21
-17.3294852335
31
0.0000000000
11
-47.2095482450
21
-17.3317387640
31
0.0000000000
0
SPLINE
5
292
100
AcDbEntity
8
0
100
AcDbSpline
62
0
6
CONTINUOUS
70
0
71
3
72
15
73
11
74
9
42
0.0000001000
43
0.0000001000
44
0.0000000001
12
-1.2628707436
22
-32.7314756763
32
0.0000000000
13
1.2628707407
23
-32.7314756765
33
0.0000000000
40
0.0000000000
40
0.0000000000
40
0.0000000000
40
0.0000000000
40
0.1249999972
40
0.2500000017
40
0.3750000031
40
0.5000000024
40
0.6250000016
40
0.7500000030
40
0.8750000075
40
1.0000000000
40
1.0000000000
40
1.0000000000
40
1.0000000000
10
-47.7406153497
20
16.3739188688
30
0.0000000000
10
-47.7932349629
20
15.0101074129
30
0.0000000000
10
-47.8853263904
20
12.2819588204
30
0.0000000000
10
-47.9840044912
20
8.1886090610
30
0.0000000000
10
-48.0432151292
20
4.0944942574
30
0.0000000000
10
-48.0629525964
20
-0.0000000774
30
0.0000000000
10
-48.0432151278
20
-4.0944944122
30
0.0000000000
10
-47.9840044881
20
-8.1886092156
30
0.0000000000
10
-47.8853263873
20
-12.2819589233
30
0.0000000000
10
-47.7932349608
20
-15.0101074643
30
0.0000000000
10
-47.7406153497
20
-16.3739188688
30
0.0000000000
11
-47.7406153497
21
16.3739188688
31
0.0000000000
11
-47.8787498813
21
12.2817710892
31
0.0000000000
11
-47.9774265812
21
8.1884815245
31
0.0000000000
11
-48.0366362678
21
4.0944309681
31
0.0000000000
11
-48.0563734405
21
-0.0000000775
31
0.0000000000
11
-48.0366362663
21
-4.0944311229
31
0.0000000000
11
-47.9774265782
21
-8.1884816791
31
0.0000000000
11
-47.8787498769
21
-12.2817712436
31
0.0000000000
11
-47.7406153497
21
-16.3739188688
31
0.0000000000
0
SPLINE
5
293
100
AcDbEntity
8
0
100
AcDbSpline
62
0
6
CONTINUOUS
70
0
71
3
72
20
73
16
74
14
42
0.0000001000
43
0.0000001000
44
0.0000000001
12
-0.0519499151
22
0.2947123733
32
0.0000000000
13
0.2947096670
23
0.0519652658
33
0.0000000000
40
0.0000000000
40
0.0000000000
40
0.0000000000
40
0.0000000000
40
0.1205817710
40
0.2393683667
40
0.3546348288
40
0.4647073846
40
0.5679877984
40
0.6629766452
40
0.7482951866
40
0.8227055754
40
0.8851291998
40
0.9346632180
40
0.9705962348
40
0.9924295732
40
1.0000000000
40
1.0000000000
40
1.0000000000
40
1.0000000000
10
-47.1626895136
20
17.0362964381
30
0.0000000000
10
-47.1647775845
20
17.0481420847
30
0.0000000000
10
-47.1688984278
20
17.0716613089
30
0.0000000000
10
-47.1749307137
20
17.1065187235
30
0.0000000000
10
-47.1807104088
20
17.1403560462
30
0.0000000000
10
-47.1861531823
20
17.1726810577
30
0.0000000000
10
-47.1911819541
20
17.2030265015
30
0.0000000000
10
-47.1957182043
20
17.2309438025
30
0.0000000000
10
-47.1997154693
20
17.2560523085
30
0.0000000000
10
-47.2030584203
20
17.2779099435
30
0.0000000000
10
-47.2058722716
20
17.2964266575
30
0.0000000000
10
-47.2076480581
20
17.3107076907
30
0.0000000000
10
-47.2095412170
20
17.3220970641
30
0.0000000000
10
-47.2091248962
20
17.3272173740
30
0.0000000000
10
-47.2102919376
20
17.3316076309
30
0.0000000000
10
-47.2095482450
20
17.3317387640
30
0.0000000000
11
-47.1626895136
21
17.0362964381
31
0.0000000000
11
-47.1689168417
21
17.0718398600
31
0.0000000000
11
-47.1749776565
21
17.1068669756
31
0.0000000000
11
-47.1807839180
21
17.1408689772
31
0.0000000000
11
-47.1862512838
21
17.1733519482
31
0.0000000000
11
-47.1913003344
21
17.2038440375
31
0.0000000000
11
-47.1958577266
21
17.2319023136
31
0.0000000000
11
-47.1998572594
21
17.2571191987
31
0.0000000000
11
-47.2032408349
21
17.2791283893
31
0.0000000000
11
-47.2059593030
21
17.2976101772
31
0.0000000000
11
-47.2079731748
21
17.3122960938
31
0.0000000000
11
-47.2092531966
21
17.3229728095
31
0.0000000000
11
-47.2097807745
21
17.3294852330
31
0.0000000000
11
-47.2095482450
21
17.3317387640
31
0.0000000000
0
SPLINE
5
294
100
AcDbEntity
8
0
100
AcDbSpline
62
0
6
CONTINUOUS
70
0
71
3
72
19
73
15
74
13
42
0.0000001000
43
0.0000001000
44
0.0000000001
12
-0.0519449959
22
-0.2946844677
32
0.0000000000
13
0.2946817616
23
-0.0519603453
33
0.0000000000
40
0.0000000000
40
0.0000000000
40
0.0000000000
40
0.0000000000
40
0.1205932086
40
0.2393910680
40
0.3546684557
40
0.4647514404
40
0.5680416354
40
0.6630394739
40
0.7483660881
40
0.8227835147
40
0.8852130410
40
0.9347517410
40
0.9706881533
40
1.0000000000
40
1.0000000000
40
1.0000000000
40
1.0000000000
10
-47.1626895136
20
-17.0362964381
30
0.0000000000
10
-47.1647775849
20
-17.0481420866
30
0.0000000000
10
-47.1688984034
20
-17.0716612881
30
0.0000000000
10
-47.1749308014
20
-17.1065188215
30
0.0000000000
10
-47.1807101074
20
-17.1403557472
30
0.0000000000
10
-47.1861542336
20
-17.1726821486
30
0.0000000000
10
-47.1911784272
20
-17.2030228934
30
0.0000000000
10
-47.1957297185
20
-17.2309556329
30
0.0000000000
10
-47.1996792848
20
-17.2560151759
30
0.0000000000
10
-47.2031669900
20
-17.2780213958
30
0.0000000000
10
-47.2055662687
20
-17.2961125584
30
0.0000000000
10
-47.2084351472
20
-17.3115156235
30
0.0000000000
10
-47.2077598466
20
-17.3209266495
30
0.0000000000
10
-47.2124274672
20
-17.3312310794
30
0.0000000000
10
-47.2095482450
20
-17.3317387640
30
0.0000000000
11
-47.1626895136
21
-17.0362964381
31
0.0000000000
11
-47.1689168426
21
-17.0718398656
31
0.0000000000
11
-47.1749776582
21
-17.1068669856
31
0.0000000000
11
-47.1807839201
21
-17.1408689903
31
0.0000000000
11
-47.1862512862
21
-17.1733519629
31
0.0000000000
11
-47.1913003367
21
-17.2038440525
31
0.0000000000
11
-47.1958577288
21
-17.2319023275
31
0.0000000000
11
-47.1998572612
21
-17.2571192107
31
0.0000000000
11
-47.2032408363
21
-17.2791283988
31
0.0000000000
11
-47.2059593039
21
-17.2976101839
31
0.0000000000
11
-47.2079731753
21
-17.3122960979
31
0.0000000000
11
-47.2092531967
21
-17.3229728114
31
0.0000000000
11
-47.2095482450
21
-17.3317387640
31
0.0000000000
0
SPLINE
5
295
100
AcDbEntity
8
0
100
AcDbSpline
62
0
6
CONTINUOUS
70
0
71
3
72
23
73
19
74
17
42
0.0000001000
43
0.0000001000
44
0.0000000001
12
0.0366402594
22
-0.9493979473
32
0.0000000000
13
0.9356689586
23
-0.1649926385
33
0.0000000000
40
0.0000000000
40
0.0000000000
40
0.0000000000
40
0.0000000000
40
0.0624769767
40
0.1249760655
40
0.1874764470
40
0.2499767218
40
0.3124774562
40
0.3749789920
40
0.4374809592
40
0.4999832815
40
0.5624861730
40
0.6249897991
40
0.6874939022
40
0.7499980233
40
0.8125024222
40
0.8750075480
40
0.9375118997
40
1.0000000000
40
1.0000000000
40
1.0000000000
40
1.0000000000
10
-47.7406153497
20
-16.3739188688
30
0.0000000000
10
-47.7398522922
20
-16.3936907066
30
0.0000000000
10
-47.7366469296
20
-16.4331971534
30
0.0000000000
10
-47.7268349336
20
-16.4918236738
30
0.0000000000
10
-47.7120874464
20
-16.5494192562
30
0.0000000000
10
-47.6925113296
20
-16.6055569597
30
0.0000000000
10
-47.6682475622
20
-16.6598341592
30
0.0000000000
10
-47.6394705152
20
-16.7118599361
30
0.0000000000
10
-47.6063872013
20
-16.7612599003
30
0.0000000000
10
-47.5692356531
20
-16.8076783801
30
0.0000000000
10
-47.5282830947
20
-16.8507813203
30
0.0000000000
10
-47.4838241184
20
-16.8902584380
30
0.0000000000
10
-47.4361787739
20
-16.9258253994
30
0.0000000000
10
-47.3856899338
20
-16.9572260810
30
0.0000000000
10
-47.3327212913
20
-16.9842344516
30
0.0000000000
10
-47.2776527450
20
-17.0066560715
30
0.0000000000
10
-47.2208912575
20
-17.0243273824
30
0.0000000000
10
-47.1821789055
20
-17.0328597459
30
0.0000000000
10
-47.1626895136
20
-17.0362964381
30
0.0000000000
11
-47.7406153497
21
-16.3739188688
31
0.0000000000
11
-47.7358139075
21
-16.4330840325
31
0.0000000000
11
-47.7260126420
21
-16.4916502363
31
0.0000000000
11
-47.7112826884
21
-16.5491762250
31
0.0000000000
11
-47.6917301326
21
-16.6052466845
31
0.0000000000
11
-47.6674955022
21
-16.6594586149
31
0.0000000000
11
-47.6387529180
21
-16.7114221119
31
0.0000000000
11
-47.6057092714
21
-16.7607628379
31
0.0000000000
11
-47.5686023282
21
-16.8071255888
31
0.0000000000
11
-47.5276989265
21
-16.8501767893
31
0.0000000000
11
-47.4832932235
21
-16.8896066076
31
0.0000000000
11
-47.4357048961
21
-16.9251309929
31
0.0000000000
11
-47.3852767578
21
-16.9564939608
31
0.0000000000
11
-47.3323715268
21
-16.9834698901
31
0.0000000000
11
-47.2773695345
21
-17.0058646906
31
0.0000000000
11
-47.2206679918
21
-17.0235167151
31
0.0000000000
11
-47.1626895136
21
-17.0362964381
31
0.0000000000
0
SPLINE
5
296
100
AcDbEntity
8
0
100
AcDbSpline
62
0
6
CONTINUOUS
70
0
71
3
72
15
73
11
74
9
42
0.0000001000
43
0.0000001000
44
0.0000000001
12
-1.2628707436
22
-32.7314756763
32
0.0000000000
13
1.2628707407
23
-32.7314756765
33
0.0000000000
40
0.0000000000
40
0.0000000000
40
0.0000000000
40
0.0000000000
40
0.1249999972
40
0.2500000017
40
0.3750000031
40
0.5000000024
40
0.6250000016
40
0.7500000030
40
0.8750000075
40
1.0000000000
40
1.0000000000
40
1.0000000000
40
1.0000000000
10
-47.7406153497
20
16.3739188688
30
0.0000000000
10
-47.7932349629
20
15.0101074129
30
0.0000000000
10
-47.8853263904
20
12.2819588204
30
0.0000000000
10
-47.9840044912
20
8.1886090610
30
0.0000000000
10
-48.0432151292
20
4.0944942574
30
0.0000000000
10
-48.0629525964
20
-0.0000000774
30
0.0000000000
10
-48.0432151278
20
-4.0944944122
30
0.0000000000
10
-47.9840044881
20
-8.1886092156
30
0.0000000000
10
-47.8853263873
20
-12.2819589233
30
0.0000000000
10
-47.7932349608
20
-15.0101074643
30
0.0000000000
10
-47.7406153497
20
-16.3739188688
30
0.0000000000
11
-47.7406153497
21
16.3739188688
31
0.0000000000
11
-47.8787498813
21
12.2817710892
31
0.0000000000
11
-47.9774265812
21
8.1884815245
31
0.0000000000
11
-48.0366362678
21
4.0944309681
31
0.0000000000
11
-48.0563734405
21
-0.0000000775
31
0.0000000000
11
-48.0366362663
21
-4.0944311229
31
0.0000000000
11
-47.9774265782
21
-8.1884816791
31
0.0000000000
11
-47.8787498769
21
-12.2817712436
31
0.0000000000
11
-47.7406153497
21
-16.3739188688
31
0.0000000000
0
SPLINE
5
297
100
AcDbEntity
8
0
100
AcDbSpline
62
0
6
CONTINUOUS
70
0
71
3
72
23
73
19
74
17
42
0.0000001000
43
0.0000001000
44
0.0000000001
12
-0.9356687809
22
-0.1649936466
32
0.0000000000
13
-0.0366392353
23
-0.9493979868
33
0.0000000000
40
0.0000000000
40
0.0000000000
40
0.0000000000
40
0.0000000000
40
0.0624824498
40
0.1249866034
40
0.1874915146
40
0.2499956851
40
0.3124995859
40
0.3750034565
40
0.4375068476
40
0.5000096481
40
0.5625120627
40
0.6250142660
40
0.6875160352
40
0.7500169913
40
0.8125174958
40
0.8750180921
40
0.9375173780
40
1.0000000000
40
1.0000000000
40
1.0000000000
40
1.0000000000
10
-47.1626895136
20
17.0362964381
30
0.0000000000
10
-47.1821771395
20
17.0328600357
30
0.0000000000
10
-47.2208877105
20
17.0243282647
30
0.0000000000
10
-47.2776474888
20
17.0066579222
30
0.0000000000
10
-47.3327160367
20
16.9842368512
30
0.0000000000
10
-47.3856847137
20
16.9572290102
30
0.0000000000
10
-47.4361736459
20
16.9258288877
30
0.0000000000
10
-47.4838191352
20
16.8902624852
30
0.0000000000
10
-47.5282783479
20
16.8507859016
30
0.0000000000
10
-47.5692312674
20
16.8076834068
30
0.0000000000
10
-47.6063833067
20
16.7612652235
30
0.0000000000
10
-47.6394671822
20
16.7118654202
30
0.0000000000
10
-47.6682448029
20
16.6598397099
30
0.0000000000
10
-47.6925091369
20
16.6055625246
30
0.0000000000
10
-47.7120857829
20
16.5494247825
30
0.0000000000
10
-47.7268338137
20
16.4918291270
30
0.0000000000
10
-47.7366465366
20
16.4332007836
30
0.0000000000
10
-47.7398522446
20
16.3936924940
30
0.0000000000
10
-47.7406153497
20
16.3739188688
30
0.0000000000
11
-47.1626895136
21
17.0362964381
31
0.0000000000
11
-47.2206627988
21
17.0235180962
31
0.0000000000
11
-47.2773642947
21
17.0058665547
31
0.0000000000
11
-47.3323662828
21
16.9834722843
31
0.0000000000
11
-47.3852715459
21
16.9564968957
31
0.0000000000
11
-47.4356997803
21
16.9251344788
31
0.0000000000
11
-47.4832882511
21
16.8896106547
31
0.0000000000
11
-47.5276941557
21
16.8501813997
31
0.0000000000
11
-47.5685979096
21
16.8071306533
31
0.0000000000
11
-47.6057053511
21
16.7607681888
31
0.0000000000
11
-47.6387495836
21
16.7114275852
31
0.0000000000
11
-47.6674927435
21
16.6594641533
31
0.0000000000
11
-47.6917279331
21
16.6052522420
31
0.0000000000
11
-47.7112810289
21
16.5491817398
31
0.0000000000
11
-47.7260115067
21
16.4916556747
31
0.0000000000
11
-47.7358132437
21
16.4330893599
31
0.0000000000
11
-47.7406153497
21
16.3739188688
31
0.0000000000
0
SPLINE
5
298
100
AcDbEntity
8
0
100
AcDbSpline
62
0
6
CONTINUOUS
70
0
71
3
72
19
73
15
74
13
42
0.0000001000
43
0.0000001000
44
0.0000000001
12
-0.0519449961
22
0.2946844677
32
0.0000000000
13
0.2946817616
23
0.0519603453
33
0.0000000000
40
0.0000000000
40
0.0000000000
40
0.0000000000
40
0.0000000000
40
0.1205931896
40
0.2393910340
40
0.3546684114
40
0.4647513907
40
0.5680415849
40
0.6630394267
40
0.7483660475
40
0.8227834827
40
0.8852130184
40
0.9347517272
40
0.9706881468
40
1.0000000000
40
1.0000000000
40
1.0000000000
40
1.0000000000
10
-47.1626895136
20
17.0362964381
30
0.0000000000
10
-47.1647775845
20
17.0481420847
30
0.0000000000
10
-47.1688984025
20
17.0716612829
30
0.0000000000
10
-47.1749307998
20
17.1065188119
30
0.0000000000
10
-47.1807101053
20
17.1403557346
30
0.0000000000
10
-47.1861542312
20
17.1726821344
30
0.0000000000
10
-47.1911784249
20
17.2030228789
30
0.0000000000
10
-47.1957297164
20
17.2309556193
30
0.0000000000
10
-47.1996792830
20
17.2560151641
30
0.0000000000
10
-47.2031669886
20
17.2780213864
30
0.0000000000
10
-47.2055662677
20
17.2961125516
30
0.0000000000
10
-47.2084351469
20
17.3115156194
30
0.0000000000
10
-47.2077598461
20
17.3209266472
30
0.0000000000
10
-47.2124274678
20
17.3312310793
30
0.0000000000
10
-47.2095482450
20
17.3317387640
30
0.0000000000
11
-47.1626895136
21
17.0362964381
31
0.0000000000
11
-47.1689168417
21
17.0718398600
31
0.0000000000
11
-47.1749776565
21
17.1068669756
31
0.0000000000
11
-47.1807839180
21
17.1408689772
31
0.0000000000
11
-47.1862512838
21
17.1733519482
31
0.0000000000
11
-47.1913003344
21
17.2038440375
31
0.0000000000
11
-47.1958577266
21
17.2319023136
31
0.0000000000
11
-47.1998572594
21
17.2571191987
31
0.0000000000
11
-47.2032408349
21
17.2791283893
31
0.0000000000
11
-47.2059593030
21
17.2976101772
31
0.0000000000
11
-47.2079731748
21
17.3122960938
31
0.0000000000
11
-47.2092531966
21
17.3229728095
31
0.0000000000
11
-47.2095482450
21
17.3317387640
31
0.0000000000
0
SPLINE
5
299
100
AcDbEntity
8
CURVE
100
AcDbSpline
6
CONTINUOUS
70
0
71
3
72
8
73
4
74
2
42
0.0000001000
43
0.0000001000
44
0.0000000001
12
0.0056665938
22
0.3127152035
32
0.3127152035
13
0.0058967260
23
0.3127109486
33
0.3127109486
40
0.0000000000
40
0.0000000000
40
0.0000000000
40
0.0000000000
40
1.0000000000
40
1.0000000000
40
1.0000000000
40
1.0000000000
10
-48.2813790524
20
7.7000000000
30
-5.0000000000
10
-48.2794901878
20
7.8042384012
30
-4.8957615988
10
-48.2775629675
20
7.9084761073
30
-4.7915238927
10
-48.2755973922
20
8.0127130901
30
-4.6872869099
11
-48.2813790524
21
7.7000000000
31
-5.0000000000
11
-48.2755973922
21
8.0127130901
31
-4.6872869099
0
SPLINE
5
29A
100
AcDbEntity
8
CURVE
100
AcDbSpline
6
CONTINUOUS
70
0
71
3
72
8
73
4
74
2
42
0.0000001000
43
0.0000001000
44
0.0000000001
12
0.0069056228
22
0.3662140409
32
0.3662140409
13
0.0072212356
23
0.3662079534
33
0.3662079534
40
0.0000000000
40
0.0000000000
40
0.0000000000
40
0.0000000000
40
1.0000000000
40
1.0000000000
40
1.0000000000
40
1.0000000000
10
-48.2755973922
20
8.0127130901
30
-4.6872869099
10
-48.2732955179
20
8.1347844371
30
-4.5652155629
10
-48.2709410411
20
8.2568547921
30
-4.4431452079
10
-48.2685339625
20
8.3789241099
30
-4.3210758901
11
-48.2755973922
21
8.0127130901
31
-4.6872869099
11
-48.2685339625
21
8.3789241099
31
-4.3210758901
0
SPLINE
5
29B
100
AcDbEntity
8
CURVE
100
AcDbSpline
6
CONTINUOUS
70
0
71
3
72
8
73
4
74
2
42
0.0000001000
43
0.0000001000
44
0.0000000001
12
0.0196023564
22
0.9940873210
32
0.9940873210
13
0.0219279517
23
0.9940387412
33
0.9940387412
40
0.0000000000
40
0.0000000000
40
0.0000000000
40
0.0000000000
40
1.0000000000
40
1.0000000000
40
1.0000000000
40
1.0000000000
10
-48.2685339625
20
8.3789241099
30
-4.3210758901
10
-48.2619998438
20
8.7102865503
30
-3.9897134497
10
-48.2550781163
20
9.0416413474
30
-3.6583586526
10
-48.2477687991
20
9.3729875945
30
-3.3270124055
11
-48.2685339625
21
8.3789241099
31
-4.3210758901
11
-48.2477687991
21
9.3729875945
31
-3.3270124055
0
SPLINE
5
29C
100
AcDbEntity
8
CURVE
100
AcDbSpline
6
CONTINUOUS
70
0
71
3
72
8
73
4
74
2
42
0.0000001000
43
0.0000001000
44
0.0000000001
12
0.0053973632
22
0.2446734745
32
0.2446734745
13
0.0055382556
23
0.2446703259
33
0.2446703259
40
0.0000000000
40
0.0000000000
40
0.0000000000
40
0.0000000000
40
1.0000000000
40
1.0000000000
40
1.0000000000
40
1.0000000000
10
-48.2477687991
20
9.3729875945
30
-3.3270124055
10
-48.2459696780
20
9.4545454193
30
-3.2454545807
10
-48.2441470747
20
9.5361027261
30
-3.1638972739
10
-48.2423009895
20
9.6176595015
30
-3.0823404985
11
-48.2477687991
21
9.3729875945
31
-3.3270124055
11
-48.2423009895
21
9.6176595015
31
-3.0823404985
0
SPLINE
5
29D
100
AcDbEntity
8
CURVE
100
AcDbSpline
6
CONTINUOUS
70
0
71
3
72
8
73
4
74
2
42
0.0000001000
43
0.0000001000
44
0.0000000001
12
0.0275363862
22
1.2165087732
32
1.2165087732
13
0.0310192631
23
1.2164249477
33
1.2164249477
40
0.0000000000
40
0.0000000000
40
0.0000000000
40
0.0000000000
40
1.0000000000
40
1.0000000000
40
1.0000000000
40
1.0000000000
10
-48.2423009895
20
9.6176595015
30
-3.0823404985
10
-48.2331221941
20
10.0231624259
30
-2.6768375741
10
-48.2233628992
20
10.4286522103
30
-2.2713477897
10
-48.2130231448
20
10.8341271929
30
-1.8658728071
11
-48.2423009895
21
9.6176595015
31
-3.0823404985
11
-48.2130231448
21
10.8341271929
31
-1.8658728071
0
SPLINE
5
29E
100
AcDbEntity
8
CURVE
100
AcDbSpline
6
CONTINUOUS
70
0
71
3
72
8
73
4
74
2
42
0.0000001000
43
0.0000001000
44
0.0000000001
12
0.0077745502
22
0.3048801241
32
0.3048801241
13
0.0079933296
23
0.3048744666
33
0.3048744666
40
0.0000000000
40
0.0000000000
40
0.0000000000
40
0.0000000000
40
1.0000000000
40
1.0000000000
40
1.0000000000
40
1.0000000000
10
-48.2130231448
20
10.8341271929
30
-1.8658728071
10
-48.2104316281
20
10.9357539009
30
-1.7642460991
10
-48.2078036478
20
11.0373796791
30
-1.6626203209
10
-48.2051392046
20
11.1390045013
30
-1.5609954987
11
-48.2130231448
21
10.8341271929
31
-1.8658728071
11
-48.2051392046
21
11.1390045013
31
-1.5609954987
0
SPLINE
5
29F
100
AcDbEntity
8
CURVE
100
AcDbSpline
6
CONTINUOUS
70
0
71
3
72
8
73
4
74
2
42
0.0000001000
43
0.0000001000
44
0.0000000001
12
0.0248380945
22
0.9473525064
32
0.9473525064
13
0.0269504667
23
0.9472947665
33
0.9472947665
40
0.0000000000
40
0.0000000000
40
0.0000000000
40
0.0000000000
40
1.0000000000
40
1.0000000000
40
1.0000000000
40
1.0000000000
10
-48.2051392046
20
11.1390045013
30
-1.5609954987
10
-48.1968598398
20
11.4547886701
30
-1.2452113299
10
-48.1882284022
20
11.7705636081
30
-0.9294363919
10
-48.1792449133
20
12.0863285303
30
-0.6136714697
11
-48.2051392046
21
11.1390045013
31
-1.5609954987
11
-48.1792449133
21
12.0863285303
31
-0.6136714697
0
SPLINE
5
2A0
100
AcDbEntity
8
CURVE
100
AcDbSpline
6
CONTINUOUS
70
0
71
3
72
8
73
4
74
2
42
0.0000001000
43
0.0000001000
44
0.0000000001
12
0.0102564015
22
0.3605071315
32
0.3605071315
13
0.0105623224
23
0.3604982981
33
0.3604982981
40
0.0000000000
40
0.0000000000
40
0.0000000000
40
0.0000000000
40
1.0000000000
40
1.0000000000
40
1.0000000000
40
1.0000000000
10
-48.1792449133
20
12.0863285303
30
-0.6136714697
10
-48.1758261128
20
12.2064975741
30
-0.4935024259
10
-48.1723563249
20
12.3266651673
30
-0.3733348327
10
-48.1688355507
20
12.4468312667
30
-0.2531687333
11
-48.1792449133
21
12.0863285303
31
-0.6136714697
11
-48.1688355507
21
12.4468312667
31
-0.2531687333
0
SPLINE
5
2A1
100
AcDbEntity
8
CURVE
100
AcDbSpline
6
CONTINUOUS
70
0
71
3
72
8
73
4
74
2
42
0.0000001000
43
0.0000001000
44
0.0000000001
12
0.0074177140
22
0.2531709586
32
0.2531709586
13
0.0075685905
23
0.2531664930
33
0.2531664930
40
0.0000000000
40
0.0000000000
40
0.0000000000
40
0.0000000000
40
1.0000000000
40
1.0000000000
40
1.0000000000
40
1.0000000000
10
-48.1688355507
20
12.4468312667
30
-0.2531687333
10
-48.1663629794
20
12.5312215862
30
-0.1687784138
10
-48.1638652617
20
12.6156111690
30
-0.0843888310
10
-48.1613423983
20
12.7000000000
30
0.0000000000
11
-48.1688355507
21
12.4468312667
31
-0.2531687333
11
-48.1613423983
21
12.7000000000
31
0.0000000000
0
SPLINE
5
2A2
100
AcDbEntity
8
CURVE
100
AcDbSpline
6
CONTINUOUS
70
0
71
3
72
8
73
4
74
2
42
0.0000001000
43
0.0000001000
44
0.0000000001
12
-0.0075685905
22
-0.2531664930
32
0.2531664930
13
-0.0074177140
23
-0.2531709586
33
0.2531709586
40
0.0000000000
40
0.0000000000
40
0.0000000000
40
0.0000000000
40
1.0000000000
40
1.0000000000
40
1.0000000000
40
1.0000000000
10
-48.1613423983
20
12.7000000000
30
0.0000000000
10
-48.1638652617
20
12.6156111690
30
0.0843888310
10
-48.1663629794
20
12.5312215862
30
0.1687784138
10
-48.1688355507
20
12.4468312667
30
0.2531687333
11
-48.1613423983
21
12.7000000000
31
0.0000000000
11
-48.1688355507
21
12.4468312667
31
0.2531687333
0
SPLINE
5
2A3
100
AcDbEntity
8
CURVE
100
AcDbSpline
6
CONTINUOUS
70
0
71
3
72
8
73
4
74
2
42
0.0000001000
43
0.0000001000
44
0.0000000001
12
-0.0105623224
22
-0.3604982981
32
0.3604982981
13
-0.0102564015
23
-0.3605071315
33
0.3605071315
40
0.0000000000
40
0.0000000000
40
0.0000000000
40
0.0000000000
40
1.0000000000
40
1.0000000000
40
1.0000000000
40
1.0000000000
10
-48.1688355507
20
12.4468312667
30
0.2531687333
10
-48.1723563249
20
12.3266651673
30
0.3733348327
10
-48.1758261128
20
12.2064975741
30
0.4935024259
10
-48.1792449133
20
12.0863285303
30
0.6136714697
11
-48.1688355507
21
12.4468312667
31
0.2531687333
11
-48.1792449133
21
12.0863285303
31
0.6136714697
0
SPLINE
5
2A4
100
AcDbEntity
8
CURVE
100
AcDbSpline
6
CONTINUOUS
70
0
71
3
72
8
73
4
74
2
42
0.0000001000
43
0.0000001000
44
0.0000000001
12
-0.0269504667
22
-0.9472947665
32
0.9472947665
13
-0.0248380945
23
-0.9473525064
33
0.9473525064
40
0.0000000000
40
0.0000000000
40
0.0000000000
40
0.0000000000
40
1.0000000000
40
1.0000000000
40
1.0000000000
40
1.0000000000
10
-48.1792449133
20
12.0863285303
30
0.6136714697
10
-48.1882284022
20
11.7705636081
30
0.9294363919
10
-48.1968598398
20
11.4547886701
30
1.2452113299
10
-48.2051392046
20
11.1390045013
30
1.5609954987
11
-48.1792449133
21
12.0863285303
31
0.6136714697
11
-48.2051392046
21
11.1390045013
31
1.5609954987
0
SPLINE
5
2A5
100
AcDbEntity
8
CURVE
100
AcDbSpline
6
CONTINUOUS
70
0
71
3
72
8
73
4
74
2
42
0.0000001000
43
0.0000001000
44
0.0000000001
12
-0.0079933296
22
-0.3048744666
32
0.3048744666
13
-0.0077745502
23
-0.3048801241
33
0.3048801241
40
0.0000000000
40
0.0000000000
40
0.0000000000
40
0.0000000000
40
1.0000000000
40
1.0000000000
40
1.0000000000
40
1.0000000000
10
-48.2051392046
20
11.1390045013
30
1.5609954987
10
-48.2078036478
20
11.0373796791
30
1.6626203209
10
-48.2104316281
20
10.9357539009
30
1.7642460991
10
-48.2130231448
20
10.8341271929
30
1.8658728071
11
-48.2051392046
21
11.1390045013
31
1.5609954987
11
-48.2130231448
21
10.8341271929
31
1.8658728071
0
SPLINE
5
2A6
100
AcDbEntity
8
CURVE
100
AcDbSpline
6
CONTINUOUS
70
0
71
3
72
8
73
4
74
2
42
0.0000001000
43
0.0000001000
44
0.0000000001
12
-0.0310192631
22
-1.2164249477
32
1.2164249477
13
-0.0275363862
23
-1.2165087732
33
1.2165087732
40
0.0000000000
40
0.0000000000
40
0.0000000000
40
0.0000000000
40
1.0000000000
40
1.0000000000
40
1.0000000000
40
1.0000000000
10
-48.2130231448
20
10.8341271929
30
1.8658728071
10
-48.2233628992
20
10.4286522103
30
2.2713477897
10
-48.2331221941
20
10.0231624259
30
2.6768375741
10
-48.2423009895
20
9.6176595015
30
3.0823404985
11
-48.2130231448
21
10.8341271929
31
1.8658728071
11
-48.2423009895
21
9.6176595015
31
3.0823404985
0
SPLINE
5
2A7
100
AcDbEntity
8
CURVE
100
AcDbSpline
6
CONTINUOUS
70
0
71
3
72
8
73
4
74
2
42
0.0000001000
43
0.0000001000
44
0.0000000001
12
-0.0055382556
22
-0.2446703259
32
0.2446703259
13
-0.0053973632
23
-0.2446734745
33
0.2446734745
40
0.0000000000
40
0.0000000000
40
0.0000000000
40
0.0000000000
40
1.0000000000
40
1.0000000000
40
1.0000000000
40
1.0000000000
10
-48.2423009895
20
9.6176595015
30
3.0823404985
10
-48.2441470747
20
9.5361027261
30
3.1638972739
10
-48.2459696780
20
9.4545454193
30
3.2454545807
10
-48.2477687991
20
9.3729875945
30
3.3270124055
11
-48.2423009895
21
9.6176595015
31
3.0823404985
11
-48.2477687991
21
9.3729875945
31
3.3270124055
0
SPLINE
5
2A8
100
AcDbEntity
8
CURVE
100
AcDbSpline
6
CONTINUOUS
70
0
71
3
72
8
73
4
74
2
42
0.0000001000
43
0.0000001000
44
0.0000000001
12
-0.0219279517
22
-0.9940387412
32
0.9940387412
13
-0.0196023564
23
-0.9940873210
33
0.9940873210
40
0.0000000000
40
0.0000000000
40
0.0000000000
40
0.0000000000
40
1.0000000000
40
1.0000000000
40
1.0000000000
40
1.0000000000
10
-48.2477687991
20
9.3729875945
30
3.3270124055
10
-48.2550781163
20
9.0416413474
30
3.6583586526
10
-48.2619998438
20
8.7102865503
30
3.9897134497
10
-48.2685339625
20
8.3789241099
30
4.3210758901
11
-48.2477687991
21
9.3729875945
31
3.3270124055
11
-48.2685339625
21
8.3789241099
31
4.3210758901
0
SPLINE
5
2A9
100
AcDbEntity
8
CURVE
100
AcDbSpline
6
CONTINUOUS
70
0
71
3
72
8
73
4
74
2
42
0.0000001000
43
0.0000001000
44
0.0000000001
12
-0.0072212356
22
-0.3662079534
32
0.3662079534
13
-0.0069056228
23
-0.3662140409
33
0.3662140409
40
0.0000000000
40
0.0000000000
40
0.0000000000
40
0.0000000000
40
1.0000000000
40
1.0000000000
40
1.0000000000
40
1.0000000000
10
-48.2685339625
20
8.3789241099
30
4.3210758901
10
-48.2709410411
20
8.2568547921
30
4.4431452079
10
-48.2732955179
20
8.1347844371
30
4.5652155629
10
-48.2755973922
20
8.0127130901
30
4.6872869099
11
-48.2685339625
21
8.3789241099
31
4.3210758901
11
-48.2755973922
21
8.0127130901
31
4.6872869099
0
SPLINE
5
2AA
100
AcDbEntity
8
CURVE
100
AcDbSpline
6
CONTINUOUS
70
0
71
3
72
8
73
4
74
2
42
0.0000001000
43
0.0000001000
44
0.0000000001
12
-0.0058967260
22
-0.3127109486
32
0.3127109486
13
-0.0056665938
23
-0.3127152035
33
0.3127152035
40
0.0000000000
40
0.0000000000
40
0.0000000000
40
0.0000000000
40
1.0000000000
40
1.0000000000
40
1.0000000000
40
1.0000000000
10
-48.2755973922
20
8.0127130901
30
4.6872869099
10
-48.2775629675
20
7.9084761073
30
4.7915238927
10
-48.2794901878
20
7.8042384012
30
4.8957615988
10
-48.2813790524
20
7.7000000000
30
5.0000000000
11
-48.2755973922
21
8.0127130901
31
4.6872869099
11
-48.2813790524
21
7.7000000000
31
5.0000000000
0
SPLINE
5
2AB
100
AcDbEntity
8
CURVE
100
AcDbSpline
6
CONTINUOUS
70
0
71
3
72
8
73
4
74
2
42
0.0000001000
43
0.0000001000
44
0.0000000001
12
-0.0075685905
22
0.2531664931
32
-0.2531664931
13
-0.0074177140
23
0.2531709586
33
-0.2531709586
40
0.0000000000
40
0.0000000000
40
0.0000000000
40
0.0000000000
40
1.0000000000
40
1.0000000000
40
1.0000000000
40
1.0000000000
10
-48.1613423983
20
-12.7000000000
30
0.0000000000
10
-48.1638652617
20
-12.6156111690
30
-0.0843888310
10
-48.1663629794
20
-12.5312215862
30
-0.1687784138
10
-48.1688355507
20
-12.4468312666
30
-0.2531687334
11
-48.1613423983
21
-12.7000000000
31
0.0000000000
11
-48.1688355507
21
-12.4468312666
31
-0.2531687334
0
SPLINE
5
2AC
100
AcDbEntity
8
CURVE
100
AcDbSpline
6
CONTINUOUS
70
0
71
3
72
8
73
4
74
2
42
0.0000001000
43
0.0000001000
44
0.0000000001
12
-0.0105623224
22
0.3604982981
32
-0.3604982981
13
-0.0102564015
23
0.3605071315
33
-0.3605071315
40
0.0000000000
40
0.0000000000
40
0.0000000000
40
0.0000000000
40
1.0000000000
40
1.0000000000
40
1.0000000000
40
1.0000000000
10
-48.1688355507
20
-12.4468312666
30
-0.2531687334
10
-48.1723563249
20
-12.3266651673
30
-0.3733348327
10
-48.1758261128
20
-12.2064975740
30
-0.4935024260
10
-48.1792449133
20
-12.0863285302
30
-0.6136714698
11
-48.1688355507
21
-12.4468312666
31
-0.2531687334
11
-48.1792449133
21
-12.0863285302
31
-0.6136714698
0
SPLINE
5
2AD
100
AcDbEntity
8
CURVE
100
AcDbSpline
6
CONTINUOUS
70
0
71
3
72
8
73
4
74
2
42
0.0000001000
43
0.0000001000
44
0.0000000001
12
-0.0269504667
22
0.9472947665
32
-0.9472947665
13
-0.0248380945
23
0.9473525064
33
-0.9473525064
40
0.0000000000
40
0.0000000000
40
0.0000000000
40
0.0000000000
40
1.0000000000
40
1.0000000000
40
1.0000000000
40
1.0000000000
10
-48.1792449133
20
-12.0863285302
30
-0.6136714698
10
-48.1882284022
20
-11.7705636080
30
-0.9294363920
10
-48.1968598398
20
-11.4547886700
30
-1.2452113300
10
-48.2051392046
20
-11.1390045012
30
-1.5609954988
11
-48.1792449133
21
-12.0863285302
31
-0.6136714698
11
-48.2051392046
21
-11.1390045012
31
-1.5609954988
0
SPLINE
5
2AE
100
AcDbEntity
8
CURVE
100
AcDbSpline
6
CONTINUOUS
70
0
71
3
72
8
73
4
74
2
42
0.0000001000
43
0.0000001000
44
0.0000000001
12
-0.0079933296
22
0.3048744666
32
-0.3048744666
13
-0.0077745502
23
0.3048801241
33
-0.3048801241
40
0.0000000000
40
0.0000000000
40
0.0000000000
40
0.0000000000
40
1.0000000000
40
1.0000000000
40
1.0000000000
40
1.0000000000
10
-48.2051392046
20
-11.1390045012
30
-1.5609954988
10
-48.2078036478
20
-11.0373796790
30
-1.6626203210
10
-48.2104316281
20
-10.9357539009
30
-1.7642460991
10
-48.2130231448
20
-10.8341271928
30
-1.8658728072
11
-48.2051392046
21
-11.1390045012
31
-1.5609954988
11
-48.2130231448
21
-10.8341271928
31
-1.8658728072
0
SPLINE
5
2AF
100
AcDbEntity
8
CURVE
100
AcDbSpline
6
CONTINUOUS
70
0
71
3
72
8
73
4
74
2
42
0.0000001000
43
0.0000001000
44
0.0000000001
12
-0.0310192631
22
1.2164249477
32
-1.2164249477
13
-0.0275363862
23
1.2165087732
33
-1.2165087732
40
0.0000000000
40
0.0000000000
40
0.0000000000
40
0.0000000000
40
1.0000000000
40
1.0000000000
40
1.0000000000
40
1.0000000000
10
-48.2130231448
20
-10.8341271928
30
-1.8658728072
10
-48.2233628992
20
-10.4286522103
30
-2.2713477897
10
-48.2331221941
20
-10.0231624258
30
-2.6768375742
10
-48.2423009895
20
-9.6176595014
30
-3.0823404986
11
-48.2130231448
21
-10.8341271928
31
-1.8658728072
11
-48.2423009895
21
-9.6176595014
31
-3.0823404986
0
SPLINE
5
2B0
100
AcDbEntity
8
CURVE
100
AcDbSpline
6
CONTINUOUS
70
0
71
3
72
8
73
4
74
2
42
0.0000001000
43
0.0000001000
44
0.0000000001
12
-0.0055382557
22
0.2446703260
32
-0.2446703260
13
-0.0053973632
23
0.2446734746
33
-0.2446734746
40
0.0000000000
40
0.0000000000
40
0.0000000000
40
0.0000000000
40
1.0000000000
40
1.0000000000
40
1.0000000000
40
1.0000000000
10
-48.2423009895
20
-9.6176595014
30
-3.0823404986
10
-48.2441470747
20
-9.5361027261
30
-3.1638972739
10
-48.2459696780
20
-9.4545454192
30
-3.2454545808
10
-48.2477687991
20
-9.3729875943
30
-3.3270124057
11
-48.2423009895
21
-9.6176595014
31
-3.0823404986
11
-48.2477687991
21
-9.3729875943
31
-3.3270124057
0
SPLINE
5
2B1
100
AcDbEntity
8
CURVE
100
AcDbSpline
6
CONTINUOUS
70
0
71
3
72
8
73
4
74
2
42
0.0000001000
43
0.0000001000
44
0.0000000001
12
-0.0219279517
22
0.9940387412
32
-0.9940387412
13
-0.0196023564
23
0.9940873209
33
-0.9940873209
40
0.0000000000
40
0.0000000000
40
0.0000000000
40
0.0000000000
40
1.0000000000
40
1.0000000000
40
1.0000000000
40
1.0000000000
10
-48.2477687991
20
-9.3729875943
30
-3.3270124057
10
-48.2550781163
20
-9.0416413473
30
-3.6583586527
10
-48.2619998438
20
-8.7102865502
30
-3.9897134498
10
-48.2685339625
20
-8.3789241099
30
-4.3210758901
11
-48.2477687991
21
-9.3729875943
31
-3.3270124057
11
-48.2685339625
21
-8.3789241099
31
-4.3210758901
0
SPLINE
5
2B2
100
AcDbEntity
8
CURVE
100
AcDbSpline
6
CONTINUOUS
70
0
71
3
72
8
73
4
74
2
42
0.0000001000
43
0.0000001000
44
0.0000000001
12
-0.0072212357
22
0.3662079534
32
-0.3662079534
13
-0.0069056228
23
0.3662140409
33
-0.3662140409
40
0.0000000000
40
0.0000000000
40
0.0000000000
40
0.0000000000
40
1.0000000000
40
1.0000000000
40
1.0000000000
40
1.0000000000
10
-48.2685339625
20
-8.3789241099
30
-4.3210758901
10
-48.2709410411
20
-8.2568547921
30
-4.4431452079
10
-48.2732955179
20
-8.1347844370
30
-4.5652155630
10
-48.2755973922
20
-8.0127130901
30
-4.6872869099
11
-48.2685339625
21
-8.3789241099
31
-4.3210758901
11
-48.2755973922
21
-8.0127130901
31
-4.6872869099
0
SPLINE
5
2B3
100
AcDbEntity
8
CURVE
100
AcDbSpline
6
CONTINUOUS
70
0
71
3
72
8
73
4
74
2
42
0.0000001000
43
0.0000001000
44
0.0000000001
12
-0.0058967260
22
0.3127109485
32
-0.3127109485
13
-0.0056665938
23
0.3127152034
33
-0.3127152034
40
0.0000000000
40
0.0000000000
40
0.0000000000
40
0.0000000000
40
1.0000000000
40
1.0000000000
40
1.0000000000
40
1.0000000000
10
-48.2755973922
20
-8.0127130901
30
-4.6872869099
10
-48.2775629675
20
-7.9084761072
30
-4.7915238928
10
-48.2794901878
20
-7.8042384011
30
-4.8957615989
10
-48.2813790524
20
-7.7000000000
30
-5.0000000000
11
-48.2755973922
21
-8.0127130901
31
-4.6872869099
11
-48.2813790524
21
-7.7000000000
31
-5.0000000000
0
SPLINE
5
2B4
100
AcDbEntity
8
CURVE
100
AcDbSpline
6
CONTINUOUS
70
0
71
3
72
8
73
4
74
2
42
0.0000001000
43
0.0000001000
44
0.0000000001
12
0.0056665938
22
-0.3127152034
32
-0.3127152034
13
0.0058967260
23
-0.3127109485
33
-0.3127109485
40
0.0000000000
40
0.0000000000
40
0.0000000000
40
0.0000000000
40
1.0000000000
40
1.0000000000
40
1.0000000000
40
1.0000000000
10
-48.2813790524
20
-7.7000000000
30
5.0000000000
10
-48.2794901878
20
-7.8042384011
30
4.8957615989
10
-48.2775629675
20
-7.9084761072
30
4.7915238928
10
-48.2755973922
20
-8.0127130901
30
4.6872869099
11
-48.2813790524
21
-7.7000000000
31
5.0000000000
11
-48.2755973922
21
-8.0127130901
31
4.6872869099
0
SPLINE
5
2B5
100
AcDbEntity
8
CURVE
100
AcDbSpline
6
CONTINUOUS
70
0
71
3
72
8
73
4
74
2
42
0.0000001000
43
0.0000001000
44
0.0000000001
12
0.0069056228
22
-0.3662140409
32
-0.3662140409
13
0.0072212357
23
-0.3662079534
33
-0.3662079534
40
0.0000000000
40
0.0000000000
40
0.0000000000
40
0.0000000000
40
1.0000000000
40
1.0000000000
40
1.0000000000
40
1.0000000000
10
-48.2755973922
20
-8.0127130901
30
4.6872869099
10
-48.2732955179
20
-8.1347844370
30
4.5652155630
10
-48.2709410411
20
-8.2568547921
30
4.4431452079
10
-48.2685339625
20
-8.3789241099
30
4.3210758901
11
-48.2755973922
21
-8.0127130901
31
4.6872869099
11
-48.2685339625
21
-8.3789241099
31
4.3210758901
0
SPLINE
5
2B6
100
AcDbEntity
8
CURVE
100
AcDbSpline
6
CONTINUOUS
70
0
71
3
72
8
73
4
74
2
42
0.0000001000
43
0.0000001000
44
0.0000000001
12
0.0196023564
22
-0.9940873209
32
-0.9940873209
13
0.0219279517
23
-0.9940387412
33
-0.9940387412
40
0.0000000000
40
0.0000000000
40
0.0000000000
40
0.0000000000
40
1.0000000000
40
1.0000000000
40
1.0000000000
40
1.0000000000
10
-48.2685339625
20
-8.3789241099
30
4.3210758901
10
-48.2619998438
20
-8.7102865502
30
3.9897134498
10
-48.2550781163
20
-9.0416413473
30
3.6583586527
10
-48.2477687991
20
-9.3729875943
30
3.3270124057
11
-48.2685339625
21
-8.3789241099
31
4.3210758901
11
-48.2477687991
21
-9.3729875943
31
3.3270124057
0
SPLINE
5
2B7
100
AcDbEntity
8
CURVE
100
AcDbSpline
6
CONTINUOUS
70
0
71
3
72
8
73
4
74
2
42
0.0000001000
43
0.0000001000
44
0.0000000001
12
0.0053973632
22
-0.2446734746
32
-0.2446734746
13
0.0055382557
23
-0.2446703260
33
-0.2446703260
40
0.0000000000
40
0.0000000000
40
0.0000000000
40
0.0000000000
40
1.0000000000
40
1.0000000000
40
1.0000000000
40
1.0000000000
10
-48.2477687991
20
-9.3729875943
30
3.3270124057
10
-48.2459696780
20
-9.4545454192
30
3.2454545808
10
-48.2441470747
20
-9.5361027261
30
3.1638972739
10
-48.2423009895
20
-9.6176595014
30
3.0823404986
11
-48.2477687991
21
-9.3729875943
31
3.3270124057
11
-48.2423009895
21
-9.6176595014
31
3.0823404986
0
SPLINE
5
2B8
100
AcDbEntity
8
CURVE
100
AcDbSpline
6
CONTINUOUS
70
0
71
3
72
8
73
4
74
2
42
0.0000001000
43
0.0000001000
44
0.0000000001
12
0.0275363862
22
-1.2165087732
32
-1.2165087732
13
0.0310192631
23
-1.2164249476
33
-1.2164249476
40
0.0000000000
40
0.0000000000
40
0.0000000000
40
0.0000000000
40
1.0000000000
40
1.0000000000
40
1.0000000000
40
1.0000000000
10
-48.2423009895
20
-9.6176595014
30
3.0823404986
10
-48.2331221941
20
-10.0231624258
30
2.6768375742
10
-48.2233628992
20
-10.4286522103
30
2.2713477897
10
-48.2130231448
20
-10.8341271928
30
1.8658728072
11
-48.2423009895
21
-9.6176595014
31
3.0823404986
11
-48.2130231448
21
-10.8341271928
31
1.8658728072
0
SPLINE
5
2B9
100
AcDbEntity
8
CURVE
100
AcDbSpline
6
CONTINUOUS
70
0
71
3
72
8
73
4
74
2
42
0.0000001000
43
0.0000001000
44
0.0000000001
12
0.0077745502
22
-0.3048801241
32
-0.3048801241
13
0.0079933296
23
-0.3048744666
33
-0.3048744666
40
0.0000000000
40
0.0000000000
40
0.0000000000
40
0.0000000000
40
1.0000000000
40
1.0000000000
40
1.0000000000
40
1.0000000000
10
-48.2130231448
20
-10.8341271928
30
1.8658728072
10
-48.2104316281
20
-10.9357539009
30
1.7642460991
10
-48.2078036478
20
-11.0373796790
30
1.6626203210
10
-48.2051392046
20
-11.1390045012
30
1.5609954988
11
-48.2130231448
21
-10.8341271928
31
1.8658728072
11
-48.2051392046
21
-11.1390045012
31
1.5609954988
0
SPLINE
5
2BA
100
AcDbEntity
8
CURVE
100
AcDbSpline
6
CONTINUOUS
70
0
71
3
72
8
73
4
74
2
42
0.0000001000
43
0.0000001000
44
0.0000000001
12
0.0248380945
22
-0.9473525064
32
-0.9473525064
13
0.0269504667
23
-0.9472947665
33
-0.9472947665
40
0.0000000000
40
0.0000000000
40
0.0000000000
40
0.0000000000
40
1.0000000000
40
1.0000000000
40
1.0000000000
40
1.0000000000
10
-48.2051392046
20
-11.1390045012
30
1.5609954988
10
-48.1968598398
20
-11.4547886700
30
1.2452113300
10
-48.1882284022
20
-11.7705636080
30
0.9294363920
10
-48.1792449133
20
-12.0863285302
30
0.6136714698
11
-48.2051392046
21
-11.1390045012
31
1.5609954988
11
-48.1792449133
21
-12.0863285302
31
0.6136714698
0
SPLINE
5
2BB
100
AcDbEntity
8
CURVE
100
AcDbSpline
6
CONTINUOUS
70
0
71
3
72
8
73
4
74
2
42
0.0000001000
43
0.0000001000
44
0.0000000001
12
0.0102564015
22
-0.3605071315
32
-0.3605071315
13
0.0105623224
23
-0.3604982981
33
-0.3604982981
40
0.0000000000
40
0.0000000000
40
0.0000000000
40
0.0000000000
40
1.0000000000
40
1.0000000000
40
1.0000000000
40
1.0000000000
10
-48.1792449133
20
-12.0863285302
30
0.6136714698
10
-48.1758261128
20
-12.2064975740
30
0.4935024260
10
-48.1723563249
20
-12.3266651673
30
0.3733348327
10
-48.1688355507
20
-12.4468312666
30
0.2531687334
11
-48.1792449133
21
-12.0863285302
31
0.6136714698
11
-48.1688355507
21
-12.4468312666
31
0.2531687334
0
SPLINE
5
2BC
100
AcDbEntity
8
CURVE
100
AcDbSpline
6
CONTINUOUS
70
0
71
3
72
8
73
4
74
2
42
0.0000001000
43
0.0000001000
44
0.0000000001
12
0.0074177140
22
-0.2531709586
32
-0.2531709586
13
0.0075685905
23
-0.2531664931
33
-0.2531664931
40
0.0000000000
40
0.0000000000
40
0.0000000000
40
0.0000000000
40
1.0000000000
40
1.0000000000
40
1.0000000000
40
1.0000000000
10
-48.1688355507
20
-12.4468312666
30
0.2531687334
10
-48.1663629794
20
-12.5312215862
30
0.1687784138
10
-48.1638652617
20
-12.6156111690
30
0.0843888310
10
-48.1613423983
20
-12.7000000000
30
0.0000000000
11
-48.1688355507
21
-12.4468312666
31
0.2531687334
11
-48.1613423983
21
-12.7000000000
31
0.0000000000
0
ENDSEC
0
SECTION
2
OBJECTS
0
DICTIONARY
5
C
100
AcDbDictionary
280
0
281
1
3
ACAD_GROUP
350
D
3
ACAD_MLINESTYLE
350
17
3
ACAD_LAYOUT
350
1A
3
ACAD_PLOTSETTINGS
350
19
3
ACAD_PLOTSTYLENAME
350
E
0
DICTIONARY
5
D
102
{ACAD_REACTORS
330
C
102
}
100
AcDbDictionary
280
0
281
1
0
ACDBDICTIONARYWDFLT
5
E
102
{ACAD_REACTORS
330
C
102
}
100
AcDbDictionary
281
1
3
Normal
350
F
100
AcDbDictionaryWithDefault
340
F
0
DICTIONARY
5
17
102
{ACAD_REACTORS
330
C
102
}
100
AcDbDictionary
280
0
281
1
3
Standard
350
18
0
DICTIONARY
5
19
102
{ACAD_REACTORS
330
C
102
}
100
AcDbDictionary
281
1
0
DICTIONARY
5
1A
102
{ACAD_REACTORS
330
C
102
}
100
AcDbDictionary
281
1
3
Layout1
350
1E
3
Model
350
22
0
ACDBPLACEHOLDER
5
F
102
{ACAD_REACTORS
330
E
102
}
0
MLINESTYLE
5
18
102
{ACAD_REACTORS
330
17
102
}
100
AcDbMlineStyle
2
STANDARD
70
0
3

62
256
51
90.0
52
90.0
71
2
49
0.5
62
256
6
BYLAYER
49
-0.5
62
256
6
BYLAYER
0
LAYOUT
5
1E
102
{ACAD_REACTORS
330
1A
102
}
100
AcDbPlotSettings
1

2

4

6

40
0.0
41
0.0
42
0.0
43
0.0
44
0.0
45
0.0
46
0.0
47
0.0
48
0.0
49
0.0
140
0.0
141
0.0
142
1.0
143
1.0
70
0
72
0
73
0
74
0
7

75
0
147
1.0
148
0.0
149
0.0
100
AcDbLayout
1
Layout1
70
0
71
0
10
0.0
20
0.0
11
0.0
21
0.0
12
0.0
22
0.0
32
0.0
14
0.0
24
0.0
34
0.0
15
0.0
25
0.0
35
0.0
146
0.0
13
0.0
23
0.0
33
0.0
16
0.0
26
0.0
36
0.0
17
0.0
27
0.0
37
0.0
76
0
330
1B
331
0
345
0
346
0
0
LAYOUT
5
22
102
{ACAD_REACTORS
330
1A
102
}
100
AcDbPlotSettings
1

2

4

6

40
0.0
41
0.0
42
0.0
43
0.0
44
0.0
45
0.0
46
0.0
47
0.0
48
0.0
49
0.0
140
0.0
141
0.0
142
1.0
143
1.0
70
0
72
0
73
0
74
0
7

75
0
147
1.0
148
0.0
149
0.0
100
AcDbLayout
1
Model
70
0
71
0
10
0.0
20
0.0
11
0.0
21
0.0
12
0.0
22
0.0
32
0.0
14
0.0
24
0.0
34
0.0
15
0.0
25
0.0
35
0.0
146
0.0
13
0.0
23
0.0
33
0.0
16
0.0
26
0.0
36
0.0
17
0.0
27
0.0
37
0.0
76
0
330
1F
331
0
345
0
346
0
0
ENDSEC
0
EOF
