  0
SECTION
  2
HEADER
  9
$ACADVER
  1
AC1015
  9
$DWGCODEPAGE
  3
ANSI_1252
  9
$EXTMAX
 10
297.0
 20
210.0
 30
0.0
  9
$EXTMIN
 10
0.0
 20
0.0
 30
0.0
  9
$LIMMIN
 10
0.0
 20
0.0
  9
$LIMMAX
 10
297.0
 20
210.0
  9
$VIEWCTR
 10
148.5
 20
105.0
  9
$VIEWSIZE
 40
210.0
  9
$CLAYER
  8
0
  9
$LTSCALE
 40
16.335
  9
$CELTYPE
  6
BYLAYER
  9
$DIMSCALE
 40
1.0
  9
$DIMASZ
 40
3.0
  9
$DIMEXO
 40
0.5
  9
$DIMDLI
 40
11.286
  9
$DIMEXE
 40
1.5
  9
$DIMCEN
 40
2.673
  9
$DIMLFAC
 40
1.0
  9
$DIMBLK
  1
_FILLED
  9
$DIMTXT
 40
3.0
  9
$DIMTOL
 70
1
  9
$DIMLIM
 70
0
  9
$DIMTFAC
 40
1.0
  9
$DIMTP
 40
0.01
  9
$DIMTM
 40
0.01
  9
$DIMGAP
 40
0.625
  9
$DIMDSEP
 70
44
  9
$PDMODE
 70
3
  9
$PDSIZE
 40
3.0
  9
$HANDSEED
  5
424
  9
$TILEMODE
 70
1
  9
$MEASUREMENT
 70
1
  9
$INSUNITS
 70
4
  0
ENDSEC
  0
SECTION
  2
CLASSES
  0
CLASS
  1
ACDBDICTIONARYWDFLT
  2
AcDbDictionaryWithDefault
  3
AutoCAD 2000
 90
0
280
0
281
0
  0
CLASS
  1
ACDBPLACEHOLDER
  2
AcDbPlaceHolder
  3
AutoCAD 2000
 90
0
280
0
281
0
  0
CLASS
  1
LAYOUT
  2
AcDbLayout
  3
AutoCAD 2000
 90
0
280
0
281
0
  0
ENDSEC
  0
SECTION
  2
TABLES
  0
TABLE
  2
VPORT
  5
8
100
AcDbSymbolTable
 70
2
  0
VPORT
  5
1F4
100
AcDbSymbolTableRecord
100
AcDbViewportTableRecord
  2
*ACTIVE
 70
0
 10
0.0
 20
0.0
 11
1.0
 21
1.0
 12
148.5
 22
105.0
 13
0.0
 23
0.0
 14
1.0
 24
1.0
 15
0.0
 25
0.0
 16
0.0
 26
0.0
 36
1.0
 17
0.0
 27
0.0
 37
0.0
 40
210.0
 41
1.4142857143
 42
50.0
 43
0.0
 44
0.0
 50
0.0
 51
0.0
 71
0
 72
100
 73
1
 74
1
 75
0
 76
0
 77
0
 78
0
  0
ENDTAB
  0
TABLE
  2
LTYPE
  5
5
100
AcDbSymbolTable
 70
6
  0
LTYPE
  5
14
100
AcDbSymbolTableRecord
100
AcDbLinetypeTableRecord
  2
BYBLOCK
 70
0
  3

 72
65
 73
0
 40
0.0
  0
LTYPE
  5
15
100
AcDbSymbolTableRecord
100
AcDbLinetypeTableRecord
  2
BYLAYER
 70
0
  3

 72
65
 73
0
 40
0.0
  0
LTYPE
  5
16
100
AcDbSymbolTableRecord
100
AcDbLinetypeTableRecord
  2
CONTINUOUS
 70
64
  3
Solid line
 72
65
 73
0
 40
0.0
  0
LTYPE
  5
1F5
100
AcDbSymbolTableRecord
100
AcDbLinetypeTableRecord
  2
CENTER
 70
64
  3
____ _ ____ _ ____ _ ____ _ ____ _ ____ _ ____
 72
65
 73
4
 40
0.6
 49
0.375
 74
0
 49
-0.075
 74
0
 49
0.075
 74
0
 49
-0.075
 74
0
  0
LTYPE
  5
1F6
100
AcDbSymbolTableRecord
100
AcDbLinetypeTableRecord
  2
HIDDEN
 70
64
  3
- - - - - - - - - - - - - - - - - - - -
 72
65
 73
2
 40
0.2
 49
0.1
 74
0
 49
-0.1
 74
0
  0
LTYPE
  5
1F7
100
AcDbSymbolTableRecord
100
AcDbLinetypeTableRecord
  2
PHANTOM
 70
64
  3
_____ _ _ _____ _ _ _____ _ _ _____
 72
65
 73
6
 40
0.8
 49
0.45
 74
0
 49
-0.05
 74
0
 49
0.1
 74
0
 49
-0.05
 74
0
 49
0.1
 74
0
 49
-0.05
 74
0
  0
LTYPE
  5
1F8
100
AcDbSymbolTableRecord
100
AcDbLinetypeTableRecord
  2
DOT
 70
64
  3
. . . . . . . . . . . . . . . . . . . .
 72
65
 73
2
 40
0.2
 49
0.1
 74
0
 49
-0.1
 74
0
  0
LTYPE
  5
1F9
100
AcDbSymbolTableRecord
100
AcDbLinetypeTableRecord
  2
DASHED
 70
64
  3
- - - - - - - - - - - - - - - - - - - -
 72
65
 73
2
 40
0.2
 49
0.1
 74
0
 49
-0.1
 74
0
  0
ENDTAB
  0
TABLE
  2
LAYER
  5
2
100
AcDbSymbolTable
 70
36
  0
LAYER
  5
10
100
AcDbSymbolTableRecord
100
AcDbLayerTableRecord
  2
0
 70
0
 62
7
  6
CONTINUOUS
370
-3
390
F
  0
LAYER
  5
1FA
100
AcDbSymbolTableRecord
100
AcDbLayerTableRecord
  2
DEFAULT_1
 70
0
 62
7
  6
CENTER
370
-3
390
F
  0
LAYER
  5
1FB
100
AcDbSymbolTableRecord
100
AcDbLayerTableRecord
  2
DEFAULT_2
 70
0
 62
7
  6
HIDDEN
370
-3
390
F
  0
LAYER
  5
1FC
100
AcDbSymbolTableRecord
100
AcDbLayerTableRecord
  2
DEFAULT_3
 70
0
 62
7
  6
PHANTOM
370
-3
390
F
  0
LAYER
  5
1FD
100
AcDbSymbolTableRecord
100
AcDbLayerTableRecord
  2
ASSI
 70
0
 62
7
  6
CONTINUOUS
370
-3
390
F
  0
LAYER
  5
1FE
100
AcDbSymbolTableRecord
100
AcDbLayerTableRecord
  2
COORDINATE
 70
0
 62
7
  6
CONTINUOUS
370
-3
390
F
  0
LAYER
  5
1FF
100
AcDbSymbolTableRecord
100
AcDbLayerTableRecord
  2
COORD_ORIGINE
 70
0
 62
7
  6
CONTINUOUS
370
-3
390
F
  0
LAYER
  5
200
100
AcDbSymbolTableRecord
100
AcDbLayerTableRecord
  2
COPY_PUBLISH
 70
0
 62
7
  6
CONTINUOUS
370
-3
390
F
  0
LAYER
  5
201
100
AcDbSymbolTableRecord
100
AcDbLayerTableRecord
  2
COSMETICI
 70
0
 62
7
  6
CONTINUOUS
370
-3
390
F
  0
LAYER
  5
202
100
AcDbSymbolTableRecord
100
AcDbLayerTableRecord
  2
CURVE
 70
0
 62
7
  6
CONTINUOUS
370
-3
390
F
  0
LAYER
  5
203
100
AcDbSymbolTableRecord
100
AcDbLayerTableRecord
  2
CURVE_LED_TASTO
 70
0
 62
7
  6
CONTINUOUS
370
-3
390
F
  0
LAYER
  5
204
100
AcDbSymbolTableRecord
100
AcDbLayerTableRecord
  2
DRAFT
 70
0
 62
7
  6
CONTINUOUS
370
-3
390
F
  0
LAYER
  5
205
100
AcDbSymbolTableRecord
100
AcDbLayerTableRecord
  2
IMPORT_IGES
 70
0
 62
7
  6
CONTINUOUS
370
-3
390
F
  0
LAYER
  5
206
100
AcDbSymbolTableRecord
100
AcDbLayerTableRecord
  2
NOTE
 70
0
 62
7
  6
CONTINUOUS
370
-3
390
F
  0
LAYER
  5
207
100
AcDbSymbolTableRecord
100
AcDbLayerTableRecord
  2
PIANI
 70
0
 62
7
  6
CONTINUOUS
370
-3
390
F
  0
LAYER
  5
208
100
AcDbSymbolTableRecord
100
AcDbLayerTableRecord
  2
PIANI_ORIGINE
 70
0
 62
7
  6
CONTINUOUS
370
-3
390
F
  0
LAYER
  5
209
100
AcDbSymbolTableRecord
100
AcDbLayerTableRecord
  2
PIANI_RIFERIMENTO
 70
0
 62
7
  6
CONTINUOUS
370
-3
390
F
  0
LAYER
  5
20A
100
AcDbSymbolTableRecord
100
AcDbLayerTableRecord
  2
PUNTI
 70
0
 62
7
  6
CONTINUOUS
370
-3
390
F
  0
LAYER
  5
20B
100
AcDbSymbolTableRecord
100
AcDbLayerTableRecord
  2
RACCORDO
 70
0
 62
7
  6
CONTINUOUS
370
-3
390
F
  0
LAYER
  5
20C
100
AcDbSymbolTableRecord
100
AcDbLayerTableRecord
  2
SCRITTE
 70
0
 62
7
  6
CONTINUOUS
370
-3
390
F
  0
LAYER
  5
20D
100
AcDbSymbolTableRecord
100
AcDbLayerTableRecord
  2
SIMBOLI
 70
0
 62
7
  6
CONTINUOUS
370
-3
390
F
  0
LAYER
  5
20E
100
AcDbSymbolTableRecord
100
AcDbLayerTableRecord
  2
SMUSSO
 70
0
 62
7
  6
CONTINUOUS
370
-3
390
F
  0
LAYER
  5
20F
100
AcDbSymbolTableRecord
100
AcDbLayerTableRecord
  2
SNAPLINE
 70
0
 62
7
  6
CONTINUOUS
370
-3
390
F
  0
LAYER
  5
210
100
AcDbSymbolTableRecord
100
AcDbLayerTableRecord
  2
SUPERFICI
 70
0
 62
7
  6
CONTINUOUS
370
-3
390
F
  0
LAYER
  5
211
100
AcDbSymbolTableRecord
100
AcDbLayerTableRecord
  2
TRASH
 70
0
 62
7
  6
CONTINUOUS
370
-3
390
F
  0
ENDTAB
  0
TABLE
  2
STYLE
  5
3
100
AcDbSymbolTable
 70
1
  0
STYLE
  5
11
100
AcDbSymbolTableRecord
100
AcDbTextStyleTableRecord
  2
STANDARD
 70
0
 40
0.0
 41
0.8
 50
0.0
 71
0
 42
0.2
  3
txt
  4

  0
STYLE
  5
212
100
AcDbSymbolTableRecord
100
AcDbTextStyleTableRecord
  2
TEXTSTYLE_1
 70
0
 40
0.0
 41
0.8
 50
0.0
 71
0
 42
0.2
  3
gdt
  4

  0
ENDTAB
  0
TABLE
  2
VIEW
  5
6
100
AcDbSymbolTable
 70
0
  0
ENDTAB
  0
TABLE
  2
UCS
  5
7
100
AcDbSymbolTable
 70
0
  0
ENDTAB
  0
TABLE
  2
APPID
  5
9
100
AcDbSymbolTable
 70
1
  0
APPID
  5
213
100
AcDbSymbolTableRecord
100
AcDbRegAppTableRecord
  2
ACAD
 70
0
  0
ENDTAB
  0
TABLE
  2
BLOCK_RECORD
  5
1
100
AcDbSymbolTable
 70
0
  0
BLOCK_RECORD
  5
214
100
AcDbSymbolTableRecord
100
AcDbBlockTableRecord
  2
*Model_Space
  0
BLOCK_RECORD
  5
215
100
AcDbSymbolTableRecord
100
AcDbBlockTableRecord
  2
*Paper_Space
  0
BLOCK_RECORD
  5
216
100
AcDbSymbolTableRecord
100
AcDbBlockTableRecord
  2
_FILLED
  0
BLOCK_RECORD
  5
217
100
AcDbSymbolTableRecord
100
AcDbBlockTableRecord
  2
*D0
  0
BLOCK_RECORD
  5
218
100
AcDbSymbolTableRecord
100
AcDbBlockTableRecord
  2
*D1
  0
BLOCK_RECORD
  5
219
100
AcDbSymbolTableRecord
100
AcDbBlockTableRecord
  2
*D2
  0
ENDTAB
  0
TABLE
  2
DIMSTYLE
  5
A
100
AcDbSymbolTable
 70
1
100
AcDbDimStyleTable
 71
0
  0
DIMSTYLE
105
21A
100
AcDbSymbolTableRecord
100
AcDbDimStyleTableRecord
  2
STANDARD
 70
0
  3

  4

 40
1.0
 41
3.0
 42
0.5
 43
0.38
 44
1.5
 45
0.0
 46
0.0
 47
0.01
 48
0.01
140
3.0
141
0.09
142
0.0
143
25.4
144
1.0
145
0.0
146
1.0
147
0.625
 71
1.0
 72
0.0
 73
0
 74
0
 75
0
 76
0
 77
1
 78
8
170
0
171
2
172
0
173
0
174
0
175
0
176
0
177
0
178
0
270
2
271
2
272
2
273
2
274
2
275
0
280
0
281
0
282
0
283
1
284
8
285
0
286
0
287
3
288
0
340
11
278
44
341
216
342
216
343
216
344
216
  0
DIMSTYLE
105
21B
100
AcDbSymbolTableRecord
100
AcDbDimStyleTableRecord
  2
DIMSTYLE_1
 70
0
  3

  4

 40
1.0
 41
3.0
 42
0.5
 43
0.38
 44
1.5
 45
0.0
 46
0.0
 47
0.0
 48
0.0
140
3.0
141
0.09
142
0.0
143
25.4
144
1.0
145
0.0
146
1.0
147
0.75
 71
0.0
 72
0.0
 73
0
 74
0
 75
0
 76
0
 77
1
 78
8
170
0
171
2
172
0
173
0
174
0
175
0
176
0
177
0
178
0
270
2
271
2
272
2
273
2
274
2
275
0
280
0
281
0
282
0
283
1
284
8
285
0
286
0
287
3
288
0
340
11
278
44
341
216
342
216
343
216
344
216
  0
ENDTAB
  0
ENDSEC
  0
SECTION
  2
BLOCKS
  0
BLOCK
  5
20
100
AcDbEntity
  8
0
100
AcDbBlockBegin
  2
*Model_Space
 70
0
 10
0.0
 20
0.0
 30
0.0
  3
*Model_Space
  1

  0
ENDBLK
  5
21
100
AcDbEntity
  8
0
100
AcDbBlockEnd
  0
BLOCK
  5
1C
100
AcDbEntity
  8
0
100
AcDbBlockBegin
  2
*Paper_Space
 70
0
 10
0.0
 20
0.0
 30
0.0
  3
*Paper_Space
  1

  0
ENDBLK
  5
1D
100
AcDbEntity
  8
0
100
AcDbBlockEnd
  0
BLOCK
  5
21C
100
AcDbEntity
  8
0
100
AcDbBlockBegin
  2
_FILLED
 70
64
 10
0.0
 20
0.0
  3
_FILLED
  1

  0
SOLID
  5
21D
100
AcDbEntity
  8
0
  6
BYBLOCK
 62
0
100
AcDbTrace
 10
0.0
 20
0.0
 11
-1.0
 21
0.1333333333
 12
-1.0
 22
-0.1333333333
 13
-1.0
 23
-0.1333333333
  0
ENDBLK
  5
21E
100
AcDbEntity
  8
0
  6
BYBLOCK
 62
0
100
AcDbBlockEnd
  0
BLOCK
  5
21F
100
AcDbEntity
  8
0
100
AcDbBlockBegin
 62
7
  6
CONTINUOUS
  2
*D0
 70
65
 10
0.0
 20
0.0
  3
*D0
  1

  0
MTEXT
  5
220
100
AcDbEntity
  8
0
100
AcDbMText
 62
7
  6
CONTINUOUS
  7
STANDARD
 71
2
 72
1
 10
2.765
 20
19.885
 30
0.0
 11
0.0
 21
1.0
 31
0.0
 44
0.9
  1
36,8
 40
3.0
 41
8.5714285714
  0
LINE
  5
221
100
AcDbEntity
  8
0
100
AcDbLine
 62
7
  6
CONTINUOUS
 10
-1.2841363863
 20
38.285
 11
8.015
 21
38.285
  0
LINE
  5
222
100
AcDbEntity
  8
0
100
AcDbLine
 62
7
  6
CONTINUOUS
 10
-1.2841363863
 20
1.485
 11
8.015
 21
1.485
  0
LINE
  5
223
100
AcDbEntity
  8
0
100
AcDbLine
 62
7
  6
CONTINUOUS
 10
6.515
 20
38.285
 11
6.515
 21
19.885
  0
LINE
  5
224
100
AcDbEntity
  8
0
100
AcDbLine
 62
7
  6
CONTINUOUS
 10
6.515
 20
1.485
 11
6.515
 21
19.885
  0
INSERT
  5
225
100
AcDbEntity
  8
0
100
AcDbBlockReference
 62
7
  6
CONTINUOUS
  2
_FILLED
 10
6.515
 20
38.285
 41
3.0
 42
3.0
 43
3.0
 50
90.0
  0
INSERT
  5
226
100
AcDbEntity
  8
0
100
AcDbBlockReference
 62
7
  6
CONTINUOUS
  2
_FILLED
 10
6.515
 20
1.485
 41
3.0
 42
3.0
 43
3.0
 50
270.0
  0
ENDBLK
  5
227
100
AcDbEntity
  8
0
  6
BYBLOCK
 62
0
100
AcDbBlockEnd
  0
BLOCK
  5
228
100
AcDbEntity
  8
0
100
AcDbBlockBegin
 62
7
  6
CONTINUOUS
  2
*D1
 70
65
 10
0.0
 20
0.0
  3
*D1
  1

  0
MTEXT
  5
229
100
AcDbEntity
  8
0
100
AcDbMText
 62
7
  6
CONTINUOUS
  7
STANDARD
 71
2
 72
1
 10
-26.285
 20
50.035
 30
0.0
 11
1.0
 21
0.0
 31
0.0
 44
0.9
  1
49,6
 40
3.0
 41
8.7857142857
  0
LINE
  5
22A
100
AcDbEntity
  8
0
100
AcDbLine
 62
7
  6
CONTINUOUS
 10
-1.485
 20
38.4812952155
 11
-1.485
 21
47.785
  0
LINE
  5
22B
100
AcDbEntity
  8
0
100
AcDbLine
 62
7
  6
CONTINUOUS
 10
-51.085
 20
38.4812952155
 11
-51.085
 21
47.785
  0
LINE
  5
22C
100
AcDbEntity
  8
0
100
AcDbLine
 62
7
  6
CONTINUOUS
 10
-1.485
 20
46.285
 11
-26.285
 21
46.285
  0
LINE
  5
22D
100
AcDbEntity
  8
0
100
AcDbLine
 62
7
  6
CONTINUOUS
 10
-51.085
 20
46.285
 11
-26.285
 21
46.285
  0
INSERT
  5
22E
100
AcDbEntity
  8
0
100
AcDbBlockReference
 62
7
  6
CONTINUOUS
  2
_FILLED
 10
-1.485
 20
46.285
 41
3.0
 42
3.0
 43
3.0
 50
0.0
  0
INSERT
  5
22F
100
AcDbEntity
  8
0
100
AcDbBlockReference
 62
7
  6
CONTINUOUS
  2
_FILLED
 10
-51.085
 20
46.285
 41
3.0
 42
3.0
 43
3.0
 50
180.0
  0
ENDBLK
  5
230
100
AcDbEntity
  8
0
  6
BYBLOCK
 62
0
100
AcDbBlockEnd
  0
BLOCK
  5
231
100
AcDbEntity
  8
0
100
AcDbBlockBegin
 62
7
  6
CONTINUOUS
  2
*D2
 70
65
 10
0.0
 20
0.0
  3
*D2
  1

  0
MTEXT
  5
232
100
AcDbEntity
  8
0
100
AcDbMText
 62
7
  6
CONTINUOUS
  7
STANDARD
 71
2
 72
1
 10
-68.6210114541
 20
50.035
 30
0.0
 11
1.0
 21
0.0
 31
0.0
 44
0.9
  1
12
 40
3.0
 41
4.0714285714
  0
LINE
  5
233
100
AcDbEntity
  8
0
100
AcDbLine
 62
7
  6
CONTINUOUS
 10
-62.6210114541
 20
21.6035839459
 11
-62.6210114541
 21
47.785
  0
LINE
  5
234
100
AcDbEntity
  8
0
100
AcDbLine
 62
7
  6
CONTINUOUS
 10
-74.6210114541
 20
20.385
 11
-74.6210114541
 21
47.785
  0
LINE
  5
235
100
AcDbEntity
  8
0
100
AcDbLine
 62
7
  6
CONTINUOUS
 10
-62.6210114541
 20
46.285
 11
-68.6210114541
 21
46.285
  0
LINE
  5
236
100
AcDbEntity
  8
0
100
AcDbLine
 62
7
  6
CONTINUOUS
 10
-74.6210114541
 20
46.285
 11
-68.6210114541
 21
46.285
  0
INSERT
  5
237
100
AcDbEntity
  8
0
100
AcDbBlockReference
 62
7
  6
CONTINUOUS
  2
_FILLED
 10
-62.6210114541
 20
46.285
 41
3.0
 42
3.0
 43
3.0
  0
INSERT
  5
238
100
AcDbEntity
  8
0
100
AcDbBlockReference
 62
7
  6
CONTINUOUS
  2
_FILLED
 10
-74.6210114541
 20
46.285
 41
3.0
 42
3.0
 43
3.0
 50
180.0
  0
ENDBLK
  5
239
100
AcDbEntity
  8
0
  6
BYBLOCK
 62
0
100
AcDbBlockEnd
  0
ENDSEC
  0
SECTION
  2
ENTITIES
  0
DIMENSION
  5
23A
100
AcDbEntity
  8
0
100
AcDbDimension
 62
7
  6
CONTINUOUS
  2
*D0
 10
6.515
 20
1.485
 11
6.515
 21
19.885
 70
160
 71
2
 42
36.8
  3
DIMSTYLE_1
100
AcDbAlignedDimension
 13
-1.7841363863
 23
38.285
 14
-1.7841363863
 24
1.485
 50
270.0
100
AcDbRotatedDimension
  0
DIMENSION
  5
23B
100
AcDbEntity
  8
0
100
AcDbDimension
 62
7
  6
CONTINUOUS
  2
*D1
 10
-51.085
 20
46.285
 11
-26.285
 21
46.285
 70
160
 71
2
 42
49.6
  3
DIMSTYLE_1
100
AcDbAlignedDimension
 13
-1.485
 23
37.9812952155
 14
-51.085
 24
37.9812952155
 50
180.0
100
AcDbRotatedDimension
  0
DIMENSION
  5
23C
100
AcDbEntity
  8
0
100
AcDbDimension
 62
7
  6
CONTINUOUS
  2
*D2
 10
-74.6210114541
 20
46.285
 11
-68.6210114541
 21
46.285
 70
160
 71
2
 42
12.0
  3
DIMSTYLE_1
100
AcDbAlignedDimension
 13
-62.6210114541
 23
21.1035839459
 14
-74.6210114541
 24
19.885
 50
180.0
100
AcDbRotatedDimension
  0
LWPOLYLINE
  5
23D
100
AcDbEntity
  8
RACCORDO
100
AcDbPolyline
 62
253
  6
CONTINUOUS
 90
16
 70
0
 10
-50.9699802401
 20
36.2589188688
 10
-50.9695340186
 20
36.2593794955
 10
-50.9686127203
 20
36.2598393917
 10
-50.9672178066
 20
36.2602978277
 10
-50.9653514901
 20
36.2607540764
 10
-50.963016731
 20
36.2612074141
 10
-50.9602172328
 20
36.2616571217
 10
-50.9569574361
 20
36.2621024859
 10
-50.9532425113
 20
36.2625428003
 10
-50.9490783512
 20
36.2629773665
 10
-50.9444715609
 20
36.2634054951
 10
-50.9394294477
 20
36.2638265071
 10
-50.9339600092
 20
36.2642397346
 10
-50.9280719211
 20
36.2646445222
 10
-50.9217745229
 20
36.2650402278
 10
-50.9150778036
 20
36.2654262238
  0
LWPOLYLINE
  5
23E
100
AcDbEntity
  8
ASSI
100
AcDbPolyline
 62
253
  6
CONTINUOUS
 90
16
 70
0
 10
-50.9699802401
 20
36.2589188688
 10
-50.9695340186
 20
36.2593794955
 10
-50.9686127203
 20
36.2598393917
 10
-50.9672178066
 20
36.2602978277
 10
-50.9653514901
 20
36.2607540764
 10
-50.963016731
 20
36.2612074141
 10
-50.9602172328
 20
36.2616571217
 10
-50.9569574361
 20
36.2621024859
 10
-50.9532425113
 20
36.2625428003
 10
-50.9490783512
 20
36.2629773665
 10
-50.9444715609
 20
36.2634054951
 10
-50.9394294477
 20
36.2638265071
 10
-50.9339600092
 20
36.2642397346
 10
-50.9280719211
 20
36.2646445222
 10
-50.9217745229
 20
36.2650402278
 10
-50.9150778036
 20
36.2654262238
  0
LWPOLYLINE
  5
23F
100
AcDbEntity
  8
RACCORDO
100
AcDbPolyline
 62
253
  6
CONTINUOUS
 90
18
 70
0
 10
-50.9699802401
 20
3.5110811312
 10
-50.969534021
 20
3.5106205044
 10
-50.968612725
 20
3.5101606082
 10
-50.9672178134
 20
3.5097021721
 10
-50.9653514988
 20
3.5092459233
 10
-50.9630167416
 20
3.5087925855
 10
-50.9602172451
 20
3.5083428778
 10
-50.9569574499
 20
3.5078975135
 10
-50.9532425266
 20
3.507457199
 10
-50.9490783678
 20
3.5070226327
 10
-50.9444715786
 20
3.506594504
 10
-50.9394294664
 20
3.5061734919
 10
-50.9339600287
 20
3.5057602643
 10
-50.9280719413
 20
3.5053554766
 10
-50.9217745437
 20
3.5049597709
 10
-50.9150778248
 20
3.5045737748
 10
-50.907992407
 20
3.5041981007
 10
-50.8927010282
 20
3.5034800843
  0
LWPOLYLINE
  5
240
100
AcDbEntity
  8
ASSI
100
AcDbPolyline
 62
253
  6
CONTINUOUS
 90
18
 70
0
 10
-50.9699802401
 20
3.5110811312
 10
-50.969534021
 20
3.5106205044
 10
-50.968612725
 20
3.5101606082
 10
-50.9672178134
 20
3.5097021721
 10
-50.9653514988
 20
3.5092459233
 10
-50.9630167416
 20
3.5087925855
 10
-50.9602172451
 20
3.5083428778
 10
-50.9569574499
 20
3.5078975135
 10
-50.9532425266
 20
3.507457199
 10
-50.9490783678
 20
3.5070226327
 10
-50.9444715786
 20
3.506594504
 10
-50.9394294664
 20
3.5061734919
 10
-50.9339600287
 20
3.5057602643
 10
-50.9280719413
 20
3.5053554766
 10
-50.9217745437
 20
3.5049597709
 10
-50.9150778248
 20
3.5045737748
 10
-50.907992407
 20
3.5041981007
 10
-50.8927010282
 20
3.5034800843
  0
LWPOLYLINE
  5
241
100
AcDbEntity
  8
RACCORDO
100
AcDbPolyline
 62
253
  6
CONTINUOUS
 90
40
 70
0
 10
-50.9800679731
 20
2.8487035619
 10
-50.9797891146
 20
2.8368301858
 10
-50.9790260551
 20
2.824975994
 10
-50.9777800275
 20
2.81316014
 10
-50.9760530451
 20
2.8014017151
 10
-50.9738478982
 20
2.7897197182
 10
-50.9711681498
 20
2.7781330244
 10
-50.9680181297
 20
2.766660355
 10
-50.9644029275
 20
2.7553202468
 10
-50.9603283845
 20
2.7441310228
 10
-50.9558010841
 20
2.7331107619
 10
-50.9508283412
 20
2.7222772702
 10
-50.9454181907
 20
2.7116480518
 10
-50.9395793739
 20
2.7012402809
 10
-50.9333213249
 20
2.691070774
 10
-50.9266541551
 20
2.6811559625
 10
-50.919588637
 20
2.6715118661
 10
-50.9121361868
 20
2.6621540675
 10
-50.9043088457
 20
2.6530976864
 10
-50.8961192608
 20
2.6443573558
 10
-50.8875806643
 20
2.6359471979
 10
-50.8787068526
 20
2.6278808013
 10
-50.8695121635
 20
2.6201711995
 10
-50.8600114533
 20
2.6128308493
 10
-50.8502200729
 20
2.6058716107
 10
-50.8401538426
 20
2.5993047284
 10
-50.829829027
 20
2.5931408126
 10
-50.8192623085
 20
2.5873898228
 10
-50.8084707601
 20
2.5820610511
 10
-50.7974718185
 20
2.5771631077
 10
-50.7862832551
 20
2.5727039062
 10
-50.774923148
 20
2.5686906517
 10
-50.7634098521
 20
2.5651298287
 10
-50.7517619703
 20
2.5620271905
 10
-50.7399983225
 20
2.5593877502
 10
-50.7281379158
 20
2.5572157726
 10
-50.7161999139
 20
2.555514767
 10
-50.7042036055
 20
2.5542874818
 10
-50.6921683738
 20
2.5535359
 10
-50.6801136646
 20
2.553261236
  0
LWPOLYLINE
  5
242
100
AcDbEntity
  8
ASSI
100
AcDbPolyline
 62
253
  6
CONTINUOUS
 90
40
 70
0
 10
-50.9800679731
 20
2.8487035619
 10
-50.9797891146
 20
2.8368301858
 10
-50.9790260551
 20
2.824975994
 10
-50.9777800275
 20
2.81316014
 10
-50.9760530451
 20
2.8014017151
 10
-50.9738478982
 20
2.7897197182
 10
-50.9711681498
 20
2.7781330244
 10
-50.9680181297
 20
2.766660355
 10
-50.9644029275
 20
2.7553202468
 10
-50.9603283845
 20
2.7441310228
 10
-50.9558010841
 20
2.7331107619
 10
-50.9508283412
 20
2.7222772702
 10
-50.9454181907
 20
2.7116480518
 10
-50.9395793739
 20
2.7012402809
 10
-50.9333213249
 20
2.691070774
 10
-50.9266541551
 20
2.6811559625
 10
-50.919588637
 20
2.6715118661
 10
-50.9121361868
 20
2.6621540675
 10
-50.9043088457
 20
2.6530976864
 10
-50.8961192608
 20
2.6443573558
 10
-50.8875806643
 20
2.6359471979
 10
-50.8787068526
 20
2.6278808013
 10
-50.8695121635
 20
2.6201711995
 10
-50.8600114533
 20
2.6128308493
 10
-50.8502200729
 20
2.6058716107
 10
-50.8401538426
 20
2.5993047284
 10
-50.829829027
 20
2.5931408126
 10
-50.8192623085
 20
2.5873898228
 10
-50.8084707601
 20
2.5820610511
 10
-50.7974718185
 20
2.5771631077
 10
-50.7862832551
 20
2.5727039062
 10
-50.774923148
 20
2.5686906517
 10
-50.7634098521
 20
2.5651298287
 10
-50.7517619703
 20
2.5620271905
 10
-50.7399983225
 20
2.5593877502
 10
-50.7281379158
 20
2.5572157726
 10
-50.7161999139
 20
2.555514767
 10
-50.7042036055
 20
2.5542874818
 10
-50.6921683738
 20
2.5535359
 10
-50.6801136646
 20
2.553261236
  0
LINE
  5
243
100
AcDbEntity
  8
RACCORDO
100
AcDbLine
 62
253
  6
CONTINUOUS
 10
-50.9717582555
 20
36.5964221119
 11
-50.9729827386
 21
36.6921255888
  0
LINE
  5
244
100
AcDbEntity
  8
ASSI
100
AcDbLine
 62
253
  6
CONTINUOUS
 10
-50.9717582555
 20
36.5964221119
 11
-50.9729827386
 21
36.6921255888
  0
LINE
  5
245
100
AcDbEntity
  8
RACCORDO
100
AcDbLine
 62
253
  6
CONTINUOUS
 10
-50.970596745
 20
36.4530430296
 11
-50.9717582555
 21
36.5964221119
  0
LINE
  5
246
100
AcDbEntity
  8
ASSI
100
AcDbLine
 62
253
  6
CONTINUOUS
 10
-50.970596745
 20
36.4530430296
 11
-50.9717582555
 21
36.5964221119
  0
LINE
  5
247
100
AcDbEntity
  8
RACCORDO
100
AcDbLine
 62
253
  6
CONTINUOUS
 10
-50.9699984797
 20
36.2787071411
 11
-50.970596745
 21
36.4530430296
  0
LINE
  5
248
100
AcDbEntity
  8
ASSI
100
AcDbLine
 62
253
  6
CONTINUOUS
 10
-50.9699984797
 20
36.2787071411
 11
-50.970596745
 21
36.4530430296
  0
LINE
  5
249
100
AcDbEntity
  8
RACCORDO
100
AcDbLine
 62
253
  6
CONTINUOUS
 10
-50.9690999978
 20
34.8949965425
 11
-50.9699984797
 21
36.2787071411
  0
LINE
  5
24A
100
AcDbEntity
  8
ASSI
100
AcDbLine
 62
253
  6
CONTINUOUS
 10
-50.9690999978
 20
34.8949965425
 11
-50.9699984797
 21
36.2787071411
  0
LINE
  5
24B
100
AcDbEntity
  8
RACCORDO
100
AcDbLine
 62
253
  6
CONTINUOUS
 10
-50.9669184244
 20
30.8024541618
 11
-50.9690999978
 21
34.8949965425
  0
LINE
  5
24C
100
AcDbEntity
  8
ASSI
100
AcDbLine
 62
253
  6
CONTINUOUS
 10
-50.9669184244
 20
30.8024541618
 11
-50.9690999978
 21
34.8949965425
  0
LINE
  5
24D
100
AcDbEntity
  8
RACCORDO
100
AcDbLine
 62
253
  6
CONTINUOUS
 10
-50.9650811273
 20
25.3441710109
 11
-50.9669184244
 21
30.8024541618
  0
LINE
  5
24E
100
AcDbEntity
  8
ASSI
100
AcDbLine
 62
253
  6
CONTINUOUS
 10
-50.9650811273
 20
25.3441710109
 11
-50.9669184244
 21
30.8024541618
  0
LINE
  5
24F
100
AcDbEntity
  8
RACCORDO
100
AcDbLine
 62
7
  6
CONTINUOUS
 10
-51.085
 20
37.9812952155
 11
-51.085
 21
1.7887047845
  0
LINE
  5
250
100
AcDbEntity
  8
ASSI
100
AcDbLine
 62
7
  6
CONTINUOUS
 10
-51.085
 20
37.9812952155
 11
-51.085
 21
1.7887047845
  0
LINE
  5
251
100
AcDbEntity
  8
RACCORDO
100
AcDbLine
 62
253
  6
CONTINUOUS
 10
-50.9645069426
 20
21.2498245181
 11
-50.9650811273
 21
25.3441710109
  0
LINE
  5
252
100
AcDbEntity
  8
ASSI
100
AcDbLine
 62
253
  6
CONTINUOUS
 10
-50.9645069426
 20
21.2498245181
 11
-50.9650811273
 21
25.3441710109
  0
LINE
  5
253
100
AcDbEntity
  8
RACCORDO
100
AcDbLine
 62
253
  6
CONTINUOUS
 10
-50.9648131758
 20
15.7905690319
 11
-50.9645069426
 21
21.2498245181
  0
LINE
  5
254
100
AcDbEntity
  8
ASSI
100
AcDbLine
 62
253
  6
CONTINUOUS
 10
-50.9648131758
 20
15.7905690319
 11
-50.9645069426
 21
21.2498245181
  0
LINE
  5
255
100
AcDbEntity
  8
RACCORDO
100
AcDbLine
 62
253
  6
CONTINUOUS
 10
-50.9658466847
 20
11.6965184755
 11
-50.9648131758
 21
15.7905690319
  0
LINE
  5
256
100
AcDbEntity
  8
ASSI
100
AcDbLine
 62
253
  6
CONTINUOUS
 10
-50.9658466847
 20
11.6965184755
 11
-50.9648131758
 21
15.7905690319
  0
LWPOLYLINE
  5
257
100
AcDbEntity
  8
RACCORDO
100
AcDbPolyline
 62
253
  6
CONTINUOUS
 90
3
 70
0
 10
-50.9675690929
 20
7.6032289108
 10
-50.9669184243
 20
8.9675460041
 10
-50.9658466847
 20
11.6965184755
  0
LWPOLYLINE
  5
258
100
AcDbEntity
  8
ASSI
100
AcDbPolyline
 62
253
  6
CONTINUOUS
 90
3
 70
0
 10
-50.9675690929
 20
7.6032289108
 10
-50.9669184243
 20
8.9675460041
 10
-50.9658466847
 20
11.6965184755
  0
LINE
  5
259
100
AcDbEntity
  8
RACCORDO
100
AcDbLine
 62
253
  6
CONTINUOUS
 10
-50.9690999978
 20
4.875003526
 11
-50.9675690929
 21
7.6032289108
  0
LINE
  5
25A
100
AcDbEntity
  8
ASSI
100
AcDbLine
 62
253
  6
CONTINUOUS
 10
-50.9690999978
 20
4.875003526
 11
-50.9675690929
 21
7.6032289108
  0
LINE
  5
25B
100
AcDbEntity
  8
RACCORDO
100
AcDbLine
 62
253
  6
CONTINUOUS
 10
-50.9704922726
 20
3.3358182602
 11
-50.9690999978
 21
4.875003526
  0
LINE
  5
25C
100
AcDbEntity
  8
ASSI
100
AcDbLine
 62
253
  6
CONTINUOUS
 10
-50.9704922726
 20
3.3358182602
 11
-50.9690999978
 21
4.875003526
  0
LINE
  5
25D
100
AcDbEntity
  8
RACCORDO
100
AcDbLine
 62
253
  6
CONTINUOUS
 10
-50.9715826003
 20
3.1906159982
 11
-50.9704922726
 21
3.3358182602
  0
LINE
  5
25E
100
AcDbEntity
  8
ASSI
100
AcDbLine
 62
253
  6
CONTINUOUS
 10
-50.9715826003
 20
3.1906159982
 11
-50.9704922726
 21
3.3358182602
  0
LWPOLYLINE
  5
25F
100
AcDbEntity
  8
RACCORDO
100
AcDbPolyline
 62
253
  6
CONTINUOUS
 90
3
 70
0
 10
-50.9729828157
 20
3.0778693467
 10
-50.9727593761
 20
3.0929678876
 10
-50.9715826003
 20
3.1906159982
  0
LWPOLYLINE
  5
260
100
AcDbEntity
  8
ASSI
100
AcDbPolyline
 62
253
  6
CONTINUOUS
 90
3
 70
0
 10
-50.9729828157
 20
3.0778693467
 10
-50.9727593761
 20
3.0929678876
 10
-50.9715826003
 20
3.1906159982
  0
LWPOLYLINE
  5
261
100
AcDbEntity
  8
RACCORDO
100
AcDbPolyline
 62
253
  6
CONTINUOUS
 90
40
 70
0
 10
-50.9800679731
 20
36.9212964381
 10
-50.9797891145
 20
36.9331698162
 10
-50.9790260548
 20
36.9450240098
 10
-50.9777800268
 20
36.9568398656
 10
-50.9760530439
 20
36.9685982921
 10
-50.9738478964
 20
36.9802802905
 10
-50.9711681473
 20
36.9918669856
 10
-50.9680181264
 20
37.0033396562
 10
-50.9644029234
 20
37.0146797654
 10
-50.9603283794
 20
37.0258689903
 10
-50.9558010781
 20
37.0368892518
 10
-50.9508283343
 20
37.0477227441
 10
-50.9454181828
 20
37.0583519629
 10
-50.9395793651
 20
37.068759734
 10
-50.9333213152
 20
37.078929241
 10
-50.9266541446
 20
37.0888440525
 10
-50.9195886258
 20
37.0984881486
 10
-50.9121361749
 20
37.1078459469
 10
-50.9043088331
 20
37.1169023275
 10
-50.8961192477
 20
37.1256426576
 10
-50.8875806508
 20
37.1340528149
 10
-50.8787068388
 20
37.1421192107
 10
-50.8695121496
 20
37.1498288117
 10
-50.8600114393
 20
37.1571691611
 10
-50.850220059
 20
37.1641283988
 10
-50.8401538289
 20
37.1706952802
 10
-50.8298290136
 20
37.1768591951
 10
-50.8192622955
 20
37.1826101839
 10
-50.8084707478
 20
37.1879389547
 10
-50.7974718069
 20
37.1928368973
 10
-50.7862832443
 20
37.1972960979
 10
-50.774923138
 20
37.2013093516
 10
-50.7634098432
 20
37.2048701739
 10
-50.7517619625
 20
37.2079728114
 10
-50.7399983158
 20
37.2106122511
 10
-50.7281379104
 20
37.2127842283
 10
-50.7161999098
 20
37.2144852335
 10
-50.7042036028
 20
37.2157125184
 10
-50.6921683724
 20
37.2164641
 10
-50.6801136646
 20
37.216738764
  0
LWPOLYLINE
  5
262
100
AcDbEntity
  8
ASSI
100
AcDbPolyline
 62
253
  6
CONTINUOUS
 90
40
 70
0
 10
-50.9800679731
 20
36.9212964381
 10
-50.9797891145
 20
36.9331698162
 10
-50.9790260548
 20
36.9450240098
 10
-50.9777800268
 20
36.9568398656
 10
-50.9760530439
 20
36.9685982921
 10
-50.9738478964
 20
36.9802802905
 10
-50.9711681473
 20
36.9918669856
 10
-50.9680181264
 20
37.0033396562
 10
-50.9644029234
 20
37.0146797654
 10
-50.9603283794
 20
37.0258689903
 10
-50.9558010781
 20
37.0368892518
 10
-50.9508283343
 20
37.0477227441
 10
-50.9454181828
 20
37.0583519629
 10
-50.9395793651
 20
37.068759734
 10
-50.9333213152
 20
37.078929241
 10
-50.9266541446
 20
37.0888440525
 10
-50.9195886258
 20
37.0984881486
 10
-50.9121361749
 20
37.1078459469
 10
-50.9043088331
 20
37.1169023275
 10
-50.8961192477
 20
37.1256426576
 10
-50.8875806508
 20
37.1340528149
 10
-50.8787068388
 20
37.1421192107
 10
-50.8695121496
 20
37.1498288117
 10
-50.8600114393
 20
37.1571691611
 10
-50.850220059
 20
37.1641283988
 10
-50.8401538289
 20
37.1706952802
 10
-50.8298290136
 20
37.1768591951
 10
-50.8192622955
 20
37.1826101839
 10
-50.8084707478
 20
37.1879389547
 10
-50.7974718069
 20
37.1928368973
 10
-50.7862832443
 20
37.1972960979
 10
-50.774923138
 20
37.2013093516
 10
-50.7634098432
 20
37.2048701739
 10
-50.7517619625
 20
37.2079728114
 10
-50.7399983158
 20
37.2106122511
 10
-50.7281379104
 20
37.2127842283
 10
-50.7161999098
 20
37.2144852335
 10
-50.7042036028
 20
37.2157125184
 10
-50.6921683724
 20
37.2164641
 10
-50.6801136646
 20
37.216738764
  0
LINE
  5
263
100
AcDbEntity
  8
RACCORDO
100
AcDbLine
 62
253
  6
CONTINUOUS
 10
-50.9800679731
 20
36.9212964381
 11
-51.085
 21
37.9812952155
  0
LINE
  5
264
100
AcDbEntity
  8
ASSI
100
AcDbLine
 62
253
  6
CONTINUOUS
 10
-50.9800679731
 20
36.9212964381
 11
-51.085
 21
37.9812952155
  0
LINE
  5
265
100
AcDbEntity
  8
RACCORDO
100
AcDbLine
 62
253
  6
CONTINUOUS
 10
-50.6801136646
 20
37.216738764
 11
-50.7858636137
 21
38.285
  0
LINE
  5
266
100
AcDbEntity
  8
ASSI
100
AcDbLine
 62
253
  6
CONTINUOUS
 10
-50.6801136646
 20
37.216738764
 11
-50.7858636137
 21
38.285
  0
LWPOLYLINE
  5
267
100
AcDbEntity
  8
RACCORDO
100
AcDbPolyline
 62
253
  6
CONTINUOUS
 90
6
 70
0
 10
-50.9783931126
 20
36.8972804712
 10
-50.9787232955
 20
36.9031692765
 10
-50.979055955
 20
36.9085167151
 10
-50.9793908178
 20
36.9133179896
 10
-50.9797281572
 20
36.9175778973
 10
-50.9800679731
 20
36.9212964381
  0
LWPOLYLINE
  5
268
100
AcDbEntity
  8
ASSI
100
AcDbPolyline
 62
253
  6
CONTINUOUS
 90
6
 70
0
 10
-50.9783931126
 20
36.8972804712
 10
-50.9787232955
 20
36.9031692765
 10
-50.979055955
 20
36.9085167151
 10
-50.9793908178
 20
36.9133179896
 10
-50.9797281572
 20
36.9175778973
 10
-50.9800679731
 20
36.9212964381
  0
LWPOLYLINE
  5
269
100
AcDbEntity
  8
RACCORDO
100
AcDbPolyline
 62
253
  6
CONTINUOUS
 90
4
 70
0
 10
-50.6791013963
 20
37.1984766163
 10
-50.6794363085
 20
37.2053443953
 10
-50.6797737313
 20
37.2114334086
 10
-50.6801136646
 20
37.216738764
  0
LWPOLYLINE
  5
26A
100
AcDbEntity
  8
ASSI
100
AcDbPolyline
 62
253
  6
CONTINUOUS
 90
4
 70
0
 10
-50.6791013963
 20
37.1984766163
 10
-50.6794363085
 20
37.2053443953
 10
-50.6797737313
 20
37.2114334086
 10
-50.6801136646
 20
37.216738764
  0
LINE
  5
26B
100
AcDbEntity
  8
RACCORDO
100
AcDbLine
 62
253
  6
CONTINUOUS
 10
-50.9777426518
 20
36.8839207453
 11
-50.9783931126
 21
36.8972804712
  0
LINE
  5
26C
100
AcDbEntity
  8
ASSI
100
AcDbLine
 62
253
  6
CONTINUOUS
 10
-50.9777426518
 20
36.8839207453
 11
-50.9783931126
 21
36.8972804712
  0
LINE
  5
26D
100
AcDbEntity
  8
RACCORDO
100
AcDbLine
 62
253
  6
CONTINUOUS
 10
-50.9771061625
 20
36.8684698901
 11
-50.9777426518
 21
36.8839207453
  0
LINE
  5
26E
100
AcDbEntity
  8
ASSI
100
AcDbLine
 62
253
  6
CONTINUOUS
 10
-50.9771061625
 20
36.8684698901
 11
-50.9777426518
 21
36.8839207453
  0
LINE
  5
26F
100
AcDbEntity
  8
RACCORDO
100
AcDbLine
 62
253
  6
CONTINUOUS
 10
-50.6784385809
 20
37.1824275146
 11
-50.6791013963
 21
37.1984766163
  0
LINE
  5
270
100
AcDbEntity
  8
ASSI
100
AcDbLine
 62
253
  6
CONTINUOUS
 10
-50.6784385809
 20
37.1824275146
 11
-50.6791013963
 21
37.1984766163
  0
LINE
  5
271
100
AcDbEntity
  8
RACCORDO
100
AcDbLine
 62
253
  6
CONTINUOUS
 10
-50.9764859614
 20
36.8509805745
 11
-50.9771061625
 21
36.8684698901
  0
LINE
  5
272
100
AcDbEntity
  8
ASSI
100
AcDbLine
 62
253
  6
CONTINUOUS
 10
-50.9764859614
 20
36.8509805745
 11
-50.9771061625
 21
36.8684698901
  0
LINE
  5
273
100
AcDbEntity
  8
RACCORDO
100
AcDbLine
 62
253
  6
CONTINUOUS
 10
-50.6777881629
 20
37.1633371117
 11
-50.6784385809
 21
37.1824275146
  0
LINE
  5
274
100
AcDbEntity
  8
ASSI
100
AcDbLine
 62
253
  6
CONTINUOUS
 10
-50.6777881629
 20
37.1633371117
 11
-50.6784385809
 21
37.1824275146
  0
LINE
  5
275
100
AcDbEntity
  8
RACCORDO
100
AcDbLine
 62
253
  6
CONTINUOUS
 10
-50.9755906075
 20
36.8210560516
 11
-50.9764859614
 21
36.8509805745
  0
LINE
  5
276
100
AcDbEntity
  8
ASSI
100
AcDbLine
 62
253
  6
CONTINUOUS
 10
-50.9755906075
 20
36.8210560516
 11
-50.9764859614
 21
36.8509805745
  0
LINE
  5
277
100
AcDbEntity
  8
RACCORDO
100
AcDbLine
 62
253
  6
CONTINUOUS
 10
-50.6768395802
 20
37.1291352913
 11
-50.6777881629
 21
37.1633371117
  0
LINE
  5
278
100
AcDbEntity
  8
ASSI
100
AcDbLine
 62
253
  6
CONTINUOUS
 10
-50.6768395802
 20
37.1291352913
 11
-50.6777881629
 21
37.1633371117
  0
LINE
  5
279
100
AcDbEntity
  8
RACCORDO
100
AcDbLine
 62
253
  6
CONTINUOUS
 10
-50.9744718145
 20
36.7746066076
 11
-50.9755906075
 21
36.8210560516
  0
LINE
  5
27A
100
AcDbEntity
  8
ASSI
100
AcDbLine
 62
253
  6
CONTINUOUS
 10
-50.9744718145
 20
36.7746066076
 11
-50.9755906075
 21
36.8210560516
  0
LINE
  5
27B
100
AcDbEntity
  8
RACCORDO
100
AcDbLine
 62
253
  6
CONTINUOUS
 10
-50.6756362178
 20
37.0735387372
 11
-50.6768395802
 21
37.1291352913
  0
LINE
  5
27C
100
AcDbEntity
  8
ASSI
100
AcDbLine
 62
253
  6
CONTINUOUS
 10
-50.6756362178
 20
37.0735387372
 11
-50.6768395802
 21
37.1291352913
  0
LWPOLYLINE
  5
27D
100
AcDbEntity
  8
RACCORDO
100
AcDbPolyline
 62
253
  6
CONTINUOUS
 90
3
 70
0
 10
-50.9729827386
 20
36.6921255888
 10
-50.9732135562
 20
36.7068554143
 10
-50.9744718145
 20
36.7746066076
  0
LWPOLYLINE
  5
27E
100
AcDbEntity
  8
ASSI
100
AcDbPolyline
 62
253
  6
CONTINUOUS
 90
3
 70
0
 10
-50.9729827386
 20
36.6921255888
 10
-50.9732135562
 20
36.7068554143
 10
-50.9744718145
 20
36.7746066076
  0
LINE
  5
27F
100
AcDbEntity
  8
RACCORDO
100
AcDbLine
 62
253
  6
CONTINUOUS
 10
-50.6742527431
 20
36.9890053217
 11
-50.6756362178
 21
37.0735387372
  0
LINE
  5
280
100
AcDbEntity
  8
ASSI
100
AcDbLine
 62
253
  6
CONTINUOUS
 10
-50.6742527431
 20
36.9890053217
 11
-50.6756362178
 21
37.0735387372
  0
LINE
  5
281
100
AcDbEntity
  8
RACCORDO
100
AcDbLine
 62
253
  6
CONTINUOUS
 10
-50.6725889724
 20
36.8456994616
 11
-50.6742527431
 21
36.9890053217
  0
LINE
  5
282
100
AcDbEntity
  8
ASSI
100
AcDbLine
 62
253
  6
CONTINUOUS
 10
-50.6725889724
 20
36.8456994616
 11
-50.6742527431
 21
36.9890053217
  0
LINE
  5
283
100
AcDbEntity
  8
RACCORDO
100
AcDbLine
 62
253
  6
CONTINUOUS
 10
-50.6708793099
 20
36.6009710541
 11
-50.6725889724
 21
36.8456994616
  0
LINE
  5
284
100
AcDbEntity
  8
ASSI
100
AcDbLine
 62
253
  6
CONTINUOUS
 10
-50.6708793099
 20
36.6009710541
 11
-50.6725889724
 21
36.8456994616
  0
LINE
  5
285
100
AcDbEntity
  8
RACCORDO
100
AcDbLine
 62
253
  6
CONTINUOUS
 10
-50.6691456892
 20
34.9056226206
 11
-50.6700259316
 21
36.2704850935
  0
LINE
  5
286
100
AcDbEntity
  8
ASSI
100
AcDbLine
 62
253
  6
CONTINUOUS
 10
-50.6691456892
 20
34.9056226206
 11
-50.6700259316
 21
36.2704850935
  0
LINE
  5
287
100
AcDbEntity
  8
RACCORDO
100
AcDbLine
 62
253
  6
CONTINUOUS
 10
-50.6700259316
 20
36.2704850935
 11
-50.6708793099
 21
36.6009710541
  0
LINE
  5
288
100
AcDbEntity
  8
ASSI
100
AcDbLine
 62
253
  6
CONTINUOUS
 10
-50.6700259316
 20
36.2704850935
 11
-50.6708793099
 21
36.6009710541
  0
LINE
  5
289
100
AcDbEntity
  8
RACCORDO
100
AcDbLine
 62
253
  6
CONTINUOUS
 10
-50.6669641157
 20
30.8101609314
 11
-50.6691456892
 21
34.9056226206
  0
LINE
  5
28A
100
AcDbEntity
  8
ASSI
100
AcDbLine
 62
253
  6
CONTINUOUS
 10
-50.6669641157
 20
30.8101609314
 11
-50.6691456892
 21
34.9056226206
  0
LINE
  5
28B
100
AcDbEntity
  8
RACCORDO
100
AcDbLine
 62
253
  6
CONTINUOUS
 10
-50.6651268187
 20
25.3480317412
 11
-50.6669641157
 21
30.8101609314
  0
LINE
  5
28C
100
AcDbEntity
  8
ASSI
100
AcDbLine
 62
253
  6
CONTINUOUS
 10
-50.6651268187
 20
25.3480317412
 11
-50.6669641157
 21
30.8101609314
  0
LINE
  5
28D
100
AcDbEntity
  8
RACCORDO
100
AcDbLine
 62
253
  6
CONTINUOUS
 10
-50.6645526341
 20
21.2507931914
 11
-50.6651268187
 21
25.3480317412
  0
LINE
  5
28E
100
AcDbEntity
  8
ASSI
100
AcDbLine
 62
253
  6
CONTINUOUS
 10
-50.6645526341
 20
21.2507931914
 11
-50.6651268187
 21
25.3480317412
  0
LINE
  5
28F
100
AcDbEntity
  8
RACCORDO
100
AcDbLine
 62
253
  6
CONTINUOUS
 10
-50.6648588672
 20
15.787676838
 11
-50.6645526341
 21
21.2507931914
  0
LINE
  5
290
100
AcDbEntity
  8
ASSI
100
AcDbLine
 62
253
  6
CONTINUOUS
 10
-50.6648588672
 20
15.787676838
 11
-50.6645526341
 21
21.2507931914
  0
LINE
  5
291
100
AcDbEntity
  8
RACCORDO
100
AcDbLine
 62
253
  6
CONTINUOUS
 10
-50.6658923761
 20
11.690734434
 11
-50.6648588672
 21
15.787676838
  0
LINE
  5
292
100
AcDbEntity
  8
ASSI
100
AcDbLine
 62
253
  6
CONTINUOUS
 10
-50.6658923761
 20
11.690734434
 11
-50.6648588672
 21
15.787676838
  0
LWPOLYLINE
  5
293
100
AcDbEntity
  8
RACCORDO
100
AcDbPolyline
 62
253
  6
CONTINUOUS
 90
3
 70
0
 10
-50.6676147842
 20
7.5945535589
 10
-50.6669641157
 20
8.9598390686
 10
-50.6658923761
 20
11.690734434
  0
LWPOLYLINE
  5
294
100
AcDbEntity
  8
ASSI
100
AcDbPolyline
 62
253
  6
CONTINUOUS
 90
3
 70
0
 10
-50.6676147842
 20
7.5945535589
 10
-50.6669641157
 20
8.9598390686
 10
-50.6658923761
 20
11.690734434
  0
LINE
  5
295
100
AcDbEntity
  8
RACCORDO
100
AcDbLine
 62
253
  6
CONTINUOUS
 10
-50.6691456892
 20
4.8643773794
 11
-50.6676147842
 21
7.5945535589
  0
LINE
  5
296
100
AcDbEntity
  8
ASSI
100
AcDbLine
 62
253
  6
CONTINUOUS
 10
-50.6691456892
 20
4.8643773794
 11
-50.6676147842
 21
7.5945535589
  0
LINE
  5
297
100
AcDbEntity
  8
RACCORDO
100
AcDbLine
 62
253
  6
CONTINUOUS
 10
-50.6708793109
 20
3.1690288725
 11
-50.6691456892
 21
4.8643773794
  0
LINE
  5
298
100
AcDbEntity
  8
ASSI
100
AcDbLine
 62
253
  6
CONTINUOUS
 10
-50.6708793109
 20
3.1690288725
 11
-50.6691456892
 21
4.8643773794
  0
LINE
  5
299
100
AcDbEntity
  8
RACCORDO
100
AcDbLine
 62
253
  6
CONTINUOUS
 10
-50.6725889747
 20
2.9243004808
 11
-50.6708793109
 21
3.1690288725
  0
LINE
  5
29A
100
AcDbEntity
  8
ASSI
100
AcDbLine
 62
253
  6
CONTINUOUS
 10
-50.6725889747
 20
2.9243004808
 11
-50.6708793109
 21
3.1690288725
  0
LINE
  5
29B
100
AcDbEntity
  8
RACCORDO
100
AcDbLine
 62
253
  6
CONTINUOUS
 10
-50.6742527459
 20
2.7809946348
 11
-50.6725889747
 21
2.9243004808
  0
LINE
  5
29C
100
AcDbEntity
  8
ASSI
100
AcDbLine
 62
253
  6
CONTINUOUS
 10
-50.6742527459
 20
2.7809946348
 11
-50.6725889747
 21
2.9243004808
  0
LINE
  5
29D
100
AcDbEntity
  8
RACCORDO
100
AcDbLine
 62
253
  6
CONTINUOUS
 10
-50.6756362207
 20
2.6964612216
 11
-50.6742527459
 21
2.7809946348
  0
LINE
  5
29E
100
AcDbEntity
  8
ASSI
100
AcDbLine
 62
253
  6
CONTINUOUS
 10
-50.6756362207
 20
2.6964612216
 11
-50.6742527459
 21
2.7809946348
  0
LINE
  5
29F
100
AcDbEntity
  8
RACCORDO
100
AcDbLine
 62
253
  6
CONTINUOUS
 10
-50.974207153
 20
3.0081090098
 11
-50.9729828157
 21
3.0778693467
  0
LINE
  5
2A0
100
AcDbEntity
  8
ASSI
100
AcDbLine
 62
253
  6
CONTINUOUS
 10
-50.974207153
 20
3.0081090098
 11
-50.9729828157
 21
3.0778693467
  0
LINE
  5
2A1
100
AcDbEntity
  8
RACCORDO
100
AcDbLine
 62
253
  6
CONTINUOUS
 10
-50.6768395831
 20
2.6408646733
 11
-50.6756362207
 21
2.6964612216
  0
LINE
  5
2A2
100
AcDbEntity
  8
ASSI
100
AcDbLine
 62
253
  6
CONTINUOUS
 10
-50.6768395831
 20
2.6408646733
 11
-50.6756362207
 21
2.6964612216
  0
LINE
  5
2A3
100
AcDbEntity
  8
RACCORDO
100
AcDbLine
 62
253
  6
CONTINUOUS
 10
-50.9753025612
 20
2.9598655212
 11
-50.974207153
 21
3.0081090098
  0
LINE
  5
2A4
100
AcDbEntity
  8
ASSI
100
AcDbLine
 62
253
  6
CONTINUOUS
 10
-50.9753025612
 20
2.9598655212
 11
-50.974207153
 21
3.0081090098
  0
LINE
  5
2A5
100
AcDbEntity
  8
RACCORDO
100
AcDbLine
 62
253
  6
CONTINUOUS
 10
-50.9761827893
 20
2.9285031043
 11
-50.9753025612
 21
2.9598655212
  0
LINE
  5
2A6
100
AcDbEntity
  8
ASSI
100
AcDbLine
 62
253
  6
CONTINUOUS
 10
-50.9761827893
 20
2.9285031043
 11
-50.9753025612
 21
2.9598655212
  0
LINE
  5
2A7
100
AcDbEntity
  8
RACCORDO
100
AcDbLine
 62
253
  6
CONTINUOUS
 10
-50.6777881653
 20
2.60666286
 11
-50.6768395831
 21
2.6408646733
  0
LINE
  5
2A8
100
AcDbEntity
  8
ASSI
100
AcDbLine
 62
253
  6
CONTINUOUS
 10
-50.6777881653
 20
2.60666286
 11
-50.6768395831
 21
2.6408646733
  0
LINE
  5
2A9
100
AcDbEntity
  8
RACCORDO
100
AcDbLine
 62
253
  6
CONTINUOUS
 10
-50.9767941201
 20
2.9100176873
 11
-50.9761827893
 21
2.9285031043
  0
LINE
  5
2AA
100
AcDbEntity
  8
ASSI
100
AcDbLine
 62
253
  6
CONTINUOUS
 10
-50.9767941201
 20
2.9100176873
 11
-50.9761827893
 21
2.9285031043
  0
LINE
  5
2AB
100
AcDbEntity
  8
RACCORDO
100
AcDbLine
 62
253
  6
CONTINUOUS
 10
-50.6784385836
 20
2.5875724581
 11
-50.6777881653
 21
2.60666286
  0
LINE
  5
2AC
100
AcDbEntity
  8
ASSI
100
AcDbLine
 62
253
  6
CONTINUOUS
 10
-50.6784385836
 20
2.5875724581
 11
-50.6777881653
 21
2.60666286
  0
LINE
  5
2AD
100
AcDbEntity
  8
RACCORDO
100
AcDbLine
 62
253
  6
CONTINUOUS
 10
-50.9774224655
 20
2.8935479602
 11
-50.9767941201
 21
2.9100176873
  0
LINE
  5
2AE
100
AcDbEntity
  8
ASSI
100
AcDbLine
 62
253
  6
CONTINUOUS
 10
-50.9774224655
 20
2.8935479602
 11
-50.9767941201
 21
2.9100176873
  0
LWPOLYLINE
  5
2AF
100
AcDbEntity
  8
RACCORDO
100
AcDbPolyline
 62
253
  6
CONTINUOUS
 90
5
 70
0
 10
-50.6801136646
 20
2.553261236
 10
-50.6797737328
 20
2.5585665826
 10
-50.6794363112
 20
2.5646555875
 10
-50.6791013996
 20
2.5715233594
 10
-50.6784385836
 20
2.5875724581
  0
LWPOLYLINE
  5
2B0
100
AcDbEntity
  8
ASSI
100
AcDbPolyline
 62
253
  6
CONTINUOUS
 90
5
 70
0
 10
-50.6801136646
 20
2.553261236
 10
-50.6797737328
 20
2.5585665826
 10
-50.6794363112
 20
2.5646555875
 10
-50.6791013996
 20
2.5715233594
 10
-50.6784385836
 20
2.5875724581
  0
LWPOLYLINE
  5
2B1
100
AcDbEntity
  8
RACCORDO
100
AcDbPolyline
 62
253
  6
CONTINUOUS
 90
8
 70
0
 10
-50.9800679731
 20
2.8487035619
 10
-50.9797281974
 20
2.8524215426
 10
-50.9793908882
 20
2.8566809899
 10
-50.9790560456
 20
2.8614819038
 10
-50.9787233931
 20
2.8668291166
 10
-50.9783932072
 20
2.872717796
 10
-50.9780663173
 20
2.8791334453
 10
-50.9774224655
 20
2.8935479602
  0
LWPOLYLINE
  5
2B2
100
AcDbEntity
  8
ASSI
100
AcDbPolyline
 62
253
  6
CONTINUOUS
 90
8
 70
0
 10
-50.9800679731
 20
2.8487035619
 10
-50.9797281974
 20
2.8524215426
 10
-50.9793908882
 20
2.8566809899
 10
-50.9790560456
 20
2.8614819038
 10
-50.9787233931
 20
2.8668291166
 10
-50.9783932072
 20
2.872717796
 10
-50.9780663173
 20
2.8791334453
 10
-50.9774224655
 20
2.8935479602
  0
LINE
  5
2B3
100
AcDbEntity
  8
RACCORDO
100
AcDbLine
 62
253
  6
CONTINUOUS
 10
-51.085
 20
1.7887047845
 11
-50.9800679731
 21
2.8487035619
  0
LINE
  5
2B4
100
AcDbEntity
  8
ASSI
100
AcDbLine
 62
253
  6
CONTINUOUS
 10
-51.085
 20
1.7887047845
 11
-50.9800679731
 21
2.8487035619
  0
LINE
  5
2B5
100
AcDbEntity
  8
RACCORDO
100
AcDbLine
 62
253
  6
CONTINUOUS
 10
-50.7858636137
 20
1.485
 11
-50.6801136646
 21
2.553261236
  0
LINE
  5
2B6
100
AcDbEntity
  8
ASSI
100
AcDbLine
 62
253
  6
CONTINUOUS
 10
-50.7858636137
 20
1.485
 11
-50.6801136646
 21
2.553261236
  0
LINE
  5
2B7
100
AcDbEntity
  8
RACCORDO
100
AcDbLine
 62
7
  6
CONTINUOUS
 10
-1.7841363863
 20
1.485
 11
-50.7858636137
 21
1.485
  0
LINE
  5
2B8
100
AcDbEntity
  8
ASSI
100
AcDbLine
 62
7
  6
CONTINUOUS
 10
-1.7841363863
 20
1.485
 11
-50.7858636137
 21
1.485
  0
LINE
  5
2B9
100
AcDbEntity
  8
RACCORDO
100
AcDbLine
 62
253
  6
CONTINUOUS
 10
-1.6549221885
 20
3.5045737756
 11
-1.6694704847
 21
3.5038333452
  0
LINE
  5
2BA
100
AcDbEntity
  8
ASSI
100
AcDbLine
 62
253
  6
CONTINUOUS
 10
-1.6549221885
 20
3.5045737756
 11
-1.6694704847
 21
3.5038333452
  0
LINE
  5
2BB
100
AcDbEntity
  8
RACCORDO
100
AcDbLine
 62
253
  6
CONTINUOUS
 10
-1.6694704847
 20
3.5038333452
 11
-1.6854806913
 21
3.503138882
  0
LINE
  5
2BC
100
AcDbEntity
  8
ASSI
100
AcDbLine
 62
253
  6
CONTINUOUS
 10
-1.6694704847
 20
3.5038333452
 11
-1.6854806913
 21
3.503138882
  0
LINE
  5
2BD
100
AcDbEntity
  8
RACCORDO
100
AcDbLine
 62
253
  6
CONTINUOUS
 10
-1.6854806913
 20
3.503138882
 11
-1.7028512674
 21
3.5024947906
  0
LINE
  5
2BE
100
AcDbEntity
  8
ASSI
100
AcDbLine
 62
253
  6
CONTINUOUS
 10
-1.6854806913
 20
3.503138882
 11
-1.7028512674
 21
3.5024947906
  0
LINE
  5
2BF
100
AcDbEntity
  8
RACCORDO
100
AcDbLine
 62
253
  6
CONTINUOUS
 10
-1.7028512674
 20
3.5024947906
 11
-1.7214720448
 21
3.5019051558
  0
LINE
  5
2C0
100
AcDbEntity
  8
ASSI
100
AcDbLine
 62
253
  6
CONTINUOUS
 10
-1.7028512674
 20
3.5024947906
 11
-1.7214720448
 21
3.5019051558
  0
LINE
  5
2C1
100
AcDbEntity
  8
RACCORDO
100
AcDbLine
 62
253
  6
CONTINUOUS
 10
-1.7214720448
 20
3.5019051558
 11
-1.7412249257
 21
3.5013737173
  0
LINE
  5
2C2
100
AcDbEntity
  8
ASSI
100
AcDbLine
 62
253
  6
CONTINUOUS
 10
-1.7214720448
 20
3.5019051558
 11
-1.7412249257
 21
3.5013737173
  0
LINE
  5
2C3
100
AcDbEntity
  8
RACCORDO
100
AcDbLine
 62
253
  6
CONTINUOUS
 10
-1.7412249257
 20
3.5013737173
 11
-1.7727011281
 21
3.5006929444
  0
LINE
  5
2C4
100
AcDbEntity
  8
ASSI
100
AcDbLine
 62
253
  6
CONTINUOUS
 10
-1.7412249257
 20
3.5013737173
 11
-1.7727011281
 21
3.5006929444
  0
LINE
  5
2C5
100
AcDbEntity
  8
RACCORDO
100
AcDbLine
 62
253
  6
CONTINUOUS
 10
-1.7727011281
 20
3.5006929444
 11
-1.8059923217
 21
3.5001603135
  0
LINE
  5
2C6
100
AcDbEntity
  8
ASSI
100
AcDbLine
 62
253
  6
CONTINUOUS
 10
-1.7727011281
 20
3.5006929444
 11
-1.8059923217
 21
3.5001603135
  0
LINE
  5
2C7
100
AcDbEntity
  8
RACCORDO
100
AcDbLine
 62
253
  6
CONTINUOUS
 10
-1.8059923217
 20
3.5001603135
 11
-1.8406237533
 21
3.4997834203
  0
LINE
  5
2C8
100
AcDbEntity
  8
ASSI
100
AcDbLine
 62
253
  6
CONTINUOUS
 10
-1.8059923217
 20
3.5001603135
 11
-1.8406237533
 21
3.4997834203
  0
LINE
  5
2C9
100
AcDbEntity
  8
RACCORDO
100
AcDbLine
 62
253
  6
CONTINUOUS
 10
-1.8406237533
 20
3.4997834203
 11
-1.8761015573
 21
3.4995676395
  0
LINE
  5
2CA
100
AcDbEntity
  8
ASSI
100
AcDbLine
 62
253
  6
CONTINUOUS
 10
-1.8406237533
 20
3.4997834203
 11
-1.8761015573
 21
3.4995676395
  0
LINE
  5
2CB
100
AcDbEntity
  8
RACCORDO
100
AcDbLine
 62
253
  6
CONTINUOUS
 10
-50.6801136646
 20
2.553261236
 11
-1.8898863354
 21
2.553261236
  0
LINE
  5
2CC
100
AcDbEntity
  8
ASSI
100
AcDbLine
 62
253
  6
CONTINUOUS
 10
-50.6801136646
 20
2.553261236
 11
-1.8898863354
 21
2.553261236
  0
LINE
  5
2CD
100
AcDbEntity
  8
RACCORDO
100
AcDbLine
 62
253
  6
CONTINUOUS
 10
-50.6700259316
 20
3.4995149065
 11
-1.8761015573
 21
3.4995676395
  0
LINE
  5
2CE
100
AcDbEntity
  8
ASSI
100
AcDbLine
 62
253
  6
CONTINUOUS
 10
-50.6700259316
 20
3.4995149065
 11
-1.8761015573
 21
3.4995676395
  0
LINE
  5
2CF
100
AcDbEntity
  8
RACCORDO
100
AcDbLine
 62
253
  6
CONTINUOUS
 10
-50.7057873608
 20
3.4996214255
 11
-50.6700259316
 21
3.4995149065
  0
LINE
  5
2D0
100
AcDbEntity
  8
ASSI
100
AcDbLine
 62
253
  6
CONTINUOUS
 10
-50.7057873608
 20
3.4996214255
 11
-50.6700259316
 21
3.4995149065
  0
LINE
  5
2D1
100
AcDbEntity
  8
RACCORDO
100
AcDbLine
 62
253
  6
CONTINUOUS
 10
-50.7410388097
 20
3.4998913671
 11
-50.7057873608
 21
3.4996214255
  0
LINE
  5
2D2
100
AcDbEntity
  8
ASSI
100
AcDbLine
 62
253
  6
CONTINUOUS
 10
-50.7410388097
 20
3.4998913671
 11
-50.7057873608
 21
3.4996214255
  0
LINE
  5
2D3
100
AcDbEntity
  8
RACCORDO
100
AcDbLine
 62
253
  6
CONTINUOUS
 10
-50.7752775707
 20
3.5003208817
 11
-50.7410388097
 21
3.4998913671
  0
LINE
  5
2D4
100
AcDbEntity
  8
ASSI
100
AcDbLine
 62
253
  6
CONTINUOUS
 10
-50.7752775707
 20
3.5003208817
 11
-50.7410388097
 21
3.4998913671
  0
LINE
  5
2D5
100
AcDbEntity
  8
RACCORDO
100
AcDbLine
 62
253
  6
CONTINUOUS
 10
-50.8080153777
 20
3.5009038442
 11
-50.7752775707
 21
3.5003208817
  0
LINE
  5
2D6
100
AcDbEntity
  8
ASSI
100
AcDbLine
 62
253
  6
CONTINUOUS
 10
-50.8080153777
 20
3.5009038442
 11
-50.7752775707
 21
3.5003208817
  0
LINE
  5
2D7
100
AcDbEntity
  8
RACCORDO
100
AcDbLine
 62
253
  6
CONTINUOUS
 10
-50.8387853691
 20
3.5016319411
 11
-50.8080153777
 21
3.5009038442
  0
LINE
  5
2D8
100
AcDbEntity
  8
ASSI
100
AcDbLine
 62
253
  6
CONTINUOUS
 10
-50.8387853691
 20
3.5016319411
 11
-50.8080153777
 21
3.5009038442
  0
LINE
  5
2D9
100
AcDbEntity
  8
RACCORDO
100
AcDbLine
 62
253
  6
CONTINUOUS
 10
-50.8579874281
 20
3.5021929228
 11
-50.8387853691
 21
3.5016319411
  0
LINE
  5
2DA
100
AcDbEntity
  8
ASSI
100
AcDbLine
 62
253
  6
CONTINUOUS
 10
-50.8579874281
 20
3.5021929228
 11
-50.8387853691
 21
3.5016319411
  0
LINE
  5
2DB
100
AcDbEntity
  8
RACCORDO
100
AcDbLine
 62
253
  6
CONTINUOUS
 10
-50.875997389
 20
3.5028102756
 11
-50.8579874281
 21
3.5021929228
  0
LINE
  5
2DC
100
AcDbEntity
  8
ASSI
100
AcDbLine
 62
253
  6
CONTINUOUS
 10
-50.875997389
 20
3.5028102756
 11
-50.8579874281
 21
3.5021929228
  0
LINE
  5
2DD
100
AcDbEntity
  8
RACCORDO
100
AcDbLine
 62
253
  6
CONTINUOUS
 10
-50.8927010282
 20
3.5034800843
 11
-50.875997389
 21
3.5028102756
  0
LINE
  5
2DE
100
AcDbEntity
  8
ASSI
100
AcDbLine
 62
253
  6
CONTINUOUS
 10
-50.8927010282
 20
3.5034800843
 11
-50.875997389
 21
3.5028102756
  0
LWPOLYLINE
  5
2DF
100
AcDbEntity
  8
CURVE
100
AcDbPolyline
 62
252
  6
CONTINUOUS
 90
15
 70
0
 10
-26.1806499752
 20
9.7413004383
 10
-26.15772601
 20
9.7451105386
 10
-26.1350446837
 20
9.7497229717
 10
-26.1126023672
 20
9.7551292352
 10
-26.0903954312
 20
9.7613208271
 10
-26.0684214972
 20
9.7682915227
 10
-26.0466831906
 20
9.7760442075
 10
-26.0251843876
 20
9.7845840447
 10
-26.0039289644
 20
9.7939161976
 10
-25.9829293548
 20
9.8040418128
 10
-25.9622322239
 20
9.8149459719
 10
-25.9418927941
 20
9.8266097402
 10
-25.9219662883
 20
9.8390141828
 10
-25.9025051081
 20
9.8521363564
 10
-25.8835503716
 20
9.8659372826
  0
LINE
  5
2E0
100
AcDbEntity
  8
CURVE
100
AcDbLine
 62
252
  6
CONTINUOUS
 10
-26.1807619915
 20
9.7412838806
 11
-26.2039196354
 21
9.7382896082
  0
LINE
  5
2E1
100
AcDbEntity
  8
CURVE
100
AcDbLine
 62
252
  6
CONTINUOUS
 10
-23.8619879673
 20
8.935
 11
-24.815
 21
9.485
  0
LINE
  5
2E2
100
AcDbEntity
  8
CURVE
100
AcDbLine
 62
252
  6
CONTINUOUS
 10
-27.845
 20
11.285
 11
-28.7972440878
 21
11.835
  0
LINE
  5
2E3
100
AcDbEntity
  8
CURVE
100
AcDbLine
 62
252
  6
CONTINUOUS
 10
-26.6282424121
 20
9.8380174559
 11
-26.6478358666
 21
9.8512141632
  0
LINE
  5
2E4
100
AcDbEntity
  8
CURVE
100
AcDbLine
 62
252
  6
CONTINUOUS
 10
-23.505
 20
32.165
 11
-24.815
 21
30.855
  0
LINE
  5
2E5
100
AcDbEntity
  8
CURVE
100
AcDbLine
 62
252
  6
CONTINUOUS
 10
-27.785
 20
27.885
 11
-29.065
 21
26.605
  0
LWPOLYLINE
  5
2E6
100
AcDbEntity
  8
CURVE
100
AcDbPolyline
 62
252
  6
CONTINUOUS
 90
3
 70
0
 10
-26.7375288928
 20
9.926901175
 10
-26.7536515335
 20
9.9437853539
 10
-26.7691577047
 20
9.9612206436
  0
LINE
  5
2E7
100
AcDbEntity
  8
CURVE
100
AcDbLine
 62
252
  6
CONTINUOUS
 10
-26.8487240265
 20
10.0768645866
 11
-26.8595655084
 21
10.0978245594
  0
LWPOLYLINE
  5
2E8
100
AcDbEntity
  8
CURVE
100
AcDbPolyline
 62
252
  6
CONTINUOUS
 90
3
 70
0
 10
-26.8789238192
 20
10.1409126522
 10
-26.8873978389
 20
10.1629533129
 10
-26.8950517881
 20
10.1852559238
  0
LWPOLYLINE
  5
2E9
100
AcDbEntity
  8
0
100
AcDbPolyline
 62
7
  6
CONTINUOUS
 90
139
 70
0
 10
-28.785
 20
19.885
 10
-28.784354459
 20
19.9415362989
 10
-28.7824228364
 20
19.9979949272
 10
-28.7792051321
 20
20.0543758838
 10
-28.7746976093
 20
20.1107149907
 10
-28.7689040048
 20
20.1669764239
 10
-28.761835529
 20
20.2230527142
 10
-28.7534928744
 20
20.2789271325
 10
-28.7438753486
 20
20.334616406
 10
-28.7329920846
 20
20.3900632495
 10
-28.7208369533
 20
20.4452869685
 10
-28.7074160838
 20
20.5002682557
 10
-28.6927569969
 20
20.5548919072
 10
-28.6768634232
 20
20.6091373488
 10
-28.659731632
 20
20.6630251533
 10
-28.641377952
 20
20.7165018369
 10
-28.6217947007
 20
20.7695841484
 10
-28.6009895605
 20
20.8222553378
 10
-28.579001908
 20
20.8744116728
 10
-28.555834389
 20
20.9260409475
 10
-28.5314843576
 20
20.9771553671
 10
-28.5059832536
 20
21.0276878152
 10
-28.479327934
 20
21.0776414474
 10
-28.4515215418
 20
21.1270131079
 10
-28.4226049446
 20
21.1757262127
 10
-28.3925731454
 20
21.2237839188
 10
-28.3614311413
 20
21.2711830693
 10
-28.3292347914
 20
21.3178376106
 10
-28.295990649
 20
21.3637356878
 10
-28.2616921608
 20
21.4088891562
 10
-28.2263755262
 20
21.4532475274
 10
-28.1900270651
 20
21.496824068
 10
-28.1526604575
 20
21.5396055123
 10
-28.1143529426
 20
21.5815015728
 10
-28.0751173159
 20
21.6224957201
 10
-28.0349407819
 20
21.662604485
 10
-27.9938621931
 20
21.7017871706
 10
-27.9518656194
 20
21.7400561284
 10
-27.9089669909
 20
21.7773990085
 10
-27.8652529508
 20
21.8137380623
 10
-27.8207342435
 20
21.8490614757
 10
-27.7754001246
 20
21.8833810645
 10
-27.729305004
 20
21.916654526
 10
-27.6824403851
 20
21.9488860147
 10
-27.6348147645
 20
21.9800713779
 10
-27.5865080422
 20
22.0101558519
 10
-27.5375190304
 20
22.0391369752
 10
-27.4878489169
 20
22.0670172113
 10
-27.4375811647
 20
22.0937491843
 10
-27.3867225508
 20
22.1193276763
 10
-27.3352662982
 20
22.1437579073
 10
-27.2832755387
 20
22.1670081587
 10
-27.2307352263
 20
22.1890822822
 10
-27.1776604071
 20
22.209976428
 10
-27.124159351
 20
22.2296473258
 10
-27.0702497037
 20
22.2480867129
 10
-27.0159138195
 20
22.2653028536
 10
-26.9612070313
 20
22.2812772681
 10
-26.9061086755
 20
22.2960135773
 10
-26.8506394157
 20
22.3095081618
 10
-26.7949165747
 20
22.3217316809
 10
-26.7389586002
 20
22.3326779753
 10
-26.6827470444
 20
22.3423532056
 10
-26.6263438872
 20
22.3507465107
 10
-26.5697338486
 20
22.3578582566
 10
-26.5129322087
 20
22.3636880782
 10
-26.4560467876
 20
22.3682240178
 10
-26.3990855712
 20
22.3714628582
 10
-26.3420405736
 20
22.373407817
 10
-26.2849956582
 20
22.3740565887
 10
-26.2279509274
 20
22.3734076392
 10
-26.1709062787
 20
22.3714625025
 10
-26.113945268
 20
22.3682234753
 10
-26.0570597279
 20
22.3636873307
 10
-26.0002578258
 20
22.3578572951
 10
-25.9436476194
 20
22.3507453452
 10
-25.8872444996
 20
22.3423518545
 10
-25.8310330756
 20
22.3326764487
 10
-25.7750752324
 20
22.3217299814
 10
-25.7193525078
 20
22.309506296
 10
-25.6638833641
 20
22.296011548
 10
-25.6087850733
 20
22.2812750595
 10
-25.5540782215
 20
22.265300422
 10
-25.4997422226
 20
22.2480840425
 10
-25.4458325908
 20
22.229644467
 10
-25.3923318392
 20
22.2099734933
 10
-25.3392574547
 20
22.1890793218
 10
-25.286717413
 20
22.1670051023
 10
-25.2347265437
 20
22.143754587
 10
-25.1832700173
 20
22.1193240217
 10
-25.1324113203
 20
22.0937452971
 10
-25.082143916
 20
22.0670133185
 10
-25.0324743411
 20
22.0391331785
 10
-24.9834856931
 20
22.0101520487
 10
-24.9351789473
 20
21.980067342
 10
-24.8875531284
 20
21.9488816435
 10
-24.8406884073
 20
21.916649883
 10
-24.7945934031
 20
21.883376288
 10
-24.7492594968
 20
21.8490566291
 10
-24.7047410028
 20
21.8137331517
 10
-24.6610271691
 20
21.7773940459
 10
-24.6181287478
 20
21.7400511198
 10
-24.5761323101
 20
21.7017820456
 10
-24.5350536914
 20
21.6625990721
 10
-24.4948770563
 20
21.622489949
 10
-24.4556414695
 20
21.5814956
 10
-24.4173343084
 20
21.5395996898
 10
-24.3799681957
 20
21.4968185525
 10
-24.3436200641
 20
21.4532421161
 10
-24.3083033771
 20
21.4088833735
 10
-24.2740046714
 20
21.363729331
 10
-24.2407604893
 20
21.3178309363
 10
-24.2085645027
 20
21.2711766547
 10
-24.1774230398
 20
21.2237780205
 10
-24.1473916277
 20
21.1757205855
 10
-24.1184750728
 20
21.1270072052
 10
-24.0906685688
 20
21.0776350239
 10
-24.0640132233
 20
21.0276810271
 10
-24.0385122928
 20
20.9771485642
 10
-24.0141625208
 20
20.926034286
 10
-23.9909952449
 20
20.8744051294
 10
-23.9690077923
 20
20.8222488613
 10
-23.9482028358
 20
20.7695777156
 10
-23.9286197315
 20
20.7164953297
 10
-23.9102661197
 20
20.6630182931
 10
-23.8931343602
 20
20.6091300174
 10
-23.8772408886
 20
20.5548843734
 10
-23.8625820572
 20
20.5002611223
 10
-23.8491615138
 20
20.4452805042
 10
-23.8370066373
 20
20.3900571085
 10
-23.8261234682
 20
20.3346097868
 10
-23.816505966
 20
20.2789196891
 10
-23.8081633885
 20
20.2230448523
 10
-23.8010951126
 20
20.166968787
 10
-23.7953017612
 20
20.1107079844
 10
-23.7907944616
 20
20.0543699528
 10
-23.7875769227
 20
19.9979905287
 10
-23.7856454355
 20
19.9415338774
 10
-23.785
 20
19.885
  0
LWPOLYLINE
  5
2EA
100
AcDbEntity
  8
ASSI
100
AcDbPolyline
 62
7
  6
CONTINUOUS
 90
139
 70
0
 10
-28.785
 20
19.885
 10
-28.784354459
 20
19.9415362989
 10
-28.7824228364
 20
19.9979949272
 10
-28.7792051321
 20
20.0543758838
 10
-28.7746976093
 20
20.1107149907
 10
-28.7689040048
 20
20.1669764239
 10
-28.761835529
 20
20.2230527142
 10
-28.7534928744
 20
20.2789271325
 10
-28.7438753486
 20
20.334616406
 10
-28.7329920846
 20
20.3900632495
 10
-28.7208369533
 20
20.4452869685
 10
-28.7074160838
 20
20.5002682557
 10
-28.6927569969
 20
20.5548919072
 10
-28.6768634232
 20
20.6091373488
 10
-28.659731632
 20
20.6630251533
 10
-28.641377952
 20
20.7165018369
 10
-28.6217947007
 20
20.7695841484
 10
-28.6009895605
 20
20.8222553378
 10
-28.579001908
 20
20.8744116728
 10
-28.555834389
 20
20.9260409475
 10
-28.5314843576
 20
20.9771553671
 10
-28.5059832536
 20
21.0276878152
 10
-28.479327934
 20
21.0776414474
 10
-28.4515215418
 20
21.1270131079
 10
-28.4226049446
 20
21.1757262127
 10
-28.3925731454
 20
21.2237839188
 10
-28.3614311413
 20
21.2711830693
 10
-28.3292347914
 20
21.3178376106
 10
-28.295990649
 20
21.3637356878
 10
-28.2616921608
 20
21.4088891562
 10
-28.2263755262
 20
21.4532475274
 10
-28.1900270651
 20
21.496824068
 10
-28.1526604575
 20
21.5396055123
 10
-28.1143529426
 20
21.5815015728
 10
-28.0751173159
 20
21.6224957201
 10
-28.0349407819
 20
21.662604485
 10
-27.9938621931
 20
21.7017871706
 10
-27.9518656194
 20
21.7400561284
 10
-27.9089669909
 20
21.7773990085
 10
-27.8652529508
 20
21.8137380623
 10
-27.8207342435
 20
21.8490614757
 10
-27.7754001246
 20
21.8833810645
 10
-27.729305004
 20
21.916654526
 10
-27.6824403851
 20
21.9488860147
 10
-27.6348147645
 20
21.9800713779
 10
-27.5865080422
 20
22.0101558519
 10
-27.5375190304
 20
22.0391369752
 10
-27.4878489169
 20
22.0670172113
 10
-27.4375811647
 20
22.0937491843
 10
-27.3867225508
 20
22.1193276763
 10
-27.3352662982
 20
22.1437579073
 10
-27.2832755387
 20
22.1670081587
 10
-27.2307352263
 20
22.1890822822
 10
-27.1776604071
 20
22.209976428
 10
-27.124159351
 20
22.2296473258
 10
-27.0702497037
 20
22.2480867129
 10
-27.0159138195
 20
22.2653028536
 10
-26.9612070313
 20
22.2812772681
 10
-26.9061086755
 20
22.2960135773
 10
-26.8506394157
 20
22.3095081618
 10
-26.7949165747
 20
22.3217316809
 10
-26.7389586002
 20
22.3326779753
 10
-26.6827470444
 20
22.3423532056
 10
-26.6263438872
 20
22.3507465107
 10
-26.5697338486
 20
22.3578582566
 10
-26.5129322087
 20
22.3636880782
 10
-26.4560467876
 20
22.3682240178
 10
-26.3990855712
 20
22.3714628582
 10
-26.3420405736
 20
22.373407817
 10
-26.2849956582
 20
22.3740565887
 10
-26.2279509274
 20
22.3734076392
 10
-26.1709062787
 20
22.3714625025
 10
-26.113945268
 20
22.3682234753
 10
-26.0570597279
 20
22.3636873307
 10
-26.0002578258
 20
22.3578572951
 10
-25.9436476194
 20
22.3507453452
 10
-25.8872444996
 20
22.3423518545
 10
-25.8310330756
 20
22.3326764487
 10
-25.7750752324
 20
22.3217299814
 10
-25.7193525078
 20
22.309506296
 10
-25.6638833641
 20
22.296011548
 10
-25.6087850733
 20
22.2812750595
 10
-25.5540782215
 20
22.265300422
 10
-25.4997422226
 20
22.2480840425
 10
-25.4458325908
 20
22.229644467
 10
-25.3923318392
 20
22.2099734933
 10
-25.3392574547
 20
22.1890793218
 10
-25.286717413
 20
22.1670051023
 10
-25.2347265437
 20
22.143754587
 10
-25.1832700173
 20
22.1193240217
 10
-25.1324113203
 20
22.0937452971
 10
-25.082143916
 20
22.0670133185
 10
-25.0324743411
 20
22.0391331785
 10
-24.9834856931
 20
22.0101520487
 10
-24.9351789473
 20
21.980067342
 10
-24.8875531284
 20
21.9488816435
 10
-24.8406884073
 20
21.916649883
 10
-24.7945934031
 20
21.883376288
 10
-24.7492594968
 20
21.8490566291
 10
-24.7047410028
 20
21.8137331517
 10
-24.6610271691
 20
21.7773940459
 10
-24.6181287478
 20
21.7400511198
 10
-24.5761323101
 20
21.7017820456
 10
-24.5350536914
 20
21.6625990721
 10
-24.4948770563
 20
21.622489949
 10
-24.4556414695
 20
21.5814956
 10
-24.4173343084
 20
21.5395996898
 10
-24.3799681957
 20
21.4968185525
 10
-24.3436200641
 20
21.4532421161
 10
-24.3083033771
 20
21.4088833735
 10
-24.2740046714
 20
21.363729331
 10
-24.2407604893
 20
21.3178309363
 10
-24.2085645027
 20
21.2711766547
 10
-24.1774230398
 20
21.2237780205
 10
-24.1473916277
 20
21.1757205855
 10
-24.1184750728
 20
21.1270072052
 10
-24.0906685688
 20
21.0776350239
 10
-24.0640132233
 20
21.0276810271
 10
-24.0385122928
 20
20.9771485642
 10
-24.0141625208
 20
20.926034286
 10
-23.9909952449
 20
20.8744051294
 10
-23.9690077923
 20
20.8222488613
 10
-23.9482028358
 20
20.7695777156
 10
-23.9286197315
 20
20.7164953297
 10
-23.9102661197
 20
20.6630182931
 10
-23.8931343602
 20
20.6091300174
 10
-23.8772408886
 20
20.5548843734
 10
-23.8625820572
 20
20.5002611223
 10
-23.8491615138
 20
20.4452805042
 10
-23.8370066373
 20
20.3900571085
 10
-23.8261234682
 20
20.3346097868
 10
-23.816505966
 20
20.2789196891
 10
-23.8081633885
 20
20.2230448523
 10
-23.8010951126
 20
20.166968787
 10
-23.7953017612
 20
20.1107079844
 10
-23.7907944616
 20
20.0543699528
 10
-23.7875769227
 20
19.9979905287
 10
-23.7856454355
 20
19.9415338774
 10
-23.785
 20
19.885
  0
LINE
  5
2EB
100
AcDbEntity
  8
CURVE
100
AcDbLine
 62
252
  6
CONTINUOUS
 10
-25.6580779654
 20
10.5894537299
 11
-25.6512375131
 21
10.5674216898
  0
LWPOLYLINE
  5
2EC
100
AcDbEntity
  8
CURVE
100
AcDbPolyline
 62
252
  6
CONTINUOUS
 90
48
 70
0
 10
-26.926133138
 20
10.393521195
 10
-26.9260758322
 20
10.3695788859
 10
-26.9251539061
 20
10.3459360561
 10
-26.9233766399
 20
10.3225325937
 10
-26.9207533137
 20
10.2993083867
 10
-26.9172913524
 20
10.2762148661
 10
-26.9129907585
 20
10.2532496325
 10
-26.9078496789
 20
10.2304218294
 10
-26.9018662606
 20
10.2077406001
 10
-26.8950409108
 20
10.1852223919
 10
-26.8873830771
 20
10.1629128674
 10
-26.8789044675
 20
10.1408649931
 10
-26.8696167897
 20
10.1191317354
 10
-26.8595350647
 20
10.0977631204
 10
-26.8486875649
 20
10.0767974119
 10
-26.8371058759
 20
10.0562699338
 10
-26.8248215831
 20
10.0362160094
 10
-26.8118632938
 20
10.0166664387
 10
-26.7982477024
 20
9.9976339265
 10
-26.7839885249
 20
9.979126654
 10
-26.7690994775
 20
9.9611528021
 10
-26.7535919746
 20
9.9437207782
 10
-26.7374682249
 20
9.9268398935
 10
-26.7207281351
 20
9.9105196855
 10
-26.7033716122
 20
9.8947696914
 10
-26.6854047362
 20
9.8796043053
 10
-26.6668582785
 20
9.8650573479
 10
-26.6477691836
 20
9.8511674966
 10
-26.628174396
 20
9.8379734288
 10
-26.608113684
 20
9.825511336
 10
-26.5876381118
 20
9.8138074668
 10
-26.5668015673
 20
9.8028855839
 10
-26.5456579384
 20
9.79276945
 10
-26.5242533962
 20
9.7834767239
 10
-26.5026032438
 20
9.7750006485
 10
-26.4807150672
 20
9.7673283626
 10
-26.4585964524
 20
9.7604470052
 10
-26.4362535661
 20
9.7543475556
 10
-26.4136868959
 20
9.7490363549
 10
-26.3908955101
 20
9.7445235847
 10
-26.3678784768
 20
9.7408194264
 10
-26.3446449218
 20
9.737934116
 10
-26.3212442008
 20
9.7358781071
 10
-26.297735727
 20
9.7346619077
 10
-26.2741789138
 20
9.7342960257
 10
-26.2506330719
 20
9.7347871348
 10
-26.2271571025
 20
9.7361265717
 10
-26.203809804
 20
9.7383018387
  0
LINE
  5
2ED
100
AcDbEntity
  8
CURVE
100
AcDbLine
 62
252
  6
CONTINUOUS
 10
-26.285
 20
7.485
 11
-26.285
 21
8.6849999564
  0
LINE
  5
2EE
100
AcDbEntity
  8
CURVE
100
AcDbLine
 62
252
  6
CONTINUOUS
 10
-26.285
 20
12.085
 11
-26.285
 21
13.284999987
  0
LINE
  5
2EF
100
AcDbEntity
  8
CURVE
100
AcDbLine
 62
252
  6
CONTINUOUS
 10
-26.285
 20
25.455
 11
-26.285
 21
27.3049999653
  0
LINE
  5
2F0
100
AcDbEntity
  8
CURVE
100
AcDbLine
 62
252
  6
CONTINUOUS
 10
-26.285
 20
31.515
 11
-26.285
 21
33.3149999819
  0
LWPOLYLINE
  5
2F1
100
AcDbEntity
  8
CURVE
100
AcDbPolyline
 62
252
  6
CONTINUOUS
 90
84
 70
0
 10
-27.295
 20
29.385
 10
-27.2941332879
 20
29.4272952892
 10
-27.291534441
 20
29.4692101945
 10
-27.2872030263
 20
29.5107757455
 10
-27.2811386107
 20
29.552022972
 10
-27.2733407611
 20
29.5929829036
 10
-27.2655197657
 20
29.626907135
 10
-27.2565045006
 20
29.6605995417
 10
-27.2463047704
 20
29.694006261
 10
-27.2349303796
 20
29.7270734302
 10
-27.2223911331
 20
29.7597471864
 10
-27.2086968352
 20
29.791973667
 10
-27.1938610176
 20
29.8237011034
 10
-27.1779121194
 20
29.8548861046
 10
-27.1608823068
 20
29.8854873734
 10
-27.1428037459
 20
29.915463613
 10
-27.1237086029
 20
29.9447735263
 10
-27.1036290437
 20
29.9733758164
 10
-27.0782743458
 20
30.0067122953
 10
-27.0515734651
 20
30.0389346051
 10
-27.0235514589
 20
30.0700070217
 10
-26.9942333844
 20
30.0998938212
 10
-26.9636442987
 20
30.1285592793
 10
-26.9318208634
 20
30.1559630913
 10
-26.8988461579
 20
30.1820466292
 10
-26.8648148659
 20
30.2067466841
 10
-26.8298216713
 20
30.2300000473
 10
-26.7939612577
 20
30.25174351
 10
-26.7634764772
 20
30.2686682907
 10
-26.7324682876
 20
30.2844894161
 10
-26.7009497628
 20
30.2991956676
 10
-26.6689339765
 20
30.3127758269
 10
-26.6364340024
 20
30.3252186757
 10
-26.6034629143
 20
30.3365129954
 10
-26.5700427609
 20
30.3466479653
 10
-26.5362314904
 20
30.3556143542
 10
-26.5020960259
 20
30.3634033287
 10
-26.4677032905
 20
30.3700060553
 10
-26.4331202073
 20
30.3754137004
 10
-26.3984136995
 20
30.3796174304
 10
-26.3566838704
 20
30.3830630416
 10
-26.3149083596
 20
30.3847634733
 10
-26.2731228478
 20
30.3847199043
 10
-26.2313630155
 20
30.3829335129
 10
-26.1896645434
 20
30.3794054777
 10
-26.1549957214
 20
30.3751371285
 10
-26.1204586815
 20
30.3696683184
 10
-26.0861178164
 20
30.3630072431
 10
-26.0520375188
 20
30.355162098
 10
-26.0182821813
 20
30.3461410787
 10
-25.9849161968
 20
30.3359523809
 10
-25.9519960334
 20
30.3246052196
 10
-25.9195464614
 20
30.3121128883
 10
-25.8875843265
 20
30.2984897001
 10
-25.8561264746
 20
30.283749968
 10
-25.8251897514
 20
30.2679080051
 10
-25.7947910026
 20
30.2509781245
 10
-25.7590553204
 20
30.2292514153
 10
-25.7242015165
 20
30.2060337259
 10
-25.6903125278
 20
30.1813800667
 10
-25.6574712913
 20
30.1553454484
 10
-25.625760744
 20
30.1279848813
 10
-25.5952556672
 20
30.0993510183
 10
-25.5659982178
 20
30.0694870812
 10
-25.5380223971
 20
30.0384339342
 10
-25.5113622063
 20
30.0062324413
 10
-25.4860516466
 20
29.9729234665
 10
-25.4621270504
 20
29.938553074
 10
-25.4396340754
 20
29.9031881275
 10
-25.4186207106
 20
29.8669006908
 10
-25.3991349447
 20
29.8297628276
 10
-25.3812247668
 20
29.7918466017
 10
-25.367535785
 20
29.7597045026
 10
-25.3549898824
 20
29.7270977097
 10
-25.3436026545
 20
29.6940520146
 10
-25.3333898364
 20
29.6605993883
 10
-25.3243677225
 20
29.6267965195
 10
-25.3165527474
 20
29.5927062759
 10
-25.3099560655
 20
29.5583903253
 10
-25.3045677129
 20
29.5239055333
 10
-25.300372446
 20
29.4893075653
 10
-25.2973607949
 20
29.4546187188
 10
-25.2955463856
 20
29.4197278195
 10
-25.2949486178
 20
29.3844903253
  0
LWPOLYLINE
  5
2F2
100
AcDbEntity
  8
CURVE
100
AcDbPolyline
 62
252
  6
CONTINUOUS
 90
4
 70
0
 10
-25.6451919668
 20
10.5452340408
 10
-25.6399389113
 20
10.5229085734
 10
-25.6354731052
 20
10.5004566882
 10
-25.6317893069
 20
10.4778897856
  0
LWPOLYLINE
  5
2F3
100
AcDbEntity
  8
CURVE
100
AcDbPolyline
 62
252
  6
CONTINUOUS
 90
89
 70
0
 10
-25.6250016237
 20
10.3859724803
 10
-25.625477543
 20
10.4093377456
 10
-25.626779912
 20
10.4324145665
 10
-25.6288922217
 20
10.455264557
 10
-25.6317979627
 20
10.4779493313
 10
-25.6354842576
 20
10.5005183423
 10
-25.6399527556
 20
10.5229723988
 10
-25.6452087377
 20
10.5453001482
 10
-25.6512574848
 20
10.5674902384
 10
-25.6581014434
 20
10.5895249009
 10
-25.6657317225
 20
10.6113607043
 10
-25.6741365965
 20
10.632947801
 10
-25.6833043399
 20
10.6542363437
 10
-25.6932220233
 20
10.6751790412
 10
-25.7038719015
 20
10.6957388282
 10
-25.7152350253
 20
10.715881196
 10
-25.7272924455
 20
10.7355716356
 10
-25.7400259405
 20
10.7547798699
 10
-25.7534201982
 20
10.7734925492
 10
-25.7674606342
 20
10.7917005556
 10
-25.7821326639
 20
10.8093947711
 10
-25.7974242304
 20
10.8265655882
 10
-25.8133333875
 20
10.8432014412
 10
-25.8298607164
 20
10.8592902748
 10
-25.8470067985
 20
10.8748200338
 10
-25.8647654436
 20
10.8897751073
 10
-25.8831033762
 20
10.9041256625
 10
-25.9019805493
 20
10.9178383108
 10
-25.9213569158
 20
10.9308796639
 10
-25.9411898569
 20
10.9432181521
 10
-25.9614264665
 20
10.9548294806
 10
-25.9820112667
 20
10.9656911737
 10
-26.0028887794
 20
10.9757807552
 10
-26.0240120311
 20
10.9850802974
 10
-26.0453680656
 20
10.993590064
 10
-26.0669524308
 20
11.0013148671
 10
-26.0887606748
 20
11.0082595187
 10
-26.1107896019
 20
11.014427349
 10
-26.1330410406
 20
11.0198157625
 10
-26.1555180756
 20
11.024420682
 10
-26.1782237919
 20
11.0282380305
 10
-26.2011516246
 20
11.0312622656
 10
-26.2242564119
 20
11.0334819849
 10
-26.2474833423
 20
11.0348843209
 10
-26.2707776045
 20
11.035456406
 10
-26.2940833301
 20
11.0351900135
 10
-26.317340423
 20
11.0340954799
 10
-26.3404877301
 20
11.0321877823
 10
-26.363464098
 20
11.0294818982
 10
-26.3862189505
 20
11.0259908134
 10
-26.4087440175
 20
11.0217195486
 10
-26.4310416059
 20
11.0166711333
 10
-26.4531140224
 20
11.0108485967
 10
-26.4749626044
 20
11.0042535434
 10
-26.4965848115
 20
10.9968818783
 10
-26.5179771338
 20
10.9887280815
 10
-26.5391360614
 20
10.9797866332
 10
-26.5600502742
 20
10.9700565697
 10
-26.5806772105
 20
10.9595551532
 10
-26.6009664987
 20
10.9483042023
 10
-26.6208677667
 20
10.9363255355
 10
-26.6403329484
 20
10.9236427717
 10
-26.6593231987
 20
10.9102867311
 10
-26.6778019785
 20
10.8962900342
 10
-26.6957327482
 20
10.8816853015
 10
-26.7130846406
 20
10.8665012934
 10
-26.7298494774
 20
10.8507513301
 10
-26.7460247523
 20
10.8344448715
 10
-26.761607959
 20
10.8175913778
 10
-26.7765941334
 20
10.8001995658
 10
-26.7909684802
 20
10.7822751799
 10
-26.8047137463
 20
10.7638232215
 10
-26.8178126784
 20
10.7448486918
 10
-26.8302473758
 20
10.725361299
 10
-26.8419973483
 20
10.7053895781
 10
-26.8530414578
 20
10.684966771
 10
-26.8633585666
 20
10.6641261197
 10
-26.8729287465
 20
10.6429029071
 10
-26.8817369082
 20
10.62134058
 10
-26.8897691723
 20
10.5994846261
 10
-26.8970116594
 20
10.5773805331
 10
-26.903453367
 20
10.5550684067
 10
-26.9090948014
 20
10.5325668238
 10
-26.913939346
 20
10.5098889792
 10
-26.9179903841
 20
10.4870480676
 10
-26.9212482678
 20
10.4640448393
 10
-26.9237012242
 20
10.4408302662
 10
-26.925334449
 20
10.4173428756
 10
-26.926133138
 20
10.393521195
  0
LINE
  5
2F4
100
AcDbEntity
  8
CURVE
100
AcDbLine
 62
252
  6
CONTINUOUS
 10
-25.625475478
 20
10.4092844847
 11
-25.6250015014
 21
10.3859213582
  0
LINE
  5
2F5
100
AcDbEntity
  8
CURVE
100
AcDbLine
 62
252
  6
CONTINUOUS
 10
-25.6249998061
 20
10.384718093
 11
-25.6254187705
 21
10.3611282982
  0
LWPOLYLINE
  5
2F6
100
AcDbEntity
  8
CURVE
100
AcDbPolyline
 62
252
  6
CONTINUOUS
 90
84
 70
0
 10
-25.2949486178
 20
29.3844903253
 10
-25.2958346479
 20
29.3421984472
 10
-25.2984523388
 20
29.3002876509
 10
-25.3028022777
 20
29.2587269324
 10
-25.308885052
 20
29.2174852878
 10
-25.3167012491
 20
29.1765317129
 10
-25.3245375958
 20
29.1426133805
 10
-25.3335681545
 20
29.1089273909
 10
-25.3437829638
 20
29.0755275693
 10
-25.3551720619
 20
29.0424677404
 10
-25.3677254873
 20
29.0098017295
 10
-25.3814332785
 20
28.9775833614
 10
-25.396281776
 20
28.945864372
 10
-25.4122425292
 20
28.9146881411
 10
-25.4292833898
 20
28.884095959
 10
-25.4473722092
 20
28.8541291165
 10
-25.466476839
 20
28.824828904
 10
-25.4865651308
 20
28.7962366121
 10
-25.511929322
 20
28.7629125075
 10
-25.5386385734
 20
28.7307029379
 10
-25.5666677658
 20
28.699643574
 10
-25.5959917797
 20
28.6697700869
 10
-25.6265854958
 20
28.6411181473
 10
-25.6584121949
 20
28.6137279936
 10
-25.6913887581
 20
28.5876581333
 10
-25.7254204665
 20
28.5629716416
 10
-25.7604126012
 20
28.5397315933
 10
-25.7962704434
 20
28.5180010637
 10
-25.8267519066
 20
28.5010866733
 10
-25.8577557165
 20
28.4852755101
 10
-25.8892688112
 20
28.4705787222
 10
-25.9212781285
 20
28.457007458
 10
-25.9537706065
 20
28.4445728657
 10
-25.9867331832
 20
28.4332860935
 10
-26.0201438459
 20
28.4231578974
 10
-26.0539447794
 20
28.414197464
 10
-26.0880692181
 20
28.4064135875
 10
-26.1224503962
 20
28.3998150622
 10
-26.1570215479
 20
28.3944106823
 10
-26.1917159074
 20
28.3902092422
 10
-26.2334310647
 20
28.3867650654
 10
-26.2751919133
 20
28.385064713
 10
-26.3169628679
 20
28.3851071127
 10
-26.3587083433
 20
28.3868911919
 10
-26.4003927542
 20
28.3904158783
 10
-26.435050145
 20
28.3946807224
 10
-26.4695760327
 20
28.4001454491
 10
-26.503906032
 20
28.4068019306
 10
-26.5379757578
 20
28.4146420394
 10
-26.5717208247
 20
28.4236576478
 10
-26.6050768476
 20
28.4338406281
 10
-26.6379873603
 20
28.4451818249
 10
-26.6704275725
 20
28.4576679723
 10
-26.7023806132
 20
28.4712847764
 10
-26.7338296111
 20
28.4860179433
 10
-26.764757695
 20
28.5018531794
 10
-26.7951479938
 20
28.5187761907
 10
-26.8308737653
 20
28.5404944846
 10
-26.8657179425
 20
28.5637035469
 10
-26.8995976362
 20
28.5883483325
 10
-26.932429957
 20
28.6143737965
 10
-26.9641320158
 20
28.641724894
 10
-26.9946290817
 20
28.6703489423
 10
-27.0238790577
 20
28.7002027094
 10
-27.0518480052
 20
28.7312453253
 10
-27.0785019853
 20
28.7634359205
 10
-27.1038070596
 20
28.7967336252
 10
-27.1277269595
 20
28.8310923865
 10
-27.1502160969
 20
28.8664454192
 10
-27.1712265537
 20
28.9027207548
 10
-27.1907104119
 20
28.9398464248
 10
-27.2086197536
 20
28.977750461
 10
-27.2223089422
 20
29.0098824547
 10
-27.2348560901
 20
29.0424791541
 10
-27.2462458473
 20
29.0755147111
 10
-27.2564627286
 20
29.1089571344
 10
-27.2654907076
 20
29.1427498616
 10
-27.2733136229
 20
29.1768301872
 10
-27.2799204764
 20
29.2111366207
 10
-27.2853209246
 20
29.2456125311
 10
-27.2895297872
 20
29.2802025025
 10
-27.2925561412
 20
29.3148843551
 10
-27.2943860914
 20
29.3497688539
 10
-27.295
 20
29.385
  0
LINE
  5
2F7
100
AcDbEntity
  8
CURVE
100
AcDbLine
 62
252
  6
CONTINUOUS
 10
-25.6254087538
 20
10.3614049464
 11
-25.6266673804
 21
10.3380876794
  0
LINE
  5
2F8
100
AcDbEntity
  8
CURVE
100
AcDbLine
 62
252
  6
CONTINUOUS
 10
-25.626647567
 20
10.3383619732
 11
-25.6287306593
 21
10.3152643462
  0
LINE
  5
2F9
100
AcDbEntity
  8
CURVE
100
AcDbLine
 62
252
  6
CONTINUOUS
 10
-25.6287013107
 20
10.3155360241
 11
-25.6315937003
 21
10.2926051798
  0
LINE
  5
2FA
100
AcDbEntity
  8
CURVE
100
AcDbLine
 62
252
  6
CONTINUOUS
 10
-25.6315550502
 20
10.29287395
 11
-25.635245332
 21
10.2700666802
  0
LWPOLYLINE
  5
2FB
100
AcDbEntity
  8
0
100
AcDbPolyline
 62
7
  6
CONTINUOUS
 90
139
 70
0
 10
-23.785
 20
19.885
 10
-23.785645541
 20
19.8284637011
 10
-23.7875771636
 20
19.7720050728
 10
-23.7907948679
 20
19.7156241162
 10
-23.7953023907
 20
19.6592850093
 10
-23.8010959952
 20
19.6030235761
 10
-23.808164471
 20
19.5469472858
 10
-23.8165071256
 20
19.4910728675
 10
-23.8261246514
 20
19.435383594
 10
-23.8370079154
 20
19.3799367505
 10
-23.8491630467
 20
19.3247130315
 10
-23.8625839162
 20
19.2697317443
 10
-23.8772430031
 20
19.2151080928
 10
-23.8931365768
 20
19.1608626512
 10
-23.910268368
 20
19.1069748466
 10
-23.928622048
 20
19.0534981631
 10
-23.9482052993
 20
19.0004158516
 10
-23.9690104395
 20
18.9477446622
 10
-23.990998092
 20
18.8955883272
 10
-24.014165611
 20
18.8439590525
 10
-24.0385156424
 20
18.7928446329
 10
-24.0640167464
 20
18.7423121848
 10
-24.090672066
 20
18.6923585526
 10
-24.1184784582
 20
18.6429868921
 10
-24.1473950554
 20
18.5942737873
 10
-24.1774268546
 20
18.5462160812
 10
-24.2085688587
 20
18.4988169307
 10
-24.2407652086
 20
18.4521623894
 10
-24.274009351
 20
18.4062643122
 10
-24.3083078392
 20
18.3611108438
 10
-24.3436244738
 20
18.3167524726
 10
-24.3799729349
 20
18.273175932
 10
-24.4173395425
 20
18.2303944877
 10
-24.4556470574
 20
18.1884984272
 10
-24.4948826841
 20
18.1475042799
 10
-24.5350592181
 20
18.107395515
 10
-24.5761378069
 20
18.0682128294
 10
-24.6181343806
 20
18.0299438716
 10
-24.6610330091
 20
17.9926009915
 10
-24.7047470492
 20
17.9562619377
 10
-24.7492657565
 20
17.9209385243
 10
-24.7945998754
 20
17.8866189355
 10
-24.840694996
 20
17.853345474
 10
-24.8875596149
 20
17.8211139853
 10
-24.9351852355
 20
17.7899286221
 10
-24.9834919578
 20
17.7598441481
 10
-25.0324809696
 20
17.7308630248
 10
-25.0821510831
 20
17.7029827887
 10
-25.1324188353
 20
17.6762508157
 10
-25.1832774492
 20
17.6506723237
 10
-25.2347337018
 20
17.6262420927
 10
-25.2867244613
 20
17.6029918413
 10
-25.3392647737
 20
17.5809177178
 10
-25.3923395929
 20
17.560023572
 10
-25.445840649
 20
17.5403526742
 10
-25.4997502963
 20
17.5219132871
 10
-25.5540861805
 20
17.5046971464
 10
-25.6087929687
 20
17.4887227319
 10
-25.6638913245
 20
17.4739864227
 10
-25.7193605843
 20
17.4604918382
 10
-25.7750834253
 20
17.4482683191
 10
-25.8310413998
 20
17.4373220247
 10
-25.8872529556
 20
17.4276467944
 10
-25.9436561128
 20
17.4192534893
 10
-26.0002661514
 20
17.4121417434
 10
-26.0570677913
 20
17.4063119218
 10
-26.1139532124
 20
17.4017759822
 10
-26.1709144288
 20
17.3985371418
 10
-26.2279594264
 20
17.396592183
 10
-26.2850043418
 20
17.3959434113
 10
-26.3420490726
 20
17.3965923608
 10
-26.3990937213
 20
17.3985374975
 10
-26.456054732
 20
17.4017765247
 10
-26.5129402721
 20
17.4063126693
 10
-26.5697421742
 20
17.4121427049
 10
-26.6263523806
 20
17.4192546548
 10
-26.6827555004
 20
17.4276481455
 10
-26.7389669244
 20
17.4373235513
 10
-26.7949247676
 20
17.4482700186
 10
-26.8506474922
 20
17.460493704
 10
-26.9061166359
 20
17.473988452
 10
-26.9612149267
 20
17.4887249405
 10
-27.0159217785
 20
17.504699578
 10
-27.0702577774
 20
17.5219159575
 10
-27.1241674092
 20
17.540355533
 10
-27.1776681608
 20
17.5600265067
 10
-27.2307425453
 20
17.5809206782
 10
-27.283282587
 20
17.6029948977
 10
-27.3352734563
 20
17.626245413
 10
-27.3867299827
 20
17.6506759783
 10
-27.4375886797
 20
17.6762547029
 10
-27.487856084
 20
17.7029866815
 10
-27.5375256589
 20
17.7308668215
 10
-27.5865143069
 20
17.7598479513
 10
-27.6348210527
 20
17.789932658
 10
-27.6824468716
 20
17.8211183565
 10
-27.7293115927
 20
17.853350117
 10
-27.7754065969
 20
17.886623712
 10
-27.8207405032
 20
17.9209433709
 10
-27.8652589972
 20
17.9562668483
 10
-27.9089728309
 20
17.9926059541
 10
-27.9518712522
 20
18.0299488802
 10
-27.9938676899
 20
18.0682179544
 10
-28.0349463086
 20
18.1074009279
 10
-28.0751229437
 20
18.147510051
 10
-28.1143585305
 20
18.1885044
 10
-28.1526656916
 20
18.2304003102
 10
-28.1900318043
 20
18.2731814475
 10
-28.2263799359
 20
18.3167578839
 10
-28.2616966229
 20
18.3611166265
 10
-28.2959953286
 20
18.406270669
 10
-28.3292395107
 20
18.4521690637
 10
-28.3614354973
 20
18.4988233453
 10
-28.3925769602
 20
18.5462219795
 10
-28.4226083723
 20
18.5942794145
 10
-28.4515249272
 20
18.6429927948
 10
-28.4793314312
 20
18.6923649761
 10
-28.5059867767
 20
18.7423189729
 10
-28.5314877072
 20
18.7928514358
 10
-28.5558374792
 20
18.843965714
 10
-28.5790047551
 20
18.8955948706
 10
-28.6009922077
 20
18.9477511387
 10
-28.6217971642
 20
19.0004222844
 10
-28.6413802685
 20
19.0535046703
 10
-28.6597338803
 20
19.1069817069
 10
-28.6768656398
 20
19.1608699826
 10
-28.6927591114
 20
19.2151156266
 10
-28.7074179428
 20
19.2697388777
 10
-28.7208384862
 20
19.3247194958
 10
-28.7329933627
 20
19.3799428915
 10
-28.7438765318
 20
19.4353902132
 10
-28.753494034
 20
19.4910803109
 10
-28.7618366115
 20
19.5469551477
 10
-28.7689048874
 20
19.603031213
 10
-28.7746982388
 20
19.6592920156
 10
-28.7792055384
 20
19.7156300472
 10
-28.7824230773
 20
19.7720094713
 10
-28.7843545645
 20
19.8284661226
 10
-28.785
 20
19.885
  0
LWPOLYLINE
  5
2FC
100
AcDbEntity
  8
ASSI
100
AcDbPolyline
 62
7
  6
CONTINUOUS
 90
139
 70
0
 10
-23.785
 20
19.885
 10
-23.785645541
 20
19.8284637011
 10
-23.7875771636
 20
19.7720050728
 10
-23.7907948679
 20
19.7156241162
 10
-23.7953023907
 20
19.6592850093
 10
-23.8010959952
 20
19.6030235761
 10
-23.808164471
 20
19.5469472858
 10
-23.8165071256
 20
19.4910728675
 10
-23.8261246514
 20
19.435383594
 10
-23.8370079154
 20
19.3799367505
 10
-23.8491630467
 20
19.3247130315
 10
-23.8625839162
 20
19.2697317443
 10
-23.8772430031
 20
19.2151080928
 10
-23.8931365768
 20
19.1608626512
 10
-23.910268368
 20
19.1069748466
 10
-23.928622048
 20
19.0534981631
 10
-23.9482052993
 20
19.0004158516
 10
-23.9690104395
 20
18.9477446622
 10
-23.990998092
 20
18.8955883272
 10
-24.014165611
 20
18.8439590525
 10
-24.0385156424
 20
18.7928446329
 10
-24.0640167464
 20
18.7423121848
 10
-24.090672066
 20
18.6923585526
 10
-24.1184784582
 20
18.6429868921
 10
-24.1473950554
 20
18.5942737873
 10
-24.1774268546
 20
18.5462160812
 10
-24.2085688587
 20
18.4988169307
 10
-24.2407652086
 20
18.4521623894
 10
-24.274009351
 20
18.4062643122
 10
-24.3083078392
 20
18.3611108438
 10
-24.3436244738
 20
18.3167524726
 10
-24.3799729349
 20
18.273175932
 10
-24.4173395425
 20
18.2303944877
 10
-24.4556470574
 20
18.1884984272
 10
-24.4948826841
 20
18.1475042799
 10
-24.5350592181
 20
18.107395515
 10
-24.5761378069
 20
18.0682128294
 10
-24.6181343806
 20
18.0299438716
 10
-24.6610330091
 20
17.9926009915
 10
-24.7047470492
 20
17.9562619377
 10
-24.7492657565
 20
17.9209385243
 10
-24.7945998754
 20
17.8866189355
 10
-24.840694996
 20
17.853345474
 10
-24.8875596149
 20
17.8211139853
 10
-24.9351852355
 20
17.7899286221
 10
-24.9834919578
 20
17.7598441481
 10
-25.0324809696
 20
17.7308630248
 10
-25.0821510831
 20
17.7029827887
 10
-25.1324188353
 20
17.6762508157
 10
-25.1832774492
 20
17.6506723237
 10
-25.2347337018
 20
17.6262420927
 10
-25.2867244613
 20
17.6029918413
 10
-25.3392647737
 20
17.5809177178
 10
-25.3923395929
 20
17.560023572
 10
-25.445840649
 20
17.5403526742
 10
-25.4997502963
 20
17.5219132871
 10
-25.5540861805
 20
17.5046971464
 10
-25.6087929687
 20
17.4887227319
 10
-25.6638913245
 20
17.4739864227
 10
-25.7193605843
 20
17.4604918382
 10
-25.7750834253
 20
17.4482683191
 10
-25.8310413998
 20
17.4373220247
 10
-25.8872529556
 20
17.4276467944
 10
-25.9436561128
 20
17.4192534893
 10
-26.0002661514
 20
17.4121417434
 10
-26.0570677913
 20
17.4063119218
 10
-26.1139532124
 20
17.4017759822
 10
-26.1709144288
 20
17.3985371418
 10
-26.2279594264
 20
17.396592183
 10
-26.2850043418
 20
17.3959434113
 10
-26.3420490726
 20
17.3965923608
 10
-26.3990937213
 20
17.3985374975
 10
-26.456054732
 20
17.4017765247
 10
-26.5129402721
 20
17.4063126693
 10
-26.5697421742
 20
17.4121427049
 10
-26.6263523806
 20
17.4192546548
 10
-26.6827555004
 20
17.4276481455
 10
-26.7389669244
 20
17.4373235513
 10
-26.7949247676
 20
17.4482700186
 10
-26.8506474922
 20
17.460493704
 10
-26.9061166359
 20
17.473988452
 10
-26.9612149267
 20
17.4887249405
 10
-27.0159217785
 20
17.504699578
 10
-27.0702577774
 20
17.5219159575
 10
-27.1241674092
 20
17.540355533
 10
-27.1776681608
 20
17.5600265067
 10
-27.2307425453
 20
17.5809206782
 10
-27.283282587
 20
17.6029948977
 10
-27.3352734563
 20
17.626245413
 10
-27.3867299827
 20
17.6506759783
 10
-27.4375886797
 20
17.6762547029
 10
-27.487856084
 20
17.7029866815
 10
-27.5375256589
 20
17.7308668215
 10
-27.5865143069
 20
17.7598479513
 10
-27.6348210527
 20
17.789932658
 10
-27.6824468716
 20
17.8211183565
 10
-27.7293115927
 20
17.853350117
 10
-27.7754065969
 20
17.886623712
 10
-27.8207405032
 20
17.9209433709
 10
-27.8652589972
 20
17.9562668483
 10
-27.9089728309
 20
17.9926059541
 10
-27.9518712522
 20
18.0299488802
 10
-27.9938676899
 20
18.0682179544
 10
-28.0349463086
 20
18.1074009279
 10
-28.0751229437
 20
18.147510051
 10
-28.1143585305
 20
18.1885044
 10
-28.1526656916
 20
18.2304003102
 10
-28.1900318043
 20
18.2731814475
 10
-28.2263799359
 20
18.3167578839
 10
-28.2616966229
 20
18.3611166265
 10
-28.2959953286
 20
18.406270669
 10
-28.3292395107
 20
18.4521690637
 10
-28.3614354973
 20
18.4988233453
 10
-28.3925769602
 20
18.5462219795
 10
-28.4226083723
 20
18.5942794145
 10
-28.4515249272
 20
18.6429927948
 10
-28.4793314312
 20
18.6923649761
 10
-28.5059867767
 20
18.7423189729
 10
-28.5314877072
 20
18.7928514358
 10
-28.5558374792
 20
18.843965714
 10
-28.5790047551
 20
18.8955948706
 10
-28.6009922077
 20
18.9477511387
 10
-28.6217971642
 20
19.0004222844
 10
-28.6413802685
 20
19.0535046703
 10
-28.6597338803
 20
19.1069817069
 10
-28.6768656398
 20
19.1608699826
 10
-28.6927591114
 20
19.2151156266
 10
-28.7074179428
 20
19.2697388777
 10
-28.7208384862
 20
19.3247194958
 10
-28.7329933627
 20
19.3799428915
 10
-28.7438765318
 20
19.4353902132
 10
-28.753494034
 20
19.4910803109
 10
-28.7618366115
 20
19.5469551477
 10
-28.7689048874
 20
19.603031213
 10
-28.7746982388
 20
19.6592920156
 10
-28.7792055384
 20
19.7156300472
 10
-28.7824230773
 20
19.7720094713
 10
-28.7843545645
 20
19.8284661226
 10
-28.785
 20
19.885
  0
LINE
  5
2FD
100
AcDbEntity
  8
CURVE
100
AcDbLine
 62
252
  6
CONTINUOUS
 10
-25.6351975808
 20
10.2703322465
 11
-25.6396893249
 21
10.2476438231
  0
LINE
  5
2FE
100
AcDbEntity
  8
CURVE
100
AcDbLine
 62
252
  6
CONTINUOUS
 10
-25.6396326188
 20
10.2479059896
 11
-25.6449331853
 21
10.2253412035
  0
LINE
  5
2FF
100
AcDbEntity
  8
CURVE
100
AcDbLine
 62
252
  6
CONTINUOUS
 10
-25.6448676107
 20
10.2255999001
 11
-25.6509844195
 21
10.2031634161
  0
LINE
  5
300
100
AcDbEntity
  8
CURVE
100
AcDbLine
 62
252
  6
CONTINUOUS
 10
-25.6509100031
 20
10.203418699
 11
-25.6578469251
 21
10.1811230974
  0
LINE
  5
301
100
AcDbEntity
  8
CURVE
100
AcDbLine
 62
252
  6
CONTINUOUS
 10
-25.6577636529
 20
10.181375098
 11
-25.6655101667
 21
10.1592650499
  0
LINE
  5
302
100
AcDbEntity
  8
CURVE
100
AcDbLine
 62
252
  6
CONTINUOUS
 10
-25.6654180584
 20
10.1595137728
 11
-25.6739599999
 21
10.1376421177
  0
LINE
  5
303
100
AcDbEntity
  8
CURVE
100
AcDbLine
 62
252
  6
CONTINUOUS
 10
-26.8530076153
 20
10.6850319054
 11
-26.8419557926
 21
10.7054627978
  0
LINE
  5
304
100
AcDbEntity
  8
CURVE
100
AcDbLine
 62
252
  6
CONTINUOUS
 10
-25.6738591285
 20
10.1378873897
 11
-25.6831822808
 21
10.1163071448
  0
LINE
  5
305
100
AcDbEntity
  8
CURVE
100
AcDbLine
 62
252
  6
CONTINUOUS
 10
-25.6830727719
 20
10.1165486154
 11
-25.6931611405
 21
10.0953106554
  0
LINE
  5
306
100
AcDbEntity
  8
CURVE
100
AcDbLine
 62
252
  6
CONTINUOUS
 10
-25.6930432175
 20
10.0955477735
 11
-25.7038738107
 21
10.0746938939
  0
LINE
  5
307
100
AcDbEntity
  8
CURVE
100
AcDbLine
 62
252
  6
CONTINUOUS
 10
-25.7037479744
 20
10.0749258176
 11
-25.7152957984
 21
10.0544957848
  0
LINE
  5
308
100
AcDbEntity
  8
CURVE
100
AcDbLine
 62
252
  6
CONTINUOUS
 10
-25.715162872
 20
10.0547213585
 11
-25.7274026107
 21
10.0347552523
  0
LINE
  5
309
100
AcDbEntity
  8
CURVE
100
AcDbLine
 62
252
  6
CONTINUOUS
 10
-25.7272637396
 20
10.0349730071
 11
-25.7401725426
 21
10.0155059869
  0
LINE
  5
30A
100
AcDbEntity
  8
CURVE
100
AcDbLine
 62
252
  6
CONTINUOUS
 10
-25.7400291162
 20
10.0157142723
 11
-25.7535950424
 21
9.9967607417
  0
LINE
  5
30B
100
AcDbEntity
  8
CURVE
100
AcDbLine
 62
252
  6
CONTINUOUS
 10
-25.7534483803
 20
9.996958256
 11
-25.7676623467
 21
9.9785270358
  0
LINE
  5
30C
100
AcDbEntity
  8
CURVE
100
AcDbLine
 62
252
  6
CONTINUOUS
 10
-25.7675136199
 20
9.9787129583
 11
-25.782366692
 21
9.9608123882
  0
LINE
  5
30D
100
AcDbEntity
  8
CURVE
100
AcDbLine
 62
252
  6
CONTINUOUS
 10
-25.7822169232
 20
9.9609863793
 11
-25.7977012703
 21
9.9436240095
  0
LINE
  5
30E
100
AcDbEntity
  8
CURVE
100
AcDbLine
 62
252
  6
CONTINUOUS
 10
-25.7975513296
 20
9.943786147
 11
-25.813663096
 21
9.926967876
  0
LINE
  5
30F
100
AcDbEntity
  8
CURVE
100
AcDbLine
 62
252
  6
CONTINUOUS
 10
-25.8135136838
 20
9.9271184017
 11
-25.8302501389
 21
9.9108496554
  0
LINE
  5
310
100
AcDbEntity
  8
CURVE
100
AcDbLine
 62
252
  6
CONTINUOUS
 10
-25.8301017815
 20
9.9109889118
 11
-25.8474603691
 21
9.8952750154
  0
LINE
  5
311
100
AcDbEntity
  8
CURVE
100
AcDbLine
 62
252
  6
CONTINUOUS
 10
-25.8473134189
 20
9.8954034457
 11
-25.8652857029
 21
9.8802558515
  0
LINE
  5
312
100
AcDbEntity
  8
CURVE
100
AcDbLine
 62
252
  6
CONTINUOUS
 10
-25.8651403761
 20
9.8803739747
 11
-25.8836938435
 21
9.8658289704
  0
LINE
  5
313
100
AcDbEntity
  8
CURVE
100
AcDbLine
 62
252
  6
CONTINUOUS
 10
-27.845
 20
9.485
 11
-28.7972440878
 21
8.935
  0
LINE
  5
314
100
AcDbEntity
  8
CURVE
100
AcDbLine
 62
252
  6
CONTINUOUS
 10
-23.8619879673
 20
11.835
 11
-24.815
 21
11.285
  0
LINE
  5
315
100
AcDbEntity
  8
CURVE
100
AcDbLine
 62
252
  6
CONTINUOUS
 10
-23.505
 20
26.605
 11
-24.815
 21
27.915
  0
LINE
  5
316
100
AcDbEntity
  8
CURVE
100
AcDbLine
 62
252
  6
CONTINUOUS
 10
-27.795
 20
30.895
 11
-29.065
 21
32.165
  0
LINE
  5
317
100
AcDbEntity
  8
CURVE
100
AcDbLine
 62
252
  6
CONTINUOUS
 10
-22.355
 20
29.385
 11
-24.205
 21
29.385
  0
LINE
  5
318
100
AcDbEntity
  8
CURVE
100
AcDbLine
 62
252
  6
CONTINUOUS
 10
-28.415
 20
29.385
 11
-30.215
 21
29.385
  0
LINE
  5
319
100
AcDbEntity
  8
RACCORDO
100
AcDbLine
 62
253
  6
CONTINUOUS
 10
-50.7752775576
 20
36.2696791157
 11
-50.7410388006
 21
36.2701086302
  0
LINE
  5
31A
100
AcDbEntity
  8
ASSI
100
AcDbLine
 62
253
  6
CONTINUOUS
 10
-50.7752775576
 20
36.2696791157
 11
-50.7410388006
 21
36.2701086302
  0
LINE
  5
31B
100
AcDbEntity
  8
RACCORDO
100
AcDbLine
 62
253
  6
CONTINUOUS
 10
-50.7410388006
 20
36.2701086302
 11
-50.7057873561
 21
36.2703785717
  0
LINE
  5
31C
100
AcDbEntity
  8
ASSI
100
AcDbLine
 62
253
  6
CONTINUOUS
 10
-50.7410388006
 20
36.2701086302
 11
-50.7057873561
 21
36.2703785717
  0
LINE
  5
31D
100
AcDbEntity
  8
RACCORDO
100
AcDbLine
 62
253
  6
CONTINUOUS
 10
-50.7057873561
 20
36.2703785717
 11
-50.6700259316
 21
36.2704850907
  0
LINE
  5
31E
100
AcDbEntity
  8
ASSI
100
AcDbLine
 62
253
  6
CONTINUOUS
 10
-50.7057873561
 20
36.2703785717
 11
-50.6700259316
 21
36.2704850907
  0
LINE
  5
31F
100
AcDbEntity
  8
RACCORDO
100
AcDbLine
 62
253
  6
CONTINUOUS
 10
-1.8761015553
 20
36.2704323622
 11
-50.6700259316
 21
36.2704850935
  0
LINE
  5
320
100
AcDbEntity
  8
ASSI
100
AcDbLine
 62
253
  6
CONTINUOUS
 10
-1.8761015553
 20
36.2704323622
 11
-50.6700259316
 21
36.2704850935
  0
LINE
  5
321
100
AcDbEntity
  8
RACCORDO
100
AcDbLine
 62
253
  6
CONTINUOUS
 10
-1.8406237485
 20
36.2702165813
 11
-1.8761015553
 21
36.2704323622
  0
LINE
  5
322
100
AcDbEntity
  8
ASSI
100
AcDbLine
 62
253
  6
CONTINUOUS
 10
-1.8406237485
 20
36.2702165813
 11
-1.8761015553
 21
36.2704323622
  0
LWPOLYLINE
  5
323
100
AcDbEntity
  8
RACCORDO
100
AcDbPolyline
 62
253
  6
CONTINUOUS
 90
3
 70
0
 10
-1.7947224293
 20
36.2696791183
 10
-1.8059923142
 20
36.2698396881
 10
-1.8406237485
 20
36.2702165813
  0
LWPOLYLINE
  5
324
100
AcDbEntity
  8
ASSI
100
AcDbPolyline
 62
253
  6
CONTINUOUS
 90
3
 70
0
 10
-1.7947224293
 20
36.2696791183
 10
-1.8059923142
 20
36.2698396881
 10
-1.8406237485
 20
36.2702165813
  0
LINE
  5
325
100
AcDbEntity
  8
RACCORDO
100
AcDbLine
 62
253
  6
CONTINUOUS
 10
-50.9150778036
 20
36.2654262238
 11
-50.9005295072
 21
36.2661666542
  0
LINE
  5
326
100
AcDbEntity
  8
ASSI
100
AcDbLine
 62
253
  6
CONTINUOUS
 10
-50.9150778036
 20
36.2654262238
 11
-50.9005295072
 21
36.2661666542
  0
LINE
  5
327
100
AcDbEntity
  8
RACCORDO
100
AcDbLine
 62
253
  6
CONTINUOUS
 10
-50.9005295072
 20
36.2661666542
 11
-50.8845193007
 21
36.2668611173
  0
LINE
  5
328
100
AcDbEntity
  8
ASSI
100
AcDbLine
 62
253
  6
CONTINUOUS
 10
-50.9005295072
 20
36.2661666542
 11
-50.8845193007
 21
36.2668611173
  0
LINE
  5
329
100
AcDbEntity
  8
RACCORDO
100
AcDbLine
 62
253
  6
CONTINUOUS
 10
-50.8845193007
 20
36.2668611173
 11
-50.8671487248
 21
36.2675052087
  0
LINE
  5
32A
100
AcDbEntity
  8
ASSI
100
AcDbLine
 62
253
  6
CONTINUOUS
 10
-50.8845193007
 20
36.2668611173
 11
-50.8671487248
 21
36.2675052087
  0
LINE
  5
32B
100
AcDbEntity
  8
RACCORDO
100
AcDbLine
 62
253
  6
CONTINUOUS
 10
-50.8671487248
 20
36.2675052087
 11
-50.8485279479
 21
36.2680948434
  0
LINE
  5
32C
100
AcDbEntity
  8
ASSI
100
AcDbLine
 62
253
  6
CONTINUOUS
 10
-50.8671487248
 20
36.2675052087
 11
-50.8485279479
 21
36.2680948434
  0
LINE
  5
32D
100
AcDbEntity
  8
RACCORDO
100
AcDbLine
 62
253
  6
CONTINUOUS
 10
-50.8485279479
 20
36.2680948434
 11
-50.8287750674
 21
36.2686262818
  0
LINE
  5
32E
100
AcDbEntity
  8
ASSI
100
AcDbLine
 62
253
  6
CONTINUOUS
 10
-50.8485279479
 20
36.2680948434
 11
-50.8287750674
 21
36.2686262818
  0
LINE
  5
32F
100
AcDbEntity
  8
RACCORDO
100
AcDbLine
 62
253
  6
CONTINUOUS
 10
-50.8287750674
 20
36.2686262818
 11
-50.7972988661
 21
36.2693070546
  0
LINE
  5
330
100
AcDbEntity
  8
ASSI
100
AcDbLine
 62
253
  6
CONTINUOUS
 10
-50.8287750674
 20
36.2686262818
 11
-50.7972988661
 21
36.2693070546
  0
LINE
  5
331
100
AcDbEntity
  8
RACCORDO
100
AcDbLine
 62
253
  6
CONTINUOUS
 10
-50.7972988661
 20
36.2693070546
 11
-50.7752775576
 21
36.2696791157
  0
LINE
  5
332
100
AcDbEntity
  8
ASSI
100
AcDbLine
 62
253
  6
CONTINUOUS
 10
-50.7972988661
 20
36.2693070546
 11
-50.7752775576
 21
36.2696791157
  0
LINE
  5
333
100
AcDbEntity
  8
RACCORDO
100
AcDbLine
 62
253
  6
CONTINUOUS
 10
-50.6801136646
 20
37.216738764
 11
-1.8898863354
 21
37.216738764
  0
LINE
  5
334
100
AcDbEntity
  8
ASSI
100
AcDbLine
 62
253
  6
CONTINUOUS
 10
-50.6801136646
 20
37.216738764
 11
-1.8898863354
 21
37.216738764
  0
LINE
  5
335
100
AcDbEntity
  8
RACCORDO
100
AcDbLine
 62
7
  6
CONTINUOUS
 10
-1.7841363863
 20
38.285
 11
-50.7858636137
 21
38.285
  0
LINE
  5
336
100
AcDbEntity
  8
ASSI
100
AcDbLine
 62
7
  6
CONTINUOUS
 10
-1.7841363863
 20
38.285
 11
-50.7858636137
 21
38.285
  0
LINE
  5
337
100
AcDbEntity
  8
RACCORDO
100
AcDbLine
 62
253
  6
CONTINUOUS
 10
-1.7619846223
 20
36.2690961558
 11
-1.7947224293
 21
36.2696791183
  0
LINE
  5
338
100
AcDbEntity
  8
ASSI
100
AcDbLine
 62
253
  6
CONTINUOUS
 10
-1.7619846223
 20
36.2690961558
 11
-1.7947224293
 21
36.2696791183
  0
LINE
  5
339
100
AcDbEntity
  8
RACCORDO
100
AcDbLine
 62
253
  6
CONTINUOUS
 10
-1.7312146309
 20
36.2683680589
 11
-1.7619846223
 21
36.2690961558
  0
LINE
  5
33A
100
AcDbEntity
  8
ASSI
100
AcDbLine
 62
253
  6
CONTINUOUS
 10
-1.7312146309
 20
36.2683680589
 11
-1.7619846223
 21
36.2690961558
  0
LINE
  5
33B
100
AcDbEntity
  8
RACCORDO
100
AcDbLine
 62
253
  6
CONTINUOUS
 10
-1.7120125719
 20
36.2678070772
 11
-1.7312146309
 21
36.2683680589
  0
LINE
  5
33C
100
AcDbEntity
  8
ASSI
100
AcDbLine
 62
253
  6
CONTINUOUS
 10
-1.7120125719
 20
36.2678070772
 11
-1.7312146309
 21
36.2683680589
  0
LINE
  5
33D
100
AcDbEntity
  8
RACCORDO
100
AcDbLine
 62
253
  6
CONTINUOUS
 10
-1.694002611
 20
36.2671897244
 11
-1.7120125719
 21
36.2678070772
  0
LINE
  5
33E
100
AcDbEntity
  8
ASSI
100
AcDbLine
 62
253
  6
CONTINUOUS
 10
-1.694002611
 20
36.2671897244
 11
-1.7120125719
 21
36.2678070772
  0
LINE
  5
33F
100
AcDbEntity
  8
RACCORDO
100
AcDbLine
 62
253
  6
CONTINUOUS
 10
-1.6772989718
 20
36.2665199157
 11
-1.694002611
 21
36.2671897244
  0
LINE
  5
340
100
AcDbEntity
  8
ASSI
100
AcDbLine
 62
253
  6
CONTINUOUS
 10
-1.6772989718
 20
36.2665199157
 11
-1.694002611
 21
36.2671897244
  0
LINE
  5
341
100
AcDbEntity
  8
RACCORDO
100
AcDbLine
 62
253
  6
CONTINUOUS
 10
-1.8898863354
 20
2.553261236
 11
-1.7841363863
 21
1.485
  0
LINE
  5
342
100
AcDbEntity
  8
ASSI
100
AcDbLine
 62
253
  6
CONTINUOUS
 10
-1.8898863354
 20
2.553261236
 11
-1.7841363863
 21
1.485
  0
LINE
  5
343
100
AcDbEntity
  8
RACCORDO
100
AcDbLine
 62
253
  6
CONTINUOUS
 10
-1.5899320269
 20
2.8487035619
 11
-1.485
 21
1.7887047845
  0
LINE
  5
344
100
AcDbEntity
  8
ASSI
100
AcDbLine
 62
253
  6
CONTINUOUS
 10
-1.5899320269
 20
2.8487035619
 11
-1.485
 21
1.7887047845
  0
LINE
  5
345
100
AcDbEntity
  8
RACCORDO
100
AcDbLine
 62
253
  6
CONTINUOUS
 10
-1.7841363863
 20
38.285
 11
-1.8898863354
 21
37.216738764
  0
LINE
  5
346
100
AcDbEntity
  8
ASSI
100
AcDbLine
 62
253
  6
CONTINUOUS
 10
-1.7841363863
 20
38.285
 11
-1.8898863354
 21
37.216738764
  0
LINE
  5
347
100
AcDbEntity
  8
RACCORDO
100
AcDbLine
 62
253
  6
CONTINUOUS
 10
-1.485
 20
37.9812952155
 11
-1.5899320269
 21
36.9212964381
  0
LINE
  5
348
100
AcDbEntity
  8
ASSI
100
AcDbLine
 62
253
  6
CONTINUOUS
 10
-1.485
 20
37.9812952155
 11
-1.5899320269
 21
36.9212964381
  0
LWPOLYLINE
  5
349
100
AcDbEntity
  8
RACCORDO
100
AcDbPolyline
 62
253
  6
CONTINUOUS
 90
6
 70
0
 10
-1.5916067928
 20
2.872717796
 10
-1.5912766069
 20
2.8668291166
 10
-1.5909439544
 20
2.8614819038
 10
-1.5906091118
 20
2.8566809899
 10
-1.5902718026
 20
2.8524215426
 10
-1.5899320269
 20
2.8487035619
  0
LWPOLYLINE
  5
34A
100
AcDbEntity
  8
ASSI
100
AcDbPolyline
 62
253
  6
CONTINUOUS
 90
6
 70
0
 10
-1.5916067928
 20
2.872717796
 10
-1.5912766069
 20
2.8668291166
 10
-1.5909439544
 20
2.8614819038
 10
-1.5906091118
 20
2.8566809899
 10
-1.5902718026
 20
2.8524215426
 10
-1.5899320269
 20
2.8487035619
  0
LWPOLYLINE
  5
34B
100
AcDbEntity
  8
RACCORDO
100
AcDbPolyline
 62
253
  6
CONTINUOUS
 90
4
 70
0
 10
-1.8908986004
 20
2.5715233594
 10
-1.8905636888
 20
2.5646555875
 10
-1.8902262672
 20
2.5585665826
 10
-1.8898863354
 20
2.553261236
  0
LWPOLYLINE
  5
34C
100
AcDbEntity
  8
ASSI
100
AcDbPolyline
 62
253
  6
CONTINUOUS
 90
4
 70
0
 10
-1.8908986004
 20
2.5715233594
 10
-1.8905636888
 20
2.5646555875
 10
-1.8902262672
 20
2.5585665826
 10
-1.8898863354
 20
2.553261236
  0
LINE
  5
34D
100
AcDbEntity
  8
RACCORDO
100
AcDbLine
 62
253
  6
CONTINUOUS
 10
-1.5922572567
 20
2.8860772178
 11
-1.5916067928
 21
2.872717796
  0
LINE
  5
34E
100
AcDbEntity
  8
ASSI
100
AcDbLine
 62
253
  6
CONTINUOUS
 10
-1.5922572567
 20
2.8860772178
 11
-1.5916067928
 21
2.872717796
  0
LINE
  5
34F
100
AcDbEntity
  8
RACCORDO
100
AcDbLine
 62
253
  6
CONTINUOUS
 10
-1.5928937459
 20
2.9015277157
 11
-1.5922572567
 21
2.8860772178
  0
LINE
  5
350
100
AcDbEntity
  8
ASSI
100
AcDbLine
 62
253
  6
CONTINUOUS
 10
-1.5928937459
 20
2.9015277157
 11
-1.5922572567
 21
2.8860772178
  0
LINE
  5
351
100
AcDbEntity
  8
RACCORDO
100
AcDbLine
 62
253
  6
CONTINUOUS
 10
-1.8915614164
 20
2.5875724581
 11
-1.8908986004
 21
2.5715233594
  0
LINE
  5
352
100
AcDbEntity
  8
ASSI
100
AcDbLine
 62
253
  6
CONTINUOUS
 10
-1.8915614164
 20
2.5875724581
 11
-1.8908986004
 21
2.5715233594
  0
LINE
  5
353
100
AcDbEntity
  8
RACCORDO
100
AcDbLine
 62
253
  6
CONTINUOUS
 10
-1.5935139473
 20
2.919016672
 11
-1.5928937459
 21
2.9015277157
  0
LINE
  5
354
100
AcDbEntity
  8
ASSI
100
AcDbLine
 62
253
  6
CONTINUOUS
 10
-1.5935139473
 20
2.919016672
 11
-1.5928937459
 21
2.9015277157
  0
LINE
  5
355
100
AcDbEntity
  8
RACCORDO
100
AcDbLine
 62
253
  6
CONTINUOUS
 10
-1.8922118347
 20
2.60666286
 11
-1.8915614164
 21
2.5875724581
  0
LINE
  5
356
100
AcDbEntity
  8
ASSI
100
AcDbLine
 62
253
  6
CONTINUOUS
 10
-1.8922118347
 20
2.60666286
 11
-1.8915614164
 21
2.5875724581
  0
LINE
  5
357
100
AcDbEntity
  8
RACCORDO
100
AcDbLine
 62
253
  6
CONTINUOUS
 10
-1.5944093025
 20
2.9489406474
 11
-1.5935139473
 21
2.919016672
  0
LINE
  5
358
100
AcDbEntity
  8
ASSI
100
AcDbLine
 62
253
  6
CONTINUOUS
 10
-1.5944093025
 20
2.9489406474
 11
-1.5935139473
 21
2.919016672
  0
LINE
  5
359
100
AcDbEntity
  8
RACCORDO
100
AcDbLine
 62
253
  6
CONTINUOUS
 10
-1.8931604169
 20
2.6408646733
 11
-1.8922118347
 21
2.60666286
  0
LINE
  5
35A
100
AcDbEntity
  8
ASSI
100
AcDbLine
 62
253
  6
CONTINUOUS
 10
-1.8931604169
 20
2.6408646733
 11
-1.8922118347
 21
2.60666286
  0
LINE
  5
35B
100
AcDbEntity
  8
RACCORDO
100
AcDbLine
 62
253
  6
CONTINUOUS
 10
-1.5955280987
 20
2.9953893453
 11
-1.5944093025
 21
2.9489406474
  0
LINE
  5
35C
100
AcDbEntity
  8
ASSI
100
AcDbLine
 62
253
  6
CONTINUOUS
 10
-1.5955280987
 20
2.9953893453
 11
-1.5944093025
 21
2.9489406474
  0
LINE
  5
35D
100
AcDbEntity
  8
RACCORDO
100
AcDbLine
 62
253
  6
CONTINUOUS
 10
-1.8943637793
 20
2.6964612216
 11
-1.8931604169
 21
2.6408646733
  0
LINE
  5
35E
100
AcDbEntity
  8
ASSI
100
AcDbLine
 62
253
  6
CONTINUOUS
 10
-1.8943637793
 20
2.6964612216
 11
-1.8931604169
 21
2.6408646733
  0
LINE
  5
35F
100
AcDbEntity
  8
RACCORDO
100
AcDbLine
 62
253
  6
CONTINUOUS
 10
-1.5967863643
 20
3.0631396561
 11
-1.5955280987
 21
2.9953893453
  0
LINE
  5
360
100
AcDbEntity
  8
ASSI
100
AcDbLine
 62
253
  6
CONTINUOUS
 10
-1.5967863643
 20
3.0631396561
 11
-1.5955280987
 21
2.9953893453
  0
LINE
  5
361
100
AcDbEntity
  8
RACCORDO
100
AcDbLine
 62
253
  6
CONTINUOUS
 10
-1.8957472541
 20
2.7809946348
 11
-1.8943637793
 21
2.6964612216
  0
LINE
  5
362
100
AcDbEntity
  8
ASSI
100
AcDbLine
 62
253
  6
CONTINUOUS
 10
-1.8957472541
 20
2.7809946348
 11
-1.8943637793
 21
2.6964612216
  0
LINE
  5
363
100
AcDbEntity
  8
RACCORDO
100
AcDbLine
 62
253
  6
CONTINUOUS
 10
-1.5980576112
 20
3.1568209619
 11
-1.5967863643
 21
3.0631396561
  0
LINE
  5
364
100
AcDbEntity
  8
ASSI
100
AcDbLine
 62
253
  6
CONTINUOUS
 10
-1.5980576112
 20
3.1568209619
 11
-1.5967863643
 21
3.0631396561
  0
LINE
  5
365
100
AcDbEntity
  8
RACCORDO
100
AcDbLine
 62
253
  6
CONTINUOUS
 10
-1.8974110253
 20
2.9243004808
 11
-1.8957472541
 21
2.7809946348
  0
LINE
  5
366
100
AcDbEntity
  8
ASSI
100
AcDbLine
 62
253
  6
CONTINUOUS
 10
-1.8974110253
 20
2.9243004808
 11
-1.8957472541
 21
2.7809946348
  0
LINE
  5
367
100
AcDbEntity
  8
RACCORDO
100
AcDbLine
 62
253
  6
CONTINUOUS
 10
-1.5992893653
 20
3.2982463423
 11
-1.5980576112
 21
3.1568209619
  0
LINE
  5
368
100
AcDbEntity
  8
ASSI
100
AcDbLine
 62
253
  6
CONTINUOUS
 10
-1.5992893653
 20
3.2982463423
 11
-1.5980576112
 21
3.1568209619
  0
LINE
  5
369
100
AcDbEntity
  8
RACCORDO
100
AcDbLine
 62
253
  6
CONTINUOUS
 10
-1.8991206891
 20
3.1690288725
 11
-1.8974110253
 21
2.9243004808
  0
LINE
  5
36A
100
AcDbEntity
  8
ASSI
100
AcDbLine
 62
253
  6
CONTINUOUS
 10
-1.8991206891
 20
3.1690288725
 11
-1.8974110253
 21
2.9243004808
  0
LINE
  5
36B
100
AcDbEntity
  8
RACCORDO
100
AcDbLine
 62
253
  6
CONTINUOUS
 10
-1.5999735757
 20
3.4715670065
 11
-1.5992893653
 21
3.2982463423
  0
LINE
  5
36C
100
AcDbEntity
  8
ASSI
100
AcDbLine
 62
253
  6
CONTINUOUS
 10
-1.5999735757
 20
3.4715670065
 11
-1.5992893653
 21
3.2982463423
  0
LINE
  5
36D
100
AcDbEntity
  8
RACCORDO
100
AcDbLine
 62
253
  6
CONTINUOUS
 10
-1.8999740684
 20
3.4995149065
 11
-1.8991206891
 21
3.1690288725
  0
LINE
  5
36E
100
AcDbEntity
  8
ASSI
100
AcDbLine
 62
253
  6
CONTINUOUS
 10
-1.8999740684
 20
3.4995149065
 11
-1.8991206891
 21
3.1690288725
  0
LWPOLYLINE
  5
36F
100
AcDbEntity
  8
RACCORDO
100
AcDbPolyline
 62
253
  6
CONTINUOUS
 90
3
 70
0
 10
-1.9016580266
 20
6.2293949626
 10
-1.9008543108
 20
4.8643773794
 10
-1.8999740684
 20
3.4995149065
  0
LWPOLYLINE
  5
370
100
AcDbEntity
  8
ASSI
100
AcDbPolyline
 62
253
  6
CONTINUOUS
 90
3
 70
0
 10
-1.9016580266
 20
6.2293949626
 10
-1.9008543108
 20
4.8643773794
 10
-1.8999740684
 20
3.4995149065
  0
LWPOLYLINE
  5
371
100
AcDbEntity
  8
RACCORDO
100
AcDbPolyline
 62
253
  6
CONTINUOUS
 90
3
 70
0
 10
-1.6017037179
 20
6.2390527859
 10
-1.6009000022
 20
4.875003526
 10
-1.5999735757
 20
3.4715670065
  0
LWPOLYLINE
  5
372
100
AcDbEntity
  8
ASSI
100
AcDbPolyline
 62
253
  6
CONTINUOUS
 90
3
 70
0
 10
-1.6017037179
 20
6.2390527859
 10
-1.6009000022
 20
4.875003526
 10
-1.5999735757
 20
3.4715670065
  0
LWPOLYLINE
  5
373
100
AcDbEntity
  8
RACCORDO
100
AcDbPolyline
 62
253
  6
CONTINUOUS
 90
3
 70
0
 10
-1.9036100263
 20
10.3252373928
 10
-1.9030358843
 20
8.9598390686
 10
-1.9016580266
 20
6.2293949626
  0
LWPOLYLINE
  5
374
100
AcDbEntity
  8
ASSI
100
AcDbPolyline
 62
253
  6
CONTINUOUS
 90
3
 70
0
 10
-1.9036100263
 20
10.3252373928
 10
-1.9030358843
 20
8.9598390686
 10
-1.9016580266
 20
6.2293949626
  0
LWPOLYLINE
  5
375
100
AcDbEntity
  8
RACCORDO
100
AcDbPolyline
 62
253
  6
CONTINUOUS
 90
3
 70
0
 10
-1.6036557177
 20
10.3319899625
 10
-1.6030815757
 20
8.9675460041
 10
-1.6017037179
 20
6.2390527859
  0
LWPOLYLINE
  5
376
100
AcDbEntity
  8
ASSI
100
AcDbPolyline
 62
253
  6
CONTINUOUS
 90
3
 70
0
 10
-1.6036557177
 20
10.3319899625
 10
-1.6030815757
 20
8.9675460041
 10
-1.6017037179
 20
6.2390527859
  0
LINE
  5
377
100
AcDbEntity
  8
RACCORDO
100
AcDbLine
 62
253
  6
CONTINUOUS
 10
-1.9048731813
 20
14.4219682587
 11
-1.9036100263
 21
10.3252373928
  0
LINE
  5
378
100
AcDbEntity
  8
ASSI
100
AcDbLine
 62
253
  6
CONTINUOUS
 10
-1.9048731813
 20
14.4219682587
 11
-1.9036100263
 21
10.3252373928
  0
LINE
  5
379
100
AcDbEntity
  8
RACCORDO
100
AcDbLine
 62
253
  6
CONTINUOUS
 10
-1.6049188727
 20
14.4258291438
 11
-1.6036557177
 21
10.3319899625
  0
LINE
  5
37A
100
AcDbEntity
  8
ASSI
100
AcDbLine
 62
253
  6
CONTINUOUS
 10
-1.6049188727
 20
14.4258291438
 11
-1.6036557177
 21
10.3319899625
  0
LINE
  5
37B
100
AcDbEntity
  8
RACCORDO
100
AcDbLine
 62
253
  6
CONTINUOUS
 10
-1.9054473659
 20
18.5192068085
 11
-1.9048731813
 21
14.4219682587
  0
LINE
  5
37C
100
AcDbEntity
  8
ASSI
100
AcDbLine
 62
253
  6
CONTINUOUS
 10
-1.9054473659
 20
18.5192068085
 11
-1.9048731813
 21
14.4219682587
  0
LINE
  5
37D
100
AcDbEntity
  8
RACCORDO
100
AcDbLine
 62
253
  6
CONTINUOUS
 10
-1.6054930574
 20
18.5201756367
 11
-1.6049188727
 21
14.4258291438
  0
LINE
  5
37E
100
AcDbEntity
  8
ASSI
100
AcDbLine
 62
253
  6
CONTINUOUS
 10
-1.6054930574
 20
18.5201756367
 11
-1.6049188727
 21
14.4258291438
  0
LINE
  5
37F
100
AcDbEntity
  8
RACCORDO
100
AcDbLine
 62
7
  6
CONTINUOUS
 10
-1.485
 20
37.9812952155
 11
-1.485
 21
1.7887047845
  0
LINE
  5
380
100
AcDbEntity
  8
ASSI
100
AcDbLine
 62
7
  6
CONTINUOUS
 10
-1.485
 20
37.9812952155
 11
-1.485
 21
1.7887047845
  0
LINE
  5
381
100
AcDbEntity
  8
RACCORDO
100
AcDbLine
 62
253
  6
CONTINUOUS
 10
-1.9053325269
 20
22.6165722776
 11
-1.9054473659
 21
18.5192068085
  0
LINE
  5
382
100
AcDbEntity
  8
ASSI
100
AcDbLine
 62
253
  6
CONTINUOUS
 10
-1.9053325269
 20
22.6165722776
 11
-1.9054473659
 21
18.5192068085
  0
LINE
  5
383
100
AcDbEntity
  8
RACCORDO
100
AcDbLine
 62
253
  6
CONTINUOUS
 10
-1.6053782183
 20
22.6146489588
 11
-1.6054930574
 21
18.5201756367
  0
LINE
  5
384
100
AcDbEntity
  8
ASSI
100
AcDbLine
 62
253
  6
CONTINUOUS
 10
-1.6053782183
 20
22.6146489588
 11
-1.6054930574
 21
18.5201756367
  0
LINE
  5
385
100
AcDbEntity
  8
RACCORDO
100
AcDbLine
 62
253
  6
CONTINUOUS
 10
-1.9045286748
 20
26.7136839095
 11
-1.9053325269
 21
22.6165722776
  0
LINE
  5
386
100
AcDbEntity
  8
ASSI
100
AcDbLine
 62
253
  6
CONTINUOUS
 10
-1.9045286748
 20
26.7136839095
 11
-1.9053325269
 21
22.6165722776
  0
LINE
  5
387
100
AcDbEntity
  8
RACCORDO
100
AcDbLine
 62
253
  6
CONTINUOUS
 10
-1.6045743662
 20
26.7088686223
 11
-1.6053782183
 21
22.6146489588
  0
LINE
  5
388
100
AcDbEntity
  8
ASSI
100
AcDbLine
 62
253
  6
CONTINUOUS
 10
-1.6045743662
 20
26.7088686223
 11
-1.6053782183
 21
22.6146489588
  0
LINE
  5
389
100
AcDbEntity
  8
RACCORDO
100
AcDbLine
 62
253
  6
CONTINUOUS
 10
-1.9030358843
 20
30.8101609314
 11
-1.9045286748
 21
26.7136839095
  0
LINE
  5
38A
100
AcDbEntity
  8
ASSI
100
AcDbLine
 62
253
  6
CONTINUOUS
 10
-1.9030358843
 20
30.8101609314
 11
-1.9045286748
 21
26.7136839095
  0
LINE
  5
38B
100
AcDbEntity
  8
RACCORDO
100
AcDbLine
 62
253
  6
CONTINUOUS
 10
-1.6030815756
 20
30.8024541618
 11
-1.6045743662
 21
26.7088686223
  0
LINE
  5
38C
100
AcDbEntity
  8
ASSI
100
AcDbLine
 62
253
  6
CONTINUOUS
 10
-1.6030815756
 20
30.8024541618
 11
-1.6045743662
 21
26.7088686223
  0
LINE
  5
38D
100
AcDbEntity
  8
RACCORDO
100
AcDbLine
 62
253
  6
CONTINUOUS
 10
-1.9008543108
 20
34.9056226206
 11
-1.9030358843
 21
30.8101609314
  0
LINE
  5
38E
100
AcDbEntity
  8
ASSI
100
AcDbLine
 62
253
  6
CONTINUOUS
 10
-1.9008543108
 20
34.9056226206
 11
-1.9030358843
 21
30.8101609314
  0
LINE
  5
38F
100
AcDbEntity
  8
RACCORDO
100
AcDbLine
 62
253
  6
CONTINUOUS
 10
-1.6009000022
 20
34.8949965425
 11
-1.6030815756
 21
30.8024541618
  0
LINE
  5
390
100
AcDbEntity
  8
ASSI
100
AcDbLine
 62
253
  6
CONTINUOUS
 10
-1.6009000022
 20
34.8949965425
 11
-1.6030815756
 21
30.8024541618
  0
LINE
  5
391
100
AcDbEntity
  8
RACCORDO
100
AcDbLine
 62
253
  6
CONTINUOUS
 10
-1.8991206901
 20
36.6009710541
 11
-1.9008543108
 21
34.9056226206
  0
LINE
  5
392
100
AcDbEntity
  8
ASSI
100
AcDbLine
 62
253
  6
CONTINUOUS
 10
-1.8991206901
 20
36.6009710541
 11
-1.9008543108
 21
34.9056226206
  0
LINE
  5
393
100
AcDbEntity
  8
RACCORDO
100
AcDbLine
 62
253
  6
CONTINUOUS
 10
-1.5995077564
 20
36.434176225
 11
-1.6009000022
 21
34.8949965425
  0
LINE
  5
394
100
AcDbEntity
  8
ASSI
100
AcDbLine
 62
253
  6
CONTINUOUS
 10
-1.5995077564
 20
36.434176225
 11
-1.6009000022
 21
34.8949965425
  0
LINE
  5
395
100
AcDbEntity
  8
RACCORDO
100
AcDbLine
 62
253
  6
CONTINUOUS
 10
-1.8974110276
 20
36.8456994616
 11
-1.8991206901
 21
36.6009710541
  0
LINE
  5
396
100
AcDbEntity
  8
ASSI
100
AcDbLine
 62
253
  6
CONTINUOUS
 10
-1.8974110276
 20
36.8456994616
 11
-1.8991206901
 21
36.6009710541
  0
LINE
  5
397
100
AcDbEntity
  8
RACCORDO
100
AcDbLine
 62
253
  6
CONTINUOUS
 10
-1.5984174545
 20
36.5793785009
 11
-1.5995077564
 21
36.434176225
  0
LINE
  5
398
100
AcDbEntity
  8
ASSI
100
AcDbLine
 62
253
  6
CONTINUOUS
 10
-1.5984174545
 20
36.5793785009
 11
-1.5995077564
 21
36.434176225
  0
LINE
  5
399
100
AcDbEntity
  8
RACCORDO
100
AcDbLine
 62
253
  6
CONTINUOUS
 10
-1.8957472569
 20
36.9890053217
 11
-1.8974110276
 21
36.8456994616
  0
LINE
  5
39A
100
AcDbEntity
  8
ASSI
100
AcDbLine
 62
253
  6
CONTINUOUS
 10
-1.8957472569
 20
36.9890053217
 11
-1.8974110276
 21
36.8456994616
  0
LINE
  5
39B
100
AcDbEntity
  8
RACCORDO
100
AcDbLine
 62
253
  6
CONTINUOUS
 10
-1.5972406984
 20
36.6770269339
 11
-1.5984174545
 21
36.5793785009
  0
LINE
  5
39C
100
AcDbEntity
  8
ASSI
100
AcDbLine
 62
253
  6
CONTINUOUS
 10
-1.5972406984
 20
36.6770269339
 11
-1.5984174545
 21
36.5793785009
  0
LINE
  5
39D
100
AcDbEntity
  8
RACCORDO
100
AcDbLine
 62
253
  6
CONTINUOUS
 10
-1.8943637822
 20
37.0735387372
 11
-1.8957472569
 21
36.9890053217
  0
LINE
  5
39E
100
AcDbEntity
  8
ASSI
100
AcDbLine
 62
253
  6
CONTINUOUS
 10
-1.8943637822
 20
37.0735387372
 11
-1.8957472569
 21
36.9890053217
  0
LINE
  5
39F
100
AcDbEntity
  8
RACCORDO
100
AcDbLine
 62
253
  6
CONTINUOUS
 10
-1.5960515076
 20
36.7487329582
 11
-1.5972406984
 21
36.6770269339
  0
LINE
  5
3A0
100
AcDbEntity
  8
ASSI
100
AcDbLine
 62
253
  6
CONTINUOUS
 10
-1.5960515076
 20
36.7487329582
 11
-1.5972406984
 21
36.6770269339
  0
LINE
  5
3A1
100
AcDbEntity
  8
RACCORDO
100
AcDbLine
 62
253
  6
CONTINUOUS
 10
-1.5949801432
 20
36.7987424299
 11
-1.5960515076
 21
36.7487329582
  0
LINE
  5
3A2
100
AcDbEntity
  8
ASSI
100
AcDbLine
 62
253
  6
CONTINUOUS
 10
-1.5949801432
 20
36.7987424299
 11
-1.5960515076
 21
36.7487329582
  0
LINE
  5
3A3
100
AcDbEntity
  8
RACCORDO
100
AcDbLine
 62
253
  6
CONTINUOUS
 10
-1.8931604198
 20
37.1291352913
 11
-1.8943637822
 21
37.0735387372
  0
LINE
  5
3A4
100
AcDbEntity
  8
ASSI
100
AcDbLine
 62
253
  6
CONTINUOUS
 10
-1.8931604198
 20
37.1291352913
 11
-1.8943637822
 21
37.0735387372
  0
LINE
  5
3A5
100
AcDbEntity
  8
RACCORDO
100
AcDbLine
 62
253
  6
CONTINUOUS
 10
-1.5941157492
 20
36.8315187305
 11
-1.5949801432
 21
36.7987424299
  0
LINE
  5
3A6
100
AcDbEntity
  8
ASSI
100
AcDbLine
 62
253
  6
CONTINUOUS
 10
-1.5941157492
 20
36.8315187305
 11
-1.5949801432
 21
36.7987424299
  0
LINE
  5
3A7
100
AcDbEntity
  8
RACCORDO
100
AcDbLine
 62
253
  6
CONTINUOUS
 10
-1.8922118371
 20
37.1633371117
 11
-1.8931604198
 21
37.1291352913
  0
LINE
  5
3A8
100
AcDbEntity
  8
ASSI
100
AcDbLine
 62
253
  6
CONTINUOUS
 10
-1.8922118371
 20
37.1633371117
 11
-1.8931604198
 21
37.1291352913
  0
LINE
  5
3A9
100
AcDbEntity
  8
RACCORDO
100
AcDbLine
 62
253
  6
CONTINUOUS
 10
-1.5932059713
 20
36.8599797395
 11
-1.5941157492
 21
36.8315187305
  0
LINE
  5
3AA
100
AcDbEntity
  8
ASSI
100
AcDbLine
 62
253
  6
CONTINUOUS
 10
-1.5932059713
 20
36.8599797395
 11
-1.5941157492
 21
36.8315187305
  0
LINE
  5
3AB
100
AcDbEntity
  8
RACCORDO
100
AcDbLine
 62
253
  6
CONTINUOUS
 10
-1.8915614191
 20
37.1824275146
 11
-1.8922118371
 21
37.1633371117
  0
LINE
  5
3AC
100
AcDbEntity
  8
ASSI
100
AcDbLine
 62
253
  6
CONTINUOUS
 10
-1.8915614191
 20
37.1824275146
 11
-1.8922118371
 21
37.1633371117
  0
LINE
  5
3AD
100
AcDbEntity
  8
RACCORDO
100
AcDbLine
 62
253
  6
CONTINUOUS
 10
-1.5925776261
 20
36.8764498249
 11
-1.5932059713
 21
36.8599797395
  0
LINE
  5
3AE
100
AcDbEntity
  8
ASSI
100
AcDbLine
 62
253
  6
CONTINUOUS
 10
-1.5925776261
 20
36.8764498249
 11
-1.5932059713
 21
36.8599797395
  0
LWPOLYLINE
  5
3AF
100
AcDbEntity
  8
RACCORDO
100
AcDbPolyline
 62
253
  6
CONTINUOUS
 90
5
 70
0
 10
-1.8898863354
 20
37.216738764
 10
-1.8902262687
 20
37.2114334086
 10
-1.8905636915
 20
37.2053443953
 10
-1.8908986037
 20
37.1984766163
 10
-1.8915614191
 20
37.1824275146
  0
LWPOLYLINE
  5
3B0
100
AcDbEntity
  8
ASSI
100
AcDbPolyline
 62
253
  6
CONTINUOUS
 90
5
 70
0
 10
-1.8898863354
 20
37.216738764
 10
-1.8902262687
 20
37.2114334086
 10
-1.8905636915
 20
37.2053443953
 10
-1.8908986037
 20
37.1984766163
 10
-1.8915614191
 20
37.1824275146
  0
LWPOLYLINE
  5
3B1
100
AcDbEntity
  8
RACCORDO
100
AcDbPolyline
 62
253
  6
CONTINUOUS
 90
8
 70
0
 10
-1.5899320269
 20
36.9212964381
 10
-1.5902718428
 20
36.9175778973
 10
-1.5906091822
 20
36.9133179896
 10
-1.590944045
 20
36.9085167151
 10
-1.5912767045
 20
36.9031692765
 10
-1.5916068874
 20
36.8972804712
 10
-1.5919337741
 20
36.8908646906
 10
-1.5925776261
 20
36.8764498249
  0
LWPOLYLINE
  5
3B2
100
AcDbEntity
  8
ASSI
100
AcDbPolyline
 62
253
  6
CONTINUOUS
 90
8
 70
0
 10
-1.5899320269
 20
36.9212964381
 10
-1.5902718428
 20
36.9175778973
 10
-1.5906091822
 20
36.9133179896
 10
-1.590944045
 20
36.9085167151
 10
-1.5912767045
 20
36.9031692765
 10
-1.5916068874
 20
36.8972804712
 10
-1.5919337741
 20
36.8908646906
 10
-1.5925776261
 20
36.8764498249
  0
LWPOLYLINE
  5
3B3
100
AcDbEntity
  8
RACCORDO
100
AcDbPolyline
 62
253
  6
CONTINUOUS
 90
40
 70
0
 10
-1.5899320269
 20
36.9212964381
 10
-1.5902108854
 20
36.933169815
 10
-1.590973945
 20
36.9450240076
 10
-1.5922199728
 20
36.9568398623
 10
-1.5939469554
 20
36.9685982878
 10
-1.5961521025
 20
36.9802802854
 10
-1.5988318512
 20
36.9918669797
 10
-1.6019818717
 20
37.0033396497
 10
-1.6055970742
 20
37.0146797582
 10
-1.6096716176
 20
37.0258689826
 10
-1.6141989184
 20
37.0368892438
 10
-1.6191716617
 20
37.0477227358
 10
-1.6245818126
 20
37.0583519544
 10
-1.6304206298
 20
37.0687597253
 10
-1.6366786792
 20
37.0789292323
 10
-1.6433458493
 20
37.0888440438
 10
-1.6504113677
 20
37.0984881401
 10
-1.6578638182
 20
37.1078459386
 10
-1.6656911596
 20
37.1169023195
 10
-1.6738807448
 20
37.1256426499
 10
-1.6824193414
 20
37.1340528075
 10
-1.6912931532
 20
37.1421192037
 10
-1.7004878424
 20
37.1498288052
 10
-1.7099885526
 20
37.1571691551
 10
-1.719779933
 20
37.1641283933
 10
-1.7298461632
 20
37.1706952753
 10
-1.7401709787
 20
37.1768591907
 10
-1.750737697
 20
37.1826101801
 10
-1.7615292451
 20
37.1879389513
 10
-1.7725281865
 20
37.1928368944
 10
-1.7837167495
 20
37.1972960955
 10
-1.7950768563
 20
37.2013093497
 10
-1.8065901517
 20
37.2048701724
 10
-1.8182380331
 20
37.2079728103
 10
-1.8300016804
 20
37.2106122504
 10
-1.8418620865
 20
37.2127842278
 10
-1.8538000878
 20
37.2144852332
 10
-1.8657963956
 20
37.2157125183
 10
-1.8778316268
 20
37.2164641
 10
-1.8898863354
 20
37.216738764
  0
LWPOLYLINE
  5
3B4
100
AcDbEntity
  8
ASSI
100
AcDbPolyline
 62
253
  6
CONTINUOUS
 90
40
 70
0
 10
-1.5899320269
 20
36.9212964381
 10
-1.5902108854
 20
36.933169815
 10
-1.590973945
 20
36.9450240076
 10
-1.5922199728
 20
36.9568398623
 10
-1.5939469554
 20
36.9685982878
 10
-1.5961521025
 20
36.9802802854
 10
-1.5988318512
 20
36.9918669797
 10
-1.6019818717
 20
37.0033396497
 10
-1.6055970742
 20
37.0146797582
 10
-1.6096716176
 20
37.0258689826
 10
-1.6141989184
 20
37.0368892438
 10
-1.6191716617
 20
37.0477227358
 10
-1.6245818126
 20
37.0583519544
 10
-1.6304206298
 20
37.0687597253
 10
-1.6366786792
 20
37.0789292323
 10
-1.6433458493
 20
37.0888440438
 10
-1.6504113677
 20
37.0984881401
 10
-1.6578638182
 20
37.1078459386
 10
-1.6656911596
 20
37.1169023195
 10
-1.6738807448
 20
37.1256426499
 10
-1.6824193414
 20
37.1340528075
 10
-1.6912931532
 20
37.1421192037
 10
-1.7004878424
 20
37.1498288052
 10
-1.7099885526
 20
37.1571691551
 10
-1.719779933
 20
37.1641283933
 10
-1.7298461632
 20
37.1706952753
 10
-1.7401709787
 20
37.1768591907
 10
-1.750737697
 20
37.1826101801
 10
-1.7615292451
 20
37.1879389513
 10
-1.7725281865
 20
37.1928368944
 10
-1.7837167495
 20
37.1972960955
 10
-1.7950768563
 20
37.2013093497
 10
-1.8065901517
 20
37.2048701724
 10
-1.8182380331
 20
37.2079728103
 10
-1.8300016804
 20
37.2106122504
 10
-1.8418620865
 20
37.2127842278
 10
-1.8538000878
 20
37.2144852332
 10
-1.8657963956
 20
37.2157125183
 10
-1.8778316268
 20
37.2164641
 10
-1.8898863354
 20
37.216738764
  0
LWPOLYLINE
  5
3B5
100
AcDbEntity
  8
RACCORDO
100
AcDbPolyline
 62
253
  6
CONTINUOUS
 90
40
 70
0
 10
-1.5899320269
 20
2.8487035619
 10
-1.5902108855
 20
2.8368301838
 10
-1.5909739452
 20
2.8249759902
 10
-1.5922199732
 20
2.8131601344
 10
-1.5939469561
 20
2.8014017079
 10
-1.5961521036
 20
2.7897197095
 10
-1.5988318527
 20
2.7781330144
 10
-1.6019818736
 20
2.7666603438
 10
-1.6055970766
 20
2.7553202346
 10
-1.6096716206
 20
2.7441310097
 10
-1.6141989219
 20
2.7331107482
 10
-1.6191716657
 20
2.7222772559
 10
-1.6245818172
 20
2.7116480371
 10
-1.6304206349
 20
2.701240266
 10
-1.6366786848
 20
2.691070759
 10
-1.6433458554
 20
2.6811559475
 10
-1.6504113742
 20
2.6715118514
 10
-1.6578638251
 20
2.6621540531
 10
-1.6656911669
 20
2.6530976725
 10
-1.6738807523
 20
2.6443573424
 10
-1.6824193492
 20
2.6359471851
 10
-1.6912931612
 20
2.6278807893
 10
-1.7004878504
 20
2.6201711883
 10
-1.7099885607
 20
2.6128308389
 10
-1.719779941
 20
2.6058716012
 10
-1.7298461711
 20
2.5993047198
 10
-1.7401709864
 20
2.5931408049
 10
-1.7507377045
 20
2.5873898161
 10
-1.7615292522
 20
2.5820610453
 10
-1.7725281931
 20
2.5771631027
 10
-1.7837167557
 20
2.5727039021
 10
-1.795076862
 20
2.5686906484
 10
-1.8065901568
 20
2.5651298261
 10
-1.8182380375
 20
2.5620271886
 10
-1.8300016842
 20
2.5593877489
 10
-1.8418620896
 20
2.5572157717
 10
-1.8538000902
 20
2.5555147665
 10
-1.8657963972
 20
2.5542874816
 10
-1.8778316276
 20
2.5535359
 10
-1.8898863354
 20
2.553261236
  0
LWPOLYLINE
  5
3B6
100
AcDbEntity
  8
ASSI
100
AcDbPolyline
 62
253
  6
CONTINUOUS
 90
40
 70
0
 10
-1.5899320269
 20
2.8487035619
 10
-1.5902108855
 20
2.8368301838
 10
-1.5909739452
 20
2.8249759902
 10
-1.5922199732
 20
2.8131601344
 10
-1.5939469561
 20
2.8014017079
 10
-1.5961521036
 20
2.7897197095
 10
-1.5988318527
 20
2.7781330144
 10
-1.6019818736
 20
2.7666603438
 10
-1.6055970766
 20
2.7553202346
 10
-1.6096716206
 20
2.7441310097
 10
-1.6141989219
 20
2.7331107482
 10
-1.6191716657
 20
2.7222772559
 10
-1.6245818172
 20
2.7116480371
 10
-1.6304206349
 20
2.701240266
 10
-1.6366786848
 20
2.691070759
 10
-1.6433458554
 20
2.6811559475
 10
-1.6504113742
 20
2.6715118514
 10
-1.6578638251
 20
2.6621540531
 10
-1.6656911669
 20
2.6530976725
 10
-1.6738807523
 20
2.6443573424
 10
-1.6824193492
 20
2.6359471851
 10
-1.6912931612
 20
2.6278807893
 10
-1.7004878504
 20
2.6201711883
 10
-1.7099885607
 20
2.6128308389
 10
-1.719779941
 20
2.6058716012
 10
-1.7298461711
 20
2.5993047198
 10
-1.7401709864
 20
2.5931408049
 10
-1.7507377045
 20
2.5873898161
 10
-1.7615292522
 20
2.5820610453
 10
-1.7725281931
 20
2.5771631027
 10
-1.7837167557
 20
2.5727039021
 10
-1.795076862
 20
2.5686906484
 10
-1.8065901568
 20
2.5651298261
 10
-1.8182380375
 20
2.5620271886
 10
-1.8300016842
 20
2.5593877489
 10
-1.8418620896
 20
2.5572157717
 10
-1.8538000902
 20
2.5555147665
 10
-1.8657963972
 20
2.5542874816
 10
-1.8778316276
 20
2.5535359
 10
-1.8898863354
 20
2.553261236
  0
LWPOLYLINE
  5
3B7
100
AcDbEntity
  8
RACCORDO
100
AcDbPolyline
 62
253
  6
CONTINUOUS
 90
16
 70
0
 10
-1.6000197599
 20
3.5110811312
 10
-1.6004659805
 20
3.5106205044
 10
-1.6013872779
 20
3.5101606083
 10
-1.6027821909
 20
3.5097021722
 10
-1.6046485067
 20
3.5092459235
 10
-1.606983265
 20
3.5087925858
 10
-1.6097827626
 20
3.5083428781
 10
-1.6130425588
 20
3.5078975138
 10
-1.616757483
 20
3.5074571994
 10
-1.6209216426
 20
3.5070226332
 10
-1.6255284325
 20
3.5065945045
 10
-1.6305705454
 20
3.5061734925
 10
-1.6360399836
 20
3.505760265
 10
-1.6419280714
 20
3.5053554773
 10
-1.6482254694
 20
3.5049597716
 10
-1.6549221885
 20
3.5045737756
  0
LWPOLYLINE
  5
3B8
100
AcDbEntity
  8
ASSI
100
AcDbPolyline
 62
253
  6
CONTINUOUS
 90
16
 70
0
 10
-1.6000197599
 20
3.5110811312
 10
-1.6004659805
 20
3.5106205044
 10
-1.6013872779
 20
3.5101606083
 10
-1.6027821909
 20
3.5097021722
 10
-1.6046485067
 20
3.5092459235
 10
-1.606983265
 20
3.5087925858
 10
-1.6097827626
 20
3.5083428781
 10
-1.6130425588
 20
3.5078975138
 10
-1.616757483
 20
3.5074571994
 10
-1.6209216426
 20
3.5070226332
 10
-1.6255284325
 20
3.5065945045
 10
-1.6305705454
 20
3.5061734925
 10
-1.6360399836
 20
3.505760265
 10
-1.6419280714
 20
3.5053554773
 10
-1.6482254694
 20
3.5049597716
 10
-1.6549221885
 20
3.5045737756
  0
LWPOLYLINE
  5
3B9
100
AcDbEntity
  8
RACCORDO
100
AcDbPolyline
 62
253
  6
CONTINUOUS
 90
18
 70
0
 10
-1.6000197599
 20
36.2589188688
 10
-1.600465979
 20
36.2593794956
 10
-1.601387275
 20
36.2598393918
 10
-1.6027821866
 20
36.2602978279
 10
-1.6046485012
 20
36.2607540767
 10
-1.6069832584
 20
36.2612074145
 10
-1.6097827549
 20
36.2616571222
 10
-1.6130425501
 20
36.2621024865
 10
-1.6167574734
 20
36.262542801
 10
-1.6209216322
 20
36.2629773673
 10
-1.6255284214
 20
36.263405496
 10
-1.6305705337
 20
36.2638265081
 10
-1.6360399713
 20
36.2642397357
 10
-1.6419280587
 20
36.2646445234
 10
-1.6482254563
 20
36.2650402291
 10
-1.6549221752
 20
36.2654262252
 10
-1.6620075931
 20
36.2658018993
 10
-1.6772989718
 20
36.2665199157
  0
LWPOLYLINE
  5
3BA
100
AcDbEntity
  8
ASSI
100
AcDbPolyline
 62
253
  6
CONTINUOUS
 90
18
 70
0
 10
-1.6000197599
 20
36.2589188688
 10
-1.600465979
 20
36.2593794956
 10
-1.601387275
 20
36.2598393918
 10
-1.6027821866
 20
36.2602978279
 10
-1.6046485012
 20
36.2607540767
 10
-1.6069832584
 20
36.2612074145
 10
-1.6097827549
 20
36.2616571222
 10
-1.6130425501
 20
36.2621024865
 10
-1.6167574734
 20
36.262542801
 10
-1.6209216322
 20
36.2629773673
 10
-1.6255284214
 20
36.263405496
 10
-1.6305705337
 20
36.2638265081
 10
-1.6360399713
 20
36.2642397357
 10
-1.6419280587
 20
36.2646445234
 10
-1.6482254563
 20
36.2650402291
 10
-1.6549221752
 20
36.2654262252
 10
-1.6620075931
 20
36.2658018993
 10
-1.6772989718
 20
36.2665199157
  0
LINE
  5
3BB
100
AcDbEntity
  8
RACCORDO
100
AcDbLine
 62
7
  6
CONTINUOUS
 10
-73.4794219805
 20
2.553261236
 11
-67.4210114541
 21
1.485
  0
LINE
  5
3BC
100
AcDbEntity
  8
ASSI
100
AcDbLine
 62
7
  6
CONTINUOUS
 10
-73.4794219805
 20
2.553261236
 11
-67.4210114541
 21
1.485
  0
LWPOLYLINE
  5
3BD
100
AcDbEntity
  8
RACCORDO
100
AcDbPolyline
 62
253
  6
CONTINUOUS
 90
3
 70
0
 10
-74.3040802631
 20
3.4995676395
 10
-74.3047928315
 20
3.4995321144
 10
-74.3050302732
 20
3.4995149082
  0
LWPOLYLINE
  5
3BE
100
AcDbEntity
  8
ASSI
100
AcDbPolyline
 62
253
  6
CONTINUOUS
 90
3
 70
0
 10
-74.3040802631
 20
3.4995676395
 10
-74.3047928315
 20
3.4995321144
 10
-74.3050302732
 20
3.4995149082
  0
LINE
  5
3BF
100
AcDbEntity
  8
RACCORDO
100
AcDbLine
 62
253
  6
CONTINUOUS
 10
-74.2934563243
 20
3.5000170663
 11
-74.3040802631
 21
3.4995676395
  0
LINE
  5
3C0
100
AcDbEntity
  8
ASSI
100
AcDbLine
 62
253
  6
CONTINUOUS
 10
-74.2934563243
 20
3.5000170663
 11
-74.3040802631
 21
3.4995676395
  0
LINE
  5
3C1
100
AcDbEntity
  8
RACCORDO
100
AcDbLine
 62
253
  6
CONTINUOUS
 10
-74.0104890853
 20
3.5110811312
 11
-74.2934563243
 21
3.5000170663
  0
LINE
  5
3C2
100
AcDbEntity
  8
ASSI
100
AcDbLine
 62
253
  6
CONTINUOUS
 10
-74.0104890853
 20
3.5110811312
 11
-74.2934563243
 21
3.5000170663
  0
LINE
  5
3C3
100
AcDbEntity
  8
RACCORDO
100
AcDbLine
 62
253
  6
CONTINUOUS
 10
-73.4325632491
 20
2.8487035619
 11
-67.4210114541
 21
1.7887047845
  0
LINE
  5
3C4
100
AcDbEntity
  8
ASSI
100
AcDbLine
 62
253
  6
CONTINUOUS
 10
-73.4325632491
 20
2.8487035619
 11
-67.4210114541
 21
1.7887047845
  0
LWPOLYLINE
  5
3C5
100
AcDbEntity
  8
RACCORDO
100
AcDbPolyline
 62
253
  6
CONTINUOUS
 90
49
 70
0
 10
-74.0104890853
 20
3.5110811312
 10
-74.0094438978
 20
3.4912905035
 10
-74.0078431958
 20
3.4715670065
 10
-74.0056869792
 20
3.4519106401
 10
-74.0029726225
 20
3.4323052536
 10
-73.9997027513
 20
3.4127669978
 10
-73.9958852422
 20
3.3933443253
 10
-73.9915187903
 20
3.374038005
 10
-73.9866047006
 20
3.354847268
 10
-73.9811547644
 20
3.3358182602
 10
-73.9751677077
 20
3.3169514366
 10
-73.9686448045
 20
3.2982463423
 10
-73.9616016686
 20
3.279747758
 10
-73.9540370557
 20
3.2614561705
 10
-73.9459522101
 20
3.2433710931
 10
-73.937366479
 20
3.2255358467
 10
-73.9282786484
 20
3.2079510069
 10
-73.9186899322
 20
3.1906159982
 10
-73.9086233191
 20
3.1735724148
 10
-73.8980776621
 20
3.1568209619
 10
-73.8870541082
 20
3.1403609344
 10
-73.8755790866
 20
3.1242318112
 10
-73.863651522
 20
3.1084343972
 10
-73.8512724898
 20
3.0929678876
 10
-73.8384716451
 20
3.0778693467
 10
-73.8252479781
 20
3.0631396561
 10
-73.8116024985
 20
3.0487779342
 10
-73.7975678912
 20
3.0348186003
 10
-73.7831432144
 20
3.0212626111
 10
-73.7683294097
 20
3.0081090098
 10
-73.7531619866
 20
2.9953893453
 10
-73.7376400851
 20
2.9831046532
 10
-73.7217645651
 20
2.9712538979
 10
-73.7055735158
 20
2.9598655212
 10
-73.689066199
 20
2.9489406474
 10
-73.672243353
 20
2.9384781521
 10
-73.6551452815
 20
2.9285031043
 10
-73.6377713338
 20
2.919016672
 10
-73.6201221608
 20
2.9100176873
 10
-73.6022400183
 20
2.9015277157
 10
-73.58412428
 20
2.8935479602
 10
-73.5657755722
 20
2.8860772178
 10
-73.5472380302
 20
2.8791334453
 10
-73.5285105244
 20
2.872717796
 10
-73.5095941843
 20
2.8668291166
 10
-73.4905365344
 20
2.8614819038
 10
-73.4713534159
 20
2.8566809899
 10
-73.4520289875
 20
2.8524215426
 10
-73.4325632491
 20
2.8487035619
  0
LWPOLYLINE
  5
3C6
100
AcDbEntity
  8
ASSI
100
AcDbPolyline
 62
253
  6
CONTINUOUS
 90
49
 70
0
 10
-74.0104890853
 20
3.5110811312
 10
-74.0094438978
 20
3.4912905035
 10
-74.0078431958
 20
3.4715670065
 10
-74.0056869792
 20
3.4519106401
 10
-74.0029726225
 20
3.4323052536
 10
-73.9997027513
 20
3.4127669978
 10
-73.9958852422
 20
3.3933443253
 10
-73.9915187903
 20
3.374038005
 10
-73.9866047006
 20
3.354847268
 10
-73.9811547644
 20
3.3358182602
 10
-73.9751677077
 20
3.3169514366
 10
-73.9686448045
 20
3.2982463423
 10
-73.9616016686
 20
3.279747758
 10
-73.9540370557
 20
3.2614561705
 10
-73.9459522101
 20
3.2433710931
 10
-73.937366479
 20
3.2255358467
 10
-73.9282786484
 20
3.2079510069
 10
-73.9186899322
 20
3.1906159982
 10
-73.9086233191
 20
3.1735724148
 10
-73.8980776621
 20
3.1568209619
 10
-73.8870541082
 20
3.1403609344
 10
-73.8755790866
 20
3.1242318112
 10
-73.863651522
 20
3.1084343972
 10
-73.8512724898
 20
3.0929678876
 10
-73.8384716451
 20
3.0778693467
 10
-73.8252479781
 20
3.0631396561
 10
-73.8116024985
 20
3.0487779342
 10
-73.7975678912
 20
3.0348186003
 10
-73.7831432144
 20
3.0212626111
 10
-73.7683294097
 20
3.0081090098
 10
-73.7531619866
 20
2.9953893453
 10
-73.7376400851
 20
2.9831046532
 10
-73.7217645651
 20
2.9712538979
 10
-73.7055735158
 20
2.9598655212
 10
-73.689066199
 20
2.9489406474
 10
-73.672243353
 20
2.9384781521
 10
-73.6551452815
 20
2.9285031043
 10
-73.6377713338
 20
2.919016672
 10
-73.6201221608
 20
2.9100176873
 10
-73.6022400183
 20
2.9015277157
 10
-73.58412428
 20
2.8935479602
 10
-73.5657755722
 20
2.8860772178
 10
-73.5472380302
 20
2.8791334453
 10
-73.5285105244
 20
2.872717796
 10
-73.5095941843
 20
2.8668291166
 10
-73.4905365344
 20
2.8614819038
 10
-73.4713534159
 20
2.8566809899
 10
-73.4520289875
 20
2.8524215426
 10
-73.4325632491
 20
2.8487035619
  0
LINE
  5
3C7
100
AcDbEntity
  8
CURVE
100
AcDbLine
 62
252
  6
CONTINUOUS
 10
-74.4806074062
 20
8.9614599406
 11
-74.480527573
 21
8.9583553557
  0
LINE
  5
3C8
100
AcDbEntity
  8
CURVE
100
AcDbLine
 62
252
  6
CONTINUOUS
 10
-74.4997744075
 20
9.7342960257
 11
-74.509224741
 21
10.1378873897
  0
LINE
  5
3C9
100
AcDbEntity
  8
CURVE
100
AcDbLine
 62
252
  6
CONTINUOUS
 10
-74.5150121532
 20
10.393521195
 11
-74.5087940709
 21
10.1191317354
  0
LINE
  5
3CA
100
AcDbEntity
  8
CURVE
100
AcDbLine
 62
252
  6
CONTINUOUS
 10
-74.5288668289
 20
11.0354553355
 11
-74.5148423165
 21
10.3859213582
  0
LINE
  5
3CB
100
AcDbEntity
  8
CURVE
100
AcDbLine
 62
252
  6
CONTINUOUS
 10
-74.5420443943
 20
11.6925788063
 11
-74.5419710312
 21
11.6887745249
  0
LINE
  5
3CC
100
AcDbEntity
  8
CURVE
100
AcDbLine
 62
252
  6
CONTINUOUS
 10
-74.5662725722
 20
26.7059275963
 11
-74.5658465055
 21
26.7324201784
  0
LINE
  5
3CD
100
AcDbEntity
  8
CURVE
100
AcDbLine
 62
252
  6
CONTINUOUS
 10
-74.5360016942
 20
28.385064713
 11
-74.5201689777
 21
29.1427498616
  0
LINE
  5
3CE
100
AcDbEntity
  8
CURVE
100
AcDbLine
 62
252
  6
CONTINUOUS
 10
-74.5209044581
 20
29.1089273909
 11
-74.5116932652
 21
29.5239055333
  0
LINE
  5
3CF
100
AcDbEntity
  8
CURVE
100
AcDbLine
 62
252
  6
CONTINUOUS
 10
-74.5117923527
 20
29.5195402137
 11
-74.5019370597
 21
29.9447735263
  0
LINE
  5
3D0
100
AcDbEntity
  8
CURVE
100
AcDbLine
 62
252
  6
CONTINUOUS
 10
-74.5026389696
 20
29.9150825006
 11
-74.4918189794
 21
30.3634033287
  0
LINE
  5
3D1
100
AcDbEntity
  8
CURVE
100
AcDbLine
 62
252
  6
CONTINUOUS
 10
-74.4912916549
 20
30.3847634733
 11
-74.49182875
 21
30.3630072431
  0
LWPOLYLINE
  5
3D2
100
AcDbEntity
  8
RACCORDO
100
AcDbPolyline
 62
253
  6
CONTINUOUS
 90
25
 70
0
 10
-74.0104890853
 20
36.2589188688
 10
-74.0609181305
 20
34.8949965425
 10
-74.1069629729
 20
33.5309473342
 10
-74.1486236124
 20
32.1667712436
 10
-74.1859003893
 20
30.8024541618
 10
-74.2187929634
 20
29.4380101977
 10
-74.2473003137
 20
28.0734816791
 10
-74.2714223038
 20
26.7088686223
 10
-74.2911590703
 20
25.3441710109
 10
-74.3065100018
 20
23.9794311229
 10
-74.3174749626
 20
22.6146489588
 10
-74.3240540886
 20
21.2498245181
 10
-74.326247176
 20
19.8850000775
 10
-74.3240540891
 20
18.5201756367
 10
-74.3174749636
 20
17.155351196
 10
-74.3065100033
 20
15.7905690319
 10
-74.2911590722
 20
14.4258291438
 10
-74.2714223063
 20
13.0611315323
 10
-74.2473003167
 20
11.6965184755
 10
-74.2187929671
 20
10.3319899625
 10
-74.1859003937
 20
8.9675460041
 10
-74.1486236168
 20
7.6032289108
 10
-74.1069629765
 20
6.2390527859
 10
-74.0609181326
 20
4.875003526
 10
-74.0104890853
 20
3.5110811312
  0
LWPOLYLINE
  5
3D3
100
AcDbEntity
  8
ASSI
100
AcDbPolyline
 62
253
  6
CONTINUOUS
 90
25
 70
0
 10
-74.0104890853
 20
36.2589188688
 10
-74.0609181305
 20
34.8949965425
 10
-74.1069629729
 20
33.5309473342
 10
-74.1486236124
 20
32.1667712436
 10
-74.1859003893
 20
30.8024541618
 10
-74.2187929634
 20
29.4380101977
 10
-74.2473003137
 20
28.0734816791
 10
-74.2714223038
 20
26.7088686223
 10
-74.2911590703
 20
25.3441710109
 10
-74.3065100018
 20
23.9794311229
 10
-74.3174749626
 20
22.6146489588
 10
-74.3240540886
 20
21.2498245181
 10
-74.326247176
 20
19.8850000775
 10
-74.3240540891
 20
18.5201756367
 10
-74.3174749636
 20
17.155351196
 10
-74.3065100033
 20
15.7905690319
 10
-74.2911590722
 20
14.4258291438
 10
-74.2714223063
 20
13.0611315323
 10
-74.2473003167
 20
11.6965184755
 10
-74.2187929671
 20
10.3319899625
 10
-74.1859003937
 20
8.9675460041
 10
-74.1486236168
 20
7.6032289108
 10
-74.1069629765
 20
6.2390527859
 10
-74.0609181326
 20
4.875003526
 10
-74.0104890853
 20
3.5110811312
  0
LINE
  5
3D4
100
AcDbEntity
  8
DRAFT
100
AcDbLine
 62
7
  6
CONTINUOUS
 10
-67.4210114541
 20
18.6496608253
 11
-62.6210114541
 21
18.6664160541
  0
LWPOLYLINE
  5
3D5
100
AcDbEntity
  8
RACCORDO
100
AcDbPolyline
 62
253
  6
CONTINUOUS
 90
11
 70
0
 10
-73.4772559305
 20
2.5771631027
 10
-73.4778469108
 20
2.5727039021
 10
-73.4783562643
 20
2.5686906484
 10
-73.4787831681
 20
2.5651298261
 10
-73.4791269323
 20
2.5620271886
 10
-73.4793870015
 20
2.5593877489
 10
-73.4795629555
 20
2.5572157717
 10
-73.47965451
 20
2.5555147665
 10
-73.4796615172
 20
2.5542874816
 10
-73.4795839655
 20
2.5535359
 10
-73.4794219805
 20
2.553261236
  0
LWPOLYLINE
  5
3D6
100
AcDbEntity
  8
ASSI
100
AcDbPolyline
 62
253
  6
CONTINUOUS
 90
11
 70
0
 10
-73.4772559305
 20
2.5771631027
 10
-73.4778469108
 20
2.5727039021
 10
-73.4783562643
 20
2.5686906484
 10
-73.4787831681
 20
2.5651298261
 10
-73.4791269323
 20
2.5620271886
 10
-73.4793870015
 20
2.5593877489
 10
-73.4795629555
 20
2.5572157717
 10
-73.47965451
 20
2.5555147665
 10
-73.4796615172
 20
2.5542874816
 10
-73.4795839655
 20
2.5535359
 10
-73.4794219805
 20
2.553261236
  0
LINE
  5
3D7
100
AcDbEntity
  8
RACCORDO
100
AcDbLine
 62
253
  6
CONTINUOUS
 10
-73.4758330394
 20
2.5873898161
 11
-73.4772559305
 21
2.5771631027
  0
LINE
  5
3D8
100
AcDbEntity
  8
ASSI
100
AcDbLine
 62
253
  6
CONTINUOUS
 10
-73.4758330394
 20
2.5873898161
 11
-73.4772559305
 21
2.5771631027
  0
LINE
  5
3D9
100
AcDbEntity
  8
RACCORDO
100
AcDbLine
 62
253
  6
CONTINUOUS
 10
-73.4740967835
 20
2.5993047198
 11
-73.4758330394
 21
2.5873898161
  0
LINE
  5
3DA
100
AcDbEntity
  8
ASSI
100
AcDbLine
 62
253
  6
CONTINUOUS
 10
-73.4740967835
 20
2.5993047198
 11
-73.4758330394
 21
2.5873898161
  0
LINE
  5
3DB
100
AcDbEntity
  8
RACCORDO
100
AcDbLine
 62
253
  6
CONTINUOUS
 10
-73.4720583796
 20
2.6128308389
 11
-73.4740967835
 21
2.5993047198
  0
LINE
  5
3DC
100
AcDbEntity
  8
ASSI
100
AcDbLine
 62
253
  6
CONTINUOUS
 10
-73.4720583796
 20
2.6128308389
 11
-73.4740967835
 21
2.5993047198
  0
LINE
  5
3DD
100
AcDbEntity
  8
RACCORDO
100
AcDbLine
 62
253
  6
CONTINUOUS
 10
-73.4720583788
 20
37.1571691551
 11
-73.4740967828
 21
37.1706952753
  0
LINE
  5
3DE
100
AcDbEntity
  8
ASSI
100
AcDbLine
 62
253
  6
CONTINUOUS
 10
-73.4720583788
 20
37.1571691551
 11
-73.4740967828
 21
37.1706952753
  0
LINE
  5
3DF
100
AcDbEntity
  8
RACCORDO
100
AcDbLine
 62
253
  6
CONTINUOUS
 10
-73.4740967828
 20
37.1706952753
 11
-73.4758330389
 21
37.1826101801
  0
LINE
  5
3E0
100
AcDbEntity
  8
ASSI
100
AcDbLine
 62
253
  6
CONTINUOUS
 10
-73.4740967828
 20
37.1706952753
 11
-73.4758330389
 21
37.1826101801
  0
LWPOLYLINE
  5
3E1
100
AcDbEntity
  8
RACCORDO
100
AcDbPolyline
 62
253
  6
CONTINUOUS
 90
12
 70
0
 10
-73.4758330389
 20
37.1826101801
 10
-73.4772559302
 20
37.1928368944
 10
-73.4778469105
 20
37.1972960955
 10
-73.4783562641
 20
37.2013093497
 10
-73.4787831679
 20
37.2048701724
 10
-73.4791269322
 20
37.2079728103
 10
-73.4793870014
 20
37.2106122504
 10
-73.4795629555
 20
37.2127842278
 10
-73.47965451
 20
37.2144852332
 10
-73.4796615172
 20
37.2157125183
 10
-73.4795839656
 20
37.2164641
 10
-73.4794219805
 20
37.216738764
  0
LWPOLYLINE
  5
3E2
100
AcDbEntity
  8
ASSI
100
AcDbPolyline
 62
253
  6
CONTINUOUS
 90
12
 70
0
 10
-73.4758330389
 20
37.1826101801
 10
-73.4772559302
 20
37.1928368944
 10
-73.4778469105
 20
37.1972960955
 10
-73.4783562641
 20
37.2013093497
 10
-73.4787831679
 20
37.2048701724
 10
-73.4791269322
 20
37.2079728103
 10
-73.4793870014
 20
37.2106122504
 10
-73.4795629555
 20
37.2127842278
 10
-73.47965451
 20
37.2144852332
 10
-73.4796615172
 20
37.2157125183
 10
-73.4795839656
 20
37.2164641
 10
-73.4794219805
 20
37.216738764
  0
LINE
  5
3E3
100
AcDbEntity
  8
RACCORDO
100
AcDbLine
 62
253
  6
CONTINUOUS
 10
-73.4684635665
 20
2.6359471851
 11
-73.4720583796
 21
2.6128308389
  0
LINE
  5
3E4
100
AcDbEntity
  8
ASSI
100
AcDbLine
 62
253
  6
CONTINUOUS
 10
-73.4684635665
 20
2.6359471851
 11
-73.4720583796
 21
2.6128308389
  0
LINE
  5
3E5
100
AcDbEntity
  8
RACCORDO
100
AcDbLine
 62
253
  6
CONTINUOUS
 10
-73.4627512575
 20
2.6715118514
 11
-73.4684635665
 21
2.6359471851
  0
LINE
  5
3E6
100
AcDbEntity
  8
ASSI
100
AcDbLine
 62
253
  6
CONTINUOUS
 10
-73.4627512575
 20
2.6715118514
 11
-73.4684635665
 21
2.6359471851
  0
LINE
  5
3E7
100
AcDbEntity
  8
RACCORDO
100
AcDbLine
 62
253
  6
CONTINUOUS
 10
-73.4543452382
 20
2.7222772559
 11
-73.4627512575
 21
2.6715118514
  0
LINE
  5
3E8
100
AcDbEntity
  8
ASSI
100
AcDbLine
 62
253
  6
CONTINUOUS
 10
-73.4543452382
 20
2.7222772559
 11
-73.4627512575
 21
2.6715118514
  0
LINE
  5
3E9
100
AcDbEntity
  8
RACCORDO
100
AcDbLine
 62
253
  6
CONTINUOUS
 10
-73.4428551219
 20
2.7897197095
 11
-73.4543452382
 21
2.7222772559
  0
LINE
  5
3EA
100
AcDbEntity
  8
ASSI
100
AcDbLine
 62
253
  6
CONTINUOUS
 10
-73.4428551219
 20
2.7897197095
 11
-73.4543452382
 21
2.7222772559
  0
LINE
  5
3EB
100
AcDbEntity
  8
RACCORDO
100
AcDbLine
 62
253
  6
CONTINUOUS
 10
-73.4325632491
 20
2.8487035619
 11
-73.4428551219
 21
2.7897197095
  0
LINE
  5
3EC
100
AcDbEntity
  8
ASSI
100
AcDbLine
 62
253
  6
CONTINUOUS
 10
-73.4325632491
 20
2.8487035619
 11
-73.4428551219
 21
2.7897197095
  0
LINE
  5
3ED
100
AcDbEntity
  8
DRAFT
100
AcDbLine
 62
7
  6
CONTINUOUS
 10
-67.4210114541
 20
21.1203391747
 11
-62.6210114541
 21
21.1035839459
  0
LINE
  5
3EE
100
AcDbEntity
  8
RACCORDO
100
AcDbLine
 62
253
  6
CONTINUOUS
 10
-73.4325632491
 20
36.9212964381
 11
-73.4448513927
 21
36.9918669797
  0
LINE
  5
3EF
100
AcDbEntity
  8
ASSI
100
AcDbLine
 62
253
  6
CONTINUOUS
 10
-73.4325632491
 20
36.9212964381
 11
-73.4448513927
 21
36.9918669797
  0
LINE
  5
3F0
100
AcDbEntity
  8
RACCORDO
100
AcDbLine
 62
253
  6
CONTINUOUS
 10
-73.4448513927
 20
36.9918669797
 11
-73.4561250203
 21
37.0583519544
  0
LINE
  5
3F1
100
AcDbEntity
  8
ASSI
100
AcDbLine
 62
253
  6
CONTINUOUS
 10
-73.4448513927
 20
36.9918669797
 11
-73.4561250203
 21
37.0583519544
  0
LINE
  5
3F2
100
AcDbEntity
  8
RACCORDO
100
AcDbLine
 62
253
  6
CONTINUOUS
 10
-73.4561250203
 20
37.0583519544
 11
-73.4642712056
 21
37.1078459386
  0
LINE
  5
3F3
100
AcDbEntity
  8
ASSI
100
AcDbLine
 62
253
  6
CONTINUOUS
 10
-73.4561250203
 20
37.0583519544
 11
-73.4642712056
 21
37.1078459386
  0
LINE
  5
3F4
100
AcDbEntity
  8
RACCORDO
100
AcDbLine
 62
253
  6
CONTINUOUS
 10
-73.4642712056
 20
37.1078459386
 11
-73.4697309957
 21
37.1421192037
  0
LINE
  5
3F5
100
AcDbEntity
  8
ASSI
100
AcDbLine
 62
253
  6
CONTINUOUS
 10
-73.4642712056
 20
37.1078459386
 11
-73.4697309957
 21
37.1421192037
  0
LINE
  5
3F6
100
AcDbEntity
  8
RACCORDO
100
AcDbLine
 62
253
  6
CONTINUOUS
 10
-73.4697309957
 20
37.1421192037
 11
-73.4720583788
 21
37.1571691551
  0
LINE
  5
3F7
100
AcDbEntity
  8
ASSI
100
AcDbLine
 62
253
  6
CONTINUOUS
 10
-73.4697309957
 20
37.1421192037
 11
-73.4720583788
 21
37.1571691551
  0
LINE
  5
3F8
100
AcDbEntity
  8
RACCORDO
100
AcDbLine
 62
7
  6
CONTINUOUS
 10
-67.4210114541
 20
38.285
 11
-67.4210114541
 21
1.485
  0
LINE
  5
3F9
100
AcDbEntity
  8
ASSI
100
AcDbLine
 62
7
  6
CONTINUOUS
 10
-67.4210114541
 20
38.285
 11
-67.4210114541
 21
1.485
  0
LINE
  5
3FA
100
AcDbEntity
  8
DRAFT
100
AcDbLine
 62
7
  6
CONTINUOUS
 10
-62.6210114541
 20
21.1035839459
 11
-62.6210114541
 21
18.6664160541
  0
LINE
  5
3FB
100
AcDbEntity
  8
RACCORDO
100
AcDbLine
 62
253
  6
CONTINUOUS
 10
-74.0104890853
 20
36.2589188688
 11
-74.2714400188
 21
36.2690961558
  0
LINE
  5
3FC
100
AcDbEntity
  8
ASSI
100
AcDbLine
 62
253
  6
CONTINUOUS
 10
-74.0104890853
 20
36.2589188688
 11
-74.2714400188
 21
36.2690961558
  0
LWPOLYLINE
  5
3FD
100
AcDbEntity
  8
RACCORDO
100
AcDbPolyline
 62
253
  6
CONTINUOUS
 90
5
 70
0
 10
-74.2714400188
 20
36.2690961558
 10
-74.3028937424
 20
36.2703785745
 10
-74.3040803075
 20
36.2704323622
 10
-74.304792876
 20
36.2704678874
 10
-74.3050303177
 20
36.2704850935
  0
LWPOLYLINE
  5
3FE
100
AcDbEntity
  8
ASSI
100
AcDbPolyline
 62
253
  6
CONTINUOUS
 90
5
 70
0
 10
-74.2714400188
 20
36.2690961558
 10
-74.3028937424
 20
36.2703785745
 10
-74.3040803075
 20
36.2704323622
 10
-74.304792876
 20
36.2704678874
 10
-74.3050303177
 20
36.2704850935
  0
LWPOLYLINE
  5
3FF
100
AcDbEntity
  8
RACCORDO
100
AcDbPolyline
 62
253
  6
CONTINUOUS
 90
49
 70
0
 10
-73.4325632491
 20
36.9212964381
 10
-73.4520312902
 20
36.9175778973
 10
-73.4713574496
 20
36.9133179896
 10
-73.4905417273
 20
36.9085167151
 10
-73.5095997756
 20
36.9031692765
 10
-73.5285159423
 20
36.8972804712
 10
-73.54724327
 20
36.8908646906
 10
-73.5657808179
 20
36.8839207453
 10
-73.5841295269
 20
36.8764498249
 10
-73.6022452624
 20
36.8684698901
 10
-73.6201273992
 20
36.8599797395
 10
-73.6377765625
 20
36.8509805745
 10
-73.6551504934
 20
36.8414939608
 10
-73.6722485393
 20
36.8315187305
 10
-73.6890713527
 20
36.8210560516
 10
-73.7055786316
 20
36.8101309929
 10
-73.7217696388
 20
36.7987424299
 10
-73.7376451113
 20
36.7868914873
 10
-73.753166959
 20
36.7746066076
 10
-73.7683343248
 20
36.7618867514
 10
-73.7831480657
 20
36.7487329582
 10
-73.7975726621
 20
36.7351767893
 10
-73.8116071686
 20
36.7212172897
 10
-73.8252525305
 20
36.7068554143
 10
-73.8384760637
 20
36.6921255888
 10
-73.8512767564
 20
36.6770269339
 10
-73.8636556203
 20
36.661560329
 10
-73.8755830069
 20
36.6457628379
 10
-73.8870578393
 20
36.6296336597
 10
-73.8980811944
 20
36.6131735953
 10
-73.9086266536
 20
36.5964221119
 10
-73.9186930734
 20
36.5793785009
 10
-73.9282815974
 20
36.5620434709
 10
-73.9373692377
 20
36.5444586149
 10
-73.9459547805
 20
36.5266233565
 10
-73.9540394396
 20
36.5085382721
 10
-73.9616038681
 20
36.4902466845
 10
-73.968646822
 20
36.4717481086
 10
-73.9751695453
 20
36.4530430296
 10
-73.9811564239
 20
36.434176225
 10
-73.9866061822
 20
36.4151472389
 10
-73.9915200959
 20
36.3959565274
 10
-73.9958863775
 20
36.3766502363
 10
-73.9997037327
 20
36.357227405
 10
-74.0029734558
 20
36.3376889943
 10
-74.005687643
 20
36.3180840325
 10
-74.0078436597
 20
36.2984288623
 10
-74.0094441404
 20
36.2787071411
 10
-74.0104890853
 20
36.2589188688
  0
LWPOLYLINE
  5
400
100
AcDbEntity
  8
ASSI
100
AcDbPolyline
 62
253
  6
CONTINUOUS
 90
49
 70
0
 10
-73.4325632491
 20
36.9212964381
 10
-73.4520312902
 20
36.9175778973
 10
-73.4713574496
 20
36.9133179896
 10
-73.4905417273
 20
36.9085167151
 10
-73.5095997756
 20
36.9031692765
 10
-73.5285159423
 20
36.8972804712
 10
-73.54724327
 20
36.8908646906
 10
-73.5657808179
 20
36.8839207453
 10
-73.5841295269
 20
36.8764498249
 10
-73.6022452624
 20
36.8684698901
 10
-73.6201273992
 20
36.8599797395
 10
-73.6377765625
 20
36.8509805745
 10
-73.6551504934
 20
36.8414939608
 10
-73.6722485393
 20
36.8315187305
 10
-73.6890713527
 20
36.8210560516
 10
-73.7055786316
 20
36.8101309929
 10
-73.7217696388
 20
36.7987424299
 10
-73.7376451113
 20
36.7868914873
 10
-73.753166959
 20
36.7746066076
 10
-73.7683343248
 20
36.7618867514
 10
-73.7831480657
 20
36.7487329582
 10
-73.7975726621
 20
36.7351767893
 10
-73.8116071686
 20
36.7212172897
 10
-73.8252525305
 20
36.7068554143
 10
-73.8384760637
 20
36.6921255888
 10
-73.8512767564
 20
36.6770269339
 10
-73.8636556203
 20
36.661560329
 10
-73.8755830069
 20
36.6457628379
 10
-73.8870578393
 20
36.6296336597
 10
-73.8980811944
 20
36.6131735953
 10
-73.9086266536
 20
36.5964221119
 10
-73.9186930734
 20
36.5793785009
 10
-73.9282815974
 20
36.5620434709
 10
-73.9373692377
 20
36.5444586149
 10
-73.9459547805
 20
36.5266233565
 10
-73.9540394396
 20
36.5085382721
 10
-73.9616038681
 20
36.4902466845
 10
-73.968646822
 20
36.4717481086
 10
-73.9751695453
 20
36.4530430296
 10
-73.9811564239
 20
36.434176225
 10
-73.9866061822
 20
36.4151472389
 10
-73.9915200959
 20
36.3959565274
 10
-73.9958863775
 20
36.3766502363
 10
-73.9997037327
 20
36.357227405
 10
-74.0029734558
 20
36.3376889943
 10
-74.005687643
 20
36.3180840325
 10
-74.0078436597
 20
36.2984288623
 10
-74.0094441404
 20
36.2787071411
 10
-74.0104890853
 20
36.2589188688
  0
LINE
  5
401
100
AcDbEntity
  8
RACCORDO
100
AcDbLine
 62
253
  6
CONTINUOUS
 10
-67.4210114541
 20
37.9812952155
 11
-73.4325632491
 21
36.9212964381
  0
LINE
  5
402
100
AcDbEntity
  8
ASSI
100
AcDbLine
 62
253
  6
CONTINUOUS
 10
-67.4210114541
 20
37.9812952155
 11
-73.4325632491
 21
36.9212964381
  0
LINE
  5
403
100
AcDbEntity
  8
RACCORDO
100
AcDbLine
 62
7
  6
CONTINUOUS
 10
-67.4210114541
 20
38.285
 11
-73.4794219805
 21
37.216738764
  0
LINE
  5
404
100
AcDbEntity
  8
ASSI
100
AcDbLine
 62
7
  6
CONTINUOUS
 10
-67.4210114541
 20
38.285
 11
-73.4794219805
 21
37.216738764
  0
CIRCLE
  5
405
100
AcDbEntity
  8
0
100
AcDbCircle
 62
7
  6
CONTINUOUS
 10
-26.285
 20
19.885
 40
1.25
  0
CIRCLE
  5
406
100
AcDbEntity
  8
ASSI
100
AcDbCircle
 62
7
  6
CONTINUOUS
 10
-26.285
 20
19.885
 40
1.25
  0
CIRCLE
  5
407
100
AcDbEntity
  8
RACCORDO
100
AcDbCircle
 62
7
  6
CONTINUOUS
 10
-26.285
 20
19.885
 40
1.225
  0
CIRCLE
  5
408
100
AcDbEntity
  8
RACCORDO
100
AcDbCircle
 62
253
  6
CONTINUOUS
 10
-26.285
 20
19.885
 40
1.0459181267
  0
ARC
  5
409
100
AcDbEntity
  8
RACCORDO
100
AcDbCircle
 62
7
  6
CONTINUOUS
 10
350.3789885459
 20
19.885
 40
425.0
100
AcDbArc
 50
177.7904661733
 51
182.2095338267
  0
ARC
  5
40A
100
AcDbEntity
  8
ASSI
100
AcDbCircle
 62
7
  6
CONTINUOUS
 10
350.3789885459
 20
19.885
 40
425.0
100
AcDbArc
 50
177.7904661733
 51
182.2095338267
  0
ARC
  5
40B
100
AcDbEntity
  8
CURVE
100
AcDbCircle
 62
252
  6
CONTINUOUS
 10
350.3789885459
 20
19.885
 40
425.0
100
AcDbArc
 50
179.0804067225
 51
179.2490667561
  0
ARC
  5
40C
100
AcDbEntity
  8
CURVE
100
AcDbCircle
 62
252
  6
CONTINUOUS
 10
350.3789885459
 20
19.885
 40
425.0
100
AcDbArc
 50
178.9996322717
 51
179.0768347002
  0
ARC
  5
40D
100
AcDbEntity
  8
CURVE
100
AcDbCircle
 62
252
  6
CONTINUOUS
 10
350.3789885459
 20
19.885
 40
425.0
100
AcDbArc
 50
178.3378870667
 51
178.4319221006
  0
ARC
  5
40E
100
AcDbEntity
  8
CURVE
100
AcDbCircle
 62
252
  6
CONTINUOUS
 10
350.3789885459
 20
19.885
 40
425.0
100
AcDbArc
 50
181.5100871285
 51
181.6719258921
  0
ARC
  5
40F
100
AcDbEntity
  8
CURVE
100
AcDbCircle
 62
252
  6
CONTINUOUS
 10
350.3789885459
 20
19.885
 40
425.0
100
AcDbArc
 50
180.8898055195
 51
181.0516051121
  0
ARC
  5
410
100
AcDbEntity
  8
RACCORDO
100
AcDbCircle
 62
7
  6
CONTINUOUS
 10
-73.3057738028
 20
36.231931011
 40
1.0
100
AcDbArc
 50
100.0
 51
177.7904661733
  0
ARC
  5
411
100
AcDbEntity
  8
RACCORDO
100
AcDbCircle
 62
7
  6
CONTINUOUS
 10
-73.3057738028
 20
3.538068989
 40
1.0
100
AcDbArc
 50
182.2095338267
 51
260.0
  0
ARC
  5
412
100
AcDbEntity
  8
ASSI
100
AcDbCircle
 62
7
  6
CONTINUOUS
 10
-73.3057738028
 20
36.231931011
 40
1.0
100
AcDbArc
 50
100.0
 51
177.7904661733
  0
ARC
  5
413
100
AcDbEntity
  8
ASSI
100
AcDbCircle
 62
7
  6
CONTINUOUS
 10
-73.3057738028
 20
3.538068989
 40
1.0
100
AcDbArc
 50
182.2095338267
 51
260.0
  0
ELLIPSE
  5
414
100
AcDbEntity
  8
RACCORDO
100
AcDbEllipse
 62
7
  6
CONTINUOUS
 10
-1.7850456984
 20
1.7896279836
 30
0.0
 11
-0.0300136675
 21
0.3031910442
 31
0.0
 40
0.9846622838
 41
-3.2387599651
 42
-1.6709942215
  0
ELLIPSE
  5
415
100
AcDbEntity
  8
RACCORDO
100
AcDbEllipse
 62
7
  6
CONTINUOUS
 10
-1.7850456984
 20
37.9803720164
 30
0.0
 11
0.0300136675
 21
0.3031910442
 31
0.0
 40
0.9846622838
 41
-1.4705984321
 42
0.0971673115
  0
ELLIPSE
  5
416
100
AcDbEntity
  8
RACCORDO
100
AcDbEllipse
 62
7
  6
CONTINUOUS
 10
-50.7849543016
 20
37.9803720164
 30
0.0
 11
-0.0300136675
 21
0.3031910442
 31
0.0
 40
0.9846622838
 41
-0.0971673115
 42
1.4705984321
  0
ELLIPSE
  5
417
100
AcDbEntity
  8
RACCORDO
100
AcDbEllipse
 62
7
  6
CONTINUOUS
 10
-50.7849543016
 20
1.7896279836
 30
0.0
 11
0.0300136675
 21
0.3031910442
 31
0.0
 40
0.9846622838
 41
-4.6121910857
 42
-3.0444253421
  0
ELLIPSE
  5
418
100
AcDbEntity
  8
ASSI
100
AcDbEllipse
 62
7
  6
CONTINUOUS
 10
-1.7850456984
 20
1.7896279836
 30
0.0
 11
-0.0300136675
 21
0.3031910442
 31
0.0
 40
0.9846622838
 41
-3.2387599651
 42
-1.6709942215
  0
ELLIPSE
  5
419
100
AcDbEntity
  8
ASSI
100
AcDbEllipse
 62
7
  6
CONTINUOUS
 10
-1.7850456984
 20
37.9803720164
 30
0.0
 11
0.0300136675
 21
0.3031910442
 31
0.0
 40
0.9846622838
 41
-1.4705984321
 42
0.0971673115
  0
ELLIPSE
  5
41A
100
AcDbEntity
  8
ASSI
100
AcDbEllipse
 62
7
  6
CONTINUOUS
 10
-50.7849543016
 20
37.9803720164
 30
0.0
 11
-0.0300136675
 21
0.3031910442
 31
0.0
 40
0.9846622838
 41
-0.0971673115
 42
1.4705984321
  0
ELLIPSE
  5
41B
100
AcDbEntity
  8
ASSI
100
AcDbEllipse
 62
7
  6
CONTINUOUS
 10
-50.7849543016
 20
1.7896279836
 30
0.0
 11
0.0300136675
 21
0.3031910442
 31
0.0
 40
0.9846622838
 41
-4.6121910857
 42
-3.0444253421
  0
ELLIPSE
  5
41C
100
AcDbEntity
  8
CURVE
100
AcDbEllipse
 62
252
  6
CONTINUOUS
 10
350.3789885459
 20
19.885
 30
0.0
 11
425.0
 21
0.0
 31
0.0
 40
1.0
 41
3.1226974116
 42
3.12578023
  0
ELLIPSE
  5
41D
100
AcDbEntity
  8
CURVE
100
AcDbEllipse
 62
252
  6
CONTINUOUS
 10
350.3789885459
 20
19.885
 30
0.0
 11
425.0
 21
0.0
 31
0.0
 40
1.0
 41
3.112694514
 42
3.1157780219
  0
ELLIPSE
  5
41E
100
AcDbEntity
  8
CURVE
100
AcDbEllipse
 62
252
  6
CONTINUOUS
 10
350.3789885459
 20
19.885
 30
0.0
 11
425.0
 21
0.0
 31
0.0
 40
1.0
 41
-3.1158800683
 42
-3.1158250963
  0
ELLIPSE
  5
41F
100
AcDbEntity
  8
CURVE
100
AcDbEllipse
 62
252
  6
CONTINUOUS
 10
350.3789885459
 20
19.885
 30
0.0
 11
425.0
 21
0.0
 31
0.0
 40
1.0
 41
-3.1171196225
 42
-3.1158873756
  0
ELLIPSE
  5
420
100
AcDbEntity
  8
CURVE
100
AcDbEllipse
 62
252
  6
CONTINUOUS
 10
350.3789885459
 20
19.885
 30
0.0
 11
0.0
 21
425.0
 31
0.0
 40
1.0
 41
-4.6934466711
 42
-4.6931115013
  0
ELLIPSE
  5
421
100
AcDbEntity
  8
CURVE
100
AcDbEllipse
 62
252
  6
CONTINUOUS
 10
350.3789885459
 20
19.885
 30
0.0
 11
0.0
 21
425.0
 31
0.0
 40
1.0
 41
-4.6931025483
 42
-4.6921523051
  0
ENDSEC
  0
SECTION
  2
OBJECTS
  0
DICTIONARY
  5
C
100
AcDbDictionary
280
0
281
1
  3
ACAD_GROUP
350
D
  3
ACAD_MLINESTYLE
350
17
  3
ACAD_LAYOUT
350
1A
  3
ACAD_PLOTSETTINGS
350
19
  3
ACAD_PLOTSTYLENAME
350
E
  0
DICTIONARY
  5
D
102
{ACAD_REACTORS
330
C
102
}
100
AcDbDictionary
280
0
281
1
  0
ACDBDICTIONARYWDFLT
  5
E
102
{ACAD_REACTORS
330
C
102
}
100
AcDbDictionary
281
1
  3
Normal
350
F
100
AcDbDictionaryWithDefault
340
F
  0
DICTIONARY
  5
17
102
{ACAD_REACTORS
330
C
102
}
100
AcDbDictionary
280
0
281
1
  3
Standard
350
18
  0
DICTIONARY
  5
19
102
{ACAD_REACTORS
330
C
102
}
100
AcDbDictionary
281
1
  0
DICTIONARY
  5
1A
102
{ACAD_REACTORS
330
C
102
}
100
AcDbDictionary
281
1
  3
Model
350
422
  3
Layout1
350
423
  0
ACDBPLACEHOLDER
  5
F
102
{ACAD_REACTORS
330
E
102
}
  0
MLINESTYLE
  5
18
102
{ACAD_REACTORS
330
17
102
}
100
AcDbMlineStyle
  2
STANDARD
 70
0
  3

 62
256
 51
90.0
 52
90.0
 71
2
 49
0.5
 62
256
  6
BYLAYER
 49
-0.5
 62
256
  6
BYLAYER
  0
LAYOUT
  5
422
102
{ACAD_REACTORS
330
1A
102
}
100
AcDbPlotSettings
  1

  2
none_device
  4
ISO_A4_(297.00_x_210.00_MM)
  6

 40
0.0
 41
0.0
 42
0.0
 43
0.0
 44
297.0
 45
210.0
 46
0.0
 47
0.0
 48
0.0
 49
0.0
140
0.0
141
0.0
142
1.0
143
1.0
 70
1024
 72
1
 73
0
 74
0
  7

 75
0
147
1.0
148
0.0
149
0.0
100
AcDbLayout
  1
Model
 70
0
 71
0
 10
0.0
 20
0.0
 11
297.0
 21
210.0
 12
0.0
 22
0.0
 32
0.0
 14
0.0
 24
0.0
 34
0.0
 15
0.0
 25
0.0
 35
0.0
146
0.0
 13
0.0
 23
0.0
 33
0.0
 16
1.0
 26
0.0
 36
0.0
 17
0.0
 27
1.0
 37
0.0
 76
0
330
214
345
0
346
0
  0
LAYOUT
  5
423
102
{ACAD_REACTORS
330
1A
102
}
100
AcDbPlotSettings
  1

  2
none_device
  4
ISO_A4_(297.00_x_210.00_MM)
  6

 40
0.0
 41
0.0
 42
0.0
 43
0.0
 44
297.0
 45
210.0
 46
0.0
 47
0.0
 48
0.0
 49
0.0
140
0.0
141
0.0
142
1.0
143
1.0
 70
0
 72
1
 73
0
 74
0
  7

 75
0
147
1.0
148
0.0
149
0.0
100
AcDbLayout
  1
Layout1
 70
0
 71
1
 10
0.0
 20
0.0
 11
297.0
 21
210.0
 12
0.0
 22
0.0
 32
0.0
 14
0.0
 24
0.0
 34
0.0
 15
0.0
 25
0.0
 35
0.0
146
0.0
 13
0.0
 23
0.0
 33
0.0
 16
1.0
 26
0.0
 36
0.0
 17
0.0
 27
1.0
 37
0.0
 76
0
330
215
345
0
346
0
  0
ENDSEC
  0
EOF
