  0
SECTION
  2
HEADER
  9
$ACADVER
  1
AC1024
  9
$DWGCODEPAGE
  3
ANSI_1252
  9
$EXTMAX
 10
297.0
 20
210.0
 30
0.0
  9
$EXTMIN
 10
0.0
 20
0.0
 30
0.0
  9
$LIMMIN
 10
0.0
 20
0.0
  9
$LIMMAX
 10
297.0
 20
210.0
  9
$VIEWCTR
 10
148.5
 20
105.0
  9
$VIEWSIZE
 40
210.0
  9
$CLAYER
  8
0
  9
$LTSCALE
 40
16.335
  9
$CELTYPE
  6
BYLAYER
  9
$DIMSCALE
 40
1.0
  9
$DIMASZ
 40
3.0
  9
$DIMEXO
 40
0.5
  9
$DIMDLI
 40
11.286
  9
$DIMEXE
 40
1.5
  9
$DIMCEN
 40
2.673
  9
$DIMLFAC
 40
1.0
  9
$DIMBLK
  1
_FILLED
  9
$DIMALT
 70
0
  9
$DIMALTF
 40
0.0393700787
  9
$DIMTXT
 40
3.0
  9
$DIMTOL
 70
1
  9
$DIMLIM
 70
0
  9
$DIMTFAC
 40
1.0
  9
$DIMTP
 40
0.01
  9
$DIMTM
 40
0.01
  9
$DIMGAP
 40
0.625
  9
$DIMDSEP
 70
44
  9
$AUNITS
 70
0
  9
$PDMODE
 70
3
  9
$PDSIZE
 40
3.0
  9
$HANDSEED
  5
7A8
  9
$TILEMODE
 70
1
  9
$MEASUREMENT
 70
1
  9
$INSUNITS
 70
4
  0
ENDSEC
  0
SECTION
  2
CLASSES
  0
CLASS
  1
ACDBDICTIONARYWDFLT
  2
AcDbDictionaryWithDefault
  3
AutoCAD 2000
 90
0
 91
1
280
0
281
0
  0
CLASS
  1
ACDBPLACEHOLDER
  2
AcDbPlaceHolder
  3
AutoCAD 2000
 90
0
 91
1
280
0
281
0
  0
CLASS
  1
LAYOUT
  2
AcDbLayout
  3
AutoCAD 2000
 90
0
 91
0
280
0
281
0
  0
ENDSEC
  0
SECTION
  2
TABLES
  0
TABLE
  2
VPORT
  5
8
100
AcDbSymbolTable
 70
2
  0
VPORT
  5
1F4
100
AcDbSymbolTableRecord
100
AcDbViewportTableRecord
  2
*ACTIVE
 70
0
 10
0.0
 20
0.0
 11
1.0
 21
1.0
 12
148.5
 22
105.0
 13
0.0
 23
0.0
 14
1.0
 24
1.0
 15
0.0
 25
0.0
 16
0.0
 26
0.0
 36
1.0
 17
0.0
 27
0.0
 37
0.0
 40
210.0
 41
1.4142857143
 42
50.0
 43
0.0
 44
0.0
 50
0.0
 51
0.0
 71
0
 72
100
 73
1
 74
1
 75
0
 76
0
 77
0
 78
0
  0
ENDTAB
  0
TABLE
  2
LTYPE
  5
5
100
AcDbSymbolTable
 70
6
  0
LTYPE
  5
14
100
AcDbSymbolTableRecord
100
AcDbLinetypeTableRecord
  2
BYBLOCK
 70
0
  3

 72
65
 73
0
 40
0.0
  0
LTYPE
  5
15
100
AcDbSymbolTableRecord
100
AcDbLinetypeTableRecord
  2
BYLAYER
 70
0
  3

 72
65
 73
0
 40
0.0
  0
LTYPE
  5
16
100
AcDbSymbolTableRecord
100
AcDbLinetypeTableRecord
  2
CONTINUOUS
 70
64
  3
Solid line
 72
65
 73
0
 40
0.0
  0
LTYPE
  5
1F5
100
AcDbSymbolTableRecord
100
AcDbLinetypeTableRecord
  2
CENTER
 70
64
  3
____ _ ____ _ ____ _ ____ _ ____ _ ____ _ ____
 72
65
 73
4
 40
0.6
 49
0.375
 74
0
 49
-0.075
 74
0
 49
0.075
 74
0
 49
-0.075
 74
0
  0
LTYPE
  5
1F6
100
AcDbSymbolTableRecord
100
AcDbLinetypeTableRecord
  2
HIDDEN
 70
64
  3
- - - - - - - - - - - - - - - - - - - -
 72
65
 73
2
 40
0.2
 49
0.1
 74
0
 49
-0.1
 74
0
  0
LTYPE
  5
1F7
100
AcDbSymbolTableRecord
100
AcDbLinetypeTableRecord
  2
PHANTOM
 70
64
  3
_____ _ _ _____ _ _ _____ _ _ _____
 72
65
 73
6
 40
0.8
 49
0.45
 74
0
 49
-0.05
 74
0
 49
0.1
 74
0
 49
-0.05
 74
0
 49
0.1
 74
0
 49
-0.05
 74
0
  0
LTYPE
  5
1F8
100
AcDbSymbolTableRecord
100
AcDbLinetypeTableRecord
  2
DOT
 70
64
  3
. . . . . . . . . . . . . . . . . . . .
 72
65
 73
2
 40
0.2
 49
0.1
 74
0
 49
-0.1
 74
0
  0
LTYPE
  5
1F9
100
AcDbSymbolTableRecord
100
AcDbLinetypeTableRecord
  2
DASHED
 70
64
  3
- - - - - - - - - - - - - - - - - - - -
 72
65
 73
2
 40
0.2
 49
0.1
 74
0
 49
-0.1
 74
0
  0
ENDTAB
  0
TABLE
  2
LAYER
  5
2
100
AcDbSymbolTable
 70
36
  0
LAYER
  5
10
100
AcDbSymbolTableRecord
100
AcDbLayerTableRecord
  2
0
 70
0
 62
7
  6
CONTINUOUS
370
-3
390
F
  0
LAYER
  5
1FA
100
AcDbSymbolTableRecord
100
AcDbLayerTableRecord
  2
DEFAULT_1
 70
0
 62
7
  6
CENTER
370
-3
390
F
  0
LAYER
  5
1FB
100
AcDbSymbolTableRecord
100
AcDbLayerTableRecord
  2
DEFAULT_2
 70
0
 62
7
  6
HIDDEN
370
-3
390
F
  0
LAYER
  5
1FC
100
AcDbSymbolTableRecord
100
AcDbLayerTableRecord
  2
DEFAULT_3
 70
0
 62
7
  6
PHANTOM
370
-3
390
F
  0
LAYER
  5
1FD
100
AcDbSymbolTableRecord
100
AcDbLayerTableRecord
  2
ASSI
 70
0
 62
7
  6
CONTINUOUS
370
-3
390
F
  0
LAYER
  5
1FE
100
AcDbSymbolTableRecord
100
AcDbLayerTableRecord
  2
COORDINATE
 70
0
 62
7
  6
CONTINUOUS
370
-3
390
F
  0
LAYER
  5
1FF
100
AcDbSymbolTableRecord
100
AcDbLayerTableRecord
  2
COORD_ORIGINE
 70
0
 62
7
  6
CONTINUOUS
370
-3
390
F
  0
LAYER
  5
200
100
AcDbSymbolTableRecord
100
AcDbLayerTableRecord
  2
COPY_PUBLISH
 70
0
 62
7
  6
CONTINUOUS
370
-3
390
F
  0
LAYER
  5
201
100
AcDbSymbolTableRecord
100
AcDbLayerTableRecord
  2
COSMETICHE
 70
0
 62
7
  6
CONTINUOUS
370
-3
390
F
  0
LAYER
  5
202
100
AcDbSymbolTableRecord
100
AcDbLayerTableRecord
  2
COSMETICI
 70
0
 62
7
  6
CONTINUOUS
370
-3
390
F
  0
LAYER
  5
203
100
AcDbSymbolTableRecord
100
AcDbLayerTableRecord
  2
CURVE
 70
0
 62
7
  6
CONTINUOUS
370
-3
390
F
  0
LAYER
  5
204
100
AcDbSymbolTableRecord
100
AcDbLayerTableRecord
  2
DRAFT
 70
0
 62
7
  6
CONTINUOUS
370
-3
390
F
  0
LAYER
  5
205
100
AcDbSymbolTableRecord
100
AcDbLayerTableRecord
  2
IGES
 70
0
 62
7
  6
CONTINUOUS
370
-3
390
F
  0
LAYER
  5
206
100
AcDbSymbolTableRecord
100
AcDbLayerTableRecord
  2
IMPORT_IGES
 70
0
 62
7
  6
CONTINUOUS
370
-3
390
F
  0
LAYER
  5
207
100
AcDbSymbolTableRecord
100
AcDbLayerTableRecord
  2
INTF_1
 70
0
 62
7
  6
CONTINUOUS
370
-3
390
F
  0
LAYER
  5
208
100
AcDbSymbolTableRecord
100
AcDbLayerTableRecord
  2
INTF_12
 70
0
 62
7
  6
CONTINUOUS
370
-3
390
F
  0
LAYER
  5
209
100
AcDbSymbolTableRecord
100
AcDbLayerTableRecord
  2
INTF_13
 70
0
 62
7
  6
CONTINUOUS
370
-3
390
F
  0
LAYER
  5
20A
100
AcDbSymbolTableRecord
100
AcDbLayerTableRecord
  2
INTF_2
 70
0
 62
7
  6
CONTINUOUS
370
-3
390
F
  0
LAYER
  5
20B
100
AcDbSymbolTableRecord
100
AcDbLayerTableRecord
  2
NOTE
 70
0
 62
7
  6
CONTINUOUS
370
-3
390
F
  0
LAYER
  5
20C
100
AcDbSymbolTableRecord
100
AcDbLayerTableRecord
  2
PIANI
 70
0
 62
7
  6
CONTINUOUS
370
-3
390
F
  0
LAYER
  5
20D
100
AcDbSymbolTableRecord
100
AcDbLayerTableRecord
  2
PIANI_ORIGINE
 70
0
 62
7
  6
CONTINUOUS
370
-3
390
F
  0
LAYER
  5
20E
100
AcDbSymbolTableRecord
100
AcDbLayerTableRecord
  2
PIANI_SFORMI
 70
0
 62
7
  6
CONTINUOUS
370
-3
390
F
  0
LAYER
  5
20F
100
AcDbSymbolTableRecord
100
AcDbLayerTableRecord
  2
PUNTI
 70
0
 62
7
  6
CONTINUOUS
370
-3
390
F
  0
LAYER
  5
210
100
AcDbSymbolTableRecord
100
AcDbLayerTableRecord
  2
RACCORDO
 70
0
 62
7
  6
CONTINUOUS
370
-3
390
F
  0
LAYER
  5
211
100
AcDbSymbolTableRecord
100
AcDbLayerTableRecord
  2
RGB__255__255__255__
 70
0
 62
7
  6
CONTINUOUS
370
-3
390
F
  0
LAYER
  5
212
100
AcDbSymbolTableRecord
100
AcDbLayerTableRecord
  2
RIFERIMENTI
 70
0
 62
7
  6
CONTINUOUS
370
-3
390
F
  0
LAYER
  5
213
100
AcDbSymbolTableRecord
100
AcDbLayerTableRecord
  2
SIMBOLI
 70
0
 62
7
  6
CONTINUOUS
370
-3
390
F
  0
LAYER
  5
214
100
AcDbSymbolTableRecord
100
AcDbLayerTableRecord
  2
SMUSSO
 70
0
 62
7
  6
CONTINUOUS
370
-3
390
F
  0
LAYER
  5
215
100
AcDbSymbolTableRecord
100
AcDbLayerTableRecord
  2
SNAPLINE
 70
0
 62
7
  6
CONTINUOUS
370
-3
390
F
  0
LAYER
  5
216
100
AcDbSymbolTableRecord
100
AcDbLayerTableRecord
  2
SUPERFICI
 70
0
 62
7
  6
CONTINUOUS
370
-3
390
F
  0
LAYER
  5
217
100
AcDbSymbolTableRecord
100
AcDbLayerTableRecord
  2
TRACCIABILITA
 70
0
 62
7
  6
CONTINUOUS
370
-3
390
F
  0
LAYER
  5
218
100
AcDbSymbolTableRecord
100
AcDbLayerTableRecord
  2
TRASH
 70
0
 62
7
  6
CONTINUOUS
370
-3
390
F
  0
LAYER
  5
219
100
AcDbSymbolTableRecord
100
AcDbLayerTableRecord
  2
XSEC_DATUMS
 70
0
 62
7
  6
CONTINUOUS
370
-3
390
F
  0
ENDTAB
  0
TABLE
  2
STYLE
  5
3
100
AcDbSymbolTable
 70
1
  0
STYLE
  5
11
100
AcDbSymbolTableRecord
100
AcDbTextStyleTableRecord
  2
STANDARD
 70
0
 40
0.0
 41
0.8
 50
0.0
 71
0
 42
0.2
  3
txt
  4

  0
STYLE
  5
21A
100
AcDbSymbolTableRecord
100
AcDbTextStyleTableRecord
  2
TEXTSTYLE_1
 70
0
 40
0.0
 41
0.8
 50
0.0
 71
0
 42
0.2
  3
gdt
  4

  0
ENDTAB
  0
TABLE
  2
VIEW
  5
6
100
AcDbSymbolTable
 70
0
  0
ENDTAB
  0
TABLE
  2
UCS
  5
7
100
AcDbSymbolTable
 70
0
  0
ENDTAB
  0
TABLE
  2
APPID
  5
9
100
AcDbSymbolTable
 70
1
  0
APPID
  5
21B
100
AcDbSymbolTableRecord
100
AcDbRegAppTableRecord
  2
ACAD
 70
0
  0
ENDTAB
  0
TABLE
  2
BLOCK_RECORD
  5
1
100
AcDbSymbolTable
 70
0
  0
BLOCK_RECORD
  5
21C
100
AcDbSymbolTableRecord
100
AcDbBlockTableRecord
  2
*Model_Space
  0
BLOCK_RECORD
  5
21D
100
AcDbSymbolTableRecord
100
AcDbBlockTableRecord
  2
*Paper_Space
  0
BLOCK_RECORD
  5
21E
100
AcDbSymbolTableRecord
100
AcDbBlockTableRecord
  2
_FILLED
  0
BLOCK_RECORD
  5
21F
100
AcDbSymbolTableRecord
100
AcDbBlockTableRecord
  2
*D0
  0
BLOCK_RECORD
  5
220
100
AcDbSymbolTableRecord
100
AcDbBlockTableRecord
  2
*D1
  0
BLOCK_RECORD
  5
221
100
AcDbSymbolTableRecord
100
AcDbBlockTableRecord
  2
*D2
  0
BLOCK_RECORD
  5
222
100
AcDbSymbolTableRecord
100
AcDbBlockTableRecord
  2
*D3
  0
ENDTAB
  0
TABLE
  2
DIMSTYLE
  5
A
100
AcDbSymbolTable
 70
1
100
AcDbDimStyleTable
 71
0
  0
DIMSTYLE
105
223
100
AcDbSymbolTableRecord
100
AcDbDimStyleTableRecord
  2
STANDARD
 70
0
  3

  4

 40
1.0
 41
3.0
 42
0.5
 43
0.38
 44
1.5
 45
0.0
 46
0.0
 47
0.01
 48
0.01
140
3.0
141
0.09
142
0.0
143
25.4
144
1.0
145
0.0
146
1.0
147
0.625
 71
1
 72
0
 73
0
 74
0
 75
0
 76
0
 77
1
 78
8
 79
2
170
0
171
1
172
0
173
0
174
0
175
0
176
0
177
0
178
0
270
2
179
2
271
2
272
2
273
2
274
2
275
0
280
0
281
0
282
0
283
1
284
8
285
0
286
0
287
3
288
0
340
11
278
44
341
21E
342
21E
343
21E
344
21E
  0
DIMSTYLE
105
224
100
AcDbSymbolTableRecord
100
AcDbDimStyleTableRecord
  2
DIMSTYLE_1
 70
0
  3

  4

 40
1.0
 41
3.0
 42
0.5
 43
0.38
 44
1.5
 45
0.0
 46
0.0
 47
0.0
 48
0.0
140
3.0
141
0.09
142
0.0
143
25.4
144
1.0
145
0.0
146
1.0
147
0.75
 71
0
 72
0
 73
0
 74
0
 75
0
 76
0
 77
1
 78
8
 79
2
170
0
171
1
172
0
173
0
174
0
175
0
176
0
177
0
178
0
270
2
179
2
271
2
272
2
273
2
274
2
275
0
280
0
281
0
282
0
283
1
284
8
285
0
286
0
287
3
288
0
340
11
278
44
341
21E
342
21E
343
21E
344
21E
  0
DIMSTYLE
105
225
100
AcDbSymbolTableRecord
100
AcDbDimStyleTableRecord
  2
DIMSTYLE_2
 70
0
  3

  4

 40
1.0
 41
3.0
 42
0.5
 43
0.38
 44
1.5
 45
0.0
 46
0.0
 47
0.0
 48
0.0
140
3.0
141
0.09
142
0.0
143
25.4
144
1.0
145
0.0
146
1.0
147
0.75
 71
0
 72
0
 73
0
 74
0
 75
0
 76
0
 77
1
 78
8
 79
2
170
0
171
1
172
0
173
0
174
0
175
0
176
0
177
0
178
0
270
2
179
2
271
1
272
1
273
2
274
2
275
0
280
0
281
0
282
0
283
1
284
8
285
0
286
0
287
3
288
0
340
11
278
44
341
21E
342
21E
343
21E
344
21E
  0
ENDTAB
  0
ENDSEC
  0
SECTION
  2
BLOCKS
  0
BLOCK
  5
20
100
AcDbEntity
  8
0
100
AcDbBlockBegin
  2
*Model_Space
 70
0
 10
0.0
 20
0.0
 30
0.0
  3
*Model_Space
  1

  0
ENDBLK
  5
21
100
AcDbEntity
  8
0
100
AcDbBlockEnd
  0
BLOCK
  5
1C
100
AcDbEntity
  8
0
100
AcDbBlockBegin
  2
*Paper_Space
 70
0
 10
0.0
 20
0.0
 30
0.0
  3
*Paper_Space
  1

  0
ENDBLK
  5
1D
100
AcDbEntity
  8
0
100
AcDbBlockEnd
  0
BLOCK
  5
226
100
AcDbEntity
  8
0
100
AcDbBlockBegin
  2
_FILLED
 70
64
 10
0.0
 20
0.0
  3
_FILLED
  1

  0
SOLID
  5
227
100
AcDbEntity
  8
0
  6
BYBLOCK
 62
0
100
AcDbTrace
 10
0.0
 20
0.0
 11
-1.0
 21
0.3166666667
 12
-1.0
 22
-0.3166666667
 13
-1.0
 23
-0.3166666667
  0
ENDBLK
  5
228
100
AcDbEntity
  8
0
  6
BYBLOCK
 62
0
100
AcDbBlockEnd
  0
BLOCK
  5
229
100
AcDbEntity
  8
0
100
AcDbBlockBegin
 62
7
  6
CONTINUOUS
  2
*D0
 70
65
 10
0.0
 20
0.0
  3
*D0
  1

  0
LINE
  5
22A
100
AcDbEntity
  8
0
100
AcDbLine
 62
7
  6
CONTINUOUS
 10
-12.142022769
 20
20.0
 11
-12.142022769
 21
34.55
  0
LINE
  5
22B
100
AcDbEntity
  8
0
100
AcDbLine
 62
7
  6
CONTINUOUS
 10
9.657977231
 20
20.0
 11
9.657977231
 21
34.55
  0
LINE
  5
22C
100
AcDbEntity
  8
0
100
AcDbLine
 62
7
  6
CONTINUOUS
 10
-12.142022769
 20
33.05
 11
-1.242022769
 21
33.05
  0
LINE
  5
22D
100
AcDbEntity
  8
0
100
AcDbLine
 62
7
  6
CONTINUOUS
 10
9.657977231
 20
33.05
 11
-1.242022769
 21
33.05
  0
INSERT
  5
22E
100
AcDbEntity
  8
0
100
AcDbBlockReference
 62
7
  6
CONTINUOUS
  2
_FILLED
 10
-12.142022769
 20
33.05
 41
3.0
 42
3.0
 43
3.0
 50
180.0
  0
INSERT
  5
22F
100
AcDbEntity
  8
0
100
AcDbBlockReference
 62
7
  6
CONTINUOUS
  2
_FILLED
 10
9.657977231
 20
33.05
 41
3.0
 42
3.0
 43
3.0
  0
ENDBLK
  5
230
100
AcDbEntity
  8
0
  6
BYBLOCK
 62
0
100
AcDbBlockEnd
  0
BLOCK
  5
231
100
AcDbEntity
  8
0
100
AcDbBlockBegin
 62
7
  6
CONTINUOUS
  2
*D1
 70
65
 10
0.0
 20
0.0
  3
*D1
  1

  0
LINE
  5
232
100
AcDbEntity
  8
0
100
AcDbLine
 62
7
  6
CONTINUOUS
 10
-22.3798718332
 20
17.2056528937
 11
-22.3798718332
 21
44.55
  0
LINE
  5
233
100
AcDbEntity
  8
0
100
AcDbLine
 62
7
  6
CONTINUOUS
 10
-59.0287583431
 20
-15.5263725452
 11
-59.0287583431
 21
44.55
  0
LINE
  5
234
100
AcDbEntity
  8
0
100
AcDbLine
 62
7
  6
CONTINUOUS
 10
-22.3798718332
 20
43.05
 11
-40.7043150881
 21
43.05
  0
LINE
  5
235
100
AcDbEntity
  8
0
100
AcDbLine
 62
7
  6
CONTINUOUS
 10
-59.0287583431
 20
43.05
 11
-40.7043150881
 21
43.05
  0
INSERT
  5
236
100
AcDbEntity
  8
0
100
AcDbBlockReference
 62
7
  6
CONTINUOUS
  2
_FILLED
 10
-22.3798718332
 20
43.05
 41
3.0
 42
3.0
 43
3.0
  0
INSERT
  5
237
100
AcDbEntity
  8
0
100
AcDbBlockReference
 62
7
  6
CONTINUOUS
  2
_FILLED
 10
-59.0287583431
 20
43.05
 41
3.0
 42
3.0
 43
3.0
 50
180.0
  0
ENDBLK
  5
238
100
AcDbEntity
  8
0
  6
BYBLOCK
 62
0
100
AcDbBlockEnd
  0
BLOCK
  5
239
100
AcDbEntity
  8
0
100
AcDbBlockBegin
 62
7
  6
CONTINUOUS
  2
*D2
 70
65
 10
0.0
 20
0.0
  3
*D2
  1

  0
LINE
  5
23A
100
AcDbEntity
  8
0
100
AcDbLine
 62
7
  6
CONTINUOUS
 10
-45.5798718332
 20
25.05
 11
-68.9481476921
 21
25.05
  0
LINE
  5
23B
100
AcDbEntity
  8
0
100
AcDbLine
 62
7
  6
CONTINUOUS
 10
-45.5798718332
 20
-25.05
 11
-68.9481476921
 21
-25.05
  0
LINE
  5
23C
100
AcDbEntity
  8
0
100
AcDbLine
 62
7
  6
CONTINUOUS
 10
-67.4481476921
 20
25.05
 11
-67.4481476921
 21
0.0
  0
LINE
  5
23D
100
AcDbEntity
  8
0
100
AcDbLine
 62
7
  6
CONTINUOUS
 10
-67.4481476921
 20
-25.05
 11
-67.4481476921
 21
0.0
  0
INSERT
  5
23E
100
AcDbEntity
  8
0
100
AcDbBlockReference
 62
7
  6
CONTINUOUS
  2
_FILLED
 10
-67.4481476921
 20
25.05
 41
3.0
 42
3.0
 43
3.0
 50
90.0
  0
INSERT
  5
23F
100
AcDbEntity
  8
0
100
AcDbBlockReference
 62
7
  6
CONTINUOUS
  2
_FILLED
 10
-67.4481476921
 20
-25.05
 41
3.0
 42
3.0
 43
3.0
 50
270.0
  0
ENDBLK
  5
240
100
AcDbEntity
  8
0
  6
BYBLOCK
 62
0
100
AcDbBlockEnd
  0
BLOCK
  5
241
100
AcDbEntity
  8
0
100
AcDbBlockBegin
 62
7
  6
CONTINUOUS
  2
*D3
 70
65
 10
0.0
 20
0.0
  3
*D3
  1

  0
LINE
  5
242
100
AcDbEntity
  8
0
100
AcDbLine
 62
7
  6
CONTINUOUS
 10
-45.7798718332
 20
24.3674311485
 11
-45.7798718332
 21
34.55
  0
LINE
  5
243
100
AcDbEntity
  8
0
100
AcDbLine
 62
7
  6
CONTINUOUS
 10
-22.3798718332
 20
17.2056528937
 11
-22.3798718332
 21
34.55
  0
LINE
  5
244
100
AcDbEntity
  8
0
100
AcDbLine
 62
7
  6
CONTINUOUS
 10
-45.7798718332
 20
33.05
 11
-34.0798718332
 21
33.05
  0
LINE
  5
245
100
AcDbEntity
  8
0
100
AcDbLine
 62
7
  6
CONTINUOUS
 10
-22.3798718332
 20
33.05
 11
-34.0798718332
 21
33.05
  0
INSERT
  5
246
100
AcDbEntity
  8
0
100
AcDbBlockReference
 62
7
  6
CONTINUOUS
  2
_FILLED
 10
-45.7798718332
 20
33.05
 41
3.0
 42
3.0
 43
3.0
 50
180.0
  0
INSERT
  5
247
100
AcDbEntity
  8
0
100
AcDbBlockReference
 62
7
  6
CONTINUOUS
  2
_FILLED
 10
-22.3798718332
 20
33.05
 41
3.0
 42
3.0
 43
3.0
  0
ENDBLK
  5
248
100
AcDbEntity
  8
0
  6
BYBLOCK
 62
0
100
AcDbBlockEnd
  0
ENDSEC
  0
SECTION
  2
ENTITIES
  0
DIMENSION
  5
249
100
AcDbEntity
  8
0
100
AcDbDimension
 62
7
  6
CONTINUOUS
  2
*D0
 10
9.657977231
 20
33.05
 11
-5.3134513404
 21
33.05
 70
160
 71
2
 72
2
 41
0.9
 42
21.8
  3
DIMSTYLE_1
100
AcDbAlignedDimension
 13
-12.142022769
 23
19.5
 14
9.657977231
 24
19.5
100
AcDbRotatedDimension
  0
DIMENSION
  5
24A
100
AcDbEntity
  8
0
100
AcDbDimension
 62
7
  6
CONTINUOUS
  2
*D1
 10
-59.0287583431
 20
43.05
 11
-44.9900293739
 21
43.05
 70
160
 71
2
 72
2
 41
0.9
 42
36.6488865099
  3
DIMSTYLE_2
100
AcDbAlignedDimension
 13
-22.3798718332
 23
16.7056528937
 14
-59.0287583431
 24
-16.0263725452
 50
180.0
100
AcDbRotatedDimension
  0
DIMENSION
  5
24B
100
AcDbEntity
  8
0
100
AcDbDimension
 62
7
  6
CONTINUOUS
  2
*D2
 10
-67.4481476921
 20
-25.05
 11
-67.4481476921
 21
-3.9642857143
 70
160
 71
2
 72
2
 41
0.9
 42
50.1
  3
DIMSTYLE_1
100
AcDbAlignedDimension
 13
-45.0798718332
 23
25.05
 14
-45.0798718332
 24
-25.05
 50
270.0
100
AcDbRotatedDimension
  0
DIMENSION
  5
24C
100
AcDbEntity
  8
0
100
AcDbDimension
 62
7
  6
CONTINUOUS
  2
*D3
 10
-22.3798718332
 20
33.05
 11
-38.3655861189
 21
33.05
 70
160
 71
2
 72
2
 41
0.9
 42
23.4
  3
DIMSTYLE_1
100
AcDbAlignedDimension
 13
-45.7798718332
 23
23.8674311485
 14
-22.3798718332
 24
16.7056528937
100
AcDbRotatedDimension
  0
LWPOLYLINE
  5
24D
100
AcDbEntity
  8
0
100
AcDbPolyline
 62
7
  6
CONTINUOUS
 90
3
 70
0
 43
0.3500000006
 10
-2.9563084002
 20
35.942859375
 10
-2.0991656456
 20
36.8000018463
 10
-2.0991656456
 20
33.8000009308
  0
LINE
  5
24E
100
AcDbEntity
  8
0
100
AcDbLine
 62
7
  6
CONTINUOUS
 10
-7.242022769
 20
-25.05
 11
4.757977231
 21
-25.05
  0
LINE
  5
24F
100
AcDbEntity
  8
RACCORDO
100
AcDbLine
 62
7
  6
CONTINUOUS
 10
-9.2033779198
 20
-23.2577282164
 11
-9.2036216261
 21
-23.2576794799
  0
LINE
  5
250
100
AcDbEntity
  8
RACCORDO
100
AcDbLine
 62
7
  6
CONTINUOUS
 10
6.7193323819
 20
-23.2577282164
 11
6.7195760882
 21
-23.2576794799
  0
LWPOLYLINE
  5
251
100
AcDbEntity
  8
RACCORDO
100
AcDbPolyline
 62
7
  6
CONTINUOUS
 90
25
 70
0
 10
-5.542022769
 20
-23.9084094599
 10
-5.5551953952
 20
-23.9085464789
 10
-5.5682014166
 20
-23.9089423239
 10
-5.5810408334
 20
-23.9095969948
 10
-5.5937670462
 20
-23.9105154975
 10
-5.6063266543
 20
-23.9116928261
 10
-5.6185594555
 20
-23.9131139635
 10
-5.6304612634
 20
-23.9147820327
 10
-5.6420362645
 20
-23.9166939106
 10
-5.6531368156
 20
-23.9188252106
 10
-5.663756839
 20
-23.9211787434
 10
-5.6739024123
 20
-23.9237516983
 10
-5.6834441252
 20
-23.9265112563
 10
-5.6923742424
 20
-23.9294598077
 10
-5.7007004993
 20
-23.9325949623
 10
-5.7083166914
 20
-23.93587673
 10
-5.7152137231
 20
-23.9393069889
 10
-5.7214006901
 20
-23.942883861
 10
-5.7267986755
 20
-23.9465617219
 10
-5.7313975726
 20
-23.9503418654
 10
-5.735207488
 20
-23.9542229977
 10
-5.7381798251
 20
-23.9581556138
 10
-5.7402983848
 20
-23.9621232117
 10
-5.7415793661
 20
-23.9661422934
 10
-5.742022769
 20
-23.9702128587
  0
LINE
  5
252
100
AcDbEntity
  8
DRAFT
100
AcDbLine
 62
7
  6
CONTINUOUS
 10
4.957977231
 20
-23.2287068966
 11
4.757977231
 21
-23.2306615518
  0
LINE
  5
253
100
AcDbEntity
  8
0
100
AcDbLine
 62
250
  6
CONTINUOUS
 10
-7.242022769
 20
-24.35
 11
4.757977231
 21
-24.35
  0
LINE
  5
254
100
AcDbEntity
  8
RACCORDO
100
AcDbLine
 62
7
  6
CONTINUOUS
 10
-7.242022769
 20
-24.05
 11
-5.1752890038
 21
-24.05
  0
LINE
  5
255
100
AcDbEntity
  8
RACCORDO
100
AcDbLine
 62
7
  6
CONTINUOUS
 10
2.6912434658
 20
-24.05
 11
4.757977231
 21
-24.05
  0
LINE
  5
256
100
AcDbEntity
  8
CURVE
100
AcDbLine
 62
250
  6
CONTINUOUS
 10
-5.542022769
 20
-23.9084094599
 11
-4.9841043839
 21
-23.9084094599
  0
LINE
  5
257
100
AcDbEntity
  8
RACCORDO
100
AcDbLine
 62
7
  6
CONTINUOUS
 10
3.057977231
 20
-23.9084094599
 11
2.5000588459
 21
-23.9084094599
  0
LINE
  5
258
100
AcDbEntity
  8
CURVE
100
AcDbLine
 62
250
  6
CONTINUOUS
 10
2.5000588459
 20
-23.9084094599
 11
3.057977231
 21
-23.9084094599
  0
LINE
  5
259
100
AcDbEntity
  8
RACCORDO
100
AcDbLine
 62
7
  6
CONTINUOUS
 10
-4.9841043839
 20
-23.9084094599
 11
-5.542022769
 21
-23.9084094599
  0
LINE
  5
25A
100
AcDbEntity
  8
RACCORDO
100
AcDbLine
 62
7
  6
CONTINUOUS
 10
3.057977231
 20
-23.5279868533
 11
2.4623069985
 21
-23.5279868533
  0
LINE
  5
25B
100
AcDbEntity
  8
RACCORDO
100
AcDbLine
 62
7
  6
CONTINUOUS
 10
-4.9463525364
 20
-23.5279868533
 11
-5.542022769
 21
-23.5279868533
  0
LINE
  5
25C
100
AcDbEntity
  8
RACCORDO
100
AcDbLine
 62
7
  6
CONTINUOUS
 10
5.9194542257
 20
-23.260472018
 11
5.9029761324
 21
-23.260472018
  0
LINE
  5
25D
100
AcDbEntity
  8
RACCORDO
100
AcDbLine
 62
7
  6
CONTINUOUS
 10
-8.3870216703
 20
-23.260472018
 11
-8.4034997637
 21
-23.260472018
  0
LINE
  5
25E
100
AcDbEntity
  8
RACCORDO
100
AcDbLine
 62
250
  6
CONTINUOUS
 10
-7.442022769
 20
-22.8030153487
 11
-7.242022769
 21
-22.8030153487
  0
LINE
  5
25F
100
AcDbEntity
  8
RACCORDO
100
AcDbLine
 62
250
  6
CONTINUOUS
 10
4.757977231
 20
-22.8030153487
 11
4.957977231
 21
-22.8030153487
  0
LINE
  5
260
100
AcDbEntity
  8
RACCORDO
100
AcDbLine
 62
250
  6
CONTINUOUS
 10
-7.4454528554
 20
-22.6030458097
 11
-7.242022769
 21
-22.6030458097
  0
LINE
  5
261
100
AcDbEntity
  8
RACCORDO
100
AcDbLine
 62
250
  6
CONTINUOUS
 10
4.757977231
 20
-22.6030458097
 11
4.9614073174
 21
-22.6030458097
  0
LINE
  5
262
100
AcDbEntity
  8
DRAFT
100
AcDbLine
 62
7
  6
CONTINUOUS
 10
-7.242022769
 20
-23.2306615518
 11
-7.442022769
 21
-23.2287068966
  0
LWPOLYLINE
  5
263
100
AcDbEntity
  8
RACCORDO
100
AcDbPolyline
 62
7
  6
CONTINUOUS
 90
25
 70
0
 10
3.057977231
 20
-23.5279868533
 10
3.0711498572
 20
-23.5281238724
 10
3.0841558787
 20
-23.5285197174
 10
3.0969952954
 20
-23.5291743883
 10
3.1097215082
 20
-23.530092891
 10
3.1222811163
 20
-23.5312702196
 10
3.1345139175
 20
-23.532691357
 10
3.1464157255
 20
-23.5343594262
 10
3.1579907266
 20
-23.5362713041
 10
3.1690912776
 20
-23.5384026041
 10
3.179711301
 20
-23.5407561369
 10
3.1898568743
 20
-23.5433290918
 10
3.1993985873
 20
-23.5460886498
 10
3.2083287045
 20
-23.5490372012
 10
3.2166549613
 20
-23.5521723558
 10
3.2242711535
 20
-23.5554541235
 10
3.2311681851
 20
-23.5588843824
 10
3.2373551521
 20
-23.5624612545
 10
3.2427531375
 20
-23.5661391154
 10
3.2473520346
 20
-23.5699192589
 10
3.25116195
 20
-23.5738003912
 10
3.2541342871
 20
-23.5777330072
 10
3.2562528468
 20
-23.5817006052
 10
3.2575338281
 20
-23.5857196869
 10
3.257977231
 20
-23.5897902522
  0
LINE
  5
264
100
AcDbEntity
  8
DRAFT
100
AcDbLine
 62
7
  6
CONTINUOUS
 10
-12.1036216261
 20
19.5492615675
 11
-12.142022769
 21
19.5
  0
LINE
  5
265
100
AcDbEntity
  8
RACCORDO
100
AcDbLine
 62
7
  6
CONTINUOUS
 10
-12.011109782
 20
18.930912987
 11
-12.11170488
 21
18.830317889
  0
LINE
  5
266
100
AcDbEntity
  8
RACCORDO
100
AcDbLine
 62
7
  6
CONTINUOUS
 10
-7.4454528554
 20
22.6030458097
 11
-7.5871435142
 21
22.4613551508
  0
LINE
  5
267
100
AcDbEntity
  8
RACCORDO
100
AcDbLine
 62
7
  6
CONTINUOUS
 10
-7.442022769
 20
-23.2287068966
 11
-7.5871435142
 21
-23.2577282164
  0
LINE
  5
268
100
AcDbEntity
  8
RACCORDO
100
AcDbLine
 62
7
  6
CONTINUOUS
 10
-5.2421725241
 20
-22.5007488485
 11
-5.192022769
 21
-22.5007488485
  0
LINE
  5
269
100
AcDbEntity
  8
RACCORDO
100
AcDbLine
 62
7
  6
CONTINUOUS
 10
2.7581269861
 20
-22.5007488485
 11
2.707977231
 21
-22.5007488485
  0
LINE
  5
26A
100
AcDbEntity
  8
RACCORDO
100
AcDbLine
 62
7
  6
CONTINUOUS
 10
9.3696141644
 20
-22.4615988572
 11
6.7195760882
 21
-22.4615988572
  0
LINE
  5
26B
100
AcDbEntity
  8
DRAFT
100
AcDbLine
 62
7
  6
CONTINUOUS
 10
-5.2343432891
 20
-22.4615988572
 11
2.7502977511
 21
-22.4615988572
  0
LINE
  5
26C
100
AcDbEntity
  8
RACCORDO
100
AcDbLine
 62
7
  6
CONTINUOUS
 10
-9.2036216261
 20
-22.4615988572
 11
-11.8536597024
 21
-22.4615988572
  0
LINE
  5
26D
100
AcDbEntity
  8
RACCORDO
100
AcDbLine
 62
7
  6
CONTINUOUS
 10
5.9194542257
 20
-22.4476348052
 11
5.9029761324
 21
-22.4476348052
  0
LINE
  5
26E
100
AcDbEntity
  8
RACCORDO
100
AcDbLine
 62
7
  6
CONTINUOUS
 10
-8.3870216703
 20
-22.4476348052
 11
-8.4034997637
 21
-22.4476348052
  0
LINE
  5
26F
100
AcDbEntity
  8
RACCORDO
100
AcDbLine
 62
7
  6
CONTINUOUS
 10
9.2771023203
 20
-22.369087013
 11
-11.7611478582
 21
-22.369087013
  0
LWPOLYLINE
  5
270
100
AcDbEntity
  8
RACCORDO
100
AcDbPolyline
 62
7
  6
CONTINUOUS
 90
20
 70
0
 10
2.707977231
 20
-22.5007488485
 10
2.6948046048
 20
-22.5006118295
 10
2.6817985834
 20
-22.5002159845
 10
2.6689591666
 20
-22.4995613135
 10
2.6562329538
 20
-22.4986428109
 10
2.6436733457
 20
-22.4974654822
 10
2.6314405445
 20
-22.4960443449
 10
2.6195387366
 20
-22.4943762757
 10
2.6079637355
 20
-22.4924643977
 10
2.5968631844
 20
-22.4903330977
 10
2.586243161
 20
-22.4879795649
 10
2.5760975877
 20
-22.4854066101
 10
2.5665558748
 20
-22.4826470521
 10
2.5576257576
 20
-22.4796985006
 10
2.5492995007
 20
-22.4765633461
 10
2.5416833086
 20
-22.4732815784
 10
2.5347862769
 20
-22.4698513194
 10
2.5285993099
 20
-22.4662744474
 10
2.5232013245
 20
-22.4625965865
 10
2.5219874938
 20
-22.4615988572
  0
LINE
  5
271
100
AcDbEntity
  8
RACCORDO
100
AcDbLine
 62
7
  6
CONTINUOUS
 10
5.1030979762
 20
-23.2577282164
 11
4.957977231
 21
-23.2287068966
  0
LINE
  5
272
100
AcDbEntity
  8
RACCORDO
100
AcDbLine
 62
7
  6
CONTINUOUS
 10
-12.011109782
 20
-18.930912987
 11
-12.11170488
 21
-18.830317889
  0
LINE
  5
273
100
AcDbEntity
  8
RACCORDO
100
AcDbLine
 62
7
  6
CONTINUOUS
 10
-7.5871435142
 20
-22.4613551508
 11
-7.4454528554
 21
-22.6030458097
  0
LINE
  5
274
100
AcDbEntity
  8
DRAFT
100
AcDbLine
 62
7
  6
CONTINUOUS
 10
-12.1036216261
 20
-19.5492615675
 11
-12.142022769
 21
-19.5
  0
LINE
  5
275
100
AcDbEntity
  8
DRAFT
100
AcDbLine
 62
7
  6
CONTINUOUS
 10
-12.011109782
 20
-18.930912987
 11
9.5270642441
 21
-18.930912987
  0
LINE
  5
276
100
AcDbEntity
  8
DRAFT
100
AcDbLine
 62
7
  6
CONTINUOUS
 10
-9.5710787329
 20
-18.9047303896
 11
-7.2629668051
 21
-18.9047303896
  0
LINE
  5
277
100
AcDbEntity
  8
DRAFT
100
AcDbLine
 62
7
  6
CONTINUOUS
 10
4.7789212671
 20
-18.9047303896
 11
7.0870331949
 21
-18.9047303896
  0
LINE
  5
278
100
AcDbEntity
  8
DRAFT
100
AcDbLine
 62
7
  6
CONTINUOUS
 10
-5.2343432891
 20
-18.8384011428
 11
2.7502977511
 21
-18.8384011428
  0
LINE
  5
279
100
AcDbEntity
  8
RACCORDO
100
AcDbLine
 62
250
  6
CONTINUOUS
 10
9.6276593421
 20
-18.830317889
 11
7.1019142443
 21
-18.830317889
  0
LINE
  5
27A
100
AcDbEntity
  8
RACCORDO
100
AcDbLine
 62
250
  6
CONTINUOUS
 10
4.7640402177
 20
-18.830317889
 11
2.7519142443
 21
-18.830317889
  0
LINE
  5
27B
100
AcDbEntity
  8
RACCORDO
100
AcDbLine
 62
250
  6
CONTINUOUS
 10
-5.2359597823
 20
-18.830317889
 11
-7.2480857557
 21
-18.830317889
  0
LINE
  5
27C
100
AcDbEntity
  8
RACCORDO
100
AcDbLine
 62
250
  6
CONTINUOUS
 10
-9.5859597823
 20
-18.830317889
 11
-12.11170488
 21
-18.830317889
  0
LINE
  5
27D
100
AcDbEntity
  8
DRAFT
100
AcDbLine
 62
7
  6
CONTINUOUS
 10
-9.542022769
 20
-18.55
 11
-9.392022769
 21
-18.7
  0
LINE
  5
27E
100
AcDbEntity
  8
ASSI
100
AcDbLine
 62
7
  6
CONTINUOUS
 10
-9.542022769
 20
-18.55
 11
-9.392022769
 21
-18.7
  0
LWPOLYLINE
  5
27F
100
AcDbEntity
  8
ASSI
100
AcDbPolyline
 62
250
  6
CONTINUOUS
 90
13
 70
0
 10
9.2338846104
 20
-17.0140608858
 10
9.2665099986
 20
-17.0119045604
 10
9.2985771378
 20
-17.0055615431
 10
9.3295375377
 20
-16.9951404043
 10
9.358861692
 20
-16.9808194443
 10
9.3860480171
 20
-16.9628436948
 10
9.4106314608
 20
-16.9415207715
 10
9.4321916108
 20
-16.9172155017
 10
9.4503598324
 20
-16.8903436549
 10
9.4648254841
 20
-16.8613649217
 10
9.4753412816
 20
-16.8307749908
 10
9.4817275121
 20
-16.7990970632
 10
9.4838750912
 20
-16.7668729264
  0
LWPOLYLINE
  5
280
100
AcDbEntity
  8
RACCORDO
100
AcDbPolyline
 62
250
  6
CONTINUOUS
 90
13
 70
0
 10
9.2338846104
 20
-17.0140608858
 10
9.2665099986
 20
-17.0119045604
 10
9.2985771378
 20
-17.0055615431
 10
9.3295375377
 20
-16.9951404043
 10
9.358861692
 20
-16.9808194443
 10
9.3860480171
 20
-16.9628436948
 10
9.4106314608
 20
-16.9415207715
 10
9.4321916108
 20
-16.9172155017
 10
9.4503598324
 20
-16.8903436549
 10
9.4648254841
 20
-16.8613649217
 10
9.4753412816
 20
-16.8307749908
 10
9.4817275121
 20
-16.7990970632
 10
9.4838750912
 20
-16.7668729264
  0
LINE
  5
281
100
AcDbEntity
  8
ASSI
100
AcDbLine
 62
250
  6
CONTINUOUS
 10
-9.392022769
 20
-18.6317683433
 11
-7.442022769
 21
-18.6317683433
  0
LINE
  5
282
100
AcDbEntity
  8
RACCORDO
100
AcDbLine
 62
250
  6
CONTINUOUS
 10
-9.392022769
 20
-18.6317683433
 11
-7.442022769
 21
-18.6317683433
  0
LINE
  5
283
100
AcDbEntity
  8
ASSI
100
AcDbLine
 62
250
  6
CONTINUOUS
 10
4.957977231
 20
-18.6317683433
 11
6.907977231
 21
-18.6317683433
  0
LINE
  5
284
100
AcDbEntity
  8
RACCORDO
100
AcDbLine
 62
250
  6
CONTINUOUS
 10
4.957977231
 20
-18.6317683433
 11
6.907977231
 21
-18.6317683433
  0
LINE
  5
285
100
AcDbEntity
  8
DRAFT
100
AcDbLine
 62
7
  6
CONTINUOUS
 10
-9.542022769
 20
-18.55
 11
-9.392123104
 21
-18.55
  0
LINE
  5
286
100
AcDbEntity
  8
ASSI
100
AcDbLine
 62
7
  6
CONTINUOUS
 10
-9.542022769
 20
-18.55
 11
-9.392123104
 21
-18.55
  0
LINE
  5
287
100
AcDbEntity
  8
DRAFT
100
AcDbLine
 62
7
  6
CONTINUOUS
 10
-7.441922434
 20
-18.55
 11
-7.2460920032
 21
-18.55
  0
LINE
  5
288
100
AcDbEntity
  8
ASSI
100
AcDbLine
 62
7
  6
CONTINUOUS
 10
-7.441922434
 20
-18.55
 11
-7.2460920032
 21
-18.55
  0
LINE
  5
289
100
AcDbEntity
  8
DRAFT
100
AcDbLine
 62
7
  6
CONTINUOUS
 10
-5.2379535348
 20
-18.55
 11
-3.742022769
 21
-18.55
  0
LINE
  5
28A
100
AcDbEntity
  8
ASSI
100
AcDbLine
 62
7
  6
CONTINUOUS
 10
-5.2379535348
 20
-18.55
 11
-3.742022769
 21
-18.55
  0
LINE
  5
28B
100
AcDbEntity
  8
DRAFT
100
AcDbLine
 62
7
  6
CONTINUOUS
 10
1.257977231
 20
-18.55
 11
2.7539079968
 21
-18.55
  0
LINE
  5
28C
100
AcDbEntity
  8
ASSI
100
AcDbLine
 62
7
  6
CONTINUOUS
 10
1.257977231
 20
-18.55
 11
2.7539079968
 21
-18.55
  0
LINE
  5
28D
100
AcDbEntity
  8
DRAFT
100
AcDbLine
 62
7
  6
CONTINUOUS
 10
4.7620464652
 20
-18.55
 11
4.957876896
 21
-18.55
  0
LINE
  5
28E
100
AcDbEntity
  8
ASSI
100
AcDbLine
 62
7
  6
CONTINUOUS
 10
4.7620464652
 20
-18.55
 11
4.957876896
 21
-18.55
  0
LINE
  5
28F
100
AcDbEntity
  8
DRAFT
100
AcDbLine
 62
7
  6
CONTINUOUS
 10
6.908077566
 20
-18.55
 11
7.057977231
 21
-18.55
  0
LINE
  5
290
100
AcDbEntity
  8
ASSI
100
AcDbLine
 62
7
  6
CONTINUOUS
 10
6.908077566
 20
-18.55
 11
7.057977231
 21
-18.55
  0
LINE
  5
291
100
AcDbEntity
  8
RACCORDO
100
AcDbLine
 62
7
  6
CONTINUOUS
 10
2.7544865583
 20
-18.5034906727
 11
-5.2385320963
 21
-18.5034906727
  0
LINE
  5
292
100
AcDbEntity
  8
ASSI
100
AcDbLine
 62
7
  6
CONTINUOUS
 10
9.3080438522
 20
-18.3442211402
 11
6.907977231
 21
-18.3442211402
  0
LINE
  5
293
100
AcDbEntity
  8
RACCORDO
100
AcDbLine
 62
7
  6
CONTINUOUS
 10
9.3080438522
 20
-18.3442211402
 11
6.907977231
 21
-18.3442211402
  0
LINE
  5
294
100
AcDbEntity
  8
ASSI
100
AcDbLine
 62
7
  6
CONTINUOUS
 10
4.957977231
 20
-18.3442211402
 11
-7.442022769
 21
-18.3442211402
  0
LINE
  5
295
100
AcDbEntity
  8
RACCORDO
100
AcDbLine
 62
7
  6
CONTINUOUS
 10
4.957977231
 20
-18.3442211402
 11
-7.442022769
 21
-18.3442211402
  0
LINE
  5
296
100
AcDbEntity
  8
ASSI
100
AcDbLine
 62
7
  6
CONTINUOUS
 10
-9.392022769
 20
-18.3442211402
 11
-11.7920893902
 21
-18.3442211402
  0
LINE
  5
297
100
AcDbEntity
  8
RACCORDO
100
AcDbLine
 62
7
  6
CONTINUOUS
 10
-9.392022769
 20
-18.3442211402
 11
-11.7920893902
 21
-18.3442211402
  0
LINE
  5
298
100
AcDbEntity
  8
ASSI
100
AcDbLine
 62
250
  6
CONTINUOUS
 10
-9.3945494603
 20
-18.2989010381
 11
-7.4394960776
 21
-18.2989010381
  0
LINE
  5
299
100
AcDbEntity
  8
RACCORDO
100
AcDbLine
 62
250
  6
CONTINUOUS
 10
-9.3945494603
 20
-18.2989010381
 11
-7.4394960776
 21
-18.2989010381
  0
LINE
  5
29A
100
AcDbEntity
  8
ASSI
100
AcDbLine
 62
250
  6
CONTINUOUS
 10
4.9554505397
 20
-18.2989010381
 11
6.9105039224
 21
-18.2989010381
  0
LINE
  5
29B
100
AcDbEntity
  8
RACCORDO
100
AcDbLine
 62
250
  6
CONTINUOUS
 10
4.9554505397
 20
-18.2989010381
 11
6.9105039224
 21
-18.2989010381
  0
LINE
  5
29C
100
AcDbEntity
  8
RACCORDO
100
AcDbLine
 62
250
  6
CONTINUOUS
 10
9.6405221661
 20
-18.0804321176
 11
9.557977231
 21
-18.0804321176
  0
LINE
  5
29D
100
AcDbEntity
  8
RACCORDO
100
AcDbLine
 62
250
  6
CONTINUOUS
 10
-12.042022769
 20
-18.0804321176
 11
-12.1245677041
 21
-18.0804321176
  0
LINE
  5
29E
100
AcDbEntity
  8
ASSI
100
AcDbLine
 62
250
  6
CONTINUOUS
 10
-11.7179301484
 20
-17.0140608858
 11
9.2338846104
 21
-17.0140608858
  0
LINE
  5
29F
100
AcDbEntity
  8
RACCORDO
100
AcDbLine
 62
250
  6
CONTINUOUS
 10
-11.7179301484
 20
-17.0140608858
 11
9.2338846104
 21
-17.0140608858
  0
LWPOLYLINE
  5
2A0
100
AcDbEntity
  8
ASSI
100
AcDbPolyline
 62
250
  6
CONTINUOUS
 90
13
 70
0
 10
-11.7179301484
 20
-17.0140608858
 10
-11.7505541656
 20
-17.011904741
 10
-11.7826201928
 20
-17.0055622043
 10
-11.8135797839
 20
-16.9951417563
 10
-11.8429034168
 20
-16.9808216247
 10
-11.8700895501
 20
-16.9628467361
 10
-11.8946732019
 20
-16.9415245271
 10
-11.9162339018
 20
-16.9172196853
 10
-11.9344028832
 20
-16.8903479124
 10
-11.9488693902
 20
-16.8613688137
 10
-11.9593859927
 20
-16.8307780377
 10
-11.9657728183
 20
-16.7990987983
 10
-11.9679206292
 20
-16.7668729264
  0
LWPOLYLINE
  5
2A1
100
AcDbEntity
  8
RACCORDO
100
AcDbPolyline
 62
250
  6
CONTINUOUS
 90
13
 70
0
 10
-11.7179301484
 20
-17.0140608858
 10
-11.7505541656
 20
-17.011904741
 10
-11.7826201928
 20
-17.0055622043
 10
-11.8135797839
 20
-16.9951417563
 10
-11.8429034168
 20
-16.9808216247
 10
-11.8700895501
 20
-16.9628467361
 10
-11.8946732019
 20
-16.9415245271
 10
-11.9162339018
 20
-16.9172196853
 10
-11.9344028832
 20
-16.8903479124
 10
-11.9488693902
 20
-16.8613688137
 10
-11.9593859927
 20
-16.8307780377
 10
-11.9657728183
 20
-16.7990987983
 10
-11.9679206292
 20
-16.7668729264
  0
LWPOLYLINE
  5
2A2
100
AcDbEntity
  8
RACCORDO
100
AcDbPolyline
 62
7
  6
CONTINUOUS
 90
20
 70
0
 10
2.5219874938
 20
22.4615988572
 10
2.5232013245
 20
22.4625965865
 10
2.5285993099
 20
22.4662744474
 10
2.5347862769
 20
22.4698513194
 10
2.5416833086
 20
22.4732815784
 10
2.5492995007
 20
22.4765633461
 10
2.5576257576
 20
22.4796985006
 10
2.5665558748
 20
22.4826470521
 10
2.5760975877
 20
22.4854066101
 10
2.586243161
 20
22.4879795649
 10
2.5968631844
 20
22.4903330977
 10
2.6079637355
 20
22.4924643977
 10
2.6195387366
 20
22.4943762757
 10
2.6314405445
 20
22.4960443449
 10
2.6436733457
 20
22.4974654822
 10
2.6562329538
 20
22.4986428109
 10
2.6689591666
 20
22.4995613135
 10
2.6817985834
 20
22.5002159845
 10
2.6948046048
 20
22.5006118295
 10
2.707977231
 20
22.5007488485
  0
LWPOLYLINE
  5
2A3
100
AcDbEntity
  8
ASSI
100
AcDbPolyline
 62
250
  6
CONTINUOUS
 90
13
 70
0
 10
-11.7116186236
 20
-15.9441723816
 10
-11.7440685368
 20
-15.9443349757
 10
-11.7759694158
 20
-15.9448425185
 10
-11.8067815131
 20
-15.9456864224
 10
-11.8359835028
 20
-15.9468524093
 10
-11.8630813014
 20
-15.9483207509
 10
-11.8876164273
 20
-15.9500666027
 10
-11.9091737579
 20
-15.9520604255
 10
-11.9273885536
 20
-15.9542684851
 10
-11.941952629
 20
-15.9566534221
 10
-11.9526195669
 20
-15.9591748844
 10
-11.9592088878
 20
-15.9617902103
 10
-11.9616091037
 20
-15.9644551497
  0
LWPOLYLINE
  5
2A4
100
AcDbEntity
  8
RACCORDO
100
AcDbPolyline
 62
250
  6
CONTINUOUS
 90
13
 70
0
 10
-11.7116186236
 20
-15.9441723816
 10
-11.7440685368
 20
-15.9443349757
 10
-11.7759694158
 20
-15.9448425185
 10
-11.8067815131
 20
-15.9456864224
 10
-11.8359835028
 20
-15.9468524093
 10
-11.8630813014
 20
-15.9483207509
 10
-11.8876164273
 20
-15.9500666027
 10
-11.9091737579
 20
-15.9520604255
 10
-11.9273885536
 20
-15.9542684851
 10
-11.941952629
 20
-15.9566534221
 10
-11.9526195669
 20
-15.9591748844
 10
-11.9592088878
 20
-15.9617902103
 10
-11.9616091037
 20
-15.9644551497
  0
LINE
  5
2A5
100
AcDbEntity
  8
ASSI
100
AcDbLine
 62
250
  6
CONTINUOUS
 10
-11.7116186236
 20
-15.9441704907
 11
9.2275730856
 21
-15.9441704907
  0
LINE
  5
2A6
100
AcDbEntity
  8
RACCORDO
100
AcDbLine
 62
250
  6
CONTINUOUS
 10
-11.7116186236
 20
-15.9441704907
 11
9.2275730856
 21
-15.9441704907
  0
LWPOLYLINE
  5
2A7
100
AcDbEntity
  8
ASSI
100
AcDbPolyline
 62
250
  6
CONTINUOUS
 90
13
 70
0
 10
9.2275730856
 20
-15.9441705171
 10
9.2600245164
 20
-15.9443331335
 10
9.291926833
 20
-15.9448407357
 10
9.3227402128
 20
-15.9456847343
 10
9.3519432593
 20
-15.9468508481
 10
9.3790418246
 20
-15.9483193451
 10
9.4035773709
 20
-15.9500653767
 10
9.4251347295
 20
-15.9520593981
 10
9.4433491261
 20
-15.9542676682
 10
9.4579123528
 20
-15.9566528207
 10
9.4685779837
 20
-15.9591744962
 10
9.4751655445
 20
-15.961790025
 10
9.4775635664
 20
-15.9644551497
  0
LWPOLYLINE
  5
2A8
100
AcDbEntity
  8
RACCORDO
100
AcDbPolyline
 62
250
  6
CONTINUOUS
 90
13
 70
0
 10
9.2275730856
 20
-15.9441705171
 10
9.2600245164
 20
-15.9443331335
 10
9.291926833
 20
-15.9448407357
 10
9.3227402128
 20
-15.9456847343
 10
9.3519432593
 20
-15.9468508481
 10
9.3790418246
 20
-15.9483193451
 10
9.4035773709
 20
-15.9500653767
 10
9.4251347295
 20
-15.9520593981
 10
9.4433491261
 20
-15.9542676682
 10
9.4579123528
 20
-15.9566528207
 10
9.4685779837
 20
-15.9591744962
 10
9.4751655445
 20
-15.961790025
 10
9.4775635664
 20
-15.9644551497
  0
LINE
  5
2A9
100
AcDbEntity
  8
ASSI
100
AcDbLine
 62
7
  6
CONTINUOUS
 10
-12.0411688785
 20
17.5568159605
 11
-11.9924131177
 21
18.140890475
  0
LINE
  5
2AA
100
AcDbEntity
  8
RACCORDO
100
AcDbLine
 62
7
  6
CONTINUOUS
 10
-12.0411688785
 20
17.5568159605
 11
-11.9924131177
 21
18.140890475
  0
LINE
  5
2AB
100
AcDbEntity
  8
ASSI
100
AcDbLine
 62
250
  6
CONTINUOUS
 10
-12.042022769
 20
17.5363222402
 11
-11.9932954017
 21
18.120056612
  0
LINE
  5
2AC
100
AcDbEntity
  8
RACCORDO
100
AcDbLine
 62
250
  6
CONTINUOUS
 10
-12.042022769
 20
17.5363222402
 11
-11.9932954017
 21
18.120056612
  0
LWPOLYLINE
  5
2AD
100
AcDbEntity
  8
ASSI
100
AcDbPolyline
 62
7
  6
CONTINUOUS
 90
13
 70
0
 10
-11.9924134198
 20
18.1408868517
 10
-11.9911453593
 20
18.1527349018
 10
-11.9848113131
 20
18.1848915388
 10
-11.9743807463
 20
18.2159876469
 10
-11.9600091715
 20
18.2455077952
 10
-11.9419244006
 20
18.2729389042
 10
-11.9204272338
 20
18.2977816415
 10
-11.8958804505
 20
18.3196000628
 10
-11.8686879638
 20
18.3380241929
 10
-11.8392929897
 20
18.3527224232
 10
-11.8081864923
 20
18.3634226904
 10
-11.7759031774
 20
18.3699239879
 10
-11.7429983473
 20
18.3720938409
  0
LWPOLYLINE
  5
2AE
100
AcDbEntity
  8
RACCORDO
100
AcDbPolyline
 62
7
  6
CONTINUOUS
 90
13
 70
0
 10
-11.9924134198
 20
18.1408868517
 10
-11.9911453593
 20
18.1527349018
 10
-11.9848113131
 20
18.1848915388
 10
-11.9743807463
 20
18.2159876469
 10
-11.9600091715
 20
18.2455077952
 10
-11.9419244006
 20
18.2729389042
 10
-11.9204272338
 20
18.2977816415
 10
-11.8958804505
 20
18.3196000628
 10
-11.8686879638
 20
18.3380241929
 10
-11.8392929897
 20
18.3527224232
 10
-11.8081864923
 20
18.3634226904
 10
-11.7759031774
 20
18.3699239879
 10
-11.7429983473
 20
18.3720938409
  0
LINE
  5
2AF
100
AcDbEntity
  8
RACCORDO
100
AcDbLine
 62
7
  6
CONTINUOUS
 10
-9.5710787329
 20
-18.9047303896
 11
-9.5859597823
 21
-18.830317889
  0
LWPOLYLINE
  5
2B0
100
AcDbEntity
  8
ASSI
100
AcDbPolyline
 62
250
  6
CONTINUOUS
 90
3
 70
0
 10
-11.965988346
 20
17.5518707884
 10
-11.965477361
 20
17.5385443152
 10
-11.9649881729
 20
17.5205448267
  0
LWPOLYLINE
  5
2B1
100
AcDbEntity
  8
RACCORDO
100
AcDbPolyline
 62
250
  6
CONTINUOUS
 90
3
 70
0
 10
-11.965988346
 20
17.5518707884
 10
-11.965477361
 20
17.5385443152
 10
-11.9649881729
 20
17.5205448267
  0
LWPOLYLINE
  5
2B2
100
AcDbEntity
  8
ASSI
100
AcDbPolyline
 62
250
  6
CONTINUOUS
 90
3
 70
0
 10
-11.7159978653
 20
17.7978068524
 10
-11.7154838711
 20
17.7801739887
 10
-11.7149927754
 20
17.7559793368
  0
LWPOLYLINE
  5
2B3
100
AcDbEntity
  8
RACCORDO
100
AcDbPolyline
 62
250
  6
CONTINUOUS
 90
3
 70
0
 10
-11.7159978653
 20
17.7978068524
 10
-11.7154838711
 20
17.7801739887
 10
-11.7149927754
 20
17.7559793368
  0
LINE
  5
2B4
100
AcDbEntity
  8
ASSI
100
AcDbLine
 62
250
  6
CONTINUOUS
 10
-11.9649881729
 20
17.5205448267
 11
-11.9640719519
 21
17.4703060026
  0
LINE
  5
2B5
100
AcDbEntity
  8
RACCORDO
100
AcDbLine
 62
250
  6
CONTINUOUS
 10
-11.9649881729
 20
17.5205448267
 11
-11.9640719519
 21
17.4703060026
  0
LINE
  5
2B6
100
AcDbEntity
  8
ASSI
100
AcDbLine
 62
250
  6
CONTINUOUS
 10
-11.7149927754
 20
17.7559793368
 11
-11.7140764534
 21
17.6886087866
  0
LINE
  5
2B7
100
AcDbEntity
  8
RACCORDO
100
AcDbLine
 62
250
  6
CONTINUOUS
 10
-11.7149927754
 20
17.7559793368
 11
-11.7140764534
 21
17.6886087866
  0
LINE
  5
2B8
100
AcDbEntity
  8
ASSI
100
AcDbLine
 62
250
  6
CONTINUOUS
 10
-11.9640719519
 20
17.4703060026
 11
-11.963249391
 21
17.4018167203
  0
LINE
  5
2B9
100
AcDbEntity
  8
RACCORDO
100
AcDbLine
 62
250
  6
CONTINUOUS
 10
-11.9640719519
 20
17.4703060026
 11
-11.963249391
 21
17.4018167203
  0
LINE
  5
2BA
100
AcDbEntity
  8
ASSI
100
AcDbLine
 62
250
  6
CONTINUOUS
 10
-11.7140764534
 20
17.6886087866
 11
-11.7132573756
 21
17.5975188042
  0
LINE
  5
2BB
100
AcDbEntity
  8
RACCORDO
100
AcDbLine
 62
250
  6
CONTINUOUS
 10
-11.7140764534
 20
17.6886087866
 11
-11.7132573756
 21
17.5975188042
  0
LINE
  5
2BC
100
AcDbEntity
  8
ASSI
100
AcDbLine
 62
250
  6
CONTINUOUS
 10
-11.963249391
 20
17.4018167203
 11
-11.9625547155
 21
17.3171084697
  0
LINE
  5
2BD
100
AcDbEntity
  8
RACCORDO
100
AcDbLine
 62
250
  6
CONTINUOUS
 10
-11.963249391
 20
17.4018167203
 11
-11.9625547155
 21
17.3171084697
  0
LINE
  5
2BE
100
AcDbEntity
  8
ASSI
100
AcDbLine
 62
250
  6
CONTINUOUS
 10
-11.7132573756
 20
17.5975188042
 11
-11.7125649382
 21
17.4851327074
  0
LINE
  5
2BF
100
AcDbEntity
  8
RACCORDO
100
AcDbLine
 62
250
  6
CONTINUOUS
 10
-11.7132573756
 20
17.5975188042
 11
-11.7125649382
 21
17.4851327074
  0
LINE
  5
2C0
100
AcDbEntity
  8
ASSI
100
AcDbLine
 62
250
  6
CONTINUOUS
 10
-11.9625547155
 20
17.3171084697
 11
-11.962007669
 21
17.219044926
  0
LINE
  5
2C1
100
AcDbEntity
  8
RACCORDO
100
AcDbLine
 62
250
  6
CONTINUOUS
 10
-11.9625547155
 20
17.3171084697
 11
-11.962007669
 21
17.219044926
  0
LINE
  5
2C2
100
AcDbEntity
  8
ASSI
100
AcDbLine
 62
250
  6
CONTINUOUS
 10
-11.7125649382
 20
17.4851327074
 11
-11.7120191145
 21
17.3545509031
  0
LINE
  5
2C3
100
AcDbEntity
  8
RACCORDO
100
AcDbLine
 62
250
  6
CONTINUOUS
 10
-11.7125649382
 20
17.4851327074
 11
-11.7120191145
 21
17.3545509031
  0
LINE
  5
2C4
100
AcDbEntity
  8
ASSI
100
AcDbLine
 62
250
  6
CONTINUOUS
 10
-11.962007669
 20
17.219044926
 11
-11.9616194402
 21
17.1097637205
  0
LINE
  5
2C5
100
AcDbEntity
  8
RACCORDO
100
AcDbLine
 62
250
  6
CONTINUOUS
 10
-11.962007669
 20
17.219044926
 11
-11.9616194402
 21
17.1097637205
  0
LINE
  5
2C6
100
AcDbEntity
  8
ASSI
100
AcDbLine
 62
250
  6
CONTINUOUS
 10
-11.7120191145
 20
17.3545509031
 11
-11.7116309464
 21
17.2093281177
  0
LINE
  5
2C7
100
AcDbEntity
  8
RACCORDO
100
AcDbLine
 62
250
  6
CONTINUOUS
 10
-11.7120191145
 20
17.3545509031
 11
-11.7116309464
 21
17.2093281177
  0
LINE
  5
2C8
100
AcDbEntity
  8
ASSI
100
AcDbLine
 62
250
  6
CONTINUOUS
 10
-11.9616194402
 20
17.1097637205
 11
-11.9614048387
 21
16.9937975573
  0
LINE
  5
2C9
100
AcDbEntity
  8
RACCORDO
100
AcDbLine
 62
250
  6
CONTINUOUS
 10
-11.9616194402
 20
17.1097637205
 11
-11.9614048387
 21
16.9937975573
  0
LINE
  5
2CA
100
AcDbEntity
  8
ASSI
100
AcDbLine
 62
250
  6
CONTINUOUS
 10
-11.7116309464
 20
17.2093281177
 11
-11.7114152975
 21
17.053355608
  0
LINE
  5
2CB
100
AcDbEntity
  8
RACCORDO
100
AcDbLine
 62
250
  6
CONTINUOUS
 10
-11.7116309464
 20
17.2093281177
 11
-11.7114152975
 21
17.053355608
  0
LWPOLYLINE
  5
2CC
100
AcDbEntity
  8
ASSI
100
AcDbPolyline
 62
250
  6
CONTINUOUS
 90
9
 70
0
 10
-11.9614048387
 20
16.9937975573
 10
-11.96027429
 20
13.2940219085
 10
-11.9594657008
 20
9.6507586311
 10
-11.9589358109
 20
6.0032151739
 10
-11.9586846226
 20
2.3511147147
 10
-11.9587121337
 20
-1.3052659243
 10
-11.959018338
 20
-4.9650962768
 10
-11.9596032336
 20
-8.6280995209
 10
-11.9604668224
 20
-12.2945524785
  0
LWPOLYLINE
  5
2CD
100
AcDbEntity
  8
RACCORDO
100
AcDbPolyline
 62
250
  6
CONTINUOUS
 90
9
 70
0
 10
-11.9614048387
 20
16.9937975573
 10
-11.96027429
 20
13.2940219085
 10
-11.9594657008
 20
9.6507586311
 10
-11.9589358109
 20
6.0032151739
 10
-11.9586846226
 20
2.3511147147
 10
-11.9587121337
 20
-1.3052659243
 10
-11.959018338
 20
-4.9650962768
 10
-11.9596032336
 20
-8.6280995209
 10
-11.9604668224
 20
-12.2945524785
  0
LWPOLYLINE
  5
2CE
100
AcDbEntity
  8
ASSI
100
AcDbPolyline
 62
250
  6
CONTINUOUS
 90
9
 70
0
 10
-11.7114152975
 20
17.053355608
 10
-11.7102838087
 20
13.3319787151
 10
-11.7094752192
 20
9.686476466
 10
-11.7089453291
 20
6.0364198315
 10
-11.7086941407
 20
2.3820832919
 10
-11.7087216519
 20
-1.2762583675
 10
-11.7090278564
 20
-4.9383300761
 10
-11.7096127521
 20
-8.6038564669
 10
-11.7104763412
 20
-12.2725618965
  0
LWPOLYLINE
  5
2CF
100
AcDbEntity
  8
RACCORDO
100
AcDbPolyline
 62
250
  6
CONTINUOUS
 90
9
 70
0
 10
-11.7114152975
 20
17.053355608
 10
-11.7102838087
 20
13.3319787151
 10
-11.7094752192
 20
9.686476466
 10
-11.7089453291
 20
6.0364198315
 10
-11.7086941407
 20
2.3820832919
 10
-11.7087216519
 20
-1.2762583675
 10
-11.7090278564
 20
-4.9383300761
 10
-11.7096127521
 20
-8.6038564669
 10
-11.7104763412
 20
-12.2725618965
  0
LINE
  5
2D0
100
AcDbEntity
  8
DRAFT
100
AcDbLine
 62
7
  6
CONTINUOUS
 10
-12.142022769
 20
19.5
 11
-12.142022769
 21
-19.5
  0
LINE
  5
2D1
100
AcDbEntity
  8
ASSI
100
AcDbLine
 62
7
  6
CONTINUOUS
 10
-12.142022769
 20
-19.5
 11
-12.142022769
 21
19.5
  0
LINE
  5
2D2
100
AcDbEntity
  8
RACCORDO
100
AcDbLine
 62
7
  6
CONTINUOUS
 10
-12.1245677041
 20
-18.0804321176
 11
-12.1245677041
 21
18.0804321176
  0
LINE
  5
2D3
100
AcDbEntity
  8
RACCORDO
100
AcDbLine
 62
7
  6
CONTINUOUS
 10
-12.1036216261
 20
-22.2116369334
 11
-12.1036216261
 21
-19.5492615675
  0
LINE
  5
2D4
100
AcDbEntity
  8
RACCORDO
100
AcDbLine
 62
7
  6
CONTINUOUS
 10
-12.1036216261
 20
19.5492615675
 11
-12.1036216261
 21
22.2116369334
  0
LINE
  5
2D5
100
AcDbEntity
  8
ASSI
100
AcDbLine
 62
7
  6
CONTINUOUS
 10
-12.042022769
 20
17.5363222402
 11
-12.042022769
 21
-18.0960089685
  0
LINE
  5
2D6
100
AcDbEntity
  8
RACCORDO
100
AcDbLine
 62
7
  6
CONTINUOUS
 10
-12.042022769
 20
17.5363222402
 11
-12.042022769
 21
-18.0960089685
  0
LINE
  5
2D7
100
AcDbEntity
  8
RACCORDO
100
AcDbLine
 62
7
  6
CONTINUOUS
 10
-12.011109782
 20
-22.1191250892
 11
-12.011109782
 21
-18.930912987
  0
LINE
  5
2D8
100
AcDbEntity
  8
RACCORDO
100
AcDbLine
 62
7
  6
CONTINUOUS
 10
-12.011109782
 20
18.930912987
 11
-12.011109782
 21
22.1191250892
  0
LINE
  5
2D9
100
AcDbEntity
  8
ASSI
100
AcDbLine
 62
250
  6
CONTINUOUS
 10
-11.7104763412
 20
-12.2725618965
 11
-11.7117532394
 21
-16.1102006917
  0
LINE
  5
2DA
100
AcDbEntity
  8
RACCORDO
100
AcDbLine
 62
250
  6
CONTINUOUS
 10
-11.7104763412
 20
-12.2725618965
 11
-11.7117532394
 21
-16.1102006917
  0
LINE
  5
2DB
100
AcDbEntity
  8
ASSI
100
AcDbLine
 62
250
  6
CONTINUOUS
 10
-11.9604668224
 20
-12.2945524785
 11
-11.9617420865
 21
-16.0888447662
  0
LINE
  5
2DC
100
AcDbEntity
  8
RACCORDO
100
AcDbLine
 62
250
  6
CONTINUOUS
 10
-11.9604668224
 20
-12.2945524785
 11
-11.9617420865
 21
-16.0888447662
  0
LINE
  5
2DD
100
AcDbEntity
  8
ASSI
100
AcDbLine
 62
250
  6
CONTINUOUS
 10
-11.7117532394
 20
-16.1102006917
 11
-11.7120618083
 21
-16.2739200885
  0
LINE
  5
2DE
100
AcDbEntity
  8
RACCORDO
100
AcDbLine
 62
250
  6
CONTINUOUS
 10
-11.7117532394
 20
-16.1102006917
 11
-11.7120618083
 21
-16.2739200885
  0
LINE
  5
2DF
100
AcDbEntity
  8
ASSI
100
AcDbLine
 62
250
  6
CONTINUOUS
 10
-11.9617420865
 20
-16.0888447662
 11
-11.9620499142
 21
-16.2108047984
  0
LINE
  5
2E0
100
AcDbEntity
  8
RACCORDO
100
AcDbLine
 62
250
  6
CONTINUOUS
 10
-11.9617420865
 20
-16.0888447662
 11
-11.9620499142
 21
-16.2108047984
  0
LINE
  5
2E1
100
AcDbEntity
  8
ASSI
100
AcDbLine
 62
250
  6
CONTINUOUS
 10
-11.7120618083
 20
-16.2739200885
 11
-11.7125398277
 21
-16.4308158062
  0
LINE
  5
2E2
100
AcDbEntity
  8
RACCORDO
100
AcDbLine
 62
250
  6
CONTINUOUS
 10
-11.7120618083
 20
-16.2739200885
 11
-11.7125398277
 21
-16.4308158062
  0
LINE
  5
2E3
100
AcDbEntity
  8
ASSI
100
AcDbLine
 62
250
  6
CONTINUOUS
 10
-11.9620499142
 20
-16.2108047984
 11
-11.962528088
 21
-16.3289764271
  0
LINE
  5
2E4
100
AcDbEntity
  8
RACCORDO
100
AcDbLine
 62
250
  6
CONTINUOUS
 10
-11.9620499142
 20
-16.2108047984
 11
-11.962528088
 21
-16.3289764271
  0
LINE
  5
2E5
100
AcDbEntity
  8
ASSI
100
AcDbLine
 62
250
  6
CONTINUOUS
 10
-11.7125398277
 20
-16.4308158062
 11
-11.7131738698
 21
-16.5765636576
  0
LINE
  5
2E6
100
AcDbEntity
  8
RACCORDO
100
AcDbLine
 62
250
  6
CONTINUOUS
 10
-11.7125398277
 20
-16.4308158062
 11
-11.7131738698
 21
-16.5765636576
  0
LINE
  5
2E7
100
AcDbEntity
  8
ASSI
100
AcDbLine
 62
250
  6
CONTINUOUS
 10
-11.962528088
 20
-16.3289764271
 11
-11.9631632276
 21
-16.4386691497
  0
LINE
  5
2E8
100
AcDbEntity
  8
RACCORDO
100
AcDbLine
 62
250
  6
CONTINUOUS
 10
-11.962528088
 20
-16.3289764271
 11
-11.9631632276
 21
-16.4386691497
  0
LINE
  5
2E9
100
AcDbEntity
  8
ASSI
100
AcDbLine
 62
250
  6
CONTINUOUS
 10
-11.7131738698
 20
-16.5765636576
 11
-11.7139424015
 21
-16.7071452331
  0
LINE
  5
2EA
100
AcDbEntity
  8
RACCORDO
100
AcDbLine
 62
250
  6
CONTINUOUS
 10
-11.7131738698
 20
-16.5765636576
 11
-11.7139424015
 21
-16.7071452331
  0
LINE
  5
2EB
100
AcDbEntity
  8
ASSI
100
AcDbLine
 62
250
  6
CONTINUOUS
 10
-11.9631632276
 20
-16.4386691497
 11
-11.9639336375
 21
-16.536625353
  0
LINE
  5
2EC
100
AcDbEntity
  8
RACCORDO
100
AcDbLine
 62
250
  6
CONTINUOUS
 10
-11.9631632276
 20
-16.4386691497
 11
-11.9639336375
 21
-16.536625353
  0
LINE
  5
2ED
100
AcDbEntity
  8
ASSI
100
AcDbLine
 62
250
  6
CONTINUOUS
 10
-11.7139424015
 20
-16.7071452331
 11
-11.7148296693
 21
-16.8189604286
  0
LINE
  5
2EE
100
AcDbEntity
  8
RACCORDO
100
AcDbLine
 62
250
  6
CONTINUOUS
 10
-11.7139424015
 20
-16.7071452331
 11
-11.7148296693
 21
-16.8189604286
  0
LINE
  5
2EF
100
AcDbEntity
  8
ASSI
100
AcDbLine
 62
250
  6
CONTINUOUS
 10
-11.9639336375
 20
-16.536625353
 11
-11.9648233499
 21
-16.6208124341
  0
LINE
  5
2F0
100
AcDbEntity
  8
RACCORDO
100
AcDbLine
 62
250
  6
CONTINUOUS
 10
-11.9639336375
 20
-16.536625353
 11
-11.9648233499
 21
-16.6208124341
  0
LINE
  5
2F1
100
AcDbEntity
  8
ASSI
100
AcDbLine
 62
250
  6
CONTINUOUS
 10
-11.7148296693
 20
-16.8189604286
 11
-11.7158092678
 21
-16.9089263394
  0
LINE
  5
2F2
100
AcDbEntity
  8
RACCORDO
100
AcDbLine
 62
250
  6
CONTINUOUS
 10
-11.7148296693
 20
-16.8189604286
 11
-11.7158092678
 21
-16.9089263394
  0
LWPOLYLINE
  5
2F3
100
AcDbEntity
  8
ASSI
100
AcDbPolyline
 62
250
  6
CONTINUOUS
 90
6
 70
0
 10
-11.9648233499
 20
-16.6208124341
 10
-11.9658061134
 20
-16.6883840142
 10
-11.9663203951
 20
-16.7153372145
 10
-11.966842341
 20
-16.7372923483
 10
-11.9673757524
 20
-16.7544709189
 10
-11.9679206292
 20
-16.7668729264
  0
LWPOLYLINE
  5
2F4
100
AcDbEntity
  8
RACCORDO
100
AcDbPolyline
 62
250
  6
CONTINUOUS
 90
6
 70
0
 10
-11.9648233499
 20
-16.6208124341
 10
-11.9658061134
 20
-16.6883840142
 10
-11.9663203951
 20
-16.7153372145
 10
-11.966842341
 20
-16.7372923483
 10
-11.9673757524
 20
-16.7544709189
 10
-11.9679206292
 20
-16.7668729264
  0
LWPOLYLINE
  5
2F5
100
AcDbEntity
  8
ASSI
100
AcDbPolyline
 62
250
  6
CONTINUOUS
 90
4
 70
0
 10
-11.7158092678
 20
-16.9089263394
 10
-11.7168461728
 20
-16.9745630401
 10
-11.7173818503
 20
-16.9976647331
 10
-11.7179301484
 20
-17.0140608858
  0
LWPOLYLINE
  5
2F6
100
AcDbEntity
  8
RACCORDO
100
AcDbPolyline
 62
250
  6
CONTINUOUS
 90
4
 70
0
 10
-11.7158092678
 20
-16.9089263394
 10
-11.7168461728
 20
-16.9745630401
 10
-11.7173818503
 20
-16.9976647331
 10
-11.7179301484
 20
-17.0140608858
  0
LINE
  5
2F7
100
AcDbEntity
  8
ASSI
100
AcDbLine
 62
7
  6
CONTINUOUS
 10
-11.9932954017
 20
18.120056612
 11
-11.9924134198
 21
18.1408868517
  0
LINE
  5
2F8
100
AcDbEntity
  8
RACCORDO
100
AcDbLine
 62
7
  6
CONTINUOUS
 10
-11.9932954017
 20
18.120056612
 11
-11.9924134198
 21
18.1408868517
  0
LWPOLYLINE
  5
2F9
100
AcDbEntity
  8
0
100
AcDbPolyline
 62
7
  6
CONTINUOUS
 90
3
 70
0
 43
0.3500000006
 10
-0.5277370498
 20
34.0857120667
 10
-0.5991656127
 20
33.8714275818
 10
-0.7420227385
 20
33.5857164459
  0
LINE
  5
2FA
100
AcDbEntity
  8
RACCORDO
100
AcDbLine
 62
7
  6
CONTINUOUS
 10
6.7195760882
 20
22.4615988572
 11
6.7193323819
 21
22.4613551508
  0
LINE
  5
2FB
100
AcDbEntity
  8
RACCORDO
100
AcDbLine
 62
7
  6
CONTINUOUS
 10
6.7195760882
 20
-22.4615988572
 11
6.7193323819
 21
-22.4613551508
  0
LINE
  5
2FC
100
AcDbEntity
  8
ASSI
100
AcDbLine
 62
250
  6
CONTINUOUS
 10
-11.9932954017
 20
18.120056612
 11
-11.965988346
 21
17.5518707884
  0
LINE
  5
2FD
100
AcDbEntity
  8
RACCORDO
100
AcDbLine
 62
250
  6
CONTINUOUS
 10
-11.9932954017
 20
18.120056612
 11
-11.965988346
 21
17.5518707884
  0
LINE
  5
2FE
100
AcDbEntity
  8
ASSI
100
AcDbLine
 62
250
  6
CONTINUOUS
 10
-11.7435981434
 20
18.3720938409
 11
-11.7159978653
 21
17.7978068524
  0
LINE
  5
2FF
100
AcDbEntity
  8
RACCORDO
100
AcDbLine
 62
250
  6
CONTINUOUS
 10
-11.7435981434
 20
18.3720938409
 11
-11.7159978653
 21
17.7978068524
  0
LINE
  5
300
100
AcDbEntity
  8
0
100
AcDbLine
 62
7
  6
CONTINUOUS
 10
-9.542022769
 20
-18.55
 11
-9.542022769
 21
-18.9047303896
  0
LINE
  5
301
100
AcDbEntity
  8
ASSI
100
AcDbLine
 62
7
  6
CONTINUOUS
 10
-9.542022769
 20
-18.55
 11
-9.542022769
 21
-18.9047303896
  0
LINE
  5
302
100
AcDbEntity
  8
ASSI
100
AcDbLine
 62
7
  6
CONTINUOUS
 10
-9.392022769
 20
-18.6317683433
 11
-9.392022769
 21
-18.9047303896
  0
LINE
  5
303
100
AcDbEntity
  8
RACCORDO
100
AcDbLine
 62
7
  6
CONTINUOUS
 10
-9.392022769
 20
-18.6317683433
 11
-9.392022769
 21
-18.9047303896
  0
LINE
  5
304
100
AcDbEntity
  8
ASSI
100
AcDbLine
 62
250
  6
CONTINUOUS
 10
-11.9679206292
 20
-16.7668729264
 11
-12.042022769
 21
-18.0960089685
  0
LINE
  5
305
100
AcDbEntity
  8
RACCORDO
100
AcDbLine
 62
250
  6
CONTINUOUS
 10
-11.9679206292
 20
-16.7668729264
 11
-12.042022769
 21
-18.0960089685
  0
LINE
  5
306
100
AcDbEntity
  8
ASSI
100
AcDbLine
 62
250
  6
CONTINUOUS
 10
-11.7179301484
 20
-17.0140608858
 11
-11.7920893902
 21
-18.3442211402
  0
LINE
  5
307
100
AcDbEntity
  8
RACCORDO
100
AcDbLine
 62
250
  6
CONTINUOUS
 10
-11.7179301484
 20
-17.0140608858
 11
-11.7920893902
 21
-18.3442211402
  0
LINE
  5
308
100
AcDbEntity
  8
RACCORDO
100
AcDbLine
 62
250
  6
CONTINUOUS
 10
9.2771023203
 20
22.369087013
 11
9.3696141644
 21
22.4615988572
  0
LINE
  5
309
100
AcDbEntity
  8
RACCORDO
100
AcDbLine
 62
250
  6
CONTINUOUS
 10
9.2771023203
 20
-22.369087013
 11
9.3696141644
 21
-22.4615988572
  0
LINE
  5
30A
100
AcDbEntity
  8
DRAFT
100
AcDbLine
 62
7
  6
CONTINUOUS
 10
-9.2036216261
 20
23.2576794799
 11
-9.2036216261
 21
22.4615988572
  0
LINE
  5
30B
100
AcDbEntity
  8
DRAFT
100
AcDbLine
 62
7
  6
CONTINUOUS
 10
-9.2036216261
 20
-23.2576794799
 11
-9.2036216261
 21
-22.4615988572
  0
LINE
  5
30C
100
AcDbEntity
  8
RACCORDO
100
AcDbLine
 62
250
  6
CONTINUOUS
 10
-9.2033779198
 20
23.2577282164
 11
-9.2033779198
 21
22.4613551508
  0
LINE
  5
30D
100
AcDbEntity
  8
RACCORDO
100
AcDbLine
 62
250
  6
CONTINUOUS
 10
-9.2033779198
 20
-22.4613551508
 11
-9.2033779198
 21
-23.2577282164
  0
LINE
  5
30E
100
AcDbEntity
  8
RACCORDO
100
AcDbLine
 62
250
  6
CONTINUOUS
 10
-8.4034997637
 20
23.260472018
 11
-8.4034997637
 21
22.4476348052
  0
LINE
  5
30F
100
AcDbEntity
  8
RACCORDO
100
AcDbLine
 62
250
  6
CONTINUOUS
 10
-8.4034997637
 20
-22.4476348052
 11
-8.4034997637
 21
-23.260472018
  0
LINE
  5
310
100
AcDbEntity
  8
RACCORDO
100
AcDbLine
 62
250
  6
CONTINUOUS
 10
-8.3870216703
 20
23.260472018
 11
-8.3870216703
 21
22.4476348052
  0
LINE
  5
311
100
AcDbEntity
  8
RACCORDO
100
AcDbLine
 62
250
  6
CONTINUOUS
 10
-8.3870216703
 20
-23.260472018
 11
-8.3870216703
 21
-22.4476348052
  0
LINE
  5
312
100
AcDbEntity
  8
RACCORDO
100
AcDbLine
 62
250
  6
CONTINUOUS
 10
-7.5871435142
 20
23.2577282164
 11
-7.5871435142
 21
22.4613551508
  0
LINE
  5
313
100
AcDbEntity
  8
RACCORDO
100
AcDbLine
 62
250
  6
CONTINUOUS
 10
-7.5871435142
 20
-23.2577282164
 11
-7.5871435142
 21
-22.4613551508
  0
LINE
  5
314
100
AcDbEntity
  8
ASSI
100
AcDbLine
 62
7
  6
CONTINUOUS
 10
-7.442022769
 20
-18.6317683433
 11
-7.442022769
 21
-18.9047303896
  0
LINE
  5
315
100
AcDbEntity
  8
RACCORDO
100
AcDbLine
 62
7
  6
CONTINUOUS
 10
-7.442022769
 20
-18.6317683433
 11
-7.442022769
 21
-18.9047303896
  0
LINE
  5
316
100
AcDbEntity
  8
RACCORDO
100
AcDbLine
 62
7
  6
CONTINUOUS
 10
-7.442022769
 20
-22.8030153487
 11
-7.442022769
 21
-23.2287068966
  0
LINE
  5
317
100
AcDbEntity
  8
RACCORDO
100
AcDbLine
 62
7
  6
CONTINUOUS
 10
-7.442022769
 20
22.8030153487
 11
-7.442022769
 21
23.2287068966
  0
LINE
  5
318
100
AcDbEntity
  8
RACCORDO
100
AcDbLine
 62
7
  6
CONTINUOUS
 10
-5.2343432891
 20
18.8384011428
 11
-5.2359597823
 21
18.830317889
  0
LINE
  5
319
100
AcDbEntity
  8
DRAFT
100
AcDbLine
 62
7
  6
CONTINUOUS
 10
-3.5138529554
 20
18.8384011428
 11
-3.6035919454
 21
18.5034906727
  0
LINE
  5
31A
100
AcDbEntity
  8
ASSI
100
AcDbLine
 62
7
  6
CONTINUOUS
 10
-3.5138529554
 20
18.8384011428
 11
-3.6035919454
 21
18.5034906727
  0
LINE
  5
31B
100
AcDbEntity
  8
DRAFT
100
AcDbLine
 62
7
  6
CONTINUOUS
 10
-3.5358315577
 20
18.5034906727
 11
-3.4460925677
 21
18.8384011428
  0
LINE
  5
31C
100
AcDbEntity
  8
ASSI
100
AcDbLine
 62
7
  6
CONTINUOUS
 10
-3.5358315577
 20
18.5034906727
 11
-3.4460925677
 21
18.8384011428
  0
LINE
  5
31D
100
AcDbEntity
  8
RACCORDO
100
AcDbLine
 62
250
  6
CONTINUOUS
 10
9.5270642441
 20
22.1191250892
 11
9.6195760882
 21
22.2116369334
  0
LINE
  5
31E
100
AcDbEntity
  8
RACCORDO
100
AcDbLine
 62
250
  6
CONTINUOUS
 10
9.5270642441
 20
-22.1191250892
 11
9.6195760882
 21
-22.2116369334
  0
LINE
  5
31F
100
AcDbEntity
  8
DRAFT
100
AcDbLine
 62
7
  6
CONTINUOUS
 10
-3.6035919454
 20
-18.5034906727
 11
-3.5138529554
 21
-18.8384011428
  0
LINE
  5
320
100
AcDbEntity
  8
ASSI
100
AcDbLine
 62
7
  6
CONTINUOUS
 10
-3.6035919454
 20
-18.5034906727
 11
-3.5138529554
 21
-18.8384011428
  0
LINE
  5
321
100
AcDbEntity
  8
DRAFT
100
AcDbLine
 62
7
  6
CONTINUOUS
 10
-3.4460925677
 20
-18.8384011428
 11
-3.5358315577
 21
-18.5034906727
  0
LINE
  5
322
100
AcDbEntity
  8
ASSI
100
AcDbLine
 62
7
  6
CONTINUOUS
 10
-3.4460925677
 20
-18.8384011428
 11
-3.5358315577
 21
-18.5034906727
  0
LINE
  5
323
100
AcDbEntity
  8
RACCORDO
100
AcDbLine
 62
7
  6
CONTINUOUS
 10
-5.2343432891
 20
-18.8384011428
 11
-5.2359597823
 21
-18.830317889
  0
LINE
  5
324
100
AcDbEntity
  8
0
100
AcDbLine
 62
7
  6
CONTINUOUS
 10
-7.242022769
 20
24.05
 11
-7.242022769
 21
22.5007488485
  0
LINE
  5
325
100
AcDbEntity
  8
0
100
AcDbLine
 62
7
  6
CONTINUOUS
 10
-7.242022769
 20
-24.05
 11
-7.242022769
 21
-22.5007488485
  0
LINE
  5
326
100
AcDbEntity
  8
0
100
AcDbLine
 62
7
  6
CONTINUOUS
 10
-7.242022769
 20
-24.05
 11
-7.242022769
 21
-25.05
  0
LINE
  5
327
100
AcDbEntity
  8
0
100
AcDbLine
 62
7
  6
CONTINUOUS
 10
-7.242022769
 20
24.05
 11
-7.242022769
 21
25.05
  0
LINE
  5
328
100
AcDbEntity
  8
RACCORDO
100
AcDbLine
 62
7
  6
CONTINUOUS
 10
-5.742022769
 20
24.05
 11
-5.742022769
 21
23.5897902522
  0
LINE
  5
329
100
AcDbEntity
  8
RACCORDO
100
AcDbLine
 62
7
  6
CONTINUOUS
 10
-5.742022769
 20
-23.5897902522
 11
-5.742022769
 21
-24.05
  0
LINE
  5
32A
100
AcDbEntity
  8
RACCORDO
100
AcDbLine
 62
250
  6
CONTINUOUS
 10
-5.542022769
 20
23.9084094599
 11
-5.542022769
 21
23.5279868533
  0
LINE
  5
32B
100
AcDbEntity
  8
RACCORDO
100
AcDbLine
 62
250
  6
CONTINUOUS
 10
-5.542022769
 20
-23.9084094599
 11
-5.542022769
 21
-23.5279868533
  0
LINE
  5
32C
100
AcDbEntity
  8
DRAFT
100
AcDbLine
 62
7
  6
CONTINUOUS
 10
-3.742022769
 20
18.8384011428
 11
-3.742022769
 21
18.55
  0
LINE
  5
32D
100
AcDbEntity
  8
ASSI
100
AcDbLine
 62
7
  6
CONTINUOUS
 10
-3.742022769
 20
18.8384011428
 11
-3.742022769
 21
18.55
  0
LINE
  5
32E
100
AcDbEntity
  8
DRAFT
100
AcDbLine
 62
7
  6
CONTINUOUS
 10
-3.742022769
 20
-18.55
 11
-3.742022769
 21
-18.8384011428
  0
LINE
  5
32F
100
AcDbEntity
  8
ASSI
100
AcDbLine
 62
7
  6
CONTINUOUS
 10
-3.742022769
 20
-18.55
 11
-3.742022769
 21
-18.8384011428
  0
LWPOLYLINE
  5
330
100
AcDbEntity
  8
CURVE
100
AcDbPolyline
 62
250
  6
CONTINUOUS
 90
86
 70
0
 10
-5.242022769
 20
-8.527691329
 10
-5.2393062524
 20
-8.3798081339
 10
-5.2311563544
 20
-8.2329321318
 10
-5.2175725525
 20
-8.0869523223
 10
-5.1985543244
 20
-7.9417577049
 10
-5.1741011476
 20
-7.7972372792
 10
-5.1442262236
 20
-7.6533539842
 10
-5.1089976493
 20
-7.510366518
 10
-5.0684972454
 20
-7.3686075182
 10
-5.0228068325
 20
-7.2284096223
 10
-4.9720082313
 20
-7.0901054681
 10
-4.9161767697
 20
-6.9539861946
 10
-4.8553618042
 20
-6.8201769477
 10
-4.7896061983
 20
-6.6887613744
 10
-4.7189528155
 20
-6.5598231222
 10
-4.6434445195
 20
-6.4334458383
 10
-4.5631500387
 20
-6.3097413668
 10
-4.4782415619
 20
-6.1889343397
 10
-4.3889171425
 20
-6.0712775857
 10
-4.2953748341
 20
-5.9570239338
 10
-4.1978126904
 20
-5.8464262126
 10
-4.0964027934
 20
-5.7397026619
 10
-3.9912133405
 20
-5.6369331647
 10
-3.8822865572
 20
-5.5381630149
 10
-3.7696646695
 20
-5.4434375065
 10
-3.6533899031
 20
-5.3528019335
 10
-3.5335489004
 20
-5.2663247422
 10
-3.4104059699
 20
-5.1841669899
 10
-3.2842698367
 20
-5.1065128859
 10
-3.155449226
 20
-5.0335466399
 10
-3.0242528629
 20
-4.9654524616
 10
-2.8909426429
 20
-4.9023861946
 10
-2.7555931432
 20
-4.8443902191
 10
-2.6182321113
 20
-4.7914785494
 10
-2.4788872948
 20
-4.7436651999
 10
-2.3375864411
 20
-4.7009641849
 10
-2.1944152285
 20
-4.6633985276
 10
-2.0496910572
 20
-4.6310272879
 10
-1.9037892582
 20
-4.6039185346
 10
-1.7570851625
 20
-4.5821403363
 10
-1.609954101
 20
-4.565760762
 10
-1.4627123883
 20
-4.5548364909
 10
-1.3154402742
 20
-4.5493786443
 10
-1.1681589922
 20
-4.5493869541
 10
-1.0208897757
 20
-4.554861152
 10
-0.8736538582
 20
-4.5658009699
 10
-0.7265312403
 20
-4.5821949509
 10
-0.5798369916
 20
-4.603986884
 10
-0.4339449489
 20
-4.6311093694
 10
-0.2892289487
 20
-4.6634950075
 10
-0.1460628279
 20
-4.7010763983
 10
-0.0047631687
 20
-4.7437948001
 10
0.1345824636
 20
-4.7916261021
 10
0.2719437584
 20
-4.8445548513
 10
0.4072904049
 20
-4.9025655947
 10
0.5405920924
 20
-4.9656428794
 10
0.6717726763
 20
-5.0337435286
 10
0.8005726772
 20
-5.1067134706
 10
0.9266867819
 20
-5.18437091
 10
1.049809677
 20
-5.2665340513
 10
1.1696360495
 20
-5.353021099
 10
1.2859038399
 20
-5.443672439
 10
1.3985240048
 20
-5.538417183
 10
1.5074507544
 20
-5.6372066238
 10
1.6126382992
 20
-5.7399920545
 10
1.7140408495
 20
-5.8467247679
 10
1.8115877793
 20
-5.9573226995
 10
1.9051091165
 20
-6.0715703551
 10
1.9944100525
 20
-6.1892188826
 10
2.0792957788
 20
-6.3100194303
 10
2.1595714868
 20
-6.4337231462
 10
2.2350673004
 20
-6.5601081676
 10
2.3057130728
 20
-6.6890605871
 10
2.3714635897
 20
-6.8204934868
 10
2.4322736366
 20
-6.9543199484
 10
2.4880979992
 20
-7.0904530537
 10
2.5388855431
 20
-7.228764781
 10
2.5845614537
 20
-7.3689626937
 10
2.6250449963
 20
-7.5107132519
 10
2.6602554362
 20
-7.6536829153
 10
2.6901120389
 20
-7.797538144
 10
2.7145477933
 20
-7.9420195375
 10
2.7335505828
 20
-8.0871642545
 10
2.7471220142
 20
-8.2330835932
 10
2.7552636946
 20
-8.3798888519
 10
2.757977231
 20
-8.527691329
  0
LWPOLYLINE
  5
331
100
AcDbEntity
  8
RACCORDO
100
AcDbPolyline
 62
7
  6
CONTINUOUS
 90
25
 70
0
 10
-5.742022769
 20
23.9702128587
 10
-5.7415793661
 20
23.9661422934
 10
-5.7402983848
 20
23.9621232117
 10
-5.7381798251
 20
23.9581556138
 10
-5.735207488
 20
23.9542229977
 10
-5.7313975726
 20
23.9503418654
 10
-5.7267986755
 20
23.9465617219
 10
-5.7214006901
 20
23.942883861
 10
-5.7152137231
 20
23.9393069889
 10
-5.7083166914
 20
23.93587673
 10
-5.7007004993
 20
23.9325949623
 10
-5.6923742424
 20
23.9294598077
 10
-5.6834441252
 20
23.9265112563
 10
-5.6739024123
 20
23.9237516983
 10
-5.663756839
 20
23.9211787434
 10
-5.6531368156
 20
23.9188252106
 10
-5.6420362645
 20
23.9166939106
 10
-5.6304612634
 20
23.9147820327
 10
-5.6185594555
 20
23.9131139635
 10
-5.6063266543
 20
23.9116928261
 10
-5.5937670462
 20
23.9105154975
 10
-5.5810408334
 20
23.9095969948
 10
-5.5682014166
 20
23.9089423239
 10
-5.5551953952
 20
23.9085464789
 10
-5.542022769
 20
23.9084094599
  0
LINE
  5
332
100
AcDbEntity
  8
RACCORDO
100
AcDbLine
 62
7
  6
CONTINUOUS
 10
-4.9760500642
 20
23.8674311485
 11
-4.8530556759
 21
22.4615988572
  0
LINE
  5
333
100
AcDbEntity
  8
DRAFT
100
AcDbLine
 62
7
  6
CONTINUOUS
 10
-1.842022769
 20
18.8384011428
 11
-1.842022769
 21
18.5034906727
  0
LINE
  5
334
100
AcDbEntity
  8
ASSI
100
AcDbLine
 62
7
  6
CONTINUOUS
 10
-1.842022769
 20
18.8384011428
 11
-1.842022769
 21
18.5034906727
  0
LINE
  5
335
100
AcDbEntity
  8
DRAFT
100
AcDbLine
 62
7
  6
CONTINUOUS
 10
-1.759117525
 20
-18.8384011428
 11
-1.759117525
 21
-18.5034906727
  0
LINE
  5
336
100
AcDbEntity
  8
ASSI
100
AcDbLine
 62
7
  6
CONTINUOUS
 10
-1.759117525
 20
-18.8384011428
 11
-1.759117525
 21
-18.5034906727
  0
LINE
  5
337
100
AcDbEntity
  8
RACCORDO
100
AcDbLine
 62
7
  6
CONTINUOUS
 10
-1.6936660165
 20
-18.5034906727
 11
-1.6936660165
 21
-18.8384011428
  0
LINE
  5
338
100
AcDbEntity
  8
ASSI
100
AcDbLine
 62
7
  6
CONTINUOUS
 10
-1.6936660165
 20
-18.5034906727
 11
-1.6936660165
 21
-18.8384011428
  0
LWPOLYLINE
  5
339
100
AcDbEntity
  8
CURVE
100
AcDbPolyline
 62
250
  6
CONTINUOUS
 90
78
 70
0
 10
-3.242022769
 20
-8.527691329
 10
-3.2408077709
 20
-8.4577133936
 10
-3.2371681355
 20
-8.3882508025
 10
-3.2311119007
 20
-8.3192671054
 10
-3.2226471046
 20
-8.2507258522
 10
-3.2117817852
 20
-8.1825905929
 10
-3.1985239805
 20
-8.1148248773
 10
-3.1794709798
 20
-8.0339844489
 10
-3.1570170319
 20
-7.9538124165
 10
-3.1311947935
 20
-7.8744975211
 10
-3.1020369216
 20
-7.7962285039
 10
-3.0695760729
 20
-7.7191941061
 10
-3.0338564295
 20
-7.6435757012
 10
-2.9949682742
 20
-7.5695251924
 10
-2.9530134152
 20
-7.4971871156
 10
-2.9080936605
 20
-7.4267060064
 10
-2.8603108182
 20
-7.3582264005
 10
-2.8097584932
 20
-7.2918805835
 10
-2.7564974775
 20
-7.227751841
 10
-2.70058036
 20
-7.1659112083
 10
-2.6420597293
 20
-7.1064297207
 10
-2.5809881744
 20
-7.0493784138
 10
-2.5174400655
 20
-6.9948375042
 10
-2.4515768998
 20
-6.9429239338
 10
-2.3835819558
 20
-6.8937638255
 10
-2.3136385121
 20
-6.8474833025
 10
-2.2419298473
 20
-6.804208488
 10
-2.168617877
 20
-6.7640491117
 10
-2.0937790641
 20
-6.7270493306
 10
-2.0174685089
 20
-6.6932369084
 10
-1.9397413113
 20
-6.6626396088
 10
-1.8606525714
 20
-6.6352851955
 10
-1.7802872223
 20
-6.6112048467
 10
-1.6988495295
 20
-6.5904433987
 10
-1.6165735918
 20
-6.5730491022
 10
-1.5336935076
 20
-6.5590702081
 10
-1.4504433758
 20
-6.5485549672
 10
-1.3670275107
 20
-6.5415435001
 10
-1.28353109
 20
-6.5380434069
 10
-1.2000095074
 20
-6.5380541576
 10
-1.1165181562
 20
-6.5415752221
 10
-1.03311243
 20
-6.5486060704
 10
-0.9498770924
 20
-6.5591384198
 10
-0.8670143875
 20
-6.5731329773
 10
-0.7847559294
 20
-6.5905426969
 10
-0.7033333324
 20
-6.611320533
 10
-0.6229782105
 20
-6.6354194397
 10
-0.5438934013
 20
-6.6627951712
 10
-0.4661666349
 20
-6.6934146805
 10
-0.3898568648
 20
-6.7272477208
 10
-0.3150230446
 20
-6.7642640451
 10
-0.2417241278
 20
-6.8044334063
 10
-0.1700389713
 20
-6.8477102626
 10
-0.1001260466
 20
-6.8939878923
 10
-0.0321637283
 20
-6.9431442786
 10
0.0336696087
 20
-6.9950574049
 10
0.0971955896
 20
-7.0496052546
 10
0.158256017
 20
-7.1066733738
 10
0.2167734039
 20
-7.16617756
 10
0.2726904405
 20
-7.2280411738
 10
0.3259498173
 20
-7.2921875755
 10
0.3764942244
 20
-7.3585401256
 10
0.4242595935
 20
-7.4270120142
 10
0.4691548201
 20
-7.4974757508
 10
0.5110820412
 20
-7.5697936742
 10
0.5499433936
 20
-7.6438281238
 10
0.585641014
 20
-7.7194414385
 10
0.6180874097
 20
-7.7964860445
 10
0.6472365697
 20
-7.8747747165
 10
0.6730528532
 20
-7.9541103162
 10
0.6955006194
 20
-8.0342957054
 10
0.7145442278
 20
-8.1151337458
 10
0.7277902195
 20
-8.1828804654
 10
0.7386414132
 20
-8.2509815803
 10
0.7470917602
 20
-8.3194751573
 10
0.7531352114
 20
-8.3883992632
 10
0.756765718
 20
-8.4577919648
 10
0.757977231
 20
-8.527691329
  0
LINE
  5
33A
100
AcDbEntity
  8
RACCORDO
100
AcDbLine
 62
7
  6
CONTINUOUS
 10
-4.8530556759
 20
-22.4615988572
 11
-4.9760500642
 21
-23.8674311485
  0
LWPOLYLINE
  5
33B
100
AcDbEntity
  8
RACCORDO
100
AcDbPolyline
 62
7
  6
CONTINUOUS
 90
25
 70
0
 10
-5.742022769
 20
-23.5897902522
 10
-5.7415793661
 20
-23.5857196869
 10
-5.7402983848
 20
-23.5817006052
 10
-5.7381798251
 20
-23.5777330072
 10
-5.735207488
 20
-23.5738003912
 10
-5.7313975726
 20
-23.5699192589
 10
-5.7267986755
 20
-23.5661391154
 10
-5.7214006901
 20
-23.5624612545
 10
-5.7152137231
 20
-23.5588843824
 10
-5.7083166914
 20
-23.5554541235
 10
-5.7007004993
 20
-23.5521723558
 10
-5.6923742424
 20
-23.5490372012
 10
-5.6834441252
 20
-23.5460886498
 10
-5.6739024123
 20
-23.5433290918
 10
-5.663756839
 20
-23.5407561369
 10
-5.6531368156
 20
-23.5384026041
 10
-5.6420362645
 20
-23.5362713041
 10
-5.6304612634
 20
-23.5343594262
 10
-5.6185594555
 20
-23.532691357
 10
-5.6063266543
 20
-23.5312702196
 10
-5.5937670462
 20
-23.530092891
 10
-5.5810408334
 20
-23.5291743883
 10
-5.5682014166
 20
-23.5285197174
 10
-5.5551953952
 20
-23.5281238724
 10
-5.542022769
 20
-23.5279868533
  0
LINE
  5
33C
100
AcDbEntity
  8
RACCORDO
100
AcDbLine
 62
7
  6
CONTINUOUS
 10
-7.2629668051
 20
-18.9047303896
 11
-7.2480857557
 21
-18.830317889
  0
LINE
  5
33D
100
AcDbEntity
  8
RACCORDO
100
AcDbLine
 62
7
  6
CONTINUOUS
 10
2.7502977511
 20
22.4615988572
 11
2.778584384
 21
22.6030458097
  0
LINE
  5
33E
100
AcDbEntity
  8
RACCORDO
100
AcDbLine
 62
7
  6
CONTINUOUS
 10
2.778584384
 20
-22.6030458097
 11
2.7502977511
 21
-22.4615988572
  0
LINE
  5
33F
100
AcDbEntity
  8
RACCORDO
100
AcDbLine
 62
7
  6
CONTINUOUS
 10
-0.7903795214
 20
-18.8384011428
 11
-0.7903795214
 21
-18.5034906727
  0
LINE
  5
340
100
AcDbEntity
  8
ASSI
100
AcDbLine
 62
7
  6
CONTINUOUS
 10
-0.7903795214
 20
-18.8384011428
 11
-0.7903795214
 21
-18.5034906727
  0
LINE
  5
341
100
AcDbEntity
  8
DRAFT
100
AcDbLine
 62
7
  6
CONTINUOUS
 10
-0.724928013
 20
-18.8384011428
 11
-0.724928013
 21
-18.5034906727
  0
LINE
  5
342
100
AcDbEntity
  8
ASSI
100
AcDbLine
 62
7
  6
CONTINUOUS
 10
-0.724928013
 20
-18.8384011428
 11
-0.724928013
 21
-18.5034906727
  0
LINE
  5
343
100
AcDbEntity
  8
DRAFT
100
AcDbLine
 62
7
  6
CONTINUOUS
 10
-0.642022769
 20
18.5034906727
 11
-0.642022769
 21
18.8384011428
  0
LINE
  5
344
100
AcDbEntity
  8
ASSI
100
AcDbLine
 62
7
  6
CONTINUOUS
 10
-0.642022769
 20
18.5034906727
 11
-0.642022769
 21
18.8384011428
  0
LINE
  5
345
100
AcDbEntity
  8
RACCORDO
100
AcDbLine
 62
7
  6
CONTINUOUS
 10
-5.2343432891
 20
-22.4615988572
 11
-5.2626299219
 21
-22.6030458097
  0
LINE
  5
346
100
AcDbEntity
  8
RACCORDO
100
AcDbLine
 62
7
  6
CONTINUOUS
 10
-5.2626299219
 20
22.6030458097
 11
-5.2343432891
 21
22.4615988572
  0
LWPOLYLINE
  5
347
100
AcDbEntity
  8
RACCORDO
100
AcDbPolyline
 62
7
  6
CONTINUOUS
 90
25
 70
0
 10
3.257977231
 20
-23.9702128587
 10
3.2575338281
 20
-23.9661422934
 10
3.2562528468
 20
-23.9621232117
 10
3.2541342871
 20
-23.9581556138
 10
3.25116195
 20
-23.9542229977
 10
3.2473520346
 20
-23.9503418654
 10
3.2427531375
 20
-23.9465617219
 10
3.2373551521
 20
-23.942883861
 10
3.2311681851
 20
-23.9393069889
 10
3.2242711535
 20
-23.93587673
 10
3.2166549613
 20
-23.9325949623
 10
3.2083287045
 20
-23.9294598077
 10
3.1993985873
 20
-23.9265112563
 10
3.1898568743
 20
-23.9237516983
 10
3.179711301
 20
-23.9211787434
 10
3.1690912776
 20
-23.9188252106
 10
3.1579907266
 20
-23.9166939106
 10
3.1464157255
 20
-23.9147820327
 10
3.1345139175
 20
-23.9131139635
 10
3.1222811163
 20
-23.9116928261
 10
3.1097215082
 20
-23.9105154975
 10
3.0969952954
 20
-23.9095969948
 10
3.0841558787
 20
-23.9089423239
 10
3.0711498572
 20
-23.9085464789
 10
3.057977231
 20
-23.9084094599
  0
LINE
  5
348
100
AcDbEntity
  8
RACCORDO
100
AcDbLine
 62
7
  6
CONTINUOUS
 10
2.4920045262
 20
-23.8674311485
 11
2.3690101379
 21
-22.4615988572
  0
LWPOLYLINE
  5
349
100
AcDbEntity
  8
0
100
AcDbPolyline
 62
7
  6
CONTINUOUS
 90
4
 70
0
 43
0.3500000006
 10
0.4722629367
 20
34.2285699005
 10
0.4722629367
 20
35.0857123718
 10
0.9008343494
 20
35.5142858734
 10
1.5436915569
 20
35.5142858734
  0
LINE
  5
34A
100
AcDbEntity
  8
DRAFT
100
AcDbLine
 62
7
  6
CONTINUOUS
 10
1.257977231
 20
18.8384011428
 11
1.257977231
 21
18.55
  0
LINE
  5
34B
100
AcDbEntity
  8
ASSI
100
AcDbLine
 62
7
  6
CONTINUOUS
 10
1.257977231
 20
18.8384011428
 11
1.257977231
 21
18.55
  0
LINE
  5
34C
100
AcDbEntity
  8
DRAFT
100
AcDbLine
 62
7
  6
CONTINUOUS
 10
1.257977231
 20
-18.55
 11
1.257977231
 21
-18.8384011428
  0
LINE
  5
34D
100
AcDbEntity
  8
ASSI
100
AcDbLine
 62
7
  6
CONTINUOUS
 10
1.257977231
 20
-18.55
 11
1.257977231
 21
-18.8384011428
  0
LWPOLYLINE
  5
34E
100
AcDbEntity
  8
CURVE
100
AcDbPolyline
 62
250
  6
CONTINUOUS
 90
78
 70
0
 10
0.757977231
 20
-8.527691329
 10
0.7567620341
 20
-8.5976767215
 10
0.7531218139
 20
-8.6671491567
 10
0.7470646264
 20
-8.7361450813
 10
0.7385985276
 20
-8.8047009419
 10
0.7277315733
 20
-8.8728531852
 10
0.7144718196
 20
-8.9406382579
 10
0.6954161008
 20
-9.0215049931
 10
0.6729591001
 20
-9.1017064434
 10
0.6471335663
 20
-9.1810535664
 10
0.6179722484
 20
-9.2593573197
 10
0.5855078952
 20
-9.3364286608
 10
0.549784785
 20
-9.4120859154
 10
0.5108933148
 20
-9.4861768808
 10
0.4689354111
 20
-9.5585567223
 10
0.4240130005
 20
-9.6290806053
 10
0.3762280095
 20
-9.6976036952
 10
0.3256741498
 20
-9.7639934247
 10
0.2724122739
 20
-9.8281662967
 10
0.2164950194
 20
-9.8900510816
 10
0.1579750238
 20
-9.9495765497
 10
0.0969049249
 20
-10.0066714712
 10
0.0333591057
 20
-10.061255435
 10
-0.0325010685
 20
-10.1132113039
 10
-0.1004924869
 20
-10.162412759
 10
-0.1704320387
 20
-10.2087334817
 10
-0.2421366131
 20
-10.2520471531
 10
-0.3154444617
 20
-10.2922438384
 10
-0.3902792855
 20
-10.3292791383
 10
-0.4665861479
 20
-10.3631250374
 10
-0.5443101123
 20
-10.3937535203
 10
-0.623396242
 20
-10.4211365715
 10
-0.7037597183
 20
-10.4452427613
 10
-0.7851961932
 20
-10.4660270019
 10
-0.8674714368
 20
-10.4834407913
 10
-0.950351219
 20
-10.4974356275
 10
-1.0336013099
 20
-10.5079630083
 10
-1.1170172795
 20
-10.5149826029
 10
-1.200513899
 20
-10.5184867652
 10
-1.2840357396
 20
-10.5184760201
 10
-1.3675273728
 20
-10.5149508927
 10
-1.4509333698
 20
-10.507911908
 10
-1.5341689134
 20
-10.4973673855
 10
-1.6170316323
 20
-10.4833568219
 10
-1.6992897666
 20
-10.4659275083
 10
-1.7807115564
 20
-10.4451267356
 10
-1.861065242
 20
-10.4210017951
 10
-1.9401478885
 20
-10.3935971812
 10
-2.0178718616
 20
-10.3629462025
 10
-2.0941783519
 20
-10.3290793713
 10
-2.1690085503
 20
-10.2920271994
 10
-2.2423036474
 20
-10.2518201991
 10
-2.3139849345
 20
-10.2085041677
 10
-2.3838941049
 20
-10.1621860442
 10
-2.4518529523
 20
-10.1129880525
 10
-2.5176832707
 20
-10.061032417
 10
-2.5812068538
 20
-10.0064413617
 10
-2.6422656398
 20
-9.9493295453
 10
-2.7007821436
 20
-9.8897813645
 10
-2.7566990248
 20
-9.8278736504
 10
-2.8099589426
 20
-9.7636832341
 10
-2.8605045564
 20
-9.6972869467
 10
-2.9082717532
 20
-9.6287718049
 10
-2.9531693299
 20
-9.5582655672
 10
-2.9950993114
 20
-9.4859061777
 10
-3.0339637223
 20
-9.4118315803
 10
-3.0696645872
 20
-9.3361797191
 10
-3.1021143039
 20
-9.2590984538
 10
-3.1312667627
 20
-9.1807753067
 10
-3.157086227
 20
-9.1014077157
 10
-3.1795369599
 20
-9.0211931188
 10
-3.198583225
 20
-8.9403289539
 10
-3.2118311304
 20
-8.8725630068
 10
-3.2226839356
 20
-8.8044450161
 10
-3.2311355713
 20
-8.7359369174
 10
-3.2371799683
 20
-8.6670006463
 10
-3.2408110573
 20
-8.5975981383
 10
-3.242022769
 20
-8.527691329
  0
LINE
  5
34F
100
AcDbEntity
  8
RACCORDO
100
AcDbLine
 62
7
  6
CONTINUOUS
 10
2.3690101379
 20
22.4615988572
 11
2.4920045262
 21
23.8674311485
  0
LWPOLYLINE
  5
350
100
AcDbEntity
  8
RACCORDO
100
AcDbPolyline
 62
7
  6
CONTINUOUS
 90
25
 70
0
 10
3.257977231
 20
23.5897902522
 10
3.2575338281
 20
23.5857196869
 10
3.2562528468
 20
23.5817006052
 10
3.2541342871
 20
23.5777330072
 10
3.25116195
 20
23.5738003912
 10
3.2473520346
 20
23.5699192589
 10
3.2427531375
 20
23.5661391154
 10
3.2373551521
 20
23.5624612545
 10
3.2311681851
 20
23.5588843824
 10
3.2242711535
 20
23.5554541235
 10
3.2166549613
 20
23.5521723558
 10
3.2083287045
 20
23.5490372012
 10
3.1993985873
 20
23.5460886498
 10
3.1898568743
 20
23.5433290918
 10
3.179711301
 20
23.5407561369
 10
3.1690912776
 20
23.5384026041
 10
3.1579907266
 20
23.5362713041
 10
3.1464157255
 20
23.5343594262
 10
3.1345139175
 20
23.532691357
 10
3.1222811163
 20
23.5312702196
 10
3.1097215082
 20
23.530092891
 10
3.0969952954
 20
23.5291743883
 10
3.0841558787
 20
23.5285197174
 10
3.0711498572
 20
23.5281238724
 10
3.057977231
 20
23.5279868533
  0
LINE
  5
351
100
AcDbEntity
  8
RACCORDO
100
AcDbLine
 62
7
  6
CONTINUOUS
 10
4.7789212671
 20
-18.9047303896
 11
4.7640402177
 21
-18.830317889
  0
LINE
  5
352
100
AcDbEntity
  8
RACCORDO
100
AcDbLine
 62
250
  6
CONTINUOUS
 10
3.057977231
 20
23.9084094599
 11
3.057977231
 21
23.5279868533
  0
LINE
  5
353
100
AcDbEntity
  8
RACCORDO
100
AcDbLine
 62
250
  6
CONTINUOUS
 10
3.057977231
 20
-23.9084094599
 11
3.057977231
 21
-23.5279868533
  0
LINE
  5
354
100
AcDbEntity
  8
RACCORDO
100
AcDbLine
 62
7
  6
CONTINUOUS
 10
3.257977231
 20
-24.05
 11
3.257977231
 21
-23.5897902522
  0
LINE
  5
355
100
AcDbEntity
  8
RACCORDO
100
AcDbLine
 62
7
  6
CONTINUOUS
 10
3.257977231
 20
23.5897902522
 11
3.257977231
 21
24.05
  0
LWPOLYLINE
  5
356
100
AcDbEntity
  8
CURVE
100
AcDbPolyline
 62
250
  6
CONTINUOUS
 90
86
 70
0
 10
2.757977231
 20
-8.527691329
 10
2.7552598531
 20
-8.6756052893
 10
2.7471073938
 20
-8.8225232614
 10
2.7335193644
 20
-8.9685563003
 10
2.7144952763
 20
-9.1138154609
 10
2.690034641
 20
-9.258411798
 10
2.6601507229
 20
-9.4023822632
 10
2.6249117982
 20
-9.5454673952
 10
2.5843998964
 20
-9.687333629
 10
2.5386970467
 20
-9.8276473999
 10
2.4878852783
 20
-9.9660751431
 10
2.4320401541
 20
-10.1023248189
 10
2.3712113697
 20
-10.2362704886
 10
2.3054421543
 20
-10.3678277383
 10
2.234775737
 20
-10.4969121542
 10
2.1592553468
 20
-10.6234393228
 10
2.0789500651
 20
-10.7472966234
 10
1.9940323809
 20
-10.8682586086
 10
1.9047006356
 20
-10.9860716241
 10
1.8111531704
 20
-11.1004820158
 10
1.7135883266
 20
-11.2112361294
 10
1.61217842
 20
-11.3181149788
 10
1.5069916641
 20
-11.4210382507
 10
1.398070247
 20
-11.5199602999
 10
1.2854563568
 20
-11.6148354812
 10
1.1691921816
 20
-11.7056181493
 10
1.0493642089
 20
-11.7922394738
 10
0.9262361243
 20
-11.8745378826
 10
0.800115913
 20
-11.9523286181
 10
0.6713115602
 20
-12.0254269231
 10
0.5401310509
 20
-12.0936480401
 10
0.4068356311
 20
-12.1568355421
 10
0.2714995892
 20
-12.2149463241
 10
0.1341504747
 20
-12.2679656116
 10
-0.0051841631
 20
-12.3158786302
 10
-0.1464767748
 20
-12.3586706053
 10
-0.2896417872
 20
-12.3963177782
 10
-0.4343615314
 20
-12.4287604528
 10
-0.5802603145
 20
-12.4559299489
 10
-0.7269624436
 20
-12.4777575862
 10
-0.8740922259
 20
-12.4941746844
 10
-1.0213330283
 20
-12.5051240533
 10
-1.1686044565
 20
-12.5105944634
 10
-1.3158851763
 20
-12.5105861749
 10
-1.4631538531
 20
-12.5050994484
 10
-1.6103891525
 20
-12.4941345443
 10
-1.7575109264
 20
-12.4777030129
 10
-1.9042037708
 20
-12.4558615643
 10
-2.0500934682
 20
-12.4286781982
 10
-2.1948058008
 20
-12.3962209146
 10
-2.3379665512
 20
-12.3585577134
 10
-2.4792588465
 20
-12.3157479662
 10
-2.6185951937
 20
-12.2678165316
 10
-2.7559454447
 20
-12.21477964
 10
-2.8912794515
 20
-12.1566535218
 10
-3.0245670659
 20
-12.0934544072
 10
-3.155732401
 20
-12.0252262158
 10
-3.2845166148
 20
-11.9521236236
 10
-3.4106151266
 20
-11.8743289958
 10
-3.5337233556
 20
-11.7920246975
 10
-3.653536721
 20
-11.7053930938
 10
-3.7697937842
 20
-11.614594333
 10
-3.8824056762
 20
-11.5196996949
 10
-3.9913266701
 20
-11.4207582426
 10
-4.0965110389
 20
-11.3178190391
 10
-4.1979130559
 20
-11.2109311473
 10
-4.2954621021
 20
-11.1001770628
 10
-4.3889879912
 20
-10.9857730108
 10
-4.4782956447
 20
-10.8679686495
 10
-4.5631899843
 20
-10.7470136366
 10
-4.6434759316
 20
-10.6231576301
 10
-4.7189833253
 20
-10.4966232894
 10
-4.7896416722
 20
-10.3675252801
 10
-4.8554053962
 20
-10.2359512692
 10
-4.9162289213
 20
-10.1019889239
 10
-4.9720666714
 20
-9.9657259113
 10
-5.022867174
 20
-9.8272910319
 10
-5.0685553721
 20
-9.6869776202
 10
-5.1090503123
 20
-9.5451201443
 10
-5.144271041
 20
-9.4020530721
 10
-5.1741366049
 20
-9.2581108717
 10
-5.1985798041
 20
-9.1135537071
 10
-5.2175884525
 20
-8.9683445263
 10
-5.2311641178
 20
-8.8223719736
 10
-5.2393083674
 20
-8.6755246931
 10
-5.242022769
 20
-8.527691329
  0
LINE
  5
357
100
AcDbEntity
  8
0
100
AcDbLine
 62
7
  6
CONTINUOUS
 10
4.757977231
 20
24.05
 11
4.757977231
 21
22.5007488485
  0
LINE
  5
358
100
AcDbEntity
  8
0
100
AcDbLine
 62
7
  6
CONTINUOUS
 10
4.757977231
 20
-24.05
 11
4.757977231
 21
-22.5007488485
  0
LINE
  5
359
100
AcDbEntity
  8
0
100
AcDbLine
 62
7
  6
CONTINUOUS
 10
4.757977231
 20
-24.05
 11
4.757977231
 21
-25.05
  0
LINE
  5
35A
100
AcDbEntity
  8
0
100
AcDbLine
 62
7
  6
CONTINUOUS
 10
4.757977231
 20
24.05
 11
4.757977231
 21
25.05
  0
LINE
  5
35B
100
AcDbEntity
  8
ASSI
100
AcDbLine
 62
7
  6
CONTINUOUS
 10
4.957977231
 20
-18.9047303896
 11
4.957977231
 21
-18.6317683433
  0
LINE
  5
35C
100
AcDbEntity
  8
RACCORDO
100
AcDbLine
 62
7
  6
CONTINUOUS
 10
4.957977231
 20
-18.9047303896
 11
4.957977231
 21
-18.6317683433
  0
LINE
  5
35D
100
AcDbEntity
  8
RACCORDO
100
AcDbLine
 62
7
  6
CONTINUOUS
 10
4.957977231
 20
-22.8030153487
 11
4.957977231
 21
-23.2287068966
  0
LINE
  5
35E
100
AcDbEntity
  8
RACCORDO
100
AcDbLine
 62
7
  6
CONTINUOUS
 10
4.957977231
 20
22.8030153487
 11
4.957977231
 21
23.2287068966
  0
LINE
  5
35F
100
AcDbEntity
  8
RACCORDO
100
AcDbLine
 62
250
  6
CONTINUOUS
 10
5.1030979762
 20
23.2577282164
 11
5.1030979762
 21
22.4613551508
  0
LINE
  5
360
100
AcDbEntity
  8
RACCORDO
100
AcDbLine
 62
250
  6
CONTINUOUS
 10
5.1030979762
 20
-23.2577282164
 11
5.1030979762
 21
-22.4613551508
  0
LINE
  5
361
100
AcDbEntity
  8
RACCORDO
100
AcDbLine
 62
250
  6
CONTINUOUS
 10
5.9029761324
 20
23.260472018
 11
5.9029761324
 21
22.4476348052
  0
LINE
  5
362
100
AcDbEntity
  8
RACCORDO
100
AcDbLine
 62
250
  6
CONTINUOUS
 10
5.9029761324
 20
-23.260472018
 11
5.9029761324
 21
-22.4476348052
  0
LINE
  5
363
100
AcDbEntity
  8
RACCORDO
100
AcDbLine
 62
250
  6
CONTINUOUS
 10
5.9194542257
 20
-23.260472018
 11
5.9194542257
 21
-22.4476348052
  0
LINE
  5
364
100
AcDbEntity
  8
RACCORDO
100
AcDbLine
 62
250
  6
CONTINUOUS
 10
5.9194542257
 20
22.4476348052
 11
5.9194542257
 21
23.260472018
  0
LINE
  5
365
100
AcDbEntity
  8
DRAFT
100
AcDbLine
 62
7
  6
CONTINUOUS
 10
1.0517860198
 20
-18.5034906727
 11
0.9620470297
 21
-18.8384011428
  0
LINE
  5
366
100
AcDbEntity
  8
ASSI
100
AcDbLine
 62
7
  6
CONTINUOUS
 10
1.0517860198
 20
-18.5034906727
 11
0.9620470297
 21
-18.8384011428
  0
LINE
  5
367
100
AcDbEntity
  8
DRAFT
100
AcDbLine
 62
7
  6
CONTINUOUS
 10
1.0298074174
 20
-18.8384011428
 11
1.1195464074
 21
-18.5034906727
  0
LINE
  5
368
100
AcDbEntity
  8
ASSI
100
AcDbLine
 62
7
  6
CONTINUOUS
 10
1.0298074174
 20
-18.8384011428
 11
1.1195464074
 21
-18.5034906727
  0
LINE
  5
369
100
AcDbEntity
  8
DRAFT
100
AcDbLine
 62
7
  6
CONTINUOUS
 10
0.9620470297
 20
18.8384011428
 11
1.0517860198
 21
18.5034906727
  0
LINE
  5
36A
100
AcDbEntity
  8
ASSI
100
AcDbLine
 62
7
  6
CONTINUOUS
 10
0.9620470297
 20
18.8384011428
 11
1.0517860198
 21
18.5034906727
  0
LINE
  5
36B
100
AcDbEntity
  8
DRAFT
100
AcDbLine
 62
7
  6
CONTINUOUS
 10
1.1195464074
 20
18.5034906727
 11
1.0298074174
 21
18.8384011428
  0
LINE
  5
36C
100
AcDbEntity
  8
ASSI
100
AcDbLine
 62
7
  6
CONTINUOUS
 10
1.1195464074
 20
18.5034906727
 11
1.0298074174
 21
18.8384011428
  0
LINE
  5
36D
100
AcDbEntity
  8
RACCORDO
100
AcDbLine
 62
250
  6
CONTINUOUS
 10
6.7193323819
 20
-23.2577282164
 11
6.7193323819
 21
-22.4613551508
  0
LINE
  5
36E
100
AcDbEntity
  8
RACCORDO
100
AcDbLine
 62
250
  6
CONTINUOUS
 10
6.7193323819
 20
22.4613551508
 11
6.7193323819
 21
23.2577282164
  0
LINE
  5
36F
100
AcDbEntity
  8
DRAFT
100
AcDbLine
 62
7
  6
CONTINUOUS
 10
6.7195760882
 20
23.2576794799
 11
6.7195760882
 21
22.4615988572
  0
LINE
  5
370
100
AcDbEntity
  8
DRAFT
100
AcDbLine
 62
7
  6
CONTINUOUS
 10
6.7195760882
 20
-23.2576794799
 11
6.7195760882
 21
-22.4615988572
  0
LINE
  5
371
100
AcDbEntity
  8
ASSI
100
AcDbLine
 62
7
  6
CONTINUOUS
 10
6.907977231
 20
-18.9047303896
 11
6.907977231
 21
-18.6317683433
  0
LINE
  5
372
100
AcDbEntity
  8
RACCORDO
100
AcDbLine
 62
7
  6
CONTINUOUS
 10
6.907977231
 20
-18.9047303896
 11
6.907977231
 21
-18.6317683433
  0
LINE
  5
373
100
AcDbEntity
  8
0
100
AcDbLine
 62
7
  6
CONTINUOUS
 10
7.057977231
 20
-18.9047303896
 11
7.057977231
 21
-18.55
  0
LINE
  5
374
100
AcDbEntity
  8
ASSI
100
AcDbLine
 62
7
  6
CONTINUOUS
 10
7.057977231
 20
-18.9047303896
 11
7.057977231
 21
-18.55
  0
LINE
  5
375
100
AcDbEntity
  8
RACCORDO
100
AcDbLine
 62
7
  6
CONTINUOUS
 10
2.7502977511
 20
-18.8384011428
 11
2.7519142443
 21
-18.830317889
  0
LINE
  5
376
100
AcDbEntity
  8
RACCORDO
100
AcDbLine
 62
250
  6
CONTINUOUS
 10
-12.011109782
 20
-22.1191250892
 11
-12.1036216261
 21
-22.2116369334
  0
LINE
  5
377
100
AcDbEntity
  8
RACCORDO
100
AcDbLine
 62
250
  6
CONTINUOUS
 10
-11.7611478582
 20
-22.369087013
 11
-11.8536597024
 21
-22.4615988572
  0
LINE
  5
378
100
AcDbEntity
  8
RACCORDO
100
AcDbLine
 62
250
  6
CONTINUOUS
 10
-12.011109782
 20
22.1191250892
 11
-12.1036216261
 21
22.2116369334
  0
LINE
  5
379
100
AcDbEntity
  8
RACCORDO
100
AcDbLine
 62
250
  6
CONTINUOUS
 10
-11.7611478582
 20
22.369087013
 11
-11.8536597024
 21
22.4615988572
  0
LINE
  5
37A
100
AcDbEntity
  8
RACCORDO
100
AcDbLine
 62
7
  6
CONTINUOUS
 10
2.7502977511
 20
18.8384011428
 11
2.7519142443
 21
18.830317889
  0
LINE
  5
37B
100
AcDbEntity
  8
ASSI
100
AcDbLine
 62
250
  6
CONTINUOUS
 10
9.3080438522
 20
-18.3442211402
 11
9.2338846104
 21
-17.0140608858
  0
LINE
  5
37C
100
AcDbEntity
  8
RACCORDO
100
AcDbLine
 62
250
  6
CONTINUOUS
 10
9.3080438522
 20
-18.3442211402
 11
9.2338846104
 21
-17.0140608858
  0
LINE
  5
37D
100
AcDbEntity
  8
ASSI
100
AcDbLine
 62
250
  6
CONTINUOUS
 10
9.557977231
 20
-18.0960089685
 11
9.4838750912
 21
-16.7668729264
  0
LINE
  5
37E
100
AcDbEntity
  8
RACCORDO
100
AcDbLine
 62
250
  6
CONTINUOUS
 10
9.557977231
 20
-18.0960089685
 11
9.4838750912
 21
-16.7668729264
  0
LWPOLYLINE
  5
37F
100
AcDbEntity
  8
ASSI
100
AcDbPolyline
 62
250
  6
CONTINUOUS
 90
4
 70
0
 10
9.4838750912
 20
-16.7668729264
 10
9.4833302144
 20
-16.7544709189
 10
9.4827968031
 20
-16.7372923483
 10
9.4822748571
 20
-16.7153372145
  0
LWPOLYLINE
  5
380
100
AcDbEntity
  8
RACCORDO
100
AcDbPolyline
 62
250
  6
CONTINUOUS
 90
4
 70
0
 10
9.4838750912
 20
-16.7668729264
 10
9.4833302144
 20
-16.7544709189
 10
9.4827968031
 20
-16.7372923483
 10
9.4822748571
 20
-16.7153372145
  0
LWPOLYLINE
  5
381
100
AcDbEntity
  8
ASSI
100
AcDbPolyline
 62
250
  6
CONTINUOUS
 90
3
 70
0
 10
9.2338846104
 20
-17.0140608858
 10
9.2333363123
 20
-16.9976647331
 10
9.2328006348
 20
-16.9745630401
  0
LWPOLYLINE
  5
382
100
AcDbEntity
  8
RACCORDO
100
AcDbPolyline
 62
250
  6
CONTINUOUS
 90
3
 70
0
 10
9.2338846104
 20
-17.0140608858
 10
9.2333363123
 20
-16.9976647331
 10
9.2328006348
 20
-16.9745630401
  0
LINE
  5
383
100
AcDbEntity
  8
ASSI
100
AcDbLine
 62
250
  6
CONTINUOUS
 10
9.4822748571
 20
-16.7153372145
 11
9.4812577592
 21
-16.6566542507
  0
LINE
  5
384
100
AcDbEntity
  8
RACCORDO
100
AcDbLine
 62
250
  6
CONTINUOUS
 10
9.4822748571
 20
-16.7153372145
 11
9.4812577592
 21
-16.6566542507
  0
LINE
  5
385
100
AcDbEntity
  8
ASSI
100
AcDbLine
 62
250
  6
CONTINUOUS
 10
9.2328006348
 20
-16.9745630401
 11
9.2317637298
 21
-16.9089263394
  0
LINE
  5
386
100
AcDbEntity
  8
RACCORDO
100
AcDbLine
 62
250
  6
CONTINUOUS
 10
9.2328006348
 20
-16.9745630401
 11
9.2317637298
 21
-16.9089263394
  0
LINE
  5
387
100
AcDbEntity
  8
ASSI
100
AcDbLine
 62
250
  6
CONTINUOUS
 10
9.4812577592
 20
-16.6566542507
 11
9.4803215212
 21
-16.5807749201
  0
LINE
  5
388
100
AcDbEntity
  8
RACCORDO
100
AcDbLine
 62
250
  6
CONTINUOUS
 10
9.4812577592
 20
-16.6566542507
 11
9.4803215212
 21
-16.5807749201
  0
LINE
  5
389
100
AcDbEntity
  8
ASSI
100
AcDbLine
 62
250
  6
CONTINUOUS
 10
9.2317637298
 20
-16.9089263394
 11
9.2307841313
 21
-16.8189604286
  0
LINE
  5
38A
100
AcDbEntity
  8
RACCORDO
100
AcDbLine
 62
250
  6
CONTINUOUS
 10
9.2317637298
 20
-16.9089263394
 11
9.2307841313
 21
-16.8189604286
  0
LINE
  5
38B
100
AcDbEntity
  8
ASSI
100
AcDbLine
 62
250
  6
CONTINUOUS
 10
9.4803215212
 20
-16.5807749201
 11
9.4794865875
 21
-16.4892791759
  0
LINE
  5
38C
100
AcDbEntity
  8
RACCORDO
100
AcDbLine
 62
250
  6
CONTINUOUS
 10
9.4803215212
 20
-16.5807749201
 11
9.4794865875
 21
-16.4892791759
  0
LINE
  5
38D
100
AcDbEntity
  8
ASSI
100
AcDbLine
 62
250
  6
CONTINUOUS
 10
9.2307841313
 20
-16.8189604286
 11
9.2298968636
 21
-16.7071452331
  0
LINE
  5
38E
100
AcDbEntity
  8
RACCORDO
100
AcDbLine
 62
250
  6
CONTINUOUS
 10
9.2307841313
 20
-16.8189604286
 11
9.2298968636
 21
-16.7071452331
  0
LINE
  5
38F
100
AcDbEntity
  8
ASSI
100
AcDbLine
 62
250
  6
CONTINUOUS
 10
9.4794865875
 20
-16.4892791759
 11
9.4787807014
 21
-16.3848625134
  0
LINE
  5
390
100
AcDbEntity
  8
RACCORDO
100
AcDbLine
 62
250
  6
CONTINUOUS
 10
9.4794865875
 20
-16.4892791759
 11
9.4787807014
 21
-16.3848625134
  0
LINE
  5
391
100
AcDbEntity
  8
ASSI
100
AcDbLine
 62
250
  6
CONTINUOUS
 10
9.2298968636
 20
-16.7071452331
 11
9.2291283318
 21
-16.5765636576
  0
LINE
  5
392
100
AcDbEntity
  8
RACCORDO
100
AcDbLine
 62
250
  6
CONTINUOUS
 10
9.2298968636
 20
-16.7071452331
 11
9.2291283318
 21
-16.5765636576
  0
LINE
  5
393
100
AcDbEntity
  8
ASSI
100
AcDbLine
 62
250
  6
CONTINUOUS
 10
9.4787807014
 20
-16.3848625134
 11
9.4782240448
 21
-16.2709303378
  0
LINE
  5
394
100
AcDbEntity
  8
RACCORDO
100
AcDbLine
 62
250
  6
CONTINUOUS
 10
9.4787807014
 20
-16.3848625134
 11
9.4782240448
 21
-16.2709303378
  0
LINE
  5
395
100
AcDbEntity
  8
ASSI
100
AcDbLine
 62
250
  6
CONTINUOUS
 10
9.2291283318
 20
-16.5765636576
 11
9.2284942897
 21
-16.4308158062
  0
LINE
  5
396
100
AcDbEntity
  8
RACCORDO
100
AcDbLine
 62
250
  6
CONTINUOUS
 10
9.2291283318
 20
-16.5765636576
 11
9.2284942897
 21
-16.4308158062
  0
LINE
  5
397
100
AcDbEntity
  8
ASSI
100
AcDbLine
 62
250
  6
CONTINUOUS
 10
9.2284942897
 20
-16.4308158062
 11
9.2280162704
 21
-16.2739200885
  0
LINE
  5
398
100
AcDbEntity
  8
RACCORDO
100
AcDbLine
 62
250
  6
CONTINUOUS
 10
9.2284942897
 20
-16.4308158062
 11
9.2280162704
 21
-16.2739200885
  0
LINE
  5
399
100
AcDbEntity
  8
ASSI
100
AcDbLine
 62
250
  6
CONTINUOUS
 10
9.4782240448
 20
-16.2709303378
 11
9.4778280442
 21
-16.1499586279
  0
LINE
  5
39A
100
AcDbEntity
  8
RACCORDO
100
AcDbLine
 62
250
  6
CONTINUOUS
 10
9.4782240448
 20
-16.2709303378
 11
9.4778280442
 21
-16.1499586279
  0
LINE
  5
39B
100
AcDbEntity
  8
ASSI
100
AcDbLine
 62
250
  6
CONTINUOUS
 10
9.2280162704
 20
-16.2739200885
 11
9.2277077015
 21
-16.1102006917
  0
LINE
  5
39C
100
AcDbEntity
  8
RACCORDO
100
AcDbLine
 62
250
  6
CONTINUOUS
 10
9.2280162704
 20
-16.2739200885
 11
9.2277077015
 21
-16.1102006917
  0
LINE
  5
39D
100
AcDbEntity
  8
ASSI
100
AcDbLine
 62
250
  6
CONTINUOUS
 10
9.4778280442
 20
-16.1499586279
 11
9.4776083892
 21
-16.0270102734
  0
LINE
  5
39E
100
AcDbEntity
  8
RACCORDO
100
AcDbLine
 62
250
  6
CONTINUOUS
 10
9.4778280442
 20
-16.1499586279
 11
9.4776083892
 21
-16.0270102734
  0
LWPOLYLINE
  5
39F
100
AcDbEntity
  8
ASSI
100
AcDbPolyline
 62
250
  6
CONTINUOUS
 90
9
 70
0
 10
9.2277077015
 20
-16.1102006917
 10
9.2264308032
 20
-12.2725618965
 10
9.2255672141
 20
-8.6038564669
 10
9.2249823184
 20
-4.9383300761
 10
9.2246761139
 20
-1.2762583675
 10
9.2246486028
 20
2.3820832919
 10
9.2248997912
 20
6.0364198315
 10
9.2254296812
 20
9.686476466
 10
9.2262382708
 20
13.3319787151
  0
LWPOLYLINE
  5
3A0
100
AcDbEntity
  8
RACCORDO
100
AcDbPolyline
 62
250
  6
CONTINUOUS
 90
9
 70
0
 10
9.2277077015
 20
-16.1102006917
 10
9.2264308032
 20
-12.2725618965
 10
9.2255672141
 20
-8.6038564669
 10
9.2249823184
 20
-4.9383300761
 10
9.2246761139
 20
-1.2762583675
 10
9.2246486028
 20
2.3820832919
 10
9.2248997912
 20
6.0364198315
 10
9.2254296812
 20
9.686476466
 10
9.2262382708
 20
13.3319787151
  0
LWPOLYLINE
  5
3A1
100
AcDbEntity
  8
ASSI
100
AcDbPolyline
 62
250
  6
CONTINUOUS
 90
9
 70
0
 10
9.4776083892
 20
-16.0270102734
 10
9.4764212844
 20
-12.2945524785
 10
9.4755576956
 20
-8.6280995209
 10
9.4749728001
 20
-4.9650962768
 10
9.4746665957
 20
-1.3052659243
 10
9.4746390846
 20
2.3511147147
 10
9.474890273
 20
6.0032151739
 10
9.4754201628
 20
9.6507586311
 10
9.476228752
 20
13.2940219085
  0
LWPOLYLINE
  5
3A2
100
AcDbEntity
  8
RACCORDO
100
AcDbPolyline
 62
250
  6
CONTINUOUS
 90
9
 70
0
 10
9.4776083892
 20
-16.0270102734
 10
9.4764212844
 20
-12.2945524785
 10
9.4755576956
 20
-8.6280995209
 10
9.4749728001
 20
-4.9650962768
 10
9.4746665957
 20
-1.3052659243
 10
9.4746390846
 20
2.3511147147
 10
9.474890273
 20
6.0032151739
 10
9.4754201628
 20
9.6507586311
 10
9.476228752
 20
13.2940219085
  0
LINE
  5
3A3
100
AcDbEntity
  8
RACCORDO
100
AcDbLine
 62
7
  6
CONTINUOUS
 10
9.5270642441
 20
22.1191250892
 11
9.5270642441
 21
18.930912987
  0
LINE
  5
3A4
100
AcDbEntity
  8
RACCORDO
100
AcDbLine
 62
7
  6
CONTINUOUS
 10
9.5270642441
 20
-18.930912987
 11
9.5270642441
 21
-22.1191250892
  0
LINE
  5
3A5
100
AcDbEntity
  8
ASSI
100
AcDbLine
 62
7
  6
CONTINUOUS
 10
9.557977231
 20
17.5363222402
 11
9.557977231
 21
-18.0960089685
  0
LINE
  5
3A6
100
AcDbEntity
  8
RACCORDO
100
AcDbLine
 62
7
  6
CONTINUOUS
 10
9.557977231
 20
17.5363222402
 11
9.557977231
 21
-18.0960089685
  0
LINE
  5
3A7
100
AcDbEntity
  8
RACCORDO
100
AcDbLine
 62
7
  6
CONTINUOUS
 10
9.6195760882
 20
22.2116369334
 11
9.6195760882
 21
19.5492615675
  0
LINE
  5
3A8
100
AcDbEntity
  8
RACCORDO
100
AcDbLine
 62
7
  6
CONTINUOUS
 10
9.6195760882
 20
-19.5492615675
 11
9.6195760882
 21
-22.2116369334
  0
LINE
  5
3A9
100
AcDbEntity
  8
RACCORDO
100
AcDbLine
 62
7
  6
CONTINUOUS
 10
9.6405221661
 20
18.0804321176
 11
9.6405221661
 21
-18.0804321176
  0
LINE
  5
3AA
100
AcDbEntity
  8
DRAFT
100
AcDbLine
 62
7
  6
CONTINUOUS
 10
9.657977231
 20
19.5
 11
9.657977231
 21
-19.5
  0
LINE
  5
3AB
100
AcDbEntity
  8
ASSI
100
AcDbLine
 62
7
  6
CONTINUOUS
 10
9.657977231
 20
-19.5
 11
9.657977231
 21
19.5
  0
LINE
  5
3AC
100
AcDbEntity
  8
ASSI
100
AcDbLine
 62
250
  6
CONTINUOUS
 10
9.2262382708
 20
13.3319787151
 11
9.2274563757
 21
17.1324262763
  0
LINE
  5
3AD
100
AcDbEntity
  8
RACCORDO
100
AcDbLine
 62
250
  6
CONTINUOUS
 10
9.2262382708
 20
13.3319787151
 11
9.2274563757
 21
17.1324262763
  0
LINE
  5
3AE
100
AcDbEntity
  8
ASSI
100
AcDbLine
 62
250
  6
CONTINUOUS
 10
9.476228752
 20
13.2940219085
 11
9.4774452546
 21
17.0527171288
  0
LINE
  5
3AF
100
AcDbEntity
  8
RACCORDO
100
AcDbLine
 62
250
  6
CONTINUOUS
 10
9.476228752
 20
13.2940219085
 11
9.4774452546
 21
17.0527171288
  0
LINE
  5
3B0
100
AcDbEntity
  8
ASSI
100
AcDbLine
 62
250
  6
CONTINUOUS
 10
9.2274563757
 20
17.1324262763
 11
9.2277582842
 21
17.2835361743
  0
LINE
  5
3B1
100
AcDbEntity
  8
RACCORDO
100
AcDbLine
 62
250
  6
CONTINUOUS
 10
9.2274563757
 20
17.1324262763
 11
9.2277582842
 21
17.2835361743
  0
LINE
  5
3B2
100
AcDbEntity
  8
ASSI
100
AcDbLine
 62
250
  6
CONTINUOUS
 10
9.4774452546
 20
17.0527171288
 11
9.4777466697
 21
17.1653408132
  0
LINE
  5
3B3
100
AcDbEntity
  8
RACCORDO
100
AcDbLine
 62
250
  6
CONTINUOUS
 10
9.4774452546
 20
17.0527171288
 11
9.4777466697
 21
17.1653408132
  0
LINE
  5
3B4
100
AcDbEntity
  8
ASSI
100
AcDbLine
 62
250
  6
CONTINUOUS
 10
9.2277582842
 20
17.2835361743
 11
9.2282270059
 21
17.4218999825
  0
LINE
  5
3B5
100
AcDbEntity
  8
RACCORDO
100
AcDbLine
 62
250
  6
CONTINUOUS
 10
9.2277582842
 20
17.2835361743
 11
9.2282270059
 21
17.4218999825
  0
LINE
  5
3B6
100
AcDbEntity
  8
ASSI
100
AcDbLine
 62
250
  6
CONTINUOUS
 10
9.4777466697
 20
17.1653408132
 11
9.4782160078
 21
17.2696656173
  0
LINE
  5
3B7
100
AcDbEntity
  8
RACCORDO
100
AcDbLine
 62
250
  6
CONTINUOUS
 10
9.4777466697
 20
17.1653408132
 11
9.4782160078
 21
17.2696656173
  0
LINE
  5
3B8
100
AcDbEntity
  8
ASSI
100
AcDbLine
 62
250
  6
CONTINUOUS
 10
9.2282270059
 20
17.4218999825
 11
9.2288499317
 21
17.5438096687
  0
LINE
  5
3B9
100
AcDbEntity
  8
RACCORDO
100
AcDbLine
 62
250
  6
CONTINUOUS
 10
9.2282270059
 20
17.4218999825
 11
9.2288499317
 21
17.5438096687
  0
LINE
  5
3BA
100
AcDbEntity
  8
ASSI
100
AcDbLine
 62
250
  6
CONTINUOUS
 10
9.4782160078
 20
17.2696656173
 11
9.4788407627
 21
17.3614679006
  0
LINE
  5
3BB
100
AcDbEntity
  8
RACCORDO
100
AcDbLine
 62
250
  6
CONTINUOUS
 10
9.4782160078
 20
17.2696656173
 11
9.4788407627
 21
17.3614679006
  0
LINE
  5
3BC
100
AcDbEntity
  8
ASSI
100
AcDbLine
 62
250
  6
CONTINUOUS
 10
9.2288499317
 20
17.5438096687
 11
9.2296056893
 21
17.6458915676
  0
LINE
  5
3BD
100
AcDbEntity
  8
RACCORDO
100
AcDbLine
 62
250
  6
CONTINUOUS
 10
9.2288499317
 20
17.5438096687
 11
9.2296056893
 21
17.6458915676
  0
LINE
  5
3BE
100
AcDbEntity
  8
ASSI
100
AcDbLine
 62
250
  6
CONTINUOUS
 10
9.4788407627
 20
17.3614679006
 11
9.4795993809
 21
17.438066667
  0
LINE
  5
3BF
100
AcDbEntity
  8
RACCORDO
100
AcDbLine
 62
250
  6
CONTINUOUS
 10
9.4788407627
 20
17.3614679006
 11
9.4795993809
 21
17.438066667
  0
LWPOLYLINE
  5
3C0
100
AcDbEntity
  8
ASSI
100
AcDbPolyline
 62
250
  6
CONTINUOUS
 90
5
 70
0
 10
9.2296056893
 20
17.6458915676
 10
9.23047904
 20
17.7253876028
 10
9.2309472374
 20
17.7559793368
 10
9.2314383332
 20
17.7801739887
 10
9.2319523273
 20
17.7978068524
  0
LWPOLYLINE
  5
3C1
100
AcDbEntity
  8
RACCORDO
100
AcDbPolyline
 62
250
  6
CONTINUOUS
 90
5
 70
0
 10
9.2296056893
 20
17.6458915676
 10
9.23047904
 20
17.7253876028
 10
9.2309472374
 20
17.7559793368
 10
9.2314383332
 20
17.7801739887
 10
9.2319523273
 20
17.7978068524
  0
LWPOLYLINE
  5
3C2
100
AcDbEntity
  8
ASSI
100
AcDbPolyline
 62
250
  6
CONTINUOUS
 90
5
 70
0
 10
9.4795993809
 20
17.438066667
 10
9.480475244
 20
17.4978723229
 10
9.480942635
 20
17.5205448266
 10
9.481431823
 20
17.5385443151
 10
9.4819428081
 20
17.5518707884
  0
LWPOLYLINE
  5
3C3
100
AcDbEntity
  8
RACCORDO
100
AcDbPolyline
 62
250
  6
CONTINUOUS
 90
5
 70
0
 10
9.4795993809
 20
17.438066667
 10
9.480475244
 20
17.4978723229
 10
9.480942635
 20
17.5205448266
 10
9.481431823
 20
17.5385443151
 10
9.4819428081
 20
17.5518707884
  0
LINE
  5
3C4
100
AcDbEntity
  8
ASSI
100
AcDbLine
 62
250
  6
CONTINUOUS
 10
9.2319523273
 20
17.7978068524
 11
9.2595526054
 21
18.3720938409
  0
LINE
  5
3C5
100
AcDbEntity
  8
RACCORDO
100
AcDbLine
 62
250
  6
CONTINUOUS
 10
9.2319523273
 20
17.7978068524
 11
9.2595526054
 21
18.3720938409
  0
LINE
  5
3C6
100
AcDbEntity
  8
ASSI
100
AcDbLine
 62
250
  6
CONTINUOUS
 10
9.4819428081
 20
17.5518707884
 11
9.5092498637
 21
18.120056612
  0
LINE
  5
3C7
100
AcDbEntity
  8
RACCORDO
100
AcDbLine
 62
250
  6
CONTINUOUS
 10
9.4819428081
 20
17.5518707884
 11
9.5092498637
 21
18.120056612
  0
LINE
  5
3C8
100
AcDbEntity
  8
RACCORDO
100
AcDbLine
 62
7
  6
CONTINUOUS
 10
-9.2036216261
 20
-22.4615988572
 11
-9.2033779198
 21
-22.4613551508
  0
LINE
  5
3C9
100
AcDbEntity
  8
RACCORDO
100
AcDbLine
 62
7
  6
CONTINUOUS
 10
-9.2036216261
 20
22.4615988572
 11
-9.2033779198
 21
22.4613551508
  0
LWPOLYLINE
  5
3CA
100
AcDbEntity
  8
ASSI
100
AcDbPolyline
 62
7
  6
CONTINUOUS
 90
13
 70
0
 10
9.5083695667
 20
18.1408937051
 10
9.5070930017
 20
18.1528113707
 10
9.5007392901
 20
18.1850043215
 10
9.4902884443
 20
18.2161019129
 10
9.4759133291
 20
18.2455931367
 10
9.4578487338
 20
18.2729799087
 10
9.4363816847
 20
18.2977816528
 10
9.4118565609
 20
18.3195807223
 10
9.3846908881
 20
18.3379956331
 10
9.3553612861
 20
18.3526745777
 10
9.3243748095
 20
18.363356585
 10
9.2922551081
 20
18.3698681323
 10
9.2595526054
 20
18.3720938409
  0
LWPOLYLINE
  5
3CB
100
AcDbEntity
  8
RACCORDO
100
AcDbPolyline
 62
7
  6
CONTINUOUS
 90
13
 70
0
 10
9.5083695667
 20
18.1408937051
 10
9.5070930017
 20
18.1528113707
 10
9.5007392901
 20
18.1850043215
 10
9.4902884443
 20
18.2161019129
 10
9.4759133291
 20
18.2455931367
 10
9.4578487338
 20
18.2729799087
 10
9.4363816847
 20
18.2977816528
 10
9.4118565609
 20
18.3195807223
 10
9.3846908881
 20
18.3379956331
 10
9.3553612861
 20
18.3526745777
 10
9.3243748095
 20
18.363356585
 10
9.2922551081
 20
18.3698681323
 10
9.2595526054
 20
18.3720938409
  0
LINE
  5
3CC
100
AcDbEntity
  8
ASSI
100
AcDbLine
 62
250
  6
CONTINUOUS
 10
9.5092498637
 20
18.120056612
 11
9.557977231
 21
17.5363222402
  0
LINE
  5
3CD
100
AcDbEntity
  8
RACCORDO
100
AcDbLine
 62
250
  6
CONTINUOUS
 10
9.5092498637
 20
18.120056612
 11
9.557977231
 21
17.5363222402
  0
LINE
  5
3CE
100
AcDbEntity
  8
ASSI
100
AcDbLine
 62
7
  6
CONTINUOUS
 10
9.5083675797
 20
18.140890475
 11
9.5571233405
 21
17.5568159605
  0
LINE
  5
3CF
100
AcDbEntity
  8
RACCORDO
100
AcDbLine
 62
7
  6
CONTINUOUS
 10
9.5083675797
 20
18.140890475
 11
9.5571233405
 21
17.5568159605
  0
LINE
  5
3D0
100
AcDbEntity
  8
ASSI
100
AcDbLine
 62
7
  6
CONTINUOUS
 10
9.5092498637
 20
18.120056612
 11
9.5083695667
 21
18.1408937051
  0
LINE
  5
3D1
100
AcDbEntity
  8
RACCORDO
100
AcDbLine
 62
7
  6
CONTINUOUS
 10
9.5092498637
 20
18.120056612
 11
9.5083695667
 21
18.1408937051
  0
LINE
  5
3D2
100
AcDbEntity
  8
RACCORDO
100
AcDbLine
 62
7
  6
CONTINUOUS
 10
7.0870331949
 20
-18.9047303896
 11
7.1019142443
 21
-18.830317889
  0
LWPOLYLINE
  5
3D3
100
AcDbEntity
  8
RACCORDO
100
AcDbPolyline
 62
7
  6
CONTINUOUS
 90
20
 70
0
 10
-5.0060330317
 20
-22.4615988572
 10
-5.0072468625
 20
-22.4625965865
 10
-5.0126448479
 20
-22.4662744474
 10
-5.0188318149
 20
-22.4698513194
 10
-5.0257288465
 20
-22.4732815784
 10
-5.0333450387
 20
-22.4765633461
 10
-5.0416712955
 20
-22.4796985006
 10
-5.0506014127
 20
-22.4826470521
 10
-5.0601431257
 20
-22.4854066101
 10
-5.070288699
 20
-22.4879795649
 10
-5.0809087224
 20
-22.4903330977
 10
-5.0920092734
 20
-22.4924643977
 10
-5.1035842745
 20
-22.4943762757
 10
-5.1154860825
 20
-22.4960443449
 10
-5.1277188837
 20
-22.4974654822
 10
-5.1402784918
 20
-22.4986428109
 10
-5.1530047046
 20
-22.4995613135
 10
-5.1658441213
 20
-22.5002159845
 10
-5.1788501428
 20
-22.5006118295
 10
-5.192022769
 20
-22.5007488485
  0
LWPOLYLINE
  5
3D4
100
AcDbEntity
  8
0
100
AcDbPolyline
 62
7
  6
CONTINUOUS
 90
10
 70
0
 43
0.3500000006
 10
-0.5991656127
 20
34.3000010834
 10
-0.5277370498
 20
34.1571432495
 10
-0.5277370498
 20
34.0857120667
 10
-0.6705941756
 20
33.9428587646
 10
-0.7420227385
 20
33.9428587646
 10
-0.8134513721
 20
34.0142854156
 10
-0.8134513721
 20
34.0857120667
 10
-0.7420227385
 20
34.2285699005
 10
-0.6705941756
 20
34.3000010834
 10
-0.5991656127
 20
34.3000010834
  0
LWPOLYLINE
  5
3D5
100
AcDbEntity
  8
ASSI
100
AcDbPolyline
 62
250
  6
CONTINUOUS
 90
13
 70
0
 10
-11.7113710978
 20
16.9726524754
 10
-11.7438225167
 20
16.9723041191
 10
-11.775724822
 20
16.9712862799
 10
-11.8065381918
 20
16.9696161807
 10
-11.8357412299
 20
16.9673220814
 10
-11.8628397892
 20
16.9644428006
 10
-11.8873753321
 20
16.961027059
 10
-11.9089326905
 20
16.9571326547
 10
-11.9271470902
 20
16.9528254852
 10
-11.9417103236
 20
16.9481784326
 10
-11.9523759648
 20
16.9432701301
 10
-11.9589635394
 20
16.9381836315
 10
-11.9613615786
 20
16.9330050061
  0
LWPOLYLINE
  5
3D6
100
AcDbEntity
  8
RACCORDO
100
AcDbPolyline
 62
250
  6
CONTINUOUS
 90
13
 70
0
 10
-11.7113710978
 20
16.9726524754
 10
-11.7438225167
 20
16.9723041191
 10
-11.775724822
 20
16.9712862799
 10
-11.8065381918
 20
16.9696161807
 10
-11.8357412299
 20
16.9673220814
 10
-11.8628397892
 20
16.9644428006
 10
-11.8873753321
 20
16.961027059
 10
-11.9089326905
 20
16.9571326547
 10
-11.9271470902
 20
16.9528254852
 10
-11.9417103236
 20
16.9481784326
 10
-11.9523759648
 20
16.9432701301
 10
-11.9589635394
 20
16.9381836315
 10
-11.9613615786
 20
16.9330050061
  0
LINE
  5
3D7
100
AcDbEntity
  8
ASSI
100
AcDbLine
 62
250
  6
CONTINUOUS
 10
9.2273255599
 20
16.9726524493
 11
-11.7113710978
 21
16.9726524493
  0
LINE
  5
3D8
100
AcDbEntity
  8
RACCORDO
100
AcDbLine
 62
250
  6
CONTINUOUS
 10
9.2273255599
 20
16.9726524493
 11
-11.7113710978
 21
16.9726524493
  0
LWPOLYLINE
  5
3D9
100
AcDbEntity
  8
ASSI
100
AcDbPolyline
 62
250
  6
CONTINUOUS
 90
13
 70
0
 10
9.2273255599
 20
16.9726487919
 10
9.2597754471
 20
16.9723004825
 10
9.2916763015
 20
16.9712827645
 10
9.3224883768
 20
16.969612857
 10
9.3516903484
 20
16.9673190144
 10
9.3787881338
 20
16.964440047
 10
9.4033232525
 20
16.9610246645
 10
9.4248805826
 20
16.9571306534
 10
9.4430953851
 20
16.9528238985
 10
9.457659475
 20
16.948177268
 10
9.4683264353
 20
16.9432693805
 10
9.4749157864
 20
16.938183275
 10
9.4773160399
 20
16.9330050061
  0
LWPOLYLINE
  5
3DA
100
AcDbEntity
  8
RACCORDO
100
AcDbPolyline
 62
250
  6
CONTINUOUS
 90
13
 70
0
 10
9.2273255599
 20
16.9726487919
 10
9.2597754471
 20
16.9723004825
 10
9.2916763015
 20
16.9712827645
 10
9.3224883768
 20
16.969612857
 10
9.3516903484
 20
16.9673190144
 10
9.3787881338
 20
16.964440047
 10
9.4033232525
 20
16.9610246645
 10
9.4248805826
 20
16.9571306534
 10
9.4430953851
 20
16.9528238985
 10
9.457659475
 20
16.948177268
 10
9.4683264353
 20
16.9432693805
 10
9.4749157864
 20
16.938183275
 10
9.4773160399
 20
16.9330050061
  0
LINE
  5
3DB
100
AcDbEntity
  8
DRAFT
100
AcDbLine
 62
7
  6
CONTINUOUS
 10
7.057977231
 20
-18.55
 11
6.907977231
 21
-18.7
  0
LINE
  5
3DC
100
AcDbEntity
  8
ASSI
100
AcDbLine
 62
7
  6
CONTINUOUS
 10
7.057977231
 20
-18.55
 11
6.907977231
 21
-18.7
  0
LWPOLYLINE
  5
3DD
100
AcDbEntity
  8
ASSI
100
AcDbPolyline
 62
250
  6
CONTINUOUS
 90
13
 70
0
 10
-11.7159978653
 20
17.7978068524
 10
-11.7485769638
 20
17.7956599946
 10
-11.7806001932
 20
17.7893505171
 10
-11.8115213782
 20
17.7789861089
 10
-11.8408131932
 20
17.7647435947
 10
-11.8679760383
 20
17.7468659694
 10
-11.8925465894
 20
17.7256582979
 10
-11.9141058548
 20
17.7014824011
 10
-11.9322862686
 20
17.6747506557
 10
-11.9467778697
 20
17.6459190499
 10
-11.9573336381
 20
17.6154793482
 10
-11.9637736934
 20
17.5839506961
 10
-11.965988346
 20
17.5518707884
  0
LWPOLYLINE
  5
3DE
100
AcDbEntity
  8
RACCORDO
100
AcDbPolyline
 62
250
  6
CONTINUOUS
 90
13
 70
0
 10
-11.7159978653
 20
17.7978068524
 10
-11.7485769638
 20
17.7956599946
 10
-11.7806001932
 20
17.7893505171
 10
-11.8115213782
 20
17.7789861089
 10
-11.8408131932
 20
17.7647435947
 10
-11.8679760383
 20
17.7468659694
 10
-11.8925465894
 20
17.7256582979
 10
-11.9141058548
 20
17.7014824011
 10
-11.9322862686
 20
17.6747506557
 10
-11.9467778697
 20
17.6459190499
 10
-11.9573336381
 20
17.6154793482
 10
-11.9637736934
 20
17.5839506961
 10
-11.965988346
 20
17.5518707884
  0
LINE
  5
3DF
100
AcDbEntity
  8
ASSI
100
AcDbLine
 62
250
  6
CONTINUOUS
 10
9.2319523273
 20
17.7978068524
 11
-11.7159978653
 21
17.7978068524
  0
LINE
  5
3E0
100
AcDbEntity
  8
RACCORDO
100
AcDbLine
 62
250
  6
CONTINUOUS
 10
9.2319523273
 20
17.7978068524
 11
-11.7159978653
 21
17.7978068524
  0
LINE
  5
3E1
100
AcDbEntity
  8
RACCORDO
100
AcDbLine
 62
250
  6
CONTINUOUS
 10
-12.1245677041
 20
18.0804321176
 11
-11.9974598936
 21
18.0804321176
  0
LINE
  5
3E2
100
AcDbEntity
  8
RACCORDO
100
AcDbLine
 62
250
  6
CONTINUOUS
 10
9.5134143557
 20
18.0804321176
 11
9.6405221661
 21
18.0804321176
  0
LINE
  5
3E3
100
AcDbEntity
  8
ASSI
100
AcDbLine
 62
7
  6
CONTINUOUS
 10
-11.7435981434
 20
18.3720938409
 11
9.2595526054
 21
18.3720938409
  0
LINE
  5
3E4
100
AcDbEntity
  8
RACCORDO
100
AcDbLine
 62
7
  6
CONTINUOUS
 10
-11.7435981434
 20
18.3720938409
 11
9.2595526054
 21
18.3720938409
  0
LINE
  5
3E5
100
AcDbEntity
  8
RACCORDO
100
AcDbLine
 62
7
  6
CONTINUOUS
 10
-5.2385320963
 20
18.5034906727
 11
2.7544865583
 21
18.5034906727
  0
LINE
  5
3E6
100
AcDbEntity
  8
DRAFT
100
AcDbLine
 62
7
  6
CONTINUOUS
 10
2.7539079968
 20
18.55
 11
1.257977231
 21
18.55
  0
LINE
  5
3E7
100
AcDbEntity
  8
ASSI
100
AcDbLine
 62
7
  6
CONTINUOUS
 10
2.7539079968
 20
18.55
 11
1.257977231
 21
18.55
  0
LINE
  5
3E8
100
AcDbEntity
  8
DRAFT
100
AcDbLine
 62
7
  6
CONTINUOUS
 10
-3.742022769
 20
18.55
 11
-5.2379535348
 21
18.55
  0
LINE
  5
3E9
100
AcDbEntity
  8
ASSI
100
AcDbLine
 62
7
  6
CONTINUOUS
 10
-3.742022769
 20
18.55
 11
-5.2379535348
 21
18.55
  0
LINE
  5
3EA
100
AcDbEntity
  8
RACCORDO
100
AcDbLine
 62
250
  6
CONTINUOUS
 10
-12.11170488
 20
18.830317889
 11
-5.2359597823
 21
18.830317889
  0
LINE
  5
3EB
100
AcDbEntity
  8
RACCORDO
100
AcDbLine
 62
250
  6
CONTINUOUS
 10
2.7519142443
 20
18.830317889
 11
9.6276593421
 21
18.830317889
  0
LINE
  5
3EC
100
AcDbEntity
  8
DRAFT
100
AcDbLine
 62
7
  6
CONTINUOUS
 10
-5.2343432891
 20
18.8384011428
 11
2.7502977511
 21
18.8384011428
  0
LINE
  5
3ED
100
AcDbEntity
  8
DRAFT
100
AcDbLine
 62
7
  6
CONTINUOUS
 10
-12.011109782
 20
18.930912987
 11
9.5270642441
 21
18.930912987
  0
LWPOLYLINE
  5
3EE
100
AcDbEntity
  8
ASSI
100
AcDbPolyline
 62
250
  6
CONTINUOUS
 90
13
 70
0
 10
9.2319523273
 20
17.7978068524
 10
9.2645300413
 20
17.7956601772
 10
9.2965521482
 20
17.7893511835
 10
9.3274725168
 20
17.7789874703
 10
9.3567638058
 20
17.7647457885
 10
9.3839264577
 20
17.7468690277
 10
9.4084972183
 20
17.7256620731
 10
9.4300570379
 20
17.7014866054
 10
9.4482382176
 20
17.6747549329
 10
9.4627306809
 20
17.6459229593
 10
9.4732872614
 20
17.6154824087
 10
9.4797279185
 20
17.5839524391
 10
9.4819428081
 20
17.5518707884
  0
LWPOLYLINE
  5
3EF
100
AcDbEntity
  8
RACCORDO
100
AcDbPolyline
 62
250
  6
CONTINUOUS
 90
13
 70
0
 10
9.2319523273
 20
17.7978068524
 10
9.2645300413
 20
17.7956601772
 10
9.2965521482
 20
17.7893511835
 10
9.3274725168
 20
17.7789874703
 10
9.3567638058
 20
17.7647457885
 10
9.3839264577
 20
17.7468690277
 10
9.4084972183
 20
17.7256620731
 10
9.4300570379
 20
17.7014866054
 10
9.4482382176
 20
17.6747549329
 10
9.4627306809
 20
17.6459229593
 10
9.4732872614
 20
17.6154824087
 10
9.4797279185
 20
17.5839524391
 10
9.4819428081
 20
17.5518707884
  0
LINE
  5
3F0
100
AcDbEntity
  8
DRAFT
100
AcDbLine
 62
7
  6
CONTINUOUS
 10
9.6195760882
 20
-19.5492615675
 11
9.657977231
 21
-19.5
  0
LINE
  5
3F1
100
AcDbEntity
  8
RACCORDO
100
AcDbLine
 62
7
  6
CONTINUOUS
 10
4.9614073174
 20
-22.6030458097
 11
5.1030979762
 21
-22.4613551508
  0
LINE
  5
3F2
100
AcDbEntity
  8
RACCORDO
100
AcDbLine
 62
7
  6
CONTINUOUS
 10
9.5270642441
 20
-18.930912987
 11
9.6276593421
 21
-18.830317889
  0
LINE
  5
3F3
100
AcDbEntity
  8
RACCORDO
100
AcDbLine
 62
7
  6
CONTINUOUS
 10
5.1030979762
 20
22.4613551508
 11
4.9614073174
 21
22.6030458097
  0
LINE
  5
3F4
100
AcDbEntity
  8
RACCORDO
100
AcDbLine
 62
7
  6
CONTINUOUS
 10
9.5270642441
 20
18.930912987
 11
9.6276593421
 21
18.830317889
  0
LINE
  5
3F5
100
AcDbEntity
  8
DRAFT
100
AcDbLine
 62
7
  6
CONTINUOUS
 10
9.6195760882
 20
19.5492615675
 11
9.657977231
 21
19.5
  0
LINE
  5
3F6
100
AcDbEntity
  8
RACCORDO
100
AcDbLine
 62
7
  6
CONTINUOUS
 10
4.957977231
 20
23.2287068966
 11
5.1030979762
 21
23.2577282164
  0
LINE
  5
3F7
100
AcDbEntity
  8
RACCORDO
100
AcDbLine
 62
7
  6
CONTINUOUS
 10
-11.7611478582
 20
22.369087013
 11
9.2771023203
 21
22.369087013
  0
LINE
  5
3F8
100
AcDbEntity
  8
RACCORDO
100
AcDbLine
 62
7
  6
CONTINUOUS
 10
-8.4034997637
 20
22.4476348052
 11
-8.3870216703
 21
22.4476348052
  0
LINE
  5
3F9
100
AcDbEntity
  8
RACCORDO
100
AcDbLine
 62
7
  6
CONTINUOUS
 10
5.9029761324
 20
22.4476348052
 11
5.9194542257
 21
22.4476348052
  0
LINE
  5
3FA
100
AcDbEntity
  8
RACCORDO
100
AcDbLine
 62
7
  6
CONTINUOUS
 10
-11.8536597024
 20
22.4615988572
 11
-9.2036216261
 21
22.4615988572
  0
LINE
  5
3FB
100
AcDbEntity
  8
DRAFT
100
AcDbLine
 62
7
  6
CONTINUOUS
 10
-5.2343432891
 20
22.4615988572
 11
2.7502977511
 21
22.4615988572
  0
LINE
  5
3FC
100
AcDbEntity
  8
RACCORDO
100
AcDbLine
 62
7
  6
CONTINUOUS
 10
6.7195760882
 20
22.4615988572
 11
9.3696141644
 21
22.4615988572
  0
LINE
  5
3FD
100
AcDbEntity
  8
RACCORDO
100
AcDbLine
 62
7
  6
CONTINUOUS
 10
-5.2421725241
 20
22.5007488485
 11
-5.192022769
 21
22.5007488485
  0
LINE
  5
3FE
100
AcDbEntity
  8
RACCORDO
100
AcDbLine
 62
7
  6
CONTINUOUS
 10
2.7581269861
 20
22.5007488485
 11
2.707977231
 21
22.5007488485
  0
LINE
  5
3FF
100
AcDbEntity
  8
RACCORDO
100
AcDbLine
 62
250
  6
CONTINUOUS
 10
4.9614073174
 20
22.6030458097
 11
4.757977231
 21
22.6030458097
  0
LINE
  5
400
100
AcDbEntity
  8
RACCORDO
100
AcDbLine
 62
250
  6
CONTINUOUS
 10
-7.242022769
 20
22.6030458097
 11
-7.4454528554
 21
22.6030458097
  0
LINE
  5
401
100
AcDbEntity
  8
RACCORDO
100
AcDbLine
 62
250
  6
CONTINUOUS
 10
4.957977231
 20
22.8030153487
 11
4.757977231
 21
22.8030153487
  0
LINE
  5
402
100
AcDbEntity
  8
RACCORDO
100
AcDbLine
 62
250
  6
CONTINUOUS
 10
-7.242022769
 20
22.8030153487
 11
-7.442022769
 21
22.8030153487
  0
LWPOLYLINE
  5
403
100
AcDbEntity
  8
RACCORDO
100
AcDbPolyline
 62
7
  6
CONTINUOUS
 90
20
 70
0
 10
-5.192022769
 20
22.5007488485
 10
-5.1788501428
 20
22.5006118295
 10
-5.1658441213
 20
22.5002159845
 10
-5.1530047046
 20
22.4995613135
 10
-5.1402784918
 20
22.4986428109
 10
-5.1277188837
 20
22.4974654822
 10
-5.1154860825
 20
22.4960443449
 10
-5.1035842745
 20
22.4943762757
 10
-5.0920092734
 20
22.4924643977
 10
-5.0809087224
 20
22.4903330977
 10
-5.070288699
 20
22.4879795649
 10
-5.0601431257
 20
22.4854066101
 10
-5.0506014127
 20
22.4826470521
 10
-5.0416712955
 20
22.4796985006
 10
-5.0333450387
 20
22.4765633461
 10
-5.0257288465
 20
22.4732815784
 10
-5.0188318149
 20
22.4698513194
 10
-5.0126448479
 20
22.4662744474
 10
-5.0072468625
 20
22.4625965865
 10
-5.0060330317
 20
22.4615988572
  0
LINE
  5
404
100
AcDbEntity
  8
RACCORDO
100
AcDbLine
 62
7
  6
CONTINUOUS
 10
-7.5871435142
 20
23.2577282164
 11
-7.442022769
 21
23.2287068966
  0
LINE
  5
405
100
AcDbEntity
  8
RACCORDO
100
AcDbLine
 62
7
  6
CONTINUOUS
 10
-9.2033779198
 20
23.2577282164
 11
-9.2036216261
 21
23.2576794799
  0
LWPOLYLINE
  5
406
100
AcDbEntity
  8
RACCORDO
100
AcDbPolyline
 62
7
  6
CONTINUOUS
 90
25
 70
0
 10
3.057977231
 20
23.9084094599
 10
3.0711498572
 20
23.9085464789
 10
3.0841558787
 20
23.9089423239
 10
3.0969952954
 20
23.9095969948
 10
3.1097215082
 20
23.9105154975
 10
3.1222811163
 20
23.9116928261
 10
3.1345139175
 20
23.9131139635
 10
3.1464157255
 20
23.9147820327
 10
3.1579907266
 20
23.9166939106
 10
3.1690912776
 20
23.9188252106
 10
3.179711301
 20
23.9211787434
 10
3.1898568743
 20
23.9237516983
 10
3.1993985873
 20
23.9265112563
 10
3.2083287045
 20
23.9294598077
 10
3.2166549613
 20
23.9325949623
 10
3.2242711535
 20
23.93587673
 10
3.2311681851
 20
23.9393069889
 10
3.2373551521
 20
23.942883861
 10
3.2427531375
 20
23.9465617219
 10
3.2473520346
 20
23.9503418654
 10
3.25116195
 20
23.9542229977
 10
3.2541342871
 20
23.9581556138
 10
3.2562528468
 20
23.9621232117
 10
3.2575338281
 20
23.9661422934
 10
3.257977231
 20
23.9702128587
  0
LINE
  5
407
100
AcDbEntity
  8
DRAFT
100
AcDbLine
 62
7
  6
CONTINUOUS
 10
-7.242022769
 20
23.2306615518
 11
-7.442022769
 21
23.2287068966
  0
LINE
  5
408
100
AcDbEntity
  8
RACCORDO
100
AcDbLine
 62
7
  6
CONTINUOUS
 10
-8.4034997637
 20
23.260472018
 11
-8.3870216703
 21
23.260472018
  0
LINE
  5
409
100
AcDbEntity
  8
RACCORDO
100
AcDbLine
 62
7
  6
CONTINUOUS
 10
5.9029761324
 20
23.260472018
 11
5.9194542257
 21
23.260472018
  0
LINE
  5
40A
100
AcDbEntity
  8
RACCORDO
100
AcDbLine
 62
7
  6
CONTINUOUS
 10
-5.542022769
 20
23.5279868533
 11
-4.9463525364
 21
23.5279868533
  0
LINE
  5
40B
100
AcDbEntity
  8
RACCORDO
100
AcDbLine
 62
7
  6
CONTINUOUS
 10
2.4623069985
 20
23.5279868533
 11
3.057977231
 21
23.5279868533
  0
LINE
  5
40C
100
AcDbEntity
  8
RACCORDO
100
AcDbLine
 62
7
  6
CONTINUOUS
 10
-5.542022769
 20
23.9084094599
 11
-4.9841043839
 21
23.9084094599
  0
LINE
  5
40D
100
AcDbEntity
  8
CURVE
100
AcDbLine
 62
250
  6
CONTINUOUS
 10
3.057977231
 20
23.9084094599
 11
2.5000588459
 21
23.9084094599
  0
LINE
  5
40E
100
AcDbEntity
  8
RACCORDO
100
AcDbLine
 62
7
  6
CONTINUOUS
 10
2.5000588459
 20
23.9084094599
 11
3.057977231
 21
23.9084094599
  0
LINE
  5
40F
100
AcDbEntity
  8
CURVE
100
AcDbLine
 62
250
  6
CONTINUOUS
 10
-4.9841043839
 20
23.9084094599
 11
-5.542022769
 21
23.9084094599
  0
LINE
  5
410
100
AcDbEntity
  8
RACCORDO
100
AcDbLine
 62
7
  6
CONTINUOUS
 10
4.757977231
 20
24.05
 11
2.6912434658
 21
24.05
  0
LINE
  5
411
100
AcDbEntity
  8
RACCORDO
100
AcDbLine
 62
7
  6
CONTINUOUS
 10
-5.1752890038
 20
24.05
 11
-7.242022769
 21
24.05
  0
LINE
  5
412
100
AcDbEntity
  8
0
100
AcDbLine
 62
250
  6
CONTINUOUS
 10
4.757977231
 20
24.35
 11
-7.242022769
 21
24.35
  0
LINE
  5
413
100
AcDbEntity
  8
DRAFT
100
AcDbLine
 62
7
  6
CONTINUOUS
 10
4.957977231
 20
23.2287068966
 11
4.757977231
 21
23.2306615518
  0
LWPOLYLINE
  5
414
100
AcDbEntity
  8
RACCORDO
100
AcDbPolyline
 62
7
  6
CONTINUOUS
 90
25
 70
0
 10
-5.542022769
 20
23.5279868533
 10
-5.5551953952
 20
23.5281238724
 10
-5.5682014166
 20
23.5285197174
 10
-5.5810408334
 20
23.5291743883
 10
-5.5937670462
 20
23.530092891
 10
-5.6063266543
 20
23.5312702196
 10
-5.6185594555
 20
23.532691357
 10
-5.6304612634
 20
23.5343594262
 10
-5.6420362645
 20
23.5362713041
 10
-5.6531368156
 20
23.5384026041
 10
-5.663756839
 20
23.5407561369
 10
-5.6739024123
 20
23.5433290918
 10
-5.6834441252
 20
23.5460886498
 10
-5.6923742424
 20
23.5490372012
 10
-5.7007004993
 20
23.5521723558
 10
-5.7083166914
 20
23.5554541235
 10
-5.7152137231
 20
23.5588843824
 10
-5.7214006901
 20
23.5624612545
 10
-5.7267986755
 20
23.5661391154
 10
-5.7313975726
 20
23.5699192589
 10
-5.735207488
 20
23.5738003912
 10
-5.7381798251
 20
23.5777330072
 10
-5.7402983848
 20
23.5817006052
 10
-5.7415793661
 20
23.5857196869
 10
-5.742022769
 20
23.5897902522
  0
LINE
  5
415
100
AcDbEntity
  8
RACCORDO
100
AcDbLine
 62
7
  6
CONTINUOUS
 10
6.7193323819
 20
23.2577282164
 11
6.7195760882
 21
23.2576794799
  0
LINE
  5
416
100
AcDbEntity
  8
0
100
AcDbLine
 62
7
  6
CONTINUOUS
 10
4.757977231
 20
25.05
 11
-7.242022769
 21
25.05
  0
LWPOLYLINE
  5
417
100
AcDbEntity
  8
0
100
AcDbPolyline
 62
7
  6
CONTINUOUS
 90
7
 70
0
 43
0.3500000006
 10
-3.813451438
 20
33.8000009308
 10
-5.3134516125
 20
33.8000009308
 10
-3.813451438
 20
35.942859375
 10
-3.813451438
 20
36.3714283447
 10
-4.2420226736
 20
36.8000018463
 10
-4.8848798103
 20
36.8000018463
 10
-5.3134516125
 20
36.1571438599
  0
LWPOLYLINE
  5
418
100
AcDbEntity
  8
0
100
AcDbPolyline
 62
7
  6
CONTINUOUS
 90
13
 70
0
 43
0.3500000006
 10
0.9008343494
 20
35.5142858734
 10
0.6151200979
 20
35.7285703583
 10
0.6151200979
 20
36.3714283447
 10
0.9008343494
 20
36.8000018463
 10
1.5436915569
 20
36.8000018463
 10
1.8294058084
 20
36.3714283447
 10
1.8294058084
 20
35.7285703583
 10
1.5436915569
 20
35.5142858734
 10
1.9722629342
 20
35.0857123718
 10
1.9722629342
 20
34.2285699005
 10
1.5436915569
 20
33.8000009308
 10
0.9008343494
 20
33.8000009308
 10
0.4722629367
 20
34.2285699005
  0
LWPOLYLINE
  5
419
100
AcDbEntity
  8
0
100
AcDbPolyline
 62
7
  6
CONTINUOUS
 90
10
 70
0
 43
0.3500000006
 10
-41.7757446442
 20
46.8000003662
 10
-42.4186026306
 20
46.1571423798
 10
-42.8471716003
 20
45.2999999084
 10
-42.8471716003
 20
44.2285729523
 10
-42.4186026306
 20
43.7999994507
 10
-41.7757446442
 20
43.7999994507
 10
-41.3471711426
 20
44.2285729523
 10
-41.3471711426
 20
45.0857154236
 10
-41.7757446442
 20
45.5142843933
 10
-42.7043137665
 20
45.5142843933
  0
LWPOLYLINE
  5
41A
100
AcDbEntity
  8
0
100
AcDbPolyline
 62
7
  6
CONTINUOUS
 90
10
 70
0
 43
0.3500000006
 10
-37.7043145065
 20
46.8000003662
 10
-38.3471702271
 20
46.1571423798
 10
-38.7757437286
 20
45.2999999084
 10
-38.7757437286
 20
44.2285729523
 10
-38.3471702271
 20
43.7999994507
 10
-37.7043145065
 20
43.7999994507
 10
-37.2757432709
 20
44.2285729523
 10
-37.2757432709
 20
45.0857154236
 10
-37.7043145065
 20
45.5142843933
 10
-38.6328858948
 20
45.5142843933
  0
LWPOLYLINE
  5
41B
100
AcDbEntity
  8
0
100
AcDbPolyline
 62
7
  6
CONTINUOUS
 90
5
 70
0
 43
0.3500000006
 10
-44.1328875732
 20
45.5142843933
 10
-43.7757452545
 20
45.72857341
 10
-43.7757452545
 20
46.3714268646
 10
-44.1328875732
 20
46.8000003662
 10
-44.9900300446
 20
46.8000003662
  0
LWPOLYLINE
  5
41C
100
AcDbEntity
  8
0
100
AcDbPolyline
 62
7
  6
CONTINUOUS
 90
8
 70
0
 43
0.3500000006
 10
-68.1981491547
 20
-3.9642859497
 10
-68.1981491547
 20
-3.1071423454
 10
-68.6267181244
 20
-2.6785711098
 10
-69.4838605957
 20
-2.6785711098
 10
-69.9124340973
 20
-3.1071423454
 10
-69.9124340973
 20
-3.9642859497
 10
-71.1981455383
 20
-3.9642859497
 10
-71.1981455383
 20
-2.6785711098
  0
LWPOLYLINE
  5
41D
100
AcDbEntity
  8
0
100
AcDbPolyline
 62
7
  6
CONTINUOUS
 90
5
 70
0
 43
0.3500000006
 10
-35.1513000412
 20
35.5142858734
 10
-34.7941577225
 20
35.7285703583
 10
-34.7941577225
 20
36.3714283447
 10
-35.1513000412
 20
36.8000018463
 10
-36.0084425125
 20
36.8000018463
  0
LINE
  5
41E
100
AcDbEntity
  8
RACCORDO
100
AcDbLine
 62
7
  6
CONTINUOUS
 10
-35.6272538446
 20
-23.2211928118
 11
-46.8798718332
 21
-23.260472018
  0
LINE
  5
41F
100
AcDbEntity
  8
0
100
AcDbLine
 62
7
  6
CONTINUOUS
 10
-45.0798718332
 20
-25.05
 11
-44.5657088492
 21
-25.05
  0
LINE
  5
420
100
AcDbEntity
  8
0
100
AcDbLine
 62
7
  6
CONTINUOUS
 10
-45.0798718332
 20
-24.65
 11
-44.5657088492
 21
-24.65
  0
LINE
  5
421
100
AcDbEntity
  8
0
100
AcDbLine
 62
250
  6
CONTINUOUS
 10
-45.3798718332
 20
-24.35
 11
-45.7798718332
 21
-24.35
  0
LINE
  5
422
100
AcDbEntity
  8
0
100
AcDbLine
 62
7
  6
CONTINUOUS
 10
-45.3798718332
 20
-24.05
 11
-45.7798718332
 21
-24.05
  0
LINE
  5
423
100
AcDbEntity
  8
RACCORDO
100
AcDbLine
 62
250
  6
CONTINUOUS
 10
-45.7798718332
 20
-23.8674311485
 11
-45.3798718332
 21
-23.8674311485
  0
LINE
  5
424
100
AcDbEntity
  8
RACCORDO
100
AcDbLine
 62
7
  6
CONTINUOUS
 10
-43.8798718332
 20
-21.6
 11
-35.3781265075
 21
-21.5877074627
  0
LINE
  5
425
100
AcDbEntity
  8
RACCORDO
100
AcDbLine
 62
7
  6
CONTINUOUS
 10
-51.3798718332
 20
-22.369087013
 11
-46.0798718332
 21
-22.4615988572
  0
LINE
  5
426
100
AcDbEntity
  8
RACCORDO
100
AcDbLine
 62
250
  6
CONTINUOUS
 10
-51.3798718332
 20
-22.1191250892
 11
-46.0798718332
 21
-22.2116369334
  0
LINE
  5
427
100
AcDbEntity
  8
DRAFT
100
AcDbLine
 62
7
  6
CONTINUOUS
 10
-46.0798718332
 20
-19.5492615675
 11
-43.8798718332
 21
-19.5
  0
LINE
  5
428
100
AcDbEntity
  8
ASSI
100
AcDbLine
 62
7
  6
CONTINUOUS
 10
-43.8798718332
 20
-20.9
 11
-34.8798718332
 21
-20.7429044156
  0
LINE
  5
429
100
AcDbEntity
  8
DRAFT
100
AcDbLine
 62
7
  6
CONTINUOUS
 10
-43.8798718332
 20
-20.9
 11
-34.8798718332
 21
-20.7429044156
  0
LINE
  5
42A
100
AcDbEntity
  8
ASSI
100
AcDbLine
 62
7
  6
CONTINUOUS
 10
-34.8798718332
 20
-19.3563751041
 11
-43.8798718332
 21
-19.5
  0
LINE
  5
42B
100
AcDbEntity
  8
DRAFT
100
AcDbLine
 62
7
  6
CONTINUOUS
 10
-34.8798718332
 20
-19.3563751041
 11
-43.8798718332
 21
-19.5
  0
LINE
  5
42C
100
AcDbEntity
  8
RACCORDO
100
AcDbLine
 62
7
  6
CONTINUOUS
 10
-34.8798718332
 20
-18.9714581899
 11
-25.8755085654
 21
-18.8928783021
  0
LINE
  5
42D
100
AcDbEntity
  8
ASSI
100
AcDbLine
 62
7
  6
CONTINUOUS
 10
-25.3798718332
 20
-18.8885529459
 11
-34.8798718332
 21
-18.9714581899
  0
LINE
  5
42E
100
AcDbEntity
  8
DRAFT
100
AcDbLine
 62
7
  6
CONTINUOUS
 10
-25.3798718332
 20
-18.8885529459
 11
-25.8755085654
 21
-18.8928783021
  0
LINE
  5
42F
100
AcDbEntity
  8
RACCORDO
100
AcDbLine
 62
7
  6
CONTINUOUS
 10
-43.8798718332
 20
-20.9
 11
-34.8798718332
 21
-20.9314160541
  0
LINE
  5
430
100
AcDbEntity
  8
ASSI
100
AcDbLine
 62
7
  6
CONTINUOUS
 10
-49.7868914873
 20
-18.3442211402
 11
-58.1851928081
 21
-17.0140608858
  0
LINE
  5
431
100
AcDbEntity
  8
RACCORDO
100
AcDbLine
 62
7
  6
CONTINUOUS
 10
-49.7868914873
 20
-18.3442211402
 11
-58.1851928081
 21
-17.0140608858
  0
LINE
  5
432
100
AcDbEntity
  8
ASSI
100
AcDbLine
 62
250
  6
CONTINUOUS
 10
-49.7564148648
 20
-18.0960089685
 11
-58.1482495642
 21
-16.7668729264
  0
LINE
  5
433
100
AcDbEntity
  8
RACCORDO
100
AcDbLine
 62
250
  6
CONTINUOUS
 10
-49.7564148648
 20
-18.0960089685
 11
-58.1482495642
 21
-16.7668729264
  0
LWPOLYLINE
  5
434
100
AcDbEntity
  8
ASSI
100
AcDbPolyline
 62
250
  6
CONTINUOUS
 90
19
 70
0
 10
-58.1482495642
 20
-16.7668729264
 10
-58.2096323732
 20
-16.7544709189
 10
-58.2691050194
 20
-16.7372923483
 10
-58.3266675029
 20
-16.7153372145
 10
-58.3827314695
 20
-16.6883840142
 10
-58.4368852734
 20
-16.6566542507
 10
-58.4878939765
 20
-16.6208124341
 10
-58.5356563794
 20
-16.5807749201
 10
-58.5802736816
 20
-16.536625353
 10
-58.6208145432
 20
-16.4892791759
 10
-58.6571893729
 20
-16.4386691497
 10
-58.689487762
 20
-16.3848625134
 10
-58.7170471451
 20
-16.3289764271
 10
-58.7397642118
 20
-16.2709303378
 10
-58.7577422724
 20
-16.2108047984
 10
-58.770628693
 20
-16.1499586279
 10
-58.7783059288
 20
-16.0888447662
 10
-58.7808915246
 20
-16.0270102734
 10
-58.7783854803
 20
-15.9644551497
  0
LWPOLYLINE
  5
435
100
AcDbEntity
  8
RACCORDO
100
AcDbPolyline
 62
250
  6
CONTINUOUS
 90
19
 70
0
 10
-58.1482495642
 20
-16.7668729264
 10
-58.2096323732
 20
-16.7544709189
 10
-58.2691050194
 20
-16.7372923483
 10
-58.3266675029
 20
-16.7153372145
 10
-58.3827314695
 20
-16.6883840142
 10
-58.4368852734
 20
-16.6566542507
 10
-58.4878939765
 20
-16.6208124341
 10
-58.5356563794
 20
-16.5807749201
 10
-58.5802736816
 20
-16.536625353
 10
-58.6208145432
 20
-16.4892791759
 10
-58.6571893729
 20
-16.4386691497
 10
-58.689487762
 20
-16.3848625134
 10
-58.7170471451
 20
-16.3289764271
 10
-58.7397642118
 20
-16.2709303378
 10
-58.7577422724
 20
-16.2108047984
 10
-58.770628693
 20
-16.1499586279
 10
-58.7783059288
 20
-16.0888447662
 10
-58.7808915246
 20
-16.0270102734
 10
-58.7783854803
 20
-15.9644551497
  0
LWPOLYLINE
  5
436
100
AcDbEntity
  8
0
100
AcDbPolyline
 62
7
  6
CONTINUOUS
 90
3
 70
0
 43
0.3500000006
 10
-70.341003067
 20
2.2500003662
 10
-71.1981455383
 20
3.1071428375
 10
-68.1981491547
 20
3.1071428375
  0
LWPOLYLINE
  5
437
100
AcDbEntity
  8
ASSI
100
AcDbPolyline
 62
250
  6
CONTINUOUS
 90
5
 70
0
 10
-58.1851928081
 20
-17.0140608858
 10
-58.1851393692
 20
-17.0119045604
 10
-58.1844178947
 20
-17.0055615431
 10
-58.1830407371
 20
-16.9951404043
 10
-58.1810314612
 20
-16.9808194443
  0
LWPOLYLINE
  5
438
100
AcDbEntity
  8
RACCORDO
100
AcDbPolyline
 62
250
  6
CONTINUOUS
 90
5
 70
0
 10
-58.1851928081
 20
-17.0140608858
 10
-58.1851393692
 20
-17.0119045604
 10
-58.1844178947
 20
-17.0055615431
 10
-58.1830407371
 20
-16.9951404043
 10
-58.1810314612
 20
-16.9808194443
  0
LWPOLYLINE
  5
439
100
AcDbEntity
  8
ASSI
100
AcDbPolyline
 62
250
  6
CONTINUOUS
 90
10
 70
0
 10
-58.7783854803
 20
-15.9644551497
 10
-58.4596536282
 20
-12.2945524785
 10
-58.1091704376
 20
-8.6280995209
 10
-57.7269359084
 20
-4.9650962768
 10
-57.3129162885
 20
-1.3052659243
 10
-56.86714533
 20
2.3511147147
 10
-56.3897242893
 20
6.0032151739
 10
-55.8806869186
 20
9.6507586311
 10
-55.3399994655
 20
13.2940219085
 10
-54.7676619303
 20
16.9330050061
  0
LWPOLYLINE
  5
43A
100
AcDbEntity
  8
RACCORDO
100
AcDbPolyline
 62
250
  6
CONTINUOUS
 90
10
 70
0
 10
-58.7783854803
 20
-15.9644551497
 10
-58.4596536282
 20
-12.2945524785
 10
-58.1091704376
 20
-8.6280995209
 10
-57.7269359084
 20
-4.9650962768
 10
-57.3129162885
 20
-1.3052659243
 10
-56.86714533
 20
2.3511147147
 10
-56.3897242893
 20
6.0032151739
 10
-55.8806869186
 20
9.6507586311
 10
-55.3399994655
 20
13.2940219085
 10
-54.7676619303
 20
16.9330050061
  0
LWPOLYLINE
  5
43B
100
AcDbEntity
  8
CURVE
100
AcDbPolyline
 62
250
  6
CONTINUOUS
 90
3
 70
0
 10
-58.7231885487
 20
-12.4559299489
 10
-58.7251694092
 20
-12.4777575862
 10
-58.728146999
 20
-12.5105861749
  0
LINE
  5
43C
100
AcDbEntity
  8
CURVE
100
AcDbLine
 62
250
  6
CONTINUOUS
 10
-58.7177725099
 20
-12.3963177782
 11
-58.7231885487
 21
-12.4559299489
  0
LINE
  5
43D
100
AcDbEntity
  8
CURVE
100
AcDbLine
 62
250
  6
CONTINUOUS
 10
-58.7177725099
 20
-12.3963177782
 11
-58.710439269
 21
-12.3157479662
  0
LINE
  5
43E
100
AcDbEntity
  8
CURVE
100
AcDbLine
 62
250
  6
CONTINUOUS
 10
-58.7104511784
 20
-12.3158786302
 11
-58.6959132643
 21
-12.1566535218
  0
LINE
  5
43F
100
AcDbEntity
  8
CURVE
100
AcDbLine
 62
250
  6
CONTINUOUS
 10
-58.6959299241
 20
-12.1568355421
 11
-58.6699865413
 21
-11.8743289958
  0
LINE
  5
440
100
AcDbEntity
  8
CURVE
100
AcDbLine
 62
250
  6
CONTINUOUS
 10
-58.6700057781
 20
-11.8745378826
 11
-58.6459678149
 21
-11.614594333
  0
LINE
  5
441
100
AcDbEntity
  8
CURVE
100
AcDbLine
 62
250
  6
CONTINUOUS
 10
-58.6459902033
 20
-11.6148354812
 11
-58.6183263417
 21
-11.3178190391
  0
LINE
  5
442
100
AcDbEntity
  8
CURVE
100
AcDbLine
 62
250
  6
CONTINUOUS
 10
-58.6183540258
 20
-11.3181149788
 11
-58.5871493648
 21
-10.9857730108
  0
LINE
  5
443
100
AcDbEntity
  8
CURVE
100
AcDbLine
 62
250
  6
CONTINUOUS
 10
-58.5871774915
 20
-10.9860716241
 11
-58.5528043
 21
-10.6231576301
  0
LWPOLYLINE
  5
444
100
AcDbEntity
  8
CURVE
100
AcDbPolyline
 62
250
  6
CONTINUOUS
 90
3
 70
0
 10
-58.5378239784
 20
-10.4660270019
 10
-58.5394870627
 20
-10.4834407913
 10
-58.552831103
 20
-10.6234393228
  0
LINE
  5
445
100
AcDbEntity
  8
CURVE
100
AcDbLine
 62
250
  6
CONTINUOUS
 10
-58.5378239784
 20
-10.4660270019
 11
-58.5358269181
 21
-10.4451267356
  0
LINE
  5
446
100
AcDbEntity
  8
CURVE
100
AcDbLine
 62
250
  6
CONTINUOUS
 10
-58.5407735088
 20
-10.4969121542
 11
-58.5247198233
 21
-10.3290793713
  0
LINE
  5
447
100
AcDbEntity
  8
CURVE
100
AcDbLine
 62
250
  6
CONTINUOUS
 10
-58.5284326713
 20
-10.3678277383
 11
-58.5086894078
 21
-10.1621860442
  0
LINE
  5
448
100
AcDbEntity
  8
CURVE
100
AcDbLine
 62
250
  6
CONTINUOUS
 10
-58.5158143248
 20
-10.2362704886
 11
-58.4881481457
 21
-9.9493295453
  0
LINE
  5
449
100
AcDbEntity
  8
CURVE
100
AcDbLine
 62
250
  6
CONTINUOUS
 10
-58.4897680432
 20
-9.9660751431
 11
-58.4581364814
 21
-9.6403329911
  0
LINE
  5
44A
100
AcDbEntity
  8
CURVE
100
AcDbLine
 62
250
  6
CONTINUOUS
 10
-58.4627144491
 20
-9.687333629
 11
-58.4283728107
 21
-9.3361797191
  0
LINE
  5
44B
100
AcDbEntity
  8
CURVE
100
AcDbLine
 62
250
  6
CONTINUOUS
 10
-58.4348689642
 20
-9.4023822632
 11
-58.4156652493
 21
-9.2070088217
  0
LINE
  5
44C
100
AcDbEntity
  8
CURVE
100
AcDbLine
 62
250
  6
CONTINUOUS
 10
-58.4207271786
 20
-9.258411798
 11
-58.3827032083
 21
-8.8738062966
  0
LINE
  5
44D
100
AcDbEntity
  8
CURVE
100
AcDbLine
 62
250
  6
CONTINUOUS
 10
-58.3342090275
 20
-8.3883992632
 11
-58.3886715492
 21
-8.9339315906
  0
LINE
  5
44E
100
AcDbEntity
  8
CURVE
100
AcDbLine
 62
250
  6
CONTINUOUS
 10
-58.3481822712
 20
-8.527691329
 11
-58.3341941007
 21
-8.3882508025
  0
LINE
  5
44F
100
AcDbEntity
  8
CURVE
100
AcDbLine
 62
250
  6
CONTINUOUS
 10
-58.3375851343
 20
-8.4220115068
 11
-58.3059156135
 21
-8.1077559189
  0
LINE
  5
450
100
AcDbEntity
  8
CURVE
100
AcDbLine
 62
250
  6
CONTINUOUS
 10
-58.3066608996
 20
-8.1151337458
 11
-58.2742861975
 21
-7.7962285039
  0
LINE
  5
451
100
AcDbEntity
  8
CURVE
100
AcDbLine
 62
250
  6
CONTINUOUS
 10
-58.2744198586
 20
-7.797538144
 11
-58.2429715774
 21
-7.4900322618
  0
LINE
  5
452
100
AcDbEntity
  8
CURVE
100
AcDbLine
 62
250
  6
CONTINUOUS
 10
-58.2437371993
 20
-7.4974757508
 11
-58.2294253615
 21
-7.3582264005
  0
LINE
  5
453
100
AcDbEntity
  8
CURVE
100
AcDbLine
 62
250
  6
CONTINUOUS
 10
-58.2326033365
 20
-7.3891254929
 11
-58.1975168499
 21
-7.0493784138
  0
LINE
  5
454
100
AcDbEntity
  8
CURVE
100
AcDbLine
 62
250
  6
CONTINUOUS
 10
-58.1864885273
 20
-6.9431442786
 11
-58.1765347916
 21
-6.8474833025
  0
LINE
  5
455
100
AcDbEntity
  8
CURVE
100
AcDbLine
 62
250
  6
CONTINUOUS
 10
-58.2017736083
 20
-7.0904530537
 11
-58.1678355928
 21
-6.7640491117
  0
LINE
  5
456
100
AcDbEntity
  8
CURVE
100
AcDbLine
 62
250
  6
CONTINUOUS
 10
-58.1717503627
 20
-6.8015687864
 11
-58.1604392543
 21
-6.6932369084
  0
LINE
  5
457
100
AcDbEntity
  8
CURVE
100
AcDbLine
 62
250
  6
CONTINUOUS
 10
-58.1619501046
 20
-6.7076868768
 11
-58.1332010043
 21
-6.4334458383
  0
LINE
  5
458
100
AcDbEntity
  8
CURVE
100
AcDbLine
 62
250
  6
CONTINUOUS
 10
-58.133230165
 20
-6.4337231462
 11
-58.096718886
 21
-6.0878832371
  0
LINE
  5
459
100
AcDbEntity
  8
CURVE
100
AcDbLine
 62
250
  6
CONTINUOUS
 10
-58.0967498234
 20
-6.088174875
 11
-58.0628869241
 21
-5.7697936109
  0
LINE
  5
45A
100
AcDbEntity
  8
CURVE
100
AcDbLine
 62
250
  6
CONTINUOUS
 10
-58.0629181724
 20
-5.7700864615
 11
-58.032232483
 21
-5.4835359856
  0
LINE
  5
45B
100
AcDbEntity
  8
CURVE
100
AcDbLine
 62
250
  6
CONTINUOUS
 10
-58.0322585649
 20
-5.4837789362
 11
-58.0114601569
 21
-5.2905998079
  0
LINE
  5
45C
100
AcDbEntity
  8
CURVE
100
AcDbLine
 62
250
  6
CONTINUOUS
 10
-58.0114829911
 20
-5.2908113716
 11
-57.9869754875
 21
-5.0642320496
  0
LINE
  5
45D
100
AcDbEntity
  8
CURVE
100
AcDbLine
 62
250
  6
CONTINUOUS
 10
-57.9732630621
 20
-4.937945271
 11
-57.9869970414
 21
-5.0644307213
  0
LINE
  5
45E
100
AcDbEntity
  8
CURVE
100
AcDbLine
 62
250
  6
CONTINUOUS
 10
-57.9647177054
 20
-4.8594219603
 11
-57.9732630621
 21
-4.937945271
  0
LWPOLYLINE
  5
45F
100
AcDbEntity
  8
CURVE
100
AcDbPolyline
 62
250
  6
CONTINUOUS
 90
3
 70
0
 10
-57.9536453668
 20
-4.7578852192
 10
-57.9571020256
 20
-4.7895586336
 10
-57.9647177054
 20
-4.8594219603
  0
LINE
  5
460
100
AcDbEntity
  8
CURVE
100
AcDbLine
 62
250
  6
CONTINUOUS
 10
-57.9536453668
 20
-4.7578852192
 11
-57.9474272508
 21
-4.7009641849
  0
LINE
  5
461
100
AcDbEntity
  8
CURVE
100
AcDbLine
 62
250
  6
CONTINUOUS
 10
-57.9448053103
 20
-4.6769827718
 11
-57.9474395161
 21
-4.7010763983
  0
LINE
  5
462
100
AcDbEntity
  8
CURVE
100
AcDbLine
 62
250
  6
CONTINUOUS
 10
-57.9307568281
 20
-4.5486995464
 11
-57.9448053103
 21
-4.6769827718
  0
LWPOLYLINE
  5
463
100
AcDbEntity
  8
ASSI
100
AcDbPolyline
 62
250
  6
CONTINUOUS
 90
16
 70
0
 10
-54.7676619303
 20
16.9330050061
 10
-54.755203203
 20
16.9937975573
 10
-54.7380454862
 20
17.0527171288
 10
-54.71618878
 20
17.1097637206
 10
-54.6894189022
 20
17.1653408132
 10
-54.6579500351
 20
17.219044926
 10
-54.6224247245
 20
17.2696656173
 10
-54.5827532695
 20
17.3171084697
 10
-54.539025371
 20
17.3614679006
 10
-54.4921526778
 20
17.4018167203
 10
-54.4420383658
 20
17.438066667
 10
-54.3887792591
 20
17.4703060026
 10
-54.3335774784
 20
17.4978723229
 10
-54.2768337303
 20
17.5205448266
 10
-54.2181473082
 20
17.5385443151
 10
-54.157518212
 20
17.5518707884
  0
LWPOLYLINE
  5
464
100
AcDbEntity
  8
RACCORDO
100
AcDbPolyline
 62
250
  6
CONTINUOUS
 90
16
 70
0
 10
-54.7676619303
 20
16.9330050061
 10
-54.755203203
 20
16.9937975573
 10
-54.7380454862
 20
17.0527171288
 10
-54.71618878
 20
17.1097637206
 10
-54.6894189022
 20
17.1653408132
 10
-54.6579500351
 20
17.219044926
 10
-54.6224247245
 20
17.2696656173
 10
-54.5827532695
 20
17.3171084697
 10
-54.539025371
 20
17.3614679006
 10
-54.4921526778
 20
17.4018167203
 10
-54.4420383658
 20
17.438066667
 10
-54.3887792591
 20
17.4703060026
 10
-54.3335774784
 20
17.4978723229
 10
-54.2768337303
 20
17.5205448266
 10
-54.2181473082
 20
17.5385443151
 10
-54.157518212
 20
17.5518707884
  0
LWPOLYLINE
  5
465
100
AcDbEntity
  8
CURVE
100
AcDbPolyline
 62
250
  6
CONTINUOUS
 90
17
 70
0
 10
-32.6798718332
 20
-16.999948
 10
-32.3885414999
 20
-16.9713817234
 10
-32.1083078486
 20
-16.886770974
 10
-31.8498448918
 20
-16.7493385492
 10
-31.6192888162
 20
-16.5606234022
 10
-31.4334858008
 20
-16.3344144959
 10
-31.2951572421
 20
-16.0764230006
 10
-31.209572032
 20
-15.7964757324
 10
-31.1799809466
 20
-15.5
 10
-31.2085461355
 20
-15.2086585734
 10
-31.2931536632
 20
-14.9284142511
 10
-31.430580855
 20
-14.6699414525
 10
-31.6192888162
 20
-14.4393765978
 10
-31.8454891093
 20
-14.2535665073
 10
-32.103470781
 20
-14.1152326813
 10
-32.3834073897
 20
-14.0296442122
 10
-32.6798719643
 20
-14.000052
  0
LINE
  5
466
100
AcDbEntity
  8
RACCORDO
100
AcDbLine
 62
7
  6
CONTINUOUS
 10
-51.3798718332
 20
-18.930912987
 11
-45.6167825284
 21
-18.830317889
  0
LINE
  5
467
100
AcDbEntity
  8
ASSI
100
AcDbLine
 62
250
  6
CONTINUOUS
 10
-34.8798718332
 20
-18.4714772284
 11
-25.8755085654
 21
-18.3928973406
  0
LINE
  5
468
100
AcDbEntity
  8
RACCORDO
100
AcDbLine
 62
250
  6
CONTINUOUS
 10
-34.8798718332
 20
-18.4714772284
 11
-25.8755085654
 21
-18.3928973406
  0
LINE
  5
469
100
AcDbEntity
  8
ASSI
100
AcDbLine
 62
250
  6
CONTINUOUS
 10
-25.8755085654
 20
-18.3928973406
 11
-25.3798718332
 21
-18.3928973406
  0
LINE
  5
46A
100
AcDbEntity
  8
RACCORDO
100
AcDbLine
 62
250
  6
CONTINUOUS
 10
-25.8755085654
 20
-18.3928973406
 11
-25.3798718332
 21
-18.3928973406
  0
LINE
  5
46B
100
AcDbEntity
  8
CURVE
100
AcDbLine
 62
250
  6
CONTINUOUS
 10
-38.8798718332
 20
-17.209104
 11
-40.779799487
 21
-17.209104
  0
LINE
  5
46C
100
AcDbEntity
  8
ASSI
100
AcDbLine
 62
7
  6
CONTINUOUS
 10
-25.3798718332
 20
-17.0
 11
-25.2798718332
 21
-17.0
  0
LINE
  5
46D
100
AcDbEntity
  8
0
100
AcDbLine
 62
7
  6
CONTINUOUS
 10
-25.3798718332
 20
-17.0
 11
-25.2798718332
 21
-17.0
  0
LINE
  5
46E
100
AcDbEntity
  8
ASSI
100
AcDbLine
 62
250
  6
CONTINUOUS
 10
-59.0253740264
 20
-15.9441705171
 11
-59.0066128945
 21
-15.9456847343
  0
LINE
  5
46F
100
AcDbEntity
  8
RACCORDO
100
AcDbLine
 62
250
  6
CONTINUOUS
 10
-59.0253740264
 20
-15.9441705171
 11
-59.0066128945
 21
-15.9456847343
  0
LINE
  5
470
100
AcDbEntity
  8
ASSI
100
AcDbLine
 62
250
  6
CONTINUOUS
 10
-59.0066128945
 20
-15.9456847343
 11
-58.7783854803
 21
-15.9644551497
  0
LINE
  5
471
100
AcDbEntity
  8
RACCORDO
100
AcDbLine
 62
250
  6
CONTINUOUS
 10
-59.0066128945
 20
-15.9456847343
 11
-58.7783854803
 21
-15.9644551497
  0
LINE
  5
472
100
AcDbEntity
  8
ASSI
100
AcDbLine
 62
7
  6
CONTINUOUS
 10
-49.6040874722
 20
-16.8554019127
 11
-48.5985516734
 21
-17.0146631374
  0
LINE
  5
473
100
AcDbEntity
  8
RACCORDO
100
AcDbLine
 62
7
  6
CONTINUOUS
 10
-49.6040874722
 20
-16.8554019127
 11
-48.5985516734
 21
-17.0146631374
  0
LINE
  5
474
100
AcDbEntity
  8
ASSI
100
AcDbLine
 62
250
  6
CONTINUOUS
 10
-58.1810314612
 20
-16.9808194443
 11
-58.1752643073
 21
-16.9415207715
  0
LINE
  5
475
100
AcDbEntity
  8
RACCORDO
100
AcDbLine
 62
250
  6
CONTINUOUS
 10
-58.1810314612
 20
-16.9808194443
 11
-58.1752643073
 21
-16.9415207715
  0
LINE
  5
476
100
AcDbEntity
  8
ASSI
100
AcDbLine
 62
250
  6
CONTINUOUS
 10
-58.1752643073
 20
-16.9415207715
 11
-58.1675094613
 21
-16.8903436549
  0
LINE
  5
477
100
AcDbEntity
  8
RACCORDO
100
AcDbLine
 62
250
  6
CONTINUOUS
 10
-58.1752643073
 20
-16.9415207715
 11
-58.1675094613
 21
-16.8903436549
  0
LINE
  5
478
100
AcDbEntity
  8
ASSI
100
AcDbLine
 62
250
  6
CONTINUOUS
 10
-58.1675094613
 20
-16.8903436549
 11
-58.1582953037
 21
-16.8307749908
  0
LINE
  5
479
100
AcDbEntity
  8
RACCORDO
100
AcDbLine
 62
250
  6
CONTINUOUS
 10
-58.1675094613
 20
-16.8903436549
 11
-58.1582953037
 21
-16.8307749908
  0
LINE
  5
47A
100
AcDbEntity
  8
ASSI
100
AcDbLine
 62
250
  6
CONTINUOUS
 10
-58.1582953037
 20
-16.8307749908
 11
-58.1482495642
 21
-16.7668729264
  0
LINE
  5
47B
100
AcDbEntity
  8
RACCORDO
100
AcDbLine
 62
250
  6
CONTINUOUS
 10
-58.1582953037
 20
-16.8307749908
 11
-58.1482495642
 21
-16.7668729264
  0
LWPOLYLINE
  5
47C
100
AcDbEntity
  8
CURVE
100
AcDbPolyline
 62
250
  6
CONTINUOUS
 90
17
 70
0
 10
-32.6798718332
 20
-14.000052
 10
-32.9712021664
 20
-14.0286182766
 10
-33.2514358178
 20
-14.113229026
 10
-33.5098987746
 20
-14.2506614508
 10
-33.7404548501
 20
-14.4393765978
 10
-33.9262578655
 20
-14.6655855041
 10
-34.0645864242
 20
-14.9235769994
 10
-34.1501716344
 20
-15.2035242676
 10
-34.1797627198
 20
-15.5
 10
-34.1511975308
 20
-15.7913414266
 10
-34.0665900032
 20
-16.0715857489
 10
-33.9291628114
 20
-16.3300585475
 10
-33.7404548501
 20
-16.5606234022
 10
-33.5142545571
 20
-16.7464334927
 10
-33.2562728854
 20
-16.8847673187
 10
-32.9763362767
 20
-16.9703557878
 10
-32.6798717021
 20
-16.999948
  0
LINE
  5
47D
100
AcDbEntity
  8
ASSI
100
AcDbLine
 62
7
  6
CONTINUOUS
 10
-22.6772538725
 20
-15.0764146104
 11
-25.4198961773
 21
-15.1003492872
  0
LINE
  5
47E
100
AcDbEntity
  8
RACCORDO
100
AcDbLine
 62
7
  6
CONTINUOUS
 10
-22.6772538725
 20
-15.0764146104
 11
-25.4198961773
 21
-15.1003492872
  0
LINE
  5
47F
100
AcDbEntity
  8
ASSI
100
AcDbLine
 62
250
  6
CONTINUOUS
 10
-22.6772538725
 20
-14.7764260334
 11
-25.8755085654
 21
-14.8043367793
  0
LINE
  5
480
100
AcDbEntity
  8
RACCORDO
100
AcDbLine
 62
250
  6
CONTINUOUS
 10
-22.6772538725
 20
-14.7764260334
 11
-25.8755085654
 21
-14.8043367793
  0
LINE
  5
481
100
AcDbEntity
  8
CURVE
100
AcDbLine
 62
250
  6
CONTINUOUS
 10
-37.3799289486
 20
-16.6331039743
 11
-35.5799974871
 21
-16.6331039743
  0
LINE
  5
482
100
AcDbEntity
  8
CURVE
100
AcDbLine
 62
250
  6
CONTINUOUS
 10
-36.0942636419
 20
-16.0571039485
 11
-36.8656628474
 21
-16.0571039485
  0
LINE
  5
483
100
AcDbEntity
  8
ASSI
100
AcDbLine
 62
7
  6
CONTINUOUS
 10
-25.3798718332
 20
-15.9263222656
 11
-25.2798718332
 21
-15.926322
  0
LINE
  5
484
100
AcDbEntity
  8
0
100
AcDbLine
 62
7
  6
CONTINUOUS
 10
-25.3798718332
 20
-15.9263222656
 11
-25.2798718332
 21
-15.926322
  0
LINE
  5
485
100
AcDbEntity
  8
ASSI
100
AcDbLine
 62
7
  6
CONTINUOUS
 10
-25.3798718332
 20
-15.725440625
 11
-25.2798718332
 21
-15.725441
  0
LINE
  5
486
100
AcDbEntity
  8
0
100
AcDbLine
 62
7
  6
CONTINUOUS
 10
-25.3798718332
 20
-15.725440625
 11
-25.2798718332
 21
-15.725441
  0
LINE
  5
487
100
AcDbEntity
  8
CURVE
100
AcDbLine
 62
250
  6
CONTINUOUS
 10
-33.7700598064
 20
-15.5
 11
-31.58968386
 21
-15.5
  0
LINE
  5
488
100
AcDbEntity
  8
ASSI
100
AcDbLine
 62
7
  6
CONTINUOUS
 10
-25.3798718332
 20
-15.300587
 11
-25.2798718332
 21
-15.300587
  0
LINE
  5
489
100
AcDbEntity
  8
0
100
AcDbLine
 62
7
  6
CONTINUOUS
 10
-25.3798718332
 20
-15.300587
 11
-25.2798718332
 21
-15.300587
  0
LINE
  5
48A
100
AcDbEntity
  8
CURVE
100
AcDbLine
 62
250
  6
CONTINUOUS
 10
-36.8656628474
 20
-15.0491040687
 11
-36.0942636419
 21
-15.0491040687
  0
LINE
  5
48B
100
AcDbEntity
  8
ASSI
100
AcDbLine
 62
250
  6
CONTINUOUS
 10
-22.3798718332
 20
-14.7764260334
 11
-22.6772538725
 21
-14.7764260334
  0
LINE
  5
48C
100
AcDbEntity
  8
RACCORDO
100
AcDbLine
 62
250
  6
CONTINUOUS
 10
-22.3798718332
 20
-14.7764260334
 11
-22.6772538725
 21
-14.7764260334
  0
LINE
  5
48D
100
AcDbEntity
  8
RACCORDO
100
AcDbLine
 62
7
  6
CONTINUOUS
 10
-49.4509298551
 20
-15.6080332208
 11
-44.8798718332
 21
-15.8475922207
  0
LINE
  5
48E
100
AcDbEntity
  8
RACCORDO
100
AcDbLine
 62
250
  6
CONTINUOUS
 10
-49.390013698
 20
-15.111910934
 11
-44.8798718332
 21
-15.3482774533
  0
LWPOLYLINE
  5
48F
100
AcDbEntity
  8
ASSI
100
AcDbPolyline
 62
250
  6
CONTINUOUS
 90
7
 70
0
 10
-54.1987648841
 20
17.7978068524
 10
-54.1986624359
 20
17.7956601772
 10
-54.1978213517
 20
17.7893511835
 10
-54.1962559761
 20
17.7789874703
 10
-54.1939930065
 20
17.7647457885
 10
-54.1910710372
 20
17.7468690277
 10
-54.1789003773
 20
17.6747549329
  0
LWPOLYLINE
  5
490
100
AcDbEntity
  8
RACCORDO
100
AcDbPolyline
 62
250
  6
CONTINUOUS
 90
7
 70
0
 10
-54.1987648841
 20
17.7978068524
 10
-54.1986624359
 20
17.7956601772
 10
-54.1978213517
 20
17.7893511835
 10
-54.1962559761
 20
17.7789874703
 10
-54.1939930065
 20
17.7647457885
 10
-54.1910710372
 20
17.7468690277
 10
-54.1789003773
 20
17.6747549329
  0
LWPOLYLINE
  5
491
100
AcDbEntity
  8
0
100
AcDbPolyline
 62
7
  6
CONTINUOUS
 90
3
 70
0
 43
0.3500000006
 10
-39.7757440338
 20
44.0857151184
 10
-39.8471706848
 20
43.8714306335
 10
-39.9900285187
 20
43.5857149658
  0
LWPOLYLINE
  5
492
100
AcDbEntity
  8
0
100
AcDbPolyline
 62
7
  6
CONTINUOUS
 90
10
 70
0
 43
0.3500000006
 10
-68.6981493073
 20
1.1785711441
 10
-68.5552914734
 20
1.250000061
 10
-68.4838602905
 20
1.250000061
 10
-68.3410069885
 20
1.1071422272
 10
-68.3410069885
 20
1.0357133102
 10
-68.4124336395
 20
0.9642866592
 10
-68.4838602905
 20
0.9642866592
 10
-68.6267181244
 20
1.0357133102
 10
-68.6981493073
 20
1.1071422272
 10
-68.6981493073
 20
1.1785711441
  0
LINE
  5
493
100
AcDbEntity
  8
CURVE
100
AcDbLine
 62
250
  6
CONTINUOUS
 10
-36.5924135331
 20
16.7857141495
 11
-36.3067101435
 21
16.9285712242
  0
LWPOLYLINE
  5
494
100
AcDbEntity
  8
0
100
AcDbPolyline
 62
250
  6
CONTINUOUS
 90
17
 70
0
 10
-25.8303874823
 20
-11.452892
 10
-25.7687025551
 20
-11.4468435097
 10
-25.7093671876
 20
-11.4289284239
 10
-25.6546414455
 20
-11.3998291227
 10
-25.6058245765
 20
-11.3598714569
 10
-25.5664835118
 20
-11.3119750371
 10
-25.5371944674
 20
-11.2573491201
 10
-25.5190730538
 20
-11.19807439
 10
-25.5128075752
 20
-11.1353
 10
-25.5188558352
 20
-11.0736127239
 10
-25.5367702389
 20
-11.014275097
 10
-25.5658684321
 20
-10.9595472711
 10
-25.6058245765
 20
-10.9107285431
 10
-25.6537191724
 20
-10.8713859804
 10
-25.7083430095
 20
-10.8420958207
 10
-25.7676154825
 20
-10.8239737171
 10
-25.8303875101
 20
-10.817708
  0
LWPOLYLINE
  5
495
100
AcDbEntity
  8
0
100
AcDbPolyline
 62
250
  6
CONTINUOUS
 90
17
 70
0
 10
-25.8303874823
 20
-11.27581
 10
-25.8030966528
 20
-11.2731340089
 10
-25.7768453225
 20
-11.2652079632
 10
-25.7526333965
 20
-11.2523337635
 10
-25.7310356916
 20
-11.2346555738
 10
-25.7136303005
 20
-11.2134650969
 10
-25.7006721541
 20
-11.1892973358
 10
-25.6926548242
 20
-11.1630728329
 10
-25.6898828325
 20
-11.1353
 10
-25.6925587217
 20
-11.1080081313
 10
-25.7004844656
 20
-11.0817558014
 10
-25.7133581751
 20
-11.0575429534
 10
-25.7310356916
 20
-11.0359444262
 10
-25.7522253617
 20
-11.0185383722
 10
-25.7763922026
 20
-11.0055797324
 10
-25.8026157069
 20
-10.9975620973
 10
-25.8303874946
 20
-10.99479
  0
LINE
  5
496
100
AcDbEntity
  8
0
100
AcDbLine
 62
250
  6
CONTINUOUS
 10
-29.071341072
 20
-13.068876
 11
-25.7092480951
 21
-12.774826
  0
LINE
  5
497
100
AcDbEntity
  8
0
100
AcDbLine
 62
250
  6
CONTINUOUS
 10
-22.8798718332
 20
-14.092362
 11
-23.8988450323
 21
-14.092362
  0
LINE
  5
498
100
AcDbEntity
  8
CURVE
100
AcDbLine
 62
250
  6
CONTINUOUS
 10
-41.8296471835
 20
-12.854552
 11
-40.829723336
 21
-12.854552
  0
LINE
  5
499
100
AcDbEntity
  8
0
100
AcDbLine
 62
250
  6
CONTINUOUS
 10
-29.071341072
 20
-12.781784
 11
-29.4659440462
 21
-12.781784
  0
LINE
  5
49A
100
AcDbEntity
  8
0
100
AcDbLine
 62
250
  6
CONTINUOUS
 10
-25.5128075752
 20
-12.718117
 11
-25.7092480951
 21
-12.718117
  0
LINE
  5
49B
100
AcDbEntity
  8
0
100
AcDbLine
 62
250
  6
CONTINUOUS
 10
-29.4659440462
 20
-12.68241
 11
-29.071341072
 21
-12.68241
  0
LINE
  5
49C
100
AcDbEntity
  8
0
100
AcDbLine
 62
250
  6
CONTINUOUS
 10
-25.7092480951
 20
-12.600497
 11
-25.5128075752
 21
-12.600497
  0
LWPOLYLINE
  5
49D
100
AcDbEntity
  8
ASSI
100
AcDbPolyline
 62
7
  6
CONTINUOUS
 90
16
 70
0
 10
-25.4198961773
 20
-15.1003492872
 10
-25.4317407233
 20
-15.09935257
 10
-25.4453849473
 20
-15.0961709239
 10
-25.4608304025
 20
-15.0908159188
 10
-25.4781707795
 20
-15.0832951043
 10
-25.4973151601
 20
-15.073663297
 10
-25.5179873864
 20
-15.0620729445
 10
-25.5401427243
 20
-15.0487073118
 10
-25.5638260656
 20
-15.0336477161
 10
-25.5888952961
 20
-15.0169242042
 10
-25.6152988077
 20
-14.9986912612
 10
-25.6430882593
 20
-14.9790493419
 10
-25.6722775462
 20
-14.9578869283
 10
-25.7029220492
 20
-14.9352895705
 10
-25.7349672199
 20
-14.9114166351
 10
-25.7682632384
 20
-14.8862293301
  0
LWPOLYLINE
  5
49E
100
AcDbEntity
  8
RACCORDO
100
AcDbPolyline
 62
7
  6
CONTINUOUS
 90
16
 70
0
 10
-25.4198961773
 20
-15.1003492872
 10
-25.4317407233
 20
-15.09935257
 10
-25.4453849473
 20
-15.0961709239
 10
-25.4608304025
 20
-15.0908159188
 10
-25.4781707795
 20
-15.0832951043
 10
-25.4973151601
 20
-15.073663297
 10
-25.5179873864
 20
-15.0620729445
 10
-25.5401427243
 20
-15.0487073118
 10
-25.5638260656
 20
-15.0336477161
 10
-25.5888952961
 20
-15.0169242042
 10
-25.6152988077
 20
-14.9986912612
 10
-25.6430882593
 20
-14.9790493419
 10
-25.6722775462
 20
-14.9578869283
 10
-25.7029220492
 20
-14.9352895705
 10
-25.7349672199
 20
-14.9114166351
 10
-25.7682632384
 20
-14.8862293301
  0
LINE
  5
49F
100
AcDbEntity
  8
CURVE
100
AcDbLine
 62
250
  6
CONTINUOUS
 10
-35.5799974871
 20
-14.473104103
 11
-37.3799289486
 21
-13.897103897
  0
LINE
  5
4A0
100
AcDbEntity
  8
CURVE
100
AcDbLine
 62
250
  6
CONTINUOUS
 10
-36.8656628474
 20
-16.0571039485
 11
-37.122795898
 21
-15.9131040172
  0
LINE
  5
4A1
100
AcDbEntity
  8
ASSI
100
AcDbLine
 62
7
  6
CONTINUOUS
 10
-50.9383667422
 20
18.2161019129
 11
-50.9393020967
 21
18.2455931367
  0
LINE
  5
4A2
100
AcDbEntity
  8
RACCORDO
100
AcDbLine
 62
7
  6
CONTINUOUS
 10
-50.9383667422
 20
18.2161019129
 11
-50.9393020967
 21
18.2455931367
  0
LWPOLYLINE
  5
4A3
100
AcDbEntity
  8
ASSI
100
AcDbPolyline
 62
7
  6
CONTINUOUS
 90
3
 70
0
 10
-50.9351762807
 20
18.120056612
 10
-50.9361803487
 20
18.1528113707
 10
-50.9383667422
 20
18.2161019129
  0
LWPOLYLINE
  5
4A4
100
AcDbEntity
  8
RACCORDO
100
AcDbPolyline
 62
7
  6
CONTINUOUS
 90
3
 70
0
 10
-50.9351762807
 20
18.120056612
 10
-50.9361803487
 20
18.1528113707
 10
-50.9383667422
 20
18.2161019129
  0
LINE
  5
4A5
100
AcDbEntity
  8
ASSI
100
AcDbLine
 62
7
  6
CONTINUOUS
 10
-50.9393020967
 20
18.2455931367
 11
-50.9413327418
 21
18.3195807223
  0
LINE
  5
4A6
100
AcDbEntity
  8
RACCORDO
100
AcDbLine
 62
7
  6
CONTINUOUS
 10
-50.9393020967
 20
18.2455931367
 11
-50.9413327418
 21
18.3195807223
  0
LWPOLYLINE
  5
4A7
100
AcDbEntity
  8
ASSI
100
AcDbPolyline
 62
7
  6
CONTINUOUS
 90
5
 70
0
 10
-50.9413327418
 20
18.3195807223
 10
-50.9419722925
 20
18.3526745777
 10
-50.9421154121
 20
18.363356585
 10
-50.9420703835
 20
18.3698681323
 10
-50.9418215269
 20
18.3720938409
  0
LWPOLYLINE
  5
4A8
100
AcDbEntity
  8
RACCORDO
100
AcDbPolyline
 62
7
  6
CONTINUOUS
 90
5
 70
0
 10
-50.9413327418
 20
18.3195807223
 10
-50.9419722925
 20
18.3526745777
 10
-50.9421154121
 20
18.363356585
 10
-50.9420703835
 20
18.3698681323
 10
-50.9418215269
 20
18.3720938409
  0
LINE
  5
4A9
100
AcDbEntity
  8
RACCORDO
100
AcDbLine
 62
7
  6
CONTINUOUS
 10
-51.3798718332
 20
-18.930912987
 11
-51.3798718332
 21
-22.369087013
  0
LINE
  5
4AA
100
AcDbEntity
  8
RACCORDO
100
AcDbLine
 62
7
  6
CONTINUOUS
 10
-51.3798718332
 20
18.930912987
 11
-51.3798718332
 21
22.369087013
  0
LINE
  5
4AB
100
AcDbEntity
  8
0
100
AcDbLine
 62
250
  6
CONTINUOUS
 10
-44.4730037509
 20
24.6353169549
 11
-44.3493969531
 21
25.0157395614
  0
LINE
  5
4AC
100
AcDbEntity
  8
CURVE
100
AcDbLine
 62
7
  6
CONTINUOUS
 10
-40.6914289054
 20
15.6986558738
 11
-40.1961546103
 21
16.1939301688
  0
LINE
  5
4AD
100
AcDbEntity
  8
CURVE
100
AcDbLine
 62
7
  6
CONTINUOUS
 10
-39.8407331722
 20
16.549351607
 11
-38.8104687117
 21
17.5796160675
  0
LINE
  5
4AE
100
AcDbEntity
  8
CURVE
100
AcDbLine
 62
250
  6
CONTINUOUS
 10
-35.1638964959
 20
16.0714287758
 11
-35.4495999152
 21
15.9285712242
  0
LINE
  5
4AF
100
AcDbEntity
  8
CURVE
100
AcDbLine
 62
250
  6
CONTINUOUS
 10
-36.5924135331
 20
14.0714285374
 11
-36.3067101435
 21
14.2142856121
  0
LWPOLYLINE
  5
4B0
100
AcDbEntity
  8
0
100
AcDbPolyline
 62
250
  6
CONTINUOUS
 90
17
 70
0
 10
-25.8303874823
 20
-10.99479
 10
-25.8576783118
 20
-10.9974659911
 10
-25.8839296421
 20
-11.0053920368
 10
-25.9081415681
 20
-11.0182662365
 10
-25.929739273
 20
-11.0359444262
 10
-25.9471446642
 20
-11.0571349031
 10
-25.9601028106
 20
-11.0813026642
 10
-25.9681201404
 20
-11.1075271671
 10
-25.9708921321
 20
-11.1353
 10
-25.9682162429
 20
-11.1625918687
 10
-25.960290499
 20
-11.1888441986
 10
-25.9474167896
 20
-11.2130570466
 10
-25.929739273
 20
-11.2346555738
 10
-25.908549603
 20
-11.2520616278
 10
-25.884382762
 20
-11.2650202676
 10
-25.8581592577
 20
-11.2730379027
 10
-25.83038747
 20
-11.27581
  0
LWPOLYLINE
  5
4B1
100
AcDbEntity
  8
0
100
AcDbPolyline
 62
250
  6
CONTINUOUS
 90
17
 70
0
 10
-25.8303874823
 20
-10.817708
 10
-25.8920724095
 20
-10.8237564903
 10
-25.951407777
 20
-10.8416715761
 10
-26.0061335191
 20
-10.8707708773
 10
-26.0549503882
 20
-10.9107285431
 10
-26.0942914528
 20
-10.9586249629
 10
-26.1235804973
 20
-11.0132508799
 10
-26.1417019109
 20
-11.07252561
 10
-26.1479673894
 20
-11.1353
 10
-26.1419191294
 20
-11.1969872761
 10
-26.1240047257
 20
-11.256324903
 10
-26.0949065325
 20
-11.3110527289
 10
-26.0549503882
 20
-11.3598714569
 10
-26.0070557922
 20
-11.3992140196
 10
-25.9524319552
 20
-11.4285041793
 10
-25.8931594821
 20
-11.4466262829
 10
-25.8303874545
 20
-11.452892
  0
LWPOLYLINE
  5
4B2
100
AcDbEntity
  8
0
100
AcDbPolyline
 62
250
  6
CONTINUOUS
 90
17
 70
0
 10
-29.1758140939
 20
-10.902669
 10
-29.1384094783
 20
-10.8990013057
 10
-29.102429593
 20
-10.8881379242
 10
-29.0692449005
 20
-10.8704926384
 10
-29.0396432409
 20
-10.8462630381
 10
-29.0157875364
 20
-10.8172195222
 10
-28.9980271937
 20
-10.7840953618
 10
-28.9870386988
 20
-10.7481522459
 10
-28.9832394268
 20
-10.710087
 10
-28.9869069814
 20
-10.6726809602
 10
-28.9977699493
 20
-10.6366997048
 10
-29.0154145632
 20
-10.6035137487
 10
-29.0396432409
 20
-10.5739109619
 10
-29.0686856509
 20
-10.5500543489
 10
-29.1018085501
 20
-10.53229333
 10
-29.1377502974
 20
-10.5213044166
 10
-29.1758141107
 20
-10.517505
  0
LWPOLYLINE
  5
4B3
100
AcDbEntity
  8
0
100
AcDbPolyline
 62
250
  6
CONTINUOUS
 90
17
 70
0
 10
-29.1758140939
 20
-10.517505
 10
-29.2132187094
 20
-10.5211726943
 10
-29.2491985947
 20
-10.5320360758
 10
-29.2823832872
 20
-10.5496813616
 10
-29.3119849468
 20
-10.5739109619
 10
-29.3358406514
 20
-10.6029544778
 10
-29.3536009941
 20
-10.6360786382
 10
-29.364589489
 20
-10.6720217541
 10
-29.3683887609
 20
-10.710087
 10
-29.3647212063
 20
-10.7474930398
 10
-29.3538582385
 20
-10.7834742952
 10
-29.3362136245
 20
-10.8166602513
 10
-29.3119849468
 20
-10.8462630381
 10
-29.2829425368
 20
-10.8701196511
 10
-29.2498196377
 20
-10.88788067
 10
-29.2138778904
 20
-10.8988695834
 10
-29.175814077
 20
-10.902669
  0
LINE
  5
4B4
100
AcDbEntity
  8
0
100
AcDbLine
 62
250
  6
CONTINUOUS
 10
-28.0279548025
 20
-12.21193
 11
-28.2435825917
 21
-12.21193
  0
LINE
  5
4B5
100
AcDbEntity
  8
0
100
AcDbLine
 62
250
  6
CONTINUOUS
 10
-29.3414287875
 20
-12.156927
 11
-29.558914506
 21
-12.156927
  0
LINE
  5
4B6
100
AcDbEntity
  8
CURVE
100
AcDbLine
 62
250
  6
CONTINUOUS
 10
-39.8297994884
 20
-11.854552
 11
-41.8296471835
 21
-11.854552
  0
LINE
  5
4B7
100
AcDbEntity
  8
0
100
AcDbLine
 62
250
  6
CONTINUOUS
 10
-29.5583565273
 20
-11.583924
 11
-29.3408708088
 21
-11.583924
  0
LINE
  5
4B8
100
AcDbEntity
  8
0
100
AcDbLine
 62
250
  6
CONTINUOUS
 10
-28.2435825917
 20
-11.38859
 11
-28.0279548025
 21
-11.38859
  0
LINE
  5
4B9
100
AcDbEntity
  8
0
100
AcDbLine
 62
250
  6
CONTINUOUS
 10
-28.3359950728
 20
-10.932113
 11
-28.7084448905
 21
-10.932113
  0
LINE
  5
4BA
100
AcDbEntity
  8
CURVE
100
AcDbLine
 62
250
  6
CONTINUOUS
 10
-40.829723336
 20
-10.854552
 11
-41.8296471835
 21
-10.854552
  0
LINE
  5
4BB
100
AcDbEntity
  8
0
100
AcDbLine
 62
250
  6
CONTINUOUS
 10
-28.7084448905
 20
-10.582053
 11
-28.3359950728
 21
-10.582053
  0
LINE
  5
4BC
100
AcDbEntity
  8
CURVE
100
AcDbLine
 62
250
  6
CONTINUOUS
 10
-36.0942636419
 20
-15.0491040687
 11
-35.8371305645
 21
-15.193104
  0
LINE
  5
4BD
100
AcDbEntity
  8
CURVE
100
AcDbLine
 62
250
  6
CONTINUOUS
 10
-40.779799487
 20
-17.209104
 11
-40.2398200486
 21
-17.81391
  0
LINE
  5
4BE
100
AcDbEntity
  8
0
100
AcDbLine
 62
250
  6
CONTINUOUS
 10
-44.4730037509
 20
-24.6353169549
 11
-44.3493969531
 21
-25.0157395614
  0
LINE
  5
4BF
100
AcDbEntity
  8
ASSI
100
AcDbLine
 62
250
  6
CONTINUOUS
 10
-54.1789003773
 20
17.6747549329
 11
-54.157518212
 21
17.5518707884
  0
LINE
  5
4C0
100
AcDbEntity
  8
RACCORDO
100
AcDbLine
 62
250
  6
CONTINUOUS
 10
-54.1789003773
 20
17.6747549329
 11
-54.157518212
 21
17.5518707884
  0
LINE
  5
4C1
100
AcDbEntity
  8
CURVE
100
AcDbLine
 62
250
  6
CONTINUOUS
 10
-36.8781169226
 20
16.5
 11
-36.5924135331
 21
16.7857141495
  0
LINE
  5
4C2
100
AcDbEntity
  8
CURVE
100
AcDbLine
 62
250
  6
CONTINUOUS
 10
-35.1638964959
 20
13.3571429253
 11
-35.4495999152
 21
13.2142856121
  0
LINE
  5
4C3
100
AcDbEntity
  8
CURVE
100
AcDbLine
 62
250
  6
CONTINUOUS
 10
-31.8798718332
 20
11.8785712957
 11
-32.8084079267
 21
11.6
  0
LINE
  5
4C4
100
AcDbEntity
  8
CURVE
100
AcDbLine
 62
250
  6
CONTINUOUS
 10
-36.8656628474
 20
-10.153104
 11
-37.122795898
 21
-10.153104
  0
LINE
  5
4C5
100
AcDbEntity
  8
0
100
AcDbLine
 62
250
  6
CONTINUOUS
 10
-23.8988450323
 20
-9.907638
 11
-22.8798718332
 21
-9.907638
  0
LINE
  5
4C6
100
AcDbEntity
  8
CURVE
100
AcDbLine
 62
250
  6
CONTINUOUS
 10
-36.6085297968
 20
-9.577103794
 11
-37.3799289486
 21
-9.577103794
  0
LINE
  5
4C7
100
AcDbEntity
  8
ASSI
100
AcDbLine
 62
250
  6
CONTINUOUS
 10
-22.3798718332
 20
-8.8235739666
 11
-22.6772538725
 21
-8.8235739666
  0
LINE
  5
4C8
100
AcDbEntity
  8
RACCORDO
100
AcDbLine
 62
250
  6
CONTINUOUS
 10
-22.3798718332
 20
-8.8235739666
 11
-22.6772538725
 21
-8.8235739666
  0
LINE
  5
4C9
100
AcDbEntity
  8
CURVE
100
AcDbLine
 62
250
  6
CONTINUOUS
 10
-35.8371305645
 20
-8.7131037253
 11
-36.3513966925
 21
-8.7131037253
  0
LINE
  5
4CA
100
AcDbEntity
  8
ASSI
100
AcDbLine
 62
250
  6
CONTINUOUS
 10
-25.8755085654
 20
-8.7956632207
 11
-22.6772538725
 21
-8.8235739666
  0
LINE
  5
4CB
100
AcDbEntity
  8
RACCORDO
100
AcDbLine
 62
250
  6
CONTINUOUS
 10
-25.8755085654
 20
-8.7956632207
 11
-22.6772538725
 21
-8.8235739666
  0
LINE
  5
4CC
100
AcDbEntity
  8
ASSI
100
AcDbLine
 62
7
  6
CONTINUOUS
 10
-25.4198961773
 20
-8.4996507128
 11
-22.6772538725
 21
-8.5235853896
  0
LINE
  5
4CD
100
AcDbEntity
  8
RACCORDO
100
AcDbLine
 62
7
  6
CONTINUOUS
 10
-25.4198961773
 20
-8.4996507128
 11
-22.6772538725
 21
-8.5235853896
  0
LINE
  5
4CE
100
AcDbEntity
  8
0
100
AcDbLine
 62
250
  6
CONTINUOUS
 10
-26.1473754119
 20
-11.119407
 11
-29.0437901211
 21
-10.850161
  0
LINE
  5
4CF
100
AcDbEntity
  8
CURVE
100
AcDbLine
 62
250
  6
CONTINUOUS
 10
-36.8656628474
 20
-17.209104
 11
-37.3799289486
 21
-16.6331039743
  0
LINE
  5
4D0
100
AcDbEntity
  8
CURVE
100
AcDbLine
 62
250
  6
CONTINUOUS
 10
-37.122795898
 20
-15.9131040172
 11
-37.3799289486
 21
-15.6251040343
  0
LINE
  5
4D1
100
AcDbEntity
  8
RACCORDO
100
AcDbLine
 62
7
  6
CONTINUOUS
 10
-46.8798718332
 20
-23.260472018
 11
-46.8798718332
 21
-22.4476348052
  0
LINE
  5
4D2
100
AcDbEntity
  8
RACCORDO
100
AcDbLine
 62
7
  6
CONTINUOUS
 10
-46.8798718332
 20
22.4476348052
 11
-46.8798718332
 21
23.260472018
  0
LINE
  5
4D3
100
AcDbEntity
  8
RACCORDO
100
AcDbLine
 62
250
  6
CONTINUOUS
 10
-46.0938337583
 20
-23.2577282164
 11
-46.0938337583
 21
-22.4613551508
  0
LINE
  5
4D4
100
AcDbEntity
  8
RACCORDO
100
AcDbLine
 62
250
  6
CONTINUOUS
 10
-46.0938337583
 20
22.4613551508
 11
-46.0938337583
 21
23.2577282164
  0
LINE
  5
4D5
100
AcDbEntity
  8
DRAFT
100
AcDbLine
 62
7
  6
CONTINUOUS
 10
-46.0798718332
 20
23.2576794799
 11
-46.0798718332
 21
22.4615988572
  0
LINE
  5
4D6
100
AcDbEntity
  8
RACCORDO
100
AcDbLine
 62
7
  6
CONTINUOUS
 10
-46.0798718332
 20
22.4615988572
 11
-46.0798718332
 21
19.5492615675
  0
LINE
  5
4D7
100
AcDbEntity
  8
DRAFT
100
AcDbLine
 62
7
  6
CONTINUOUS
 10
-46.0798718332
 20
-23.2576794799
 11
-46.0798718332
 21
-22.4615988572
  0
LINE
  5
4D8
100
AcDbEntity
  8
RACCORDO
100
AcDbLine
 62
7
  6
CONTINUOUS
 10
-46.0798718332
 20
-19.5492615675
 11
-46.0798718332
 21
-22.4615988572
  0
LINE
  5
4D9
100
AcDbEntity
  8
ASSI
100
AcDbLine
 62
7
  6
CONTINUOUS
 10
-49.8556614815
 20
-18.9043077963
 11
-49.8221978444
 21
-18.6317683433
  0
LINE
  5
4DA
100
AcDbEntity
  8
RACCORDO
100
AcDbLine
 62
7
  6
CONTINUOUS
 10
-49.8556614815
 20
-18.9043077963
 11
-49.8221978444
 21
-18.6317683433
  0
LINE
  5
4DB
100
AcDbEntity
  8
ASSI
100
AcDbLine
 62
7
  6
CONTINUOUS
 10
-45.3508473874
 20
17.7844587796
 11
-49.7868914873
 21
-18.3442211402
  0
LINE
  5
4DC
100
AcDbEntity
  8
RACCORDO
100
AcDbLine
 62
7
  6
CONTINUOUS
 10
-45.3508473874
 20
17.7844587796
 11
-49.7868914873
 21
-18.3442211402
  0
LINE
  5
4DD
100
AcDbEntity
  8
ASSI
100
AcDbLine
 62
7
  6
CONTINUOUS
 10
-48.1804958301
 20
-17.5694419794
 11
-48.3411508252
 21
-18.8778719145
  0
LINE
  5
4DE
100
AcDbEntity
  8
RACCORDO
100
AcDbLine
 62
7
  6
CONTINUOUS
 10
-48.1804958301
 20
-17.5694419794
 11
-48.3411508252
 21
-18.8778719145
  0
LINE
  5
4DF
100
AcDbEntity
  8
CURVE
100
AcDbLine
 62
250
  6
CONTINUOUS
 10
-34.8781930765
 20
16.3571429253
 11
-35.1638964959
 21
16.0714287758
  0
LINE
  5
4E0
100
AcDbEntity
  8
CURVE
100
AcDbLine
 62
250
  6
CONTINUOUS
 10
-36.8781169226
 20
13.7857143879
 11
-36.5924135331
 21
14.0714285374
  0
LINE
  5
4E1
100
AcDbEntity
  8
CURVE
100
AcDbLine
 62
250
  6
CONTINUOUS
 10
-32.6227007235
 20
16.3357141972
 11
-32.4369934816
 21
16.5214283943
  0
LINE
  5
4E2
100
AcDbEntity
  8
CURVE
100
AcDbLine
 62
250
  6
CONTINUOUS
 10
-34.8781930765
 20
13.6428570747
 11
-35.1638964959
 21
13.3571429253
  0
LINE
  5
4E3
100
AcDbEntity
  8
CURVE
100
AcDbLine
 62
250
  6
CONTINUOUS
 10
-33.1798223332
 20
15.3142858028
 11
-32.99411513
 21
15.5
  0
LWPOLYLINE
  5
4E4
100
AcDbEntity
  8
CURVE
100
AcDbPolyline
 62
250
  6
CONTINUOUS
 90
47
 70
0
 10
-40.5511462281
 20
-6.86
 10
-40.5596645557
 20
-6.8605449422
 10
-40.5679498482
 20
-6.8607094017
 10
-40.5760124016
 20
-6.860504064
 10
-40.5838624652
 20
-6.859938251
 10
-40.5915101751
 20
-6.85901985
 10
-40.5989654832
 20
-6.8577552506
 10
-40.6062380835
 20
-6.8561492933
 10
-40.6133373358
 20
-6.8542052276
 10
-40.6202721883
 20
-6.8519246836
 10
-40.6270511
 20
-6.8493076573
 10
-40.6336819659
 20
-6.846352508
 10
-40.6401720443
 20
-6.8430559712
 10
-40.6465278908
 20
-6.8394131838
 10
-40.6527552979
 20
-6.8354177218
 10
-40.6588592431
 20
-6.8310616495
 10
-40.6648438451
 20
-6.8263355785
 10
-40.6707123305
 20
-6.8212287337
 10
-40.6764670091
 20
-6.8157290267
 10
-40.682109259
 20
-6.8098231322
 10
-40.6876395207
 20
-6.8034965681
 10
-40.6930572994
 20
-6.7967337762
 10
-40.698361174
 20
-6.7895182023
 10
-40.7035488137
 20
-6.7818323767
 10
-40.7086169984
 20
-6.773657991
 10
-40.7135616443
 20
-6.764975974
 10
-40.7183778329
 20
-6.7557665643
 10
-40.7230598419
 20
-6.7460093808
 10
-40.7276011782
 20
-6.73568349
 10
-40.731994612
 20
-6.7247674714
 10
-40.7362322119
 20
-6.7132394807
 10
-40.7403053797
 20
-6.7010773112
 10
-40.7442048854
 20
-6.6882584538
 10
-40.7479209023
 20
-6.6747601558
 10
-40.7514430416
 20
-6.6605594791
 10
-40.7547603864
 20
-6.6456333582
 10
-40.7578615256
 20
-6.6299586576
 10
-40.7607345877
 20
-6.61351223
 10
-40.7633672739
 20
-6.5962709745
 10
-40.7657468908
 20
-6.5782118957
 10
-40.7678603842
 20
-6.5593121636
 10
-40.7696943714
 20
-6.539549174
 10
-40.7712351746
 20
-6.5189006113
 10
-40.7724688545
 20
-6.4973445104
 10
-40.7733812432
 20
-6.4748593217
 10
-40.7739579792
 20
-6.4514239764
 10
-40.7740252196
 20
-6.4470894906
  0
LINE
  5
4E5
100
AcDbEntity
  8
CURVE
100
AcDbLine
 62
250
  6
CONTINUOUS
 10
-36.0942636419
 20
-8.137104
 11
-36.8656628474
 21
-8.137104
  0
LINE
  5
4E6
100
AcDbEntity
  8
CURVE
100
AcDbLine
 62
250
  6
CONTINUOUS
 10
-36.8656628474
 20
-7.129104
 11
-36.0942636419
 21
-7.129104
  0
LWPOLYLINE
  5
4E7
100
AcDbEntity
  8
0
100
AcDbPolyline
 62
7
  6
CONTINUOUS
 90
3
 70
0
 43
0.3500000006
 10
-68.4838602905
 20
1.250000061
 10
-68.2695758057
 20
1.1785711441
 10
-67.9838601379
 20
1.0357133102
  0
LINE
  5
4E8
100
AcDbEntity
  8
CURVE
100
AcDbLine
 62
250
  6
CONTINUOUS
 10
-37.3799289486
 20
-10.8731041373
 11
-36.994229319
 21
-11.161104
  0
LINE
  5
4E9
100
AcDbEntity
  8
CURVE
100
AcDbLine
 62
250
  6
CONTINUOUS
 10
-35.5799974871
 20
-11.161104
 11
-36.8656628474
 21
-10.153104
  0
LINE
  5
4EA
100
AcDbEntity
  8
CURVE
100
AcDbLine
 62
250
  6
CONTINUOUS
 10
-35.8371305645
 20
-15.193104
 11
-35.5799974871
 21
-15.4811039828
  0
LINE
  5
4EB
100
AcDbEntity
  8
RACCORDO
100
AcDbLine
 62
7
  6
CONTINUOUS
 10
-45.7798718332
 20
-24.05
 11
-45.7798718332
 21
-23.2566322781
  0
LINE
  5
4EC
100
AcDbEntity
  8
0
100
AcDbLine
 62
7
  6
CONTINUOUS
 10
-45.7798718332
 20
-24.05
 11
-45.7798718332
 21
-24.35
  0
LINE
  5
4ED
100
AcDbEntity
  8
RACCORDO
100
AcDbLine
 62
7
  6
CONTINUOUS
 10
-45.7798718332
 20
23.2566322781
 11
-45.7798718332
 21
24.05
  0
LINE
  5
4EE
100
AcDbEntity
  8
0
100
AcDbLine
 62
7
  6
CONTINUOUS
 10
-45.7798718332
 20
24.05
 11
-45.7798718332
 21
24.35
  0
LINE
  5
4EF
100
AcDbEntity
  8
RACCORDO
100
AcDbLine
 62
7
  6
CONTINUOUS
 10
-45.3798718332
 20
-23.255236009
 11
-45.3798718332
 21
-24.05
  0
LINE
  5
4F0
100
AcDbEntity
  8
0
100
AcDbLine
 62
7
  6
CONTINUOUS
 10
-45.3798718332
 20
-24.05
 11
-45.3798718332
 21
-24.35
  0
LINE
  5
4F1
100
AcDbEntity
  8
RACCORDO
100
AcDbLine
 62
7
  6
CONTINUOUS
 10
-45.3798718332
 20
23.255236009
 11
-45.3798718332
 21
24.05
  0
LINE
  5
4F2
100
AcDbEntity
  8
0
100
AcDbLine
 62
7
  6
CONTINUOUS
 10
-45.3798718332
 20
24.05
 11
-45.3798718332
 21
24.35
  0
LINE
  5
4F3
100
AcDbEntity
  8
0
100
AcDbLine
 62
250
  6
CONTINUOUS
 10
-45.0798718332
 20
-24.65
 11
-45.0798718332
 21
-25.05
  0
LINE
  5
4F4
100
AcDbEntity
  8
0
100
AcDbLine
 62
250
  6
CONTINUOUS
 10
-45.0798718332
 20
24.65
 11
-45.0798718332
 21
25.05
  0
LINE
  5
4F5
100
AcDbEntity
  8
RACCORDO
100
AcDbLine
 62
7
  6
CONTINUOUS
 10
-44.8798718332
 20
18.0804321176
 11
-44.8798718332
 21
-18.0804321176
  0
LINE
  5
4F6
100
AcDbEntity
  8
0
100
AcDbLine
 62
250
  6
CONTINUOUS
 10
-44.5657088492
 20
-24.65
 11
-44.5657088492
 21
-25.05
  0
LINE
  5
4F7
100
AcDbEntity
  8
0
100
AcDbLine
 62
250
  6
CONTINUOUS
 10
-44.5657088492
 20
24.65
 11
-44.5657088492
 21
25.05
  0
LINE
  5
4F8
100
AcDbEntity
  8
DRAFT
100
AcDbLine
 62
7
  6
CONTINUOUS
 10
-43.8798718332
 20
21.6
 11
-43.8798718332
 21
-21.6
  0
LINE
  5
4F9
100
AcDbEntity
  8
ASSI
100
AcDbLine
 62
7
  6
CONTINUOUS
 10
-43.8798718332
 20
-20.9
 11
-43.8798718332
 21
20.9
  0
LWPOLYLINE
  5
4FA
100
AcDbEntity
  8
0
100
AcDbPolyline
 62
7
  6
CONTINUOUS
 90
3
 70
0
 43
0.3500000006
 10
-33.1512994308
 20
34.0857120667
 10
-33.2227283478
 20
33.8714275818
 10
-33.3655861816
 20
33.5857164459
  0
LINE
  5
4FB
100
AcDbEntity
  8
CURVE
100
AcDbLine
 62
250
  6
CONTINUOUS
 10
-30.6798223332
 20
16.696666894
 11
-30.49411513
 21
16.9009525108
  0
LINE
  5
4FC
100
AcDbEntity
  8
CURVE
100
AcDbLine
 62
7
  6
CONTINUOUS
 10
-39.63555268
 20
8.3541035386
 11
-38.8800407722
 21
9.1096154465
  0
LINE
  5
4FD
100
AcDbEntity
  8
CURVE
100
AcDbLine
 62
250
  6
CONTINUOUS
 10
-31.8798718332
 20
16.0571425915
 11
-32.0655790558
 21
15.8714283943
  0
LINE
  5
4FE
100
AcDbEntity
  8
CURVE
100
AcDbLine
 62
250
  6
CONTINUOUS
 10
-33.1798223332
 20
14.2928574085
 11
-32.99411513
 21
14.4785716057
  0
LINE
  5
4FF
100
AcDbEntity
  8
CURVE
100
AcDbLine
 62
250
  6
CONTINUOUS
 10
-33.1798223332
 20
13.2714287043
 11
-32.99411513
 21
13.4571429014
  0
LINE
  5
500
100
AcDbEntity
  8
CURVE
100
AcDbLine
 62
250
  6
CONTINUOUS
 10
-28.4799898685
 20
16.9102383757
 11
-28.2942826653
 21
17.086666863
  0
LINE
  5
501
100
AcDbEntity
  8
CURVE
100
AcDbLine
 62
250
  6
CONTINUOUS
 10
-30.6798223332
 20
10.5
 11
-29.9369934816
 21
10.9085714468
  0
LINE
  5
502
100
AcDbEntity
  8
CURVE
100
AcDbLine
 62
250
  6
CONTINUOUS
 10
-31.8798718332
 20
9.65
 11
-33.1798223332
 21
9.0
  0
LWPOLYLINE
  5
503
100
AcDbEntity
  8
0
100
AcDbPolyline
 62
250
  6
CONTINUOUS
 90
17
 70
0
 10
-29.3798728331
 20
-3.745932
 10
-29.2811408622
 20
-3.736250877
 10
-29.1861695614
 20
-3.7075762589
 10
-29.0985763581
 20
-3.6610003531
 10
-29.0204408083
 20
-3.5970447114
 10
-28.9574720893
 20
-3.5203824191
 10
-28.9105924833
 20
-3.4329489943
 10
-28.88158762
 20
-3.3380747488
 10
-28.8715591889
 20
-3.237599
 10
-28.8812399433
 20
-3.1388632695
 10
-28.9099134695
 20
-3.0438883524
 10
-28.9564876019
 20
-2.9562918136
 10
-29.0204408083
 20
-2.8781532886
 10
-29.0971001816
 20
-2.8151821718
 10
-29.1845302772
 20
-2.7683007807
 10
-29.2794009101
 20
-2.739294813
 10
-29.3798728776
 20
-2.729266
  0
LINE
  5
504
100
AcDbEntity
  8
ASSI
100
AcDbLine
 62
7
  6
CONTINUOUS
 10
-25.3798718332
 20
-5.945667
 11
-25.2798718332
 21
-5.945667
  0
LINE
  5
505
100
AcDbEntity
  8
0
100
AcDbLine
 62
7
  6
CONTINUOUS
 10
-25.3798718332
 20
-5.945667
 11
-25.2798718332
 21
-5.945667
  0
LINE
  5
506
100
AcDbEntity
  8
ASSI
100
AcDbLine
 62
250
  6
CONTINUOUS
 10
-25.3798718332
 20
-5.293424
 11
-25.2798718332
 21
-5.293424
  0
LINE
  5
507
100
AcDbEntity
  8
0
100
AcDbLine
 62
250
  6
CONTINUOUS
 10
-25.3798718332
 20
-5.293424
 11
-25.2798718332
 21
-5.293424
  0
LINE
  5
508
100
AcDbEntity
  8
ASSI
100
AcDbLine
 62
7
  6
CONTINUOUS
 10
-25.2798718332
 20
-4.8636845844
 11
-25.3798718332
 21
-4.8636845844
  0
LINE
  5
509
100
AcDbEntity
  8
0
100
AcDbLine
 62
7
  6
CONTINUOUS
 10
-25.2798718332
 20
-4.8636845844
 11
-25.3798718332
 21
-4.8636845844
  0
LINE
  5
50A
100
AcDbEntity
  8
ASSI
100
AcDbLine
 62
7
  6
CONTINUOUS
 10
-25.3798718332
 20
-4.744107
 11
-25.2798718332
 21
-4.744107
  0
LINE
  5
50B
100
AcDbEntity
  8
0
100
AcDbLine
 62
7
  6
CONTINUOUS
 10
-25.3798718332
 20
-4.744107
 11
-25.2798718332
 21
-4.744107
  0
LINE
  5
50C
100
AcDbEntity
  8
ASSI
100
AcDbLine
 62
7
  6
CONTINUOUS
 10
-25.3798718332
 20
-4.198797
 11
-25.2798718332
 21
-4.198797
  0
LINE
  5
50D
100
AcDbEntity
  8
0
100
AcDbLine
 62
7
  6
CONTINUOUS
 10
-25.3798718332
 20
-4.198797
 11
-25.2798718332
 21
-4.198797
  0
LINE
  5
50E
100
AcDbEntity
  8
ASSI
100
AcDbLine
 62
7
  6
CONTINUOUS
 10
-25.3798718332
 20
-3.976689
 11
-25.2798718332
 21
-3.976689
  0
LINE
  5
50F
100
AcDbEntity
  8
0
100
AcDbLine
 62
7
  6
CONTINUOUS
 10
-25.3798718332
 20
-3.976689
 11
-25.2798718332
 21
-3.976689
  0
LINE
  5
510
100
AcDbEntity
  8
CURVE
100
AcDbLine
 62
250
  6
CONTINUOUS
 10
-35.5799974871
 20
-5.977103588
 11
-37.3799289486
 21
-5.4011038627
  0
LINE
  5
511
100
AcDbEntity
  8
CURVE
100
AcDbLine
 62
250
  6
CONTINUOUS
 10
-36.8656628474
 20
-8.137104
 11
-37.122795898
 21
-7.993103588
  0
LINE
  5
512
100
AcDbEntity
  8
CURVE
100
AcDbLine
 62
250
  6
CONTINUOUS
 10
-36.0942636419
 20
-7.129104
 11
-35.8371305645
 21
-7.273104412
  0
LINE
  5
513
100
AcDbEntity
  8
CURVE
100
AcDbLine
 62
250
  6
CONTINUOUS
 10
-38.8798718332
 20
-13.5
 11
-40.7797271436
 21
-10.209103
  0
LINE
  5
514
100
AcDbEntity
  8
CURVE
100
AcDbLine
 62
250
  6
CONTINUOUS
 10
-41.8296471835
 20
-10.854552
 11
-41.8296471835
 21
-12.854552
  0
LWPOLYLINE
  5
515
100
AcDbEntity
  8
CURVE
100
AcDbPolyline
 62
250
  6
CONTINUOUS
 90
78
 70
0
 10
-41.9755607546
 20
5.500003
 10
-41.9775014114
 20
5.3949547349
 10
-41.9750976097
 20
5.2897930481
 10
-41.9683632747
 20
5.1847296759
 10
-41.9573123316
 20
5.0799763543
 10
-41.9419587057
 20
4.9757448197
 10
-41.9223163221
 20
4.8722468082
 10
-41.8984066211
 20
4.7696856524
 10
-41.8702811038
 20
4.6682310701
 10
-41.837998786
 20
4.5680443753
 10
-41.8016186839
 20
4.4692868821
 10
-41.7611998133
 20
4.3721199046
 10
-41.7168011904
 20
4.276704757
 10
-41.6684884074
 20
4.1832013316
 10
-41.6163533621
 20
4.0917638349
 10
-41.5604945283
 20
4.0025450516
 10
-41.5010103802
 20
3.9156977665
 10
-41.4379993916
 20
3.8313747643
 10
-41.3715600366
 20
3.7497288297
 10
-41.3017964543
 20
3.6709074612
 10
-41.2288354447
 20
3.5950370113
 10
-41.1528094729
 20
3.5222385462
 10
-41.0738510043
 20
3.4526331323
 10
-40.9920925038
 20
3.3863418357
 10
-40.9076664367
 20
3.3234857226
 10
-40.8207095613
 20
3.2641799601
 10
-40.7313758094
 20
3.2085161185
 10
-40.6398234056
 20
3.156579869
 10
-40.5462105748
 20
3.1084568826
 10
-40.4506955417
 20
3.0642328306
 10
-40.3534365313
 20
3.0239933841
 10
-40.2545944585
 20
2.9878172784
 10
-40.1543409988
 20
2.9557555058
 10
-40.0528505178
 20
2.9278521227
 10
-39.9502973812
 20
2.9041511856
 10
-39.8468559547
 20
2.8846967509
 10
-39.742700604
 20
2.8695328751
 10
-39.6380066091
 20
2.858696272
 10
-39.5329529075
 20
2.8521942843
 10
-39.4277193513
 20
2.8500269121
 10
-39.3224857925
 20
2.8521941557
 10
-39.217432083
 20
2.858696015
 10
-39.1127380748
 20
2.8695324903
 10
-39.0085827055
 20
2.8846962388
 10
-38.9051412553
 20
2.9041505471
 10
-38.8025880898
 20
2.9278513589
 10
-38.7010975747
 20
2.955754618
 10
-38.6008440758
 20
2.9878162681
 10
-38.5020019587
 20
3.023992253
 10
-38.4047428992
 20
3.0642315807
 10
-38.3092278121
 20
3.108455516
 10
-38.2156149225
 20
3.156578388
 10
-38.1240624553
 20
3.2085145257
 10
-38.0347286353
 20
3.2641782581
 10
-37.9477716876
 20
3.3234839144
 10
-37.8633455437
 20
3.3863399243
 10
-37.7815869622
 20
3.452631121
 10
-37.7026284085
 20
3.5222364385
 10
-37.6266023478
 20
3.5950348107
 10
-37.5536412456
 20
3.6709051714
 10
-37.483877567
 20
3.7497264547
 10
-37.4174381122
 20
3.8313723081
 10
-37.3544270206
 20
3.9156952334
 10
-37.2949427664
 20
4.0025424458
 10
-37.2390838236
 20
4.0917611609
 10
-37.1869486666
 20
4.1831985939
 10
-37.1386357694
 20
4.2767019602
 10
-37.0942370299
 20
4.3721170536
 10
-37.0538180407
 20
4.4692839817
 10
-37.0174378178
 20
4.5680414304
 10
-36.9851553777
 20
4.6682280858
 10
-36.9570297364
 20
4.7696826338
 10
-36.9331199102
 20
4.8722437603
 10
-36.9134774001
 20
4.9757417478
 10
-36.8981236468
 20
5.0799732637
 10
-36.8870725758
 20
5.1847265717
 10
-36.8803381124
 20
5.2897899358
 10
-36.8779341823
 20
5.3949516196
  0
LWPOLYLINE
  5
516
100
AcDbEntity
  8
CURVE
100
AcDbPolyline
 62
250
  6
CONTINUOUS
 90
78
 70
0
 10
-41.9755607546
 20
1.11489
 10
-41.9775012879
 20
1.0098417757
 10
-41.975097366
 20
0.9046801349
 10
-41.9683629143
 20
0.7996168135
 10
-41.9573118581
 20
0.6948635475
 10
-41.941958123
 20
0.5906320728
 10
-41.9223156343
 20
0.4871341254
 10
-41.8984058327
 20
0.3845730376
 10
-41.8702802191
 20
0.2831185268
 10
-41.8379978097
 20
0.182931907
 10
-41.8016176206
 20
0.084174492
 10
-41.7611986678
 20
-0.0129924044
 10
-41.7167999675
 20
-0.1084074683
 10
-41.6684871121
 20
-0.2019108076
 10
-41.6163519993
 20
-0.293348216
 10
-41.5604931032
 20
-0.3825669091
 10
-41.5010088977
 20
-0.4694141025
 10
-41.4379978568
 20
-0.5537370117
 10
-41.3715584547
 20
-0.6353828521
 10
-41.3017948304
 20
-0.7142041257
 10
-41.2288337839
 20
-0.79007448
 10
-41.1528077804
 20
-0.8628728493
 10
-41.0738492849
 20
-0.9324781673
 10
-40.9920907626
 20
-0.9987693683
 10
-40.9076646785
 20
-1.0616253862
 10
-40.8207077912
 20
-1.1209310542
 10
-40.7313740319
 20
-1.1765948022
 10
-40.6398216254
 20
-1.2285309593
 10
-40.5462087965
 20
-1.2766538546
 10
-40.4506937697
 20
-1.3208778172
 10
-40.3534347699
 20
-1.361117176
 10
-40.2545927118
 20
-1.3972931961
 10
-40.1543392708
 20
-1.4293548853
 10
-40.0528488124
 20
-1.4572581873
 10
-39.9502957021
 20
-1.4809590459
 10
-39.8468543054
 20
-1.5004134047
 10
-39.7426989878
 20
-1.5155772075
 10
-39.6380050291
 20
-1.5264137407
 10
-39.5329513668
 20
-1.5329156617
 10
-39.4277178526
 20
-1.5350829702
 10
-39.3224843383
 20
-1.5329156665
 10
-39.2174306756
 20
-1.5264137505
 10
-39.1127367165
 20
-1.5155772221
 10
-39.0085813981
 20
-1.5004134241
 10
-38.9051400005
 20
-1.48095907
 10
-38.8025868891
 20
-1.4572582162
 10
-38.7010964295
 20
-1.4293549188
 10
-38.600842987
 20
-1.3972932343
 10
-38.5020009273
 20
-1.3611172188
 10
-38.4047419256
 20
-1.3208778644
 10
-38.3092268968
 20
-1.2766539062
 10
-38.2156140656
 20
-1.2285310152
 10
-38.1240616567
 20
-1.1765948623
 10
-38.0347278949
 20
-1.1209311184
 10
-37.9477710048
 20
-1.0616254544
 10
-37.8633449179
 20
-0.9987694405
 10
-37.7815863925
 20
-0.9324782433
 10
-37.7026278938
 20
-0.8628729288
 10
-37.6266018869
 20
-0.7900745631
 10
-37.5536408369
 20
-0.7142042121
 10
-37.483877209
 20
-0.6353829418
 10
-37.4174378031
 20
-0.5537371044
 10
-37.3544267583
 20
-0.4694141982
 10
-37.2949425488
 20
-0.3825670076
 10
-37.2390836486
 20
-0.293348317
 10
-37.1869485316
 20
-0.201910911
 10
-37.1386356719
 20
-0.108407574
 10
-37.0942369672
 20
-0.0129925121
 10
-37.0538180099
 20
0.0841743825
 10
-37.0174378162
 20
0.1829317958
 10
-36.9851554021
 20
0.2831184141
 10
-36.9570297839
 20
0.3845729236
 10
-36.9331199776
 20
0.4871340103
 10
-36.9134774841
 20
0.5906319568
 10
-36.8981237442
 20
0.6948634307
 10
-36.8870726832
 20
0.7996166963
 10
-36.8803382266
 20
0.9046800173
 10
-36.8779342998
 20
1.0098416581
  0
LINE
  5
517
100
AcDbEntity
  8
CURVE
100
AcDbLine
 62
250
  6
CONTINUOUS
 10
-29.3798718332
 20
16.3902381277
 11
-29.5655790558
 21
16.1859525108
  0
LINE
  5
518
100
AcDbEntity
  8
CURVE
100
AcDbLine
 62
250
  6
CONTINUOUS
 10
-30.6798223332
 20
13.36
 11
-30.49411513
 21
13.5642856169
  0
LINE
  5
519
100
AcDbEntity
  8
CURVE
100
AcDbLine
 62
250
  6
CONTINUOUS
 10
-29.5655790558
 20
14.1430953193
 11
-29.3798718332
 21
14.3473809361
  0
LINE
  5
51A
100
AcDbEntity
  8
CURVE
100
AcDbLine
 62
250
  6
CONTINUOUS
 10
-33.0869686928
 20
10.6714285493
 11
-33.1798223332
 21
10.5785714507
  0
LINE
  5
51B
100
AcDbEntity
  8
CURVE
100
AcDbLine
 62
250
  6
CONTINUOUS
 10
-27.1800393685
 20
16.6455953503
 11
-27.3657465911
 21
16.469166863
  0
LINE
  5
51C
100
AcDbEntity
  8
CURVE
100
AcDbLine
 62
250
  6
CONTINUOUS
 10
-28.4799898685
 20
13.8227380812
 11
-28.2942826653
 21
13.9991665685
  0
LINE
  5
51D
100
AcDbEntity
  8
CURVE
100
AcDbLine
 62
250
  6
CONTINUOUS
 10
-27.7371610169
 20
10.7646428598
 11
-27.1800393685
 21
11.1175
  0
LWPOLYLINE
  5
51E
100
AcDbEntity
  8
0
100
AcDbPolyline
 62
250
  6
CONTINUOUS
 90
17
 70
0
 10
-29.3798728331
 20
-2.729266
 10
-29.4786048041
 20
-2.738947123
 10
-29.5735761049
 20
-2.7676217411
 10
-29.6611693082
 20
-2.8141976469
 10
-29.739304858
 20
-2.8781532886
 10
-29.802273577
 20
-2.9548155809
 10
-29.849153183
 20
-3.0422490057
 10
-29.8781580463
 20
-3.1371232512
 10
-29.8881864774
 20
-3.237599
 10
-29.878505723
 20
-3.3363347305
 10
-29.8498321968
 20
-3.4313096476
 10
-29.8032580644
 20
-3.5189061864
 10
-29.739304858
 20
-3.5970447114
 10
-29.6626454847
 20
-3.6600158282
 10
-29.5752153891
 20
-3.7068972193
 10
-29.4803447561
 20
-3.735903187
 10
-29.3798727887
 20
-3.745932
  0
LINE
  5
51F
100
AcDbEntity
  8
ASSI
100
AcDbLine
 62
7
  6
CONTINUOUS
 10
-25.3798718332
 20
-3.451644
 11
-25.2798718332
 21
-3.451644
  0
LINE
  5
520
100
AcDbEntity
  8
0
100
AcDbLine
 62
7
  6
CONTINUOUS
 10
-25.3798718332
 20
-3.451644
 11
-25.2798718332
 21
-3.451644
  0
LINE
  5
521
100
AcDbEntity
  8
ASSI
100
AcDbLine
 62
7
  6
CONTINUOUS
 10
-25.3798718332
 20
-3.397147
 11
-25.2798718332
 21
-3.397147
  0
LINE
  5
522
100
AcDbEntity
  8
0
100
AcDbLine
 62
7
  6
CONTINUOUS
 10
-25.3798718332
 20
-3.397147
 11
-25.2798718332
 21
-3.397147
  0
LINE
  5
523
100
AcDbEntity
  8
0
100
AcDbLine
 62
250
  6
CONTINUOUS
 10
-26.3299879678
 20
-3.237598426
 11
-27.3466162875
 21
-3.237598426
  0
LINE
  5
524
100
AcDbEntity
  8
0
100
AcDbLine
 62
250
  6
CONTINUOUS
 10
-31.4131284718
 20
-3.237598426
 11
-32.429755697
 21
-3.237598426
  0
LINE
  5
525
100
AcDbEntity
  8
ASSI
100
AcDbLine
 62
7
  6
CONTINUOUS
 10
-25.3798718332
 20
-2.219859
 11
-25.2798718332
 21
-2.219859
  0
LINE
  5
526
100
AcDbEntity
  8
0
100
AcDbLine
 62
7
  6
CONTINUOUS
 10
-25.3798718332
 20
-2.219859
 11
-25.2798718332
 21
-2.219859
  0
LINE
  5
527
100
AcDbEntity
  8
ASSI
100
AcDbLine
 62
7
  6
CONTINUOUS
 10
-25.3798718332
 20
-2.01584
 11
-25.2798718332
 21
-2.01584
  0
LINE
  5
528
100
AcDbEntity
  8
0
100
AcDbLine
 62
7
  6
CONTINUOUS
 10
-25.3798718332
 20
-2.01584
 11
-25.2798718332
 21
-2.01584
  0
LWPOLYLINE
  5
529
100
AcDbEntity
  8
ASSI
100
AcDbPolyline
 62
7
  6
CONTINUOUS
 90
3
 70
0
 10
-25.7682632384
 20
-14.8862293301
 10
-25.8385091193
 20
-14.8324521237
 10
-25.8755085654
 20
-14.8043367793
  0
LWPOLYLINE
  5
52A
100
AcDbEntity
  8
RACCORDO
100
AcDbPolyline
 62
7
  6
CONTINUOUS
 90
3
 70
0
 10
-25.7682632384
 20
-14.8862293301
 10
-25.8385091193
 20
-14.8324521237
 10
-25.8755085654
 20
-14.8043367793
  0
LINE
  5
52B
100
AcDbEntity
  8
CURVE
100
AcDbLine
 62
250
  6
CONTINUOUS
 10
-37.122795898
 20
-7.993103588
 11
-37.3799289486
 21
-7.7051037253
  0
LINE
  5
52C
100
AcDbEntity
  8
CURVE
100
AcDbLine
 62
250
  6
CONTINUOUS
 10
-35.5799974871
 20
-9.001103588
 11
-35.8371305645
 21
-8.7131037253
  0
LINE
  5
52D
100
AcDbEntity
  8
CURVE
100
AcDbLine
 62
250
  6
CONTINUOUS
 10
-35.8371305645
 20
-7.273104412
 11
-35.5799974871
 21
-7.5611042747
  0
LINE
  5
52E
100
AcDbEntity
  8
CURVE
100
AcDbLine
 62
250
  6
CONTINUOUS
 10
-32.6798718332
 20
-15.5
 11
-33.3686133799
 21
-14.612652
  0
LWPOLYLINE
  5
52F
100
AcDbEntity
  8
CURVE
100
AcDbPolyline
 62
250
  6
CONTINUOUS
 90
42
 70
0
 10
-41.1234842111
 20
10.7886338005
 10
-41.1222932953
 20
10.7582038559
 10
-41.1208643634
 20
10.7277801414
 10
-41.1190855191
 20
10.6973650492
 10
-41.1168448656
 20
10.6669609717
 10
-41.1151298792
 20
10.6476497581
 10
-41.1131536388
 20
10.628356092
 10
-41.1108865434
 20
10.6090921075
 10
-41.1082989918
 20
10.5898699386
 10
-41.1053613827
 20
10.5707017192
 10
-41.1020441151
 20
10.5515995836
 10
-41.0983175878
 20
10.5325756656
 10
-41.0941521995
 20
10.5136420993
 10
-41.0895183491
 20
10.4948110187
 10
-41.0843864356
 20
10.4760945579
 10
-41.0787268576
 20
10.4575048509
 10
-41.0735254393
 20
10.4419414733
 10
-41.0679222189
 20
10.4264984056
 10
-41.0619115187
 20
10.4111972314
 10
-41.055487661
 20
10.3960595341
 10
-41.0486449679
 20
10.3811068973
 10
-41.0413777617
 20
10.3663609044
 10
-41.0336803646
 20
10.351843139
 10
-41.0255470989
 20
10.3375751846
 10
-41.0169722868
 20
10.3235786246
 10
-41.0079502506
 20
10.3098750427
 10
-40.9984753125
 20
10.2964860222
 10
-40.9885417947
 20
10.2834331467
 10
-40.9781440194
 20
10.2707379998
 10
-40.9672744855
 20
10.258412703
 10
-40.9559575464
 20
10.246475369
 10
-40.9442162927
 20
10.2349341959
 10
-40.9320738148
 20
10.223797382
 10
-40.9195532033
 20
10.2130731257
 10
-40.9066775486
 20
10.2027696252
 10
-40.8934699413
 20
10.1928950788
 10
-40.8799534719
 20
10.1834576847
 10
-40.8661512308
 20
10.1744656414
 10
-40.8520863086
 20
10.1659271469
 10
-40.8377817958
 20
10.1578503998
 10
-40.8232607828
 20
10.1502435981
 10
-40.8085463602
 20
10.1431149402
  0
LINE
  5
530
100
AcDbEntity
  8
CURVE
100
AcDbLine
 62
250
  6
CONTINUOUS
 10
-41.1267478287
 20
10.8799370912
 11
-41.1234842111
 21
10.7886338005
  0
LWPOLYLINE
  5
531
100
AcDbEntity
  8
CURVE
100
AcDbPolyline
 62
250
  6
CONTINUOUS
 90
11
 70
0
 10
-41.2271201682
 20
0.9757811813
 10
-41.2273735578
 20
0.9897098595
 10
-41.2275192562
 20
1.0036372154
 10
-41.2275572048
 20
1.0175622618
 10
-41.2274873451
 20
1.0314840116
 10
-41.2273096184
 20
1.0454014776
 10
-41.2270239662
 20
1.0593136727
 10
-41.2266303299
 20
1.0732196096
 10
-41.2261286511
 20
1.0871183012
 10
-41.225518871
 20
1.1010087604
 10
-41.2248009311
 20
1.11489
  0
LINE
  5
532
100
AcDbEntity
  8
CURVE
100
AcDbLine
 62
250
  6
CONTINUOUS
 10
-41.1267479524
 20
10.879937
 11
-41.1267479524
 21
11.638833
  0
LINE
  5
533
100
AcDbEntity
  8
CURVE
100
AcDbLine
 62
250
  6
CONTINUOUS
 10
-41.1267479524
 20
13.50525
 11
-41.1267479524
 21
14.684009
  0
LINE
  5
534
100
AcDbEntity
  8
CURVE
100
AcDbLine
 62
250
  6
CONTINUOUS
 10
-41.1267479524
 20
16.254095
 11
-41.1267479524
 21
17.638999
  0
LINE
  5
535
100
AcDbEntity
  8
CURVE
100
AcDbLine
 62
250
  6
CONTINUOUS
 10
-39.8026892366
 20
3.6395
 11
-39.8026892366
 21
5.1
  0
LWPOLYLINE
  5
536
100
AcDbEntity
  8
CURVE
100
AcDbPolyline
 62
250
  6
CONTINUOUS
 90
49
 70
0
 10
-40.7740252196
 20
-6.4470894906
 10
-40.7737667815
 20
-6.4114602913
 10
-40.7720142784
 20
-6.3780045388
 10
-40.7688553209
 20
-6.346604147
 10
-40.7643696636
 20
-6.317144445
 10
-40.7586285896
 20
-6.2895145722
 10
-40.7516942906
 20
-6.2636079278
 10
-40.7436192568
 20
-6.2393226883
 10
-40.7344457004
 20
-6.2165623942
 10
-40.724205037
 20
-6.1952366089
 10
-40.7129174574
 20
-6.1752616378
 10
-40.7005916176
 20
-6.1565612915
 10
-40.6872244764
 20
-6.1390676658
 10
-40.6728012979
 20
-6.1227219032
 10
-40.6572958298
 20
-6.1074748975
 10
-40.6406706492
 20
-6.093287903
 10
-40.622877661
 20
-6.0801330132
 10
-40.6038587142
 20
-6.0679934858
 10
-40.583546301
 20
-6.0568639016
 10
-40.5618642955
 20
-6.0467501601
 10
-40.5387286941
 20
-6.0376693234
 10
-40.514048323
 20
-6.0296493332
 10
-40.4877254892
 20
-6.022728629
 10
-40.4596565576
 20
-6.0169556952
 10
-40.4297324481
 20
-6.0123885687
 10
-40.3978390496
 20
-6.0090943292
 10
-40.3638575579
 20
-6.007148593
 10
-40.3276647417
 20
-6.0066350265
 10
-40.2891331489
 20
-6.0076448879
 10
-40.2481312599
 20
-6.0102766045
 10
-40.2045235989
 20
-6.014635389
 10
-40.1581708114
 20
-6.0208328944
 10
-40.1089297139
 20
-6.0289869075
 10
-40.0566533235
 20
-6.0392210784
 10
-40.0011908715
 20
-6.0516646831
 10
-39.9423878058
 20
-6.0664524167
 10
-39.8800857845
 20
-6.0837242129
 10
-39.8141226637
 20
-6.1036250884
 10
-39.7443324821
 20
-6.1263050073
 10
-39.6705454421
 20
-6.1519187648
 10
-39.5925878904
 20
-6.1806258865
 10
-39.5102822975
 20
-6.212590541
 10
-39.4234472377
 20
-6.2479814659
 10
-39.3318973689
 20
-6.2869719023
 10
-39.2354434135
 20
-6.3297395402
 10
-39.1338921403
 20
-6.3764664695
 10
-39.0270463467
 20
-6.4273391396
 10
-38.9147048424
 20
-6.4825483229
 10
-38.8798718332
 20
-6.5
  0
LWPOLYLINE
  5
537
100
AcDbEntity
  8
CURVE
100
AcDbPolyline
 62
250
  6
CONTINUOUS
 90
48
 70
0
 10
-38.4165027915
 20
16.4919058972
 10
-38.4188624524
 20
16.4799267301
 10
-38.4215952239
 20
16.4680027445
 10
-38.4246959515
 20
16.4561462205
 10
-38.4281594811
 20
16.444369438
 10
-38.4319806583
 20
16.4326846773
 10
-38.4361543289
 20
16.4211042184
 10
-38.4406753385
 20
16.4096403414
 10
-38.4455385329
 20
16.3983053265
 10
-38.4507387577
 20
16.3871114537
 10
-38.4562708587
 20
16.3760710031
 10
-38.4621296816
 20
16.3651962549
 10
-38.4683100721
 20
16.3544994891
 10
-38.4748068759
 20
16.3439929859
 10
-38.4816149387
 20
16.3336890253
 10
-38.4887291062
 20
16.3235998874
 10
-38.4961442241
 20
16.3137378524
 10
-38.5043789629
 20
16.303481335
 10
-38.5129402332
 20
16.2935050812
 10
-38.5218180164
 20
16.2838169901
 10
-38.5310022939
 20
16.2744249607
 10
-38.540483047
 20
16.2653368921
 10
-38.550250257
 20
16.2565606833
 10
-38.5602939053
 20
16.2481042334
 10
-38.5706039731
 20
16.2399754414
 10
-38.5811704418
 20
16.2321822064
 10
-38.5919832928
 20
16.2247324273
 10
-38.6030325073
 20
16.2176340033
 10
-38.6143080668
 20
16.2108948334
 10
-38.6257999524
 20
16.2045228166
 10
-38.6374981456
 20
16.198525852
 10
-38.6493926277
 20
16.1929118386
 10
-38.6607122508
 20
16.188002796
 10
-38.6721824449
 20
16.1834394201
 10
-38.6837900669
 20
16.1792238573
 10
-38.6955219739
 20
16.1753582535
 10
-38.7073650227
 20
16.1718447549
 10
-38.7193060704
 20
16.1686855076
 10
-38.7313319739
 20
16.1658826577
 10
-38.7434295902
 20
16.1634383513
 10
-38.7555857762
 20
16.1613547346
 10
-38.7677873888
 20
16.1596339535
 10
-38.7800212851
 20
16.1582781544
 10
-38.792274322
 20
16.1572894831
 10
-38.8045333564
 20
16.156670086
 10
-38.8167852454
 20
16.156422109
 10
-38.8290168457
 20
16.1565476983
 10
-38.8412150146
 20
16.157049
  0
LINE
  5
538
100
AcDbEntity
  8
CURVE
100
AcDbLine
 62
250
  6
CONTINUOUS
 10
-32.8084079267
 20
10.0214285493
 11
-32.2512862784
 21
10.6714285493
  0
LINE
  5
539
100
AcDbEntity
  8
CURVE
100
AcDbLine
 62
250
  6
CONTINUOUS
 10
-30.6798223332
 20
12.2364285958
 11
-30.49411513
 21
12.4407142127
  0
LINE
  5
53A
100
AcDbEntity
  8
CURVE
100
AcDbLine
 62
250
  6
CONTINUOUS
 10
-29.3798718332
 20
11.93
 11
-29.5655790558
 21
11.7257142979
  0
LINE
  5
53B
100
AcDbEntity
  8
CURVE
100
AcDbLine
 62
7
  6
CONTINUOUS
 10
-41.907176357
 20
0.4325145741
 11
-41.2248009311
 21
1.11489
  0
LINE
  5
53C
100
AcDbEntity
  8
CURVE
100
AcDbLine
 62
7
  6
CONTINUOUS
 10
-39.4860516525
 20
2.8536392786
 11
-38.449552061
 21
3.8901388701
  0
LINE
  5
53D
100
AcDbEntity
  8
CURVE
100
AcDbLine
 62
7
  6
CONTINUOUS
 10
-37.9207273178
 20
4.4189636133
 11
-36.8808110022
 21
5.4588799289
  0
LINE
  5
53E
100
AcDbEntity
  8
CURVE
100
AcDbLine
 62
250
  6
CONTINUOUS
 10
-31.8798718332
 20
10.1142857254
 11
-31.9727254445
 21
10.0214285493
  0
LINE
  5
53F
100
AcDbEntity
  8
CURVE
100
AcDbLine
 62
250
  6
CONTINUOUS
 10
-28.4799898685
 20
12.7053571218
 11
-28.2942826653
 21
12.8817857563
  0
LINE
  5
540
100
AcDbEntity
  8
CURVE
100
AcDbLine
 62
250
  6
CONTINUOUS
 10
-27.1800393685
 20
13.5580953503
 11
-27.3657465911
 21
13.3816665685
  0
LINE
  5
541
100
AcDbEntity
  8
CURVE
100
AcDbLine
 62
250
  6
CONTINUOUS
 10
-28.4799898685
 20
10.9410714391
 11
-28.2942826653
 21
11.1175
  0
LWPOLYLINE
  5
542
100
AcDbEntity
  8
0
100
AcDbPolyline
 62
7
  6
CONTINUOUS
 90
13
 70
0
 43
0.3500000006
 10
-69.055291626
 20
-1.8214286385
 10
-70.341003067
 20
-1.8214286385
 10
-70.7695765686
 20
-1.6071430206
 10
-71.1981455383
 20
-1.178571785
 10
-71.1981455383
 20
-0.9642850342
 10
-70.7695765686
 20
-0.5357137985
 10
-70.341003067
 20
-0.3214293137
 10
-69.055291626
 20
-0.3214293137
 10
-68.6267181244
 20
-0.5357137985
 10
-68.1981491547
 20
-0.9642850342
 10
-68.1981491547
 20
-1.178571785
 10
-68.6267181244
 20
-1.6071430206
 10
-69.055291626
 20
-1.8214286385
  0
LINE
  5
543
100
AcDbEntity
  8
ASSI
100
AcDbLine
 62
7
  6
CONTINUOUS
 10
-25.3798718332
 20
-1.805868
 11
-25.2798718332
 21
-1.805868
  0
LINE
  5
544
100
AcDbEntity
  8
0
100
AcDbLine
 62
7
  6
CONTINUOUS
 10
-25.3798718332
 20
-1.805868
 11
-25.2798718332
 21
-1.805868
  0
LINE
  5
545
100
AcDbEntity
  8
0
100
AcDbLine
 62
250
  6
CONTINUOUS
 10
-36.3829538074
 20
-1.498558
 11
-31.3832945725
 21
-1.498558
  0
LINE
  5
546
100
AcDbEntity
  8
0
100
AcDbLine
 62
250
  6
CONTINUOUS
 10
-31.9389462551
 20
-0.943209
 11
-33.6053843421
 21
-0.943209
  0
LINE
  5
547
100
AcDbEntity
  8
0
100
AcDbLine
 62
250
  6
CONTINUOUS
 10
-34.1610360247
 20
-0.943209
 11
-35.8274741117
 21
-0.943209
  0
LINE
  5
548
100
AcDbEntity
  8
ASSI
100
AcDbLine
 62
7
  6
CONTINUOUS
 10
-25.3798718332
 20
-0.89511
 11
-25.2798718332
 21
-0.89511
  0
LINE
  5
549
100
AcDbEntity
  8
0
100
AcDbLine
 62
7
  6
CONTINUOUS
 10
-25.3798718332
 20
-0.89511
 11
-25.2798718332
 21
-0.89511
  0
LINE
  5
54A
100
AcDbEntity
  8
0
100
AcDbLine
 62
250
  6
CONTINUOUS
 10
-31.3832945725
 20
-0.387515
 11
-31.9389462551
 21
-0.387515
  0
LINE
  5
54B
100
AcDbEntity
  8
0
100
AcDbLine
 62
250
  6
CONTINUOUS
 10
-33.6053843421
 20
-0.387515
 11
-34.1610360247
 21
-0.387515
  0
LINE
  5
54C
100
AcDbEntity
  8
0
100
AcDbLine
 62
250
  6
CONTINUOUS
 10
-35.8274741117
 20
-0.387515
 11
-36.3829538074
 21
-0.387515
  0
LINE
  5
54D
100
AcDbEntity
  8
ASSI
100
AcDbLine
 62
250
  6
CONTINUOUS
 10
-25.3798718332
 20
-0.242868
 11
-25.2798718332
 21
-0.242868
  0
LINE
  5
54E
100
AcDbEntity
  8
0
100
AcDbLine
 62
250
  6
CONTINUOUS
 10
-25.3798718332
 20
-0.242868
 11
-25.2798718332
 21
-0.242868
  0
LINE
  5
54F
100
AcDbEntity
  8
0
100
AcDbLine
 62
250
  6
CONTINUOUS
 10
-31.3832945725
 20
0.167834
 11
-36.3829538074
 21
0.167834
  0
LINE
  5
550
100
AcDbEntity
  8
ASSI
100
AcDbLine
 62
7
  6
CONTINUOUS
 10
-25.2798718332
 20
0.1868720678
 11
-25.3798718332
 21
0.1868720678
  0
LINE
  5
551
100
AcDbEntity
  8
0
100
AcDbLine
 62
7
  6
CONTINUOUS
 10
-25.2798718332
 20
0.1868720678
 11
-25.3798718332
 21
0.1868720678
  0
LINE
  5
552
100
AcDbEntity
  8
0
100
AcDbLine
 62
250
  6
CONTINUOUS
 10
-27.5998132227
 20
-5.7144995977
 11
-26.3299879678
 21
-6.2875984252
  0
LINE
  5
553
100
AcDbEntity
  8
0
100
AcDbLine
 62
250
  6
CONTINUOUS
 10
-30.007132853
 20
-4.6280252765
 11
-28.781288741
 21
-5.1812747013
  0
LINE
  5
554
100
AcDbEntity
  8
0
100
AcDbLine
 62
250
  6
CONTINUOUS
 10
-24.969514263
 20
-14.375622
 11
-29.9796014869
 21
-9.43899
  0
LWPOLYLINE
  5
555
100
AcDbEntity
  8
CURVE
100
AcDbPolyline
 62
250
  6
CONTINUOUS
 90
49
 70
0
 10
-38.4444111303
 20
10.9250149142
 10
-38.4434855025
 20
10.9132610236
 10
-38.442951854
 20
10.9014560507
 10
-38.4428080826
 20
10.8896148821
 10
-38.4430520862
 20
10.8777524043
 10
-38.4436817628
 20
10.865883504
 10
-38.4446950102
 20
10.8540230677
 10
-38.4460897264
 20
10.8421859821
 10
-38.4478638092
 20
10.8303871336
 10
-38.4500151566
 20
10.818641409
 10
-38.4525416663
 20
10.8069636948
 10
-38.4554412365
 20
10.7953688776
 10
-38.4587117648
 20
10.7838718439
 10
-38.4623511493
 20
10.7724874804
 10
-38.4663572878
 20
10.7612306736
 10
-38.4707280782
 20
10.7501163102
 10
-38.4754614185
 20
10.7391592767
 10
-38.4805542918
 20
10.7283735192
 10
-38.4860000227
 20
10.7177692213
 10
-38.491791021
 20
10.7073556263
 10
-38.4979196966
 20
10.6971419773
 10
-38.5043784594
 20
10.6871375174
 10
-38.5111597191
 20
10.6773514899
 10
-38.5182558857
 20
10.667793138
 10
-38.525659369
 20
10.6584717047
 10
-38.5333625788
 20
10.6493964332
 10
-38.5413579251
 20
10.6405765668
 10
-38.5496378176
 20
10.6320213485
 10
-38.5581946662
 20
10.6237400216
 10
-38.5670208808
 20
10.6157418292
 10
-38.5761088713
 20
10.6080360144
 10
-38.5854510474
 20
10.6006318206
 10
-38.595039819
 20
10.5935384907
 10
-38.6048664956
 20
10.5867645536
 10
-38.614917985
 20
10.5803156805
 10
-38.6251800947
 20
10.5741968282
 10
-38.635638632
 20
10.5684129536
 10
-38.6462794044
 20
10.5629690135
 10
-38.6570882193
 20
10.5578699647
 10
-38.6680508841
 20
10.553120764
 10
-38.6791532063
 20
10.5487263683
 10
-38.6903809933
 20
10.5446917343
 10
-38.7017200524
 20
10.541021819
 10
-38.7131561912
 20
10.5377215791
 10
-38.7246752171
 20
10.5347959714
 10
-38.7362629374
 20
10.5322499529
 10
-38.7479051596
 20
10.5300884802
 10
-38.7595876911
 20
10.5283165103
 10
-38.7712963394
 20
10.526939
  0
LWPOLYLINE
  5
556
100
AcDbEntity
  8
CURVE
100
AcDbPolyline
 62
250
  6
CONTINUOUS
 90
83
 70
0
 10
-37.6306346503
 20
1.1148898891
 10
-37.6281259673
 20
1.0454013666
 10
-37.6283154218
 20
0.9757810702
 10
-37.6311956929
 20
0.9061523953
 10
-37.6367594599
 20
0.8366387371
 10
-37.6449994018
 20
0.767363491
 10
-37.6559081977
 20
0.6984500522
 10
-37.6694785269
 20
0.6300218162
 10
-37.685698234
 20
0.5621971761
 10
-37.7045358264
 20
0.4950745172
 10
-37.7259549769
 20
0.4287472227
 10
-37.7499193584
 20
0.3633086759
 10
-37.7763926438
 20
0.29885226
 10
-37.8053385059
 20
0.2354713581
 10
-37.8367206177
 20
0.1732593535
 10
-37.870498538
 20
0.1123084914
 10
-37.9066153696
 20
0.0527064652
 10
-37.9450101013
 20
-0.00546017
 10
-37.9856217217
 20
-0.0621048589
 10
-38.0283892198
 20
-0.1171410462
 10
-38.0732515841
 20
-0.1704821766
 10
-38.1201478035
 20
-0.2220416949
 10
-38.1690134208
 20
-0.2717365772
 10
-38.2197701948
 20
-0.3194979258
 10
-38.2723364383
 20
-0.3652603744
 10
-38.3266304641
 20
-0.4089585566
 10
-38.3825705852
 20
-0.4505271062
 10
-38.4400751142
 20
-0.4899006568
 10
-38.4990623641
 20
-0.5270138422
 10
-38.5594482159
 20
-0.5618052635
 10
-38.6211388232
 20
-0.5942293923
 10
-38.6840379082
 20
-0.6242446675
 10
-38.7480491926
 20
-0.6518095282
 10
-38.8130763984
 20
-0.6768824134
 10
-38.8790232475
 20
-0.699421762
 10
-38.9457934619
 20
-0.7193860132
 10
-39.0132894983
 20
-0.7367381773
 10
-39.0814087522
 20
-0.7514595506
 10
-39.1500473542
 20
-0.7635360008
 10
-39.2191014344
 20
-0.7729533956
 10
-39.2884671235
 20
-0.7796976027
 10
-39.3580405516
 20
-0.7837544898
 10
-39.4277178493
 20
-0.7851099246
 10
-39.4973951469
 20
-0.7837544855
 10
-39.5669685749
 20
-0.7796975941
 10
-39.6363342635
 20
-0.7729533827
 10
-39.7053883432
 20
-0.7635359836
 10
-39.7740269443
 20
-0.7514595292
 10
-39.8421461974
 20
-0.7367381517
 10
-39.9096422326
 20
-0.7193859834
 10
-39.9764124458
 20
-0.6994217281
 10
-40.0423592936
 20
-0.6768823754
 10
-40.1073864978
 20
-0.6518094862
 10
-40.1713977805
 20
-0.6242446216
 10
-40.2342968636
 20
-0.5942293425
 10
-40.295987469
 20
-0.5618052099
 10
-40.3563733186
 20
-0.5270137848
 10
-40.4153605662
 20
-0.4899005958
 10
-40.4728650928
 20
-0.4505270417
 10
-40.5288052113
 20
-0.4089584886
 10
-40.5830992344
 20
-0.365260303
 10
-40.6356654751
 20
-0.3194978512
 10
-40.6864222461
 20
-0.2717364995
 10
-40.7352878603
 20
-0.2220416141
 10
-40.7821840766
 20
-0.170482093
 10
-40.8270464377
 20
-0.1171409598
 10
-40.8698139323
 20
-0.0621047699
 10
-40.9104255492
 20
-0.0054600785
 10
-40.9488202773
 20
0.0527065591
 10
-40.9849371052
 20
0.1123085876
 10
-41.0187150218
 20
0.1732594517
 10
-41.0500971297
 20
0.2354714582
 10
-41.079042988
 20
0.2988523619
 10
-41.1055162694
 20
0.3633087795
 10
-41.1294806468
 20
0.4287473278
 10
-41.1508997932
 20
0.4950746236
 10
-41.1697373815
 20
0.5621972836
 10
-41.1859570844
 20
0.6300219247
 10
-41.1995274094
 20
0.6984501616
 10
-41.2104362011
 20
0.767363601
 10
-41.2186761387
 20
0.8366388476
 10
-41.2242399013
 20
0.9061525062
 10
-41.2271201682
 20
0.9757811813
  0
LINE
  5
557
100
AcDbEntity
  8
CURVE
100
AcDbLine
 62
250
  6
CONTINUOUS
 10
-39.0527463509
 20
5.1
 11
-39.0527463509
 21
3.6395
  0
LINE
  5
558
100
AcDbEntity
  8
CURVE
100
AcDbLine
 62
250
  6
CONTINUOUS
 10
-38.8798718332
 20
-16.5
 11
-38.8798718332
 21
-13.5
  0
LINE
  5
559
100
AcDbEntity
  8
CURVE
100
AcDbLine
 62
250
  6
CONTINUOUS
 10
-38.8798718332
 20
-10.5
 11
-38.8798718332
 21
-7.5
  0
LINE
  5
55A
100
AcDbEntity
  8
CURVE
100
AcDbLine
 62
250
  6
CONTINUOUS
 10
-38.8798718332
 20
-6.5
 11
-38.8798718332
 21
-5.8166345064
  0
LINE
  5
55B
100
AcDbEntity
  8
CURVE
100
AcDbLine
 62
250
  6
CONTINUOUS
 10
-38.1280693265
 20
17.40242
 11
-38.1280693265
 21
15.6535
  0
LINE
  5
55C
100
AcDbEntity
  8
CURVE
100
AcDbLine
 62
250
  6
CONTINUOUS
 10
-38.1280693265
 20
14.295365
 11
-38.1280693265
 21
12.804577
  0
LINE
  5
55D
100
AcDbEntity
  8
CURVE
100
AcDbLine
 62
250
  6
CONTINUOUS
 10
-38.1280693265
 20
7.957255
 11
-38.1280693265
 21
8.914354
  0
LINE
  5
55E
100
AcDbEntity
  8
CURVE
100
AcDbLine
 62
250
  6
CONTINUOUS
 10
-38.1280693265
 20
10.027098
 11
-38.1280693265
 21
11.779396
  0
LINE
  5
55F
100
AcDbEntity
  8
RACCORDO
100
AcDbLine
 62
7
  6
CONTINUOUS
 10
-37.7798718332
 20
-23.2287068966
 11
-37.7798718332
 21
-23.25
  0
LINE
  5
560
100
AcDbEntity
  8
DRAFT
100
AcDbLine
 62
7
  6
CONTINUOUS
 10
-37.7798718332
 20
-23.2287068966
 11
-37.7798718332
 21
-23.25
  0
LINE
  5
561
100
AcDbEntity
  8
DRAFT
100
AcDbLine
 62
7
  6
CONTINUOUS
 10
-37.7798718332
 20
23.2287068966
 11
-37.7798718332
 21
23.25
  0
LINE
  5
562
100
AcDbEntity
  8
RACCORDO
100
AcDbLine
 62
7
  6
CONTINUOUS
 10
-37.7798718332
 20
23.2287068966
 11
-37.7798718332
 21
23.25
  0
LINE
  5
563
100
AcDbEntity
  8
CURVE
100
AcDbLine
 62
250
  6
CONTINUOUS
 10
-31.7299192533
 20
6.675364
 11
-32.0298244131
 21
6.324636
  0
LINE
  5
564
100
AcDbEntity
  8
ASSI
100
AcDbLine
 62
7
  6
CONTINUOUS
 10
-25.3798718332
 20
0.45185
 11
-25.2798718332
 21
0.45185
  0
LINE
  5
565
100
AcDbEntity
  8
0
100
AcDbLine
 62
7
  6
CONTINUOUS
 10
-25.3798718332
 20
0.45185
 11
-25.2798718332
 21
0.45185
  0
LINE
  5
566
100
AcDbEntity
  8
0
100
AcDbLine
 62
250
  6
CONTINUOUS
 10
-33.6053843421
 20
0.723528
 11
-31.3832945725
 21
0.723528
  0
LINE
  5
567
100
AcDbEntity
  8
0
100
AcDbLine
 62
250
  6
CONTINUOUS
 10
-34.1610360247
 20
0.723528
 11
-35.8274741117
 21
0.723528
  0
LINE
  5
568
100
AcDbEntity
  8
CURVE
100
AcDbLine
 62
250
  6
CONTINUOUS
 10
-41.9755637544
 20
1.11489
 11
-41.2248009311
 21
1.11489
  0
LINE
  5
569
100
AcDbEntity
  8
CURVE
100
AcDbLine
 62
250
  6
CONTINUOUS
 10
-37.6306346564
 20
1.11489
 11
-36.8798718332
 21
1.11489
  0
LINE
  5
56A
100
AcDbEntity
  8
0
100
AcDbLine
 62
250
  6
CONTINUOUS
 10
-35.8274741117
 20
1.279222
 11
-34.1610360247
 21
1.279222
  0
LINE
  5
56B
100
AcDbEntity
  8
0
100
AcDbLine
 62
250
  6
CONTINUOUS
 10
-31.3832945725
 20
1.279222
 11
-33.6053843421
 21
1.279222
  0
LINE
  5
56C
100
AcDbEntity
  8
ASSI
100
AcDbLine
 62
7
  6
CONTINUOUS
 10
-25.3798718332
 20
1.508123
 11
-25.2798718332
 21
1.508123
  0
LINE
  5
56D
100
AcDbEntity
  8
0
100
AcDbLine
 62
7
  6
CONTINUOUS
 10
-25.3798718332
 20
1.508123
 11
-25.2798718332
 21
1.508123
  0
LINE
  5
56E
100
AcDbEntity
  8
ASSI
100
AcDbLine
 62
7
  6
CONTINUOUS
 10
-25.3798718332
 20
1.522206
 11
-25.2798718332
 21
1.522206
  0
LINE
  5
56F
100
AcDbEntity
  8
0
100
AcDbLine
 62
7
  6
CONTINUOUS
 10
-25.3798718332
 20
1.522206
 11
-25.2798718332
 21
1.522206
  0
LINE
  5
570
100
AcDbEntity
  8
ASSI
100
AcDbLine
 62
7
  6
CONTINUOUS
 10
-25.3798718332
 20
1.77866
 11
-25.2798718332
 21
1.77866
  0
LINE
  5
571
100
AcDbEntity
  8
0
100
AcDbLine
 62
7
  6
CONTINUOUS
 10
-25.3798718332
 20
1.77866
 11
-25.2798718332
 21
1.77866
  0
LINE
  5
572
100
AcDbEntity
  8
0
100
AcDbLine
 62
250
  6
CONTINUOUS
 10
-36.3829538074
 20
1.834571
 11
-31.3832945725
 21
1.834571
  0
LINE
  5
573
100
AcDbEntity
  8
ASSI
100
AcDbLine
 62
7
  6
CONTINUOUS
 10
-25.3798718332
 20
2.010958
 11
-25.2798718332
 21
2.010958
  0
LINE
  5
574
100
AcDbEntity
  8
0
100
AcDbLine
 62
7
  6
CONTINUOUS
 10
-25.3798718332
 20
2.010958
 11
-25.2798718332
 21
2.010958
  0
LINE
  5
575
100
AcDbEntity
  8
0
100
AcDbLine
 62
250
  6
CONTINUOUS
 10
-36.3829538074
 20
2.390265
 11
-31.3832945725
 21
2.390265
  0
LINE
  5
576
100
AcDbEntity
  8
0
100
AcDbLine
 62
250
  6
CONTINUOUS
 10
-26.3299879678
 20
-5.2709324885
 11
-26.8907858464
 21
-5.0005449871
  0
LINE
  5
577
100
AcDbEntity
  8
0
100
AcDbLine
 62
250
  6
CONTINUOUS
 10
-27.8264117671
 20
-4.5494354331
 11
-28.304439639
 21
-4.3189546988
  0
LINE
  5
578
100
AcDbEntity
  8
CURVE
100
AcDbLine
 62
250
  6
CONTINUOUS
 10
-42.1706524505
 20
9.033945
 11
-42.625750791
 21
10.082249
  0
LINE
  5
579
100
AcDbEntity
  8
CURVE
100
AcDbLine
 62
250
  6
CONTINUOUS
 10
-41.2758405978
 20
8.798384
 11
-41.7325078188
 21
9.850305
  0
LINE
  5
57A
100
AcDbEntity
  8
CURVE
100
AcDbLine
 62
250
  6
CONTINUOUS
 10
-36.1371191504
 20
-4.8251041373
 11
-36.2656856757
 21
-4.4891044578
  0
LINE
  5
57B
100
AcDbEntity
  8
CURVE
100
AcDbLine
 62
250
  6
CONTINUOUS
 10
-36.0085525982
 20
-4.105104
 11
-36.1371191504
 21
-3.7211035422
  0
LWPOLYLINE
  5
57C
100
AcDbEntity
  8
CURVE
100
AcDbPolyline
 62
250
  6
CONTINUOUS
 90
40
 70
0
 10
-41.1169768276
 20
13.4513700902
 10
-41.113587898
 20
13.4334076892
 10
-41.1100924548
 20
13.4154605444
 10
-41.1064661687
 20
13.3975384935
 10
-41.1026847102
 20
13.3796513743
 10
-41.0987237501
 20
13.3618090244
 10
-41.0945589589
 20
13.3440212818
 10
-41.0901660073
 20
13.326297984
 10
-41.0855205659
 20
13.3086489689
 10
-41.0805983052
 20
13.2910840742
 10
-41.0753748961
 20
13.2736131376
 10
-41.069826009
 20
13.2562459968
 10
-41.0639273146
 20
13.2389924897
 10
-41.0576544835
 20
13.2218624539
 10
-41.0509831863
 20
13.2048657272
 10
-41.0460076191
 20
13.1929257492
 10
-41.0408084147
 20
13.1810727308
 10
-41.0353736629
 20
13.1693219467
 10
-41.0296914537
 20
13.1576886714
 10
-41.0237498767
 20
13.1461881798
 10
-41.0175370218
 20
13.1348357463
 10
-41.0110409787
 20
13.1236466459
 10
-41.0042498373
 20
13.112636153
 10
-40.9971516874
 20
13.1018195423
 10
-40.9897346187
 20
13.0912120887
 10
-40.9819867211
 20
13.0808290666
 10
-40.9738960843
 20
13.0706857509
 10
-40.9661518762
 20
13.0615895898
 10
-40.9581175791
 20
13.052724182
 10
-40.9498025949
 20
13.0441049567
 10
-40.9412163258
 20
13.035747343
 10
-40.932368174
 20
13.02766677
 10
-40.9232675416
 20
13.0198786669
 10
-40.9139238307
 20
13.0123984628
 10
-40.9043464433
 20
13.005241587
 10
-40.8945447817
 20
12.9984234685
 10
-40.884528248
 20
12.9919595365
 10
-40.8743062442
 20
12.9858652201
 10
-40.8638881726
 20
12.9801559486
 10
-40.8532834352
 20
12.9748471509
  0
LWPOLYLINE
  5
57D
100
AcDbEntity
  8
CURVE
100
AcDbPolyline
 62
250
  6
CONTINUOUS
 90
3
 70
0
 10
-41.1267478287
 20
13.505250453
 10
-41.1235324636
 20
13.4873013099
 10
-41.1169768276
 20
13.4513700902
  0
LWPOLYLINE
  5
57E
100
AcDbEntity
  8
CURVE
100
AcDbPolyline
 62
250
  6
CONTINUOUS
 90
46
 70
0
 10
-37.6306378585
 20
5.5000027662
 10
-37.6283943995
 20
5.4435440968
 10
-37.6279353958
 20
5.3869799463
 10
-37.6292565047
 20
5.3303765884
 10
-37.6323533839
 20
5.2738002971
 10
-37.6372216905
 20
5.2173173459
 10
-37.6438570822
 20
5.1609940088
 10
-37.6522552162
 20
5.1048965594
 10
-37.66241175
 20
5.0490912715
 10
-37.674322341
 20
4.9936444189
 10
-37.6879799884
 20
4.9386195253
 10
-37.7033670587
 20
4.884069114
 10
-37.7204632604
 20
4.830042958
 10
-37.7392483017
 20
4.7765908306
 10
-37.759701891
 20
4.7237625049
 10
-37.7818037366
 20
4.671607754
 10
-37.8055335468
 20
4.6201763511
 10
-37.8308710301
 20
4.5695180694
 10
-37.8577958948
 20
4.5196826821
 10
-37.8862854176
 20
4.4707192722
 10
-37.9163071493
 20
4.4226741634
 10
-37.947826209
 20
4.3755929893
 10
-37.980807716
 20
4.3295213833
 10
-38.0152167894
 20
4.2845049792
 10
-38.0510185484
 20
4.2405894104
 10
-38.0881781121
 20
4.1978203106
 10
-38.1266605999
 20
4.1562433132
 10
-38.1664311307
 20
4.115904052
 10
-38.2074535202
 20
4.076845995
 10
-38.2496863695
 20
4.039103948
 10
-38.2930869759
 20
4.0027105514
 10
-38.337612637
 20
3.9676984456
 10
-38.3832206501
 20
3.9341002711
 10
-38.4298683127
 20
3.9019486681
 10
-38.4775129222
 20
3.871276277
 10
-38.526111776
 20
3.8421157383
 10
-38.5756221717
 20
3.8144996923
 10
-38.6259980556
 20
3.7884589356
 10
-38.6771799705
 20
3.7640168897
 10
-38.7291051082
 20
3.7411951323
 10
-38.7817106604
 20
3.7200152412
 10
-38.8349338189
 20
3.7004987941
 10
-38.8887117754
 20
3.6826673687
 10
-38.9429817218
 20
3.6665425427
 10
-38.9976808497
 20
3.6521458939
 10
-39.0527463509
 20
3.639499
  0
LWPOLYLINE
  5
57F
100
AcDbEntity
  8
CURVE
100
AcDbPolyline
 62
250
  6
CONTINUOUS
 90
9
 70
0
 10
-36.8779342998
 20
1.0098416581
 10
-36.8779389929
 20
1.0229832308
 10
-36.8780115953
 20
1.0361226179
 10
-36.8781521342
 20
1.0492594057
 10
-36.8783606368
 20
1.0623931808
 10
-36.8786371304
 20
1.0755235295
 10
-36.878981642
 20
1.0886500384
 10
-36.8793941989
 20
1.1017722939
 10
-36.8798748283
 20
1.1148898824
  0
LWPOLYLINE
  5
580
100
AcDbEntity
  8
CURVE
100
AcDbPolyline
 62
250
  6
CONTINUOUS
 90
9
 70
0
 10
-36.8779341823
 20
5.3949516196
 10
-36.8779388752
 20
5.4080931977
 10
-36.8780114774
 20
5.4212325902
 10
-36.8781520163
 20
5.4343693834
 10
-36.8783605189
 20
5.4475031639
 10
-36.8786370124
 20
5.460633518
 10
-36.8789815241
 20
5.4737600323
 10
-36.8793940812
 20
5.4868822932
 10
-36.8798747108
 20
5.4999998871
  0
LINE
  5
581
100
AcDbEntity
  8
CURVE
100
AcDbLine
 62
250
  6
CONTINUOUS
 10
-37.3799289486
 20
-10.4411038627
 11
-37.3799289486
 21
-10.8731041373
  0
LINE
  5
582
100
AcDbEntity
  8
CURVE
100
AcDbLine
 62
250
  6
CONTINUOUS
 10
-37.3799289486
 20
-15.6251040343
 11
-37.3799289486
 21
-15.4811039828
  0
LINE
  5
583
100
AcDbEntity
  8
CURVE
100
AcDbLine
 62
250
  6
CONTINUOUS
 10
-37.3799289486
 20
-9.577103794
 11
-37.3799289486
 21
-8.7131037253
  0
LINE
  5
584
100
AcDbEntity
  8
CURVE
100
AcDbLine
 62
250
  6
CONTINUOUS
 10
-37.3799289486
 20
-7.7051037253
 11
-37.3799289486
 21
-7.5611042747
  0
LINE
  5
585
100
AcDbEntity
  8
CURVE
100
AcDbLine
 62
250
  6
CONTINUOUS
 10
-36.8781169226
 20
11.6428571939
 11
-36.8781169226
 21
12.6428570747
  0
LINE
  5
586
100
AcDbEntity
  8
CURVE
100
AcDbLine
 62
250
  6
CONTINUOUS
 10
-36.8781169226
 20
13.6428570747
 11
-36.8781169226
 21
13.7857143879
  0
LINE
  5
587
100
AcDbEntity
  8
CURVE
100
AcDbLine
 62
250
  6
CONTINUOUS
 10
-36.8781169226
 20
16.3571429253
 11
-36.8781169226
 21
16.5
  0
LINE
  5
588
100
AcDbEntity
  8
CURVE
100
AcDbLine
 62
250
  6
CONTINUOUS
 10
-36.6085297968
 20
-9.001103588
 11
-36.6085297968
 21
-9.577103794
  0
LINE
  5
589
100
AcDbEntity
  8
0
100
AcDbLine
 62
250
  6
CONTINUOUS
 10
-36.3829538074
 20
3.501309
 11
-36.3829538074
 21
2.390265
  0
LINE
  5
58A
100
AcDbEntity
  8
0
100
AcDbLine
 62
250
  6
CONTINUOUS
 10
-36.3829538074
 20
-0.387515
 11
-36.3829538074
 21
-1.498558
  0
LINE
  5
58B
100
AcDbEntity
  8
0
100
AcDbLine
 62
250
  6
CONTINUOUS
 10
-36.3829538074
 20
0.167834
 11
-36.3829538074
 21
1.834571
  0
LINE
  5
58C
100
AcDbEntity
  8
CURVE
100
AcDbLine
 62
250
  6
CONTINUOUS
 10
-36.0942636419
 20
-14.2811041144
 11
-36.0942636419
 21
-13.5131039199
  0
LINE
  5
58D
100
AcDbEntity
  8
0
100
AcDbLine
 62
250
  6
CONTINUOUS
 10
-35.8274741117
 20
-0.943209
 11
-35.8274741117
 21
-0.387515
  0
LINE
  5
58E
100
AcDbEntity
  8
0
100
AcDbLine
 62
250
  6
CONTINUOUS
 10
-35.8274741117
 20
0.723528
 11
-35.8274741117
 21
1.279222
  0
LINE
  5
58F
100
AcDbEntity
  8
0
100
AcDbLine
 62
250
  6
CONTINUOUS
 10
-35.8274741117
 20
2.945615
 11
-35.8274741117
 21
3.501309
  0
LINE
  5
590
100
AcDbEntity
  8
CURVE
100
AcDbLine
 62
250
  6
CONTINUOUS
 10
-35.5799974871
 20
-7.5611042747
 11
-35.5799974871
 21
-7.7051037253
  0
LINE
  5
591
100
AcDbEntity
  8
CURVE
100
AcDbLine
 62
250
  6
CONTINUOUS
 10
-35.5799974871
 20
-10.153104
 11
-35.5799974871
 21
-11.161104
  0
LINE
  5
592
100
AcDbEntity
  8
CURVE
100
AcDbLine
 62
250
  6
CONTINUOUS
 10
-35.5799974871
 20
-15.4811039828
 11
-35.5799974871
 21
-15.6251040343
  0
LINE
  5
593
100
AcDbEntity
  8
CURVE
100
AcDbLine
 62
250
  6
CONTINUOUS
 10
-35.5799974871
 20
-9.577103794
 11
-35.5799974871
 21
-9.001103588
  0
LINE
  5
594
100
AcDbEntity
  8
RACCORDO
100
AcDbLine
 62
250
  6
CONTINUOUS
 10
-35.3781265075
 20
21.5877074627
 11
-35.3781265075
 21
20.9296768102
  0
LINE
  5
595
100
AcDbEntity
  8
RACCORDO
100
AcDbLine
 62
250
  6
CONTINUOUS
 10
-35.3781265075
 20
-20.9296768102
 11
-35.3781265075
 21
-21.5877074627
  0
LINE
  5
596
100
AcDbEntity
  8
CURVE
100
AcDbLine
 62
250
  6
CONTINUOUS
 10
-31.8798718332
 20
8.523669
 11
-33.0797814502
 21
6.5
  0
LWPOLYLINE
  5
597
100
AcDbEntity
  8
CURVE
100
AcDbPolyline
 62
250
  6
CONTINUOUS
 90
81
 70
0
 10
-34.8798718332
 20
4.5514696167
 10
-34.8235951988
 20
4.5529899663
 10
-34.7673231086
 20
4.557481947
 10
-34.7111825787
 20
4.5648419573
 10
-34.6553006253
 20
4.5749663954
 10
-34.5998042648
 20
4.5877516595
 10
-34.5448205132
 20
4.603094148
 10
-34.4904763867
 20
4.620890259
 10
-34.4368989017
 20
4.6410363909
 10
-34.3842150744
 20
4.6634289418
 10
-34.3325519208
 20
4.6879643102
 10
-34.2820364574
 20
4.7145388942
 10
-34.2327957002
 20
4.7430490922
 10
-34.1844611526
 20
4.7737143723
 10
-34.1375611545
 20
4.8061923297
 10
-34.0921001443
 20
4.8404265264
 10
-34.0480825606
 20
4.8763605245
 10
-34.0055128417
 20
4.9139378862
 10
-33.9643954263
 20
4.9531021735
 10
-33.9172356458
 20
5.001823427
 10
-33.8721543403
 20
5.0525554431
 10
-33.8291555899
 20
5.1051295761
 10
-33.7882434745
 20
5.1593771798
 10
-33.7494220745
 20
5.2151296083
 10
-33.7125859937
 20
5.2723942256
 10
-33.6778143021
 20
5.3309013763
 10
-33.6450646299
 20
5.3905497839
 10
-33.6142946071
 20
5.4512381718
 10
-33.5854618638
 20
5.5128652634
 10
-33.5521936216
 20
5.5908340038
 10
-33.5218671784
 20
5.6699928436
 10
-33.4944819361
 20
5.7502315333
 10
-33.4700372961
 20
5.8314398236
 10
-33.4486183001
 20
5.9131464567
 10
-33.4300998293
 20
5.9955984453
 10
-33.4144681189
 20
6.0786893102
 10
-33.4017094041
 20
6.162312572
 10
-33.3918099201
 20
6.2463617512
 10
-33.3847559022
 20
6.3307303685
 10
-33.3805335856
 20
6.4153119446
 10
-33.3791292056
 20
6.5
 10
-33.3805335856
 20
6.5846880554
 10
-33.3847559022
 20
6.6692696315
 10
-33.3918099201
 20
6.7536382488
 10
-33.4017094041
 20
6.837687428
 10
-33.4144681189
 20
6.9213106898
 10
-33.4300998293
 20
7.0044015547
 10
-33.4486183001
 20
7.0868535433
 10
-33.4700372961
 20
7.1685601764
 10
-33.4944819361
 20
7.2497684667
 10
-33.5218671784
 20
7.3300071564
 10
-33.5521936216
 20
7.4091659962
 10
-33.5854618638
 20
7.4871347366
 10
-33.6142946071
 20
7.5487618282
 10
-33.6450646299
 20
7.6094502161
 10
-33.6778143021
 20
7.6690986237
 10
-33.7125859937
 20
7.7276057744
 10
-33.7494220745
 20
7.7848703917
 10
-33.7882434745
 20
7.8406228202
 10
-33.8291555899
 20
7.8948704239
 10
-33.8721543403
 20
7.9474445569
 10
-33.9172356458
 20
7.998176573
 10
-33.9643954263
 20
8.0468978265
 10
-34.0055128417
 20
8.0860621138
 10
-34.0480825606
 20
8.1236394755
 10
-34.0921001443
 20
8.1595734736
 10
-34.1375611545
 20
8.1938076703
 10
-34.1844611526
 20
8.2262856277
 10
-34.2327957002
 20
8.2569509078
 10
-34.2820364574
 20
8.2854611058
 10
-34.3325519208
 20
8.3120356898
 10
-34.3842150744
 20
8.3365710582
 10
-34.4368989017
 20
8.3589636091
 10
-34.4904763867
 20
8.379109741
 10
-34.5448205132
 20
8.396905852
 10
-34.5998042648
 20
8.4122483405
 10
-34.6553006253
 20
8.4250336046
 10
-34.7111825787
 20
8.4351580427
 10
-34.7673231086
 20
8.442518053
 10
-34.8235951988
 20
8.4470100337
 10
-34.8798718332
 20
8.4485303833
  0
LINE
  5
598
100
AcDbEntity
  8
ASSI
100
AcDbLine
 62
7
  6
CONTINUOUS
 10
-25.3798718332
 20
2.739908
 11
-25.2798718332
 21
2.739908
  0
LINE
  5
599
100
AcDbEntity
  8
0
100
AcDbLine
 62
7
  6
CONTINUOUS
 10
-25.3798718332
 20
2.739908
 11
-25.2798718332
 21
2.739908
  0
LINE
  5
59A
100
AcDbEntity
  8
ASSI
100
AcDbLine
 62
7
  6
CONTINUOUS
 10
-25.3798718332
 20
2.92973
 11
-25.2798718332
 21
2.92973
  0
LINE
  5
59B
100
AcDbEntity
  8
0
100
AcDbLine
 62
7
  6
CONTINUOUS
 10
-25.3798718332
 20
2.92973
 11
-25.2798718332
 21
2.92973
  0
LINE
  5
59C
100
AcDbEntity
  8
0
100
AcDbLine
 62
250
  6
CONTINUOUS
 10
-31.9389462551
 20
2.945615
 11
-35.8274741117
 21
2.945615
  0
LINE
  5
59D
100
AcDbEntity
  8
ASSI
100
AcDbLine
 62
7
  6
CONTINUOUS
 10
-25.3798718332
 20
3.24675
 11
-25.2798718332
 21
3.24675
  0
LINE
  5
59E
100
AcDbEntity
  8
0
100
AcDbLine
 62
7
  6
CONTINUOUS
 10
-25.3798718332
 20
3.24675
 11
-25.2798718332
 21
3.24675
  0
LINE
  5
59F
100
AcDbEntity
  8
ASSI
100
AcDbLine
 62
7
  6
CONTINUOUS
 10
-25.3798718332
 20
3.293174
 11
-25.2798718332
 21
3.293174
  0
LINE
  5
5A0
100
AcDbEntity
  8
0
100
AcDbLine
 62
7
  6
CONTINUOUS
 10
-25.3798718332
 20
3.293174
 11
-25.2798718332
 21
3.293174
  0
LINE
  5
5A1
100
AcDbEntity
  8
0
100
AcDbLine
 62
250
  6
CONTINUOUS
 10
-31.3832945725
 20
3.501309
 11
-31.9389462551
 21
3.501309
  0
LINE
  5
5A2
100
AcDbEntity
  8
0
100
AcDbLine
 62
250
  6
CONTINUOUS
 10
-35.8274741117
 20
3.501309
 11
-36.3829538074
 21
3.501309
  0
LINE
  5
5A3
100
AcDbEntity
  8
ASSI
100
AcDbLine
 62
7
  6
CONTINUOUS
 10
-25.3798718332
 20
3.573896
 11
-25.2798718332
 21
3.573896
  0
LINE
  5
5A4
100
AcDbEntity
  8
0
100
AcDbLine
 62
7
  6
CONTINUOUS
 10
-25.3798718332
 20
3.573896
 11
-25.2798718332
 21
3.573896
  0
LINE
  5
5A5
100
AcDbEntity
  8
ASSI
100
AcDbLine
 62
7
  6
CONTINUOUS
 10
-25.3798718332
 20
3.989904
 11
-25.2798718332
 21
3.989904
  0
LINE
  5
5A6
100
AcDbEntity
  8
0
100
AcDbLine
 62
7
  6
CONTINUOUS
 10
-25.3798718332
 20
3.989904
 11
-25.2798718332
 21
3.989904
  0
LINE
  5
5A7
100
AcDbEntity
  8
ASSI
100
AcDbLine
 62
7
  6
CONTINUOUS
 10
-25.3798718332
 20
4.403918
 11
-25.2798718332
 21
4.403918
  0
LINE
  5
5A8
100
AcDbEntity
  8
0
100
AcDbLine
 62
7
  6
CONTINUOUS
 10
-25.3798718332
 20
4.403918
 11
-25.2798718332
 21
4.403918
  0
LWPOLYLINE
  5
5A9
100
AcDbEntity
  8
CURVE
100
AcDbPolyline
 62
250
  6
CONTINUOUS
 90
46
 70
0
 10
-39.8026889141
 20
3.6394958193
 10
-39.8577544734
 20
3.6521426943
 10
-39.9124536602
 20
3.6665393247
 10
-39.9667236664
 20
3.6826641327
 10
-40.0205016837
 20
3.7004955408
 10
-40.0737249039
 20
3.7200119711
 10
-40.1263305188
 20
3.7411918462
 10
-40.1782557202
 20
3.7640135882
 10
-40.2294376999
 20
3.7884556195
 10
-40.2798136497
 20
3.8144963625
 10
-40.3293241123
 20
3.8421123957
 10
-40.3779230342
 20
3.8712729225
 10
-40.4255677128
 20
3.9019453026
 10
-40.4722154456
 20
3.9340968957
 10
-40.51782353
 20
3.9676950616
 10
-40.5623492634
 20
4.0027071598
 10
-40.6057499433
 20
4.03910055
 10
-40.6479828671
 20
4.076842592
 10
-40.6890053322
 20
4.1159006454
 10
-40.7287759397
 20
4.1562399043
 10
-40.7672585051
 20
4.1978169009
 10
-40.8044181477
 20
4.2405860014
 10
-40.8402199864
 20
4.2845015726
 10
-40.8746291405
 20
4.3295179808
 10
-40.9076107291
 20
4.3755895925
 10
-40.9391298714
 20
4.4226707742
 10
-40.9691516865
 20
4.4707158925
 10
-40.9976412935
 20
4.5196793137
 10
-41.0245662433
 20
4.5695147145
 10
-41.0499038124
 20
4.6201730116
 10
-41.0736337092
 20
4.671604432
 10
-41.0957356421
 20
4.7237592027
 10
-41.1161893192
 20
4.7765875504
 10
-41.1349744489
 20
4.8300397021
 10
-41.1520707395
 20
4.8840658846
 10
-41.1674578992
 20
4.938616325
 10
-41.1811156364
 20
4.9936412501
 10
-41.1930263176
 20
5.0490881367
 10
-41.2031829418
 20
5.1048934611
 10
-41.2115811663
 20
5.1609909497
 10
-41.2182166486
 20
5.2173143288
 10
-41.2230850458
 20
5.2737973245
 10
-41.2261820154
 20
5.3303736632
 10
-41.2275032146
 20
5.3869770712
 10
-41.2270443007
 20
5.4435412747
 10
-41.2248009311
 20
5.5
  0
LINE
  5
5AA
100
AcDbEntity
  8
CURVE
100
AcDbLine
 62
250
  6
CONTINUOUS
 10
-42.625750791
 20
12.947292
 11
-42.1820445829
 21
11.925227
  0
LINE
  5
5AB
100
AcDbEntity
  8
CURVE
100
AcDbLine
 62
250
  6
CONTINUOUS
 10
-41.1267479524
 20
9.693009
 11
-40.662903278
 21
8.624556
  0
LINE
  5
5AC
100
AcDbEntity
  8
DRAFT
100
AcDbLine
 62
7
  6
CONTINUOUS
 10
-34.8798718332
 20
20.9314160541
 11
-34.8798718332
 21
19.3563751041
  0
LINE
  5
5AD
100
AcDbEntity
  8
DRAFT
100
AcDbLine
 62
7
  6
CONTINUOUS
 10
-34.8798718332
 20
-19.3563751041
 11
-34.8798718332
 21
-20.7429044156
  0
LINE
  5
5AE
100
AcDbEntity
  8
RACCORDO
100
AcDbLine
 62
7
  6
CONTINUOUS
 10
-34.8798718332
 20
-20.7429044156
 11
-34.8798718332
 21
-22.4711973811
  0
LINE
  5
5AF
100
AcDbEntity
  8
ASSI
100
AcDbLine
 62
7
  6
CONTINUOUS
 10
-34.8798718332
 20
-20.7429044156
 11
-34.8798718332
 21
-18.4714772284
  0
LINE
  5
5B0
100
AcDbEntity
  8
RACCORDO
100
AcDbLine
 62
7
  6
CONTINUOUS
 10
-34.8798718332
 20
-19.3563751041
 11
-34.8798718332
 21
-18.4714772284
  0
LINE
  5
5B1
100
AcDbEntity
  8
ASSI
100
AcDbLine
 62
7
  6
CONTINUOUS
 10
-34.8798718332
 20
18.4714772284
 11
-34.8798718332
 21
20.7429044156
  0
LINE
  5
5B2
100
AcDbEntity
  8
RACCORDO
100
AcDbLine
 62
7
  6
CONTINUOUS
 10
-34.8798718332
 20
18.4714772284
 11
-34.8798718332
 21
19.3563751041
  0
LINE
  5
5B3
100
AcDbEntity
  8
RACCORDO
100
AcDbLine
 62
7
  6
CONTINUOUS
 10
-34.8798718332
 20
20.9314160541
 11
-34.8798718332
 21
22.4711973811
  0
LINE
  5
5B4
100
AcDbEntity
  8
CURVE
100
AcDbLine
 62
250
  6
CONTINUOUS
 10
-34.8781930765
 20
16.5
 11
-34.8781930765
 21
16.3571429253
  0
LINE
  5
5B5
100
AcDbEntity
  8
CURVE
100
AcDbLine
 62
250
  6
CONTINUOUS
 10
-34.8781930765
 20
13.7857143879
 11
-34.8781930765
 21
13.6428570747
  0
LINE
  5
5B6
100
AcDbEntity
  8
0
100
AcDbLine
 62
250
  6
CONTINUOUS
 10
-34.1610360247
 20
1.279222
 11
-34.1610360247
 21
0.723528
  0
LINE
  5
5B7
100
AcDbEntity
  8
0
100
AcDbLine
 62
250
  6
CONTINUOUS
 10
-34.1610360247
 20
-0.387515
 11
-34.1610360247
 21
-0.943209
  0
LINE
  5
5B8
100
AcDbEntity
  8
CURVE
100
AcDbLine
 62
250
  6
CONTINUOUS
 10
-33.7700598064
 20
-15.665193
 11
-33.7700598064
 21
-15.334807
  0
LINE
  5
5B9
100
AcDbEntity
  8
0
100
AcDbLine
 62
250
  6
CONTINUOUS
 10
-33.6053843421
 20
1.279222
 11
-33.6053843421
 21
0.723528
  0
LINE
  5
5BA
100
AcDbEntity
  8
0
100
AcDbLine
 62
250
  6
CONTINUOUS
 10
-33.6053843421
 20
-0.943209
 11
-33.6053843421
 21
-0.387515
  0
LINE
  5
5BB
100
AcDbEntity
  8
CURVE
100
AcDbLine
 62
250
  6
CONTINUOUS
 10
-31.8798718332
 20
4.476331
 11
-30.6799622162
 21
6.5
  0
LINE
  5
5BC
100
AcDbEntity
  8
CURVE
100
AcDbLine
 62
250
  6
CONTINUOUS
 10
-36.2656856757
 20
-4.4891044578
 11
-36.0085525982
 21
-4.105104
  0
LINE
  5
5BD
100
AcDbEntity
  8
ASSI
100
AcDbLine
 62
7
  6
CONTINUOUS
 10
-25.3798718332
 20
4.682648
 11
-25.2798718332
 21
4.682648
  0
LINE
  5
5BE
100
AcDbEntity
  8
0
100
AcDbLine
 62
7
  6
CONTINUOUS
 10
-25.3798718332
 20
4.682648
 11
-25.2798718332
 21
4.682648
  0
LINE
  5
5BF
100
AcDbEntity
  8
ASSI
100
AcDbLine
 62
7
  6
CONTINUOUS
 10
-25.3798718332
 20
4.7169
 11
-25.2798718332
 21
4.7169
  0
LINE
  5
5C0
100
AcDbEntity
  8
0
100
AcDbLine
 62
7
  6
CONTINUOUS
 10
-25.3798718332
 20
4.7169
 11
-25.2798718332
 21
4.7169
  0
LINE
  5
5C1
100
AcDbEntity
  8
ASSI
100
AcDbLine
 62
7
  6
CONTINUOUS
 10
-25.3798718332
 20
4.856332
 11
-25.2798718332
 21
4.856332
  0
LINE
  5
5C2
100
AcDbEntity
  8
0
100
AcDbLine
 62
7
  6
CONTINUOUS
 10
-25.3798718332
 20
4.856332
 11
-25.2798718332
 21
4.856332
  0
LINE
  5
5C3
100
AcDbEntity
  8
CURVE
100
AcDbLine
 62
250
  6
CONTINUOUS
 10
-39.8026892366
 20
5.1
 11
-39.0527463509
 21
5.1
  0
LINE
  5
5C4
100
AcDbEntity
  8
ASSI
100
AcDbLine
 62
7
  6
CONTINUOUS
 10
-25.3798718332
 20
5.401574
 11
-25.2798718332
 21
5.401574
  0
LINE
  5
5C5
100
AcDbEntity
  8
0
100
AcDbLine
 62
7
  6
CONTINUOUS
 10
-25.3798718332
 20
5.401574
 11
-25.2798718332
 21
5.401574
  0
LINE
  5
5C6
100
AcDbEntity
  8
CURVE
100
AcDbLine
 62
250
  6
CONTINUOUS
 10
-41.9755637544
 20
5.5
 11
-41.2248009311
 21
5.5
  0
LINE
  5
5C7
100
AcDbEntity
  8
CURVE
100
AcDbLine
 62
250
  6
CONTINUOUS
 10
-37.6306346564
 20
5.5
 11
-36.8798718332
 21
5.5
  0
LINE
  5
5C8
100
AcDbEntity
  8
ASSI
100
AcDbLine
 62
7
  6
CONTINUOUS
 10
-25.2798718332
 20
5.531954
 11
-25.3798718332
 21
5.531954
  0
LINE
  5
5C9
100
AcDbEntity
  8
CURVE
100
AcDbLine
 62
250
  6
CONTINUOUS
 10
-31.5248688696
 20
5.729586
 11
-32.2348747968
 21
5.729586
  0
LINE
  5
5CA
100
AcDbEntity
  8
ASSI
100
AcDbLine
 62
7
  6
CONTINUOUS
 10
-25.2798718332
 20
6.091982
 11
-25.3798718332
 21
6.091982
  0
LINE
  5
5CB
100
AcDbEntity
  8
CURVE
100
AcDbLine
 62
250
  6
CONTINUOUS
 10
-39.6568878944
 20
14.035156
 11
-39.4346288212
 21
13.523187
  0
LINE
  5
5CC
100
AcDbEntity
  8
CURVE
100
AcDbLine
 62
250
  6
CONTINUOUS
 10
-38.9813393429
 20
13.395637
 11
-39.6707918355
 21
14.983772
  0
LINE
  5
5CD
100
AcDbEntity
  8
CURVE
100
AcDbLine
 62
250
  6
CONTINUOUS
 10
-39.8909000724
 20
15.490785
 11
-40.3085962614
 21
16.452936
  0
LINE
  5
5CE
100
AcDbEntity
  8
CURVE
100
AcDbLine
 62
250
  6
CONTINUOUS
 10
-39.0963125868
 20
14.834599
 11
-38.6426291385
 21
13.789552
  0
LINE
  5
5CF
100
AcDbEntity
  8
CURVE
100
AcDbLine
 62
250
  6
CONTINUOUS
 10
-39.9935752528
 20
16.901419
 11
-39.3164208237
 21
15.341613
  0
LWPOLYLINE
  5
5D0
100
AcDbEntity
  8
CURVE
100
AcDbPolyline
 62
250
  6
CONTINUOUS
 90
37
 70
0
 10
-38.1280693265
 20
14.295365
 10
-38.1322656932
 20
14.3098051406
 10
-38.1368579205
 20
14.3241424564
 10
-38.1418407145
 20
14.3383649795
 10
-38.1472087817
 20
14.3524607419
 10
-38.1529568284
 20
14.3664177756
 10
-38.1590795608
 20
14.3802241127
 10
-38.1655716854
 20
14.393867785
 10
-38.1724279084
 20
14.4073368248
 10
-38.1796429361
 20
14.420619264
 10
-38.187211475
 20
14.4337031346
 10
-38.1951282312
 20
14.4465764687
 10
-38.2033879112
 20
14.4592272982
 10
-38.2119849563
 20
14.4716444286
 10
-38.2209127478
 20
14.4838197596
 10
-38.2301644023
 20
14.4957459638
 10
-38.239733036
 20
14.5074157143
 10
-38.2496117655
 20
14.518821684
 10
-38.2597937071
 20
14.5299565459
 10
-38.2702719773
 20
14.5408129727
 10
-38.2810396925
 20
14.5513836376
 10
-38.292089969
 20
14.5616612134
 10
-38.3034159234
 20
14.571638373
 10
-38.315010672
 20
14.5813077893
 10
-38.3268673312
 20
14.5906621354
 10
-38.3389782291
 20
14.5996943003
 10
-38.3513325398
 20
14.6083980388
 10
-38.3639186494
 20
14.6167673215
 10
-38.3767249435
 20
14.6247961193
 10
-38.3897398081
 20
14.6324784031
 10
-38.4029516291
 20
14.6398081437
 10
-38.4163487922
 20
14.6467793119
 10
-38.4299196834
 20
14.6533858785
 10
-38.4436526884
 20
14.6596218145
 10
-38.4575361932
 20
14.6654810906
 10
-38.4715585836
 20
14.6709576777
 10
-38.4857082454
 20
14.6760455465
  0
LWPOLYLINE
  5
5D1
100
AcDbEntity
  8
0
100
AcDbPolyline
 62
250
  6
CONTINUOUS
 90
65
 70
0
 10
-32.429755697
 20
-3.237598426
 10
-32.4277413617
 20
-3.3477915993
 10
-32.4217117762
 20
-3.4580472603
 10
-32.4116870715
 20
-3.5681935052
 10
-32.3976873783
 20
-3.6780584299
 10
-32.3797328275
 20
-3.7874701307
 10
-32.35784355
 20
-3.8962567037
 10
-32.3320396766
 20
-4.004246245
 10
-32.3023413381
 20
-4.1112668506
 10
-32.2687686654
 20
-4.2171466168
 10
-32.2313417893
 20
-4.3217136397
 10
-32.1900808406
 20
-4.4247960154
 10
-32.1466409638
 20
-4.5227502869
 10
-32.0997361684
 20
-4.6190556386
 10
-32.0494561155
 20
-4.7136070501
 10
-31.9958904662
 20
-4.8062995012
 10
-31.9391288817
 20
-4.8970279715
 10
-31.879261023
 20
-4.9856874407
 10
-31.8163765515
 20
-5.0721728886
 10
-31.750565128
 20
-5.1563792949
 10
-31.6819164139
 20
-5.2382016391
 10
-31.6105200702
 20
-5.3175349012
 10
-31.536465758
 20
-5.3942740607
 10
-31.451957277
 20
-5.4756532735
 10
-31.3644502914
 20
-5.5536730912
 10
-31.2740601033
 20
-5.6282465258
 10
-31.180902015
 20
-5.6992865893
 10
-31.0850913286
 20
-5.7667062939
 10
-31.0027043378
 20
-5.8204409434
 10
-30.9186172711
 20
-5.8715056697
 10
-30.8329179501
 20
-5.91984292
 10
-30.7456941966
 20
-5.9653951417
 10
-30.6570338322
 20
-6.0081047821
 10
-30.5670246787
 20
-6.0479142885
 10
-30.4742024053
 20
-6.0853690253
 10
-30.380190372
 20
-6.1197328073
 10
-30.2851028511
 20
-6.1509733782
 10
-30.1890541151
 20
-6.1790584816
 10
-30.0921584363
 20
-6.2039558611
 10
-29.9945300871
 20
-6.2256332603
 10
-29.8941061401
 20
-6.2444339588
 10
-29.7931323628
 20
-6.2598394047
 10
-29.6917049002
 20
-6.2718516176
 10
-29.5879614009
 20
-6.2806070705
 10
-29.4839743986
 20
-6.2858518671
 10
-29.3798718324
 20
-6.2875984252
 10
-29.2975578677
 20
-6.2865088818
 10
-29.2153089947
 20
-6.2832334682
 10
-29.1331825677
 20
-6.2777657525
 10
-29.0525156615
 20
-6.2702365532
 10
-28.9720711429
 20
-6.2605725652
 10
-28.8918971829
 20
-6.2487694507
 10
-28.7979334311
 20
-6.2321324651
 10
-28.7045140287
 20
-6.2125458892
 10
-28.6117416381
 20
-6.1900304869
 10
-28.5197189222
 20
-6.1646070217
 10
-28.4285485434
 20
-6.1362962576
 10
-28.3178379755
 20
-6.0975927521
 10
-28.2087181864
 20
-6.0546298908
 10
-28.1013381639
 20
-6.0074760088
 10
-27.995846896
 20
-5.9561994414
 10
-27.8934290396
 20
-5.9014538865
 10
-27.7931737059
 20
-5.8428473585
 10
-27.6952465489
 20
-5.780491911
 10
-27.5998132227
 20
-5.7144995977
  0
LINE
  5
5D2
100
AcDbEntity
  8
CURVE
100
AcDbLine
 62
250
  6
CONTINUOUS
 10
-33.1798223332
 20
10.5785714507
 11
-33.1798223332
 21
10.2071428239
  0
LINE
  5
5D3
100
AcDbEntity
  8
CURVE
100
AcDbLine
 62
250
  6
CONTINUOUS
 10
-33.1798223332
 20
12.9928570986
 11
-33.1798223332
 21
13.2714287043
  0
LINE
  5
5D4
100
AcDbEntity
  8
CURVE
100
AcDbLine
 62
250
  6
CONTINUOUS
 10
-33.1798223332
 20
14.0142858028
 11
-33.1798223332
 21
14.2928574085
  0
LINE
  5
5D5
100
AcDbEntity
  8
CURVE
100
AcDbLine
 62
250
  6
CONTINUOUS
 10
-33.1798223332
 20
15.0357141972
 11
-33.1798223332
 21
15.3142858028
  0
LINE
  5
5D6
100
AcDbEntity
  8
CURVE
100
AcDbLine
 62
250
  6
CONTINUOUS
 10
-32.6227007235
 20
15.93333354
 11
-32.6227007235
 21
16.3357141972
  0
LINE
  5
5D7
100
AcDbEntity
  8
CURVE
100
AcDbLine
 62
250
  6
CONTINUOUS
 10
-32.2348747968
 20
5.481065
 11
-32.2348747968
 21
5.978106
  0
LINE
  5
5D8
100
AcDbEntity
  8
CURVE
100
AcDbLine
 62
250
  6
CONTINUOUS
 10
-32.2348747968
 20
7.139053
 11
-32.2348747968
 21
7.56509
  0
LINE
  5
5D9
100
AcDbEntity
  8
0
100
AcDbLine
 62
250
  6
CONTINUOUS
 10
-31.9389462551
 20
3.501309
 11
-31.9389462551
 21
2.945615
  0
LINE
  5
5DA
100
AcDbEntity
  8
0
100
AcDbLine
 62
250
  6
CONTINUOUS
 10
-31.9389462551
 20
-0.387515
 11
-31.9389462551
 21
-0.943209
  0
LINE
  5
5DB
100
AcDbEntity
  8
CURVE
100
AcDbLine
 62
250
  6
CONTINUOUS
 10
-31.8798718332
 20
16.3357141972
 11
-31.8798718332
 21
16.0571425915
  0
LINE
  5
5DC
100
AcDbEntity
  8
CURVE
100
AcDbLine
 62
250
  6
CONTINUOUS
 10
-31.8798718332
 20
10.4857143521
 11
-31.8798718332
 21
10.1142857254
  0
LINE
  5
5DD
100
AcDbEntity
  8
CURVE
100
AcDbLine
 62
250
  6
CONTINUOUS
 10
-31.8798718332
 20
7.139053
 11
-31.8798718332
 21
7.401776
  0
LINE
  5
5DE
100
AcDbEntity
  8
CURVE
100
AcDbLine
 62
250
  6
CONTINUOUS
 10
-31.8798718332
 20
12.8071429014
 11
-31.8798718332
 21
13.4571429014
  0
LINE
  5
5DF
100
AcDbEntity
  8
CURVE
100
AcDbLine
 62
250
  6
CONTINUOUS
 10
-31.8798718332
 20
13.8285712957
 11
-31.8798718332
 21
14.4785716057
  0
LINE
  5
5E0
100
AcDbEntity
  8
CURVE
100
AcDbLine
 62
250
  6
CONTINUOUS
 10
-31.8798718332
 20
14.85
 11
-31.8798718332
 21
15.5
  0
LINE
  5
5E1
100
AcDbEntity
  8
CURVE
100
AcDbLine
 62
250
  6
CONTINUOUS
 10
-31.58968386
 20
-15.665193
 11
-31.58968386
 21
-15.334807
  0
LINE
  5
5E2
100
AcDbEntity
  8
CURVE
100
AcDbLine
 62
250
  6
CONTINUOUS
 10
-31.5248688696
 20
7.56509
 11
-31.5248688696
 21
7.139053
  0
LINE
  5
5E3
100
AcDbEntity
  8
0
100
AcDbLine
 62
250
  6
CONTINUOUS
 10
-31.3832945725
 20
1.834571
 11
-31.3832945725
 21
1.279222
  0
LINE
  5
5E4
100
AcDbEntity
  8
0
100
AcDbLine
 62
250
  6
CONTINUOUS
 10
-31.3832945725
 20
0.723528
 11
-31.3832945725
 21
0.167834
  0
LINE
  5
5E5
100
AcDbEntity
  8
0
100
AcDbLine
 62
250
  6
CONTINUOUS
 10
-31.3832945725
 20
-1.498558
 11
-31.3832945725
 21
-0.387515
  0
LINE
  5
5E6
100
AcDbEntity
  8
0
100
AcDbLine
 62
250
  6
CONTINUOUS
 10
-31.3832945725
 20
2.390265
 11
-31.3832945725
 21
3.501309
  0
LINE
  5
5E7
100
AcDbEntity
  8
CURVE
100
AcDbLine
 62
250
  6
CONTINUOUS
 10
-31.1800380579
 20
-15.143184
 11
-31.1800380579
 21
-15.5
  0
LWPOLYLINE
  5
5E8
100
AcDbEntity
  8
0
100
AcDbPolyline
 62
7
  6
CONTINUOUS
 90
2
 70
0
 43
0.3500000006
 10
-31.1513010864
 20
33.8000009308
 10
-31.1513010864
 20
35.3000013885
  0
LINE
  5
5E9
100
AcDbEntity
  8
CURVE
100
AcDbLine
 62
250
  6
CONTINUOUS
 10
-37.3799289486
 20
-7.5611042747
 11
-37.122795898
 21
-7.273104412
  0
LINE
  5
5EA
100
AcDbEntity
  8
CURVE
100
AcDbLine
 62
250
  6
CONTINUOUS
 10
-35.5799974871
 20
-7.7051037253
 11
-35.8371305645
 21
-7.993103588
  0
LINE
  5
5EB
100
AcDbEntity
  8
CURVE
100
AcDbLine
 62
250
  6
CONTINUOUS
 10
-36.3513966925
 20
-8.7131037253
 11
-36.6085297968
 21
-9.001103588
  0
LWPOLYLINE
  5
5EC
100
AcDbEntity
  8
0
100
AcDbPolyline
 62
250
  6
CONTINUOUS
 90
33
 70
0
 10
-30.503430185
 20
-2.206426788
 10
-30.5267253901
 20
-2.2323575518
 10
-30.5494196655
 20
-2.2588102071
 10
-30.571502496
 20
-2.2857711558
 10
-30.5929633666
 20
-2.3132267993
 10
-30.6137917621
 20
-2.3411635396
 10
-30.6339771674
 20
-2.3695677782
 10
-30.6535090673
 20
-2.3984259168
 10
-30.6723769468
 20
-2.4277243572
 10
-30.6905702907
 20
-2.457449501
 10
-30.7080785839
 20
-2.48758775
 10
-30.7248913112
 20
-2.5181255058
 10
-30.7409979576
 20
-2.5490491701
 10
-30.7563880078
 20
-2.5803451447
 10
-30.7710509469
 20
-2.6119998312
 10
-30.7849762596
 20
-2.6439996313
 10
-30.7985157247
 20
-2.6772466691
 10
-30.8112608369
 20
-2.7108205871
 10
-30.8232082118
 20
-2.7446977726
 10
-30.834354465
 20
-2.7788546132
 10
-30.8446962121
 20
-2.8132674962
 10
-30.8542300685
 20
-2.8479128091
 10
-30.86295265
 20
-2.8827669393
 10
-30.870860572
 20
-2.9178062742
 10
-30.8779504502
 20
-2.9530072012
 10
-30.8842189
 20
-2.9883461078
 10
-30.8896625371
 20
-3.0237993814
 10
-30.8942779771
 20
-3.0593434094
 10
-30.8980618355
 20
-3.0949545793
 10
-30.9010107279
 20
-3.1306092785
 10
-30.9031212698
 20
-3.1662838944
 10
-30.9043900769
 20
-3.2019548144
 10
-30.9048137647
 20
-3.237598426
  0
LINE
  5
5ED
100
AcDbEntity
  8
CURVE
100
AcDbLine
 62
250
  6
CONTINUOUS
 10
-37.122795898
 20
-7.273104412
 11
-36.8656628474
 21
-7.129104
  0
LINE
  5
5EE
100
AcDbEntity
  8
CURVE
100
AcDbLine
 62
250
  6
CONTINUOUS
 10
-37.3799289486
 20
-6.5531042747
 11
-35.5799974871
 21
-5.977103588
  0
LWPOLYLINE
  5
5EF
100
AcDbEntity
  8
0
100
AcDbPolyline
 62
250
  6
CONTINUOUS
 90
58
 70
0
 10
-28.781288741
 20
-5.1812747013
 10
-28.8388421515
 20
-5.1980476352
 10
-28.8968993385
 20
-5.2131147334
 10
-28.9553929706
 20
-5.2264615242
 10
-29.0142557163
 20
-5.2380735357
 10
-29.0734202444
 20
-5.247936296
 10
-29.1238315203
 20
-5.2549269938
 10
-29.1743867589
 20
-5.2606505621
 10
-29.2250609889
 20
-5.2651107222
 10
-29.2765988018
 20
-5.2683493439
 10
-29.328210188
 20
-5.2702899127
 10
-29.3798718324
 20
-5.2709324885
 10
-29.4485738352
 20
-5.2697774442
 10
-29.5172333284
 20
-5.2663296881
 10
-29.5857601981
 20
-5.260589761
 10
-29.6540643306
 20
-5.2525582038
 10
-29.7220556121
 20
-5.2422355573
 10
-29.7896439288
 20
-5.2296223622
 10
-29.854760131
 20
-5.2151962423
 10
-29.919352929
 20
-5.198625975
 10
-29.98336317
 20
-5.1799235389
 10
-30.0467317012
 20
-5.1591009122
 10
-30.1093993699
 20
-5.1361700736
 10
-30.1713070234
 20
-5.1111430013
 10
-30.236268462
 20
-5.0822354305
 10
-30.3002241315
 20
-5.0510231677
 10
-30.3630954609
 20
-5.0175606434
 10
-30.4248038793
 20
-4.9819022879
 10
-30.4852708159
 20
-4.9441025317
 10
-30.5444176996
 20
-4.9042158052
 10
-30.6021659596
 20
-4.8622965389
 10
-30.658437025
 20
-4.8183991632
 10
-30.7131523248
 20
-4.7725781085
 10
-30.7662332882
 20
-4.7248878054
 10
-30.8176013442
 20
-4.6753826841
 10
-30.8671825937
 20
-4.6241190147
 10
-30.9149218254
 20
-4.5711604246
 10
-30.9607684995
 20
-4.5165723811
 10
-31.0046720765
 20
-4.4604203511
 10
-31.0465820168
 20
-4.4027698017
 10
-31.0864477808
 20
-4.3436862
 10
-31.1242188287
 20
-4.283235013
 10
-31.1598446212
 20
-4.2214817078
 10
-31.1932746184
 20
-4.1584917514
 10
-31.2244582809
 20
-4.094330611
 10
-31.2533450689
 20
-4.0290637535
 10
-31.2786068584
 20
-3.9661332938
 10
-31.3017393941
 20
-3.9023544671
 10
-31.3227298244
 20
-3.8378167845
 10
-31.341565298
 20
-3.7726097569
 10
-31.3582329635
 20
-3.7068228951
 10
-31.3727199693
 20
-3.6405457102
 10
-31.3850134641
 20
-3.573867713
 10
-31.3951005964
 20
-3.5068784145
 10
-31.4029685147
 20
-3.4396673257
 10
-31.4086043677
 20
-3.3723239573
 10
-31.4119953039
 20
-3.3049378204
 10
-31.4131284718
 20
-3.237598426
  0
LINE
  5
5F0
100
AcDbEntity
  8
ASSI
100
AcDbLine
 62
7
  6
CONTINUOUS
 10
-22.6694019842
 20
7.7946516928
 11
-25.2798718332
 21
7.7034920769
  0
LINE
  5
5F1
100
AcDbEntity
  8
RACCORDO
100
AcDbLine
 62
7
  6
CONTINUOUS
 10
-22.6694019842
 20
7.7946516928
 11
-25.2798718332
 21
7.7034920769
  0
LINE
  5
5F2
100
AcDbEntity
  8
ASSI
100
AcDbLine
 62
250
  6
CONTINUOUS
 10
-22.6694019842
 20
8.2943471063
 11
-25.2798718332
 21
8.2031874905
  0
LINE
  5
5F3
100
AcDbEntity
  8
RACCORDO
100
AcDbLine
 62
250
  6
CONTINUOUS
 10
-22.6694019842
 20
8.2943471063
 11
-25.2798718332
 21
8.2031874905
  0
LWPOLYLINE
  5
5F4
100
AcDbEntity
  8
CURVE
100
AcDbPolyline
 62
250
  6
CONTINUOUS
 90
81
 70
0
 10
-34.8798718332
 20
8.4485303833
 10
-34.9361484675
 20
8.4470100337
 10
-34.9924205578
 20
8.442518053
 10
-35.0485610877
 20
8.4351580427
 10
-35.104443041
 20
8.4250336046
 10
-35.1599394016
 20
8.4122483405
 10
-35.2149231532
 20
8.396905852
 10
-35.2692672796
 20
8.379109741
 10
-35.3228447646
 20
8.3589636091
 10
-35.375528592
 20
8.3365710582
 10
-35.4271917455
 20
8.3120356898
 10
-35.477707209
 20
8.2854611058
 10
-35.5269479662
 20
8.2569509078
 10
-35.5752825137
 20
8.2262856277
 10
-35.6221825119
 20
8.1938076703
 10
-35.667643522
 20
8.1595734736
 10
-35.7116611058
 20
8.1236394755
 10
-35.7542308247
 20
8.0860621138
 10
-35.7953482401
 20
8.0468978265
 10
-35.8425080205
 20
7.998176573
 10
-35.8875893261
 20
7.9474445569
 10
-35.9305880765
 20
7.8948704239
 10
-35.9715001918
 20
7.8406228202
 10
-36.0103215919
 20
7.7848703917
 10
-36.0471576727
 20
7.7276057744
 10
-36.0819293643
 20
7.6690986237
 10
-36.1146790365
 20
7.6094502161
 10
-36.1454490592
 20
7.5487618282
 10
-36.1742818025
 20
7.4871347366
 10
-36.2075500448
 20
7.4091659962
 10
-36.2378764879
 20
7.3300071564
 10
-36.2652617303
 20
7.2497684667
 10
-36.2897063703
 20
7.1685601764
 10
-36.3111253662
 20
7.0868535433
 10
-36.3296438371
 20
7.0044015547
 10
-36.3452755475
 20
6.9213106898
 10
-36.3580342623
 20
6.837687428
 10
-36.3679337463
 20
6.7536382488
 10
-36.3749877642
 20
6.6692696315
 10
-36.3792100807
 20
6.5846880554
 10
-36.3806144607
 20
6.5
 10
-36.3792100807
 20
6.4153119446
 10
-36.3749877642
 20
6.3307303685
 10
-36.3679337463
 20
6.2463617512
 10
-36.3580342623
 20
6.162312572
 10
-36.3452755475
 20
6.0786893102
 10
-36.3296438371
 20
5.9955984453
 10
-36.3111253662
 20
5.9131464567
 10
-36.2897063703
 20
5.8314398236
 10
-36.2652617303
 20
5.7502315333
 10
-36.2378764879
 20
5.6699928436
 10
-36.2075500448
 20
5.5908340038
 10
-36.1742818025
 20
5.5128652634
 10
-36.1454490592
 20
5.4512381718
 10
-36.1146790365
 20
5.3905497839
 10
-36.0819293643
 20
5.3309013763
 10
-36.0471576727
 20
5.2723942256
 10
-36.0103215919
 20
5.2151296083
 10
-35.9715001918
 20
5.1593771798
 10
-35.9305880765
 20
5.1051295761
 10
-35.8875893261
 20
5.0525554431
 10
-35.8425080205
 20
5.001823427
 10
-35.7953482401
 20
4.9531021735
 10
-35.7542308247
 20
4.9139378862
 10
-35.7116611058
 20
4.8763605245
 10
-35.667643522
 20
4.8404265264
 10
-35.6221825119
 20
4.8061923297
 10
-35.5752825137
 20
4.7737143723
 10
-35.5269479662
 20
4.7430490922
 10
-35.477707209
 20
4.7145388942
 10
-35.4271917455
 20
4.6879643102
 10
-35.375528592
 20
4.6634289418
 10
-35.3228447646
 20
4.6410363909
 10
-35.2692672796
 20
4.620890259
 10
-35.2149231532
 20
4.603094148
 10
-35.1599394016
 20
4.5877516595
 10
-35.104443041
 20
4.5749663954
 10
-35.0485610877
 20
4.5648419573
 10
-34.9924205578
 20
4.557481947
 10
-34.9361484675
 20
4.5529899663
 10
-34.8798718332
 20
4.5514696167
  0
LINE
  5
5F5
100
AcDbEntity
  8
ASSI
100
AcDbLine
 62
7
  6
CONTINUOUS
 10
-25.2798718332
 20
6.711006
 11
-25.3798718332
 21
6.711006
  0
LINE
  5
5F6
100
AcDbEntity
  8
CURVE
100
AcDbLine
 62
250
  6
CONTINUOUS
 10
-31.5248688696
 20
7.139053
 11
-32.2348747968
 21
7.139053
  0
LINE
  5
5F7
100
AcDbEntity
  8
ASSI
100
AcDbLine
 62
7
  6
CONTINUOUS
 10
-25.2798718332
 20
7.330023
 11
-25.3798718332
 21
7.330023
  0
LINE
  5
5F8
100
AcDbEntity
  8
ASSI
100
AcDbLine
 62
7
  6
CONTINUOUS
 10
-25.2798718332
 20
7.890051
 11
-25.3798718332
 21
7.890051
  0
LINE
  5
5F9
100
AcDbEntity
  8
ASSI
100
AcDbLine
 62
7
  6
CONTINUOUS
 10
-25.2798718332
 20
8.263396
 11
-25.3798718332
 21
8.263396
  0
LINE
  5
5FA
100
AcDbEntity
  8
ASSI
100
AcDbLine
 62
250
  6
CONTINUOUS
 10
-22.3798718332
 20
8.2943471063
 11
-22.6694019841
 21
8.2943470959
  0
LINE
  5
5FB
100
AcDbEntity
  8
RACCORDO
100
AcDbLine
 62
250
  6
CONTINUOUS
 10
-22.3798718332
 20
8.2943471063
 11
-22.6694019841
 21
8.2943470959
  0
LINE
  5
5FC
100
AcDbEntity
  8
CURVE
100
AcDbLine
 62
250
  6
CONTINUOUS
 10
-38.1280693265
 20
7.957255
 11
-40.662903278
 21
8.624556
  0
LINE
  5
5FD
100
AcDbEntity
  8
CURVE
100
AcDbLine
 62
250
  6
CONTINUOUS
 10
-41.2758405978
 20
8.798384
 11
-42.1706524505
 21
9.033945
  0
LWPOLYLINE
  5
5FE
100
AcDbEntity
  8
CURVE
100
AcDbPolyline
 62
250
  6
CONTINUOUS
 90
43
 70
0
 10
-40.6629033656
 20
11.018124885
 10
-40.6737158195
 20
11.0266304109
 10
-40.6842778329
 20
11.0354822764
 10
-40.694579209
 20
11.0446689955
 10
-40.7046097512
 20
11.0541790821
 10
-40.7143592627
 20
11.0640010503
 10
-40.7238175468
 20
11.074123414
 10
-40.7329744068
 20
11.0845346873
 10
-40.7418196459
 20
11.095223384
 10
-40.7503430674
 20
11.1061780183
 10
-40.7585344745
 20
11.117387104
 10
-40.7663836707
 20
11.1288391552
 10
-40.773880459
 20
11.1405226858
 10
-40.7810146428
 20
11.1524262099
 10
-40.7877760255
 20
11.1645382413
 10
-40.7941555592
 20
11.1768472859
 10
-40.8001487927
 20
11.1893418155
 10
-40.8057524238
 20
11.2020102941
 10
-40.8109631502
 20
11.2148411854
 10
-40.8157776696
 20
11.2278229532
 10
-40.8201926799
 20
11.2409440612
 10
-40.8242048786
 20
11.2541929732
 10
-40.8278109638
 20
11.2675581529
 10
-40.8310076329
 20
11.2810280641
 10
-40.8337915839
 20
11.2945911707
 10
-40.8361595145
 20
11.3082359362
 10
-40.8381081223
 20
11.3219508246
 10
-40.8396341053
 20
11.3357242996
 10
-40.840734161
 20
11.3495448249
 10
-40.8414059668
 20
11.3634002633
 10
-40.8416511176
 20
11.3772760735
 10
-40.8414721876
 20
11.3911571132
 10
-40.8408717514
 20
11.4050282401
 10
-40.8398523832
 20
11.418874312
 10
-40.8384166575
 20
11.4326801864
 10
-40.8365671485
 20
11.4464307211
 10
-40.8343064308
 20
11.4601107739
 10
-40.8316370786
 20
11.4737052024
 10
-40.8285616663
 20
11.4871988643
 10
-40.8250827684
 20
11.5005766173
 10
-40.8212029591
 20
11.5138233191
 10
-40.8169248128
 20
11.5269238274
 10
-40.812250904
 20
11.539863
  0
LINE
  5
5FF
100
AcDbEntity
  8
CURVE
100
AcDbLine
 62
250
  6
CONTINUOUS
 10
-39.5927477792
 20
16.797337
 11
-39.3749483664
 21
16.295642
  0
LWPOLYLINE
  5
600
100
AcDbEntity
  8
0
100
AcDbPolyline
 62
250
  6
CONTINUOUS
 90
57
 70
0
 10
-29.506735825
 20
-12.1569273296
 10
-29.5050605751
 20
-12.1943980789
 10
-29.5027264099
 20
-12.2319463867
 10
-29.4997463106
 20
-12.2695179666
 10
-29.4961332583
 20
-12.3070585324
 10
-29.4919002342
 20
-12.344513798
 10
-29.4870602197
 20
-12.3818294772
 10
-29.4816261959
 20
-12.4189512836
 10
-29.475611144
 20
-12.4558249312
 10
-29.4690280452
 20
-12.4923961336
 10
-29.4618898808
 20
-12.5286106047
 10
-29.4570122113
 20
-12.5516572029
 10
-29.4518675758
 20
-12.5745639598
 10
-29.4464124903
 20
-12.5973604823
 10
-29.4406034712
 20
-12.6200763773
 10
-29.4343970346
 20
-12.6427412514
 10
-29.4277496966
 20
-12.6653847116
 10
-29.4206179736
 20
-12.6880363647
 10
-29.4129583816
 20
-12.7107258175
 10
-29.404727437
 20
-12.7334826768
 10
-29.3958816558
 20
-12.7563365493
 10
-29.3863775543
 20
-12.779317042
 10
-29.3761716487
 20
-12.8024537617
 10
-29.3652204552
 20
-12.8257763151
 10
-29.3594319872
 20
-12.8375534086
 10
-29.3534452618
 20
-12.8493598698
 10
-29.3472606124
 20
-12.8611708242
 10
-29.3408783726
 20
-12.8729613974
 10
-29.334298876
 20
-12.8847067151
 10
-29.3275224561
 20
-12.8963819029
 10
-29.3205494465
 20
-12.9079620864
 10
-29.3133801807
 20
-12.9194223912
 10
-29.3060149922
 20
-12.9307379428
 10
-29.2984542147
 20
-12.941883867
 10
-29.2906981816
 20
-12.9528352893
 10
-29.2827472266
 20
-12.9635673354
 10
-29.2746016832
 20
-12.9740551308
 10
-29.2662618848
 20
-12.9842738012
 10
-29.2577281652
 20
-12.9941984721
 10
-29.2490008578
 20
-13.0038042692
 10
-29.2400802962
 20
-13.0130663181
 10
-29.2309668139
 20
-13.0219597444
 10
-29.2216607445
 20
-13.0304596738
 10
-29.2121624215
 20
-13.0385412317
 10
-29.2024721786
 20
-13.0461795439
 10
-29.1925903492
 20
-13.053349736
 10
-29.1825172668
 20
-13.0600269335
 10
-29.1722532652
 20
-13.066186262
 10
-29.1617986777
 20
-13.0718028473
 10
-29.151153838
 20
-13.0768518148
 10
-29.1403190796
 20
-13.0813082902
 10
-29.1292947361
 20
-13.0851473992
 10
-29.1180811409
 20
-13.0883442673
 10
-29.1066786277
 20
-13.0908740201
 10
-29.0950875301
 20
-13.0927117832
 10
-29.0833081815
 20
-13.0938326824
 10
-29.0713409155
 20
-13.094211843
  0
LWPOLYLINE
  5
601
100
AcDbEntity
  8
0
100
AcDbPolyline
 62
250
  6
CONTINUOUS
 90
42
 70
0
 10
-30.9048137647
 20
-3.237598426
 10
-30.904265996
 20
-3.2785054573
 10
-30.9026238854
 20
-3.3194268554
 10
-30.899889226
 20
-3.3603271267
 10
-30.896063811
 20
-3.4011707774
 10
-30.8911494335
 20
-3.441922314
 10
-30.8851478867
 20
-3.4825462426
 10
-30.8780609636
 20
-3.5230070697
 10
-30.8698904576
 20
-3.5632693014
 10
-30.8606381617
 20
-3.6032974442
 10
-30.850305869
 20
-3.6430560043
 10
-30.8388953728
 20
-3.6825094881
 10
-30.8255967925
 20
-3.7240512331
 10
-30.8111008727
 20
-3.765178285
 10
-30.7954251083
 20
-3.8058603175
 10
-30.7785869945
 20
-3.8460670041
 10
-30.7606040261
 20
-3.8857680183
 10
-30.7414936984
 20
-3.9249330338
 10
-30.7212735061
 20
-3.9635317241
 10
-30.6999609445
 20
-4.0015337627
 10
-30.6775735085
 20
-4.0389088234
 10
-30.6541286931
 20
-4.0756265795
 10
-30.6299354769
 20
-4.1112423699
 10
-30.604747717
 20
-4.1461616422
 10
-30.5785867002
 20
-4.1803596035
 10
-30.551473713
 20
-4.2138114607
 10
-30.5234300423
 20
-4.2464924207
 10
-30.4944769747
 20
-4.2783776907
 10
-30.4646357969
 20
-4.3094424776
 10
-30.4339277956
 20
-4.3396619883
 10
-30.4023742575
 20
-4.3690114299
 10
-30.3699964693
 20
-4.3974660093
 10
-30.3366727726
 20
-4.4251183198
 10
-30.3025735115
 20
-4.4518205735
 10
-30.2677330389
 20
-4.4775503331
 10
-30.2321857076
 20
-4.5022851614
 10
-30.1959658704
 20
-4.5260026211
 10
-30.1591078802
 20
-4.548680275
 10
-30.1216460898
 20
-4.5702956857
 10
-30.083614852
 20
-4.590826416
 10
-30.0450485196
 20
-4.6102500287
 10
-30.0059814454
 20
-4.6285440864
  0
LINE
  5
602
100
AcDbEntity
  8
CURVE
100
AcDbLine
 62
250
  6
CONTINUOUS
 10
-30.6798223332
 20
11.93
 11
-30.6798223332
 21
12.2364285958
  0
LINE
  5
603
100
AcDbEntity
  8
CURVE
100
AcDbLine
 62
250
  6
CONTINUOUS
 10
-30.6798223332
 20
12.8492857873
 11
-30.6798223332
 21
13.36
  0
LINE
  5
604
100
AcDbEntity
  8
CURVE
100
AcDbLine
 62
250
  6
CONTINUOUS
 10
-30.6798223332
 20
16.3902381277
 11
-30.6798223332
 21
16.696666894
  0
LINE
  5
605
100
AcDbEntity
  8
0
100
AcDbLine
 62
250
  6
CONTINUOUS
 10
-29.4659440462
 20
-12.781784
 11
-29.4659440462
 21
-12.68241
  0
LINE
  5
606
100
AcDbEntity
  8
CURVE
100
AcDbLine
 62
250
  6
CONTINUOUS
 10
-29.3798718332
 20
16.696666894
 11
-29.3798718332
 21
16.3902381277
  0
LINE
  5
607
100
AcDbEntity
  8
CURVE
100
AcDbLine
 62
250
  6
CONTINUOUS
 10
-29.3798718332
 20
13.36
 11
-29.3798718332
 21
12.8492857873
  0
LINE
  5
608
100
AcDbEntity
  8
CURVE
100
AcDbLine
 62
250
  6
CONTINUOUS
 10
-29.3798718332
 20
12.2364285958
 11
-29.3798718332
 21
11.93
  0
LINE
  5
609
100
AcDbEntity
  8
CURVE
100
AcDbLine
 62
250
  6
CONTINUOUS
 10
-29.3798718332
 20
14.3473809361
 11
-29.3798718332
 21
14.6538093615
  0
LINE
  5
60A
100
AcDbEntity
  8
CURVE
100
AcDbLine
 62
250
  6
CONTINUOUS
 10
-29.3798718332
 20
15.266666553
 11
-29.3798718332
 21
15.7773809361
  0
LINE
  5
60B
100
AcDbEntity
  8
0
100
AcDbLine
 62
250
  6
CONTINUOUS
 10
-29.071341072
 20
-13.309973
 11
-29.071341072
 21
-10.872066
  0
LINE
  5
60C
100
AcDbEntity
  8
0
100
AcDbLine
 62
250
  6
CONTINUOUS
 10
-29.558914506
 20
-12.156927
 11
-29.5583565273
 21
-11.583924
  0
LINE
  5
60D
100
AcDbEntity
  8
0
100
AcDbLine
 62
250
  6
CONTINUOUS
 10
-29.3408708088
 20
-11.583924
 11
-29.3414287875
 21
-12.156927
  0
LINE
  5
60E
100
AcDbEntity
  8
CURVE
100
AcDbLine
 62
250
  6
CONTINUOUS
 10
-37.122795898
 20
-10.153104
 11
-37.3799289486
 21
-10.4411038627
  0
LINE
  5
60F
100
AcDbEntity
  8
CURVE
100
AcDbLine
 62
250
  6
CONTINUOUS
 10
-35.8371305645
 20
-7.993103588
 11
-36.0942636419
 21
-8.137104
  0
LINE
  5
610
100
AcDbEntity
  8
CURVE
100
AcDbLine
 62
250
  6
CONTINUOUS
 10
-31.8798718332
 20
11.3214285493
 11
-33.1798223332
 21
11.0428570986
  0
LINE
  5
611
100
AcDbEntity
  8
ASSI
100
AcDbLine
 62
7
  6
CONTINUOUS
 10
-25.2798718332
 20
8.823417
 11
-25.3798718332
 21
8.823417
  0
LINE
  5
612
100
AcDbEntity
  8
ASSI
100
AcDbLine
 62
7
  6
CONTINUOUS
 10
-25.3798718332
 20
8.863116
 11
-25.2798718332
 21
8.863116
  0
LINE
  5
613
100
AcDbEntity
  8
0
100
AcDbLine
 62
7
  6
CONTINUOUS
 10
-25.3798718332
 20
8.863116
 11
-25.2798718332
 21
8.863116
  0
LINE
  5
614
100
AcDbEntity
  8
ASSI
100
AcDbLine
 62
7
  6
CONTINUOUS
 10
-25.3798718332
 20
8.87727
 11
-25.2798718332
 21
8.87727
  0
LINE
  5
615
100
AcDbEntity
  8
0
100
AcDbLine
 62
7
  6
CONTINUOUS
 10
-25.3798718332
 20
8.87727
 11
-25.2798718332
 21
8.87727
  0
LINE
  5
616
100
AcDbEntity
  8
CURVE
100
AcDbLine
 62
250
  6
CONTINUOUS
 10
-33.1798223332
 20
9.0
 11
-31.8798718332
 21
9.0
  0
LINE
  5
617
100
AcDbEntity
  8
ASSI
100
AcDbLine
 62
7
  6
CONTINUOUS
 10
-25.2798718332
 20
9.383417
 11
-25.3798718332
 21
9.383417
  0
LINE
  5
618
100
AcDbEntity
  8
CURVE
100
AcDbLine
 62
250
  6
CONTINUOUS
 10
-33.1798223332
 20
9.65
 11
-31.8798718332
 21
9.65
  0
LINE
  5
619
100
AcDbEntity
  8
CURVE
100
AcDbLine
 62
250
  6
CONTINUOUS
 10
-32.99411513
 20
10.0214285493
 11
-32.8084079267
 21
10.0214285493
  0
LINE
  5
61A
100
AcDbEntity
  8
ASSI
100
AcDbLine
 62
7
  6
CONTINUOUS
 10
-25.2798718332
 20
10.230018
 11
-25.3798718332
 21
10.230018
  0
LINE
  5
61B
100
AcDbEntity
  8
CURVE
100
AcDbLine
 62
250
  6
CONTINUOUS
 10
-27.1800393685
 20
10.5
 11
-28.4799898685
 21
10.5
  0
LINE
  5
61C
100
AcDbEntity
  8
CURVE
100
AcDbLine
 62
250
  6
CONTINUOUS
 10
-29.3798718332
 20
10.5
 11
-30.6798223332
 21
10.5
  0
LINE
  5
61D
100
AcDbEntity
  8
CURVE
100
AcDbLine
 62
250
  6
CONTINUOUS
 10
-32.2512862784
 20
10.6714285493
 11
-32.0655790558
 21
10.6714285493
  0
LINE
  5
61E
100
AcDbEntity
  8
ASSI
100
AcDbLine
 62
7
  6
CONTINUOUS
 10
-25.2798718332
 20
10.752911
 11
-25.3798718332
 21
10.752911
  0
LINE
  5
61F
100
AcDbEntity
  8
RACCORDO
100
AcDbLine
 62
7
  6
CONTINUOUS
 10
-44.8798718332
 20
10.6534906727
 11
-46.2258432909
 21
10.6581890185
  0
LWPOLYLINE
  5
620
100
AcDbEntity
  8
CURVE
100
AcDbPolyline
 62
250
  6
CONTINUOUS
 90
49
 70
0
 10
-38.7453393163
 20
9.60737
 10
-38.7285543599
 20
9.605128494
 10
-38.711671925
 20
9.6034177091
 10
-38.694711549
 20
9.6022361562
 10
-38.6776927693
 20
9.601582346
 10
-38.6606351234
 20
9.6014547894
 10
-38.6435581487
 20
9.6018519971
 10
-38.6264813827
 20
9.6027724801
 10
-38.6094243628
 20
9.604214749
 10
-38.5924066265
 20
9.6061773148
 10
-38.5754477112
 20
9.6086586882
 10
-38.5585671545
 20
9.6116573801
 10
-38.5417844936
 20
9.6151719012
 10
-38.5251192662
 20
9.6192007624
 10
-38.5085910095
 20
9.6237424745
 10
-38.4922192612
 20
9.6287955484
 10
-38.4760235586
 20
9.6343584947
 10
-38.4600223207
 20
9.640428619
 10
-38.4442294928
 20
9.6469984048
 10
-38.4286579015
 20
9.6540591301
 10
-38.4133203737
 20
9.6616020733
 10
-38.398229736
 20
9.6696185123
 10
-38.3833988153
 20
9.6780997253
 10
-38.3688404383
 20
9.6870369905
 10
-38.3545674318
 20
9.6964215859
 10
-38.3405926224
 20
9.7062447898
 10
-38.326928837
 20
9.7164978802
 10
-38.3135889022
 20
9.7271721353
 10
-38.300585645
 20
9.7382588333
 10
-38.2879318919
 20
9.7497492522
 10
-38.2756404697
 20
9.7616346702
 10
-38.2637242053
 20
9.7739063654
 10
-38.2521959253
 20
9.7865556159
 10
-38.2410677469
 20
9.7995722166
 10
-38.2303489486
 20
9.8129400282
 10
-38.2200480994
 20
9.8266414286
 10
-38.2101737681
 20
9.840658795
 10
-38.2007345237
 20
9.8549745053
 10
-38.1917389351
 20
9.8695709369
 10
-38.1831955712
 20
9.8844304673
 10
-38.175113001
 20
9.8995354742
 10
-38.1674997933
 20
9.9148683351
 10
-38.1603645171
 20
9.9304114276
 10
-38.1537157413
 20
9.9461471292
 10
-38.1475620348
 20
9.9620578176
 10
-38.1419119665
 20
9.9781258702
 10
-38.1367741054
 20
9.9943336646
 10
-38.1321570204
 20
10.0106635785
 10
-38.1280692804
 20
10.0270979893
  0
LINE
  5
621
100
AcDbEntity
  8
CURVE
100
AcDbLine
 62
250
  6
CONTINUOUS
 10
-41.1267479524
 20
9.693009
 11
-38.1280693265
 21
8.914354
  0
LINE
  5
622
100
AcDbEntity
  8
CURVE
100
AcDbLine
 62
250
  6
CONTINUOUS
 10
-42.625750791
 20
10.082249
 11
-41.7325078188
 21
9.850305
  0
LINE
  5
623
100
AcDbEntity
  8
CURVE
100
AcDbLine
 62
250
  6
CONTINUOUS
 10
-38.7453393163
 20
9.60737
 11
-40.8085461861
 21
10.143115
  0
LINE
  5
624
100
AcDbEntity
  8
CURVE
100
AcDbLine
 62
250
  6
CONTINUOUS
 10
-40.662903278
 20
11.018125
 11
-38.7712963394
 21
10.526939
  0
LINE
  5
625
100
AcDbEntity
  8
CURVE
100
AcDbLine
 62
250
  6
CONTINUOUS
 10
-36.3067101435
 20
10.5
 11
-36.8781169226
 21
11.071428597
  0
LWPOLYLINE
  5
626
100
AcDbEntity
  8
CURVE
100
AcDbPolyline
 62
250
  6
CONTINUOUS
 90
21
 70
0
 10
-40.3085961783
 20
16.452936131
 10
-40.3160994401
 20
16.4634467622
 10
-40.323981834
 20
16.4737330836
 10
-40.3322395239
 20
16.4837547276
 10
-40.3408686734
 20
16.4934713262
 10
-40.3498654462
 20
16.5028425118
 10
-40.3592260058
 20
16.5118279165
 10
-40.3689465161
 20
16.5203871725
 10
-40.3790231408
 20
16.5284799121
 10
-40.3894520434
 20
16.5360657675
 10
-40.4002492121
 20
16.5431344693
 10
-40.4113587528
 20
16.5496991294
 10
-40.4227429736
 20
16.5558055058
 10
-40.4343641824
 20
16.5614993568
 10
-40.4461846873
 20
16.5668264404
 10
-40.4581667964
 20
16.5718325149
 10
-40.4702728177
 20
16.5765633384
 10
-40.4824650593
 20
16.581064669
 10
-40.4947058291
 20
16.585382265
 10
-40.5104907778
 20
16.5907464581
 10
-40.542044272
 20
16.6011967369
  0
LINE
  5
627
100
AcDbEntity
  8
CURVE
100
AcDbLine
 62
250
  6
CONTINUOUS
 10
-33.0797814502
 20
6.5
 11
-31.8798718332
 21
4.476331
  0
LINE
  5
628
100
AcDbEntity
  8
0
100
AcDbLine
 62
250
  6
CONTINUOUS
 10
-28.7084448905
 20
-10.932113
 11
-28.7084448905
 21
-10.582053
  0
LINE
  5
629
100
AcDbEntity
  8
CURVE
100
AcDbLine
 62
250
  6
CONTINUOUS
 10
-28.4799898685
 20
10.5
 11
-28.4799898685
 21
10.9410714391
  0
LINE
  5
62A
100
AcDbEntity
  8
CURVE
100
AcDbLine
 62
250
  6
CONTINUOUS
 10
-28.4799898685
 20
12.2642857563
 11
-28.4799898685
 21
12.7053571218
  0
LINE
  5
62B
100
AcDbEntity
  8
CURVE
100
AcDbLine
 62
250
  6
CONTINUOUS
 10
-28.4799898685
 20
13.5580953503
 11
-28.4799898685
 21
13.8227380812
  0
LINE
  5
62C
100
AcDbEntity
  8
CURVE
100
AcDbLine
 62
250
  6
CONTINUOUS
 10
-28.4799898685
 20
14.3520238376
 11
-28.4799898685
 21
15.0577380812
  0
LINE
  5
62D
100
AcDbEntity
  8
CURVE
100
AcDbLine
 62
250
  6
CONTINUOUS
 10
-28.4799898685
 20
15.4105953503
 11
-28.4799898685
 21
16.1163092995
  0
LINE
  5
62E
100
AcDbEntity
  8
CURVE
100
AcDbLine
 62
250
  6
CONTINUOUS
 10
-28.4799898685
 20
16.6455953503
 11
-28.4799898685
 21
16.9102383757
  0
LINE
  5
62F
100
AcDbEntity
  8
0
100
AcDbLine
 62
250
  6
CONTINUOUS
 10
-28.3359950728
 20
-10.582053
 11
-28.3359950728
 21
-10.932113
  0
LINE
  5
630
100
AcDbEntity
  8
0
100
AcDbLine
 62
250
  6
CONTINUOUS
 10
-28.2435825917
 20
-12.21193
 11
-28.2435825917
 21
-11.38859
  0
LINE
  5
631
100
AcDbEntity
  8
0
100
AcDbLine
 62
250
  6
CONTINUOUS
 10
-28.0279548025
 20
-11.38859
 11
-28.0279548025
 21
-12.21193
  0
LINE
  5
632
100
AcDbEntity
  8
CURVE
100
AcDbLine
 62
250
  6
CONTINUOUS
 10
-27.7371610169
 20
10.9410714391
 11
-27.7371610169
 21
10.5
  0
LINE
  5
633
100
AcDbEntity
  8
CURVE
100
AcDbLine
 62
250
  6
CONTINUOUS
 10
-27.1800393685
 20
16.9102383757
 11
-27.1800393685
 21
16.6455953503
  0
LINE
  5
634
100
AcDbEntity
  8
CURVE
100
AcDbLine
 62
250
  6
CONTINUOUS
 10
-27.1800393685
 20
13.8227380812
 11
-27.1800393685
 21
13.5580953503
  0
LINE
  5
635
100
AcDbEntity
  8
CURVE
100
AcDbLine
 62
250
  6
CONTINUOUS
 10
-27.1800393685
 20
12.7053571218
 11
-27.1800393685
 21
12.2642857563
  0
LWPOLYLINE
  5
636
100
AcDbEntity
  8
0
100
AcDbPolyline
 62
250
  6
CONTINUOUS
 90
32
 70
0
 10
-27.3466162875
 20
-3.237598426
 10
-27.3471197096
 20
-3.2827465125
 10
-27.3486286895
 20
-3.3279186531
 10
-27.3511412983
 20
-3.3730887934
 10
-27.3546556067
 20
-3.4182308789
 10
-27.3591696857
 20
-3.4633188552
 10
-27.3646816059
 20
-3.5083266679
 10
-27.3711894384
 20
-3.5532282625
 10
-27.378691254
 20
-3.5979975846
 10
-27.3871851235
 20
-3.6426085798
 10
-27.3966691177
 20
-3.6870351936
 10
-27.4071413076
 20
-3.7312513717
 10
-27.4185997639
 20
-3.7752310596
 10
-27.4310425576
 20
-3.8189482028
 10
-27.4444677594
 20
-3.862376747
 10
-27.4588734402
 20
-3.9054906377
 10
-27.474257671
 20
-3.9482638204
 10
-27.4911113897
 20
-3.9919109588
 10
-27.5089832853
 20
-4.0351468957
 10
-27.5278567008
 20
-4.0779490535
 10
-27.5477149794
 20
-4.1202948545
 10
-27.5685414643
 20
-4.1621617211
 10
-27.5903194988
 20
-4.2035270755
 10
-27.6130324259
 20
-4.2443683401
 10
-27.6366635889
 20
-4.2846629372
 10
-27.6611963309
 20
-4.3243882891
 10
-27.6866139951
 20
-4.3635218181
 10
-27.7128999247
 20
-4.4020409466
 10
-27.7400374629
 20
-4.4399230969
 10
-27.7680099528
 20
-4.4771456912
 10
-27.7968007377
 20
-4.513686152
 10
-27.8263931607
 20
-4.5495219014
  0
LINE
  5
637
100
AcDbEntity
  8
CURVE
100
AcDbLine
 62
250
  6
CONTINUOUS
 10
-37.3799289486
 20
-15.4811039828
 11
-37.122795898
 21
-15.193104
  0
LWPOLYLINE
  5
638
100
AcDbEntity
  8
0
100
AcDbPolyline
 62
250
  6
CONTINUOUS
 90
79
 70
0
 10
-28.304439639
 20
-4.3189546988
 10
-28.2592996087
 20
-4.2718094402
 10
-28.2161216399
 20
-4.2226457708
 10
-28.1749936624
 20
-4.1715913319
 10
-28.1360036061
 20
-4.1187737648
 10
-28.0992394008
 20
-4.0643207106
 10
-28.0647889765
 20
-4.0083598106
 10
-28.0327402629
 20
-3.9510187061
 10
-28.0031811899
 20
-3.8924250383
 10
-27.9761996873
 20
-3.8327064484
 10
-27.9536367545
 20
-3.776659289
 10
-27.9333593026
 20
-3.7198338115
 10
-27.9153792374
 20
-3.6623023421
 10
-27.8997084649
 20
-3.604137207
 10
-27.886358891
 20
-3.5454107324
 10
-27.8768443185
 20
-3.4950954378
 10
-27.8690291146
 20
-3.4444881829
 10
-27.8629260909
 20
-3.393650506
 10
-27.8584832919
 20
-3.3417438362
 10
-27.8558200796
 20
-3.2897104312
 10
-27.8549299001
 20
-3.237598426
 10
-27.8561651796
 20
-3.1757575304
 10
-27.8598833177
 20
-3.1139883948
 10
-27.8660819564
 20
-3.0524056397
 10
-27.8747587375
 20
-2.9911238857
 10
-27.8859113028
 20
-2.9302577532
 10
-27.8990948433
 20
-2.8716988458
 10
-27.9145897142
 20
-2.8137163802
 10
-27.9323784251
 20
-2.7563875562
 10
-27.9524434856
 20
-2.6997895733
 10
-27.9747674053
 20
-2.6439996313
 10
-28.0014794245
 20
-2.5845490005
 10
-28.0307536906
 20
-2.526245282
 10
-28.0625206631
 20
-2.4691959498
 10
-28.0967108018
 20
-2.4135084777
 10
-28.1332545663
 20
-2.3592903398
 10
-28.1720824161
 20
-2.30664901
 10
-28.2131248111
 20
-2.2556919622
 10
-28.2563122108
 20
-2.2065266705
 10
-28.3015750749
 20
-2.1592606086
 10
-28.3488375983
 20
-2.1139949075
 10
-28.3979989173
 20
-2.0708053258
 10
-28.4489519035
 20
-2.0297612789
 10
-28.5015894285
 20
-1.9909321823
 10
-28.5558043638
 20
-1.9543874514
 10
-28.6114895811
 20
-1.9201965017
 10
-28.6685379518
 20
-1.8884287487
 10
-28.7268423477
 20
-1.8591536079
 10
-28.7862956402
 20
-1.8324404947
 10
-28.8420896278
 20
-1.8101153276
 10
-28.8986910921
 20
-1.7900490158
 10
-28.9560202847
 20
-1.772259339
 10
-29.0139974575
 20
-1.7567640768
 10
-29.0725428622
 20
-1.7435810088
 10
-29.1333860699
 20
-1.7324299139
 10
-29.1946443319
 20
-1.723754789
 10
-29.2562138871
 20
-1.7175569533
 10
-29.3179909743
 20
-1.713837726
 10
-29.3798718324
 20
-1.7125984263
 10
-29.4417526983
 20
-1.7138398455
 10
-29.5035298011
 20
-1.7175606624
 10
-29.5650993679
 20
-1.723759028
 10
-29.6263576261
 20
-1.7324330931
 10
-29.6872008026
 20
-1.7435810088
 10
-29.7457461475
 20
-1.7567589659
 10
-29.8037232571
 20
-1.7722491477
 10
-29.8610524164
 20
-1.7900362995
 10
-29.9176539106
 20
-1.8101051667
 10
-29.9734480247
 20
-1.8324404947
 10
-30.0329015836
 20
-1.8591747393
 10
-30.0912063324
 20
-1.8884777531
 10
-30.148255077
 20
-1.9202749673
 10
-30.2039406235
 20
-1.9544918131
 10
-30.2581557777
 20
-1.9910537218
 10
-30.3107933455
 20
-2.0298861244
 10
-30.3617461329
 20
-2.0709144523
 10
-30.4109069457
 20
-2.1140641366
 10
-30.45816859
 20
-2.1592606086
 10
-30.503430185
 20
-2.206426788
  0
LWPOLYLINE
  5
639
100
AcDbEntity
  8
CURVE
100
AcDbPolyline
 62
250
  6
CONTINUOUS
 90
43
 70
0
 10
-38.6258354175
 20
12.396454
 10
-38.6098203824
 20
12.3983908418
 10
-38.5938430381
 20
12.4007785285
 10
-38.5779175681
 20
12.4036129492
 10
-38.5620581561
 20
12.4068899928
 10
-38.5462789858
 20
12.4106055483
 10
-38.5305942407
 20
12.4147555046
 10
-38.5150181045
 20
12.4193357509
 10
-38.4995647608
 20
12.424342176
 10
-38.4842483933
 20
12.4297706689
 10
-38.4690831856
 20
12.4356171186
 10
-38.4540833213
 20
12.4418774142
 10
-38.439262984
 20
12.4485474445
 10
-38.4246363574
 20
12.4556230986
 10
-38.4102176251
 20
12.4631002654
 10
-38.3960200834
 20
12.4709743084
 10
-38.3820534796
 20
12.4792384888
 10
-38.3683266736
 20
12.4878855422
 10
-38.3548485253
 20
12.4969082043
 10
-38.3416278947
 20
12.5062992108
 10
-38.3286736417
 20
12.5160512973
 10
-38.3159946262
 20
12.5261571995
 10
-38.3035997081
 20
12.5366096531
 10
-38.2914977474
 20
12.5474013936
 10
-38.2796976041
 20
12.5585251568
 10
-38.2682081379
 20
12.5699736782
 10
-38.257038209
 20
12.5817396937
 10
-38.2461966772
 20
12.5938159388
 10
-38.2356924023
 20
12.6061951492
 10
-38.2255339032
 20
12.6188690873
 10
-38.2157283328
 20
12.6318256231
 10
-38.206282503
 20
12.645051653
 10
-38.1972032258
 20
12.6585340738
 10
-38.1884973129
 20
12.672259782
 10
-38.1801715762
 20
12.6862156744
 10
-38.1722328274
 20
12.7003886475
 10
-38.1646878785
 20
12.714765598
 10
-38.1575435413
 20
12.7293334225
 10
-38.1508066277
 20
12.7440790176
 10
-38.1444839494
 20
12.75898928
 10
-38.1385823183
 20
12.7740511063
 10
-38.1331085463
 20
12.7892513932
 10
-38.1280694451
 20
12.8045770372
  0
LINE
  5
63A
100
AcDbEntity
  8
CURVE
100
AcDbLine
 62
250
  6
CONTINUOUS
 10
-36.8781169226
 20
11.071428597
 11
-34.8781930765
 21
11.071428597
  0
LINE
  5
63B
100
AcDbEntity
  8
CURVE
100
AcDbLine
 62
250
  6
CONTINUOUS
 10
-28.2942826653
 20
11.1175
 11
-27.9228682589
 21
11.1175
  0
LINE
  5
63C
100
AcDbEntity
  8
ASSI
100
AcDbLine
 62
7
  6
CONTINUOUS
 10
-25.2798718332
 20
11.275804
 11
-25.3798718332
 21
11.275804
  0
LINE
  5
63D
100
AcDbEntity
  8
CURVE
100
AcDbLine
 62
250
  6
CONTINUOUS
 10
-30.6798223332
 20
11.3171428937
 11
-29.3798718332
 21
11.3171428937
  0
LINE
  5
63E
100
AcDbEntity
  8
CURVE
100
AcDbLine
 62
250
  6
CONTINUOUS
 10
-36.4495617787
 20
11.6428571939
 11
-36.8781169226
 21
11.6428571939
  0
LINE
  5
63F
100
AcDbEntity
  8
CURVE
100
AcDbLine
 62
250
  6
CONTINUOUS
 10
-27.1800393685
 20
11.705595203
 11
-28.4799898685
 21
11.705595203
  0
LINE
  5
640
100
AcDbEntity
  8
CURVE
100
AcDbLine
 62
250
  6
CONTINUOUS
 10
-29.5655790558
 20
11.7257142979
 11
-30.49411513
 21
11.7257142979
  0
LINE
  5
641
100
AcDbEntity
  8
ASSI
100
AcDbLine
 62
7
  6
CONTINUOUS
 10
-25.2798718332
 20
12.122405
 11
-25.3798718332
 21
12.122405
  0
LINE
  5
642
100
AcDbEntity
  8
CURVE
100
AcDbLine
 62
250
  6
CONTINUOUS
 10
-27.1800393685
 20
12.2642857563
 11
-28.4799898685
 21
12.2642857563
  0
LINE
  5
643
100
AcDbEntity
  8
ASSI
100
AcDbLine
 62
7
  6
CONTINUOUS
 10
-25.3798718332
 20
12.306459
 11
-25.2798718332
 21
12.306459
  0
LINE
  5
644
100
AcDbEntity
  8
0
100
AcDbLine
 62
7
  6
CONTINUOUS
 10
-25.3798718332
 20
12.306459
 11
-25.2798718332
 21
12.306459
  0
LINE
  5
645
100
AcDbEntity
  8
CURVE
100
AcDbLine
 62
250
  6
CONTINUOUS
 10
-30.49411513
 20
12.4407142127
 11
-29.5655790558
 21
12.4407142127
  0
LINE
  5
646
100
AcDbEntity
  8
ASSI
100
AcDbLine
 62
7
  6
CONTINUOUS
 10
-25.2798718332
 20
12.49575
 11
-25.3798718332
 21
12.49575
  0
LINE
  5
647
100
AcDbEntity
  8
CURVE
100
AcDbLine
 62
250
  6
CONTINUOUS
 10
-29.3798718332
 20
12.8492857873
 11
-30.6798223332
 21
12.8492857873
  0
LINE
  5
648
100
AcDbEntity
  8
CURVE
100
AcDbLine
 62
250
  6
CONTINUOUS
 10
-28.2942826653
 20
12.8817857563
 11
-27.3657465911
 21
12.8817857563
  0
LINE
  5
649
100
AcDbEntity
  8
CURVE
100
AcDbLine
 62
250
  6
CONTINUOUS
 10
-40.812250904
 20
11.539863
 11
-38.4444102345
 21
10.925015
  0
LINE
  5
64A
100
AcDbEntity
  8
CURVE
100
AcDbLine
 62
250
  6
CONTINUOUS
 10
-42.625750791
 20
12.947292
 11
-38.1280693265
 21
11.779396
  0
LINE
  5
64B
100
AcDbEntity
  8
CURVE
100
AcDbLine
 62
250
  6
CONTINUOUS
 10
-40.853283779
 20
12.974847
 11
-38.6258354175
 21
12.396454
  0
LINE
  5
64C
100
AcDbEntity
  8
CURVE
100
AcDbLine
 62
250
  6
CONTINUOUS
 10
-41.1267479524
 20
11.638833
 11
-42.1820445829
 21
11.925227
  0
LINE
  5
64D
100
AcDbEntity
  8
CURVE
100
AcDbLine
 62
250
  6
CONTINUOUS
 10
-36.8781169226
 20
12.6428570747
 11
-34.8781930765
 21
12.0714285374
  0
LWPOLYLINE
  5
64E
100
AcDbEntity
  8
CURVE
100
AcDbPolyline
 62
250
  6
CONTINUOUS
 90
46
 70
0
 10
-40.6021049201
 20
13.8263409799
 10
-40.613190928
 20
13.8330470372
 10
-40.6240899243
 20
13.8400946252
 10
-40.6347918534
 20
13.8474747568
 10
-40.6452866597
 20
13.8551784447
 10
-40.6555642875
 20
13.8631967019
 10
-40.6656146814
 20
13.8715205412
 10
-40.6754277856
 20
13.8801409754
 10
-40.6849935446
 20
13.8890490174
 10
-40.6943019027
 20
13.8982356799
 10
-40.7033428044
 20
13.9076919759
 10
-40.7121061941
 20
13.9174089183
 10
-40.7205820161
 20
13.9273775197
 10
-40.7287602148
 20
13.9375887931
 10
-40.7366307347
 20
13.9480337514
 10
-40.7441835201
 20
13.9587034073
 10
-40.7514095404
 20
13.9695886356
 10
-40.7583038652
 20
13.980679758
 10
-40.7648625889
 20
13.9919669583
 10
-40.7710818062
 20
14.0034404201
 10
-40.7769576115
 20
14.0150903271
 10
-40.7824860994
 20
14.026906863
 10
-40.7876633643
 20
14.0388802114
 10
-40.7924855009
 20
14.0510005561
 10
-40.7969486036
 20
14.0632580806
 10
-40.801048767
 20
14.0756429687
 10
-40.8047820856
 20
14.0881454041
 10
-40.8081446539
 20
14.1007555703
 10
-40.8111325665
 20
14.1134636512
 10
-40.8137419178
 20
14.1262598303
 10
-40.8159688025
 20
14.1391342913
 10
-40.8178101547
 20
14.1520766141
 10
-40.819266268
 20
14.1650739632
 10
-40.8203382753
 20
14.1781128992
 10
-40.8210273098
 20
14.1911799828
 10
-40.8213345046
 20
14.2042617748
 10
-40.8212609929
 20
14.2173448357
 10
-40.8208079078
 20
14.2304157263
 10
-40.8199763824
 20
14.2434610073
 10
-40.8187675498
 20
14.2564672392
 10
-40.8171825432
 20
14.2694209829
 10
-40.8152224956
 20
14.2823087988
 10
-40.8128885403
 20
14.2951172479
 10
-40.8101818102
 20
14.3078328906
 10
-40.8071034387
 20
14.3204422878
 10
-40.8036545586
 20
14.332932
  0
LINE
  5
64F
100
AcDbEntity
  8
CURVE
100
AcDbLine
 62
250
  6
CONTINUOUS
 10
-36.5924135331
 20
13.3571429253
 11
-36.8781169226
 21
13.6428570747
  0
LINE
  5
650
100
AcDbEntity
  8
CURVE
100
AcDbLine
 62
250
  6
CONTINUOUS
 10
-33.1798223332
 20
10.2071428239
 11
-32.99411513
 21
10.0214285493
  0
LINE
  5
651
100
AcDbEntity
  8
CURVE
100
AcDbLine
 62
250
  6
CONTINUOUS
 10
-36.3067101435
 20
14.7857141495
 11
-36.8781169226
 21
15.3571429253
  0
LINE
  5
652
100
AcDbEntity
  8
CURVE
100
AcDbLine
 62
250
  6
CONTINUOUS
 10
-30.6799622162
 20
6.5
 11
-31.8798718332
 21
8.523669
  0
LWPOLYLINE
  5
653
100
AcDbEntity
  8
ASSI
100
AcDbPolyline
 62
250
  6
CONTINUOUS
 90
5
 70
0
 10
-25.8741112689
 20
18.8496413208
 10
-25.8743739404
 20
18.86839808
 10
-25.8746968421
 20
18.8819456582
 10
-25.8750764366
 20
18.8901356397
 10
-25.8755085654
 20
18.8928783021
  0
LWPOLYLINE
  5
654
100
AcDbEntity
  8
RACCORDO
100
AcDbPolyline
 62
250
  6
CONTINUOUS
 90
5
 70
0
 10
-25.8741112689
 20
18.8496413208
 10
-25.8743739404
 20
18.86839808
 10
-25.8746968421
 20
18.8819456582
 10
-25.8750764366
 20
18.8901356397
 10
-25.8755085654
 20
18.8928783021
  0
LINE
  5
655
100
AcDbEntity
  8
ASSI
100
AcDbLine
 62
250
  6
CONTINUOUS
 10
-25.8743739404
 20
-18.5473927127
 11
-25.8755085654
 21
-18.3928973406
  0
LINE
  5
656
100
AcDbEntity
  8
RACCORDO
100
AcDbLine
 62
250
  6
CONTINUOUS
 10
-25.8743739404
 20
-18.5473927127
 11
-25.8755085654
 21
-18.3928973406
  0
LINE
  5
657
100
AcDbEntity
  8
ASSI
100
AcDbLine
 62
250
  6
CONTINUOUS
 10
-25.8737774357
 20
18.7973770082
 11
-25.8741112689
 21
18.8496413208
  0
LINE
  5
658
100
AcDbEntity
  8
RACCORDO
100
AcDbLine
 62
250
  6
CONTINUOUS
 10
-25.8737774357
 20
18.7973770082
 11
-25.8741112689
 21
18.8496413208
  0
LINE
  5
659
100
AcDbEntity
  8
ASSI
100
AcDbLine
 62
250
  6
CONTINUOUS
 10
-25.8737774357
 20
-18.6867664557
 11
-25.8743739404
 21
-18.5473927127
  0
LINE
  5
65A
100
AcDbEntity
  8
RACCORDO
100
AcDbLine
 62
250
  6
CONTINUOUS
 10
-25.8737774357
 20
-18.6867664557
 11
-25.8743739404
 21
-18.5473927127
  0
LINE
  5
65B
100
AcDbEntity
  8
0
100
AcDbLine
 62
250
  6
CONTINUOUS
 10
-26.3299879678
 20
-6.2875984252
 11
-26.3299879678
 21
-5.2709324885
  0
LINE
  5
65C
100
AcDbEntity
  8
ASSI
100
AcDbLine
 62
250
  6
CONTINUOUS
 10
-25.8755085654
 20
-18.3928973406
 11
-25.8755085654
 21
-14.8043367793
  0
LINE
  5
65D
100
AcDbEntity
  8
RACCORDO
100
AcDbLine
 62
250
  6
CONTINUOUS
 10
-25.8755085654
 20
-18.3928973406
 11
-25.8755085654
 21
-14.8043367793
  0
LINE
  5
65E
100
AcDbEntity
  8
ASSI
100
AcDbLine
 62
250
  6
CONTINUOUS
 10
-25.8755085654
 20
-8.7956632207
 11
-25.8755085654
 21
18.3928973406
  0
LINE
  5
65F
100
AcDbEntity
  8
RACCORDO
100
AcDbLine
 62
250
  6
CONTINUOUS
 10
-25.8755085654
 20
-8.7956632207
 11
-25.8755085654
 21
18.3928973406
  0
LINE
  5
660
100
AcDbEntity
  8
ASSI
100
AcDbLine
 62
250
  6
CONTINUOUS
 10
-25.8737099311
 20
-18.764442018
 11
-25.8737774357
 21
-18.6867664557
  0
LINE
  5
661
100
AcDbEntity
  8
RACCORDO
100
AcDbLine
 62
250
  6
CONTINUOUS
 10
-25.8737099311
 20
-18.764442018
 11
-25.8737774357
 21
-18.6867664557
  0
LINE
  5
662
100
AcDbEntity
  8
ASSI
100
AcDbLine
 62
250
  6
CONTINUOUS
 10
-25.8737099311
 20
18.7274367009
 11
-25.8737774357
 21
18.7973770082
  0
LINE
  5
663
100
AcDbEntity
  8
RACCORDO
100
AcDbLine
 62
250
  6
CONTINUOUS
 10
-25.8737099311
 20
18.7274367009
 11
-25.8737774357
 21
18.7973770082
  0
LINE
  5
664
100
AcDbEntity
  8
0
100
AcDbLine
 62
250
  6
CONTINUOUS
 10
-25.7092480951
 20
-12.774826
 11
-25.7092480951
 21
-11.428959
  0
LINE
  5
665
100
AcDbEntity
  8
0
100
AcDbLine
 62
250
  6
CONTINUOUS
 10
-25.5128075752
 20
-12.600497
 11
-25.5128075752
 21
-12.718117
  0
LINE
  5
666
100
AcDbEntity
  8
DRAFT
100
AcDbLine
 62
7
  6
CONTINUOUS
 10
-25.3798718332
 20
-18.3928973406
 11
-25.3798718332
 21
-18.8885529459
  0
LINE
  5
667
100
AcDbEntity
  8
ASSI
100
AcDbLine
 62
7
  6
CONTINUOUS
 10
-25.3798718332
 20
-18.8885529459
 11
-25.3798718332
 21
-15.1
  0
LINE
  5
668
100
AcDbEntity
  8
RACCORDO
100
AcDbLine
 62
7
  6
CONTINUOUS
 10
-25.3798718332
 20
-18.3928973406
 11
-25.3798718332
 21
-15.1
  0
LINE
  5
669
100
AcDbEntity
  8
ASSI
100
AcDbLine
 62
7
  6
CONTINUOUS
 10
-25.3798718332
 20
-8.5
 11
-25.3798718332
 21
18.3928973406
  0
LINE
  5
66A
100
AcDbEntity
  8
RACCORDO
100
AcDbLine
 62
7
  6
CONTINUOUS
 10
-25.3798718332
 20
-8.5
 11
-25.3798718332
 21
18.3928973406
  0
LINE
  5
66B
100
AcDbEntity
  8
0
100
AcDbLine
 62
7
  6
CONTINUOUS
 10
-25.2798718332
 20
17.706826
 11
-25.2798718332
 21
17.468046
  0
LINE
  5
66C
100
AcDbEntity
  8
0
100
AcDbLine
 62
7
  6
CONTINUOUS
 10
-25.2798718332
 20
15.227192
 11
-25.2798718332
 21
14.853847
  0
LINE
  5
66D
100
AcDbEntity
  8
0
100
AcDbLine
 62
7
  6
CONTINUOUS
 10
-25.2798718332
 20
12.49575
 11
-25.2798718332
 21
12.306459
  0
LINE
  5
66E
100
AcDbEntity
  8
0
100
AcDbLine
 62
7
  6
CONTINUOUS
 10
-25.2798718332
 20
8.87727
 11
-25.2798718332
 21
8.823417
  0
LINE
  5
66F
100
AcDbEntity
  8
0
100
AcDbLine
 62
7
  6
CONTINUOUS
 10
-25.2798718332
 20
8.263396
 11
-25.2798718332
 21
7.890051
  0
LINE
  5
670
100
AcDbEntity
  8
0
100
AcDbLine
 62
7
  6
CONTINUOUS
 10
-25.2798718332
 20
5.531954
 11
-25.2798718332
 21
4.7169
  0
LINE
  5
671
100
AcDbEntity
  8
ASSI
100
AcDbLine
 62
7
  6
CONTINUOUS
 10
-25.2798718332
 20
4.682648
 11
-25.2798718332
 21
3.24675
  0
LINE
  5
672
100
AcDbEntity
  8
0
100
AcDbLine
 62
7
  6
CONTINUOUS
 10
-25.2798718332
 20
4.682648
 11
-25.2798718332
 21
3.24675
  0
LINE
  5
673
100
AcDbEntity
  8
ASSI
100
AcDbLine
 62
7
  6
CONTINUOUS
 10
-25.2798718332
 20
2.92973
 11
-25.2798718332
 21
1.77866
  0
LINE
  5
674
100
AcDbEntity
  8
0
100
AcDbLine
 62
7
  6
CONTINUOUS
 10
-25.2798718332
 20
2.92973
 11
-25.2798718332
 21
1.77866
  0
LINE
  5
675
100
AcDbEntity
  8
ASSI
100
AcDbLine
 62
7
  6
CONTINUOUS
 10
-25.2798718332
 20
1.522206
 11
-25.2798718332
 21
0.45185
  0
LINE
  5
676
100
AcDbEntity
  8
0
100
AcDbLine
 62
7
  6
CONTINUOUS
 10
-25.2798718332
 20
1.522206
 11
-25.2798718332
 21
0.45185
  0
LINE
  5
677
100
AcDbEntity
  8
ASSI
100
AcDbLine
 62
7
  6
CONTINUOUS
 10
-25.2798718332
 20
0.1868719878
 11
-25.2798718332
 21
-0.89511
  0
LINE
  5
678
100
AcDbEntity
  8
0
100
AcDbLine
 62
7
  6
CONTINUOUS
 10
-25.2798718332
 20
0.1868719878
 11
-25.2798718332
 21
-0.89511
  0
LINE
  5
679
100
AcDbEntity
  8
ASSI
100
AcDbLine
 62
7
  6
CONTINUOUS
 10
-25.2798718332
 20
-1.805868
 11
-25.2798718332
 21
-2.01584
  0
LINE
  5
67A
100
AcDbEntity
  8
0
100
AcDbLine
 62
7
  6
CONTINUOUS
 10
-25.2798718332
 20
-1.805868
 11
-25.2798718332
 21
-2.01584
  0
LINE
  5
67B
100
AcDbEntity
  8
ASSI
100
AcDbLine
 62
7
  6
CONTINUOUS
 10
-25.2798718332
 20
-2.219859
 11
-25.2798718332
 21
-3.397147
  0
LINE
  5
67C
100
AcDbEntity
  8
0
100
AcDbLine
 62
7
  6
CONTINUOUS
 10
-25.2798718332
 20
-2.219859
 11
-25.2798718332
 21
-3.397147
  0
LINE
  5
67D
100
AcDbEntity
  8
ASSI
100
AcDbLine
 62
7
  6
CONTINUOUS
 10
-25.2798718332
 20
-3.451644
 11
-25.2798718332
 21
-4.744107
  0
LINE
  5
67E
100
AcDbEntity
  8
0
100
AcDbLine
 62
7
  6
CONTINUOUS
 10
-25.2798718332
 20
-3.451644
 11
-25.2798718332
 21
-4.744107
  0
LINE
  5
67F
100
AcDbEntity
  8
ASSI
100
AcDbLine
 62
7
  6
CONTINUOUS
 10
-25.2798718332
 20
-4.8636846644
 11
-25.2798718332
 21
-5.945667
  0
LINE
  5
680
100
AcDbEntity
  8
0
100
AcDbLine
 62
7
  6
CONTINUOUS
 10
-25.2798718332
 20
-4.8636846644
 11
-25.2798718332
 21
-5.945667
  0
LINE
  5
681
100
AcDbEntity
  8
ASSI
100
AcDbLine
 62
7
  6
CONTINUOUS
 10
-25.2798718332
 20
-15.300587
 11
-25.2798718332
 21
-17.0
  0
LINE
  5
682
100
AcDbEntity
  8
0
100
AcDbLine
 62
7
  6
CONTINUOUS
 10
-25.2798718332
 20
-15.300587
 11
-25.2798718332
 21
-17.0
  0
LINE
  5
683
100
AcDbEntity
  8
ASSI
100
AcDbLine
 62
7
  6
CONTINUOUS
 10
-25.2798718332
 20
4.7169
 11
-25.2798718332
 21
8.87727
  0
LINE
  5
684
100
AcDbEntity
  8
ASSI
100
AcDbLine
 62
7
  6
CONTINUOUS
 10
-25.2798718332
 20
9.383417
 11
-25.2798718332
 21
12.122405
  0
LINE
  5
685
100
AcDbEntity
  8
ASSI
100
AcDbLine
 62
7
  6
CONTINUOUS
 10
-25.2798718332
 20
12.306459
 11
-25.2798718332
 21
17.706826
  0
LINE
  5
686
100
AcDbEntity
  8
ASSI
100
AcDbLine
 62
250
  6
CONTINUOUS
 10
-25.8739117053
 20
18.6428768307
 11
-25.8737099311
 21
18.7274367009
  0
LINE
  5
687
100
AcDbEntity
  8
RACCORDO
100
AcDbLine
 62
250
  6
CONTINUOUS
 10
-25.8739117053
 20
18.6428768307
 11
-25.8737099311
 21
18.7274367009
  0
LINE
  5
688
100
AcDbEntity
  8
ASSI
100
AcDbLine
 62
250
  6
CONTINUOUS
 10
-25.8743739404
 20
18.5473927127
 11
-25.8739117053
 21
18.6428768307
  0
LINE
  5
689
100
AcDbEntity
  8
RACCORDO
100
AcDbLine
 62
250
  6
CONTINUOUS
 10
-25.8743739404
 20
18.5473927127
 11
-25.8739117053
 21
18.6428768307
  0
LINE
  5
68A
100
AcDbEntity
  8
ASSI
100
AcDbLine
 62
250
  6
CONTINUOUS
 10
-25.8755085654
 20
18.3928973406
 11
-25.8743739404
 21
18.5473927127
  0
LINE
  5
68B
100
AcDbEntity
  8
RACCORDO
100
AcDbLine
 62
250
  6
CONTINUOUS
 10
-25.8755085654
 20
18.3928973406
 11
-25.8743739404
 21
18.5473927127
  0
LWPOLYLINE
  5
68C
100
AcDbEntity
  8
0
100
AcDbPolyline
 62
250
  6
CONTINUOUS
 90
30
 70
0
 10
-26.8907858464
 20
-5.0005449871
 10
-26.8533409613
 20
-4.946536964
 10
-26.817045182
 20
-4.8916873558
 10
-26.7819172367
 20
-4.8360260015
 10
-26.7479758536
 20
-4.77958274
 10
-26.7152397609
 20
-4.7223874104
 10
-26.683727687
 20
-4.6644698515
 10
-26.65345836
 20
-4.6058599023
 10
-26.6244505082
 20
-4.5465874019
 10
-26.5967228599
 20
-4.486682189
 10
-26.5702941432
 20
-4.4261741028
 10
-26.5451830865
 20
-4.3650929822
 10
-26.5214084178
 20
-4.3034686661
 10
-26.4989888656
 20
-4.2413309934
 10
-26.4779431581
 20
-4.1787098032
 10
-26.4589176729
 20
-4.1177378685
 10
-26.4411951414
 20
-4.0563740218
 10
-26.4247769193
 20
-3.9946503915
 10
-26.4096643627
 20
-3.932599106
 10
-26.3958588275
 20
-3.8702522937
 10
-26.3833616697
 20
-3.8076420827
 10
-26.3721742453
 20
-3.7448006016
 10
-26.3622979103
 20
-3.6817599786
 10
-26.3537340205
 20
-3.6185523421
 10
-26.3464839321
 20
-3.5552098204
 10
-26.3405490009
 20
-3.4917645418
 10
-26.3359305829
 20
-3.4282486348
 10
-26.3326300341
 20
-3.3646942276
 10
-26.3306487104
 20
-3.3011334485
 10
-26.3299879678
 20
-3.237598426
  0
LINE
  5
68D
100
AcDbEntity
  8
CURVE
100
AcDbLine
 62
250
  6
CONTINUOUS
 10
-35.5799974871
 20
-15.6251040343
 11
-35.8371305645
 21
-15.9131040172
  0
LINE
  5
68E
100
AcDbEntity
  8
CURVE
100
AcDbLine
 62
250
  6
CONTINUOUS
 10
-37.122795898
 20
-15.193104
 11
-36.8656628474
 21
-15.0491040687
  0
LINE
  5
68F
100
AcDbEntity
  8
CURVE
100
AcDbLine
 62
250
  6
CONTINUOUS
 10
-37.3799289486
 20
-13.897103897
 11
-35.5799974871
 21
-13.3211039313
  0
LINE
  5
690
100
AcDbEntity
  8
CURVE
100
AcDbLine
 62
250
  6
CONTINUOUS
 10
-35.4495999152
 20
13.2142856121
 11
-36.3067101435
 21
13.2142856121
  0
LINE
  5
691
100
AcDbEntity
  8
CURVE
100
AcDbLine
 62
250
  6
CONTINUOUS
 10
-27.3657465911
 20
13.3816665685
 11
-28.2942826653
 21
13.3816665685
  0
LINE
  5
692
100
AcDbEntity
  8
ASSI
100
AcDbLine
 62
7
  6
CONTINUOUS
 10
-25.2798718332
 20
13.394767
 11
-25.3798718332
 21
13.394767
  0
LINE
  5
693
100
AcDbEntity
  8
CURVE
100
AcDbLine
 62
250
  6
CONTINUOUS
 10
-32.99411513
 20
13.4571429014
 11
-32.8084079267
 21
13.4571429014
  0
LINE
  5
694
100
AcDbEntity
  8
CURVE
100
AcDbLine
 62
250
  6
CONTINUOUS
 10
-30.49411513
 20
13.5642856169
 11
-29.5655790558
 21
13.5642856169
  0
LINE
  5
695
100
AcDbEntity
  8
ASSI
100
AcDbLine
 62
7
  6
CONTINUOUS
 10
-25.2798718332
 20
13.954816
 11
-25.3798718332
 21
13.954816
  0
LINE
  5
696
100
AcDbEntity
  8
CURVE
100
AcDbLine
 62
250
  6
CONTINUOUS
 10
-28.2942826653
 20
13.9991665685
 11
-27.3657465911
 21
13.9991665685
  0
LINE
  5
697
100
AcDbEntity
  8
CURVE
100
AcDbLine
 62
250
  6
CONTINUOUS
 10
-30.6798223332
 20
14.1430953193
 11
-29.5655790558
 21
14.1430953193
  0
LINE
  5
698
100
AcDbEntity
  8
CURVE
100
AcDbLine
 62
250
  6
CONTINUOUS
 10
-36.3067101435
 20
14.2142856121
 11
-35.4495999152
 21
14.2142856121
  0
LINE
  5
699
100
AcDbEntity
  8
CURVE
100
AcDbLine
 62
250
  6
CONTINUOUS
 10
-32.99411513
 20
14.4785716057
 11
-32.8084079267
 21
14.4785716057
  0
LINE
  5
69A
100
AcDbEntity
  8
CURVE
100
AcDbLine
 62
250
  6
CONTINUOUS
 10
-27.1800393685
 20
14.7048808122
 11
-28.4799898685
 21
14.7048808122
  0
LINE
  5
69B
100
AcDbEntity
  8
ASSI
100
AcDbLine
 62
7
  6
CONTINUOUS
 10
-25.2798718332
 20
14.853847
 11
-25.3798718332
 21
14.853847
  0
LINE
  5
69C
100
AcDbEntity
  8
CURVE
100
AcDbLine
 62
250
  6
CONTINUOUS
 10
-29.5655790558
 20
14.8580953193
 11
-30.6798223332
 21
14.8580953193
  0
LWPOLYLINE
  5
69D
100
AcDbEntity
  8
ASSI
100
AcDbPolyline
 62
250
  6
CONTINUOUS
 90
3
 70
0
 10
-55.0122671078
 20
16.9726487919
 10
-55.0101810902
 20
16.9723004825
 10
-54.7676619303
 20
16.9330050061
  0
LWPOLYLINE
  5
69E
100
AcDbEntity
  8
RACCORDO
100
AcDbPolyline
 62
250
  6
CONTINUOUS
 90
3
 70
0
 10
-55.0122671078
 20
16.9726487919
 10
-55.0101810902
 20
16.9723004825
 10
-54.7676619303
 20
16.9330050061
  0
LWPOLYLINE
  5
69F
100
AcDbEntity
  8
CURVE
100
AcDbPolyline
 62
250
  6
CONTINUOUS
 90
25
 70
0
 10
-38.8900953955
 20
13.3611310873
 10
-38.8941278895
 20
13.3618487522
 10
-38.8981515541
 20
13.3626305212
 10
-38.9021648581
 20
13.3634761912
 10
-38.9061662705
 20
13.3643855595
 10
-38.9101542602
 20
13.3653584232
 10
-38.9141272961
 20
13.3663945793
 10
-38.918083847
 20
13.3674938249
 10
-38.9220223819
 20
13.3686559573
 10
-38.9259413696
 20
13.3698807734
 10
-38.9298392791
 20
13.3711680704
 10
-38.9337145792
 20
13.3725176454
 10
-38.937565739
 20
13.3739292956
 10
-38.9413912271
 20
13.3754028179
 10
-38.9451895127
 20
13.3769380096
 10
-38.9489590645
 20
13.3785346677
 10
-38.9526983514
 20
13.3801925893
 10
-38.9564058424
 20
13.3819115716
 10
-38.9600800063
 20
13.3836914117
 10
-38.9637193121
 20
13.3855319066
 10
-38.9673222287
 20
13.3874328535
 10
-38.9708872249
 20
13.3893940495
 10
-38.9744127696
 20
13.3914152917
 10
-38.9778973318
 20
13.3934963772
 10
-38.9813393803
 20
13.3956371031
  0
LWPOLYLINE
  5
6A0
100
AcDbEntity
  8
CURVE
100
AcDbPolyline
 62
250
  6
CONTINUOUS
 90
83
 70
0
 10
-38.5658362296
 20
13.768713092
 10
-38.5558663505
 20
13.7667674015
 10
-38.545925834
 20
13.7646705035
 10
-38.5360204911
 20
13.7623267001
 10
-38.5261561329
 20
13.7596402937
 10
-38.5197500332
 20
13.7576586708
 10
-38.5133932979
 20
13.7554716656
 10
-38.5071153735
 20
13.7530604535
 10
-38.5009457063
 20
13.7504062097
 10
-38.4949137426
 20
13.7474901095
 10
-38.489048929
 20
13.744293328
 10
-38.4833807118
 20
13.7407970406
 10
-38.4779385374
 20
13.7369824224
 10
-38.4727518521
 20
13.7328306487
 10
-38.4677739015
 20
13.7282585689
 10
-38.4631015018
 20
13.7233471573
 10
-38.4587464342
 20
13.7181240992
 10
-38.4547204799
 20
13.7126170797
 10
-38.4510354203
 20
13.706853784
 10
-38.4477030364
 20
13.7008618974
 10
-38.4447351096
 20
13.6946691052
 10
-38.4421434211
 20
13.6883030924
 10
-38.439939752
 20
13.6817915444
 10
-38.4381618547
 20
13.6752769248
 10
-38.4367717224
 20
13.6686745243
 10
-38.4357709483
 20
13.6620103945
 10
-38.4351611255
 20
13.6553105871
 10
-38.4349438474
 20
13.6486011537
 10
-38.4351207071
 20
13.6419081461
 10
-38.4356932977
 20
13.6352576158
 10
-38.4366632127
 20
13.6286756145
 10
-38.438032045
 20
13.6221881939
 10
-38.4398176233
 20
13.6157419678
 10
-38.4419735445
 20
13.6094122561
 10
-38.4444602003
 20
13.6031920975
 10
-38.4472379825
 20
13.5970745306
 10
-38.4502672827
 20
13.5910525939
 10
-38.4535084926
 20
13.5851193262
 10
-38.456922004
 20
13.5792677659
 10
-38.4604682085
 20
13.5734909518
 10
-38.4641074979
 20
13.5677819224
 10
-38.4726171566
 20
13.5549853791
 10
-38.4813812688
 20
13.5424536749
 10
-38.4903762314
 20
13.5301353916
 10
-38.4995784411
 20
13.5179791107
 10
-38.5068632331
 20
13.5086252301
 10
-38.5142984366
 20
13.4993759241
 10
-38.5219236453
 20
13.4902690367
 10
-38.5297784529
 20
13.4813424116
 10
-38.5379024531
 20
13.4726338927
 10
-38.5464113463
 20
13.464096028
 10
-38.5552223274
 20
13.4558393603
 10
-38.5643225623
 20
13.4478840509
 10
-38.5736992169
 20
13.4402502612
 10
-38.5833394571
 20
13.4329581524
 10
-38.5932304489
 20
13.4260278858
 10
-38.6033593582
 20
13.4194796226
 10
-38.6137133508
 20
13.4133335242
 10
-38.6242795928
 20
13.4076097518
 10
-38.63504525
 20
13.4023284666
 10
-38.6459462318
 20
13.3975213619
 10
-38.6570153133
 20
13.3931358406
 10
-38.6682357183
 20
13.3891350661
 10
-38.6795906709
 20
13.3854822017
 10
-38.6910633947
 20
13.3821404107
 10
-38.7026371137
 20
13.3790728564
 10
-38.7142950518
 20
13.3762427022
 10
-38.7260204327
 20
13.3736131113
 10
-38.7377964803
 20
13.3711472471
 10
-38.7496064185
 20
13.3688082729
 10
-38.7603588737
 20
13.3667718499
 10
-38.7711247504
 20
13.3648457195
 10
-38.7819033288
 20
13.3630657656
 10
-38.7926938893
 20
13.3614678722
 10
-38.803495712
 20
13.3600879232
 10
-38.8143080773
 20
13.3589618026
 10
-38.8251302654
 20
13.3581253944
 10
-38.8359615566
 20
13.3576145823
 10
-38.8468012311
 20
13.3574652504
 10
-38.8576485693
 20
13.3577132827
 10
-38.8685028514
 20
13.358394563
 10
-38.879310556
 20
13.3595322547
 10
-38.8900953955
 20
13.3611310873
  0
LINE
  5
6A1
100
AcDbEntity
  8
CURVE
100
AcDbLine
 62
250
  6
CONTINUOUS
 10
-33.1798223332
 20
12.1571429014
 11
-31.8798718332
 21
11.8785712957
  0
LWPOLYLINE
  5
6A2
100
AcDbEntity
  8
CURVE
100
AcDbPolyline
 62
250
  6
CONTINUOUS
 90
53
 70
0
 10
-38.7285725932
 20
15.188968
 10
-38.7123232983
 20
15.1850582699
 10
-38.6959108562
 20
15.1817222971
 10
-38.6793597399
 20
15.1789616385
 10
-38.6626944222
 20
15.1767778506
 10
-38.6459393759
 20
15.1751724901
 10
-38.629119074
 20
15.1741471138
 10
-38.6122579892
 20
15.1737032783
 10
-38.5953805944
 20
15.1738425403
 10
-38.5785113625
 20
15.1745664565
 10
-38.5616747664
 20
15.1758765835
 10
-38.5448952789
 20
15.177774478
 10
-38.5281973729
 20
15.1802616968
 10
-38.5116055212
 20
15.1833397964
 10
-38.4951431275
 20
15.1870085336
 10
-38.4788293186
 20
15.1912604644
 10
-38.4626821522
 20
15.196086345
 10
-38.4467196858
 20
15.2014769315
 10
-38.4309599772
 20
15.20742298
 10
-38.415421084
 20
15.2139152467
 10
-38.4001210637
 20
15.2209444876
 10
-38.3850779741
 20
15.2285014589
 10
-38.3703098728
 20
15.2365769167
 10
-38.3558348174
 20
15.245161617
 10
-38.3416708655
 20
15.2542463161
 10
-38.3278360747
 20
15.2638217699
 10
-38.3143485028
 20
15.2738787347
 10
-38.3012254452
 20
15.2844069811
 10
-38.2884811487
 20
15.2953923382
 10
-38.2761290979
 20
15.3068196498
 10
-38.2641827775
 20
15.3186737595
 10
-38.2526556721
 20
15.3309395109
 10
-38.2415612665
 20
15.3436017478
 10
-38.2309130452
 20
15.356645314
 10
-38.2207244929
 20
15.3700550529
 10
-38.2110090943
 20
15.3838158084
 10
-38.201780334
 20
15.3979124242
 10
-38.1930516966
 20
15.4123297439
 10
-38.1848366669
 20
15.4270526112
 10
-38.1771487294
 20
15.4420658698
 10
-38.1699998954
 20
15.4573528761
 10
-38.163396282
 20
15.4728910369
 10
-38.157342533
 20
15.4886562718
 10
-38.1518432922
 20
15.5046245004
 10
-38.1469032033
 20
15.5207716423
 10
-38.1425269101
 20
15.5370736169
 10
-38.1387190562
 20
15.5535063438
 10
-38.1354842855
 20
15.5700457427
 10
-38.1328272416
 20
15.586667733
 10
-38.1307525684
 20
15.6033482343
 10
-38.1292649096
 20
15.6200631662
 10
-38.1283689088
 20
15.6367884483
 10
-38.12806921
 20
15.6535
  0
LWPOLYLINE
  5
6A3
100
AcDbEntity
  8
CURVE
100
AcDbPolyline
 62
250
  6
CONTINUOUS
 90
53
 70
0
 10
-40.4680661165
 20
15.190797
 10
-40.485845582
 20
15.1951724377
 10
-40.5038076473
 20
15.1989183893
 10
-40.5219253537
 20
15.2020330137
 10
-40.540171743
 20
15.2045144697
 10
-40.5585198568
 20
15.2063609163
 10
-40.5769427366
 20
15.2075705122
 10
-40.5954134241
 20
15.2081414164
 10
-40.6139049609
 20
15.2080717878
 10
-40.6323903886
 20
15.2073597851
 10
-40.6508427488
 20
15.2060035674
 10
-40.6692350831
 20
15.2040012934
 10
-40.6875404331
 20
15.2013511221
 10
-40.7057318404
 20
15.1980512123
 10
-40.7237835178
 20
15.1941017168
 10
-40.7416743626
 20
15.1895107648
 10
-40.7593844433
 20
15.1842884793
 10
-40.7768938285
 20
15.1784449832
 10
-40.7941825865
 20
15.1719903996
 10
-40.811230786
 20
15.1649348515
 10
-40.8280184954
 20
15.157288462
 10
-40.8445257832
 20
15.1490613541
 10
-40.8607327179
 20
15.1402636507
 10
-40.8766193681
 20
15.130905475
 10
-40.8921658021
 20
15.12099695
 10
-40.9073520885
 20
15.1105481987
 10
-40.9221582958
 20
15.099569344
 10
-40.9365653322
 20
15.0880716006
 10
-40.950557464
 20
15.0760705484
 10
-40.9641197975
 20
15.063582859
 10
-40.9772374388
 20
15.0506252039
 10
-40.9898954941
 20
15.0372142547
 10
-41.0020790693
 20
15.0233666829
 10
-41.0137732708
 20
15.00909916
 10
-41.0249632045
 20
14.9944283575
 10
-41.0356339767
 20
14.979370947
 10
-41.0457706935
 20
14.9639436
 10
-41.055358461
 20
14.9481629881
 10
-41.0643823853
 20
14.9320457827
 10
-41.0728275726
 20
14.9156086553
 10
-41.0806807559
 20
14.8988699209
 10
-41.0879351764
 20
14.8818544675
 10
-41.094585702
 20
14.8645888264
 10
-41.1006272007
 20
14.8470995291
 10
-41.1060545406
 20
14.829413107
 10
-41.1108625897
 20
14.8115560913
 10
-41.1150462161
 20
14.7935550136
 10
-41.1186002876
 20
14.7754364051
 10
-41.1215196724
 20
14.7572267972
 10
-41.1237992385
 20
14.7389527214
 10
-41.1254338538
 20
14.720640709
 10
-41.1264183865
 20
14.7023172914
 10
-41.1267477045
 20
14.684009
  0
LINE
  5
6A4
100
AcDbEntity
  8
CURVE
100
AcDbLine
 62
250
  6
CONTINUOUS
 10
-40.6021049083
 20
13.826341
 11
-39.4346288212
 21
13.523187
  0
LINE
  5
6A5
100
AcDbEntity
  8
CURVE
100
AcDbLine
 62
250
  6
CONTINUOUS
 10
-40.8036545586
 20
14.332932
 11
-39.6568878944
 21
14.035156
  0
LINE
  5
6A6
100
AcDbEntity
  8
CURVE
100
AcDbLine
 62
250
  6
CONTINUOUS
 10
-40.4680661165
 20
15.190797
 11
-39.6707918355
 21
14.983772
  0
LINE
  5
6A7
100
AcDbEntity
  8
CURVE
100
AcDbLine
 62
250
  6
CONTINUOUS
 10
-39.0963125868
 20
14.834599
 11
-38.4857080893
 21
14.676046
  0
LINE
  5
6A8
100
AcDbEntity
  8
CURVE
100
AcDbLine
 62
250
  6
CONTINUOUS
 10
-38.7285725932
 20
15.188968
 11
-39.3164208237
 21
15.341613
  0
LINE
  5
6A9
100
AcDbEntity
  8
CURVE
100
AcDbLine
 62
250
  6
CONTINUOUS
 10
-39.8909000724
 20
15.490785
 11
-40.698303582
 21
15.700441
  0
LINE
  5
6AA
100
AcDbEntity
  8
CURVE
100
AcDbLine
 62
250
  6
CONTINUOUS
 10
-32.8084079267
 20
11.6
 11
-31.8798718332
 21
11.3214285493
  0
LWPOLYLINE
  5
6AB
100
AcDbEntity
  8
CURVE
100
AcDbPolyline
 62
250
  6
CONTINUOUS
 90
10
 70
0
 10
-38.6426292823
 20
13.7895518557
 10
-38.6358720686
 20
13.7865233776
 10
-38.6289757878
 20
13.7838265603
 10
-38.6219612101
 20
13.7814243164
 10
-38.6148491059
 20
13.7792795586
 10
-38.6076602456
 20
13.7773551995
 10
-38.6004153995
 20
13.7756141518
 10
-38.5931353378
 20
13.7740193282
 10
-38.5858408311
 20
13.7725336412
 10
-38.5658362296
 20
13.768713092
  0
LINE
  5
6AC
100
AcDbEntity
  8
CURVE
100
AcDbLine
 62
250
  6
CONTINUOUS
 10
-36.3067101435
 20
13.2142856121
 11
-36.5924135331
 21
13.3571429253
  0
LINE
  5
6AD
100
AcDbEntity
  8
CURVE
100
AcDbLine
 62
250
  6
CONTINUOUS
 10
-35.4495999152
 20
14.2142856121
 11
-35.1638964959
 21
14.0714285374
  0
LINE
  5
6AE
100
AcDbEntity
  8
CURVE
100
AcDbLine
 62
250
  6
CONTINUOUS
 10
-29.9369934816
 20
10.9085714468
 11
-30.6798223332
 21
11.3171428937
  0
LINE
  5
6AF
100
AcDbEntity
  8
CURVE
100
AcDbLine
 62
250
  6
CONTINUOUS
 10
-32.9012614896
 20
12.8071429014
 11
-33.1798223332
 21
12.9928570986
  0
LINE
  5
6B0
100
AcDbEntity
  8
CURVE
100
AcDbLine
 62
250
  6
CONTINUOUS
 10
-32.8084079267
 20
13.4571429014
 11
-31.8798718332
 21
12.8071429014
  0
LINE
  5
6B1
100
AcDbEntity
  8
CURVE
100
AcDbLine
 62
250
  6
CONTINUOUS
 10
-32.0655790558
 20
10.6714285493
 11
-31.8798718332
 21
10.4857143521
  0
LINE
  5
6B2
100
AcDbEntity
  8
CURVE
100
AcDbLine
 62
250
  6
CONTINUOUS
 10
-35.1638964959
 20
14.0714285374
 11
-34.8781930765
 21
13.7857143879
  0
LINE
  5
6B3
100
AcDbEntity
  8
CURVE
100
AcDbLine
 62
250
  6
CONTINUOUS
 10
-36.5924135331
 20
16.0714287758
 11
-36.8781169226
 21
16.3571429253
  0
LINE
  5
6B4
100
AcDbEntity
  8
CURVE
100
AcDbLine
 62
250
  6
CONTINUOUS
 10
-30.49411513
 20
11.7257142979
 11
-30.6798223332
 21
11.93
  0
LWPOLYLINE
  5
6B5
100
AcDbEntity
  8
ASSI
100
AcDbPolyline
 62
250
  6
CONTINUOUS
 90
5
 70
0
 10
-22.6762957564
 20
-8.5637838526
 10
-22.676451406
 20
-8.5464272168
 10
-22.6766655744
 20
-8.5338121795
 10
-22.6769345974
 20
-8.5261545667
 10
-22.6772538725
 20
-8.5235853896
  0
LWPOLYLINE
  5
6B6
100
AcDbEntity
  8
RACCORDO
100
AcDbPolyline
 62
250
  6
CONTINUOUS
 90
5
 70
0
 10
-22.6762957564
 20
-8.5637838526
 10
-22.676451406
 20
-8.5464272168
 10
-22.6766655744
 20
-8.5338121795
 10
-22.6769345974
 20
-8.5261545667
 10
-22.6772538725
 20
-8.5235853896
  0
LINE
  5
6B7
100
AcDbEntity
  8
ASSI
100
AcDbLine
 62
250
  6
CONTINUOUS
 10
-22.676451406
 20
-14.8912214156
 11
-22.6772538725
 21
-14.7764260334
  0
LINE
  5
6B8
100
AcDbEntity
  8
RACCORDO
100
AcDbLine
 62
250
  6
CONTINUOUS
 10
-22.676451406
 20
-14.8912214156
 11
-22.6772538725
 21
-14.7764260334
  0
LINE
  5
6B9
100
AcDbEntity
  8
ASSI
100
AcDbLine
 62
250
  6
CONTINUOUS
 10
-22.6761696187
 20
-8.6114580859
 11
-22.6762957564
 21
-8.5637838526
  0
LINE
  5
6BA
100
AcDbEntity
  8
RACCORDO
100
AcDbLine
 62
250
  6
CONTINUOUS
 10
-22.6761696187
 20
-8.6114580859
 11
-22.6762957564
 21
-8.5637838526
  0
LINE
  5
6BB
100
AcDbEntity
  8
ASSI
100
AcDbLine
 62
250
  6
CONTINUOUS
 10
-22.6761696187
 20
-14.9885419141
 11
-22.676451406
 21
-14.8912214156
  0
LINE
  5
6BC
100
AcDbEntity
  8
RACCORDO
100
AcDbLine
 62
250
  6
CONTINUOUS
 10
-22.6761696187
 20
-14.9885419141
 11
-22.676451406
 21
-14.8912214156
  0
LINE
  5
6BD
100
AcDbEntity
  8
0
100
AcDbLine
 62
250
  6
CONTINUOUS
 10
-23.8988450323
 20
-14.092362
 11
-23.8988450323
 21
-9.907638
  0
LINE
  5
6BE
100
AcDbEntity
  8
0
100
AcDbLine
 62
250
  6
CONTINUOUS
 10
-22.8798718332
 20
-9.907638
 11
-22.8798718332
 21
-14.092362
  0
LINE
  5
6BF
100
AcDbEntity
  8
ASSI
100
AcDbLine
 62
250
  6
CONTINUOUS
 10
-22.6772538725
 20
-8.8235739666
 11
-22.6772538725
 21
-14.7764260334
  0
LINE
  5
6C0
100
AcDbEntity
  8
RACCORDO
100
AcDbLine
 62
250
  6
CONTINUOUS
 10
-22.6772538725
 20
-8.8235739666
 11
-22.6772538725
 21
-14.7764260334
  0
LINE
  5
6C1
100
AcDbEntity
  8
ASSI
100
AcDbLine
 62
250
  6
CONTINUOUS
 10
-22.6694019842
 20
16.7056528937
 11
-22.6694019842
 21
8.2943471063
  0
LINE
  5
6C2
100
AcDbEntity
  8
RACCORDO
100
AcDbLine
 62
250
  6
CONTINUOUS
 10
-22.6694019842
 20
16.7056528937
 11
-22.6694019842
 21
8.2943471063
  0
LINE
  5
6C3
100
AcDbEntity
  8
ASSI
100
AcDbLine
 62
250
  6
CONTINUOUS
 10
-22.6762957564
 20
-8.6735862724
 11
-22.6761696187
 21
-8.6114580859
  0
LINE
  5
6C4
100
AcDbEntity
  8
RACCORDO
100
AcDbLine
 62
250
  6
CONTINUOUS
 10
-22.6762957564
 20
-8.6735862724
 11
-22.6761696187
 21
-8.6114580859
  0
LWPOLYLINE
  5
6C5
100
AcDbEntity
  8
ASSI
100
AcDbPolyline
 62
250
  6
CONTINUOUS
 90
3
 70
0
 10
-22.6772538725
 20
-8.8235739666
 10
-22.6769345974
 20
-8.7844194872
 10
-22.6762957564
 20
-8.6735862724
  0
LWPOLYLINE
  5
6C6
100
AcDbEntity
  8
RACCORDO
100
AcDbPolyline
 62
250
  6
CONTINUOUS
 90
3
 70
0
 10
-22.6772538725
 20
-8.8235739666
 10
-22.6769345974
 20
-8.7844194872
 10
-22.6762957564
 20
-8.6735862724
  0
LINE
  5
6C7
100
AcDbEntity
  8
ASSI
100
AcDbLine
 62
250
  6
CONTINUOUS
 10
-22.6674629026
 20
16.8096052838
 11
-22.6694019842
 21
16.7056528937
  0
LINE
  5
6C8
100
AcDbEntity
  8
RACCORDO
100
AcDbLine
 62
250
  6
CONTINUOUS
 10
-22.6674629026
 20
16.8096052838
 11
-22.6694019842
 21
16.7056528937
  0
LWPOLYLINE
  5
6C9
100
AcDbEntity
  8
ASSI
100
AcDbPolyline
 62
250
  6
CONTINUOUS
 90
7
 70
0
 10
-25.8755085654
 20
-18.8928783021
 10
-25.8750764366
 20
-18.8901356397
 10
-25.8746968421
 20
-18.8819456582
 10
-25.8743739404
 20
-18.86839808
 10
-25.8741112689
 20
-18.8496413208
 10
-25.8739117053
 20
-18.8258808638
 10
-25.8737099311
 20
-18.764442018
  0
LWPOLYLINE
  5
6CA
100
AcDbEntity
  8
RACCORDO
100
AcDbPolyline
 62
250
  6
CONTINUOUS
 90
7
 70
0
 10
-25.8755085654
 20
-18.8928783021
 10
-25.8750764366
 20
-18.8901356397
 10
-25.8746968421
 20
-18.8819456582
 10
-25.8743739404
 20
-18.86839808
 10
-25.8741112689
 20
-18.8496413208
 10
-25.8739117053
 20
-18.8258808638
 10
-25.8737099311
 20
-18.764442018
  0
LINE
  5
6CB
100
AcDbEntity
  8
CURVE
100
AcDbLine
 62
250
  6
CONTINUOUS
 10
-33.3686133799
 20
-16.387348
 11
-32.6798718332
 21
-15.5
  0
LWPOLYLINE
  5
6CC
100
AcDbEntity
  8
CURVE
100
AcDbPolyline
 62
250
  6
CONTINUOUS
 90
49
 70
0
 10
-31.8234809844
 20
-16.2268470594
 10
-31.8469171819
 20
-16.2535772868
 10
-31.8712375546
 20
-16.2795821048
 10
-31.8964096499
 20
-16.3048336993
 10
-31.9224010151
 20
-16.3293042564
 10
-31.9491791975
 20
-16.3529659623
 10
-31.9767117445
 20
-16.3757910031
 10
-32.0049662034
 20
-16.3977515647
 10
-32.0339101216
 20
-16.4188198334
 10
-32.0635110462
 20
-16.4389679952
 10
-32.0937365248
 20
-16.4581682362
 10
-32.1245541045
 20
-16.4763927425
 10
-32.1559313328
 20
-16.4936137001
 10
-32.1878354862
 20
-16.5098064401
 10
-32.2202327578
 20
-16.5249588729
 10
-32.25308907
 20
-16.5390620538
 10
-32.2863703453
 20
-16.552107038
 10
-32.320042506
 20
-16.5640848808
 10
-32.3540714746
 20
-16.5749866377
 10
-32.3884231734
 20
-16.5848033637
 10
-32.4230635247
 20
-16.5935261144
 10
-32.4579584511
 20
-16.6011459448
 10
-32.4930738749
 20
-16.6076539104
 10
-32.5283757185
 20
-16.6130410665
 10
-32.5638299042
 20
-16.6172984682
 10
-32.5994021694
 20
-16.6204189534
 10
-32.6350575109
 20
-16.6224024894
 10
-32.6707607402
 20
-16.6232508257
 10
-32.7064766692
 20
-16.6229657122
 10
-32.7421701095
 20
-16.6215488984
 10
-32.7778058727
 20
-16.6190021341
 10
-32.8133487706
 20
-16.615327169
 10
-32.8487636148
 20
-16.6105257528
 10
-32.884015217
 20
-16.6045996351
 10
-32.9190683889
 20
-16.5975505657
 10
-32.9538879422
 20
-16.5893802942
 10
-32.9884386885
 20
-16.5800905704
 10
-33.0226850583
 20
-16.5696862773
 10
-33.0565899571
 20
-16.5581848315
 10
-33.0901159091
 20
-16.5456067833
 10
-33.1232254387
 20
-16.5319726827
 10
-33.1558810701
 20
-16.5173030797
 10
-33.1880453276
 20
-16.5016185244
 10
-33.2196807355
 20
-16.484939567
 10
-33.250749818
 20
-16.4672867574
 10
-33.2812150994
 20
-16.4486806459
 10
-33.311039104
 20
-16.4291417824
 10
-33.3401843561
 20
-16.4086907171
 10
-33.3686133799
 20
-16.387348
  0
LWPOLYLINE
  5
6CD
100
AcDbEntity
  8
0
100
AcDbPolyline
 62
250
  6
CONTINUOUS
 90
36
 70
0
 10
-29.2245178294
 20
-10.896457109
 10
-29.2376611707
 20
-10.9098920862
 10
-29.2504030237
 20
-10.9237030913
 10
-29.2627490862
 20
-10.937875713
 10
-29.274705056
 20
-10.9523955398
 10
-29.2862766311
 20
-10.9672481603
 10
-29.2974695092
 20
-10.982419163
 10
-29.3082893882
 20
-10.9978941366
 10
-29.318741966
 20
-11.0136586695
 10
-29.3288329404
 20
-11.0296983504
 10
-29.3385680091
 20
-11.0459987678
 10
-29.3479528702
 20
-11.0625455103
 10
-29.3569932214
 20
-11.0793241664
 10
-29.3656947606
 20
-11.0963203247
 10
-29.3740631856
 20
-11.1135195738
 10
-29.3821041942
 20
-11.1309075021
 10
-29.3898234844
 20
-11.1484696984
 10
-29.3972267539
 20
-11.1661917511
 10
-29.4043197006
 20
-11.1840592489
 10
-29.4111080224
 20
-11.2020577802
 10
-29.417597417
 20
-11.2201729336
 10
-29.4237935824
 20
-11.2383902978
 10
-29.4297022163
 20
-11.2566954612
 10
-29.4353290167
 20
-11.2750740125
 10
-29.4406796814
 20
-11.2935115401
 10
-29.4457599082
 20
-11.3119936328
 10
-29.4505753949
 20
-11.3305058789
 10
-29.4551318394
 20
-11.3490338671
 10
-29.4594349396
 20
-11.367563186
 10
-29.4652799912
 20
-11.3945897746
 10
-29.4706592784
 20
-11.4215995436
 10
-29.4756346051
 20
-11.4486035397
 10
-29.4802677747
 20
-11.4756128096
 10
-29.4846205908
 20
-11.5026384001
 10
-29.4887548571
 20
-11.5296913578
 10
-29.4966149545
 20
-11.5839235619
  0
LWPOLYLINE
  5
6CE
100
AcDbEntity
  8
CURVE
100
AcDbPolyline
 62
250
  6
CONTINUOUS
 90
34
 70
0
 10
-30.9752146568
 20
-14.664913
 10
-30.986773949
 20
-14.6762093648
 10
-30.9980610805
 20
-14.6877972782
 10
-31.0090686679
 20
-14.6996677238
 10
-31.0197893276
 20
-14.7118116855
 10
-31.0302156761
 20
-14.7242201471
 10
-31.0403403298
 20
-14.7368840924
 10
-31.0501559051
 20
-14.7497945053
 10
-31.0596550185
 20
-14.7629423695
 10
-31.0688302864
 20
-14.7763186689
 10
-31.0776743254
 20
-14.7899143873
 10
-31.0861797518
 20
-14.8037205084
 10
-31.0943398294
 20
-14.8177281569
 10
-31.1021504113
 20
-14.8319290203
 10
-31.1096079978
 20
-14.8463149268
 10
-31.1167090895
 20
-14.8608777046
 10
-31.1234501866
 20
-14.8756091821
 10
-31.1298277896
 20
-14.8905011875
 10
-31.1358383988
 20
-14.9055455491
 10
-31.1414785147
 20
-14.9207340951
 10
-31.1467446377
 20
-14.9360586537
 10
-31.1516332681
 20
-14.9515110534
 10
-31.1561409064
 20
-14.9670831222
 10
-31.1602643977
 20
-14.9827661228
 10
-31.1640019664
 20
-14.998549055
 10
-31.1673521817
 20
-15.014420353
 10
-31.1703136127
 20
-15.0303684508
 10
-31.1728848285
 20
-15.0463817826
 10
-31.1750643984
 20
-15.0624487827
 10
-31.1768508913
 20
-15.078557885
 10
-31.1782428766
 20
-15.0946975237
 10
-31.1792389233
 20
-15.1108561331
 10
-31.1798376007
 20
-15.1270221471
 10
-31.1800374777
 20
-15.143184
  0
LWPOLYLINE
  5
6CF
100
AcDbEntity
  8
ASSI
100
AcDbPolyline
 62
7
  6
CONTINUOUS
 90
14
 70
0
 10
-25.8311970583
 20
-8.7620936074
 10
-25.7480572099
 20
-8.698490129
 10
-25.7091801568
 20
-8.6692708882
 10
-25.6721304146
 20
-8.6420395238
 10
-25.6370564034
 20
-8.6166593825
 10
-25.6039233468
 20
-8.593318297
 10
-25.572765604
 20
-8.572278179
 10
-25.5438370747
 20
-8.5535788221
 10
-25.5171350239
 20
-8.5373824011
 10
-25.4926610333
 20
-8.5239098577
 10
-25.4706757614
 20
-8.513300837
 10
-25.4512648962
 20
-8.5056697306
 10
-25.4343391457
 20
-8.5011023967
 10
-25.4198961773
 20
-8.4996507128
  0
LWPOLYLINE
  5
6D0
100
AcDbEntity
  8
RACCORDO
100
AcDbPolyline
 62
7
  6
CONTINUOUS
 90
14
 70
0
 10
-25.8311970583
 20
-8.7620936074
 10
-25.7480572099
 20
-8.698490129
 10
-25.7091801568
 20
-8.6692708882
 10
-25.6721304146
 20
-8.6420395238
 10
-25.6370564034
 20
-8.6166593825
 10
-25.6039233468
 20
-8.593318297
 10
-25.572765604
 20
-8.572278179
 10
-25.5438370747
 20
-8.5535788221
 10
-25.5171350239
 20
-8.5373824011
 10
-25.4926610333
 20
-8.5239098577
 10
-25.4706757614
 20
-8.513300837
 10
-25.4512648962
 20
-8.5056697306
 10
-25.4343391457
 20
-8.5011023967
 10
-25.4198961773
 20
-8.4996507128
  0
LINE
  5
6D1
100
AcDbEntity
  8
ASSI
100
AcDbLine
 62
7
  6
CONTINUOUS
 10
-25.8755085654
 20
-8.7956632207
 11
-25.8311970583
 21
-8.7620936074
  0
LINE
  5
6D2
100
AcDbEntity
  8
RACCORDO
100
AcDbLine
 62
7
  6
CONTINUOUS
 10
-25.8755085654
 20
-8.7956632207
 11
-25.8311970583
 21
-8.7620936074
  0
LWPOLYLINE
  5
6D3
100
AcDbEntity
  8
CURVE
100
AcDbPolyline
 62
250
  6
CONTINUOUS
 90
49
 70
0
 10
-33.3686133236
 20
-14.6126520725
 10
-33.3401843021
 20
-14.5913093572
 10
-33.3110390524
 20
-14.5708582935
 10
-33.2812150502
 20
-14.5513194316
 10
-33.2507497713
 20
-14.5327133216
 10
-33.2196806914
 20
-14.5150605135
 10
-33.1880452861
 20
-14.4983815574
 10
-33.1558810312
 20
-14.4826970034
 10
-33.1232254025
 20
-14.4680274017
 10
-33.0901158756
 20
-14.4543933021
 10
-33.0565899263
 20
-14.4418152549
 10
-33.0226850303
 20
-14.4303138101
 10
-32.9884386633
 20
-14.4199095179
 10
-32.9538879198
 20
-14.4106197948
 10
-32.9190683694
 20
-14.402449524
 10
-32.8840152004
 20
-14.3954004551
 10
-32.848763601
 20
-14.389474338
 10
-32.8133487597
 20
-14.3846729221
 10
-32.7778058647
 20
-14.3809979573
 10
-32.7421701044
 20
-14.3784511932
 10
-32.706476667
 20
-14.3770343796
 10
-32.670760741
 20
-14.3767492661
 10
-32.6350575145
 20
-14.3775976023
 10
-32.599402176
 20
-14.3795811381
 10
-32.5638299137
 20
-14.3827016231
 10
-32.5283757308
 20
-14.3869590245
 10
-32.4930738902
 20
-14.3923461801
 10
-32.4579584693
 20
-14.3988541452
 10
-32.4230635457
 20
-14.406473975
 10
-32.3884231972
 20
-14.4151967249
 10
-32.3540715012
 20
-14.4250134502
 10
-32.3200425354
 20
-14.4359152061
 10
-32.2863703775
 20
-14.447893048
 10
-32.2530891049
 20
-14.4609380311
 10
-32.2202327953
 20
-14.4750412108
 10
-32.1878355264
 20
-14.4901936424
 10
-32.1559313757
 20
-14.506386381
 10
-32.1245541499
 20
-14.5236073373
 10
-32.0937365727
 20
-14.5418318421
 10
-32.0635110966
 20
-14.5610320815
 10
-32.0339101743
 20
-14.5811802417
 10
-32.0049662586
 20
-14.6022485086
 10
-31.976711802
 20
-14.6242090685
 10
-31.9491792572
 20
-14.6470341074
 10
-31.922401077
 20
-14.6706958113
 10
-31.8964097139
 20
-14.6951663665
 10
-31.8712376207
 20
-14.7204179589
 10
-31.8469172499
 20
-14.7464227747
 10
-31.8234810544
 20
-14.773153
  0
LINE
  5
6D4
100
AcDbEntity
  8
CURVE
100
AcDbLine
 62
250
  6
CONTINUOUS
 10
-35.8371305645
 20
-15.9131040172
 11
-36.0942636419
 21
-16.0571039485
  0
LINE
  5
6D5
100
AcDbEntity
  8
RACCORDO
100
AcDbLine
 62
250
  6
CONTINUOUS
 10
-44.8798718332
 20
15.3482774533
 11
-45.6549604332
 21
15.3076567811
  0
LINE
  5
6D6
100
AcDbEntity
  8
RACCORDO
100
AcDbLine
 62
7
  6
CONTINUOUS
 10
-44.8798718332
 20
15.8475922207
 11
-45.593255224
 21
15.8102053814
  0
LINE
  5
6D7
100
AcDbEntity
  8
RACCORDO
100
AcDbLine
 62
7
  6
CONTINUOUS
 10
-44.8798718332
 20
15.1465093273
 11
-45.6750876827
 21
15.1437334891
  0
LINE
  5
6D8
100
AcDbEntity
  8
ASSI
100
AcDbLine
 62
7
  6
CONTINUOUS
 10
-25.2798718332
 20
15.227192
 11
-25.3798718332
 21
15.227192
  0
LINE
  5
6D9
100
AcDbEntity
  8
CURVE
100
AcDbLine
 62
250
  6
CONTINUOUS
 10
-30.6798223332
 20
15.266666553
 11
-29.3798718332
 21
15.266666553
  0
LINE
  5
6DA
100
AcDbEntity
  8
CURVE
100
AcDbLine
 62
250
  6
CONTINUOUS
 10
-36.8781169226
 20
15.3571429253
 11
-34.8781930765
 21
15.3571429253
  0
LINE
  5
6DB
100
AcDbEntity
  8
CURVE
100
AcDbLine
 62
250
  6
CONTINUOUS
 10
-32.99411513
 20
15.5
 11
-32.8084079267
 21
15.5
  0
LINE
  5
6DC
100
AcDbEntity
  8
CURVE
100
AcDbLine
 62
250
  6
CONTINUOUS
 10
-27.1800393685
 20
15.7634523249
 11
-28.4799898685
 21
15.7634523249
  0
LINE
  5
6DD
100
AcDbEntity
  8
CURVE
100
AcDbLine
 62
250
  6
CONTINUOUS
 10
-32.0655790558
 20
15.8714283943
 11
-32.5298470832
 21
15.8714283943
  0
LINE
  5
6DE
100
AcDbEntity
  8
CURVE
100
AcDbLine
 62
250
  6
CONTINUOUS
 10
-35.4495999152
 20
15.9285712242
 11
-36.3067101435
 21
15.9285712242
  0
LINE
  5
6DF
100
AcDbEntity
  8
CURVE
100
AcDbLine
 62
250
  6
CONTINUOUS
 10
-29.5655790558
 20
16.1859525108
 11
-30.49411513
 21
16.1859525108
  0
LINE
  5
6E0
100
AcDbEntity
  8
CURVE
100
AcDbLine
 62
250
  6
CONTINUOUS
 10
-27.3657465911
 20
16.469166863
 11
-28.2942826653
 21
16.469166863
  0
LINE
  5
6E1
100
AcDbEntity
  8
CURVE
100
AcDbLine
 62
250
  6
CONTINUOUS
 10
-32.4369934816
 20
16.5214283943
 11
-32.0655790558
 21
16.5214283943
  0
LINE
  5
6E2
100
AcDbEntity
  8
ASSI
100
AcDbLine
 62
7
  6
CONTINUOUS
 10
-25.2798718332
 20
16.538572
 11
-25.3798718332
 21
16.538572
  0
LINE
  5
6E3
100
AcDbEntity
  8
ASSI
100
AcDbLine
 62
250
  6
CONTINUOUS
 10
-22.3798718332
 20
16.7056528937
 11
-22.6694019842
 21
16.7056528937
  0
LINE
  5
6E4
100
AcDbEntity
  8
RACCORDO
100
AcDbLine
 62
250
  6
CONTINUOUS
 10
-22.3798718332
 20
16.7056528937
 11
-22.6694019842
 21
16.7056528937
  0
LINE
  5
6E5
100
AcDbEntity
  8
CURVE
100
AcDbLine
 62
250
  6
CONTINUOUS
 10
-30.49411513
 20
16.9009525108
 11
-29.5655790558
 21
16.9009525108
  0
LINE
  5
6E6
100
AcDbEntity
  8
CURVE
100
AcDbLine
 62
250
  6
CONTINUOUS
 10
-36.3067101435
 20
16.9285712242
 11
-35.4495999152
 21
16.9285712242
  0
LINE
  5
6E7
100
AcDbEntity
  8
CURVE
100
AcDbLine
 62
250
  6
CONTINUOUS
 10
-28.2942826653
 20
17.086666863
 11
-27.3657465911
 21
17.086666863
  0
LINE
  5
6E8
100
AcDbEntity
  8
ASSI
100
AcDbLine
 62
250
  6
CONTINUOUS
 10
-50.9351762807
 20
18.120056612
 11
-45.3813147234
 21
17.5363222402
  0
LINE
  5
6E9
100
AcDbEntity
  8
RACCORDO
100
AcDbLine
 62
250
  6
CONTINUOUS
 10
-50.9351762807
 20
18.120056612
 11
-45.3813147234
 21
17.5363222402
  0
LINE
  5
6EA
100
AcDbEntity
  8
ASSI
100
AcDbLine
 62
7
  6
CONTINUOUS
 10
-50.9418215269
 20
18.3720938409
 11
-45.3508473874
 21
17.7844587796
  0
LINE
  5
6EB
100
AcDbEntity
  8
RACCORDO
100
AcDbLine
 62
7
  6
CONTINUOUS
 10
-50.9418215269
 20
18.3720938409
 11
-45.3508473874
 21
17.7844587796
  0
LINE
  5
6EC
100
AcDbEntity
  8
CURVE
100
AcDbLine
 62
250
  6
CONTINUOUS
 10
-39.3749483664
 20
16.295642
 11
-38.8412150146
 21
16.157049
  0
LINE
  5
6ED
100
AcDbEntity
  8
CURVE
100
AcDbLine
 62
250
  6
CONTINUOUS
 10
-39.5927477792
 20
16.797337
 11
-38.4165033598
 21
16.491906
  0
LINE
  5
6EE
100
AcDbEntity
  8
CURVE
100
AcDbLine
 62
250
  6
CONTINUOUS
 10
-40.8180384632
 20
17.115504
 11
-39.9935752528
 21
16.901419
  0
LWPOLYLINE
  5
6EF
100
AcDbEntity
  8
CURVE
100
AcDbPolyline
 62
250
  6
CONTINUOUS
 90
47
 70
0
 10
-40.542044272
 20
16.6011967369
 10
-40.5577776584
 20
16.6064870126
 10
-40.5734586982
 20
16.6119568389
 10
-40.589069812
 20
16.6177083108
 10
-40.6045934201
 20
16.6238435233
 10
-40.6153502869
 20
16.6283997064
 10
-40.6260215397
 20
16.6332116441
 10
-40.6365726424
 20
16.6382989454
 10
-40.6469690586
 20
16.6436812197
 10
-40.6571762522
 20
16.6493780763
 10
-40.667159687
 20
16.6554091243
 10
-40.6768848266
 20
16.6617939731
 10
-40.6863171349
 20
16.6685522318
 10
-40.6954220756
 20
16.6757035098
 10
-40.7041651126
 20
16.6832674162
 10
-40.71252041
 20
16.6912544867
 10
-40.7204965631
 20
16.6996386007
 10
-40.7281108737
 20
16.7083845577
 10
-40.7353806434
 20
16.7174571569
 10
-40.742323174
 20
16.7268211977
 10
-40.7489557671
 20
16.7364414795
 10
-40.7552957245
 20
16.7462828017
 10
-40.7613603478
 20
16.7563099637
 10
-40.7671669388
 20
16.7664877647
 10
-40.7727327991
 20
16.7767810042
 10
-40.7803061574
 20
16.7916666066
 10
-40.7874097766
 20
16.8067240362
 10
-40.7940318623
 20
16.8219606635
 10
-40.8001606199
 20
16.8373838586
 10
-40.8057842547
 20
16.8530009918
 10
-40.8108909723
 20
16.8688194333
 10
-40.8154689781
 20
16.8848465536
 10
-40.8192277224
 20
16.8998800864
 10
-40.8225135479
 20
16.9150734473
 10
-40.8253173232
 20
16.9304010815
 10
-40.8276299168
 20
16.9458374341
 10
-40.8294421973
 20
16.96135695
 10
-40.8307450333
 20
16.9769340743
 10
-40.8315292932
 20
16.9925432522
 10
-40.8317858458
 20
17.0081589287
 10
-40.8315055594
 20
17.0237555488
 10
-40.8306793028
 20
17.0393075576
 10
-40.8292979443
 20
17.0547894003
 10
-40.8273523527
 20
17.0701755218
 10
-40.8248333965
 20
17.0854403672
 10
-40.8217319442
 20
17.1005583817
 10
-40.8180388644
 20
17.1155040102
  0
LINE
  5
6F0
100
AcDbEntity
  8
CURVE
100
AcDbLine
 62
250
  6
CONTINUOUS
 10
-36.3067101435
 20
15.9285712242
 11
-36.5924135331
 21
16.0714287758
  0
LINE
  5
6F1
100
AcDbEntity
  8
CURVE
100
AcDbLine
 62
250
  6
CONTINUOUS
 10
-35.4495999152
 20
16.9285712242
 11
-35.1638964959
 21
16.7857141495
  0
LINE
  5
6F2
100
AcDbEntity
  8
CURVE
100
AcDbLine
 62
250
  6
CONTINUOUS
 10
-32.9012614896
 20
13.8285712957
 11
-33.1798223332
 21
14.0142858028
  0
LINE
  5
6F3
100
AcDbEntity
  8
CURVE
100
AcDbLine
 62
250
  6
CONTINUOUS
 10
-32.9012614896
 20
14.85
 11
-33.1798223332
 21
15.0357141972
  0
LINE
  5
6F4
100
AcDbEntity
  8
CURVE
100
AcDbLine
 62
250
  6
CONTINUOUS
 10
-32.8084079267
 20
14.4785716057
 11
-31.8798718332
 21
13.8285712957
  0
LINE
  5
6F5
100
AcDbEntity
  8
CURVE
100
AcDbLine
 62
250
  6
CONTINUOUS
 10
-32.8084079267
 20
15.5
 11
-31.8798718332
 21
14.85
  0
LINE
  5
6F6
100
AcDbEntity
  8
CURVE
100
AcDbLine
 62
250
  6
CONTINUOUS
 10
-27.9228682589
 20
11.1175
 11
-27.7371610169
 21
10.9410714391
  0
LINE
  5
6F7
100
AcDbEntity
  8
CURVE
100
AcDbLine
 62
250
  6
CONTINUOUS
 10
-35.1638964959
 20
16.7857141495
 11
-34.8781930765
 21
16.5
  0
LINE
  5
6F8
100
AcDbEntity
  8
CURVE
100
AcDbLine
 62
250
  6
CONTINUOUS
 10
-32.9012614896
 20
16.0571425915
 11
-33.1798223332
 21
16.3357141972
  0
LINE
  5
6F9
100
AcDbEntity
  8
CURVE
100
AcDbLine
 62
250
  6
CONTINUOUS
 10
-33.1798223332
 20
17.2642858028
 11
-32.8084079267
 21
16.8928574085
  0
LINE
  5
6FA
100
AcDbEntity
  8
CURVE
100
AcDbLine
 62
250
  6
CONTINUOUS
 10
-32.0655790558
 20
16.5214283943
 11
-31.8798718332
 21
16.3357141972
  0
LINE
  5
6FB
100
AcDbEntity
  8
CURVE
100
AcDbLine
 62
250
  6
CONTINUOUS
 10
-29.5655790558
 20
12.4407142127
 11
-29.3798718332
 21
12.2364285958
  0
LINE
  5
6FC
100
AcDbEntity
  8
CURVE
100
AcDbLine
 62
250
  6
CONTINUOUS
 10
-29.5655790558
 20
13.5642856169
 11
-29.3798718332
 21
13.36
  0
LWPOLYLINE
  5
6FD
100
AcDbEntity
  8
ASSI
100
AcDbPolyline
 62
250
  6
CONTINUOUS
 90
15
 70
0
 10
-22.6694019842
 20
8.2943471063
 10
-22.6674657019
 20
8.1905117511
 10
-22.6666851367
 20
8.1400128527
 10
-22.6660528277
 20
8.0912044043
 10
-22.6655767548
 20
8.0446163611
 10
-22.6652553025
 20
8.0007484781
 10
-22.6650909772
 20
7.9600649905
 10
-22.6650908995
 20
7.9230374537
 10
-22.6652552482
 20
7.890113363
 10
-22.6655766402
 20
7.8616666926
 10
-22.6660517634
 20
7.8379633467
 10
-22.6666828287
 20
7.819223076
 10
-22.6674629026
 20
7.8056553043
 10
-22.6683746683
 20
7.7974309707
 10
-22.6694019842
 20
7.7946516928
  0
LWPOLYLINE
  5
6FE
100
AcDbEntity
  8
RACCORDO
100
AcDbPolyline
 62
250
  6
CONTINUOUS
 90
15
 70
0
 10
-22.6694019842
 20
8.2943471063
 10
-22.6674657019
 20
8.1905117511
 10
-22.6666851367
 20
8.1400128527
 10
-22.6660528277
 20
8.0912044043
 10
-22.6655767548
 20
8.0446163611
 10
-22.6652553025
 20
8.0007484781
 10
-22.6650909772
 20
7.9600649905
 10
-22.6650908995
 20
7.9230374537
 10
-22.6652552482
 20
7.890113363
 10
-22.6655766402
 20
7.8616666926
 10
-22.6660517634
 20
7.8379633467
 10
-22.6666828287
 20
7.819223076
 10
-22.6674629026
 20
7.8056553043
 10
-22.6683746683
 20
7.7974309707
 10
-22.6694019842
 20
7.7946516928
  0
LINE
  5
6FF
100
AcDbEntity
  8
ASSI
100
AcDbLine
 62
7
  6
CONTINUOUS
 10
-22.3798718332
 20
16.9055310591
 11
-22.3798718332
 21
8.0944689409
  0
LINE
  5
700
100
AcDbEntity
  8
RACCORDO
100
AcDbLine
 62
7
  6
CONTINUOUS
 10
-22.3798718332
 20
16.9055310591
 11
-22.3798718332
 21
8.0944689409
  0
LINE
  5
701
100
AcDbEntity
  8
ASSI
100
AcDbLine
 62
7
  6
CONTINUOUS
 10
-22.3798718332
 20
-8.8235739666
 11
-22.3798718332
 21
-14.7764260334
  0
LINE
  5
702
100
AcDbEntity
  8
RACCORDO
100
AcDbLine
 62
7
  6
CONTINUOUS
 10
-22.3798718332
 20
-8.8235739666
 11
-22.3798718332
 21
-14.7764260334
  0
LWPOLYLINE
  5
703
100
AcDbEntity
  8
ASSI
100
AcDbPolyline
 62
250
  6
CONTINUOUS
 90
6
 70
0
 10
-22.6772538725
 20
-15.0764146104
 10
-22.6769345974
 20
-15.0738454333
 10
-22.6766655744
 20
-15.0661878205
 10
-22.676451406
 20
-15.0535727832
 10
-22.6762957564
 20
-15.0362161474
 10
-22.6761696187
 20
-14.9885419141
  0
LWPOLYLINE
  5
704
100
AcDbEntity
  8
RACCORDO
100
AcDbPolyline
 62
250
  6
CONTINUOUS
 90
6
 70
0
 10
-22.6772538725
 20
-15.0764146104
 10
-22.6769345974
 20
-15.0738454333
 10
-22.6766655744
 20
-15.0661878205
 10
-22.676451406
 20
-15.0535727832
 10
-22.6762957564
 20
-15.0362161474
 10
-22.6761696187
 20
-14.9885419141
  0
LINE
  5
705
100
AcDbEntity
  8
0
100
AcDbLine
 62
250
  6
CONTINUOUS
 10
-29.9559273884
 20
-14.50013
 11
-24.9788309082
 21
-9.768444
  0
LWPOLYLINE
  5
706
100
AcDbEntity
  8
CURVE
100
AcDbPolyline
 62
250
  6
CONTINUOUS
 90
40
 70
0
 10
-40.5940235238
 20
18.042745
 10
-40.6119249007
 20
18.0409653872
 10
-40.6297923165
 20
18.0386595023
 10
-40.6476083163
 20
18.0358319016
 10
-40.6653554449
 20
18.0324871416
 10
-40.6830162475
 20
18.0286297785
 10
-40.7005732688
 20
18.0242643688
 10
-40.718009054
 20
18.0193954687
 10
-40.7353061479
 20
18.0140276345
 10
-40.7524470956
 20
18.0081654228
 10
-40.769414442
 20
18.0018133897
 10
-40.7861907321
 20
17.9949760916
 10
-40.8027585108
 20
17.9876580849
 10
-40.8191003232
 20
17.9798639259
 10
-40.8351997675
 20
17.9715988181
 10
-40.8510446557
 20
17.9628705532
 10
-40.866623853
 20
17.9536875702
 10
-40.8819262247
 20
17.9440583079
 10
-40.896940636
 20
17.9339912054
 10
-40.9116559523
 20
17.9234947013
 10
-40.9260610388
 20
17.9125772348
 10
-40.9401447607
 20
17.9012472446
 10
-40.9538959833
 20
17.8895131697
 10
-40.9673035719
 20
17.8773834489
 10
-40.9803563917
 20
17.8648665213
 10
-40.9930433081
 20
17.8519708255
 10
-41.0053531862
 20
17.8387048007
 10
-41.0172752294
 20
17.8250780748
 10
-41.0287999936
 20
17.8111050328
 10
-41.0399183727
 20
17.7968012486
 10
-41.0506212605
 20
17.7821822964
 10
-41.060899551
 20
17.7672637502
 10
-41.070744138
 20
17.752061184
 10
-41.0801459156
 20
17.736590172
 10
-41.0890957775
 20
17.7208662881
 10
-41.0975846178
 20
17.7049051064
 10
-41.1056033302
 20
17.688722201
 10
-41.1131428088
 20
17.6723331459
 10
-41.1201939474
 20
17.6557535153
 10
-41.12674764
 20
17.638998883
  0
LINE
  5
707
100
AcDbEntity
  8
CURVE
100
AcDbLine
 62
250
  6
CONTINUOUS
 10
-31.8798718332
 20
17.2642858028
 11
-33.1798223332
 21
17.2642858028
  0
LINE
  5
708
100
AcDbEntity
  8
ASSI
100
AcDbLine
 62
7
  6
CONTINUOUS
 10
-25.3798718332
 20
17.3972934994
 11
-25.2798718332
 21
17.3972934994
  0
LINE
  5
709
100
AcDbEntity
  8
ASSI
100
AcDbLine
 62
7
  6
CONTINUOUS
 10
-25.2798718332
 20
17.468046
 11
-25.3798718332
 21
17.468046
  0
LINE
  5
70A
100
AcDbEntity
  8
ASSI
100
AcDbLine
 62
7
  6
CONTINUOUS
 10
-25.3798718332
 20
17.476515
 11
-25.2798718332
 21
17.476515
  0
LINE
  5
70B
100
AcDbEntity
  8
0
100
AcDbLine
 62
7
  6
CONTINUOUS
 10
-25.3798718332
 20
17.476515
 11
-25.2798718332
 21
17.476515
  0
LINE
  5
70C
100
AcDbEntity
  8
ASSI
100
AcDbLine
 62
7
  6
CONTINUOUS
 10
-25.3798718332
 20
17.706826
 11
-25.2798718332
 21
17.706826
  0
LINE
  5
70D
100
AcDbEntity
  8
0
100
AcDbLine
 62
7
  6
CONTINUOUS
 10
-25.3798718332
 20
17.706826
 11
-25.2798718332
 21
17.706826
  0
LINE
  5
70E
100
AcDbEntity
  8
ASSI
100
AcDbLine
 62
250
  6
CONTINUOUS
 10
-25.8755085654
 20
18.3928973406
 11
-25.3798718332
 21
18.3928973406
  0
LINE
  5
70F
100
AcDbEntity
  8
RACCORDO
100
AcDbLine
 62
250
  6
CONTINUOUS
 10
-25.8755085654
 20
18.3928973406
 11
-25.3798718332
 21
18.3928973406
  0
LINE
  5
710
100
AcDbEntity
  8
ASSI
100
AcDbLine
 62
250
  6
CONTINUOUS
 10
-25.8755085654
 20
18.3928973406
 11
-34.8798718332
 21
18.4714772284
  0
LINE
  5
711
100
AcDbEntity
  8
RACCORDO
100
AcDbLine
 62
250
  6
CONTINUOUS
 10
-25.8755085654
 20
18.3928973406
 11
-34.8798718332
 21
18.4714772284
  0
LINE
  5
712
100
AcDbEntity
  8
ASSI
100
AcDbLine
 62
7
  6
CONTINUOUS
 10
-25.8755085654
 20
18.8928783021
 11
-34.8798718332
 21
18.9714581899
  0
LINE
  5
713
100
AcDbEntity
  8
RACCORDO
100
AcDbLine
 62
7
  6
CONTINUOUS
 10
-25.8755085654
 20
18.8928783021
 11
-34.8798718332
 21
18.9714581899
  0
LINE
  5
714
100
AcDbEntity
  8
RACCORDO
100
AcDbLine
 62
7
  6
CONTINUOUS
 10
-51.3798718332
 20
18.930912987
 11
-45.6167825284
 21
18.830317889
  0
LINE
  5
715
100
AcDbEntity
  8
ASSI
100
AcDbLine
 62
250
  6
CONTINUOUS
 10
-22.6694019842
 20
16.7056528937
 11
-25.2798718332
 21
16.7968125095
  0
LINE
  5
716
100
AcDbEntity
  8
RACCORDO
100
AcDbLine
 62
250
  6
CONTINUOUS
 10
-22.6694019842
 20
16.7056528937
 11
-25.2798718332
 21
16.7968125095
  0
LINE
  5
717
100
AcDbEntity
  8
ASSI
100
AcDbLine
 62
7
  6
CONTINUOUS
 10
-22.6694019842
 20
17.2053483072
 11
-25.2798718332
 21
17.2965079231
  0
LINE
  5
718
100
AcDbEntity
  8
RACCORDO
100
AcDbLine
 62
7
  6
CONTINUOUS
 10
-22.6694019842
 20
17.2053483072
 11
-25.2798718332
 21
17.2965079231
  0
LINE
  5
719
100
AcDbEntity
  8
CURVE
100
AcDbLine
 62
250
  6
CONTINUOUS
 10
-38.1280693265
 20
17.40242
 11
-40.5940235238
 21
18.042745
  0
LINE
  5
71A
100
AcDbEntity
  8
CURVE
100
AcDbLine
 62
250
  6
CONTINUOUS
 10
-32.5298470832
 20
15.8714283943
 11
-32.9012614896
 21
16.0571425915
  0
LINE
  5
71B
100
AcDbEntity
  8
CURVE
100
AcDbLine
 62
250
  6
CONTINUOUS
 10
-28.2942826653
 20
13.3816665685
 11
-28.4799898685
 21
13.5580953503
  0
LINE
  5
71C
100
AcDbEntity
  8
CURVE
100
AcDbLine
 62
250
  6
CONTINUOUS
 10
-27.3657465911
 20
12.8817857563
 11
-27.1800393685
 21
12.7053571218
  0
LINE
  5
71D
100
AcDbEntity
  8
CURVE
100
AcDbLine
 62
250
  6
CONTINUOUS
 10
-27.3657465911
 20
13.9991665685
 11
-27.1800393685
 21
13.8227380812
  0
LINE
  5
71E
100
AcDbEntity
  8
CURVE
100
AcDbLine
 62
250
  6
CONTINUOUS
 10
-29.3798718332
 20
14.6538093615
 11
-29.5655790558
 21
14.8580953193
  0
LINE
  5
71F
100
AcDbEntity
  8
CURVE
100
AcDbLine
 62
250
  6
CONTINUOUS
 10
-30.49411513
 20
16.1859525108
 11
-30.6798223332
 21
16.3902381277
  0
LINE
  5
720
100
AcDbEntity
  8
CURVE
100
AcDbLine
 62
250
  6
CONTINUOUS
 10
-29.5655790558
 20
16.9009525108
 11
-29.3798718332
 21
16.696666894
  0
LINE
  5
721
100
AcDbEntity
  8
ASSI
100
AcDbLine
 62
250
  6
CONTINUOUS
 10
-54.157518212
 20
17.5518707884
 11
-50.9351762807
 21
18.120056612
  0
LINE
  5
722
100
AcDbEntity
  8
RACCORDO
100
AcDbLine
 62
250
  6
CONTINUOUS
 10
-54.157518212
 20
17.5518707884
 11
-50.9351762807
 21
18.120056612
  0
LINE
  5
723
100
AcDbEntity
  8
ASSI
100
AcDbLine
 62
7
  6
CONTINUOUS
 10
-54.1987648841
 20
17.7978068524
 11
-50.9418215269
 21
18.3720938409
  0
LINE
  5
724
100
AcDbEntity
  8
RACCORDO
100
AcDbLine
 62
7
  6
CONTINUOUS
 10
-54.1987648841
 20
17.7978068524
 11
-50.9418215269
 21
18.3720938409
  0
LINE
  5
725
100
AcDbEntity
  8
RACCORDO
100
AcDbLine
 62
7
  6
CONTINUOUS
 10
-34.8798718332
 20
20.9314160541
 11
-43.8798718332
 21
20.9
  0
LINE
  5
726
100
AcDbEntity
  8
ASSI
100
AcDbLine
 62
7
  6
CONTINUOUS
 10
-34.8798718332
 20
19.3563751041
 11
-43.8798718332
 21
19.5
  0
LINE
  5
727
100
AcDbEntity
  8
DRAFT
100
AcDbLine
 62
7
  6
CONTINUOUS
 10
-34.8798718332
 20
19.3563751041
 11
-43.8798718332
 21
19.5
  0
LINE
  5
728
100
AcDbEntity
  8
ASSI
100
AcDbLine
 62
7
  6
CONTINUOUS
 10
-43.8798718332
 20
20.9
 11
-34.8798718332
 21
20.7429044156
  0
LINE
  5
729
100
AcDbEntity
  8
DRAFT
100
AcDbLine
 62
7
  6
CONTINUOUS
 10
-43.8798718332
 20
20.9
 11
-34.8798718332
 21
20.7429044156
  0
LINE
  5
72A
100
AcDbEntity
  8
DRAFT
100
AcDbLine
 62
7
  6
CONTINUOUS
 10
-46.0798718332
 20
19.5492615675
 11
-43.8798718332
 21
19.5
  0
LINE
  5
72B
100
AcDbEntity
  8
CURVE
100
AcDbLine
 62
250
  6
CONTINUOUS
 10
-28.2942826653
 20
16.469166863
 11
-28.4799898685
 21
16.6455953503
  0
LINE
  5
72C
100
AcDbEntity
  8
CURVE
100
AcDbLine
 62
250
  6
CONTINUOUS
 10
-27.3657465911
 20
17.086666863
 11
-27.1800393685
 21
16.9102383757
  0
LWPOLYLINE
  5
72D
100
AcDbEntity
  8
0
100
AcDbPolyline
 62
7
  6
CONTINUOUS
 90
10
 70
0
 43
0.3500000006
 10
-39.8471706848
 20
44.2999996033
 10
-39.7757440338
 20
44.1571417694
 10
-39.7757440338
 20
44.0857151184
 10
-39.9186018677
 20
43.9428572845
 10
-39.9900285187
 20
43.9428572845
 10
-40.0614597015
 20
44.0142839355
 10
-40.0614597015
 20
44.0857151184
 10
-39.9900285187
 20
44.2285729523
 10
-39.9186018677
 20
44.2999996033
 10
-39.8471706848
 20
44.2999996033
  0
LWPOLYLINE
  5
72E
100
AcDbEntity
  8
0
100
AcDbPolyline
 62
7
  6
CONTINUOUS
 90
10
 70
0
 43
0.3500000006
 10
-33.2227283478
 20
34.3000010834
 10
-33.1512994308
 20
34.1571432495
 10
-33.1512994308
 20
34.0857120667
 10
-33.2941572647
 20
33.9428587646
 10
-33.3655861816
 20
33.9428587646
 10
-33.4370150986
 20
34.0142854156
 10
-33.4370150986
 20
34.0857120667
 10
-33.3655861816
 20
34.2285699005
 10
-33.2941572647
 20
34.3000010834
 10
-33.2227283478
 20
34.3000010834
  0
LINE
  5
72F
100
AcDbEntity
  8
ASSI
100
AcDbLine
 62
7
  6
CONTINUOUS
 10
-37.7798718332
 20
-23.25
 11
-37.7208030104
 21
-23.2285007067
  0
LINE
  5
730
100
AcDbEntity
  8
0
100
AcDbLine
 62
7
  6
CONTINUOUS
 10
-44.4730037509
 20
-24.6353169549
 11
-40.1695761692
 21
-23.2370485723
  0
LINE
  5
731
100
AcDbEntity
  8
0
100
AcDbLine
 62
7
  6
CONTINUOUS
 10
-44.3493969531
 20
-25.0157395614
 11
-38.8610916862
 21
-23.2324810812
  0
LINE
  5
732
100
AcDbEntity
  8
RACCORDO
100
AcDbLine
 62
250
  6
CONTINUOUS
 10
-51.3798718332
 20
22.1191250892
 11
-46.0798718332
 21
22.2116369334
  0
LINE
  5
733
100
AcDbEntity
  8
RACCORDO
100
AcDbLine
 62
7
  6
CONTINUOUS
 10
-51.3798718332
 20
22.369087013
 11
-46.0798718332
 21
22.4615988572
  0
LINE
  5
734
100
AcDbEntity
  8
RACCORDO
100
AcDbLine
 62
7
  6
CONTINUOUS
 10
-43.8798718332
 20
21.6
 11
-35.3781265075
 21
21.5877074627
  0
LINE
  5
735
100
AcDbEntity
  8
RACCORDO
100
AcDbLine
 62
7
  6
CONTINUOUS
 10
-46.8798718332
 20
23.260472018
 11
-35.6272538446
 21
23.2211928118
  0
LINE
  5
736
100
AcDbEntity
  8
0
100
AcDbLine
 62
7
  6
CONTINUOUS
 10
-44.4730037509
 20
24.6353169549
 11
-40.1695761692
 21
23.2370485723
  0
LINE
  5
737
100
AcDbEntity
  8
0
100
AcDbLine
 62
7
  6
CONTINUOUS
 10
-44.3493969531
 20
25.0157395614
 11
-38.8610916862
 21
23.2324810812
  0
LINE
  5
738
100
AcDbEntity
  8
ASSI
100
AcDbLine
 62
7
  6
CONTINUOUS
 10
-37.7208030104
 20
23.2285007067
 11
-37.7798718332
 21
23.25
  0
LWPOLYLINE
  5
739
100
AcDbEntity
  8
ASSI
100
AcDbPolyline
 62
250
  6
CONTINUOUS
 90
14
 70
0
 10
-22.6694019842
 20
17.2053483072
 10
-22.6683768584
 20
17.2025775142
 10
-22.6674657019
 20
17.1943696861
 10
-22.6666851367
 20
17.1808134306
 10
-22.6660528277
 20
17.1620577823
 10
-22.6655767548
 20
17.1383056866
 10
-22.6652553025
 20
17.1098076809
 10
-22.6650909772
 20
17.0768538952
 10
-22.6650908995
 20
17.03981431
 10
-22.6652552482
 20
16.9991427894
 10
-22.6655766402
 20
16.9553357622
 10
-22.6660517634
 20
16.9088429495
 10
-22.6666828287
 20
16.8600992002
 10
-22.6674629026
 20
16.8096052838
  0
LWPOLYLINE
  5
73A
100
AcDbEntity
  8
RACCORDO
100
AcDbPolyline
 62
250
  6
CONTINUOUS
 90
14
 70
0
 10
-22.6694019842
 20
17.2053483072
 10
-22.6683768584
 20
17.2025775142
 10
-22.6674657019
 20
17.1943696861
 10
-22.6666851367
 20
17.1808134306
 10
-22.6660528277
 20
17.1620577823
 10
-22.6655767548
 20
17.1383056866
 10
-22.6652553025
 20
17.1098076809
 10
-22.6650909772
 20
17.0768538952
 10
-22.6650908995
 20
17.03981431
 10
-22.6652552482
 20
16.9991427894
 10
-22.6655766402
 20
16.9553357622
 10
-22.6660517634
 20
16.9088429495
 10
-22.6666828287
 20
16.8600992002
 10
-22.6674629026
 20
16.8096052838
  0
LINE
  5
73B
100
AcDbEntity
  8
RACCORDO
100
AcDbLine
 62
250
  6
CONTINUOUS
 10
-45.7798718332
 20
23.8674311485
 11
-45.3798718332
 21
23.8674311485
  0
LINE
  5
73C
100
AcDbEntity
  8
0
100
AcDbLine
 62
7
  6
CONTINUOUS
 10
-45.3798718332
 20
24.05
 11
-45.7798718332
 21
24.05
  0
LINE
  5
73D
100
AcDbEntity
  8
0
100
AcDbLine
 62
250
  6
CONTINUOUS
 10
-45.3798718332
 20
24.35
 11
-45.7798718332
 21
24.35
  0
LINE
  5
73E
100
AcDbEntity
  8
0
100
AcDbLine
 62
7
  6
CONTINUOUS
 10
-45.0798718332
 20
24.65
 11
-44.5657088492
 21
24.65
  0
LINE
  5
73F
100
AcDbEntity
  8
0
100
AcDbLine
 62
7
  6
CONTINUOUS
 10
-45.0798718332
 20
25.05
 11
-44.5657088492
 21
25.05
  0
LWPOLYLINE
  5
740
100
AcDbEntity
  8
0
100
AcDbPolyline
 62
7
  6
CONTINUOUS
 90
6
 70
0
 43
0.3500000006
 10
-36.0084425125
 20
33.8000009308
 10
-34.9370155563
 20
33.8000009308
 10
-34.7227288055
 20
34.0142854156
 10
-34.7227288055
 20
35.0857123718
 10
-35.1513000412
 20
35.5142858734
 10
-35.5798712769
 20
35.5142858734
  0
LWPOLYLINE
  5
741
100
AcDbEntity
  8
0
100
AcDbPolyline
 62
7
  6
CONTINUOUS
 90
7
 70
0
 43
0.3500000006
 10
-36.8655872498
 20
33.8000009308
 10
-38.3655877075
 20
33.8000009308
 10
-36.8655872498
 20
35.942859375
 10
-36.8655872498
 20
36.3714283447
 10
-37.2941584854
 20
36.8000018463
 10
-37.9370142059
 20
36.8000018463
 10
-38.3655877075
 20
36.1571438599
  0
LWPOLYLINE
  5
742
100
AcDbEntity
  8
0
100
AcDbPolyline
 62
7
  6
CONTINUOUS
 90
3
 70
0
 43
0.3500000006
 10
-30.6513009338
 20
34.4428589172
 10
-32.1513013916
 20
34.4428589172
 10
-31.5084434052
 20
36.8000018463
  0
LWPOLYLINE
  5
743
100
AcDbEntity
  8
0
100
AcDbPolyline
 62
7
  6
CONTINUOUS
 90
6
 70
0
 43
0.3500000006
 10
-44.9900300446
 20
43.7999994507
 10
-43.9185985565
 20
43.7999994507
 10
-43.7043140717
 20
44.0142839355
 10
-43.7043140717
 20
45.0857154236
 10
-44.1328875732
 20
45.5142843933
 10
-44.561456543
 20
45.5142843933
  0
ARC
  5
744
100
AcDbEntity
  8
RACCORDO
100
AcDbCircle
 62
7
  6
CONTINUOUS
 10
-5.1752890038
 20
-23.85
 40
0.2
100
AcDbArc
 50
270.0
 51
355.0
  0
ARC
  5
745
100
AcDbEntity
  8
RACCORDO
100
AcDbCircle
 62
7
  6
CONTINUOUS
 10
2.6912434658
 20
-23.85
 40
0.2
100
AcDbArc
 50
185.0
 51
270.0
  0
ARC
  5
746
100
AcDbEntity
  8
RACCORDO
100
AcDbCircle
 62
7
  6
CONTINUOUS
 10
2.6912434658
 20
23.85
 40
0.2
100
AcDbArc
 50
90.0
 51
175.0
  0
ARC
  5
747
100
AcDbEntity
  8
RACCORDO
100
AcDbCircle
 62
7
  6
CONTINUOUS
 10
-5.1752890038
 20
23.85
 40
0.2
100
AcDbArc
 50
5.0
 51
90.0
  0
ARC
  5
748
100
AcDbEntity
  8
ASSI
100
AcDbCircle
 62
7
  6
CONTINUOUS
 10
-58.0287583431
 20
-16.0263725452
 40
1.0
100
AcDbArc
 50
175.2848488243
 51
261.0
  0
ARC
  5
749
100
AcDbEntity
  8
RACCORDO
100
AcDbCircle
 62
7
  6
CONTINUOUS
 10
-58.0287583431
 20
-16.0263725452
 40
1.0
100
AcDbArc
 50
175.2848488243
 51
261.0
  0
ARC
  5
74A
100
AcDbEntity
  8
RACCORDO
100
AcDbCircle
 62
7
  6
CONTINUOUS
 10
-45.6298718332
 20
-18.0804321176
 40
0.75
100
AcDbArc
 50
271.0
 51
360.0
  0
ARC
  5
74B
100
AcDbEntity
  8
RACCORDO
100
AcDbCircle
 62
7
  6
CONTINUOUS
 10
-35.6298718332
 20
-22.4711973811
 40
0.75
100
AcDbArc
 50
270.2
 51
360.0
  0
ARC
  5
74C
100
AcDbEntity
  8
0
100
AcDbCircle
 62
7
  6
CONTINUOUS
 10
-44.5657088492
 20
-24.35
 40
0.7
100
AcDbArc
 50
270.0
 51
288.0
  0
ARC
  5
74D
100
AcDbEntity
  8
0
100
AcDbCircle
 62
7
  6
CONTINUOUS
 10
-45.0798718332
 20
-24.35
 40
0.7
100
AcDbArc
 50
180.0
 51
270.0
  0
ARC
  5
74E
100
AcDbEntity
  8
ASSI
100
AcDbCircle
 62
7
  6
CONTINUOUS
 10
-48.6767689059
 20
-17.5085073077
 40
0.5
100
AcDbArc
 50
353.0
 51
81.0
  0
ARC
  5
74F
100
AcDbEntity
  8
RACCORDO
100
AcDbCircle
 62
7
  6
CONTINUOUS
 10
-48.6767689059
 20
-17.5085073077
 40
0.5
100
AcDbArc
 50
353.0
 51
81.0
  0
ARC
  5
750
100
AcDbEntity
  8
ASSI
100
AcDbCircle
 62
7
  6
CONTINUOUS
 10
-25.8798718332
 20
-18.3928973406
 40
0.5
100
AcDbArc
 50
270.5
 51
360.0
  0
ARC
  5
751
100
AcDbEntity
  8
RACCORDO
100
AcDbCircle
 62
7
  6
CONTINUOUS
 10
-25.8798718332
 20
-18.3928973406
 40
0.5
100
AcDbArc
 50
270.5
 51
360.0
  0
ARC
  5
752
100
AcDbEntity
  8
ASSI
100
AcDbCircle
 62
7
  6
CONTINUOUS
 10
-50.1199616899
 20
-18.5952075403
 40
0.3
100
AcDbArc
 50
353.0
 51
81.0
  0
ARC
  5
753
100
AcDbEntity
  8
RACCORDO
100
AcDbCircle
 62
7
  6
CONTINUOUS
 10
-50.1199616899
 20
-18.5952075403
 40
0.3
100
AcDbArc
 50
353.0
 51
81.0
  0
ARC
  5
754
100
AcDbEntity
  8
ASSI
100
AcDbCircle
 62
7
  6
CONTINUOUS
 10
-22.6798718332
 20
-14.7764260334
 40
0.3
100
AcDbArc
 50
270.5
 51
360.0
  0
ARC
  5
755
100
AcDbEntity
  8
RACCORDO
100
AcDbCircle
 62
7
  6
CONTINUOUS
 10
-22.6798718332
 20
-14.7764260334
 40
0.3
100
AcDbArc
 50
270.5
 51
360.0
  0
ARC
  5
756
100
AcDbEntity
  8
0
100
AcDbCircle
 62
7
  6
CONTINUOUS
 10
-44.5657088492
 20
-24.35
 40
0.3
100
AcDbArc
 50
270.0
 51
288.0
  0
ARC
  5
757
100
AcDbEntity
  8
0
100
AcDbCircle
 62
7
  6
CONTINUOUS
 10
-45.0798718332
 20
-24.35
 40
0.3
100
AcDbArc
 50
180.0
 51
270.0
  0
ARC
  5
758
100
AcDbEntity
  8
ASSI
100
AcDbCircle
 62
7
  6
CONTINUOUS
 10
-54.0251167064
 20
16.8129990994
 40
1.0
100
AcDbArc
 50
100.0
 51
170.8132240099
  0
ARC
  5
759
100
AcDbEntity
  8
RACCORDO
100
AcDbCircle
 62
7
  6
CONTINUOUS
 10
-54.0251167064
 20
16.8129990994
 40
1.0
100
AcDbArc
 50
100.0
 51
170.8132240099
  0
ARC
  5
75A
100
AcDbEntity
  8
RACCORDO
100
AcDbCircle
 62
7
  6
CONTINUOUS
 10
-45.6298718332
 20
18.0804321176
 40
0.75
100
AcDbArc
 50
0.0
 51
89.0
  0
ARC
  5
75B
100
AcDbEntity
  8
RACCORDO
100
AcDbCircle
 62
7
  6
CONTINUOUS
 10
-35.6298718332
 20
22.4711973811
 40
0.75
100
AcDbArc
 50
0.0
 51
89.8
  0
ARC
  5
75C
100
AcDbEntity
  8
0
100
AcDbCircle
 62
7
  6
CONTINUOUS
 10
-44.5657088492
 20
24.35
 40
0.7
100
AcDbArc
 50
72.0
 51
90.0
  0
ARC
  5
75D
100
AcDbEntity
  8
0
100
AcDbCircle
 62
7
  6
CONTINUOUS
 10
-45.0798718332
 20
24.35
 40
0.7
100
AcDbArc
 50
90.0
 51
180.0
  0
ARC
  5
75E
100
AcDbEntity
  8
ASSI
100
AcDbCircle
 62
7
  6
CONTINUOUS
 10
-25.8798718332
 20
18.3928973406
 40
0.5
100
AcDbArc
 50
0.0
 51
89.5
  0
ARC
  5
75F
100
AcDbEntity
  8
RACCORDO
100
AcDbCircle
 62
7
  6
CONTINUOUS
 10
-25.8798718332
 20
18.3928973406
 40
0.5
100
AcDbArc
 50
0.0
 51
89.5
  0
ARC
  5
760
100
AcDbEntity
  8
ASSI
100
AcDbCircle
 62
7
  6
CONTINUOUS
 10
-22.6798718332
 20
16.9055204724
 40
0.3
100
AcDbArc
 50
0.0020219137
 51
88.0000705424
  0
ARC
  5
761
100
AcDbEntity
  8
ASSI
100
AcDbCircle
 62
7
  6
CONTINUOUS
 10
-22.6798718332
 20
8.094479572
 40
0.3
100
AcDbArc
 50
271.9999291626
 51
359.9979696186
  0
ARC
  5
762
100
AcDbEntity
  8
ASSI
100
AcDbCircle
 62
7
  6
CONTINUOUS
 10
-22.6798718332
 20
-8.8235739666
 40
0.3
100
AcDbArc
 50
0.0
 51
89.5
  0
ARC
  5
763
100
AcDbEntity
  8
RACCORDO
100
AcDbCircle
 62
7
  6
CONTINUOUS
 10
-22.6798718332
 20
8.0944689409
 40
0.3
100
AcDbArc
 50
272.0
 51
360.0
  0
ARC
  5
764
100
AcDbEntity
  8
RACCORDO
100
AcDbCircle
 62
7
  6
CONTINUOUS
 10
-22.6798718332
 20
16.9055310591
 40
0.3
100
AcDbArc
 50
0.0
 51
88.0
  0
ARC
  5
765
100
AcDbEntity
  8
RACCORDO
100
AcDbCircle
 62
7
  6
CONTINUOUS
 10
-22.6798718332
 20
-8.8235739666
 40
0.3
100
AcDbArc
 50
0.0
 51
89.5
  0
ARC
  5
766
100
AcDbEntity
  8
0
100
AcDbCircle
 62
7
  6
CONTINUOUS
 10
-44.5657088492
 20
24.35
 40
0.3
100
AcDbArc
 50
72.0
 51
90.0
  0
ARC
  5
767
100
AcDbEntity
  8
0
100
AcDbCircle
 62
7
  6
CONTINUOUS
 10
-45.0798718332
 20
24.35
 40
0.3
100
AcDbArc
 50
90.0
 51
180.0
  0
ARC
  5
768
100
AcDbEntity
  8
ASSI
100
AcDbCircle
 62
7
  6
CONTINUOUS
 10
364.5362927241
 20
-50.8800325621
 40
425.0
100
AcDbArc
 50
170.8132224665
 51
175.2848503224
  0
ARC
  5
769
100
AcDbEntity
  8
RACCORDO
100
AcDbCircle
 62
7
  6
CONTINUOUS
 10
364.5362927241
 20
-50.8800325621
 40
425.0
100
AcDbArc
 50
170.8132224665
 51
175.2848503224
  0
ELLIPSE
  5
76A
100
AcDbEntity
  8
ASSI
100
AcDbEllipse
 62
7
  6
CONTINUOUS
 10
9.3079677114
 20
-18.095933352
 30
0.0
 11
0.2499497364
 21
-0.0055050457
 31
0.0
 40
0.9931066748
 41
-1.5486224739
 42
0.0218693012
  0
ELLIPSE
  5
76B
100
AcDbEntity
  8
ASSI
100
AcDbEllipse
 62
7
  6
CONTINUOUS
 10
-11.7920132494
 20
-18.095933352
 30
0.0
 11
0.2499497364
 21
0.0055050457
 31
0.0
 40
0.9931066748
 41
3.1197233524
 42
4.6902151275
  0
ELLIPSE
  5
76C
100
AcDbEntity
  8
ASSI
100
AcDbEllipse
 62
7
  6
CONTINUOUS
 10
6.9105952914
 20
-18.5952075403
 30
0.0
 11
0.0003190852
 21
0.3
 31
0.0
 40
0.0086618092
 41
6.4402741527
 42
7.9761638945
  0
ELLIPSE
  5
76D
100
AcDbEntity
  8
ASSI
100
AcDbEllipse
 62
7
  6
CONTINUOUS
 10
4.9553591707
 20
-18.5952075403
 30
0.0
 11
-0.0003190852
 21
0.3
 31
0.0
 40
0.0086618092
 41
4.5902067199
 42
6.1260964616
  0
ELLIPSE
  5
76E
100
AcDbEntity
  8
ASSI
100
AcDbEllipse
 62
7
  6
CONTINUOUS
 10
-7.4394047086
 20
-18.5952075403
 30
0.0
 11
0.0003190852
 21
0.3
 31
0.0
 40
0.0086618092
 41
6.4402741527
 42
7.9761638945
  0
ELLIPSE
  5
76F
100
AcDbEntity
  8
ASSI
100
AcDbEllipse
 62
7
  6
CONTINUOUS
 10
-9.3946408293
 20
-18.5952075403
 30
0.0
 11
-0.0003190852
 21
0.3
 31
0.0
 40
0.0086618092
 41
4.5902067199
 42
6.1260964616
  0
ELLIPSE
  5
770
100
AcDbEntity
  8
RACCORDO
100
AcDbEllipse
 62
7
  6
CONTINUOUS
 10
9.3079677114
 20
-18.095933352
 30
0.0
 11
0.2499497364
 21
-0.0055050457
 31
0.0
 40
0.9931066748
 41
-1.5486224739
 42
0.0218693012
  0
ELLIPSE
  5
771
100
AcDbEntity
  8
RACCORDO
100
AcDbEllipse
 62
7
  6
CONTINUOUS
 10
-11.7920132494
 20
-18.095933352
 30
0.0
 11
0.2499497364
 21
0.0055050457
 31
0.0
 40
0.9931066748
 41
3.1197233524
 42
4.6902151275
  0
ELLIPSE
  5
772
100
AcDbEntity
  8
RACCORDO
100
AcDbEllipse
 62
7
  6
CONTINUOUS
 10
6.9105952914
 20
-18.5952075403
 30
0.0
 11
0.0003190852
 21
0.3
 31
0.0
 40
0.0086618092
 41
6.4402741527
 42
7.9761638945
  0
ELLIPSE
  5
773
100
AcDbEntity
  8
RACCORDO
100
AcDbEllipse
 62
7
  6
CONTINUOUS
 10
4.9553591707
 20
-18.5952075403
 30
0.0
 11
-0.0003190852
 21
0.3
 31
0.0
 40
0.0086618092
 41
4.5902067199
 42
6.1260964616
  0
ELLIPSE
  5
774
100
AcDbEntity
  8
RACCORDO
100
AcDbEllipse
 62
7
  6
CONTINUOUS
 10
-7.4394047086
 20
-18.5952075403
 30
0.0
 11
0.0003190852
 21
0.3
 31
0.0
 40
0.0086618092
 41
6.4402741527
 42
7.9761638945
  0
ELLIPSE
  5
775
100
AcDbEntity
  8
RACCORDO
100
AcDbEllipse
 62
7
  6
CONTINUOUS
 10
-9.3946408293
 20
-18.5952075403
 30
0.0
 11
-0.0003190852
 21
0.3
 31
0.0
 40
0.0086618092
 41
4.5902067199
 42
6.1260964616
  0
ELLIPSE
  5
776
100
AcDbEntity
  8
RACCORDO
100
AcDbEllipse
 62
7
  6
CONTINUOUS
 10
2.7518685538
 20
18.0804321176
 30
0.0
 11
0.0
 21
0.75
 31
0.0
 40
0.0034906727
 41
5.1122113342
 42
6.2657320147
  0
ELLIPSE
  5
777
100
AcDbEntity
  8
RACCORDO
100
AcDbEllipse
 62
7
  6
CONTINUOUS
 10
-5.2359140918
 20
18.0804321176
 30
0.0
 11
0.0
 21
0.75
 31
0.0
 40
0.0034906727
 41
6.3006385997
 42
7.4541592802
  0
ELLIPSE
  5
778
100
AcDbEntity
  8
RACCORDO
100
AcDbEllipse
 62
7
  6
CONTINUOUS
 10
7.1018685538
 20
-18.0804321176
 30
0.0
 11
0.0
 21
0.75
 31
0.0
 40
0.0034906727
 41
-3.1241393611
 42
-1.9304325789
  0
ELLIPSE
  5
779
100
AcDbEntity
  8
RACCORDO
100
AcDbEllipse
 62
7
  6
CONTINUOUS
 10
2.7518685538
 20
-18.0804321176
 30
0.0
 11
0.0
 21
0.75
 31
0.0
 40
0.0034906727
 41
3.1590459461
 42
4.3527527283
  0
ELLIPSE
  5
77A
100
AcDbEntity
  8
RACCORDO
100
AcDbEllipse
 62
7
  6
CONTINUOUS
 10
4.7640859082
 20
-18.0804321176
 30
0.0
 11
-0.0
 21
0.75
 31
0.0
 40
0.0034906727
 41
-4.3527527283
 42
-3.1590459461
  0
ELLIPSE
  5
77B
100
AcDbEntity
  8
RACCORDO
100
AcDbEllipse
 62
7
  6
CONTINUOUS
 10
-7.2481314462
 20
-18.0804321176
 30
0.0
 11
-0.0
 21
0.75
 31
0.0
 40
0.0034906727
 41
-3.1241393611
 42
-1.9304325789
  0
ELLIPSE
  5
77C
100
AcDbEntity
  8
RACCORDO
100
AcDbEllipse
 62
7
  6
CONTINUOUS
 10
-5.2359140918
 20
-18.0804321176
 30
0.0
 11
-0.0
 21
0.75
 31
0.0
 40
0.0034906727
 41
1.9304325789
 42
3.1241393611
  0
ELLIPSE
  5
77D
100
AcDbEntity
  8
RACCORDO
100
AcDbEllipse
 62
7
  6
CONTINUOUS
 10
-9.5859140918
 20
-18.0804321176
 30
0.0
 11
0.0
 21
0.75
 31
0.0
 40
0.0034906727
 41
-4.3527527283
 42
-3.1590459461
  0
ELLIPSE
  5
77E
100
AcDbEntity
  8
RACCORDO
100
AcDbEllipse
 62
7
  6
CONTINUOUS
 10
-11.8535835441
 20
22.2115607751
 30
0.0
 11
-0.1768305473
 21
0.1768305473
 31
0.0
 40
0.9996954599
 41
-0.7852458701
 42
0.7852458701
  0
ELLIPSE
  5
77F
100
AcDbEntity
  8
RACCORDO
100
AcDbEllipse
 62
7
  6
CONTINUOUS
 10
9.3695380062
 20
22.2115607751
 30
0.0
 11
0.1768305473
 21
0.1768305473
 31
0.0
 40
0.9996954599
 41
-0.7852458701
 42
0.7852458701
  0
ELLIPSE
  5
780
100
AcDbEntity
  8
RACCORDO
100
AcDbEllipse
 62
7
  6
CONTINUOUS
 10
9.3695380062
 20
-22.2115607751
 30
0.0
 11
0.1768305473
 21
-0.1768305473
 31
0.0
 40
0.9996954599
 41
-0.7852458701
 42
0.7852458701
  0
ELLIPSE
  5
781
100
AcDbEntity
  8
RACCORDO
100
AcDbEllipse
 62
7
  6
CONTINUOUS
 10
-11.8535835441
 20
-22.2115607751
 30
0.0
 11
0.1768305473
 21
0.1768305473
 31
0.0
 40
0.9996954599
 41
-3.9268385237
 42
-2.3563467834
  0
ELLIPSE
  5
782
100
AcDbEntity
  8
RACCORDO
100
AcDbEllipse
 62
7
  6
CONTINUOUS
 10
-8.3870216703
 20
23.2576794799
 30
0.0
 11
0.8
 21
-0.0
 31
0.0
 40
0.0034906727
 41
0.0174532925
 42
1.5707963268
  0
ELLIPSE
  5
783
100
AcDbEntity
  8
RACCORDO
100
AcDbEllipse
 62
7
  6
CONTINUOUS
 10
-8.4034997637
 20
23.2576794799
 30
0.0
 11
0.8
 21
0.0
 31
0.0
 40
0.0034906727
 41
1.5707963268
 42
3.1241393611
  0
ELLIPSE
  5
784
100
AcDbEntity
  8
RACCORDO
100
AcDbEllipse
 62
7
  6
CONTINUOUS
 10
5.9029761324
 20
23.2576794799
 30
0.0
 11
0.8
 21
0.0
 31
0.0
 40
0.0034906727
 41
1.5707963268
 42
3.1241393611
  0
ELLIPSE
  5
785
100
AcDbEntity
  8
RACCORDO
100
AcDbEllipse
 62
7
  6
CONTINUOUS
 10
5.9194542257
 20
23.2576794799
 30
0.0
 11
0.8
 21
0.0
 31
0.0
 40
0.0034906727
 41
0.0174532925
 42
1.5707963268
  0
ELLIPSE
  5
786
100
AcDbEntity
  8
RACCORDO
100
AcDbEllipse
 62
7
  6
CONTINUOUS
 10
-8.4034997637
 20
-23.2576794799
 30
0.0
 11
0.8
 21
0.0
 31
0.0
 40
0.0034906727
 41
-3.1241393611
 42
-1.5707963268
  0
ELLIPSE
  5
787
100
AcDbEntity
  8
RACCORDO
100
AcDbEllipse
 62
7
  6
CONTINUOUS
 10
-8.3870216703
 20
-23.2576794799
 30
0.0
 11
0.8
 21
0.0
 31
0.0
 40
0.0034906727
 41
-1.5707963268
 42
-0.0174532925
  0
ELLIPSE
  5
788
100
AcDbEntity
  8
RACCORDO
100
AcDbEllipse
 62
7
  6
CONTINUOUS
 10
5.9029761324
 20
-23.2576794799
 30
0.0
 11
0.8
 21
0.0
 31
0.0
 40
0.0034906727
 41
-3.1241393611
 42
-1.5707963268
  0
ELLIPSE
  5
789
100
AcDbEntity
  8
RACCORDO
100
AcDbEllipse
 62
7
  6
CONTINUOUS
 10
5.9194542257
 20
-23.2576794799
 30
0.0
 11
0.8
 21
0.0
 31
0.0
 40
0.0034906727
 41
-1.5707963268
 42
-0.0174532925
  0
ELLIPSE
  5
78A
100
AcDbEntity
  8
RACCORDO
100
AcDbEllipse
 62
7
  6
CONTINUOUS
 10
5.9029761324
 20
-22.4615988572
 30
0.0
 11
0.8
 21
0.0
 31
0.0
 40
0.0174550649
 41
1.5707963268
 42
3.1241393611
  0
ELLIPSE
  5
78B
100
AcDbEntity
  8
RACCORDO
100
AcDbEllipse
 62
7
  6
CONTINUOUS
 10
5.9194542257
 20
-22.4615988572
 30
0.0
 11
0.8
 21
-0.0
 31
0.0
 40
0.0174550649
 41
0.0174532925
 42
1.5707963268
  0
ELLIPSE
  5
78C
100
AcDbEntity
  8
RACCORDO
100
AcDbEllipse
 62
7
  6
CONTINUOUS
 10
-8.3870216703
 20
22.4615988572
 30
0.0
 11
0.8
 21
0.0
 31
0.0
 40
0.0174550649
 41
-1.5707963268
 42
-0.0174532925
  0
ELLIPSE
  5
78D
100
AcDbEntity
  8
RACCORDO
100
AcDbEllipse
 62
7
  6
CONTINUOUS
 10
9.6274308674
 20
18.0804321176
 30
0.0
 11
0.0
 21
0.75
 31
0.0
 40
0.0174550649
 41
-1.5707963268
 42
-0.0174532925
  0
ELLIPSE
  5
78E
100
AcDbEntity
  8
RACCORDO
100
AcDbEllipse
 62
7
  6
CONTINUOUS
 10
-8.4034997637
 20
22.4615988572
 30
0.0
 11
0.8
 21
0.0
 31
0.0
 40
0.0174550649
 41
-3.1241393611
 42
-1.5707963268
  0
ELLIPSE
  5
78F
100
AcDbEntity
  8
RACCORDO
100
AcDbEllipse
 62
7
  6
CONTINUOUS
 10
5.9029761324
 20
22.4615988572
 30
0.0
 11
0.8
 21
-0.0
 31
0.0
 40
0.0174550649
 41
-3.1241393611
 42
-1.5707963268
  0
ELLIPSE
  5
790
100
AcDbEntity
  8
RACCORDO
100
AcDbEllipse
 62
7
  6
CONTINUOUS
 10
5.9194542257
 20
22.4615988572
 30
0.0
 11
0.8
 21
0.0
 31
0.0
 40
0.0174550649
 41
-1.5707963268
 42
-0.0174532925
  0
ELLIPSE
  5
791
100
AcDbEntity
  8
RACCORDO
100
AcDbEllipse
 62
7
  6
CONTINUOUS
 10
-12.1114764054
 20
18.0804321176
 30
0.0
 11
0.0
 21
0.75
 31
0.0
 40
0.0174550649
 41
0.0174532925
 42
1.5707963268
  0
ELLIPSE
  5
792
100
AcDbEntity
  8
RACCORDO
100
AcDbEllipse
 62
7
  6
CONTINUOUS
 10
9.6274308674
 20
-18.0804321176
 30
0.0
 11
0.0
 21
0.75
 31
0.0
 40
0.0174550649
 41
-3.1241393611
 42
-1.5707963268
  0
ELLIPSE
  5
793
100
AcDbEntity
  8
RACCORDO
100
AcDbEllipse
 62
7
  6
CONTINUOUS
 10
-12.1114764054
 20
-18.0804321176
 30
0.0
 11
0.0
 21
0.75
 31
0.0
 40
0.0174550649
 41
-4.7123889804
 42
-3.1590459461
  0
ELLIPSE
  5
794
100
AcDbEntity
  8
RACCORDO
100
AcDbEllipse
 62
7
  6
CONTINUOUS
 10
-8.4034997637
 20
-22.4615988572
 30
0.0
 11
0.8
 21
0.0
 31
0.0
 40
0.0174550649
 41
1.5707963268
 42
3.1241393611
  0
ELLIPSE
  5
795
100
AcDbEntity
  8
RACCORDO
100
AcDbEllipse
 62
7
  6
CONTINUOUS
 10
4.961468244
 20
22.8030153487
 30
0.0
 11
0.0
 21
0.2
 31
0.0
 40
0.0174550649
 41
-4.7123889804
 42
-3.1590459461
  0
ELLIPSE
  5
796
100
AcDbEntity
  8
RACCORDO
100
AcDbEllipse
 62
7
  6
CONTINUOUS
 10
-7.445513782
 20
22.8030153487
 30
0.0
 11
0.0
 21
0.2
 31
0.0
 40
0.0174550649
 41
-3.1241393611
 42
-1.5707963268
  0
ELLIPSE
  5
797
100
AcDbEntity
  8
RACCORDO
100
AcDbEllipse
 62
7
  6
CONTINUOUS
 10
-11.7610717
 20
-22.119048931
 30
0.0
 11
-0.1768305473
 21
-0.1768305473
 31
0.0
 40
0.9996954599
 41
-0.7852458701
 42
0.7852458701
  0
ELLIPSE
  5
798
100
AcDbEntity
  8
RACCORDO
100
AcDbEllipse
 62
7
  6
CONTINUOUS
 10
-7.445513782
 20
-22.8030153487
 30
0.0
 11
-0.0
 21
0.2
 31
0.0
 40
0.0174550649
 41
-1.5707963268
 42
-0.0174532925
  0
ELLIPSE
  5
799
100
AcDbEntity
  8
RACCORDO
100
AcDbEllipse
 62
7
  6
CONTINUOUS
 10
9.277026162
 20
-22.119048931
 30
0.0
 11
0.1768305473
 21
-0.1768305473
 31
0.0
 40
0.9996954599
 41
-0.7852458701
 42
0.7852458701
  0
ELLIPSE
  5
79A
100
AcDbEntity
  8
RACCORDO
100
AcDbEllipse
 62
7
  6
CONTINUOUS
 10
9.277026162
 20
22.119048931
 30
0.0
 11
0.1768305473
 21
0.1768305473
 31
0.0
 40
0.9996954599
 41
-0.7852458701
 42
0.7852458701
  0
ELLIPSE
  5
79B
100
AcDbEntity
  8
RACCORDO
100
AcDbEllipse
 62
7
  6
CONTINUOUS
 10
4.961468244
 20
-22.8030153487
 30
0.0
 11
0.0
 21
0.2
 31
0.0
 40
0.0174550649
 41
0.0174532925
 42
1.5707963268
  0
ELLIPSE
  5
79C
100
AcDbEntity
  8
RACCORDO
100
AcDbEllipse
 62
7
  6
CONTINUOUS
 10
-11.7610717
 20
22.119048931
 30
0.0
 11
-0.1768305473
 21
0.1768305473
 31
0.0
 40
0.9996954599
 41
-0.7852458701
 42
0.7852458701
  0
ELLIPSE
  5
79D
100
AcDbEntity
  8
RACCORDO
100
AcDbEllipse
 62
7
  6
CONTINUOUS
 10
-8.3870216703
 20
-22.4615988572
 30
0.0
 11
0.8
 21
0.0
 31
0.0
 40
0.0174550649
 41
0.0174532925
 42
1.5707963268
  0
ELLIPSE
  5
79E
100
AcDbEntity
  8
RACCORDO
100
AcDbEllipse
 62
7
  6
CONTINUOUS
 10
-35.3798718332
 20
-22.0877130325
 30
0.0
 11
0.3539894544
 21
0.3548642773
 31
0.0
 40
0.9950756131
 41
-0.7841640267
 42
0.7831416415
  0
ELLIPSE
  5
79F
100
AcDbEntity
  8
RACCORDO
100
AcDbEllipse
 62
7
  6
CONTINUOUS
 10
-35.3798718332
 20
22.0877130325
 30
0.0
 11
-0.3539894544
 21
0.3548642773
 31
0.0
 40
0.9950756131
 41
-3.9247342951
 42
-2.3574286268
  0
ELLIPSE
  5
7A0
100
AcDbEntity
  8
CURVE
100
AcDbEllipse
 62
250
  6
CONTINUOUS
 10
-40.5545595293
 20
16.254095
 30
0.0
 11
-0.0
 21
0.572706
 31
0.0
 40
0.9999238476
 41
1.5707963268
 42
2.887554973
  0
ELLIPSE
  5
7A1
100
AcDbEntity
  8
CURVE
100
AcDbEllipse
 62
250
  6
CONTINUOUS
 10
-34.8798718332
 20
6.103705
 30
0.0
 11
0.0
 21
0.73825
 31
0.0
 40
0.9999238476
 41
-4.7123889804
 42
-1.5707963268
  0
ELLIPSE
  5
7A2
100
AcDbEntity
  8
CURVE
100
AcDbEllipse
 62
250
  6
CONTINUOUS
 10
-34.8798718332
 20
6.734841
 30
0.0
 11
0.0
 21
0.73825
 31
0.0
 40
0.9999238476
 41
-4.7123889804
 42
-1.5707963268
  0
ELLIPSE
  5
7A3
100
AcDbEntity
  8
CURVE
100
AcDbEllipse
 62
250
  6
CONTINUOUS
 10
-34.8798718332
 20
7.365977
 30
0.0
 11
0.0
 21
0.73825
 31
0.0
 40
0.9999238476
 41
-4.7123889804
 42
-1.5707963268
  0
ELLIPSE
  5
7A4
100
AcDbEntity
  8
CURVE
100
AcDbEllipse
 62
250
  6
CONTINUOUS
 10
-32.2348747968
 20
6.5
 30
0.0
 11
-0.0
 21
0.269822
 31
0.0
 40
0.9999238476
 41
0.0
 42
4.0049075652
  0
ELLIPSE
  5
7A5
100
AcDbEntity
  8
CURVE
100
AcDbEllipse
 62
250
  6
CONTINUOUS
 10
-31.5248688696
 20
6.5
 30
0.0
 11
0.0
 21
0.269822
 31
0.0
 40
0.9999238476
 41
3.1415926536
 42
7.1465002188
  0
ENDSEC
  0
SECTION
  2
OBJECTS
  0
DICTIONARY
  5
C
100
AcDbDictionary
280
0
281
1
  3
ACAD_GROUP
350
D
  3
ACAD_MLINESTYLE
350
17
  3
ACAD_LAYOUT
350
1A
  3
ACAD_PLOTSETTINGS
350
19
  3
ACAD_PLOTSTYLENAME
350
E
  0
DICTIONARY
  5
D
102
{ACAD_REACTORS
330
C
102
}
100
AcDbDictionary
280
0
281
1
  0
ACDBDICTIONARYWDFLT
  5
E
102
{ACAD_REACTORS
330
C
102
}
100
AcDbDictionary
281
1
  3
Normal
350
F
100
AcDbDictionaryWithDefault
340
F
  0
DICTIONARY
  5
17
102
{ACAD_REACTORS
330
C
102
}
100
AcDbDictionary
280
0
281
1
  3
Standard
350
18
  0
DICTIONARY
  5
19
102
{ACAD_REACTORS
330
C
102
}
100
AcDbDictionary
281
1
  0
DICTIONARY
  5
1A
102
{ACAD_REACTORS
330
C
102
}
100
AcDbDictionary
281
1
  3
Model
350
7A6
  3
Layout1
350
7A7
  0
ACDBPLACEHOLDER
  5
F
102
{ACAD_REACTORS
330
E
102
}
  0
MLINESTYLE
  5
18
102
{ACAD_REACTORS
330
17
102
}
100
AcDbMlineStyle
  2
STANDARD
 70
0
  3

 62
256
 51
90.0
 52
90.0
 71
2
 49
0.5
 62
256
  6
BYLAYER
 49
-0.5
 62
256
  6
BYLAYER
  0
LAYOUT
  5
7A6
102
{ACAD_REACTORS
330
1A
102
}
100
AcDbPlotSettings
  1

  2
none_device
  4
ISO_A4_(297.00_x_210.00_MM)
  6

 40
0.0
 41
0.0
 42
0.0
 43
0.0
 44
297.0
 45
210.0
 46
0.0
 47
0.0
 48
0.0
 49
0.0
140
0.0
141
0.0
142
1.0
143
1.0
 70
1024
 72
1
 73
0
 74
0
  7

 75
0
147
1.0
148
0.0
149
0.0
100
AcDbLayout
  1
Model
 70
0
 71
0
 10
0.0
 20
0.0
 11
297.0
 21
210.0
 12
0.0
 22
0.0
 32
0.0
 14
0.0
 24
0.0
 34
0.0
 15
0.0
 25
0.0
 35
0.0
146
0.0
 13
0.0
 23
0.0
 33
0.0
 16
1.0
 26
0.0
 36
0.0
 17
0.0
 27
1.0
 37
0.0
 76
0
330
21C
345
0
346
0
  0
LAYOUT
  5
7A7
102
{ACAD_REACTORS
330
1A
102
}
100
AcDbPlotSettings
  1

  2
none_device
  4
ISO_A4_(297.00_x_210.00_MM)
  6

 40
0.0
 41
0.0
 42
0.0
 43
0.0
 44
297.0
 45
210.0
 46
0.0
 47
0.0
 48
0.0
 49
0.0
140
0.0
141
0.0
142
1.0
143
1.0
 70
0
 72
1
 73
0
 74
0
  7

 75
0
147
1.0
148
0.0
149
0.0
100
AcDbLayout
  1
Layout1
 70
0
 71
1
 10
0.0
 20
0.0
 11
297.0
 21
210.0
 12
0.0
 22
0.0
 32
0.0
 14
0.0
 24
0.0
 34
0.0
 15
0.0
 25
0.0
 35
0.0
146
0.0
 13
0.0
 23
0.0
 33
0.0
 16
1.0
 26
0.0
 36
0.0
 17
0.0
 27
1.0
 37
0.0
 76
0
330
21D
345
0
346
0
  0
ENDSEC
  0
EOF
