  0
SECTION
  2
HEADER
  9
$ACADVER
  1
AC1024
  9
$DWGCODEPAGE
  3
ANSI_1252
  9
$EXTMAX
 10
297.0
 20
210.0
 30
0.0
  9
$EXTMIN
 10
0.0
 20
0.0
 30
0.0
  9
$LIMMIN
 10
0.0
 20
0.0
  9
$LIMMAX
 10
297.0
 20
210.0
  9
$VIEWCTR
 10
148.5
 20
105.0
  9
$VIEWSIZE
 40
210.0
  9
$CLAYER
  8
0
  9
$LTSCALE
 40
16.335
  9
$CELTYPE
  6
BYLAYER
  9
$DIMSCALE
 40
1.0
  9
$DIMASZ
 40
3.0
  9
$DIMEXO
 40
0.5
  9
$DIMDLI
 40
11.286
  9
$DIMEXE
 40
1.5
  9
$DIMCEN
 40
2.673
  9
$DIMLFAC
 40
1.0
  9
$DIMBLK
  1
_FILLED
  9
$DIMALT
 70
0
  9
$DIMALTF
 40
0.0393700787
  9
$DIMTXT
 40
3.0
  9
$DIMTOL
 70
1
  9
$DIMLIM
 70
0
  9
$DIMTFAC
 40
1.0
  9
$DIMTP
 40
0.01
  9
$DIMTM
 40
0.01
  9
$DIMGAP
 40
0.625
  9
$DIMDSEP
 70
44
  9
$AUNITS
 70
0
  9
$PDMODE
 70
3
  9
$PDSIZE
 40
3.0
  9
$HANDSEED
  5
5E0
  9
$TILEMODE
 70
1
  9
$MEASUREMENT
 70
1
  9
$INSUNITS
 70
4
  0
ENDSEC
  0
SECTION
  2
CLASSES
  0
CLASS
  1
ACDBDICTIONARYWDFLT
  2
AcDbDictionaryWithDefault
  3
AutoCAD 2000
 90
0
 91
1
280
0
281
0
  0
CLASS
  1
ACDBPLACEHOLDER
  2
AcDbPlaceHolder
  3
AutoCAD 2000
 90
0
 91
1
280
0
281
0
  0
CLASS
  1
LAYOUT
  2
AcDbLayout
  3
AutoCAD 2000
 90
0
 91
0
280
0
281
0
  0
ENDSEC
  0
SECTION
  2
TABLES
  0
TABLE
  2
VPORT
  5
8
100
AcDbSymbolTable
 70
2
  0
VPORT
  5
1F4
100
AcDbSymbolTableRecord
100
AcDbViewportTableRecord
  2
*ACTIVE
 70
0
 10
0.0
 20
0.0
 11
1.0
 21
1.0
 12
148.5
 22
105.0
 13
0.0
 23
0.0
 14
1.0
 24
1.0
 15
0.0
 25
0.0
 16
0.0
 26
0.0
 36
1.0
 17
0.0
 27
0.0
 37
0.0
 40
210.0
 41
1.4142857143
 42
50.0
 43
0.0
 44
0.0
 50
0.0
 51
0.0
 71
0
 72
100
 73
1
 74
1
 75
0
 76
0
 77
0
 78
0
  0
ENDTAB
  0
TABLE
  2
LTYPE
  5
5
100
AcDbSymbolTable
 70
6
  0
LTYPE
  5
14
100
AcDbSymbolTableRecord
100
AcDbLinetypeTableRecord
  2
BYBLOCK
 70
0
  3

 72
65
 73
0
 40
0.0
  0
LTYPE
  5
15
100
AcDbSymbolTableRecord
100
AcDbLinetypeTableRecord
  2
BYLAYER
 70
0
  3

 72
65
 73
0
 40
0.0
  0
LTYPE
  5
16
100
AcDbSymbolTableRecord
100
AcDbLinetypeTableRecord
  2
CONTINUOUS
 70
64
  3
Solid line
 72
65
 73
0
 40
0.0
  0
LTYPE
  5
1F5
100
AcDbSymbolTableRecord
100
AcDbLinetypeTableRecord
  2
CENTER
 70
64
  3
____ _ ____ _ ____ _ ____ _ ____ _ ____ _ ____
 72
65
 73
4
 40
0.6
 49
0.375
 74
0
 49
-0.075
 74
0
 49
0.075
 74
0
 49
-0.075
 74
0
  0
LTYPE
  5
1F6
100
AcDbSymbolTableRecord
100
AcDbLinetypeTableRecord
  2
HIDDEN
 70
64
  3
- - - - - - - - - - - - - - - - - - - -
 72
65
 73
2
 40
0.2
 49
0.1
 74
0
 49
-0.1
 74
0
  0
LTYPE
  5
1F7
100
AcDbSymbolTableRecord
100
AcDbLinetypeTableRecord
  2
PHANTOM
 70
64
  3
_____ _ _ _____ _ _ _____ _ _ _____
 72
65
 73
6
 40
0.8
 49
0.45
 74
0
 49
-0.05
 74
0
 49
0.1
 74
0
 49
-0.05
 74
0
 49
0.1
 74
0
 49
-0.05
 74
0
  0
LTYPE
  5
1F8
100
AcDbSymbolTableRecord
100
AcDbLinetypeTableRecord
  2
DOT
 70
64
  3
. . . . . . . . . . . . . . . . . . . .
 72
65
 73
2
 40
0.2
 49
0.1
 74
0
 49
-0.1
 74
0
  0
LTYPE
  5
1F9
100
AcDbSymbolTableRecord
100
AcDbLinetypeTableRecord
  2
DASHED
 70
64
  3
- - - - - - - - - - - - - - - - - - - -
 72
65
 73
2
 40
0.2
 49
0.1
 74
0
 49
-0.1
 74
0
  0
ENDTAB
  0
TABLE
  2
LAYER
  5
2
100
AcDbSymbolTable
 70
36
  0
LAYER
  5
10
100
AcDbSymbolTableRecord
100
AcDbLayerTableRecord
  2
0
 70
0
 62
7
  6
CONTINUOUS
370
-3
390
F
  0
LAYER
  5
1FA
100
AcDbSymbolTableRecord
100
AcDbLayerTableRecord
  2
DEFAULT_1
 70
0
 62
7
  6
CENTER
370
-3
390
F
  0
LAYER
  5
1FB
100
AcDbSymbolTableRecord
100
AcDbLayerTableRecord
  2
DEFAULT_2
 70
0
 62
7
  6
HIDDEN
370
-3
390
F
  0
LAYER
  5
1FC
100
AcDbSymbolTableRecord
100
AcDbLayerTableRecord
  2
DEFAULT_3
 70
0
 62
7
  6
PHANTOM
370
-3
390
F
  0
LAYER
  5
1FD
100
AcDbSymbolTableRecord
100
AcDbLayerTableRecord
  2
ASSI
 70
0
 62
7
  6
CONTINUOUS
370
-3
390
F
  0
LAYER
  5
1FE
100
AcDbSymbolTableRecord
100
AcDbLayerTableRecord
  2
COORDINATE
 70
0
 62
7
  6
CONTINUOUS
370
-3
390
F
  0
LAYER
  5
1FF
100
AcDbSymbolTableRecord
100
AcDbLayerTableRecord
  2
COORD_ORIGINE
 70
0
 62
7
  6
CONTINUOUS
370
-3
390
F
  0
LAYER
  5
200
100
AcDbSymbolTableRecord
100
AcDbLayerTableRecord
  2
COPY_PUBLISH
 70
0
 62
7
  6
CONTINUOUS
370
-3
390
F
  0
LAYER
  5
201
100
AcDbSymbolTableRecord
100
AcDbLayerTableRecord
  2
COSMETIC
 70
0
 62
7
  6
CONTINUOUS
370
-3
390
F
  0
LAYER
  5
202
100
AcDbSymbolTableRecord
100
AcDbLayerTableRecord
  2
COSMETICHE
 70
0
 62
7
  6
CONTINUOUS
370
-3
390
F
  0
LAYER
  5
203
100
AcDbSymbolTableRecord
100
AcDbLayerTableRecord
  2
COSMETICI
 70
0
 62
7
  6
CONTINUOUS
370
-3
390
F
  0
LAYER
  5
204
100
AcDbSymbolTableRecord
100
AcDbLayerTableRecord
  2
CURVE
 70
0
 62
7
  6
CONTINUOUS
370
-3
390
F
  0
LAYER
  5
205
100
AcDbSymbolTableRecord
100
AcDbLayerTableRecord
  2
CURVE1
 70
0
 62
7
  6
CONTINUOUS
370
-3
390
F
  0
LAYER
  5
206
100
AcDbSymbolTableRecord
100
AcDbLayerTableRecord
  2
DRAFT
 70
0
 62
7
  6
CONTINUOUS
370
-3
390
F
  0
LAYER
  5
207
100
AcDbSymbolTableRecord
100
AcDbLayerTableRecord
  2
IGES
 70
0
 62
7
  6
CONTINUOUS
370
-3
390
F
  0
LAYER
  5
208
100
AcDbSymbolTableRecord
100
AcDbLayerTableRecord
  2
IMPORT
 70
0
 62
7
  6
CONTINUOUS
370
-3
390
F
  0
LAYER
  5
209
100
AcDbSymbolTableRecord
100
AcDbLayerTableRecord
  2
IMPORT_IGES
 70
0
 62
7
  6
CONTINUOUS
370
-3
390
F
  0
LAYER
  5
20A
100
AcDbSymbolTableRecord
100
AcDbLayerTableRecord
  2
INCISIONI
 70
0
 62
7
  6
CONTINUOUS
370
-3
390
F
  0
LAYER
  5
20B
100
AcDbSymbolTableRecord
100
AcDbLayerTableRecord
  2
INTF_1
 70
0
 62
7
  6
CONTINUOUS
370
-3
390
F
  0
LAYER
  5
20C
100
AcDbSymbolTableRecord
100
AcDbLayerTableRecord
  2
INTF_11
 70
0
 62
7
  6
CONTINUOUS
370
-3
390
F
  0
LAYER
  5
20D
100
AcDbSymbolTableRecord
100
AcDbLayerTableRecord
  2
INTF_2
 70
0
 62
7
  6
CONTINUOUS
370
-3
390
F
  0
LAYER
  5
20E
100
AcDbSymbolTableRecord
100
AcDbLayerTableRecord
  2
LAY0001
 70
0
 62
7
  6
CONTINUOUS
370
-3
390
F
  0
LAYER
  5
20F
100
AcDbSymbolTableRecord
100
AcDbLayerTableRecord
  2
LAYER_PIANI_CONTATTI
 70
0
 62
7
  6
CONTINUOUS
370
-3
390
F
  0
LAYER
  5
210
100
AcDbSymbolTableRecord
100
AcDbLayerTableRecord
  2
NOTE
 70
0
 62
7
  6
CONTINUOUS
370
-3
390
F
  0
LAYER
  5
211
100
AcDbSymbolTableRecord
100
AcDbLayerTableRecord
  2
PIANI
 70
0
 62
7
  6
CONTINUOUS
370
-3
390
F
  0
LAYER
  5
212
100
AcDbSymbolTableRecord
100
AcDbLayerTableRecord
  2
PIANI_DI_RIFERIMENTO
 70
0
 62
7
  6
CONTINUOUS
370
-3
390
F
  0
LAYER
  5
213
100
AcDbSymbolTableRecord
100
AcDbLayerTableRecord
  2
PIANI_ORIGINE
 70
0
 62
7
  6
CONTINUOUS
370
-3
390
F
  0
LAYER
  5
214
100
AcDbSymbolTableRecord
100
AcDbLayerTableRecord
  2
PIANI_QUOTA
 70
0
 62
7
  6
CONTINUOUS
370
-3
390
F
  0
LAYER
  5
215
100
AcDbSymbolTableRecord
100
AcDbLayerTableRecord
  2
PUNTI
 70
0
 62
7
  6
CONTINUOUS
370
-3
390
F
  0
LAYER
  5
216
100
AcDbSymbolTableRecord
100
AcDbLayerTableRecord
  2
RACCORDO
 70
0
 62
7
  6
CONTINUOUS
370
-3
390
F
  0
LAYER
  5
217
100
AcDbSymbolTableRecord
100
AcDbLayerTableRecord
  2
RGB__255__255__255__
 70
0
 62
7
  6
CONTINUOUS
370
-3
390
F
  0
LAYER
  5
218
100
AcDbSymbolTableRecord
100
AcDbLayerTableRecord
  2
RGB____0____0____0__
 70
0
 62
7
  6
CONTINUOUS
370
-3
390
F
  0
LAYER
  5
219
100
AcDbSymbolTableRecord
100
AcDbLayerTableRecord
  2
SIMBOLI
 70
0
 62
7
  6
CONTINUOUS
370
-3
390
F
  0
LAYER
  5
21A
100
AcDbSymbolTableRecord
100
AcDbLayerTableRecord
  2
SMUSSO
 70
0
 62
7
  6
CONTINUOUS
370
-3
390
F
  0
LAYER
  5
21B
100
AcDbSymbolTableRecord
100
AcDbLayerTableRecord
  2
SNAPLINE
 70
0
 62
7
  6
CONTINUOUS
370
-3
390
F
  0
LAYER
  5
21C
100
AcDbSymbolTableRecord
100
AcDbLayerTableRecord
  2
SUPERFICI
 70
0
 62
7
  6
CONTINUOUS
370
-3
390
F
  0
LAYER
  5
21D
100
AcDbSymbolTableRecord
100
AcDbLayerTableRecord
  2
TRASH
 70
0
 62
7
  6
CONTINUOUS
370
-3
390
F
  0
LAYER
  5
21E
100
AcDbSymbolTableRecord
100
AcDbLayerTableRecord
  2
XSEC_DATUMS
 70
0
 62
7
  6
CONTINUOUS
370
-3
390
F
  0
ENDTAB
  0
TABLE
  2
STYLE
  5
3
100
AcDbSymbolTable
 70
1
  0
STYLE
  5
11
100
AcDbSymbolTableRecord
100
AcDbTextStyleTableRecord
  2
STANDARD
 70
0
 40
0.0
 41
0.8
 50
0.0
 71
0
 42
0.2
  3
txt
  4

  0
STYLE
  5
21F
100
AcDbSymbolTableRecord
100
AcDbTextStyleTableRecord
  2
TEXTSTYLE_1
 70
0
 40
0.0
 41
0.8
 50
0.0
 71
0
 42
0.2
  3
gdt
  4

  0
ENDTAB
  0
TABLE
  2
VIEW
  5
6
100
AcDbSymbolTable
 70
0
  0
ENDTAB
  0
TABLE
  2
UCS
  5
7
100
AcDbSymbolTable
 70
0
  0
ENDTAB
  0
TABLE
  2
APPID
  5
9
100
AcDbSymbolTable
 70
1
  0
APPID
  5
220
100
AcDbSymbolTableRecord
100
AcDbRegAppTableRecord
  2
ACAD
 70
0
  0
ENDTAB
  0
TABLE
  2
BLOCK_RECORD
  5
1
100
AcDbSymbolTable
 70
0
  0
BLOCK_RECORD
  5
221
100
AcDbSymbolTableRecord
100
AcDbBlockTableRecord
  2
*Model_Space
  0
BLOCK_RECORD
  5
222
100
AcDbSymbolTableRecord
100
AcDbBlockTableRecord
  2
*Paper_Space
  0
BLOCK_RECORD
  5
223
100
AcDbSymbolTableRecord
100
AcDbBlockTableRecord
  2
_FILLED
  0
BLOCK_RECORD
  5
224
100
AcDbSymbolTableRecord
100
AcDbBlockTableRecord
  2
*D0
  0
BLOCK_RECORD
  5
225
100
AcDbSymbolTableRecord
100
AcDbBlockTableRecord
  2
*D1
  0
BLOCK_RECORD
  5
226
100
AcDbSymbolTableRecord
100
AcDbBlockTableRecord
  2
*D2
  0
BLOCK_RECORD
  5
227
100
AcDbSymbolTableRecord
100
AcDbBlockTableRecord
  2
*D3
  0
ENDTAB
  0
TABLE
  2
DIMSTYLE
  5
A
100
AcDbSymbolTable
 70
1
100
AcDbDimStyleTable
 71
0
  0
DIMSTYLE
105
228
100
AcDbSymbolTableRecord
100
AcDbDimStyleTableRecord
  2
STANDARD
 70
0
  3

  4

 40
1.0
 41
3.0
 42
0.5
 43
0.38
 44
1.5
 45
0.0
 46
0.0
 47
0.01
 48
0.01
140
3.0
141
0.09
142
0.0
143
25.4
144
1.0
145
0.0
146
1.0
147
0.625
 71
1
 72
0
 73
0
 74
0
 75
0
 76
0
 77
1
 78
8
 79
2
170
0
171
1
172
0
173
0
174
0
175
0
176
0
177
0
178
0
270
2
179
2
271
2
272
2
273
2
274
2
275
0
280
0
281
0
282
0
283
1
284
8
285
0
286
0
287
3
288
0
340
11
278
44
341
223
342
223
343
223
344
223
  0
DIMSTYLE
105
229
100
AcDbSymbolTableRecord
100
AcDbDimStyleTableRecord
  2
DIMSTYLE_1
 70
0
  3

  4

 40
1.0
 41
3.0
 42
0.5
 43
0.38
 44
1.5
 45
0.0
 46
0.0
 47
0.0
 48
0.0
140
3.0
141
0.09
142
0.0
143
25.4
144
1.0
145
0.0
146
1.0
147
0.75
 71
0
 72
0
 73
0
 74
0
 75
0
 76
0
 77
1
 78
8
 79
2
170
0
171
1
172
0
173
0
174
0
175
0
176
0
177
0
178
0
270
2
179
2
271
2
272
2
273
2
274
2
275
0
280
0
281
0
282
0
283
1
284
8
285
0
286
0
287
3
288
0
340
11
278
44
341
223
342
223
343
223
344
223
  0
ENDTAB
  0
ENDSEC
  0
SECTION
  2
BLOCKS
  0
BLOCK
  5
20
100
AcDbEntity
  8
0
100
AcDbBlockBegin
  2
*Model_Space
 70
0
 10
0.0
 20
0.0
 30
0.0
  3
*Model_Space
  1

  0
ENDBLK
  5
21
100
AcDbEntity
  8
0
100
AcDbBlockEnd
  0
BLOCK
  5
1C
100
AcDbEntity
  8
0
100
AcDbBlockBegin
  2
*Paper_Space
 70
0
 10
0.0
 20
0.0
 30
0.0
  3
*Paper_Space
  1

  0
ENDBLK
  5
1D
100
AcDbEntity
  8
0
100
AcDbBlockEnd
  0
BLOCK
  5
22A
100
AcDbEntity
  8
0
100
AcDbBlockBegin
  2
_FILLED
 70
64
 10
0.0
 20
0.0
  3
_FILLED
  1

  0
SOLID
  5
22B
100
AcDbEntity
  8
0
  6
BYBLOCK
 62
0
100
AcDbTrace
 10
0.0
 20
0.0
 11
-1.0
 21
0.3166666667
 12
-1.0
 22
-0.3166666667
 13
-1.0
 23
-0.3166666667
  0
ENDBLK
  5
22C
100
AcDbEntity
  8
0
  6
BYBLOCK
 62
0
100
AcDbBlockEnd
  0
BLOCK
  5
22D
100
AcDbEntity
  8
0
100
AcDbBlockBegin
 62
7
  6
CONTINUOUS
  2
*D0
 70
65
 10
0.0
 20
0.0
  3
*D0
  1

  0
LINE
  5
22E
100
AcDbEntity
  8
0
100
AcDbLine
 62
7
  6
CONTINUOUS
 10
-10.35
 20
19.9728483595
 11
-10.35
 21
34.6
  0
LINE
  5
22F
100
AcDbEntity
  8
0
100
AcDbLine
 62
7
  6
CONTINUOUS
 10
11.45
 20
19.9728483595
 11
11.45
 21
34.6
  0
LINE
  5
230
100
AcDbEntity
  8
0
100
AcDbLine
 62
7
  6
CONTINUOUS
 10
-10.35
 20
33.1
 11
0.55
 21
33.1
  0
LINE
  5
231
100
AcDbEntity
  8
0
100
AcDbLine
 62
7
  6
CONTINUOUS
 10
11.45
 20
33.1
 11
0.55
 21
33.1
  0
INSERT
  5
232
100
AcDbEntity
  8
0
100
AcDbBlockReference
 62
7
  6
CONTINUOUS
  2
_FILLED
 10
-10.35
 20
33.1
 41
3.0
 42
3.0
 43
3.0
 50
180.0
  0
INSERT
  5
233
100
AcDbEntity
  8
0
100
AcDbBlockReference
 62
7
  6
CONTINUOUS
  2
_FILLED
 10
11.45
 20
33.1
 41
3.0
 42
3.0
 43
3.0
  0
ENDBLK
  5
234
100
AcDbEntity
  8
0
  6
BYBLOCK
 62
0
100
AcDbBlockEnd
  0
BLOCK
  5
235
100
AcDbEntity
  8
0
100
AcDbBlockBegin
 62
7
  6
CONTINUOUS
  2
*D1
 70
65
 10
0.0
 20
0.0
  3
*D1
  1

  0
LINE
  5
236
100
AcDbEntity
  8
0
100
AcDbLine
 62
7
  6
CONTINUOUS
 10
-20.5686083971
 20
11.3967422994
 11
-20.5686083971
 21
44.6
  0
LINE
  5
237
100
AcDbEntity
  8
0
100
AcDbLine
 62
7
  6
CONTINUOUS
 10
-55.5686083971
 20
0.5
 11
-55.5686083971
 21
44.6
  0
LINE
  5
238
100
AcDbEntity
  8
0
100
AcDbLine
 62
7
  6
CONTINUOUS
 10
-20.5686083971
 20
43.1
 11
-38.0686083971
 21
43.1
  0
LINE
  5
239
100
AcDbEntity
  8
0
100
AcDbLine
 62
7
  6
CONTINUOUS
 10
-55.5686083971
 20
43.1
 11
-38.0686083971
 21
43.1
  0
INSERT
  5
23A
100
AcDbEntity
  8
0
100
AcDbBlockReference
 62
7
  6
CONTINUOUS
  2
_FILLED
 10
-20.5686083971
 20
43.1
 41
3.0
 42
3.0
 43
3.0
  0
INSERT
  5
23B
100
AcDbEntity
  8
0
100
AcDbBlockReference
 62
7
  6
CONTINUOUS
  2
_FILLED
 10
-55.5686083971
 20
43.1
 41
3.0
 42
3.0
 43
3.0
 50
180.0
  0
ENDBLK
  5
23C
100
AcDbEntity
  8
0
  6
BYBLOCK
 62
0
100
AcDbBlockEnd
  0
BLOCK
  5
23D
100
AcDbEntity
  8
0
100
AcDbBlockBegin
 62
7
  6
CONTINUOUS
  2
*D2
 70
65
 10
0.0
 20
0.0
  3
*D2
  1

  0
LINE
  5
23E
100
AcDbEntity
  8
0
100
AcDbLine
 62
7
  6
CONTINUOUS
 10
-45.4686083971
 20
25.1
 11
-65.0686081204
 21
25.1
  0
LINE
  5
23F
100
AcDbEntity
  8
0
100
AcDbLine
 62
7
  6
CONTINUOUS
 10
-45.4686083971
 20
-25.1
 11
-65.0686081204
 21
-25.1
  0
LINE
  5
240
100
AcDbEntity
  8
0
100
AcDbLine
 62
7
  6
CONTINUOUS
 10
-63.5686081204
 20
25.1
 11
-63.5686081204
 21
0.0
  0
LINE
  5
241
100
AcDbEntity
  8
0
100
AcDbLine
 62
7
  6
CONTINUOUS
 10
-63.5686081204
 20
-25.1
 11
-63.5686081204
 21
0.0
  0
INSERT
  5
242
100
AcDbEntity
  8
0
100
AcDbBlockReference
 62
7
  6
CONTINUOUS
  2
_FILLED
 10
-63.5686081204
 20
25.1
 41
3.0
 42
3.0
 43
3.0
 50
90.0
  0
INSERT
  5
243
100
AcDbEntity
  8
0
100
AcDbBlockReference
 62
7
  6
CONTINUOUS
  2
_FILLED
 10
-63.5686081204
 20
-25.1
 41
3.0
 42
3.0
 43
3.0
 50
270.0
  0
ENDBLK
  5
244
100
AcDbEntity
  8
0
  6
BYBLOCK
 62
0
100
AcDbBlockEnd
  0
BLOCK
  5
245
100
AcDbEntity
  8
0
100
AcDbBlockBegin
 62
7
  6
CONTINUOUS
  2
*D3
 70
65
 10
0.0
 20
0.0
  3
*D3
  1

  0
LINE
  5
246
100
AcDbEntity
  8
0
100
AcDbLine
 62
7
  6
CONTINUOUS
 10
-20.5686083971
 20
11.3967422994
 11
-20.5686083971
 21
34.6
  0
LINE
  5
247
100
AcDbEntity
  8
0
100
AcDbLine
 62
7
  6
CONTINUOUS
 10
-45.6686083971
 20
24.9
 11
-45.6686083971
 21
34.6
  0
LINE
  5
248
100
AcDbEntity
  8
0
100
AcDbLine
 62
7
  6
CONTINUOUS
 10
-20.5686083971
 20
33.1
 11
-33.1186083971
 21
33.1
  0
LINE
  5
249
100
AcDbEntity
  8
0
100
AcDbLine
 62
7
  6
CONTINUOUS
 10
-45.6686083971
 20
33.1
 11
-33.1186083971
 21
33.1
  0
INSERT
  5
24A
100
AcDbEntity
  8
0
100
AcDbBlockReference
 62
7
  6
CONTINUOUS
  2
_FILLED
 10
-20.5686083971
 20
33.1
 41
3.0
 42
3.0
 43
3.0
  0
INSERT
  5
24B
100
AcDbEntity
  8
0
100
AcDbBlockReference
 62
7
  6
CONTINUOUS
  2
_FILLED
 10
-45.6686083971
 20
33.1
 41
3.0
 42
3.0
 43
3.0
 50
180.0
  0
ENDBLK
  5
24C
100
AcDbEntity
  8
0
  6
BYBLOCK
 62
0
100
AcDbBlockEnd
  0
ENDSEC
  0
SECTION
  2
ENTITIES
  0
DIMENSION
  5
24D
100
AcDbEntity
  8
0
100
AcDbDimension
 62
7
  6
CONTINUOUS
  2
*D0
 10
11.45
 20
33.1
 11
-3.5214285714
 21
33.1
 70
160
 71
2
 72
2
 41
0.9
 42
21.8
  3
DIMSTYLE_1
100
AcDbAlignedDimension
 13
-10.35
 23
19.4728483595
 14
11.45
 24
19.4728483595
100
AcDbRotatedDimension
  0
DIMENSION
  5
24E
100
AcDbEntity
  8
0
100
AcDbDimension
 62
7
  6
CONTINUOUS
  2
*D1
 10
-55.5686083971
 20
43.1
 11
-40.2114655399
 21
43.1
 70
160
 71
2
 72
2
 41
0.9
 42
35.0
  3
DIMSTYLE_1
100
AcDbAlignedDimension
 13
-20.5686083971
 23
10.8967422994
 14
-55.5686083971
 24
0.0
 50
180.0
100
AcDbRotatedDimension
  0
DIMENSION
  5
24F
100
AcDbEntity
  8
0
100
AcDbDimension
 62
7
  6
CONTINUOUS
  2
*D2
 10
-63.5686081204
 20
-25.1
 11
-63.5686081204
 21
-4.2857142857
 70
160
 71
2
 72
2
 41
0.9
 42
50.2
  3
DIMSTYLE_1
100
AcDbAlignedDimension
 13
-44.9686083971
 23
25.1
 14
-44.9686083971
 24
-25.1
 50
270.0
100
AcDbRotatedDimension
  0
DIMENSION
  5
250
100
AcDbEntity
  8
0
100
AcDbDimension
 62
7
  6
CONTINUOUS
  2
*D3
 10
-45.6686083971
 20
33.1
 11
-37.0828941114
 21
33.1
 70
160
 71
2
 72
2
 41
0.9
 42
25.1
  3
DIMSTYLE_1
100
AcDbAlignedDimension
 13
-20.5686083971
 23
10.8967422994
 14
-45.6686083971
 24
24.4
 50
180.0
100
AcDbRotatedDimension
  0
LWPOLYLINE
  5
251
100
AcDbEntity
  8
0
100
AcDbPolyline
 62
7
  6
CONTINUOUS
 90
3
 70
0
 43
0.3500000006
 10
-1.1642856953
 20
35.9928593903
 10
-0.3071428699
 20
36.8500018616
 10
-0.3071428699
 20
33.850000946
  0
LINE
  5
252
100
AcDbEntity
  8
RACCORDO
100
AcDbLine
 62
7
  6
CONTINUOUS
 10
-6.4896318286
 20
23.2309794012
 11
-6.5761155811
 21
23.195156658
  0
LINE
  5
253
100
AcDbEntity
  8
RACCORDO
100
AcDbLine
 62
250
  6
CONTINUOUS
 10
-6.3939609677
 20
23.25
 11
-6.5688297051
 21
23.1775669973
  0
LWPOLYLINE
  5
254
100
AcDbEntity
  8
RACCORDO
100
AcDbPolyline
 62
250
  6
CONTINUOUS
 90
3
 70
0
 10
11.1829926629
 20
-22.2625724973
 10
11.1786408577
 20
-22.2633529496
 10
11.1367206889
 20
-22.266898725
  0
LWPOLYLINE
  5
255
100
AcDbEntity
  8
RACCORDO
100
AcDbPolyline
 62
7
  6
CONTINUOUS
 90
25
 70
0
 10
-3.75
 20
-23.9584094599
 10
-3.7631726262
 20
-23.9585464789
 10
-3.7761786476
 20
-23.9589423239
 10
-3.7890180644
 20
-23.9595969948
 10
-3.8017442772
 20
-23.9605154975
 10
-3.8143038853
 20
-23.9616928261
 10
-3.8265366865
 20
-23.9631139635
 10
-3.8384384945
 20
-23.9647820327
 10
-3.8500134956
 20
-23.9666939106
 10
-3.8611140466
 20
-23.9688252106
 10
-3.87173407
 20
-23.9711787434
 10
-3.8818796433
 20
-23.9737516983
 10
-3.8914213562
 20
-23.9765112563
 10
-3.9003514735
 20
-23.9794598077
 10
-3.9086777303
 20
-23.9825949623
 10
-3.9162939225
 20
-23.98587673
 10
-3.9231909541
 20
-23.9893069889
 10
-3.9293779211
 20
-23.992883861
 10
-3.9347759065
 20
-23.9965617219
 10
-3.9393748036
 20
-24.0003418654
 10
-3.943184719
 20
-24.0042229977
 10
-3.9461570561
 20
-24.0081556138
 10
-3.9482756158
 20
-24.0121232117
 10
-3.9495565971
 20
-24.0161422934
 10
-3.95
 20
-24.0202128587
  0
LINE
  5
256
100
AcDbEntity
  8
0
100
AcDbLine
 62
7
  6
CONTINUOUS
 10
-5.45
 20
-25.1
 11
6.55
 21
-25.1
  0
LINE
  5
257
100
AcDbEntity
  8
0
100
AcDbLine
 62
250
  6
CONTINUOUS
 10
-5.45
 20
-24.4
 11
6.55
 21
-24.4
  0
LINE
  5
258
100
AcDbEntity
  8
RACCORDO
100
AcDbLine
 62
7
  6
CONTINUOUS
 10
-5.45
 20
-24.1
 11
-3.3832662348
 21
-24.1
  0
LINE
  5
259
100
AcDbEntity
  8
RACCORDO
100
AcDbLine
 62
7
  6
CONTINUOUS
 10
4.4832662348
 20
-24.1
 11
6.55
 21
-24.1
  0
LINE
  5
25A
100
AcDbEntity
  8
RACCORDO
100
AcDbLine
 62
7
  6
CONTINUOUS
 10
4.85
 20
-23.9584094599
 11
4.2920816149
 21
-23.9584094599
  0
LINE
  5
25B
100
AcDbEntity
  8
RACCORDO
100
AcDbLine
 62
7
  6
CONTINUOUS
 10
-3.1920816149
 20
-23.9584094599
 11
-3.75
 21
-23.9584094599
  0
LWPOLYLINE
  5
25C
100
AcDbEntity
  8
RACCORDO
100
AcDbPolyline
 62
7
  6
CONTINUOUS
 90
10
 70
0
 10
-7.1995633304
 20
-23.1775669973
 10
-7.2449302071
 20
-23.1728872837
 10
-7.2865906283
 20
-23.16178535
 10
-7.324544594
 20
-23.1442611963
 10
-7.3596970235
 20
-23.1194468167
 10
-7.3911429975
 20
-23.0882102169
 10
-7.416167758
 20
-23.053155415
 10
-7.4338663855
 20
-23.0151504169
 10
-7.4451437995
 20
-22.9733272166
 10
-7.45
 20
-22.927685814
  0
LWPOLYLINE
  5
25D
100
AcDbEntity
  8
RACCORDO
100
AcDbPolyline
 62
250
  6
CONTINUOUS
 90
3
 70
0
 10
-10.082992661
 20
-22.2625724977
 10
-10.0786408399
 20
-22.2633529526
 10
-10.0367206889
 20
-22.266898725
  0
LINE
  5
25E
100
AcDbEntity
  8
RACCORDO
100
AcDbLine
 62
7
  6
CONTINUOUS
 10
-6.5761155811
 20
-23.195156658
 11
-6.4896740082
 21
-23.2309619298
  0
LINE
  5
25F
100
AcDbEntity
  8
RACCORDO
100
AcDbLine
 62
250
  6
CONTINUOUS
 10
-6.5688297051
 20
-23.1775669973
 11
-6.3939609677
 21
-23.25
  0
LWPOLYLINE
  5
260
100
AcDbEntity
  8
RACCORDO
100
AcDbPolyline
 62
250
  6
CONTINUOUS
 90
6
 70
0
 10
-7.1995633304
 20
-23.1775669973
 10
-7.1972655454
 20
-23.1773550747
 10
-7.1937249538
 20
-23.1771393468
 10
-7.1889415557
 20
-23.1769198136
 10
-7.1829938793
 20
-23.1766958725
 10
-7.1758033964
 20
-23.1764681261
  0
LWPOLYLINE
  5
261
100
AcDbEntity
  8
RACCORDO
100
AcDbPolyline
 62
250
  6
CONTINUOUS
 90
5
 70
0
 10
-7.45
 20
-22.927685814
 10
-7.4472640732
 20
-22.9274725593
 10
-7.4429862344
 20
-22.9272550592
 10
-7.437047865
 20
-22.9270333137
 10
-7.4293332184
 20
-22.9268066845
  0
LWPOLYLINE
  5
262
100
AcDbEntity
  8
RACCORDO
100
AcDbPolyline
 62
7
  6
CONTINUOUS
 90
6
 70
0
 10
7.4939609677
 20
-23.25
 10
7.5157501563
 20
-23.249052271
 10
7.5373734382
 20
-23.2462082897
 10
7.5586661703
 20
-23.2414897106
 10
7.5794662261
 20
-23.2349324617
 10
7.5896318286
 20
-23.2309794012
  0
LWPOLYLINE
  5
263
100
AcDbEntity
  8
RACCORDO
100
AcDbPolyline
 62
250
  6
CONTINUOUS
 90
6
 70
0
 10
7.0981945577
 20
-23.1764553286
 10
7.0890325234
 20
-23.176747238
 10
7.0818279832
 20
-23.1770418539
 10
7.0766117853
 20
-23.1773380656
 10
7.0733530816
 20
-23.1776369839
 10
7.0720518721
 20
-23.1779386087
  0
LWPOLYLINE
  5
264
100
AcDbEntity
  8
RACCORDO
100
AcDbPolyline
 62
250
  6
CONTINUOUS
 90
5
 70
0
 10
6.8461081957
 20
-22.9267566984
 10
6.8359159662
 20
-22.9270512131
 10
6.8285042133
 20
-22.9273474358
 10
6.8238839911
 20
-22.9276464418
 10
6.8220612445
 20
-22.9279482311
  0
LINE
  5
265
100
AcDbEntity
  8
RACCORDO
100
AcDbLine
 62
250
  6
CONTINUOUS
 10
-7.1758033964
 20
-23.1764681261
 11
-7.1570071547
 21
-23.17600669
  0
LINE
  5
266
100
AcDbEntity
  8
RACCORDO
100
AcDbLine
 62
250
  6
CONTINUOUS
 10
7.1221560027
 20
-23.1758895826
 11
7.0981945577
 21
-23.1764553286
  0
LINE
  5
267
100
AcDbEntity
  8
RACCORDO
100
AcDbLine
 62
250
  6
CONTINUOUS
 10
-7.4293332184
 20
-22.9268066845
 11
-7.4080996729
 21
-22.9263426048
  0
LINE
  5
268
100
AcDbEntity
  8
RACCORDO
100
AcDbLine
 62
250
  6
CONTINUOUS
 10
6.8747011221
 20
-22.9261792445
 11
6.8461081957
 21
-22.9267566984
  0
LINE
  5
269
100
AcDbEntity
  8
RACCORDO
100
AcDbLine
 62
250
  6
CONTINUOUS
 10
-7.1570071547
 20
-23.17600669
 11
-7.1320219666
 21
-23.1755389733
  0
LINE
  5
26A
100
AcDbEntity
  8
RACCORDO
100
AcDbLine
 62
250
  6
CONTINUOUS
 10
7.1533996432
 20
-23.1753514061
 11
7.1221560027
 21
-23.1758895826
  0
LINE
  5
26B
100
AcDbEntity
  8
RACCORDO
100
AcDbLine
 62
250
  6
CONTINUOUS
 10
-7.4080996729
 20
-22.9263426048
 11
-7.360000067
 21
-22.9256309217
  0
LINE
  5
26C
100
AcDbEntity
  8
RACCORDO
100
AcDbLine
 62
250
  6
CONTINUOUS
 10
-7.1320219666
 20
-23.1755389733
 11
-7.0809463745
 21
-23.174836531
  0
LINE
  5
26D
100
AcDbEntity
  8
RACCORDO
100
AcDbLine
 62
250
  6
CONTINUOUS
 10
6.9372600955
 20
-22.9253613564
 11
6.8747011221
 21
-22.9261792445
  0
LINE
  5
26E
100
AcDbEntity
  8
RACCORDO
100
AcDbLine
 62
250
  6
CONTINUOUS
 10
7.2348465299
 20
-23.174397999
 11
7.1533996432
 21
-23.1753514061
  0
LINE
  5
26F
100
AcDbEntity
  8
RACCORDO
100
AcDbLine
 62
250
  6
CONTINUOUS
 10
-7.360000067
 20
-22.9256309217
 11
-7.2261880285
 21
-22.9244422556
  0
LINE
  5
270
100
AcDbEntity
  8
RACCORDO
100
AcDbLine
 62
250
  6
CONTINUOUS
 10
-7.0809463745
 20
-23.174836531
 11
-6.9514296883
 21
-23.1737320271
  0
LINE
  5
271
100
AcDbEntity
  8
RACCORDO
100
AcDbLine
 62
250
  6
CONTINUOUS
 10
7.0863603272
 20
-22.9241988351
 11
6.9372600955
 21
-22.9253613564
  0
LINE
  5
272
100
AcDbEntity
  8
RACCORDO
100
AcDbLine
 62
250
  6
CONTINUOUS
 10
7.39452913
 20
-23.1733416
 11
7.2348465299
 21
-23.174397999
  0
LINE
  5
273
100
AcDbEntity
  8
RACCORDO
100
AcDbLine
 62
250
  6
CONTINUOUS
 10
-7.2261880285
 20
-22.9244422556
 11
-6.9609967486
 21
-22.9232500738
  0
LINE
  5
274
100
AcDbEntity
  8
RACCORDO
100
AcDbLine
 62
250
  6
CONTINUOUS
 10
-6.9514296883
 20
-23.1737320271
 11
-6.7430412778
 21
-23.1728965196
  0
LINE
  5
275
100
AcDbEntity
  8
RACCORDO
100
AcDbLine
 62
250
  6
CONTINUOUS
 10
7.5098304011
 20
-22.9228539803
 11
7.0863603272
 21
-22.9241988351
  0
LINE
  5
276
100
AcDbEntity
  8
RACCORDO
100
AcDbLine
 62
250
  6
CONTINUOUS
 10
7.6720290259
 20
-23.1727481812
 11
7.39452913
 21
-23.1733416
  0
LINE
  5
277
100
AcDbEntity
  8
RACCORDO
100
AcDbLine
 62
250
  6
CONTINUOUS
 10
-6.7430412778
 20
-23.1728965196
 11
-6.6014718626
 21
-23.1727481812
  0
LINE
  5
278
100
AcDbEntity
  8
RACCORDO
100
AcDbLine
 62
250
  6
CONTINUOUS
 10
-6.9609967486
 20
-22.9232500738
 11
-6.6014718626
 21
-22.9227577005
  0
LINE
  5
279
100
AcDbEntity
  8
RACCORDO
100
AcDbLine
 62
7
  6
CONTINUOUS
 10
4.85
 20
-23.5779868533
 11
4.2543297675
 21
-23.5779868533
  0
LINE
  5
27A
100
AcDbEntity
  8
RACCORDO
100
AcDbLine
 62
7
  6
CONTINUOUS
 10
-3.1543297675
 20
-23.5779868533
 11
-3.75
 21
-23.5779868533
  0
LINE
  5
27B
100
AcDbEntity
  8
RACCORDO
100
AcDbLine
 62
7
  6
CONTINUOUS
 10
-5.45
 20
-23.25
 11
-6.3939609677
 21
-23.25
  0
LINE
  5
27C
100
AcDbEntity
  8
RACCORDO
100
AcDbLine
 62
7
  6
CONTINUOUS
 10
6.55
 20
-23.25
 11
7.4939609677
 21
-23.25
  0
LINE
  5
27D
100
AcDbEntity
  8
RACCORDO
100
AcDbLine
 62
7
  6
CONTINUOUS
 10
-7.1995633304
 20
-23.1775669973
 11
-6.6014718626
 21
-23.1775669973
  0
LINE
  5
27E
100
AcDbEntity
  8
RACCORDO
100
AcDbLine
 62
7
  6
CONTINUOUS
 10
7.7014718626
 20
-23.1775669973
 11
8.2995633304
 21
-23.1775669973
  0
LINE
  5
27F
100
AcDbEntity
  8
RACCORDO
100
AcDbLine
 62
7
  6
CONTINUOUS
 10
7.7014718626
 20
-23.1727481812
 11
7.6720290259
 21
-23.1727481812
  0
LINE
  5
280
100
AcDbEntity
  8
RACCORDO
100
AcDbLine
 62
7
  6
CONTINUOUS
 10
-6.6014718626
 20
-23.1727481812
 11
-6.5720290259
 21
-23.1727481812
  0
LINE
  5
281
100
AcDbEntity
  8
RACCORDO
100
AcDbLine
 62
250
  6
CONTINUOUS
 10
-5.65
 20
-22.6965394526
 11
-5.45
 21
-22.6965394526
  0
LINE
  5
282
100
AcDbEntity
  8
RACCORDO
100
AcDbLine
 62
250
  6
CONTINUOUS
 10
6.55
 20
-22.6965394526
 11
6.75
 21
-22.6965394526
  0
LINE
  5
283
100
AcDbEntity
  8
RACCORDO
100
AcDbLine
 62
7
  6
CONTINUOUS
 10
4.6550338721
 20
-22.5507488485
 11
4.5
 21
-22.5507488485
  0
LINE
  5
284
100
AcDbEntity
  8
RACCORDO
100
AcDbLine
 62
7
  6
CONTINUOUS
 10
-3.5550338721
 20
-22.5507488485
 11
-3.4
 21
-22.5507488485
  0
LINE
  5
285
100
AcDbEntity
  8
RACCORDO
100
AcDbLine
 62
250
  6
CONTINUOUS
 10
-5.6517149126
 20
-22.4965699136
 11
-3.5538801877
 21
-22.4965699136
  0
LINE
  5
286
100
AcDbEntity
  8
RACCORDO
100
AcDbLine
 62
250
  6
CONTINUOUS
 10
4.6538801877
 20
-22.4965699136
 11
6.7517149126
 21
-22.4965699136
  0
LINE
  5
287
100
AcDbEntity
  8
RACCORDO
100
AcDbLine
 62
7
  6
CONTINUOUS
 10
11.1808294475
 20
-22.3551229611
 11
8.55
 21
-22.3551229611
  0
LINE
  5
288
100
AcDbEntity
  8
DRAFT
100
AcDbLine
 62
7
  6
CONTINUOUS
 10
4.5831620976
 20
-22.3551229611
 11
-3.4831620976
 21
-22.3551229611
  0
LINE
  5
289
100
AcDbEntity
  8
RACCORDO
100
AcDbLine
 62
7
  6
CONTINUOUS
 10
-7.45
 20
-22.3551229611
 11
-10.0808294475
 21
-22.3551229611
  0
LINE
  5
28A
100
AcDbEntity
  8
RACCORDO
100
AcDbLine
 62
7
  6
CONTINUOUS
 10
-6.6014718626
 20
-22.3411589092
 11
-6.5720290259
 21
-22.3411589092
  0
LINE
  5
28B
100
AcDbEntity
  8
RACCORDO
100
AcDbLine
 62
7
  6
CONTINUOUS
 10
7.6720290259
 20
-22.3411589092
 11
7.7014718626
 21
-22.3411589092
  0
LINE
  5
28C
100
AcDbEntity
  8
RACCORDO
100
AcDbLine
 62
250
  6
CONTINUOUS
 10
-10.0367206889
 20
-22.266898725
 11
11.1367206889
 21
-22.266898725
  0
LINE
  5
28D
100
AcDbEntity
  8
RACCORDO
100
AcDbLine
 62
250
  6
CONTINUOUS
 10
-10.2867111697
 20
-22.0169368012
 11
11.3867111697
 21
-22.0169368012
  0
LINE
  5
28E
100
AcDbEntity
  8
RACCORDO
100
AcDbLine
 62
250
  6
CONTINUOUS
 10
-6.6014718626
 20
-22.9227577005
 11
-6.2481157455
 21
-22.9231528054
  0
LINE
  5
28F
100
AcDbEntity
  8
RACCORDO
100
AcDbLine
 62
250
  6
CONTINUOUS
 10
8.1104550438
 20
-22.9234036765
 11
7.5098304011
 21
-22.9228539803
  0
LINE
  5
290
100
AcDbEntity
  8
RACCORDO
100
AcDbLine
 62
250
  6
CONTINUOUS
 10
-6.5720290259
 20
-23.1727481812
 11
-6.3433836849
 21
-23.1731432884
  0
LINE
  5
291
100
AcDbEntity
  8
RACCORDO
100
AcDbLine
 62
250
  6
CONTINUOUS
 10
7.9870087251
 20
-23.1733791278
 11
7.7014718626
 21
-23.1727481812
  0
LINE
  5
292
100
AcDbEntity
  8
RACCORDO
100
AcDbLine
 62
250
  6
CONTINUOUS
 10
-6.2481157455
 20
-22.9231528054
 11
-5.9814907124
 21
-22.9242277981
  0
LINE
  5
293
100
AcDbEntity
  8
RACCORDO
100
AcDbLine
 62
250
  6
CONTINUOUS
 10
8.359604434
 20
-22.9246798883
 11
8.1104550438
 21
-22.9234036765
  0
LINE
  5
294
100
AcDbEntity
  8
RACCORDO
100
AcDbLine
 62
250
  6
CONTINUOUS
 10
-6.3433836849
 20
-23.1731432884
 11
-6.1552683951
 21
-23.1742179667
  0
LINE
  5
295
100
AcDbEntity
  8
RACCORDO
100
AcDbLine
 62
250
  6
CONTINUOUS
 10
8.1408295866
 20
-23.1744184071
 11
7.9870087251
 21
-23.1733791278
  0
LINE
  5
296
100
AcDbEntity
  8
RACCORDO
100
AcDbLine
 62
250
  6
CONTINUOUS
 10
-5.9814907124
 20
-22.9242277981
 11
-5.8340929484
 21
-22.9253952025
  0
LWPOLYLINE
  5
297
100
AcDbEntity
  8
RACCORDO
100
AcDbPolyline
 62
7
  6
CONTINUOUS
 90
25
 70
0
 10
4.85
 20
-23.5779868533
 10
4.8631726262
 20
-23.5781238724
 10
4.8761786476
 20
-23.5785197174
 10
4.8890180644
 20
-23.5791743883
 10
4.9017442772
 20
-23.580092891
 10
4.9143038853
 20
-23.5812702196
 10
4.9265366865
 20
-23.582691357
 10
4.9384384945
 20
-23.5843594262
 10
4.9500134956
 20
-23.5862713041
 10
4.9611140466
 20
-23.5884026041
 10
4.97173407
 20
-23.5907561369
 10
4.9818796433
 20
-23.5933290918
 10
4.9914213562
 20
-23.5960886498
 10
5.0003514735
 20
-23.5990372012
 10
5.0086777303
 20
-23.6021723558
 10
5.0162939225
 20
-23.6054541235
 10
5.0231909541
 20
-23.6088843824
 10
5.0293779211
 20
-23.6124612545
 10
5.0347759065
 20
-23.6161391154
 10
5.0393748036
 20
-23.6199192589
 10
5.043184719
 20
-23.6238003912
 10
5.0461570561
 20
-23.6277330072
 10
5.0482756158
 20
-23.6317006052
 10
5.0495565971
 20
-23.6357196869
 10
5.05
 20
-23.6397902522
  0
LWPOLYLINE
  5
298
100
AcDbEntity
  8
RACCORDO
100
AcDbPolyline
 62
7
  6
CONTINUOUS
 90
25
 70
0
 10
4.5
 20
-22.5507488485
 10
4.4868273738
 20
-22.5506118295
 10
4.4738213524
 20
-22.5502159845
 10
4.4609819356
 20
-22.5495613135
 10
4.4482557228
 20
-22.5486428109
 10
4.4356961147
 20
-22.5474654822
 10
4.4234633135
 20
-22.5460443449
 10
4.4115615055
 20
-22.5443762757
 10
4.3999865044
 20
-22.5424643977
 10
4.3888859534
 20
-22.5403330977
 10
4.37826593
 20
-22.5379795649
 10
4.3681203567
 20
-22.5354066101
 10
4.3585786438
 20
-22.5326470521
 10
4.3496485265
 20
-22.5296985006
 10
4.3413222697
 20
-22.5265633461
 10
4.3337060775
 20
-22.5232815784
 10
4.3268090459
 20
-22.5198513194
 10
4.3206220789
 20
-22.5162744474
 10
4.3152240935
 20
-22.5125965865
 10
4.3106251964
 20
-22.508816443
 10
4.306815281
 20
-22.5049353107
 10
4.3038429439
 20
-22.5010026946
 10
4.3017243842
 20
-22.4970350967
 10
4.3004434029
 20
-22.493016015
 10
4.3
 20
-22.4889454496
  0
LINE
  5
299
100
AcDbEntity
  8
RACCORDO
100
AcDbLine
 62
250
  6
CONTINUOUS
 10
8.4598034202
 20
-22.925628637
 11
8.359604434
 21
-22.9246798883
  0
LINE
  5
29A
100
AcDbEntity
  8
RACCORDO
100
AcDbLine
 62
250
  6
CONTINUOUS
 10
-6.1552683951
 20
-23.1742179667
 11
-6.0689097961
 21
-23.1751316427
  0
LINE
  5
29B
100
AcDbEntity
  8
RACCORDO
100
AcDbLine
 62
250
  6
CONTINUOUS
 10
8.2175410499
 20
-23.1753130834
 11
8.1408295866
 21
-23.1744184071
  0
LINE
  5
29C
100
AcDbEntity
  8
RACCORDO
100
AcDbLine
 62
250
  6
CONTINUOUS
 10
8.4975566536
 20
-22.9261584722
 11
8.4598034202
 21
-22.925628637
  0
LINE
  5
29D
100
AcDbEntity
  8
RACCORDO
100
AcDbLine
 62
250
  6
CONTINUOUS
 10
-5.8340929484
 20
-22.9253952025
 11
-5.7731962256
 21
-22.9262045641
  0
LINE
  5
29E
100
AcDbEntity
  8
RACCORDO
100
AcDbLine
 62
250
  6
CONTINUOUS
 10
-6.0689097961
 20
-23.1751316427
 11
-6.0350905306
 21
-23.1756478498
  0
LINE
  5
29F
100
AcDbEntity
  8
RACCORDO
100
AcDbLine
 62
250
  6
CONTINUOUS
 10
8.247469431
 20
-23.1758133394
 11
8.2175410499
 21
-23.1753130834
  0
LWPOLYLINE
  5
2A0
100
AcDbEntity
  8
RACCORDO
100
AcDbPolyline
 62
250
  6
CONTINUOUS
 90
8
 70
0
 10
-6.0350905306
 20
-23.1756478498
 10
-6.0081428931
 20
-23.1761951364
 10
-5.9974336579
 20
-23.1764770409
 10
-5.9885493306
 20
-23.1767644827
 10
-5.9815617995
 20
-23.1770546424
 10
-5.9764950275
 20
-23.1773465801
 10
-5.9733250517
 20
-23.1776412355
 10
-5.9720518721
 20
-23.1779386087
  0
LWPOLYLINE
  5
2A1
100
AcDbEntity
  8
RACCORDO
100
AcDbPolyline
 62
250
  6
CONTINUOUS
 90
6
 70
0
 10
-5.7731962256
 20
-22.9262045641
 10
-5.7454420657
 20
-22.9267736788
 10
-5.7355448909
 20
-22.9270637957
 10
-5.7283383632
 20
-22.9273557842
 10
-5.7238408245
 20
-22.9276505616
 10
-5.7220613913
 20
-22.9279481279
  0
LWPOLYLINE
  5
2A2
100
AcDbEntity
  8
RACCORDO
100
AcDbPolyline
 62
7
  6
CONTINUOUS
 90
6
 70
0
 10
-6.3940148177
 20
-23.25
 10
-6.4158027379
 20
-23.2490480997
 10
-6.4374248522
 20
-23.2462010176
 10
-6.4587166167
 20
-23.24148042
 10
-6.4795160011
 20
-23.2349222306
 10
-6.4896745483
 20
-23.2309719397
  0
LWPOLYLINE
  5
2A3
100
AcDbEntity
  8
RACCORDO
100
AcDbPolyline
 62
250
  6
CONTINUOUS
 90
5
 70
0
 10
8.5500000002
 20
-22.9276858141
 10
8.5451417862
 20
-22.9273546661
 10
8.5371653388
 20
-22.9270361788
 10
8.526356363
 20
-22.9267303524
 10
8.4975566536
 20
-22.9261584722
  0
LWPOLYLINE
  5
2A4
100
AcDbEntity
  8
RACCORDO
100
AcDbPolyline
 62
250
  6
CONTINUOUS
 90
6
 70
0
 10
8.2995633304
 20
-23.1775669973
 10
8.2951547318
 20
-23.1772441306
 10
8.2890366461
 20
-23.1769335001
 10
8.2812090731
 20
-23.1766351057
 10
8.2715943776
 20
-23.1763498831
 10
8.247469431
 20
-23.1758133394
  0
LWPOLYLINE
  5
2A5
100
AcDbEntity
  8
RACCORDO
100
AcDbPolyline
 62
250
  6
CONTINUOUS
 90
10
 70
0
 10
7.0720518721
 20
-23.1779386087
 10
7.0286435636
 20
-23.1741377532
 10
6.9865540672
 20
-23.162857274
 10
6.947062127
 20
-23.1444398895
 10
6.9113675697
 20
-23.1194451486
 10
6.8805548514
 20
-23.0886324303
 10
6.8555601105
 20
-23.052937873
 10
6.837142726
 20
-23.0134459328
 10
6.8258622468
 20
-22.9713564364
 10
6.8220613913
 20
-22.9279481279
  0
LINE
  5
2A6
100
AcDbEntity
  8
RACCORDO
100
AcDbLine
 62
7
  6
CONTINUOUS
 10
-7.45
 20
22.4
 11
-7.4948770389
 21
22.3551229611
  0
LINE
  5
2A7
100
AcDbEntity
  8
RACCORDO
100
AcDbLine
 62
250
  6
CONTINUOUS
 10
-5.9720518721
 20
23.1779386087
 11
-5.8999904808
 21
23.25
  0
LINE
  5
2A8
100
AcDbEntity
  8
RACCORDO
100
AcDbLine
 62
250
  6
CONTINUOUS
 10
-5.7220607523
 20
22.9279487669
 11
-5.65
 21
23.0000095192
  0
LINE
  5
2A9
100
AcDbEntity
  8
RACCORDO
100
AcDbLine
 62
7
  6
CONTINUOUS
 10
-7.45
 20
-22.4
 11
-7.4948770389
 21
-22.3551229611
  0
LINE
  5
2AA
100
AcDbEntity
  8
RACCORDO
100
AcDbLine
 62
250
  6
CONTINUOUS
 10
-5.9720518721
 20
-23.1779386087
 11
-5.8999904808
 21
-23.25
  0
LINE
  5
2AB
100
AcDbEntity
  8
RACCORDO
100
AcDbLine
 62
250
  6
CONTINUOUS
 10
-5.7220613913
 20
-22.9279481279
 11
-5.65
 21
-23.0000095192
  0
LWPOLYLINE
  5
2AC
100
AcDbEntity
  8
RACCORDO
100
AcDbPolyline
 62
250
  6
CONTINUOUS
 90
10
 70
0
 10
-10.254688816
 20
16.7552054488
 10
-10.2505588148
 20
16.7569087184
 10
-10.2390403678
 20
16.7585608173
 10
-10.2204796199
 20
16.760112097
 10
-10.1954343469
 20
16.7615159383
 10
-10.1646571932
 20
16.7627301537
 10
-10.129073054
 20
16.7637182555
 10
-10.0897512812
 20
16.7644505502
 10
-10.0478735475
 20
16.7649050305
 10
-10.0046983357
 20
16.7650680385
  0
LINE
  5
2AD
100
AcDbEntity
  8
RACCORDO
100
AcDbLine
 62
7
  6
CONTINUOUS
 10
-10.2867111697
 20
-18.8
 11
11.3867111697
 21
-18.8
  0
LINE
  5
2AE
100
AcDbEntity
  8
RACCORDO
100
AcDbLine
 62
7
  6
CONTINUOUS
 10
-10.039281257
 20
-18.3
 11
11.139281257
 21
-18.3
  0
LWPOLYLINE
  5
2AF
100
AcDbEntity
  8
RACCORDO
100
AcDbPolyline
 62
250
  6
CONTINUOUS
 90
10
 70
0
 10
-10.2546888165
 20
-16.7552054488
 10
-10.2505563737
 20
-16.7569085871
 10
-10.2390361611
 20
-16.7585605479
 10
-10.2204743488
 20
-16.7601116915
 10
-10.1954286994
 20
-16.7615154077
 10
-10.1646518075
 20
-16.7627295164
 10
-10.1290684858
 20
-16.7637175348
 10
-10.0897479748
 20
-16.7644497743
 10
-10.0478718135
 20
-16.7649042317
 10
-10.0046983357
 20
-16.7650672511
  0
LINE
  5
2B0
100
AcDbEntity
  8
DRAFT
100
AcDbLine
 62
7
  6
CONTINUOUS
 10
-10.35
 20
19.4728483595
 11
-10.3308008909
 21
19.5191991091
  0
LINE
  5
2B1
100
AcDbEntity
  8
RACCORDO
100
AcDbLine
 62
250
  6
CONTINUOUS
 10
-10.0101018387
 20
-17.710427789
 11
11.1101018387
 21
-17.710427789
  0
LINE
  5
2B2
100
AcDbEntity
  8
RACCORDO
100
AcDbLine
 62
250
  6
CONTINUOUS
 10
-10.0046979865
 20
-16.7647739534
 11
11.1478501659
 21
-16.764894617
  0
LINE
  5
2B3
100
AcDbEntity
  8
DRAFT
100
AcDbLine
 62
7
  6
CONTINUOUS
 10
-10.35
 20
-19.4728483595
 11
-10.3308008909
 21
-19.5191991091
  0
LINE
  5
2B4
100
AcDbEntity
  8
RACCORDO
100
AcDbLine
 62
7
  6
CONTINUOUS
 10
-5.6517149126
 20
22.4965699136
 11
-5.7220613913
 21
22.3558662404
  0
LINE
  5
2B5
100
AcDbEntity
  8
RACCORDO
100
AcDbLine
 62
7
  6
CONTINUOUS
 10
-5.6517149126
 20
-22.4965699136
 11
-5.7220613913
 21
-22.3558662404
  0
LWPOLYLINE
  5
2B6
100
AcDbEntity
  8
RACCORDO
100
AcDbPolyline
 62
7
  6
CONTINUOUS
 90
9
 70
0
 10
-10.2867013178
 20
-22.0191181888
 10
-10.2828138582
 20
-22.0608646785
 10
-10.2712607881
 20
-22.1034139362
 10
-10.2524174608
 20
-22.1432625543
 10
-10.2267701193
 20
-22.1792976061
 10
-10.1951828737
 20
-22.2102425346
 10
-10.1590730284
 20
-22.2348958943
 10
-10.1198443391
 20
-22.2526634074
 10
-10.082992661
 20
-22.2625724977
  0
LWPOLYLINE
  5
2B7
100
AcDbEntity
  8
RACCORDO
100
AcDbPolyline
 62
250
  6
CONTINUOUS
 90
10
 70
0
 10
-10.2600923194
 20
-17.4642258507
 10
-10.2562355835
 20
-17.5069398345
 10
-10.2449140066
 20
-17.5483577601
 10
-10.2264712647
 20
-17.5872235701
 10
-10.2014670092
 20
-17.6223586504
 10
-10.1706597773
 20
-17.6526977089
 10
-10.1349838984
 20
-17.6773210006
 10
-10.095521326
 20
-17.6954820283
 10
-10.0534688877
 20
-17.7066302378
 10
-10.0101018388
 20
-17.7104277923
  0
LWPOLYLINE
  5
2B8
100
AcDbEntity
  8
RACCORDO
100
AcDbPolyline
 62
250
  6
CONTINUOUS
 90
10
 70
0
 10
-10.2600923194
 20
17.4642258507
 10
-10.2562359889
 20
17.5069375933
 10
-10.2449153825
 20
17.5483540576
 10
-10.2264738096
 20
17.587219246
 10
-10.2014705301
 20
17.6223545309
 10
-10.1706637947
 20
17.652694398
 10
-10.1349878499
 20
17.6773187592
 10
-10.0955246061
 20
17.6954808547
 10
-10.0534708274
 20
17.7066299002
 10
-10.0101018387
 20
17.710427789
  0
LWPOLYLINE
  5
2B9
100
AcDbEntity
  8
RACCORDO
100
AcDbPolyline
 62
7
  6
CONTINUOUS
 90
9
 70
0
 10
-10.2867013178
 20
22.0191181888
 10
-10.2828138565
 20
22.0608646879
 10
-10.2712607835
 20
22.1034139486
 10
-10.2524174552
 20
22.1432625639
 10
-10.2267701202
 20
22.179297605
 10
-10.195182889
 20
22.210242522
 10
-10.1590730547
 20
22.2348958796
 10
-10.1198443656
 20
22.252663398
 10
-10.0829926629
 20
22.2625724973
  0
LWPOLYLINE
  5
2BA
100
AcDbEntity
  8
RACCORDO
100
AcDbPolyline
 62
7
  6
CONTINUOUS
 90
49
 70
0
 10
0.55
 20
-11.7419462568
 10
0.4531001044
 20
-11.7398505174
 10
0.357313299
 20
-11.7336480584
 10
0.2628075777
 20
-11.7234700764
 10
0.1699057221
 20
-11.7094815457
 10
0.0785862588
 20
-11.6918088672
 10
-0.0115032464
 20
-11.6704707248
 10
-0.1002194717
 20
-11.6455561482
 10
-0.1874287236
 20
-11.6171580669
 10
-0.2734753332
 20
-11.5851873272
 10
-0.3581938568
 20
-11.5496965078
 10
-0.441456622
 20
-11.5107300215
 10
-0.5236180041
 20
-11.4680729009
 10
-0.6042528089
 20
-11.4218761494
 10
-0.6834421131
 20
-11.3720214917
 10
-0.7621695724
 20
-11.3176869732
 10
-0.8401932645
 20
-11.2587106809
 10
-0.9171439394
 20
-11.1950249149
 10
-0.9935862708
 20
-11.1256924345
 10
-1.0692645153
 20
-11.0502979354
 10
-1.1434381035
 20
-10.9688801441
 10
-1.2157546751
 20
-10.881066752
 10
-1.2855973596
 20
-10.7867415385
 10
-1.3523235107
 20
-10.6858188945
 10
-1.415409478
 20
-10.577979624
 10
-1.4740549118
 20
-10.4632979198
 10
-1.5275020447
 20
-10.3417758997
 10
-1.5751027936
 20
-10.2130176593
 10
-1.6158947351
 20
-10.0772389632
 10
-1.6489014528
 20
-9.9347187557
 10
-1.6732016503
 20
-9.7852398715
 10
-1.6876514747
 20
-9.6293772058
 10
-1.6911186924
 20
-9.4677353586
 10
-1.6824014008
 20
-9.3003292604
 10
-1.6602141358
 20
-9.1281574553
 10
-1.623320045
 20
-8.9524405301
 10
-1.5703064542
 20
-8.7738643211
 10
-1.5000607123
 20
-8.5944297015
 10
-1.4114118919
 20
-8.4157919982
 10
-1.3024877196
 20
-8.2387396184
 10
-1.1718057239
 20
-8.0655225559
 10
-1.0189569813
 20
-7.8998205553
 10
-0.8438215557
 20
-7.7451962805
 10
-0.6444940893
 20
-7.6039125567
 10
-0.4235893779
 20
-7.4815869784
 10
-0.1899187529
 20
-7.3847429888
 10
0.0510720148
 20
-7.315323722
 10
0.2987405306
 20
-7.2732138083
 10
0.55
 20
-7.2590855761
  0
LWPOLYLINE
  5
2BB
100
AcDbEntity
  8
RACCORDO
100
AcDbPolyline
 62
250
  6
CONTINUOUS
 90
49
 70
0
 10
0.55
 20
-12.1533694915
 10
0.4355322745
 20
-12.1506331716
 10
0.3227402515
 20
-12.143371371
 10
0.2116239312
 20
-12.1315840831
 10
0.1022033331
 20
-12.1151735009
 10
-0.0055415625
 20
-12.0942374054
 10
-0.1116708143
 20
-12.0690691674
 10
-0.2161825829
 20
-12.039746561
 10
-0.3190787077
 20
-12.0061917663
 10
-0.4204247657
 20
-11.968464759
 10
-0.5202317424
 20
-11.9266486094
 10
-0.6184886524
 20
-11.8806601825
 10
-0.7152281159
 20
-11.8303101393
 10
-0.8102661028
 20
-11.7759000924
 10
-0.9037866434
 20
-11.7171283431
 10
-0.9963744483
 20
-11.6529005668
 10
-1.0883172425
 20
-11.5833334858
 10
-1.1793273012
 20
-11.5083102408
 10
-1.2691261602
 20
-11.4263860938
 10
-1.3582006699
 20
-11.33733369
 10
-1.44606398
 20
-11.2413801647
 10
-1.5309770756
 20
-11.1377624692
 10
-1.6131221036
 20
-11.0263753993
 10
-1.692316917
 20
-10.907323867
 10
-1.7662760603
 20
-10.7801599628
 10
-1.8351826814
 20
-10.6447748065
 10
-1.8988536323
 20
-10.5012769205
 10
-1.9544540129
 20
-10.3495444765
 10
-2.0022312162
 20
-10.1892873661
 10
-2.0419378492
 20
-10.0207952931
 10
-2.0699968334
 20
-9.8448161576
 10
-2.0866300848
 20
-9.6609161754
 10
-2.0916156873
 20
-9.4695287463
 10
-2.0807108138
 20
-9.2727026284
 10
-2.0540030833
 20
-9.0696837948
 10
-2.0114048768
 20
-8.8612260107
 10
-1.9484105107
 20
-8.6516399209
 10
-1.8650321443
 20
-8.440148125
 10
-1.7612576184
 20
-8.2275280431
 10
-1.6325447707
 20
-8.020422881
 10
-1.4775312454
 20
-7.8170671186
 10
-1.2975793984
 20
-7.6192266415
 10
-1.0922341351
 20
-7.4388422416
 10
-0.8567508172
 20
-7.2755040286
 10
-0.5958740829
 20
-7.129622687
 10
-0.323382752
 20
-7.0143703146
 10
-0.0438697646
 20
-6.9341379405
 10
0.2472578194
 20
-6.8845352814
 10
0.55
 20
-6.8655625128
  0
LINE
  5
2BC
100
AcDbEntity
  8
RACCORDO
100
AcDbLine
 62
250
  6
CONTINUOUS
 10
-10.2600923194
 20
17.4642258507
 11
-10.2889119255
 21
18.0465280279
  0
LINE
  5
2BD
100
AcDbEntity
  8
RACCORDO
100
AcDbLine
 62
250
  6
CONTINUOUS
 10
-10.0101018387
 20
17.710427789
 11
-10.039281257
 21
18.3
  0
LWPOLYLINE
  5
2BE
100
AcDbEntity
  8
RACCORDO
100
AcDbPolyline
 62
250
  6
CONTINUOUS
 90
3
 70
0
 10
-10.2588972518
 20
17.4274442765
 10
-10.2594899045
 20
17.4498045347
 10
-10.2600923194
 20
17.4642258507
  0
LWPOLYLINE
  5
2BF
100
AcDbEntity
  8
RACCORDO
100
AcDbPolyline
 62
250
  6
CONTINUOUS
 90
3
 70
0
 10
-10.0089053807
 20
17.6606120255
 10
-10.0094986408
 20
17.6902430511
 10
-10.0101018387
 20
17.710427789
  0
LINE
  5
2C0
100
AcDbEntity
  8
RACCORDO
100
AcDbLine
 62
250
  6
CONTINUOUS
 10
-10.2577311078
 20
17.3591448111
 11
-10.2588972518
 21
17.4274442765
  0
LINE
  5
2C1
100
AcDbEntity
  8
RACCORDO
100
AcDbLine
 62
250
  6
CONTINUOUS
 10
-10.0077385591
 20
17.5704643664
 11
-10.0089053807
 21
17.6606120255
  0
LINE
  5
2C2
100
AcDbEntity
  8
RACCORDO
100
AcDbLine
 62
250
  6
CONTINUOUS
 10
-10.2566242628
 20
17.2586138209
 11
-10.2577311078
 21
17.3591448111
  0
LINE
  5
2C3
100
AcDbEntity
  8
RACCORDO
100
AcDbLine
 62
250
  6
CONTINUOUS
 10
-10.0061355129
 20
17.3512553585
 11
-10.0077385591
 21
17.5704643664
  0
LINE
  5
2C4
100
AcDbEntity
  8
RACCORDO
100
AcDbLine
 62
250
  6
CONTINUOUS
 10
-10.2552954007
 20
17.0422093817
 11
-10.2566242628
 21
17.2586138209
  0
LINE
  5
2C5
100
AcDbEntity
  8
RACCORDO
100
AcDbLine
 62
250
  6
CONTINUOUS
 10
-10.2867111697
 20
-22.0169368012
 11
-10.2867013178
 21
-22.0191181888
  0
LINE
  5
2C6
100
AcDbEntity
  8
RACCORDO
100
AcDbLine
 62
250
  6
CONTINUOUS
 10
-10.0048199478
 20
16.9007703818
 11
-10.0061355129
 21
17.3512553585
  0
LINE
  5
2C7
100
AcDbEntity
  8
RACCORDO
100
AcDbLine
 62
250
  6
CONTINUOUS
 10
-10.2546888165
 20
16.7552054488
 11
-10.2552954007
 21
17.0422093817
  0
LINE
  5
2C8
100
AcDbEntity
  8
RACCORDO
100
AcDbLine
 62
250
  6
CONTINUOUS
 10
-10.2526941962
 20
9.3097458345
 11
-10.2546888165
 21
16.7552054488
  0
LINE
  5
2C9
100
AcDbEntity
  8
RACCORDO
100
AcDbLine
 62
250
  6
CONTINUOUS
 10
-10.0027037149
 20
9.3155972889
 11
-10.0048199478
 21
16.9007703818
  0
LINE
  5
2CA
100
AcDbEntity
  8
ASSI
100
AcDbLine
 62
7
  6
CONTINUOUS
 10
-10.35
 20
19.4434092398
 11
-10.35
 21
-19.3561339152
  0
LINE
  5
2CB
100
AcDbEntity
  8
DRAFT
100
AcDbLine
 62
7
  6
CONTINUOUS
 10
-10.35
 20
-19.4728483595
 11
-10.35
 21
19.4728483595
  0
LINE
  5
2CC
100
AcDbEntity
  8
RACCORDO
100
AcDbLine
 62
7
  6
CONTINUOUS
 10
-10.3308008909
 20
-22.1051229596
 11
-10.3308008909
 21
-19.5191991091
  0
LINE
  5
2CD
100
AcDbEntity
  8
RACCORDO
100
AcDbLine
 62
7
  6
CONTINUOUS
 10
-10.3308008909
 20
19.5191991091
 11
-10.3308008909
 21
22.1051229596
  0
LINE
  5
2CE
100
AcDbEntity
  8
RACCORDO
100
AcDbLine
 62
7
  6
CONTINUOUS
 10
-10.2889119255
 20
-18.8
 11
-10.2889119255
 21
-18.0465280279
  0
LINE
  5
2CF
100
AcDbEntity
  8
RACCORDO
100
AcDbLine
 62
7
  6
CONTINUOUS
 10
-10.2889119255
 20
18.0465280279
 11
-10.2889119255
 21
18.8
  0
LINE
  5
2D0
100
AcDbEntity
  8
RACCORDO
100
AcDbLine
 62
7
  6
CONTINUOUS
 10
-10.2867111697
 20
-22.0169368012
 11
-10.2867111697
 21
-18.8
  0
LINE
  5
2D1
100
AcDbEntity
  8
RACCORDO
100
AcDbLine
 62
7
  6
CONTINUOUS
 10
-10.2867111697
 20
18.8
 11
-10.2867111697
 21
22.0169368012
  0
LINE
  5
2D2
100
AcDbEntity
  8
RACCORDO
100
AcDbLine
 62
250
  6
CONTINUOUS
 10
-10.2518393597
 20
1.8622601438
 11
-10.2526941962
 21
9.3097458345
  0
LINE
  5
2D3
100
AcDbEntity
  8
RACCORDO
100
AcDbLine
 62
250
  6
CONTINUOUS
 10
-10.0367206889
 20
18.8
 11
-10.0367206889
 21
22.266898725
  0
LINE
  5
2D4
100
AcDbEntity
  8
RACCORDO
100
AcDbLine
 62
250
  6
CONTINUOUS
 10
-10.0367206889
 20
-22.266898725
 11
-10.0367206889
 21
-18.8
  0
LINE
  5
2D5
100
AcDbEntity
  8
RACCORDO
100
AcDbLine
 62
250
  6
CONTINUOUS
 10
-10.0018488798
 20
1.8632518374
 11
-10.0027037149
 21
9.3155972889
  0
LINE
  5
2D6
100
AcDbEntity
  8
RACCORDO
100
AcDbLine
 62
250
  6
CONTINUOUS
 10
-10.2521243065
 20
-5.5863817119
 11
-10.2518393597
 21
1.8622601438
  0
LINE
  5
2D7
100
AcDbEntity
  8
RACCORDO
100
AcDbLine
 62
250
  6
CONTINUOUS
 10
-10.0021338229
 20
-5.5896448189
 11
-10.0018488798
 21
1.8632518374
  0
LINE
  5
2D8
100
AcDbEntity
  8
RACCORDO
100
AcDbLine
 62
250
  6
CONTINUOUS
 10
-10.2535490345
 20
-13.0327000879
 11
-10.2521243065
 21
-5.5863817119
  0
LINE
  5
2D9
100
AcDbEntity
  8
RACCORDO
100
AcDbLine
 62
250
  6
CONTINUOUS
 10
-10.0035585148
 20
-13.0406705639
 11
-10.0021338229
 21
-5.5896448189
  0
LINE
  5
2DA
100
AcDbEntity
  8
RACCORDO
100
AcDbLine
 62
250
  6
CONTINUOUS
 10
-10.0060127035
 20
-17.3277462457
 11
-10.0035585148
 21
-13.0406705639
  0
LINE
  5
2DB
100
AcDbEntity
  8
RACCORDO
100
AcDbLine
 62
250
  6
CONTINUOUS
 10
-10.2867111697
 20
22.0169368012
 11
-10.2867013178
 21
22.0191181888
  0
LINE
  5
2DC
100
AcDbEntity
  8
RACCORDO
100
AcDbLine
 62
250
  6
CONTINUOUS
 10
-10.2556010412
 20
-17.1090708803
 11
-10.2535490345
 21
-13.0327000879
  0
LWPOLYLINE
  5
2DD
100
AcDbEntity
  8
RACCORDO
100
AcDbPolyline
 62
250
  6
CONTINUOUS
 90
5
 70
0
 10
-10.0101018387
 20
-17.710427789
 10
-10.0092245352
 20
-17.6776310332
 10
-10.0084255441
 20
-17.6291000504
 10
-10.0077048653
 20
-17.5673621904
 10
-10.0060127035
 20
-17.3277462457
  0
LWPOLYLINE
  5
2DE
100
AcDbEntity
  8
RACCORDO
100
AcDbPolyline
 62
250
  6
CONTINUOUS
 90
6
 70
0
 10
-10.2600923194
 20
-17.4642258507
 10
-10.2592141138
 20
-17.4364627847
 10
-10.2584144575
 20
-17.4006503464
 10
-10.2576933506
 20
-17.356788536
 10
-10.25705026
 20
-17.3033241669
 10
-10.2556010412
 20
-17.1090708803
  0
LINE
  5
2DF
100
AcDbEntity
  8
RACCORDO
100
AcDbLine
 62
250
  6
CONTINUOUS
 10
-10.2889119255
 20
-18.0465280279
 11
-10.2600923194
 21
-17.4642258507
  0
LINE
  5
2E0
100
AcDbEntity
  8
RACCORDO
100
AcDbLine
 62
250
  6
CONTINUOUS
 10
-10.039281257
 20
-18.3
 11
-10.0101018387
 21
-17.710427789
  0
LWPOLYLINE
  5
2E1
100
AcDbEntity
  8
RACCORDO
100
AcDbPolyline
 62
7
  6
CONTINUOUS
 90
10
 70
0
 10
-7.4500000002
 20
22.9276858132
 10
-7.4453344285
 20
22.9728805801
 10
-7.4342328203
 20
23.0144003778
 10
-7.4166951758
 20
23.0522452062
 10
-7.3918603547
 20
23.0873251699
 10
-7.3605894972
 20
23.1187301643
 10
-7.3254660239
 20
23.1437298757
 10
-7.2873510751
 20
23.1614141993
 10
-7.2453835106
 20
23.1726932399
 10
-7.1995633304
 20
23.1775669973
  0
LWPOLYLINE
  5
2E2
100
AcDbEntity
  8
0
100
AcDbPolyline
 62
7
  6
CONTINUOUS
 90
3
 70
0
 43
0.3500000006
 10
1.264285655
 20
34.1357120819
 10
1.192857163
 20
33.921427597
 10
1.0499999664
 20
33.6357164612
  0
LINE
  5
2E3
100
AcDbEntity
  8
0
100
AcDbLine
 62
7
  6
CONTINUOUS
 10
-1.5929910896
 20
-9.51
 11
-1.6902121158
 21
-9.51
  0
LINE
  5
2E4
100
AcDbEntity
  8
RACCORDO
100
AcDbLine
 62
7
  6
CONTINUOUS
 10
-7.45
 20
-22.927685814
 11
-7.45
 21
-22.3551229611
  0
LINE
  5
2E5
100
AcDbEntity
  8
RACCORDO
100
AcDbLine
 62
7
  6
CONTINUOUS
 10
-7.45
 20
22.3551229611
 11
-7.4500000002
 21
22.9276858132
  0
LINE
  5
2E6
100
AcDbEntity
  8
0
100
AcDbLine
 62
250
  6
CONTINUOUS
 10
-1.6849652781
 20
-9.6583517969
 11
-1.6121270006
 21
-9.6380413704
  0
LWPOLYLINE
  5
2E7
100
AcDbEntity
  8
DRAFT
100
AcDbPolyline
 62
250
  6
CONTINUOUS
 90
10
 70
0
 10
-1.3987031638
 20
-8.3951344114
 10
-1.0128691786
 20
-8.357313537
 10
-0.6034931932
 20
-8.3176771593
 10
-0.18990842
 20
-8.278139163
 10
0.2278622377
 20
-8.2386651149
 10
0.6498194692
 20
-8.1993295701
 10
1.0759916576
 20
-8.1603159225
 10
1.5063913115
 20
-8.1216975806
 10
1.9410113094
 20
-8.0834381157
 10
2.2628003156
 20
-8.0556600371
  0
LWPOLYLINE
  5
2E8
100
AcDbEntity
  8
RACCORDO
100
AcDbPolyline
 62
7
  6
CONTINUOUS
 90
49
 70
0
 10
0.55
 20
-7.2590855761
 10
0.6469188458
 20
-7.2611820305
 10
0.7427124805
 20
-7.2673859139
 10
0.8372130419
 20
-7.27756442
 10
0.9300953447
 20
-7.2915505049
 10
1.0213839655
 20
-7.3092165575
 10
1.1114397086
 20
-7.3305446645
 10
1.2001196829
 20
-7.3554454611
 10
1.2872904726
 20
-7.3838256032
 10
1.3733040883
 20
-7.4157768601
 10
1.4579940944
 20
-7.451246812
 10
1.5412339126
 20
-7.4901919826
 10
1.6233877837
 20
-7.5328333103
 10
1.7040322379
 20
-7.5790232138
 10
1.7832447971
 20
-7.6288803522
 10
1.8620100874
 20
-7.6832296863
 10
1.9400893808
 20
-7.7422390016
 10
2.0171066292
 20
-7.8059746597
 10
2.0936132295
 20
-7.8753649869
 10
2.1693496546
 20
-7.9508227877
 10
2.2435775297
 20
-8.0323124948
 10
2.3159416396
 20
-8.1202042357
 10
2.385823926
 20
-8.2146136195
 10
2.4525813529
 20
-8.3156267988
 10
2.5156889312
 20
-8.4235621181
 10
2.5743457641
 20
-8.5383455463
 10
2.6277928083
 20
-8.6599741465
 10
2.6753798733
 20
-8.7888411355
 10
2.7161441456
 20
-8.9247302873
 10
2.7491083485
 20
-9.067361399
 10
2.7733492885
 20
-9.2169471642
 10
2.7877234417
 20
-9.3729104511
 10
2.7910988122
 20
-9.5346460879
 10
2.7822723514
 20
-9.7021365601
 10
2.7599593913
 20
-9.8743831494
 10
2.7229238147
 20
-10.0501618708
 10
2.6697535362
 20
-10.2287789365
 10
2.5993423498
 20
-10.4082255944
 10
2.5105202874
 20
-10.5868519098
 10
2.4014060188
 20
-10.7638789189
 10
2.2704999858
 20
-10.9370740916
 10
2.1174085988
 20
-11.1027284957
 10
1.9420652374
 20
-11.257228763
 10
1.7425575562
 20
-11.3983361489
 10
1.5215383164
 20
-11.5204321491
 10
1.2879752386
 20
-11.6169675249
 10
1.0473848398
 20
-11.6860592149
 10
0.8003681648
 20
-11.7279176467
 10
0.55
 20
-11.7419462568
  0
LINE
  5
2E9
100
AcDbEntity
  8
RACCORDO
100
AcDbLine
 62
250
  6
CONTINUOUS
 10
-6.6014718626
 20
23.1727481812
 11
-6.6014718626
 21
22.3411589092
  0
LINE
  5
2EA
100
AcDbEntity
  8
RACCORDO
100
AcDbLine
 62
250
  6
CONTINUOUS
 10
-6.6014718626
 20
-22.3411589092
 11
-6.6014718626
 21
-23.1727481812
  0
LINE
  5
2EB
100
AcDbEntity
  8
RACCORDO
100
AcDbLine
 62
250
  6
CONTINUOUS
 10
-6.5720290259
 20
23.1727481812
 11
-6.5720290259
 21
22.3411589092
  0
LINE
  5
2EC
100
AcDbEntity
  8
RACCORDO
100
AcDbLine
 62
250
  6
CONTINUOUS
 10
-6.5720290259
 20
-22.3411589092
 11
-6.5720290259
 21
-23.1727481812
  0
LINE
  5
2ED
100
AcDbEntity
  8
RACCORDO
100
AcDbLine
 62
7
  6
CONTINUOUS
 10
-5.7220607523
 20
22.9279487669
 11
-5.7220613913
 21
22.3558662404
  0
LINE
  5
2EE
100
AcDbEntity
  8
RACCORDO
100
AcDbLine
 62
7
  6
CONTINUOUS
 10
-5.7220613913
 20
-22.9279481279
 11
-5.7220613913
 21
-22.3558662404
  0
LINE
  5
2EF
100
AcDbEntity
  8
RACCORDO
100
AcDbLine
 62
7
  6
CONTINUOUS
 10
-5.65
 20
-23.0000095192
 11
-5.65
 21
-22.6965394526
  0
LINE
  5
2F0
100
AcDbEntity
  8
RACCORDO
100
AcDbLine
 62
7
  6
CONTINUOUS
 10
-5.65
 20
22.6965394526
 11
-5.65
 21
23.0000095192
  0
LINE
  5
2F1
100
AcDbEntity
  8
0
100
AcDbLine
 62
7
  6
CONTINUOUS
 10
-5.45
 20
24.1
 11
-5.45
 21
22.5507488485
  0
LINE
  5
2F2
100
AcDbEntity
  8
0
100
AcDbLine
 62
7
  6
CONTINUOUS
 10
-5.45
 20
-24.1
 11
-5.45
 21
-22.5507488485
  0
LINE
  5
2F3
100
AcDbEntity
  8
0
100
AcDbLine
 62
7
  6
CONTINUOUS
 10
-5.45
 20
-24.1
 11
-5.45
 21
-25.1
  0
LINE
  5
2F4
100
AcDbEntity
  8
0
100
AcDbLine
 62
7
  6
CONTINUOUS
 10
-5.45
 20
24.1
 11
-5.45
 21
25.1
  0
LINE
  5
2F5
100
AcDbEntity
  8
RACCORDO
100
AcDbLine
 62
7
  6
CONTINUOUS
 10
4.5831620976
 20
22.3551229611
 11
4.6538801877
 21
22.4965699136
  0
LWPOLYLINE
  5
2F6
100
AcDbEntity
  8
RACCORDO
100
AcDbPolyline
 62
250
  6
CONTINUOUS
 90
49
 70
0
 10
0.55
 20
-6.8655625128
 10
0.6644980473
 20
-6.868303133
 10
0.7773063574
 20
-6.8755670404
 10
0.8884249303
 20
-6.8873542313
 10
0.9978302344
 20
-6.9037629575
 10
1.1055458013
 20
-6.9246949525
 10
1.2116422259
 20
-6.9498554317
 10
1.3161180269
 20
-6.9791649961
 10
1.4189746855
 20
-7.0127030181
 10
1.5202872395
 20
-7.0504128671
 10
1.6200663104
 20
-7.0922092205
 10
1.7183012768
 20
-7.1381773617
 10
1.8150353122
 20
-7.1885165653
 10
1.9100885583
 20
-7.2429256864
 10
2.0036408735
 20
-7.3017058149
 10
2.0962750057
 20
-7.3659595635
 10
2.1882843108
 20
-7.4355752864
 10
2.2793754329
 20
-7.510664537
 10
2.3692510527
 20
-7.5926646995
 10
2.4583935967
 20
-7.6818010894
 10
2.5463206384
 20
-7.7778482334
 10
2.631287578
 20
-7.881567297
 10
2.7134759337
 20
-7.9930629971
 10
2.7927041874
 20
-8.1122303856
 10
2.8666831858
 20
-8.2395160984
 10
2.9355962287
 20
-8.3750297302
 10
2.9992600164
 20
-8.5186613674
 10
3.0548354956
 20
-8.6705283533
 10
3.1025694065
 20
-8.8309214874
 10
3.1422150089
 20
-8.9995495528
 10
3.17019303
 20
-9.1756568602
 10
3.1867243429
 20
-9.3596764357
 10
3.1915880745
 20
-9.5511747694
 10
3.1805423323
 20
-9.7480964238
 10
3.1536727194
 20
-9.9511971507
 10
3.1108936328
 20
-10.1597207414
 10
3.0477063715
 20
-10.3693440116
 10
2.9641260146
 20
-10.5808392377
 10
2.8601374831
 20
-10.7934339411
 10
2.731196839
 20
-11.0004882023
 10
2.5759146318
 20
-11.203782783
 10
2.3956803121
 20
-11.4015371965
 10
2.1901182939
 20
-11.5817703424
 10
1.954440913
 20
-11.7448566374
 10
1.6934358336
 20
-11.8904227563
 10
1.421090462
 20
-12.0053667325
 10
1.1420672669
 20
-12.0853217943
 10
0.8517037796
 20
-12.1346559462
 10
0.55
 20
-12.1533694915
  0
LINE
  5
2F7
100
AcDbEntity
  8
0
100
AcDbLine
 62
7
  6
CONTINUOUS
 10
-1.4982168005
 20
-8.5907140044
 11
-1.4891974807
 21
-8.6004425922
  0
LINE
  5
2F8
100
AcDbEntity
  8
RACCORDO
100
AcDbLine
 62
7
  6
CONTINUOUS
 10
4.5831620976
 20
-22.3551229611
 11
4.6538801877
 21
-22.4965699136
  0
LINE
  5
2F9
100
AcDbEntity
  8
RACCORDO
100
AcDbLine
 62
7
  6
CONTINUOUS
 10
-3.95
 20
24.1
 11
-3.95
 21
23.6397902522
  0
LINE
  5
2FA
100
AcDbEntity
  8
RACCORDO
100
AcDbLine
 62
7
  6
CONTINUOUS
 10
-3.95
 20
-23.6397902522
 11
-3.95
 21
-24.1
  0
LINE
  5
2FB
100
AcDbEntity
  8
RACCORDO
100
AcDbLine
 62
250
  6
CONTINUOUS
 10
-3.75
 20
23.9584094599
 11
-3.75
 21
23.5779868533
  0
LINE
  5
2FC
100
AcDbEntity
  8
RACCORDO
100
AcDbLine
 62
250
  6
CONTINUOUS
 10
-3.75
 20
-23.9584094599
 11
-3.75
 21
-23.5779868533
  0
LWPOLYLINE
  5
2FD
100
AcDbEntity
  8
RACCORDO
100
AcDbPolyline
 62
250
  6
CONTINUOUS
 90
10
 70
0
 10
-5.7220613913
 20
-22.9279481279
 10
-5.7258622468
 20
-22.9713564364
 10
-5.737142726
 20
-23.0134459328
 10
-5.7555601105
 20
-23.052937873
 10
-5.7805548514
 20
-23.0886324303
 10
-5.8113675697
 20
-23.1194451486
 10
-5.847062127
 20
-23.1444398895
 10
-5.8865540672
 20
-23.162857274
 10
-5.9286435636
 20
-23.1741377532
 10
-5.9720518721
 20
-23.1779386087
  0
LINE
  5
2FE
100
AcDbEntity
  8
0
100
AcDbLine
 62
7
  6
CONTINUOUS
 10
2.6095222798
 20
8.6185981811
 11
2.5891974807
 21
8.6004425922
  0
LINE
  5
2FF
100
AcDbEntity
  8
RACCORDO
100
AcDbLine
 62
7
  6
CONTINUOUS
 10
-3.2
 20
-22.3551229611
 11
-3.2
 21
-22.4889454496
  0
LINE
  5
300
100
AcDbEntity
  8
RACCORDO
100
AcDbLine
 62
7
  6
CONTINUOUS
 10
-3.2
 20
22.3551229611
 11
-3.2
 21
22.4889454496
  0
LWPOLYLINE
  5
301
100
AcDbEntity
  8
RACCORDO
100
AcDbPolyline
 62
7
  6
CONTINUOUS
 90
46
 70
0
 10
0.55
 20
-2.2405025583
 10
0.2434336314
 20
-2.2194275501
 10
-0.0461299175
 20
-2.1597348877
 10
-0.3145631411
 20
-2.0669626301
 10
-0.5585104254
 20
-1.9470436403
 10
-0.7767577879
 20
-1.8053954233
 10
-0.9697532242
 20
-1.6462241973
 10
-1.1372035952
 20
-1.4741148705
 10
-1.2794980093
 20
-1.2932806562
 10
-1.3983834875
 20
-1.1060789764
 10
-1.4948478311
 20
-0.9155228696
 10
-1.5700424752
 20
-0.7245580975
 10
-1.6257486859
 20
-0.5344778591
 10
-1.6633614916
 20
-0.3472310098
 10
-1.6843759685
 20
-0.1646106755
 10
-1.6903936848
 20
0.0129150857
 10
-1.6828445831
 20
0.1842220731
 10
-1.6631897426
 20
0.3483242061
 10
-1.6327084425
 20
0.5053027182
 10
-1.5926686448
 20
0.6546212241
 10
-1.5443403457
 20
0.7958076274
 10
-1.4886649999
 20
0.9292098222
 10
-1.4266944994
 20
1.05464708
 10
-1.3594664583
 20
1.1719882254
 10
-1.2876179032
 20
1.2817161011
 10
-1.2119115946
 20
1.3839510616
 10
-1.1332196152
 20
1.4786623139
 10
-1.0521584718
 20
1.5661340165
 10
-0.9695089336
 20
1.6464496745
 10
-0.885820397
 20
1.7199243103
 10
-0.8012093252
 20
1.7871676727
 10
-0.7164045833
 20
1.8482338913
 10
-0.6316403549
 20
1.9035462911
 10
-0.5460695144
 20
1.9540743304
 10
-0.4599003938
 20
1.999971913
 10
-0.3734901853
 20
2.0413140518
 10
-0.2860177327
 20
2.0786729798
 10
-0.1975550726
 20
2.1121025938
 10
-0.1084054087
 20
2.141570994
 10
-0.0179922739
 20
2.1673061281
 10
0.0735568077
 20
2.1892553676
 10
0.1660561703
 20
2.2073580227
 10
0.2600387131
 20
2.2216590162
 10
0.3555831008
 20
2.2320509162
 10
0.4522949176
 20
2.2383710001
 10
0.55
 20
2.2405025583
  0
LWPOLYLINE
  5
302
100
AcDbEntity
  8
RACCORDO
100
AcDbPolyline
 62
250
  6
CONTINUOUS
 90
46
 70
0
 10
0.55
 20
-2.6429748333
 10
0.184907509
 20
-2.6079019974
 10
-0.1534130057
 20
-2.5402443657
 10
-0.4649615441
 20
-2.4400018462
 10
-0.750724404
 20
-2.3015467022
 10
-1.0097152877
 20
-2.130506362
 10
-1.2389753018
 20
-1.9437635468
 10
-1.4364180591
 20
-1.7430933292
 10
-1.6041299469
 20
-1.5267205299
 10
-1.745411234
 20
-1.3062026798
 10
-1.8596687929
 20
-1.0829501524
 10
-1.9474957511
 20
-0.85555266
 10
-2.0139717598
 20
-0.6313368447
 10
-2.0590208822
 20
-0.4113969157
 10
-2.0827190553
 20
-0.1946388018
 10
-2.0903737401
 20
0.0148932524
 10
-2.0821780384
 20
0.2164424227
 10
-2.0579388486
 20
0.4107654374
 10
-2.0223843273
 20
0.5960883927
 10
-1.9758056317
 20
0.771944886
 10
-1.9179116046
 20
0.9388012868
 10
-1.8525569314
 20
1.0962828658
 10
-1.7800401648
 20
1.2441162161
 10
-1.7000627521
 20
1.3825747572
 10
-1.6155837198
 20
1.512104007
 10
-1.5267642139
 20
1.6326451849
 10
-1.4334430883
 20
1.7442571057
 10
-1.3380959317
 20
1.847561681
 10
-1.2410560312
 20
1.9423609798
 10
-1.1419900996
 20
2.0288529729
 10
-1.0423738642
 20
2.10825342
 10
-0.9427307828
 20
2.1804517305
 10
-0.8425373975
 20
2.2455585279
 10
-0.7416990617
 20
2.3051213845
 10
-0.6403171408
 20
2.3593795141
 10
-0.5382902695
 20
2.4080937247
 10
-0.4352197044
 20
2.4520939738
 10
-0.3310612955
 20
2.4915833619
 10
-0.225859193
 20
2.5263588036
 10
-0.1193471039
 20
2.5566409743
 10
-0.0115189403
 20
2.5825568462
 10
0.0976192098
 20
2.6039794574
 10
0.208315376
 20
2.6207485819
 10
0.3206522346
 20
2.6328108128
 10
0.4345471093
 20
2.6402195628
 10
0.55
 20
2.6429748333
  0
LWPOLYLINE
  5
303
100
AcDbEntity
  8
RACCORDO
100
AcDbPolyline
 62
7
  6
CONTINUOUS
 90
25
 70
0
 10
-3.95
 20
24.0202128587
 10
-3.9495565971
 20
24.0161422934
 10
-3.9482756158
 20
24.0121232117
 10
-3.9461570561
 20
24.0081556138
 10
-3.943184719
 20
24.0042229977
 10
-3.9393748036
 20
24.0003418654
 10
-3.9347759065
 20
23.9965617219
 10
-3.9293779211
 20
23.992883861
 10
-3.9231909541
 20
23.9893069889
 10
-3.9162939225
 20
23.98587673
 10
-3.9086777303
 20
23.9825949623
 10
-3.9003514735
 20
23.9794598077
 10
-3.8914213562
 20
23.9765112563
 10
-3.8818796433
 20
23.9737516983
 10
-3.87173407
 20
23.9711787434
 10
-3.8611140466
 20
23.9688252106
 10
-3.8500134956
 20
23.9666939106
 10
-3.8384384945
 20
23.9647820327
 10
-3.8265366865
 20
23.9631139635
 10
-3.8143038853
 20
23.9616928261
 10
-3.8017442772
 20
23.9605154975
 10
-3.7890180644
 20
23.9595969948
 10
-3.7761786476
 20
23.9589423239
 10
-3.7631726262
 20
23.9585464789
 10
-3.75
 20
23.9584094599
  0
LINE
  5
304
100
AcDbEntity
  8
RACCORDO
100
AcDbLine
 62
7
  6
CONTINUOUS
 10
-3.1840272952
 20
23.9174311485
 11
-3.0473430398
 21
22.3551229611
  0
LINE
  5
305
100
AcDbEntity
  8
ASSI
100
AcDbLine
 62
7
  6
CONTINUOUS
 10
-0.05
 20
1.6379845485
 11
-0.05
 21
-1.6379845485
  0
LINE
  5
306
100
AcDbEntity
  8
ASSI
100
AcDbLine
 62
7
  6
CONTINUOUS
 10
0.0285418101
 20
1.6537261346
 11
0.0285418101
 21
-1.6537261346
  0
LINE
  5
307
100
AcDbEntity
  8
ASSI
100
AcDbLine
 62
7
  6
CONTINUOUS
 10
0.0714581899
 20
-0.7714581899
 11
0.0714581899
 21
-1.6610073754
  0
LINE
  5
308
100
AcDbEntity
  8
DRAFT
100
AcDbLine
 62
7
  6
CONTINUOUS
 10
-1.2784711892
 20
8.2046802389
 11
-1.2556086203
 21
10.824471148
  0
LINE
  5
309
100
AcDbEntity
  8
RACCORDO
100
AcDbLine
 62
7
  6
CONTINUOUS
 10
-3.0473430398
 20
-22.3551229611
 11
-3.1840272952
 21
-23.9174311485
  0
LWPOLYLINE
  5
30A
100
AcDbEntity
  8
RACCORDO
100
AcDbPolyline
 62
7
  6
CONTINUOUS
 90
25
 70
0
 10
-3.95
 20
-23.6397902522
 10
-3.9495565971
 20
-23.6357196869
 10
-3.9482756158
 20
-23.6317006052
 10
-3.9461570561
 20
-23.6277330072
 10
-3.943184719
 20
-23.6238003912
 10
-3.9393748036
 20
-23.6199192589
 10
-3.9347759065
 20
-23.6161391154
 10
-3.9293779211
 20
-23.6124612545
 10
-3.9231909541
 20
-23.6088843824
 10
-3.9162939225
 20
-23.6054541235
 10
-3.9086777303
 20
-23.6021723558
 10
-3.9003514735
 20
-23.5990372012
 10
-3.8914213562
 20
-23.5960886498
 10
-3.8818796433
 20
-23.5933290918
 10
-3.87173407
 20
-23.5907561369
 10
-3.8611140466
 20
-23.5884026041
 10
-3.8500134956
 20
-23.5862713041
 10
-3.8384384945
 20
-23.5843594262
 10
-3.8265366865
 20
-23.582691357
 10
-3.8143038853
 20
-23.5812702196
 10
-3.8017442772
 20
-23.580092891
 10
-3.7890180644
 20
-23.5791743883
 10
-3.7761786476
 20
-23.5785197174
 10
-3.7631726262
 20
-23.5781238724
 10
-3.75
 20
-23.5779868533
  0
LWPOLYLINE
  5
30B
100
AcDbEntity
  8
RACCORDO
100
AcDbPolyline
 62
7
  6
CONTINUOUS
 90
25
 70
0
 10
-3.2
 20
-22.4889454496
 10
-3.2004434029
 20
-22.493016015
 10
-3.2017243842
 20
-22.4970350967
 10
-3.2038429439
 20
-22.5010026946
 10
-3.206815281
 20
-22.5049353107
 10
-3.2106251964
 20
-22.508816443
 10
-3.2152240935
 20
-22.5125965865
 10
-3.2206220789
 20
-22.5162744474
 10
-3.2268090459
 20
-22.5198513194
 10
-3.2337060775
 20
-22.5232815784
 10
-3.2413222697
 20
-22.5265633461
 10
-3.2496485265
 20
-22.5296985006
 10
-3.2585786438
 20
-22.5326470521
 10
-3.2681203567
 20
-22.5354066101
 10
-3.27826593
 20
-22.5379795649
 10
-3.2888859534
 20
-22.5403330977
 10
-3.2999865044
 20
-22.5424643977
 10
-3.3115615055
 20
-22.5443762757
 10
-3.3234633135
 20
-22.5460443449
 10
-3.3356961147
 20
-22.5474654822
 10
-3.3482557228
 20
-22.5486428109
 10
-3.3609819356
 20
-22.5495613135
 10
-3.3738213524
 20
-22.5502159845
 10
-3.3868273738
 20
-22.5506118295
 10
-3.4
 20
-22.5507488485
  0
LINE
  5
30C
100
AcDbEntity
  8
0
100
AcDbLine
 62
7
  6
CONTINUOUS
 10
-1.6528425684
 20
-9.9104755959
 11
-1.4372386143
 21
-8.4678358536
  0
LINE
  5
30D
100
AcDbEntity
  8
DRAFT
100
AcDbLine
 62
7
  6
CONTINUOUS
 10
-1.6482577683
 20
-9.9374981305
 11
-1.4248809705
 21
-8.4429337612
  0
LINE
  5
30E
100
AcDbEntity
  8
RACCORDO
100
AcDbLine
 62
250
  6
CONTINUOUS
 10
11.1808294475
 20
22.3551229611
 11
11.1442435438
 21
22.2819455808
  0
LINE
  5
30F
100
AcDbEntity
  8
ASSI
100
AcDbLine
 62
7
  6
CONTINUOUS
 10
0.4103594806
 20
-0.7714581899
 11
0.0714581899
 21
-0.7714581899
  0
LINE
  5
310
100
AcDbEntity
  8
ASSI
100
AcDbLine
 62
7
  6
CONTINUOUS
 10
1.5067829004
 20
-1.4250485959
 11
1.6324755693
 21
-1.4976172922
  0
LINE
  5
311
100
AcDbEntity
  8
ASSI
100
AcDbLine
 62
7
  6
CONTINUOUS
 10
0.0714581899
 20
-0.7714581899
 11
0.9701765308
 21
-1.6701765308
  0
LINE
  5
312
100
AcDbEntity
  8
ASSI
100
AcDbLine
 62
7
  6
CONTINUOUS
 10
0.4103594806
 20
-0.7714581899
 11
1.2478763351
 21
-1.6163158346
  0
LINE
  5
313
100
AcDbEntity
  8
RACCORDO
100
AcDbLine
 62
250
  6
CONTINUOUS
 10
11.1442435441
 20
-22.2819455812
 11
11.1808294475
 21
-22.3551229611
  0
LINE
  5
314
100
AcDbEntity
  8
ASSI
100
AcDbLine
 62
7
  6
CONTINUOUS
 10
0.4103594806
 20
1.6966367942
 11
0.4103594806
 21
-0.7714581899
  0
LINE
  5
315
100
AcDbEntity
  8
RACCORDO
100
AcDbLine
 62
250
  6
CONTINUOUS
 10
0.5499999552
 20
2.6429737547
 11
0.5499994972
 21
2.2400366964
  0
LINE
  5
316
100
AcDbEntity
  8
RACCORDO
100
AcDbLine
 62
250
  6
CONTINUOUS
 10
0.5500000448
 20
-2.642973755
 11
0.5500005025
 21
-2.2400368121
  0
LINE
  5
317
100
AcDbEntity
  8
ASSI
100
AcDbLine
 62
7
  6
CONTINUOUS
 10
1.4103594806
 20
1.5725288241
 11
1.4103594806
 21
-1.5725288241
  0
LINE
  5
318
100
AcDbEntity
  8
ASSI
100
AcDbLine
 62
7
  6
CONTINUOUS
 10
1.55
 20
1.5271455442
 11
1.55
 21
-1.45
  0
LINE
  5
319
100
AcDbEntity
  8
0
100
AcDbLine
 62
7
  6
CONTINUOUS
 10
1.75
 20
-1.4480238242
 11
1.75
 21
1.4480238242
  0
LINE
  5
31A
100
AcDbEntity
  8
ASSI
100
AcDbLine
 62
7
  6
CONTINUOUS
 10
1.4988235227
 20
-1.5458920888
 11
1.4990096619
 21
-1.5284553856
  0
LINE
  5
31B
100
AcDbEntity
  8
ASSI
100
AcDbLine
 62
7
  6
CONTINUOUS
 10
1.4990096619
 20
-1.5284553856
 11
1.4993316268
 21
-1.5098296137
  0
LWPOLYLINE
  5
31C
100
AcDbEntity
  8
ASSI
100
AcDbPolyline
 62
7
  6
CONTINUOUS
 90
23
 70
0
 10
1.4993316268
 20
-1.5098296137
 10
1.4997296327
 20
-1.494368625
 10
1.4999451538
 20
-1.4875142112
 10
1.5001736118
 20
-1.4812455307
 10
1.5004148344
 20
-1.4753530432
 10
1.5006690624
 20
-1.4697828038
 10
1.5009360549
 20
-1.4645887574
 10
1.5012149168
 20
-1.4597231995
 10
1.5015058948
 20
-1.4551727738
 10
1.5018087422
 20
-1.4509508366
 10
1.5021218237
 20
-1.4470497518
 10
1.5024445136
 20
-1.4434711431
 10
1.5027774375
 20
-1.4402133867
 10
1.5031208376
 20
-1.4372639756
 10
1.5034737751
 20
-1.4346178783
 10
1.5038371888
 20
-1.4322801262
 10
1.5042141368
 20
-1.4302533067
 10
1.5046050187
 20
-1.4285226733
 10
1.505009435
 20
-1.4271029725
 10
1.5054292454
 20
-1.4260410316
 10
1.5058650697
 20
-1.4253524598
 10
1.506316288
 20
-1.4250216479
 10
1.5067829004
 20
-1.4250485959
  0
LWPOLYLINE
  5
31D
100
AcDbEntity
  8
RACCORDO
100
AcDbPolyline
 62
7
  6
CONTINUOUS
 90
25
 70
0
 10
4.3
 20
22.4889454496
 10
4.3004434029
 20
22.493016015
 10
4.3017243842
 20
22.4970350967
 10
4.3038429439
 20
22.5010026946
 10
4.306815281
 20
22.5049353107
 10
4.3106251964
 20
22.508816443
 10
4.3152240935
 20
22.5125965865
 10
4.3206220789
 20
22.5162744474
 10
4.3268090459
 20
22.5198513194
 10
4.3337060775
 20
22.5232815784
 10
4.3413222697
 20
22.5265633461
 10
4.3496485265
 20
22.5296985006
 10
4.3585786438
 20
22.5326470521
 10
4.3681203567
 20
22.5354066101
 10
4.37826593
 20
22.5379795649
 10
4.3888859534
 20
22.5403330977
 10
4.3999865044
 20
22.5424643977
 10
4.4115615055
 20
22.5443762757
 10
4.4234633135
 20
22.5460443449
 10
4.4356961147
 20
22.5474654822
 10
4.4482557228
 20
22.5486428109
 10
4.4609819356
 20
22.5495613135
 10
4.4738213524
 20
22.5502159845
 10
4.4868273738
 20
22.5506118295
 10
4.5
 20
22.5507488485
  0
LINE
  5
31E
100
AcDbEntity
  8
DRAFT
100
AcDbLine
 62
7
  6
CONTINUOUS
 10
2.7482577683
 20
9.9374981305
 11
2.5248809705
 21
8.4429337612
  0
LINE
  5
31F
100
AcDbEntity
  8
0
100
AcDbLine
 62
7
  6
CONTINUOUS
 10
2.7528425684
 20
9.9104755959
 11
2.5372386143
 21
8.4678358536
  0
LINE
  5
320
100
AcDbEntity
  8
RACCORDO
100
AcDbLine
 62
250
  6
CONTINUOUS
 10
11.4308008909
 20
22.1051229596
 11
11.3867111697
 21
22.0169368012
  0
LINE
  5
321
100
AcDbEntity
  8
RACCORDO
100
AcDbLine
 62
250
  6
CONTINUOUS
 10
-10.3308008909
 20
-22.1051229596
 11
-10.2867111697
 21
-22.0169368012
  0
LINE
  5
322
100
AcDbEntity
  8
RACCORDO
100
AcDbLine
 62
250
  6
CONTINUOUS
 10
-10.0808294475
 20
-22.3551229611
 11
-10.0442435438
 21
-22.2819455808
  0
LINE
  5
323
100
AcDbEntity
  8
0
100
AcDbLine
 62
7
  6
CONTINUOUS
 10
2.5975822626
 20
0.9086015738
 11
2.5896081176
 21
0.9000003539
  0
LINE
  5
324
100
AcDbEntity
  8
0
100
AcDbLine
 62
7
  6
CONTINUOUS
 10
2.5973627442
 20
-0.9083647928
 11
2.5896081176
 21
-0.9000003539
  0
LINE
  5
325
100
AcDbEntity
  8
RACCORDO
100
AcDbLine
 62
250
  6
CONTINUOUS
 10
11.3867111697
 20
-22.0169368012
 11
11.4308008909
 21
-22.1051229596
  0
LINE
  5
326
100
AcDbEntity
  8
RACCORDO
100
AcDbLine
 62
250
  6
CONTINUOUS
 10
-10.2867111697
 20
22.0169368012
 11
-10.3308008909
 21
22.1051229596
  0
LINE
  5
327
100
AcDbEntity
  8
RACCORDO
100
AcDbLine
 62
250
  6
CONTINUOUS
 10
-10.0442435441
 20
22.2819455812
 11
-10.0808294475
 21
22.3551229611
  0
LWPOLYLINE
  5
328
100
AcDbEntity
  8
RACCORDO
100
AcDbPolyline
 62
7
  6
CONTINUOUS
 90
25
 70
0
 10
5.05
 20
-24.0202128587
 10
5.0495565971
 20
-24.0161422934
 10
5.0482756158
 20
-24.0121232117
 10
5.0461570561
 20
-24.0081556138
 10
5.043184719
 20
-24.0042229977
 10
5.0393748036
 20
-24.0003418654
 10
5.0347759065
 20
-23.9965617219
 10
5.0293779211
 20
-23.992883861
 10
5.0231909541
 20
-23.9893069889
 10
5.0162939225
 20
-23.98587673
 10
5.0086777303
 20
-23.9825949623
 10
5.0003514735
 20
-23.9794598077
 10
4.9914213562
 20
-23.9765112563
 10
4.9818796433
 20
-23.9737516983
 10
4.97173407
 20
-23.9711787434
 10
4.9611140466
 20
-23.9688252106
 10
4.9500134956
 20
-23.9666939106
 10
4.9384384945
 20
-23.9647820327
 10
4.9265366865
 20
-23.9631139635
 10
4.9143038853
 20
-23.9616928261
 10
4.9017442772
 20
-23.9605154975
 10
4.8890180644
 20
-23.9595969948
 10
4.8761786476
 20
-23.9589423239
 10
4.8631726262
 20
-23.9585464789
 10
4.85
 20
-23.9584094599
  0
LINE
  5
329
100
AcDbEntity
  8
RACCORDO
100
AcDbLine
 62
7
  6
CONTINUOUS
 10
4.2840272952
 20
-23.9174311485
 11
4.1473430398
 21
-22.3551229611
  0
LWPOLYLINE
  5
32A
100
AcDbEntity
  8
0
100
AcDbPolyline
 62
7
  6
CONTINUOUS
 90
4
 70
0
 43
0.3500000006
 10
2.264285677
 20
34.2785699158
 10
2.264285677
 20
35.1357123871
 10
2.6928571959
 20
35.5642858887
 10
3.3357143326
 20
35.5642858887
  0
LINE
  5
32B
100
AcDbEntity
  8
DRAFT
100
AcDbLine
 62
7
  6
CONTINUOUS
 10
2.3784711892
 20
-8.2046802389
 11
2.3556086203
 21
-10.824471148
  0
LINE
  5
32C
100
AcDbEntity
  8
RACCORDO
100
AcDbLine
 62
7
  6
CONTINUOUS
 10
4.1473430398
 20
22.3551229611
 11
4.2840272952
 21
23.9174311485
  0
LWPOLYLINE
  5
32D
100
AcDbEntity
  8
RACCORDO
100
AcDbPolyline
 62
7
  6
CONTINUOUS
 90
25
 70
0
 10
5.05
 20
23.6397902522
 10
5.0495565971
 20
23.6357196869
 10
5.0482756158
 20
23.6317006052
 10
5.0461570561
 20
23.6277330072
 10
5.043184719
 20
23.6238003912
 10
5.0393748036
 20
23.6199192589
 10
5.0347759065
 20
23.6161391154
 10
5.0293779211
 20
23.6124612545
 10
5.0231909541
 20
23.6088843824
 10
5.0162939225
 20
23.6054541235
 10
5.0086777303
 20
23.6021723558
 10
5.0003514735
 20
23.5990372012
 10
4.9914213562
 20
23.5960886498
 10
4.9818796433
 20
23.5933290918
 10
4.97173407
 20
23.5907561369
 10
4.9611140466
 20
23.5884026041
 10
4.9500134956
 20
23.5862713041
 10
4.9384384945
 20
23.5843594262
 10
4.9265366865
 20
23.582691357
 10
4.9143038853
 20
23.5812702196
 10
4.9017442772
 20
23.580092891
 10
4.8890180644
 20
23.5791743883
 10
4.8761786476
 20
23.5785197174
 10
4.8631726262
 20
23.5781238724
 10
4.85
 20
23.5779868533
  0
LINE
  5
32E
100
AcDbEntity
  8
0
100
AcDbLine
 62
7
  6
CONTINUOUS
 10
2.6075910512
 20
-0.8838597544
 11
2.5896084283
 21
-0.9000000658
  0
LINE
  5
32F
100
AcDbEntity
  8
0
100
AcDbLine
 62
250
  6
CONTINUOUS
 10
2.6051396988
 20
-0.889732719
 11
2.5912694502
 21
-0.9017923308
  0
LWPOLYLINE
  5
330
100
AcDbEntity
  8
RACCORDO
100
AcDbPolyline
 62
7
  6
CONTINUOUS
 90
46
 70
0
 10
0.55
 20
2.2405025583
 10
0.8565971063
 20
2.2194233036
 10
1.1461885552
 20
2.1597187004
 10
1.414645619
 20
2.0669281273
 10
1.6586131976
 20
1.9469851217
 10
1.8768753476
 20
1.8053090191
 10
2.0698764751
 20
1.6461103994
 10
2.2373228063
 20
1.4739784072
 10
2.379607022
 20
1.2931264213
 10
2.4984793014
 20
1.1059101702
 10
2.5949291262
 20
0.9153412612
 10
2.6701075977
 20
0.7243675105
 10
2.7257960294
 20
0.5342850845
 10
2.7633904845
 20
0.3470461368
 10
2.7843884829
 20
0.1644407085
 10
2.7903927867
 20
-0.0130699715
 10
2.7828327968
 20
-0.1843648808
 10
2.7631690832
 20
-0.3484554549
 10
2.7326809761
 20
-0.5054213553
 10
2.6926368976
 20
-0.6547251349
 10
2.6443066484
 20
-0.7958963091
 10
2.5886306972
 20
-0.9292850827
 10
2.5266599221
 20
-1.0547118888
 10
2.4594320243
 20
-1.1720443289
 10
2.3875845685
 20
-1.2817638954
 10
2.3118805636
 20
-1.3839905689
 10
2.2331917159
 20
-1.4786940742
 10
2.1521343755
 20
-1.5661586682
 10
2.0694892856
 20
-1.6464678087
 10
1.985805686
 20
-1.7199365919
 10
1.9011996534
 20
-1.7871749856
 10
1.8163999467
 20
-1.8482370685
 10
1.7316406512
 20
-1.9035461072
 10
1.6460742304
 20
-1.9540716849
 10
1.5599087745
 20
-1.9999676807
 10
1.4735015368
 20
-2.041308916
 10
1.3860314088
 20
-2.078667479
 10
1.2975704059
 20
-2.1120971664
 10
1.2084216592
 20
-2.1415659975
 10
1.1180086956
 20
-2.1673018241
 10
1.0264590548
 20
-2.1892519152
 10
0.9339583424
 20
-2.2073554982
 10
0.8399735486
 20
-2.2216574158
 10
0.7444259704
 20
-2.232050126
 10
0.6477100613
 20
-2.2383707827
 10
0.55
 20
-2.2405025583
  0
LWPOLYLINE
  5
331
100
AcDbEntity
  8
RACCORDO
100
AcDbPolyline
 62
250
  6
CONTINUOUS
 90
46
 70
0
 10
0.55
 20
2.6429748333
 10
0.9151297509
 20
2.6078945946
 10
1.2534822761
 20
2.5402236188
 10
1.5650575756
 20
2.4399618138
 10
1.8508431855
 20
2.3014784187
 10
2.1098515696
 20
2.1304038858
 10
2.3391201193
 20
1.9436300097
 10
2.5365591511
 20
1.7429345696
 10
2.7042583483
 20
1.5265396795
 10
2.8455241521
 20
1.3060038241
 10
2.9597645574
 20
1.082736344
 10
3.0475715691
 20
0.8553279844
 10
3.114027644
 20
0.63110944
 10
3.1590568357
 20
0.4111790509
 10
3.1827350906
 20
0.194438615
 10
3.1903727031
 20
-0.0150759635
 10
3.1821638064
 20
-0.2166110148
 10
3.1579142674
 20
-0.4109201129
 10
3.1223519818
 20
-0.5962282318
 10
3.0757685416
 20
-0.772067592
 10
3.0178723549
 20
-0.9389059399
 10
2.952516541
 20
-1.0963715549
 10
2.8799991098
 20
-1.2441925414
 10
2.8000220516
 20
-1.3826408077
 10
2.7155444569
 20
-1.5121603469
 10
2.6267276283
 20
-1.6326918047
 10
2.5334102632
 20
-1.7442945695
 10
2.4380675448
 20
-1.847590749
 10
2.3410328522
 20
-1.942382409
 10
2.2419728062
 20
-2.0288675235
 10
2.1423624521
 20
-2.1082620577
 10
2.0427252557
 20
-2.1804555016
 10
1.9425377512
 20
-2.2455583981
 10
1.8417045863
 20
-2.3051182838
 10
1.740326926
 20
-2.3593744935
 10
1.6383036053
 20
-2.408087714
 10
1.5352357772
 20
-2.4520875039
 10
1.4310792872
 20
-2.4915769419
 10
1.3258782897
 20
-2.5263529642
 10
1.2193664007
 20
-2.5566359128
 10
1.1115375506
 20
-2.5825527625
 10
1.002397809
 20
-2.6039765489
 10
0.8916990007
 20
-2.6207467035
 10
0.7793584006
 20
-2.6328097055
 10
0.6654587336
 20
-2.6402190816
 10
0.55
 20
-2.6429748333
  0
LINE
  5
332
100
AcDbEntity
  8
0
100
AcDbLine
 62
250
  6
CONTINUOUS
 10
2.6049427364
 20
0.8899039697
 11
2.5912694502
 21
0.9017923308
  0
LINE
  5
333
100
AcDbEntity
  8
0
100
AcDbLine
 62
7
  6
CONTINUOUS
 10
2.5896084283
 20
0.9000000658
 11
2.6071751419
 21
0.884233053
  0
LINE
  5
334
100
AcDbEntity
  8
RACCORDO
100
AcDbLine
 62
7
  6
CONTINUOUS
 10
4.3
 20
-22.3551229611
 11
4.3
 21
-22.4889454496
  0
LINE
  5
335
100
AcDbEntity
  8
RACCORDO
100
AcDbLine
 62
7
  6
CONTINUOUS
 10
4.3
 20
22.3551229611
 11
4.3
 21
22.4889454496
  0
LINE
  5
336
100
AcDbEntity
  8
RACCORDO
100
AcDbLine
 62
250
  6
CONTINUOUS
 10
4.85
 20
23.9584094599
 11
4.85
 21
23.5779868533
  0
LINE
  5
337
100
AcDbEntity
  8
RACCORDO
100
AcDbLine
 62
250
  6
CONTINUOUS
 10
4.85
 20
-23.9584094599
 11
4.85
 21
-23.5779868533
  0
LINE
  5
338
100
AcDbEntity
  8
RACCORDO
100
AcDbLine
 62
7
  6
CONTINUOUS
 10
5.05
 20
-24.1
 11
5.05
 21
-23.6397902522
  0
LINE
  5
339
100
AcDbEntity
  8
RACCORDO
100
AcDbLine
 62
7
  6
CONTINUOUS
 10
5.05
 20
23.6397902522
 11
5.05
 21
24.1
  0
LWPOLYLINE
  5
33A
100
AcDbEntity
  8
RACCORDO
100
AcDbPolyline
 62
250
  6
CONTINUOUS
 90
10
 70
0
 10
6.8220613913
 20
22.9279481279
 10
6.8258622468
 20
22.9713564364
 10
6.837142726
 20
23.0134459328
 10
6.8555601105
 20
23.052937873
 10
6.8805548514
 20
23.0886324303
 10
6.9113675697
 20
23.1194451486
 10
6.947062127
 20
23.1444398895
 10
6.9865540672
 20
23.162857274
 10
7.0286435636
 20
23.1741377532
 10
7.0720518721
 20
23.1779386087
  0
LINE
  5
33B
100
AcDbEntity
  8
0
100
AcDbLine
 62
7
  6
CONTINUOUS
 10
-1.5095222798
 20
-8.6185981811
 11
-1.4891974807
 21
-8.6004425922
  0
LINE
  5
33C
100
AcDbEntity
  8
0
100
AcDbLine
 62
7
  6
CONTINUOUS
 10
6.55
 20
24.1
 11
6.55
 21
22.5507488485
  0
LINE
  5
33D
100
AcDbEntity
  8
0
100
AcDbLine
 62
7
  6
CONTINUOUS
 10
6.55
 20
-24.1
 11
6.55
 21
-22.5507488485
  0
LINE
  5
33E
100
AcDbEntity
  8
0
100
AcDbLine
 62
7
  6
CONTINUOUS
 10
6.55
 20
-24.1
 11
6.55
 21
-25.1
  0
LINE
  5
33F
100
AcDbEntity
  8
0
100
AcDbLine
 62
7
  6
CONTINUOUS
 10
6.55
 20
24.1
 11
6.55
 21
25.1
  0
LINE
  5
340
100
AcDbEntity
  8
RACCORDO
100
AcDbLine
 62
7
  6
CONTINUOUS
 10
6.75
 20
23.0000095192
 11
6.75
 21
22.6965394526
  0
LINE
  5
341
100
AcDbEntity
  8
RACCORDO
100
AcDbLine
 62
7
  6
CONTINUOUS
 10
6.75
 20
-22.6965394526
 11
6.75
 21
-23.0000095192
  0
LINE
  5
342
100
AcDbEntity
  8
RACCORDO
100
AcDbLine
 62
7
  6
CONTINUOUS
 10
6.8220613913
 20
22.9279481279
 11
6.8220613913
 21
22.3558662404
  0
LINE
  5
343
100
AcDbEntity
  8
RACCORDO
100
AcDbLine
 62
7
  6
CONTINUOUS
 10
6.8220613913
 20
-22.3558662404
 11
6.8220612444
 21
-22.9279482749
  0
LINE
  5
344
100
AcDbEntity
  8
RACCORDO
100
AcDbLine
 62
7
  6
CONTINUOUS
 10
-3.4831620976
 20
-22.3551229611
 11
-3.5538801877
 21
-22.4965699136
  0
LWPOLYLINE
  5
345
100
AcDbEntity
  8
RACCORDO
100
AcDbPolyline
 62
7
  6
CONTINUOUS
 90
49
 70
0
 10
0.55
 20
7.2590855761
 10
0.4530811542
 20
7.2611820305
 10
0.3572875195
 20
7.2673859139
 10
0.2627869581
 20
7.27756442
 10
0.1699046553
 20
7.2915505049
 10
0.0786160345
 20
7.3092165575
 10
-0.0114397086
 20
7.3305446645
 10
-0.1001196829
 20
7.3554454611
 10
-0.1872904726
 20
7.3838256032
 10
-0.2733040883
 20
7.4157768601
 10
-0.3579940944
 20
7.451246812
 10
-0.4412339126
 20
7.4901919826
 10
-0.5233877837
 20
7.5328333103
 10
-0.6040322379
 20
7.5790232138
 10
-0.6832447971
 20
7.6288803522
 10
-0.7620100874
 20
7.6832296863
 10
-0.8400893808
 20
7.7422390016
 10
-0.9171066292
 20
7.8059746597
 10
-0.9936132295
 20
7.8753649869
 10
-1.0693496546
 20
7.9508227877
 10
-1.1435775297
 20
8.0323124948
 10
-1.2159416396
 20
8.1202042357
 10
-1.285823926
 20
8.2146136195
 10
-1.3525813529
 20
8.3156267988
 10
-1.4156889312
 20
8.4235621181
 10
-1.4743457641
 20
8.5383455463
 10
-1.5277928083
 20
8.6599741465
 10
-1.5753798733
 20
8.7888411355
 10
-1.6161441456
 20
8.9247302873
 10
-1.6491083485
 20
9.067361399
 10
-1.6733492885
 20
9.2169471642
 10
-1.6877234417
 20
9.3729104511
 10
-1.6910988122
 20
9.5346460879
 10
-1.6822723514
 20
9.7021365601
 10
-1.6599593913
 20
9.8743831494
 10
-1.6229238147
 20
10.0501618708
 10
-1.5697535362
 20
10.2287789365
 10
-1.4993423498
 20
10.4082255944
 10
-1.4105202874
 20
10.5868519098
 10
-1.3014060188
 20
10.7638789189
 10
-1.1704999858
 20
10.9370740916
 10
-1.0174085988
 20
11.1027284957
 10
-0.8420652374
 20
11.2572287629
 10
-0.6425575562
 20
11.3983361489
 10
-0.4215383164
 20
11.5204321491
 10
-0.1879752386
 20
11.6169675249
 10
0.0526151602
 20
11.6860592149
 10
0.2996318352
 20
11.7279176467
 10
0.55
 20
11.7419462568
  0
LWPOLYLINE
  5
346
100
AcDbEntity
  8
RACCORDO
100
AcDbPolyline
 62
250
  6
CONTINUOUS
 90
49
 70
0
 10
0.55
 20
6.8655625128
 10
0.4355019527
 20
6.868303133
 10
0.3226936426
 20
6.8755670404
 10
0.2115750697
 20
6.8873542313
 10
0.1021697656
 20
6.9037629575
 10
-0.0055458013
 20
6.9246949525
 10
-0.1116422259
 20
6.9498554317
 10
-0.2161180269
 20
6.9791649961
 10
-0.3189746855
 20
7.0127030181
 10
-0.4202872395
 20
7.0504128671
 10
-0.5200663104
 20
7.0922092205
 10
-0.6183012768
 20
7.1381773617
 10
-0.7150353122
 20
7.1885165653
 10
-0.8100885583
 20
7.2429256864
 10
-0.9036408735
 20
7.3017058149
 10
-0.9962750057
 20
7.3659595635
 10
-1.0882843108
 20
7.4355752864
 10
-1.1793754329
 20
7.510664537
 10
-1.2692510527
 20
7.5926646995
 10
-1.3583935967
 20
7.6818010895
 10
-1.4463206384
 20
7.7778482334
 10
-1.531287578
 20
7.881567297
 10
-1.6134759337
 20
7.9930629971
 10
-1.6927041874
 20
8.1122303856
 10
-1.7666831858
 20
8.2395160984
 10
-1.8355962287
 20
8.3750297302
 10
-1.8992600164
 20
8.5186613674
 10
-1.9548354956
 20
8.6705283533
 10
-2.0025694065
 20
8.8309214874
 10
-2.0422150089
 20
8.9995495528
 10
-2.07019303
 20
9.1756568602
 10
-2.0867243429
 20
9.3596764357
 10
-2.0915880745
 20
9.5511747694
 10
-2.0805423323
 20
9.7480964238
 10
-2.0536727194
 20
9.9511971507
 10
-2.0108936328
 20
10.1597207414
 10
-1.9477063715
 20
10.3693440116
 10
-1.8641260146
 20
10.5808392377
 10
-1.7601374831
 20
10.7934339411
 10
-1.631196839
 20
11.0004882023
 10
-1.4759146318
 20
11.203782783
 10
-1.2956803121
 20
11.4015371965
 10
-1.0901182939
 20
11.5817703424
 10
-0.854440913
 20
11.7448566374
 10
-0.5934358336
 20
11.8904227563
 10
-0.321090462
 20
12.0053667325
 10
-0.0420672669
 20
12.0853217942
 10
0.2482962204
 20
12.1346559462
 10
0.55
 20
12.1533694915
  0
LINE
  5
347
100
AcDbEntity
  8
RACCORDO
100
AcDbLine
 62
7
  6
CONTINUOUS
 10
-3.4831620976
 20
22.3551229611
 11
-3.5538801877
 21
22.4965699136
  0
LINE
  5
348
100
AcDbEntity
  8
RACCORDO
100
AcDbLine
 62
250
  6
CONTINUOUS
 10
7.6720290259
 20
-22.3411589092
 11
7.6720290259
 21
-23.1727481812
  0
LINE
  5
349
100
AcDbEntity
  8
RACCORDO
100
AcDbLine
 62
250
  6
CONTINUOUS
 10
7.6720290259
 20
22.3411589092
 11
7.6720290259
 21
23.1727481812
  0
LINE
  5
34A
100
AcDbEntity
  8
RACCORDO
100
AcDbLine
 62
250
  6
CONTINUOUS
 10
7.7014718626
 20
22.3411589092
 11
7.7014718626
 21
23.1727481812
  0
LINE
  5
34B
100
AcDbEntity
  8
RACCORDO
100
AcDbLine
 62
250
  6
CONTINUOUS
 10
7.7014718626
 20
-23.1727481812
 11
7.7014718626
 21
-22.3411589092
  0
LINE
  5
34C
100
AcDbEntity
  8
RACCORDO
100
AcDbLine
 62
7
  6
CONTINUOUS
 10
8.55
 20
22.927685814
 11
8.55
 21
22.3551229611
  0
LINE
  5
34D
100
AcDbEntity
  8
RACCORDO
100
AcDbLine
 62
7
  6
CONTINUOUS
 10
8.55
 20
-22.3551229611
 11
8.5500000002
 21
-22.9276858132
  0
LINE
  5
34E
100
AcDbEntity
  8
0
100
AcDbLine
 62
250
  6
CONTINUOUS
 10
2.7849652781
 20
9.6583517969
 11
2.7121270006
 21
9.6380413704
  0
LWPOLYLINE
  5
34F
100
AcDbEntity
  8
DRAFT
100
AcDbPolyline
 62
250
  6
CONTINUOUS
 90
10
 70
0
 10
2.4987032048
 20
8.395134478
 10
2.1123887354
 20
8.357267661
 10
1.7026560658
 20
8.3175972417
 10
1.2888367301
 20
8.2780371517
 10
0.8709519748
 20
8.2385536897
 10
0.4489995556
 20
8.199220784
 10
0.0229497146
 20
8.1602198439
 10
-0.4072114051
 20
8.1216235851
 10
-0.8414780942
 20
8.0833961783
 10
-1.1627999815
 20
8.0556596314
  0
LINE
  5
350
100
AcDbEntity
  8
0
100
AcDbLine
 62
7
  6
CONTINUOUS
 10
2.5891937458
 20
8.6004466208
 11
2.5896078054
 21
8.6
  0
LINE
  5
351
100
AcDbEntity
  8
0
100
AcDbLine
 62
7
  6
CONTINUOUS
 10
2.5982168005
 20
8.5907140044
 11
2.5891974807
 21
8.6004425922
  0
LINE
  5
352
100
AcDbEntity
  8
RACCORDO
100
AcDbLine
 62
250
  6
CONTINUOUS
 10
11.1101018387
 20
-17.710427789
 11
11.139281257
 21
-18.3
  0
LINE
  5
353
100
AcDbEntity
  8
RACCORDO
100
AcDbLine
 62
250
  6
CONTINUOUS
 10
11.3600923194
 20
-17.4642258507
 11
11.3889119255
 21
-18.0465280279
  0
LWPOLYLINE
  5
354
100
AcDbEntity
  8
RACCORDO
100
AcDbPolyline
 62
250
  6
CONTINUOUS
 90
3
 70
0
 10
11.3588821945
 20
-17.4266876781
 10
11.3594811808
 20
-17.4494128586
 10
11.3600923194
 20
-17.4642258507
  0
LWPOLYLINE
  5
355
100
AcDbEntity
  8
RACCORDO
100
AcDbPolyline
 62
250
  6
CONTINUOUS
 90
3
 70
0
 10
11.1088962558
 20
-17.6600903474
 10
11.1094933365
 20
-17.6900241934
 10
11.1101018387
 20
-17.710427789
  0
LINE
  5
356
100
AcDbEntity
  8
RACCORDO
100
AcDbLine
 62
250
  6
CONTINUOUS
 10
11.3577110282
 20
-17.3576915167
 11
11.3588821945
 21
-17.4266876781
  0
LINE
  5
357
100
AcDbEntity
  8
RACCORDO
100
AcDbLine
 62
250
  6
CONTINUOUS
 10
11.1077265533
 20
-17.5693045512
 11
11.1088962558
 21
-17.6600903474
  0
LINE
  5
358
100
AcDbEntity
  8
RACCORDO
100
AcDbLine
 62
250
  6
CONTINUOUS
 10
11.3566077744
 20
-17.2566650733
 11
11.3577110282
 21
-17.3576915167
  0
LINE
  5
359
100
AcDbEntity
  8
RACCORDO
100
AcDbLine
 62
250
  6
CONTINUOUS
 10
11.1061280299
 20
-17.3498201955
 11
11.1077265533
 21
-17.5693045512
  0
LINE
  5
35A
100
AcDbEntity
  8
RACCORDO
100
AcDbLine
 62
250
  6
CONTINUOUS
 10
11.3552901459
 20
-17.0409195051
 11
11.3566077744
 21
-17.2566650733
  0
LINE
  5
35B
100
AcDbEntity
  8
RACCORDO
100
AcDbLine
 62
250
  6
CONTINUOUS
 10
11.1048195295
 20
-16.9004681358
 11
11.1061280299
 21
-17.3498201955
  0
LINE
  5
35C
100
AcDbEntity
  8
RACCORDO
100
AcDbLine
 62
250
  6
CONTINUOUS
 10
11.1027037146
 20
-9.3155972596
 11
11.1048195295
 21
-16.9004681358
  0
LINE
  5
35D
100
AcDbEntity
  8
RACCORDO
100
AcDbLine
 62
250
  6
CONTINUOUS
 10
11.1018488742
 20
-1.8632756751
 11
11.1027037146
 21
-9.3155972596
  0
LINE
  5
35E
100
AcDbEntity
  8
RACCORDO
100
AcDbLine
 62
250
  6
CONTINUOUS
 10
11.1367206889
 20
-18.8
 11
11.1367206889
 21
-22.266898725
  0
LINE
  5
35F
100
AcDbEntity
  8
RACCORDO
100
AcDbLine
 62
250
  6
CONTINUOUS
 10
11.1367206889
 20
22.266898725
 11
11.1367206889
 21
18.8
  0
LINE
  5
360
100
AcDbEntity
  8
RACCORDO
100
AcDbLine
 62
250
  6
CONTINUOUS
 10
11.1021338232
 20
5.5896448521
 11
11.1018488742
 21
-1.8632756751
  0
LINE
  5
361
100
AcDbEntity
  8
RACCORDO
100
AcDbLine
 62
250
  6
CONTINUOUS
 10
11.1035585972
 20
13.0410285148
 11
11.1021338232
 21
5.5896448521
  0
LINE
  5
362
100
AcDbEntity
  8
RACCORDO
100
AcDbLine
 62
250
  6
CONTINUOUS
 10
11.1060210548
 20
17.3292838827
 11
11.1035585972
 21
13.0410285148
  0
LINE
  5
363
100
AcDbEntity
  8
RACCORDO
100
AcDbLine
 62
250
  6
CONTINUOUS
 10
11.3564994147
 20
17.2434768701
 11
11.3552898118
 21
17.0400429206
  0
LWPOLYLINE
  5
364
100
AcDbEntity
  8
RACCORDO
100
AcDbPolyline
 62
250
  6
CONTINUOUS
 90
5
 70
0
 10
11.1101018387
 20
17.710427789
 10
11.1092264302
 20
17.6777234662
 10
11.1084291328
 20
17.6293621698
 10
11.1077099466
 20
17.5678635508
 10
11.1060210548
 20
17.3292838827
  0
LWPOLYLINE
  5
365
100
AcDbEntity
  8
RACCORDO
100
AcDbPolyline
 62
250
  6
CONTINUOUS
 90
5
 70
0
 10
11.3600923194
 20
17.4642258507
 10
11.359218221
 20
17.4366551411
 10
11.358421951
 20
17.4010922573
 10
11.3577035092
 20
17.3575371992
 10
11.3564994147
 20
17.2434768701
  0
LINE
  5
366
100
AcDbEntity
  8
RACCORDO
100
AcDbLine
 62
250
  6
CONTINUOUS
 10
11.139281257
 20
18.3
 11
11.1101018387
 21
17.710427789
  0
LINE
  5
367
100
AcDbEntity
  8
RACCORDO
100
AcDbLine
 62
250
  6
CONTINUOUS
 10
11.3889119255
 20
18.0465280279
 11
11.3600923194
 21
17.4642258507
  0
LWPOLYLINE
  5
368
100
AcDbEntity
  8
RACCORDO
100
AcDbPolyline
 62
7
  6
CONTINUOUS
 90
10
 70
0
 10
8.5500000002
 20
-22.9276858132
 10
8.5453344285
 20
-22.9728805801
 10
8.5342328203
 20
-23.0144003778
 10
8.5166951758
 20
-23.0522452062
 10
8.4918603547
 20
-23.0873251699
 10
8.4605894972
 20
-23.1187301643
 10
8.4254660239
 20
-23.1437298757
 10
8.3873510751
 20
-23.1614141993
 10
8.3453835106
 20
-23.1726932399
 10
8.2995633304
 20
-23.1775669973
  0
LINE
  5
369
100
AcDbEntity
  8
0
100
AcDbLine
 62
7
  6
CONTINUOUS
 10
2.6929910896
 20
9.51
 11
2.7902121158
 21
9.51
  0
LWPOLYLINE
  5
36A
100
AcDbEntity
  8
RACCORDO
100
AcDbPolyline
 62
250
  6
CONTINUOUS
 90
10
 70
0
 10
11.3600923194
 20
17.4642258507
 10
11.3562411115
 20
17.5069092108
 10
11.3449327769
 20
17.5483071534
 10
11.3265059945
 20
17.5871644398
 10
11.3015150871
 20
17.6223022642
 10
11.2707146762
 20
17.6526523243
 10
11.2350379302
 20
17.6772902184
 10
11.1955661903
 20
17.6954658628
 10
11.1534954247
 20
17.7066255383
 10
11.1101018352
 20
17.7104277092
  0
LINE
  5
36B
100
AcDbEntity
  8
RACCORDO
100
AcDbLine
 62
250
  6
CONTINUOUS
 10
11.3867111697
 20
22.0169368012
 11
11.3867013178
 21
22.0191181888
  0
LINE
  5
36C
100
AcDbEntity
  8
RACCORDO
100
AcDbLine
 62
250
  6
CONTINUOUS
 10
11.3546888165
 20
-16.7552054488
 11
11.3552901459
 21
-17.0409195051
  0
LINE
  5
36D
100
AcDbEntity
  8
RACCORDO
100
AcDbLine
 62
250
  6
CONTINUOUS
 10
11.3526941978
 20
-9.3097588423
 11
11.3546888165
 21
-16.7552054488
  0
LINE
  5
36E
100
AcDbEntity
  8
RACCORDO
100
AcDbLine
 62
250
  6
CONTINUOUS
 10
11.3518393604
 20
-1.8622787264
 11
11.3526941978
 21
-9.3097588423
  0
LINE
  5
36F
100
AcDbEntity
  8
RACCORDO
100
AcDbLine
 62
7
  6
CONTINUOUS
 10
11.3867111697
 20
22.0169368012
 11
11.3867111697
 21
18.8
  0
LINE
  5
370
100
AcDbEntity
  8
RACCORDO
100
AcDbLine
 62
7
  6
CONTINUOUS
 10
11.3867111697
 20
-18.8
 11
11.3867111697
 21
-22.0169368012
  0
LINE
  5
371
100
AcDbEntity
  8
RACCORDO
100
AcDbLine
 62
7
  6
CONTINUOUS
 10
11.3889119255
 20
18.8
 11
11.3889119255
 21
18.0465280279
  0
LINE
  5
372
100
AcDbEntity
  8
RACCORDO
100
AcDbLine
 62
7
  6
CONTINUOUS
 10
11.3889119255
 20
-18.0465280279
 11
11.3889119255
 21
-18.8
  0
LINE
  5
373
100
AcDbEntity
  8
RACCORDO
100
AcDbLine
 62
7
  6
CONTINUOUS
 10
11.4308008909
 20
-22.1051229596
 11
11.4308008909
 21
-19.5191991091
  0
LINE
  5
374
100
AcDbEntity
  8
RACCORDO
100
AcDbLine
 62
7
  6
CONTINUOUS
 10
11.4308008909
 20
19.5191991091
 11
11.4308008909
 21
22.1051229596
  0
LINE
  5
375
100
AcDbEntity
  8
ASSI
100
AcDbLine
 62
7
  6
CONTINUOUS
 10
11.45
 20
-19.4434092398
 11
11.45
 21
19.4434092398
  0
LINE
  5
376
100
AcDbEntity
  8
DRAFT
100
AcDbLine
 62
7
  6
CONTINUOUS
 10
11.45
 20
-19.4728483595
 11
11.45
 21
19.4728483595
  0
LINE
  5
377
100
AcDbEntity
  8
RACCORDO
100
AcDbLine
 62
250
  6
CONTINUOUS
 10
11.3521243049
 20
5.5863649876
 11
11.3518393604
 21
-1.8622787264
  0
LINE
  5
378
100
AcDbEntity
  8
RACCORDO
100
AcDbLine
 62
250
  6
CONTINUOUS
 10
11.3535490334
 20
13.0326926549
 11
11.3521243049
 21
5.5863649876
  0
LINE
  5
379
100
AcDbEntity
  8
RACCORDO
100
AcDbLine
 62
250
  6
CONTINUOUS
 10
11.3552898118
 20
17.0400429206
 11
11.3535490334
 21
13.0326926549
  0
LINE
  5
37A
100
AcDbEntity
  8
RACCORDO
100
AcDbLine
 62
250
  6
CONTINUOUS
 10
11.3867111697
 20
-22.0169368012
 11
11.3867013178
 21
-22.0191181888
  0
LWPOLYLINE
  5
37B
100
AcDbEntity
  8
RACCORDO
100
AcDbPolyline
 62
250
  6
CONTINUOUS
 90
10
 70
0
 10
11.3600923194
 20
-17.4642258507
 10
11.3562359889
 20
-17.5069375933
 10
11.3449153825
 20
-17.5483540576
 10
11.3264738096
 20
-17.5872192459
 10
11.3014705301
 20
-17.6223545307
 10
11.2706637947
 20
-17.6526943978
 10
11.2349878499
 20
-17.6773187589
 10
11.1955246061
 20
-17.6954808545
 10
11.1534708274
 20
-17.7066299
 10
11.1101018387
 20
-17.710427789
  0
LWPOLYLINE
  5
37C
100
AcDbEntity
  8
RACCORDO
100
AcDbPolyline
 62
7
  6
CONTINUOUS
 90
49
 70
0
 10
0.55
 20
11.7419462568
 10
0.6468998956
 20
11.7398505174
 10
0.742686701
 20
11.7336480584
 10
0.8371924223
 20
11.7234700764
 10
0.9300942779
 20
11.7094815457
 10
1.0214137412
 20
11.6918088672
 10
1.1115032464
 20
11.6704707248
 10
1.2002194717
 20
11.6455561482
 10
1.2874287236
 20
11.6171580669
 10
1.3734753332
 20
11.5851873272
 10
1.4581938568
 20
11.5496965078
 10
1.541456622
 20
11.5107300215
 10
1.6236180041
 20
11.4680729009
 10
1.7042528089
 20
11.4218761494
 10
1.7834421131
 20
11.3720214917
 10
1.8621695724
 20
11.3176869732
 10
1.9401932645
 20
11.2587106809
 10
2.0171439394
 20
11.1950249149
 10
2.0935862708
 20
11.1256924345
 10
2.1692645153
 20
11.0502979354
 10
2.2434381035
 20
10.9688801441
 10
2.3157546751
 20
10.881066752
 10
2.3855973596
 20
10.7867415385
 10
2.4523235107
 20
10.6858188945
 10
2.515409478
 20
10.577979624
 10
2.5740549118
 20
10.4632979198
 10
2.6275020447
 20
10.3417758997
 10
2.6751027936
 20
10.2130176593
 10
2.7158947351
 20
10.0772389632
 10
2.7489014528
 20
9.9347187557
 10
2.7732016503
 20
9.7852398715
 10
2.7876514747
 20
9.6293772058
 10
2.7911186924
 20
9.4677353586
 10
2.7824014008
 20
9.3003292604
 10
2.7602141358
 20
9.1281574553
 10
2.723320045
 20
8.9524405301
 10
2.6703064542
 20
8.7738643211
 10
2.6000607123
 20
8.5944297015
 10
2.5114118919
 20
8.4157919982
 10
2.4024877196
 20
8.2387396184
 10
2.2718057239
 20
8.0655225559
 10
2.1189569813
 20
7.8998205553
 10
1.9438215557
 20
7.7451962805
 10
1.7444940893
 20
7.6039125567
 10
1.5235893779
 20
7.4815869784
 10
1.2899187529
 20
7.3847429888
 10
1.0489279852
 20
7.315323722
 10
0.8012594694
 20
7.2732138083
 10
0.55
 20
7.2590855761
  0
LWPOLYLINE
  5
37D
100
AcDbEntity
  8
RACCORDO
100
AcDbPolyline
 62
250
  6
CONTINUOUS
 90
49
 70
0
 10
0.55
 20
12.1533694915
 10
0.6644677255
 20
12.1506331716
 10
0.7772597485
 20
12.143371371
 10
0.8883760688
 20
12.1315840831
 10
0.9977966669
 20
12.1151735009
 10
1.1055415625
 20
12.0942374054
 10
1.2116708143
 20
12.0690691674
 10
1.3161825829
 20
12.039746561
 10
1.4190787077
 20
12.0061917663
 10
1.5204247657
 20
11.968464759
 10
1.6202317424
 20
11.9266486094
 10
1.7184886524
 20
11.8806601825
 10
1.8152281159
 20
11.8303101393
 10
1.9102661028
 20
11.7759000924
 10
2.0037866434
 20
11.7171283431
 10
2.0963744483
 20
11.6529005668
 10
2.1883172425
 20
11.5833334858
 10
2.2793273012
 20
11.5083102408
 10
2.3691261602
 20
11.4263860938
 10
2.4582006699
 20
11.33733369
 10
2.54606398
 20
11.2413801647
 10
2.6309770756
 20
11.1377624692
 10
2.7131221036
 20
11.0263753993
 10
2.792316917
 20
10.907323867
 10
2.8662760603
 20
10.7801599628
 10
2.9351826814
 20
10.6447748065
 10
2.9988536323
 20
10.5012769205
 10
3.0544540129
 20
10.3495444765
 10
3.1022312162
 20
10.1892873661
 10
3.1419378492
 20
10.0207952931
 10
3.1699968334
 20
9.8448161576
 10
3.1866300848
 20
9.6609161754
 10
3.1916156873
 20
9.4695287463
 10
3.1807108138
 20
9.2727026284
 10
3.1540030833
 20
9.0696837948
 10
3.1114048768
 20
8.8612260107
 10
3.0484105107
 20
8.6516399209
 10
2.9650321443
 20
8.440148125
 10
2.8612576184
 20
8.2275280431
 10
2.7325447707
 20
8.020422881
 10
2.5775312454
 20
7.8170671186
 10
2.3975793984
 20
7.6192266415
 10
2.1922341351
 20
7.4388422416
 10
1.9567508172
 20
7.2755040286
 10
1.6958740829
 20
7.129622687
 10
1.423382752
 20
7.0143703146
 10
1.1438697646
 20
6.9341379405
 10
0.8527421806
 20
6.8845352814
 10
0.55
 20
6.8655625128
  0
LWPOLYLINE
  5
37E
100
AcDbEntity
  8
RACCORDO
100
AcDbPolyline
 62
7
  6
CONTINUOUS
 90
9
 70
0
 10
11.3867013178
 20
22.0191181888
 10
11.3828138582
 20
22.0608646785
 10
11.3712607881
 20
22.1034139362
 10
11.3524174608
 20
22.1432625543
 10
11.3267701193
 20
22.1792976061
 10
11.2951828737
 20
22.2102425346
 10
11.2590730284
 20
22.2348958943
 10
11.2198443391
 20
22.2526634074
 10
11.182992661
 20
22.2625724977
  0
LWPOLYLINE
  5
37F
100
AcDbEntity
  8
RACCORDO
100
AcDbPolyline
 62
7
  6
CONTINUOUS
 90
9
 70
0
 10
11.3867013178
 20
-22.0191181888
 10
11.3828138565
 20
-22.0608646879
 10
11.3712607835
 20
-22.1034139486
 10
11.3524174552
 20
-22.1432625639
 10
11.3267701202
 20
-22.179297605
 10
11.295182889
 20
-22.210242522
 10
11.2590730547
 20
-22.2348958796
 10
11.2198443656
 20
-22.252663398
 10
11.1829926629
 20
-22.2625724973
  0
LINE
  5
380
100
AcDbEntity
  8
RACCORDO
100
AcDbLine
 62
7
  6
CONTINUOUS
 10
6.7517149126
 20
-22.4965699136
 11
6.8220613913
 21
-22.3558662404
  0
LINE
  5
381
100
AcDbEntity
  8
RACCORDO
100
AcDbLine
 62
250
  6
CONTINUOUS
 10
-10.0046983357
 20
16.7650671913
 11
11.1046984163
 21
16.7654180419
  0
LINE
  5
382
100
AcDbEntity
  8
RACCORDO
100
AcDbLine
 62
7
  6
CONTINUOUS
 10
6.7517149126
 20
22.4965699136
 11
6.8220613913
 21
22.3558662404
  0
LWPOLYLINE
  5
383
100
AcDbEntity
  8
0
100
AcDbPolyline
 62
7
  6
CONTINUOUS
 90
10
 70
0
 43
0.3500000006
 10
1.192857163
 20
34.3500010986
 10
1.264285655
 20
34.2071432648
 10
1.264285655
 20
34.1357120819
 10
1.1214286001
 20
33.9928587799
 10
1.0499999664
 20
33.9928587799
 10
0.9785714035
 20
34.0642854309
 10
0.9785714035
 20
34.1357120819
 10
1.0499999664
 20
34.2785699158
 10
1.1214286001
 20
34.3500010986
 10
1.192857163
 20
34.3500010986
  0
LINE
  5
384
100
AcDbEntity
  8
DRAFT
100
AcDbLine
 62
7
  6
CONTINUOUS
 10
11.45
 20
-19.4728483595
 11
11.4308008909
 21
-19.5191991091
  0
LINE
  5
385
100
AcDbEntity
  8
RACCORDO
100
AcDbLine
 62
250
  6
CONTINUOUS
 10
-10.0101018387
 20
17.710427789
 11
11.1101018387
 21
17.710427789
  0
LINE
  5
386
100
AcDbEntity
  8
RACCORDO
100
AcDbLine
 62
7
  6
CONTINUOUS
 10
-10.039281257
 20
18.3
 11
11.139281257
 21
18.3
  0
LINE
  5
387
100
AcDbEntity
  8
DRAFT
100
AcDbLine
 62
7
  6
CONTINUOUS
 10
11.45
 20
19.4728483595
 11
11.4308008909
 21
19.5191991091
  0
LWPOLYLINE
  5
388
100
AcDbEntity
  8
RACCORDO
100
AcDbPolyline
 62
250
  6
CONTINUOUS
 90
9
 70
0
 10
11.354688736
 20
-16.7552054488
 10
11.3505257845
 20
-16.7569071323
 10
11.3389835232
 20
-16.7585575287
 10
11.3204084309
 20
-16.7601071012
 10
11.2953581026
 20
-16.7615093504
 10
11.2645845087
 20
-16.762722177
 10
11.2290114199
 20
-16.763709141
 10
11.1897066828
 20
-16.7644406029
 10
11.1478501659
 20
-16.764894617
  0
LINE
  5
389
100
AcDbEntity
  8
RACCORDO
100
AcDbLine
 62
7
  6
CONTINUOUS
 10
11.3867111697
 20
18.8
 11
-10.2867111697
 21
18.8
  0
LWPOLYLINE
  5
38A
100
AcDbEntity
  8
RACCORDO
100
AcDbPolyline
 62
250
  6
CONTINUOUS
 90
10
 70
0
 10
11.3546888165
 20
16.7552054488
 10
11.3505563768
 20
16.7569085872
 10
11.3390361666
 20
16.7585605482
 10
11.3204743557
 20
16.760111692
 10
11.2954287067
 20
16.7615154085
 10
11.2646518145
 20
16.7627295174
 10
11.2290684917
 20
16.7637175361
 10
11.1897479791
 20
16.7644497755
 10
11.1478718158
 20
16.7649042328
 10
11.1046983357
 20
16.7650672519
  0
LINE
  5
38B
100
AcDbEntity
  8
RACCORDO
100
AcDbLine
 62
250
  6
CONTINUOUS
 10
6.8220612444
 20
-22.9279482749
 11
6.75
 21
-23.0000095192
  0
LINE
  5
38C
100
AcDbEntity
  8
RACCORDO
100
AcDbLine
 62
250
  6
CONTINUOUS
 10
7.0720518721
 20
-23.1779386087
 11
6.9999904808
 21
-23.25
  0
LINE
  5
38D
100
AcDbEntity
  8
RACCORDO
100
AcDbLine
 62
7
  6
CONTINUOUS
 10
8.55
 20
-22.4
 11
8.5948770389
 21
-22.3551229611
  0
LWPOLYLINE
  5
38E
100
AcDbEntity
  8
RACCORDO
100
AcDbPolyline
 62
250
  6
CONTINUOUS
 90
6
 70
0
 10
8.2995633304
 20
23.1775669973
 10
8.2972655454
 20
23.1773550747
 10
8.2937249538
 20
23.1771393468
 10
8.2889415557
 20
23.1769198136
 10
8.2829938793
 20
23.1766958725
 10
8.2758033964
 20
23.1764681261
  0
LWPOLYLINE
  5
38F
100
AcDbEntity
  8
RACCORDO
100
AcDbPolyline
 62
250
  6
CONTINUOUS
 90
5
 70
0
 10
8.55
 20
22.927685814
 10
8.5472640732
 20
22.9274725593
 10
8.5429862344
 20
22.9272550592
 10
8.537047865
 20
22.9270333137
 10
8.5293332184
 20
22.9268066845
  0
LINE
  5
390
100
AcDbEntity
  8
RACCORDO
100
AcDbLine
 62
250
  6
CONTINUOUS
 10
11.3867111697
 20
22.0169368012
 11
-10.2867111697
 21
22.0169368012
  0
LINE
  5
391
100
AcDbEntity
  8
RACCORDO
100
AcDbLine
 62
250
  6
CONTINUOUS
 10
11.1367206889
 20
22.266898725
 11
-10.0367206889
 21
22.266898725
  0
LINE
  5
392
100
AcDbEntity
  8
RACCORDO
100
AcDbLine
 62
250
  6
CONTINUOUS
 10
6.8220613913
 20
22.9279481279
 11
6.75
 21
23.0000095192
  0
LINE
  5
393
100
AcDbEntity
  8
RACCORDO
100
AcDbLine
 62
250
  6
CONTINUOUS
 10
7.0720518721
 20
23.1779386087
 11
6.9999904808
 21
23.25
  0
LINE
  5
394
100
AcDbEntity
  8
RACCORDO
100
AcDbLine
 62
7
  6
CONTINUOUS
 10
8.55
 20
22.4
 11
8.5948770389
 21
22.3551229611
  0
LWPOLYLINE
  5
395
100
AcDbEntity
  8
RACCORDO
100
AcDbPolyline
 62
250
  6
CONTINUOUS
 90
3
 70
0
 10
-10.0829926629
 20
22.2625724973
 10
-10.0786408577
 20
22.2633529496
 10
-10.0367206889
 20
22.266898725
  0
LWPOLYLINE
  5
396
100
AcDbEntity
  8
RACCORDO
100
AcDbPolyline
 62
7
  6
CONTINUOUS
 90
6
 70
0
 10
-6.3939609677
 20
23.25
 10
-6.4157501563
 20
23.249052271
 10
-6.4373734382
 20
23.2462082897
 10
-6.4586661703
 20
23.2414897106
 10
-6.4794662261
 20
23.2349324617
 10
-6.4896318286
 20
23.2309794012
  0
LWPOLYLINE
  5
397
100
AcDbEntity
  8
RACCORDO
100
AcDbPolyline
 62
250
  6
CONTINUOUS
 90
6
 70
0
 10
-5.9986517833
 20
23.1764421131
 10
-5.9893342584
 20
23.1767362783
 10
-5.9820081072
 20
23.1770333112
 10
-5.9766979883
 20
23.1773322093
 10
-5.9733792433
 20
23.1776339752
 10
-5.9720518721
 20
23.1779386087
  0
LWPOLYLINE
  5
398
100
AcDbEntity
  8
RACCORDO
100
AcDbPolyline
 62
250
  6
CONTINUOUS
 90
5
 70
0
 10
-5.746558618
 20
22.92674536
 10
-5.7361796821
 20
22.9270423902
 10
-5.7286247376
 20
22.9273414551
 10
-5.7239150871
 20
22.9276435172
 10
-5.7220607555
 20
22.9279485763
  0
LINE
  5
399
100
AcDbEntity
  8
RACCORDO
100
AcDbLine
 62
250
  6
CONTINUOUS
 10
8.2758033964
 20
23.1764681261
 11
8.2570071547
 21
23.17600669
  0
LINE
  5
39A
100
AcDbEntity
  8
RACCORDO
100
AcDbLine
 62
250
  6
CONTINUOUS
 10
-6.0230685069
 20
23.1758713531
 11
-5.9986517833
 21
23.1764421131
  0
LINE
  5
39B
100
AcDbEntity
  8
RACCORDO
100
AcDbLine
 62
250
  6
CONTINUOUS
 10
8.5293332184
 20
22.9268066845
 11
8.5080996729
 21
22.9263426048
  0
LINE
  5
39C
100
AcDbEntity
  8
RACCORDO
100
AcDbLine
 62
250
  6
CONTINUOUS
 10
-5.7756714175
 20
22.9261631784
 11
-5.746558618
 21
22.92674536
  0
LINE
  5
39D
100
AcDbEntity
  8
RACCORDO
100
AcDbLine
 62
250
  6
CONTINUOUS
 10
8.2570071547
 20
23.17600669
 11
8.2320219666
 21
23.1755389733
  0
LINE
  5
39E
100
AcDbEntity
  8
RACCORDO
100
AcDbLine
 62
250
  6
CONTINUOUS
 10
-6.0550218954
 20
23.1753272101
 11
-6.0230685069
 21
23.1758713531
  0
LINE
  5
39F
100
AcDbEntity
  8
RACCORDO
100
AcDbLine
 62
250
  6
CONTINUOUS
 10
8.5080996729
 20
22.9263426048
 11
8.460000067
 21
22.9256309217
  0
LINE
  5
3A0
100
AcDbEntity
  8
RACCORDO
100
AcDbLine
 62
250
  6
CONTINUOUS
 10
8.2320219666
 20
23.1755389733
 11
8.1809463745
 21
23.174836531
  0
LINE
  5
3A1
100
AcDbEntity
  8
RACCORDO
100
AcDbLine
 62
250
  6
CONTINUOUS
 10
-5.8395818302
 20
22.9253369285
 11
-5.7756714175
 21
22.9261631784
  0
LWPOLYLINE
  5
3A2
100
AcDbEntity
  8
RACCORDO
100
AcDbPolyline
 62
7
  6
CONTINUOUS
 90
25
 70
0
 10
4.85
 20
23.9584094599
 10
4.8631726262
 20
23.9585464789
 10
4.8761786476
 20
23.9589423239
 10
4.8890180644
 20
23.9595969948
 10
4.9017442772
 20
23.9605154975
 10
4.9143038853
 20
23.9616928261
 10
4.9265366865
 20
23.9631139635
 10
4.9384384945
 20
23.9647820327
 10
4.9500134956
 20
23.9666939106
 10
4.9611140466
 20
23.9688252106
 10
4.97173407
 20
23.9711787434
 10
4.9818796433
 20
23.9737516983
 10
4.9914213562
 20
23.9765112563
 10
5.0003514735
 20
23.9794598077
 10
5.0086777303
 20
23.9825949623
 10
5.0162939225
 20
23.98587673
 10
5.0231909541
 20
23.9893069889
 10
5.0293779211
 20
23.992883861
 10
5.0347759065
 20
23.9965617219
 10
5.0393748036
 20
24.0003418654
 10
5.043184719
 20
24.0042229977
 10
5.0461570561
 20
24.0081556138
 10
5.0482756158
 20
24.0121232117
 10
5.0495565971
 20
24.0161422934
 10
5.05
 20
24.0202128587
  0
LINE
  5
3A3
100
AcDbEntity
  8
RACCORDO
100
AcDbLine
 62
250
  6
CONTINUOUS
 10
-6.1392847153
 20
23.1743574251
 11
-6.0550218954
 21
23.1753272101
  0
LINE
  5
3A4
100
AcDbEntity
  8
RACCORDO
100
AcDbLine
 62
250
  6
CONTINUOUS
 10
8.460000067
 20
22.9256309217
 11
8.3261880285
 21
22.9244422556
  0
LINE
  5
3A5
100
AcDbEntity
  8
RACCORDO
100
AcDbLine
 62
250
  6
CONTINUOUS
 10
8.1809463745
 20
23.174836531
 11
8.0514296883
 21
23.1737320271
  0
LINE
  5
3A6
100
AcDbEntity
  8
RACCORDO
100
AcDbLine
 62
250
  6
CONTINUOUS
 10
-5.9939688809
 20
22.9241549181
 11
-5.8395818302
 21
22.9253369285
  0
LINE
  5
3A7
100
AcDbEntity
  8
RACCORDO
100
AcDbLine
 62
250
  6
CONTINUOUS
 10
-6.3039801372
 20
23.1732996645
 11
-6.1392847153
 21
23.1743574251
  0
LINE
  5
3A8
100
AcDbEntity
  8
RACCORDO
100
AcDbLine
 62
250
  6
CONTINUOUS
 10
8.3261880285
 20
22.9244422556
 11
8.0609967486
 21
22.9232500738
  0
LINE
  5
3A9
100
AcDbEntity
  8
RACCORDO
100
AcDbLine
 62
250
  6
CONTINUOUS
 10
8.0514296883
 20
23.1737320271
 11
7.8430412778
 21
23.1728965196
  0
LINE
  5
3AA
100
AcDbEntity
  8
RACCORDO
100
AcDbLine
 62
250
  6
CONTINUOUS
 10
-6.4203785266
 20
22.9228417283
 11
-5.9939688809
 21
22.9241549181
  0
LINE
  5
3AB
100
AcDbEntity
  8
RACCORDO
100
AcDbLine
 62
250
  6
CONTINUOUS
 10
-6.5720290259
 20
23.1727481812
 11
-6.3039801372
 21
23.1732996645
  0
LINE
  5
3AC
100
AcDbEntity
  8
RACCORDO
100
AcDbLine
 62
250
  6
CONTINUOUS
 10
8.0609967486
 20
22.9232500738
 11
7.7014718626
 21
22.9227577005
  0
LINE
  5
3AD
100
AcDbEntity
  8
RACCORDO
100
AcDbLine
 62
250
  6
CONTINUOUS
 10
7.8430412778
 20
23.1728965196
 11
7.7014718626
 21
23.1727481812
  0
LINE
  5
3AE
100
AcDbEntity
  8
RACCORDO
100
AcDbLine
 62
7
  6
CONTINUOUS
 10
-6.6014718626
 20
22.3411589092
 11
-6.5720290259
 21
22.3411589092
  0
LINE
  5
3AF
100
AcDbEntity
  8
RACCORDO
100
AcDbLine
 62
7
  6
CONTINUOUS
 10
7.6720290259
 20
22.3411589092
 11
7.7014718626
 21
22.3411589092
  0
LINE
  5
3B0
100
AcDbEntity
  8
DRAFT
100
AcDbLine
 62
7
  6
CONTINUOUS
 10
4.5831620976
 20
22.3551229611
 11
-3.4831620976
 21
22.3551229611
  0
LINE
  5
3B1
100
AcDbEntity
  8
RACCORDO
100
AcDbLine
 62
7
  6
CONTINUOUS
 10
8.55
 20
22.3551229611
 11
11.1808294475
 21
22.3551229611
  0
LINE
  5
3B2
100
AcDbEntity
  8
RACCORDO
100
AcDbLine
 62
7
  6
CONTINUOUS
 10
-7.45
 20
22.3551229611
 11
-10.0808294475
 21
22.3551229611
  0
LINE
  5
3B3
100
AcDbEntity
  8
RACCORDO
100
AcDbLine
 62
250
  6
CONTINUOUS
 10
6.7517149126
 20
22.4965699136
 11
4.6538801877
 21
22.4965699136
  0
LINE
  5
3B4
100
AcDbEntity
  8
RACCORDO
100
AcDbLine
 62
250
  6
CONTINUOUS
 10
-3.5538801877
 20
22.4965699136
 11
-5.6517149126
 21
22.4965699136
  0
LINE
  5
3B5
100
AcDbEntity
  8
RACCORDO
100
AcDbLine
 62
7
  6
CONTINUOUS
 10
4.6550338721
 20
22.5507488485
 11
4.5
 21
22.5507488485
  0
LINE
  5
3B6
100
AcDbEntity
  8
RACCORDO
100
AcDbLine
 62
7
  6
CONTINUOUS
 10
-3.5550338721
 20
22.5507488485
 11
-3.4
 21
22.5507488485
  0
LINE
  5
3B7
100
AcDbEntity
  8
RACCORDO
100
AcDbLine
 62
250
  6
CONTINUOUS
 10
6.75
 20
22.6965394526
 11
6.55
 21
22.6965394526
  0
LINE
  5
3B8
100
AcDbEntity
  8
RACCORDO
100
AcDbLine
 62
250
  6
CONTINUOUS
 10
-5.45
 20
22.6965394526
 11
-5.65
 21
22.6965394526
  0
LINE
  5
3B9
100
AcDbEntity
  8
RACCORDO
100
AcDbLine
 62
7
  6
CONTINUOUS
 10
7.7014718626
 20
23.1727481812
 11
7.6720290259
 21
23.1727481812
  0
LINE
  5
3BA
100
AcDbEntity
  8
RACCORDO
100
AcDbLine
 62
7
  6
CONTINUOUS
 10
-6.6014718626
 20
23.1727481812
 11
-6.5720290259
 21
23.1727481812
  0
LINE
  5
3BB
100
AcDbEntity
  8
RACCORDO
100
AcDbLine
 62
7
  6
CONTINUOUS
 10
8.2995633304
 20
23.1775669973
 11
7.7014718626
 21
23.1775669973
  0
LINE
  5
3BC
100
AcDbEntity
  8
RACCORDO
100
AcDbLine
 62
7
  6
CONTINUOUS
 10
-6.6014718626
 20
23.1775669973
 11
-7.1995633304
 21
23.1775669973
  0
LINE
  5
3BD
100
AcDbEntity
  8
RACCORDO
100
AcDbLine
 62
7
  6
CONTINUOUS
 10
-5.45
 20
23.25
 11
-6.3939609677
 21
23.25
  0
LINE
  5
3BE
100
AcDbEntity
  8
RACCORDO
100
AcDbLine
 62
7
  6
CONTINUOUS
 10
6.55
 20
23.25
 11
7.4939609677
 21
23.25
  0
LINE
  5
3BF
100
AcDbEntity
  8
RACCORDO
100
AcDbLine
 62
7
  6
CONTINUOUS
 10
-3.75
 20
23.5779868533
 11
-3.1543297675
 21
23.5779868533
  0
LINE
  5
3C0
100
AcDbEntity
  8
RACCORDO
100
AcDbLine
 62
7
  6
CONTINUOUS
 10
4.2543297675
 20
23.5779868533
 11
4.85
 21
23.5779868533
  0
LINE
  5
3C1
100
AcDbEntity
  8
RACCORDO
100
AcDbLine
 62
7
  6
CONTINUOUS
 10
-3.75
 20
23.9584094599
 11
-3.1920816149
 21
23.9584094599
  0
LINE
  5
3C2
100
AcDbEntity
  8
RACCORDO
100
AcDbLine
 62
7
  6
CONTINUOUS
 10
4.2920816149
 20
23.9584094599
 11
4.85
 21
23.9584094599
  0
LINE
  5
3C3
100
AcDbEntity
  8
RACCORDO
100
AcDbLine
 62
7
  6
CONTINUOUS
 10
6.55
 20
24.1
 11
4.4832662348
 21
24.1
  0
LINE
  5
3C4
100
AcDbEntity
  8
RACCORDO
100
AcDbLine
 62
7
  6
CONTINUOUS
 10
-3.3832662348
 20
24.1
 11
-5.45
 21
24.1
  0
LINE
  5
3C5
100
AcDbEntity
  8
RACCORDO
100
AcDbLine
 62
250
  6
CONTINUOUS
 10
7.7014718626
 20
22.9227577005
 11
7.3481157455
 21
22.9231528054
  0
LINE
  5
3C6
100
AcDbEntity
  8
RACCORDO
100
AcDbLine
 62
250
  6
CONTINUOUS
 10
-7.0104550438
 20
22.9234036765
 11
-6.4203785266
 21
22.9228417283
  0
LINE
  5
3C7
100
AcDbEntity
  8
RACCORDO
100
AcDbLine
 62
250
  6
CONTINUOUS
 10
7.6720290259
 20
23.1727481812
 11
7.4433836849
 21
23.1731432884
  0
LINE
  5
3C8
100
AcDbEntity
  8
RACCORDO
100
AcDbLine
 62
250
  6
CONTINUOUS
 10
-6.8870087251
 20
23.1733791278
 11
-6.6014718626
 21
23.1727481812
  0
LINE
  5
3C9
100
AcDbEntity
  8
RACCORDO
100
AcDbLine
 62
250
  6
CONTINUOUS
 10
7.3481157455
 20
22.9231528054
 11
7.0814907124
 21
22.9242277981
  0
LINE
  5
3CA
100
AcDbEntity
  8
RACCORDO
100
AcDbLine
 62
250
  6
CONTINUOUS
 10
-7.259604434
 20
22.9246798883
 11
-7.0104550438
 21
22.9234036765
  0
LINE
  5
3CB
100
AcDbEntity
  8
RACCORDO
100
AcDbLine
 62
250
  6
CONTINUOUS
 10
7.4433836849
 20
23.1731432884
 11
7.2552683951
 21
23.1742179667
  0
LINE
  5
3CC
100
AcDbEntity
  8
RACCORDO
100
AcDbLine
 62
250
  6
CONTINUOUS
 10
-7.0408295866
 20
23.1744184071
 11
-6.8870087251
 21
23.1733791278
  0
LINE
  5
3CD
100
AcDbEntity
  8
RACCORDO
100
AcDbLine
 62
250
  6
CONTINUOUS
 10
7.0814907124
 20
22.9242277981
 11
6.9340929484
 21
22.9253952025
  0
LWPOLYLINE
  5
3CE
100
AcDbEntity
  8
RACCORDO
100
AcDbPolyline
 62
7
  6
CONTINUOUS
 90
25
 70
0
 10
-3.4
 20
22.5507488485
 10
-3.3868273738
 20
22.5506118295
 10
-3.3738213524
 20
22.5502159845
 10
-3.3609819356
 20
22.5495613135
 10
-3.3482557228
 20
22.5486428109
 10
-3.3356961147
 20
22.5474654822
 10
-3.3234633135
 20
22.5460443449
 10
-3.3115615055
 20
22.5443762757
 10
-3.2999865044
 20
22.5424643977
 10
-3.2888859534
 20
22.5403330977
 10
-3.27826593
 20
22.5379795649
 10
-3.2681203567
 20
22.5354066101
 10
-3.2585786438
 20
22.5326470521
 10
-3.2496485265
 20
22.5296985006
 10
-3.2413222697
 20
22.5265633461
 10
-3.2337060775
 20
22.5232815784
 10
-3.2268090459
 20
22.5198513194
 10
-3.2206220789
 20
22.5162744474
 10
-3.2152240935
 20
22.5125965865
 10
-3.2106251964
 20
22.508816443
 10
-3.206815281
 20
22.5049353107
 10
-3.2038429439
 20
22.5010026946
 10
-3.2017243842
 20
22.4970350967
 10
-3.2004434029
 20
22.493016015
 10
-3.2
 20
22.4889454496
  0
LWPOLYLINE
  5
3CF
100
AcDbEntity
  8
RACCORDO
100
AcDbPolyline
 62
7
  6
CONTINUOUS
 90
25
 70
0
 10
-3.75
 20
23.5779868533
 10
-3.7631726262
 20
23.5781238724
 10
-3.7761786476
 20
23.5785197174
 10
-3.7890180644
 20
23.5791743883
 10
-3.8017442772
 20
23.580092891
 10
-3.8143038853
 20
23.5812702196
 10
-3.8265366865
 20
23.582691357
 10
-3.8384384945
 20
23.5843594262
 10
-3.8500134956
 20
23.5862713041
 10
-3.8611140466
 20
23.5884026041
 10
-3.87173407
 20
23.5907561369
 10
-3.8818796433
 20
23.5933290918
 10
-3.8914213562
 20
23.5960886498
 10
-3.9003514735
 20
23.5990372012
 10
-3.9086777303
 20
23.6021723558
 10
-3.9162939225
 20
23.6054541235
 10
-3.9231909541
 20
23.6088843824
 10
-3.9293779211
 20
23.6124612545
 10
-3.9347759065
 20
23.6161391154
 10
-3.9393748036
 20
23.6199192589
 10
-3.943184719
 20
23.6238003912
 10
-3.9461570561
 20
23.6277330072
 10
-3.9482756158
 20
23.6317006052
 10
-3.9495565971
 20
23.6357196869
 10
-3.95
 20
23.6397902522
  0
LINE
  5
3D0
100
AcDbEntity
  8
RACCORDO
100
AcDbLine
 62
250
  6
CONTINUOUS
 10
-7.3598034202
 20
22.925628637
 11
-7.259604434
 21
22.9246798883
  0
LINE
  5
3D1
100
AcDbEntity
  8
RACCORDO
100
AcDbLine
 62
250
  6
CONTINUOUS
 10
7.2552683951
 20
23.1742179667
 11
7.1689097961
 21
23.1751316427
  0
LINE
  5
3D2
100
AcDbEntity
  8
RACCORDO
100
AcDbLine
 62
250
  6
CONTINUOUS
 10
-7.1175410499
 20
23.1753130834
 11
-7.0408295866
 21
23.1744184071
  0
LINE
  5
3D3
100
AcDbEntity
  8
RACCORDO
100
AcDbLine
 62
250
  6
CONTINUOUS
 10
-7.3975566536
 20
22.9261584722
 11
-7.3598034202
 21
22.925628637
  0
LINE
  5
3D4
100
AcDbEntity
  8
RACCORDO
100
AcDbLine
 62
250
  6
CONTINUOUS
 10
6.9340929484
 20
22.9253952025
 11
6.8731962256
 21
22.9262045641
  0
LINE
  5
3D5
100
AcDbEntity
  8
RACCORDO
100
AcDbLine
 62
250
  6
CONTINUOUS
 10
7.1689097961
 20
23.1751316427
 11
7.1350905306
 21
23.1756478498
  0
LINE
  5
3D6
100
AcDbEntity
  8
RACCORDO
100
AcDbLine
 62
250
  6
CONTINUOUS
 10
-7.147469431
 20
23.1758133394
 11
-7.1175410499
 21
23.1753130834
  0
LWPOLYLINE
  5
3D7
100
AcDbEntity
  8
RACCORDO
100
AcDbPolyline
 62
250
  6
CONTINUOUS
 90
8
 70
0
 10
7.1350905306
 20
23.1756478498
 10
7.1081428931
 20
23.1761951364
 10
7.0974336579
 20
23.1764770409
 10
7.0885493306
 20
23.1767644827
 10
7.0815617995
 20
23.1770546424
 10
7.0764950275
 20
23.1773465801
 10
7.0733250517
 20
23.1776412355
 10
7.0720518721
 20
23.1779386087
  0
LWPOLYLINE
  5
3D8
100
AcDbEntity
  8
RACCORDO
100
AcDbPolyline
 62
250
  6
CONTINUOUS
 90
6
 70
0
 10
6.8731962256
 20
22.9262045641
 10
6.8454420657
 20
22.9267736788
 10
6.8355448909
 20
22.9270637957
 10
6.8283383632
 20
22.9273557842
 10
6.8238408245
 20
22.9276505616
 10
6.8220613913
 20
22.9279481279
  0
LWPOLYLINE
  5
3D9
100
AcDbEntity
  8
RACCORDO
100
AcDbPolyline
 62
7
  6
CONTINUOUS
 90
6
 70
0
 10
7.4940148177
 20
23.25
 10
7.5158027379
 20
23.2490480997
 10
7.5374248522
 20
23.2462010176
 10
7.5587166167
 20
23.24148042
 10
7.5795160011
 20
23.2349222306
 10
7.5896745483
 20
23.2309719397
  0
LWPOLYLINE
  5
3DA
100
AcDbEntity
  8
RACCORDO
100
AcDbPolyline
 62
250
  6
CONTINUOUS
 90
5
 70
0
 10
-7.4500000002
 20
22.9276858141
 10
-7.4451417862
 20
22.9273546661
 10
-7.4371653388
 20
22.9270361788
 10
-7.426356363
 20
22.9267303524
 10
-7.3975566536
 20
22.9261584722
  0
LWPOLYLINE
  5
3DB
100
AcDbEntity
  8
RACCORDO
100
AcDbPolyline
 62
250
  6
CONTINUOUS
 90
6
 70
0
 10
-7.1995633304
 20
23.1775669973
 10
-7.1951547318
 20
23.1772441306
 10
-7.1890366461
 20
23.1769335001
 10
-7.1812090731
 20
23.1766351057
 10
-7.1715943776
 20
23.1763498831
 10
-7.147469431
 20
23.1758133394
  0
LWPOLYLINE
  5
3DC
100
AcDbEntity
  8
RACCORDO
100
AcDbPolyline
 62
250
  6
CONTINUOUS
 90
10
 70
0
 10
-5.9720518721
 20
23.1779386087
 10
-5.9286435636
 20
23.1741377532
 10
-5.8865540672
 20
23.162857274
 10
-5.847062127
 20
23.1444398895
 10
-5.8113675697
 20
23.1194451486
 10
-5.7805548514
 20
23.0886324303
 10
-5.7555601105
 20
23.052937873
 10
-5.737142726
 20
23.0134459328
 10
-5.7258622468
 20
22.9713564364
 10
-5.7220613913
 20
22.9279481279
  0
LWPOLYLINE
  5
3DD
100
AcDbEntity
  8
RACCORDO
100
AcDbPolyline
 62
7
  6
CONTINUOUS
 90
10
 70
0
 10
8.2995633304
 20
23.1775669973
 10
8.3449302071
 20
23.1728872837
 10
8.3865906283
 20
23.16178535
 10
8.424544594
 20
23.1442611963
 10
8.4596970235
 20
23.1194468167
 10
8.4911429975
 20
23.0882102169
 10
8.516167758
 20
23.053155415
 10
8.5338663855
 20
23.0151504169
 10
8.5451437995
 20
22.9733272166
 10
8.55
 20
22.927685814
  0
LWPOLYLINE
  5
3DE
100
AcDbEntity
  8
RACCORDO
100
AcDbPolyline
 62
250
  6
CONTINUOUS
 90
3
 70
0
 10
11.182992661
 20
22.2625724977
 10
11.1786408399
 20
22.2633529526
 10
11.1367206889
 20
22.266898725
  0
LINE
  5
3DF
100
AcDbEntity
  8
RACCORDO
100
AcDbLine
 62
250
  6
CONTINUOUS
 10
7.4939609677
 20
-23.25
 11
7.6688297051
 21
-23.1775669973
  0
LINE
  5
3E0
100
AcDbEntity
  8
RACCORDO
100
AcDbLine
 62
7
  6
CONTINUOUS
 10
7.5896318286
 20
-23.2309794012
 11
7.6761155811
 21
-23.195156658
  0
LINE
  5
3E1
100
AcDbEntity
  8
0
100
AcDbLine
 62
250
  6
CONTINUOUS
 10
6.55
 20
24.4
 11
-5.45
 21
24.4
  0
LINE
  5
3E2
100
AcDbEntity
  8
0
100
AcDbLine
 62
7
  6
CONTINUOUS
 10
6.55
 20
25.1
 11
-5.45
 21
25.1
  0
LWPOLYLINE
  5
3E3
100
AcDbEntity
  8
0
100
AcDbPolyline
 62
7
  6
CONTINUOUS
 90
7
 70
0
 43
0.3500000006
 10
-2.0214285207
 20
33.850000946
 10
-3.5214285536
 20
33.850000946
 10
-2.0214285207
 20
35.9928593903
 10
-2.0214285207
 20
36.42142836
 10
-2.449999898
 20
36.8500018616
 10
-3.0928570347
 20
36.8500018616
 10
-3.5214285536
 20
36.2071438751
  0
LINE
  5
3E4
100
AcDbEntity
  8
RACCORDO
100
AcDbLine
 62
250
  6
CONTINUOUS
 10
7.6688297051
 20
23.1775669973
 11
7.4939609677
 21
23.25
  0
LINE
  5
3E5
100
AcDbEntity
  8
RACCORDO
100
AcDbLine
 62
7
  6
CONTINUOUS
 10
7.6761155811
 20
23.195156658
 11
7.5896740082
 21
23.2309619298
  0
LWPOLYLINE
  5
3E6
100
AcDbEntity
  8
0
100
AcDbPolyline
 62
7
  6
CONTINUOUS
 90
13
 70
0
 43
0.3500000006
 10
2.6928571959
 20
35.5642858887
 10
2.4071429443
 20
35.7785703735
 10
2.4071429443
 20
36.42142836
 10
2.6928571959
 20
36.8500018616
 10
3.3357143326
 20
36.8500018616
 10
3.6214285841
 20
36.42142836
 10
3.6214285841
 20
35.7785703735
 10
3.3357143326
 20
35.5642858887
 10
3.7642858515
 20
35.1357123871
 10
3.7642858515
 20
34.2785699158
 10
3.3357143326
 20
33.850000946
 10
2.6928571959
 20
33.850000946
 10
2.264285677
 20
34.2785699158
  0
LWPOLYLINE
  5
3E7
100
AcDbEntity
  8
0
100
AcDbPolyline
 62
7
  6
CONTINUOUS
 90
5
 70
0
 43
0.3500000006
 10
-39.3543218079
 20
45.5642844086
 10
-38.9971794891
 20
45.7785734253
 10
-38.9971794891
 20
46.4214268799
 10
-39.3543218079
 20
46.8500003815
 10
-40.2114642792
 20
46.8500003815
  0
LWPOLYLINE
  5
3E8
100
AcDbEntity
  8
0
100
AcDbPolyline
 62
7
  6
CONTINUOUS
 90
7
 70
0
 43
0.3500000006
 10
-64.318609314
 20
3.4285718307
 10
-64.318609314
 20
1.928571373
 10
-66.4614632263
 20
3.4285718307
 10
-66.8900367279
 20
3.4285718307
 10
-67.3186102295
 20
3.0000005951
 10
-67.3186102295
 20
2.3571426086
 10
-66.675752243
 20
1.928571373
  0
LWPOLYLINE
  5
3E9
100
AcDbEntity
  8
0
100
AcDbPolyline
 62
7
  6
CONTINUOUS
 90
8
 70
0
 43
0.3500000006
 10
-64.318609314
 20
-4.28571381
 10
-64.318609314
 20
-3.4285713387
 10
-64.7471782837
 20
-3.000000103
 10
-65.604320755
 20
-3.000000103
 10
-66.0328942566
 20
-3.4285713387
 10
-66.0328942566
 20
-4.28571381
 10
-67.3186102295
 20
-4.28571381
 10
-67.3186102295
 20
-3.000000103
  0
LINE
  5
3EA
100
AcDbEntity
  8
0
100
AcDbLine
 62
7
  6
CONTINUOUS
 10
-44.9686083971
 20
-25.1
 11
-44.4544454131
 21
-25.1
  0
LINE
  5
3EB
100
AcDbEntity
  8
0
100
AcDbLine
 62
7
  6
CONTINUOUS
 10
-44.9686083971
 20
-24.7
 11
-44.4544454131
 21
-24.7
  0
LINE
  5
3EC
100
AcDbEntity
  8
0
100
AcDbLine
 62
250
  6
CONTINUOUS
 10
-45.2686083971
 20
-24.4
 11
-45.6686083971
 21
-24.4
  0
LINE
  5
3ED
100
AcDbEntity
  8
RACCORDO
100
AcDbLine
 62
250
  6
CONTINUOUS
 10
-35.7817733021
 20
-23.1566807871
 11
-35.8120634954
 21
-23.1579596012
  0
LINE
  5
3EE
100
AcDbEntity
  8
RACCORDO
100
AcDbLine
 62
7
  6
CONTINUOUS
 10
-35.8120634954
 20
-23.2311801178
 11
-37.9686083971
 21
-23.25
  0
LINE
  5
3EF
100
AcDbEntity
  8
RACCORDO
100
AcDbLine
 62
250
  6
CONTINUOUS
 10
-35.8120634954
 20
-23.1579596012
 11
-37.9664267632
 21
-23.1767604446
  0
LINE
  5
3F0
100
AcDbEntity
  8
0
100
AcDbLine
 62
7
  6
CONTINUOUS
 10
-45.2686083971
 20
-24.1
 11
-45.6686083971
 21
-24.1
  0
LINE
  5
3F1
100
AcDbEntity
  8
RACCORDO
100
AcDbLine
 62
250
  6
CONTINUOUS
 10
-45.6686083971
 20
-23.9174311485
 11
-45.2686083971
 21
-23.9174311485
  0
LINE
  5
3F2
100
AcDbEntity
  8
RACCORDO
100
AcDbLine
 62
250
  6
CONTINUOUS
 10
-46.2686083933
 20
-22.9276858141
 11
-47.0686083968
 21
-22.9227576904
  0
LINE
  5
3F3
100
AcDbEntity
  8
RACCORDO
100
AcDbLine
 62
7
  6
CONTINUOUS
 10
-37.9686083971
 20
-23.25
 11
-46.8207900309
 21
-23.1727481812
  0
LINE
  5
3F4
100
AcDbEntity
  8
RACCORDO
100
AcDbLine
 62
250
  6
CONTINUOUS
 10
-37.9664267632
 20
-23.1767604446
 11
-46.2686083971
 21
-23.1043084031
  0
LINE
  5
3F5
100
AcDbEntity
  8
RACCORDO
100
AcDbLine
 62
7
  6
CONTINUOUS
 10
-51.3229714987
 20
-22.266898725
 11
-46.2686083971
 21
-22.3551229611
  0
LINE
  5
3F6
100
AcDbEntity
  8
RACCORDO
100
AcDbLine
 62
250
  6
CONTINUOUS
 10
-51.3207900309
 20
-22.0169368012
 11
-46.2686083971
 21
-22.1051229596
  0
LWPOLYLINE
  5
3F7
100
AcDbEntity
  8
0
100
AcDbPolyline
 62
7
  6
CONTINUOUS
 90
3
 70
0
 43
0.3500000006
 10
-30.8686081696
 20
35.9928593903
 10
-30.0114656982
 20
36.8500018616
 10
-30.0114656982
 20
33.850000946
  0
LWPOLYLINE
  5
3F8
100
AcDbEntity
  8
ASSI
100
AcDbPolyline
 62
250
  6
CONTINUOUS
 90
19
 70
0
 10
-35.5562695611
 20
-20.7364803721
 10
-35.5142434123
 20
-20.7339814313
 10
-35.4725428744
 20
-20.7283761003
 10
-35.4314670659
 20
-20.7196855167
 10
-35.391336963
 20
-20.7079399725
 10
-35.3524190078
 20
-20.6932080946
 10
-35.3149315648
 20
-20.6755823846
 10
-35.2791401535
 20
-20.6551183162
 10
-35.2453483375
 20
-20.6319357909
 10
-35.2138268397
 20
-20.6062384658
 10
-35.184824653
 20
-20.5781401658
 10
-35.1585914424
 20
-20.5478098723
 10
-35.1353688102
 20
-20.5155629549
 10
-35.1153484216
 20
-20.4815630477
 10
-35.0987109712
 20
-20.4460265588
 10
-35.085624666
 20
-20.409375789
 10
-35.076200864
 20
-20.3719034156
 10
-35.07051155
 20
-20.3337654622
 10
-35.0686083971
 20
-20.2951934464
  0
LWPOLYLINE
  5
3F9
100
AcDbEntity
  8
RACCORDO
100
AcDbPolyline
 62
250
  6
CONTINUOUS
 90
22
 70
0
 10
-35.5642451293
 20
-21.6153274143
 10
-35.5290320414
 20
-21.6145053133
 10
-35.4948591219
 20
-21.612308676
 10
-35.4618682981
 20
-21.6088740302
 10
-35.4305122768
 20
-21.6044079845
 10
-35.4005370871
 20
-21.5990109253
 10
-35.3710512012
 20
-21.5925269392
 10
-35.3421123145
 20
-21.5849147243
 10
-35.3139326099
 20
-21.5762330157
 10
-35.2859890174
 20
-21.566256635
 10
-35.258383592
 20
-21.5548582475
 10
-35.2315057034
 20
-21.5420427966
 10
-35.2054097268
 20
-21.5276727631
 10
-35.1803665783
 20
-21.5116616049
 10
-35.1568247563
 20
-21.4940199406
 10
-35.135182982
 20
-21.4747594853
 10
-35.1157005927
 20
-21.4537751321
 10
-35.0990029808
 20
-21.4312767977
 10
-35.0858009506
 20
-21.4078803153
 10
-35.0763133635
 20
-21.3839670384
 10
-35.0705482525
 20
-21.3595994589
 10
-35.0686083971
 20
-21.3350080025
  0
LINE
  5
3FA
100
AcDbEntity
  8
ASSI
100
AcDbLine
 62
7
  6
CONTINUOUS
 10
-41.5686083971
 20
-20.9
 11
-35.5598821938
 21
-20.795117294
  0
LINE
  5
3FB
100
AcDbEntity
  8
ASSI
100
AcDbLine
 62
250
  6
CONTINUOUS
 10
-41.5636728627
 20
-20.8413478222
 11
-35.5562695611
 21
-20.7364882075
  0
LWPOLYLINE
  5
3FC
100
AcDbEntity
  8
RACCORDO
100
AcDbPolyline
 62
250
  6
CONTINUOUS
 90
22
 70
0
 10
-35.5642451293
 20
-21.4385574501
 10
-35.5290571681
 20
-21.4381690133
 10
-35.4949018424
 20
-21.4373746908
 10
-35.4619210155
 20
-21.4361744825
 10
-35.4305650428
 20
-21.4345688433
 10
-35.4005828804
 20
-21.4325573183
 10
-35.3710906589
 20
-21.4301385432
 10
-35.3421486498
 20
-21.427344972
 10
-35.313966318
 20
-21.4241441506
 10
-35.2860198898
 20
-21.4204373527
 10
-35.2584112152
 20
-21.4162182253
 10
-35.2315299734
 20
-21.4114931213
 10
-35.2054306659
 20
-21.4061823728
 10
-35.1803843568
 20
-21.4002564128
 10
-35.1568394621
 20
-21.3937448082
 10
-35.1351945475
 20
-21.3866565917
 10
-35.1157089697
 20
-21.3788847188
 10
-35.099008442
 20
-21.3705362339
 10
-35.0858040598
 20
-21.3619413032
 10
-35.0763147718
 20
-21.3532099821
 10
-35.0705486103
 20
-21.3442322152
 10
-35.0686083971
 20
-21.3350080025
  0
LINE
  5
3FD
100
AcDbEntity
  8
RACCORDO
100
AcDbLine
 62
250
  6
CONTINUOUS
 10
-44.0686083971
 20
-21.6460688761
 11
-35.5642451293
 21
-21.6153274143
  0
LINE
  5
3FE
100
AcDbEntity
  8
RACCORDO
100
AcDbLine
 62
250
  6
CONTINUOUS
 10
-44.0686083971
 20
-21.4692989119
 11
-35.5642451293
 21
-21.4385574501
  0
LINE
  5
3FF
100
AcDbEntity
  8
RACCORDO
100
AcDbLine
 62
250
  6
CONTINUOUS
 10
-51.3207900309
 20
-22.0169368012
 11
-51.5686083971
 21
-22.0169368007
  0
LINE
  5
400
100
AcDbEntity
  8
ASSI
100
AcDbLine
 62
250
  6
CONTINUOUS
 10
-34.9686083971
 20
-21.3999999965
 11
-35.0686083971
 21
-21.3999999969
  0
LINE
  5
401
100
AcDbEntity
  8
RACCORDO
100
AcDbLine
 62
7
  6
CONTINUOUS
 10
-44.0686083971
 20
-20.9
 11
-35.0686083971
 21
-20.9785418101
  0
LINE
  5
402
100
AcDbEntity
  8
ASSI
100
AcDbLine
 62
7
  6
CONTINUOUS
 10
-44.0686083971
 20
-20.8563623377
 11
-41.5686083971
 21
-20.9
  0
LINE
  5
403
100
AcDbEntity
  8
ASSI
100
AcDbLine
 62
250
  6
CONTINUOUS
 10
-44.0686083971
 20
-20.7976240098
 11
-41.5636728627
 21
-20.8413478222
  0
LINE
  5
404
100
AcDbEntity
  8
RACCORDO
100
AcDbLine
 62
7
  6
CONTINUOUS
 10
-54.4122385588
 20
-17.710427789
 11
-51.0686083971
 21
-18.3
  0
LINE
  5
405
100
AcDbEntity
  8
DRAFT
100
AcDbLine
 62
7
  6
CONTINUOUS
 10
-44.0686083971
 20
-19.4728483595
 11
-46.2686083971
 21
-19.5191991091
  0
LINE
  5
406
100
AcDbEntity
  8
ASSI
100
AcDbLine
 62
7
  6
CONTINUOUS
 10
-44.0686083971
 20
-19.4434092398
 11
-35.5562695611
 21
-19.2948258128
  0
LINE
  5
407
100
AcDbEntity
  8
ASSI
100
AcDbLine
 62
7
  6
CONTINUOUS
 10
-35.0686083971
 20
-19.522103294
 11
-34.8686083971
 21
-19.522103294
  0
LINE
  5
408
100
AcDbEntity
  8
ASSI
100
AcDbLine
 62
7
  6
CONTINUOUS
 10
-35.0686083971
 20
-19.312017294
 11
-34.8686083971
 21
-19.312017294
  0
LINE
  5
409
100
AcDbEntity
  8
ASSI
100
AcDbLine
 62
7
  6
CONTINUOUS
 10
-35.0686083971
 20
-19.038693445
 11
-34.8686083971
 21
-19.038693445
  0
LINE
  5
40A
100
AcDbEntity
  8
RACCORDO
100
AcDbLine
 62
7
  6
CONTINUOUS
 10
-51.0686083971
 20
-18.8
 11
-51.5686083971
 21
-18.8
  0
LINE
  5
40B
100
AcDbEntity
  8
ASSI
100
AcDbLine
 62
250
  6
CONTINUOUS
 10
-35.0686083971
 20
-18.429537294
 11
-34.8686083971
 21
-18.429537294
  0
LINE
  5
40C
100
AcDbEntity
  8
RACCORDO
100
AcDbLine
 62
250
  6
CONTINUOUS
 10
-54.3710081483
 20
-17.4642258507
 11
-51.0686083971
 21
-18.0465280279
  0
LWPOLYLINE
  5
40D
100
AcDbEntity
  8
RACCORDO
100
AcDbPolyline
 62
250
  6
CONTINUOUS
 90
13
 70
0
 10
-54.9901882568
 20
-16.7552054488
 10
-54.9763397235
 20
-16.858217744
 10
-54.9533712169
 20
-16.9534557628
 10
-54.921282737
 20
-17.0409195051
 10
-54.8786044024
 20
-17.1208457059
 10
-54.8268060945
 20
-17.1929976303
 10
-54.7702974573
 20
-17.2566650733
 10
-54.709442441
 20
-17.3114205357
 10
-54.6438770954
 20
-17.3576915167
 10
-54.576919214
 20
-17.3960503094
 10
-54.509674728
 20
-17.4266876781
 10
-54.441037706
 20
-17.4494128586
 10
-54.3710081483
 20
-17.4642258507
  0
LINE
  5
40E
100
AcDbEntity
  8
RACCORDO
100
AcDbLine
 62
7
  6
CONTINUOUS
 10
-55.2378235725
 20
-16.7647739534
 11
-55.2378120399
 21
-16.7650671757
  0
LINE
  5
40F
100
AcDbEntity
  8
RACCORDO
100
AcDbLine
 62
7
  6
CONTINUOUS
 10
-55.3948028379
 20
-12.1533747138
 11
-55.395773012
 21
-12.1194143934
  0
LINE
  5
410
100
AcDbEntity
  8
RACCORDO
100
AcDbLine
 62
7
  6
CONTINUOUS
 10
-55.5605671331
 20
2.6143851469
 11
-55.5603903064
 21
2.642973619
  0
LINE
  5
411
100
AcDbEntity
  8
RACCORDO
100
AcDbLine
 62
7
  6
CONTINUOUS
 10
-55.3957732512
 20
12.1194060084
 11
-55.3948029225
 21
12.1533717566
  0
LWPOLYLINE
  5
412
100
AcDbEntity
  8
RACCORDO
100
AcDbPolyline
 62
250
  6
CONTINUOUS
 90
10
 70
0
 10
-54.9901882568
 20
16.7552054488
 10
-55.1207944632
 20
13.0326926549
 10
-55.2187491027
 20
9.3097458345
 10
-55.2840521753
 20
5.5863649876
 10
-55.3167036606
 20
1.8622601438
 10
-55.316703579
 20
-1.8622787264
 10
-55.2840519917
 20
-5.5863817119
 10
-55.2187489191
 20
-9.3097588423
 10
-55.1207943408
 20
-13.0327000879
 10
-54.9901882568
 20
-16.7552054488
  0
LINE
  5
413
100
AcDbEntity
  8
RACCORDO
100
AcDbLine
 62
7
  6
CONTINUOUS
 10
-55.2378120392
 20
16.7650671913
 11
-55.2377981882
 21
16.7654180419
  0
LINE
  5
414
100
AcDbEntity
  8
RACCORDO
100
AcDbLine
 62
250
  6
CONTINUOUS
 10
-54.990188256
 20
-16.7552054488
 11
-55.2338071676
 21
-16.764894617
  0
LINE
  5
415
100
AcDbEntity
  8
ASSI
100
AcDbLine
 62
7
  6
CONTINUOUS
 10
-35.0686083971
 20
-17.841867294
 11
-34.8686083971
 21
-17.841867294
  0
LINE
  5
416
100
AcDbEntity
  8
ASSI
100
AcDbLine
 62
7
  6
CONTINUOUS
 10
-35.0686083971
 20
-17.524847294
 11
-34.8686083971
 21
-17.524847294
  0
LINE
  5
417
100
AcDbEntity
  8
ASSI
100
AcDbLine
 62
7
  6
CONTINUOUS
 10
-35.0686083971
 20
-17.304800294
 11
-34.8686083971
 21
-17.304800294
  0
LINE
  5
418
100
AcDbEntity
  8
ASSI
100
AcDbLine
 62
7
  6
CONTINUOUS
 10
-35.0686083971
 20
-16.563600294
 11
-34.8686083971
 21
-16.563600294
  0
LINE
  5
419
100
AcDbEntity
  8
ASSI
100
AcDbLine
 62
7
  6
CONTINUOUS
 10
-35.0686083971
 20
-16.373777294
 11
-34.8686083971
 21
-16.373777294
  0
LINE
  5
41A
100
AcDbEntity
  8
ASSI
100
AcDbLine
 62
7
  6
CONTINUOUS
 10
-35.0686083971
 20
-16.117323294
 11
-34.8686083971
 21
-16.117323294
  0
LINE
  5
41B
100
AcDbEntity
  8
RACCORDO
100
AcDbLine
 62
250
  6
CONTINUOUS
 10
-55.2338071676
 20
-16.764894617
 11
-55.2375546449
 21
-16.7650575549
  0
LINE
  5
41C
100
AcDbEntity
  8
ASSI
100
AcDbLine
 62
250
  6
CONTINUOUS
 10
-31.1384180228
 20
-15.0243788399
 11
-34.8686083971
 21
-15.0976273563
  0
LINE
  5
41D
100
AcDbEntity
  8
ASSI
100
AcDbLine
 62
7
  6
CONTINUOUS
 10
-24.0598821938
 20
-15.400746385
 11
-34.8686083971
 21
-15.5894134027
  0
LINE
  5
41E
100
AcDbEntity
  8
ASSI
100
AcDbLine
 62
250
  6
CONTINUOUS
 10
-24.0598821938
 20
-14.9008225374
 11
-31.1384180228
 21
-15.0243788399
  0
LINE
  5
41F
100
AcDbEntity
  8
ASSI
100
AcDbLine
 62
7
  6
CONTINUOUS
 10
-35.0686083971
 20
-15.046967294
 11
-34.8686083971
 21
-15.046967294
  0
LINE
  5
420
100
AcDbEntity
  8
ASSI
100
AcDbLine
 62
250
  6
CONTINUOUS
 10
-23.5686083971
 20
-14.9008225374
 11
-24.0598821938
 21
-14.9008225374
  0
LINE
  5
421
100
AcDbEntity
  8
ASSI
100
AcDbLine
 62
7
  6
CONTINUOUS
 10
-35.0686083971
 20
-14.7819893618
 11
-34.8686083971
 21
-14.7819893618
  0
LINE
  5
422
100
AcDbEntity
  8
ASSI
100
AcDbLine
 62
250
  6
CONTINUOUS
 10
-35.0686083971
 20
-14.352249294
 11
-34.8686083971
 21
-14.352249294
  0
LINE
  5
423
100
AcDbEntity
  8
RACCORDO
100
AcDbLine
 62
250
  6
CONTINUOUS
 10
-51.3207900309
 20
22.0169368012
 11
-51.3226957785
 21
22.1432625543
  0
LWPOLYLINE
  5
424
100
AcDbEntity
  8
RACCORDO
100
AcDbPolyline
 62
250
  6
CONTINUOUS
 90
6
 70
0
 10
-51.3226957785
 20
22.1432625543
 10
-51.3233654397
 20
22.2102425346
 10
-51.3234806399
 20
22.2348958943
 10
-51.3234484294
 20
22.2526634074
 10
-51.3232754386
 20
22.2633529526
 10
-51.3229714988
 20
22.266898725
  0
LWPOLYLINE
  5
425
100
AcDbEntity
  8
RACCORDO
100
AcDbPolyline
 62
250
  6
CONTINUOUS
 90
4
 70
0
 10
-51.3234806399
 20
-22.2348958796
 10
-51.3234484295
 20
-22.252663398
 10
-51.3232754387
 20
-22.2633529496
 10
-51.3229714987
 20
-22.266898725
  0
LINE
  5
426
100
AcDbEntity
  8
RACCORDO
100
AcDbLine
 62
7
  6
CONTINUOUS
 10
-51.5686083971
 20
22.0169368012
 11
-51.5686083971
 21
18.8
  0
LINE
  5
427
100
AcDbEntity
  8
RACCORDO
100
AcDbLine
 62
7
  6
CONTINUOUS
 10
-51.5686083971
 20
-18.8
 11
-51.5686083971
 21
-22.0169368012
  0
LINE
  5
428
100
AcDbEntity
  8
RACCORDO
100
AcDbLine
 62
250
  6
CONTINUOUS
 10
-51.3207900309
 20
22.0169368012
 11
-51.3207900309
 21
18.8
  0
LINE
  5
429
100
AcDbEntity
  8
RACCORDO
100
AcDbLine
 62
250
  6
CONTINUOUS
 10
-51.3207900309
 20
-18.8
 11
-51.3207900309
 21
-22.0169368012
  0
LINE
  5
42A
100
AcDbEntity
  8
RACCORDO
100
AcDbLine
 62
7
  6
CONTINUOUS
 10
-51.0686083971
 20
18.8
 11
-51.0686083971
 21
18.0465280279
  0
LINE
  5
42B
100
AcDbEntity
  8
RACCORDO
100
AcDbLine
 62
7
  6
CONTINUOUS
 10
-51.0686083971
 20
-18.0465280279
 11
-51.0686083971
 21
-18.8
  0
LINE
  5
42C
100
AcDbEntity
  8
RACCORDO
100
AcDbLine
 62
250
  6
CONTINUOUS
 10
-51.3231009517
 20
-22.179297605
 11
-51.3234806399
 21
-22.2348958796
  0
LWPOLYLINE
  5
42D
100
AcDbEntity
  8
RACCORDO
100
AcDbPolyline
 62
250
  6
CONTINUOUS
 90
3
 70
0
 10
-51.3207900309
 20
-22.0169368012
 10
-51.3215227837
 20
-22.0608646879
 10
-51.3231009517
 20
-22.179297605
  0
LWPOLYLINE
  5
42E
100
AcDbEntity
  8
RACCORDO
100
AcDbPolyline
 62
250
  6
CONTINUOUS
 90
4
 70
0
 10
-54.4074904081
 20
-17.6773187589
 10
-54.4103484849
 20
-17.6954808545
 10
-54.4119473644
 20
-17.7066299
 10
-54.4122385588
 20
-17.710427789
  0
LINE
  5
42F
100
AcDbEntity
  8
RACCORDO
100
AcDbLine
 62
250
  6
CONTINUOUS
 10
-54.3983789169
 20
-17.6223545307
 11
-54.4074904081
 21
-17.6773187589
  0
LWPOLYLINE
  5
430
100
AcDbEntity
  8
RACCORDO
100
AcDbPolyline
 62
250
  6
CONTINUOUS
 90
3
 70
0
 10
-54.3710081483
 20
-17.4642258507
 10
-54.3785057273
 20
-17.5069375933
 10
-54.3983789169
 20
-17.6223545307
  0
LINE
  5
431
100
AcDbEntity
  8
0
100
AcDbLine
 62
250
  6
CONTINUOUS
 10
-44.3617403148
 20
24.6853169549
 11
-44.238133517
 21
25.0657395614
  0
LWPOLYLINE
  5
432
100
AcDbEntity
  8
0
100
AcDbPolyline
 62
7
  6
CONTINUOUS
 90
10
 70
0
 43
0.3500000006
 10
-64.8186094666
 20
0.8571421509
 10
-64.6757516327
 20
0.9285710678
 10
-64.6043204498
 20
0.9285710678
 10
-64.4614671478
 20
0.7857132339
 10
-64.4614671478
 20
0.7142865829
 10
-64.5328937988
 20
0.642857666
 10
-64.6043204498
 20
0.642857666
 10
-64.7471782837
 20
0.7142865829
 10
-64.8186094666
 20
0.7857132339
 10
-64.8186094666
 20
0.8571421509
  0
LINE
  5
433
100
AcDbEntity
  8
ASSI
100
AcDbLine
 62
7
  6
CONTINUOUS
 10
-35.0686083971
 20
-13.895897294
 11
-34.8686083971
 21
-13.895897294
  0
LINE
  5
434
100
AcDbEntity
  8
ASSI
100
AcDbLine
 62
7
  6
CONTINUOUS
 10
-35.0686083971
 20
-13.700007294
 11
-34.8686083971
 21
-13.700007294
  0
LINE
  5
435
100
AcDbEntity
  8
ASSI
100
AcDbLine
 62
7
  6
CONTINUOUS
 10
-35.0686083971
 20
-12.789249294
 11
-34.8686083971
 21
-12.789249294
  0
LINE
  5
436
100
AcDbEntity
  8
ASSI
100
AcDbLine
 62
7
  6
CONTINUOUS
 10
-35.0686083971
 20
-12.579277294
 11
-34.8686083971
 21
-12.579277294
  0
LINE
  5
437
100
AcDbEntity
  8
ASSI
100
AcDbLine
 62
7
  6
CONTINUOUS
 10
-35.0686083971
 20
-12.375258294
 11
-34.8686083971
 21
-12.375258294
  0
LINE
  5
438
100
AcDbEntity
  8
0
100
AcDbLine
 62
250
  6
CONTINUOUS
 10
-44.3617403148
 20
-24.6853169549
 11
-44.238133517
 21
-25.0657395614
  0
LINE
  5
439
100
AcDbEntity
  8
RACCORDO
100
AcDbLine
 62
250
  6
CONTINUOUS
 10
-54.3710081483
 20
17.4642258507
 11
-54.3923922663
 21
17.5871644398
  0
LWPOLYLINE
  5
43A
100
AcDbEntity
  8
RACCORDO
100
AcDbPolyline
 62
250
  6
CONTINUOUS
 90
6
 70
0
 10
-54.3923922663
 20
17.5871644398
 10
-54.4034528121
 20
17.6526523243
 10
-54.4074859022
 20
17.6772902184
 10
-54.4103464065
 20
17.6954658628
 10
-54.4119471378
 20
17.7066255383
 10
-54.4122390115
 20
17.7104277092
  0
LWPOLYLINE
  5
43B
100
AcDbEntity
  8
ASSI
100
AcDbPolyline
 62
250
  6
CONTINUOUS
 90
13
 70
0
 10
-23.1755893596
 20
-9.6718816091
 10
-23.2271566182
 20
-9.6735773324
 10
-23.2777442375
 20
-9.6779163662
 10
-23.3265057507
 20
-9.6848261131
 10
-23.3726252494
 20
-9.694190961
 10
-23.4153310201
 20
-9.7058542146
 10
-23.4539084612
 20
-9.7196207144
 10
-23.4877120657
 20
-9.7352601087
 10
-23.5161762043
 20
-9.7525107093
 10
-23.5388245841
 20
-9.7710838631
 10
-23.5552782381
 20
-9.7906687874
 10
-23.5652618588
 20
-9.8109377716
 10
-23.5686083971
 20
-9.831551658
  0
LINE
  5
43C
100
AcDbEntity
  8
ASSI
100
AcDbLine
 62
7
  6
CONTINUOUS
 10
-20.9616274345
 20
-11.396666147
 11
-23.1755893596
 21
-11.4353109962
  0
LINE
  5
43D
100
AcDbEntity
  8
ASSI
100
AcDbLine
 62
7
  6
CONTINUOUS
 10
-35.0686083971
 20
-11.884559294
 11
-34.8686083971
 21
-11.884559294
  0
LINE
  5
43E
100
AcDbEntity
  8
ASSI
100
AcDbLine
 62
7
  6
CONTINUOUS
 10
-34.8686083971
 20
-11.8636785374
 11
-34.6433531641
 21
-11.8636785374
  0
LINE
  5
43F
100
AcDbEntity
  8
ASSI
100
AcDbLine
 62
7
  6
CONTINUOUS
 10
-35.0686083971
 20
-11.688669294
 11
-34.8686083971
 21
-11.688669294
  0
LINE
  5
440
100
AcDbEntity
  8
ASSI
100
AcDbLine
 62
7
  6
CONTINUOUS
 10
-34.8686083971
 20
-11.5985875374
 11
-34.6433531641
 21
-11.5985875374
  0
LINE
  5
441
100
AcDbEntity
  8
ASSI
100
AcDbLine
 62
7
  6
CONTINUOUS
 10
-35.0686083971
 20
-11.197970294
 11
-34.8686083971
 21
-11.197970294
  0
LINE
  5
442
100
AcDbEntity
  8
ASSI
100
AcDbLine
 62
7
  6
CONTINUOUS
 10
-34.8686083971
 20
-11.1878165374
 11
-34.791611694
 21
-11.1878165374
  0
LINE
  5
443
100
AcDbEntity
  8
ASSI
100
AcDbLine
 62
7
  6
CONTINUOUS
 10
-35.0686083971
 20
-11.143473294
 11
-34.8686083971
 21
-11.143473294
  0
LINE
  5
444
100
AcDbEntity
  8
ASSI
100
AcDbLine
 62
7
  6
CONTINUOUS
 10
-35.0686083971
 20
-10.929494294
 11
-34.8686083971
 21
-10.929494294
  0
LINE
  5
445
100
AcDbEntity
  8
ASSI
100
AcDbLine
 62
7
  6
CONTINUOUS
 10
-34.8686083971
 20
-10.9227265374
 11
-34.791611694
 21
-10.9227265374
  0
LINE
  5
446
100
AcDbEntity
  8
ASSI
100
AcDbLine
 62
7
  6
CONTINUOUS
 10
-35.0686083971
 20
-10.786039294
 11
-34.8686083971
 21
-10.786039294
  0
LINE
  5
447
100
AcDbEntity
  8
ASSI
100
AcDbLine
 62
7
  6
CONTINUOUS
 10
-34.863639106
 20
-10.5119555374
 11
-34.8614552217
 21
-10.5119555374
  0
LINE
  5
448
100
AcDbEntity
  8
ASSI
100
AcDbLine
 62
7
  6
CONTINUOUS
 10
-34.863639106
 20
-10.2506215374
 11
-34.8614552217
 21
-10.2506215374
  0
LINE
  5
449
100
AcDbEntity
  8
ASSI
100
AcDbLine
 62
7
  6
CONTINUOUS
 10
-35.0686083971
 20
-10.204437294
 11
-34.8686083971
 21
-10.204437294
  0
LINE
  5
44A
100
AcDbEntity
  8
ASSI
100
AcDbLine
 62
7
  6
CONTINUOUS
 10
-35.0686083971
 20
-10.052968294
 11
-34.8686083971
 21
-10.052968294
  0
LINE
  5
44B
100
AcDbEntity
  8
RACCORDO
100
AcDbLine
 62
7
  6
CONTINUOUS
 10
-47.0686083971
 20
22.9227577005
 11
-47.0686083971
 21
22.3411589092
  0
LINE
  5
44C
100
AcDbEntity
  8
RACCORDO
100
AcDbLine
 62
7
  6
CONTINUOUS
 10
-47.0686083971
 20
-22.9227577005
 11
-47.0686083971
 21
-22.3411589092
  0
LINE
  5
44D
100
AcDbEntity
  8
RACCORDO
100
AcDbLine
 62
7
  6
CONTINUOUS
 10
-46.2686083971
 20
-19.5191991091
 11
-46.2686083971
 21
-23.1775669973
  0
LINE
  5
44E
100
AcDbEntity
  8
RACCORDO
100
AcDbLine
 62
7
  6
CONTINUOUS
 10
-46.2686083971
 20
19.5191991091
 11
-46.2686083971
 21
23.1775669973
  0
LINE
  5
44F
100
AcDbEntity
  8
ASSI
100
AcDbLine
 62
7
  6
CONTINUOUS
 10
-35.1087784318
 20
15.5498954057
 11
-35.1725173444
 21
15.4853908203
  0
LINE
  5
450
100
AcDbEntity
  8
ASSI
100
AcDbLine
 62
7
  6
CONTINUOUS
 10
-35.511097884
 20
15.1500876624
 11
-35.5598821938
 21
15.1015557841
  0
LINE
  5
451
100
AcDbEntity
  8
ASSI
100
AcDbLine
 62
7
  6
CONTINUOUS
 10
-35.1725173444
 20
15.4853908203
 11
-35.3756373096
 21
15.2831100103
  0
LINE
  5
452
100
AcDbEntity
  8
ASSI
100
AcDbLine
 62
7
  6
CONTINUOUS
 10
-35.3756373096
 20
15.2831100103
 11
-35.511097884
 21
15.1500876624
  0
LINE
  5
453
100
AcDbEntity
  8
ASSI
100
AcDbLine
 62
250
  6
CONTINUOUS
 10
-24.0598821938
 20
-8.1506702326
 11
-31.1384180228
 21
-8.2742265351
  0
LINE
  5
454
100
AcDbEntity
  8
ASSI
100
AcDbLine
 62
7
  6
CONTINUOUS
 10
-24.0598821938
 20
-7.650746385
 11
-34.5773346003
 21
-7.8343291996
  0
LINE
  5
455
100
AcDbEntity
  8
ASSI
100
AcDbLine
 62
250
  6
CONTINUOUS
 10
-31.1384180228
 20
-8.2742265351
 11
-35.0686083971
 21
-8.3342530472
  0
LINE
  5
456
100
AcDbEntity
  8
ASSI
100
AcDbLine
 62
7
  6
CONTINUOUS
 10
-35.0686083971
 20
-9.851010294
 11
-34.8686083971
 21
-9.851010294
  0
LINE
  5
457
100
AcDbEntity
  8
ASSI
100
AcDbLine
 62
7
  6
CONTINUOUS
 10
-35.0686083971
 20
-9.7314327096
 11
-34.8686083971
 21
-9.7314327096
  0
LINE
  5
458
100
AcDbEntity
  8
ASSI
100
AcDbLine
 62
250
  6
CONTINUOUS
 10
-35.0686083971
 20
-9.301693294
 11
-34.8686083971
 21
-9.301693294
  0
LINE
  5
459
100
AcDbEntity
  8
ASSI
100
AcDbLine
 62
7
  6
CONTINUOUS
 10
-35.0686083971
 20
-8.845341294
 11
-34.8686083971
 21
-8.845341294
  0
LINE
  5
45A
100
AcDbEntity
  8
ASSI
100
AcDbLine
 62
7
  6
CONTINUOUS
 10
-35.0686083971
 20
-8.649450294
 11
-34.8686083971
 21
-8.649450294
  0
LINE
  5
45B
100
AcDbEntity
  8
ASSI
100
AcDbLine
 62
250
  6
CONTINUOUS
 10
-35.0686083971
 20
-8.3342530472
 11
-35.5598821938
 21
-8.3342530472
  0
LINE
  5
45C
100
AcDbEntity
  8
ASSI
100
AcDbLine
 62
250
  6
CONTINUOUS
 10
-23.5898701039
 20
-8.1506702325
 11
-24.0598821938
 21
-8.1506702326
  0
LINE
  5
45D
100
AcDbEntity
  8
RACCORDO
100
AcDbLine
 62
7
  6
CONTINUOUS
 10
-45.6686083971
 20
-24.1
 11
-45.6686083971
 21
-23.182803118
  0
LINE
  5
45E
100
AcDbEntity
  8
0
100
AcDbLine
 62
7
  6
CONTINUOUS
 10
-45.6686083971
 20
-24.1
 11
-45.6686083971
 21
-24.4
  0
LINE
  5
45F
100
AcDbEntity
  8
RACCORDO
100
AcDbLine
 62
7
  6
CONTINUOUS
 10
-45.6686083971
 20
23.182803118
 11
-45.6686083971
 21
24.1
  0
LINE
  5
460
100
AcDbEntity
  8
0
100
AcDbLine
 62
7
  6
CONTINUOUS
 10
-45.6686083971
 20
24.1
 11
-45.6686083971
 21
24.4
  0
LINE
  5
461
100
AcDbEntity
  8
RACCORDO
100
AcDbLine
 62
7
  6
CONTINUOUS
 10
-45.2686083971
 20
-23.1862938651
 11
-45.2686083971
 21
-24.1
  0
LINE
  5
462
100
AcDbEntity
  8
0
100
AcDbLine
 62
7
  6
CONTINUOUS
 10
-45.2686083971
 20
-24.1
 11
-45.2686083971
 21
-24.4
  0
LINE
  5
463
100
AcDbEntity
  8
RACCORDO
100
AcDbLine
 62
7
  6
CONTINUOUS
 10
-45.2686083971
 20
23.1862938651
 11
-45.2686083971
 21
24.1
  0
LINE
  5
464
100
AcDbEntity
  8
0
100
AcDbLine
 62
7
  6
CONTINUOUS
 10
-45.2686083971
 20
24.1
 11
-45.2686083971
 21
24.4
  0
LINE
  5
465
100
AcDbEntity
  8
0
100
AcDbLine
 62
250
  6
CONTINUOUS
 10
-44.9686083971
 20
-24.7
 11
-44.9686083971
 21
-25.1
  0
LINE
  5
466
100
AcDbEntity
  8
0
100
AcDbLine
 62
250
  6
CONTINUOUS
 10
-44.9686083971
 20
24.7
 11
-44.9686083971
 21
25.1
  0
LINE
  5
467
100
AcDbEntity
  8
0
100
AcDbLine
 62
250
  6
CONTINUOUS
 10
-44.4544454131
 20
-24.7
 11
-44.4544454131
 21
-25.1
  0
LINE
  5
468
100
AcDbEntity
  8
0
100
AcDbLine
 62
250
  6
CONTINUOUS
 10
-44.4544454131
 20
24.7
 11
-44.4544454131
 21
25.1
  0
LINE
  5
469
100
AcDbEntity
  8
RACCORDO
100
AcDbLine
 62
7
  6
CONTINUOUS
 10
-44.0686083971
 20
-21.6460688761
 11
-44.0686083971
 21
-19.4728483595
  0
LINE
  5
46A
100
AcDbEntity
  8
DRAFT
100
AcDbLine
 62
7
  6
CONTINUOUS
 10
-44.0686083971
 20
-19.4728483595
 11
-44.0686083971
 21
19.4728483595
  0
LINE
  5
46B
100
AcDbEntity
  8
ASSI
100
AcDbLine
 62
7
  6
CONTINUOUS
 10
-44.0686083971
 20
-19.4728483595
 11
-44.0686083971
 21
19.4728483595
  0
LINE
  5
46C
100
AcDbEntity
  8
RACCORDO
100
AcDbLine
 62
7
  6
CONTINUOUS
 10
-44.0686083971
 20
19.4728483595
 11
-44.0686083971
 21
21.6460688761
  0
LWPOLYLINE
  5
46D
100
AcDbEntity
  8
ASSI
100
AcDbPolyline
 62
7
  6
CONTINUOUS
 90
6
 70
0
 10
-35.0686083971
 20
15.5928308867
 10
-35.0701374375
 20
15.5907967815
 10
-35.0748091879
 20
15.5854950629
 10
-35.0827360273
 20
15.5769257308
 10
-35.0940429056
 20
15.565044375
 10
-35.1087784318
 20
15.5498954057
  0
LWPOLYLINE
  5
46E
100
AcDbEntity
  8
ASSI
100
AcDbPolyline
 62
250
  6
CONTINUOUS
 90
22
 70
0
 10
-34.5773346003
 20
-7.334405352
 10
-34.6435917244
 20
-7.3370494592
 10
-34.7108612882
 20
-7.345110361
 10
-34.7791432919
 20
-7.3585880575
 10
-34.8492480896
 20
-7.3773670324
 10
-34.9203653271
 20
-7.401562802
 10
-34.9900639419
 20
-7.4315219152
 10
-35.0582728772
 20
-7.4676175851
 10
-35.1250631898
 20
-7.5094765987
 10
-35.1882169876
 20
-7.5563258653
 10
-35.2475014321
 20
-7.6084572993
 10
-35.3031493618
 20
-7.6655789864
 10
-35.3536414001
 20
-7.7260420932
 10
-35.3986692928
 20
-7.7900448601
 10
-35.4385412941
 20
-7.8573890467
 10
-35.4726627903
 20
-7.9258310984
 10
-35.5006711228
 20
-7.9953934755
 10
-35.5229289502
 20
-8.0660537177
 10
-35.5399296347
 20
-8.1355008895
 10
-35.5518376306
 20
-8.2029646791
 10
-35.5584884836
 20
-8.2692153984
 10
-35.5598821938
 20
-8.3342530472
  0
LINE
  5
46F
100
AcDbEntity
  8
ASSI
100
AcDbLine
 62
250
  6
CONTINUOUS
 10
-24.0598821938
 20
-7.1508225374
 11
-34.5773346003
 21
-7.334405352
  0
LINE
  5
470
100
AcDbEntity
  8
ASSI
100
AcDbLine
 62
250
  6
CONTINUOUS
 10
-23.5686083971
 20
-7.1508225374
 11
-24.0598821938
 21
-7.1508225374
  0
LWPOLYLINE
  5
471
100
AcDbEntity
  8
ASSI
100
AcDbPolyline
 62
250
  6
CONTINUOUS
 90
13
 70
0
 10
-23.1755912254
 20
-7.7190061044
 10
-23.2271570577
 20
-7.7178767282
 10
-23.2777433363
 20
-7.7149858183
 10
-23.3265036586
 20
-7.7103817534
 10
-23.372622154
 20
-7.7041415787
 10
-23.4153271793
 20
-7.6963697117
 10
-23.4539042183
 20
-7.687196191
 10
-23.4877077779
 20
-7.6767745118
 10
-23.5161722141
 20
-7.665279058
 10
-23.5388212263
 20
-7.6529021744
 10
-23.5552758016
 20
-7.6398509593
 10
-23.5652605651
 20
-7.6263438002
 10
-23.5686083969
 20
-7.6126067144
  0
LWPOLYLINE
  5
472
100
AcDbEntity
  8
ASSI
100
AcDbPolyline
 62
250
  6
CONTINUOUS
 90
10
 70
0
 10
-23.2138607521
 20
-8.1925487211
 10
-23.2696677754
 20
-8.1902781524
 10
-23.3242398994
 20
-8.1872293172
 10
-23.3765055921
 20
-8.1834616726
 10
-23.425438609
 20
-8.179048812
 10
-23.4700781427
 20
-8.174077017
 10
-23.509547688
 20
-8.1686435628
 10
-23.5430722531
 20
-8.1628548136
 10
-23.5699935763
 20
-8.156824134
 10
-23.5897830502
 20
-8.1506696575
  0
LWPOLYLINE
  5
473
100
AcDbEntity
  8
0
100
AcDbPolyline
 62
7
  6
CONTINUOUS
 90
3
 70
0
 43
0.3500000006
 10
-64.6043204498
 20
0.9285710678
 10
-64.390035965
 20
0.8571421509
 10
-64.1043202972
 20
0.7142865829
  0
LWPOLYLINE
  5
474
100
AcDbEntity
  8
0
100
AcDbPolyline
 62
7
  6
CONTINUOUS
 90
3
 70
0
 43
0.3500000006
 10
-31.8686084747
 20
34.1357120819
 10
-31.9400373917
 20
33.921427597
 10
-32.0828952255
 20
33.6357164612
  0
LWPOLYLINE
  5
475
100
AcDbEntity
  8
ASSI
100
AcDbPolyline
 62
250
  6
CONTINUOUS
 90
11
 70
0
 10
-23.1757081029
 20
-3.7352340368
 10
-23.2272637995
 20
-3.7394933379
 10
-23.277838512
 20
-3.7503702331
 10
-23.3265862585
 20
-3.7676827797
 10
-23.3726916177
 20
-3.791141383
 10
-23.4153833681
 20
-3.8203536411
 10
-23.4539473892
 20
-3.8548309088
 10
-23.4877386064
 20
-3.8939964707
 10
-23.5161917815
 20
-3.9371951889
 10
-23.5388309677
 20
-3.9837044614
 10
-23.5454901944
 20
-4.0011336034
  0
LINE
  5
476
100
AcDbEntity
  8
ASSI
100
AcDbLine
 62
7
  6
CONTINUOUS
 10
-20.9616274345
 20
-3.696666147
 11
-23.1755893596
 21
-3.7353109962
  0
LINE
  5
477
100
AcDbEntity
  8
ASSI
100
AcDbLine
 62
7
  6
CONTINUOUS
 10
-20.9616274345
 20
-5.603333853
 11
-23.1755893596
 21
-5.5646890038
  0
LWPOLYLINE
  5
478
100
AcDbEntity
  8
ASSI
100
AcDbPolyline
 62
7
  6
CONTINUOUS
 90
10
 70
0
 10
-41.5636728627
 20
20.8413478222
 10
-41.5641273171
 20
20.8531575863
 10
-41.5646094306
 20
20.8637946539
 10
-41.5651187322
 20
20.8731793243
 10
-41.565657296
 20
20.8812416195
 10
-41.5662212694
 20
20.887921684
 10
-41.5668008818
 20
20.8931701907
 10
-41.5673917597
 20
20.8969488412
 10
-41.5679949381
 20
20.8992306507
 10
-41.5686083971
 20
20.9
  0
LWPOLYLINE
  5
479
100
AcDbEntity
  8
ASSI
100
AcDbPolyline
 62
7
  6
CONTINUOUS
 90
10
 70
0
 10
-41.5636728627
 20
-20.8413478222
 10
-41.5641273171
 20
-20.8531575863
 10
-41.5646094306
 20
-20.8637946539
 10
-41.5651187322
 20
-20.8731793243
 10
-41.565657296
 20
-20.8812416195
 10
-41.5662212694
 20
-20.887921684
 10
-41.5668008818
 20
-20.8931701907
 10
-41.5673917597
 20
-20.8969488412
 10
-41.5679949381
 20
-20.8992306507
 10
-41.5686083971
 20
-20.9
  0
LINE
  5
47A
100
AcDbEntity
  8
ASSI
100
AcDbLine
 62
250
  6
CONTINUOUS
 10
-23.1757080053
 20
11.4352395382
 11
-23.1755893596
 21
11.4353109962
  0
LWPOLYLINE
  5
47B
100
AcDbEntity
  8
ASSI
100
AcDbPolyline
 62
250
  6
CONTINUOUS
 90
4
 70
0
 10
-23.192413567
 20
11.4253359591
 10
-23.1832761637
 20
11.4305282085
 10
-23.1777086742
 20
11.4338120817
 10
-23.1757080053
 20
11.4352395382
  0
LINE
  5
47C
100
AcDbEntity
  8
ASSI
100
AcDbLine
 62
250
  6
CONTINUOUS
 10
-23.2412758789
 20
11.3979122866
 11
-23.192413567
 21
11.4253359591
  0
LINE
  5
47D
100
AcDbEntity
  8
ASSI
100
AcDbLine
 62
250
  6
CONTINUOUS
 10
-23.9947917809
 20
10.9859277975
 11
-23.2412758789
 21
11.3979122866
  0
LINE
  5
47E
100
AcDbEntity
  8
ASSI
100
AcDbLine
 62
250
  6
CONTINUOUS
 10
-24.0598810422
 20
10.9508225173
 11
-23.9947917809
 21
10.9859277975
  0
LINE
  5
47F
100
AcDbEntity
  8
ASSI
100
AcDbLine
 62
250
  6
CONTINUOUS
 10
-20.9616274345
 20
-3.1967422994
 11
-24.0598821938
 21
-3.2508225374
  0
LINE
  5
480
100
AcDbEntity
  8
ASSI
100
AcDbLine
 62
250
  6
CONTINUOUS
 10
-20.5686083971
 20
-3.1967422994
 11
-20.9616274345
 21
-3.1967423092
  0
LWPOLYLINE
  5
481
100
AcDbEntity
  8
0
100
AcDbPolyline
 62
7
  6
CONTINUOUS
 90
13
 70
0
 43
0.3500000006
 10
-65.1757517853
 20
-2.1428576317
 10
-66.4614632263
 20
-2.1428576317
 10
-66.8900367279
 20
-1.9285708809
 10
-67.3186102295
 20
-1.4999996452
 10
-67.3186102295
 20
-1.2857140274
 10
-66.8900367279
 20
-0.8571427917
 10
-66.4614632263
 20
-0.642856041
 10
-65.1757517853
 20
-0.642856041
 10
-64.7471782837
 20
-0.8571427917
 10
-64.318609314
 20
-1.2857140274
 10
-64.318609314
 20
-1.4999996452
 10
-64.7471782837
 20
-1.9285708809
 10
-65.1757517853
 20
-2.1428576317
  0
LINE
  5
482
100
AcDbEntity
  8
RACCORDO
100
AcDbLine
 62
7
  6
CONTINUOUS
 10
-37.9684488144
 20
23.24148042
 11
-37.968430872
 21
23.2265763571
  0
LINE
  5
483
100
AcDbEntity
  8
RACCORDO
100
AcDbLine
 62
7
  6
CONTINUOUS
 10
-37.968430872
 20
23.2265763571
 11
-37.9686083971
 21
23.1767794834
  0
LWPOLYLINE
  5
484
100
AcDbEntity
  8
ASSI
100
AcDbPolyline
 62
7
  6
CONTINUOUS
 90
28
 70
0
 10
-34.6819785008
 20
-9.8051234594
 10
-34.6069433321
 20
-9.9854827074
 10
-34.5679880036
 20
-10.0837252128
 10
-34.5285963163
 20
-10.1867789044
 10
-34.4886964211
 20
-10.2946535063
 10
-34.4494236345
 20
-10.4091653082
 10
-34.410457931
 20
-10.5303500215
 10
-34.3721193363
 20
-10.6578779635
 10
-34.3365032436
 20
-10.7933734618
 10
-34.3032107664
 20
-10.9380590631
 10
-34.2726407912
 20
-11.0903543251
 10
-34.2480853711
 20
-11.2475584125
 10
-34.2301736947
 20
-11.4090051541
 10
-34.2182765733
 20
-11.5741259552
 10
-34.2137984938
 20
-11.7400877704
 10
-34.2176457966
 20
-11.9061184589
 10
-34.2289121413
 20
-12.0714644188
 10
-34.2462829935
 20
-12.2333152994
 10
-34.2704142535
 20
-12.3911305283
 10
-34.300650021
 20
-12.5441906851
 10
-34.3337080606
 20
-12.6896916003
 10
-34.3692074483
 20
-12.8260249584
 10
-34.4075291081
 20
-12.9544165382
 10
-34.4465335755
 20
-13.0764427745
 10
-34.4858921044
 20
-13.1917437142
 10
-34.525933441
 20
-13.3003770317
 10
-34.5655043592
 20
-13.4041915877
 10
-34.6046794992
 20
-13.5031985075
  0
LWPOLYLINE
  5
485
100
AcDbEntity
  8
ASSI
100
AcDbPolyline
 62
7
  6
CONTINUOUS
 90
5
 70
0
 10
-34.8051125881
 20
-9.5140569601
 10
-34.7792373475
 20
-9.5767993086
 10
-34.7497571327
 20
-9.6464757426
 10
-34.7167973529
 20
-9.7227820876
 10
-34.6819785008
 20
-9.8051234594
  0
LINE
  5
486
100
AcDbEntity
  8
ASSI
100
AcDbLine
 62
7
  6
CONTINUOUS
 10
-34.8275082637
 20
-9.4586611017
 11
-34.8051125881
 21
-9.5140569601
  0
LINE
  5
487
100
AcDbEntity
  8
ASSI
100
AcDbLine
 62
7
  6
CONTINUOUS
 10
-34.8451801089
 20
-9.4111668538
 11
-34.8275082637
 21
-9.4586611017
  0
LWPOLYLINE
  5
488
100
AcDbEntity
  8
ASSI
100
AcDbPolyline
 62
7
  6
CONTINUOUS
 90
6
 70
0
 10
-34.7246039952
 20
-10.0272674541
 10
-34.7513277049
 20
-9.953004041
 10
-34.7767388873
 20
-9.883949507
 10
-34.7994981528
 20
-9.8207357062
 10
-34.8194951976
 20
-9.7636203872
 10
-34.8368403255
 20
-9.7129647975
  0
LINE
  5
489
100
AcDbEntity
  8
ASSI
100
AcDbLine
 62
7
  6
CONTINUOUS
 10
-34.8686083971
 20
-10.2187973599
 11
-34.8481758357
 21
-10.2831557398
  0
LWPOLYLINE
  5
48A
100
AcDbEntity
  8
ASSI
100
AcDbPolyline
 62
7
  6
CONTINUOUS
 90
4
 70
0
 10
-34.8368403255
 20
-9.7129647975
 10
-34.8505250573
 20
-9.6693219692
 10
-34.8602132333
 20
-9.6328810912
 10
-34.8662410132
 20
-9.6036230896
  0
LINE
  5
48B
100
AcDbEntity
  8
ASSI
100
AcDbLine
 62
7
  6
CONTINUOUS
 10
-34.8481758357
 20
-10.2831557398
 11
-34.8192235071
 21
-10.3780814919
  0
LINE
  5
48C
100
AcDbEntity
  8
ASSI
100
AcDbLine
 62
7
  6
CONTINUOUS
 10
-34.8192235071
 20
-10.3780814919
 11
-34.7902438629
 21
-10.478106731
  0
LWPOLYLINE
  5
48D
100
AcDbEntity
  8
RACCORDO
100
AcDbPolyline
 62
7
  6
CONTINUOUS
 90
4
 70
0
 10
-37.9686083971
 20
23.25
 10
-37.9685379216
 20
23.2490480997
 10
-37.9684845921
 20
23.2462010176
 10
-37.9684488144
 20
23.24148042
  0
LWPOLYLINE
  5
48E
100
AcDbEntity
  8
RACCORDO
100
AcDbPolyline
 62
250
  6
CONTINUOUS
 90
3
 70
0
 10
-35.811886089
 20
23.216102334
 10
-35.8119930761
 20
23.1726928824
 10
-35.8120634954
 20
23.1579596012
  0
LINE
  5
48F
100
AcDbEntity
  8
ASSI
100
AcDbLine
 62
250
  6
CONTINUOUS
 10
-20.5686083971
 20
1.5967422994
 11
-20.9616274345
 21
1.5967422994
  0
LINE
  5
490
100
AcDbEntity
  8
ASSI
100
AcDbLine
 62
7
  6
CONTINUOUS
 10
-23.4998448453
 20
2.312477385
 11
-23.3686083971
 21
2.312477385
  0
LINE
  5
491
100
AcDbEntity
  8
ASSI
100
AcDbLine
 62
250
  6
CONTINUOUS
 10
-24.0598821938
 20
1.6508225374
 11
-20.9616274345
 21
1.5967422994
  0
LWPOLYLINE
  5
492
100
AcDbEntity
  8
ASSI
100
AcDbPolyline
 62
7
  6
CONTINUOUS
 90
10
 70
0
 10
-34.7902438629
 20
-10.478106731
 10
-34.761750545
 20
-10.5838063
 10
-34.7338747924
 20
-10.6951654357
 10
-34.7070253715
 20
-10.8121989012
 10
-34.682213815
 20
-10.935525829
 10
-34.6595481803
 20
-11.0662991847
 10
-34.6394486431
 20
-11.2033660026
 10
-34.6235099746
 20
-11.3438865181
 10
-34.6122784558
 20
-11.4882356714
 10
-34.6056165278
 20
-11.6360385223
  0
LWPOLYLINE
  5
493
100
AcDbEntity
  8
ASSI
100
AcDbPolyline
 62
7
  6
CONTINUOUS
 90
3
 70
0
 10
-34.865522798
 20
-9.3406440823
 10
-34.8577133686
 20
-9.3718098972
 10
-34.8451801089
 20
-9.4111668538
  0
LWPOLYLINE
  5
494
100
AcDbEntity
  8
RACCORDO
100
AcDbPolyline
 62
250
  6
CONTINUOUS
 90
5
 70
0
 10
-35.8120634954
 20
23.2311801178
 10
-35.811993076
 20
23.2302282162
 10
-35.8119397869
 20
23.2273811304
 10
-35.8119040338
 20
23.2226605279
 10
-35.811886089
 20
23.216102334
  0
LWPOLYLINE
  5
495
100
AcDbEntity
  8
ASSI
100
AcDbPolyline
 62
250
  6
CONTINUOUS
 90
19
 70
0
 10
-35.0686083971
 20
20.2951934464
 10
-35.0705115507
 20
20.3337654453
 10
-35.0762008661
 20
20.3719033884
 10
-35.0856246695
 20
20.4093757581
 10
-35.0987109749
 20
20.4460265344
 10
-35.1153484236
 20
20.4815630367
 10
-35.1353688103
 20
20.5155629542
 10
-35.1585914418
 20
20.5478098746
 10
-35.1848246526
 20
20.5781401678
 10
-35.2138268395
 20
20.606238467
 10
-35.2453483372
 20
20.6319357921
 10
-35.2791401533
 20
20.655118317
 10
-35.3149315648
 20
20.6755823849
 10
-35.3524190078
 20
20.6932080943
 10
-35.3913369631
 20
20.7079399714
 10
-35.431467066
 20
20.7196855152
 10
-35.4725428745
 20
20.7283760989
 10
-35.5142434124
 20
20.7339814303
 10
-35.5562695611
 20
20.7364803721
  0
LWPOLYLINE
  5
496
100
AcDbEntity
  8
ASSI
100
AcDbPolyline
 62
250
  6
CONTINUOUS
 90
10
 70
0
 10
-35.5562695611
 20
20.7364882075
 10
-35.5565235801
 20
20.748277884
 10
-35.5568178018
 20
20.7589023592
 10
-35.5571517987
 20
20.7682808449
 10
-35.5575267258
 20
20.7763420549
 10
-35.5579397341
 20
20.7830246868
 10
-35.5583839783
 20
20.7882778668
 10
-35.5588560828
 20
20.7920616258
 10
-35.5593561523
 20
20.7943472237
 10
-35.5598821938
 20
20.795117294
  0
LINE
  5
497
100
AcDbEntity
  8
ASSI
100
AcDbLine
 62
250
  6
CONTINUOUS
 10
-34.5750663041
 20
-7.488861738
 11
-34.5773346005
 21
-7.3344053521
  0
LINE
  5
498
100
AcDbEntity
  8
ASSI
100
AcDbLine
 62
7
  6
CONTINUOUS
 10
-34.6056165278
 20
-11.6360385223
 11
-34.6040891722
 21
-11.783330486
  0
LINE
  5
499
100
AcDbEntity
  8
ASSI
100
AcDbLine
 62
250
  6
CONTINUOUS
 10
-34.5741422378
 20
-7.5843237903
 11
-34.5750663041
 21
-7.488861738
  0
LINE
  5
49A
100
AcDbEntity
  8
RACCORDO
100
AcDbLine
 62
250
  6
CONTINUOUS
 10
-35.5642451293
 20
21.2242069346
 11
-35.5634466986
 21
21.0992170631
  0
LINE
  5
49B
100
AcDbEntity
  8
ASSI
100
AcDbLine
 62
250
  6
CONTINUOUS
 10
-34.5737388703
 20
-7.6688673284
 11
-34.5741422378
 21
-7.5843237903
  0
LINE
  5
49C
100
AcDbEntity
  8
RACCORDO
100
AcDbLine
 62
250
  6
CONTINUOUS
 10
-35.5640676424
 20
21.5442073547
 11
-35.5642451293
 21
21.6153274143
  0
LINE
  5
49D
100
AcDbEntity
  8
RACCORDO
100
AcDbLine
 62
250
  6
CONTINUOUS
 10
-35.5642451293
 20
23.0897244254
 11
-35.5642451293
 21
21.6153274143
  0
LINE
  5
49E
100
AcDbEntity
  8
RACCORDO
100
AcDbLine
 62
250
  6
CONTINUOUS
 10
-35.5642451293
 20
-21.6153274143
 11
-35.5642451293
 21
-23.0897244254
  0
LINE
  5
49F
100
AcDbEntity
  8
RACCORDO
100
AcDbLine
 62
250
  6
CONTINUOUS
 10
-35.5642451293
 20
-20.9742164539
 11
-35.5640676378
 21
-21.5442069159
  0
LWPOLYLINE
  5
4A0
100
AcDbEntity
  8
RACCORDO
100
AcDbPolyline
 62
250
  6
CONTINUOUS
 90
6
 70
0
 10
-35.5634466986
 20
21.0992170631
 10
-35.5633533234
 20
21.0327098057
 10
-35.5634466996
 20
21.0077150961
 10
-35.5636306146
 20
20.9892977473
 10
-35.5638994807
 20
20.9780172973
 10
-35.5642451293
 20
20.9742164539
  0
LINE
  5
4A1
100
AcDbEntity
  8
ASSI
100
AcDbLine
 62
250
  6
CONTINUOUS
 10
-35.5598821938
 20
19.2948888715
 11
-35.5598821938
 21
15.1015557841
  0
LINE
  5
4A2
100
AcDbEntity
  8
ASSI
100
AcDbLine
 62
250
  6
CONTINUOUS
 10
-35.5598821938
 20
-8.3342530472
 11
-35.5598821938
 21
-19.2948888715
  0
LINE
  5
4A3
100
AcDbEntity
  8
ASSI
100
AcDbLine
 62
250
  6
CONTINUOUS
 10
-35.5562695611
 20
-20.7364882075
 11
-35.5562695611
 21
-19.2948258128
  0
LINE
  5
4A4
100
AcDbEntity
  8
ASSI
100
AcDbLine
 62
250
  6
CONTINUOUS
 10
-35.5562695611
 20
19.2948258128
 11
-35.5562695611
 21
20.7364882075
  0
LINE
  5
4A5
100
AcDbEntity
  8
RACCORDO
100
AcDbLine
 62
250
  6
CONTINUOUS
 10
-35.3164267632
 20
20.976379132
 11
-35.3164267632
 21
20.7269044473
  0
LINE
  5
4A6
100
AcDbEntity
  8
RACCORDO
100
AcDbLine
 62
250
  6
CONTINUOUS
 10
-35.3164267632
 20
-20.7269044473
 11
-35.3164267632
 21
-20.976379132
  0
LINE
  5
4A7
100
AcDbEntity
  8
RACCORDO
100
AcDbLine
 62
7
  6
CONTINUOUS
 10
-35.0686083971
 20
22.4812086755
 11
-35.0686083971
 21
20.2951934464
  0
LINE
  5
4A8
100
AcDbEntity
  8
RACCORDO
100
AcDbLine
 62
7
  6
CONTINUOUS
 10
-35.0686083971
 20
-20.2951934464
 11
-35.0686083971
 21
-22.4812086755
  0
LINE
  5
4A9
100
AcDbEntity
  8
ASSI
100
AcDbLine
 62
7
  6
CONTINUOUS
 10
-35.0686083971
 20
-20.2951934464
 11
-35.0686083971
 21
-8.3342530472
  0
LINE
  5
4AA
100
AcDbEntity
  8
ASSI
100
AcDbLine
 62
7
  6
CONTINUOUS
 10
-35.0686083971
 20
15.5928308867
 11
-35.0686083971
 21
20.2951934464
  0
LINE
  5
4AB
100
AcDbEntity
  8
ASSI
100
AcDbLine
 62
7
  6
CONTINUOUS
 10
-34.8686083971
 20
-13.700007294
 11
-34.8686083971
 21
-14.7819892817
  0
LINE
  5
4AC
100
AcDbEntity
  8
ASSI
100
AcDbLine
 62
7
  6
CONTINUOUS
 10
-34.8686083971
 20
-15.046967294
 11
-34.8686083971
 21
-16.117323294
  0
LINE
  5
4AD
100
AcDbEntity
  8
ASSI
100
AcDbLine
 62
7
  6
CONTINUOUS
 10
-34.8686083971
 20
-16.373777294
 11
-34.8686083971
 21
-17.524847294
  0
LINE
  5
4AE
100
AcDbEntity
  8
ASSI
100
AcDbLine
 62
7
  6
CONTINUOUS
 10
-34.8686083971
 20
-17.841867294
 11
-34.8686083971
 21
-19.038693445
  0
LINE
  5
4AF
100
AcDbEntity
  8
ASSI
100
AcDbLine
 62
7
  6
CONTINUOUS
 10
-34.8686083971
 20
-19.312017294
 11
-34.8686083971
 21
-19.522103294
  0
LINE
  5
4B0
100
AcDbEntity
  8
ASSI
100
AcDbLine
 62
7
  6
CONTINUOUS
 10
-34.8686083971
 20
-13.6626216695
 11
-34.8686083971
 21
-11.197970294
  0
LINE
  5
4B1
100
AcDbEntity
  8
ASSI
100
AcDbLine
 62
7
  6
CONTINUOUS
 10
-34.8686083971
 20
-11.1878165374
 11
-34.8686083971
 21
-9.851010294
  0
LINE
  5
4B2
100
AcDbEntity
  8
ASSI
100
AcDbLine
 62
7
  6
CONTINUOUS
 10
-34.8686083971
 20
-9.8316474054
 11
-34.8686083971
 21
-8.649450294
  0
LINE
  5
4B3
100
AcDbEntity
  8
ASSI
100
AcDbLine
 62
7
  6
CONTINUOUS
 10
-34.8614552217
 20
-10.2506215374
 11
-34.8614552217
 21
-10.5119555374
  0
LINE
  5
4B4
100
AcDbEntity
  8
ASSI
100
AcDbLine
 62
7
  6
CONTINUOUS
 10
-34.791611694
 20
-10.9227265374
 11
-34.791611694
 21
-11.1878165374
  0
LINE
  5
4B5
100
AcDbEntity
  8
ASSI
100
AcDbLine
 62
7
  6
CONTINUOUS
 10
-34.6433531641
 20
-11.5985875374
 11
-34.6433531641
 21
-11.8636785374
  0
LINE
  5
4B6
100
AcDbEntity
  8
RACCORDO
100
AcDbLine
 62
250
  6
CONTINUOUS
 10
-35.5642451293
 20
21.2242069346
 11
-35.5640676424
 21
21.5442073547
  0
LINE
  5
4B7
100
AcDbEntity
  8
RACCORDO
100
AcDbLine
 62
250
  6
CONTINUOUS
 10
-35.5640676378
 20
-21.5442069159
 11
-35.5642451289
 21
-21.6153274143
  0
LWPOLYLINE
  5
4B8
100
AcDbEntity
  8
ASSI
100
AcDbPolyline
 62
250
  6
CONTINUOUS
 90
10
 70
0
 10
-35.5562695611
 20
-20.7364882075
 10
-35.5565211477
 20
-20.7482756992
 10
-35.5568141329
 20
-20.7588993112
 10
-35.5571480988
 20
-20.7682779762
 10
-35.5575250265
 20
-20.7763404573
 10
-35.5579412624
 20
-20.7830245943
 10
-35.558387509
 20
-20.7882784345
 10
-35.5588595622
 20
-20.7920620965
 10
-35.5593583396
 20
-20.7943474108
 10
-35.5598818429
 20
-20.7951172879
  0
LWPOLYLINE
  5
4B9
100
AcDbEntity
  8
ASSI
100
AcDbPolyline
 62
7
  6
CONTINUOUS
 90
13
 70
0
 10
-34.6040891722
 20
-11.783330486
 10
-34.6081276448
 20
-11.9300518595
 10
-34.6172601498
 20
-12.0762623458
 10
-34.6306053478
 20
-12.2181764687
 10
-34.6481947074
 20
-12.3552404037
 10
-34.6695574538
 20
-12.4880079753
 10
-34.6930867205
 20
-12.6143551812
 10
-34.7183456057
 20
-12.7333004221
 10
-34.7452737305
 20
-12.8458252974
 10
-34.7729567139
 20
-12.9527506023
 10
-34.8010115194
 20
-13.0541238394
 10
-34.8293289537
 20
-13.1498975063
 10
-34.8574785462
 20
-13.2407498911
  0
LWPOLYLINE
  5
4BA
100
AcDbEntity
  8
RACCORDO
100
AcDbPolyline
 62
250
  6
CONTINUOUS
 90
21
 70
0
 10
-35.0686083971
 20
-22.4812086755
 10
-35.0703589743
 20
-22.5255792049
 10
-35.0752736439
 20
-22.5676227453
 10
-35.0828538289
 20
-22.6072017999
 10
-35.0924441217
 20
-22.6436575573
 10
-35.1036867187
 20
-22.6775336395
 10
-35.1168855671
 20
-22.7104786391
 10
-35.1320742016
 20
-22.7426972994
 10
-35.1490312563
 20
-22.7738204162
 10
-35.1681340811
 20
-22.8045054877
 10
-35.1895304308
 20
-22.8348157402
 10
-35.2130911892
 20
-22.8644050202
 10
-35.2389223249
 20
-22.8932315252
 10
-35.2670248116
 20
-22.9211479183
 10
-35.2973307994
 20
-22.9479591846
 10
-35.3298462673
 20
-22.9735149779
 10
-35.3645038187
 20
-22.9976310505
 10
-35.4011593883
 20
-23.0201038141
 10
-35.4396691273
 20
-23.0407382882
 10
-35.4798466198
 20
-23.0593418201
 10
-35.5214603493
 20
-23.075729264
  0
LWPOLYLINE
  5
4BB
100
AcDbEntity
  8
RACCORDO
100
AcDbPolyline
 62
250
  6
CONTINUOUS
 90
7
 70
0
 10
-35.8120634954
 20
-23.2311801178
 10
-35.8119930449
 20
-23.2302282175
 10
-35.8119397323
 20
-23.2273811352
 10
-35.8119039634
 20
-23.2226605374
 10
-35.8118860102
 20
-23.2161023479
 10
-35.8118860095
 20
-23.2077564746
 10
-35.8120634954
 20
-23.1579596012
  0
LWPOLYLINE
  5
4BC
100
AcDbEntity
  8
ASSI
100
AcDbPolyline
 62
250
  6
CONTINUOUS
 90
11
 70
0
 10
-23.1757081029
 20
5.5647659632
 10
-23.2272637995
 20
5.5605066621
 10
-23.277838512
 20
5.5496297669
 10
-23.3265862585
 20
5.5323172203
 10
-23.3726916177
 20
5.508858617
 10
-23.4153833681
 20
5.4796463589
 10
-23.4539473892
 20
5.4451690912
 10
-23.4877386064
 20
5.4060035293
 10
-23.5161917815
 20
5.3628048111
 10
-23.5388309677
 20
5.3162955386
 10
-23.5454901944
 20
5.2988663966
  0
LINE
  5
4BD
100
AcDbEntity
  8
ASSI
100
AcDbLine
 62
7
  6
CONTINUOUS
 10
-23.5686083971
 20
2.894130385
 11
-23.3686083971
 21
2.894130385
  0
LINE
  5
4BE
100
AcDbEntity
  8
ASSI
100
AcDbLine
 62
7
  6
CONTINUOUS
 10
-23.5686083971
 20
3.045627385
 11
-23.3686083971
 21
3.045627385
  0
LINE
  5
4BF
100
AcDbEntity
  8
ASSI
100
AcDbLine
 62
7
  6
CONTINUOUS
 10
-23.5686083971
 20
3.247548385
 11
-23.3686083971
 21
3.247548385
  0
LINE
  5
4C0
100
AcDbEntity
  8
ASSI
100
AcDbLine
 62
7
  6
CONTINUOUS
 10
-23.5686083971
 20
3.304094385
 11
-23.3686083971
 21
3.304094385
  0
LINE
  5
4C1
100
AcDbEntity
  8
ASSI
100
AcDbLine
 62
7
  6
CONTINUOUS
 10
-23.5686083971
 20
3.794854385
 11
-23.3686083971
 21
3.794854385
  0
LINE
  5
4C2
100
AcDbEntity
  8
ASSI
100
AcDbLine
 62
7
  6
CONTINUOUS
 10
-23.5686083971
 20
3.990724385
 11
-23.3686083971
 21
3.990724385
  0
LINE
  5
4C3
100
AcDbEntity
  8
ASSI
100
AcDbLine
 62
7
  6
CONTINUOUS
 10
-23.1755893596
 20
2.1353109962
 11
-20.9616274345
 21
2.096666147
  0
LWPOLYLINE
  5
4C4
100
AcDbEntity
  8
ASSI
100
AcDbPolyline
 62
250
  6
CONTINUOUS
 90
11
 70
0
 10
-23.1757080034
 20
2.1352396467
 10
-23.227264317
 20
2.1395000252
 10
-23.2778395342
 20
2.1503776261
 10
-23.3265877189
 20
2.1676905076
 10
-23.3726934945
 20
2.1911490891
 10
-23.4153856822
 20
2.2203609955
 10
-23.4539501995
 20
2.2548376198
 10
-23.4877420051
 20
2.2940022956
 10
-23.5161958871
 20
2.3371999429
 10
-23.5388359174
 20
2.3837080251
 10
-23.5512010857
 20
2.4184176711
  0
LINE
  5
4C5
100
AcDbEntity
  8
ASSI
100
AcDbLine
 62
250
  6
CONTINUOUS
 10
-23.9319106785
 20
-3.3201393061
 11
-24.0598810393
 21
-3.2508225173
  0
LINE
  5
4C6
100
AcDbEntity
  8
ASSI
100
AcDbLine
 62
250
  6
CONTINUOUS
 10
-23.3205746009
 20
-3.6540754254
 11
-23.9319106785
 21
-3.3201393061
  0
LINE
  5
4C7
100
AcDbEntity
  8
ASSI
100
AcDbLine
 62
250
  6
CONTINUOUS
 10
-23.2412759466
 20
-3.6979123156
 11
-23.3205746009
 21
-3.6540754254
  0
LWPOLYLINE
  5
4C8
100
AcDbEntity
  8
RACCORDO
100
AcDbPolyline
 62
250
  6
CONTINUOUS
 90
7
 70
0
 10
-35.0686083971
 20
21.3350080025
 10
-35.0700448179
 20
21.3562140872
 10
-35.0741153465
 20
21.3764781313
 10
-35.0804648445
 20
21.3956912374
 10
-35.088604005
 20
21.4134891966
 10
-35.0982799516
 20
21.4301267463
 10
-35.1097833966
 20
21.4464038164
  0
LWPOLYLINE
  5
4C9
100
AcDbEntity
  8
ASSI
100
AcDbPolyline
 62
7
  6
CONTINUOUS
 90
16
 70
0
 10
-35.0686083971
 20
-19.0877951628
 10
-35.0710110787
 20
-19.1084209928
 10
-35.0782675918
 20
-19.1285861563
 10
-35.0904142108
 20
-19.1482906532
 10
-35.1074337049
 20
-19.1677422428
 10
-35.1292597894
 20
-19.1867331658
 10
-35.1557816261
 20
-19.2046401447
 10
-35.1868306591
 20
-19.2214530912
 10
-35.2221711111
 20
-19.2371820936
 10
-35.2615101851
 20
-19.2512341393
 10
-35.3044485124
 20
-19.2635691656
 10
-35.3506278129
 20
-19.2742272352
 10
-35.3997605248
 20
-19.2827355231
 10
-35.4514154518
 20
-19.288936421
 10
-35.5049903157
 20
-19.2929875371
 10
-35.5598821938
 20
-19.2948888715
  0
LWPOLYLINE
  5
4CA
100
AcDbEntity
  8
ASSI
100
AcDbPolyline
 62
250
  6
CONTINUOUS
 90
8
 70
0
 10
-34.5773346003
 20
-7.8343291996
 10
-34.576470704
 20
-7.8315757242
 10
-34.5757118376
 20
-7.8233772782
 10
-34.575066312
 20
-7.8098236467
 10
-34.5745411972
 20
-7.7910632653
 10
-34.5741422442
 20
-7.7673015927
 10
-34.5738738224
 20
-7.7387988578
 10
-34.5737388703
 20
-7.6688673284
  0
LINE
  5
4CB
100
AcDbEntity
  8
ASSI
100
AcDbLine
 62
250
  6
CONTINUOUS
 10
-23.1757080053
 20
2.1352395382
 11
-23.1755893596
 21
2.1353109962
  0
LWPOLYLINE
  5
4CC
100
AcDbEntity
  8
ASSI
100
AcDbPolyline
 62
250
  6
CONTINUOUS
 90
4
 70
0
 10
-23.192413567
 20
2.1253359591
 10
-23.1832761637
 20
2.1305282085
 10
-23.1777086742
 20
2.1338120817
 10
-23.1757080053
 20
2.1352395382
  0
LINE
  5
4CD
100
AcDbEntity
  8
ASSI
100
AcDbLine
 62
250
  6
CONTINUOUS
 10
-23.2412758789
 20
2.0979122866
 11
-23.192413567
 21
2.1253359591
  0
LINE
  5
4CE
100
AcDbEntity
  8
ASSI
100
AcDbLine
 62
250
  6
CONTINUOUS
 10
-23.9947917809
 20
1.6859277975
 11
-23.2412758789
 21
2.0979122866
  0
LINE
  5
4CF
100
AcDbEntity
  8
ASSI
100
AcDbLine
 62
250
  6
CONTINUOUS
 10
-24.0598810422
 20
1.6508225173
 11
-23.9947917809
 21
1.6859277975
  0
LINE
  5
4D0
100
AcDbEntity
  8
ASSI
100
AcDbLine
 62
7
  6
CONTINUOUS
 10
-20.9616274345
 20
5.603333853
 11
-23.1755893596
 21
5.5646890038
  0
LINE
  5
4D1
100
AcDbEntity
  8
ASSI
100
AcDbLine
 62
250
  6
CONTINUOUS
 10
-20.9616274345
 20
6.1032577006
 11
-24.0598821938
 21
6.0491774626
  0
LINE
  5
4D2
100
AcDbEntity
  8
ASSI
100
AcDbLine
 62
7
  6
CONTINUOUS
 10
-23.5686083971
 20
4.481484385
 11
-23.3686083971
 21
4.481484385
  0
LINE
  5
4D3
100
AcDbEntity
  8
ASSI
100
AcDbLine
 62
7
  6
CONTINUOUS
 10
-23.5686083971
 20
4.578853385
 11
-23.3686083971
 21
4.578853385
  0
LINE
  5
4D4
100
AcDbEntity
  8
ASSI
100
AcDbLine
 62
7
  6
CONTINUOUS
 10
-23.5686083971
 20
4.691520385
 11
-23.3686083971
 21
4.691520385
  0
LINE
  5
4D5
100
AcDbEntity
  8
ASSI
100
AcDbLine
 62
7
  6
CONTINUOUS
 10
-23.5686083971
 20
4.887461385
 11
-23.3686083971
 21
4.887461385
  0
LINE
  5
4D6
100
AcDbEntity
  8
ASSI
100
AcDbLine
 62
7
  6
CONTINUOUS
 10
-23.5686083971
 20
5.138881385
 11
-23.3686083971
 21
5.138881385
  0
LINE
  5
4D7
100
AcDbEntity
  8
ASSI
100
AcDbLine
 62
7
  6
CONTINUOUS
 10
-23.5454901944
 20
5.315673385
 11
-23.3686083971
 21
5.315673385
  0
LINE
  5
4D8
100
AcDbEntity
  8
ASSI
100
AcDbLine
 62
250
  6
CONTINUOUS
 10
-20.5686083971
 20
6.1032577006
 11
-20.9616274345
 21
6.1032576908
  0
LINE
  5
4D9
100
AcDbEntity
  8
ASSI
100
AcDbLine
 62
250
  6
CONTINUOUS
 10
-23.1755893596
 20
-3.7353109962
 11
-23.1757080053
 21
-3.7352395382
  0
LWPOLYLINE
  5
4DA
100
AcDbEntity
  8
ASSI
100
AcDbPolyline
 62
250
  6
CONTINUOUS
 90
5
 70
0
 10
-23.1757080053
 20
-3.7352395382
 10
-23.1777085938
 20
-3.7338120781
 10
-23.1832760396
 20
-3.7305282007
 10
-23.1924134359
 20
-3.7253359495
 10
-23.2412759466
 20
-3.6979123156
  0
LINE
  5
4DB
100
AcDbEntity
  8
ASSI
100
AcDbLine
 62
250
  6
CONTINUOUS
 10
-31.1361497454
 20
-15.1788335121
 11
-31.1384180216
 21
-15.0243788399
  0
LINE
  5
4DC
100
AcDbEntity
  8
ASSI
100
AcDbLine
 62
250
  6
CONTINUOUS
 10
-31.1406863314
 20
-8.1197693343
 11
-31.1384180228
 21
-8.2742265351
  0
LINE
  5
4DD
100
AcDbEntity
  8
ASSI
100
AcDbLine
 62
250
  6
CONTINUOUS
 10
-31.1352256763
 20
-15.2742949643
 11
-31.1361497454
 21
-15.1788335121
  0
LINE
  5
4DE
100
AcDbEntity
  8
ASSI
100
AcDbLine
 62
250
  6
CONTINUOUS
 10
-31.1416103989
 20
-8.0243069054
 11
-31.1406863314
 21
-8.1197693343
  0
LINE
  5
4DF
100
AcDbEntity
  8
ASSI
100
AcDbLine
 62
250
  6
CONTINUOUS
 10
-31.134822296
 20
-15.3588384745
 11
-31.1352256763
 21
-15.2742949643
  0
LINE
  5
4E0
100
AcDbEntity
  8
ASSI
100
AcDbLine
 62
250
  6
CONTINUOUS
 10
-31.142013761
 20
-7.9397632753
 11
-31.1416103989
 21
-8.0243069054
  0
LINE
  5
4E1
100
AcDbEntity
  8
ASSI
100
AcDbLine
 62
250
  6
CONTINUOUS
 10
-31.1384180228
 20
-8.2742265351
 11
-31.1384180228
 21
-15.0243788399
  0
LINE
  5
4E2
100
AcDbEntity
  8
ASSI
100
AcDbLine
 62
7
  6
CONTINUOUS
 10
-34.8601249423
 20
-13.8610480836
 11
-34.8503412543
 21
-13.8243263978
  0
LINE
  5
4E3
100
AcDbEntity
  8
ASSI
100
AcDbLine
 62
7
  6
CONTINUOUS
 10
-34.8503412543
 20
-13.8243263978
 11
-34.8365208586
 21
-13.7803297629
  0
LWPOLYLINE
  5
4E4
100
AcDbEntity
  8
ASSI
100
AcDbPolyline
 62
7
  6
CONTINUOUS
 90
4
 70
0
 10
-34.8449445761
 20
-14.0824351724
 10
-34.8576025651
 20
-14.1221008565
 10
-34.8654905055
 20
-14.1534889737
 10
-34.8686083971
 20
-14.1764828828
  0
LINE
  5
4E5
100
AcDbEntity
  8
ASSI
100
AcDbLine
 62
7
  6
CONTINUOUS
 10
-34.8574785462
 20
-13.2407498911
 11
-34.8686083971
 21
-13.2754022188
  0
LWPOLYLINE
  5
4E6
100
AcDbEntity
  8
ASSI
100
AcDbPolyline
 62
7
  6
CONTINUOUS
 90
28
 70
0
 10
-34.6657267267
 20
-13.3002817429
 10
-34.6359958797
 20
-13.2115899713
 10
-34.6059535761
 20
-13.1182558641
 10
-34.5756139606
 20
-13.0204956004
 10
-34.5460284617
 20
-12.9172648232
 10
-34.5170353198
 20
-12.8086000585
 10
-34.4887962945
 20
-12.6948328702
 10
-34.4628480924
 20
-12.5751686881
 10
-34.4390505178
 20
-12.4497439881
 10
-34.4175437664
 20
-12.3189242213
 10
-34.4002851323
 20
-12.1822179273
 10
-34.3874897625
 20
-12.0384700826
 10
-34.37894251
 20
-11.8897086067
 10
-34.3759552282
 20
-11.74039235
 10
-34.3794259563
 20
-11.5912768997
 10
-34.388456655
 20
-11.442995264
 10
-34.4016650601
 20
-11.2998170174
 10
-34.4192428104
 20
-11.1637040319
 10
-34.440998267
 20
-11.0335450006
 10
-34.4649742493
 20
-10.9088241876
 10
-34.4910239091
 20
-10.7898961314
 10
-34.5192940946
 20
-10.6768891497
 10
-34.5482681694
 20
-10.5689917823
 10
-34.5777834407
 20
-10.4665255574
 10
-34.6080026012
 20
-10.3695225535
 10
-34.6378970928
 20
-10.276932266
 10
-34.6674533487
 20
-10.1889637064
 10
-34.7246039952
 20
-10.0272674541
  0
LINE
  5
4E7
100
AcDbEntity
  8
ASSI
100
AcDbLine
 62
7
  6
CONTINUOUS
 10
-34.8365208586
 20
-13.7803297629
 11
-34.8190058224
 21
-13.7292504603
  0
LWPOLYLINE
  5
4E8
100
AcDbEntity
  8
ASSI
100
AcDbPolyline
 62
7
  6
CONTINUOUS
 90
6
 70
0
 10
-34.8190058224
 20
-13.7292504603
 10
-34.7988223474
 20
-13.6716492558
 10
-34.7758584565
 20
-13.6078929523
 10
-34.7502261267
 20
-13.5382440886
 10
-34.7232874909
 20
-13.4633444176
 10
-34.6657267267
 20
-13.3002817429
  0
LWPOLYLINE
  5
4E9
100
AcDbEntity
  8
ASSI
100
AcDbPolyline
 62
7
  6
CONTINUOUS
 90
3
 70
0
 10
-34.8044728399
 20
-13.9786633335
 10
-34.8270937324
 20
-14.0345429682
 10
-34.8449445761
 20
-14.0824351724
  0
LWPOLYLINE
  5
4EA
100
AcDbEntity
  8
ASSI
100
AcDbPolyline
 62
7
  6
CONTINUOUS
 90
6
 70
0
 10
-34.6046794992
 20
-13.5031985075
 10
-34.6802413779
 20
-13.6850398117
 10
-34.7153432774
 20
-13.7680924649
 10
-34.7485976124
 20
-13.8450726111
 10
-34.7783503165
 20
-13.9153662728
 10
-34.8044728399
 20
-13.9786633335
  0
LWPOLYLINE
  5
4EB
100
AcDbEntity
  8
ASSI
100
AcDbPolyline
 62
250
  6
CONTINUOUS
 90
6
 70
0
 10
-23.5930133175
 20
11.7870445145
 10
-23.5840878255
 20
11.8038350871
 10
-23.5772246184
 20
11.8170625572
 10
-23.5724018626
 20
11.8266440479
 10
-23.5695471773
 20
11.8326624362
 10
-23.5686083971
 20
11.8351177221
  0
LINE
  5
4EC
100
AcDbEntity
  8
ASSI
100
AcDbLine
 62
250
  6
CONTINUOUS
 10
-23.6313096832
 20
11.7166556999
 11
-23.5930133175
 21
11.7870445145
  0
LINE
  5
4ED
100
AcDbEntity
  8
ASSI
100
AcDbLine
 62
250
  6
CONTINUOUS
 10
-23.7522991877
 20
11.4982771881
 11
-23.6313096832
 21
11.7166556999
  0
LWPOLYLINE
  5
4EE
100
AcDbEntity
  8
ASSI
100
AcDbPolyline
 62
250
  6
CONTINUOUS
 90
3
 70
0
 10
-24.0598821938
 20
10.9508236878
 10
-23.9543430422
 20
11.1378767641
 10
-23.7522991877
 20
11.4982771881
  0
LWPOLYLINE
  5
4EF
100
AcDbEntity
  8
ASSI
100
AcDbPolyline
 62
250
  6
CONTINUOUS
 90
10
 70
0
 10
-24.0598821938
 20
-7.650746385
 10
-24.0593972431
 20
-7.6515100771
 10
-24.0589453066
 20
-7.653903094
 10
-24.0585223901
 20
-7.6580501082
 10
-24.0581151105
 20
-7.6640506983
 10
-24.0577285237
 20
-7.6720306681
 10
-24.0573849342
 20
-7.6821951587
 10
-24.057076544
 20
-7.6948145965
 10
-24.0567982551
 20
-7.709941739
 10
-24.0565779269
 20
-7.7273750502
  0
LWPOLYLINE
  5
4F0
100
AcDbEntity
  8
RACCORDO
100
AcDbPolyline
 62
250
  6
CONTINUOUS
 90
24
 70
0
 10
-35.0686083971
 20
21.3350080025
 10
-35.0700448656
 20
21.3428910641
 10
-35.0741155265
 20
21.3503647511
 10
-35.080465226
 20
21.3574290638
 10
-35.0886046332
 20
21.3640040378
 10
-35.0982808624
 20
21.3701696375
 10
-35.1097846477
 20
21.376165755
 10
-35.1232571797
 20
21.3820812824
 10
-35.138500093
 20
21.3878273277
 10
-35.1556027281
 20
21.393377107
 10
-35.1746319175
 20
21.3987573635
 10
-35.1954689368
 20
21.403941354
 10
-35.2179259374
 20
21.4088220641
 10
-35.2419293227
 20
21.413389908
 10
-35.2673731813
 20
21.4176544717
 10
-35.2939511319
 20
21.4215374984
 10
-35.3214681833
 20
21.4250196969
 10
-35.3498478222
 20
21.4281203586
 10
-35.3789270703
 20
21.4308191004
 10
-35.4084340429
 20
21.4331081288
 10
-35.4383672093
 20
21.4349952373
 10
-35.468990949
 20
21.4364834239
 10
-35.5003245256
 20
21.4375736879
 10
-35.5321180129
 20
21.4382650299
  0
LWPOLYLINE
  5
4F1
100
AcDbEntity
  8
ASSI
100
AcDbPolyline
 62
250
  6
CONTINUOUS
 90
8
 70
0
 10
-31.1384180228
 20
-7.7743026875
 10
-31.139281912
 20
-7.7770561037
 10
-31.1400407749
 20
-7.7852543951
 10
-31.1406862999
 20
-7.7988078118
 10
-31.1412114166
 20
-7.8175679566
 10
-31.1416103733
 20
-7.8413294042
 10
-31.1418787997
 20
-7.8698319448
 10
-31.142013761
 20
-7.9397632753
  0
LWPOLYLINE
  5
4F2
100
AcDbEntity
  8
RACCORDO
100
AcDbPolyline
 62
7
  6
CONTINUOUS
 90
10
 70
0
 10
-37.9686083971
 20
-23.25
 10
-37.9681411321
 20
-23.249052271
 10
-37.9676607912
 20
-23.2462082897
 10
-37.967171032
 20
-23.2414897106
 10
-37.9666755771
 20
-23.2349324617
 10
-37.9661782057
 20
-23.2265864708
 10
-37.9656827252
 20
-23.2165152857
 10
-37.9651929147
 20
-23.2047955901
 10
-37.9647124968
 20
-23.19151662
 10
-37.9642451293
 20
-23.1767794834
  0
LWPOLYLINE
  5
4F3
100
AcDbEntity
  8
ASSI
100
AcDbPolyline
 62
7
  6
CONTINUOUS
 90
4
 70
0
 10
-23.5454901944
 20
5.2988663966
 10
-23.5552774711
 20
5.2672536906
 10
-23.5652561848
 20
5.2164996094
 10
-23.5686001911
 20
5.1648822782
  0
LWPOLYLINE
  5
4F4
100
AcDbEntity
  8
ASSI
100
AcDbPolyline
 62
250
  6
CONTINUOUS
 90
8
 70
0
 10
-31.1384180228
 20
-15.5243026875
 10
-31.1375541127
 20
-15.5215491195
 10
-31.136795238
 20
-15.5133504277
 10
-31.1361497092
 20
-15.4997964461
 10
-31.1356245955
 20
-15.4810356619
 10
-31.135225647
 20
-15.4572735822
 10
-31.134957232
 20
-15.4287704761
 10
-31.134822296
 20
-15.3588384745
  0
LWPOLYLINE
  5
4F5
100
AcDbEntity
  8
ASSI
100
AcDbPolyline
 62
250
  6
CONTINUOUS
 90
6
 70
0
 10
-23.5930133175
 20
2.4870445145
 10
-23.5840878255
 20
2.5038350871
 10
-23.5772246184
 20
2.5170625572
 10
-23.5724018626
 20
2.5266440479
 10
-23.5695471773
 20
2.5326624362
 10
-23.5686083971
 20
2.5351177221
  0
LINE
  5
4F6
100
AcDbEntity
  8
ASSI
100
AcDbLine
 62
250
  6
CONTINUOUS
 10
-23.6313096832
 20
2.4166556999
 11
-23.5930133175
 21
2.4870445145
  0
LINE
  5
4F7
100
AcDbEntity
  8
ASSI
100
AcDbLine
 62
250
  6
CONTINUOUS
 10
-23.7522991877
 20
2.1982771881
 11
-23.6313096832
 21
2.4166556999
  0
LWPOLYLINE
  5
4F8
100
AcDbEntity
  8
ASSI
100
AcDbPolyline
 62
250
  6
CONTINUOUS
 90
3
 70
0
 10
-24.0598821938
 20
1.6508236878
 10
-23.9543430422
 20
1.8378767641
 10
-23.7522991877
 20
2.1982771881
  0
LINE
  5
4F9
100
AcDbEntity
  8
ASSI
100
AcDbLine
 62
250
  6
CONTINUOUS
 10
-20.5686083971
 20
10.8967422994
 11
-20.9616274345
 21
10.8967422994
  0
LINE
  5
4FA
100
AcDbEntity
  8
ASSI
100
AcDbLine
 62
7
  6
CONTINUOUS
 10
-23.5686083971
 20
11.984170385
 11
-23.3686083971
 21
11.984170385
  0
LINE
  5
4FB
100
AcDbEntity
  8
ASSI
100
AcDbLine
 62
7
  6
CONTINUOUS
 10
-23.5686083971
 20
12.135655385
 11
-23.3686083971
 21
12.135655385
  0
LINE
  5
4FC
100
AcDbEntity
  8
ASSI
100
AcDbLine
 62
7
  6
CONTINUOUS
 10
-23.5686083971
 20
12.337588385
 11
-23.3686083971
 21
12.337588385
  0
LINE
  5
4FD
100
AcDbEntity
  8
ASSI
100
AcDbLine
 62
7
  6
CONTINUOUS
 10
-23.5686083971
 20
12.441680385
 11
-23.3686083971
 21
12.441680385
  0
LINE
  5
4FE
100
AcDbEntity
  8
ASSI
100
AcDbLine
 62
7
  6
CONTINUOUS
 10
-23.5686083971
 20
12.511271385
 11
-23.3686083971
 21
12.511271385
  0
LINE
  5
4FF
100
AcDbEntity
  8
ASSI
100
AcDbLine
 62
250
  6
CONTINUOUS
 10
-24.0598821938
 20
10.9508225374
 11
-20.9616274345
 21
10.8967422994
  0
LINE
  5
500
100
AcDbEntity
  8
ASSI
100
AcDbLine
 62
7
  6
CONTINUOUS
 10
-23.1755893596
 20
11.4353109962
 11
-20.9616274345
 21
11.396666147
  0
LINE
  5
501
100
AcDbEntity
  8
ASSI
100
AcDbLine
 62
250
  6
CONTINUOUS
 10
-23.9319106785
 20
5.9798606939
 11
-24.0598810393
 21
6.0491774827
  0
LINE
  5
502
100
AcDbEntity
  8
ASSI
100
AcDbLine
 62
250
  6
CONTINUOUS
 10
-23.3205746009
 20
5.6459245746
 11
-23.9319106785
 21
5.9798606939
  0
LINE
  5
503
100
AcDbEntity
  8
ASSI
100
AcDbLine
 62
250
  6
CONTINUOUS
 10
-23.2412759466
 20
5.6020876844
 11
-23.3205746009
 21
5.6459245746
  0
LINE
  5
504
100
AcDbEntity
  8
ASSI
100
AcDbLine
 62
250
  6
CONTINUOUS
 10
-23.1755893596
 20
5.5646890038
 11
-23.1757080053
 21
5.5647604618
  0
LINE
  5
505
100
AcDbEntity
  8
ASSI
100
AcDbLine
 62
250
  6
CONTINUOUS
 10
-24.0236743447
 20
-3.3153233686
 11
-24.0598821938
 21
-3.2508236907
  0
LINE
  5
506
100
AcDbEntity
  8
ASSI
100
AcDbLine
 62
250
  6
CONTINUOUS
 10
-23.8036931585
 20
-3.7063305605
 11
-24.0236743447
 21
-3.3153233686
  0
LINE
  5
507
100
AcDbEntity
  8
ASSI
100
AcDbLine
 62
250
  6
CONTINUOUS
 10
-23.6313096735
 20
-4.0166557169
 11
-23.8036931585
 21
-3.7063305605
  0
LWPOLYLINE
  5
508
100
AcDbEntity
  8
ASSI
100
AcDbPolyline
 62
250
  6
CONTINUOUS
 90
7
 70
0
 10
-23.5686083971
 20
-4.1351177221
 10
-23.5695471783
 20
-4.1326624884
 10
-23.5724018656
 20
-4.1266441284
 10
-23.5772246221
 20
-4.117062642
 10
-23.5840878246
 20
-4.1038351362
 10
-23.5930133059
 20
-4.087044504
 10
-23.6313096735
 20
-4.0166557169
  0
LINE
  5
509
100
AcDbEntity
  8
ASSI
100
AcDbLine
 62
250
  6
CONTINUOUS
 10
-23.1853024623
 20
-9.3571487888
 11
-23.20594493
 21
-8.9888405434
  0
LWPOLYLINE
  5
50A
100
AcDbEntity
  8
ASSI
100
AcDbPolyline
 62
250
  6
CONTINUOUS
 90
8
 70
0
 10
-23.20594493
 20
-8.9888405434
 10
-23.2106520984
 20
-8.8874771686
 10
-23.2145954352
 20
-8.7822504857
 10
-23.2177969987
 20
-8.6731756462
 10
-23.2194091402
 20
-8.5595735658
 10
-23.2191493102
 20
-8.4413312448
 10
-23.2173000582
 20
-8.3189111787
 10
-23.2138613842
 20
-8.1925524353
  0
LWPOLYLINE
  5
50B
100
AcDbEntity
  8
ASSI
100
AcDbPolyline
 62
250
  6
CONTINUOUS
 90
9
 70
0
 10
-23.5740250892
 20
-9.4738733333
 10
-23.5854375894
 20
-9.0552673537
 10
-23.588090467
 20
-8.9401152783
 10
-23.590344204
 20
-8.8204831201
 10
-23.5920827682
 20
-8.6963789061
 10
-23.5929542345
 20
-8.5673870672
 10
-23.5928162045
 20
-8.4333690805
 10
-23.5917684532
 20
-8.2944634689
 10
-23.5898701039
 20
-8.1506702325
  0
LINE
  5
50C
100
AcDbEntity
  8
ASSI
100
AcDbLine
 62
250
  6
CONTINUOUS
 10
-24.0576139019
 20
-15.0552785456
 11
-24.0598821938
 21
-14.9008225374
  0
LINE
  5
50D
100
AcDbEntity
  8
ASSI
100
AcDbLine
 62
250
  6
CONTINUOUS
 10
-24.0576139019
 20
-7.3052785456
 11
-24.0598821938
 21
-7.1508225374
  0
LWPOLYLINE
  5
50E
100
AcDbEntity
  8
ASSI
100
AcDbPolyline
 62
250
  6
CONTINUOUS
 90
7
 70
0
 10
-24.0564214139
 20
15.3052157367
 10
-24.0566898346
 20
15.3337185438
 10
-24.0570887871
 20
15.3574802892
 10
-24.0576139019
 20
15.376240735
 10
-24.058259428
 20
15.3897944176
 10
-24.0590182957
 20
15.3979928974
 10
-24.0598821938
 20
15.400746385
  0
LINE
  5
50F
100
AcDbEntity
  8
ASSI
100
AcDbLine
 62
250
  6
CONTINUOUS
 10
-24.0566898346
 20
-15.1507405149
 11
-24.0576139019
 21
-15.0552785456
  0
LINE
  5
510
100
AcDbEntity
  8
ASSI
100
AcDbLine
 62
250
  6
CONTINUOUS
 10
-24.0566898346
 20
-7.4007405149
 11
-24.0576139019
 21
-7.3052785456
  0
LWPOLYLINE
  5
511
100
AcDbEntity
  8
ASSI
100
AcDbPolyline
 62
250
  6
CONTINUOUS
 90
5
 70
0
 10
-23.5686326962
 20
-9.8113644354
 10
-23.5689997772
 20
-9.7476753861
 10
-23.5700999916
 20
-9.6600858448
 10
-23.5718015907
 20
-9.5687830342
 10
-23.5740250892
 20
-9.4738733333
  0
LINE
  5
512
100
AcDbEntity
  8
ASSI
100
AcDbLine
 62
250
  6
CONTINUOUS
 10
-24.0565779269
 20
-7.7273750502
 11
-24.0563143477
 21
-7.7690220158
  0
LINE
  5
513
100
AcDbEntity
  8
ASSI
100
AcDbLine
 62
250
  6
CONTINUOUS
 10
-24.0562864645
 20
-15.2352840894
 11
-24.0566898346
 21
-15.1507405149
  0
LINE
  5
514
100
AcDbEntity
  8
ASSI
100
AcDbLine
 62
250
  6
CONTINUOUS
 10
-24.0562864645
 20
-7.4852840894
 11
-24.0566898346
 21
-7.4007405149
  0
LINE
  5
515
100
AcDbEntity
  8
ASSI
100
AcDbLine
 62
250
  6
CONTINUOUS
 10
-24.0598821938
 20
-8.1506702326
 11
-24.0598821938
 21
-14.9008225374
  0
LINE
  5
516
100
AcDbEntity
  8
ASSI
100
AcDbLine
 62
250
  6
CONTINUOUS
 10
-24.0598821938
 20
-7.1508225374
 11
-24.0598821938
 21
-3.2508225374
  0
LINE
  5
517
100
AcDbEntity
  8
ASSI
100
AcDbLine
 62
250
  6
CONTINUOUS
 10
-24.0598821938
 20
1.6508225374
 11
-24.0598821938
 21
6.0491774626
  0
LINE
  5
518
100
AcDbEntity
  8
ASSI
100
AcDbLine
 62
250
  6
CONTINUOUS
 10
-24.0598821938
 20
10.9508225374
 11
-24.0598821938
 21
14.9008225374
  0
LINE
  5
519
100
AcDbEntity
  8
ASSI
100
AcDbLine
 62
250
  6
CONTINUOUS
 10
-24.0562864645
 20
15.2352840894
 11
-24.0564214139
 21
15.3052157367
  0
LINE
  5
51A
100
AcDbEntity
  8
ASSI
100
AcDbLine
 62
7
  6
CONTINUOUS
 10
-23.5686083971
 20
14.9008225374
 11
-23.5686083971
 21
11.8351177221
  0
LINE
  5
51B
100
AcDbEntity
  8
ASSI
100
AcDbLine
 62
7
  6
CONTINUOUS
 10
-23.5686083971
 20
5.1648822779
 11
-23.5686083971
 21
2.5351177221
  0
LINE
  5
51C
100
AcDbEntity
  8
ASSI
100
AcDbLine
 62
7
  6
CONTINUOUS
 10
-23.5686083971
 20
-4.1351177221
 11
-23.5686083971
 21
-7.1508225374
  0
LINE
  5
51D
100
AcDbEntity
  8
ASSI
100
AcDbLine
 62
7
  6
CONTINUOUS
 10
-23.5686326962
 20
-9.8113644354
 11
-23.5686083971
 21
-14.9008225374
  0
LINE
  5
51E
100
AcDbEntity
  8
ASSI
100
AcDbLine
 62
7
  6
CONTINUOUS
 10
-23.5686083971
 20
-7.6126083816
 11
-23.5686083971
 21
-7.1941378567
  0
LINE
  5
51F
100
AcDbEntity
  8
ASSI
100
AcDbLine
 62
250
  6
CONTINUOUS
 10
-24.0563143477
 20
-7.7690220158
 11
-24.0562945894
 21
-7.8187690424
  0
LINE
  5
520
100
AcDbEntity
  8
ASSI
100
AcDbLine
 62
250
  6
CONTINUOUS
 10
-24.0566898346
 20
15.1507405149
 11
-24.0562864645
 21
15.2352840894
  0
LINE
  5
521
100
AcDbEntity
  8
ASSI
100
AcDbLine
 62
250
  6
CONTINUOUS
 10
-24.0562945894
 20
-7.8187690424
 11
-24.0567268682
 21
-7.9053173823
  0
LINE
  5
522
100
AcDbEntity
  8
ASSI
100
AcDbLine
 62
250
  6
CONTINUOUS
 10
-24.058259428
 20
15.0047426956
 11
-24.0566898346
 21
15.1507405149
  0
LINE
  5
523
100
AcDbEntity
  8
ASSI
100
AcDbLine
 62
250
  6
CONTINUOUS
 10
-24.0567268682
 20
-7.9053173823
 11
-24.058046721
 21
-8.0305694338
  0
LINE
  5
524
100
AcDbEntity
  8
ASSI
100
AcDbLine
 62
250
  6
CONTINUOUS
 10
-24.0598821938
 20
14.9008225374
 11
-24.058259428
 21
15.0047426956
  0
LINE
  5
525
100
AcDbEntity
  8
ASSI
100
AcDbLine
 62
250
  6
CONTINUOUS
 10
-24.058046721
 20
-8.0305694338
 11
-24.0598821938
 21
-8.1506702326
  0
LINE
  5
526
100
AcDbEntity
  8
ASSI
100
AcDbLine
 62
7
  6
CONTINUOUS
 10
-23.5686083971
 20
12.701172385
 11
-23.3686083971
 21
12.701172385
  0
LINE
  5
527
100
AcDbEntity
  8
ASSI
100
AcDbLine
 62
7
  6
CONTINUOUS
 10
-23.5686083971
 20
13.109067385
 11
-23.3686083971
 21
13.109067385
  0
LINE
  5
528
100
AcDbEntity
  8
ASSI
100
AcDbLine
 62
7
  6
CONTINUOUS
 10
-23.5686083971
 20
13.302948385
 11
-23.3686083971
 21
13.302948385
  0
LINE
  5
529
100
AcDbEntity
  8
ASSI
100
AcDbLine
 62
7
  6
CONTINUOUS
 10
-23.5686083971
 20
13.710921385
 11
-23.3686083971
 21
13.710921385
  0
LINE
  5
52A
100
AcDbEntity
  8
ASSI
100
AcDbLine
 62
7
  6
CONTINUOUS
 10
-23.5686083971
 20
13.900746385
 11
-23.3686083971
 21
13.900746385
  0
LWPOLYLINE
  5
52B
100
AcDbEntity
  8
ASSI
100
AcDbPolyline
 62
250
  6
CONTINUOUS
 90
11
 70
0
 10
-23.1757080034
 20
11.4352396467
 10
-23.227264317
 20
11.4395000252
 10
-23.2778395342
 20
11.4503776261
 10
-23.3265877189
 20
11.4676905076
 10
-23.3726934945
 20
11.4911490891
 10
-23.4153856822
 20
11.5203609955
 10
-23.4539501995
 20
11.5548376198
 10
-23.4877420051
 20
11.5940022956
 10
-23.5161958871
 20
11.6371999429
 10
-23.5388359174
 20
11.6837080251
 10
-23.5512010857
 20
11.7184176711
  0
LWPOLYLINE
  5
52C
100
AcDbEntity
  8
ASSI
100
AcDbPolyline
 62
250
  6
CONTINUOUS
 90
5
 70
0
 10
-23.1757080053
 20
5.5647604618
 10
-23.1777085938
 20
5.5661879219
 10
-23.1832760396
 20
5.5694717993
 10
-23.1924134359
 20
5.5746640505
 10
-23.2412759466
 20
5.6020876844
  0
LWPOLYLINE
  5
52D
100
AcDbEntity
  8
ASSI
100
AcDbPolyline
 62
250
  6
CONTINUOUS
 90
5
 70
0
 10
-23.1755893596
 20
-9.6718816092
 10
-23.1766000471
 20
-9.5980577912
 10
-23.1785151086
 20
-9.5209879854
 10
-23.1813345444
 20
-9.440652894
 10
-23.1853024623
 20
-9.3571487888
  0
LINE
  5
52E
100
AcDbEntity
  8
ASSI
100
AcDbLine
 62
7
  6
CONTINUOUS
 10
-23.3686083971
 20
13.900746385
 11
-23.3686083971
 21
11.4891473114
  0
LINE
  5
52F
100
AcDbEntity
  8
ASSI
100
AcDbLine
 62
7
  6
CONTINUOUS
 10
-23.3686083971
 20
5.5108526886
 11
-23.3686083971
 21
4.578853385
  0
LINE
  5
530
100
AcDbEntity
  8
ASSI
100
AcDbLine
 62
7
  6
CONTINUOUS
 10
-23.3686083971
 20
4.481484385
 11
-23.3686083971
 21
2.1891473114
  0
LINE
  5
531
100
AcDbEntity
  8
ASSI
100
AcDbLine
 62
250
  6
CONTINUOUS
 10
-23.1755893596
 20
-11.4353109962
 11
-23.1755893596
 21
-9.6718816092
  0
LINE
  5
532
100
AcDbEntity
  8
ASSI
100
AcDbLine
 62
250
  6
CONTINUOUS
 10
-23.1755912254
 20
-7.7190061049
 11
-23.1755893596
 21
-5.5646890038
  0
LWPOLYLINE
  5
533
100
AcDbEntity
  8
ASSI
100
AcDbPolyline
 62
250
  6
CONTINUOUS
 90
3
 70
0
 10
-23.5897830502
 20
-8.1506696575
 10
-23.5869251977
 20
-8.0418000508
 10
-23.5825802621
 20
-7.9399297557
  0
LWPOLYLINE
  5
534
100
AcDbEntity
  8
ASSI
100
AcDbPolyline
 62
250
  6
CONTINUOUS
 90
4
 70
0
 10
-23.5825802621
 20
-7.9399297557
 10
-23.5730135496
 20
-7.7609108654
 10
-23.5697895539
 20
-7.6831968447
 10
-23.5686322915
 20
-7.6126087692
  0
LWPOLYLINE
  5
535
100
AcDbEntity
  8
ASSI
100
AcDbPolyline
 62
250
  6
CONTINUOUS
 90
7
 70
0
 10
-23.2138613842
 20
-8.1925524353
 10
-23.2057745752
 20
-8.1085154656
 10
-23.1983711458
 20
-8.0264732614
 10
-23.1916510962
 20
-7.9464690902
 10
-23.1856144263
 20
-7.8685386311
 10
-23.180261136
 20
-7.7927103883
 10
-23.1755912254
 20
-7.7190061049
  0
LWPOLYLINE
  5
536
100
AcDbEntity
  8
ASSI
100
AcDbPolyline
 62
7
  6
CONTINUOUS
 90
4
 70
0
 10
-23.5454901944
 20
-4.0011336034
 10
-23.5552774711
 20
-4.0327463094
 10
-23.5652561848
 20
-4.0835003906
 10
-23.5686001911
 20
-4.1351177218
  0
LWPOLYLINE
  5
537
100
AcDbEntity
  8
ASSI
100
AcDbPolyline
 62
250
  6
CONTINUOUS
 90
8
 70
0
 10
-24.0598821938
 20
-7.650746385
 10
-24.0590182957
 20
-7.6479928974
 10
-24.058259428
 20
-7.6397944176
 10
-24.0576139019
 20
-7.626240735
 10
-24.0570887871
 20
-7.6074802892
 10
-24.0566898346
 20
-7.5837185438
 10
-24.0564214139
 20
-7.5552157367
 10
-24.0562864645
 20
-7.4852840894
  0
LINE
  5
538
100
AcDbEntity
  8
ASSI
100
AcDbLine
 62
250
  6
CONTINUOUS
 10
-23.5686083971
 20
14.9008225374
 11
-24.0598821938
 21
14.9008225374
  0
LINE
  5
539
100
AcDbEntity
  8
ASSI
100
AcDbLine
 62
250
  6
CONTINUOUS
 10
-24.0598821938
 20
14.9008225374
 11
-35.5598821938
 21
15.1015557841
  0
LINE
  5
53A
100
AcDbEntity
  8
ASSI
100
AcDbLine
 62
7
  6
CONTINUOUS
 10
-24.0598821938
 20
15.400746385
 11
-35.0686083971
 21
15.5929044156
  0
LINE
  5
53B
100
AcDbEntity
  8
RACCORDO
100
AcDbLine
 62
250
  6
CONTINUOUS
 10
-54.9901882568
 20
16.7552054488
 11
-55.2378120078
 21
16.7650672519
  0
LWPOLYLINE
  5
53C
100
AcDbEntity
  8
RACCORDO
100
AcDbPolyline
 62
250
  6
CONTINUOUS
 90
9
 70
0
 10
-35.1097833966
 20
21.4464038164
 10
-35.1232555201
 20
21.4624412021
 10
-35.1384979625
 20
21.4779446395
 10
-35.155600048
 20
21.4930148264
 10
-35.1746285806
 20
21.507623639
 10
-35.1954648539
 20
21.5215988525
 10
-35.2179210829
 20
21.5348238276
 10
-35.2419237018
 20
21.5472369953
 10
-35.267366795
 20
21.5587495075
  0
LINE
  5
53D
100
AcDbEntity
  8
ASSI
100
AcDbLine
 62
250
  6
CONTINUOUS
 10
-24.0236743447
 20
5.9846766314
 11
-24.0598821938
 21
6.0491763093
  0
LINE
  5
53E
100
AcDbEntity
  8
ASSI
100
AcDbLine
 62
250
  6
CONTINUOUS
 10
-23.8036931585
 20
5.5936694395
 11
-24.0236743447
 21
5.9846766314
  0
LINE
  5
53F
100
AcDbEntity
  8
ASSI
100
AcDbLine
 62
250
  6
CONTINUOUS
 10
-23.6313096735
 20
5.2833442831
 11
-23.8036931585
 21
5.5936694395
  0
LWPOLYLINE
  5
540
100
AcDbEntity
  8
ASSI
100
AcDbPolyline
 62
250
  6
CONTINUOUS
 90
7
 70
0
 10
-23.5686083971
 20
5.1648822779
 10
-23.5695471783
 20
5.1673375116
 10
-23.5724018656
 20
5.1733558716
 10
-23.5772246221
 20
5.182937358
 10
-23.5840878246
 20
5.1961648638
 10
-23.5930133059
 20
5.212955496
 10
-23.6313096735
 20
5.2833442831
  0
LWPOLYLINE
  5
541
100
AcDbEntity
  8
ASSI
100
AcDbPolyline
 62
7
  6
CONTINUOUS
 90
4
 70
0
 10
-23.5512010857
 20
2.4184176711
 10
-23.5552834122
 20
2.4327486342
 10
-23.5652632657
 20
2.4835015024
 10
-23.568608552
 20
2.5351177221
  0
LINE
  5
542
100
AcDbEntity
  8
ASSI
100
AcDbLine
 62
250
  6
CONTINUOUS
 10
-20.9616274345
 20
-3.1967422994
 11
-20.9598131319
 21
-3.3511963108
  0
LINE
  5
543
100
AcDbEntity
  8
ASSI
100
AcDbLine
 62
250
  6
CONTINUOUS
 10
-20.9616274345
 20
6.1032577006
 11
-20.9598131319
 21
5.9488036892
  0
LINE
  5
544
100
AcDbEntity
  8
ASSI
100
AcDbLine
 62
250
  6
CONTINUOUS
 10
-20.9598131319
 20
-3.3511963108
 11
-20.95885842
 21
-3.4905496705
  0
LINE
  5
545
100
AcDbEntity
  8
ASSI
100
AcDbLine
 62
250
  6
CONTINUOUS
 10
-20.9598131319
 20
5.9488036892
 11
-20.95885842
 21
5.8094503295
  0
LINE
  5
546
100
AcDbEntity
  8
ASSI
100
AcDbLine
 62
250
  6
CONTINUOUS
 10
-20.9590726943
 20
2.029664871
 11
-20.9587495339
 21
1.9682422549
  0
LINE
  5
547
100
AcDbEntity
  8
ASSI
100
AcDbLine
 62
250
  6
CONTINUOUS
 10
-20.9590726943
 20
11.329664871
 11
-20.9587495339
 21
11.2682422549
  0
LINE
  5
548
100
AcDbEntity
  8
ASSI
100
AcDbLine
 62
250
  6
CONTINUOUS
 10
-20.9616274345
 20
10.8967422994
 11
-20.9616274345
 21
6.1032577006
  0
LINE
  5
549
100
AcDbEntity
  8
ASSI
100
AcDbLine
 62
250
  6
CONTINUOUS
 10
-20.9616274345
 20
1.5967422994
 11
-20.9616274345
 21
-3.1967422994
  0
LINE
  5
54A
100
AcDbEntity
  8
ASSI
100
AcDbLine
 62
250
  6
CONTINUOUS
 10
-20.9616274345
 20
-5.603333853
 11
-20.9616274345
 21
-11.396666147
  0
LINE
  5
54B
100
AcDbEntity
  8
ASSI
100
AcDbLine
 62
250
  6
CONTINUOUS
 10
-20.95885842
 20
-3.4905496705
 11
-20.9587495338
 21
-3.5682422549
  0
LINE
  5
54C
100
AcDbEntity
  8
ASSI
100
AcDbLine
 62
250
  6
CONTINUOUS
 10
-20.95885842
 20
5.8094503295
 11
-20.9587495338
 21
5.7317577451
  0
LINE
  5
54D
100
AcDbEntity
  8
ASSI
100
AcDbLine
 62
7
  6
CONTINUOUS
 10
-20.5686083971
 20
10.9967270689
 11
-20.5686083971
 21
6.0032729311
  0
LINE
  5
54E
100
AcDbEntity
  8
ASSI
100
AcDbLine
 62
7
  6
CONTINUOUS
 10
-20.5686083971
 20
1.6967270689
 11
-20.5686083971
 21
-3.2967270689
  0
LINE
  5
54F
100
AcDbEntity
  8
ASSI
100
AcDbLine
 62
7
  6
CONTINUOUS
 10
-20.5686083971
 20
-6.0032729311
 11
-20.5686083971
 21
-10.9967270689
  0
LINE
  5
550
100
AcDbEntity
  8
ASSI
100
AcDbLine
 62
250
  6
CONTINUOUS
 10
-20.9587495339
 20
11.2682422549
 11
-20.9588584199
 21
11.1905496705
  0
LINE
  5
551
100
AcDbEntity
  8
ASSI
100
AcDbLine
 62
250
  6
CONTINUOUS
 10
-20.9587495339
 20
1.9682422549
 11
-20.9588584199
 21
1.8905496705
  0
LWPOLYLINE
  5
552
100
AcDbEntity
  8
ASSI
100
AcDbPolyline
 62
250
  6
CONTINUOUS
 90
7
 70
0
 10
-20.9587495338
 20
5.7317577451
 10
-20.9590726942
 20
5.670335129
 10
-20.9593913166
 20
5.6465906391
 10
-20.9598121398
 20
5.6278385464
 10
-20.9603304181
 20
5.6142854223
 10
-20.960938266
 20
5.6060861655
 10
-20.9616274345
 20
5.603333853
  0
LWPOLYLINE
  5
553
100
AcDbEntity
  8
ASSI
100
AcDbPolyline
 62
250
  6
CONTINUOUS
 90
7
 70
0
 10
-20.9587495338
 20
-3.5682422549
 10
-20.9590726942
 20
-3.629664871
 10
-20.9593913166
 20
-3.6534093609
 10
-20.9598121398
 20
-3.6721614536
 10
-20.9603304181
 20
-3.6857145777
 10
-20.960938266
 20
-3.6939138345
 10
-20.9616274345
 20
-3.696666147
  0
LINE
  5
554
100
AcDbEntity
  8
ASSI
100
AcDbLine
 62
250
  6
CONTINUOUS
 10
-20.9588584199
 20
11.1905496705
 11
-20.9598131319
 21
11.0511963108
  0
LINE
  5
555
100
AcDbEntity
  8
ASSI
100
AcDbLine
 62
250
  6
CONTINUOUS
 10
-20.9588584199
 20
1.8905496705
 11
-20.9598131319
 21
1.7511963108
  0
LINE
  5
556
100
AcDbEntity
  8
ASSI
100
AcDbLine
 62
250
  6
CONTINUOUS
 10
-20.9598131319
 20
11.0511963108
 11
-20.9616274345
 21
10.8967422994
  0
LINE
  5
557
100
AcDbEntity
  8
ASSI
100
AcDbLine
 62
250
  6
CONTINUOUS
 10
-20.9598131319
 20
1.7511963108
 11
-20.9616274345
 21
1.5967422994
  0
LWPOLYLINE
  5
558
100
AcDbEntity
  8
ASSI
100
AcDbPolyline
 62
250
  6
CONTINUOUS
 90
8
 70
0
 10
-24.0598821938
 20
-15.400746385
 10
-24.0590182957
 20
-15.3979928974
 10
-24.058259428
 20
-15.3897944176
 10
-24.0576139019
 20
-15.376240735
 10
-24.0570887871
 20
-15.3574802892
 10
-24.0566898346
 20
-15.3337185438
 10
-24.0564214139
 20
-15.3052157367
 10
-24.0562864645
 20
-15.2352840894
  0
LWPOLYLINE
  5
559
100
AcDbEntity
  8
RACCORDO
100
AcDbPolyline
 62
250
  6
CONTINUOUS
 90
12
 70
0
 10
-35.2540411983
 20
22.9086478551
 10
-35.225793112
 20
22.8789903759
 10
-35.1992069324
 20
22.8473964084
 10
-35.174560157
 20
22.8140116518
 10
-35.1519942222
 20
22.7788418569
 10
-35.1316697703
 20
22.741905518
 10
-35.1139293837
 20
22.7035813654
 10
-35.0988279929
 20
22.6637238785
 10
-35.0863162826
 20
22.6215200492
 10
-35.0767642671
 20
22.5767624967
 10
-35.0707177734
 20
22.5299221501
 10
-35.0686083971
 20
22.4812086755
  0
LWPOLYLINE
  5
55A
100
AcDbEntity
  8
ASSI
100
AcDbPolyline
 62
7
  6
CONTINUOUS
 90
4
 70
0
 10
-23.5512010857
 20
11.7184176711
 10
-23.5552834122
 20
11.7327486342
 10
-23.5652632657
 20
11.7835015024
 10
-23.568608552
 20
11.8351177221
  0
LWPOLYLINE
  5
55B
100
AcDbEntity
  8
ASSI
100
AcDbPolyline
 62
250
  6
CONTINUOUS
 90
6
 70
0
 10
-20.9616274345
 20
2.096666147
 10
-20.9609382657
 20
2.0939138345
 10
-20.9603304177
 20
2.0857145777
 10
-20.9598121395
 20
2.0721614536
 10
-20.9593913164
 20
2.0534093609
 10
-20.9590726943
 20
2.029664871
  0
LINE
  5
55C
100
AcDbEntity
  8
RACCORDO
100
AcDbLine
 62
250
  6
CONTINUOUS
 10
-51.0686083971
 20
18.0465280279
 11
-54.3710081483
 21
17.4642258507
  0
LINE
  5
55D
100
AcDbEntity
  8
RACCORDO
100
AcDbLine
 62
7
  6
CONTINUOUS
 10
-51.0686083971
 20
18.3
 11
-54.4122385588
 21
17.710427789
  0
LINE
  5
55E
100
AcDbEntity
  8
RACCORDO
100
AcDbLine
 62
7
  6
CONTINUOUS
 10
-51.0686083971
 20
18.8
 11
-51.5686083971
 21
18.8
  0
LINE
  5
55F
100
AcDbEntity
  8
ASSI
100
AcDbLine
 62
7
  6
CONTINUOUS
 10
-44.0686083971
 20
19.4434092398
 11
-35.5562695611
 21
19.2948258128
  0
LINE
  5
560
100
AcDbEntity
  8
DRAFT
100
AcDbLine
 62
7
  6
CONTINUOUS
 10
-44.0686083971
 20
19.4728483595
 11
-46.2686083971
 21
19.5191991091
  0
LWPOLYLINE
  5
561
100
AcDbEntity
  8
ASSI
100
AcDbPolyline
 62
7
  6
CONTINUOUS
 90
16
 70
0
 10
-35.5562695611
 20
19.2948258128
 10
-35.5026287923
 20
19.2932100809
 10
-35.4500299107
 20
19.2890972297
 10
-35.3990587097
 20
19.282630983
 10
-35.3502260223
 20
19.2740966607
 10
-35.3040892607
 20
19.2636098643
 10
-35.2612247536
 20
19.2511420527
 10
-35.2220770859
 20
19.2370543155
 10
-35.1869204922
 20
19.221629038
 10
-35.1559878764
 20
19.2047650728
 10
-35.1295204669
 20
19.1868142091
 10
-35.1076977926
 20
19.1681216475
 10
-35.090620198
 20
19.1485693152
 10
-35.0783823214
 20
19.1283505797
 10
-35.0710454989
 20
19.1079760306
 10
-35.0686083971
 20
19.0877951628
  0
LWPOLYLINE
  5
562
100
AcDbEntity
  8
ASSI
100
AcDbPolyline
 62
250
  6
CONTINUOUS
 90
6
 70
0
 10
-20.9616274345
 20
11.396666147
 10
-20.9609382657
 20
11.3939138345
 10
-20.9603304177
 20
11.3857145777
 10
-20.9598121395
 20
11.3721614536
 10
-20.9593913164
 20
11.3534093609
 10
-20.9590726943
 20
11.329664871
  0
LWPOLYLINE
  5
563
100
AcDbEntity
  8
RACCORDO
100
AcDbPolyline
 62
250
  6
CONTINUOUS
 90
5
 70
0
 10
-35.5642451293
 20
-23.0897244254
 10
-35.5881616878
 20
-23.1029699931
 10
-35.6130909496
 20
-23.1148794642
 10
-35.6390329149
 20
-23.1254528388
 10
-35.6661315829
 20
-23.1347966153
  0
LWPOLYLINE
  5
564
100
AcDbEntity
  8
RACCORDO
100
AcDbPolyline
 62
250
  6
CONTINUOUS
 90
10
 70
0
 10
-35.4403361088
 20
-23.1288270757
 10
-35.4506079681
 20
-23.1333531725
 10
-35.4620588916
 20
-23.135635541
 10
-35.4745723057
 20
-23.1356509461
 10
-35.4880208203
 20
-23.133399231
 10
-35.502267526
 20
-23.1289033191
 10
-35.5171673873
 20
-23.1222089801
 10
-35.5325687195
 20
-23.1133843646
 10
-35.5483147331
 20
-23.1025193098
 10
-35.5642451293
 20
-23.0897244254
  0
LINE
  5
565
100
AcDbEntity
  8
0
100
AcDbLine
 62
7
  6
CONTINUOUS
 10
-44.3617403148
 20
-24.6853169549
 11
-39.8926130026
 21
-23.2332094662
  0
LINE
  5
566
100
AcDbEntity
  8
0
100
AcDbLine
 62
7
  6
CONTINUOUS
 10
-44.238133517
 20
-25.0657395614
 11
-38.6320428812
 21
-23.244210295
  0
LWPOLYLINE
  5
567
100
AcDbEntity
  8
RACCORDO
100
AcDbPolyline
 62
250
  6
CONTINUOUS
 90
13
 70
0
 10
-54.3710081483
 20
17.4642258507
 10
-54.4711699056
 20
17.4366551411
 10
-54.5624134179
 20
17.4010922573
 10
-54.6447386853
 20
17.3575371992
 10
-54.718185589
 20
17.3045031218
 10
-54.7827142479
 20
17.2434768701
 10
-54.8382050179
 20
17.1789189793
 10
-54.8842819597
 20
17.1112467695
 10
-54.9213210126
 20
17.0400429206
 10
-54.9503303514
 20
16.9685160066
 10
-54.9716460341
 20
16.8977355524
 10
-54.9849320025
 20
16.8266320331
 10
-54.9901882568
 20
16.7552054488
  0
LINE
  5
568
100
AcDbEntity
  8
ASSI
100
AcDbLine
 62
250
  6
CONTINUOUS
 10
-41.5636728627
 20
20.8413478222
 11
-44.0686083971
 21
20.7976240098
  0
LINE
  5
569
100
AcDbEntity
  8
ASSI
100
AcDbLine
 62
7
  6
CONTINUOUS
 10
-41.5686083971
 20
20.9
 11
-44.0686083971
 21
20.8563623377
  0
LINE
  5
56A
100
AcDbEntity
  8
RACCORDO
100
AcDbLine
 62
250
  6
CONTINUOUS
 10
-46.2686083971
 20
22.1051229596
 11
-51.3207900309
 21
22.0169368012
  0
LINE
  5
56B
100
AcDbEntity
  8
RACCORDO
100
AcDbLine
 62
7
  6
CONTINUOUS
 10
-46.2686083971
 20
22.3551229611
 11
-51.3229714987
 21
22.266898725
  0
LINE
  5
56C
100
AcDbEntity
  8
RACCORDO
100
AcDbLine
 62
7
  6
CONTINUOUS
 10
-44.0686083971
 20
20.9
 11
-35.3164267632
 21
20.976379132
  0
LINE
  5
56D
100
AcDbEntity
  8
RACCORDO
100
AcDbLine
 62
250
  6
CONTINUOUS
 10
-44.0686083971
 20
21.1499904808
 11
-35.5642451293
 21
21.2242069346
  0
LINE
  5
56E
100
AcDbEntity
  8
RACCORDO
100
AcDbLine
 62
250
  6
CONTINUOUS
 10
-35.5642451293
 20
21.2242069346
 11
-35.0686083971
 21
21.2263696128
  0
LINE
  5
56F
100
AcDbEntity
  8
ASSI
100
AcDbLine
 62
250
  6
CONTINUOUS
 10
-34.9686083971
 20
21.3999999968
 11
-35.0686083971
 21
21.3999999971
  0
LINE
  5
570
100
AcDbEntity
  8
RACCORDO
100
AcDbLine
 62
250
  6
CONTINUOUS
 10
-51.3207900309
 20
22.0169368012
 11
-51.5686083971
 21
22.0169368012
  0
LINE
  5
571
100
AcDbEntity
  8
RACCORDO
100
AcDbLine
 62
250
  6
CONTINUOUS
 10
-35.5642451293
 20
21.4385574501
 11
-44.0686083971
 21
21.4692989119
  0
LINE
  5
572
100
AcDbEntity
  8
RACCORDO
100
AcDbLine
 62
250
  6
CONTINUOUS
 10
-35.5642451293
 20
21.6153274143
 11
-44.0686083971
 21
21.6460688761
  0
LINE
  5
573
100
AcDbEntity
  8
RACCORDO
100
AcDbLine
 62
250
  6
CONTINUOUS
 10
-35.5321180129
 20
21.4382650299
 11
-35.5642451293
 21
21.4385574501
  0
LINE
  5
574
100
AcDbEntity
  8
ASSI
100
AcDbLine
 62
250
  6
CONTINUOUS
 10
-35.5562695611
 20
20.7364882075
 11
-41.5636728627
 21
20.8413478222
  0
LINE
  5
575
100
AcDbEntity
  8
ASSI
100
AcDbLine
 62
7
  6
CONTINUOUS
 10
-35.5598821938
 20
20.795117294
 11
-41.5686083971
 21
20.9
  0
LINE
  5
576
100
AcDbEntity
  8
0
100
AcDbLine
 62
7
  6
CONTINUOUS
 10
-44.3617403148
 20
24.6853169549
 11
-39.8926130026
 21
23.2332094662
  0
LINE
  5
577
100
AcDbEntity
  8
0
100
AcDbLine
 62
7
  6
CONTINUOUS
 10
-44.238133517
 20
25.0657395614
 11
-38.6320428812
 21
23.244210295
  0
LWPOLYLINE
  5
578
100
AcDbEntity
  8
RACCORDO
100
AcDbPolyline
 62
250
  6
CONTINUOUS
 90
11
 70
0
 10
-35.267366795
 20
21.5587495075
 10
-35.2939440072
 20
21.5692528921
 10
-35.3214603858
 20
21.5787007862
 10
-35.3498394042
 20
21.5870817469
 10
-35.3789180248
 20
21.5943802273
 10
-35.408423891
 20
21.6005581904
 10
-35.4383559325
 20
21.6056512262
 10
-35.4689799409
 20
21.6097165889
 10
-35.5003157101
 20
21.6127222109
 10
-35.5321128722
 20
21.6146040637
 10
-35.5642451293
 20
21.6153274143
  0
LWPOLYLINE
  5
579
100
AcDbEntity
  8
RACCORDO
100
AcDbPolyline
 62
250
  6
CONTINUOUS
 90
10
 70
0
 10
-35.4403365725
 20
23.1288262819
 10
-35.4506083922
 20
23.1333522974
 10
-35.4620592719
 20
23.1356345945
 10
-35.4745726386
 20
23.1356499388
 10
-35.488021103
 20
23.1333981741
 10
-35.5022677562
 20
23.1289022239
 10
-35.5171675637
 20
23.1222078583
 10
-35.5325688414
 20
23.1133832276
 10
-35.5483148006
 20
23.102518169
 10
-35.5642451433
 20
23.0897232918
  0
LINE
  5
57A
100
AcDbEntity
  8
RACCORDO
100
AcDbLine
 62
250
  6
CONTINUOUS
 10
-35.5914440752
 20
23.1043402904
 11
-35.5642451293
 21
23.0897244254
  0
LWPOLYLINE
  5
57B
100
AcDbEntity
  8
0
100
AcDbPolyline
 62
7
  6
CONTINUOUS
 90
10
 70
0
 43
0.3500000006
 10
-31.9400373917
 20
34.3500010986
 10
-31.8686084747
 20
34.2071432648
 10
-31.8686084747
 20
34.1357120819
 10
-32.0114663086
 20
33.9928587799
 10
-32.0828952255
 20
33.9928587799
 10
-32.1543218765
 20
34.0642854309
 10
-32.1543218765
 20
34.1357120819
 10
-32.0828952255
 20
34.2785699158
 10
-32.0114663086
 20
34.3500010986
 10
-31.9400373917
 20
34.3500010986
  0
LINE
  5
57C
100
AcDbEntity
  8
RACCORDO
100
AcDbLine
 62
250
  6
CONTINUOUS
 10
-35.5214603493
 20
-23.075729264
 11
-35.5642451293
 21
-23.0897244254
  0
LWPOLYLINE
  5
57D
100
AcDbEntity
  8
RACCORDO
100
AcDbPolyline
 62
250
  6
CONTINUOUS
 90
5
 70
0
 10
-35.6661315829
 20
-23.1347966153
 10
-35.6942429544
 20
-23.1428042952
 10
-35.7229350312
 20
-23.1491563833
 10
-35.752063814
 20
-23.1537463811
 10
-35.7817733021
 20
-23.1566807871
  0
LINE
  5
57E
100
AcDbEntity
  8
RACCORDO
100
AcDbLine
 62
250
  6
CONTINUOUS
 10
-46.2686083971
 20
23.1043084031
 11
-37.9664267632
 21
23.1767604446
  0
LINE
  5
57F
100
AcDbEntity
  8
RACCORDO
100
AcDbLine
 62
7
  6
CONTINUOUS
 10
-46.8207900309
 20
23.1727481812
 11
-37.9686083971
 21
23.25
  0
LINE
  5
580
100
AcDbEntity
  8
RACCORDO
100
AcDbLine
 62
250
  6
CONTINUOUS
 10
-46.2686083971
 20
22.927685814
 11
-47.0686083971
 21
22.9227577005
  0
LINE
  5
581
100
AcDbEntity
  8
RACCORDO
100
AcDbLine
 62
250
  6
CONTINUOUS
 10
-45.6686083971
 20
23.9174311485
 11
-45.2686083971
 21
23.9174311485
  0
LINE
  5
582
100
AcDbEntity
  8
0
100
AcDbLine
 62
7
  6
CONTINUOUS
 10
-45.2686083971
 20
24.1
 11
-45.6686083971
 21
24.1
  0
LINE
  5
583
100
AcDbEntity
  8
0
100
AcDbLine
 62
250
  6
CONTINUOUS
 10
-45.2686083971
 20
24.4
 11
-45.6686083971
 21
24.4
  0
LINE
  5
584
100
AcDbEntity
  8
0
100
AcDbLine
 62
7
  6
CONTINUOUS
 10
-44.9686083971
 20
24.7
 11
-44.4544454131
 21
24.7
  0
LINE
  5
585
100
AcDbEntity
  8
RACCORDO
100
AcDbLine
 62
250
  6
CONTINUOUS
 10
-37.9664267632
 20
23.1767604446
 11
-35.8120634954
 21
23.1579596012
  0
LINE
  5
586
100
AcDbEntity
  8
RACCORDO
100
AcDbLine
 62
7
  6
CONTINUOUS
 10
-37.9686083971
 20
23.25
 11
-35.8120634954
 21
23.2311801178
  0
LWPOLYLINE
  5
587
100
AcDbEntity
  8
RACCORDO
100
AcDbPolyline
 62
250
  6
CONTINUOUS
 90
9
 70
0
 10
-35.8120634954
 20
23.1579596012
 10
-35.7850788048
 20
23.1571319209
 10
-35.7578455544
 20
23.1546507607
 10
-35.7303637442
 20
23.1505161207
 10
-35.7024855223
 20
23.1447746963
 10
-35.6743587406
 20
23.137379792
 10
-35.6464269548
 20
23.1281913215
 10
-35.618838017
 20
23.1171625891
 10
-35.5914440752
 20
23.1043402904
  0
LWPOLYLINE
  5
588
100
AcDbEntity
  8
RACCORDO
100
AcDbPolyline
 62
250
  6
CONTINUOUS
 90
11
 70
0
 10
-35.5642451293
 20
23.0897244254
 10
-35.5343776756
 20
23.0802652562
 10
-35.5038026483
 20
23.0691259395
 10
-35.472650907
 20
23.0562061931
 10
-35.4410635286
 20
23.0414206119
 10
-35.4092185518
 20
23.0246672241
 10
-35.3773295237
 20
23.0058332097
 10
-35.3455456205
 20
22.9848037696
 10
-35.3141525405
 20
22.9615587319
 10
-35.2835722208
 20
22.9361764301
 10
-35.2540411983
 20
22.9086478551
  0
LINE
  5
589
100
AcDbEntity
  8
0
100
AcDbLine
 62
7
  6
CONTINUOUS
 10
-44.9686083971
 20
25.1
 11
-44.4544454131
 21
25.1
  0
LWPOLYLINE
  5
58A
100
AcDbEntity
  8
0
100
AcDbPolyline
 62
7
  6
CONTINUOUS
 90
8
 70
0
 43
0.3500000006
 10
-34.7257515564
 20
33.850000946
 10
-33.8686090851
 20
33.850000946
 10
-33.4400378494
 20
34.2785699158
 10
-33.4400378494
 20
35.1357123871
 10
-33.8686090851
 20
35.5642858887
 10
-34.7257515564
 20
35.5642858887
 10
-34.7257515564
 20
36.8500018616
 10
-33.4400378494
 20
36.8500018616
  0
LWPOLYLINE
  5
58B
100
AcDbEntity
  8
0
100
AcDbPolyline
 62
7
  6
CONTINUOUS
 90
7
 70
0
 43
0.3500000006
 10
-35.5828940277
 20
33.850000946
 10
-37.0828944855
 20
33.850000946
 10
-35.5828940277
 20
35.9928593903
 10
-35.5828940277
 20
36.42142836
 10
-36.0114652634
 20
36.8500018616
 10
-36.6543232498
 20
36.8500018616
 10
-37.0828944855
 20
36.2071438751
  0
LWPOLYLINE
  5
58C
100
AcDbEntity
  8
0
100
AcDbPolyline
 62
7
  6
CONTINUOUS
 90
6
 70
0
 43
0.3500000006
 10
-40.2114642792
 20
43.8499994659
 10
-39.140037323
 20
43.8499994659
 10
-38.9257528381
 20
44.0642839508
 10
-38.9257528381
 20
45.1357154388
 10
-39.3543218079
 20
45.5642844086
 10
-39.7828953094
 20
45.5642844086
  0
LWPOLYLINE
  5
58D
100
AcDbEntity
  8
0
100
AcDbPolyline
 62
7
  6
CONTINUOUS
 90
8
 70
0
 43
0.3500000006
 10
-38.0686103668
 20
43.8499994659
 10
-37.2114656296
 20
43.8499994659
 10
-36.7828943939
 20
44.2785729675
 10
-36.7828943939
 20
45.1357154388
 10
-37.2114656296
 20
45.5642844086
 10
-38.0686103668
 20
45.5642844086
 10
-38.0686103668
 20
46.8500003815
 10
-36.7828943939
 20
46.8500003815
  0
ARC
  5
58E
100
AcDbEntity
  8
0
100
AcDbCircle
 62
250
  6
CONTINUOUS
 10
0.55
 20
-1.3
 40
3.2339557425
100
AcDbArc
 50
58.0401294456
 51
122.0570485637
  0
ARC
  5
58F
100
AcDbEntity
  8
0
100
AcDbCircle
 62
250
  6
CONTINUOUS
 10
0.55
 20
1.3
 40
3.2339557425
100
AcDbArc
 50
237.9977097468
 51
302.0061953291
  0
ARC
  5
590
100
AcDbEntity
  8
0
100
AcDbCircle
 62
7
  6
CONTINUOUS
 10
0.55
 20
-1.3
 40
3.0000001857
100
AcDbArc
 50
47.1665719517
 51
133.3686816566
  0
ARC
  5
591
100
AcDbEntity
  8
0
100
AcDbCircle
 62
7
  6
CONTINUOUS
 10
0.55
 20
1.3
 40
3.0000001857
100
AcDbArc
 50
226.6464144374
 51
312.8334280483
  0
ARC
  5
592
100
AcDbEntity
  8
0
100
AcDbCircle
 62
7
  6
CONTINUOUS
 10
0.55
 20
-10.8
 40
2.999390827
100
AcDbArc
 50
131.8962071589
 51
132.8334280663
  0
ARC
  5
593
100
AcDbEntity
  8
0
100
AcDbCircle
 62
7
  6
CONTINUOUS
 10
0.55
 20
10.8
 40
2.999390827
100
AcDbArc
 50
311.8962071589
 51
312.8334280663
  0
ARC
  5
594
100
AcDbEntity
  8
ASSI
100
AcDbCircle
 62
7
  6
CONTINUOUS
 10
3.3
 20
-0.8
 40
1.75
100
AcDbArc
 50
152.4156767953
 51
202.7303471244
  0
ARC
  5
595
100
AcDbEntity
  8
RACCORDO
100
AcDbCircle
 62
7
  6
CONTINUOUS
 10
-3.3832662348
 20
-23.9
 40
0.2
100
AcDbArc
 50
270.0
 51
355.0
  0
ARC
  5
596
100
AcDbEntity
  8
RACCORDO
100
AcDbCircle
 62
7
  6
CONTINUOUS
 10
4.4832662348
 20
-23.9
 40
0.2
100
AcDbArc
 50
185.0
 51
270.0
  0
ARC
  5
597
100
AcDbEntity
  8
RACCORDO
100
AcDbCircle
 62
7
  6
CONTINUOUS
 10
4.4832662348
 20
23.9
 40
0.2
100
AcDbArc
 50
90.0
 51
175.0
  0
ARC
  5
598
100
AcDbEntity
  8
RACCORDO
100
AcDbCircle
 62
7
  6
CONTINUOUS
 10
-3.3832662348
 20
23.9
 40
0.2
100
AcDbArc
 50
5.0
 51
90.0
  0
ARC
  5
599
100
AcDbEntity
  8
RACCORDO
100
AcDbCircle
 62
7
  6
CONTINUOUS
 10
-54.2385903812
 20
-16.725620036
 40
1.0
100
AcDbArc
 50
182.2607411921
 51
260.0
  0
ARC
  5
59A
100
AcDbEntity
  8
0
100
AcDbCircle
 62
7
  6
CONTINUOUS
 10
-44.4544454131
 20
-24.4
 40
0.7
100
AcDbArc
 50
270.0
 51
288.0
  0
ARC
  5
59B
100
AcDbEntity
  8
0
100
AcDbCircle
 62
7
  6
CONTINUOUS
 10
-44.9686083971
 20
-24.4
 40
0.7
100
AcDbArc
 50
180.0
 51
270.0
  0
ARC
  5
59C
100
AcDbEntity
  8
0
100
AcDbCircle
 62
7
  6
CONTINUOUS
 10
-44.4544454131
 20
-24.4
 40
0.3
100
AcDbArc
 50
270.0
 51
288.0
  0
ARC
  5
59D
100
AcDbEntity
  8
0
100
AcDbCircle
 62
7
  6
CONTINUOUS
 10
-44.9686083971
 20
-24.4
 40
0.3
100
AcDbArc
 50
180.0
 51
270.0
  0
ARC
  5
59E
100
AcDbEntity
  8
RACCORDO
100
AcDbCircle
 62
7
  6
CONTINUOUS
 10
-46.8186086536
 20
-22.9227576982
 40
0.25
100
AcDbArc
 50
180.0000005131
 51
269.5000587965
  0
ARC
  5
59F
100
AcDbEntity
  8
RACCORDO
100
AcDbCircle
 62
7
  6
CONTINUOUS
 10
-51.3186083971
 20
-22.0169368012
 40
0.25
100
AcDbArc
 50
180.0
 51
269.0
  0
ARC
  5
5A0
100
AcDbEntity
  8
ASSI
100
AcDbCircle
 62
7
  6
CONTINUOUS
 10
-35.8686083971
 20
-21.4
 40
0.9
100
AcDbArc
 50
0.0000002216
 51
21.1947221629
  0
ARC
  5
5A1
100
AcDbEntity
  8
0
100
AcDbCircle
 62
7
  6
CONTINUOUS
 10
-35.8686083971
 20
-21.4
 40
0.9
100
AcDbArc
 50
332.781552181
 51
0.0000002049
  0
ARC
  5
5A2
100
AcDbEntity
  8
RACCORDO
100
AcDbCircle
 62
7
  6
CONTINUOUS
 10
-35.8186083971
 20
-22.4812086755
 40
0.75
100
AcDbArc
 50
270.5
 51
359.9999999999
  0
ARC
  5
5A3
100
AcDbEntity
  8
ASSI
100
AcDbCircle
 62
7
  6
CONTINUOUS
 10
-35.5686083971
 20
-20.2951934464
 40
0.5
100
AcDbArc
 50
271.0
 51
360.0
  0
ARC
  5
5A4
100
AcDbEntity
  8
ASSI
100
AcDbCircle
 62
7
  6
CONTINUOUS
 10
-24.0686083971
 20
-14.9008225374
 40
0.5
100
AcDbArc
 50
271.0
 51
360.0
  0
ARC
  5
5A5
100
AcDbEntity
  8
ASSI
100
AcDbCircle
 62
7
  6
CONTINUOUS
 10
-24.0686083971
 20
-7.1508225374
 40
0.5
100
AcDbArc
 50
271.0
 51
360.0
  0
ARC
  5
5A6
100
AcDbEntity
  8
ASSI
100
AcDbCircle
 62
7
  6
CONTINUOUS
 10
-34.5686083971
 20
-8.3342530472
 40
0.5
100
AcDbArc
 50
91.0
 51
180.0
  0
ARC
  5
5A7
100
AcDbEntity
  8
ASSI
100
AcDbCircle
 62
7
  6
CONTINUOUS
 10
-20.9686083971
 20
-3.2967198489
 40
0.4
100
AcDbArc
 50
270.9999819608
 51
359.9989657995
  0
ARC
  5
5A8
100
AcDbEntity
  8
ASSI
100
AcDbCircle
 62
7
  6
CONTINUOUS
 10
-20.9686083971
 20
-10.9967270689
 40
0.4
100
AcDbArc
 50
271.0
 51
360.0
  0
ARC
  5
5A9
100
AcDbEntity
  8
ASSI
100
AcDbCircle
 62
7
  6
CONTINUOUS
 10
-20.9686083971
 20
-6.0032729311
 40
0.4
100
AcDbArc
 50
0.0
 51
89.0
  0
ARC
  5
5AA
100
AcDbEntity
  8
ASSI
100
AcDbCircle
 62
7
  6
CONTINUOUS
 10
-23.1686083971
 20
-4.1352500742
 40
0.4
100
AcDbArc
 50
90.9999994686
 51
180.0
  0
ARC
  5
5AB
100
AcDbEntity
  8
ASSI
100
AcDbCircle
 62
7
  6
CONTINUOUS
 10
-23.1686083971
 20
-11.8352500742
 40
0.4
100
AcDbArc
 50
91.0
 51
180.0
  0
ARC
  5
5AC
100
AcDbEntity
  8
ASSI
100
AcDbCircle
 62
7
  6
CONTINUOUS
 10
-23.1686083971
 20
-5.1647499258
 40
0.4
100
AcDbArc
 50
180.0
 51
269.0
  0
ARC
  5
5AD
100
AcDbEntity
  8
RACCORDO
100
AcDbCircle
 62
7
  6
CONTINUOUS
 10
-54.2385903812
 20
16.725620036
 40
1.0
100
AcDbArc
 50
100.0
 51
177.7191399906
  0
ARC
  5
5AE
100
AcDbEntity
  8
0
100
AcDbCircle
 62
7
  6
CONTINUOUS
 10
-44.4544454131
 20
24.4
 40
0.7
100
AcDbArc
 50
72.0
 51
90.0
  0
ARC
  5
5AF
100
AcDbEntity
  8
0
100
AcDbCircle
 62
7
  6
CONTINUOUS
 10
-44.9686083971
 20
24.4
 40
0.7
100
AcDbArc
 50
90.0
 51
180.0
  0
ARC
  5
5B0
100
AcDbEntity
  8
0
100
AcDbCircle
 62
7
  6
CONTINUOUS
 10
-44.4544454131
 20
24.4
 40
0.3
100
AcDbArc
 50
72.0
 51
90.0
  0
ARC
  5
5B1
100
AcDbEntity
  8
0
100
AcDbCircle
 62
7
  6
CONTINUOUS
 10
-44.9686083971
 20
24.4
 40
0.3
100
AcDbArc
 50
90.0
 51
180.0
  0
ARC
  5
5B2
100
AcDbEntity
  8
RACCORDO
100
AcDbCircle
 62
7
  6
CONTINUOUS
 10
-46.8186081108
 20
22.922757703
 40
0.25
100
AcDbArc
 50
90.5000656183
 51
180.0000005726
  0
ARC
  5
5B3
100
AcDbEntity
  8
RACCORDO
100
AcDbCircle
 62
7
  6
CONTINUOUS
 10
-51.3186083971
 20
22.0169368012
 40
0.25
100
AcDbArc
 50
91.0
 51
180.0
  0
ARC
  5
5B4
100
AcDbEntity
  8
ASSI
100
AcDbCircle
 62
7
  6
CONTINUOUS
 10
-20.9686083971
 20
10.9967270689
 40
0.4
100
AcDbArc
 50
0.0
 51
89.0
  0
ARC
  5
5B5
100
AcDbEntity
  8
ASSI
100
AcDbCircle
 62
7
  6
CONTINUOUS
 10
-20.9686083971
 20
6.0032729311
 40
0.4
100
AcDbArc
 50
271.0
 51
360.0
  0
ARC
  5
5B6
100
AcDbEntity
  8
ASSI
100
AcDbCircle
 62
7
  6
CONTINUOUS
 10
-20.9686083971
 20
1.6967270689
 40
0.4
100
AcDbArc
 50
0.0
 51
89.0
  0
ARC
  5
5B7
100
AcDbEntity
  8
ASSI
100
AcDbCircle
 62
7
  6
CONTINUOUS
 10
-23.1686083971
 20
11.8352500742
 40
0.4
100
AcDbArc
 50
180.0
 51
269.0
  0
ARC
  5
5B8
100
AcDbEntity
  8
ASSI
100
AcDbCircle
 62
7
  6
CONTINUOUS
 10
-23.1686083971
 20
5.1647499258
 40
0.4
100
AcDbArc
 50
90.9999994686
 51
180.0
  0
ARC
  5
5B9
100
AcDbEntity
  8
ASSI
100
AcDbCircle
 62
7
  6
CONTINUOUS
 10
-23.1686083971
 20
2.5352500715
 40
0.3999999988
100
AcDbArc
 50
179.9999996168
 51
269.0
  0
ARC
  5
5BA
100
AcDbEntity
  8
ASSI
100
AcDbCircle
 62
7
  6
CONTINUOUS
 10
-35.8686083971
 20
21.4
 40
0.9
100
AcDbArc
 50
338.8052778371
 51
359.9999997784
  0
ARC
  5
5BB
100
AcDbEntity
  8
0
100
AcDbCircle
 62
7
  6
CONTINUOUS
 10
-35.8686083971
 20
21.4
 40
0.9
100
AcDbArc
 50
359.9999997951
 51
27.218447819
  0
ARC
  5
5BC
100
AcDbEntity
  8
RACCORDO
100
AcDbCircle
 62
7
  6
CONTINUOUS
 10
-35.8186083971
 20
22.4812086755
 40
0.75
100
AcDbArc
 50
0.0
 51
89.5
  0
ARC
  5
5BD
100
AcDbEntity
  8
ASSI
100
AcDbCircle
 62
7
  6
CONTINUOUS
 10
-35.5686083971
 20
20.2951934464
 40
0.5
100
AcDbArc
 50
0.0
 51
89.0
  0
ARC
  5
5BE
100
AcDbEntity
  8
ASSI
100
AcDbCircle
 62
7
  6
CONTINUOUS
 10
-24.0686083971
 20
14.9008225374
 40
0.5
100
AcDbArc
 50
0.0
 51
89.0
  0
ARC
  5
5BF
100
AcDbEntity
  8
RACCORDO
100
AcDbCircle
 62
7
  6
CONTINUOUS
 10
-35.3186083971
 20
21.2263696128
 40
0.25
100
AcDbArc
 50
270.5
 51
360.0
  0
ARC
  5
5C0
100
AcDbEntity
  8
RACCORDO
100
AcDbCircle
 62
7
  6
CONTINUOUS
 10
369.4313916029
 20
0.0
 40
425.0
100
AcDbArc
 50
177.739207044
 51
182.2607456176
  0
ELLIPSE
  5
5C1
100
AcDbEntity
  8
RACCORDO
100
AcDbEllipse
 62
7
  6
CONTINUOUS
 10
4.6538497267
 20
22.6965394526
 30
0.0
 11
0.0
 21
0.2
 31
0.0
 40
0.0087268678
 41
3.1590459461
 42
4.7123889804
  0
ELLIPSE
  5
5C2
100
AcDbEntity
  8
RACCORDO
100
AcDbEllipse
 62
7
  6
CONTINUOUS
 10
-3.5538497267
 20
22.6965394526
 30
0.0
 11
-0.0
 21
0.2
 31
0.0
 40
0.0087268678
 41
1.5707963268
 42
3.1241393611
  0
ELLIPSE
  5
5C3
100
AcDbEntity
  8
RACCORDO
100
AcDbEllipse
 62
7
  6
CONTINUOUS
 10
-3.5538497267
 20
-22.6965394526
 30
0.0
 11
-0.0
 21
0.2
 31
0.0
 40
0.0087268678
 41
6.3006385997
 42
7.853981634
  0
ELLIPSE
  5
5C4
100
AcDbEntity
  8
RACCORDO
100
AcDbEllipse
 62
7
  6
CONTINUOUS
 10
4.6538497267
 20
-22.6965394526
 30
0.0
 11
0.0
 21
0.2
 31
0.0
 40
0.0087268678
 41
4.7123889804
 42
6.2657320147
  0
ELLIPSE
  5
5C5
100
AcDbEntity
  8
RACCORDO
100
AcDbEllipse
 62
7
  6
CONTINUOUS
 10
11.1807913713
 20
22.1050848791
 30
0.0
 11
0.1118178731
 21
0.2236527791
 31
0.0
 40
0.9998096356
 41
-1.1071030277
 42
0.4635410001
  0
ELLIPSE
  5
5C6
100
AcDbEntity
  8
RACCORDO
100
AcDbEllipse
 62
7
  6
CONTINUOUS
 10
-10.0807913713
 20
22.1050848791
 30
0.0
 11
-0.1118178731
 21
0.2236527791
 31
0.0
 40
0.9998096356
 41
-0.4635410001
 42
1.1071030277
  0
ELLIPSE
  5
5C7
100
AcDbEntity
  8
RACCORDO
100
AcDbEllipse
 62
7
  6
CONTINUOUS
 10
11.1807913713
 20
-22.1050848791
 30
0.0
 11
-0.1118178731
 21
0.2236527791
 31
0.0
 40
0.9998096356
 41
-3.6051336537
 42
-2.0344896259
  0
ELLIPSE
  5
5C8
100
AcDbEntity
  8
RACCORDO
100
AcDbEllipse
 62
7
  6
CONTINUOUS
 10
-10.0807913713
 20
-22.1050848791
 30
0.0
 11
0.1118178731
 21
0.2236527791
 31
0.0
 40
0.9998096356
 41
-4.2486956813
 42
-2.6780516535
  0
ELLIPSE
  5
5C9
100
AcDbEntity
  8
RACCORDO
100
AcDbEllipse
 62
7
  6
CONTINUOUS
 10
-5.9000095196
 20
-22.9999904804
 30
0.0
 11
0.1767901578
 21
-0.1767901578
 31
0.0
 40
0.9999238505
 41
-0.7853600872
 42
0.7853600872
  0
ELLIPSE
  5
5CA
100
AcDbEntity
  8
RACCORDO
100
AcDbEllipse
 62
7
  6
CONTINUOUS
 10
7.0000095196
 20
-22.9999904804
 30
0.0
 11
0.1767901578
 21
0.1767901578
 31
0.0
 40
0.9999238505
 41
-3.9269527408
 42
-2.3562325664
  0
ELLIPSE
  5
5CB
100
AcDbEntity
  8
RACCORDO
100
AcDbEllipse
 62
7
  6
CONTINUOUS
 10
7.0000095196
 20
22.9999904804
 30
0.0
 11
0.1767901578
 21
-0.1767901578
 31
0.0
 40
0.9999238505
 41
-2.8798092881
 42
-2.3562325664
  0
ELLIPSE
  5
5CC
100
AcDbEntity
  8
RACCORDO
100
AcDbEllipse
 62
7
  6
CONTINUOUS
 10
7.0000095196
 20
22.9999904804
 30
0.0
 11
-0.1767901578
 21
0.1767901578
 31
0.0
 40
0.9999238505
 41
-0.7853600872
 42
0.2617833655
  0
ELLIPSE
  5
5CD
100
AcDbEntity
  8
RACCORDO
100
AcDbEllipse
 62
7
  6
CONTINUOUS
 10
7.6720290259
 20
22.3559957143
 30
0.0
 11
0.85
 21
0.0
 31
0.0
 40
0.0174550649
 41
-3.1328660073
 42
-1.5707963268
  0
ELLIPSE
  5
5CE
100
AcDbEntity
  8
RACCORDO
100
AcDbEllipse
 62
7
  6
CONTINUOUS
 10
7.7014718626
 20
22.3559957143
 30
0.0
 11
0.85
 21
0.0
 31
0.0
 40
0.0174550649
 41
-1.5707963268
 42
-0.0588575059
  0
ELLIPSE
  5
5CF
100
AcDbEntity
  8
RACCORDO
100
AcDbEllipse
 62
7
  6
CONTINUOUS
 10
-6.5720290259
 20
22.3559957143
 30
0.0
 11
0.85
 21
0.0
 31
0.0
 40
0.0174550649
 41
-1.5707963268
 42
-0.0087266463
  0
ELLIPSE
  5
5D0
100
AcDbEntity
  8
RACCORDO
100
AcDbEllipse
 62
7
  6
CONTINUOUS
 10
-6.6014718626
 20
22.3559957143
 30
0.0
 11
0.85
 21
-0.0
 31
0.0
 40
0.0174550649
 41
-3.0827351476
 42
-1.5707963268
  0
ELLIPSE
  5
5D1
100
AcDbEntity
  8
RACCORDO
100
AcDbEllipse
 62
7
  6
CONTINUOUS
 10
7.7014718626
 20
-22.3559957143
 30
0.0
 11
0.85
 21
0.0
 31
0.0
 40
0.0174550649
 41
0.0588575059
 42
1.5707963268
  0
ELLIPSE
  5
5D2
100
AcDbEntity
  8
RACCORDO
100
AcDbEllipse
 62
7
  6
CONTINUOUS
 10
7.6720290259
 20
-22.3559957143
 30
0.0
 11
0.85
 21
0.0
 31
0.0
 40
0.0174550649
 41
1.5707963268
 42
3.1328660073
  0
ELLIPSE
  5
5D3
100
AcDbEntity
  8
RACCORDO
100
AcDbEllipse
 62
7
  6
CONTINUOUS
 10
-6.5720290259
 20
-22.3559957143
 30
0.0
 11
0.85
 21
0.0
 31
0.0
 40
0.0174550649
 41
0.0087266463
 42
1.5707963268
  0
ELLIPSE
  5
5D4
100
AcDbEntity
  8
RACCORDO
100
AcDbEllipse
 62
7
  6
CONTINUOUS
 10
-6.6014718626
 20
-22.3559957143
 30
0.0
 11
0.85
 21
0.0
 31
0.0
 40
0.0174550649
 41
1.5707963268
 42
3.0827351476
  0
ELLIPSE
  5
5D5
100
AcDbEntity
  8
RACCORDO
100
AcDbEllipse
 62
7
  6
CONTINUOUS
 10
-5.6517453736
 20
22.6965394526
 30
0.0
 11
0.0
 21
0.2
 31
0.0
 40
0.0087268678
 41
3.1590459461
 42
4.7123889804
  0
ELLIPSE
  5
5D6
100
AcDbEntity
  8
RACCORDO
100
AcDbEllipse
 62
7
  6
CONTINUOUS
 10
6.7517453736
 20
22.6965394526
 30
0.0
 11
-0.0
 21
0.2
 31
0.0
 40
0.0087268678
 41
-4.7123889804
 42
-3.1590459461
  0
ELLIPSE
  5
5D7
100
AcDbEntity
  8
RACCORDO
100
AcDbEllipse
 62
7
  6
CONTINUOUS
 10
-5.9000095196
 20
22.9999904804
 30
0.0
 11
0.1767901578
 21
0.1767901578
 31
0.0
 40
0.9999238505
 41
-0.7853600872
 42
0.7853600872
  0
ELLIPSE
  5
5D8
100
AcDbEntity
  8
RACCORDO
100
AcDbEllipse
 62
7
  6
CONTINUOUS
 10
-5.6517453736
 20
-22.6965394526
 30
0.0
 11
0.0
 21
0.2
 31
0.0
 40
0.0087268678
 41
-1.5707963268
 42
-0.0174532925
  0
ELLIPSE
  5
5D9
100
AcDbEntity
  8
RACCORDO
100
AcDbEllipse
 62
7
  6
CONTINUOUS
 10
6.7517453736
 20
-22.6965394526
 30
0.0
 11
-0.0
 21
0.2
 31
0.0
 40
0.0087268678
 41
6.3006385997
 42
7.853981634
  0
ELLIPSE
  5
5DA
100
AcDbEntity
  8
RACCORDO
100
AcDbEllipse
 62
7
  6
CONTINUOUS
 10
11.1389024059
 20
18.046143347
 30
0.0
 11
0.012549111
 21
0.2535556743
 31
0.0
 40
0.9847713852
 41
-1.5205806929
 42
0.0487002863
  0
ELLIPSE
  5
5DB
100
AcDbEntity
  8
RACCORDO
100
AcDbEllipse
 62
7
  6
CONTINUOUS
 10
11.1389024059
 20
-18.046143347
 30
0.0
 11
-0.012549111
 21
0.2535556743
 31
0.0
 40
0.9847713852
 41
-3.1902929399
 42
-1.6210119607
  0
ELLIPSE
  5
5DC
100
AcDbEntity
  8
RACCORDO
100
AcDbEllipse
 62
7
  6
CONTINUOUS
 10
-10.0389024059
 20
-18.046143347
 30
0.0
 11
0.012549111
 21
0.2535556743
 31
0.0
 40
0.9847713852
 41
-4.6621733465
 42
-3.0928923672
  0
ELLIPSE
  5
5DD
100
AcDbEntity
  8
RACCORDO
100
AcDbEllipse
 62
7
  6
CONTINUOUS
 10
-10.0389024059
 20
18.046143347
 30
0.0
 11
-0.012549111
 21
0.2535556743
 31
0.0
 40
0.9847713852
 41
-0.0487002863
 42
1.5205806929
  0
ENDSEC
  0
SECTION
  2
OBJECTS
  0
DICTIONARY
  5
C
100
AcDbDictionary
280
0
281
1
  3
ACAD_GROUP
350
D
  3
ACAD_MLINESTYLE
350
17
  3
ACAD_LAYOUT
350
1A
  3
ACAD_PLOTSETTINGS
350
19
  3
ACAD_PLOTSTYLENAME
350
E
  0
DICTIONARY
  5
D
102
{ACAD_REACTORS
330
C
102
}
100
AcDbDictionary
280
0
281
1
  0
ACDBDICTIONARYWDFLT
  5
E
102
{ACAD_REACTORS
330
C
102
}
100
AcDbDictionary
281
1
  3
Normal
350
F
100
AcDbDictionaryWithDefault
340
F
  0
DICTIONARY
  5
17
102
{ACAD_REACTORS
330
C
102
}
100
AcDbDictionary
280
0
281
1
  3
Standard
350
18
  0
DICTIONARY
  5
19
102
{ACAD_REACTORS
330
C
102
}
100
AcDbDictionary
281
1
  0
DICTIONARY
  5
1A
102
{ACAD_REACTORS
330
C
102
}
100
AcDbDictionary
281
1
  3
Model
350
5DE
  3
Layout1
350
5DF
  0
ACDBPLACEHOLDER
  5
F
102
{ACAD_REACTORS
330
E
102
}
  0
MLINESTYLE
  5
18
102
{ACAD_REACTORS
330
17
102
}
100
AcDbMlineStyle
  2
STANDARD
 70
0
  3

 62
256
 51
90.0
 52
90.0
 71
2
 49
0.5
 62
256
  6
BYLAYER
 49
-0.5
 62
256
  6
BYLAYER
  0
LAYOUT
  5
5DE
102
{ACAD_REACTORS
330
1A
102
}
100
AcDbPlotSettings
  1

  2
none_device
  4
ISO_A4_(297.00_x_210.00_MM)
  6

 40
0.0
 41
0.0
 42
0.0
 43
0.0
 44
297.0
 45
210.0
 46
0.0
 47
0.0
 48
0.0
 49
0.0
140
0.0
141
0.0
142
1.0
143
1.0
 70
1024
 72
1
 73
0
 74
0
  7

 75
0
147
1.0
148
0.0
149
0.0
100
AcDbLayout
  1
Model
 70
0
 71
0
 10
0.0
 20
0.0
 11
297.0
 21
210.0
 12
0.0
 22
0.0
 32
0.0
 14
0.0
 24
0.0
 34
0.0
 15
0.0
 25
0.0
 35
0.0
146
0.0
 13
0.0
 23
0.0
 33
0.0
 16
1.0
 26
0.0
 36
0.0
 17
0.0
 27
1.0
 37
0.0
 76
0
330
221
345
0
346
0
  0
LAYOUT
  5
5DF
102
{ACAD_REACTORS
330
1A
102
}
100
AcDbPlotSettings
  1

  2
none_device
  4
ISO_A4_(297.00_x_210.00_MM)
  6

 40
0.0
 41
0.0
 42
0.0
 43
0.0
 44
297.0
 45
210.0
 46
0.0
 47
0.0
 48
0.0
 49
0.0
140
0.0
141
0.0
142
1.0
143
1.0
 70
0
 72
1
 73
0
 74
0
  7

 75
0
147
1.0
148
0.0
149
0.0
100
AcDbLayout
  1
Layout1
 70
0
 71
1
 10
0.0
 20
0.0
 11
297.0
 21
210.0
 12
0.0
 22
0.0
 32
0.0
 14
0.0
 24
0.0
 34
0.0
 15
0.0
 25
0.0
 35
0.0
146
0.0
 13
0.0
 23
0.0
 33
0.0
 16
1.0
 26
0.0
 36
0.0
 17
0.0
 27
1.0
 37
0.0
 76
0
330
222
345
0
346
0
  0
ENDSEC
  0
EOF
