  0
SECTION
  2
HEADER
  9
$ACADVER
  1
AC1024
  9
$DWGCODEPAGE
  3
ANSI_1252
  9
$EXTMAX
 10
297.0
 20
210.0
 30
0.0
  9
$EXTMIN
 10
0.0
 20
0.0
 30
0.0
  9
$LIMMIN
 10
0.0
 20
0.0
  9
$LIMMAX
 10
297.0
 20
210.0
  9
$VIEWCTR
 10
148.5
 20
105.0
  9
$VIEWSIZE
 40
210.0
  9
$CLAYER
  8
0
  9
$LTSCALE
 40
16.335
  9
$CELTYPE
  6
BYLAYER
  9
$DIMSCALE
 40
1.0
  9
$DIMASZ
 40
3.0
  9
$DIMEXO
 40
0.5
  9
$DIMDLI
 40
11.286
  9
$DIMEXE
 40
1.5
  9
$DIMCEN
 40
2.673
  9
$DIMLFAC
 40
1.0
  9
$DIMBLK
  1
_FILLED
  9
$DIMALT
 70
0
  9
$DIMALTF
 40
0.0393700787
  9
$DIMTXT
 40
3.0
  9
$DIMTOL
 70
1
  9
$DIMLIM
 70
0
  9
$DIMTFAC
 40
1.0
  9
$DIMTP
 40
0.01
  9
$DIMTM
 40
0.01
  9
$DIMGAP
 40
0.625
  9
$DIMDSEP
 70
44
  9
$AUNITS
 70
0
  9
$PDMODE
 70
3
  9
$PDSIZE
 40
3.0
  9
$HANDSEED
  5
671
  9
$TILEMODE
 70
1
  9
$MEASUREMENT
 70
1
  9
$INSUNITS
 70
4
  0
ENDSEC
  0
SECTION
  2
CLASSES
  0
CLASS
  1
ACDBDICTIONARYWDFLT
  2
AcDbDictionaryWithDefault
  3
AutoCAD 2000
 90
0
 91
1
280
0
281
0
  0
CLASS
  1
ACDBPLACEHOLDER
  2
AcDbPlaceHolder
  3
AutoCAD 2000
 90
0
 91
1
280
0
281
0
  0
CLASS
  1
LAYOUT
  2
AcDbLayout
  3
AutoCAD 2000
 90
0
 91
0
280
0
281
0
  0
ENDSEC
  0
SECTION
  2
TABLES
  0
TABLE
  2
VPORT
  5
8
100
AcDbSymbolTable
 70
2
  0
VPORT
  5
1F4
100
AcDbSymbolTableRecord
100
AcDbViewportTableRecord
  2
*ACTIVE
 70
0
 10
0.0
 20
0.0
 11
1.0
 21
1.0
 12
148.5
 22
105.0
 13
0.0
 23
0.0
 14
1.0
 24
1.0
 15
0.0
 25
0.0
 16
0.0
 26
0.0
 36
1.0
 17
0.0
 27
0.0
 37
0.0
 40
210.0
 41
1.4142857143
 42
50.0
 43
0.0
 44
0.0
 50
0.0
 51
0.0
 71
0
 72
100
 73
1
 74
1
 75
0
 76
0
 77
0
 78
0
  0
ENDTAB
  0
TABLE
  2
LTYPE
  5
5
100
AcDbSymbolTable
 70
6
  0
LTYPE
  5
14
100
AcDbSymbolTableRecord
100
AcDbLinetypeTableRecord
  2
BYBLOCK
 70
0
  3

 72
65
 73
0
 40
0.0
  0
LTYPE
  5
15
100
AcDbSymbolTableRecord
100
AcDbLinetypeTableRecord
  2
BYLAYER
 70
0
  3

 72
65
 73
0
 40
0.0
  0
LTYPE
  5
16
100
AcDbSymbolTableRecord
100
AcDbLinetypeTableRecord
  2
CONTINUOUS
 70
64
  3
Solid line
 72
65
 73
0
 40
0.0
  0
LTYPE
  5
1F5
100
AcDbSymbolTableRecord
100
AcDbLinetypeTableRecord
  2
CENTER
 70
64
  3
____ _ ____ _ ____ _ ____ _ ____ _ ____ _ ____
 72
65
 73
4
 40
0.6
 49
0.375
 74
0
 49
-0.075
 74
0
 49
0.075
 74
0
 49
-0.075
 74
0
  0
LTYPE
  5
1F6
100
AcDbSymbolTableRecord
100
AcDbLinetypeTableRecord
  2
HIDDEN
 70
64
  3
- - - - - - - - - - - - - - - - - - - -
 72
65
 73
2
 40
0.2
 49
0.1
 74
0
 49
-0.1
 74
0
  0
LTYPE
  5
1F7
100
AcDbSymbolTableRecord
100
AcDbLinetypeTableRecord
  2
PHANTOM
 70
64
  3
_____ _ _ _____ _ _ _____ _ _ _____
 72
65
 73
6
 40
0.8
 49
0.45
 74
0
 49
-0.05
 74
0
 49
0.1
 74
0
 49
-0.05
 74
0
 49
0.1
 74
0
 49
-0.05
 74
0
  0
LTYPE
  5
1F8
100
AcDbSymbolTableRecord
100
AcDbLinetypeTableRecord
  2
DOT
 70
64
  3
. . . . . . . . . . . . . . . . . . . .
 72
65
 73
2
 40
0.2
 49
0.1
 74
0
 49
-0.1
 74
0
  0
LTYPE
  5
1F9
100
AcDbSymbolTableRecord
100
AcDbLinetypeTableRecord
  2
DASHED
 70
64
  3
- - - - - - - - - - - - - - - - - - - -
 72
65
 73
2
 40
0.2
 49
0.1
 74
0
 49
-0.1
 74
0
  0
ENDTAB
  0
TABLE
  2
LAYER
  5
2
100
AcDbSymbolTable
 70
36
  0
LAYER
  5
10
100
AcDbSymbolTableRecord
100
AcDbLayerTableRecord
  2
0
 70
0
 62
7
  6
CONTINUOUS
370
-3
390
F
  0
LAYER
  5
1FA
100
AcDbSymbolTableRecord
100
AcDbLayerTableRecord
  2
DEFAULT_1
 70
0
 62
7
  6
CENTER
370
-3
390
F
  0
LAYER
  5
1FB
100
AcDbSymbolTableRecord
100
AcDbLayerTableRecord
  2
DEFAULT_2
 70
0
 62
7
  6
HIDDEN
370
-3
390
F
  0
LAYER
  5
1FC
100
AcDbSymbolTableRecord
100
AcDbLayerTableRecord
  2
DEFAULT_3
 70
0
 62
7
  6
PHANTOM
370
-3
390
F
  0
LAYER
  5
1FD
100
AcDbSymbolTableRecord
100
AcDbLayerTableRecord
  2
300081450
 70
0
 62
7
  6
CONTINUOUS
370
-3
390
F
  0
LAYER
  5
1FE
100
AcDbSymbolTableRecord
100
AcDbLayerTableRecord
  2
ASSI
 70
0
 62
7
  6
CONTINUOUS
370
-3
390
F
  0
LAYER
  5
1FF
100
AcDbSymbolTableRecord
100
AcDbLayerTableRecord
  2
COORDINATE
 70
0
 62
7
  6
CONTINUOUS
370
-3
390
F
  0
LAYER
  5
200
100
AcDbSymbolTableRecord
100
AcDbLayerTableRecord
  2
COORD_ORIGINE
 70
0
 62
7
  6
CONTINUOUS
370
-3
390
F
  0
LAYER
  5
201
100
AcDbSymbolTableRecord
100
AcDbLayerTableRecord
  2
COPY-PUBBLISH
 70
0
 62
7
  6
CONTINUOUS
370
-3
390
F
  0
LAYER
  5
202
100
AcDbSymbolTableRecord
100
AcDbLayerTableRecord
  2
COSMETICHE
 70
0
 62
7
  6
CONTINUOUS
370
-3
390
F
  0
LAYER
  5
203
100
AcDbSymbolTableRecord
100
AcDbLayerTableRecord
  2
COSMETICI
 70
0
 62
7
  6
CONTINUOUS
370
-3
390
F
  0
LAYER
  5
204
100
AcDbSymbolTableRecord
100
AcDbLayerTableRecord
  2
CURVE
 70
0
 62
7
  6
CONTINUOUS
370
-3
390
F
  0
LAYER
  5
205
100
AcDbSymbolTableRecord
100
AcDbLayerTableRecord
  2
CURVE1
 70
0
 62
7
  6
CONTINUOUS
370
-3
390
F
  0
LAYER
  5
206
100
AcDbSymbolTableRecord
100
AcDbLayerTableRecord
  2
DRAFT
 70
0
 62
7
  6
CONTINUOUS
370
-3
390
F
  0
LAYER
  5
207
100
AcDbSymbolTableRecord
100
AcDbLayerTableRecord
  2
IGES
 70
0
 62
7
  6
CONTINUOUS
370
-3
390
F
  0
LAYER
  5
208
100
AcDbSymbolTableRecord
100
AcDbLayerTableRecord
  2
INTF_1
 70
0
 62
7
  6
CONTINUOUS
370
-3
390
F
  0
LAYER
  5
209
100
AcDbSymbolTableRecord
100
AcDbLayerTableRecord
  2
INTF_2
 70
0
 62
7
  6
CONTINUOUS
370
-3
390
F
  0
LAYER
  5
20A
100
AcDbSymbolTableRecord
100
AcDbLayerTableRecord
  2
LAY0001
 70
0
 62
7
  6
CONTINUOUS
370
-3
390
F
  0
LAYER
  5
20B
100
AcDbSymbolTableRecord
100
AcDbLayerTableRecord
  2
LAYER_PIANI_CONTATTI
 70
0
 62
7
  6
CONTINUOUS
370
-3
390
F
  0
LAYER
  5
20C
100
AcDbSymbolTableRecord
100
AcDbLayerTableRecord
  2
LAYER_RIFERIMENTO
 70
0
 62
7
  6
CONTINUOUS
370
-3
390
F
  0
LAYER
  5
20D
100
AcDbSymbolTableRecord
100
AcDbLayerTableRecord
  2
NOTE
 70
0
 62
7
  6
CONTINUOUS
370
-3
390
F
  0
LAYER
  5
20E
100
AcDbSymbolTableRecord
100
AcDbLayerTableRecord
  2
PIANI
 70
0
 62
7
  6
CONTINUOUS
370
-3
390
F
  0
LAYER
  5
20F
100
AcDbSymbolTableRecord
100
AcDbLayerTableRecord
  2
PIANI_DI_RIFERIMENTO
 70
0
 62
7
  6
CONTINUOUS
370
-3
390
F
  0
LAYER
  5
210
100
AcDbSymbolTableRecord
100
AcDbLayerTableRecord
  2
PIANI_ORIGINE
 70
0
 62
7
  6
CONTINUOUS
370
-3
390
F
  0
LAYER
  5
211
100
AcDbSymbolTableRecord
100
AcDbLayerTableRecord
  2
PUNTI
 70
0
 62
7
  6
CONTINUOUS
370
-3
390
F
  0
LAYER
  5
212
100
AcDbSymbolTableRecord
100
AcDbLayerTableRecord
  2
RACCORDO
 70
0
 62
7
  6
CONTINUOUS
370
-3
390
F
  0
LAYER
  5
213
100
AcDbSymbolTableRecord
100
AcDbLayerTableRecord
  2
RGB__255__255__255__
 70
0
 62
7
  6
CONTINUOUS
370
-3
390
F
  0
LAYER
  5
214
100
AcDbSymbolTableRecord
100
AcDbLayerTableRecord
  2
RGB____0____0____0__
 70
0
 62
7
  6
CONTINUOUS
370
-3
390
F
  0
LAYER
  5
215
100
AcDbSymbolTableRecord
100
AcDbLayerTableRecord
  2
SMUSSO
 70
0
 62
7
  6
CONTINUOUS
370
-3
390
F
  0
LAYER
  5
216
100
AcDbSymbolTableRecord
100
AcDbLayerTableRecord
  2
SNAPLINE
 70
0
 62
7
  6
CONTINUOUS
370
-3
390
F
  0
LAYER
  5
217
100
AcDbSymbolTableRecord
100
AcDbLayerTableRecord
  2
SUPERFICI
 70
0
 62
7
  6
CONTINUOUS
370
-3
390
F
  0
LAYER
  5
218
100
AcDbSymbolTableRecord
100
AcDbLayerTableRecord
  2
TRASH
 70
0
 62
7
  6
CONTINUOUS
370
-3
390
F
  0
LAYER
  5
219
100
AcDbSymbolTableRecord
100
AcDbLayerTableRecord
  2
XSEC_DATUMS
 70
0
 62
7
  6
CONTINUOUS
370
-3
390
F
  0
ENDTAB
  0
TABLE
  2
STYLE
  5
3
100
AcDbSymbolTable
 70
1
  0
STYLE
  5
11
100
AcDbSymbolTableRecord
100
AcDbTextStyleTableRecord
  2
STANDARD
 70
0
 40
0.0
 41
0.8
 50
0.0
 71
0
 42
0.2
  3
txt
  4

  0
STYLE
  5
21A
100
AcDbSymbolTableRecord
100
AcDbTextStyleTableRecord
  2
TEXTSTYLE_1
 70
0
 40
0.0
 41
0.8
 50
0.0
 71
0
 42
0.2
  3
gdt
  4

  0
ENDTAB
  0
TABLE
  2
VIEW
  5
6
100
AcDbSymbolTable
 70
0
  0
ENDTAB
  0
TABLE
  2
UCS
  5
7
100
AcDbSymbolTable
 70
0
  0
ENDTAB
  0
TABLE
  2
APPID
  5
9
100
AcDbSymbolTable
 70
1
  0
APPID
  5
21B
100
AcDbSymbolTableRecord
100
AcDbRegAppTableRecord
  2
ACAD
 70
0
  0
ENDTAB
  0
TABLE
  2
BLOCK_RECORD
  5
1
100
AcDbSymbolTable
 70
0
  0
BLOCK_RECORD
  5
21C
100
AcDbSymbolTableRecord
100
AcDbBlockTableRecord
  2
*Model_Space
  0
BLOCK_RECORD
  5
21D
100
AcDbSymbolTableRecord
100
AcDbBlockTableRecord
  2
*Paper_Space
  0
BLOCK_RECORD
  5
21E
100
AcDbSymbolTableRecord
100
AcDbBlockTableRecord
  2
_FILLED
  0
BLOCK_RECORD
  5
21F
100
AcDbSymbolTableRecord
100
AcDbBlockTableRecord
  2
*D0
  0
BLOCK_RECORD
  5
220
100
AcDbSymbolTableRecord
100
AcDbBlockTableRecord
  2
*D1
  0
BLOCK_RECORD
  5
221
100
AcDbSymbolTableRecord
100
AcDbBlockTableRecord
  2
*D2
  0
BLOCK_RECORD
  5
222
100
AcDbSymbolTableRecord
100
AcDbBlockTableRecord
  2
*D3
  0
ENDTAB
  0
TABLE
  2
DIMSTYLE
  5
A
100
AcDbSymbolTable
 70
1
100
AcDbDimStyleTable
 71
0
  0
DIMSTYLE
105
223
100
AcDbSymbolTableRecord
100
AcDbDimStyleTableRecord
  2
STANDARD
 70
0
  3

  4

 40
1.0
 41
3.0
 42
0.5
 43
0.38
 44
1.5
 45
0.0
 46
0.0
 47
0.01
 48
0.01
140
3.0
141
0.09
142
0.0
143
25.4
144
1.0
145
0.0
146
1.0
147
0.625
 71
1
 72
0
 73
0
 74
0
 75
0
 76
0
 77
1
 78
8
 79
2
170
0
171
1
172
0
173
0
174
0
175
0
176
0
177
0
178
0
270
2
179
2
271
2
272
2
273
2
274
2
275
0
280
0
281
0
282
0
283
1
284
8
285
0
286
0
287
3
288
0
340
11
278
44
341
21E
342
21E
343
21E
344
21E
  0
DIMSTYLE
105
224
100
AcDbSymbolTableRecord
100
AcDbDimStyleTableRecord
  2
DIMSTYLE_1
 70
0
  3

  4

 40
1.0
 41
3.0
 42
0.5
 43
0.38
 44
1.5
 45
0.0
 46
0.0
 47
0.0
 48
0.0
140
3.0
141
0.09
142
0.0
143
25.4
144
1.0
145
0.0
146
1.0
147
0.75
 71
0
 72
0
 73
0
 74
0
 75
0
 76
0
 77
1
 78
8
 79
2
170
0
171
1
172
0
173
0
174
0
175
0
176
0
177
0
178
0
270
2
179
2
271
2
272
2
273
2
274
2
275
0
280
0
281
0
282
0
283
1
284
8
285
0
286
0
287
3
288
0
340
11
278
44
341
21E
342
21E
343
21E
344
21E
  0
ENDTAB
  0
ENDSEC
  0
SECTION
  2
BLOCKS
  0
BLOCK
  5
20
100
AcDbEntity
  8
0
100
AcDbBlockBegin
  2
*Model_Space
 70
0
 10
0.0
 20
0.0
 30
0.0
  3
*Model_Space
  1

  0
ENDBLK
  5
21
100
AcDbEntity
  8
0
100
AcDbBlockEnd
  0
BLOCK
  5
1C
100
AcDbEntity
  8
0
100
AcDbBlockBegin
  2
*Paper_Space
 70
0
 10
0.0
 20
0.0
 30
0.0
  3
*Paper_Space
  1

  0
ENDBLK
  5
1D
100
AcDbEntity
  8
0
100
AcDbBlockEnd
  0
BLOCK
  5
225
100
AcDbEntity
  8
0
100
AcDbBlockBegin
  2
_FILLED
 70
64
 10
0.0
 20
0.0
  3
_FILLED
  1

  0
SOLID
  5
226
100
AcDbEntity
  8
0
  6
BYBLOCK
 62
0
100
AcDbTrace
 10
0.0
 20
0.0
 11
-1.0
 21
0.3166666667
 12
-1.0
 22
-0.3166666667
 13
-1.0
 23
-0.3166666667
  0
ENDBLK
  5
227
100
AcDbEntity
  8
0
  6
BYBLOCK
 62
0
100
AcDbBlockEnd
  0
BLOCK
  5
228
100
AcDbEntity
  8
0
100
AcDbBlockBegin
 62
7
  6
CONTINUOUS
  2
*D0
 70
65
 10
0.0
 20
0.0
  3
*D0
  1

  0
LINE
  5
229
100
AcDbEntity
  8
0
100
AcDbLine
 62
7
  6
CONTINUOUS
 10
-10.9
 20
19.9434092398
 11
-10.9
 21
34.5
  0
LINE
  5
22A
100
AcDbEntity
  8
0
100
AcDbLine
 62
7
  6
CONTINUOUS
 10
10.9
 20
19.9434092398
 11
10.9
 21
34.5
  0
LINE
  5
22B
100
AcDbEntity
  8
0
100
AcDbLine
 62
7
  6
CONTINUOUS
 10
-10.9
 20
33.0
 11
0.0
 21
33.0
  0
LINE
  5
22C
100
AcDbEntity
  8
0
100
AcDbLine
 62
7
  6
CONTINUOUS
 10
10.9
 20
33.0
 11
0.0
 21
33.0
  0
INSERT
  5
22D
100
AcDbEntity
  8
0
100
AcDbBlockReference
 62
7
  6
CONTINUOUS
  2
_FILLED
 10
-10.9
 20
33.0
 41
3.0
 42
3.0
 43
3.0
 50
180.0
  0
INSERT
  5
22E
100
AcDbEntity
  8
0
100
AcDbBlockReference
 62
7
  6
CONTINUOUS
  2
_FILLED
 10
10.9
 20
33.0
 41
3.0
 42
3.0
 43
3.0
  0
ENDBLK
  5
22F
100
AcDbEntity
  8
0
  6
BYBLOCK
 62
0
100
AcDbBlockEnd
  0
BLOCK
  5
230
100
AcDbEntity
  8
0
100
AcDbBlockBegin
 62
7
  6
CONTINUOUS
  2
*D1
 70
65
 10
0.0
 20
0.0
  3
*D1
  1

  0
LINE
  5
231
100
AcDbEntity
  8
0
100
AcDbLine
 62
7
  6
CONTINUOUS
 10
-19.8234964209
 20
13.6467422994
 11
-19.8234964209
 21
44.5
  0
LINE
  5
232
100
AcDbEntity
  8
0
100
AcDbLine
 62
7
  6
CONTINUOUS
 10
-54.8234964209
 20
0.5
 11
-54.8234964209
 21
44.5
  0
LINE
  5
233
100
AcDbEntity
  8
0
100
AcDbLine
 62
7
  6
CONTINUOUS
 10
-19.8234964209
 20
43.0
 11
-37.3234964209
 21
43.0
  0
LINE
  5
234
100
AcDbEntity
  8
0
100
AcDbLine
 62
7
  6
CONTINUOUS
 10
-54.8234964209
 20
43.0
 11
-37.3234964209
 21
43.0
  0
INSERT
  5
235
100
AcDbEntity
  8
0
100
AcDbBlockReference
 62
7
  6
CONTINUOUS
  2
_FILLED
 10
-19.8234964209
 20
43.0
 41
3.0
 42
3.0
 43
3.0
  0
INSERT
  5
236
100
AcDbEntity
  8
0
100
AcDbBlockReference
 62
7
  6
CONTINUOUS
  2
_FILLED
 10
-54.8234964209
 20
43.0
 41
3.0
 42
3.0
 43
3.0
 50
180.0
  0
ENDBLK
  5
237
100
AcDbEntity
  8
0
  6
BYBLOCK
 62
0
100
AcDbBlockEnd
  0
BLOCK
  5
238
100
AcDbEntity
  8
0
100
AcDbBlockBegin
 62
7
  6
CONTINUOUS
  2
*D2
 70
65
 10
0.0
 20
0.0
  3
*D2
  1

  0
LINE
  5
239
100
AcDbEntity
  8
0
100
AcDbLine
 62
7
  6
CONTINUOUS
 10
-45.5234964209
 20
24.3174311485
 11
-45.5234964209
 21
34.5
  0
LINE
  5
23A
100
AcDbEntity
  8
0
100
AcDbLine
 62
7
  6
CONTINUOUS
 10
-19.8234964209
 20
13.6467422994
 11
-19.8234964209
 21
34.5
  0
LINE
  5
23B
100
AcDbEntity
  8
0
100
AcDbLine
 62
7
  6
CONTINUOUS
 10
-45.5234964209
 20
33.0
 11
-32.6734964209
 21
33.0
  0
LINE
  5
23C
100
AcDbEntity
  8
0
100
AcDbLine
 62
7
  6
CONTINUOUS
 10
-19.8234964209
 20
33.0
 11
-32.6734964209
 21
33.0
  0
INSERT
  5
23D
100
AcDbEntity
  8
0
100
AcDbBlockReference
 62
7
  6
CONTINUOUS
  2
_FILLED
 10
-45.5234964209
 20
33.0
 41
3.0
 42
3.0
 43
3.0
 50
180.0
  0
INSERT
  5
23E
100
AcDbEntity
  8
0
100
AcDbBlockReference
 62
7
  6
CONTINUOUS
  2
_FILLED
 10
-19.8234964209
 20
33.0
 41
3.0
 42
3.0
 43
3.0
  0
ENDBLK
  5
23F
100
AcDbEntity
  8
0
  6
BYBLOCK
 62
0
100
AcDbBlockEnd
  0
BLOCK
  5
240
100
AcDbEntity
  8
0
100
AcDbBlockBegin
 62
7
  6
CONTINUOUS
  2
*D3
 70
65
 10
0.0
 20
0.0
  3
*D3
  1

  0
LINE
  5
241
100
AcDbEntity
  8
0
100
AcDbLine
 62
7
  6
CONTINUOUS
 10
-45.3234964209
 20
25.0
 11
-64.3234849588
 21
25.0
  0
LINE
  5
242
100
AcDbEntity
  8
0
100
AcDbLine
 62
7
  6
CONTINUOUS
 10
-45.3234964209
 20
-25.0
 11
-64.3234849588
 21
-25.0
  0
LINE
  5
243
100
AcDbEntity
  8
0
100
AcDbLine
 62
7
  6
CONTINUOUS
 10
-62.8234849588
 20
25.0
 11
-62.8234849588
 21
0.0
  0
LINE
  5
244
100
AcDbEntity
  8
0
100
AcDbLine
 62
7
  6
CONTINUOUS
 10
-62.8234849588
 20
-25.0
 11
-62.8234849588
 21
0.0
  0
INSERT
  5
245
100
AcDbEntity
  8
0
100
AcDbBlockReference
 62
7
  6
CONTINUOUS
  2
_FILLED
 10
-62.8234849588
 20
25.0
 41
3.0
 42
3.0
 43
3.0
 50
90.0
  0
INSERT
  5
246
100
AcDbEntity
  8
0
100
AcDbBlockReference
 62
7
  6
CONTINUOUS
  2
_FILLED
 10
-62.8234849588
 20
-25.0
 41
3.0
 42
3.0
 43
3.0
 50
270.0
  0
ENDBLK
  5
247
100
AcDbEntity
  8
0
  6
BYBLOCK
 62
0
100
AcDbBlockEnd
  0
ENDSEC
  0
SECTION
  2
ENTITIES
  0
DIMENSION
  5
248
100
AcDbEntity
  8
0
100
AcDbDimension
 62
7
  6
CONTINUOUS
  2
*D0
 10
10.9
 20
33.0
 11
-4.0714285714
 21
33.0
 70
160
 71
2
 72
2
 41
0.9
 42
21.8
  3
DIMSTYLE_1
100
AcDbAlignedDimension
 13
-10.9
 23
19.4434092398
 14
10.9
 24
19.4434092398
100
AcDbRotatedDimension
  0
DIMENSION
  5
249
100
AcDbEntity
  8
0
100
AcDbDimension
 62
7
  6
CONTINUOUS
  2
*D1
 10
-54.8234964209
 20
43.0
 11
-39.4663535637
 21
43.0
 70
160
 71
2
 72
2
 41
0.9
 42
35.0
  3
DIMSTYLE_1
100
AcDbAlignedDimension
 13
-19.8234964209
 23
13.1467422994
 14
-54.8234964209
 24
0.0
 50
180.0
100
AcDbRotatedDimension
  0
DIMENSION
  5
24A
100
AcDbEntity
  8
0
100
AcDbDimension
 62
7
  6
CONTINUOUS
  2
*D2
 10
-19.8234964209
 20
33.0
 11
-36.9592107066
 21
33.0
 70
160
 71
2
 72
2
 41
0.9
 42
25.7
  3
DIMSTYLE_1
100
AcDbAlignedDimension
 13
-45.5234964209
 23
23.8174311485
 14
-19.8234964209
 24
13.1467422994
100
AcDbRotatedDimension
  0
DIMENSION
  5
24B
100
AcDbEntity
  8
0
100
AcDbDimension
 62
7
  6
CONTINUOUS
  2
*D3
 10
-62.8234849588
 20
-25.0
 11
-62.8234849588
 21
-2.25
 70
160
 71
2
 72
2
 41
0.9
 42
50.0
  3
DIMSTYLE_1
100
AcDbAlignedDimension
 13
-44.8234964209
 23
25.0
 14
-44.8234964209
 24
-25.0
 50
270.0
100
AcDbRotatedDimension
  0
LWPOLYLINE
  5
24C
100
AcDbEntity
  8
0
100
AcDbPolyline
 62
7
  6
CONTINUOUS
 90
3
 70
0
 43
0.3500000006
 10
-1.7142856507
 20
35.8928593597
 10
-0.8571428254
 20
36.7500018311
 10
-0.8571428254
 20
33.7500009155
  0
LINE
  5
24D
100
AcDbEntity
  8
RACCORDO
100
AcDbLine
 62
7
  6
CONTINUOUS
 10
-10.7001893926
 20
22.5148866912
 11
-10.7883374704
 21
22.4267386133
  0
LINE
  5
24E
100
AcDbEntity
  8
RACCORDO
100
AcDbLine
 62
250
  6
CONTINUOUS
 10
-10.773374621
 20
22.3381099959
 11
-10.8615988572
 21
22.2498857598
  0
LWPOLYLINE
  5
24F
100
AcDbEntity
  8
RACCORDO
100
AcDbPolyline
 62
7
  6
CONTINUOUS
 90
25
 70
0
 10
-4.3
 20
-23.8584094599
 10
-4.3131726262
 20
-23.8585464789
 10
-4.3261786476
 20
-23.8589423239
 10
-4.3390180644
 20
-23.8595969948
 10
-4.3517442772
 20
-23.8605154975
 10
-4.3643038853
 20
-23.8616928261
 10
-4.3765366865
 20
-23.8631139635
 10
-4.3884384945
 20
-23.8647820327
 10
-4.4000134956
 20
-23.8666939106
 10
-4.4111140466
 20
-23.8688252106
 10
-4.42173407
 20
-23.8711787434
 10
-4.4318796433
 20
-23.8737516983
 10
-4.4414213562
 20
-23.8765112563
 10
-4.4503514735
 20
-23.8794598077
 10
-4.4586777303
 20
-23.8825949623
 10
-4.4662939225
 20
-23.88587673
 10
-4.4731909541
 20
-23.8893069889
 10
-4.4793779211
 20
-23.892883861
 10
-4.4847759065
 20
-23.8965617219
 10
-4.4893748036
 20
-23.9003418654
 10
-4.493184719
 20
-23.9042229977
 10
-4.4961570561
 20
-23.9081556138
 10
-4.4982756158
 20
-23.9121232117
 10
-4.4995565971
 20
-23.9161422934
 10
-4.5
 20
-23.9202128587
  0
LINE
  5
250
100
AcDbEntity
  8
0
100
AcDbLine
 62
7
  6
CONTINUOUS
 10
-6.0
 20
-25.0
 11
6.0
 21
-25.0
  0
LINE
  5
251
100
AcDbEntity
  8
0
100
AcDbLine
 62
250
  6
CONTINUOUS
 10
-6.0
 20
-24.3
 11
6.0
 21
-24.3
  0
LINE
  5
252
100
AcDbEntity
  8
RACCORDO
100
AcDbLine
 62
7
  6
CONTINUOUS
 10
-6.0
 20
-24.0
 11
-3.9332662348
 21
-24.0
  0
LINE
  5
253
100
AcDbEntity
  8
RACCORDO
100
AcDbLine
 62
7
  6
CONTINUOUS
 10
3.9332662348
 20
-24.0
 11
6.0
 21
-24.0
  0
LINE
  5
254
100
AcDbEntity
  8
RACCORDO
100
AcDbLine
 62
7
  6
CONTINUOUS
 10
4.3
 20
-23.8584094599
 11
3.7420816149
 21
-23.8584094599
  0
LINE
  5
255
100
AcDbEntity
  8
RACCORDO
100
AcDbLine
 62
7
  6
CONTINUOUS
 10
-3.7420816149
 20
-23.8584094599
 11
-4.3
 21
-23.8584094599
  0
LINE
  5
256
100
AcDbEntity
  8
RACCORDO
100
AcDbLine
 62
7
  6
CONTINUOUS
 10
4.3
 20
-23.4779868533
 11
3.7043297675
 21
-23.4779868533
  0
LINE
  5
257
100
AcDbEntity
  8
RACCORDO
100
AcDbLine
 62
7
  6
CONTINUOUS
 10
-3.7043297675
 20
-23.4779868533
 11
-4.3
 21
-23.4779868533
  0
LWPOLYLINE
  5
258
100
AcDbEntity
  8
RACCORDO
100
AcDbPolyline
 62
7
  6
CONTINUOUS
 90
25
 70
0
 10
4.3
 20
-23.4779868533
 10
4.3131726262
 20
-23.4781238724
 10
4.3261786476
 20
-23.4785197174
 10
4.3390180644
 20
-23.4791743883
 10
4.3517442772
 20
-23.480092891
 10
4.3643038853
 20
-23.4812702196
 10
4.3765366865
 20
-23.482691357
 10
4.3884384945
 20
-23.4843594262
 10
4.4000134956
 20
-23.4862713041
 10
4.4111140466
 20
-23.4884026041
 10
4.42173407
 20
-23.4907561369
 10
4.4318796433
 20
-23.4933290918
 10
4.4414213562
 20
-23.4960886498
 10
4.4503514735
 20
-23.4990372012
 10
4.4586777303
 20
-23.5021723558
 10
4.4662939225
 20
-23.5054541235
 10
4.4731909541
 20
-23.5088843824
 10
4.4793779211
 20
-23.5124612545
 10
4.4847759065
 20
-23.5161391154
 10
4.4893748036
 20
-23.5199192589
 10
4.493184719
 20
-23.5238003912
 10
4.4961570561
 20
-23.5277330072
 10
4.4982756158
 20
-23.5317006052
 10
4.4995565971
 20
-23.5357196869
 10
4.5
 20
-23.5397902522
  0
LINE
  5
259
100
AcDbEntity
  8
RACCORDO
100
AcDbLine
 62
7
  6
CONTINUOUS
 10
-10.7883374704
 20
-22.4267386133
 11
-10.7001893926
 21
-22.5148866912
  0
LINE
  5
25A
100
AcDbEntity
  8
RACCORDO
100
AcDbLine
 62
250
  6
CONTINUOUS
 10
-10.8615988572
 20
-22.2498857598
 11
-10.773374621
 21
-22.3381099959
  0
LINE
  5
25B
100
AcDbEntity
  8
DRAFT
100
AcDbLine
 62
7
  6
CONTINUOUS
 10
6.2
 20
-23.25
 11
6.0
 21
-23.25
  0
LINE
  5
25C
100
AcDbEntity
  8
RACCORDO
100
AcDbLine
 62
7
  6
CONTINUOUS
 10
7.961498942
 20
-23.25
 11
6.2
 21
-23.25
  0
LINE
  5
25D
100
AcDbEntity
  8
DRAFT
100
AcDbLine
 62
7
  6
CONTINUOUS
 10
-6.0
 20
-23.25
 11
-6.2
 21
-23.25
  0
LINE
  5
25E
100
AcDbEntity
  8
RACCORDO
100
AcDbLine
 62
7
  6
CONTINUOUS
 10
-6.2
 20
-23.25
 11
-7.961498942
 21
-23.25
  0
LINE
  5
25F
100
AcDbEntity
  8
RACCORDO
100
AcDbLine
 62
7
  6
CONTINUOUS
 10
-10.5234126973
 20
-22.5881099959
 11
10.5234126973
 21
-22.5881099959
  0
LINE
  5
260
100
AcDbEntity
  8
RACCORDO
100
AcDbLine
 62
250
  6
CONTINUOUS
 10
-10.773374621
 20
-22.3381099959
 11
10.773374621
 21
-22.3381099959
  0
LINE
  5
261
100
AcDbEntity
  8
DRAFT
100
AcDbLine
 62
7
  6
CONTINUOUS
 10
-10.9
 20
19.5
 11
-10.8615988572
 21
19.5384011428
  0
LINE
  5
262
100
AcDbEntity
  8
DRAFT
100
AcDbLine
 62
7
  6
CONTINUOUS
 10
-10.9
 20
-19.5
 11
-10.8615988572
 21
-19.5384011428
  0
LWPOLYLINE
  5
263
100
AcDbEntity
  8
RACCORDO
100
AcDbPolyline
 62
250
  6
CONTINUOUS
 90
16
 70
0
 10
-10.7093250368
 20
16.7552054488
 10
-10.7089531915
 20
16.7555981969
 10
-10.7081854486
 20
16.755990322
 10
-10.7070230258
 20
16.7563812021
 10
-10.705467767
 20
16.7567702173
 10
-10.7035221391
 20
16.7571567505
 10
-10.7011892282
 20
16.7575401885
 10
-10.6984727348
 20
16.7579199232
 10
-10.6953769677
 20
16.7582953522
 10
-10.6919068375
 20
16.75866588
 10
-10.6880678484
 20
16.7590309189
 10
-10.6838660898
 20
16.7593898899
 10
-10.6793082265
 20
16.7597422235
 10
-10.6744014882
 20
16.760087361
 10
-10.6691536578
 20
16.7604247548
 10
-10.6635730594
 20
16.7607538698
  0
LINE
  5
264
100
AcDbEntity
  8
RACCORDO
100
AcDbLine
 62
7
  6
CONTINUOUS
 10
-10.7778145455
 20
-18.8
 11
10.7778145455
 21
-18.8
  0
LINE
  5
265
100
AcDbEntity
  8
RACCORDO
100
AcDbLine
 62
7
  6
CONTINUOUS
 10
10.5285342235
 20
-18.3
 11
-10.5285342235
 21
-18.3
  0
LWPOLYLINE
  5
266
100
AcDbEntity
  8
RACCORDO
100
AcDbPolyline
 62
250
  6
CONTINUOUS
 90
18
 70
0
 10
-10.7093250368
 20
-16.7552054488
 10
-10.7089531934
 20
-16.7555981969
 10
-10.7081854522
 20
-16.7559903221
 10
-10.707023031
 20
-16.7563812023
 10
-10.7054677738
 20
-16.7567702176
 10
-10.7035221473
 20
-16.7571567508
 10
-10.7011892377
 20
-16.7575401889
 10
-10.6984727455
 20
-16.7579199236
 10
-10.6953769796
 20
-16.7582953527
 10
-10.6919068503
 20
-16.7586658806
 10
-10.6880678621
 20
-16.7590309196
 10
-10.6838661043
 20
-16.7593898906
 10
-10.6793082417
 20
-16.7597422243
 10
-10.6744015039
 20
-16.7600873619
 10
-10.6691536739
 20
-16.7604247557
 10
-10.6635730759
 20
-16.7607538708
 10
-10.6576685617
 20
-16.761074185
 10
-10.6449257464
 20
-16.7616863932
  0
LINE
  5
267
100
AcDbEntity
  8
RACCORDO
100
AcDbLine
 62
250
  6
CONTINUOUS
 10
10.6635730655
 20
-16.7607538702
 11
10.6514494864
 21
-16.7613851895
  0
LINE
  5
268
100
AcDbEntity
  8
RACCORDO
100
AcDbLine
 62
250
  6
CONTINUOUS
 10
10.6514494864
 20
-16.7613851895
 11
10.6381076474
 21
-16.7619773154
  0
LINE
  5
269
100
AcDbEntity
  8
RACCORDO
100
AcDbLine
 62
250
  6
CONTINUOUS
 10
10.6381076474
 20
-16.7619773154
 11
10.6236321658
 21
-16.7625264924
  0
LINE
  5
26A
100
AcDbEntity
  8
RACCORDO
100
AcDbLine
 62
250
  6
CONTINUOUS
 10
10.6236321658
 20
-16.7625264924
 11
10.6081148487
 21
-16.7630292375
  0
LINE
  5
26B
100
AcDbEntity
  8
RACCORDO
100
AcDbLine
 62
250
  6
CONTINUOUS
 10
10.6081148487
 20
-16.7630292375
 11
10.5916541108
 21
-16.7634823621
  0
LINE
  5
26C
100
AcDbEntity
  8
RACCORDO
100
AcDbLine
 62
250
  6
CONTINUOUS
 10
10.5916541108
 20
-16.7634823621
 11
10.5654239349
 21
-16.7640628149
  0
LINE
  5
26D
100
AcDbEntity
  8
RACCORDO
100
AcDbLine
 62
250
  6
CONTINUOUS
 10
10.5654239349
 20
-16.7640628149
 11
10.5376812645
 21
-16.764516956
  0
LINE
  5
26E
100
AcDbEntity
  8
RACCORDO
100
AcDbLine
 62
250
  6
CONTINUOUS
 10
10.5376812645
 20
-16.764516956
 11
10.5088217278
 21
-16.764838309
  0
LINE
  5
26F
100
AcDbEntity
  8
RACCORDO
100
AcDbLine
 62
250
  6
CONTINUOUS
 10
10.5088217278
 20
-16.764838309
 11
10.4792568799
 21
-16.7650222914
  0
LINE
  5
270
100
AcDbEntity
  8
RACCORDO
100
AcDbLine
 62
250
  6
CONTINUOUS
 10
-10.470170942
 20
-17.710427789
 11
10.470170942
 21
-17.710427789
  0
LINE
  5
271
100
AcDbEntity
  8
RACCORDO
100
AcDbLine
 62
250
  6
CONTINUOUS
 10
-10.459363113
 20
-16.765067253
 11
10.4792568799
 21
-16.7650222914
  0
LINE
  5
272
100
AcDbEntity
  8
RACCORDO
100
AcDbLine
 62
250
  6
CONTINUOUS
 10
-10.4891643153
 20
-16.7649764315
 11
-10.459363113
 21
-16.765067253
  0
LINE
  5
273
100
AcDbEntity
  8
RACCORDO
100
AcDbLine
 62
250
  6
CONTINUOUS
 10
-10.5185405335
 20
-16.7647462695
 11
-10.4891643153
 21
-16.7649764315
  0
LINE
  5
274
100
AcDbEntity
  8
RACCORDO
100
AcDbLine
 62
250
  6
CONTINUOUS
 10
-10.5470728442
 20
-16.7643800494
 11
-10.5185405335
 21
-16.7647462695
  0
LINE
  5
275
100
AcDbEntity
  8
RACCORDO
100
AcDbLine
 62
250
  6
CONTINUOUS
 10
-10.5743543584
 20
-16.7638829936
 11
-10.5470728442
 21
-16.7643800494
  0
LINE
  5
276
100
AcDbEntity
  8
RACCORDO
100
AcDbLine
 62
250
  6
CONTINUOUS
 10
-10.5999960245
 20
-16.7632621906
 11
-10.5743543584
 21
-16.7638829936
  0
LINE
  5
277
100
AcDbEntity
  8
RACCORDO
100
AcDbLine
 62
250
  6
CONTINUOUS
 10
-10.6159977435
 20
-16.7627838763
 11
-10.5999960245
 21
-16.7632621906
  0
LINE
  5
278
100
AcDbEntity
  8
RACCORDO
100
AcDbLine
 62
250
  6
CONTINUOUS
 10
-10.6310060463
 20
-16.7622574977
 11
-10.6159977435
 21
-16.7627838763
  0
LINE
  5
279
100
AcDbEntity
  8
RACCORDO
100
AcDbLine
 62
250
  6
CONTINUOUS
 10
-10.6449257464
 20
-16.7616863932
 11
-10.6310060463
 21
-16.7622574977
  0
LINE
  5
27A
100
AcDbEntity
  8
300081450
100
AcDbLine
 62
250
  6
CONTINUOUS
 10
-2.6944652926
 20
-13.2000000538
 11
-2.7416473039
 21
-13.2000001456
  0
LWPOLYLINE
  5
27B
100
AcDbEntity
  8
RACCORDO
100
AcDbPolyline
 62
250
  6
CONTINUOUS
 90
40
 70
0
 10
-10.7201328658
 20
-17.4642258507
 10
-10.7199004837
 20
-17.474120331
 10
-10.7192646007
 20
-17.4839988244
 10
-10.7182262444
 20
-17.4938453696
 10
-10.7167870923
 20
-17.5036440571
 10
-10.7149494698
 20
-17.5133790547
 10
-10.7127163461
 20
-17.523034633
 10
-10.7100913293
 20
-17.5325951911
 10
-10.7070786607
 20
-17.5420452813
 10
-10.703683208
 20
-17.5513696348
 10
-10.6999104576
 20
-17.5605531856
 10
-10.6957665051
 20
-17.5695810955
 10
-10.6912580462
 20
-17.5784387775
 10
-10.6863923654
 20
-17.5871119199
 10
-10.6811773244
 20
-17.595586509
 10
-10.6756213495
 20
-17.603848852
 10
-10.6697334177
 20
-17.6118855989
 10
-10.6635230424
 20
-17.6196837645
 10
-10.6570002581
 20
-17.6272307486
 10
-10.6501756039
 20
-17.6345143574
 10
-10.6430601068
 20
-17.6415228223
 10
-10.6356652637
 20
-17.6482448193
 10
-10.6280030227
 20
-17.6546694874
 10
-10.6200857643
 20
-17.6607864458
 10
-10.6119262806
 20
-17.6665858112
 10
-10.6035377554
 20
-17.6720582131
 10
-10.5949337424
 20
-17.6771948094
 10
-10.5861281437
 20
-17.6819873008
 10
-10.5771351868
 20
-17.6864279437
 10
-10.5679694022
 20
-17.6905095632
 10
-10.5586455995
 20
-17.6942255643
 10
-10.5491788436
 20
-17.697569943
 10
-10.5395844305
 20
-17.7005372954
 10
-10.5298778624
 20
-17.7031228272
 10
-10.5200748227
 20
-17.7053223606
 10
-10.5101911507
 20
-17.7071323419
 10
-10.5002428159
 20
-17.7085498466
 10
-10.4902458925
 20
-17.7095725842
 10
-10.4802165328
 20
-17.7101989023
 10
-10.470170942
 20
-17.710427789
  0
LWPOLYLINE
  5
27C
100
AcDbEntity
  8
RACCORDO
100
AcDbPolyline
 62
250
  6
CONTINUOUS
 90
22
 70
0
 10
-10.773374621
 20
-22.3381099959
 10
-10.7732028276
 20
-22.3474521419
 10
-10.7726818795
 20
-22.356782799
 10
-10.7718123292
 20
-22.3660889151
 10
-10.7705951396
 20
-22.3753579788
 10
-10.7690318778
 20
-22.3845764788
 10
-10.7671249066
 20
-22.3937299551
 10
-10.7648770333
 20
-22.4028050806
 10
-10.7622913037
 20
-22.4117896843
 10
-10.7593713227
 20
-22.4206712323
 10
-10.7561211606
 20
-22.4294373246
 10
-10.7525453702
 20
-22.4380756645
 10
-10.7486489737
 20
-22.4465741155
 10
-10.744437436
 20
-22.4549207655
 10
-10.7399166416
 20
-22.4631039585
 10
-10.7350929073
 20
-22.4711122614
 10
-10.7299729785
 20
-22.478934474
 10
-10.7245640218
 20
-22.4865596452
 10
-10.7188736052
 20
-22.4939771054
 10
-10.7129096908
 20
-22.5011764749
 10
-10.7066806228
 20
-22.5081476804
 10
-10.7001893926
 20
-22.5148866912
  0
LINE
  5
27D
100
AcDbEntity
  8
RACCORDO
100
AcDbLine
 62
250
  6
CONTINUOUS
 10
-10.7077420024
 20
14.2739549793
 11
-10.7094538322
 21
16.8346119824
  0
LINE
  5
27E
100
AcDbEntity
  8
RACCORDO
100
AcDbLine
 62
250
  6
CONTINUOUS
 10
-10.7058422287
 20
10.5512227991
 11
-10.7077420024
 21
14.2739549793
  0
LINE
  5
27F
100
AcDbEntity
  8
RACCORDO
100
AcDbLine
 62
250
  6
CONTINUOUS
 10
-10.7041956214
 20
5.5863568901
 11
-10.7058422287
 21
10.5512227991
  0
LINE
  5
280
100
AcDbEntity
  8
SMUSSO
100
AcDbLine
 62
7
  6
CONTINUOUS
 10
-10.9
 20
19.4434092398
 11
-10.9
 21
-19.3561339152
  0
LINE
  5
281
100
AcDbEntity
  8
DRAFT
100
AcDbLine
 62
7
  6
CONTINUOUS
 10
-10.9
 20
19.5
 11
-10.9
 21
-19.5
  0
LINE
  5
282
100
AcDbEntity
  8
RACCORDO
100
AcDbLine
 62
7
  6
CONTINUOUS
 10
-10.8615988572
 20
22.2498857598
 11
-10.8615988572
 21
19.5384011428
  0
LINE
  5
283
100
AcDbEntity
  8
RACCORDO
100
AcDbLine
 62
7
  6
CONTINUOUS
 10
-10.8615988572
 20
-19.5384011428
 11
-10.8615988572
 21
-22.2498857598
  0
LINE
  5
284
100
AcDbEntity
  8
RACCORDO
100
AcDbLine
 62
7
  6
CONTINUOUS
 10
-10.7778145455
 20
-18.8
 11
-10.7778145455
 21
-18.0469126796
  0
LINE
  5
285
100
AcDbEntity
  8
RACCORDO
100
AcDbLine
 62
7
  6
CONTINUOUS
 10
-10.7778145455
 20
18.0469126796
 11
-10.7778145455
 21
18.8
  0
LINE
  5
286
100
AcDbEntity
  8
RACCORDO
100
AcDbLine
 62
250
  6
CONTINUOUS
 10
-10.773374621
 20
-22.3381099959
 11
-10.773374621
 21
-18.8
  0
LINE
  5
287
100
AcDbEntity
  8
RACCORDO
100
AcDbLine
 62
250
  6
CONTINUOUS
 10
-10.773374621
 20
18.8
 11
-10.773374621
 21
22.3381099959
  0
LINE
  5
288
100
AcDbEntity
  8
RACCORDO
100
AcDbLine
 62
250
  6
CONTINUOUS
 10
-10.7036256134
 20
1.8621667141
 11
-10.7041956214
 21
5.5863568901
  0
LINE
  5
289
100
AcDbEntity
  8
RACCORDO
100
AcDbLine
 62
250
  6
CONTINUOUS
 10
-10.7037522834
 20
-3.1035898328
 11
-10.7036256134
 21
1.8621667141
  0
LINE
  5
28A
100
AcDbEntity
  8
RACCORDO
100
AcDbLine
 62
250
  6
CONTINUOUS
 10
-10.7045122861
 20
-6.8276686779
 11
-10.7037522834
 21
-3.1035898328
  0
LWPOLYLINE
  5
28B
100
AcDbEntity
  8
RACCORDO
100
AcDbPolyline
 62
250
  6
CONTINUOUS
 90
4
 70
0
 10
-10.7070454427
 20
-13.0331625816
 10
-10.7064121832
 20
-11.7922483083
 10
-10.7058422286
 20
-10.5512226813
 10
-10.7045122861
 20
-6.8276686779
  0
LINE
  5
28C
100
AcDbEntity
  8
RACCORDO
100
AcDbLine
 62
250
  6
CONTINUOUS
 10
-10.7085018671
 20
-15.5146358467
 11
-10.7070454427
 21
-13.0331625816
  0
LINE
  5
28D
100
AcDbEntity
  8
RACCORDO
100
AcDbLine
 62
250
  6
CONTINUOUS
 10
-10.7094538444
 20
-16.8346169965
 11
-10.7085018671
 21
-15.5146358467
  0
LWPOLYLINE
  5
28E
100
AcDbEntity
  8
RACCORDO
100
AcDbPolyline
 62
250
  6
CONTINUOUS
 90
22
 70
0
 10
-10.773374621
 20
22.3381099959
 10
-10.7732028276
 20
22.3474521419
 10
-10.7726818795
 20
22.356782799
 10
-10.7718123292
 20
22.3660889151
 10
-10.7705951396
 20
22.3753579788
 10
-10.7690318778
 20
22.3845764788
 10
-10.7671249066
 20
22.3937299551
 10
-10.7648770333
 20
22.4028050806
 10
-10.7622913037
 20
22.4117896843
 10
-10.7593713227
 20
22.4206712323
 10
-10.7561211606
 20
22.4294373246
 10
-10.7525453702
 20
22.4380756645
 10
-10.7486489737
 20
22.4465741155
 10
-10.744437436
 20
22.4549207655
 10
-10.7399166416
 20
22.4631039585
 10
-10.7350929073
 20
22.4711122614
 10
-10.7299729785
 20
22.478934474
 10
-10.7245640218
 20
22.4865596452
 10
-10.7188736052
 20
22.4939771054
 10
-10.7129096908
 20
22.5011764749
 10
-10.7066806228
 20
22.5081476804
 10
-10.7001893926
 20
22.5148866912
  0
LWPOLYLINE
  5
28F
100
AcDbEntity
  8
RACCORDO
100
AcDbPolyline
 62
250
  6
CONTINUOUS
 90
40
 70
0
 10
-10.7201328658
 20
17.4642258507
 10
-10.7199004836
 20
17.4741203325
 10
-10.7192646005
 20
17.4839988272
 10
-10.7182262439
 20
17.4938453737
 10
-10.7167870914
 20
17.5036440624
 10
-10.7149494685
 20
17.513379061
 10
-10.7127163443
 20
17.5230346403
 10
-10.7100913269
 20
17.5325951992
 10
-10.7070786576
 20
17.5420452901
 10
-10.7036832044
 20
17.5513696442
 10
-10.6999104533
 20
17.5605531955
 10
-10.6957665001
 20
17.5695811058
 10
-10.6912580405
 20
17.5784387881
 10
-10.6863923591
 20
17.5871119306
 10
-10.6811773175
 20
17.5955865198
 10
-10.675621342
 20
17.6038488627
 10
-10.6697334097
 20
17.6118856095
 10
-10.6635230339
 20
17.6196837747
 10
-10.6570002491
 20
17.6272307586
 10
-10.6501755946
 20
17.634514367
 10
-10.6430600972
 20
17.6415228314
 10
-10.6356652539
 20
17.6482448279
 10
-10.6280030128
 20
17.6546694954
 10
-10.6200857543
 20
17.6607864532
 10
-10.6119262707
 20
17.6665858179
 10
-10.6035377456
 20
17.6720582192
 10
-10.5949337329
 20
17.6771948149
 10
-10.5861281345
 20
17.6819873056
 10
-10.577135178
 20
17.6864279479
 10
-10.5679693939
 20
17.6905095667
 10
-10.5586455918
 20
17.6942255672
 10
-10.5491788366
 20
17.6975699453
 10
-10.5395844242
 20
17.7005372972
 10
-10.5298778569
 20
17.7031228285
 10
-10.520074818
 20
17.7053223616
 10
-10.5101911469
 20
17.7071323426
 10
-10.500242813
 20
17.7085498469
 10
-10.4902458905
 20
17.7095725843
 10
-10.4802165318
 20
17.7101989024
 10
-10.470170942
 20
17.710427789
  0
LWPOLYLINE
  5
290
100
AcDbEntity
  8
RACCORDO
100
AcDbPolyline
 62
250
  6
CONTINUOUS
 90
74
 70
0
 10
-2.3320261903
 20
15.2055775617
 10
-2.3768481982
 20
15.1568320883
 10
-2.4206539264
 20
15.1071658453
 10
-2.463444637
 20
15.0565800593
 10
-2.505164931
 20
15.0051394772
 10
-2.5458134264
 20
14.9528429792
 10
-2.5853915052
 20
14.8996916645
 10
-2.6238479131
 20
14.8457536089
 10
-2.6611812203
 20
14.7910277515
 10
-2.6973928566
 20
14.735515134
 10
-2.7324358576
 20
14.6792869883
 10
-2.76630872
 20
14.6223423521
 10
-2.7990129469
 20
14.5646821699
 10
-2.8305060841
 20
14.5063805356
 10
-2.8607865545
 20
14.447436616
 10
-2.8898559351
 20
14.3878512283
 10
-2.9176765026
 20
14.3277009435
 10
-2.9442466526
 20
14.2669849757
 10
-2.9695679895
 20
14.2057040969
 10
-2.9936076029
 20
14.1439372171
 10
-3.0163638195
 20
14.0816837066
 10
-3.0378383125
 20
14.0189441835
 10
-3.0580031916
 20
13.9557994315
 10
-3.0768567658
 20
13.8922488467
 10
-3.094400726
 20
13.8282930239
 10
-3.1106122549
 20
13.7640145464
 10
-3.1254895903
 20
13.6994130931
 10
-3.1390344942
 20
13.6344889785
 10
-3.1512294358
 20
13.5693257427
 10
-3.1620726669
 20
13.5039230959
 10
-3.1715659357
 20
13.438281324
 10
-3.1796969555
 20
13.3724848325
 10
-3.1864639679
 20
13.3065333433
 10
-3.1918687314
 20
13.2404271331
 10
-3.1959042343
 20
13.1742514424
 10
-3.1985686694
 20
13.1080058903
 10
-3.199863844
 20
13.0416908587
 10
-3.1997881685
 20
12.9753927346
 10
-3.1983398111
 20
12.9091117582
 10
-3.1955206037
 20
12.8428476929
 10
-3.1913344531
 20
12.776686213
 10
-3.1857797269
 20
12.7106283192
 10
-3.1788580575
 20
12.6446730168
 10
-3.1705782484
 20
12.5789029891
 10
-3.160938694
 20
12.5133183558
 10
-3.149941
 20
12.4479190055
 10
-3.1375987866
 20
12.3827872767
 10
-3.1239097433
 20
12.3179213196
 10
-3.1088761806
 20
12.2533229943
 10
-3.0925186504
 20
12.1890802069
 10
-3.0748347659
 20
12.1251928459
 10
-3.0558269139
 20
12.0616610348
 10
-3.0355228076
 20
11.9985730341
 10
-3.0139223649
 20
11.9359341537
 10
-2.9910256678
 20
11.8737390977
 10
-2.9668606747
 20
11.8120602189
 10
-2.9414280932
 20
11.7509011257
 10
-2.9147272156
 20
11.6902582249
 10
-2.8867838772
 20
11.6301930684
 10
-2.8575941594
 20
11.570699977
 10
-2.8271619808
 20
11.5117846456
 10
-2.7955249323
 20
11.4535256889
 10
-2.7626758915
 20
11.3959165974
 10
-2.7286219808
 20
11.3389638972
 10
-2.6934221582
 20
11.2827657577
 10
-2.6570724728
 20
11.2273239596
 10
-2.6195768755
 20
11.1726367399
 10
-2.5810061764
 20
11.1187969545
 10
-2.5413567827
 20
11.0658071623
 10
-2.5006322873
 20
11.0136648229
 10
-2.4589142794
 20
10.9624551441
 10
-2.4162299554
 20
10.912206535
 10
-2.3725521189
 20
10.8628906054
 10
-2.3278807699
 20
10.8145073642
  0
LWPOLYLINE
  5
291
100
AcDbEntity
  8
RACCORDO
100
AcDbPolyline
 62
250
  6
CONTINUOUS
 90
12
 70
0
 10
-2.0368956624
 20
-11.0787878894
 10
-2.0372443675
 20
-11.0788103149
 10
-2.0379393407
 20
-11.0785057197
 10
-2.0389797542
 20
-11.0778744666
 10
-2.0403643682
 20
-11.0769173077
 10
-2.0420915332
 20
-11.0756353834
 10
-2.0441591914
 20
-11.0740302209
 10
-2.0465648793
 20
-11.0721037328
 10
-2.0493057309
 20
-11.0698582142
 10
-2.0523784805
 20
-11.0672963405
 10
-2.0557794673
 20
-11.0644211639
 10
-2.0595046393
 20
-11.06123611
  0
LWPOLYLINE
  5
292
100
AcDbEntity
  8
RACCORDO
100
AcDbPolyline
 62
250
  6
CONTINUOUS
 90
13
 70
0
 10
2.0368957113
 20
-11.0787878432
 10
2.0372444163
 20
-11.0788102688
 10
2.0379393894
 20
-11.0785056737
 10
2.0389798026
 20
-11.0778744208
 10
2.0403644164
 20
-11.0769172621
 10
2.042091581
 20
-11.0756353381
 10
2.0441592388
 20
-11.0740301761
 10
2.0465649262
 20
-11.0721036883
 10
2.0493057772
 20
-11.0698581702
 10
2.0523785262
 20
-11.0672962971
 10
2.0557795124
 20
-11.0644211211
 10
2.0595046836
 20
-11.0612360678
 10
2.0679094478
 20
-11.053951873
  0
LINE
  5
293
100
AcDbEntity
  8
RACCORDO
100
AcDbLine
 62
250
  6
CONTINUOUS
 10
-10.7201328658
 20
17.4642258507
 11
-10.7778145455
 21
18.0469126796
  0
LWPOLYLINE
  5
294
100
AcDbEntity
  8
RACCORDO
100
AcDbPolyline
 62
250
  6
CONTINUOUS
 90
6
 70
0
 10
-10.7184430826
 20
17.4404278475
 10
-10.7187765704
 20
17.446217509
 10
-10.7191123654
 20
17.4514933873
 10
-10.7194502249
 20
17.4562513251
 10
-10.7197903917
 20
17.4604954795
 10
-10.7201328658
 20
17.4642258507
  0
LINE
  5
295
100
AcDbEntity
  8
RACCORDO
100
AcDbLine
 62
250
  6
CONTINUOUS
 10
-10.7177852261
 20
17.4273435706
 11
-10.7184430826
 21
17.4404278475
  0
LWPOLYLINE
  5
296
100
AcDbEntity
  8
RACCORDO
100
AcDbPolyline
 62
250
  6
CONTINUOUS
 90
5
 70
0
 10
-10.4688144281
 20
17.6864109446
 10
-10.4691502276
 20
17.6934469356
 10
-10.46948813
 20
17.6997980306
 10
-10.4698283681
 20
17.70545966
 10
-10.470170942
 20
17.710427789
  0
LINE
  5
297
100
AcDbEntity
  8
RACCORDO
100
AcDbLine
 62
250
  6
CONTINUOUS
 10
-10.7171402156
 20
17.4122685581
 11
-10.7177852261
 21
17.4273435706
  0
LINE
  5
298
100
AcDbEntity
  8
RACCORDO
100
AcDbLine
 62
250
  6
CONTINUOUS
 10
-10.468150535
 20
17.6703045021
 11
-10.4688144281
 21
17.6864109446
  0
LINE
  5
299
100
AcDbEntity
  8
RACCORDO
100
AcDbLine
 62
250
  6
CONTINUOUS
 10
-10.7165101301
 20
17.3952483791
 11
-10.7171402156
 21
17.4122685581
  0
LINE
  5
29A
100
AcDbEntity
  8
RACCORDO
100
AcDbLine
 62
250
  6
CONTINUOUS
 10
-10.4674987842
 20
17.651523621
 11
-10.468150535
 21
17.6703045021
  0
LINE
  5
29B
100
AcDbEntity
  8
RACCORDO
100
AcDbLine
 62
250
  6
CONTINUOUS
 10
-10.7155969583
 20
17.3661843456
 11
-10.7165101301
 21
17.3952483791
  0
LINE
  5
29C
100
AcDbEntity
  8
RACCORDO
100
AcDbLine
 62
250
  6
CONTINUOUS
 10
-10.4665480923
 20
17.6184568824
 11
-10.4674987842
 21
17.651523621
  0
LINE
  5
29D
100
AcDbEntity
  8
RACCORDO
100
AcDbLine
 62
250
  6
CONTINUOUS
 10
-10.7147271426
 20
17.3330415648
 11
-10.7155969583
 21
17.3661843456
  0
LINE
  5
29E
100
AcDbEntity
  8
RACCORDO
100
AcDbLine
 62
250
  6
CONTINUOUS
 10
-10.4653399961
 20
17.5655674187
 11
-10.4665480923
 21
17.6184568824
  0
LINE
  5
29F
100
AcDbEntity
  8
RACCORDO
100
AcDbLine
 62
250
  6
CONTINUOUS
 10
-10.7136444211
 20
17.2828787593
 11
-10.7147271426
 21
17.3330415648
  0
LINE
  5
2A0
100
AcDbEntity
  8
RACCORDO
100
AcDbLine
 62
250
  6
CONTINUOUS
 10
-10.4639442869
 20
17.4861720516
 11
-10.4653399961
 21
17.5655674187
  0
LINE
  5
2A1
100
AcDbEntity
  8
RACCORDO
100
AcDbLine
 62
250
  6
CONTINUOUS
 10
-10.7124316605
 20
17.2113750171
 11
-10.7136444211
 21
17.2828787593
  0
LINE
  5
2A2
100
AcDbEntity
  8
RACCORDO
100
AcDbLine
 62
250
  6
CONTINUOUS
 10
-10.4622478005
 20
17.3528053275
 11
-10.4639442869
 21
17.4861720516
  0
LINE
  5
2A3
100
AcDbEntity
  8
RACCORDO
100
AcDbLine
 62
250
  6
CONTINUOUS
 10
-10.7110342317
 20
17.097173886
 11
-10.7124316605
 21
17.2113750171
  0
LINE
  5
2A4
100
AcDbEntity
  8
RACCORDO
100
AcDbLine
 62
250
  6
CONTINUOUS
 10
-10.4604478873
 20
17.1259695001
 11
-10.4622478005
 21
17.3528053275
  0
LINE
  5
2A5
100
AcDbEntity
  8
RACCORDO
100
AcDbLine
 62
250
  6
CONTINUOUS
 10
-10.7099208797
 20
16.9511706162
 11
-10.7110342317
 21
17.097173886
  0
LINE
  5
2A6
100
AcDbEntity
  8
RACCORDO
100
AcDbLine
 62
250
  6
CONTINUOUS
 10
-10.7094538322
 20
16.8346119824
 11
-10.7099208797
 21
16.9511706162
  0
LINE
  5
2A7
100
AcDbEntity
  8
RACCORDO
100
AcDbLine
 62
250
  6
CONTINUOUS
 10
-10.4594091253
 20
16.8181515393
 11
-10.4604478873
 21
17.1259695001
  0
LINE
  5
2A8
100
AcDbEntity
  8
RACCORDO
100
AcDbLine
 62
250
  6
CONTINUOUS
 10
-10.4577800785
 20
14.282370256
 11
-10.4594091253
 21
16.8181515393
  0
LINE
  5
2A9
100
AcDbEntity
  8
RACCORDO
100
AcDbLine
 62
250
  6
CONTINUOUS
 10
-10.4558803048
 20
10.5574363131
 11
-10.4577800785
 21
14.282370256
  0
LINE
  5
2AA
100
AcDbEntity
  8
RACCORDO
100
AcDbLine
 62
250
  6
CONTINUOUS
 10
-10.4542336976
 20
5.5896447499
 11
-10.4558803048
 21
10.5574363131
  0
LINE
  5
2AB
100
AcDbEntity
  8
RACCORDO
100
AcDbLine
 62
250
  6
CONTINUOUS
 10
-10.5234126973
 20
-18.8
 11
-10.5234126973
 21
-22.5881099958
  0
LINE
  5
2AC
100
AcDbEntity
  8
RACCORDO
100
AcDbLine
 62
250
  6
CONTINUOUS
 10
-10.5234126973
 20
18.8
 11
-10.5234126973
 21
22.5881099959
  0
LINE
  5
2AD
100
AcDbEntity
  8
RACCORDO
100
AcDbLine
 62
250
  6
CONTINUOUS
 10
-10.4536636896
 20
1.8632626574
 11
-10.4542336976
 21
5.5896447499
  0
LINE
  5
2AE
100
AcDbEntity
  8
RACCORDO
100
AcDbLine
 62
250
  6
CONTINUOUS
 10
-10.4537903597
 20
-3.105420082
 11
-10.4536636896
 21
1.8632626574
  0
LINE
  5
2AF
100
AcDbEntity
  8
RACCORDO
100
AcDbLine
 62
250
  6
CONTINUOUS
 10
-10.4545503623
 20
-6.831690778
 11
-10.4537903597
 21
-3.105420082
  0
LWPOLYLINE
  5
2B0
100
AcDbEntity
  8
RACCORDO
100
AcDbPolyline
 62
250
  6
CONTINUOUS
 90
4
 70
0
 10
-10.4570835188
 20
-13.0408334617
 10
-10.4564502593
 20
-11.7991852788
 10
-10.4558803048
 20
-10.5574363131
 10
-10.4545503623
 20
-6.831690778
  0
LWPOLYLINE
  5
2B1
100
AcDbEntity
  8
RACCORDO
100
AcDbPolyline
 62
250
  6
CONTINUOUS
 90
3
 70
0
 10
-10.459363113
 20
-16.765067253
 10
-10.4585399432
 20
-15.5237850548
 10
-10.4570835188
 20
-13.0408334617
  0
LINE
  5
2B2
100
AcDbEntity
  8
RACCORDO
100
AcDbLine
 62
250
  6
CONTINUOUS
 10
-10.4601860966
 20
-17.0766701444
 11
-10.459363113
 21
-16.765067253
  0
LINE
  5
2B3
100
AcDbEntity
  8
RACCORDO
100
AcDbLine
 62
250
  6
CONTINUOUS
 10
-10.7102745417
 20
-17.0074844643
 11
-10.7094538444
 21
-16.8346169965
  0
LINE
  5
2B4
100
AcDbEntity
  8
RACCORDO
100
AcDbLine
 62
250
  6
CONTINUOUS
 10
-10.4618255273
 20
-17.3104954917
 11
-10.4601860966
 21
-17.0766701444
  0
LINE
  5
2B5
100
AcDbEntity
  8
RACCORDO
100
AcDbLine
 62
250
  6
CONTINUOUS
 10
-10.7115875694
 20
-17.147938783
 11
-10.7102745417
 21
-17.0074844643
  0
LINE
  5
2B6
100
AcDbEntity
  8
RACCORDO
100
AcDbLine
 62
250
  6
CONTINUOUS
 10
-10.4634269115
 20
-17.4505648146
 11
-10.4618255273
 21
-17.3104954917
  0
LINE
  5
2B7
100
AcDbEntity
  8
RACCORDO
100
AcDbLine
 62
250
  6
CONTINUOUS
 10
-10.7128968417
 20
-17.241087191
 11
-10.7115875694
 21
-17.147938783
  0
LINE
  5
2B8
100
AcDbEntity
  8
RACCORDO
100
AcDbLine
 62
250
  6
CONTINUOUS
 10
-10.4647651753
 20
-17.5355171992
 11
-10.4634269115
 21
-17.4505648146
  0
LINE
  5
2B9
100
AcDbEntity
  8
RACCORDO
100
AcDbLine
 62
250
  6
CONTINUOUS
 10
-10.714174304
 20
-17.3087930779
 11
-10.7128968417
 21
-17.241087191
  0
LINE
  5
2BA
100
AcDbEntity
  8
RACCORDO
100
AcDbLine
 62
250
  6
CONTINUOUS
 10
-10.465934943
 20
-17.5932400498
 11
-10.4647651753
 21
-17.5355171992
  0
LINE
  5
2BB
100
AcDbEntity
  8
RACCORDO
100
AcDbLine
 62
250
  6
CONTINUOUS
 10
-10.7153020653
 20
-17.355585983
 11
-10.714174304
 21
-17.3087930779
  0
LINE
  5
2BC
100
AcDbEntity
  8
RACCORDO
100
AcDbLine
 62
250
  6
CONTINUOUS
 10
-10.4668612617
 20
-17.6301219207
 11
-10.465934943
 21
-17.5932400498
  0
LINE
  5
2BD
100
AcDbEntity
  8
RACCORDO
100
AcDbLine
 62
250
  6
CONTINUOUS
 10
-10.4674987865
 20
-17.6515236606
 11
-10.4668612617
 21
-17.6301219207
  0
LINE
  5
2BE
100
AcDbEntity
  8
RACCORDO
100
AcDbLine
 62
250
  6
CONTINUOUS
 10
-10.7162014209
 20
-17.386030638
 11
-10.7153020653
 21
-17.355585983
  0
LINE
  5
2BF
100
AcDbEntity
  8
RACCORDO
100
AcDbLine
 62
250
  6
CONTINUOUS
 10
-10.7168233888
 20
-17.4040034997
 11
-10.7162014209
 21
-17.386030638
  0
LINE
  5
2C0
100
AcDbEntity
  8
RACCORDO
100
AcDbLine
 62
250
  6
CONTINUOUS
 10
-10.4681505373
 20
-17.6703045406
 11
-10.4674987865
 21
-17.6515236606
  0
LINE
  5
2C1
100
AcDbEntity
  8
RACCORDO
100
AcDbLine
 62
250
  6
CONTINUOUS
 10
-10.717460937
 20
-17.4200508078
 11
-10.7168233888
 21
-17.4040034997
  0
LWPOLYLINE
  5
2C2
100
AcDbEntity
  8
RACCORDO
100
AcDbPolyline
 62
250
  6
CONTINUOUS
 90
6
 70
0
 10
-10.470170942
 20
-17.710427789
 10
-10.4698283694
 20
-17.7054596718
 10
-10.4694881323
 20
-17.6997980537
 10
-10.4691502305
 20
-17.6934469682
 10
-10.468814431
 20
-17.6864109824
 10
-10.4681505373
 20
-17.6703045406
  0
LWPOLYLINE
  5
2C3
100
AcDbEntity
  8
RACCORDO
100
AcDbPolyline
 62
250
  6
CONTINUOUS
 90
8
 70
0
 10
-10.7201328658
 20
-17.4642258507
 10
-10.7197904268
 20
-17.4604959612
 10
-10.7194502864
 20
-17.4562522006
 10
-10.7191124446
 20
-17.451494569
 10
-10.7187766555
 20
-17.4462188785
 10
-10.718443165
 20
-17.440429317
 10
-10.71811271
 20
-17.4341384474
 10
-10.717460937
 20
-17.4200508078
  0
LINE
  5
2C4
100
AcDbEntity
  8
RACCORDO
100
AcDbLine
 62
250
  6
CONTINUOUS
 10
-10.7778145455
 20
-18.0469126796
 11
-10.7201328658
 21
-17.4642258507
  0
LWPOLYLINE
  5
2C5
100
AcDbEntity
  8
0
100
AcDbPolyline
 62
7
  6
CONTINUOUS
 90
3
 70
0
 43
0.3500000006
 10
0.7142856996
 20
34.0357120514
 10
0.6428571367
 20
33.8214275665
 10
0.500000011
 20
33.5357164307
  0
LINE
  5
2C6
100
AcDbEntity
  8
RACCORDO
100
AcDbLine
 62
250
  6
CONTINUOUS
 10
-2.2582416181
 20
10.8798532072
 11
-2.3278807699
 21
10.8145073642
  0
LINE
  5
2C7
100
AcDbEntity
  8
RACCORDO
100
AcDbLine
 62
250
  6
CONTINUOUS
 10
-2.2016229114
 20
10.9325096985
 11
-2.2582416181
 21
10.8798532072
  0
LINE
  5
2C8
100
AcDbEntity
  8
RACCORDO
100
AcDbLine
 62
250
  6
CONTINUOUS
 10
-2.1584665421
 20
10.9722940964
 11
-2.2016229114
 21
10.9325096985
  0
LINE
  5
2C9
100
AcDbEntity
  8
RACCORDO
100
AcDbLine
 62
250
  6
CONTINUOUS
 10
-2.1275091464
 20
11.000580128
 11
-2.1584665421
 21
10.9722940964
  0
LINE
  5
2CA
100
AcDbEntity
  8
RACCORDO
100
AcDbLine
 62
250
  6
CONTINUOUS
 10
-2.106764393
 20
11.0193700948
 11
-2.1275091464
 21
11.000580128
  0
LINE
  5
2CB
100
AcDbEntity
  8
RACCORDO
100
AcDbLine
 62
250
  6
CONTINUOUS
 10
-2.0883887263
 20
11.0358560668
 11
-2.106764393
 21
11.0193700948
  0
LINE
  5
2CC
100
AcDbEntity
  8
RACCORDO
100
AcDbLine
 62
250
  6
CONTINUOUS
 10
-2.0775527764
 20
11.0454784161
 11
-2.0883887263
 21
11.0358560668
  0
LINE
  5
2CD
100
AcDbEntity
  8
RACCORDO
100
AcDbLine
 62
250
  6
CONTINUOUS
 10
-2.0679094478
 20
11.053951873
 11
-2.0775527764
 21
11.0454784161
  0
LINE
  5
2CE
100
AcDbEntity
  8
300081450
100
AcDbLine
 62
250
  6
CONTINUOUS
 10
-2.0966613053
 20
-9.2000001751
 11
-2.1793463812
 21
-9.2000003565
  0
LINE
  5
2CF
100
AcDbEntity
  8
RACCORDO
100
AcDbLine
 62
250
  6
CONTINUOUS
 10
-2.0595046393
 20
-11.06123611
 11
-2.067909405
 21
-11.0539519137
  0
LINE
  5
2D0
100
AcDbEntity
  8
RACCORDO
100
AcDbLine
 62
250
  6
CONTINUOUS
 10
-2.067909405
 20
-11.0539519137
 11
-2.0775527354
 21
-11.0454784551
  0
LINE
  5
2D1
100
AcDbEntity
  8
RACCORDO
100
AcDbLine
 62
250
  6
CONTINUOUS
 10
-2.0775527354
 20
-11.0454784551
 11
-2.0883886874
 21
-11.035856104
  0
LINE
  5
2D2
100
AcDbEntity
  8
RACCORDO
100
AcDbLine
 62
250
  6
CONTINUOUS
 10
-2.0883886874
 20
-11.035856104
 11
-2.1067643575
 21
-11.0193701288
  0
LINE
  5
2D3
100
AcDbEntity
  8
RACCORDO
100
AcDbLine
 62
250
  6
CONTINUOUS
 10
-2.1067643575
 20
-11.0193701288
 11
-2.1349127684
 21
-10.993838961
  0
LINE
  5
2D4
100
AcDbEntity
  8
RACCORDO
100
AcDbLine
 62
250
  6
CONTINUOUS
 10
-2.1349127684
 20
-10.993838961
 11
-2.1751938341
 21
-10.9569160392
  0
LINE
  5
2D5
100
AcDbEntity
  8
RACCORDO
100
AcDbLine
 62
250
  6
CONTINUOUS
 10
-2.1751938341
 20
-10.9569160392
 11
-2.2294047038
 21
-10.9067300398
  0
LINE
  5
2D6
100
AcDbEntity
  8
RACCORDO
100
AcDbLine
 62
250
  6
CONTINUOUS
 10
-2.2294047038
 20
-10.9067300398
 11
-2.2878246406
 21
-10.8521672119
  0
LINE
  5
2D7
100
AcDbEntity
  8
RACCORDO
100
AcDbLine
 62
250
  6
CONTINUOUS
 10
-2.2878246406
 20
-10.8521672119
 11
-2.3278807699
 21
-10.8145073641
  0
LINE
  5
2D8
100
AcDbEntity
  8
RACCORDO
100
AcDbLine
 62
250
  6
CONTINUOUS
 10
-10.470170942
 20
17.710427789
 11
-10.5285342235
 21
18.3
  0
LINE
  5
2D9
100
AcDbEntity
  8
DRAFT
100
AcDbLine
 62
7
  6
CONTINUOUS
 10
-7.9615988572
 20
23.25
 11
-7.9615988572
 21
22.5881099959
  0
LINE
  5
2DA
100
AcDbEntity
  8
DRAFT
100
AcDbLine
 62
7
  6
CONTINUOUS
 10
-7.9615988572
 20
-22.5881099959
 11
-7.9615988572
 21
-23.25
  0
LINE
  5
2DB
100
AcDbEntity
  8
RACCORDO
100
AcDbLine
 62
250
  6
CONTINUOUS
 10
-10.5285342235
 20
-18.3
 11
-10.470170942
 21
-17.710427789
  0
LINE
  5
2DC
100
AcDbEntity
  8
RACCORDO
100
AcDbLine
 62
250
  6
CONTINUOUS
 10
1.9855815546
 20
10.5261956948
 11
1.9963596186
 21
10.5323790818
  0
LINE
  5
2DD
100
AcDbEntity
  8
RACCORDO
100
AcDbLine
 62
250
  6
CONTINUOUS
 10
1.9963596186
 20
10.5323790818
 11
2.0086966761
 21
10.5393414234
  0
LINE
  5
2DE
100
AcDbEntity
  8
RACCORDO
100
AcDbLine
 62
250
  6
CONTINUOUS
 10
2.0086966761
 20
10.5393414234
 11
2.0225317375
 21
10.5470483007
  0
LINE
  5
2DF
100
AcDbEntity
  8
RACCORDO
100
AcDbLine
 62
250
  6
CONTINUOUS
 10
2.0225317375
 20
10.5470483007
 11
2.0459415299
 21
10.5599203169
  0
LINE
  5
2E0
100
AcDbEntity
  8
RACCORDO
100
AcDbLine
 62
250
  6
CONTINUOUS
 10
2.0459415299
 20
10.5599203169
 11
2.0723060293
 21
10.5742378918
  0
LINE
  5
2E1
100
AcDbEntity
  8
RACCORDO
100
AcDbLine
 62
250
  6
CONTINUOUS
 10
2.0723060293
 20
10.5742378918
 11
2.1115439764
 21
10.5952994263
  0
LINE
  5
2E2
100
AcDbEntity
  8
RACCORDO
100
AcDbLine
 62
250
  6
CONTINUOUS
 10
2.1115439764
 20
10.5952994263
 11
2.1660523618
 21
10.624202649
  0
LINE
  5
2E3
100
AcDbEntity
  8
RACCORDO
100
AcDbLine
 62
250
  6
CONTINUOUS
 10
2.1660523618
 20
10.624202649
 11
2.2250516346
 21
10.6551328227
  0
LINE
  5
2E4
100
AcDbEntity
  8
RACCORDO
100
AcDbLine
 62
250
  6
CONTINUOUS
 10
2.2250516346
 20
10.6551328227
 11
2.2867228027
 21
10.6871363468
  0
LINE
  5
2E5
100
AcDbEntity
  8
RACCORDO
100
AcDbLine
 62
250
  6
CONTINUOUS
 10
2.2867228027
 20
10.6871363468
 11
2.3117149312
 21
10.7000176948
  0
LWPOLYLINE
  5
2E6
100
AcDbEntity
  8
DRAFT
100
AcDbPolyline
 62
250
  6
CONTINUOUS
 90
10
 70
0
 10
-1.8994906763
 20
-8.3903104213
 10
-1.5628691786
 20
-8.357313537
 10
-1.1534931932
 20
-8.3176771593
 10
-0.73990842
 20
-8.278139163
 10
-0.3221377623
 20
-8.2386651149
 10
0.0998194692
 20
-8.1993295701
 10
0.5259916576
 20
-8.1603159225
 10
0.9563913115
 20
-8.1216975806
 10
1.3910113094
 20
-8.0834381157
 10
1.6631419289
 20
-8.0599467422
  0
LINE
  5
2E7
100
AcDbEntity
  8
RACCORDO
100
AcDbLine
 62
250
  6
CONTINUOUS
 10
2.2372321306
 20
-10.661478943
 11
2.3117149312
 21
-10.7000176947
  0
LINE
  5
2E8
100
AcDbEntity
  8
RACCORDO
100
AcDbLine
 62
250
  6
CONTINUOUS
 10
2.1660523414
 20
-10.6242026386
 11
2.2372321306
 21
-10.661478943
  0
LINE
  5
2E9
100
AcDbEntity
  8
RACCORDO
100
AcDbLine
 62
250
  6
CONTINUOUS
 10
2.1115439474
 20
-10.5952994114
 11
2.1660523414
 21
-10.6242026386
  0
LINE
  5
2EA
100
AcDbEntity
  8
RACCORDO
100
AcDbLine
 62
250
  6
CONTINUOUS
 10
2.0723059937
 20
-10.5742378735
 11
2.1115439474
 21
-10.5952994114
  0
LINE
  5
2EB
100
AcDbEntity
  8
RACCORDO
100
AcDbLine
 62
250
  6
CONTINUOUS
 10
2.0459414898
 20
-10.5599202963
 11
2.0723059937
 21
-10.5742378735
  0
LINE
  5
2EC
100
AcDbEntity
  8
RACCORDO
100
AcDbLine
 62
250
  6
CONTINUOUS
 10
2.0225316933
 20
-10.547048278
 11
2.0459414898
 21
-10.5599202963
  0
LINE
  5
2ED
100
AcDbEntity
  8
RACCORDO
100
AcDbLine
 62
250
  6
CONTINUOUS
 10
2.0086966295
 20
-10.5393413995
 11
2.0225316933
 21
-10.547048278
  0
LINE
  5
2EE
100
AcDbEntity
  8
RACCORDO
100
AcDbLine
 62
250
  6
CONTINUOUS
 10
1.9963595698
 20
-10.5323790567
 11
2.0086966295
 21
-10.5393413995
  0
LINE
  5
2EF
100
AcDbEntity
  8
DRAFT
100
AcDbLine
 62
250
  6
CONTINUOUS
 10
-6.344976954
 20
-23.25
 11
-6.344976954
 21
-22.5881099959
  0
LINE
  5
2F0
100
AcDbEntity
  8
DRAFT
100
AcDbLine
 62
250
  6
CONTINUOUS
 10
-6.344976954
 20
22.5881099959
 11
-6.344976954
 21
23.25
  0
LINE
  5
2F1
100
AcDbEntity
  8
RACCORDO
100
AcDbLine
 62
7
  6
CONTINUOUS
 10
-6.2
 20
-23.25
 11
-6.2
 21
-22.5881099959
  0
LINE
  5
2F2
100
AcDbEntity
  8
RACCORDO
100
AcDbLine
 62
7
  6
CONTINUOUS
 10
-6.2
 20
22.5881099959
 11
-6.2
 21
23.25
  0
LINE
  5
2F3
100
AcDbEntity
  8
0
100
AcDbLine
 62
7
  6
CONTINUOUS
 10
-6.0
 20
24.0
 11
-6.0
 21
22.5881099959
  0
LINE
  5
2F4
100
AcDbEntity
  8
0
100
AcDbLine
 62
7
  6
CONTINUOUS
 10
-6.0
 20
-24.0
 11
-6.0
 21
-22.5881099959
  0
LINE
  5
2F5
100
AcDbEntity
  8
0
100
AcDbLine
 62
7
  6
CONTINUOUS
 10
-6.0
 20
-24.0
 11
-6.0
 21
-25.0
  0
LINE
  5
2F6
100
AcDbEntity
  8
0
100
AcDbLine
 62
7
  6
CONTINUOUS
 10
-6.0
 20
24.0
 11
-6.0
 21
25.0
  0
LWPOLYLINE
  5
2F7
100
AcDbEntity
  8
RACCORDO
100
AcDbPolyline
 62
250
  6
CONTINUOUS
 90
147
 70
0
 10
-2.3117149312
 20
10.7000176948
 10
-2.33675528
 20
10.6500367827
 10
-2.3607309518
 20
10.599469739
 10
-2.3836419465
 20
10.5483165594
 10
-2.4055102699
 20
10.4965361844
 10
-2.4263139163
 20
10.4441696642
 10
-2.4459868684
 20
10.3913401592
 10
-2.4645225835
 20
10.3380458917
 10
-2.4819276045
 20
10.2842886327
 10
-2.4981555419
 20
10.2301968677
 10
-2.5131984072
 20
10.1757791727
 10
-2.527064189
 20
10.1210269673
 10
-2.5397304644
 20
10.0660430048
 10
-2.55119153
 20
10.0108478039
 10
-2.5614530892
 20
9.9554208436
 10
-2.5705098286
 20
9.8998033188
 10
-2.5783636075
 20
9.8439807335
 10
-2.5850125667
 20
9.7879675821
 10
-2.590445815
 20
9.7318485469
 10
-2.5946611487
 20
9.6756240014
 10
-2.5976607717
 20
9.6192935721
 10
-2.5994404046
 20
9.5629408228
 10
-2.599998239
 20
9.5065683015
 10
-2.5993360833
 20
9.4501734618
 10
-2.5974550832
 20
9.3938322277
 10
-2.5943537768
 20
9.3375444187
 10
-2.5900336259
 20
9.2813102181
 10
-2.5845001623
 20
9.2252060975
 10
-2.577751485
 20
9.1692304638
 10
-2.5697894949
 20
9.1133849141
 10
-2.5606254268
 20
9.0577507067
 10
-2.5502572867
 20
9.0023279385
 10
-2.5386870687
 20
8.947116518
 10
-2.5259319902
 20
8.8921974223
 10
-2.5119905504
 20
8.8375723167
 10
-2.49686425
 20
8.7832395424
 10
-2.4805748087
 20
8.7292750923
 10
-2.4631208325
 20
8.6756799535
 10
-2.4445037154
 20
8.6224531464
 10
-2.4247493595
 20
8.5696677145
 10
-2.4038560967
 20
8.5173238339
 10
-2.3818255952
 20
8.4654213368
 10
-2.3586887611
 20
8.4140327521
 10
-2.3344437894
 20
8.3631583406
 10
-2.309092485
 20
8.3127978504
 10
-2.2826711696
 20
8.2630230418
 10
-2.2551783739
 20
8.2138349617
 10
-2.2266155671
 20
8.1652325725
 10
-2.1970234781
 20
8.117284508
 10
-2.1664007923
 20
8.0699919291
 10
-2.1347488242
 20
8.0233536846
 10
-2.1021122462
 20
7.9774349411
 10
-2.0684897121
 20
7.932236729
 10
-2.0338825681
 20
7.8877580277
 10
-1.9983395251
 20
7.8440609277
 10
-1.9618592065
 20
7.8011464434
 10
-1.924442989
 20
7.75901357
 10
-1.8861437139
 20
7.7177213701
 10
-1.8469601146
 20
7.6772710177
 10
-1.8068934577
 20
7.6376613483
 10
-1.7660003851
 20
7.5989479168
 10
-1.724279808
 20
7.5611320589
 10
-1.6817328153
 20
7.5242124481
 10
-1.6384193147
 20
7.4882406463
 10
-1.5943382241
 20
7.4532179779
 10
-1.5494906258
 20
7.4191431274
 10
-1.5039396746
 20
7.3860636969
 10
-1.4576844391
 20
7.3539811173
 10
-1.4107258508
 20
7.3228939661
 10
-1.3631298589
 20
7.2928455653
 10
-1.3148955273
 20
7.263837343
 10
-1.2660237921
 20
7.2358678789
 10
-1.2165834116
 20
7.2089762234
 10
-1.1665736502
 20
7.1831639183
 10
-1.1159952434
 20
7.1584294288
 10
-1.0649191555
 20
7.1348071906
 10
-1.0133446753
 20
7.1122987498
 10
-0.961272514
 20
7.0909025665
 10
-0.9087757687
 20
7.0706484469
 10
-0.8558538766
 20
7.051537997
 10
-0.8025074006
 20
7.0335696162
 10
-0.7488111263
 20
7.0167683005
 10
-0.6947645749
 20
7.0011356783
 10
-0.6403682252
 20
6.9866701259
 10
-0.585698299
 20
6.9733917606
 10
-0.5307544023
 20
6.9613022349
 10
-0.475536929
 20
6.9503998999
 10
-0.4201232826
 20
6.9406999217
 10
-0.364513234
 20
6.9322039801
 10
-0.3087070122
 20
6.9249103977
 10
-0.2527827088
 20
6.9188293043
 10
-0.1967401123
 20
6.9139623828
 10
-0.1405794341
 20
6.9103079517
 10
-0.0843793989
 20
6.9078710947
 10
-0.0281400107
 20
6.9066535064
 10
0.0281387346
 20
6.9066534925
 10
0.0843781239
 20
6.9078710533
 10
0.1405781612
 20
6.9103078828
 10
0.1967388425
 20
6.9139622863
 10
0.2527814427
 20
6.9188291805
 10
0.3087057506
 20
6.9249102467
 10
0.3645119775
 20
6.9322038019
 10
0.4201220318
 20
6.9406997166
 10
0.4755356845
 20
6.9503996682
 10
0.5307531648
 20
6.9613019765
 10
0.585697069
 20
6.9733914759
 10
0.6403670031
 20
6.9866698149
 10
0.6947633611
 20
7.0011353413
 10
0.7488099215
 20
7.0167679377
 10
0.8025062055
 20
7.0335692279
 10
0.8558526918
 20
7.0515375835
 10
0.9087745946
 20
7.0706480084
 10
0.9612713511
 20
7.0909021032
 10
1.0133435242
 20
7.112298262
 10
1.0649180165
 20
7.1348066786
 10
1.1159941172
 20
7.1584288929
 10
1.1665725373
 20
7.1831633588
 10
1.2165823123
 20
7.2089756406
 10
1.266022707
 20
7.2358672731
 10
1.3148944566
 20
7.2638367145
 10
1.3631288032
 20
7.2928449145
 10
1.4107248104
 20
7.3228932932
 10
1.4576834147
 20
7.3539804227
 10
1.5039386667
 20
7.3860629812
 10
1.5494896351
 20
7.4191423912
 10
1.5943372512
 20
7.4532172216
 10
1.63841836
 20
7.4882398704
 10
1.681731879
 20
7.524211653
 10
1.7242788906
 20
7.5611312449
 10
1.7659994867
 20
7.5989470842
 10
1.8068925784
 20
7.6376604973
 10
1.8469592546
 20
7.6772701485
 10
1.8861428733
 20
7.7177204828
 10
1.9244421676
 20
7.7590126644
 10
1.9618584045
 20
7.8011455197
 10
1.9983387433
 20
7.844059987
 10
2.0338818076
 20
7.8877570713
 10
2.0684889738
 20
7.932235758
 10
2.102111531
 20
7.9774339569
 10
2.1347481333
 20
8.0233526895
 10
2.1664001266
 20
8.0699909246
 10
2.1970228373
 20
8.1172834938
 10
2.2266149506
 20
8.1652315484
 10
2.2551777813
 20
8.2138339275
 10
2.2826705998
 20
8.2630219951
 10
2.309091936
 20
8.3127967873
 10
2.33444326
 20
8.3631572588
  0
LWPOLYLINE
  5
2F8
100
AcDbEntity
  8
RACCORDO
100
AcDbPolyline
 62
250
  6
CONTINUOUS
 90
153
 70
0
 10
2.3278807699
 20
10.8145073642
 10
2.3725523906
 20
10.8628908952
 10
2.4162305206
 20
10.912207177
 10
2.4589151598
 20
10.9624562006
 10
2.5006335393
 20
11.0136664035
 10
2.541358428
 20
11.0658093293
 10
2.581008133
 20
11.1187996286
 10
2.6195790213
 20
11.1726397993
 10
2.6570747258
 20
11.227327325
 10
2.693424452
 20
11.2827693371
 10
2.7286242398
 20
11.33896758
 10
2.7626780493
 20
11.3959202915
 10
2.795526966
 20
11.4535293443
 10
2.8271638681
 20
11.5117882008
 10
2.8575958774
 20
11.5707033819
 10
2.8867854448
 20
11.63019635
 10
2.9147286663
 20
11.6902614312
 10
2.9414294458
 20
11.7509042836
 10
2.9668619463
 20
11.8120633694
 10
2.9910268816
 20
11.8737423011
 10
3.0139235379
 20
11.935937451
 10
3.0355239366
 20
11.9985764227
 10
3.0558279901
 20
12.0616645044
 10
3.0748357859
 20
12.1251963939
 10
3.0925196076
 20
12.1890838112
 10
3.1088770648
 20
12.2533266208
 10
3.1239105479
 20
12.317924946
 10
3.1375995112
 20
12.3827908972
 10
3.1499416457
 20
12.4479226158
 10
3.1609392605
 20
12.5133219502
 10
3.1705787369
 20
12.5789065735
 10
3.1788584706
 20
12.6446766027
 10
3.185780066
 20
12.7106319127
 10
3.1913347181
 20
12.7766898156
 10
3.1955207943
 20
12.8428513068
 10
3.1983399273
 20
12.9091153849
 10
3.19978821
 20
12.9753963703
 10
3.1998638102
 20
13.0416944975
 10
3.1985685603
 20
13.1080095283
 10
3.1959040501
 20
13.1742550767
 10
3.1918684723
 20
13.2404307602
 10
3.1864636342
 20
13.30653696
 10
3.1796965474
 20
13.3724884377
 10
3.1715654536
 20
13.4382849172
 10
3.162072111
 20
13.503926676
 10
3.1512288062
 20
13.5693293087
 10
3.1390337912
 20
13.63449253
 10
3.1254888139
 20
13.6994166293
 10
3.1106114057
 20
13.7640180658
 10
3.0943998043
 20
13.8282965245
 10
3.0768557719
 20
13.8922523271
 10
3.0580021261
 20
13.9558028899
 10
3.0378371761
 20
14.0189476182
 10
3.0163626127
 20
14.0816871159
 10
2.9936063263
 20
14.1439405996
 10
2.9695666437
 20
14.2057074511
 10
2.9442452382
 20
14.2669883002
 10
2.9176750203
 20
14.3277042369
 10
2.8898543855
 20
14.3878544893
 10
2.8607849382
 20
14.4474398432
 10
2.8305044019
 20
14.5063837277
 10
2.7990111995
 20
14.5646853258
 10
2.7663069081
 20
14.6223454704
 10
2.7324339822
 20
14.6792900676
 10
2.6973909185
 20
14.735518173
 10
2.6611792204
 20
14.7910307488
 10
2.6238458523
 20
14.8457565632
 10
2.5853893843
 20
14.8996945747
 10
2.5458112464
 20
14.9528458442
 10
2.5051626928
 20
15.0051422956
 10
2.4634423418
 20
15.05658283
 10
2.4206515751
 20
15.1071685669
 10
2.3768457919
 20
15.1568347599
 10
2.33202373
 20
15.2055801823
 10
2.2861866516
 20
15.2534060821
 10
2.2393937425
 20
15.3002514267
 10
2.1916437628
 20
15.3461149743
 10
2.1429379524
 20
15.3909979886
 10
2.0933392166
 20
15.4348431968
 10
2.042846475
 20
15.4776492208
 10
1.9914608081
 20
15.5194174609
 10
1.9392483619
 20
15.5600948121
 10
1.8862080654
 20
15.5996798984
 10
1.8323409895
 20
15.6381741177
 10
1.7777164931
 20
15.6755285265
 10
1.7223336776
 20
15.7117416338
 10
1.6661934414
 20
15.7468149519
 10
1.6093678389
 20
15.7807040426
 10
1.5518559937
 20
15.8134074109
 10
1.4936587821
 20
15.844926572
 10
1.4348508866
 20
15.8752216042
 10
1.3754315847
 20
15.9042909343
 10
1.3154015989
 20
15.9321361543
 10
1.2548377795
 20
15.9587220895
 10
1.193739466
 20
15.9840471469
 10
1.1321073189
 20
16.0081129368
 10
1.0700201698
 20
16.0308890886
 10
1.0074774669
 20
16.0523739701
 10
0.9444797621
 20
16.0725692287
 10
0.8811075423
 20
16.0914494133
 10
0.8173603727
 20
16.109012861
 10
0.7532386882
 20
16.1252612476
 10
0.6888242798
 20
16.1401741299
 10
0.6241167684
 20
16.153749832
 10
0.5591165332
 20
16.1659900401
 10
0.4939065034
 20
16.1768793536
 10
0.4284864678
 20
16.1864160686
 10
0.3628566376
 20
16.1946018964
 10
0.2971005762
 20
16.2014265584
 10
0.2312180864
 20
16.2068883486
 10
0.1652093655
 20
16.2109889775
 10
0.0991585686
 20
16.21372329
 10
0.0330656962
 20
16.2150895681
 10
-0.0330692521
 20
16.2150895314
 10
-0.0991621231
 20
16.2137231797
 10
-0.1652129175
 20
16.2109887937
 10
-0.2312216345
 20
16.2068880914
 10
-0.297104119
 20
16.2014262277
 10
-0.3628601736
 20
16.1946014925
 10
-0.4284899957
 20
16.1864155915
 10
-0.4939100217
 20
16.1768788034
 10
-0.5591200404
 20
16.1659894172
 10
-0.624120263
 20
16.1537491365
 10
-0.6888277604
 20
16.140173362
 10
-0.753242153
 20
16.1252604077
 10
-0.8173638204
 20
16.1090119494
 10
-0.8811109713
 20
16.0914484304
 10
-0.9444831711
 20
16.0725681747
 10
-1.0074808544
 20
16.0523728454
 10
-1.0700235343
 20
16.0308878938
 10
-1.1321106589
 20
16.0081116723
 10
-1.19374278
 20
15.9840458133
 10
-1.2548410662
 20
15.9587206872
 10
-1.3154048568
 20
15.9321346839
 10
-1.3754348125
 20
15.9042893964
 10
-1.4348540829
 20
15.8752199994
 10
-1.4936619454
 20
15.844924901
 10
-1.5518591227
 20
15.8134056743
 10
-1.6093709321
 20
15.7807022412
 10
-1.6661964977
 20
15.7468130863
 10
-1.7223366955
 20
15.7117397048
 10
-1.7777194714
 20
15.675526535
 10
-1.8323439269
 20
15.6381720644
 10
-1.8862109605
 20
15.5996777841
 10
-1.9392512135
 20
15.5600926377
 10
-1.991463615
 20
15.5194152274
 10
-2.0428492359
 20
15.4776469291
 10
-2.0933419302
 20
15.4348408477
 10
-2.1429406177
 20
15.3909955832
 10
-2.1916463786
 20
15.3461125134
 10
-2.2393963076
 20
15.3002489116
 10
-2.2861891649
 20
15.2534035137
 10
-2.3320261903
 20
15.2055775617
  0
LWPOLYLINE
  5
2F9
100
AcDbEntity
  8
RACCORDO
100
AcDbPolyline
 62
250
  6
CONTINUOUS
 90
40
 70
0
 10
2.3278807699
 20
-10.8145073642
 10
2.3257486415
 20
-10.8121716173
 10
2.3236947707
 20
-10.8097741877
 10
2.3217191575
 20
-10.8073150754
 10
2.3198198641
 20
-10.8047915733
 10
2.3179988283
 20
-10.8022063884
 10
2.3162618635
 20
-10.7995676418
 10
2.3146093437
 20
-10.7968753063
 10
2.3130408949
 20
-10.794129409
 10
2.3115612077
 20
-10.7913381529
 10
2.3101705496
 20
-10.7885014038
 10
2.3088686531
 20
-10.7856192958
 10
2.3076594061
 20
-10.7827004347
 10
2.3065430844
 20
-10.7797447095
 10
2.3055194123
 20
-10.7767522312
 10
2.3045914492
 20
-10.7737319382
 10
2.3037594818
 20
-10.7706837477
 10
2.3030232236
 20
-10.7676077426
 10
2.3023848751
 20
-10.7645131102
 10
2.301844729
 20
-10.7613997926
 10
2.3014024926
 20
-10.7582678477
 10
2.3010594883
 20
-10.7551266373
 10
2.3008160136
 20
-10.751976135
 10
2.3006717709
 20
-10.7488163673
 10
2.3006271905
 20
-10.7456567749
 10
2.3006825705
 20
-10.7424973592
 10
2.3008376128
 20
-10.7393381189
 10
2.3010918524
 20
-10.7361884914
 10
2.3014455852
 20
-10.7330485068
 10
2.3018985153
 20
-10.729918135
 10
2.3024492898
 20
-10.7268067232
 10
2.3030982028
 20
-10.7237143262
 10
2.3038449602
 20
-10.7206408891
 10
2.3046873266
 20
-10.717595595
 10
2.3056256645
 20
-10.7145783756
 10
2.3066596114
 20
-10.7115892991
 10
2.3077858438
 20
-10.708637754
 10
2.309003254
 20
-10.7057268696
 10
2.3103129498
 20
-10.7028535165
 10
2.3117149312
 20
-10.7000176948
  0
LWPOLYLINE
  5
2FA
100
AcDbEntity
  8
RACCORDO
100
AcDbPolyline
 62
250
  6
CONTINUOUS
 90
40
 70
0
 10
-2.3117149312
 20
-10.7000176948
 10
-2.3103129498
 20
-10.7028535165
 10
-2.309003254
 20
-10.7057268696
 10
-2.3077858438
 20
-10.708637754
 10
-2.3066596114
 20
-10.7115892991
 10
-2.3056256645
 20
-10.7145783756
 10
-2.3046873266
 20
-10.717595595
 10
-2.3038449602
 20
-10.7206408891
 10
-2.3030982028
 20
-10.7237143262
 10
-2.3024492898
 20
-10.7268067232
 10
-2.3018985153
 20
-10.729918135
 10
-2.3014455852
 20
-10.7330485068
 10
-2.3010918524
 20
-10.7361884914
 10
-2.3008376128
 20
-10.7393381189
 10
-2.3006825705
 20
-10.7424973592
 10
-2.3006271905
 20
-10.7456567749
 10
-2.3006717709
 20
-10.7488163673
 10
-2.3008160136
 20
-10.751976135
 10
-2.3010594883
 20
-10.7551266373
 10
-2.3014024926
 20
-10.7582678477
 10
-2.301844729
 20
-10.7613997926
 10
-2.3023848751
 20
-10.7645131102
 10
-2.3030232236
 20
-10.7676077426
 10
-2.3037594818
 20
-10.7706837477
 10
-2.3045914492
 20
-10.7737319382
 10
-2.3055194123
 20
-10.7767522312
 10
-2.3065430844
 20
-10.7797447095
 10
-2.3076594061
 20
-10.7827004347
 10
-2.3088686531
 20
-10.7856192958
 10
-2.3101705496
 20
-10.7885014038
 10
-2.3115612077
 20
-10.7913381529
 10
-2.3130408949
 20
-10.794129409
 10
-2.3146093437
 20
-10.7968753063
 10
-2.3162618635
 20
-10.7995676418
 10
-2.3179988283
 20
-10.8022063884
 10
-2.3198198641
 20
-10.8047915733
 10
-2.3217191575
 20
-10.8073150754
 10
-2.3236947707
 20
-10.8097741877
 10
-2.3257486415
 20
-10.8121716173
 10
-2.3278807699
 20
-10.8145073642
  0
LINE
  5
2FB
100
AcDbEntity
  8
RACCORDO
100
AcDbLine
 62
7
  6
CONTINUOUS
 10
-4.5
 20
24.0
 11
-4.5
 21
23.5397902522
  0
LINE
  5
2FC
100
AcDbEntity
  8
RACCORDO
100
AcDbLine
 62
7
  6
CONTINUOUS
 10
-4.5
 20
-23.5397902522
 11
-4.5
 21
-24.0
  0
LINE
  5
2FD
100
AcDbEntity
  8
RACCORDO
100
AcDbLine
 62
250
  6
CONTINUOUS
 10
-4.3
 20
23.8584094599
 11
-4.3
 21
23.4779868533
  0
LINE
  5
2FE
100
AcDbEntity
  8
RACCORDO
100
AcDbLine
 62
250
  6
CONTINUOUS
 10
-4.3
 20
-23.8584094599
 11
-4.3
 21
-23.4779868533
  0
LWPOLYLINE
  5
2FF
100
AcDbEntity
  8
RACCORDO
100
AcDbPolyline
 62
7
  6
CONTINUOUS
 90
25
 70
0
 10
-4.5
 20
23.9202128587
 10
-4.4995565971
 20
23.9161422934
 10
-4.4982756158
 20
23.9121232117
 10
-4.4961570561
 20
23.9081556138
 10
-4.493184719
 20
23.9042229977
 10
-4.4893748036
 20
23.9003418654
 10
-4.4847759065
 20
23.8965617219
 10
-4.4793779211
 20
23.892883861
 10
-4.4731909541
 20
23.8893069889
 10
-4.4662939225
 20
23.88587673
 10
-4.4586777303
 20
23.8825949623
 10
-4.4503514735
 20
23.8794598077
 10
-4.4414213562
 20
23.8765112563
 10
-4.4318796433
 20
23.8737516983
 10
-4.42173407
 20
23.8711787434
 10
-4.4111140466
 20
23.8688252106
 10
-4.4000134956
 20
23.8666939106
 10
-4.3884384945
 20
23.8647820327
 10
-4.3765366865
 20
23.8631139635
 10
-4.3643038853
 20
23.8616928261
 10
-4.3517442772
 20
23.8605154975
 10
-4.3390180644
 20
23.8595969948
 10
-4.3261786476
 20
23.8589423239
 10
-4.3131726262
 20
23.8585464789
 10
-4.3
 20
23.8584094599
  0
LINE
  5
300
100
AcDbEntity
  8
RACCORDO
100
AcDbLine
 62
7
  6
CONTINUOUS
 10
-3.7340272952
 20
23.8174311485
 11
-3.6264756305
 21
22.5881099959
  0
LINE
  5
301
100
AcDbEntity
  8
0
100
AcDbLine
 62
7
  6
CONTINUOUS
 10
-2.5
 20
0.1946696471
 11
-2.5
 21
-0.1948447879
  0
LINE
  5
302
100
AcDbEntity
  8
DRAFT
100
AcDbLine
 62
7
  6
CONTINUOUS
 10
-2.7384728487
 20
13.2342837424
 11
-2.7412936679
 21
12.7846493531
  0
LINE
  5
303
100
AcDbEntity
  8
DRAFT
100
AcDbLine
 62
7
  6
CONTINUOUS
 10
-1.8278503214
 20
8.2758246431
 11
-1.7682568484
 21
15.1045602756
  0
LINE
  5
304
100
AcDbEntity
  8
RACCORDO
100
AcDbLine
 62
7
  6
CONTINUOUS
 10
-3.6264756305
 20
-22.5881099959
 11
-3.7340272952
 21
-23.8174311485
  0
LWPOLYLINE
  5
305
100
AcDbEntity
  8
RACCORDO
100
AcDbPolyline
 62
7
  6
CONTINUOUS
 90
25
 70
0
 10
-4.5
 20
-23.5397902522
 10
-4.4995565971
 20
-23.5357196869
 10
-4.4982756158
 20
-23.5317006052
 10
-4.4961570561
 20
-23.5277330072
 10
-4.493184719
 20
-23.5238003912
 10
-4.4893748036
 20
-23.5199192589
 10
-4.4847759065
 20
-23.5161391154
 10
-4.4793779211
 20
-23.5124612545
 10
-4.4731909541
 20
-23.5088843824
 10
-4.4662939225
 20
-23.5054541235
 10
-4.4586777303
 20
-23.5021723558
 10
-4.4503514735
 20
-23.4990372012
 10
-4.4414213562
 20
-23.4960886498
 10
-4.4318796433
 20
-23.4933290918
 10
-4.42173407
 20
-23.4907561369
 10
-4.4111140466
 20
-23.4884026041
 10
-4.4000134956
 20
-23.4862713041
 10
-4.3884384945
 20
-23.4843594262
 10
-4.3765366865
 20
-23.482691357
 10
-4.3643038853
 20
-23.4812702196
 10
-4.3517442772
 20
-23.480092891
 10
-4.3390180644
 20
-23.4791743883
 10
-4.3261786476
 20
-23.4785197174
 10
-4.3131726262
 20
-23.4781238724
 10
-4.3
 20
-23.4779868533
  0
LWPOLYLINE
  5
306
100
AcDbEntity
  8
0
100
AcDbPolyline
 62
7
  6
CONTINUOUS
 90
10
 70
0
 10
-2.4989651867
 20
0.7723370264
 10
-2.5040748532
 20
0.7600834889
 10
-2.5093855982
 20
0.7478144404
 10
-2.5148943891
 20
0.7355419543
 10
-2.520606671
 20
0.7232599382
 10
-2.5265101949
 20
0.7110007229
 10
-2.5325729628
 20
0.6988329125
 10
-2.5387792506
 20
0.6867866723
 10
-2.5451316508
 20
0.6748558928
 10
-2.5516234743
 20
0.6630532548
  0
LWPOLYLINE
  5
307
100
AcDbEntity
  8
0
100
AcDbPolyline
 62
250
  6
CONTINUOUS
 90
10
 70
0
 10
-2.3428742936
 20
0.6405958576
 10
-2.3484371741
 20
0.6304981075
 10
-2.3541315106
 20
0.6203833775
 10
-2.3599551578
 20
0.6102568539
 10
-2.3659029988
 20
0.6001286685
 10
-2.3719753704
 20
0.5899995032
 10
-2.3781784665
 20
0.57986089
 10
-2.384512881
 20
0.5697143146
 10
-2.3909731973
 20
0.5595709223
 10
-2.3975566956
 20
0.5494373327
  0
LWPOLYLINE
  5
308
100
AcDbEntity
  8
0
100
AcDbPolyline
 62
7
  6
CONTINUOUS
 90
5
 70
0
 10
-2.5516234743
 20
0.6630532548
 10
-2.5912757792
 20
0.5981101448
 10
-2.6359825488
 20
0.5360605589
 10
-2.6854156596
 20
0.4774147896
 10
-2.711955858
 20
0.450425304
  0
LWPOLYLINE
  5
309
100
AcDbEntity
  8
0
100
AcDbPolyline
 62
250
  6
CONTINUOUS
 90
8
 70
0
 10
-2.3975566956
 20
0.5494373327
 10
-2.4378105218
 20
0.4929865304
 10
-2.4825446175
 20
0.4394745289
 10
-2.5314755805
 20
0.3892823516
 10
-2.5841773304
 20
0.3429059726
 10
-2.6404617915
 20
0.3005452776
 10
-2.7004101345
 20
0.2621479747
 10
-2.7381052375
 20
0.2418233975
  0
LINE
  5
30A
100
AcDbEntity
  8
0
100
AcDbLine
 62
250
  6
CONTINUOUS
 10
-2.1311263876
 20
0.572937263
 11
-2.1885546383
 21
0.4948032522
  0
LWPOLYLINE
  5
30B
100
AcDbEntity
  8
0
100
AcDbPolyline
 62
7
  6
CONTINUOUS
 90
7
 70
0
 10
-2.0533697816
 20
0.5948895071
 10
-2.0634543677
 20
0.5818204941
 10
-2.0733994752
 20
0.5687621297
 10
-2.0832061139
 20
0.5557160053
 10
-2.0928753022
 20
0.542683691
 10
-2.1024080665
 20
0.5296667356
 10
-2.1118054414
 20
0.5166666667
  0
LWPOLYLINE
  5
30C
100
AcDbEntity
  8
0
100
AcDbPolyline
 62
250
  6
CONTINUOUS
 90
11
 70
0
 10
-2.1885546383
 20
0.4948032522
 10
-2.230560762
 20
0.4416105277
 10
-2.2763971331
 20
0.3915845488
 10
-2.3258514718
 20
0.3449457196
 10
-2.3786950879
 20
0.3019255412
 10
-2.4347208959
 20
0.2627063489
 10
-2.4937431303
 20
0.2274224315
 10
-2.5555705327
 20
0.1962276587
 10
-2.6199201206
 20
0.169325164
 10
-2.6864460894
 20
0.1469089714
 10
-2.7457704239
 20
0.1314894136
  0
LWPOLYLINE
  5
30D
100
AcDbEntity
  8
RACCORDO
100
AcDbPolyline
 62
250
  6
CONTINUOUS
 90
154
 70
0
 10
0.0
 20
-3.203014602
 10
-0.0653088026
 20
-3.2023540439
 10
-0.1306133057
 20
-3.2003512205
 10
-0.1959135095
 20
-3.1970061314
 10
-0.2612480524
 20
-3.1923189974
 10
-0.3265782959
 20
-3.1862895972
 10
-0.391788324
 20
-3.1789172683
 10
-0.4568772401
 20
-3.170197792
 10
-0.5218459407
 20
-3.1601353858
 10
-0.5865811996
 20
-3.1487420411
 10
-0.6510816196
 20
-3.1360138044
 10
-0.7153485977
 20
-3.1219546276
 10
-0.7792730992
 20
-3.1065883592
 10
-0.8428458712
 20
-3.0899142651
 10
-0.9060761665
 20
-3.0719330774
 10
-0.9688827095
 20
-3.0526708447
 10
-1.031258609
 20
-3.0321286586
 10
-1.0932107561
 20
-3.0103054249
 10
-1.1546785479
 20
-2.9872239136
 10
-1.21566488
 20
-2.9628823397
 10
-1.2761668568
 20
-2.9372824855
 10
-1.3361151881
 20
-2.9104524714
 10
-1.3955137747
 20
-2.8823886881
 10
-1.4543587157
 20
-2.8530947421
 10
-1.5125690192
 20
-2.8226095771
 10
-1.5701431437
 20
-2.7909315316
 10
-1.6270826306
 20
-2.7580622641
 10
-1.6833111113
 20
-2.7240456988
 10
-1.7388256828
 20
-2.6888814709
 10
-1.793629248
 20
-2.6525699421
 10
-1.8476541473
 20
-2.6151561266
 10
-1.900899353
 20
-2.5766388705
 10
-1.9533658928
 20
-2.5370193245
 10
-2.0049891903
 20
-2.4963459598
 10
-2.0557688942
 20
-2.4546169837
 10
-2.1057053558
 20
-2.4118341859
 10
-2.1547350518
 20
-2.3680514108
 10
-2.2028570109
 20
-2.3232671727
 10
-2.2500722044
 20
-2.2774829549
 10
-2.2963200235
 20
-2.230757055
 10
-2.3415990271
 20
-2.1830884441
 10
-2.3859106562
 20
-2.1344781491
 10
-2.4291986249
 20
-2.0849875522
 10
-2.4714615893
 20
-2.0346155997
 10
-2.5127008933
 20
-1.9833633436
 10
-2.5528642826
 20
-1.9312953249
 10
-2.5919504203
 20
-1.8784104965
 10
-2.6299606433
 20
-1.8247099043
 10
-2.6668467072
 20
-1.7702612293
 10
-2.7026072557
 20
-1.7150634134
 10
-2.7372436451
 20
-1.6591175141
 10
-2.7707116992
 20
-1.6024943863
 10
-2.8030099056
 20
-1.5451932018
 10
-2.8341397766
 20
-1.4872147888
 10
-2.864061673
 20
-1.4286324872
 10
-2.892774067
 20
-1.3694455068
 10
-2.9202784864
 20
-1.3096546384
 10
-2.9465398753
 20
-1.2493355937
 10
-2.9715566461
 20
-1.1884877115
 10
-2.9953303865
 20
-1.1271116542
 10
-3.0178308039
 20
-1.0652851188
 10
-3.0390562846
 20
-1.0030075094
 10
-3.0590084424
 20
-0.9402794236
 10
-3.0776618263
 20
-0.8771803495
 10
-3.0950147827
 20
-0.8137097972
 10
-3.1110689652
 20
-0.7498682587
 10
-3.1258038829
 20
-0.6857366946
 10
-3.1392178481
 20
-0.6213147558
 10
-3.1513125485
 20
-0.556602794
 10
-3.1620725561
 20
-0.4916828208
 10
-3.1714961722
 20
-0.4265545326
 10
-3.1795850955
 20
-0.3612182359
 10
-3.1863289935
 20
-0.2957568586
 10
-3.1917261453
 20
-0.230170285
 10
-3.1957782718
 20
-0.1644586339
 10
-3.1984802041
 20
-0.0987051851
 10
-3.199830219
 20
-0.0329098348
 10
-3.1998300396
 20
0.03292731
 10
-3.198479666
 20
0.0987226535
 10
-3.1957773753
 20
0.1644760886
 10
-3.1917248905
 20
0.2301877193
 10
-3.1863273809
 20
0.2957742659
 10
-3.1795831256
 20
0.3612356096
 10
-3.1714938455
 20
0.4265718662
 10
-3.1620698734
 20
0.4917001075
 10
-3.1513095108
 20
0.5566200266
 10
-3.1392144562
 20
0.6213319276
 10
-3.125800138
 20
0.685753799
 10
-3.1110648684
 20
0.7498852895
 10
-3.0950103351
 20
0.813726748
 10
-3.0776570295
 20
0.8771972129
 10
-3.0590032985
 20
0.9402961921
 10
-3.0390507951
 20
1.0030241756
 10
-3.017824971
 20
1.065301676
 10
-2.995324212
 20
1.1271280957
 10
-2.9715501323
 20
1.1885040306
 10
-2.9465330246
 20
1.2493517836
 10
-2.9202713011
 20
1.3096706923
 10
-2.8927665498
 20
1.3694614179
 10
-2.8640538269
 20
1.4286482486
 10
-2.8341316045
 20
1.4872303935
 10
-2.8030014105
 20
1.5452086429
 10
-2.7707028853
 20
1.6025096563
 10
-2.7372345168
 20
1.6591326046
 10
-2.7025978171
 20
1.7150783169
 10
-2.6668369622
 20
1.7702759396
 10
-2.6299505965
 20
1.8247244144
 10
-2.5919400756
 20
1.8784248001
 10
-2.552853642
 20
1.9313094187
 10
-2.5126899577
 20
1.9833772257
 10
-2.4714503607
 20
2.0346292668
 10
-2.4291871067
 20
2.0850009992
 10
-2.38589885
 20
2.1344913725
 10
-2.3415869362
 20
2.1831014387
 10
-2.2963076587
 20
2.2307698093
 10
-2.2500595778
 20
2.2774954553
 10
-2.2028441331
 20
2.3232794079
 10
-2.1547219363
 20
2.3680633695
 10
-2.105692024
 20
2.4118458511
 10
-2.0557553596
 20
2.4546283443
 10
-2.0049754452
 20
2.4963570224
 10
-1.9533519286
 20
2.5370300991
 10
-1.900885162
 20
2.5766493635
 10
-1.8476397042
 20
2.6151663524
 10
-1.7936145047
 20
2.6525799289
 10
-1.738810614
 20
2.688891233
 10
-1.6832957423
 20
2.7240552161
 10
-1.627066978
 20
2.7580715152
 10
-1.5701272326
 20
2.7909404965
 10
-1.512552951
 20
2.8226182061
 10
-1.4543426469
 20
2.8531029573
 10
-1.3954978066
 20
2.8823964399
 10
-1.3360993343
 20
2.9104597655
 10
-1.2761511747
 20
2.9372893227
 10
-1.2156493831
 20
2.962888726
 10
-1.1546630305
 20
2.9872299254
 10
-1.0931949219
 20
3.010311181
 10
-1.0312422523
 20
3.0321342354
 10
-0.9688656777
 20
3.0526762629
 10
-0.9060581884
 20
3.0719383742
 10
-0.8428267942
 20
3.0899194609
 10
-0.7792531809
 20
3.106593368
 10
-0.7153281372
 20
3.1219593228
 10
-0.6510608744
 20
3.1360181
 10
-0.5865607127
 20
3.1487458661
 10
-0.521826349
 20
3.1601386417
 10
-0.4568590863
 20
3.1702004079
 10
-0.3917721543
 20
3.1789192709
 10
-0.3265649242
 20
3.1862910121
 10
-0.2612380247
 20
3.1923198512
 10
-0.195906571
 20
3.1970065531
 10
-0.1306089349
 20
3.2003513728
 10
-0.0653067445
 20
3.2023540557
 10
0.0
 20
3.203014602
  0
LWPOLYLINE
  5
30E
100
AcDbEntity
  8
0
100
AcDbPolyline
 62
7
  6
CONTINUOUS
 90
22
 70
0
 10
0.0
 20
-2.45
 10
-0.1514603813
 20
-2.4457250043
 10
-0.3025060896
 20
-2.4329440546
 10
-0.4526520683
 20
-2.4117236114
 10
-0.6013713511
 20
-2.3821395646
 10
-0.7482130878
 20
-2.3442549013
 10
-0.8927996887
 20
-2.2981058273
 10
-1.0347149936
 20
-2.2438148256
 10
-1.1734563218
 20
-2.1815960495
 10
-1.3085307642
 20
-2.1116730711
 10
-1.439466067
 20
-2.0342676734
 10
-1.5658220277
 20
-1.9495858413
 10
-1.6871942644
 20
-1.857884589
 10
-1.8031791542
 20
-1.7595316075
 10
-1.9134577575
 20
-1.6548348294
 10
-2.0177810348
 20
-1.5440053747
 10
-2.115839641
 20
-1.4272658153
 10
-2.2071770017
 20
-1.305066652
 10
-2.2913986881
 20
-1.1780096693
 10
-2.3682373704
 20
-1.0466029221
 10
-2.4375041915
 20
-0.9112293194
 10
-2.4989651867
 20
-0.7723370264
  0
LWPOLYLINE
  5
30F
100
AcDbEntity
  8
0
100
AcDbPolyline
 62
250
  6
CONTINUOUS
 90
19
 70
0
 10
0.0
 20
-1.9572123903
 10
-0.1707398747
 20
-1.951412713
 10
-0.3397165347
 20
-1.9360555963
 10
-0.5062248731
 20
-1.9113427962
 10
-0.6696878534
 20
-1.8774495305
 10
-0.8293478884
 20
-1.834595532
 10
-0.9843225633
 20
-1.7831923307
 10
-1.1338404025
 20
-1.7237566014
 10
-1.2776853812
 20
-1.6566025621
 10
-1.415846539
 20
-1.5818556817
 10
-1.5480960175
 20
-1.4997201601
 10
-1.6738263658
 20
-1.410764126
 10
-1.7924757881
 20
-1.3156199093
 10
-1.9036425519
 20
-1.2148627953
 10
-2.0071766525
 20
-1.1088626627
 10
-2.1030009575
 20
-0.9979798637
 10
-2.1910002711
 20
-0.8826477652
 10
-2.2710008938
 20
-0.7633697946
 10
-2.3428742936
 20
-0.6405958576
  0
LINE
  5
310
100
AcDbEntity
  8
0
100
AcDbLine
 62
7
  6
CONTINUOUS
 10
0.0
 20
-1.6
 11
-0.1949198758
 21
-1.5926157254
  0
LINE
  5
311
100
AcDbEntity
  8
0
100
AcDbLine
 62
7
  6
CONTINUOUS
 10
-0.1949198758
 20
-1.5926157254
 11
-0.2011730218
 21
-1.5921655965
  0
LINE
  5
312
100
AcDbEntity
  8
0
100
AcDbLine
 62
7
  6
CONTINUOUS
 10
-0.1949037394
 20
-1.59245108
 11
-0.3160890516
 21
-1.580574047
  0
LWPOLYLINE
  5
313
100
AcDbEntity
  8
0
100
AcDbPolyline
 62
250
  6
CONTINUOUS
 90
15
 70
0
 10
-0.2011730218
 20
-1.5921655965
 10
-0.3537828321
 20
-1.5770188693
 10
-0.526159643
 20
-1.5500941117
 10
-0.6945289468
 20
-1.5132931218
 10
-0.8582036189
 20
-1.4669620459
 10
-1.0165436509
 20
-1.4114895608
 10
-1.1689361175
 20
-1.3472739456
 10
-1.3149083579
 20
-1.2746907358
 10
-1.454133549
 20
-1.1942051556
 10
-1.5861770456
 20
-1.1064127157
 10
-1.7107509446
 20
-1.0118175515
 10
-1.8277809122
 20
-0.9107258353
 10
-1.9370576485
 20
-0.8035397648
 10
-2.0382490834
 20
-0.6907933093
 10
-2.1311263876
 20
-0.572937263
  0
LWPOLYLINE
  5
314
100
AcDbEntity
  8
0
100
AcDbPolyline
 62
7
  6
CONTINUOUS
 90
13
 70
0
 10
-0.3160890516
 20
-1.580574047
 10
-0.4723511913
 20
-1.5565265815
 10
-0.6266682257
 20
-1.5231341867
 10
-0.7785174955
 20
-1.4805478054
 10
-0.9274205864
 20
-1.4288989726
 10
-1.0728703726
 20
-1.3683199912
 10
-1.2143321418
 20
-1.2989631695
 10
-1.3513150443
 20
-1.2210903638
 10
-1.4833699736
 20
-1.1350421309
 10
-1.610024005
 20
-1.0411766452
 10
-1.7307839896
 20
-0.9398783654
 10
-1.8452020951
 20
-0.8315097411
 10
-1.9528690927
 20
-0.7164013268
  0
LWPOLYLINE
  5
315
100
AcDbEntity
  8
0
100
AcDbPolyline
 62
7
  6
CONTINUOUS
 90
10
 70
0
 10
-2.2023598246
 20
-0.40771707
 10
-2.2528740707
 20
-0.3586111048
 10
-2.3067046879
 20
-0.3132126513
 10
-2.3635779745
 20
-0.2717490708
 10
-2.4230036778
 20
-0.2345347499
 10
-2.4847137919
 20
-0.2016660753
 10
-2.5485203588
 20
-0.1731931587
 10
-2.613973449
 20
-0.14929073
 10
-2.6807633349
 20
-0.1300440046
 10
-2.7468543903
 20
-0.1158866196
  0
LINE
  5
316
100
AcDbEntity
  8
0
100
AcDbLine
 62
7
  6
CONTINUOUS
 10
-1.9528690927
 20
-0.7164013268
 11
-2.0533688672
 21
-0.5948906844
  0
LWPOLYLINE
  5
317
100
AcDbEntity
  8
0
100
AcDbPolyline
 62
250
  6
CONTINUOUS
 90
11
 70
0
 10
-2.1885546383
 20
-0.4948032522
 10
-2.230560762
 20
-0.4416105277
 10
-2.2763971331
 20
-0.3915845488
 10
-2.3258514718
 20
-0.3449457196
 10
-2.3786950879
 20
-0.3019255412
 10
-2.4347208959
 20
-0.2627063489
 10
-2.4937431303
 20
-0.2274224315
 10
-2.5555705327
 20
-0.1962276587
 10
-2.6199201206
 20
-0.169325164
 10
-2.6864460894
 20
-0.1469089714
 10
-2.7457704239
 20
-0.1314894136
  0
LWPOLYLINE
  5
318
100
AcDbEntity
  8
0
100
AcDbPolyline
 62
7
  6
CONTINUOUS
 90
3
 70
0
 10
-2.1118054414
 20
-0.5166666667
 10
-2.1552699454
 20
-0.4604528062
 10
-2.2023598246
 20
-0.40771707
  0
LINE
  5
319
100
AcDbEntity
  8
0
100
AcDbLine
 62
7
  6
CONTINUOUS
 10
-2.0533688672
 20
-0.5948906844
 11
-2.0666556959
 21
-0.5776369988
  0
LINE
  5
31A
100
AcDbEntity
  8
0
100
AcDbLine
 62
7
  6
CONTINUOUS
 10
-2.0666556959
 20
-0.5776369988
 11
-2.0797334041
 21
-0.560358132
  0
LINE
  5
31B
100
AcDbEntity
  8
0
100
AcDbLine
 62
7
  6
CONTINUOUS
 10
-2.0797334041
 20
-0.560358132
 11
-2.0926371637
 21
-0.5430089095
  0
LINE
  5
31C
100
AcDbEntity
  8
0
100
AcDbLine
 62
250
  6
CONTINUOUS
 10
-2.1311263876
 20
-0.572937263
 11
-2.1885546383
 21
-0.4948032522
  0
LWPOLYLINE
  5
31D
100
AcDbEntity
  8
0
100
AcDbPolyline
 62
7
  6
CONTINUOUS
 90
3
 70
0
 10
-2.0926371637
 20
-0.5430089095
 10
-2.1054394753
 20
-0.5254920312
 10
-2.1118054414
 20
-0.5166666667
  0
LWPOLYLINE
  5
31E
100
AcDbEntity
  8
0
100
AcDbPolyline
 62
250
  6
CONTINUOUS
 90
8
 70
0
 10
-2.3975566956
 20
-0.5494373327
 10
-2.4378105218
 20
-0.4929865304
 10
-2.4825446175
 20
-0.4394745289
 10
-2.5314755805
 20
-0.3892823516
 10
-2.5841773304
 20
-0.3429059726
 10
-2.6404617915
 20
-0.3005452776
 10
-2.7004101345
 20
-0.2621479747
 10
-2.7381052375
 20
-0.2418233975
  0
LWPOLYLINE
  5
31F
100
AcDbEntity
  8
0
100
AcDbPolyline
 62
7
  6
CONTINUOUS
 90
5
 70
0
 10
-2.5516234743
 20
-0.6630532548
 10
-2.5912757792
 20
-0.5981101448
 10
-2.6359825488
 20
-0.5360605589
 10
-2.6854156596
 20
-0.4774147896
 10
-2.711955858
 20
-0.450425304
  0
LWPOLYLINE
  5
320
100
AcDbEntity
  8
0
100
AcDbPolyline
 62
250
  6
CONTINUOUS
 90
10
 70
0
 10
-2.3428742936
 20
-0.6405958576
 10
-2.3484371741
 20
-0.6304981075
 10
-2.3541315106
 20
-0.6203833775
 10
-2.3599551578
 20
-0.6102568539
 10
-2.3659029988
 20
-0.6001286685
 10
-2.3719753704
 20
-0.5899995032
 10
-2.3781784665
 20
-0.57986089
 10
-2.384512881
 20
-0.5697143146
 10
-2.3909731973
 20
-0.5595709223
 10
-2.3975566956
 20
-0.5494373327
  0
LWPOLYLINE
  5
321
100
AcDbEntity
  8
0
100
AcDbPolyline
 62
7
  6
CONTINUOUS
 90
10
 70
0
 10
-2.4989651867
 20
-0.7723370264
 10
-2.5040748532
 20
-0.7600834889
 10
-2.5093855982
 20
-0.7478144404
 10
-2.5148943891
 20
-0.7355419543
 10
-2.520606671
 20
-0.7232599382
 10
-2.5265101949
 20
-0.7110007229
 10
-2.5325729628
 20
-0.6988329125
 10
-2.5387792506
 20
-0.6867866723
 10
-2.5451316508
 20
-0.6748558928
 10
-2.5516234743
 20
-0.6630532548
  0
LINE
  5
322
100
AcDbEntity
  8
0
100
AcDbLine
 62
7
  6
CONTINUOUS
 10
-0.5
 20
-0.5
 11
-0.5
 21
-1.5505437039
  0
LINE
  5
323
100
AcDbEntity
  8
0
100
AcDbLine
 62
250
  6
CONTINUOUS
 10
-0.5
 20
-0.4
 11
-0.5
 21
-0.5
  0
LINE
  5
324
100
AcDbEntity
  8
SMUSSO
100
AcDbLine
 62
7
  6
CONTINUOUS
 10
-0.4785418101
 20
-0.5
 11
-0.4785418101
 21
-1.5551870043
  0
LINE
  5
325
100
AcDbEntity
  8
0
100
AcDbLine
 62
250
  6
CONTINUOUS
 10
0.0
 20
-2.75
 11
0.0
 21
-1.6
  0
LINE
  5
326
100
AcDbEntity
  8
0
100
AcDbLine
 62
250
  6
CONTINUOUS
 10
0.0
 20
1.6
 11
0.0
 21
2.75
  0
LINE
  5
327
100
AcDbEntity
  8
ASSI
100
AcDbLine
 62
7
  6
CONTINUOUS
 10
-2.6466533245
 20
-12.0865521124
 11
-2.7217941262
 21
-12.6071428571
  0
LINE
  5
328
100
AcDbEntity
  8
0
100
AcDbLine
 62
7
  6
CONTINUOUS
 10
-2.7223229517
 20
-13.3864000029
 11
-2.4665645264
 21
-11.6750804204
  0
LINE
  5
329
100
AcDbEntity
  8
0
100
AcDbLine
 62
7
  6
CONTINUOUS
 10
-2.1826371148
 20
-9.775277749
 11
-2.0068128728
 21
-8.5988102752
  0
LINE
  5
32A
100
AcDbEntity
  8
DRAFT
100
AcDbLine
 62
7
  6
CONTINUOUS
 10
-2.7180473238
 20
-13.4152941982
 11
-2.4546911198
 21
-11.6532365326
  0
LINE
  5
32B
100
AcDbEntity
  8
DRAFT
100
AcDbLine
 62
7
  6
CONTINUOUS
 10
-2.1785427803
 20
-9.8055895394
 11
-1.9939449336
 21
-8.5704864896
  0
LWPOLYLINE
  5
32C
100
AcDbEntity
  8
RACCORDO
100
AcDbPolyline
 62
250
  6
CONTINUOUS
 90
13
 70
0
 10
1.9560665198
 20
10.5068783273
 10
1.9561422851
 20
10.5072713869
 10
1.9566576394
 20
10.5078902856
 10
1.9576119454
 20
10.5087342583
 10
1.9590040234
 20
10.5098022616
 10
1.9608321524
 20
10.5110929752
 10
1.9630940724
 20
10.5126048033
 10
1.9657869868
 20
10.5143358769
 10
1.9689075667
 20
10.516284056
 10
1.9724519539
 20
10.5184469319
 10
1.9764157666
 20
10.5208218308
 10
1.9807941045
 20
10.5234058166
 10
1.9855815546
 20
10.5261956948
  0
LWPOLYLINE
  5
32D
100
AcDbEntity
  8
RACCORDO
100
AcDbPolyline
 62
250
  6
CONTINUOUS
 90
13
 70
0
 10
-1.9560665198
 20
-10.5068783273
 10
-1.9561422851
 20
-10.5072713869
 10
-1.9566576394
 20
-10.5078902856
 10
-1.9576119454
 20
-10.5087342583
 10
-1.9590040234
 20
-10.5098022616
 10
-1.9608321524
 20
-10.5110929752
 10
-1.9630940724
 20
-10.5126048033
 10
-1.9657869868
 20
-10.5143358769
 10
-1.9689075667
 20
-10.516284056
 10
-1.9724519539
 20
-10.5184469319
 10
-1.9764157666
 20
-10.5208218308
 10
-1.9807941045
 20
-10.5234058166
 10
-1.9855815546
 20
-10.5261956948
  0
LWPOLYLINE
  5
32E
100
AcDbEntity
  8
300081450
100
AcDbPolyline
 62
7
  6
CONTINUOUS
 90
8
 70
0
 10
2.5533121669
 20
12.2555224363
 10
2.5659112166
 20
12.3046471076
 10
2.5934544895
 20
12.4312157866
 10
2.6164204245
 20
12.5584817681
 10
2.6349260552
 20
12.6862707038
 10
2.6490905668
 20
12.8144193891
 10
2.6590436159
 20
12.9428188425
 10
2.6603711371
 20
12.9718707323
  0
LWPOLYLINE
  5
32F
100
AcDbEntity
  8
RACCORDO
100
AcDbPolyline
 62
250
  6
CONTINUOUS
 90
44
 70
0
 10
2.33444326
 20
8.3631572588
 10
2.3586882519
 20
8.4140316519
 10
2.3818251066
 20
8.4654202177
 10
2.4038556292
 20
8.5173226964
 10
2.4247489154
 20
8.5696665649
 10
2.4445032984
 20
8.6224519936
 10
2.4631204448
 20
8.675678804
 10
2.4805744511
 20
8.7292739506
 10
2.4968639233
 20
8.7832384163
 10
2.5119902552
 20
8.8375712107
 10
2.5259317244
 20
8.8921963298
 10
2.5386868289
 20
8.9471154299
 10
2.5502570707
 20
9.0023268481
 10
2.5606252333
 20
9.0577496031
 10
2.5697893219
 20
9.11338378
 10
2.5777513315
 20
9.1692292881
 10
2.5845000299
 20
9.2252048837
 10
2.5900335173
 20
9.2813089718
 10
2.5943536937
 20
9.3375431431
 10
2.5974550265
 20
9.3938309333
 10
2.5993360538
 20
9.4501721673
 10
2.5999982375
 20
9.5065670174
 10
2.5994404317
 20
9.5629395413
 10
2.5976608289
 20
9.6192922687
 10
2.5946612365
 20
9.6756226684
 10
2.5904459306
 20
9.7318472086
 10
2.5850127158
 20
9.7879662367
 10
2.5783637875
 20
9.8439794054
 10
2.5705100078
 20
9.899802142
 10
2.5614532179
 20
9.9554200511
 10
2.5511915766
 20
10.0108475298
 10
2.5397304232
 20
10.0660431965
 10
2.527064053
 20
10.1210275279
 10
2.5131981707
 20
10.1757800496
 10
2.4981552294
 20
10.2301979536
 10
2.481927241
 20
10.2842898063
 10
2.4645221937
 20
10.3380470457
 10
2.4459865049
 20
10.3913411731
 10
2.4263136769
 20
10.4441703252
 10
2.4055102073
 20
10.4965363722
 10
2.3836420069
 20
10.5483164179
 10
2.3607310459
 20
10.5994695006
 10
2.336755354
 20
10.6500365914
 10
2.3117149312
 20
10.7000176948
  0
LINE
  5
330
100
AcDbEntity
  8
0
100
AcDbLine
 62
250
  6
CONTINUOUS
 10
-2.4989651867
 20
-0.7723370264
 11
-2.3428742936
 21
-0.6405958576
  0
LWPOLYLINE
  5
331
100
AcDbEntity
  8
0
100
AcDbPolyline
 62
250
  6
CONTINUOUS
 90
10
 70
0
 10
-2.3428742936
 20
-0.6405958576
 10
-2.3185623214
 20
-0.6213493173
 10
-2.2944172897
 20
-0.6048522855
 10
-2.2704391984
 20
-0.5911949021
 10
-2.2465891592
 20
-0.5804465504
 10
-2.2229060605
 20
-0.572711234
 10
-2.1995065675
 20
-0.5680785182
 10
-2.1764295685
 20
-0.5665697838
 10
-2.1536361752
 20
-0.5681876856
 10
-2.1311263876
 20
-0.572937263
  0
LINE
  5
332
100
AcDbEntity
  8
0
100
AcDbLine
 62
250
  6
CONTINUOUS
 10
-2.5516234743
 20
-0.6630532548
 11
-2.3975566956
 21
-0.5494373327
  0
LWPOLYLINE
  5
333
100
AcDbEntity
  8
0
100
AcDbPolyline
 62
250
  6
CONTINUOUS
 90
10
 70
0
 10
-2.3975566956
 20
-0.5494373327
 10
-2.3733415672
 20
-0.532741347
 10
-2.3493515189
 20
-0.5185806207
 10
-2.3255865507
 20
-0.507019798
 10
-2.3020158769
 20
-0.4981068283
 10
-2.2786702832
 20
-0.4919099872
 10
-2.2556421267
 20
-0.488482731
 10
-2.2329621933
 20
-0.4878291494
 10
-2.2105996971
 20
-0.4899396223
 10
-2.1885546383
 20
-0.4948032522
  0
LINE
  5
334
100
AcDbEntity
  8
0
100
AcDbLine
 62
250
  6
CONTINUOUS
 10
-2.5516234743
 20
-0.6630532548
 11
-2.6526900224
 21
-0.7195476894
  0
LINE
  5
335
100
AcDbEntity
  8
0
100
AcDbLine
 62
7
  6
CONTINUOUS
 10
-2.4989651867
 20
-0.7723370264
 11
-2.6230476225
 21
-0.8230996657
  0
LINE
  5
336
100
AcDbEntity
  8
0
100
AcDbLine
 62
7
  6
CONTINUOUS
 10
2.5138633148
 20
0.7351351351
 11
2.6346755044
 21
0.7824791303
  0
LWPOLYLINE
  5
337
100
AcDbEntity
  8
0
100
AcDbPolyline
 62
250
  6
CONTINUOUS
 90
10
 70
0
 10
2.3304601878
 20
0.6590056897
 10
2.3012382634
 20
0.6479165342
 10
2.2723915086
 20
0.6390920041
 10
2.2439199234
 20
0.6325671696
 10
2.215797863
 20
0.6283662332
 10
2.1880509721
 20
0.6265154826
 10
2.160756185
 20
0.627022039
 10
2.1339391463
 20
0.6298662146
 10
2.1075742113
 20
0.6350234772
 10
2.0816613801
 20
0.6424624211
  0
LINE
  5
338
100
AcDbEntity
  8
0
100
AcDbLine
 62
250
  6
CONTINUOUS
 10
-2.1885546383
 20
0.4948032522
 11
-2.1118054414
 21
0.5166666667
  0
LWPOLYLINE
  5
339
100
AcDbEntity
  8
0
100
AcDbPolyline
 62
250
  6
CONTINUOUS
 90
10
 70
0
 10
2.7457394144
 20
-0.1319357695
 10
2.7035243114
 20
-0.142784381
 10
2.6284235832
 20
-0.168415809
 10
2.5559631445
 20
-0.1996157846
 10
2.4865256012
 20
-0.2361879607
 10
2.4205207093
 20
-0.2779276121
 10
2.3588535481
 20
-0.3241955963
 10
2.3019115085
 20
-0.3745004866
 10
2.2496691597
 20
-0.428597658
 10
2.2022915889
 20
-0.4860895461
  0
LINE
  5
33A
100
AcDbEntity
  8
0
100
AcDbLine
 62
250
  6
CONTINUOUS
 10
2.6303442796
 20
0.519948104
 11
2.4487018674
 21
0.4778397294
  0
LWPOLYLINE
  5
33B
100
AcDbEntity
  8
0
100
AcDbPolyline
 62
250
  6
CONTINUOUS
 90
10
 70
0
 10
2.4487018674
 20
0.4778397294
 10
2.4190847453
 20
0.4717957165
 10
2.3900312065
 20
0.4675282315
 10
2.361541251
 20
0.4650336243
 10
2.3336202555
 20
0.4642993542
 10
2.3062628433
 20
0.4653039102
 10
2.2794528836
 20
0.4680207583
 10
2.2531849995
 20
0.4724181921
 10
2.227464568
 20
0.4784563651
 10
2.2022915889
 20
0.4860895461
  0
LWPOLYLINE
  5
33C
100
AcDbEntity
  8
0
100
AcDbPolyline
 62
7
  6
CONTINUOUS
 90
5
 70
0
 10
2.7468216655
 20
-0.1163576657
 10
2.6911544711
 20
-0.1273849831
 10
2.6150480776
 20
-0.1488585561
 10
2.5404806916
 20
-0.1764649756
 10
2.4683777516
 20
-0.2098541809
  0
LINE
  5
33D
100
AcDbEntity
  8
0
100
AcDbLine
 62
7
  6
CONTINUOUS
 10
1.6343303518
 20
-1.01
 11
0.7
 21
-1.01
  0
LINE
  5
33E
100
AcDbEntity
  8
0
100
AcDbLine
 62
7
  6
CONTINUOUS
 10
1.6348428827
 20
-1.0
 11
0.9
 21
-1.0
  0
LINE
  5
33F
100
AcDbEntity
  8
0
100
AcDbLine
 62
7
  6
CONTINUOUS
 10
1.6343303518
 20
-0.99
 11
0.7
 21
-0.99
  0
LINE
  5
340
100
AcDbEntity
  8
0
100
AcDbLine
 62
7
  6
CONTINUOUS
 10
-0.5
 20
-0.5
 11
0.7
 21
-0.5
  0
LINE
  5
341
100
AcDbEntity
  8
0
100
AcDbLine
 62
250
  6
CONTINUOUS
 10
0.7
 20
-0.44
 11
1.6343303518
 21
-0.44
  0
LINE
  5
342
100
AcDbEntity
  8
0
100
AcDbLine
 62
250
  6
CONTINUOUS
 10
0.7
 20
-0.4
 11
-0.5
 21
-0.4
  0
LWPOLYLINE
  5
343
100
AcDbEntity
  8
0
100
AcDbPolyline
 62
250
  6
CONTINUOUS
 90
10
 70
0
 10
2.4487018674
 20
-0.4778397294
 10
2.4190847453
 20
-0.4717957165
 10
2.3900312065
 20
-0.4675282315
 10
2.361541251
 20
-0.4650336243
 10
2.3336202555
 20
-0.4642993542
 10
2.3062628433
 20
-0.4653039102
 10
2.2794528836
 20
-0.4680207583
 10
2.2531849995
 20
-0.4724181921
 10
2.227464568
 20
-0.4784563651
 10
2.2022915889
 20
-0.4860895461
  0
LINE
  5
344
100
AcDbEntity
  8
0
100
AcDbLine
 62
250
  6
CONTINUOUS
 10
2.6303442796
 20
-0.519948104
 11
2.4487018674
 21
-0.4778397294
  0
LINE
  5
345
100
AcDbEntity
  8
0
100
AcDbLine
 62
250
  6
CONTINUOUS
 10
2.0506543031
 20
-0.4969580155
 11
2.1124929019
 21
-0.5142012612
  0
LINE
  5
346
100
AcDbEntity
  8
0
100
AcDbLine
 62
250
  6
CONTINUOUS
 10
-2.1311263876
 20
-0.572937263
 11
-2.0533688672
 21
-0.5948906844
  0
LINE
  5
347
100
AcDbEntity
  8
0
100
AcDbLine
 62
250
  6
CONTINUOUS
 10
-2.1885546383
 20
-0.4948032522
 11
-2.1118054414
 21
-0.5166666667
  0
LWPOLYLINE
  5
348
100
AcDbEntity
  8
0
100
AcDbPolyline
 62
250
  6
CONTINUOUS
 90
10
 70
0
 10
2.3304601878
 20
-0.6590056897
 10
2.3012382634
 20
-0.6479165342
 10
2.2723915086
 20
-0.6390920041
 10
2.2439199234
 20
-0.6325671696
 10
2.215797863
 20
-0.6283662332
 10
2.1880509721
 20
-0.6265154826
 10
2.160756185
 20
-0.627022039
 10
2.1339391463
 20
-0.6298662146
 10
2.1075742113
 20
-0.6350234772
 10
2.0816613801
 20
-0.6424624211
  0
LINE
  5
349
100
AcDbEntity
  8
0
100
AcDbLine
 62
7
  6
CONTINUOUS
 10
2.5138633148
 20
-0.7351351351
 11
2.6346755044
 21
-0.7824791303
  0
LINE
  5
34A
100
AcDbEntity
  8
0
100
AcDbLine
 62
7
  6
CONTINUOUS
 10
-2.4989651867
 20
0.7723370264
 11
-2.6230476225
 21
0.8230996657
  0
LINE
  5
34B
100
AcDbEntity
  8
0
100
AcDbLine
 62
250
  6
CONTINUOUS
 10
-2.5516234743
 20
0.6630532548
 11
-2.6526900224
 21
0.7195476894
  0
LWPOLYLINE
  5
34C
100
AcDbEntity
  8
0
100
AcDbPolyline
 62
250
  6
CONTINUOUS
 90
10
 70
0
 10
-2.3975566956
 20
0.5494373327
 10
-2.3733415672
 20
0.532741347
 10
-2.3493515189
 20
0.5185806207
 10
-2.3255865507
 20
0.507019798
 10
-2.3020158769
 20
0.4981068283
 10
-2.2786702832
 20
0.4919099872
 10
-2.2556421267
 20
0.488482731
 10
-2.2329621933
 20
0.4878291494
 10
-2.2105996971
 20
0.4899396223
 10
-2.1885546383
 20
0.4948032522
  0
LINE
  5
34D
100
AcDbEntity
  8
0
100
AcDbLine
 62
250
  6
CONTINUOUS
 10
-2.5516234743
 20
0.6630532548
 11
-2.3975566956
 21
0.5494373327
  0
LWPOLYLINE
  5
34E
100
AcDbEntity
  8
0
100
AcDbPolyline
 62
250
  6
CONTINUOUS
 90
10
 70
0
 10
-2.3428742936
 20
0.6405958576
 10
-2.3185623214
 20
0.6213493173
 10
-2.2944172897
 20
0.6048522855
 10
-2.2704391984
 20
0.5911949021
 10
-2.2465891592
 20
0.5804465504
 10
-2.2229060605
 20
0.572711234
 10
-2.1995065675
 20
0.5680785182
 10
-2.1764295685
 20
0.5665697838
 10
-2.1536361752
 20
0.5681876856
 10
-2.1311263876
 20
0.572937263
  0
LINE
  5
34F
100
AcDbEntity
  8
0
100
AcDbLine
 62
250
  6
CONTINUOUS
 10
-2.4989651867
 20
0.7723370264
 11
-2.3428742936
 21
0.6405958576
  0
LWPOLYLINE
  5
350
100
AcDbEntity
  8
RACCORDO
100
AcDbPolyline
 62
250
  6
CONTINUOUS
 90
14
 70
0
 10
1.9560664637
 20
-10.5068782984
 10
1.956142229
 20
-10.507271358
 10
1.9566575834
 20
-10.5078902568
 10
1.9576118896
 20
-10.5087342296
 10
1.9590039678
 20
-10.509802233
 10
1.9608320972
 20
-10.5110929468
 10
1.9630940175
 20
-10.5126047751
 10
1.9657869325
 20
-10.514335849
 10
1.9689075129
 20
-10.5162840283
 10
1.9724519007
 20
-10.5184469046
 10
1.9764157142
 20
-10.5208218038
 10
1.9807940529
 20
-10.5234057901
 10
1.9855815039
 20
-10.5261956688
 10
1.9963595698
 20
-10.5323790567
  0
LWPOLYLINE
  5
351
100
AcDbEntity
  8
RACCORDO
100
AcDbPolyline
 62
250
  6
CONTINUOUS
 90
14
 70
0
 10
-1.9560664637
 20
10.5068782984
 10
-1.956142229
 20
10.507271358
 10
-1.9566575834
 20
10.5078902568
 10
-1.9576118895
 20
10.5087342296
 10
-1.9590039678
 20
10.509802233
 10
-1.9608320972
 20
10.5110929468
 10
-1.9630940175
 20
10.5126047751
 10
-1.9657869325
 20
10.514335849
 10
-1.9689075129
 20
10.5162840283
 10
-1.9724519007
 20
10.5184469046
 10
-1.9764157142
 20
10.5208218038
 10
-1.9807940529
 20
10.5234057901
 10
-1.9855815039
 20
10.5261956687
 10
-1.9963595698
 20
10.5323790567
  0
LINE
  5
352
100
AcDbEntity
  8
ASSI
100
AcDbLine
 62
7
  6
CONTINUOUS
 10
-2.7217941262
 20
12.6071428571
 11
-2.6466533242
 21
12.0865521102
  0
LWPOLYLINE
  5
353
100
AcDbEntity
  8
RACCORDO
100
AcDbPolyline
 62
7
  6
CONTINUOUS
 90
25
 70
0
 10
4.5
 20
-23.9202128587
 10
4.4995565971
 20
-23.9161422934
 10
4.4982756158
 20
-23.9121232117
 10
4.4961570561
 20
-23.9081556138
 10
4.493184719
 20
-23.9042229977
 10
4.4893748036
 20
-23.9003418654
 10
4.4847759065
 20
-23.8965617219
 10
4.4793779211
 20
-23.892883861
 10
4.4731909541
 20
-23.8893069889
 10
4.4662939225
 20
-23.88587673
 10
4.4586777303
 20
-23.8825949623
 10
4.4503514735
 20
-23.8794598077
 10
4.4414213562
 20
-23.8765112563
 10
4.4318796433
 20
-23.8737516983
 10
4.42173407
 20
-23.8711787434
 10
4.4111140466
 20
-23.8688252106
 10
4.4000134956
 20
-23.8666939106
 10
4.3884384945
 20
-23.8647820327
 10
4.3765366865
 20
-23.8631139635
 10
4.3643038853
 20
-23.8616928261
 10
4.3517442772
 20
-23.8605154975
 10
4.3390180644
 20
-23.8595969948
 10
4.3261786476
 20
-23.8589423239
 10
4.3131726262
 20
-23.8585464789
 10
4.3
 20
-23.8584094599
  0
LINE
  5
354
100
AcDbEntity
  8
RACCORDO
100
AcDbLine
 62
7
  6
CONTINUOUS
 10
3.7340272952
 20
-23.8174311485
 11
3.6264756305
 21
-22.5881099959
  0
LINE
  5
355
100
AcDbEntity
  8
SMUSSO
100
AcDbLine
 62
7
  6
CONTINUOUS
 10
0.5301847254
 20
-0.5
 11
0.5301847254
 21
-1.544281661
  0
LINE
  5
356
100
AcDbEntity
  8
DRAFT
100
AcDbLine
 62
7
  6
CONTINUOUS
 10
0.6
 20
-0.5
 11
0.6
 21
-1.5286734066
  0
LINE
  5
357
100
AcDbEntity
  8
0
100
AcDbLine
 62
7
  6
CONTINUOUS
 10
0.7
 20
-1.5031022876
 11
0.7
 21
-1.01
  0
LINE
  5
358
100
AcDbEntity
  8
0
100
AcDbLine
 62
7
  6
CONTINUOUS
 10
0.7
 20
-0.99
 11
0.7
 21
-0.44
  0
LINE
  5
359
100
AcDbEntity
  8
0
100
AcDbLine
 62
250
  6
CONTINUOUS
 10
0.7
 20
-0.44
 11
0.7
 21
-0.4
  0
LINE
  5
35A
100
AcDbEntity
  8
0
100
AcDbLine
 62
250
  6
CONTINUOUS
 10
1.6343303518
 20
-0.44
 11
1.6343303518
 21
-0.99
  0
LINE
  5
35B
100
AcDbEntity
  8
0
100
AcDbLine
 62
250
  6
CONTINUOUS
 10
1.6343303518
 20
-1.0209172952
 11
1.6343303518
 21
-1.0
  0
LWPOLYLINE
  5
35C
100
AcDbEntity
  8
0
100
AcDbPolyline
 62
7
  6
CONTINUOUS
 90
4
 70
0
 43
0.3500000006
 10
1.7142856507
 20
34.1785698853
 10
1.7142856507
 20
35.0357123566
 10
2.1428571696
 20
35.4642858582
 10
2.7857141647
 20
35.4642858582
  0
LINE
  5
35D
100
AcDbEntity
  8
DRAFT
100
AcDbLine
 62
7
  6
CONTINUOUS
 10
1.8278503202
 20
-8.2758247857
 11
1.7682568484
 21
-15.1045602756
  0
LINE
  5
35E
100
AcDbEntity
  8
RACCORDO
100
AcDbLine
 62
7
  6
CONTINUOUS
 10
3.6264756305
 20
22.5881099959
 11
3.7340272952
 21
23.8174311485
  0
LWPOLYLINE
  5
35F
100
AcDbEntity
  8
RACCORDO
100
AcDbPolyline
 62
7
  6
CONTINUOUS
 90
25
 70
0
 10
4.5
 20
23.5397902522
 10
4.4995565971
 20
23.5357196869
 10
4.4982756158
 20
23.5317006052
 10
4.4961570561
 20
23.5277330072
 10
4.493184719
 20
23.5238003912
 10
4.4893748036
 20
23.5199192589
 10
4.4847759065
 20
23.5161391154
 10
4.4793779211
 20
23.5124612545
 10
4.4731909541
 20
23.5088843824
 10
4.4662939225
 20
23.5054541235
 10
4.4586777303
 20
23.5021723558
 10
4.4503514735
 20
23.4990372012
 10
4.4414213562
 20
23.4960886498
 10
4.4318796433
 20
23.4933290918
 10
4.42173407
 20
23.4907561369
 10
4.4111140466
 20
23.4884026041
 10
4.4000134956
 20
23.4862713041
 10
4.3884384945
 20
23.4843594262
 10
4.3765366865
 20
23.482691357
 10
4.3643038853
 20
23.4812702196
 10
4.3517442772
 20
23.480092891
 10
4.3390180644
 20
23.4791743883
 10
4.3261786476
 20
23.4785197174
 10
4.3131726262
 20
23.4781238724
 10
4.3
 20
23.4779868533
  0
LINE
  5
360
100
AcDbEntity
  8
ASSI
100
AcDbLine
 62
7
  6
CONTINUOUS
 10
2.6466533245
 20
12.0865521124
 11
2.7217941262
 21
12.6071428571
  0
LINE
  5
361
100
AcDbEntity
  8
DRAFT
100
AcDbLine
 62
7
  6
CONTINUOUS
 10
2.7180473238
 20
13.4152941982
 11
2.4546911198
 21
11.6532365326
  0
LINE
  5
362
100
AcDbEntity
  8
DRAFT
100
AcDbLine
 62
7
  6
CONTINUOUS
 10
2.1785427732
 20
9.8055894922
 11
1.9939448699
 21
8.5704860632
  0
LINE
  5
363
100
AcDbEntity
  8
0
100
AcDbLine
 62
7
  6
CONTINUOUS
 10
2.7223229517
 20
13.3864000029
 11
2.4665645264
 21
11.6750804204
  0
LINE
  5
364
100
AcDbEntity
  8
0
100
AcDbLine
 62
7
  6
CONTINUOUS
 10
2.1826372007
 20
9.775278324
 11
2.0068128616
 21
8.5988102001
  0
LWPOLYLINE
  5
365
100
AcDbEntity
  8
300081450
100
AcDbPolyline
 62
7
  6
CONTINUOUS
 90
8
 70
0
 10
-2.5533121669
 20
-12.2555224363
 10
-2.5659112166
 20
-12.3046471076
 10
-2.5934544895
 20
-12.4312157866
 10
-2.6164204245
 20
-12.5584817681
 10
-2.6349260552
 20
-12.6862707038
 10
-2.6490905668
 20
-12.8144193891
 10
-2.6590436159
 20
-12.9428188425
 10
-2.6603711371
 20
-12.9718707323
  0
LWPOLYLINE
  5
366
100
AcDbEntity
  8
RACCORDO
100
AcDbPolyline
 62
250
  6
CONTINUOUS
 90
44
 70
0
 10
-2.3344505065
 20
-8.3631720517
 10
-2.3586953128
 20
-8.4140468914
 10
-2.3818319624
 20
-8.4654358951
 10
-2.4038622618
 20
-8.5173388053
 10
-2.4247553083
 20
-8.5696830994
 10
-2.4445094346
 20
-8.622468945
 10
-2.4631263079
 20
-8.6756961663
 10
-2.4805800275
 20
-8.7292917261
 10
-2.496869201
 20
-8.7832566094
 10
-2.5119952208
 20
-8.8375898237
 10
-2.5259363637
 20
-8.892215366
 10
-2.5386911285
 20
-8.947134898
 10
-2.5502610164
 20
-9.0023467514
 10
-2.5606288081
 20
-9.0577699296
 10
-2.5697925075
 20
-9.1134045154
 10
-2.5777541106
 20
-9.1692504206
 10
-2.5845023868
 20
-9.225226393
 10
-2.5900354357
 20
-9.2813308246
 10
-2.5943551576
 20
-9.3375653191
 10
-2.5974560222
 20
-9.3938534436
 10
-2.5993365698
 20
-9.4501950276
 10
-2.5999982602
 20
-9.5065902385
 10
-2.5994399421
 20
-9.5629631513
 10
-2.5976597975
 20
-9.6193163775
 10
-2.5946596444
 20
-9.675647304
 10
-2.5904437867
 20
-9.73187217
 10
-2.5850100147
 20
-9.7879912946
 10
-2.578360538
 20
-9.8440043586
 10
-2.5705062889
 20
-9.8998266457
 10
-2.5614491814
 20
-9.9554434582
 10
-2.5511873014
 20
-10.0108694953
 10
-2.5397258383
 20
-10.0660641374
 10
-2.5270589803
 20
-10.1210483562
 10
-2.5131925392
 20
-10.1758011823
 10
-2.4981491398
 20
-10.2302190853
 10
-2.4819208059
 20
-10.2843104435
 10
-2.4645155137
 20
-10.338066883
 10
-2.445979817
 20
-10.3913597468
 10
-2.4263072083
 20
-10.4441871533
 10
-2.4055041951
 20
-10.4965509909
 10
-2.3836368532
 20
-10.5483282595
 10
-2.3607272079
 20
-10.5994779627
 10
-2.3367532339
 20
-10.6500411063
 10
-2.3117149312
 20
-10.7000176948
  0
LWPOLYLINE
  5
367
100
AcDbEntity
  8
0
100
AcDbPolyline
 62
7
  6
CONTINUOUS
 90
8
 70
0
 10
2.1118054414
 20
-0.5166666667
 10
2.0989634731
 20
-0.5343929355
 10
2.0859706503
 20
-0.5520166234
 10
2.0728211439
 20
-0.5695418454
 10
2.0595067892
 20
-0.5869762228
 10
2.046022685
 20
-0.6043235498
 10
2.0323671944
 20
-0.6215842378
 10
2.0185344554
 20
-0.6387649563
  0
LINE
  5
368
100
AcDbEntity
  8
0
100
AcDbLine
 62
250
  6
CONTINUOUS
 10
2.2022915889
 20
-0.4860895461
 11
2.1625138684
 21
-0.5380835875
  0
LINE
  5
369
100
AcDbEntity
  8
0
100
AcDbLine
 62
250
  6
CONTINUOUS
 10
2.1625138684
 20
-0.5380835875
 11
2.1087521227
 21
-0.6075889729
  0
LINE
  5
36A
100
AcDbEntity
  8
0
100
AcDbLine
 62
250
  6
CONTINUOUS
 10
2.1087521227
 20
-0.6075889729
 11
2.0816613801
 21
-0.6424624211
  0
LWPOLYLINE
  5
36B
100
AcDbEntity
  8
0
100
AcDbPolyline
 62
7
  6
CONTINUOUS
 90
3
 70
0
 10
2.0185344554
 20
-0.6387649563
 10
2.0045143517
 20
-0.655878264
 10
1.990298123
 20
-0.6729355582
  0
LWPOLYLINE
  5
36C
100
AcDbEntity
  8
0
100
AcDbPolyline
 62
250
  6
CONTINUOUS
 90
16
 70
0
 10
2.0816613801
 20
-0.6424624211
 10
1.9876840865
 20
-0.7558592077
 10
1.8863386633
 20
-0.8635633317
 10
1.7778121856
 20
-0.9652547415
 10
1.662365653
 20
-1.0605597704
 10
1.5401712304
 20
-1.1491988999
 10
1.4112958042
 20
-1.2309676701
 10
1.275955053
 20
-1.3055331541
 10
1.1344637639
 20
-1.3725074112
 10
0.9870537438
 20
-1.4315623668
 10
0.8340698024
 20
-1.48235084
 10
0.6759086655
 20
-1.5245134541
 10
0.5129338764
 20
-1.5576980747
 10
0.3455951727
 20
-1.5815601295
 10
0.1744315546
 20
-1.5957705299
 10
0.0
 20
-1.6
  0
LWPOLYLINE
  5
36D
100
AcDbEntity
  8
0
100
AcDbPolyline
 62
7
  6
CONTINUOUS
 90
16
 70
0
 10
1.990298123
 20
-0.6729355582
 10
1.8900460075
 20
-0.7854300987
 10
1.7833102673
 20
-0.8920511559
 10
1.67029613
 20
-0.9925186783
 10
1.5508784578
 20
-1.0868110001
 10
1.4256097519
 20
-1.1743250586
 10
1.2958017362
 20
-1.2540979581
 10
1.1618558847
 20
-1.3259631401
 10
1.0239446804
 20
-1.3898850874
 10
0.8831849836
 20
-1.4454126179
 10
0.7400610792
 20
-1.4924607138
 10
0.594680559
 20
-1.5310786834
 10
0.4476438145
 20
-1.5611786563
 10
0.2993669312
 20
-1.5827183902
 10
0.1500532385
 20
-1.5956731838
 10
0.0
 20
-1.6
  0
LINE
  5
36E
100
AcDbEntity
  8
0
100
AcDbLine
 62
250
  6
CONTINUOUS
 10
2.6303442796
 20
0.519948104
 11
2.6900567013
 21
0.5624685731
  0
LWPOLYLINE
  5
36F
100
AcDbEntity
  8
0
100
AcDbPolyline
 62
7
  6
CONTINUOUS
 90
7
 70
0
 10
2.4683777516
 20
-0.2098541809
 10
2.3990087174
 20
-0.2488590787
 10
2.3328327883
 20
-0.2933257453
 10
2.2708372763
 20
-0.3426215557
 10
2.2133576089
 20
-0.3963310708
 10
2.1602894138
 20
-0.4544245757
 10
2.1118054414
 20
-0.5166666667
  0
LWPOLYLINE
  5
370
100
AcDbEntity
  8
0
100
AcDbPolyline
 62
250
  6
CONTINUOUS
 90
7
 70
0
 10
2.7390645109
 20
-0.2280154548
 10
2.7343736731
 20
-0.230430842
 10
2.6686179835
 20
-0.2712024038
 10
2.6066891779
 20
-0.3168208987
 10
2.5490686539
 20
-0.3669249869
 10
2.4962858531
 20
-0.4208100069
 10
2.4487018674
 20
-0.4778397294
  0
LINE
  5
371
100
AcDbEntity
  8
0
100
AcDbLine
 62
250
  6
CONTINUOUS
 10
2.5138633148
 20
0.7351351351
 11
2.3304601878
 21
0.6590056897
  0
LINE
  5
372
100
AcDbEntity
  8
0
100
AcDbLine
 62
250
  6
CONTINUOUS
 10
2.2022915889
 20
-0.4860895461
 11
2.1118054414
 21
-0.5166666667
  0
LINE
  5
373
100
AcDbEntity
  8
0
100
AcDbLine
 62
250
  6
CONTINUOUS
 10
2.0816613801
 20
-0.6424624211
 11
1.990298123
 21
-0.6729355582
  0
LINE
  5
374
100
AcDbEntity
  8
0
100
AcDbLine
 62
250
  6
CONTINUOUS
 10
-2.1311263876
 20
0.572937263
 11
-2.0533688685
 21
0.594890684
  0
LWPOLYLINE
  5
375
100
AcDbEntity
  8
0
100
AcDbPolyline
 62
250
  6
CONTINUOUS
 90
15
 70
0
 10
-0.2011730218
 20
1.5921655965
 10
-0.3537828321
 20
1.5770188693
 10
-0.526159643
 20
1.5500941117
 10
-0.6945289468
 20
1.5132931218
 10
-0.8582036189
 20
1.4669620459
 10
-1.0165436509
 20
1.4114895608
 10
-1.1689361175
 20
1.3472739456
 10
-1.3149083579
 20
1.2746907358
 10
-1.454133549
 20
1.1942051556
 10
-1.5861770456
 20
1.1064127157
 10
-1.7107509446
 20
1.0118175515
 10
-1.8277809122
 20
0.9107258353
 10
-1.9370576485
 20
0.8035397648
 10
-2.0382490834
 20
0.6907933093
 10
-2.1311263876
 20
0.572937263
  0
LWPOLYLINE
  5
376
100
AcDbEntity
  8
0
100
AcDbPolyline
 62
7
  6
CONTINUOUS
 90
15
 70
0
 10
-0.1880524013
 20
1.5930854346
 10
-0.2973845497
 20
1.5827979074
 10
-0.4482737231
 20
1.5609100162
 10
-0.6003820325
 20
1.5296080674
 10
-0.7525748167
 20
1.488633188
 10
-0.902729287
 20
1.4382243658
 10
-1.0497453188
 20
1.3786435993
 10
-1.193539783
 20
1.3098441522
 10
-1.3335738419
 20
1.2319280663
 10
-1.4696500832
 20
1.1447743666
 10
-1.6007163244
 20
1.0488155315
 10
-1.7251052872
 20
0.9452430671
 10
-1.8420681632
 20
0.8348750612
 10
-1.9516026049
 20
0.7179182001
 10
-2.0533697816
 20
0.5948895071
  0
LINE
  5
377
100
AcDbEntity
  8
0
100
AcDbLine
 62
7
  6
CONTINUOUS
 10
-0.1949198758
 20
1.5926157254
 11
-0.2011730218
 21
1.5921655965
  0
LINE
  5
378
100
AcDbEntity
  8
0
100
AcDbLine
 62
7
  6
CONTINUOUS
 10
0.0
 20
1.6
 11
-0.1949198758
 21
1.5926157254
  0
LWPOLYLINE
  5
379
100
AcDbEntity
  8
0
100
AcDbPolyline
 62
250
  6
CONTINUOUS
 90
19
 70
0
 10
0.0
 20
1.9572123903
 10
-0.1707398747
 20
1.951412713
 10
-0.3397165347
 20
1.9360555963
 10
-0.5062248731
 20
1.9113427962
 10
-0.6696878534
 20
1.8774495305
 10
-0.8293478884
 20
1.834595532
 10
-0.9843225633
 20
1.7831923307
 10
-1.1338404025
 20
1.7237566014
 10
-1.2776853812
 20
1.6566025621
 10
-1.415846539
 20
1.5818556817
 10
-1.5480960175
 20
1.4997201601
 10
-1.6738263658
 20
1.410764126
 10
-1.7924757881
 20
1.3156199093
 10
-1.9036425519
 20
1.2148627953
 10
-2.0071766525
 20
1.1088626627
 10
-2.1030009575
 20
0.9979798637
 10
-2.1910002711
 20
0.8826477652
 10
-2.2710008938
 20
0.7633697946
 10
-2.3428742936
 20
0.6405958576
  0
LWPOLYLINE
  5
37A
100
AcDbEntity
  8
0
100
AcDbPolyline
 62
250
  6
CONTINUOUS
 90
10
 70
0
 10
2.7457394144
 20
0.1319357695
 10
2.7035243114
 20
0.142784381
 10
2.6284235832
 20
0.168415809
 10
2.5559631445
 20
0.1996157846
 10
2.4865256012
 20
0.2361879607
 10
2.4205207093
 20
0.2779276121
 10
2.3588535481
 20
0.3241955963
 10
2.3019115085
 20
0.3745004866
 10
2.2496691597
 20
0.428597658
 10
2.2022915889
 20
0.4860895461
  0
LINE
  5
37B
100
AcDbEntity
  8
0
100
AcDbLine
 62
250
  6
CONTINUOUS
 10
2.0816613801
 20
0.6424624211
 11
1.990298123
 21
0.6729355582
  0
LINE
  5
37C
100
AcDbEntity
  8
0
100
AcDbLine
 62
250
  6
CONTINUOUS
 10
2.2022915889
 20
0.4860895461
 11
2.1118054414
 21
0.5166666667
  0
LINE
  5
37D
100
AcDbEntity
  8
0
100
AcDbLine
 62
250
  6
CONTINUOUS
 10
2.5138633148
 20
-0.7351351351
 11
2.3304601878
 21
-0.6590056897
  0
LWPOLYLINE
  5
37E
100
AcDbEntity
  8
0
100
AcDbPolyline
 62
250
  6
CONTINUOUS
 90
7
 70
0
 10
2.7390645109
 20
0.2280154548
 10
2.7343736731
 20
0.230430842
 10
2.6686179835
 20
0.2712024038
 10
2.6066891779
 20
0.3168208987
 10
2.5490686539
 20
0.3669249869
 10
2.4962858531
 20
0.4208100069
 10
2.4487018674
 20
0.4778397294
  0
LINE
  5
37F
100
AcDbEntity
  8
0
100
AcDbLine
 62
250
  6
CONTINUOUS
 10
2.6303442796
 20
-0.519948104
 11
2.6900567013
 21
-0.5624685731
  0
LWPOLYLINE
  5
380
100
AcDbEntity
  8
0
100
AcDbPolyline
 62
7
  6
CONTINUOUS
 90
16
 70
0
 10
1.9902981884
 20
0.6729354803
 10
1.8898618403
 20
0.7856153712
 10
1.7829619682
 20
0.892365403
 10
1.6699436391
 20
0.9928093047
 10
1.5510506389
 20
1.0866824698
 10
1.4267846506
 20
1.173543043
 10
1.2979554228
 20
1.2528466517
 10
1.1653808385
 20
1.3241980667
 10
1.0292042146
 20
1.3876245186
 10
0.8892304465
 20
1.4432117478
 10
0.7454721718
 20
1.4908404638
 10
0.5988105328
 20
1.5301066651
 10
0.4503554573
 20
1.5607013698
 10
0.3008312578
 20
1.5825392799
 10
0.1505428374
 20
1.595638944
 10
0.0
 20
1.6
  0
LWPOLYLINE
  5
381
100
AcDbEntity
  8
0
100
AcDbPolyline
 62
250
  6
CONTINUOUS
 90
16
 70
0
 10
2.0816613801
 20
0.6424624211
 10
1.9876840865
 20
0.7558592077
 10
1.8863386633
 20
0.8635633317
 10
1.7778121856
 20
0.9652547415
 10
1.662365653
 20
1.0605597704
 10
1.5401712304
 20
1.1491988999
 10
1.4112958042
 20
1.2309676701
 10
1.275955053
 20
1.3055331541
 10
1.1344637639
 20
1.3725074112
 10
0.9870537438
 20
1.4315623668
 10
0.8340698024
 20
1.48235084
 10
0.6759086655
 20
1.5245134541
 10
0.5129338764
 20
1.5576980747
 10
0.3455951727
 20
1.5815601295
 10
0.1744315546
 20
1.5957705299
 10
0.0
 20
1.6
  0
LINE
  5
382
100
AcDbEntity
  8
0
100
AcDbLine
 62
250
  6
CONTINUOUS
 10
2.1625138684
 20
0.5380835875
 11
2.0816613801
 21
0.6424624211
  0
LINE
  5
383
100
AcDbEntity
  8
0
100
AcDbLine
 62
250
  6
CONTINUOUS
 10
2.2022915889
 20
0.4860895461
 11
2.1625138684
 21
0.5380835875
  0
LWPOLYLINE
  5
384
100
AcDbEntity
  8
0
100
AcDbPolyline
 62
7
  6
CONTINUOUS
 90
7
 70
0
 10
2.1118054414
 20
0.5166666667
 10
2.0927860832
 20
0.542804723
 10
2.0732805858
 20
0.5689192568
 10
2.0532838932
 20
0.5950000968
 10
2.0327910868
 20
0.6210368547
 10
2.0117973925
 20
0.647018924
 10
1.9902981884
 20
0.6729354803
  0
LINE
  5
385
100
AcDbEntity
  8
ASSI
100
AcDbLine
 62
7
  6
CONTINUOUS
 10
2.7217941262
 20
-12.6071428571
 11
2.6466533242
 21
-12.0865521102
  0
LINE
  5
386
100
AcDbEntity
  8
DRAFT
100
AcDbLine
 62
7
  6
CONTINUOUS
 10
2.7384728487
 20
-13.2342837424
 11
2.7412936679
 21
-12.7846493531
  0
LINE
  5
387
100
AcDbEntity
  8
0
100
AcDbLine
 62
250
  6
CONTINUOUS
 10
2.0506543031
 20
-0.4969580155
 11
2.0072828285
 21
-0.6524989883
  0
LWPOLYLINE
  5
388
100
AcDbEntity
  8
0
100
AcDbPolyline
 62
7
  6
CONTINUOUS
 90
22
 70
0
 10
2.5138633148
 20
-0.7351351351
 10
2.453634323
 20
-0.8767120554
 10
2.3853485915
 20
-1.0147805385
 10
2.309322104
 20
-1.1487814197
 10
2.2258495512
 20
-1.2781981195
 10
2.1352452698
 20
-1.4024915816
 10
2.0378790843
 20
-1.5211176881
 10
1.9344920827
 20
-1.6334118398
 10
1.8253710574
 20
-1.739331152
 10
1.7101888716
 20
-1.8392304774
 10
1.5890723311
 20
-1.9328397208
 10
1.4626230297
 20
-2.0195066352
 10
1.3311553692
 20
-2.098963932
 10
1.1952910056
 20
-2.1708850941
 10
1.0554606022
 20
-2.235057819
 10
0.9117210641
 20
-2.2913764905
 10
0.7643095512
 20
-2.3395608531
 10
0.6140307678
 20
-2.3792056807
 10
0.4618143635
 20
-2.4101205291
 10
0.3083836682
 20
-2.4322434813
 10
0.154238038
 20
-2.4455527949
 10
0.0
 20
-2.45
  0
LWPOLYLINE
  5
389
100
AcDbEntity
  8
0
100
AcDbPolyline
 62
250
  6
CONTINUOUS
 90
19
 70
0
 10
2.3304601878
 20
-0.6590056897
 10
2.2573501744
 20
-0.7846477932
 10
2.1764280595
 20
-0.9057047783
 10
2.0879897018
 20
-1.0217540089
 10
1.992517538
 20
-1.1321736247
 10
1.8901371402
 20
-1.2367873891
 10
1.7805584219
 20
-1.3357909165
 10
1.6640232937
 20
-1.42886155
 10
1.5410123046
 20
-1.5154850523
 10
1.4115395729
 20
-1.5954543035
 10
1.2761877739
 20
-1.668178592
 10
1.1352108808
 20
-1.7334270041
 10
0.9880133865
 20
-1.7912940259
 10
0.8347675991
 20
-1.8413558298
 10
0.6762828548
 20
-1.8829580099
 10
0.5128880263
 20
-1.9156802958
 10
0.3451635418
 20
-1.9391883559
 10
0.1739327622
 20
-1.9531395924
 10
0.0
 20
-1.9572123903
  0
LWPOLYLINE
  5
38A
100
AcDbEntity
  8
0
100
AcDbPolyline
 62
7
  6
CONTINUOUS
 90
10
 70
0
 10
2.6303442796
 20
-0.519948104
 10
2.6149357774
 20
-0.5422453264
 10
2.6000513126
 20
-0.5651155169
 10
2.5857330694
 20
-0.5884858036
 10
2.5720131982
 20
-0.6122991355
 10
2.5589357462
 20
-0.6364766875
 10
2.5465539041
 20
-0.6609147614
 10
2.5349018489
 20
-0.6855366621
 10
2.5239976645
 20
-0.7102956361
 10
2.5138633148
 20
-0.7351351351
  0
LWPOLYLINE
  5
38B
100
AcDbEntity
  8
0
100
AcDbPolyline
 62
250
  6
CONTINUOUS
 90
10
 70
0
 10
2.4487018674
 20
-0.4778397294
 10
2.4335609139
 20
-0.497899367
 10
2.4188903568
 20
-0.51804563
 10
2.4047117506
 20
-0.5382365487
 10
2.3910611929
 20
-0.5584067514
 10
2.3779369895
 20
-0.5785443703
 10
2.3653041072
 20
-0.5986942285
 10
2.3531627108
 20
-0.6188529852
 10
2.3415438636
 20
-0.6389658254
 10
2.3304601878
 20
-0.6590056897
  0
LWPOLYLINE
  5
38C
100
AcDbEntity
  8
0
100
AcDbPolyline
 62
7
  6
CONTINUOUS
 90
3
 70
0
 10
2.7168678007
 20
-0.4155892826
 10
2.6796811792
 20
-0.4563206517
 10
2.6303442796
 20
-0.519948104
  0
LWPOLYLINE
  5
38D
100
AcDbEntity
  8
0
100
AcDbPolyline
 62
7
  6
CONTINUOUS
 90
22
 70
0
 10
0.0
 20
2.45
 10
-0.1514603813
 20
2.4457250043
 10
-0.3025060896
 20
2.4329440546
 10
-0.4526520683
 20
2.4117236114
 10
-0.6013713511
 20
2.3821395646
 10
-0.7482130878
 20
2.3442549013
 10
-0.8927996887
 20
2.2981058273
 10
-1.0347149936
 20
2.2438148256
 10
-1.1734563218
 20
2.1815960495
 10
-1.3085307642
 20
2.1116730711
 10
-1.439466067
 20
2.0342676734
 10
-1.5658220277
 20
1.9495858413
 10
-1.6871942644
 20
1.857884589
 10
-1.8031791542
 20
1.7595316075
 10
-1.9134577575
 20
1.6548348294
 10
-2.0177810348
 20
1.5440053747
 10
-2.115839641
 20
1.4272658153
 10
-2.2071770017
 20
1.305066652
 10
-2.2913986881
 20
1.1780096693
 10
-2.3682373704
 20
1.0466029221
 10
-2.4375041915
 20
0.9112293194
 10
-2.4989651867
 20
0.7723370264
  0
LWPOLYLINE
  5
38E
100
AcDbEntity
  8
RACCORDO
100
AcDbPolyline
 62
250
  6
CONTINUOUS
 90
154
 70
0
 10
0.0
 20
3.203014602
 10
0.0653088026
 20
3.2023540439
 10
0.1306133057
 20
3.2003512204
 10
0.1959135095
 20
3.1970061314
 10
0.2612480524
 20
3.1923189974
 10
0.3265782959
 20
3.1862895972
 10
0.391788324
 20
3.1789172683
 10
0.4568772401
 20
3.170197792
 10
0.5218459408
 20
3.1601353858
 10
0.5865811997
 20
3.1487420411
 10
0.6510816196
 20
3.1360138044
 10
0.7153485977
 20
3.1219546276
 10
0.7792730992
 20
3.1065883592
 10
0.8428458712
 20
3.0899142651
 10
0.9060761665
 20
3.0719330774
 10
0.9688827095
 20
3.0526708447
 10
1.031258609
 20
3.0321286586
 10
1.0932107562
 20
3.0103054249
 10
1.1546785479
 20
2.9872239136
 10
1.21566488
 20
2.9628823397
 10
1.2761668568
 20
2.9372824855
 10
1.3361151881
 20
2.9104524714
 10
1.3955137747
 20
2.8823886881
 10
1.4543587158
 20
2.853094742
 10
1.5125690192
 20
2.8226095771
 10
1.5701431437
 20
2.7909315316
 10
1.6270826306
 20
2.7580622641
 10
1.6833111113
 20
2.7240456988
 10
1.7388256828
 20
2.6888814709
 10
1.793629248
 20
2.6525699421
 10
1.8476541473
 20
2.6151561265
 10
1.900899353
 20
2.5766388704
 10
1.9533658928
 20
2.5370193245
 10
2.0049891903
 20
2.4963459598
 10
2.0557688942
 20
2.4546169836
 10
2.1057053558
 20
2.4118341859
 10
2.1547350518
 20
2.3680514108
 10
2.2028570109
 20
2.3232671727
 10
2.2500722044
 20
2.2774829549
 10
2.2963200235
 20
2.230757055
 10
2.3415990271
 20
2.1830884441
 10
2.3859106562
 20
2.1344781491
 10
2.4291986249
 20
2.0849875522
 10
2.4714615893
 20
2.0346155997
 10
2.5127008933
 20
1.9833633436
 10
2.5528642826
 20
1.9312953249
 10
2.5919504203
 20
1.8784104965
 10
2.6299606433
 20
1.8247099043
 10
2.6668467072
 20
1.7702612293
 10
2.7026072557
 20
1.7150634134
 10
2.7372436451
 20
1.6591175141
 10
2.7707116992
 20
1.6024943863
 10
2.8030099056
 20
1.5451932018
 10
2.8341397766
 20
1.4872147888
 10
2.8640616731
 20
1.4286324872
 10
2.892774067
 20
1.3694455068
 10
2.9202784864
 20
1.3096546384
 10
2.9465398753
 20
1.2493355937
 10
2.9715566461
 20
1.1884877115
 10
2.9953303865
 20
1.1271116541
 10
3.0178308039
 20
1.0652851188
 10
3.0390562846
 20
1.0030075094
 10
3.0590084424
 20
0.9402794236
 10
3.0776618263
 20
0.8771803495
 10
3.0950147827
 20
0.8137097972
 10
3.1110689652
 20
0.7498682587
 10
3.1258038829
 20
0.6857366946
 10
3.1392178481
 20
0.6213147558
 10
3.1513125485
 20
0.556602794
 10
3.1620725561
 20
0.4916828208
 10
3.1714961722
 20
0.4265545326
 10
3.1795850955
 20
0.3612182359
 10
3.1863289935
 20
0.2957568586
 10
3.1917261453
 20
0.230170285
 10
3.1957782718
 20
0.1644586339
 10
3.1984802041
 20
0.0987051851
 10
3.199830219
 20
0.0329098348
 10
3.1998300396
 20
-0.03292731
 10
3.198479666
 20
-0.0987226535
 10
3.1957773753
 20
-0.1644760886
 10
3.1917248905
 20
-0.2301877193
 10
3.1863273809
 20
-0.2957742659
 10
3.1795831256
 20
-0.3612356096
 10
3.1714938455
 20
-0.4265718662
 10
3.1620698734
 20
-0.4917001075
 10
3.1513095108
 20
-0.5566200266
 10
3.1392144562
 20
-0.6213319276
 10
3.125800138
 20
-0.685753799
 10
3.1110648684
 20
-0.7498852895
 10
3.0950103351
 20
-0.813726748
 10
3.0776570295
 20
-0.8771972129
 10
3.0590032985
 20
-0.9402961921
 10
3.0390507951
 20
-1.0030241756
 10
3.017824971
 20
-1.065301676
 10
2.995324212
 20
-1.1271280957
 10
2.9715501323
 20
-1.1885040306
 10
2.9465330246
 20
-1.2493517836
 10
2.9202713011
 20
-1.3096706923
 10
2.8927665498
 20
-1.3694614179
 10
2.8640538269
 20
-1.4286482486
 10
2.8341316044
 20
-1.4872303935
 10
2.8030014105
 20
-1.5452086429
 10
2.7707028853
 20
-1.6025096563
 10
2.7372345168
 20
-1.6591326046
 10
2.7025978171
 20
-1.7150783169
 10
2.6668369622
 20
-1.7702759396
 10
2.6299505965
 20
-1.8247244144
 10
2.5919400756
 20
-1.8784248001
 10
2.552853642
 20
-1.9313094187
 10
2.5126899577
 20
-1.9833772257
 10
2.4714503607
 20
-2.0346292668
 10
2.4291871067
 20
-2.0850009992
 10
2.38589885
 20
-2.1344913725
 10
2.3415869362
 20
-2.1831014387
 10
2.2963076587
 20
-2.2307698093
 10
2.2500595778
 20
-2.2774954553
 10
2.2028441331
 20
-2.3232794079
 10
2.1547219363
 20
-2.3680633695
 10
2.105692024
 20
-2.4118458511
 10
2.0557553596
 20
-2.4546283443
 10
2.0049754452
 20
-2.4963570224
 10
1.9533519286
 20
-2.5370300991
 10
1.900885162
 20
-2.5766493635
 10
1.8476397042
 20
-2.6151663524
 10
1.7936145047
 20
-2.6525799289
 10
1.738810614
 20
-2.688891233
 10
1.6832957423
 20
-2.7240552161
 10
1.627066978
 20
-2.7580715152
 10
1.5701272326
 20
-2.7909404965
 10
1.512552951
 20
-2.8226182061
 10
1.4543426469
 20
-2.8531029573
 10
1.3954978066
 20
-2.8823964399
 10
1.3360993343
 20
-2.9104597655
 10
1.2761511747
 20
-2.9372893227
 10
1.2156493831
 20
-2.962888726
 10
1.1546630305
 20
-2.9872299254
 10
1.0931949219
 20
-3.010311181
 10
1.0312422523
 20
-3.0321342354
 10
0.9688656777
 20
-3.0526762629
 10
0.9060581884
 20
-3.0719383742
 10
0.8428267942
 20
-3.0899194609
 10
0.7792531809
 20
-3.106593368
 10
0.7153281372
 20
-3.1219593228
 10
0.6510608744
 20
-3.1360181
 10
0.5865607127
 20
-3.1487458661
 10
0.521826349
 20
-3.1601386417
 10
0.4568590863
 20
-3.1702004079
 10
0.3917721543
 20
-3.1789192709
 10
0.3265649242
 20
-3.1862910121
 10
0.2612380247
 20
-3.1923198512
 10
0.195906571
 20
-3.1970065531
 10
0.1306089349
 20
-3.2003513728
 10
0.0653067445
 20
-3.2023540557
 10
0.0
 20
-3.203014602
  0
LWPOLYLINE
  5
38F
100
AcDbEntity
  8
0
100
AcDbPolyline
 62
7
  6
CONTINUOUS
 90
3
 70
0
 10
2.7168678007
 20
0.4155892826
 10
2.6796811792
 20
0.4563206517
 10
2.6303442796
 20
0.519948104
  0
LWPOLYLINE
  5
390
100
AcDbEntity
  8
0
100
AcDbPolyline
 62
250
  6
CONTINUOUS
 90
10
 70
0
 10
2.4487018674
 20
0.4778397294
 10
2.4335609139
 20
0.497899367
 10
2.4188903568
 20
0.51804563
 10
2.4047117506
 20
0.5382365487
 10
2.3910611929
 20
0.5584067514
 10
2.3779369895
 20
0.5785443703
 10
2.3653041072
 20
0.5986942285
 10
2.3531627108
 20
0.6188529852
 10
2.3415438636
 20
0.6389658254
 10
2.3304601878
 20
0.6590056897
  0
LWPOLYLINE
  5
391
100
AcDbEntity
  8
0
100
AcDbPolyline
 62
7
  6
CONTINUOUS
 90
10
 70
0
 10
2.6303442796
 20
0.519948104
 10
2.6149357774
 20
0.5422453264
 10
2.6000513126
 20
0.5651155169
 10
2.5857330694
 20
0.5884858036
 10
2.5720131982
 20
0.6122991355
 10
2.5589357462
 20
0.6364766875
 10
2.5465539041
 20
0.6609147614
 10
2.5349018489
 20
0.6855366621
 10
2.5239976645
 20
0.7102956361
 10
2.5138633148
 20
0.7351351351
  0
LWPOLYLINE
  5
392
100
AcDbEntity
  8
0
100
AcDbPolyline
 62
250
  6
CONTINUOUS
 90
19
 70
0
 10
2.3304601878
 20
0.6590056897
 10
2.2573501744
 20
0.7846477932
 10
2.1764280595
 20
0.9057047783
 10
2.0879897018
 20
1.0217540089
 10
1.992517538
 20
1.1321736247
 10
1.8901371402
 20
1.2367873891
 10
1.7805584219
 20
1.3357909165
 10
1.6640232937
 20
1.42886155
 10
1.5410123046
 20
1.5154850523
 10
1.4115395729
 20
1.5954543035
 10
1.2761877739
 20
1.668178592
 10
1.1352108808
 20
1.7334270041
 10
0.9880133865
 20
1.7912940259
 10
0.8347675991
 20
1.8413558298
 10
0.6762828548
 20
1.8829580099
 10
0.5128880263
 20
1.9156802958
 10
0.3451635418
 20
1.9391883559
 10
0.1739327622
 20
1.9531395924
 10
0.0
 20
1.9572123903
  0
LWPOLYLINE
  5
393
100
AcDbEntity
  8
0
100
AcDbPolyline
 62
7
  6
CONTINUOUS
 90
22
 70
0
 10
2.5138633148
 20
0.7351351351
 10
2.453634323
 20
0.8767120554
 10
2.3853485915
 20
1.0147805385
 10
2.309322104
 20
1.1487814197
 10
2.2258495512
 20
1.2781981195
 10
2.1352452698
 20
1.4024915816
 10
2.0378790843
 20
1.5211176881
 10
1.9344920827
 20
1.6334118398
 10
1.8253710574
 20
1.739331152
 10
1.7101888716
 20
1.8392304774
 10
1.5890723311
 20
1.9328397208
 10
1.4626230297
 20
2.0195066352
 10
1.3311553692
 20
2.098963932
 10
1.1952910056
 20
2.1708850941
 10
1.0554606022
 20
2.235057819
 10
0.9117210641
 20
2.2913764905
 10
0.7643095512
 20
2.3395608531
 10
0.6140307678
 20
2.3792056807
 10
0.4618143635
 20
2.4101205291
 10
0.3083836682
 20
2.4322434813
 10
0.154238038
 20
2.4455527949
 10
0.0
 20
2.45
  0
LINE
  5
394
100
AcDbEntity
  8
RACCORDO
100
AcDbLine
 62
250
  6
CONTINUOUS
 10
4.3
 20
23.8584094599
 11
4.3
 21
23.4779868533
  0
LINE
  5
395
100
AcDbEntity
  8
RACCORDO
100
AcDbLine
 62
250
  6
CONTINUOUS
 10
4.3
 20
-23.8584094599
 11
4.3
 21
-23.4779868533
  0
LINE
  5
396
100
AcDbEntity
  8
RACCORDO
100
AcDbLine
 62
7
  6
CONTINUOUS
 10
4.5
 20
-24.0
 11
4.5
 21
-23.5397902522
  0
LINE
  5
397
100
AcDbEntity
  8
RACCORDO
100
AcDbLine
 62
7
  6
CONTINUOUS
 10
4.5
 20
23.5397902522
 11
4.5
 21
24.0
  0
LWPOLYLINE
  5
398
100
AcDbEntity
  8
RACCORDO
100
AcDbPolyline
 62
250
  6
CONTINUOUS
 90
153
 70
0
 10
-2.3278807699
 20
-10.8145073642
 10
-2.3725523906
 20
-10.8628908952
 10
-2.4162305206
 20
-10.912207177
 10
-2.4589151598
 20
-10.9624562006
 10
-2.5006335393
 20
-11.0136664035
 10
-2.541358428
 20
-11.0658093293
 10
-2.581008133
 20
-11.1187996286
 10
-2.6195790213
 20
-11.1726397993
 10
-2.6570747258
 20
-11.227327325
 10
-2.693424452
 20
-11.2827693371
 10
-2.7286242398
 20
-11.33896758
 10
-2.7626780493
 20
-11.3959202915
 10
-2.795526966
 20
-11.4535293443
 10
-2.8271638681
 20
-11.5117882008
 10
-2.8575958774
 20
-11.5707033819
 10
-2.8867854448
 20
-11.63019635
 10
-2.9147286663
 20
-11.6902614312
 10
-2.9414294458
 20
-11.7509042836
 10
-2.9668619463
 20
-11.8120633694
 10
-2.9910268816
 20
-11.8737423011
 10
-3.0139235379
 20
-11.935937451
 10
-3.0355239366
 20
-11.9985764227
 10
-3.0558279901
 20
-12.0616645044
 10
-3.0748357859
 20
-12.1251963939
 10
-3.0925196076
 20
-12.1890838112
 10
-3.1088770648
 20
-12.2533266208
 10
-3.1239105479
 20
-12.317924946
 10
-3.1375995112
 20
-12.3827908972
 10
-3.1499416457
 20
-12.4479226158
 10
-3.1609392605
 20
-12.5133219502
 10
-3.1705787369
 20
-12.5789065736
 10
-3.1788584706
 20
-12.6446766027
 10
-3.185780066
 20
-12.7106319127
 10
-3.1913347181
 20
-12.7766898156
 10
-3.1955207943
 20
-12.8428513068
 10
-3.1983399273
 20
-12.9091153849
 10
-3.19978821
 20
-12.9753963703
 10
-3.1998638102
 20
-13.0416944975
 10
-3.1985685603
 20
-13.1080095283
 10
-3.1959040501
 20
-13.1742550767
 10
-3.1918684723
 20
-13.2404307602
 10
-3.1864636342
 20
-13.30653696
 10
-3.1796965474
 20
-13.3724884377
 10
-3.1715654536
 20
-13.4382849172
 10
-3.162072111
 20
-13.503926676
 10
-3.1512288062
 20
-13.5693293087
 10
-3.1390337912
 20
-13.63449253
 10
-3.1254888139
 20
-13.6994166293
 10
-3.1106114057
 20
-13.7640180658
 10
-3.0943998043
 20
-13.8282965245
 10
-3.0768557719
 20
-13.8922523271
 10
-3.0580021261
 20
-13.9558028899
 10
-3.0378371761
 20
-14.0189476182
 10
-3.0163626127
 20
-14.0816871159
 10
-2.9936063263
 20
-14.1439405996
 10
-2.9695666437
 20
-14.2057074511
 10
-2.9442452382
 20
-14.2669883002
 10
-2.9176750203
 20
-14.3277042369
 10
-2.8898543855
 20
-14.3878544893
 10
-2.8607849382
 20
-14.4474398432
 10
-2.8305044019
 20
-14.5063837277
 10
-2.7990111995
 20
-14.5646853258
 10
-2.7663069081
 20
-14.6223454704
 10
-2.7324339822
 20
-14.6792900676
 10
-2.6973909185
 20
-14.735518173
 10
-2.6611792204
 20
-14.7910307488
 10
-2.6238458523
 20
-14.8457565632
 10
-2.5853893843
 20
-14.8996945747
 10
-2.5458112464
 20
-14.9528458442
 10
-2.5051626928
 20
-15.0051422956
 10
-2.4634423418
 20
-15.05658283
 10
-2.4206515751
 20
-15.107168567
 10
-2.3768457919
 20
-15.1568347599
 10
-2.33202373
 20
-15.2055801823
 10
-2.2861866516
 20
-15.2534060821
 10
-2.2393937425
 20
-15.3002514267
 10
-2.1916437628
 20
-15.3461149743
 10
-2.1429379524
 20
-15.3909979886
 10
-2.0933392166
 20
-15.4348431968
 10
-2.042846475
 20
-15.4776492208
 10
-1.9914608081
 20
-15.5194174609
 10
-1.9392483618
 20
-15.5600948121
 10
-1.8862080653
 20
-15.5996798984
 10
-1.8323409895
 20
-15.6381741177
 10
-1.7777164931
 20
-15.6755285265
 10
-1.7223336775
 20
-15.7117416338
 10
-1.6661934414
 20
-15.7468149519
 10
-1.6093678389
 20
-15.7807040426
 10
-1.5518559937
 20
-15.8134074109
 10
-1.4936587821
 20
-15.844926572
 10
-1.4348508866
 20
-15.8752216042
 10
-1.3754315847
 20
-15.9042909343
 10
-1.3154015989
 20
-15.9321361543
 10
-1.2548377795
 20
-15.9587220895
 10
-1.193739466
 20
-15.9840471469
 10
-1.1321073189
 20
-16.0081129368
 10
-1.0700201698
 20
-16.0308890886
 10
-1.0074774669
 20
-16.0523739701
 10
-0.9444797621
 20
-16.0725692287
 10
-0.8811075423
 20
-16.0914494133
 10
-0.8173603727
 20
-16.109012861
 10
-0.7532386882
 20
-16.1252612476
 10
-0.6888242798
 20
-16.1401741299
 10
-0.6241167684
 20
-16.153749832
 10
-0.5591165331
 20
-16.1659900401
 10
-0.4939065034
 20
-16.1768793536
 10
-0.4284864677
 20
-16.1864160686
 10
-0.3628566376
 20
-16.1946018964
 10
-0.2971005762
 20
-16.2014265584
 10
-0.2312180864
 20
-16.2068883486
 10
-0.1652093655
 20
-16.2109889775
 10
-0.0991585686
 20
-16.21372329
 10
-0.0330656962
 20
-16.2150895681
 10
0.0330692521
 20
-16.2150895314
 10
0.0991621231
 20
-16.2137231797
 10
0.1652129175
 20
-16.2109887937
 10
0.2312216345
 20
-16.2068880913
 10
0.297104119
 20
-16.2014262277
 10
0.3628601736
 20
-16.1946014925
 10
0.4284899957
 20
-16.1864155915
 10
0.4939100217
 20
-16.1768788034
 10
0.5591200404
 20
-16.1659894172
 10
0.624120263
 20
-16.1537491365
 10
0.6888277604
 20
-16.140173362
 10
0.753242153
 20
-16.1252604077
 10
0.8173638204
 20
-16.1090119494
 10
0.8811109713
 20
-16.0914484304
 10
0.9444831711
 20
-16.0725681747
 10
1.0074808544
 20
-16.0523728454
 10
1.0700235343
 20
-16.0308878938
 10
1.1321106589
 20
-16.0081116723
 10
1.19374278
 20
-15.9840458133
 10
1.2548410662
 20
-15.9587206872
 10
1.3154048568
 20
-15.9321346839
 10
1.3754348125
 20
-15.9042893964
 10
1.4348540829
 20
-15.8752199994
 10
1.4936619454
 20
-15.844924901
 10
1.5518591227
 20
-15.8134056742
 10
1.6093709321
 20
-15.7807022412
 10
1.6661964977
 20
-15.7468130863
 10
1.7223366955
 20
-15.7117397048
 10
1.7777194714
 20
-15.675526535
 10
1.8323439269
 20
-15.6381720644
 10
1.8862109605
 20
-15.5996777841
 10
1.9392512135
 20
-15.5600926377
 10
1.991463615
 20
-15.5194152274
 10
2.0428492359
 20
-15.4776469291
 10
2.0933419302
 20
-15.4348408477
 10
2.1429406177
 20
-15.3909955832
 10
2.1916463786
 20
-15.3461125134
 10
2.2393963077
 20
-15.3002489116
 10
2.2861891649
 20
-15.2534035137
 10
2.3320261903
 20
-15.2055775617
  0
LWPOLYLINE
  5
399
100
AcDbEntity
  8
RACCORDO
100
AcDbPolyline
 62
250
  6
CONTINUOUS
 90
40
 70
0
 10
-2.3278807699
 20
10.8145073642
 10
-2.3257486415
 20
10.8121716173
 10
-2.3236947707
 20
10.8097741877
 10
-2.3217191575
 20
10.8073150754
 10
-2.3198198641
 20
10.8047915733
 10
-2.3179988283
 20
10.8022063884
 10
-2.3162618635
 20
10.7995676418
 10
-2.3146093437
 20
10.7968753063
 10
-2.3130408949
 20
10.794129409
 10
-2.3115612077
 20
10.7913381529
 10
-2.3101705496
 20
10.7885014038
 10
-2.3088686531
 20
10.7856192958
 10
-2.3076594061
 20
10.7827004347
 10
-2.3065430844
 20
10.7797447095
 10
-2.3055194123
 20
10.7767522312
 10
-2.3045914492
 20
10.7737319382
 10
-2.3037594818
 20
10.7706837477
 10
-2.3030232236
 20
10.7676077426
 10
-2.3023848751
 20
10.7645131102
 10
-2.301844729
 20
10.7613997926
 10
-2.3014024926
 20
10.7582678477
 10
-2.3010594883
 20
10.7551266373
 10
-2.3008160136
 20
10.751976135
 10
-2.3006717709
 20
10.7488163673
 10
-2.3006271905
 20
10.7456567749
 10
-2.3006825705
 20
10.7424973592
 10
-2.3008376128
 20
10.7393381189
 10
-2.3010918524
 20
10.7361884914
 10
-2.3014455852
 20
10.7330485068
 10
-2.3018985153
 20
10.729918135
 10
-2.3024492898
 20
10.7268067232
 10
-2.3030982028
 20
10.7237143262
 10
-2.3038449602
 20
10.7206408891
 10
-2.3046873266
 20
10.717595595
 10
-2.3056256645
 20
10.7145783756
 10
-2.3066596114
 20
10.7115892991
 10
-2.3077858438
 20
10.708637754
 10
-2.309003254
 20
10.7057268696
 10
-2.3103129498
 20
10.7028535165
 10
-2.3117149312
 20
10.7000176948
  0
LINE
  5
39A
100
AcDbEntity
  8
0
100
AcDbLine
 62
7
  6
CONTINUOUS
 10
6.0
 20
24.0
 11
6.0
 21
22.5881099959
  0
LINE
  5
39B
100
AcDbEntity
  8
0
100
AcDbLine
 62
7
  6
CONTINUOUS
 10
6.0
 20
-24.0
 11
6.0
 21
-22.5881099959
  0
LINE
  5
39C
100
AcDbEntity
  8
0
100
AcDbLine
 62
7
  6
CONTINUOUS
 10
6.0
 20
-24.0
 11
6.0
 21
-25.0
  0
LINE
  5
39D
100
AcDbEntity
  8
0
100
AcDbLine
 62
7
  6
CONTINUOUS
 10
6.0
 20
24.0
 11
6.0
 21
25.0
  0
LINE
  5
39E
100
AcDbEntity
  8
RACCORDO
100
AcDbLine
 62
7
  6
CONTINUOUS
 10
6.2
 20
23.25
 11
6.2
 21
22.5881099959
  0
LINE
  5
39F
100
AcDbEntity
  8
RACCORDO
100
AcDbLine
 62
7
  6
CONTINUOUS
 10
6.2
 20
-22.5881099959
 11
6.2
 21
-23.25
  0
LINE
  5
3A0
100
AcDbEntity
  8
DRAFT
100
AcDbLine
 62
250
  6
CONTINUOUS
 10
6.344976954
 20
-23.25
 11
6.344976954
 21
-22.5881099959
  0
LINE
  5
3A1
100
AcDbEntity
  8
DRAFT
100
AcDbLine
 62
250
  6
CONTINUOUS
 10
6.344976954
 20
22.5881099959
 11
6.344976954
 21
23.25
  0
LWPOLYLINE
  5
3A2
100
AcDbEntity
  8
RACCORDO
100
AcDbPolyline
 62
250
  6
CONTINUOUS
 90
147
 70
0
 10
2.3117149312
 20
-10.7000176948
 10
2.3367531682
 20
-10.6500412797
 10
2.3607271285
 20
-10.5994781685
 10
2.383636812
 20
-10.5483283568
 10
2.4055042793
 20
-10.4965507507
 10
2.4263074698
 20
-10.4441864347
 10
2.4459802021
 20
-10.3913586726
 10
2.4645159241
 20
-10.338065668
 10
2.4819211878
 20
-10.2843092104
 10
2.4981494682
 20
-10.2302179444
 10
2.513192788
 20
-10.1758002602
 10
2.5270591244
 20
-10.1210477633
 10
2.5397258843
 20
-10.0660639238
 10
2.5511872579
 20
-10.0108697532
 10
2.561449055
 20
-9.9554442377
 10
2.5705061113
 20
-9.8998278116
 10
2.5783603593
 20
-9.844005677
 10
2.5850098666
 20
-9.7879926302
 10
2.590443672
 20
-9.7318734978
 10
2.5946595574
 20
-9.6756486247
 10
2.5976597408
 20
-9.6193176662
 10
2.5994399153
 20
-9.5629644159
 10
2.5999982616
 20
-9.5065915043
 10
2.5993365989
 20
-9.4501963026
 10
2.597456078
 20
-9.3938547176
 10
2.5943552393
 20
-9.3375665734
 10
2.5900355423
 20
-9.2813320489
 10
2.5845025168
 20
-9.2252275844
 10
2.5777542612
 20
-9.1692515737
 10
2.569792677
 20
-9.1134056272
 10
2.5606289978
 20
-9.0577710113
 10
2.5502612282
 20
-9.0023478205
 10
2.5386913637
 20
-8.9471359656
 10
2.5259366246
 20
-8.8922164387
 10
2.5119955107
 20
-8.8375909103
 10
2.4968695222
 20
-8.7832577165
 10
2.4805803793
 20
-8.7292928489
 10
2.4631266892
 20
-8.6756972971
 10
2.4445098448
 20
-8.6224700789
 10
2.424755745
 20
-8.5696842301
 10
2.4038627215
 20
-8.5173399239
 10
2.3818324427
 20
-8.4654369952
 10
2.3586958132
 20
-8.4140479726
 10
2.3344510267
 20
-8.3631731147
 10
2.3090998895
 20
-8.3128121718
 10
2.2826787252
 20
-8.2630369107
 10
2.2551860647
 20
-8.2138483793
 10
2.2266233771
 20
-8.165245539
 10
2.1970313934
 20
-8.1172970276
 10
2.1664087998
 20
-8.0700040073
 10
2.13475691
 20
-8.0233653256
 10
2.102120396
 20
-7.9774461483
 10
2.0684979114
 20
-7.9322475059
 10
2.0338908025
 20
-7.8877683778
 10
1.9983477796
 20
-7.8440708542
 10
1.9618674653
 20
-7.8011559488
 10
1.924451237
 20
-7.7590226577
 10
1.8861519368
 20
-7.7177300451
 10
1.8469682978
 20
-7.6772792849
 10
1.8069015869
 20
-7.6376692127
 10
1.7660084473
 20
-7.5989553853
 10
1.7242877905
 20
-7.5611391386
 10
1.681740705
 20
-7.524219146
 10
1.6384270998
 20
-7.4882469705
 10
1.5943458925
 20
-7.4532239364
 10
1.5494981654
 20
-7.4191487282
 10
1.503947074
 20
-7.3860689488
 10
1.4576916868
 20
-7.3539860291
 10
1.4107329353
 20
-7.3228985465
 10
1.3631367696
 20
-7.2928498242
 10
1.3149022536
 20
-7.2638412898
 10
1.2660303234
 20
-7.2358715234
 10
1.2165897383
 20
-7.2089795763
 10
1.1665797631
 20
-7.1831669902
 10
1.1160011329
 20
-7.1584322304
 10
1.0649248134
 20
-7.1348097332
 10
1.0133500935
 20
-7.1123010451
 10
0.9612776841
 20
-7.0909046258
 10
0.9087806837
 20
-7.0706502823
 10
0.8558585295
 20
-7.0515396206
 10
0.8025117842
 20
-7.03357104
 10
0.7488152347
 20
-7.0167695373
 10
0.6947684023
 20
-7.0011367407
 10
0.6403717656
 20
-6.9866710264
 10
0.5857015478
 20
-6.9733925125
 10
0.5307573548
 20
-6.9613028512
 10
0.4755395806
 20
-6.9504003937
 10
0.4201256301
 20
-6.9407003064
 10
0.3645152739
 20
-6.9322042692
 10
0.3087087414
 20
-6.9249106047
 10
0.2527841251
 20
-6.9188294428
 10
0.1967412139
 20
-6.9139624665
 10
0.1405802188
 20
-6.9103079943
 10
0.0843798662
 20
-6.9078711099
 10
0.0281401598
 20
-6.906653508
 10
-0.0281389043
 20
-6.9066534944
 10
-0.0843786117
 20
-6.9078710691
 10
-0.1405789665
 20
-6.9103079264
 10
-0.1967399645
 20
-6.9139623715
 10
-0.2527828795
 20
-6.918829321
 10
-0.3087075002
 20
-6.9249104561
 10
-0.3645140378
 20
-6.932204094
 10
-0.4201243996
 20
-6.9407001047
 10
-0.4755383564
 20
-6.9504001657
 10
-0.5307561375
 20
-6.961302597
 10
-0.5857003378
 20
-6.9733922324
 10
-0.6403705634
 20
-6.9866707205
 10
-0.6947672083
 20
-7.0011364092
 10
-0.7488140496
 20
-7.0167691804
 10
-0.8025106087
 20
-7.0335706581
 10
-0.8558573641
 20
-7.0515392138
 10
-0.908779529
 20
-7.0706498509
 10
-0.9612765404
 20
-7.0909041701
 10
-1.0133489613
 20
-7.1123005653
 10
-1.0649236932
 20
-7.1348092296
 10
-1.1160000253
 20
-7.1584317033
 10
-1.1665786685
 20
-7.1831664399
 10
-1.2165886573
 20
-7.2089790031
 10
-1.2660292561
 20
-7.2358709276
 10
-1.3149012006
 20
-7.2638406717
 10
-1.3631357314
 20
-7.2928491841
 10
-1.4107319122
 20
-7.3228978848
 10
-1.4576906794
 20
-7.3539853461
 10
-1.5039460828
 20
-7.386068245
 10
-1.5494971912
 20
-7.4191480042
 10
-1.5943449358
 20
-7.4532231927
 10
-1.638426161
 20
-7.4882462075
 10
-1.6817397845
 20
-7.5242183642
 10
-1.7242868885
 20
-7.5611383383
 10
-1.766007564
 20
-7.5989545667
 10
-1.8069007224
 20
-7.637668376
 10
-1.8469674523
 20
-7.6772784303
 10
-1.8861511104
 20
-7.7177291727
 10
-1.9244504295
 20
-7.7590217674
 10
-1.9618666768
 20
-7.8011550407
 10
-1.9983470109
 20
-7.8440699293
 10
-2.0338900548
 20
-7.8877674374
 10
-2.0684971855
 20
-7.9322465512
 10
-2.1021196928
 20
-7.9774451807
 10
-2.1347562309
 20
-8.0233643473
 10
-2.1664081455
 20
-8.0700030199
 10
-2.1970307636
 20
-8.1172960308
 10
-2.2266227713
 20
-8.1652445326
 10
-2.2551854825
 20
-8.2138473631
 10
-2.2826781654
 20
-8.2630358823
 10
-2.3090993501
 20
-8.3128111273
 10
-2.3344505065
 20
-8.3631720517
  0
LWPOLYLINE
  5
3A3
100
AcDbEntity
  8
RACCORDO
100
AcDbPolyline
 62
250
  6
CONTINUOUS
 90
40
 70
0
 10
2.3117149312
 20
10.7000176948
 10
2.3103129498
 20
10.7028535165
 10
2.309003254
 20
10.7057268696
 10
2.3077858438
 20
10.708637754
 10
2.3066596114
 20
10.7115892991
 10
2.3056256645
 20
10.7145783756
 10
2.3046873266
 20
10.717595595
 10
2.3038449602
 20
10.7206408891
 10
2.3030982028
 20
10.7237143262
 10
2.3024492898
 20
10.7268067232
 10
2.3018985153
 20
10.729918135
 10
2.3014455852
 20
10.7330485068
 10
2.3010918524
 20
10.7361884914
 10
2.3008376128
 20
10.7393381189
 10
2.3006825705
 20
10.7424973592
 10
2.3006271905
 20
10.7456567749
 10
2.3006717709
 20
10.7488163673
 10
2.3008160136
 20
10.751976135
 10
2.3010594883
 20
10.7551266373
 10
2.3014024926
 20
10.7582678477
 10
2.301844729
 20
10.7613997926
 10
2.3023848751
 20
10.7645131102
 10
2.3030232236
 20
10.7676077426
 10
2.3037594818
 20
10.7706837477
 10
2.3045914492
 20
10.7737319382
 10
2.3055194123
 20
10.7767522312
 10
2.3065430844
 20
10.7797447095
 10
2.3076594061
 20
10.7827004347
 10
2.3088686531
 20
10.7856192958
 10
2.3101705496
 20
10.7885014038
 10
2.3115612077
 20
10.7913381529
 10
2.3130408949
 20
10.794129409
 10
2.3146093437
 20
10.7968753063
 10
2.3162618635
 20
10.7995676418
 10
2.3179988283
 20
10.8022063884
 10
2.3198198641
 20
10.8047915733
 10
2.3217191575
 20
10.8073150754
 10
2.3236947707
 20
10.8097741877
 10
2.3257486415
 20
10.8121716173
 10
2.3278807699
 20
10.8145073642
  0
LINE
  5
3A4
100
AcDbEntity
  8
RACCORDO
100
AcDbLine
 62
250
  6
CONTINUOUS
 10
10.470170942
 20
-17.710427789
 11
10.5285342235
 21
-18.3
  0
LINE
  5
3A5
100
AcDbEntity
  8
RACCORDO
100
AcDbLine
 62
250
  6
CONTINUOUS
 10
10.7201328658
 20
-17.4642258507
 11
10.7778145455
 21
-18.0469126796
  0
LINE
  5
3A6
100
AcDbEntity
  8
DRAFT
100
AcDbLine
 62
7
  6
CONTINUOUS
 10
7.9615988572
 20
-23.25
 11
7.9615988572
 21
-22.5881099959
  0
LINE
  5
3A7
100
AcDbEntity
  8
DRAFT
100
AcDbLine
 62
7
  6
CONTINUOUS
 10
7.9615988572
 20
22.5881099959
 11
7.9615988572
 21
23.25
  0
LWPOLYLINE
  5
3A8
100
AcDbEntity
  8
RACCORDO
100
AcDbPolyline
 62
250
  6
CONTINUOUS
 90
6
 70
0
 10
10.470170942
 20
17.710427789
 10
10.4698283681
 20
17.70545966
 10
10.46948813
 20
17.6997980306
 10
10.4691502276
 20
17.6934469356
 10
10.4688144281
 20
17.6864109446
 10
10.468150535
 20
17.6703045021
  0
LWPOLYLINE
  5
3A9
100
AcDbEntity
  8
RACCORDO
100
AcDbPolyline
 62
250
  6
CONTINUOUS
 90
8
 70
0
 10
10.7201328658
 20
17.4642258507
 10
10.7197903917
 20
17.4604954795
 10
10.7194502249
 20
17.4562513251
 10
10.7191123654
 20
17.4514933873
 10
10.7187765704
 20
17.446217509
 10
10.7184430826
 20
17.4404278475
 10
10.7181126303
 20
17.4341368744
 10
10.7174608575
 20
17.4200489553
  0
LINE
  5
3AA
100
AcDbEntity
  8
RACCORDO
100
AcDbLine
 62
250
  6
CONTINUOUS
 10
10.5285342235
 20
18.3
 11
10.470170942
 21
17.710427789
  0
LINE
  5
3AB
100
AcDbEntity
  8
RACCORDO
100
AcDbLine
 62
250
  6
CONTINUOUS
 10
10.7778145455
 20
18.0469126796
 11
10.7201328658
 21
17.4642258507
  0
LINE
  5
3AC
100
AcDbEntity
  8
RACCORDO
100
AcDbLine
 62
250
  6
CONTINUOUS
 10
-1.9855815546
 20
-10.5261956948
 11
-1.9963596186
 21
-10.5323790818
  0
LINE
  5
3AD
100
AcDbEntity
  8
RACCORDO
100
AcDbLine
 62
250
  6
CONTINUOUS
 10
-1.9963596186
 20
-10.5323790818
 11
-2.0086966761
 21
-10.5393414234
  0
LINE
  5
3AE
100
AcDbEntity
  8
RACCORDO
100
AcDbLine
 62
250
  6
CONTINUOUS
 10
-2.0086966761
 20
-10.5393414234
 11
-2.0225317375
 21
-10.5470483007
  0
LINE
  5
3AF
100
AcDbEntity
  8
RACCORDO
100
AcDbLine
 62
250
  6
CONTINUOUS
 10
-2.0225317375
 20
-10.5470483007
 11
-2.0459415299
 21
-10.5599203169
  0
LINE
  5
3B0
100
AcDbEntity
  8
RACCORDO
100
AcDbLine
 62
250
  6
CONTINUOUS
 10
-2.0459415299
 20
-10.5599203169
 11
-2.0723060293
 21
-10.5742378918
  0
LINE
  5
3B1
100
AcDbEntity
  8
RACCORDO
100
AcDbLine
 62
250
  6
CONTINUOUS
 10
-2.0723060293
 20
-10.5742378918
 11
-2.1115439764
 21
-10.5952994263
  0
LINE
  5
3B2
100
AcDbEntity
  8
RACCORDO
100
AcDbLine
 62
250
  6
CONTINUOUS
 10
-2.1115439764
 20
-10.5952994263
 11
-2.1660523618
 21
-10.624202649
  0
LINE
  5
3B3
100
AcDbEntity
  8
RACCORDO
100
AcDbLine
 62
250
  6
CONTINUOUS
 10
-2.1660523618
 20
-10.624202649
 11
-2.2250516346
 21
-10.6551328227
  0
LINE
  5
3B4
100
AcDbEntity
  8
RACCORDO
100
AcDbLine
 62
250
  6
CONTINUOUS
 10
-2.2250516346
 20
-10.6551328227
 11
-2.2867228027
 21
-10.6871363468
  0
LINE
  5
3B5
100
AcDbEntity
  8
RACCORDO
100
AcDbLine
 62
250
  6
CONTINUOUS
 10
-2.2867228027
 20
-10.6871363468
 11
-2.3117149312
 21
-10.7000176948
  0
LWPOLYLINE
  5
3B6
100
AcDbEntity
  8
DRAFT
100
AcDbPolyline
 62
250
  6
CONTINUOUS
 90
10
 70
0
 10
1.899490857
 20
8.3903106489
 10
1.5623887354
 20
8.357267661
 10
1.1526560658
 20
8.3175972417
 10
0.7388367301
 20
8.2780371517
 10
0.3209519748
 20
8.2385536897
 10
-0.1010004444
 20
8.199220784
 10
-0.5270502854
 20
8.1602198439
 10
-0.9572114051
 20
8.1216235851
 10
-1.3914780942
 20
8.0833961783
 10
-1.6631413242
 20
8.0599461731
  0
LINE
  5
3B7
100
AcDbEntity
  8
300081450
100
AcDbLine
 62
250
  6
CONTINUOUS
 10
2.0966613053
 20
9.2000001751
 11
2.1793464722
 21
9.2000003565
  0
LINE
  5
3B8
100
AcDbEntity
  8
RACCORDO
100
AcDbLine
 62
250
  6
CONTINUOUS
 10
-2.2372321306
 20
10.661478943
 11
-2.3117149312
 21
10.7000176947
  0
LINE
  5
3B9
100
AcDbEntity
  8
RACCORDO
100
AcDbLine
 62
250
  6
CONTINUOUS
 10
-2.1660523414
 20
10.6242026386
 11
-2.2372321306
 21
10.661478943
  0
LINE
  5
3BA
100
AcDbEntity
  8
RACCORDO
100
AcDbLine
 62
250
  6
CONTINUOUS
 10
-2.1115439474
 20
10.5952994114
 11
-2.1660523414
 21
10.6242026386
  0
LINE
  5
3BB
100
AcDbEntity
  8
RACCORDO
100
AcDbLine
 62
250
  6
CONTINUOUS
 10
-2.0723059937
 20
10.5742378735
 11
-2.1115439474
 21
10.5952994114
  0
LINE
  5
3BC
100
AcDbEntity
  8
RACCORDO
100
AcDbLine
 62
250
  6
CONTINUOUS
 10
-2.0459414898
 20
10.5599202963
 11
-2.0723059937
 21
10.5742378735
  0
LINE
  5
3BD
100
AcDbEntity
  8
RACCORDO
100
AcDbLine
 62
250
  6
CONTINUOUS
 10
-2.0225316933
 20
10.547048278
 11
-2.0459414898
 21
10.5599202963
  0
LINE
  5
3BE
100
AcDbEntity
  8
RACCORDO
100
AcDbLine
 62
250
  6
CONTINUOUS
 10
-2.0086966295
 20
10.5393413995
 11
-2.0225316933
 21
10.547048278
  0
LINE
  5
3BF
100
AcDbEntity
  8
RACCORDO
100
AcDbLine
 62
250
  6
CONTINUOUS
 10
-1.9963595698
 20
10.5323790567
 11
-2.0086966295
 21
10.5393413995
  0
LWPOLYLINE
  5
3C0
100
AcDbEntity
  8
RACCORDO
100
AcDbPolyline
 62
250
  6
CONTINUOUS
 90
6
 70
0
 10
10.718443165
 20
-17.440429317
 10
10.7187766555
 20
-17.4462188785
 10
10.7191124446
 20
-17.451494569
 10
10.7194502864
 20
-17.4562522006
 10
10.7197904268
 20
-17.4604959612
 10
10.7201328658
 20
-17.4642258507
  0
LINE
  5
3C1
100
AcDbEntity
  8
RACCORDO
100
AcDbLine
 62
250
  6
CONTINUOUS
 10
10.7177853058
 20
-17.4273452816
 11
10.718443165
 21
-17.440429317
  0
LWPOLYLINE
  5
3C2
100
AcDbEntity
  8
RACCORDO
100
AcDbPolyline
 62
250
  6
CONTINUOUS
 90
5
 70
0
 10
10.468814431
 20
-17.6864109824
 10
10.4691502305
 20
-17.6934469682
 10
10.4694881323
 20
-17.6997980537
 10
10.4698283694
 20
-17.7054596718
 10
10.470170942
 20
-17.710427789
  0
LINE
  5
3C3
100
AcDbEntity
  8
RACCORDO
100
AcDbLine
 62
250
  6
CONTINUOUS
 10
10.717140295
 20
-17.4122705537
 11
10.7177853058
 21
-17.4273452816
  0
LINE
  5
3C4
100
AcDbEntity
  8
RACCORDO
100
AcDbLine
 62
250
  6
CONTINUOUS
 10
10.4681505373
 20
-17.6703045406
 11
10.468814431
 21
-17.6864109824
  0
LINE
  5
3C5
100
AcDbEntity
  8
RACCORDO
100
AcDbLine
 62
250
  6
CONTINUOUS
 10
10.7165102094
 20
-17.3952506655
 11
10.717140295
 21
-17.4122705537
  0
LINE
  5
3C6
100
AcDbEntity
  8
RACCORDO
100
AcDbLine
 62
250
  6
CONTINUOUS
 10
10.4674987865
 20
-17.6515236606
 11
10.4681505373
 21
-17.6703045406
  0
LINE
  5
3C7
100
AcDbEntity
  8
RACCORDO
100
AcDbLine
 62
250
  6
CONTINUOUS
 10
10.7155970365
 20
-17.3661870695
 11
10.7165102094
 21
-17.3952506655
  0
LINE
  5
3C8
100
AcDbEntity
  8
RACCORDO
100
AcDbLine
 62
250
  6
CONTINUOUS
 10
10.4665480948
 20
-17.6184569345
 11
10.4674987865
 21
-17.6515236606
  0
LINE
  5
3C9
100
AcDbEntity
  8
RACCORDO
100
AcDbLine
 62
250
  6
CONTINUOUS
 10
10.714727219
 20
-17.3330447295
 11
10.7155970365
 21
-17.3661870695
  0
LWPOLYLINE
  5
3CA
100
AcDbEntity
  8
RACCORDO
100
AcDbPolyline
 62
250
  6
CONTINUOUS
 90
40
 70
0
 10
10.7201328658
 20
17.4642258507
 10
10.7199004836
 20
17.4741203316
 10
10.7192646006
 20
17.4839988255
 10
10.7182262442
 20
17.4938453713
 10
10.716787092
 20
17.5036440593
 10
10.7149494693
 20
17.5133790573
 10
10.7127163454
 20
17.523034636
 10
10.7100913283
 20
17.5325951944
 10
10.7070786594
 20
17.5420452849
 10
10.7036832065
 20
17.5513696386
 10
10.6999104558
 20
17.5605531897
 10
10.6957665031
 20
17.5695810997
 10
10.6912580439
 20
17.5784387819
 10
10.6863923628
 20
17.5871119243
 10
10.6811773216
 20
17.5955865135
 10
10.6756213464
 20
17.6038488564
 10
10.6697334144
 20
17.6118856033
 10
10.6635230389
 20
17.6196837687
 10
10.6570002544
 20
17.6272307528
 10
10.6501756001
 20
17.6345143614
 10
10.6430601028
 20
17.6415228261
 10
10.6356652596
 20
17.6482448229
 10
10.6280030186
 20
17.6546694907
 10
10.6200857601
 20
17.6607864489
 10
10.6119262764
 20
17.666585814
 10
10.6035377513
 20
17.6720582156
 10
10.5949337384
 20
17.6771948117
 10
10.5861281398
 20
17.6819873028
 10
10.5771351831
 20
17.6864279455
 10
10.5679693987
 20
17.6905095647
 10
10.5586455962
 20
17.6942255655
 10
10.5491788406
 20
17.6975699439
 10
10.5395844279
 20
17.7005372962
 10
10.5298778601
 20
17.7031228277
 10
10.5200748208
 20
17.705322361
 10
10.5101911491
 20
17.7071323422
 10
10.5002428147
 20
17.7085498467
 10
10.4902458916
 20
17.7095725842
 10
10.4802165324
 20
17.7101989023
 10
10.470170942
 20
17.710427789
  0
LINE
  5
3CB
100
AcDbEntity
  8
RACCORDO
100
AcDbLine
 62
250
  6
CONTINUOUS
 10
10.4653399984
 20
-17.5655674761
 11
10.4665480948
 21
-17.6184569345
  0
LINE
  5
3CC
100
AcDbEntity
  8
RACCORDO
100
AcDbLine
 62
250
  6
CONTINUOUS
 10
10.7136444941
 20
-17.2828825247
 11
10.714727219
 21
-17.3330447295
  0
LINE
  5
3CD
100
AcDbEntity
  8
RACCORDO
100
AcDbLine
 62
250
  6
CONTINUOUS
 10
10.4639442891
 20
-17.4861721134
 11
10.4653399984
 21
-17.5655674761
  0
LINE
  5
3CE
100
AcDbEntity
  8
RACCORDO
100
AcDbLine
 62
250
  6
CONTINUOUS
 10
10.7124317257
 20
-17.2113794116
 11
10.7136444941
 21
-17.2828825247
  0
LINE
  5
3CF
100
AcDbEntity
  8
RACCORDO
100
AcDbLine
 62
250
  6
CONTINUOUS
 10
10.4622478024
 20
-17.3528054105
 11
10.4639442891
 21
-17.4861721134
  0
LINE
  5
3D0
100
AcDbEntity
  8
RACCORDO
100
AcDbLine
 62
250
  6
CONTINUOUS
 10
10.7110342787
 20
-17.0971786228
 11
10.7124317257
 21
-17.2113794116
  0
LINE
  5
3D1
100
AcDbEntity
  8
RACCORDO
100
AcDbLine
 62
250
  6
CONTINUOUS
 10
10.4604478883
 20
-17.1259695981
 11
10.4622478024
 21
-17.3528054105
  0
LINE
  5
3D2
100
AcDbEntity
  8
RACCORDO
100
AcDbLine
 62
250
  6
CONTINUOUS
 10
10.709920906
 20
-16.9511754047
 11
10.7110342787
 21
-17.0971786228
  0
LINE
  5
3D3
100
AcDbEntity
  8
RACCORDO
100
AcDbLine
 62
250
  6
CONTINUOUS
 10
10.4594091256
 20
-16.8181516368
 11
10.4604478883
 21
-17.1259695981
  0
LINE
  5
3D4
100
AcDbEntity
  8
RACCORDO
100
AcDbLine
 62
250
  6
CONTINUOUS
 10
10.7093250368
 20
-16.7552054488
 11
10.709920906
 21
-16.9511754047
  0
LINE
  5
3D5
100
AcDbEntity
  8
RACCORDO
100
AcDbLine
 62
250
  6
CONTINUOUS
 10
10.459363113
 20
-16.765067253
 11
10.4594091256
 21
-16.8181516368
  0
LWPOLYLINE
  5
3D6
100
AcDbEntity
  8
RACCORDO
100
AcDbPolyline
 62
250
  6
CONTINUOUS
 90
3
 70
0
 10
10.4570835188
 20
-13.0408334617
 10
10.4577800785
 20
-14.2823702561
 10
10.459363113
 20
-16.765067253
  0
LWPOLYLINE
  5
3D7
100
AcDbEntity
  8
RACCORDO
100
AcDbPolyline
 62
250
  6
CONTINUOUS
 90
3
 70
0
 10
10.7070454427
 20
-13.0331625816
 10
10.7077420024
 20
-14.273954891
 10
10.7093250368
 20
-16.7552054488
  0
LWPOLYLINE
  5
3D8
100
AcDbEntity
  8
RACCORDO
100
AcDbPolyline
 62
250
  6
CONTINUOUS
 90
3
 70
0
 10
10.4553736699
 20
-9.3155971689
 10
10.4558803048
 20
-10.5574363131
 10
10.4570835188
 20
-13.0408334617
  0
LWPOLYLINE
  5
3D9
100
AcDbEntity
  8
RACCORDO
100
AcDbPolyline
 62
250
  6
CONTINUOUS
 90
3
 70
0
 10
10.7053355937
 20
-9.3101175315
 10
10.7058422286
 20
-10.5512226813
 10
10.7070454427
 20
-13.0331625816
  0
LINE
  5
3DA
100
AcDbEntity
  8
RACCORDO
100
AcDbLine
 62
250
  6
CONTINUOUS
 10
10.4542336976
 20
-5.58964475
 11
10.4553736699
 21
-9.3155971689
  0
LINE
  5
3DB
100
AcDbEntity
  8
RACCORDO
100
AcDbLine
 62
250
  6
CONTINUOUS
 10
10.7041956214
 20
-5.5863567763
 11
10.7053355937
 21
-9.3101175315
  0
LINE
  5
3DC
100
AcDbEntity
  8
RACCORDO
100
AcDbLine
 62
250
  6
CONTINUOUS
 10
10.4536636896
 20
-1.8632626575
 11
10.4542336976
 21
-5.58964475
  0
LINE
  5
3DD
100
AcDbEntity
  8
RACCORDO
100
AcDbLine
 62
250
  6
CONTINUOUS
 10
10.5234126973
 20
22.5881099958
 11
10.5234126973
 21
18.8
  0
LINE
  5
3DE
100
AcDbEntity
  8
RACCORDO
100
AcDbLine
 62
250
  6
CONTINUOUS
 10
10.5234126973
 20
-18.8
 11
10.5234126973
 21
-22.5881099959
  0
LINE
  5
3DF
100
AcDbEntity
  8
RACCORDO
100
AcDbLine
 62
250
  6
CONTINUOUS
 10
10.7036256134
 20
-1.8621666001
 11
10.7041956214
 21
-5.5863567763
  0
LINE
  5
3E0
100
AcDbEntity
  8
RACCORDO
100
AcDbLine
 62
250
  6
CONTINUOUS
 10
10.773374621
 20
22.3381099959
 11
10.773374621
 21
18.8
  0
LINE
  5
3E1
100
AcDbEntity
  8
RACCORDO
100
AcDbLine
 62
250
  6
CONTINUOUS
 10
10.773374621
 20
-18.8
 11
10.773374621
 21
-22.3381099959
  0
LINE
  5
3E2
100
AcDbEntity
  8
RACCORDO
100
AcDbLine
 62
7
  6
CONTINUOUS
 10
10.7778145455
 20
18.8
 11
10.7778145455
 21
18.0469126796
  0
LINE
  5
3E3
100
AcDbEntity
  8
RACCORDO
100
AcDbLine
 62
7
  6
CONTINUOUS
 10
10.7778145455
 20
-18.0469126796
 11
10.7778145455
 21
-18.8
  0
LINE
  5
3E4
100
AcDbEntity
  8
RACCORDO
100
AcDbLine
 62
7
  6
CONTINUOUS
 10
10.8615988572
 20
22.2498857598
 11
10.8615988572
 21
19.5384011428
  0
LINE
  5
3E5
100
AcDbEntity
  8
RACCORDO
100
AcDbLine
 62
7
  6
CONTINUOUS
 10
10.8615988572
 20
-19.5384011428
 11
10.8615988572
 21
-22.2498857598
  0
LINE
  5
3E6
100
AcDbEntity
  8
DRAFT
100
AcDbLine
 62
7
  6
CONTINUOUS
 10
10.9
 20
19.5
 11
10.9
 21
-19.5
  0
LINE
  5
3E7
100
AcDbEntity
  8
SMUSSO
100
AcDbLine
 62
7
  6
CONTINUOUS
 10
10.9
 20
-19.4434092398
 11
10.9
 21
19.4434092398
  0
LINE
  5
3E8
100
AcDbEntity
  8
RACCORDO
100
AcDbLine
 62
250
  6
CONTINUOUS
 10
10.4536636896
 20
1.8632626574
 11
10.4536636896
 21
-1.8632626575
  0
LINE
  5
3E9
100
AcDbEntity
  8
RACCORDO
100
AcDbLine
 62
250
  6
CONTINUOUS
 10
10.7036256134
 20
1.8621667141
 11
10.7036256134
 21
-1.8621666001
  0
LINE
  5
3EA
100
AcDbEntity
  8
RACCORDO
100
AcDbLine
 62
250
  6
CONTINUOUS
 10
10.4545503623
 20
6.8316907779
 11
10.4536636896
 21
1.8632626574
  0
LINE
  5
3EB
100
AcDbEntity
  8
RACCORDO
100
AcDbLine
 62
250
  6
CONTINUOUS
 10
10.7045122861
 20
6.8276687917
 11
10.7036256134
 21
1.8621667141
  0
LWPOLYLINE
  5
3EC
100
AcDbEntity
  8
RACCORDO
100
AcDbPolyline
 62
250
  6
CONTINUOUS
 90
3
 70
0
 10
10.4564502593
 20
11.7991852787
 10
10.4558803048
 20
10.5574363131
 10
10.4545503623
 20
6.8316907779
  0
LWPOLYLINE
  5
3ED
100
AcDbEntity
  8
RACCORDO
100
AcDbPolyline
 62
250
  6
CONTINUOUS
 90
3
 70
0
 10
10.7064121832
 20
11.7922484303
 10
10.7058422287
 20
10.5512227991
 10
10.7045122861
 20
6.8276687917
  0
LINE
  5
3EE
100
AcDbEntity
  8
RACCORDO
100
AcDbLine
 62
250
  6
CONTINUOUS
 10
10.4585399432
 20
15.5237850548
 11
10.4564502593
 21
11.7991852787
  0
LINE
  5
3EF
100
AcDbEntity
  8
RACCORDO
100
AcDbLine
 62
250
  6
CONTINUOUS
 10
10.7085018671
 20
15.5146358972
 11
10.7064121832
 21
11.7922484303
  0
LINE
  5
3F0
100
AcDbEntity
  8
RACCORDO
100
AcDbLine
 62
250
  6
CONTINUOUS
 10
10.4601860958
 20
17.0766700371
 11
10.4585399432
 21
15.5237850548
  0
LINE
  5
3F1
100
AcDbEntity
  8
RACCORDO
100
AcDbLine
 62
250
  6
CONTINUOUS
 10
10.7098205839
 20
16.9320685178
 11
10.7085018671
 21
15.5146358972
  0
LINE
  5
3F2
100
AcDbEntity
  8
RACCORDO
100
AcDbLine
 62
250
  6
CONTINUOUS
 10
10.7108657808
 20
17.0797156289
 11
10.7098205839
 21
16.9320685178
  0
LINE
  5
3F3
100
AcDbEntity
  8
RACCORDO
100
AcDbLine
 62
250
  6
CONTINUOUS
 10
10.4618255256
 20
17.3104954117
 11
10.4601860958
 21
17.0766700371
  0
LINE
  5
3F4
100
AcDbEntity
  8
RACCORDO
100
AcDbLine
 62
250
  6
CONTINUOUS
 10
10.4634269094
 20
17.4505647456
 11
10.4618255256
 21
17.3104954117
  0
LINE
  5
3F5
100
AcDbEntity
  8
RACCORDO
100
AcDbLine
 62
250
  6
CONTINUOUS
 10
10.7122096824
 20
17.1960059703
 11
10.7108657808
 21
17.0797156289
  0
LINE
  5
3F6
100
AcDbEntity
  8
RACCORDO
100
AcDbLine
 62
250
  6
CONTINUOUS
 10
10.4647651731
 20
17.5355171421
 11
10.4634269094
 21
17.4505647456
  0
LINE
  5
3F7
100
AcDbEntity
  8
RACCORDO
100
AcDbLine
 62
250
  6
CONTINUOUS
 10
10.7133888291
 20
17.2693311761
 11
10.7122096824
 21
17.1960059703
  0
LINE
  5
3F8
100
AcDbEntity
  8
RACCORDO
100
AcDbLine
 62
250
  6
CONTINUOUS
 10
10.4659349405
 20
17.5932399912
 11
10.4647651731
 21
17.5355171421
  0
LINE
  5
3F9
100
AcDbEntity
  8
RACCORDO
100
AcDbLine
 62
250
  6
CONTINUOUS
 10
10.7144478641
 20
17.3211266647
 11
10.7133888291
 21
17.2693311761
  0
LWPOLYLINE
  5
3FA
100
AcDbEntity
  8
RACCORDO
100
AcDbPolyline
 62
250
  6
CONTINUOUS
 90
40
 70
0
 10
10.7201328658
 20
-17.4642258507
 10
10.7199004836
 20
-17.4741203325
 10
10.7192646005
 20
-17.4839988272
 10
10.7182262439
 20
-17.4938453737
 10
10.7167870914
 20
-17.5036440624
 10
10.7149494685
 20
-17.513379061
 10
10.7127163443
 20
-17.5230346403
 10
10.7100913269
 20
-17.5325951992
 10
10.7070786576
 20
-17.5420452901
 10
10.7036832044
 20
-17.5513696442
 10
10.6999104533
 20
-17.5605531955
 10
10.6957665001
 20
-17.5695811058
 10
10.6912580405
 20
-17.5784387881
 10
10.6863923591
 20
-17.5871119306
 10
10.6811773175
 20
-17.5955865198
 10
10.675621342
 20
-17.6038488627
 10
10.6697334097
 20
-17.6118856095
 10
10.6635230339
 20
-17.6196837747
 10
10.6570002491
 20
-17.6272307586
 10
10.6501755946
 20
-17.634514367
 10
10.6430600972
 20
-17.6415228314
 10
10.6356652539
 20
-17.6482448279
 10
10.6280030128
 20
-17.6546694954
 10
10.6200857543
 20
-17.6607864532
 10
10.6119262707
 20
-17.6665858179
 10
10.6035377456
 20
-17.6720582192
 10
10.5949337329
 20
-17.6771948149
 10
10.5861281345
 20
-17.6819873056
 10
10.577135178
 20
-17.6864279479
 10
10.5679693939
 20
-17.6905095667
 10
10.5586455918
 20
-17.6942255672
 10
10.5491788366
 20
-17.6975699453
 10
10.5395844242
 20
-17.7005372972
 10
10.5298778569
 20
-17.7031228285
 10
10.520074818
 20
-17.7053223616
 10
10.5101911469
 20
-17.7071323426
 10
10.500242813
 20
-17.7085498469
 10
10.4902458905
 20
-17.7095725843
 10
10.4802165318
 20
-17.7101989024
 10
10.470170942
 20
-17.710427789
  0
LINE
  5
3FB
100
AcDbEntity
  8
RACCORDO
100
AcDbLine
 62
250
  6
CONTINUOUS
 10
10.7153019877
 20
17.3555831128
 11
10.7144478641
 21
17.3211266647
  0
LINE
  5
3FC
100
AcDbEntity
  8
RACCORDO
100
AcDbLine
 62
250
  6
CONTINUOUS
 10
10.4668612592
 20
17.6301218752
 11
10.4659349405
 21
17.5932399912
  0
LINE
  5
3FD
100
AcDbEntity
  8
RACCORDO
100
AcDbLine
 62
250
  6
CONTINUOUS
 10
10.4674987842
 20
17.651523621
 11
10.4668612592
 21
17.6301218752
  0
LINE
  5
3FE
100
AcDbEntity
  8
RACCORDO
100
AcDbLine
 62
250
  6
CONTINUOUS
 10
10.7162013418
 20
17.3860282054
 11
10.7153019877
 21
17.3555831128
  0
LINE
  5
3FF
100
AcDbEntity
  8
RACCORDO
100
AcDbLine
 62
250
  6
CONTINUOUS
 10
10.7168233095
 20
17.4040013595
 11
10.7162013418
 21
17.3860282054
  0
LINE
  5
400
100
AcDbEntity
  8
RACCORDO
100
AcDbLine
 62
250
  6
CONTINUOUS
 10
10.468150535
 20
17.6703045021
 11
10.4674987842
 21
17.651523621
  0
LINE
  5
401
100
AcDbEntity
  8
RACCORDO
100
AcDbLine
 62
250
  6
CONTINUOUS
 10
10.7174608575
 20
17.4200489553
 11
10.7168233095
 21
17.4040013595
  0
LINE
  5
402
100
AcDbEntity
  8
RACCORDO
100
AcDbLine
 62
250
  6
CONTINUOUS
 10
2.2582416181
 20
-10.8798532072
 11
2.3278807699
 21
-10.8145073642
  0
LINE
  5
403
100
AcDbEntity
  8
RACCORDO
100
AcDbLine
 62
250
  6
CONTINUOUS
 10
2.2016229114
 20
-10.9325096985
 11
2.2582416181
 21
-10.8798532072
  0
LINE
  5
404
100
AcDbEntity
  8
RACCORDO
100
AcDbLine
 62
250
  6
CONTINUOUS
 10
2.1584665421
 20
-10.9722940964
 11
2.2016229114
 21
-10.9325096985
  0
LINE
  5
405
100
AcDbEntity
  8
RACCORDO
100
AcDbLine
 62
250
  6
CONTINUOUS
 10
2.1275091464
 20
-11.000580128
 11
2.1584665421
 21
-10.9722940964
  0
LINE
  5
406
100
AcDbEntity
  8
RACCORDO
100
AcDbLine
 62
250
  6
CONTINUOUS
 10
2.106764393
 20
-11.0193700948
 11
2.1275091464
 21
-11.000580128
  0
LINE
  5
407
100
AcDbEntity
  8
RACCORDO
100
AcDbLine
 62
250
  6
CONTINUOUS
 10
2.0883887263
 20
-11.0358560668
 11
2.106764393
 21
-11.0193700948
  0
LINE
  5
408
100
AcDbEntity
  8
RACCORDO
100
AcDbLine
 62
250
  6
CONTINUOUS
 10
2.0775527764
 20
-11.0454784161
 11
2.0883887263
 21
-11.0358560668
  0
LINE
  5
409
100
AcDbEntity
  8
RACCORDO
100
AcDbLine
 62
250
  6
CONTINUOUS
 10
2.0679094478
 20
-11.053951873
 11
2.0775527764
 21
-11.0454784161
  0
LWPOLYLINE
  5
40A
100
AcDbEntity
  8
RACCORDO
100
AcDbPolyline
 62
250
  6
CONTINUOUS
 90
12
 70
0
 10
2.0368956624
 20
11.0787878894
 10
2.0372443675
 20
11.0788103149
 10
2.0379393407
 20
11.0785057197
 10
2.0389797542
 20
11.0778744666
 10
2.0403643682
 20
11.0769173077
 10
2.0420915332
 20
11.0756353834
 10
2.0441591914
 20
11.0740302209
 10
2.0465648793
 20
11.0721037328
 10
2.0493057309
 20
11.0698582142
 10
2.0523784805
 20
11.0672963405
 10
2.0557794673
 20
11.0644211639
 10
2.0595046393
 20
11.06123611
  0
LWPOLYLINE
  5
40B
100
AcDbEntity
  8
RACCORDO
100
AcDbPolyline
 62
250
  6
CONTINUOUS
 90
13
 70
0
 10
-2.0368957113
 20
11.0787878432
 10
-2.0372444163
 20
11.0788102688
 10
-2.0379393894
 20
11.0785056737
 10
-2.0389798026
 20
11.0778744208
 10
-2.0403644164
 20
11.0769172621
 10
-2.042091581
 20
11.0756353381
 10
-2.0441592388
 20
11.0740301761
 10
-2.0465649262
 20
11.0721036883
 10
-2.0493057772
 20
11.0698581702
 10
-2.0523785262
 20
11.0672962971
 10
-2.0557795124
 20
11.0644211211
 10
-2.0595046836
 20
11.0612360678
 10
-2.0679094478
 20
11.053951873
  0
LINE
  5
40C
100
AcDbEntity
  8
RACCORDO
100
AcDbLine
 62
250
  6
CONTINUOUS
 10
2.0595046393
 20
11.06123611
 11
2.067909405
 21
11.0539519137
  0
LINE
  5
40D
100
AcDbEntity
  8
RACCORDO
100
AcDbLine
 62
250
  6
CONTINUOUS
 10
2.067909405
 20
11.0539519137
 11
2.0775527354
 21
11.0454784551
  0
LINE
  5
40E
100
AcDbEntity
  8
RACCORDO
100
AcDbLine
 62
250
  6
CONTINUOUS
 10
2.0775527354
 20
11.0454784551
 11
2.0883886874
 21
11.035856104
  0
LINE
  5
40F
100
AcDbEntity
  8
RACCORDO
100
AcDbLine
 62
250
  6
CONTINUOUS
 10
2.0883886874
 20
11.035856104
 11
2.1067643575
 21
11.0193701288
  0
LINE
  5
410
100
AcDbEntity
  8
RACCORDO
100
AcDbLine
 62
250
  6
CONTINUOUS
 10
2.1067643575
 20
11.0193701288
 11
2.1349127684
 21
10.993838961
  0
LINE
  5
411
100
AcDbEntity
  8
RACCORDO
100
AcDbLine
 62
250
  6
CONTINUOUS
 10
2.1349127684
 20
10.993838961
 11
2.1751938341
 21
10.9569160392
  0
LINE
  5
412
100
AcDbEntity
  8
RACCORDO
100
AcDbLine
 62
250
  6
CONTINUOUS
 10
2.1751938341
 20
10.9569160392
 11
2.2294047038
 21
10.9067300398
  0
LINE
  5
413
100
AcDbEntity
  8
RACCORDO
100
AcDbLine
 62
250
  6
CONTINUOUS
 10
2.2294047038
 20
10.9067300398
 11
2.2878246406
 21
10.8521672119
  0
LINE
  5
414
100
AcDbEntity
  8
RACCORDO
100
AcDbLine
 62
250
  6
CONTINUOUS
 10
2.2878246406
 20
10.8521672119
 11
2.3278807699
 21
10.8145073641
  0
LWPOLYLINE
  5
415
100
AcDbEntity
  8
RACCORDO
100
AcDbPolyline
 62
250
  6
CONTINUOUS
 90
22
 70
0
 10
10.773374621
 20
22.3381099959
 10
10.7732028276
 20
22.3474521419
 10
10.7726818795
 20
22.356782799
 10
10.7718123292
 20
22.3660889151
 10
10.7705951396
 20
22.3753579788
 10
10.7690318778
 20
22.3845764788
 10
10.7671249066
 20
22.3937299551
 10
10.7648770333
 20
22.4028050806
 10
10.7622913037
 20
22.4117896843
 10
10.7593713227
 20
22.4206712323
 10
10.7561211606
 20
22.4294373246
 10
10.7525453702
 20
22.4380756645
 10
10.7486489737
 20
22.4465741155
 10
10.744437436
 20
22.4549207655
 10
10.7399166416
 20
22.4631039585
 10
10.7350929073
 20
22.4711122614
 10
10.7299729785
 20
22.478934474
 10
10.7245640218
 20
22.4865596452
 10
10.7188736052
 20
22.4939771054
 10
10.7129096908
 20
22.5011764749
 10
10.7066806228
 20
22.5081476804
 10
10.7001893926
 20
22.5148866912
  0
LWPOLYLINE
  5
416
100
AcDbEntity
  8
RACCORDO
100
AcDbPolyline
 62
250
  6
CONTINUOUS
 90
22
 70
0
 10
10.773374621
 20
-22.3381099959
 10
10.7732028276
 20
-22.3474521419
 10
10.7726818795
 20
-22.356782799
 10
10.7718123292
 20
-22.3660889151
 10
10.7705951396
 20
-22.3753579788
 10
10.7690318778
 20
-22.3845764788
 10
10.7671249066
 20
-22.3937299551
 10
10.7648770333
 20
-22.4028050806
 10
10.7622913037
 20
-22.4117896843
 10
10.7593713227
 20
-22.4206712323
 10
10.7561211606
 20
-22.4294373246
 10
10.7525453702
 20
-22.4380756645
 10
10.7486489737
 20
-22.4465741155
 10
10.744437436
 20
-22.4549207655
 10
10.7399166416
 20
-22.4631039585
 10
10.7350929073
 20
-22.4711122614
 10
10.7299729785
 20
-22.478934474
 10
10.7245640218
 20
-22.4865596452
 10
10.7188736052
 20
-22.4939771054
 10
10.7129096908
 20
-22.5011764749
 10
10.7066806228
 20
-22.5081476804
 10
10.7001893926
 20
-22.5148866912
  0
LWPOLYLINE
  5
417
100
AcDbEntity
  8
RACCORDO
100
AcDbPolyline
 62
250
  6
CONTINUOUS
 90
74
 70
0
 10
2.3320261903
 20
-15.2055775617
 10
2.3768481982
 20
-15.1568320883
 10
2.4206539264
 20
-15.1071658453
 10
2.463444637
 20
-15.0565800593
 10
2.505164931
 20
-15.0051394772
 10
2.5458134264
 20
-14.9528429792
 10
2.5853915052
 20
-14.8996916645
 10
2.6238479131
 20
-14.8457536089
 10
2.6611812203
 20
-14.7910277515
 10
2.6973928566
 20
-14.735515134
 10
2.7324358576
 20
-14.6792869883
 10
2.76630872
 20
-14.6223423521
 10
2.7990129469
 20
-14.5646821699
 10
2.8305060841
 20
-14.5063805355
 10
2.8607865545
 20
-14.447436616
 10
2.8898559351
 20
-14.3878512283
 10
2.9176765026
 20
-14.3277009435
 10
2.9442466526
 20
-14.2669849757
 10
2.9695679895
 20
-14.2057040969
 10
2.9936076029
 20
-14.1439372171
 10
3.0163638195
 20
-14.0816837066
 10
3.0378383125
 20
-14.0189441835
 10
3.0580031916
 20
-13.9557994314
 10
3.0768567658
 20
-13.8922488467
 10
3.094400726
 20
-13.8282930239
 10
3.1106122549
 20
-13.7640145464
 10
3.1254895903
 20
-13.6994130931
 10
3.1390344942
 20
-13.6344889785
 10
3.1512294358
 20
-13.5693257427
 10
3.1620726669
 20
-13.5039230959
 10
3.1715659357
 20
-13.438281324
 10
3.1796969555
 20
-13.3724848325
 10
3.1864639679
 20
-13.3065333433
 10
3.1918687314
 20
-13.2404271331
 10
3.1959042343
 20
-13.1742514424
 10
3.1985686694
 20
-13.1080058903
 10
3.199863844
 20
-13.0416908587
 10
3.1997881685
 20
-12.9753927346
 10
3.1983398111
 20
-12.9091117582
 10
3.1955206037
 20
-12.8428476929
 10
3.1913344531
 20
-12.776686213
 10
3.1857797269
 20
-12.7106283192
 10
3.1788580575
 20
-12.6446730168
 10
3.1705782484
 20
-12.5789029891
 10
3.160938694
 20
-12.5133183558
 10
3.149941
 20
-12.4479190054
 10
3.1375987866
 20
-12.3827872767
 10
3.1239097433
 20
-12.3179213196
 10
3.1088761805
 20
-12.2533229943
 10
3.0925186504
 20
-12.1890802069
 10
3.0748347659
 20
-12.1251928459
 10
3.0558269139
 20
-12.0616610348
 10
3.0355228076
 20
-11.9985730341
 10
3.0139223649
 20
-11.9359341537
 10
2.9910256678
 20
-11.8737390977
 10
2.9668606747
 20
-11.8120602189
 10
2.9414280932
 20
-11.7509011257
 10
2.9147272156
 20
-11.6902582249
 10
2.8867838772
 20
-11.6301930684
 10
2.8575941594
 20
-11.570699977
 10
2.8271619808
 20
-11.5117846456
 10
2.7955249323
 20
-11.4535256889
 10
2.7626758915
 20
-11.3959165974
 10
2.7286219808
 20
-11.3389638972
 10
2.6934221582
 20
-11.2827657577
 10
2.6570724728
 20
-11.2273239596
 10
2.6195768755
 20
-11.1726367399
 10
2.5810061764
 20
-11.1187969545
 10
2.5413567827
 20
-11.0658071623
 10
2.5006322873
 20
-11.0136648229
 10
2.4589142794
 20
-10.9624551441
 10
2.4162299554
 20
-10.912206535
 10
2.3725521189
 20
-10.8628906054
 10
2.3278807699
 20
-10.8145073642
  0
LINE
  5
418
100
AcDbEntity
  8
300081450
100
AcDbLine
 62
250
  6
CONTINUOUS
 10
2.6944652926
 20
13.2000000538
 11
2.7416473039
 21
13.2000001456
  0
LWPOLYLINE
  5
419
100
AcDbEntity
  8
0
100
AcDbPolyline
 62
7
  6
CONTINUOUS
 90
10
 70
0
 43
0.3500000006
 10
0.6428571367
 20
34.2500010681
 10
0.7142856996
 20
34.1071432343
 10
0.7142856996
 20
34.0357120514
 10
0.5714285738
 20
33.8928587494
 10
0.500000011
 20
33.8928587494
 10
0.4285714127
 20
33.9642854004
 10
0.4285714127
 20
34.0357120514
 10
0.500000011
 20
34.1785698853
 10
0.5714285738
 20
34.2500010681
 10
0.6428571367
 20
34.2500010681
  0
LINE
  5
41A
100
AcDbEntity
  8
RACCORDO
100
AcDbLine
 62
250
  6
CONTINUOUS
 10
-10.6635730594
 20
16.7607538698
 11
-10.6514494802
 21
16.761385189
  0
LINE
  5
41B
100
AcDbEntity
  8
RACCORDO
100
AcDbLine
 62
250
  6
CONTINUOUS
 10
-10.6514494802
 20
16.761385189
 11
-10.6381076412
 21
16.7619773149
  0
LINE
  5
41C
100
AcDbEntity
  8
RACCORDO
100
AcDbLine
 62
250
  6
CONTINUOUS
 10
-10.6381076412
 20
16.7619773149
 11
-10.6236321597
 21
16.7625264918
  0
LINE
  5
41D
100
AcDbEntity
  8
RACCORDO
100
AcDbLine
 62
250
  6
CONTINUOUS
 10
-10.6236321597
 20
16.7625264918
 11
-10.6081148429
 21
16.7630292368
  0
LINE
  5
41E
100
AcDbEntity
  8
RACCORDO
100
AcDbLine
 62
250
  6
CONTINUOUS
 10
-10.6081148429
 20
16.7630292368
 11
-10.5916541055
 21
16.7634823615
  0
LINE
  5
41F
100
AcDbEntity
  8
RACCORDO
100
AcDbLine
 62
250
  6
CONTINUOUS
 10
-10.5916541055
 20
16.7634823615
 11
-10.5654239304
 21
16.7640628141
  0
LINE
  5
420
100
AcDbEntity
  8
RACCORDO
100
AcDbLine
 62
250
  6
CONTINUOUS
 10
-10.5654239304
 20
16.7640628141
 11
-10.5376812611
 21
16.7645169552
  0
LINE
  5
421
100
AcDbEntity
  8
RACCORDO
100
AcDbLine
 62
250
  6
CONTINUOUS
 10
-10.5376812611
 20
16.7645169552
 11
-10.5088217256
 21
16.7648383082
  0
LINE
  5
422
100
AcDbEntity
  8
RACCORDO
100
AcDbLine
 62
250
  6
CONTINUOUS
 10
-10.5088217256
 20
16.7648383082
 11
-10.479256879
 21
16.7650222906
  0
LINE
  5
423
100
AcDbEntity
  8
RACCORDO
100
AcDbLine
 62
250
  6
CONTINUOUS
 10
-10.479256879
 20
16.7650222906
 11
10.459363113
 21
16.765067253
  0
LINE
  5
424
100
AcDbEntity
  8
RACCORDO
100
AcDbLine
 62
250
  6
CONTINUOUS
 10
-10.470170942
 20
17.710427789
 11
10.470170942
 21
17.710427789
  0
LINE
  5
425
100
AcDbEntity
  8
RACCORDO
100
AcDbLine
 62
7
  6
CONTINUOUS
 10
10.5285342235
 20
18.3
 11
-10.5285342235
 21
18.3
  0
LINE
  5
426
100
AcDbEntity
  8
RACCORDO
100
AcDbLine
 62
250
  6
CONTINUOUS
 10
10.4891643153
 20
16.7649764315
 11
10.459363113
 21
16.765067253
  0
LINE
  5
427
100
AcDbEntity
  8
RACCORDO
100
AcDbLine
 62
250
  6
CONTINUOUS
 10
10.5185405335
 20
16.7647462695
 11
10.4891643153
 21
16.7649764315
  0
LINE
  5
428
100
AcDbEntity
  8
RACCORDO
100
AcDbLine
 62
250
  6
CONTINUOUS
 10
10.5470728442
 20
16.7643800494
 11
10.5185405335
 21
16.7647462695
  0
LINE
  5
429
100
AcDbEntity
  8
RACCORDO
100
AcDbLine
 62
250
  6
CONTINUOUS
 10
10.5743543584
 20
16.7638829936
 11
10.5470728442
 21
16.7643800494
  0
LINE
  5
42A
100
AcDbEntity
  8
RACCORDO
100
AcDbLine
 62
250
  6
CONTINUOUS
 10
10.5999960245
 20
16.7632621906
 11
10.5743543584
 21
16.7638829936
  0
LINE
  5
42B
100
AcDbEntity
  8
RACCORDO
100
AcDbLine
 62
250
  6
CONTINUOUS
 10
10.6159977435
 20
16.7627838763
 11
10.5999960245
 21
16.7632621906
  0
LINE
  5
42C
100
AcDbEntity
  8
RACCORDO
100
AcDbLine
 62
250
  6
CONTINUOUS
 10
10.6310060463
 20
16.7622574977
 11
10.6159977435
 21
16.7627838763
  0
LINE
  5
42D
100
AcDbEntity
  8
RACCORDO
100
AcDbLine
 62
250
  6
CONTINUOUS
 10
10.6449257464
 20
16.7616863932
 11
10.6310060463
 21
16.7622574977
  0
LWPOLYLINE
  5
42E
100
AcDbEntity
  8
RACCORDO
100
AcDbPolyline
 62
250
  6
CONTINUOUS
 90
16
 70
0
 10
10.7093250368
 20
-16.7552054488
 10
10.7089531922
 20
-16.7555981969
 10
10.7081854499
 20
-16.755990322
 10
10.7070230278
 20
-16.7563812022
 10
10.7054677695
 20
-16.7567702174
 10
10.7035221421
 20
-16.7571567506
 10
10.7011892317
 20
-16.7575401887
 10
10.6984727388
 20
-16.7579199234
 10
10.6953769721
 20
-16.7582953524
 10
10.6919068423
 20
-16.7586658803
 10
10.6880678535
 20
-16.7590309192
 10
10.6838660952
 20
-16.7593898902
 10
10.6793082322
 20
-16.7597422239
 10
10.674401494
 20
-16.7600873613
 10
10.6691536638
 20
-16.7604247552
 10
10.6635730655
 20
-16.7607538702
  0
LINE
  5
42F
100
AcDbEntity
  8
RACCORDO
100
AcDbLine
 62
7
  6
CONTINUOUS
 10
10.7778145455
 20
18.8
 11
-10.7778145455
 21
18.8
  0
LWPOLYLINE
  5
430
100
AcDbEntity
  8
RACCORDO
100
AcDbPolyline
 62
250
  6
CONTINUOUS
 90
18
 70
0
 10
10.7093250368
 20
16.7552054488
 10
10.7089531934
 20
16.7555981969
 10
10.7081854522
 20
16.7559903221
 10
10.707023031
 20
16.7563812023
 10
10.7054677738
 20
16.7567702176
 10
10.7035221473
 20
16.7571567508
 10
10.7011892377
 20
16.7575401889
 10
10.6984727455
 20
16.7579199236
 10
10.6953769796
 20
16.7582953527
 10
10.6919068503
 20
16.7586658806
 10
10.6880678621
 20
16.7590309196
 10
10.6838661043
 20
16.7593898906
 10
10.6793082417
 20
16.7597422243
 10
10.6744015039
 20
16.7600873619
 10
10.6691536739
 20
16.7604247557
 10
10.6635730759
 20
16.7607538708
 10
10.6576685617
 20
16.761074185
 10
10.6449257464
 20
16.7616863932
  0
LINE
  5
431
100
AcDbEntity
  8
DRAFT
100
AcDbLine
 62
7
  6
CONTINUOUS
 10
10.9
 20
-19.5
 11
10.8615988572
 21
-19.5384011428
  0
LINE
  5
432
100
AcDbEntity
  8
DRAFT
100
AcDbLine
 62
7
  6
CONTINUOUS
 10
10.9
 20
19.5
 11
10.8615988572
 21
19.5384011428
  0
LINE
  5
433
100
AcDbEntity
  8
RACCORDO
100
AcDbLine
 62
250
  6
CONTINUOUS
 10
10.773374621
 20
-22.3381099959
 11
10.8615988572
 21
-22.2498857598
  0
LINE
  5
434
100
AcDbEntity
  8
RACCORDO
100
AcDbLine
 62
7
  6
CONTINUOUS
 10
10.7001893926
 20
-22.5148866912
 11
10.7883374704
 21
-22.4267386133
  0
LWPOLYLINE
  5
435
100
AcDbEntity
  8
RACCORDO
100
AcDbPolyline
 62
7
  6
CONTINUOUS
 90
25
 70
0
 10
4.3
 20
23.8584094599
 10
4.3131726262
 20
23.8585464789
 10
4.3261786476
 20
23.8589423239
 10
4.3390180644
 20
23.8595969948
 10
4.3517442772
 20
23.8605154975
 10
4.3643038853
 20
23.8616928261
 10
4.3765366865
 20
23.8631139635
 10
4.3884384945
 20
23.8647820327
 10
4.4000134956
 20
23.8666939106
 10
4.4111140466
 20
23.8688252106
 10
4.42173407
 20
23.8711787434
 10
4.4318796433
 20
23.8737516983
 10
4.4414213562
 20
23.8765112563
 10
4.4503514735
 20
23.8794598077
 10
4.4586777303
 20
23.8825949623
 10
4.4662939225
 20
23.88587673
 10
4.4731909541
 20
23.8893069889
 10
4.4793779211
 20
23.892883861
 10
4.4847759065
 20
23.8965617219
 10
4.4893748036
 20
23.9003418654
 10
4.493184719
 20
23.9042229977
 10
4.4961570561
 20
23.9081556138
 10
4.4982756158
 20
23.9121232117
 10
4.4995565971
 20
23.9161422934
 10
4.5
 20
23.9202128587
  0
LINE
  5
436
100
AcDbEntity
  8
RACCORDO
100
AcDbLine
 62
250
  6
CONTINUOUS
 10
10.773374621
 20
22.3381099959
 11
-10.773374621
 21
22.3381099959
  0
LINE
  5
437
100
AcDbEntity
  8
RACCORDO
100
AcDbLine
 62
7
  6
CONTINUOUS
 10
-10.5234126973
 20
22.5881099959
 11
10.5234126973
 21
22.5881099959
  0
LINE
  5
438
100
AcDbEntity
  8
RACCORDO
100
AcDbLine
 62
7
  6
CONTINUOUS
 10
-7.961498942
 20
23.25
 11
-6.2
 21
23.25
  0
LINE
  5
439
100
AcDbEntity
  8
DRAFT
100
AcDbLine
 62
7
  6
CONTINUOUS
 10
-6.2
 20
23.25
 11
-6.0
 21
23.25
  0
LINE
  5
43A
100
AcDbEntity
  8
DRAFT
100
AcDbLine
 62
7
  6
CONTINUOUS
 10
6.0
 20
23.25
 11
6.2
 21
23.25
  0
LINE
  5
43B
100
AcDbEntity
  8
RACCORDO
100
AcDbLine
 62
7
  6
CONTINUOUS
 10
6.2
 20
23.25
 11
7.961498942
 21
23.25
  0
LINE
  5
43C
100
AcDbEntity
  8
RACCORDO
100
AcDbLine
 62
7
  6
CONTINUOUS
 10
-4.3
 20
23.4779868533
 11
-3.7043297675
 21
23.4779868533
  0
LINE
  5
43D
100
AcDbEntity
  8
RACCORDO
100
AcDbLine
 62
7
  6
CONTINUOUS
 10
3.7043297675
 20
23.4779868533
 11
4.3
 21
23.4779868533
  0
LINE
  5
43E
100
AcDbEntity
  8
RACCORDO
100
AcDbLine
 62
7
  6
CONTINUOUS
 10
-4.3
 20
23.8584094599
 11
-3.7420816149
 21
23.8584094599
  0
LINE
  5
43F
100
AcDbEntity
  8
RACCORDO
100
AcDbLine
 62
7
  6
CONTINUOUS
 10
3.7420816149
 20
23.8584094599
 11
4.3
 21
23.8584094599
  0
LWPOLYLINE
  5
440
100
AcDbEntity
  8
RACCORDO
100
AcDbPolyline
 62
7
  6
CONTINUOUS
 90
25
 70
0
 10
-4.3
 20
23.4779868533
 10
-4.3131726262
 20
23.4781238724
 10
-4.3261786476
 20
23.4785197174
 10
-4.3390180644
 20
23.4791743883
 10
-4.3517442772
 20
23.480092891
 10
-4.3643038853
 20
23.4812702196
 10
-4.3765366865
 20
23.482691357
 10
-4.3884384945
 20
23.4843594262
 10
-4.4000134956
 20
23.4862713041
 10
-4.4111140466
 20
23.4884026041
 10
-4.42173407
 20
23.4907561369
 10
-4.4318796433
 20
23.4933290918
 10
-4.4414213562
 20
23.4960886498
 10
-4.4503514735
 20
23.4990372012
 10
-4.4586777303
 20
23.5021723558
 10
-4.4662939225
 20
23.5054541235
 10
-4.4731909541
 20
23.5088843824
 10
-4.4793779211
 20
23.5124612545
 10
-4.4847759065
 20
23.5161391154
 10
-4.4893748036
 20
23.5199192589
 10
-4.493184719
 20
23.5238003912
 10
-4.4961570561
 20
23.5277330072
 10
-4.4982756158
 20
23.5317006052
 10
-4.4995565971
 20
23.5357196869
 10
-4.5
 20
23.5397902522
  0
LINE
  5
441
100
AcDbEntity
  8
RACCORDO
100
AcDbLine
 62
250
  6
CONTINUOUS
 10
10.8615988572
 20
22.2498857598
 11
10.773374621
 21
22.3381099959
  0
LINE
  5
442
100
AcDbEntity
  8
RACCORDO
100
AcDbLine
 62
7
  6
CONTINUOUS
 10
10.7883374704
 20
22.4267386133
 11
10.7001893926
 21
22.5148866912
  0
LINE
  5
443
100
AcDbEntity
  8
RACCORDO
100
AcDbLine
 62
7
  6
CONTINUOUS
 10
6.0
 20
24.0
 11
3.9332662348
 21
24.0
  0
LINE
  5
444
100
AcDbEntity
  8
RACCORDO
100
AcDbLine
 62
7
  6
CONTINUOUS
 10
-3.9332662348
 20
24.0
 11
-6.0
 21
24.0
  0
LINE
  5
445
100
AcDbEntity
  8
0
100
AcDbLine
 62
250
  6
CONTINUOUS
 10
6.0
 20
24.3
 11
-6.0
 21
24.3
  0
LINE
  5
446
100
AcDbEntity
  8
0
100
AcDbLine
 62
7
  6
CONTINUOUS
 10
6.0
 20
25.0
 11
-6.0
 21
25.0
  0
LWPOLYLINE
  5
447
100
AcDbEntity
  8
0
100
AcDbPolyline
 62
7
  6
CONTINUOUS
 90
7
 70
0
 43
0.3500000006
 10
-2.5714285469
 20
33.7500009155
 10
-4.0714284382
 20
33.7500009155
 10
-2.5714285469
 20
35.8928593597
 10
-2.5714285469
 20
36.3214283295
 10
-3.0000000658
 20
36.7500018311
 10
-3.6428572025
 20
36.7500018311
 10
-4.0714284382
 20
36.1071438446
  0
LWPOLYLINE
  5
448
100
AcDbEntity
  8
0
100
AcDbPolyline
 62
7
  6
CONTINUOUS
 90
13
 70
0
 43
0.3500000006
 10
2.1428571696
 20
35.4642858582
 10
1.8571429181
 20
35.678570343
 10
1.8571429181
 20
36.3214283295
 10
2.1428571696
 20
36.7500018311
 10
2.7857141647
 20
36.7500018311
 10
3.0714286995
 20
36.3214283295
 10
3.0714286995
 20
35.678570343
 10
2.7857141647
 20
35.4642858582
 10
3.2142856836
 20
35.0357123566
 10
3.2142856836
 20
34.1785698853
 10
2.7857141647
 20
33.7500009155
 10
2.1428571696
 20
33.7500009155
 10
1.7142856507
 20
34.1785698853
  0
LWPOLYLINE
  5
449
100
AcDbEntity
  8
0
100
AcDbPolyline
 62
7
  6
CONTINUOUS
 90
5
 70
0
 43
0.3500000006
 10
-38.6092114563
 20
45.4642843781
 10
-38.2520691376
 20
45.6785733948
 10
-38.2520691376
 20
46.3214268494
 10
-38.6092114563
 20
46.750000351
 10
-39.4663539276
 20
46.750000351
  0
LWPOLYLINE
  5
44A
100
AcDbEntity
  8
0
100
AcDbPolyline
 62
7
  6
CONTINUOUS
 90
8
 70
0
 43
0.3500000006
 10
-63.5734853668
 20
-2.2499998741
 10
-63.5734853668
 20
-1.3928574028
 10
-64.0020543365
 20
-0.9642850342
 10
-64.8592013397
 20
-0.9642850342
 10
-65.2877703094
 20
-1.3928574028
 10
-65.2877703094
 20
-2.2499998741
 10
-66.5734862823
 20
-2.2499998741
 10
-66.5734862823
 20
-0.9642850342
  0
LINE
  5
44B
100
AcDbEntity
  8
0
100
AcDbLine
 62
7
  6
CONTINUOUS
 10
-44.8234964209
 20
-25.0
 11
-44.3093334369
 21
-25.0
  0
LINE
  5
44C
100
AcDbEntity
  8
0
100
AcDbLine
 62
7
  6
CONTINUOUS
 10
-44.8234964209
 20
-24.6
 11
-44.3093334369
 21
-24.6
  0
LINE
  5
44D
100
AcDbEntity
  8
0
100
AcDbLine
 62
250
  6
CONTINUOUS
 10
-45.1234964209
 20
-24.3
 11
-45.5234964209
 21
-24.3
  0
LINE
  5
44E
100
AcDbEntity
  8
RACCORDO
100
AcDbLine
 62
7
  6
CONTINUOUS
 10
-50.5691333193
 20
-22.5880719197
 11
-45.5234964209
 21
-22.5
  0
LINE
  5
44F
100
AcDbEntity
  8
0
100
AcDbLine
 62
7
  6
CONTINUOUS
 10
-45.1234964209
 20
-24.0
 11
-45.5234964209
 21
-24.0
  0
LINE
  5
450
100
AcDbEntity
  8
RACCORDO
100
AcDbLine
 62
250
  6
CONTINUOUS
 10
-45.5234964209
 20
-23.8174311485
 11
-45.1234964209
 21
-23.8174311485
  0
LINE
  5
451
100
AcDbEntity
  8
RACCORDO
100
AcDbLine
 62
7
  6
CONTINUOUS
 10
-35.0734964209
 20
-23.25
 11
-46.3234964209
 21
-23.25
  0
LINE
  5
452
100
AcDbEntity
  8
RACCORDO
100
AcDbLine
 62
250
  6
CONTINUOUS
 10
-34.3234964209
 20
-22.5
 11
-34.352672343
 21
-22.5
  0
LINE
  5
453
100
AcDbEntity
  8
RACCORDO
100
AcDbLine
 62
250
  6
CONTINUOUS
 10
-50.5778595225
 20
-22.3381099959
 11
-50.8234964209
 21
-22.3381099959
  0
LINE
  5
454
100
AcDbEntity
  8
RACCORDO
100
AcDbLine
 62
250
  6
CONTINUOUS
 10
-50.5778595225
 20
-22.3381099959
 11
-45.5234964209
 21
-22.2498857598
  0
LINE
  5
455
100
AcDbEntity
  8
RACCORDO
100
AcDbLine
 62
7
  6
CONTINUOUS
 10
-40.8234964209
 20
-20.9
 11
-34.3234964209
 21
-20.786542078
  0
LINE
  5
456
100
AcDbEntity
  8
RACCORDO
100
AcDbLine
 62
250
  6
CONTINUOUS
 10
-40.8185608865
 20
-20.8413478222
 11
-34.3234964209
 21
-20.7279760502
  0
LINE
  5
457
100
AcDbEntity
  8
ASSI
100
AcDbLine
 62
7
  6
CONTINUOUS
 10
-43.3234964209
 20
-21.6
 11
-35.3060440145
 21
-21.7399451523
  0
LINE
  5
458
100
AcDbEntity
  8
ASSI
100
AcDbLine
 62
7
  6
CONTINUOUS
 10
-34.3234964209
 20
-21.0570955844
 11
-43.3234964209
 21
-20.9
  0
LINE
  5
459
100
AcDbEntity
  8
RACCORDO
100
AcDbLine
 62
7
  6
CONTINUOUS
 10
-43.3234964209
 20
-20.8563623377
 11
-40.8234964209
 21
-20.9
  0
LINE
  5
45A
100
AcDbEntity
  8
RACCORDO
100
AcDbLine
 62
250
  6
CONTINUOUS
 10
-43.3234964209
 20
-20.7976240098
 11
-40.8185608865
 21
-20.8413478222
  0
LINE
  5
45B
100
AcDbEntity
  8
RACCORDO
100
AcDbLine
 62
7
  6
CONTINUOUS
 10
-53.6671265827
 20
-17.710427789
 11
-50.3234964209
 21
-18.3
  0
LINE
  5
45C
100
AcDbEntity
  8
DRAFT
100
AcDbLine
 62
7
  6
CONTINUOUS
 10
-43.3234964209
 20
-19.5
 11
-45.5234964209
 21
-19.5384011428
  0
LINE
  5
45D
100
AcDbEntity
  8
SMUSSO
100
AcDbLine
 62
7
  6
CONTINUOUS
 10
-43.3234964209
 20
-19.4434092398
 11
-34.3234964209
 21
-19.2863136555
  0
LINE
  5
45E
100
AcDbEntity
  8
RACCORDO
100
AcDbLine
 62
7
  6
CONTINUOUS
 10
-50.8234964209
 20
-18.8
 11
-50.3234964209
 21
-18.8
  0
LINE
  5
45F
100
AcDbEntity
  8
RACCORDO
100
AcDbLine
 62
250
  6
CONTINUOUS
 10
-53.6280776399
 20
-17.4642258507
 11
-50.3234964209
 21
-18.0469126796
  0
LWPOLYLINE
  5
460
100
AcDbEntity
  8
RACCORDO
100
AcDbPolyline
 62
250
  6
CONTINUOUS
 90
52
 70
0
 10
-54.2472577483
 20
-16.7552054488
 10
-54.2462036723
 20
-16.7751473435
 10
-54.2446227893
 20
-16.7950275107
 10
-54.2425150993
 20
-16.8148459503
 10
-54.2398783616
 20
-16.8346169965
 10
-54.2367148169
 20
-16.8543263152
 10
-54.233031187
 20
-16.8739309042
 10
-54.2288263678
 20
-16.8934301998
 10
-54.2241014634
 20
-16.9128247656
 10
-54.2188665085
 20
-16.9320732905
 10
-54.2131204246
 20
-16.9511754047
 10
-54.2068642901
 20
-16.970131478
 10
-54.2001113748
 20
-16.9889013084
 10
-54.192860646
 20
-17.0074844643
 10
-54.1851131365
 20
-17.0258813773
 10
-54.1768852144
 20
-17.0440531404
 10
-54.1681758326
 20
-17.061999339
 10
-54.1589860383
 20
-17.0797203877
 10
-54.1493353409
 20
-17.0971786228
 10
-54.1392227737
 20
-17.1143734591
 10
-54.1286493036
 20
-17.1313054817
 10
-54.1176373406
 20
-17.147938783
 10
-54.1061859421
 20
-17.1642727434
 10
-54.0942960508
 20
-17.1803079825
 10
-54.0819929052
 20
-17.1960104517
 10
-54.0692756578
 20
-17.2113794116
 10
-54.0561451562
 20
-17.2264156017
 10
-54.0426291816
 20
-17.241087191
 10
-54.0287268884
 20
-17.255393439
 10
-54.0144391223
 20
-17.2693350863
 10
-53.9997962019
 20
-17.2828825247
 10
-53.9847973842
 20
-17.2960349057
 10
-53.9694434123
 20
-17.3087930779
 10
-53.9537668343
 20
-17.321129978
 10
-53.9377669355
 20
-17.3330447295
 10
-53.9214444306
 20
-17.344538209
 10
-53.9048340119
 20
-17.355585983
 10
-53.8879351248
 20
-17.3661870695
 10
-53.8707483238
 20
-17.3763424504
 10
-53.8533099653
 20
-17.386030638
 10
-53.8356194843
 20
-17.3952506655
 10
-53.8176774457
 20
-17.4040034997
 10
-53.7995219015
 20
-17.4122705537
 10
-53.7811523351
 20
-17.4200508078
 10
-53.762569263
 20
-17.4273452816
 10
-53.7438122865
 20
-17.4341384474
 10
-53.7248805317
 20
-17.440429317
 10
-53.7057748725
 20
-17.4462188785
 10
-53.6865375315
 20
-17.451494569
 10
-53.6671825828
 20
-17.4562522006
 10
-53.6476959523
 20
-17.4604959612
 10
-53.6280776399
 20
-17.4642258507
  0
LWPOLYLINE
  5
461
100
AcDbEntity
  8
RACCORDO
100
AcDbPolyline
 62
250
  6
CONTINUOUS
 90
28
 70
0
 10
-54.2472577483
 20
16.7552054488
 10
-54.2944171069
 20
15.5146358972
 10
-54.3379497244
 20
14.2739549793
 10
-54.3778556009
 20
13.0331626952
 10
-54.4141350158
 20
11.7922484303
 10
-54.4467876896
 20
10.5512227991
 10
-54.4758127843
 20
9.3101176452
 10
-54.5012102064
 20
8.0689329798
 10
-54.5229800494
 20
6.8276687917
 10
-54.5411217556
 20
5.5863568901
 10
-54.5556352321
 20
4.3449972751
 10
-54.5665205718
 20
3.1035899467
 10
-54.573777496
 20
1.8621667141
 10
-54.5774059117
 20
0.6207275774
 10
-54.5774059118
 20
-0.6207274635
 10
-54.5737774965
 20
-1.8621666001
 10
-54.5665205726
 20
-3.1035898328
 10
-54.5556352333
 20
-4.3449971613
 10
-54.5411217571
 20
-5.5863567763
 10
-54.5229800512
 20
-6.8276686779
 10
-54.5012102086
 20
-8.0689328661
 10
-54.4758127868
 20
-9.3101175315
 10
-54.4467876926
 20
-10.5512226813
 10
-54.4141350193
 20
-11.7922483083
 10
-54.3778556044
 20
-13.0331625816
 10
-54.3379497272
 20
-14.273954891
 10
-54.2944171085
 20
-15.5146358467
 10
-54.2472577483
 20
-16.7552054488
  0
LWPOLYLINE
  5
462
100
AcDbEntity
  8
RACCORDO
100
AcDbPolyline
 62
250
  6
CONTINUOUS
 90
5
 70
0
 10
-54.2472577483
 20
-16.7552054488
 10
-54.2571998031
 20
-16.7555981969
 10
-54.2671191672
 20
-16.755990322
 10
-54.2770001065
 20
-16.7563812022
 10
-54.4895374716
 20
-16.7649150703
  0
LINE
  5
463
100
AcDbEntity
  8
RACCORDO
100
AcDbLine
 62
250
  6
CONTINUOUS
 10
-28.3933060466
 20
-17.23946871
 11
-32.1234964209
 21
-17.3127182205
  0
LINE
  5
464
100
AcDbEntity
  8
RACCORDO
100
AcDbLine
 62
7
  6
CONTINUOUS
 10
-23.3147702177
 20
-17.650746385
 11
-33.8322226241
 21
-17.8343291996
  0
LINE
  5
465
100
AcDbEntity
  8
RACCORDO
100
AcDbLine
 62
250
  6
CONTINUOUS
 10
-23.3147702177
 20
-17.1508225374
 11
-28.3933060466
 21
-17.23946871
  0
LINE
  5
466
100
AcDbEntity
  8
RACCORDO
100
AcDbLine
 62
250
  6
CONTINUOUS
 10
-32.8147702177
 20
-17.3166456542
 11
-33.8322226241
 21
-17.334405352
  0
LINE
  5
467
100
AcDbEntity
  8
0
100
AcDbLine
 62
7
  6
CONTINUOUS
 10
-32.3234964209
 20
-17.4935555018
 11
-32.1234964209
 21
-17.4935555018
  0
LINE
  5
468
100
AcDbEntity
  8
RACCORDO
100
AcDbLine
 62
250
  6
CONTINUOUS
 10
-32.3234964209
 20
-17.3166456542
 11
-32.8147702177
 21
-17.3166456542
  0
LINE
  5
469
100
AcDbEntity
  8
0
100
AcDbLine
 62
7
  6
CONTINUOUS
 10
-32.3234964209
 20
-17.2834695018
 11
-32.1234964209
 21
-17.2834695018
  0
LINE
  5
46A
100
AcDbEntity
  8
RACCORDO
100
AcDbLine
 62
250
  6
CONTINUOUS
 10
-22.8234964209
 20
-17.1508225374
 11
-23.3147702177
 21
-17.1508225374
  0
LINE
  5
46B
100
AcDbEntity
  8
0
100
AcDbLine
 62
7
  6
CONTINUOUS
 10
-32.3234964209
 20
-17.0101456529
 11
-32.1234964209
 21
-17.0101456529
  0
LINE
  5
46C
100
AcDbEntity
  8
0
100
AcDbLine
 62
250
  6
CONTINUOUS
 10
-32.3234964209
 20
-16.4009895018
 11
-32.1234964209
 21
-16.4009895018
  0
LWPOLYLINE
  5
46D
100
AcDbEntity
  8
RACCORDO
100
AcDbPolyline
 62
250
  6
CONTINUOUS
 90
11
 70
0
 10
-50.5710289584
 20
-22.57081274
 10
-50.5708192063
 20
-22.5740634741
 10
-50.5706132003
 20
-22.5769840504
 10
-50.5704112286
 20
-22.5795703822
 10
-50.5702135739
 20
-22.5818188503
 10
-50.5700205126
 20
-22.5837263087
 10
-50.569832315
 20
-22.5852900877
 10
-50.5696492445
 20
-22.5865079987
 10
-50.5694715573
 20
-22.5873783377
 10
-50.569299502
 20
-22.5878998878
 10
-50.5691333193
 20
-22.5880719197
  0
LINE
  5
46E
100
AcDbEntity
  8
RACCORDO
100
AcDbLine
 62
250
  6
CONTINUOUS
 10
-50.5714585218
 20
-22.5633394495
 11
-50.5710289584
 21
-22.57081274
  0
LINE
  5
46F
100
AcDbEntity
  8
RACCORDO
100
AcDbLine
 62
250
  6
CONTINUOUS
 10
-50.5718994871
 20
-22.5546059962
 11
-50.5714585218
 21
-22.5633394495
  0
LINE
  5
470
100
AcDbEntity
  8
RACCORDO
100
AcDbLine
 62
250
  6
CONTINUOUS
 10
-50.5725769023
 20
-22.5392517713
 11
-50.5718994871
 21
-22.5546059962
  0
LINE
  5
471
100
AcDbEntity
  8
RACCORDO
100
AcDbLine
 62
250
  6
CONTINUOUS
 10
-50.5732658853
 20
-22.5213669175
 11
-50.5725769023
 21
-22.5392517713
  0
LINE
  5
472
100
AcDbEntity
  8
RACCORDO
100
AcDbLine
 62
250
  6
CONTINUOUS
 10
-50.5739577672
 20
-22.5011764749
 11
-50.5732658853
 21
-22.5213669175
  0
LINE
  5
473
100
AcDbEntity
  8
RACCORDO
100
AcDbLine
 62
250
  6
CONTINUOUS
 10
-50.5739577672
 20
22.5011764749
 11
-50.5730354723
 21
22.5275964512
  0
LINE
  5
474
100
AcDbEntity
  8
RACCORDO
100
AcDbLine
 62
250
  6
CONTINUOUS
 10
-50.5730354723
 20
22.5275964512
 11
-50.572349387
 21
22.5446612483
  0
LINE
  5
475
100
AcDbEntity
  8
RACCORDO
100
AcDbLine
 62
250
  6
CONTINUOUS
 10
-50.572349387
 20
22.5446612483
 11
-50.5718994871
 21
22.5546059962
  0
LINE
  5
476
100
AcDbEntity
  8
RACCORDO
100
AcDbLine
 62
250
  6
CONTINUOUS
 10
-50.5718994871
 20
22.5546059962
 11
-50.5714585218
 21
22.5633394495
  0
LWPOLYLINE
  5
477
100
AcDbEntity
  8
RACCORDO
100
AcDbPolyline
 62
250
  6
CONTINUOUS
 90
12
 70
0
 10
-50.5714585218
 20
22.5633394495
 10
-50.5710289584
 20
22.57081274
 10
-50.5708192063
 20
22.5740634741
 10
-50.5706132003
 20
22.5769840504
 10
-50.5704112286
 20
22.5795703822
 10
-50.5702135739
 20
22.5818188503
 10
-50.5700205126
 20
22.5837263087
 10
-50.569832315
 20
22.5852900877
 10
-50.5696492445
 20
22.5865079987
 10
-50.5694715573
 20
22.5873783377
 10
-50.569299502
 20
22.5878998878
 10
-50.5691333193
 20
22.5880719197
  0
LINE
  5
478
100
AcDbEntity
  8
0
100
AcDbLine
 62
250
  6
CONTINUOUS
 10
-44.2166283386
 20
24.5853169549
 11
-44.0930215409
 21
24.9657395614
  0
LWPOLYLINE
  5
479
100
AcDbEntity
  8
RACCORDO
100
AcDbPolyline
 62
250
  6
CONTINUOUS
 90
3
 70
0
 10
-54.4919084033
 20
-16.7650222914
 10
-54.4925021779
 20
-16.7650525813
 10
-54.4927000271
 20
-16.7650672517
  0
LINE
  5
47A
100
AcDbEntity
  8
RACCORDO
100
AcDbLine
 62
250
  6
CONTINUOUS
 10
-54.4895374716
 20
-16.7649150703
 11
-54.4919084033
 21
-16.7650222914
  0
LINE
  5
47B
100
AcDbEntity
  8
0
100
AcDbLine
 62
7
  6
CONTINUOUS
 10
-32.3234964209
 20
-15.8133195018
 11
-32.1234964209
 21
-15.8133195018
  0
LINE
  5
47C
100
AcDbEntity
  8
0
100
AcDbLine
 62
7
  6
CONTINUOUS
 10
-32.3234964209
 20
-15.4962995018
 11
-32.1234964209
 21
-15.4962995018
  0
LINE
  5
47D
100
AcDbEntity
  8
0
100
AcDbLine
 62
7
  6
CONTINUOUS
 10
-32.3234964209
 20
-15.2762525018
 11
-32.1234964209
 21
-15.2762525018
  0
LINE
  5
47E
100
AcDbEntity
  8
0
100
AcDbLine
 62
7
  6
CONTINUOUS
 10
-32.3234964209
 20
-14.5350525018
 11
-32.1234964209
 21
-14.5350525018
  0
LINE
  5
47F
100
AcDbEntity
  8
0
100
AcDbLine
 62
7
  6
CONTINUOUS
 10
-32.3234964209
 20
-14.3452295018
 11
-32.1234964209
 21
-14.3452295018
  0
LINE
  5
480
100
AcDbEntity
  8
0
100
AcDbLine
 62
7
  6
CONTINUOUS
 10
-32.3234964209
 20
-14.0887755018
 11
-32.1234964209
 21
-14.0887755018
  0
LINE
  5
481
100
AcDbEntity
  8
0
100
AcDbLine
 62
250
  6
CONTINUOUS
 10
-44.2166283386
 20
-24.5853169549
 11
-44.0930215409
 21
-24.9657395614
  0
LINE
  5
482
100
AcDbEntity
  8
RACCORDO
100
AcDbLine
 62
250
  6
CONTINUOUS
 10
-50.5750937336
 20
-22.4631039585
 11
-50.5739577672
 21
-22.5011764749
  0
LINE
  5
483
100
AcDbEntity
  8
RACCORDO
100
AcDbLine
 62
250
  6
CONTINUOUS
 10
-50.5763799787
 20
-22.4117896843
 11
-50.5750937336
 21
-22.4631039585
  0
LWPOLYLINE
  5
484
100
AcDbEntity
  8
RACCORDO
100
AcDbPolyline
 62
250
  6
CONTINUOUS
 90
3
 70
0
 10
-50.5778595225
 20
-22.3381099959
 10
-50.5776934561
 20
-22.3474521419
 10
-50.5763799787
 20
-22.4117896843
  0
LINE
  5
485
100
AcDbEntity
  8
RACCORDO
100
AcDbLine
 62
7
  6
CONTINUOUS
 10
-50.8234964209
 20
22.3381099959
 11
-50.8234964209
 21
18.8
  0
LINE
  5
486
100
AcDbEntity
  8
RACCORDO
100
AcDbLine
 62
7
  6
CONTINUOUS
 10
-50.8234964209
 20
-18.8
 11
-50.8234964209
 21
-22.3381099959
  0
LINE
  5
487
100
AcDbEntity
  8
RACCORDO
100
AcDbLine
 62
250
  6
CONTINUOUS
 10
-50.5778595225
 20
22.3381099959
 11
-50.5778595225
 21
18.8
  0
LINE
  5
488
100
AcDbEntity
  8
RACCORDO
100
AcDbLine
 62
250
  6
CONTINUOUS
 10
-50.5778595225
 20
-18.8
 11
-50.5778595225
 21
-22.3381099959
  0
LINE
  5
489
100
AcDbEntity
  8
RACCORDO
100
AcDbLine
 62
7
  6
CONTINUOUS
 10
-50.3234964209
 20
18.8
 11
-50.3234964209
 21
18.0469126796
  0
LINE
  5
48A
100
AcDbEntity
  8
RACCORDO
100
AcDbLine
 62
7
  6
CONTINUOUS
 10
-50.3234964209
 20
-18.0469126796
 11
-50.3234964209
 21
-18.8
  0
LINE
  5
48B
100
AcDbEntity
  8
RACCORDO
100
AcDbLine
 62
250
  6
CONTINUOUS
 10
-50.5778595225
 20
22.3381099959
 11
-50.5765819397
 21
22.4028050806
  0
LINE
  5
48C
100
AcDbEntity
  8
RACCORDO
100
AcDbLine
 62
250
  6
CONTINUOUS
 10
-50.5765819397
 20
22.4028050806
 11
-50.5753154825
 21
22.4549207655
  0
LWPOLYLINE
  5
48D
100
AcDbEntity
  8
RACCORDO
100
AcDbPolyline
 62
250
  6
CONTINUOUS
 90
3
 70
0
 10
-50.5753154825
 20
22.4549207655
 10
-50.5741875332
 20
22.4939771054
 10
-50.5739577672
 20
22.5011764749
  0
LWPOLYLINE
  5
48E
100
AcDbEntity
  8
RACCORDO
100
AcDbPolyline
 62
250
  6
CONTINUOUS
 90
11
 70
0
 10
-53.665321541
 20
-17.6905095667
 10
-53.6658140246
 20
-17.6942255672
 10
-53.6662384858
 20
-17.6975699453
 10
-53.666594239
 20
-17.7005372972
 10
-53.6668807091
 20
-17.7031228285
 10
-53.6670974335
 20
-17.7053223616
 10
-53.6672440618
 20
-17.7071323426
 10
-53.6673203573
 20
-17.7085498469
 10
-53.6673261965
 20
-17.7095725843
 10
-53.6672615702
 20
-17.7101989024
 10
-53.6671265827
 20
-17.710427789
  0
LINE
  5
48F
100
AcDbEntity
  8
RACCORDO
100
AcDbLine
 62
250
  6
CONTINUOUS
 10
-53.6641357984
 20
-17.6819873056
 11
-53.665321541
 21
-17.6905095667
  0
LINE
  5
490
100
AcDbEntity
  8
RACCORDO
100
AcDbLine
 62
250
  6
CONTINUOUS
 10
-53.6626889185
 20
-17.6720582192
 11
-53.6641357984
 21
-17.6819873056
  0
LINE
  5
491
100
AcDbEntity
  8
RACCORDO
100
AcDbLine
 62
250
  6
CONTINUOUS
 10
-53.6600498602
 20
-17.6546694954
 11
-53.6626889185
 21
-17.6720582192
  0
LINE
  5
492
100
AcDbEntity
  8
RACCORDO
100
AcDbLine
 62
250
  6
CONTINUOUS
 10
-53.6557178192
 20
-17.6272307586
 11
-53.6600498602
 21
-17.6546694954
  0
LINE
  5
493
100
AcDbEntity
  8
RACCORDO
100
AcDbLine
 62
250
  6
CONTINUOUS
 10
-53.6491568286
 20
-17.5871119306
 11
-53.6557178192
 21
-17.6272307586
  0
LINE
  5
494
100
AcDbEntity
  8
RACCORDO
100
AcDbLine
 62
250
  6
CONTINUOUS
 10
-53.6399577249
 20
-17.5325951992
 11
-53.6491568286
 21
-17.5871119306
  0
LINE
  5
495
100
AcDbEntity
  8
RACCORDO
100
AcDbLine
 62
250
  6
CONTINUOUS
 10
-53.6280776399
 20
-17.4642258507
 11
-53.6399577249
 21
-17.5325951992
  0
LINE
  5
496
100
AcDbEntity
  8
RACCORDO
100
AcDbLine
 62
7
  6
CONTINUOUS
 10
-20.2165154583
 20
-13.646666147
 11
-22.4304773835
 21
-13.6853109962
  0
LWPOLYLINE
  5
497
100
AcDbEntity
  8
RACCORDO
100
AcDbPolyline
 62
250
  6
CONTINUOUS
 90
46
 70
0
 10
-22.4304773835
 20
-12.1985716241
 10
-22.4442758725
 20
-12.1988080978
 10
-22.4580496044
 20
-12.1992794403
 10
-22.471782169
 20
-12.1999850901
 10
-22.4854572048
 20
-12.2009242065
 10
-22.4990584192
 20
-12.2020956705
 10
-22.5125696072
 20
-12.2034980866
 10
-22.5259746713
 20
-12.2051297837
 10
-22.5392576404
 20
-12.206988818
 10
-22.5524026889
 20
-12.2090729744
 10
-22.5653941553
 20
-12.2113797699
 10
-22.5782165614
 20
-12.2139064561
 10
-22.5908546302
 20
-12.2166500226
 10
-22.6032933043
 20
-12.2196072008
 10
-22.6155177641
 20
-12.2227744672
 10
-22.627513445
 20
-12.2261480485
 10
-22.6392660551
 20
-12.2297239253
 10
-22.650761592
 20
-12.233497837
 10
-22.6619863595
 20
-12.2374652875
 10
-22.6729269844
 20
-12.2416215498
 10
-22.6835704316
 20
-12.2459616719
 10
-22.6939040202
 20
-12.2504804831
 10
-22.7039154385
 20
-12.2551725995
 10
-22.7135927588
 20
-12.2600324308
 10
-22.7229244511
 20
-12.2650541868
 10
-22.7318993975
 20
-12.2702318845
 10
-22.740506905
 20
-12.2755593551
 10
-22.7487367183
 20
-12.2810302512
 10
-22.7565790324
 20
-12.2866380548
 10
-22.7640245036
 20
-12.2923760846
 10
-22.7710642612
 20
-12.2982375041
 10
-22.7776899179
 20
-12.3042153298
 10
-22.7838935797
 20
-12.3103024398
 10
-22.7896678553
 20
-12.3164915815
 10
-22.7950058653
 20
-12.3227753812
 10
-22.7999012497
 20
-12.329146352
 10
-22.804348176
 20
-12.3355969037
 10
-22.8083413461
 20
-12.3421193506
 10
-22.8118760025
 20
-12.3487059219
 10
-22.8149479337
 20
-12.3553487702
 10
-22.8175534799
 20
-12.362039981
 10
-22.8196895368
 20
-12.3687715821
 10
-22.8213535593
 20
-12.3755355535
 10
-22.8225435649
 20
-12.3823238364
 10
-22.8232581359
 20
-12.3891283429
 10
-22.8234964209
 20
-12.3959409661
  0
LINE
  5
498
100
AcDbEntity
  8
0
100
AcDbLine
 62
7
  6
CONTINUOUS
 10
-32.3234964209
 20
-13.0184195018
 11
-32.1234964209
 21
-13.0184195018
  0
LINE
  5
499
100
AcDbEntity
  8
0
100
AcDbLine
 62
7
  6
CONTINUOUS
 10
-32.3234964209
 20
-12.7534415696
 11
-32.1234964209
 21
-12.7534415696
  0
LINE
  5
49A
100
AcDbEntity
  8
0
100
AcDbLine
 62
250
  6
CONTINUOUS
 10
-32.3234964209
 20
-12.3237015018
 11
-32.1234964209
 21
-12.3237015018
  0
LWPOLYLINE
  5
49B
100
AcDbEntity
  8
RACCORDO
100
AcDbPolyline
 62
250
  6
CONTINUOUS
 90
13
 70
0
 10
-33.8322226241
 20
-17.8343291996
 10
-33.8324461229
 20
-17.8341655317
 10
-33.8326633439
 20
-17.8336653022
 10
-33.8328744723
 20
-17.8328267121
 10
-33.8330800769
 20
-17.8316478587
 10
-33.8332799555
 20
-17.8301275669
 10
-33.8334731175
 20
-17.8282662398
 10
-33.8336596661
 20
-17.8260637689
 10
-33.8338398139
 20
-17.8235203021
 10
-33.8340126986
 20
-17.820638516
 10
-33.8341783774
 20
-17.8174198054
 10
-33.8343370524
 20
-17.8138657908
 10
-33.8344880387
 20
-17.8099813547
  0
LINE
  5
49C
100
AcDbEntity
  8
RACCORDO
100
AcDbLine
 62
250
  6
CONTINUOUS
 10
-53.6280776399
 20
17.4642258507
 11
-53.6399577241
 21
17.5325951944
  0
LINE
  5
49D
100
AcDbEntity
  8
RACCORDO
100
AcDbLine
 62
250
  6
CONTINUOUS
 10
-53.6399577241
 20
17.5325951944
 11
-53.6491568276
 21
17.5871119243
  0
LINE
  5
49E
100
AcDbEntity
  8
RACCORDO
100
AcDbLine
 62
250
  6
CONTINUOUS
 10
-53.6491568276
 20
17.5871119243
 11
-53.6557178183
 21
17.6272307528
  0
LINE
  5
49F
100
AcDbEntity
  8
RACCORDO
100
AcDbLine
 62
250
  6
CONTINUOUS
 10
-53.6557178183
 20
17.6272307528
 11
-53.6600498595
 21
17.6546694907
  0
LINE
  5
4A0
100
AcDbEntity
  8
RACCORDO
100
AcDbLine
 62
250
  6
CONTINUOUS
 10
-53.6600498595
 20
17.6546694907
 11
-53.662688918
 21
17.6720582156
  0
LINE
  5
4A1
100
AcDbEntity
  8
RACCORDO
100
AcDbLine
 62
250
  6
CONTINUOUS
 10
-53.662688918
 20
17.6720582156
 11
-53.6641357981
 21
17.6819873028
  0
LWPOLYLINE
  5
4A2
100
AcDbEntity
  8
RACCORDO
100
AcDbPolyline
 62
250
  6
CONTINUOUS
 90
12
 70
0
 10
-53.6641357981
 20
17.6819873028
 10
-53.6653215408
 20
17.6905095647
 10
-53.6658140244
 20
17.6942255655
 10
-53.6662384857
 20
17.6975699439
 10
-53.6665942389
 20
17.7005372962
 10
-53.6668807091
 20
17.7031228277
 10
-53.6670974334
 20
17.705322361
 10
-53.6672440618
 20
17.7071323422
 10
-53.6673203573
 20
17.7085498467
 10
-53.6673261966
 20
17.7095725842
 10
-53.6672615702
 20
17.7101989023
 10
-53.6671265827
 20
17.710427789
  0
LINE
  5
4A3
100
AcDbEntity
  8
0
100
AcDbLine
 62
7
  6
CONTINUOUS
 10
-32.3234964209
 20
-11.8673495018
 11
-32.1234964209
 21
-11.8673495018
  0
LINE
  5
4A4
100
AcDbEntity
  8
0
100
AcDbLine
 62
7
  6
CONTINUOUS
 10
-32.3234964209
 20
-11.6714595018
 11
-32.1234964209
 21
-11.6714595018
  0
LINE
  5
4A5
100
AcDbEntity
  8
0
100
AcDbLine
 62
7
  6
CONTINUOUS
 10
-32.3234964209
 20
-10.7607015018
 11
-32.1234964209
 21
-10.7607015018
  0
LINE
  5
4A6
100
AcDbEntity
  8
0
100
AcDbLine
 62
7
  6
CONTINUOUS
 10
-32.3234964209
 20
-10.5507295018
 11
-32.1234964209
 21
-10.5507295018
  0
LINE
  5
4A7
100
AcDbEntity
  8
0
100
AcDbLine
 62
7
  6
CONTINUOUS
 10
-32.3234964209
 20
-10.3467105018
 11
-32.1234964209
 21
-10.3467105018
  0
LINE
  5
4A8
100
AcDbEntity
  8
0
100
AcDbLine
 62
7
  6
CONTINUOUS
 10
-31.9510402734
 20
-9.9208502858
 11
-32.1234964209
 21
-9.9208502858
  0
LINE
  5
4A9
100
AcDbEntity
  8
RACCORDO
100
AcDbLine
 62
7
  6
CONTINUOUS
 10
-46.3234964209
 20
-23.25
 11
-46.3234964209
 21
-22.5139640519
  0
LINE
  5
4AA
100
AcDbEntity
  8
RACCORDO
100
AcDbLine
 62
7
  6
CONTINUOUS
 10
-46.3234964209
 20
22.5139640519
 11
-46.3234964209
 21
23.25
  0
LINE
  5
4AB
100
AcDbEntity
  8
DRAFT
100
AcDbLine
 62
250
  6
CONTINUOUS
 10
-45.5292205542
 20
-23.25
 11
-45.5292205542
 21
-22.5000999151
  0
LINE
  5
4AC
100
AcDbEntity
  8
DRAFT
100
AcDbLine
 62
250
  6
CONTINUOUS
 10
-45.5292205542
 20
22.5000999151
 11
-45.5292205542
 21
23.25
  0
LINE
  5
4AD
100
AcDbEntity
  8
RACCORDO
100
AcDbLine
 62
7
  6
CONTINUOUS
 10
-45.5234964209
 20
22.5
 11
-45.5234964209
 21
19.5384011428
  0
LINE
  5
4AE
100
AcDbEntity
  8
RACCORDO
100
AcDbLine
 62
7
  6
CONTINUOUS
 10
-45.5234964209
 20
-24.0
 11
-45.5234964209
 21
-23.25
  0
LINE
  5
4AF
100
AcDbEntity
  8
DRAFT
100
AcDbLine
 62
7
  6
CONTINUOUS
 10
-45.5234964209
 20
-23.25
 11
-45.5234964209
 21
-22.5
  0
LINE
  5
4B0
100
AcDbEntity
  8
RACCORDO
100
AcDbLine
 62
7
  6
CONTINUOUS
 10
-45.5234964209
 20
-19.5384011428
 11
-45.5234964209
 21
-22.5
  0
LINE
  5
4B1
100
AcDbEntity
  8
0
100
AcDbLine
 62
7
  6
CONTINUOUS
 10
-45.5234964209
 20
-24.0
 11
-45.5234964209
 21
-24.3
  0
LINE
  5
4B2
100
AcDbEntity
  8
DRAFT
100
AcDbLine
 62
7
  6
CONTINUOUS
 10
-45.5234964209
 20
22.5
 11
-45.5234964209
 21
23.25
  0
LINE
  5
4B3
100
AcDbEntity
  8
RACCORDO
100
AcDbLine
 62
7
  6
CONTINUOUS
 10
-45.5234964209
 20
23.25
 11
-45.5234964209
 21
24.0
  0
LINE
  5
4B4
100
AcDbEntity
  8
0
100
AcDbLine
 62
7
  6
CONTINUOUS
 10
-45.5234964209
 20
24.0
 11
-45.5234964209
 21
24.3
  0
LINE
  5
4B5
100
AcDbEntity
  8
0
100
AcDbLine
 62
7
  6
CONTINUOUS
 10
-32.3234964209
 20
-9.8560115018
 11
-32.1234964209
 21
-9.8560115018
  0
LINE
  5
4B6
100
AcDbEntity
  8
0
100
AcDbLine
 62
7
  6
CONTINUOUS
 10
-32.3234964209
 20
-9.6601215018
 11
-32.1234964209
 21
-9.6601215018
  0
LINE
  5
4B7
100
AcDbEntity
  8
0
100
AcDbLine
 62
7
  6
CONTINUOUS
 10
-31.9510402734
 20
-9.6557592858
 11
-32.1234964209
 21
-9.6557592858
  0
LINE
  5
4B8
100
AcDbEntity
  8
0
100
AcDbLine
 62
7
  6
CONTINUOUS
 10
-32.0751893589
 20
-9.2449882858
 11
-32.1234964209
 21
-9.2449882858
  0
LINE
  5
4B9
100
AcDbEntity
  8
0
100
AcDbLine
 62
7
  6
CONTINUOUS
 10
-32.3234964209
 20
-9.1694225018
 11
-32.1234964209
 21
-9.1694225018
  0
LINE
  5
4BA
100
AcDbEntity
  8
0
100
AcDbLine
 62
7
  6
CONTINUOUS
 10
-32.3234964209
 20
-9.1149255018
 11
-32.1234964209
 21
-9.1149255018
  0
LINE
  5
4BB
100
AcDbEntity
  8
0
100
AcDbLine
 62
7
  6
CONTINUOUS
 10
-32.0751893589
 20
-8.9798982858
 11
-32.1234964209
 21
-8.9798982858
  0
LINE
  5
4BC
100
AcDbEntity
  8
0
100
AcDbLine
 62
7
  6
CONTINUOUS
 10
-32.3234964209
 20
-8.9009465018
 11
-32.1234964209
 21
-8.9009465018
  0
LINE
  5
4BD
100
AcDbEntity
  8
0
100
AcDbLine
 62
7
  6
CONTINUOUS
 10
-32.3234964209
 20
-8.7574915018
 11
-32.1234964209
 21
-8.7574915018
  0
LINE
  5
4BE
100
AcDbEntity
  8
0
100
AcDbLine
 62
7
  6
CONTINUOUS
 10
-32.3234964209
 20
-8.1758895018
 11
-32.1234964209
 21
-8.1758895018
  0
LINE
  5
4BF
100
AcDbEntity
  8
0
100
AcDbLine
 62
7
  6
CONTINUOUS
 10
-32.3234964209
 20
-8.0244205018
 11
-32.1234964209
 21
-8.0244205018
  0
LWPOLYLINE
  5
4C0
100
AcDbEntity
  8
RACCORDO
100
AcDbPolyline
 62
250
  6
CONTINUOUS
 90
46
 70
0
 10
-22.4304773835
 20
-9.3014283759
 10
-22.4442758736
 20
-9.3011919038
 10
-22.4580496066
 20
-9.3007205628
 10
-22.4717821721
 20
-9.3000149145
 10
-22.4854572087
 20
-9.2990757994
 10
-22.4990584237
 20
-9.2979043366
 10
-22.5125696124
 20
-9.2965019217
 10
-22.525974677
 20
-9.2948702257
 10
-22.5392576465
 20
-9.2930111924
 10
-22.5524026953
 20
-9.290927037
 10
-22.565394162
 20
-9.2886202423
 10
-22.5782165682
 20
-9.2860935569
 10
-22.590854637
 20
-9.2833499911
 10
-22.6032933112
 20
-9.2803928136
 10
-22.6155177709
 20
-9.2772255477
 10
-22.6275134517
 20
-9.273851967
 10
-22.6392660616
 20
-9.2702760907
 10
-22.6507615983
 20
-9.2665021794
 10
-22.6619863656
 20
-9.2625347292
 10
-22.6729269901
 20
-9.2583784673
 10
-22.683570437
 20
-9.2540383453
 10
-22.6939040252
 20
-9.2495195342
 10
-22.7039154432
 20
-9.244827418
 10
-22.7135927631
 20
-9.2399675868
 10
-22.722924455
 20
-9.2349458307
 10
-22.731899401
 20
-9.2297681329
 10
-22.7405069081
 20
-9.2244406622
 10
-22.7487367211
 20
-9.2189697658
 10
-22.7565790348
 20
-9.2133619619
 10
-22.7640245057
 20
-9.2076239318
 10
-22.771064263
 20
-9.2017625118
 10
-22.7776899194
 20
-9.1957846856
 10
-22.7838935809
 20
-9.1896975751
 10
-22.7896678563
 20
-9.1835084327
 10
-22.7950058661
 20
-9.1772246323
 10
-22.7999012503
 20
-9.1708536606
 10
-22.8043481765
 20
-9.1644031081
 10
-22.8083413464
 20
-9.1578806602
 10
-22.8118760027
 20
-9.1512940878
 10
-22.8149479338
 20
-9.1446512384
 10
-22.81755348
 20
-9.1379600264
 10
-22.8196895368
 20
-9.1312284239
 10
-22.8213535593
 20
-9.1244644512
 10
-22.8225435649
 20
-9.1176761669
 10
-22.8232581359
 20
-9.1108716587
 10
-22.8234964209
 20
-9.1040590339
  0
LINE
  5
4C1
100
AcDbEntity
  8
RACCORDO
100
AcDbLine
 62
7
  6
CONTINUOUS
 10
-45.1234964209
 20
-23.25
 11
-45.1234964209
 21
-24.0
  0
LINE
  5
4C2
100
AcDbEntity
  8
0
100
AcDbLine
 62
7
  6
CONTINUOUS
 10
-45.1234964209
 20
-24.0
 11
-45.1234964209
 21
-24.3
  0
LINE
  5
4C3
100
AcDbEntity
  8
RACCORDO
100
AcDbLine
 62
7
  6
CONTINUOUS
 10
-45.1234964209
 20
23.25
 11
-45.1234964209
 21
24.0
  0
LINE
  5
4C4
100
AcDbEntity
  8
0
100
AcDbLine
 62
7
  6
CONTINUOUS
 10
-45.1234964209
 20
24.0
 11
-45.1234964209
 21
24.3
  0
LINE
  5
4C5
100
AcDbEntity
  8
0
100
AcDbLine
 62
250
  6
CONTINUOUS
 10
-44.8234964209
 20
-24.6
 11
-44.8234964209
 21
-25.0
  0
LINE
  5
4C6
100
AcDbEntity
  8
0
100
AcDbLine
 62
250
  6
CONTINUOUS
 10
-44.8234964209
 20
24.6
 11
-44.8234964209
 21
25.0
  0
LINE
  5
4C7
100
AcDbEntity
  8
0
100
AcDbLine
 62
250
  6
CONTINUOUS
 10
-44.3093334369
 20
-24.6
 11
-44.3093334369
 21
-25.0
  0
LINE
  5
4C8
100
AcDbEntity
  8
0
100
AcDbLine
 62
250
  6
CONTINUOUS
 10
-44.3093334369
 20
24.6
 11
-44.3093334369
 21
25.0
  0
LINE
  5
4C9
100
AcDbEntity
  8
DRAFT
100
AcDbLine
 62
7
  6
CONTINUOUS
 10
-43.3234964209
 20
-21.6
 11
-43.3234964209
 21
21.6
  0
LINE
  5
4CA
100
AcDbEntity
  8
SMUSSO
100
AcDbLine
 62
7
  6
CONTINUOUS
 10
-43.3234964209
 20
-19.4434092398
 11
-43.3234964209
 21
19.4434092398
  0
LINE
  5
4CB
100
AcDbEntity
  8
RACCORDO
100
AcDbLine
 62
7
  6
CONTINUOUS
 10
-32.3234964209
 20
-6.3079942858
 11
-23.3147702177
 21
-6.150746385
  0
LINE
  5
4CC
100
AcDbEntity
  8
RACCORDO
100
AcDbLine
 62
250
  6
CONTINUOUS
 10
-32.8147702177
 20
-5.8166456542
 11
-23.3147702177
 21
-5.6508225374
  0
LINE
  5
4CD
100
AcDbEntity
  8
0
100
AcDbLine
 62
7
  6
CONTINUOUS
 10
-32.3234964209
 20
-7.8224625018
 11
-32.1234964209
 21
-7.8224625018
  0
LINE
  5
4CE
100
AcDbEntity
  8
0
100
AcDbLine
 62
7
  6
CONTINUOUS
 10
-32.3234964209
 20
-7.7028849174
 11
-32.1234964209
 21
-7.7028849174
  0
LINE
  5
4CF
100
AcDbEntity
  8
0
100
AcDbLine
 62
250
  6
CONTINUOUS
 10
-32.3234964209
 20
-7.2731455018
 11
-32.1234964209
 21
-7.2731455018
  0
LINE
  5
4D0
100
AcDbEntity
  8
0
100
AcDbLine
 62
7
  6
CONTINUOUS
 10
-32.3234964209
 20
-6.8167935018
 11
-32.1234964209
 21
-6.8167935018
  0
LINE
  5
4D1
100
AcDbEntity
  8
0
100
AcDbLine
 62
7
  6
CONTINUOUS
 10
-32.3234964209
 20
-6.6209025018
 11
-32.1234964209
 21
-6.6209025018
  0
LINE
  5
4D2
100
AcDbEntity
  8
RACCORDO
100
AcDbLine
 62
7
  6
CONTINUOUS
 10
-20.2165154583
 20
-7.853333853
 11
-22.4304773835
 21
-7.8146890038
  0
LWPOLYLINE
  5
4D3
100
AcDbEntity
  8
0
100
AcDbPolyline
 62
7
  6
CONTINUOUS
 90
3
 70
0
 43
0.3500000006
 10
-31.744924942
 20
34.0357120514
 10
-31.8163538589
 20
33.8214275665
 10
-31.9592116928
 20
33.5357164307
  0
LINE
  5
4D4
100
AcDbEntity
  8
RACCORDO
100
AcDbLine
 62
250
  6
CONTINUOUS
 10
-22.4305960292
 20
13.6852395382
 11
-22.4304773835
 21
13.6853109962
  0
LWPOLYLINE
  5
4D5
100
AcDbEntity
  8
RACCORDO
100
AcDbPolyline
 62
250
  6
CONTINUOUS
 90
6
 70
0
 10
-22.4354488096
 20
13.6821451203
 10
-22.4338096573
 20
13.6831270196
 10
-22.4325068427
 20
13.6839273482
 10
-22.4315337008
 20
13.6845471243
 10
-22.4308967848
 20
13.6849844896
 10
-22.4305960292
 20
13.6852395382
  0
LWPOLYLINE
  5
4D6
100
AcDbEntity
  8
RACCORDO
100
AcDbPolyline
 62
250
  6
CONTINUOUS
 90
3
 70
0
 10
-22.4424898604
 20
13.6780472919
 10
-22.4397887758
 20
13.6796087491
 10
-22.4354488096
 20
13.6821451203
  0
LINE
  5
4D7
100
AcDbEntity
  8
RACCORDO
100
AcDbLine
 62
250
  6
CONTINUOUS
 10
-22.4529702787
 20
13.6720768878
 11
-22.4424898604
 21
13.6780472919
  0
LINE
  5
4D8
100
AcDbEntity
  8
RACCORDO
100
AcDbLine
 62
250
  6
CONTINUOUS
 10
-22.486579724
 20
13.6532456023
 11
-22.4529702787
 21
13.6720768878
  0
LINE
  5
4D9
100
AcDbEntity
  8
RACCORDO
100
AcDbLine
 62
250
  6
CONTINUOUS
 10
-22.58108289
 20
13.6009939982
 11
-22.486579724
 21
13.6532456023
  0
LINE
  5
4DA
100
AcDbEntity
  8
RACCORDO
100
AcDbLine
 62
250
  6
CONTINUOUS
 10
-23.0760675433
 20
13.3305184943
 11
-22.58108289
 21
13.6009939982
  0
LINE
  5
4DB
100
AcDbEntity
  8
RACCORDO
100
AcDbLine
 62
250
  6
CONTINUOUS
 10
-23.3147701312
 20
13.2008225359
 11
-23.0760675433
 21
13.3305184943
  0
LINE
  5
4DC
100
AcDbEntity
  8
RACCORDO
100
AcDbLine
 62
250
  6
CONTINUOUS
 10
-22.8234964209
 20
-5.6508225374
 11
-23.3147702177
 21
-5.6508225374
  0
LWPOLYLINE
  5
4DD
100
AcDbEntity
  8
RACCORDO
100
AcDbPolyline
 62
7
  6
CONTINUOUS
 90
17
 70
0
 10
-40.820006807
 20
20.8731792852
 10
-40.8202062698
 20
20.8763599252
 10
-40.8204092306
 20
20.8793514151
 10
-40.8206156395
 20
20.8821506146
 10
-40.8208249737
 20
20.884754857
 10
-40.8210371642
 20
20.8871613539
 10
-40.8212521477
 20
20.8893675284
 10
-40.8214694058
 20
20.8913712185
 10
-40.8216888545
 20
20.8931702104
 10
-40.821910418
 20
20.8947625087
 10
-40.8221335852
 20
20.8961464702
 10
-40.8223582441
 20
20.8973212056
 10
-40.8225843262
 20
20.8982842904
 10
-40.8228113553
 20
20.8990332913
 10
-40.8230390747
 20
20.8995682337
 10
-40.8232674748
 20
20.8998902143
 10
-40.8234964209
 20
20.9
  0
LINE
  5
4DE
100
AcDbEntity
  8
RACCORDO
100
AcDbLine
 62
7
  6
CONTINUOUS
 10
-40.8196190601
 20
20.8662637442
 11
-40.820006807
 21
20.8731792852
  0
LINE
  5
4DF
100
AcDbEntity
  8
RACCORDO
100
AcDbLine
 62
7
  6
CONTINUOUS
 10
-40.8192477617
 20
20.8586325345
 11
-40.8196190601
 21
20.8662637442
  0
LINE
  5
4E0
100
AcDbEntity
  8
RACCORDO
100
AcDbLine
 62
7
  6
CONTINUOUS
 10
-40.8188948143
 20
20.8503159061
 11
-40.8192477617
 21
20.8586325345
  0
LINE
  5
4E1
100
AcDbEntity
  8
RACCORDO
100
AcDbLine
 62
7
  6
CONTINUOUS
 10
-40.8185608865
 20
20.8413478222
 11
-40.8188948143
 21
20.8503159061
  0
LINE
  5
4E2
100
AcDbEntity
  8
RACCORDO
100
AcDbLine
 62
7
  6
CONTINUOUS
 10
-40.8185608865
 20
-20.8413478222
 11
-40.8188948143
 21
-20.8503159061
  0
LINE
  5
4E3
100
AcDbEntity
  8
RACCORDO
100
AcDbLine
 62
7
  6
CONTINUOUS
 10
-40.8188948143
 20
-20.8503159061
 11
-40.8192477617
 21
-20.8586325345
  0
LINE
  5
4E4
100
AcDbEntity
  8
RACCORDO
100
AcDbLine
 62
7
  6
CONTINUOUS
 10
-40.8192477617
 20
-20.8586325345
 11
-40.8196190601
 21
-20.8662637442
  0
LWPOLYLINE
  5
4E5
100
AcDbEntity
  8
RACCORDO
100
AcDbPolyline
 62
7
  6
CONTINUOUS
 90
18
 70
0
 10
-40.8196190601
 20
-20.8662637442
 10
-40.820006807
 20
-20.8731792852
 10
-40.8202062698
 20
-20.8763599252
 10
-40.8204092306
 20
-20.8793514151
 10
-40.8206156395
 20
-20.8821506146
 10
-40.8208249737
 20
-20.884754857
 10
-40.8210371642
 20
-20.8871613539
 10
-40.8212521477
 20
-20.8893675284
 10
-40.8214694058
 20
-20.8913712185
 10
-40.8216888545
 20
-20.8931702104
 10
-40.821910418
 20
-20.8947625087
 10
-40.8221335852
 20
-20.8961464702
 10
-40.8223582441
 20
-20.8973212056
 10
-40.8225843262
 20
-20.8982842904
 10
-40.8228113553
 20
-20.8990332913
 10
-40.8230390747
 20
-20.8995682337
 10
-40.8232674748
 20
-20.8998902143
 10
-40.8234964209
 20
-20.9
  0
LWPOLYLINE
  5
4E6
100
AcDbEntity
  8
RACCORDO
100
AcDbPolyline
 62
7
  6
CONTINUOUS
 90
16
 70
0
 10
-34.352672343
 20
22.5
 10
-34.3490308906
 20
22.5160264314
 10
-34.3460088139
 20
22.5320816973
 10
-34.3436061127
 20
22.5481657977
 10
-34.3418227808
 20
22.5642953655
 10
-34.3406588245
 20
22.5804537679
 10
-34.340114263
 20
22.5965911056
 10
-34.3401908432
 20
22.6126980911
 10
-34.3408868181
 20
22.628784012
 10
-34.3421969661
 20
22.6448268321
 10
-34.3441225731
 20
22.6608318625
 10
-34.3466623532
 20
22.6767937923
 10
-34.3498072268
 20
22.6926746525
 10
-34.3535541675
 20
22.708461787
 10
-34.3579062018
 20
22.724167852
 10
-34.3628633297
 20
22.7397928475
  0
LWPOLYLINE
  5
4E7
100
AcDbEntity
  8
RACCORDO
100
AcDbPolyline
 62
250
  6
CONTINUOUS
 90
46
 70
0
 10
-22.430596031
 20
-2.1352394354
 10
-22.4443917427
 20
-2.1357224888
 10
-22.4581625689
 20
-2.1366812101
 10
-22.471892109
 20
-2.1381144576
 10
-22.4855640114
 20
-2.1400205242
 10
-22.4991619933
 20
-2.14239714
 10
-22.51266986
 20
-2.1452414745
 10
-22.5260715239
 20
-2.1485501401
 10
-22.539351024
 20
-2.1523191962
 10
-22.5524925448
 20
-2.1565441542
 10
-22.5654804352
 20
-2.1612199821
 10
-22.578299227
 20
-2.1663411112
 10
-22.5909336533
 20
-2.1719014424
 10
-22.6033686669
 20
-2.1778943535
 10
-22.6155894581
 20
-2.1843127071
 10
-22.6275814723
 20
-2.191148859
 10
-22.6393304272
 20
-2.1983946678
 10
-22.6508223304
 20
-2.2060415038
 10
-22.6620434951
 20
-2.2140802598
 10
-22.6729805575
 20
-2.2225013619
 10
-22.6836204916
 20
-2.2312947809
 10
-22.6939506257
 20
-2.240450044
 10
-22.7039586569
 20
-2.2499562476
 10
-22.7136326658
 20
-2.2598020701
 10
-22.7229611311
 20
-2.2699757853
 10
-22.7319329428
 20
-2.2804652767
 10
-22.7405374158
 20
-2.2912580516
 10
-22.7487643023
 20
-2.302341256
 10
-22.7566038043
 20
-2.3137016904
 10
-22.7640465854
 20
-2.3253258246
 10
-22.7710837812
 20
-2.3371998146
 10
-22.7777070107
 20
-2.349309519
 10
-22.7839083859
 20
-2.3616405154
 10
-22.7896805211
 20
-2.3741781179
 10
-22.7950165418
 20
-2.3869073945
 10
-22.799910093
 20
-2.3998131852
 10
-22.8043553466
 20
-2.4128801195
 10
-22.8083470084
 20
-2.426092635
 10
-22.8118803246
 20
-2.439434996
 10
-22.8149510869
 20
-2.4528913122
 10
-22.8175556383
 20
-2.4664455574
 10
-22.8196908767
 20
-2.480081589
 10
-22.8213542592
 20
-2.4937831668
 10
-22.8225438048
 20
-2.5075339727
 10
-22.8232580966
 20
-2.5213176298
 10
-22.8234955854
 20
-2.5343699949
  0
LINE
  5
4E8
100
AcDbEntity
  8
RACCORDO
100
AcDbLine
 62
7
  6
CONTINUOUS
 10
-20.2165154583
 20
-2.096666147
 11
-22.4304773835
 21
-2.1353109962
  0
LINE
  5
4E9
100
AcDbEntity
  8
RACCORDO
100
AcDbLine
 62
250
  6
CONTINUOUS
 10
-20.2165154583
 20
-1.5967422994
 11
-23.3147702177
 21
-1.6508225374
  0
LINE
  5
4EA
100
AcDbEntity
  8
RACCORDO
100
AcDbLine
 62
250
  6
CONTINUOUS
 10
-19.8234964209
 20
-1.5967422994
 11
-20.2165154583
 21
-1.5967422994
  0
LWPOLYLINE
  5
4EB
100
AcDbEntity
  8
0
100
AcDbPolyline
 62
7
  6
CONTINUOUS
 90
13
 70
0
 43
0.3500000006
 10
-64.4306278381
 20
-0.1071425629
 10
-65.716343811
 20
-0.1071425629
 10
-66.1449127808
 20
0.107141922
 10
-66.5734862823
 20
0.5357131577
 10
-66.5734862823
 20
0.7499999084
 10
-66.1449127808
 20
1.1785711441
 10
-65.716343811
 20
1.3928578949
 10
-64.4306278381
 20
1.3928578949
 10
-64.0020543365
 20
1.1785711441
 10
-63.5734853668
 20
0.7499999084
 10
-63.5734853668
 20
0.5357131577
 10
-64.0020543365
 20
0.107141922
 10
-64.4306278381
 20
-0.1071425629
  0
LINE
  5
4EC
100
AcDbEntity
  8
RACCORDO
100
AcDbLine
 62
7
  6
CONTINUOUS
 10
-32.8147702177
 20
-5.8166456542
 11
-32.6722027637
 21
-5.9571281434
  0
LINE
  5
4ED
100
AcDbEntity
  8
RACCORDO
100
AcDbLine
 62
7
  6
CONTINUOUS
 10
-32.6722027637
 20
-5.9571281434
 11
-32.5753264646
 21
-6.0530416895
  0
LINE
  5
4EE
100
AcDbEntity
  8
RACCORDO
100
AcDbLine
 62
7
  6
CONTINUOUS
 10
-32.5753264646
 20
-6.0530416895
 11
-32.4948953703
 21
-6.1330500474
  0
LINE
  5
4EF
100
AcDbEntity
  8
RACCORDO
100
AcDbLine
 62
7
  6
CONTINUOUS
 10
-32.4948953703
 20
-6.1330500474
 11
-32.4307728952
 21
-6.1972060701
  0
LINE
  5
4F0
100
AcDbEntity
  8
RACCORDO
100
AcDbLine
 62
7
  6
CONTINUOUS
 10
-32.4307728952
 20
-6.1972060701
 11
-32.3833306158
 21
-6.2450599428
  0
LINE
  5
4F1
100
AcDbEntity
  8
RACCORDO
100
AcDbLine
 62
7
  6
CONTINUOUS
 10
-32.3833306158
 20
-6.2450599428
 11
-32.3601282794
 21
-6.2687062926
  0
LINE
  5
4F2
100
AcDbEntity
  8
RACCORDO
100
AcDbLine
 62
7
  6
CONTINUOUS
 10
-32.3601282794
 20
-6.2687062926
 11
-32.3467610205
 21
-6.2824768107
  0
LINE
  5
4F3
100
AcDbEntity
  8
RACCORDO
100
AcDbLine
 62
7
  6
CONTINUOUS
 10
-32.3467610205
 20
-6.2824768107
 11
-32.3395468328
 21
-6.2899946476
  0
LWPOLYLINE
  5
4F4
100
AcDbEntity
  8
RACCORDO
100
AcDbPolyline
 62
7
  6
CONTINUOUS
 90
10
 70
0
 10
-32.3395468328
 20
-6.2899946476
 10
-32.3336804923
 20
-6.2961912337
 10
-32.3312503532
 20
-6.2987949958
 10
-32.3291592119
 20
-6.3010698403
 10
-32.3274032893
 20
-6.3030121034
 10
-32.3259782365
 20
-6.3046254489
 10
-32.3248816738
 20
-6.3059217952
 10
-32.3241074734
 20
-6.306905115
 10
-32.3236480183
 20
-6.3075714356
 10
-32.3234964209
 20
-6.3079207569
  0
LINE
  5
4F5
100
AcDbEntity
  8
ASSI
100
AcDbLine
 62
250
  6
CONTINUOUS
 10
-35.3060440145
 20
21.7399451523
 11
-35.3060440145
 21
21.0399451523
  0
LINE
  5
4F6
100
AcDbEntity
  8
ASSI
100
AcDbLine
 62
250
  6
CONTINUOUS
 10
-35.3060440145
 20
-21.0399451523
 11
-35.3060440145
 21
-21.7399451523
  0
LINE
  5
4F7
100
AcDbEntity
  8
RACCORDO
100
AcDbLine
 62
250
  6
CONTINUOUS
 10
-33.8344880387
 20
-17.8099813547
 11
-33.8347671784
 21
-17.8012336656
  0
LINE
  5
4F8
100
AcDbEntity
  8
RACCORDO
100
AcDbLine
 62
250
  6
CONTINUOUS
 10
-33.8347671784
 20
-17.8012336656
 11
-33.8350148854
 21
-17.791210209
  0
LINE
  5
4F9
100
AcDbEntity
  8
RACCORDO
100
AcDbLine
 62
250
  6
CONTINUOUS
 10
-33.8350148854
 20
-17.791210209
 11
-33.8352307911
 21
-17.7799439024
  0
LINE
  5
4FA
100
AcDbEntity
  8
RACCORDO
100
AcDbLine
 62
250
  6
CONTINUOUS
 10
-33.832223154
 20
17.3344053613
 11
-33.833659668
 21
17.425109049
  0
LINE
  5
4FB
100
AcDbEntity
  8
RACCORDO
100
AcDbLine
 62
250
  6
CONTINUOUS
 10
-32.8147702177
 20
-17.3166456542
 11
-32.8132362708
 21
-17.4141572951
  0
LINE
  5
4FC
100
AcDbEntity
  8
RACCORDO
100
AcDbLine
 62
250
  6
CONTINUOUS
 10
-33.8352307911
 20
-17.7799439024
 11
-33.8354938749
 21
-17.7607759112
  0
LINE
  5
4FD
100
AcDbEntity
  8
RACCORDO
100
AcDbLine
 62
250
  6
CONTINUOUS
 10
-33.833659668
 20
17.425109049
 11
-33.8347671794
 21
17.513455794
  0
LWPOLYLINE
  5
4FE
100
AcDbEntity
  8
RACCORDO
100
AcDbPolyline
 62
250
  6
CONTINUOUS
 90
3
 70
0
 10
-32.8132362708
 20
-17.4141572951
 10
-32.8120964634
 20
-17.5079230667
 10
-32.8119481278
 20
-17.5229301855
  0
LINE
  5
4FF
100
AcDbEntity
  8
RACCORDO
100
AcDbLine
 62
250
  6
CONTINUOUS
 10
-33.8347671794
 20
17.513455794
 11
-33.8354938751
 21
17.5955973068
  0
LINE
  5
500
100
AcDbEntity
  8
RACCORDO
100
AcDbLine
 62
250
  6
CONTINUOUS
 10
-33.8354938749
 20
-17.7607759112
 11
-33.8357294378
 21
-17.7311377565
  0
LINE
  5
501
100
AcDbEntity
  8
RACCORDO
100
AcDbLine
 62
250
  6
CONTINUOUS
 10
-33.8354938751
 20
17.5955973068
 11
-33.8358182809
 21
17.6689686005
  0
LINE
  5
502
100
AcDbEntity
  8
RACCORDO
100
AcDbLine
 62
250
  6
CONTINUOUS
 10
-33.8357294378
 20
-17.7311377565
 11
-33.8358352569
 21
-17.6879736892
  0
LINE
  5
503
100
AcDbEntity
  8
RACCORDO
100
AcDbLine
 62
250
  6
CONTINUOUS
 10
-34.8234964209
 20
-20.7952696104
 11
-34.8234964209
 21
-21.0483680519
  0
LINE
  5
504
100
AcDbEntity
  8
RACCORDO
100
AcDbLine
 62
250
  6
CONTINUOUS
 10
-34.8234964209
 20
20.7952696104
 11
-34.8234964209
 21
21.0483680519
  0
LINE
  5
505
100
AcDbEntity
  8
RACCORDO
100
AcDbLine
 62
7
  6
CONTINUOUS
 10
-34.3234964209
 20
-22.5
 11
-34.3234964209
 21
-18.1953150014
  0
LINE
  5
506
100
AcDbEntity
  8
RACCORDO
100
AcDbLine
 62
7
  6
CONTINUOUS
 10
-34.3234964209
 20
18.1953149974
 11
-34.3234964209
 21
22.5
  0
LINE
  5
507
100
AcDbEntity
  8
RACCORDO
100
AcDbLine
 62
250
  6
CONTINUOUS
 10
-33.8358182809
 20
17.6689686005
 11
-33.8357971203
 21
17.7146591492
  0
LINE
  5
508
100
AcDbEntity
  8
RACCORDO
100
AcDbLine
 62
250
  6
CONTINUOUS
 10
-33.8358352569
 20
-17.6879736892
 11
-33.8356830207
 21
-17.6282449467
  0
LINE
  5
509
100
AcDbEntity
  8
RACCORDO
100
AcDbLine
 62
250
  6
CONTINUOUS
 10
-33.8357971203
 20
17.7146591492
 11
-33.8356282641
 21
17.7465308961
  0
LINE
  5
50A
100
AcDbEntity
  8
RACCORDO
100
AcDbLine
 62
250
  6
CONTINUOUS
 10
-33.8356830207
 20
-17.6282449467
 11
-33.8351268305
 21
-17.5495826787
  0
LINE
  5
50B
100
AcDbEntity
  8
RACCORDO
100
AcDbLine
 62
250
  6
CONTINUOUS
 10
-33.8356282641
 20
17.7465308961
 11
-33.8354143078
 21
17.7674678021
  0
LINE
  5
50C
100
AcDbEntity
  8
RACCORDO
100
AcDbLine
 62
250
  6
CONTINUOUS
 10
-33.8351268305
 20
-17.5495826787
 11
-33.8341782429
 21
-17.4634935362
  0
LWPOLYLINE
  5
50D
100
AcDbEntity
  8
RACCORDO
100
AcDbPolyline
 62
7
  6
CONTINUOUS
 90
34
 70
0
 10
-34.3234964209
 20
-18.1953151628
 10
-34.3232187737
 20
-18.1750188121
 10
-34.3222934801
 20
-18.1544599129
 10
-34.32072054
 20
-18.1336384653
 10
-34.3185158597
 20
-18.1125479405
 10
-34.315663533
 20
-18.0911948672
 10
-34.3121158408
 20
-18.0695988318
 10
-34.3078778053
 20
-18.0477721998
 10
-34.3029444044
 20
-18.0257026057
 10
-34.2972528527
 20
-18.0033725395
 10
-34.2908174433
 20
-17.9808025663
 10
-34.2836238832
 20
-17.9579721211
 10
-34.2755665077
 20
-17.9348019985
 10
-34.2666603757
 20
-17.911296793
 10
-34.2568904282
 20
-17.8874519102
 10
-34.2461058242
 20
-17.8631743616
 10
-34.2343081738
 20
-17.8384465021
 10
-34.2214958668
 20
-17.8132859768
 10
-34.2075132311
 20
-17.7876527317
 10
-34.1923517471
 20
-17.7615342383
 10
-34.1760199343
 20
-17.7349430252
 10
-34.1583876792
 20
-17.7078766244
 10
-34.13949884
 20
-17.6804036807
 10
-34.1193095585
 20
-17.6524555493
 10
-34.0975581465
 20
-17.6238238272
 10
-34.0741663145
 20
-17.5944441136
 10
-34.049212352
 20
-17.5643808094
 10
-34.0226694394
 20
-17.5336187139
 10
-33.9944459608
 20
-17.5021503814
 10
-33.9646335321
 20
-17.4699832577
 10
-33.9334801812
 20
-17.4371244792
 10
-33.9010685843
 20
-17.4035764249
 10
-33.8673160652
 20
-17.3693367158
 10
-33.8322226241
 20
-17.334405352
  0
LINE
  5
50E
100
AcDbEntity
  8
RACCORDO
100
AcDbLine
 62
250
  6
CONTINUOUS
 10
-33.8341782429
 20
-17.4634935362
 11
-33.8328743966
 21
-17.3732933488
  0
LINE
  5
50F
100
AcDbEntity
  8
RACCORDO
100
AcDbLine
 62
250
  6
CONTINUOUS
 10
-33.8328743966
 20
-17.3732933488
 11
-33.8322231226
 21
-17.3344053607
  0
LINE
  5
510
100
AcDbEntity
  8
RACCORDO
100
AcDbLine
 62
250
  6
CONTINUOUS
 10
-33.8354143078
 20
17.7674678021
 11
-33.8351268301
 21
17.7857351614
  0
LINE
  5
511
100
AcDbEntity
  8
RACCORDO
100
AcDbLine
 62
250
  6
CONTINUOUS
 10
-33.8351268301
 20
17.7857351614
 11
-33.8348949262
 21
17.7963826481
  0
LWPOLYLINE
  5
512
100
AcDbEntity
  8
RACCORDO
100
AcDbPolyline
 62
250
  6
CONTINUOUS
 90
15
 70
0
 10
-33.8348949262
 20
17.7963826481
 10
-33.8346312393
 20
17.8057734262
 10
-33.8344879139
 20
17.8099848329
 10
-33.8343369211
 20
17.8138689923
 10
-33.8341782411
 20
17.8174226849
 10
-33.8340125605
 20
17.8206410351
 10
-33.8338396767
 20
17.8235224346
 10
-33.8336595324
 20
17.8260655066
 10
-33.8334729917
 20
17.8282675911
 10
-33.8332798422
 20
17.830128553
 10
-33.83307998
 20
17.8316485168
 10
-33.832874395
 20
17.8328270969
 10
-33.8326632894
 20
17.8336654799
 10
-33.8324460942
 20
17.8341655776
 10
-33.8322226241
 20
17.8343291996
  0
LWPOLYLINE
  5
513
100
AcDbEntity
  8
RACCORDO
100
AcDbPolyline
 62
250
  6
CONTINUOUS
 90
3
 70
0
 10
-22.4424898604
 20
3.7280472919
 10
-22.4397887758
 20
3.7296087491
 10
-22.4354488096
 20
3.7321451203
  0
LINE
  5
514
100
AcDbEntity
  8
RACCORDO
100
AcDbLine
 62
250
  6
CONTINUOUS
 10
-22.4529702787
 20
3.7220768878
 11
-22.4424898604
 21
3.7280472919
  0
LINE
  5
515
100
AcDbEntity
  8
RACCORDO
100
AcDbLine
 62
250
  6
CONTINUOUS
 10
-22.486579724
 20
3.7032456023
 11
-22.4529702787
 21
3.7220768878
  0
LINE
  5
516
100
AcDbEntity
  8
RACCORDO
100
AcDbLine
 62
250
  6
CONTINUOUS
 10
-22.58108289
 20
3.6509939982
 11
-22.486579724
 21
3.7032456023
  0
LINE
  5
517
100
AcDbEntity
  8
RACCORDO
100
AcDbLine
 62
250
  6
CONTINUOUS
 10
-23.0760675433
 20
3.3805184943
 11
-22.58108289
 21
3.6509939982
  0
LINE
  5
518
100
AcDbEntity
  8
RACCORDO
100
AcDbLine
 62
250
  6
CONTINUOUS
 10
-23.3147701312
 20
3.2508225359
 11
-23.0760675433
 21
3.3805184943
  0
LINE
  5
519
100
AcDbEntity
  8
RACCORDO
100
AcDbLine
 62
250
  6
CONTINUOUS
 10
-19.8234964209
 20
3.1967422994
 11
-20.2165154583
 21
3.1967422994
  0
LINE
  5
51A
100
AcDbEntity
  8
0
100
AcDbLine
 62
7
  6
CONTINUOUS
 10
-22.7599928125
 20
3.919095385
 11
-22.6234964209
 21
3.919095385
  0
LINE
  5
51B
100
AcDbEntity
  8
0
100
AcDbLine
 62
7
  6
CONTINUOUS
 10
-22.8167699244
 20
4.062477385
 11
-22.6234964209
 21
4.062477385
  0
LINE
  5
51C
100
AcDbEntity
  8
RACCORDO
100
AcDbLine
 62
250
  6
CONTINUOUS
 10
-23.3147702177
 20
3.2508225374
 11
-20.2165154583
 21
3.1967422994
  0
LINE
  5
51D
100
AcDbEntity
  8
RACCORDO
100
AcDbLine
 62
7
  6
CONTINUOUS
 10
-22.4304773835
 20
3.7353109962
 11
-20.2165154583
 21
3.696666147
  0
LWPOLYLINE
  5
51E
100
AcDbEntity
  8
RACCORDO
100
AcDbPolyline
 62
250
  6
CONTINUOUS
 90
46
 70
0
 10
-22.4305960292
 20
3.7352395381
 10
-22.4443917436
 20
3.7357225975
 10
-22.4581625724
 20
3.7366813245
 10
-22.4718921148
 20
3.7381145771
 10
-22.4855640194
 20
3.7400206484
 10
-22.4991620034
 20
3.7423972683
 10
-22.5126698719
 20
3.7452416065
 10
-22.5260715376
 20
3.7485502752
 10
-22.5393510395
 20
3.7523193341
 10
-22.552492562
 20
3.7565442943
 10
-22.565480454
 20
3.7612201239
 10
-22.5782992473
 20
3.7663412543
 10
-22.5909336751
 20
3.7719015862
 10
-22.6033686902
 20
3.7778944976
 10
-22.615589483
 20
3.784312851
 10
-22.6275814987
 20
3.7911490024
 10
-22.6393304552
 20
3.7983948101
 10
-22.65082236
 20
3.8060416446
 10
-22.6620435264
 20
3.8140803987
 10
-22.6729805905
 20
3.8225014985
 10
-22.6836205265
 20
3.8312949148
 10
-22.6939506626
 20
3.8404501749
 10
-22.7039586958
 20
3.8499563751
 10
-22.713632707
 20
3.8598021938
 10
-22.7229611747
 20
3.869975905
 10
-22.7319329889
 20
3.880465392
 10
-22.7405374645
 20
3.8912581622
 10
-22.7487643538
 20
3.9023413618
 10
-22.7566038589
 20
3.913701791
 10
-22.7640466431
 20
3.9253259198
 10
-22.7710838423
 20
3.9371999043
 10
-22.7777070754
 20
3.949309603
 10
-22.7839084544
 20
3.9616405935
 10
-22.7896805935
 20
3.97417819
 10
-22.7950166184
 20
3.9869074606
 10
-22.799910174
 20
3.9998132451
 10
-22.8043554322
 20
4.0128801732
 10
-22.8083470989
 20
4.0260926824
 10
-22.8118804201
 20
4.0394350372
 10
-22.8149511877
 20
4.0528913472
 10
-22.8175557446
 20
4.0664455863
 10
-22.8196909887
 20
4.0800816118
 10
-22.8213543771
 20
4.0937831837
 10
-22.8225439287
 20
4.1075339838
 10
-22.8232582268
 20
4.1213176352
 10
-22.8234957149
 20
4.1343663568
  0
LINE
  5
51F
100
AcDbEntity
  8
0
100
AcDbLine
 62
7
  6
CONTINUOUS
 10
-31.961106197
 20
-7.9264080439
 11
-31.9352189459
 21
-7.998522735
  0
LINE
  5
520
100
AcDbEntity
  8
0
100
AcDbLine
 62
7
  6
CONTINUOUS
 10
-32.02968915
 20
-7.7362649688
 11
-31.961106197
 21
-7.9264080439
  0
LWPOLYLINE
  5
521
100
AcDbEntity
  8
0
100
AcDbPolyline
 62
7
  6
CONTINUOUS
 90
74
 70
0
 10
-31.9352189459
 20
-7.998522735
 10
-31.9082736603
 20
-8.0747493011
 10
-31.8944413587
 20
-8.1143630544
 10
-31.8804834563
 20
-8.1549197208
 10
-31.8663898797
 20
-8.1964249763
 10
-31.8521707024
 20
-8.2388419989
 10
-31.8379689323
 20
-8.2820434698
 10
-31.8237896776
 20
-8.3259881777
 10
-31.8096278302
 20
-8.370669233
 10
-31.7956110731
 20
-8.4160010855
 10
-31.7817381827
 20
-8.4619678166
 10
-31.7680103827
 20
-8.5085309388
 10
-31.7545590274
 20
-8.5555637046
 10
-31.741392804
 20
-8.6030198537
 10
-31.7285030254
 20
-8.6508826877
 10
-31.7159949837
 20
-8.699063964
 10
-31.7038771597
 20
-8.7475195226
 10
-31.6921410726
 20
-8.7962290421
 10
-31.6808665728
 20
-8.8451380599
 10
-31.6700588024
 20
-8.8942204223
 10
-31.6597126194
 20
-8.9434402727
 10
-31.6498924478
 20
-8.9927278737
 10
-31.6406097294
 20
-9.0420206866
 10
-31.6318530225
 20
-9.0913210322
 10
-31.6236524269
 20
-9.1406578012
 10
-31.6160102918
 20
-9.1900117213
 10
-31.608924268
 20
-9.2393490111
 10
-31.6024174077
 20
-9.2886794378
 10
-31.5964936305
 20
-9.3379728355
 10
-31.5911490169
 20
-9.3872108571
 10
-31.5863948604
 20
-9.4364229712
 10
-31.5822337983
 20
-9.4855742036
 10
-31.5786631933
 20
-9.5346551911
 10
-31.575686427
 20
-9.5837357358
 10
-31.5733039138
 20
-9.6328076885
 10
-31.5715152393
 20
-9.6818383311
 10
-31.570322543
 20
-9.7308618239
 10
-31.5697265349
 20
-9.7798388121
 10
-31.569726505
 20
-9.8287691839
 10
-31.5703224627
 20
-9.8777463452
 10
-31.5715151257
 20
-9.9267702662
 10
-31.5733037762
 20
-9.9758015087
 10
-31.5756862713
 20
-10.0248739849
 10
-31.5786630215
 20
-10.0739548541
 10
-31.5822336162
 20
-10.1230360899
 10
-31.5863946804
 20
-10.1721876151
 10
-31.5911488602
 20
-10.2214001543
 10
-31.5964935095
 20
-10.2706386434
 10
-31.6024173159
 20
-10.3199324057
 10
-31.6089241896
 20
-10.3692630135
 10
-31.6160102203
 20
-10.4186003843
 10
-31.6236523652
 20
-10.4679543864
 10
-31.6318529773
 20
-10.5172912757
 10
-31.6406097035
 20
-10.5665917419
 10
-31.6498924411
 20
-10.6158846629
 10
-31.6597126382
 20
-10.665172386
 10
-31.6700588467
 20
-10.7143923459
 10
-31.6808666187
 20
-10.7634747151
 10
-31.6921410633
 20
-10.8123835083
 10
-31.7038770715
 20
-10.8610927091
 10
-31.7159948689
 20
-10.9095481574
 10
-31.7285029957
 20
-10.9577297528
 10
-31.7413929118
 20
-11.0055930955
 10
-31.7545592222
 20
-11.0530495579
 10
-31.7680105593
 20
-11.1000822502
 10
-31.7817382906
 20
-11.146645123
 10
-31.7956111241
 20
-11.1926116528
 10
-31.8096278638
 20
-11.2379434448
 10
-31.8237897057
 20
-11.2826244812
 10
-31.8379689457
 20
-11.326569143
 10
-31.85217069
 20
-11.3697705361
 10
-31.8663898323
 20
-11.4121874569
 10
-31.8804833508
 20
-11.4536925423
 10
-31.8944411481
 20
-11.4942489056
  0
LINE
  5
522
100
AcDbEntity
  8
0
100
AcDbLine
 62
7
  6
CONTINUOUS
 10
-31.9793118548
 20
-8.2212814685
 11
-32.0449443609
 21
-8.0029871614
  0
LINE
  5
523
100
AcDbEntity
  8
0
100
AcDbLine
 62
7
  6
CONTINUOUS
 10
-32.0449443609
 20
-8.0029871614
 11
-32.0607882376
 21
-7.9496065466
  0
LINE
  5
524
100
AcDbEntity
  8
0
100
AcDbLine
 62
7
  6
CONTINUOUS
 10
-31.9584512794
 20
-8.2921394015
 11
-31.9793118548
 21
-8.2212814685
  0
LWPOLYLINE
  5
525
100
AcDbEntity
  8
0
100
AcDbPolyline
 62
7
  6
CONTINUOUS
 90
12
 70
0
 10
-32.0607882376
 20
-7.9496065466
 10
-32.075037587
 20
-7.9003378911
 10
-32.0815447561
 20
-7.8772472095
 10
-32.0876080007
 20
-7.855170938
 10
-32.0932247144
 20
-7.8341078214
 10
-32.0983975036
 20
-7.8140544828
 10
-32.1031001257
 20
-7.7949977034
 10
-32.1073309753
 20
-7.776931273
 10
-32.1110916577
 20
-7.7598564924
 10
-32.1143607454
 20
-7.7437716838
 10
-32.117135263
 20
-7.7286768275
 10
-32.1194181859
 20
-7.7145620809
  0
LWPOLYLINE
  5
526
100
AcDbEntity
  8
ASSI
100
AcDbPolyline
 62
7
  6
CONTINUOUS
 90
62
 70
0
 10
-32.1227372281
 20
-8.4583962418
 10
-32.1163646416
 20
-8.4832693423
 10
-32.1062630142
 20
-8.5235381767
 10
-32.0962350263
 20
-8.5644521778
 10
-32.0863011703
 20
-8.6060027639
 10
-32.0765109121
 20
-8.6480693487
 10
-32.066886242
 20
-8.6906603765
 10
-32.0574460657
 20
-8.733767403
 10
-32.0482372024
 20
-8.7772445097
 10
-32.0392858709
 20
-8.8210715072
 10
-32.0306045455
 20
-8.8652685848
 10
-32.0222198446
 20
-8.909750392
 10
-32.0141488873
 20
-8.9545266059
 10
-32.0064082705
 20
-8.9995875493
 10
-31.9990231549
 20
-9.0448188401
 10
-31.9920131714
 20
-9.0901965472
 10
-31.9853875919
 20
-9.1357446016
 10
-31.9791548398
 20
-9.1814204154
 10
-31.9733259911
 20
-9.2272315634
 10
-31.9679129798
 20
-9.2731704707
 10
-31.9629239952
 20
-9.3191718242
 10
-31.9583696368
 20
-9.3652238304
 10
-31.9542569402
 20
-9.4113382828
 10
-31.9505872974
 20
-9.4574852488
 10
-31.9473669911
 20
-9.5036568817
 10
-31.9446020229
 20
-9.5498610282
 10
-31.9422919526
 20
-9.5960912957
 10
-31.9404397761
 20
-9.6423580432
 10
-31.9390497266
 20
-9.6886509118
 10
-31.938121937
 20
-9.7349324318
 10
-31.9376572463
 20
-9.7811826125
 10
-31.9376572056
 20
-9.8274214447
 10
-31.9381218061
 20
-9.8736714316
 10
-31.9390494728
 20
-9.919952245
 10
-31.9404393908
 20
-9.9662442131
 10
-31.9422914822
 20
-10.0125108234
 10
-31.9446015756
 20
-10.0587426732
 10
-31.9473666121
 20
-10.1049491653
 10
-31.9505868998
 20
-10.1511219957
 10
-31.9542563382
 20
-10.1972676983
 10
-31.9583687469
 20
-10.2433797392
 10
-31.9629229031
 20
-10.2894302123
 10
-31.9679118696
 20
-10.3354320177
 10
-31.9733249445
 20
-10.3813722553
 10
-31.9791538064
 20
-10.4271843189
 10
-31.9853864571
 20
-10.4728600188
 10
-31.9920118886
 20
-10.5184075446
 10
-31.9990217454
 20
-10.5637848593
 10
-32.0064067821
 20
-10.6090161189
 10
-32.0141473401
 20
-10.6540771674
 10
-32.0222182442
 20
-10.6988535005
 10
-32.0306029272
 20
-10.743335539
 10
-32.0392842396
 20
-10.7875328621
 10
-32.0482354636
 20
-10.8313597036
 10
-32.0574439597
 20
-10.8748355594
 10
-32.0668836901
 20
-10.9179409337
 10
-32.0765082393
 20
-10.9605315723
 10
-32.0862989616
 20
-11.0026002358
 10
-32.0962335604
 20
-11.0441541638
 10
-32.1062621277
 20
-11.0850708209
 10
-32.1163639798
 20
-11.1253407065
 10
-32.1234964209
 20
-11.1531796444
  0
LINE
  5
527
100
AcDbEntity
  8
0
100
AcDbLine
 62
7
  6
CONTINUOUS
 10
-32.1194181859
 20
-7.7145620809
 11
-32.1211970132
 21
-7.7014120532
  0
LWPOLYLINE
  5
528
100
AcDbEntity
  8
0
100
AcDbPolyline
 62
7
  6
CONTINUOUS
 90
4
 70
0
 10
-32.1211970132
 20
-7.7014120532
 10
-32.122467578
 20
-7.6892198767
 10
-32.1232340472
 20
-7.677984831
 10
-32.1234964209
 20
-7.6677021727
  0
LWPOLYLINE
  5
529
100
AcDbEntity
  8
0
100
AcDbPolyline
 62
7
  6
CONTINUOUS
 90
18
 70
0
 10
-32.1234964209
 20
-7.4007010194
 10
-32.123193675
 20
-7.4106033744
 10
-32.1222980765
 20
-7.4214929223
 10
-32.1208096253
 20
-7.4333759238
 10
-32.1187253284
 20
-7.4462555763
 10
-32.1160481789
 20
-7.4601394917
 10
-32.112787156
 20
-7.4750415513
 10
-32.1089409853
 20
-7.490967334
 10
-32.1045109411
 20
-7.5079228778
 10
-32.0995098259
 20
-7.5259256171
 10
-32.0939339818
 20
-7.5449864642
 10
-32.0877870667
 20
-7.5651072888
 10
-32.0810928567
 20
-7.5862929951
 10
-32.0738516032
 20
-7.6085394645
 10
-32.0660630548
 20
-7.6318587279
 10
-32.0577502331
 20
-7.6562822002
 10
-32.0489064876
 20
-7.6818266572
 10
-32.02968915
 20
-7.7362649688
  0
LINE
  5
52A
100
AcDbEntity
  8
RACCORDO
100
AcDbLine
 62
250
  6
CONTINUOUS
 10
-32.8119481278
 20
-17.5229301855
 11
-32.8113945806
 21
-17.5943409958
  0
LINE
  5
52B
100
AcDbEntity
  8
RACCORDO
100
AcDbLine
 62
250
  6
CONTINUOUS
 10
-32.8113945806
 20
-17.5943409958
 11
-32.8111641887
 21
-17.6583365074
  0
LINE
  5
52C
100
AcDbEntity
  8
RACCORDO
100
AcDbLine
 62
250
  6
CONTINUOUS
 10
-32.8147702177
 20
-5.8166456542
 11
-32.8147702177
 21
-17.3166456542
  0
LINE
  5
52D
100
AcDbEntity
  8
RACCORDO
100
AcDbLine
 62
7
  6
CONTINUOUS
 10
-32.3234964209
 20
-6.3079207569
 11
-32.3234964209
 21
-17.3166456542
  0
LINE
  5
52E
100
AcDbEntity
  8
0
100
AcDbLine
 62
7
  6
CONTINUOUS
 10
-32.3234964209
 20
-17.3166456542
 11
-32.3234964209
 21
-17.4935555018
  0
LINE
  5
52F
100
AcDbEntity
  8
0
100
AcDbLine
 62
7
  6
CONTINUOUS
 10
-32.1234964209
 20
-13.0184195018
 11
-32.1234964209
 21
-14.0887755018
  0
LINE
  5
530
100
AcDbEntity
  8
0
100
AcDbLine
 62
7
  6
CONTINUOUS
 10
-32.1234964209
 20
-14.3452295018
 11
-32.1234964209
 21
-15.4962995018
  0
LINE
  5
531
100
AcDbEntity
  8
0
100
AcDbLine
 62
7
  6
CONTINUOUS
 10
-32.1234964209
 20
-15.8133195018
 11
-32.1234964209
 21
-17.0101456529
  0
LINE
  5
532
100
AcDbEntity
  8
0
100
AcDbLine
 62
7
  6
CONTINUOUS
 10
-32.1234964209
 20
-17.2834695018
 11
-32.1234964209
 21
-17.4935555018
  0
LINE
  5
533
100
AcDbEntity
  8
0
100
AcDbLine
 62
7
  6
CONTINUOUS
 10
-32.1234964209
 20
-12.7534415689
 11
-32.1234964209
 21
-6.6209025018
  0
LINE
  5
534
100
AcDbEntity
  8
0
100
AcDbLine
 62
7
  6
CONTINUOUS
 10
-32.1227372281
 20
-8.5691272858
 11
-32.1227372281
 21
-8.3077932858
  0
LINE
  5
535
100
AcDbEntity
  8
0
100
AcDbLine
 62
7
  6
CONTINUOUS
 10
-32.0751893589
 20
-9.2449882858
 11
-32.0751893589
 21
-8.9798982858
  0
LINE
  5
536
100
AcDbEntity
  8
0
100
AcDbLine
 62
7
  6
CONTINUOUS
 10
-31.9510402734
 20
-9.9208502858
 11
-31.9510402734
 21
-9.6557592858
  0
LINE
  5
537
100
AcDbEntity
  8
RACCORDO
100
AcDbLine
 62
250
  6
CONTINUOUS
 10
-32.8111641887
 20
-17.6583365074
 11
-32.8112169768
 21
-17.7030376896
  0
LINE
  5
538
100
AcDbEntity
  8
RACCORDO
100
AcDbLine
 62
250
  6
CONTINUOUS
 10
-32.8112169768
 20
-17.7030376896
 11
-32.8113945806
 21
-17.7322642808
  0
LINE
  5
539
100
AcDbEntity
  8
RACCORDO
100
AcDbLine
 62
250
  6
CONTINUOUS
 10
-32.8113945806
 20
-17.7322642808
 11
-32.8116886865
 21
-17.7574897883
  0
LINE
  5
53A
100
AcDbEntity
  8
RACCORDO
100
AcDbLine
 62
250
  6
CONTINUOUS
 10
-32.8116886865
 20
-17.7574897883
 11
-32.8119481278
 21
-17.7719623891
  0
LWPOLYLINE
  5
53B
100
AcDbEntity
  8
0
100
AcDbPolyline
 62
7
  6
CONTINUOUS
 90
15
 70
0
 10
-32.1234964209
 20
-11.9409103989
 10
-32.1232340414
 20
-11.9306276823
 10
-32.1224675657
 20
-11.9193925823
 10
-32.1211969939
 20
-11.9072003586
 10
-32.1194181573
 20
-11.8940502943
 10
-32.1171352246
 20
-11.8799355249
 10
-32.1143607016
 20
-11.8648406621
 10
-32.1110916213
 20
-11.8487558897
 10
-32.1073309507
 20
-11.8316811704
 10
-32.1031000978
 20
-11.8136147524
 10
-32.0983974355
 20
-11.7945578475
 10
-32.0932245909
 20
-11.77450431
 10
-32.0876078527
 20
-11.7534410874
 10
-32.0815446468
 20
-11.7313649413
 10
-32.0750375472
 20
-11.708274516
  0
LWPOLYLINE
  5
53C
100
AcDbEntity
  8
RACCORDO
100
AcDbPolyline
 62
250
  6
CONTINUOUS
 90
13
 70
0
 10
-32.8119481278
 20
-17.7719623891
 10
-32.8122570015
 20
-17.7844860096
 10
-32.8124295705
 20
-17.7899998675
 10
-32.8126139855
 20
-17.7950070425
 10
-32.8128100492
 20
-17.7995021746
 10
-32.8130175517
 20
-17.8034804524
 10
-32.8132362708
 20
-17.8069376175
 10
-32.8134659725
 20
-17.8098699692
 10
-32.813706411
 20
-17.8122743687
 10
-32.8139573287
 20
-17.8141482424
 10
-32.8142184572
 20
-17.8154895844
 10
-32.8144895169
 20
-17.8162969589
 10
-32.8147702177
 20
-17.8165695018
  0
LINE
  5
53D
100
AcDbEntity
  8
RACCORDO
100
AcDbLine
 62
250
  6
CONTINUOUS
 10
-22.8401770875
 20
14.051659415
 11
-22.8330980914
 21
14.0651247621
  0
LWPOLYLINE
  5
53E
100
AcDbEntity
  8
RACCORDO
100
AcDbPolyline
 62
250
  6
CONTINUOUS
 90
3
 70
0
 10
-22.8535399118
 20
14.0267236473
 10
-22.8497319661
 20
14.0337780148
 10
-22.8401770875
 20
14.051659415
  0
LINE
  5
53F
100
AcDbEntity
  8
RACCORDO
100
AcDbLine
 62
250
  6
CONTINUOUS
 10
-23.0488364766
 20
13.6736697134
 11
-22.8535399118
 21
14.0267236473
  0
LINE
  5
540
100
AcDbEntity
  8
RACCORDO
100
AcDbLine
 62
250
  6
CONTINUOUS
 10
-23.1812613832
 20
13.4375805389
 11
-23.0488364766
 21
13.6736697134
  0
LINE
  5
541
100
AcDbEntity
  8
RACCORDO
100
AcDbLine
 62
250
  6
CONTINUOUS
 10
-23.3147702177
 20
13.2008226239
 11
-23.1812613832
 21
13.4375805389
  0
LINE
  5
542
100
AcDbEntity
  8
RACCORDO
100
AcDbLine
 62
250
  6
CONTINUOUS
 10
-22.4305960292
 20
3.7352395382
 11
-22.4304773835
 21
3.7353109962
  0
LWPOLYLINE
  5
543
100
AcDbEntity
  8
RACCORDO
100
AcDbPolyline
 62
250
  6
CONTINUOUS
 90
6
 70
0
 10
-22.4354488096
 20
3.7321451203
 10
-22.4338096573
 20
3.7331270196
 10
-22.4325068427
 20
3.7339273482
 10
-22.4315337008
 20
3.7345471243
 10
-22.4308967848
 20
3.7349844896
 10
-22.4305960292
 20
3.7352395382
  0
LINE
  5
544
100
AcDbEntity
  8
0
100
AcDbLine
 62
7
  6
CONTINUOUS
 10
-22.8234964209
 20
4.644130385
 11
-22.6234964209
 21
4.644130385
  0
LINE
  5
545
100
AcDbEntity
  8
0
100
AcDbLine
 62
7
  6
CONTINUOUS
 10
-22.8234964209
 20
4.795627385
 11
-22.6234964209
 21
4.795627385
  0
LINE
  5
546
100
AcDbEntity
  8
0
100
AcDbLine
 62
7
  6
CONTINUOUS
 10
-22.8234964209
 20
4.997548385
 11
-22.6234964209
 21
4.997548385
  0
LINE
  5
547
100
AcDbEntity
  8
0
100
AcDbLine
 62
7
  6
CONTINUOUS
 10
-22.8234964209
 20
5.054094385
 11
-22.6234964209
 21
5.054094385
  0
LINE
  5
548
100
AcDbEntity
  8
0
100
AcDbLine
 62
7
  6
CONTINUOUS
 10
-22.8234964209
 20
5.544854385
 11
-22.6234964209
 21
5.544854385
  0
LINE
  5
549
100
AcDbEntity
  8
0
100
AcDbLine
 62
7
  6
CONTINUOUS
 10
-22.8234964209
 20
5.740724385
 11
-22.6234964209
 21
5.740724385
  0
LINE
  5
54A
100
AcDbEntity
  8
0
100
AcDbLine
 62
7
  6
CONTINUOUS
 10
-22.8234964209
 20
6.231484385
 11
-22.6234964209
 21
6.231484385
  0
LINE
  5
54B
100
AcDbEntity
  8
ASSI
100
AcDbLine
 62
7
  6
CONTINUOUS
 10
-22.8234964209
 20
6.328853385
 11
-22.6234964209
 21
6.328853385
  0
LINE
  5
54C
100
AcDbEntity
  8
RACCORDO
100
AcDbLine
 62
250
  6
CONTINUOUS
 10
-22.9002999583
 20
-1.8762669864
 11
-23.3147701296
 21
-1.6508225359
  0
LINE
  5
54D
100
AcDbEntity
  8
RACCORDO
100
AcDbLine
 62
250
  6
CONTINUOUS
 10
-22.452970275
 20
-2.1220768899
 11
-22.9002999583
 21
-1.8762669864
  0
LINE
  5
54E
100
AcDbEntity
  8
RACCORDO
100
AcDbLine
 62
250
  6
CONTINUOUS
 10
-22.4424898585
 20
-2.128047293
 11
-22.452970275
 21
-2.1220768899
  0
LINE
  5
54F
100
AcDbEntity
  8
RACCORDO
100
AcDbLine
 62
250
  6
CONTINUOUS
 10
-22.4304773835
 20
-2.1353109962
 11
-22.4305960292
 21
-2.1352395382
  0
LWPOLYLINE
  5
550
100
AcDbEntity
  8
0
100
AcDbPolyline
 62
7
  6
CONTINUOUS
 90
4
 70
0
 43
0.3500000006
 10
-30.7449246368
 20
36.1071438446
 10
-30.7449246368
 20
36.7500018311
 10
-29.2449241791
 20
36.7500018311
 10
-30.1020689163
 20
33.7500009155
  0
LWPOLYLINE
  5
551
100
AcDbEntity
  8
0
100
AcDbPolyline
 62
7
  6
CONTINUOUS
 90
67
 70
0
 10
-31.9370882606
 20
-11.2422000488
 10
-31.9263234897
 20
-11.2038852731
 10
-31.9155402011
 20
-11.1648433369
 10
-31.9047356078
 20
-11.1250827181
 10
-31.8940039418
 20
-11.0846485026
 10
-31.8833431472
 20
-11.043551804
 10
-31.8727552799
 20
-11.0018265373
 10
-31.8623407396
 20
-10.959556396
 10
-31.8521007847
 20
-10.9167602895
 10
-31.8420341567
 20
-10.8734709738
 10
-31.8322374804
 20
-10.829798968
 10
-31.8227204267
 20
-10.7857991685
 10
-31.8134733247
 20
-10.7414749051
 10
-31.8045637859
 20
-10.6968624332
 10
-31.7959947247
 20
-10.6519823442
 10
-31.7877632268
 20
-10.6068700259
 10
-31.7799281604
 20
-10.5615844857
 10
-31.7724975003
 20
-10.5161770586
 10
-31.7654632719
 20
-10.4706519809
 10
-31.7588604186
 20
-10.4249968569
 10
-31.7526909826
 20
-10.3792273905
 10
-31.7469529218
 20
-10.3333784702
 10
-31.7416750542
 20
-10.2874648395
 10
-31.7368617779
 20
-10.2415222816
 10
-31.7325086949
 20
-10.1955630081
 10
-31.7286314287
 20
-10.1495650569
 10
-31.7252322964
 20
-10.1035568603
 10
-31.7223089809
 20
-10.0575545786
 10
-31.7198701542
 20
-10.0115162994
 10
-31.7179172103
 20
-9.9654525457
 10
-31.7164487552
 20
-9.9193948371
 10
-31.7154692799
 20
-9.8733318623
 10
-31.7149802817
 20
-9.8273040792
 10
-31.7149802633
 20
-9.7813120441
 10
-31.7154692226
 20
-9.7352843023
 10
-31.716448652
 20
-9.6892214767
 10
-31.717917059
 20
-9.6431639581
 10
-31.7198699651
 20
-9.5971002354
 10
-31.7223087773
 20
-9.5510616308
 10
-31.7252320886
 20
-9.5050588678
 10
-31.7286311981
 20
-9.4590504283
 10
-31.7325084014
 20
-9.4130527402
 10
-31.736861403
 20
-9.3670939616
 10
-31.7416746166
 20
-9.3211517124
 10
-31.7469524619
 20
-9.275237982
 10
-31.7526905192
 20
-9.229388783
 10
-31.7588599425
 20
-9.1836191198
 10
-31.7654627605
 20
-9.1379639962
 10
-31.7724969446
 20
-9.0924389966
 10
-31.7799275631
 20
-9.047031631
 10
-31.7877625966
 20
-9.0017460952
 10
-31.7959940645
 20
-8.9566337658
 10
-31.8045630932
 20
-8.9117536811
 10
-31.8134725982
 20
-8.8671412265
 10
-31.8227196641
 20
-8.8228169946
 10
-31.8322366708
 20
-8.7788172746
 10
-31.8420332554
 20
-8.7351455339
 10
-31.852099781
 20
-8.6918565234
 10
-31.8623397162
 20
-8.6490603853
 10
-31.8727543895
 20
-8.60678961
 10
-31.8833424726
 20
-8.5650634092
 10
-31.8940034487
 20
-8.5239659459
 10
-31.9047352105
 20
-8.4835313293
 10
-31.9155398653
 20
-8.4437704598
 10
-31.9263232191
 20
-8.4047282686
 10
-31.9370880772
 20
-8.3664131682
 10
-31.9584512794
 20
-8.2921394015
  0
LINE
  5
552
100
AcDbEntity
  8
0
100
AcDbLine
 62
7
  6
CONTINUOUS
 10
-31.9584512943
 20
-11.3164732212
 11
-31.9370882606
 21
-11.2422000488
  0
LINE
  5
553
100
AcDbEntity
  8
0
100
AcDbLine
 62
7
  6
CONTINUOUS
 10
-32.0750375472
 20
-11.708274516
 11
-32.0607882497
 21
-11.6590060782
  0
LINE
  5
554
100
AcDbEntity
  8
0
100
AcDbLine
 62
7
  6
CONTINUOUS
 10
-31.979311758
 20
-11.3873307738
 11
-31.9584512943
 21
-11.3164732212
  0
LINE
  5
555
100
AcDbEntity
  8
0
100
AcDbLine
 62
7
  6
CONTINUOUS
 10
-32.0607882497
 20
-11.6590060782
 11
-32.0449443385
 21
-11.6056253354
  0
LWPOLYLINE
  5
556
100
AcDbEntity
  8
0
100
AcDbPolyline
 62
7
  6
CONTINUOUS
 90
3
 70
0
 10
-32.0276530538
 20
-11.5481755343
 10
-32.0091117828
 20
-11.4867369108
 10
-31.979311758
 20
-11.3873307738
  0
LINE
  5
557
100
AcDbEntity
  8
0
100
AcDbLine
 62
7
  6
CONTINUOUS
 10
-32.0449443385
 20
-11.6056253354
 11
-32.0276530538
 21
-11.5481755343
  0
LWPOLYLINE
  5
558
100
AcDbEntity
  8
RACCORDO
100
AcDbPolyline
 62
250
  6
CONTINUOUS
 90
8
 70
0
 10
-22.8281236547
 20
14.0748390833
 10
-22.8268850795
 20
14.0773295746
 10
-22.8258452817
 20
14.079473728
 10
-22.825000395
 20
14.0812641698
 10
-22.8243431175
 20
14.0827217092
 10
-22.8238726137
 20
14.0838532826
 10
-22.823590434
 20
14.0846519536
 10
-22.8234964209
 20
14.0851177221
  0
LWPOLYLINE
  5
559
100
AcDbEntity
  8
RACCORDO
100
AcDbPolyline
 62
250
  6
CONTINUOUS
 90
3
 70
0
 10
-22.8330980914
 20
14.0651247621
 10
-22.8312202531
 20
14.0687540361
 10
-22.8281236547
 20
14.0748390833
  0
LWPOLYLINE
  5
55A
100
AcDbEntity
  8
RACCORDO
100
AcDbPolyline
 62
250
  6
CONTINUOUS
 90
46
 70
0
 10
-22.430596031
 20
7.8147605646
 10
-22.4443917427
 20
7.8142775112
 10
-22.4581625689
 20
7.8133187899
 10
-22.471892109
 20
7.8118855424
 10
-22.4855640114
 20
7.8099794758
 10
-22.4991619933
 20
7.80760286
 10
-22.51266986
 20
7.8047585255
 10
-22.5260715239
 20
7.8014498599
 10
-22.539351024
 20
7.7976808038
 10
-22.5524925448
 20
7.7934558458
 10
-22.5654804352
 20
7.7887800179
 10
-22.578299227
 20
7.7836588888
 10
-22.5909336533
 20
7.7780985576
 10
-22.6033686669
 20
7.7721056465
 10
-22.6155894581
 20
7.7656872929
 10
-22.6275814723
 20
7.758851141
 10
-22.6393304272
 20
7.7516053322
 10
-22.6508223304
 20
7.7439584962
 10
-22.6620434951
 20
7.7359197402
 10
-22.6729805575
 20
7.7274986381
 10
-22.6836204916
 20
7.7187052191
 10
-22.6939506257
 20
7.709549956
 10
-22.7039586569
 20
7.7000437524
 10
-22.7136326658
 20
7.6901979299
 10
-22.7229611311
 20
7.6800242147
 10
-22.7319329428
 20
7.6695347233
 10
-22.7405374158
 20
7.6587419484
 10
-22.7487643023
 20
7.647658744
 10
-22.7566038043
 20
7.6362983096
 10
-22.7640465854
 20
7.6246741754
 10
-22.7710837812
 20
7.6128001854
 10
-22.7777070107
 20
7.600690481
 10
-22.7839083859
 20
7.5883594846
 10
-22.7896805211
 20
7.5758218821
 10
-22.7950165418
 20
7.5630926055
 10
-22.799910093
 20
7.5501868148
 10
-22.8043553466
 20
7.5371198805
 10
-22.8083470084
 20
7.523907365
 10
-22.8118803246
 20
7.510565004
 10
-22.8149510869
 20
7.4971086878
 10
-22.8175556383
 20
7.4835544426
 10
-22.8196908767
 20
7.469918411
 10
-22.8213542592
 20
7.4562168332
 10
-22.8225438048
 20
7.4424660273
 10
-22.8232580966
 20
7.4286823702
 10
-22.8234955854
 20
7.4156300051
  0
LINE
  5
55B
100
AcDbEntity
  8
RACCORDO
100
AcDbLine
 62
7
  6
CONTINUOUS
 10
-20.2165154583
 20
7.853333853
 11
-22.4304773835
 21
7.8146890038
  0
LINE
  5
55C
100
AcDbEntity
  8
RACCORDO
100
AcDbLine
 62
250
  6
CONTINUOUS
 10
-20.2165154583
 20
8.3532577006
 11
-23.3147702177
 21
8.2991774626
  0
LINE
  5
55D
100
AcDbEntity
  8
0
100
AcDbLine
 62
7
  6
CONTINUOUS
 10
-22.8234964209
 20
6.441520385
 11
-22.6234964209
 21
6.441520385
  0
LINE
  5
55E
100
AcDbEntity
  8
0
100
AcDbLine
 62
7
  6
CONTINUOUS
 10
-22.8234964209
 20
6.637461385
 11
-22.6234964209
 21
6.637461385
  0
LINE
  5
55F
100
AcDbEntity
  8
ASSI
100
AcDbLine
 62
7
  6
CONTINUOUS
 10
-22.8234964209
 20
6.888881385
 11
-22.6234964209
 21
6.888881385
  0
LINE
  5
560
100
AcDbEntity
  8
ASSI
100
AcDbLine
 62
7
  6
CONTINUOUS
 10
-22.8234964209
 20
7.065673385
 11
-22.6234964209
 21
7.065673385
  0
LINE
  5
561
100
AcDbEntity
  8
0
100
AcDbLine
 62
7
  6
CONTINUOUS
 10
-22.8046221075
 20
7.536121385
 11
-22.6234964209
 21
7.536121385
  0
LINE
  5
562
100
AcDbEntity
  8
0
100
AcDbLine
 62
7
  6
CONTINUOUS
 10
-22.6316773288
 20
7.756242385
 11
-22.6234964209
 21
7.756242385
  0
LINE
  5
563
100
AcDbEntity
  8
RACCORDO
100
AcDbLine
 62
250
  6
CONTINUOUS
 10
-19.8234964209
 20
8.3532577006
 11
-20.2165154583
 21
8.3532577006
  0
LWPOLYLINE
  5
564
100
AcDbEntity
  8
RACCORDO
100
AcDbPolyline
 62
250
  6
CONTINUOUS
 90
8
 70
0
 10
-22.4305960292
 20
-2.1352395382
 10
-22.4308967848
 20
-2.1349844896
 10
-22.4315337007
 20
-2.1345471244
 10
-22.4325068425
 20
-2.1339273484
 10
-22.4338096568
 20
-2.1331270199
 10
-22.4354488089
 20
-2.1321451207
 10
-22.4374442608
 20
-2.1309736836
 10
-22.4424898585
 20
-2.128047293
  0
LINE
  5
565
100
AcDbEntity
  8
RACCORDO
100
AcDbLine
 62
250
  6
CONTINUOUS
 10
-28.3913458782
 20
-17.3688340142
 11
-28.3933060466
 21
-17.23946871
  0
LINE
  5
566
100
AcDbEntity
  8
RACCORDO
100
AcDbLine
 62
250
  6
CONTINUOUS
 10
-28.3902245155
 20
-17.4750892231
 11
-28.3913458782
 21
-17.3688340142
  0
LINE
  5
567
100
AcDbEntity
  8
RACCORDO
100
AcDbLine
 62
250
  6
CONTINUOUS
 10
-28.3897528058
 20
-17.5565655552
 11
-28.3902245155
 21
-17.4750892231
  0
LINE
  5
568
100
AcDbEntity
  8
RACCORDO
100
AcDbLine
 62
250
  6
CONTINUOUS
 10
-28.3933060466
 20
-17.23946871
 11
-28.3933060466
 21
-6.2393925576
  0
LINE
  5
569
100
AcDbEntity
  8
RACCORDO
100
AcDbLine
 62
250
  6
CONTINUOUS
 10
-28.3897000177
 20
-17.6042909624
 11
-28.3897528058
 21
-17.5565655552
  0
LINE
  5
56A
100
AcDbEntity
  8
RACCORDO
100
AcDbLine
 62
250
  6
CONTINUOUS
 10
-28.3898581559
 20
-17.6457765768
 11
-28.3897000177
 21
-17.6042909624
  0
LINE
  5
56B
100
AcDbEntity
  8
RACCORDO
100
AcDbLine
 62
250
  6
CONTINUOUS
 10
-28.3901136874
 20
-17.6723647154
 11
-28.3898581559
 21
-17.6457765768
  0
LINE
  5
56C
100
AcDbEntity
  8
RACCORDO
100
AcDbLine
 62
250
  6
CONTINUOUS
 10
-28.3903479827
 20
-17.6877890869
 11
-28.3901136874
 21
-17.6723647154
  0
LWPOLYLINE
  5
56D
100
AcDbEntity
  8
RACCORDO
100
AcDbPolyline
 62
7
  6
CONTINUOUS
 90
16
 70
0
 10
-34.3628633297
 20
-22.7397928475
 10
-34.3579052376
 20
-22.7241660872
 10
-34.3535523243
 20
-22.708455985
 10
-34.3498045898
 20
-22.6926625408
 10
-34.3466587799
 20
-22.6767708468
 10
-34.3441181488
 20
-22.6607958109
 10
-34.3421924585
 20
-22.6447821565
 10
-34.3408835957
 20
-22.6287385479
 10
-34.3401896739
 20
-22.6126563209
 10
-34.3401147953
 20
-22.596554206
 10
-34.3406603756
 20
-22.5804222
 10
-34.3418249992
 20
-22.5642703063
 10
-34.3436085221
 20
-22.5481472653
 10
-34.3460108964
 20
-22.5320693241
 10
-34.34903217
 20
-22.5160202356
 10
-34.352672343
 20
-22.5
  0
LWPOLYLINE
  5
56E
100
AcDbEntity
  8
0
100
AcDbPolyline
 62
7
  6
CONTINUOUS
 90
17
 70
0
 10
-32.0489061542
 20
-11.9267849484
 10
-32.0577498757
 20
-11.9523293311
 10
-32.0660627054
 20
-11.9767528112
 10
-32.0738512778
 20
-12.0000721204
 10
-32.0810925605
 20
-12.022318654
 10
-32.0877868072
 20
-12.0435044599
 10
-32.0939337642
 20
-12.0636253956
 10
-32.0995096383
 20
-12.0826862972
 10
-32.104510756
 20
-12.1006889738
 10
-32.1089407907
 20
-12.1176444212
 10
-32.1127869688
 20
-12.1335702087
 10
-32.1160480354
 20
-12.1484724323
 10
-32.1187252454
 20
-12.1623565711
 10
-32.1208095899
 20
-12.1752364027
 10
-32.1222980658
 20
-12.1871195158
 10
-32.1231936761
 20
-12.198009144
 10
-32.1234964209
 20
-12.2079115522
  0
LINE
  5
56F
100
AcDbEntity
  8
0
100
AcDbLine
 62
7
  6
CONTINUOUS
 10
-31.8944411481
 20
-11.4942489056
 11
-31.9218671403
 21
-11.5724791805
  0
LINE
  5
570
100
AcDbEntity
  8
0
100
AcDbLine
 62
7
  6
CONTINUOUS
 10
-32.0296888743
 20
-11.8723468292
 11
-32.0489061542
 21
-11.9267849484
  0
LINE
  5
571
100
AcDbEntity
  8
0
100
AcDbLine
 62
7
  6
CONTINUOUS
 10
-31.9218671403
 20
-11.5724791805
 11
-31.948331462
 21
-11.6466789972
  0
LWPOLYLINE
  5
572
100
AcDbEntity
  8
0
100
AcDbPolyline
 62
7
  6
CONTINUOUS
 90
3
 70
0
 10
-31.948331462
 20
-11.6466789972
 10
-31.9856267471
 20
-11.7500269738
 10
-32.0296888743
 20
-11.8723468292
  0
LWPOLYLINE
  5
573
100
AcDbEntity
  8
RACCORDO
100
AcDbPolyline
 62
250
  6
CONTINUOUS
 90
8
 70
0
 10
-22.8281236547
 20
4.1248390833
 10
-22.8268850795
 20
4.1273295746
 10
-22.8258452817
 20
4.129473728
 10
-22.825000395
 20
4.1312641698
 10
-22.8243431175
 20
4.1327217092
 10
-22.8238726137
 20
4.1338532826
 10
-22.823590434
 20
4.1346519536
 10
-22.8234964209
 20
4.1351177221
  0
LWPOLYLINE
  5
574
100
AcDbEntity
  8
RACCORDO
100
AcDbPolyline
 62
250
  6
CONTINUOUS
 90
3
 70
0
 10
-22.8330980914
 20
4.1151247621
 10
-22.8312202531
 20
4.1187540361
 10
-22.8281236547
 20
4.1248390833
  0
LINE
  5
575
100
AcDbEntity
  8
RACCORDO
100
AcDbLine
 62
250
  6
CONTINUOUS
 10
-22.8401770875
 20
4.101659415
 11
-22.8330980914
 21
4.1151247621
  0
LINE
  5
576
100
AcDbEntity
  8
RACCORDO
100
AcDbLine
 62
250
  6
CONTINUOUS
 10
-22.8497319661
 20
4.0837780148
 11
-22.8401770875
 21
4.101659415
  0
LINE
  5
577
100
AcDbEntity
  8
RACCORDO
100
AcDbLine
 62
250
  6
CONTINUOUS
 10
-23.1013865249
 20
3.6297962254
 11
-22.8497319661
 21
4.0837780148
  0
LWPOLYLINE
  5
578
100
AcDbEntity
  8
RACCORDO
100
AcDbPolyline
 62
250
  6
CONTINUOUS
 90
3
 70
0
 10
-23.3147702177
 20
3.2508226239
 10
-23.2468893611
 20
3.3710551022
 10
-23.1013865249
 20
3.6297962254
  0
LINE
  5
579
100
AcDbEntity
  8
RACCORDO
100
AcDbLine
 62
250
  6
CONTINUOUS
 10
-23.2919666083
 20
-1.6913120835
 11
-23.3147702177
 21
-1.6508226255
  0
LINE
  5
57A
100
AcDbEntity
  8
RACCORDO
100
AcDbLine
 62
250
  6
CONTINUOUS
 10
-23.1203344135
 20
-1.9960281525
 11
-23.2919666083
 21
-1.6913120835
  0
LINE
  5
57B
100
AcDbEntity
  8
RACCORDO
100
AcDbLine
 62
250
  6
CONTINUOUS
 10
-23.0656361273
 20
-2.0936470326
 11
-23.1203344135
 21
-1.9960281525
  0
LINE
  5
57C
100
AcDbEntity
  8
RACCORDO
100
AcDbLine
 62
250
  6
CONTINUOUS
 10
-22.9529326065
 20
-2.2958184893
 11
-23.0656361273
 21
-2.0936470326
  0
LINE
  5
57D
100
AcDbEntity
  8
RACCORDO
100
AcDbLine
 62
250
  6
CONTINUOUS
 10
-22.8462433816
 20
-2.4902855715
 11
-22.9529326065
 21
-2.2958184893
  0
LINE
  5
57E
100
AcDbEntity
  8
RACCORDO
100
AcDbLine
 62
250
  6
CONTINUOUS
 10
-22.8375604351
 20
-2.5066087303
 11
-22.8462433816
 21
-2.4902855715
  0
LWPOLYLINE
  5
57F
100
AcDbEntity
  8
RACCORDO
100
AcDbPolyline
 62
250
  6
CONTINUOUS
 90
3
 70
0
 10
-22.8312202517
 20
-2.5187540387
 10
-22.8330980898
 20
-2.5151247653
 10
-22.8375604351
 20
-2.5066087303
  0
LWPOLYLINE
  5
580
100
AcDbEntity
  8
RACCORDO
100
AcDbPolyline
 62
250
  6
CONTINUOUS
 90
24
 70
0
 10
-22.8588416284
 20
-11.5731084325
 10
-22.8660976408
 20
-11.4405481825
 10
-22.8694286197
 20
-11.3749310881
 10
-22.872518721
 20
-11.3099657719
 10
-22.8753262783
 20
-11.2457931789
 10
-22.877829724
 20
-11.1822723641
 10
-22.8800297015
 20
-11.1192844471
 10
-22.881908023
 20
-11.0568754054
 10
-22.8834460628
 20
-10.9949992616
 10
-22.8846513133
 20
-10.9333992023
 10
-22.8855186135
 20
-10.8720816219
 10
-22.8860364386
 20
-10.8110401261
 10
-22.886207885
 20
-10.7499987192
 10
-22.8860364266
 20
-10.6889574316
 10
-22.8855185897
 20
-10.6279162328
 10
-22.8846512836
 20
-10.5665990352
 10
-22.8834460336
 20
-10.50499941
 10
-22.8819080001
 20
-10.443123786
 10
-22.8800296953
 20
-10.3807153623
 10
-22.8778297442
 20
-10.3177281634
 10
-22.8753263336
 20
-10.2542081648
 10
-22.8725188244
 20
-10.1900364924
 10
-22.8694287722
 20
-10.1250720666
 10
-22.866097852
 20
-10.0594559669
  0
LINE
  5
581
100
AcDbEntity
  8
RACCORDO
100
AcDbLine
 62
250
  6
CONTINUOUS
 10
-23.3119481278
 20
17.6061392723
 11
-23.3122570015
 21
17.6186628928
  0
LINE
  5
582
100
AcDbEntity
  8
RACCORDO
100
AcDbLine
 62
250
  6
CONTINUOUS
 10
-23.3116886865
 20
17.5916666715
 11
-23.3119481278
 21
17.6061392723
  0
LINE
  5
583
100
AcDbEntity
  8
RACCORDO
100
AcDbLine
 62
250
  6
CONTINUOUS
 10
-23.3128100492
 20
-17.2801878425
 11
-23.3147702177
 21
-17.1508225374
  0
LINE
  5
584
100
AcDbEntity
  8
RACCORDO
100
AcDbLine
 62
250
  6
CONTINUOUS
 10
-23.3128100492
 20
-5.7801878425
 11
-23.3147702177
 21
-5.6508225374
  0
LINE
  5
585
100
AcDbEntity
  8
RACCORDO
100
AcDbLine
 62
250
  6
CONTINUOUS
 10
-23.3113945806
 20
17.5664411639
 11
-23.3116886865
 21
17.5916666715
  0
LINE
  5
586
100
AcDbEntity
  8
RACCORDO
100
AcDbLine
 62
250
  6
CONTINUOUS
 10
-23.3116886865
 20
-17.386443052
 11
-23.3128100492
 21
-17.2801878425
  0
LINE
  5
587
100
AcDbEntity
  8
RACCORDO
100
AcDbLine
 62
250
  6
CONTINUOUS
 10
-23.3116886865
 20
-5.886443052
 11
-23.3128100492
 21
-5.7801878425
  0
LINE
  5
588
100
AcDbEntity
  8
RACCORDO
100
AcDbLine
 62
250
  6
CONTINUOUS
 10
-23.3112169768
 20
17.5372145727
 11
-23.3113945806
 21
17.5664411639
  0
LWPOLYLINE
  5
589
100
AcDbEntity
  8
RACCORDO
100
AcDbPolyline
 62
250
  6
CONTINUOUS
 90
11
 70
0
 10
-22.8234964209
 20
-12.3959409661
 10
-22.823702946
 20
-12.3498545625
 10
-22.8243288383
 20
-12.3012310726
 10
-22.825383354
 20
-12.2500704964
 10
-22.8268910963
 20
-12.196046712
 10
-22.8288529623
 20
-12.1394858412
 10
-22.8312063244
 20
-12.0813662499
 10
-22.8339100656
 20
-12.021854114
 10
-22.8369472975
 20
-11.9607832576
 10
-22.84024009
 20
-11.8986335188
 10
-22.8588416284
 20
-11.5731084325
  0
LINE
  5
58A
100
AcDbEntity
  8
RACCORDO
100
AcDbLine
 62
250
  6
CONTINUOUS
 10
-23.3112169768
 20
-17.4679193843
 11
-23.3116886865
 21
-17.386443052
  0
LINE
  5
58B
100
AcDbEntity
  8
RACCORDO
100
AcDbLine
 62
250
  6
CONTINUOUS
 10
-23.3112169768
 20
-5.9679193843
 11
-23.3116886865
 21
-5.886443052
  0
LINE
  5
58C
100
AcDbEntity
  8
RACCORDO
100
AcDbLine
 62
250
  6
CONTINUOUS
 10
-23.3147702177
 20
-17.1508225374
 11
-23.3147702177
 21
-6.150746385
  0
LINE
  5
58D
100
AcDbEntity
  8
RACCORDO
100
AcDbLine
 62
250
  6
CONTINUOUS
 10
-23.3147702177
 20
-5.6508225374
 11
-23.3147702177
 21
-1.6508225374
  0
LINE
  5
58E
100
AcDbEntity
  8
RACCORDO
100
AcDbLine
 62
250
  6
CONTINUOUS
 10
-23.3147702177
 20
3.2508225374
 11
-23.3147702177
 21
8.2991774626
  0
LINE
  5
58F
100
AcDbEntity
  8
RACCORDO
100
AcDbLine
 62
250
  6
CONTINUOUS
 10
-23.3147702177
 20
13.2008225374
 11
-23.3147702177
 21
17.1508225374
  0
LINE
  5
590
100
AcDbEntity
  8
RACCORDO
100
AcDbLine
 62
7
  6
CONTINUOUS
 10
-22.8234964209
 20
17.1508225374
 11
-22.8234957149
 21
14.0843663568
  0
LINE
  5
591
100
AcDbEntity
  8
RACCORDO
100
AcDbLine
 62
7
  6
CONTINUOUS
 10
-22.8234964209
 20
-12.3959409661
 11
-22.8234964209
 21
-17.1508225374
  0
LINE
  5
592
100
AcDbEntity
  8
RACCORDO
100
AcDbLine
 62
250
  6
CONTINUOUS
 10
-23.3111641887
 20
17.4925133905
 11
-23.3112169768
 21
17.5372145727
  0
LINE
  5
593
100
AcDbEntity
  8
RACCORDO
100
AcDbLine
 62
250
  6
CONTINUOUS
 10
-23.3111641887
 20
-6.0156447913
 11
-23.3112169768
 21
-5.9679193843
  0
LINE
  5
594
100
AcDbEntity
  8
RACCORDO
100
AcDbLine
 62
250
  6
CONTINUOUS
 10
-23.3111641887
 20
-17.5156447913
 11
-23.3112169768
 21
-17.4679193843
  0
LINE
  5
595
100
AcDbEntity
  8
RACCORDO
100
AcDbLine
 62
7
  6
CONTINUOUS
 10
-22.8234955854
 20
7.4156300051
 11
-22.8234957149
 21
4.1343663568
  0
LINE
  5
596
100
AcDbEntity
  8
RACCORDO
100
AcDbLine
 62
7
  6
CONTINUOUS
 10
-22.8234955854
 20
-2.5343699949
 11
-22.8234964209
 21
-9.1040590339
  0
LINE
  5
597
100
AcDbEntity
  8
RACCORDO
100
AcDbLine
 62
250
  6
CONTINUOUS
 10
-23.3113945806
 20
17.428517879
 11
-23.3111641887
 21
17.4925133905
  0
LINE
  5
598
100
AcDbEntity
  8
RACCORDO
100
AcDbLine
 62
250
  6
CONTINUOUS
 10
-23.3113223269
 20
-6.0571304055
 11
-23.3111641887
 21
-6.0156447913
  0
LINE
  5
599
100
AcDbEntity
  8
RACCORDO
100
AcDbLine
 62
250
  6
CONTINUOUS
 10
-23.3113223269
 20
-17.5571304055
 11
-23.3111641887
 21
-17.5156447913
  0
LINE
  5
59A
100
AcDbEntity
  8
RACCORDO
100
AcDbLine
 62
250
  6
CONTINUOUS
 10
-23.3122570015
 20
17.3268880858
 11
-23.3113945806
 21
17.428517879
  0
LINE
  5
59B
100
AcDbEntity
  8
RACCORDO
100
AcDbLine
 62
250
  6
CONTINUOUS
 10
-23.3115778585
 20
-6.0837185438
 11
-23.3113223269
 21
-6.0571304055
  0
LINE
  5
59C
100
AcDbEntity
  8
RACCORDO
100
AcDbLine
 62
250
  6
CONTINUOUS
 10
-23.3115778585
 20
-17.5837185438
 11
-23.3113223269
 21
-17.5571304055
  0
LINE
  5
59D
100
AcDbEntity
  8
RACCORDO
100
AcDbLine
 62
250
  6
CONTINUOUS
 10
-23.3139573287
 20
17.1998141745
 11
-23.3122570015
 21
17.3268880858
  0
LINE
  5
59E
100
AcDbEntity
  8
RACCORDO
100
AcDbLine
 62
250
  6
CONTINUOUS
 10
-23.3118121537
 20
-6.0991429152
 11
-23.3115778585
 21
-6.0837185438
  0
LINE
  5
59F
100
AcDbEntity
  8
RACCORDO
100
AcDbLine
 62
250
  6
CONTINUOUS
 10
-23.3118121537
 20
-17.5991429152
 11
-23.3115778585
 21
-17.5837185438
  0
LINE
  5
5A0
100
AcDbEntity
  8
RACCORDO
100
AcDbLine
 62
250
  6
CONTINUOUS
 10
-23.3147702177
 20
17.1508225374
 11
-23.3139573287
 21
17.1998141745
  0
LWPOLYLINE
  5
5A1
100
AcDbEntity
  8
RACCORDO
100
AcDbPolyline
 62
250
  6
CONTINUOUS
 90
14
 70
0
 10
-23.3147702177
 20
-6.150746385
 10
-23.3144895169
 20
-6.1504738421
 10
-23.3142184572
 20
-6.1496664676
 10
-23.3139573287
 20
-6.1483251256
 10
-23.313706411
 20
-6.1464512519
 10
-23.3134659725
 20
-6.1440468524
 10
-23.3132362708
 20
-6.1411145007
 10
-23.3130175517
 20
-6.1376573356
 10
-23.3128100492
 20
-6.1336790578
 10
-23.3126139855
 20
-6.1291839256
 10
-23.3124295705
 20
-6.1241767507
 10
-23.3122570015
 20
-6.1186628928
 10
-23.3120964634
 20
-6.112648254
 10
-23.3118121537
 20
-6.0991429152
  0
LINE
  5
5A2
100
AcDbEntity
  8
RACCORDO
100
AcDbLine
 62
250
  6
CONTINUOUS
 10
-19.8234964209
 20
13.1467422994
 11
-20.2165154583
 21
13.1467422994
  0
LINE
  5
5A3
100
AcDbEntity
  8
0
100
AcDbLine
 62
7
  6
CONTINUOUS
 10
-22.7701079944
 20
13.885655385
 11
-22.6234964209
 21
13.885655385
  0
LINE
  5
5A4
100
AcDbEntity
  8
0
100
AcDbLine
 62
7
  6
CONTINUOUS
 10
-22.8234964209
 20
14.087588385
 11
-22.6234964209
 21
14.087588385
  0
LINE
  5
5A5
100
AcDbEntity
  8
ASSI
100
AcDbLine
 62
7
  6
CONTINUOUS
 10
-22.8234964209
 20
14.191680385
 11
-22.6234964209
 21
14.191680385
  0
LINE
  5
5A6
100
AcDbEntity
  8
0
100
AcDbLine
 62
7
  6
CONTINUOUS
 10
-22.8234964209
 20
14.261271385
 11
-22.6234964209
 21
14.261271385
  0
LINE
  5
5A7
100
AcDbEntity
  8
0
100
AcDbLine
 62
7
  6
CONTINUOUS
 10
-22.8234964209
 20
14.451172385
 11
-22.6234964209
 21
14.451172385
  0
LINE
  5
5A8
100
AcDbEntity
  8
RACCORDO
100
AcDbLine
 62
250
  6
CONTINUOUS
 10
-23.3147702177
 20
13.2008225374
 11
-20.2165154583
 21
13.1467422994
  0
LINE
  5
5A9
100
AcDbEntity
  8
RACCORDO
100
AcDbLine
 62
7
  6
CONTINUOUS
 10
-22.4304773835
 20
13.6853109962
 11
-20.2165154583
 21
13.646666147
  0
LWPOLYLINE
  5
5AA
100
AcDbEntity
  8
RACCORDO
100
AcDbPolyline
 62
250
  6
CONTINUOUS
 90
46
 70
0
 10
-22.4305960292
 20
13.6852395381
 10
-22.4443917436
 20
13.6857225975
 10
-22.4581625724
 20
13.6866813245
 10
-22.4718921148
 20
13.6881145771
 10
-22.4855640194
 20
13.6900206484
 10
-22.4991620034
 20
13.6923972683
 10
-22.5126698719
 20
13.6952416065
 10
-22.5260715376
 20
13.6985502752
 10
-22.5393510395
 20
13.7023193341
 10
-22.552492562
 20
13.7065442943
 10
-22.565480454
 20
13.7112201239
 10
-22.5782992473
 20
13.7163412543
 10
-22.5909336751
 20
13.7219015862
 10
-22.6033686902
 20
13.7278944976
 10
-22.615589483
 20
13.734312851
 10
-22.6275814987
 20
13.7411490024
 10
-22.6393304552
 20
13.7483948101
 10
-22.65082236
 20
13.7560416446
 10
-22.6620435264
 20
13.7640803987
 10
-22.6729805905
 20
13.7725014985
 10
-22.6836205265
 20
13.7812949148
 10
-22.6939506626
 20
13.7904501749
 10
-22.7039586958
 20
13.7999563751
 10
-22.713632707
 20
13.8098021938
 10
-22.7229611747
 20
13.819975905
 10
-22.7319329889
 20
13.830465392
 10
-22.7405374645
 20
13.8412581622
 10
-22.7487643538
 20
13.8523413618
 10
-22.7566038589
 20
13.863701791
 10
-22.7640466431
 20
13.8753259198
 10
-22.7710838423
 20
13.8871999043
 10
-22.7777070754
 20
13.899309603
 10
-22.7839084544
 20
13.9116405935
 10
-22.7896805935
 20
13.92417819
 10
-22.7950166184
 20
13.9369074606
 10
-22.799910174
 20
13.9498132451
 10
-22.8043554322
 20
13.9628801732
 10
-22.8083470989
 20
13.9760926824
 10
-22.8118804201
 20
13.9894350372
 10
-22.8149511877
 20
14.0028913472
 10
-22.8175557446
 20
14.0164455863
 10
-22.8196909887
 20
14.0300816118
 10
-22.8213543771
 20
14.0437831837
 10
-22.8225439287
 20
14.0575339838
 10
-22.8232582268
 20
14.0713176352
 10
-22.8234957149
 20
14.0843663568
  0
LINE
  5
5AB
100
AcDbEntity
  8
RACCORDO
100
AcDbLine
 62
250
  6
CONTINUOUS
 10
-22.9002999583
 20
8.0737330136
 11
-23.3147701296
 21
8.2991774641
  0
LINE
  5
5AC
100
AcDbEntity
  8
RACCORDO
100
AcDbLine
 62
250
  6
CONTINUOUS
 10
-22.452970275
 20
7.8279231101
 11
-22.9002999583
 21
8.0737330136
  0
LINE
  5
5AD
100
AcDbEntity
  8
RACCORDO
100
AcDbLine
 62
250
  6
CONTINUOUS
 10
-22.4424898585
 20
7.821952707
 11
-22.452970275
 21
7.8279231101
  0
LINE
  5
5AE
100
AcDbEntity
  8
RACCORDO
100
AcDbLine
 62
250
  6
CONTINUOUS
 10
-22.4304773835
 20
7.8146890038
 11
-22.4305960292
 21
7.8147604618
  0
LWPOLYLINE
  5
5AF
100
AcDbEntity
  8
RACCORDO
100
AcDbPolyline
 62
250
  6
CONTINUOUS
 90
9
 70
0
 10
-22.8234964209
 20
-2.5351177221
 10
-22.823590434
 20
-2.5346519536
 10
-22.8238726136
 20
-2.5338532828
 10
-22.8243431173
 20
-2.5327217096
 10
-22.8250003948
 20
-2.5312641703
 10
-22.8258452813
 20
-2.5294737288
 10
-22.8268850789
 20
-2.5273295757
 10
-22.828123654
 20
-2.5248390848
 10
-22.8312202517
 20
-2.5187540387
  0
LWPOLYLINE
  5
5B0
100
AcDbEntity
  8
RACCORDO
100
AcDbPolyline
 62
250
  6
CONTINUOUS
 90
29
 70
0
 10
-22.494128619
 20
-11.4744729876
 10
-22.5007964644
 20
-11.4158418472
 10
-22.5071229823
 20
-11.3577736361
 10
-22.5131644469
 20
-11.3000438723
 10
-22.5187169759
 20
-11.2428568947
 10
-22.5237422606
 20
-11.1863638583
 10
-22.5282786097
 20
-11.1304748704
 10
-22.5322370677
 20
-11.075030865
 10
-22.5355996927
 20
-11.0200914636
 10
-22.5383844267
 20
-10.9656453506
 10
-22.5405561393
 20
-10.9114223806
 10
-22.5421063286
 20
-10.85744538
 10
-22.5430434966
 20
-10.8037313895
 10
-22.5433580189
 20
-10.7499988959
 10
-22.5430434757
 20
-10.6962665073
 10
-22.542106287
 20
-10.6425527781
 10
-22.5405560875
 20
-10.5885761151
 10
-22.5383843767
 20
-10.5343535273
 10
-22.5355996552
 20
-10.4799078715
 10
-22.5322370597
 20
-10.424969015
 10
-22.5282786501
 20
-10.3695256421
 10
-22.5237423665
 20
-10.3136373719
 10
-22.5187171667
 20
-10.2571451472
 10
-22.5131647304
 20
-10.1999589503
 10
-22.507123378
 20
-10.1422300581
 10
-22.5007970281
 20
-10.0841631836
 10
-22.4941294761
 20
-10.0255344051
 10
-22.4871769267
 20
-9.9666362376
 10
-22.4668967033
 20
-9.7946540449
  0
LWPOLYLINE
  5
5B1
100
AcDbEntity
  8
RACCORDO
100
AcDbPolyline
 62
250
  6
CONTINUOUS
 90
12
 70
0
 10
-23.3122570015
 20
17.6186628928
 10
-23.3124295705
 20
17.6241767507
 10
-23.3126139855
 20
17.6291839256
 10
-23.3128100492
 20
17.6336790578
 10
-23.3130175517
 20
17.6376573356
 10
-23.3132362708
 20
17.6411145007
 10
-23.3134659725
 20
17.6440468524
 10
-23.313706411
 20
17.6464512519
 10
-23.3139573287
 20
17.6483251256
 10
-23.3142184572
 20
17.6496664676
 10
-23.3144895169
 20
17.6504738421
 10
-23.3147702177
 20
17.650746385
  0
LWPOLYLINE
  5
5B2
100
AcDbEntity
  8
RACCORDO
100
AcDbPolyline
 62
250
  6
CONTINUOUS
 90
12
 70
0
 10
-22.4304773835
 20
-12.1985716241
 10
-22.4308214066
 20
-12.157971126
 10
-22.4319528265
 20
-12.1152048357
 10
-22.4338716433
 20
-12.0702356812
 10
-22.436626247
 20
-12.0227200794
 10
-22.4401682476
 20
-11.9729258331
 10
-22.4443524743
 20
-11.9217599022
 10
-22.4492173435
 20
-11.8693940972
 10
-22.4547244388
 20
-11.8156490901
 10
-22.4606133413
 20
-11.7609426034
 10
-22.4668952966
 20
-11.7053582435
 10
-22.494128619
 20
-11.4744729876
  0
LINE
  5
5B3
100
AcDbEntity
  8
0
100
AcDbLine
 62
7
  6
CONTINUOUS
 10
-22.6234964209
 20
15.650746385
 11
-22.6234964209
 21
14.261271385
  0
LINE
  5
5B4
100
AcDbEntity
  8
ASSI
100
AcDbLine
 62
7
  6
CONTINUOUS
 10
-22.6234964209
 20
14.261271385
 11
-22.6234964209
 21
14.087588385
  0
LINE
  5
5B5
100
AcDbEntity
  8
0
100
AcDbLine
 62
7
  6
CONTINUOUS
 10
-22.6234964209
 20
14.087588385
 11
-22.6234964209
 21
13.7389012027
  0
LINE
  5
5B6
100
AcDbEntity
  8
0
100
AcDbLine
 62
7
  6
CONTINUOUS
 10
-22.6234964209
 20
7.7610987973
 11
-22.6234964209
 21
7.536121385
  0
LINE
  5
5B7
100
AcDbEntity
  8
ASSI
100
AcDbLine
 62
7
  6
CONTINUOUS
 10
-22.6234964209
 20
7.536121385
 11
-22.6234964209
 21
6.637461385
  0
LINE
  5
5B8
100
AcDbEntity
  8
0
100
AcDbLine
 62
7
  6
CONTINUOUS
 10
-22.6234964209
 20
6.637461385
 11
-22.6234964209
 21
6.441520385
  0
LINE
  5
5B9
100
AcDbEntity
  8
ASSI
100
AcDbLine
 62
7
  6
CONTINUOUS
 10
-22.6234964209
 20
6.441520385
 11
-22.6234964209
 21
6.328853385
  0
LINE
  5
5BA
100
AcDbEntity
  8
0
100
AcDbLine
 62
7
  6
CONTINUOUS
 10
-22.6234964209
 20
6.231484385
 11
-22.6234964209
 21
5.054094385
  0
LINE
  5
5BB
100
AcDbEntity
  8
ASSI
100
AcDbLine
 62
7
  6
CONTINUOUS
 10
-22.6234964209
 20
5.054094385
 11
-22.6234964209
 21
4.997548385
  0
LINE
  5
5BC
100
AcDbEntity
  8
0
100
AcDbLine
 62
7
  6
CONTINUOUS
 10
-22.6234964209
 20
4.997548385
 11
-22.6234964209
 21
3.7889012027
  0
LINE
  5
5BD
100
AcDbEntity
  8
RACCORDO
100
AcDbLine
 62
250
  6
CONTINUOUS
 10
-22.4304773835
 20
-13.6853109962
 11
-22.4304773835
 21
-12.1985716241
  0
LINE
  5
5BE
100
AcDbEntity
  8
RACCORDO
100
AcDbLine
 62
250
  6
CONTINUOUS
 10
-22.4304773835
 20
-9.3014283759
 11
-22.4304773835
 21
-7.8146890038
  0
LWPOLYLINE
  5
5BF
100
AcDbEntity
  8
RACCORDO
100
AcDbPolyline
 62
250
  6
CONTINUOUS
 90
9
 70
0
 10
-22.8369478439
 20
-9.5392275351
 10
-22.8339104418
 20
-9.4781539637
 10
-22.8312066019
 20
-9.4186401862
 10
-22.828853245
 20
-9.3605214272
 10
-22.8268913916
 20
-9.3039624619
 10
-22.8253835896
 20
-9.2499391536
 10
-22.8243289673
 20
-9.1987767901
 10
-22.8237029843
 20
-9.1501500835
 10
-22.8234964209
 20
-9.1040590339
  0
LINE
  5
5C0
100
AcDbEntity
  8
RACCORDO
100
AcDbLine
 62
250
  6
CONTINUOUS
 10
-22.8437415161
 20
-9.664540716
 11
-22.8369478439
 21
-9.5392275351
  0
LINE
  5
5C1
100
AcDbEntity
  8
RACCORDO
100
AcDbLine
 62
250
  6
CONTINUOUS
 10
-22.866097852
 20
-10.0594559669
 11
-22.8588421129
 21
-9.9268998899
  0
LINE
  5
5C2
100
AcDbEntity
  8
RACCORDO
100
AcDbLine
 62
250
  6
CONTINUOUS
 10
-22.8588421129
 20
-9.9268998899
 11
-22.8437415161
 21
-9.664540716
  0
LWPOLYLINE
  5
5C3
100
AcDbEntity
  8
RACCORDO
100
AcDbPolyline
 62
250
  6
CONTINUOUS
 90
11
 70
0
 10
-22.4668967033
 20
-9.7946540449
 10
-22.4606146078
 20
-9.7390687844
 10
-22.4547254689
 20
-9.6843604294
 10
-22.4492180714
 20
-9.6306130243
 10
-22.4443529768
 20
-9.5782458009
 10
-22.4401686872
 20
-9.5270806499
 10
-22.4366267005
 20
-9.4772880952
 10
-22.4338720713
 20
-9.4297728707
 10
-22.4319531511
 20
-9.3848020871
 10
-22.4308215885
 20
-9.342032935
 10
-22.4304773835
 20
-9.3014283759
  0
LINE
  5
5C4
100
AcDbEntity
  8
0
100
AcDbLine
 62
7
  6
CONTINUOUS
 10
-22.8234964209
 20
14.859067385
 11
-22.6234964209
 21
14.859067385
  0
LINE
  5
5C5
100
AcDbEntity
  8
0
100
AcDbLine
 62
7
  6
CONTINUOUS
 10
-22.8234964209
 20
15.052948385
 11
-22.6234964209
 21
15.052948385
  0
LINE
  5
5C6
100
AcDbEntity
  8
0
100
AcDbLine
 62
7
  6
CONTINUOUS
 10
-22.8234964209
 20
15.460921385
 11
-22.6234964209
 21
15.460921385
  0
LINE
  5
5C7
100
AcDbEntity
  8
0
100
AcDbLine
 62
7
  6
CONTINUOUS
 10
-22.8234964209
 20
15.650746385
 11
-22.6234964209
 21
15.650746385
  0
LINE
  5
5C8
100
AcDbEntity
  8
RACCORDO
100
AcDbLine
 62
250
  6
CONTINUOUS
 10
-54.2472577483
 20
16.7552054488
 11
-54.4895375045
 21
16.7649150716
  0
LWPOLYLINE
  5
5C9
100
AcDbEntity
  8
RACCORDO
100
AcDbPolyline
 62
250
  6
CONTINUOUS
 90
4
 70
0
 10
-54.4895375045
 20
16.7649150716
 10
-54.4919084365
 20
16.7650222927
 10
-54.4925022113
 20
16.7650525826
 10
-54.4927000606
 20
16.765067253
  0
LWPOLYLINE
  5
5CA
100
AcDbEntity
  8
RACCORDO
100
AcDbPolyline
 62
250
  6
CONTINUOUS
 90
8
 70
0
 10
-22.4305960292
 20
7.8147604618
 10
-22.4308967848
 20
7.8150155104
 10
-22.4315337007
 20
7.8154528756
 10
-22.4325068425
 20
7.8160726516
 10
-22.4338096568
 20
7.8168729801
 10
-22.4354488089
 20
7.8178548793
 10
-22.4374442608
 20
7.8190263164
 10
-22.4424898585
 20
7.821952707
  0
LWPOLYLINE
  5
5CB
100
AcDbEntity
  8
RACCORDO
100
AcDbPolyline
 62
7
  6
CONTINUOUS
 90
34
 70
0
 10
-33.8322226241
 20
17.334405352
 10
-33.8680615932
 20
17.3700739965
 10
-33.9024934628
 20
17.4050203023
 10
-33.935518233
 20
17.4392442694
 10
-33.9672347522
 20
17.4727669486
 10
-33.9975441719
 20
17.5055672892
 10
-34.0261499467
 20
17.5375821388
 10
-34.0529322232
 20
17.568781999
 10
-34.0780108547
 20
17.5991963682
 10
-34.1014488557
 20
17.6288505901
 10
-34.1231889093
 20
17.6577163394
 10
-34.1432883323
 20
17.6858219415
 10
-34.1619820893
 20
17.7132777159
 10
-34.1792654167
 20
17.7400730318
 10
-34.1951430781
 20
17.7662185201
 10
-34.2098643293
 20
17.7918563931
 10
-34.2234460156
 20
17.8169885072
 10
-34.2358712916
 20
17.841613006
 10
-34.247338877
 20
17.8658665336
 10
-34.2578747522
 20
17.8897766721
 10
-34.2674529368
 20
17.9133158394
 10
-34.2761942094
 20
17.9365379323
 10
-34.284106872
 20
17.9594391264
 10
-34.2911826226
 20
17.9820232461
 10
-34.2975173339
 20
18.0043556615
 10
-34.3031226671
 20
18.0264487852
 10
-34.3079869611
 20
18.0482902046
 10
-34.3121711048
 20
18.0699080518
 10
-34.3156812527
 20
18.0912991569
 10
-34.3185112503
 20
18.1124666898
 10
-34.3207035234
 20
18.1334482927
 10
-34.3222722138
 20
18.1542565128
 10
-34.3232031796
 20
18.1748788028
 10
-34.3234964209
 20
18.1953151628
  0
LWPOLYLINE
  5
5CC
100
AcDbEntity
  8
RACCORDO
100
AcDbPolyline
 62
250
  6
CONTINUOUS
 90
11
 70
0
 10
-20.2165154583
 20
3.696666147
 10
-20.2163039746
 20
3.6964253668
 10
-20.2160992138
 20
3.6957107536
 10
-20.2159014184
 20
3.6945229898
 10
-20.2157108631
 20
3.6928632092
 10
-20.2155277333
 20
3.6907329883
 10
-20.2153521251
 20
3.6881343386
 10
-20.2151842469
 20
3.685069717
 10
-20.2150242974
 20
3.6815420331
 10
-20.214872344
 20
3.6775546364
 10
-20.2147285569
 20
3.6731113122
  0
LINE
  5
5CD
100
AcDbEntity
  8
RACCORDO
100
AcDbLine
 62
250
  6
CONTINUOUS
 10
-23.2919666083
 20
8.2586879165
 11
-23.3147702177
 21
8.2991773745
  0
LINE
  5
5CE
100
AcDbEntity
  8
RACCORDO
100
AcDbLine
 62
250
  6
CONTINUOUS
 10
-23.2027105272
 20
8.1005254567
 11
-23.2919666083
 21
8.2586879165
  0
LINE
  5
5CF
100
AcDbEntity
  8
RACCORDO
100
AcDbLine
 62
250
  6
CONTINUOUS
 10
-22.9894939664
 20
7.7199590886
 11
-23.2027105272
 21
8.1005254567
  0
LINE
  5
5D0
100
AcDbEntity
  8
RACCORDO
100
AcDbLine
 62
250
  6
CONTINUOUS
 10
-22.8462433816
 20
7.4597144285
 11
-22.9894939664
 21
7.7199590886
  0
LINE
  5
5D1
100
AcDbEntity
  8
RACCORDO
100
AcDbLine
 62
250
  6
CONTINUOUS
 10
-22.8375604351
 20
7.4433912697
 11
-22.8462433816
 21
7.4597144285
  0
LWPOLYLINE
  5
5D2
100
AcDbEntity
  8
RACCORDO
100
AcDbPolyline
 62
250
  6
CONTINUOUS
 90
3
 70
0
 10
-22.8312202517
 20
7.4312459613
 10
-22.8330980898
 20
7.4348752347
 10
-22.8375604351
 20
7.4433912697
  0
LWPOLYLINE
  5
5D3
100
AcDbEntity
  8
RACCORDO
100
AcDbPolyline
 62
250
  6
CONTINUOUS
 90
9
 70
0
 10
-22.8234964209
 20
7.4148822779
 10
-22.823590434
 20
7.4153480464
 10
-22.8238726136
 20
7.4161467172
 10
-22.8243431173
 20
7.4172782904
 10
-22.8250003948
 20
7.4187358297
 10
-22.8258452813
 20
7.4205262712
 10
-22.8268850789
 20
7.4226704243
 10
-22.828123654
 20
7.4251609152
 10
-22.8312202517
 20
7.4312459613
  0
LINE
  5
5D4
100
AcDbEntity
  8
RACCORDO
100
AcDbLine
 62
250
  6
CONTINUOUS
 10
-20.2147285569
 20
3.6731113122
 11
-20.21446609
 21
3.6628741602
  0
LINE
  5
5D5
100
AcDbEntity
  8
RACCORDO
100
AcDbLine
 62
250
  6
CONTINUOUS
 10
-20.2147285569
 20
13.6231113122
 11
-20.21446609
 21
13.6128741602
  0
LINE
  5
5D6
100
AcDbEntity
  8
RACCORDO
100
AcDbLine
 62
250
  6
CONTINUOUS
 10
-20.21446609
 20
3.6628741602
 11
-20.2142378625
 21
3.6508694043
  0
LINE
  5
5D7
100
AcDbEntity
  8
RACCORDO
100
AcDbLine
 62
250
  6
CONTINUOUS
 10
-20.21446609
 20
13.6128741602
 11
-20.2142378625
 21
13.6008694043
  0
LINE
  5
5D8
100
AcDbEntity
  8
RACCORDO
100
AcDbLine
 62
250
  6
CONTINUOUS
 10
-20.2165154583
 20
-1.5967422994
 11
-20.2151842422
 21
-1.7036782072
  0
LINE
  5
5D9
100
AcDbEntity
  8
RACCORDO
100
AcDbLine
 62
250
  6
CONTINUOUS
 10
-20.2165154583
 20
8.3532577006
 11
-20.2151842422
 21
8.2463217928
  0
LINE
  5
5DA
100
AcDbEntity
  8
RACCORDO
100
AcDbLine
 62
250
  6
CONTINUOUS
 10
-20.2142378625
 20
3.6508694043
 11
-20.2139615689
 21
3.6296493224
  0
LINE
  5
5DB
100
AcDbEntity
  8
RACCORDO
100
AcDbLine
 62
250
  6
CONTINUOUS
 10
-20.2142378625
 20
13.6008694043
 11
-20.2139615689
 21
13.5796493224
  0
LINE
  5
5DC
100
AcDbEntity
  8
RACCORDO
100
AcDbLine
 62
250
  6
CONTINUOUS
 10
-20.2151842422
 20
-1.7036782072
 11
-20.2142378555
 21
-1.8056628717
  0
LINE
  5
5DD
100
AcDbEntity
  8
RACCORDO
100
AcDbLine
 62
250
  6
CONTINUOUS
 10
-20.2151842422
 20
8.2463217928
 11
-20.2142378555
 21
8.1443371283
  0
LINE
  5
5DE
100
AcDbEntity
  8
RACCORDO
100
AcDbLine
 62
250
  6
CONTINUOUS
 10
-20.2139615689
 20
3.6296493224
 11
-20.2137199743
 21
3.5956482679
  0
LINE
  5
5DF
100
AcDbEntity
  8
RACCORDO
100
AcDbLine
 62
250
  6
CONTINUOUS
 10
-20.2139615689
 20
13.5796493224
 11
-20.2137199743
 21
13.5456482679
  0
LINE
  5
5E0
100
AcDbEntity
  8
RACCORDO
100
AcDbLine
 62
250
  6
CONTINUOUS
 10
-20.2142378555
 20
-1.8056628717
 11
-20.2137665849
 21
-1.8855486364
  0
LINE
  5
5E1
100
AcDbEntity
  8
RACCORDO
100
AcDbLine
 62
250
  6
CONTINUOUS
 10
-20.2142378555
 20
8.1443371283
 11
-20.2137665849
 21
8.0644513636
  0
LINE
  5
5E2
100
AcDbEntity
  8
RACCORDO
100
AcDbLine
 62
250
  6
CONTINUOUS
 10
-20.2165154583
 20
13.1467422994
 11
-20.2165154583
 21
8.3532577006
  0
LINE
  5
5E3
100
AcDbEntity
  8
RACCORDO
100
AcDbLine
 62
250
  6
CONTINUOUS
 10
-20.2165154583
 20
3.1967422994
 11
-20.2165154583
 21
-1.5967422994
  0
LINE
  5
5E4
100
AcDbEntity
  8
RACCORDO
100
AcDbLine
 62
250
  6
CONTINUOUS
 10
-20.2165154583
 20
-7.853333853
 11
-20.2165154583
 21
-13.646666147
  0
LINE
  5
5E5
100
AcDbEntity
  8
RACCORDO
100
AcDbLine
 62
250
  6
CONTINUOUS
 10
-20.2137199743
 20
13.5456482679
 11
-20.2136265181
 21
13.4947153054
  0
LINE
  5
5E6
100
AcDbEntity
  8
RACCORDO
100
AcDbLine
 62
250
  6
CONTINUOUS
 10
-20.2137665849
 20
8.0644513636
 11
-20.2136265186
 21
7.9943978572
  0
LINE
  5
5E7
100
AcDbEntity
  8
RACCORDO
100
AcDbLine
 62
250
  6
CONTINUOUS
 10
-20.2137199743
 20
3.5956482679
 11
-20.2136265181
 21
3.5447153054
  0
LINE
  5
5E8
100
AcDbEntity
  8
RACCORDO
100
AcDbLine
 62
250
  6
CONTINUOUS
 10
-20.2137665849
 20
-1.8855486364
 11
-20.2136265186
 21
-1.9556021428
  0
LINE
  5
5E9
100
AcDbEntity
  8
RACCORDO
100
AcDbLine
 62
7
  6
CONTINUOUS
 10
-19.8234964209
 20
13.2467270689
 11
-19.8234964209
 21
8.2532729311
  0
LINE
  5
5EA
100
AcDbEntity
  8
RACCORDO
100
AcDbLine
 62
7
  6
CONTINUOUS
 10
-19.8234964209
 20
3.2967270689
 11
-19.8234964209
 21
-1.6967270689
  0
LINE
  5
5EB
100
AcDbEntity
  8
RACCORDO
100
AcDbLine
 62
7
  6
CONTINUOUS
 10
-19.8234964209
 20
-8.2532729311
 11
-19.8234964209
 21
-13.2467270689
  0
LINE
  5
5EC
100
AcDbEntity
  8
RACCORDO
100
AcDbLine
 62
250
  6
CONTINUOUS
 10
-20.2136265181
 20
13.4947153054
 11
-20.2138224156
 21
13.4228473712
  0
LINE
  5
5ED
100
AcDbEntity
  8
RACCORDO
100
AcDbLine
 62
250
  6
CONTINUOUS
 10
-20.2136265181
 20
3.5447153054
 11
-20.2138224156
 21
3.4728473712
  0
LINE
  5
5EE
100
AcDbEntity
  8
RACCORDO
100
AcDbLine
 62
250
  6
CONTINUOUS
 10
-20.2136265186
 20
7.9943978572
 11
-20.2137665897
 21
7.9452629867
  0
LINE
  5
5EF
100
AcDbEntity
  8
RACCORDO
100
AcDbLine
 62
250
  6
CONTINUOUS
 10
-20.2136265186
 20
-1.9556021428
 11
-20.2137665897
 21
-2.0047370133
  0
LINE
  5
5F0
100
AcDbEntity
  8
RACCORDO
100
AcDbLine
 62
250
  6
CONTINUOUS
 10
-20.2138224156
 20
13.4228473712
 11
-20.214466083
 21
13.3273114835
  0
LINE
  5
5F1
100
AcDbEntity
  8
RACCORDO
100
AcDbLine
 62
250
  6
CONTINUOUS
 10
-20.2138224156
 20
3.4728473712
 11
-20.214466083
 21
3.3773114835
  0
LINE
  5
5F2
100
AcDbEntity
  8
RACCORDO
100
AcDbLine
 62
250
  6
CONTINUOUS
 10
-20.2137665897
 20
7.9452629867
 11
-20.2139615689
 21
7.9203506776
  0
LINE
  5
5F3
100
AcDbEntity
  8
RACCORDO
100
AcDbLine
 62
250
  6
CONTINUOUS
 10
-20.2137665897
 20
-2.0047370133
 11
-20.2139615689
 21
-2.0296493224
  0
LINE
  5
5F4
100
AcDbEntity
  8
RACCORDO
100
AcDbLine
 62
250
  6
CONTINUOUS
 10
-20.214466083
 20
13.3273114835
 11
-20.215527728
 21
13.2234162607
  0
LINE
  5
5F5
100
AcDbEntity
  8
RACCORDO
100
AcDbLine
 62
250
  6
CONTINUOUS
 10
-20.214466083
 20
3.3773114835
 11
-20.215527728
 21
3.2734162607
  0
LINE
  5
5F6
100
AcDbEntity
  8
RACCORDO
100
AcDbLine
 62
250
  6
CONTINUOUS
 10
-20.215527728
 20
13.2234162607
 11
-20.2165154583
 21
13.1467422994
  0
LINE
  5
5F7
100
AcDbEntity
  8
RACCORDO
100
AcDbLine
 62
250
  6
CONTINUOUS
 10
-20.215527728
 20
3.2734162607
 11
-20.2165154583
 21
3.1967422994
  0
LINE
  5
5F8
100
AcDbEntity
  8
RACCORDO
100
AcDbLine
 62
250
  6
CONTINUOUS
 10
-20.2139615689
 20
7.9203506776
 11
-20.2142378625
 21
7.8991305957
  0
LINE
  5
5F9
100
AcDbEntity
  8
RACCORDO
100
AcDbLine
 62
250
  6
CONTINUOUS
 10
-20.2139615689
 20
-2.0296493224
 11
-20.2142378625
 21
-2.0508694043
  0
LINE
  5
5FA
100
AcDbEntity
  8
RACCORDO
100
AcDbLine
 62
250
  6
CONTINUOUS
 10
-20.2142378625
 20
7.8991305957
 11
-20.21446609
 21
7.8871258398
  0
LINE
  5
5FB
100
AcDbEntity
  8
RACCORDO
100
AcDbLine
 62
250
  6
CONTINUOUS
 10
-20.2142378625
 20
-2.0508694043
 11
-20.21446609
 21
-2.0628741602
  0
LWPOLYLINE
  5
5FC
100
AcDbEntity
  8
RACCORDO
100
AcDbPolyline
 62
250
  6
CONTINUOUS
 90
12
 70
0
 10
-20.21446609
 20
7.8871258398
 10
-20.2147285569
 20
7.8768886878
 10
-20.214872344
 20
7.8724453636
 10
-20.2150242974
 20
7.8684579669
 10
-20.2151842469
 20
7.864930283
 10
-20.2153521251
 20
7.8618656614
 10
-20.2155277333
 20
7.8592670117
 10
-20.2157108631
 20
7.8571367908
 10
-20.2159014184
 20
7.8554770102
 10
-20.2160992138
 20
7.8542892464
 10
-20.2163039746
 20
7.8535746332
 10
-20.2165154583
 20
7.853333853
  0
LWPOLYLINE
  5
5FD
100
AcDbEntity
  8
RACCORDO
100
AcDbPolyline
 62
250
  6
CONTINUOUS
 90
12
 70
0
 10
-20.21446609
 20
-2.0628741602
 10
-20.2147285569
 20
-2.0731113122
 10
-20.214872344
 20
-2.0775546364
 10
-20.2150242974
 20
-2.0815420331
 10
-20.2151842469
 20
-2.085069717
 10
-20.2153521251
 20
-2.0881343386
 10
-20.2155277333
 20
-2.0907329883
 10
-20.2157108631
 20
-2.0928632092
 10
-20.2159014184
 20
-2.0945229898
 10
-20.2160992138
 20
-2.0957107536
 10
-20.2163039746
 20
-2.0964253668
 10
-20.2165154583
 20
-2.096666147
  0
LINE
  5
5FE
100
AcDbEntity
  8
RACCORDO
100
AcDbLine
 62
250
  6
CONTINUOUS
 10
-22.8234964209
 20
17.1508225374
 11
-23.3147702177
 21
17.1508225374
  0
LINE
  5
5FF
100
AcDbEntity
  8
RACCORDO
100
AcDbLine
 62
250
  6
CONTINUOUS
 10
-23.3147702177
 20
17.1508225374
 11
-33.8322226241
 21
17.334405352
  0
LINE
  5
600
100
AcDbEntity
  8
RACCORDO
100
AcDbLine
 62
7
  6
CONTINUOUS
 10
-23.3147702177
 20
17.650746385
 11
-33.8322226241
 21
17.8343291996
  0
LWPOLYLINE
  5
601
100
AcDbEntity
  8
RACCORDO
100
AcDbPolyline
 62
250
  6
CONTINUOUS
 90
14
 70
0
 10
-28.3933060466
 20
-17.7393925576
 10
-28.3930253459
 20
-17.7391200147
 10
-28.3927542861
 20
-17.7383126402
 10
-28.3924931577
 20
-17.7369712981
 10
-28.3922422399
 20
-17.7350974244
 10
-28.3920018015
 20
-17.7326930248
 10
-28.3917720998
 20
-17.7297606731
 10
-28.3915533806
 20
-17.726303508
 10
-28.3913458781
 20
-17.7223252301
 10
-28.3911498144
 20
-17.7178300978
 10
-28.3909653994
 20
-17.7128229228
 10
-28.3907928305
 20
-17.7073090648
 10
-28.3906322923
 20
-17.7012944259
 10
-28.3903479827
 20
-17.6877890869
  0
LWPOLYLINE
  5
602
100
AcDbEntity
  8
RACCORDO
100
AcDbPolyline
 62
250
  6
CONTINUOUS
 90
52
 70
0
 10
-53.6280776399
 20
17.4642258507
 10
-53.6476979645
 20
17.4604954795
 10
-53.6671861065
 20
17.4562513251
 10
-53.6865420661
 20
17.4514933873
 10
-53.705779752
 20
17.446217509
 10
-53.7248852553
 20
17.4404278475
 10
-53.7438168497
 20
17.4341368744
 10
-53.7625738255
 20
17.4273435706
 10
-53.7811568924
 20
17.4200489553
 10
-53.7995264526
 20
17.4122685581
 10
-53.8176819928
 20
17.4040013595
 10
-53.8356240264
 20
17.3952483791
 10
-53.8533144957
 20
17.3860282054
 10
-53.8707528329
 20
17.3763398721
 10
-53.8879396058
 20
17.3661843456
 10
-53.904838461
 20
17.3555831128
 10
-53.9214488445
 20
17.3445351919
 10
-53.9377713103
 20
17.3330415648
 10
-53.9537711665
 20
17.3211266647
 10
-53.9694477
 20
17.3087896132
 10
-53.9848016238
 20
17.2960312886
 10
-53.9998003847
 20
17.2828787593
 10
-54.0144432393
 20
17.2693311761
 10
-54.028730931
 20
17.2553893882
 10
-54.0426331366
 20
17.241083012
 10
-54.0561490077
 20
17.2264113087
 10
-54.0692793927
 20
17.2113750171
 10
-54.0819965131
 20
17.1960059703
 10
-54.0942995195
 20
17.1803034319
 10
-54.1061892613
 20
17.1642681383
 10
-54.1176405073
 20
17.1479341326
 10
-54.1286523156
 20
17.1313007952
 10
-54.1392256281
 20
17.1143687457
 10
-54.1493380392
 20
17.097173886
 10
-54.1589885834
 20
17.0797156289
 10
-54.1681782263
 20
17.0619945617
 10
-54.1768874576
 20
17.0440483485
 10
-54.1851152304
 20
17.0258765738
 10
-54.1928625917
 20
17.0074796532
 10
-54.2001131733
 20
16.9888964962
 10
-54.2068659421
 20
16.9701266743
 10
-54.2131219311
 20
16.9511706162
 10
-54.2188678713
 20
16.9320685178
 10
-54.2241026837
 20
16.9128200061
 10
-54.2288274474
 20
16.8934254542
 10
-54.2330321299
 20
16.8739261764
 10
-54.2367156358
 20
16.8543214423
 10
-54.2398790607
 20
16.8346119824
 10
-54.2425156589
 20
16.8148413025
 10
-54.244623182
 20
16.7950239046
 10
-54.2462038785
 20
16.7751452867
 10
-54.2472577483
 20
16.7552054488
  0
LINE
  5
603
100
AcDbEntity
  8
RACCORDO
100
AcDbLine
 62
250
  6
CONTINUOUS
 10
-50.3234964209
 20
18.0469126796
 11
-53.6280776399
 21
17.4642258507
  0
LINE
  5
604
100
AcDbEntity
  8
RACCORDO
100
AcDbLine
 62
7
  6
CONTINUOUS
 10
-50.3234964209
 20
18.3
 11
-53.6671265827
 21
17.710427789
  0
LINE
  5
605
100
AcDbEntity
  8
RACCORDO
100
AcDbLine
 62
7
  6
CONTINUOUS
 10
-50.3234964209
 20
18.8
 11
-50.8234964209
 21
18.8
  0
LINE
  5
606
100
AcDbEntity
  8
SMUSSO
100
AcDbLine
 62
7
  6
CONTINUOUS
 10
-43.3234964209
 20
19.4434092398
 11
-34.3234964209
 21
19.2863136555
  0
LINE
  5
607
100
AcDbEntity
  8
DRAFT
100
AcDbLine
 62
7
  6
CONTINUOUS
 10
-43.3234964209
 20
19.5
 11
-45.5234964209
 21
19.5384011428
  0
LWPOLYLINE
  5
608
100
AcDbEntity
  8
0
100
AcDbPolyline
 62
7
  6
CONTINUOUS
 90
10
 70
0
 43
0.3500000006
 10
-31.8163538589
 20
34.2500010681
 10
-31.744924942
 20
34.1071432343
 10
-31.744924942
 20
34.0357120514
 10
-31.8877827759
 20
33.8928587494
 10
-31.9592116928
 20
33.8928587494
 10
-32.0306383438
 20
33.9642854004
 10
-32.0306383438
 20
34.0357120514
 10
-31.9592116928
 20
34.1785698853
 10
-31.8877827759
 20
34.2500010681
 10
-31.8163538589
 20
34.2500010681
  0
LWPOLYLINE
  5
609
100
AcDbEntity
  8
RACCORDO
100
AcDbPolyline
 62
250
  6
CONTINUOUS
 90
14
 70
0
 10
-23.3147702177
 20
-17.650746385
 10
-23.3144895169
 20
-17.6504738421
 10
-23.3142184572
 20
-17.6496664676
 10
-23.3139573287
 20
-17.6483251256
 10
-23.313706411
 20
-17.6464512519
 10
-23.3134659725
 20
-17.6440468524
 10
-23.3132362708
 20
-17.6411145007
 10
-23.3130175517
 20
-17.6376573356
 10
-23.3128100492
 20
-17.6336790578
 10
-23.3126139855
 20
-17.6291839256
 10
-23.3124295705
 20
-17.6241767507
 10
-23.3122570015
 20
-17.6186628928
 10
-23.3120964634
 20
-17.612648254
 10
-23.3118121537
 20
-17.5991429152
  0
LINE
  5
60A
100
AcDbEntity
  8
0
100
AcDbLine
 62
7
  6
CONTINUOUS
 10
-44.2166283386
 20
-24.5853169549
 11
-40.1069453296
 21
-23.25
  0
LINE
  5
60B
100
AcDbEntity
  8
0
100
AcDbLine
 62
7
  6
CONTINUOUS
 10
-44.0930215409
 20
-24.9657395614
 11
-38.8125181386
 21
-23.25
  0
LINE
  5
60C
100
AcDbEntity
  8
RACCORDO
100
AcDbLine
 62
250
  6
CONTINUOUS
 10
-40.8185608865
 20
20.8413478222
 11
-43.3234964209
 21
20.7976240098
  0
LINE
  5
60D
100
AcDbEntity
  8
RACCORDO
100
AcDbLine
 62
7
  6
CONTINUOUS
 10
-40.8234964209
 20
20.9
 11
-43.3234964209
 21
20.8563623377
  0
LINE
  5
60E
100
AcDbEntity
  8
ASSI
100
AcDbLine
 62
7
  6
CONTINUOUS
 10
-34.3234964209
 20
21.0570955844
 11
-43.3234964209
 21
20.9
  0
LINE
  5
60F
100
AcDbEntity
  8
ASSI
100
AcDbLine
 62
7
  6
CONTINUOUS
 10
-43.3234964209
 20
21.6
 11
-35.3060440145
 21
21.7399451523
  0
LINE
  5
610
100
AcDbEntity
  8
RACCORDO
100
AcDbLine
 62
250
  6
CONTINUOUS
 10
-50.5778595225
 20
22.3381099959
 11
-50.8234964209
 21
22.3381099959
  0
LINE
  5
611
100
AcDbEntity
  8
RACCORDO
100
AcDbLine
 62
250
  6
CONTINUOUS
 10
-34.352672343
 20
22.5
 11
-34.3234964209
 21
22.5
  0
LINE
  5
612
100
AcDbEntity
  8
RACCORDO
100
AcDbLine
 62
250
  6
CONTINUOUS
 10
-34.3234964209
 20
20.7279760502
 11
-40.8185608865
 21
20.8413478222
  0
LINE
  5
613
100
AcDbEntity
  8
RACCORDO
100
AcDbLine
 62
7
  6
CONTINUOUS
 10
-34.3234964209
 20
20.786542078
 11
-40.8234964209
 21
20.9
  0
LINE
  5
614
100
AcDbEntity
  8
RACCORDO
100
AcDbLine
 62
250
  6
CONTINUOUS
 10
-45.5234964209
 20
22.2498857598
 11
-50.5778595225
 21
22.3381099959
  0
LINE
  5
615
100
AcDbEntity
  8
RACCORDO
100
AcDbLine
 62
7
  6
CONTINUOUS
 10
-45.5234964209
 20
22.5
 11
-50.5691333193
 21
22.5880719197
  0
LINE
  5
616
100
AcDbEntity
  8
0
100
AcDbLine
 62
7
  6
CONTINUOUS
 10
-44.2166283386
 20
24.5853169549
 11
-40.1069453296
 21
23.25
  0
LINE
  5
617
100
AcDbEntity
  8
0
100
AcDbLine
 62
7
  6
CONTINUOUS
 10
-44.0930215409
 20
24.9657395614
 11
-38.8125181386
 21
23.25
  0
LWPOLYLINE
  5
618
100
AcDbEntity
  8
RACCORDO
100
AcDbPolyline
 62
250
  6
CONTINUOUS
 90
11
 70
0
 10
-20.2165154583
 20
13.646666147
 10
-20.2163039746
 20
13.6464253668
 10
-20.2160992138
 20
13.6457107536
 10
-20.2159014184
 20
13.6445229898
 10
-20.2157108631
 20
13.6428632092
 10
-20.2155277333
 20
13.6407329883
 10
-20.2153521251
 20
13.6381343386
 10
-20.2151842469
 20
13.635069717
 10
-20.2150242974
 20
13.6315420331
 10
-20.214872344
 20
13.6275546364
 10
-20.2147285569
 20
13.6231113122
  0
LINE
  5
619
100
AcDbEntity
  8
RACCORDO
100
AcDbLine
 62
7
  6
CONTINUOUS
 10
-35.0734964209
 20
23.25
 11
-46.3234964209
 21
23.25
  0
LINE
  5
61A
100
AcDbEntity
  8
RACCORDO
100
AcDbLine
 62
250
  6
CONTINUOUS
 10
-45.5234964209
 20
23.8174311485
 11
-45.1234964209
 21
23.8174311485
  0
LINE
  5
61B
100
AcDbEntity
  8
0
100
AcDbLine
 62
7
  6
CONTINUOUS
 10
-45.1234964209
 20
24.0
 11
-45.5234964209
 21
24.0
  0
LINE
  5
61C
100
AcDbEntity
  8
0
100
AcDbLine
 62
250
  6
CONTINUOUS
 10
-45.1234964209
 20
24.3
 11
-45.5234964209
 21
24.3
  0
LINE
  5
61D
100
AcDbEntity
  8
0
100
AcDbLine
 62
7
  6
CONTINUOUS
 10
-44.8234964209
 20
24.6
 11
-44.3093334369
 21
24.6
  0
LINE
  5
61E
100
AcDbEntity
  8
0
100
AcDbLine
 62
7
  6
CONTINUOUS
 10
-44.8234964209
 20
25.0
 11
-44.3093334369
 21
25.0
  0
LWPOLYLINE
  5
61F
100
AcDbEntity
  8
0
100
AcDbPolyline
 62
7
  6
CONTINUOUS
 90
8
 70
0
 43
0.3500000006
 10
-34.6020680237
 20
33.7500009155
 10
-33.7449255524
 20
33.7500009155
 10
-33.3163543167
 20
34.1785698853
 10
-33.3163543167
 20
35.0357123566
 10
-33.7449255524
 20
35.4642858582
 10
-34.6020680237
 20
35.4642858582
 10
-34.6020680237
 20
36.7500018311
 10
-33.3163543167
 20
36.7500018311
  0
LWPOLYLINE
  5
620
100
AcDbEntity
  8
0
100
AcDbPolyline
 62
7
  6
CONTINUOUS
 90
7
 70
0
 43
0.3500000006
 10
-35.459210495
 20
33.7500009155
 10
-36.9592109528
 20
33.7500009155
 10
-35.459210495
 20
35.8928593597
 10
-35.459210495
 20
36.3214283295
 10
-35.8877817307
 20
36.7500018311
 10
-36.5306397171
 20
36.7500018311
 10
-36.9592109528
 20
36.1071438446
  0
LWPOLYLINE
  5
621
100
AcDbEntity
  8
0
100
AcDbPolyline
 62
7
  6
CONTINUOUS
 90
6
 70
0
 43
0.3500000006
 10
-39.4663539276
 20
43.7499994354
 10
-38.3949269714
 20
43.7499994354
 10
-38.1806379547
 20
43.9642839203
 10
-38.1806379547
 20
45.0357154083
 10
-38.6092114563
 20
45.4642843781
 10
-39.037780426
 20
45.4642843781
  0
LWPOLYLINE
  5
622
100
AcDbEntity
  8
0
100
AcDbPolyline
 62
7
  6
CONTINUOUS
 90
8
 70
0
 43
0.3500000006
 10
-37.3234954834
 20
43.7499994354
 10
-36.4663530121
 20
43.7499994354
 10
-36.0377817764
 20
44.178572937
 10
-36.0377817764
 20
45.0357154083
 10
-36.4663530121
 20
45.4642843781
 10
-37.3234954834
 20
45.4642843781
 10
-37.3234954834
 20
46.750000351
 10
-36.0377817764
 20
46.750000351
  0
ARC
  5
623
100
AcDbEntity
  8
0
100
AcDbCircle
 62
7
  6
CONTINUOUS
 10
-2.9240383034
 20
-1.1
 40
1.0
100
AcDbArc
 50
35.6853347127
 51
79.7939493486
  0
ARC
  5
624
100
AcDbEntity
  8
RACCORDO
100
AcDbCircle
 62
7
  6
CONTINUOUS
 10
-2.4006270439
 20
-10.7357142857
 40
0.5
100
AcDbArc
 50
316.6741062455
 51
27.2369849163
  0
ARC
  5
625
100
AcDbEntity
  8
RACCORDO
100
AcDbCircle
 62
7
  6
CONTINUOUS
 10
-10.5234126973
 20
-22.3381099959
 40
0.25
100
AcDbArc
 50
225.2187941276
 51
270.0
  0
ARC
  5
626
100
AcDbEntity
  8
RACCORDO
100
AcDbCircle
 62
7
  6
CONTINUOUS
 10
-3.9332662348
 20
-23.8
 40
0.2
100
AcDbArc
 50
270.0
 51
355.0
  0
ARC
  5
627
100
AcDbEntity
  8
0
100
AcDbCircle
 62
7
  6
CONTINUOUS
 10
-2.9240383034
 20
1.1
 40
1.0
100
AcDbArc
 50
280.211773486
 51
324.3146652873
  0
ARC
  5
628
100
AcDbEntity
  8
RACCORDO
100
AcDbCircle
 62
7
  6
CONTINUOUS
 10
-2.4006270439
 20
10.7357142857
 40
0.5
100
AcDbArc
 50
332.7630150837
 51
43.3258937545
  0
ARC
  5
629
100
AcDbEntity
  8
RACCORDO
100
AcDbCircle
 62
7
  6
CONTINUOUS
 10
-10.5234126973
 20
22.3381099959
 40
0.25
100
AcDbArc
 50
90.0
 51
134.9280672751
  0
ARC
  5
62A
100
AcDbEntity
  8
RACCORDO
100
AcDbCircle
 62
7
  6
CONTINUOUS
 10
-3.9332662348
 20
23.8
 40
0.2
100
AcDbArc
 50
5.0
 51
90.0
  0
ARC
  5
62B
100
AcDbEntity
  8
RACCORDO
100
AcDbCircle
 62
7
  6
CONTINUOUS
 10
0.0
 20
-13.0
 40
2.8
100
AcDbArc
 50
136.6741062455
 51
43.3258937545
  0
ARC
  5
62C
100
AcDbEntity
  8
ASSI
100
AcDbCircle
 62
7
  6
CONTINUOUS
 10
0.0
 20
-13.0
 40
2.75
100
AcDbArc
 50
171.7867892983
 51
8.2132107017
  0
ARC
  5
62D
100
AcDbEntity
  8
RACCORDO
100
AcDbCircle
 62
7
  6
CONTINUOUS
 10
0.0
 20
-9.5
 40
2.2
100
AcDbArc
 50
332.7630150837
 51
207.2369849163
  0
ARC
  5
62E
100
AcDbEntity
  8
0
100
AcDbCircle
 62
250
  6
CONTINUOUS
 10
1.6343303518
 20
-1.99
 40
1.55
100
AcDbArc
 50
74.419256451
 51
90.0
  0
ARC
  5
62F
100
AcDbEntity
  8
0
100
AcDbCircle
 62
7
  6
CONTINUOUS
 10
2.9240383034
 20
-1.1
 40
1.0
100
AcDbArc
 50
100.2162353936
 51
144.3146652873
  0
ARC
  5
630
100
AcDbEntity
  8
0
100
AcDbCircle
 62
7
  6
CONTINUOUS
 10
1.6343303518
 20
-1.99
 40
1.0
100
AcDbArc
 50
87.8281251387
 51
90.0
  0
ARC
  5
631
100
AcDbEntity
  8
0
100
AcDbCircle
 62
7
  6
CONTINUOUS
 10
1.6343303518
 20
-1.99
 40
0.9900694014
100
AcDbArc
 50
88.4948546934
 51
89.9703375206
  0
ARC
  5
632
100
AcDbEntity
  8
0
100
AcDbCircle
 62
7
  6
CONTINUOUS
 10
1.6343303518
 20
-1.99
 40
0.98
100
AcDbArc
 50
89.2062953792
 51
90.0
  0
ARC
  5
633
100
AcDbEntity
  8
RACCORDO
100
AcDbCircle
 62
7
  6
CONTINUOUS
 10
2.4006270439
 20
-10.7357142857
 40
0.5
100
AcDbArc
 50
152.7630150837
 51
223.3258937545
  0
ARC
  5
634
100
AcDbEntity
  8
RACCORDO
100
AcDbCircle
 62
7
  6
CONTINUOUS
 10
10.5234126973
 20
-22.3381099959
 40
0.25
100
AcDbArc
 50
270.0
 51
314.9280672752
  0
ARC
  5
635
100
AcDbEntity
  8
RACCORDO
100
AcDbCircle
 62
7
  6
CONTINUOUS
 10
3.9332662348
 20
-23.8
 40
0.2
100
AcDbArc
 50
185.0
 51
270.0
  0
CIRCLE
  5
636
100
AcDbEntity
  8
ASSI
100
AcDbCircle
 62
7
  6
CONTINUOUS
 10
0.0
 20
0.0
 40
2.8
  0
CIRCLE
  5
637
100
AcDbEntity
  8
RACCORDO
100
AcDbCircle
 62
7
  6
CONTINUOUS
 10
0.0
 20
0.0
 40
2.8
  0
ARC
  5
638
100
AcDbEntity
  8
RACCORDO
100
AcDbCircle
 62
7
  6
CONTINUOUS
 10
0.0
 20
13.0
 40
2.8
100
AcDbArc
 50
316.6741062455
 51
223.3258937545
  0
ARC
  5
639
100
AcDbEntity
  8
ASSI
100
AcDbCircle
 62
7
  6
CONTINUOUS
 10
0.0
 20
13.0
 40
2.75
100
AcDbArc
 50
351.7867892983
 51
188.2132107017
  0
CIRCLE
  5
63A
100
AcDbEntity
  8
0
100
AcDbCircle
 62
7
  6
CONTINUOUS
 10
0.0
 20
0.0
 40
2.75
  0
ARC
  5
63B
100
AcDbEntity
  8
0
100
AcDbCircle
 62
7
  6
CONTINUOUS
 10
0.0
 20
1.0
 40
2.6
100
AcDbArc
 50
270.0
 51
324.3146652873
  0
ARC
  5
63C
100
AcDbEntity
  8
0
100
AcDbCircle
 62
7
  6
CONTINUOUS
 10
0.0
 20
1.0
 40
2.6
100
AcDbArc
 50
215.6853347127
 51
265.5623795422
  0
ARC
  5
63D
100
AcDbEntity
  8
RACCORDO
100
AcDbCircle
 62
7
  6
CONTINUOUS
 10
0.0
 20
9.5
 40
2.2
100
AcDbArc
 50
152.7630150837
 51
27.2369849163
  0
ARC
  5
63E
100
AcDbEntity
  8
0
100
AcDbCircle
 62
7
  6
CONTINUOUS
 10
2.9240383034
 20
1.1
 40
1.0
100
AcDbArc
 50
215.6853347127
 51
259.7910316901
  0
ARC
  5
63F
100
AcDbEntity
  8
RACCORDO
100
AcDbCircle
 62
7
  6
CONTINUOUS
 10
2.4006270439
 20
10.7357142857
 40
0.5
100
AcDbArc
 50
136.6741062455
 51
207.2369849163
  0
ARC
  5
640
100
AcDbEntity
  8
RACCORDO
100
AcDbCircle
 62
7
  6
CONTINUOUS
 10
10.5234126973
 20
22.3381099959
 40
0.25
100
AcDbArc
 50
45.2187941275
 51
90.0
  0
ARC
  5
641
100
AcDbEntity
  8
RACCORDO
100
AcDbCircle
 62
7
  6
CONTINUOUS
 10
3.9332662348
 20
23.8
 40
0.2
100
AcDbArc
 50
90.0
 51
175.0
  0
ARC
  5
642
100
AcDbEntity
  8
RACCORDO
100
AcDbCircle
 62
7
  6
CONTINUOUS
 10
-53.493478405
 20
-16.725620036
 40
1.0
100
AcDbArc
 50
182.2607456281
 51
260.0
  0
ARC
  5
643
100
AcDbEntity
  8
RACCORDO
100
AcDbCircle
 62
7
  6
CONTINUOUS
 10
-35.0734964209
 20
-22.5
 40
0.75
100
AcDbArc
 50
270.0
 51
360.0
  0
ARC
  5
644
100
AcDbEntity
  8
0
100
AcDbCircle
 62
7
  6
CONTINUOUS
 10
-44.3093334369
 20
-24.3
 40
0.7
100
AcDbArc
 50
270.0
 51
288.0
  0
ARC
  5
645
100
AcDbEntity
  8
0
100
AcDbCircle
 62
7
  6
CONTINUOUS
 10
-44.8234964209
 20
-24.3
 40
0.7
100
AcDbArc
 50
180.0
 51
270.0
  0
ARC
  5
646
100
AcDbEntity
  8
RACCORDO
100
AcDbCircle
 62
7
  6
CONTINUOUS
 10
-23.3234964209
 20
-5.6508225374
 40
0.5
100
AcDbArc
 50
271.0
 51
360.0
  0
ARC
  5
647
100
AcDbEntity
  8
RACCORDO
100
AcDbCircle
 62
7
  6
CONTINUOUS
 10
-23.3234964209
 20
-17.1508225374
 40
0.5
100
AcDbArc
 50
271.0
 51
360.0
  0
ARC
  5
648
100
AcDbEntity
  8
RACCORDO
100
AcDbCircle
 62
7
  6
CONTINUOUS
 10
-32.8234964209
 20
-17.3166456542
 40
0.5
100
AcDbArc
 50
271.0
 51
360.0
  0
ARC
  5
649
100
AcDbEntity
  8
RACCORDO
100
AcDbCircle
 62
7
  6
CONTINUOUS
 10
-33.8234964209
 20
-18.3342529329
 40
0.4999999428
100
AcDbArc
 50
91.0000002287
 51
180.0000131027
  0
ARC
  5
64A
100
AcDbEntity
  8
RACCORDO
100
AcDbCircle
 62
7
  6
CONTINUOUS
 10
-20.2234964209
 20
-1.6967270538
 40
0.4
100
AcDbArc
 50
270.9999999621
 51
359.9999978297
  0
ARC
  5
64B
100
AcDbEntity
  8
RACCORDO
100
AcDbCircle
 62
7
  6
CONTINUOUS
 10
-20.2234964209
 20
-13.2467270689
 40
0.4
100
AcDbArc
 50
271.0
 51
360.0
  0
ARC
  5
64C
100
AcDbEntity
  8
RACCORDO
100
AcDbCircle
 62
7
  6
CONTINUOUS
 10
-20.2234964209
 20
-8.2532729311
 40
0.4
100
AcDbArc
 50
0.0
 51
89.0
  0
ARC
  5
64D
100
AcDbEntity
  8
RACCORDO
100
AcDbCircle
 62
7
  6
CONTINUOUS
 10
-22.4234964209
 20
-2.5352500742
 40
0.4
100
AcDbArc
 50
91.0
 51
179.8739483704
  0
ARC
  5
64E
100
AcDbEntity
  8
RACCORDO
100
AcDbCircle
 62
7
  6
CONTINUOUS
 10
-22.4234964209
 20
-14.0852500742
 40
0.4
100
AcDbArc
 50
91.0
 51
180.0
  0
ARC
  5
64F
100
AcDbEntity
  8
RACCORDO
100
AcDbCircle
 62
7
  6
CONTINUOUS
 10
-22.4234964209
 20
-7.4147499258
 40
0.4
100
AcDbArc
 50
180.0
 51
269.0
  0
ARC
  5
650
100
AcDbEntity
  8
0
100
AcDbCircle
 62
7
  6
CONTINUOUS
 10
-44.3093334369
 20
-24.3
 40
0.3
100
AcDbArc
 50
270.0
 51
288.0
  0
ARC
  5
651
100
AcDbEntity
  8
0
100
AcDbCircle
 62
7
  6
CONTINUOUS
 10
-44.8234964209
 20
-24.3
 40
0.3
100
AcDbArc
 50
180.0
 51
270.0
  0
ARC
  5
652
100
AcDbEntity
  8
RACCORDO
100
AcDbCircle
 62
7
  6
CONTINUOUS
 10
-50.5734964209
 20
-22.3381099959
 40
0.25
100
AcDbArc
 50
180.0
 51
271.0
  0
ARC
  5
653
100
AcDbEntity
  8
RACCORDO
100
AcDbCircle
 62
7
  6
CONTINUOUS
 10
-53.493478405
 20
16.725620036
 40
1.0
100
AcDbArc
 50
100.0
 51
177.7392543719
  0
ARC
  5
654
100
AcDbEntity
  8
RACCORDO
100
AcDbCircle
 62
7
  6
CONTINUOUS
 10
-35.0734964209
 20
22.5
 40
0.75
100
AcDbArc
 50
0.0
 51
90.0
  0
ARC
  5
655
100
AcDbEntity
  8
0
100
AcDbCircle
 62
7
  6
CONTINUOUS
 10
-44.3093334369
 20
24.3
 40
0.7
100
AcDbArc
 50
72.0
 51
90.0
  0
ARC
  5
656
100
AcDbEntity
  8
0
100
AcDbCircle
 62
7
  6
CONTINUOUS
 10
-44.8234964209
 20
24.3
 40
0.7
100
AcDbArc
 50
90.0
 51
180.0
  0
ARC
  5
657
100
AcDbEntity
  8
RACCORDO
100
AcDbCircle
 62
7
  6
CONTINUOUS
 10
-33.8234964209
 20
18.3342530472
 40
0.5
100
AcDbArc
 50
180.0
 51
269.0
  0
ARC
  5
658
100
AcDbEntity
  8
RACCORDO
100
AcDbCircle
 62
7
  6
CONTINUOUS
 10
-23.3234964209
 20
17.1508225374
 40
0.5
100
AcDbArc
 50
0.0
 51
89.0
  0
ARC
  5
659
100
AcDbEntity
  8
RACCORDO
100
AcDbCircle
 62
7
  6
CONTINUOUS
 10
-20.2234964209
 20
13.2467270689
 40
0.4
100
AcDbArc
 50
0.0
 51
89.0
  0
ARC
  5
65A
100
AcDbEntity
  8
RACCORDO
100
AcDbCircle
 62
7
  6
CONTINUOUS
 10
-20.2234964209
 20
8.2532729311
 40
0.4
100
AcDbArc
 50
271.0
 51
360.0
  0
ARC
  5
65B
100
AcDbEntity
  8
RACCORDO
100
AcDbCircle
 62
7
  6
CONTINUOUS
 10
-20.2234964209
 20
3.2967270689
 40
0.4
100
AcDbArc
 50
0.0
 51
89.0
  0
ARC
  5
65C
100
AcDbEntity
  8
RACCORDO
100
AcDbCircle
 62
7
  6
CONTINUOUS
 10
-22.4234964209
 20
14.0852500742
 40
0.4
100
AcDbArc
 50
180.126572373
 51
269.0
  0
ARC
  5
65D
100
AcDbEntity
  8
RACCORDO
100
AcDbCircle
 62
7
  6
CONTINUOUS
 10
-22.4234964209
 20
7.4147499258
 40
0.4
100
AcDbArc
 50
91.0
 51
179.8739483705
  0
ARC
  5
65E
100
AcDbEntity
  8
RACCORDO
100
AcDbCircle
 62
7
  6
CONTINUOUS
 10
-54.4114378421
 20
3.1999999745
 40
0.3999999968
100
AcDbArc
 50
179.568182333
 51
180.5712474002
  0
ARC
  5
65F
100
AcDbEntity
  8
RACCORDO
100
AcDbCircle
 62
7
  6
CONTINUOUS
 10
-22.4234964209
 20
4.135249982
 40
0.399999959
100
AcDbArc
 50
180.1265591614
 51
268.9999997694
  0
ARC
  5
660
100
AcDbEntity
  8
0
100
AcDbCircle
 62
7
  6
CONTINUOUS
 10
-44.3093334369
 20
24.3
 40
0.3
100
AcDbArc
 50
72.0
 51
90.0
  0
ARC
  5
661
100
AcDbEntity
  8
0
100
AcDbCircle
 62
7
  6
CONTINUOUS
 10
-44.8234964209
 20
24.3
 40
0.3
100
AcDbArc
 50
90.0
 51
180.0
  0
ARC
  5
662
100
AcDbEntity
  8
RACCORDO
100
AcDbCircle
 62
7
  6
CONTINUOUS
 10
-50.5734964209
 20
22.3381099959
 40
0.25
100
AcDbArc
 50
89.0
 51
180.0
  0
ARC
  5
663
100
AcDbEntity
  8
RACCORDO
100
AcDbCircle
 62
7
  6
CONTINUOUS
 10
370.1765035791
 20
0.0
 40
425.0
100
AcDbArc
 50
177.7392543719
 51
182.2607456281
  0
ELLIPSE
  5
664
100
AcDbEntity
  8
RACCORDO
100
AcDbEllipse
 62
7
  6
CONTINUOUS
 10
10.6115607751
 20
22.249961918
 30
0.0
 11
0.1768305473
 21
-0.1768305473
 31
0.0
 40
0.9996954599
 41
0.7852458701
 42
1.5707963268
  0
ELLIPSE
  5
665
100
AcDbEntity
  8
RACCORDO
100
AcDbEllipse
 62
7
  6
CONTINUOUS
 10
-10.6115607751
 20
-22.249961918
 30
0.0
 11
0.1768305473
 21
-0.1768305473
 31
0.0
 40
0.9996954599
 41
-2.3563467834
 42
-1.5707963268
  0
ELLIPSE
  5
666
100
AcDbEntity
  8
RACCORDO
100
AcDbEllipse
 62
7
  6
CONTINUOUS
 10
-10.6115607751
 20
22.249961918
 30
0.0
 11
0.1768305473
 21
0.1768305473
 31
0.0
 40
0.9996954599
 41
1.5707963268
 42
2.3563467834
  0
ELLIPSE
  5
667
100
AcDbEntity
  8
RACCORDO
100
AcDbEllipse
 62
7
  6
CONTINUOUS
 10
10.6115607751
 20
-22.249961918
 30
0.0
 11
0.1768305473
 21
0.1768305473
 31
0.0
 40
0.9996954599
 41
-1.5707963268
 42
-0.7852458701
  0
ELLIPSE
  5
668
100
AcDbEntity
  8
RACCORDO
100
AcDbEllipse
 62
7
  6
CONTINUOUS
 10
10.5277764635
 20
-18.046143347
 30
0.0
 11
-0.0250113895
 21
0.2526592035
 31
0.0
 40
0.9846622838
 41
-3.2387599651
 42
-1.6709942215
  0
ELLIPSE
  5
669
100
AcDbEntity
  8
RACCORDO
100
AcDbEllipse
 62
7
  6
CONTINUOUS
 10
-10.5277764635
 20
18.046143347
 30
0.0
 11
-0.0250113895
 21
0.2526592035
 31
0.0
 40
0.9846622838
 41
-0.0971673115
 42
1.4705984321
  0
ELLIPSE
  5
66A
100
AcDbEntity
  8
RACCORDO
100
AcDbEllipse
 62
7
  6
CONTINUOUS
 10
-10.5277764635
 20
-18.046143347
 30
0.0
 11
0.0250113895
 21
0.2526592035
 31
0.0
 40
0.9846622838
 41
-4.6121910857
 42
-3.0444253421
  0
ELLIPSE
  5
66B
100
AcDbEntity
  8
RACCORDO
100
AcDbEllipse
 62
7
  6
CONTINUOUS
 10
10.5277764635
 20
18.046143347
 30
0.0
 11
0.0250113895
 21
0.2526592035
 31
0.0
 40
0.9846622838
 41
-1.4705984321
 42
0.0971673115
  0
ELLIPSE
  5
66C
100
AcDbEntity
  8
0
100
AcDbEllipse
 62
7
  6
CONTINUOUS
 10
0.89
 20
-1.0
 30
0.0
 11
0.0
 21
0.01
 31
0.0
 40
1.0
 41
-3.1415926536
 42
-1.5707963268
  0
ELLIPSE
  5
66D
100
AcDbEntity
  8
RACCORDO
100
AcDbEllipse
 62
7
  6
CONTINUOUS
 10
-35.3234964209
 20
-22.7397928475
 30
0.0
 11
0.0
 21
1.0
 31
0.0
 40
1.0
 41
-1.3286438594
 42
-0.0174532925
  0
ELLIPSE
  5
66E
100
AcDbEntity
  8
RACCORDO
100
AcDbEllipse
 62
7
  6
CONTINUOUS
 10
-35.3234964209
 20
22.7397928475
 30
0.0
 11
0.0
 21
1.0
 31
0.0
 40
1.0
 41
-3.1241393611
 42
-1.8129487942
  0
ENDSEC
  0
SECTION
  2
OBJECTS
  0
DICTIONARY
  5
C
100
AcDbDictionary
280
0
281
1
  3
ACAD_GROUP
350
D
  3
ACAD_MLINESTYLE
350
17
  3
ACAD_LAYOUT
350
1A
  3
ACAD_PLOTSETTINGS
350
19
  3
ACAD_PLOTSTYLENAME
350
E
  0
DICTIONARY
  5
D
102
{ACAD_REACTORS
330
C
102
}
100
AcDbDictionary
280
0
281
1
  0
ACDBDICTIONARYWDFLT
  5
E
102
{ACAD_REACTORS
330
C
102
}
100
AcDbDictionary
281
1
  3
Normal
350
F
100
AcDbDictionaryWithDefault
340
F
  0
DICTIONARY
  5
17
102
{ACAD_REACTORS
330
C
102
}
100
AcDbDictionary
280
0
281
1
  3
Standard
350
18
  0
DICTIONARY
  5
19
102
{ACAD_REACTORS
330
C
102
}
100
AcDbDictionary
281
1
  0
DICTIONARY
  5
1A
102
{ACAD_REACTORS
330
C
102
}
100
AcDbDictionary
281
1
  3
Model
350
66F
  3
Layout1
350
670
  0
ACDBPLACEHOLDER
  5
F
102
{ACAD_REACTORS
330
E
102
}
  0
MLINESTYLE
  5
18
102
{ACAD_REACTORS
330
17
102
}
100
AcDbMlineStyle
  2
STANDARD
 70
0
  3

 62
256
 51
90.0
 52
90.0
 71
2
 49
0.5
 62
256
  6
BYLAYER
 49
-0.5
 62
256
  6
BYLAYER
  0
LAYOUT
  5
66F
102
{ACAD_REACTORS
330
1A
102
}
100
AcDbPlotSettings
  1

  2
none_device
  4
ISO_A4_(297.00_x_210.00_MM)
  6

 40
0.0
 41
0.0
 42
0.0
 43
0.0
 44
297.0
 45
210.0
 46
0.0
 47
0.0
 48
0.0
 49
0.0
140
0.0
141
0.0
142
1.0
143
1.0
 70
1024
 72
1
 73
0
 74
0
  7

 75
0
147
1.0
148
0.0
149
0.0
100
AcDbLayout
  1
Model
 70
0
 71
0
 10
0.0
 20
0.0
 11
297.0
 21
210.0
 12
0.0
 22
0.0
 32
0.0
 14
0.0
 24
0.0
 34
0.0
 15
0.0
 25
0.0
 35
0.0
146
0.0
 13
0.0
 23
0.0
 33
0.0
 16
1.0
 26
0.0
 36
0.0
 17
0.0
 27
1.0
 37
0.0
 76
0
330
21C
345
0
346
0
  0
LAYOUT
  5
670
102
{ACAD_REACTORS
330
1A
102
}
100
AcDbPlotSettings
  1

  2
none_device
  4
ISO_A4_(297.00_x_210.00_MM)
  6

 40
0.0
 41
0.0
 42
0.0
 43
0.0
 44
297.0
 45
210.0
 46
0.0
 47
0.0
 48
0.0
 49
0.0
140
0.0
141
0.0
142
1.0
143
1.0
 70
0
 72
1
 73
0
 74
0
  7

 75
0
147
1.0
148
0.0
149
0.0
100
AcDbLayout
  1
Layout1
 70
0
 71
1
 10
0.0
 20
0.0
 11
297.0
 21
210.0
 12
0.0
 22
0.0
 32
0.0
 14
0.0
 24
0.0
 34
0.0
 15
0.0
 25
0.0
 35
0.0
146
0.0
 13
0.0
 23
0.0
 33
0.0
 16
1.0
 26
0.0
 36
0.0
 17
0.0
 27
1.0
 37
0.0
 76
0
330
21D
345
0
346
0
  0
ENDSEC
  0
EOF
