  0
SECTION
  2
HEADER
  9
$ACADVER
  1
AC1024
  9
$DWGCODEPAGE
  3
ANSI_1252
  9
$EXTMAX
 10
297.0
 20
210.0
 30
0.0
  9
$EXTMIN
 10
0.0
 20
0.0
 30
0.0
  9
$LIMMIN
 10
0.0
 20
0.0
  9
$LIMMAX
 10
297.0
 20
210.0
  9
$VIEWCTR
 10
148.5
 20
105.0
  9
$VIEWSIZE
 40
210.0
  9
$CLAYER
  8
0
  9
$LTSCALE
 40
16.335
  9
$CELTYPE
  6
BYLAYER
  9
$DIMSCALE
 40
1.0
  9
$DIMASZ
 40
3.0
  9
$DIMEXO
 40
0.5
  9
$DIMDLI
 40
11.286
  9
$DIMEXE
 40
1.5
  9
$DIMCEN
 40
2.673
  9
$DIMLFAC
 40
1.0
  9
$DIMBLK
  1
_FILLED
  9
$DIMALT
 70
0
  9
$DIMALTF
 40
0.0393700787
  9
$DIMTXT
 40
3.0
  9
$DIMTOL
 70
1
  9
$DIMLIM
 70
0
  9
$DIMTFAC
 40
1.0
  9
$DIMTP
 40
0.01
  9
$DIMTM
 40
0.01
  9
$DIMGAP
 40
0.625
  9
$DIMDSEP
 70
44
  9
$AUNITS
 70
0
  9
$PDMODE
 70
3
  9
$PDSIZE
 40
3.0
  9
$HANDSEED
  5
840
  9
$TILEMODE
 70
1
  9
$MEASUREMENT
 70
1
  9
$INSUNITS
 70
4
  0
ENDSEC
  0
SECTION
  2
CLASSES
  0
CLASS
  1
ACDBDICTIONARYWDFLT
  2
AcDbDictionaryWithDefault
  3
AutoCAD 2000
 90
0
 91
1
280
0
281
0
  0
CLASS
  1
ACDBPLACEHOLDER
  2
AcDbPlaceHolder
  3
AutoCAD 2000
 90
0
 91
1
280
0
281
0
  0
CLASS
  1
LAYOUT
  2
AcDbLayout
  3
AutoCAD 2000
 90
0
 91
0
280
0
281
0
  0
ENDSEC
  0
SECTION
  2
TABLES
  0
TABLE
  2
VPORT
  5
8
100
AcDbSymbolTable
 70
2
  0
VPORT
  5
1F4
100
AcDbSymbolTableRecord
100
AcDbViewportTableRecord
  2
*ACTIVE
 70
0
 10
0.0
 20
0.0
 11
1.0
 21
1.0
 12
148.5
 22
105.0
 13
0.0
 23
0.0
 14
1.0
 24
1.0
 15
0.0
 25
0.0
 16
0.0
 26
0.0
 36
1.0
 17
0.0
 27
0.0
 37
0.0
 40
210.0
 41
1.4142857143
 42
50.0
 43
0.0
 44
0.0
 50
0.0
 51
0.0
 71
0
 72
100
 73
1
 74
1
 75
0
 76
0
 77
0
 78
0
  0
ENDTAB
  0
TABLE
  2
LTYPE
  5
5
100
AcDbSymbolTable
 70
6
  0
LTYPE
  5
14
100
AcDbSymbolTableRecord
100
AcDbLinetypeTableRecord
  2
BYBLOCK
 70
0
  3

 72
65
 73
0
 40
0.0
  0
LTYPE
  5
15
100
AcDbSymbolTableRecord
100
AcDbLinetypeTableRecord
  2
BYLAYER
 70
0
  3

 72
65
 73
0
 40
0.0
  0
LTYPE
  5
16
100
AcDbSymbolTableRecord
100
AcDbLinetypeTableRecord
  2
CONTINUOUS
 70
64
  3
Solid line
 72
65
 73
0
 40
0.0
  0
LTYPE
  5
1F5
100
AcDbSymbolTableRecord
100
AcDbLinetypeTableRecord
  2
CENTER
 70
64
  3
____ _ ____ _ ____ _ ____ _ ____ _ ____ _ ____
 72
65
 73
4
 40
0.6
 49
0.375
 74
0
 49
-0.075
 74
0
 49
0.075
 74
0
 49
-0.075
 74
0
  0
LTYPE
  5
1F6
100
AcDbSymbolTableRecord
100
AcDbLinetypeTableRecord
  2
HIDDEN
 70
64
  3
- - - - - - - - - - - - - - - - - - - -
 72
65
 73
2
 40
0.2
 49
0.1
 74
0
 49
-0.1
 74
0
  0
LTYPE
  5
1F7
100
AcDbSymbolTableRecord
100
AcDbLinetypeTableRecord
  2
PHANTOM
 70
64
  3
_____ _ _ _____ _ _ _____ _ _ _____
 72
65
 73
6
 40
0.8
 49
0.45
 74
0
 49
-0.05
 74
0
 49
0.1
 74
0
 49
-0.05
 74
0
 49
0.1
 74
0
 49
-0.05
 74
0
  0
LTYPE
  5
1F8
100
AcDbSymbolTableRecord
100
AcDbLinetypeTableRecord
  2
DOT
 70
64
  3
. . . . . . . . . . . . . . . . . . . .
 72
65
 73
2
 40
0.2
 49
0.1
 74
0
 49
-0.1
 74
0
  0
LTYPE
  5
1F9
100
AcDbSymbolTableRecord
100
AcDbLinetypeTableRecord
  2
DASHED
 70
64
  3
- - - - - - - - - - - - - - - - - - - -
 72
65
 73
2
 40
0.2
 49
0.1
 74
0
 49
-0.1
 74
0
  0
ENDTAB
  0
TABLE
  2
LAYER
  5
2
100
AcDbSymbolTable
 70
36
  0
LAYER
  5
10
100
AcDbSymbolTableRecord
100
AcDbLayerTableRecord
  2
0
 70
0
 62
7
  6
CONTINUOUS
370
-3
390
F
  0
LAYER
  5
1FA
100
AcDbSymbolTableRecord
100
AcDbLayerTableRecord
  2
DEFAULT_1
 70
0
 62
7
  6
CENTER
370
-3
390
F
  0
LAYER
  5
1FB
100
AcDbSymbolTableRecord
100
AcDbLayerTableRecord
  2
DEFAULT_2
 70
0
 62
7
  6
HIDDEN
370
-3
390
F
  0
LAYER
  5
1FC
100
AcDbSymbolTableRecord
100
AcDbLayerTableRecord
  2
DEFAULT_3
 70
0
 62
7
  6
PHANTOM
370
-3
390
F
  0
LAYER
  5
1FD
100
AcDbSymbolTableRecord
100
AcDbLayerTableRecord
  2
ALTRI_ASSI
 70
0
 62
7
  6
CONTINUOUS
370
-3
390
F
  0
LAYER
  5
1FE
100
AcDbSymbolTableRecord
100
AcDbLayerTableRecord
  2
ALTRI_PIANI
 70
0
 62
7
  6
CONTINUOUS
370
-3
390
F
  0
LAYER
  5
1FF
100
AcDbSymbolTableRecord
100
AcDbLayerTableRecord
  2
ASSI
 70
0
 62
7
  6
CONTINUOUS
370
-3
390
F
  0
LAYER
  5
200
100
AcDbSymbolTableRecord
100
AcDbLayerTableRecord
  2
COORDINATE
 70
0
 62
7
  6
CONTINUOUS
370
-3
390
F
  0
LAYER
  5
201
100
AcDbSymbolTableRecord
100
AcDbLayerTableRecord
  2
COORD_ORIGINE
 70
0
 62
7
  6
CONTINUOUS
370
-3
390
F
  0
LAYER
  5
202
100
AcDbSymbolTableRecord
100
AcDbLayerTableRecord
  2
COPY_GEOMETRY
 70
0
 62
7
  6
CONTINUOUS
370
-3
390
F
  0
LAYER
  5
203
100
AcDbSymbolTableRecord
100
AcDbLayerTableRecord
  2
COSMETICHE
 70
0
 62
7
  6
CONTINUOUS
370
-3
390
F
  0
LAYER
  5
204
100
AcDbSymbolTableRecord
100
AcDbLayerTableRecord
  2
CURVE
 70
0
 62
7
  6
CONTINUOUS
370
-3
390
F
  0
LAYER
  5
205
100
AcDbSymbolTableRecord
100
AcDbLayerTableRecord
  2
DRAFT
 70
0
 62
7
  6
CONTINUOUS
370
-3
390
F
  0
LAYER
  5
206
100
AcDbSymbolTableRecord
100
AcDbLayerTableRecord
  2
IGES
 70
0
 62
7
  6
CONTINUOUS
370
-3
390
F
  0
LAYER
  5
207
100
AcDbSymbolTableRecord
100
AcDbLayerTableRecord
  2
NOTE
 70
0
 62
7
  6
CONTINUOUS
370
-3
390
F
  0
LAYER
  5
208
100
AcDbSymbolTableRecord
100
AcDbLayerTableRecord
  2
PIANI
 70
0
 62
7
  6
CONTINUOUS
370
-3
390
F
  0
LAYER
  5
209
100
AcDbSymbolTableRecord
100
AcDbLayerTableRecord
  2
PIANI_ORIGINE
 70
0
 62
7
  6
CONTINUOUS
370
-3
390
F
  0
LAYER
  5
20A
100
AcDbSymbolTableRecord
100
AcDbLayerTableRecord
  2
PUNTI
 70
0
 62
7
  6
CONTINUOUS
370
-3
390
F
  0
LAYER
  5
20B
100
AcDbSymbolTableRecord
100
AcDbLayerTableRecord
  2
RACCORDO
 70
0
 62
7
  6
CONTINUOUS
370
-3
390
F
  0
LAYER
  5
20C
100
AcDbSymbolTableRecord
100
AcDbLayerTableRecord
  2
SNAPLINE
 70
0
 62
7
  6
CONTINUOUS
370
-3
390
F
  0
LAYER
  5
20D
100
AcDbSymbolTableRecord
100
AcDbLayerTableRecord
  2
SUPERFICI
 70
0
 62
7
  6
CONTINUOUS
370
-3
390
F
  0
LAYER
  5
20E
100
AcDbSymbolTableRecord
100
AcDbLayerTableRecord
  2
TRASH
 70
0
 62
7
  6
CONTINUOUS
370
-3
390
F
  0
ENDTAB
  0
TABLE
  2
STYLE
  5
3
100
AcDbSymbolTable
 70
1
  0
STYLE
  5
11
100
AcDbSymbolTableRecord
100
AcDbTextStyleTableRecord
  2
STANDARD
 70
0
 40
0.0
 41
0.8
 50
0.0
 71
0
 42
0.2
  3
txt
  4

  0
STYLE
  5
20F
100
AcDbSymbolTableRecord
100
AcDbTextStyleTableRecord
  2
TEXTSTYLE_1
 70
0
 40
0.0
 41
0.8
 50
0.0
 71
0
 42
0.2
  3
gdt
  4

  0
ENDTAB
  0
TABLE
  2
VIEW
  5
6
100
AcDbSymbolTable
 70
0
  0
ENDTAB
  0
TABLE
  2
UCS
  5
7
100
AcDbSymbolTable
 70
0
  0
ENDTAB
  0
TABLE
  2
APPID
  5
9
100
AcDbSymbolTable
 70
1
  0
APPID
  5
210
100
AcDbSymbolTableRecord
100
AcDbRegAppTableRecord
  2
ACAD
 70
0
  0
ENDTAB
  0
TABLE
  2
BLOCK_RECORD
  5
1
100
AcDbSymbolTable
 70
0
  0
BLOCK_RECORD
  5
211
100
AcDbSymbolTableRecord
100
AcDbBlockTableRecord
  2
*Model_Space
  0
BLOCK_RECORD
  5
212
100
AcDbSymbolTableRecord
100
AcDbBlockTableRecord
  2
*Paper_Space
  0
BLOCK_RECORD
  5
213
100
AcDbSymbolTableRecord
100
AcDbBlockTableRecord
  2
_FILLED
  0
BLOCK_RECORD
  5
214
100
AcDbSymbolTableRecord
100
AcDbBlockTableRecord
  2
*D0
  0
BLOCK_RECORD
  5
215
100
AcDbSymbolTableRecord
100
AcDbBlockTableRecord
  2
*D1
  0
BLOCK_RECORD
  5
216
100
AcDbSymbolTableRecord
100
AcDbBlockTableRecord
  2
*D2
  0
BLOCK_RECORD
  5
217
100
AcDbSymbolTableRecord
100
AcDbBlockTableRecord
  2
*D3
  0
BLOCK_RECORD
  5
218
100
AcDbSymbolTableRecord
100
AcDbBlockTableRecord
  2
*D4
  0
BLOCK_RECORD
  5
219
100
AcDbSymbolTableRecord
100
AcDbBlockTableRecord
  2
*D5
  0
BLOCK_RECORD
  5
21A
100
AcDbSymbolTableRecord
100
AcDbBlockTableRecord
  2
*D6
  0
ENDTAB
  0
TABLE
  2
DIMSTYLE
  5
A
100
AcDbSymbolTable
 70
1
100
AcDbDimStyleTable
 71
0
  0
DIMSTYLE
105
21B
100
AcDbSymbolTableRecord
100
AcDbDimStyleTableRecord
  2
STANDARD
 70
0
  3

  4

 40
1.0
 41
3.0
 42
0.5
 43
0.38
 44
1.5
 45
0.0
 46
0.0
 47
0.01
 48
0.01
140
3.0
141
0.09
142
0.0
143
25.4
144
1.0
145
0.0
146
1.0
147
0.625
 71
1
 72
0
 73
0
 74
0
 75
0
 76
0
 77
1
 78
8
 79
2
170
0
171
1
172
0
173
0
174
0
175
0
176
0
177
0
178
0
270
2
179
2
271
2
272
2
273
2
274
2
275
0
280
0
281
0
282
0
283
1
284
8
285
0
286
0
287
3
288
0
340
11
278
44
341
213
342
213
343
213
344
213
  0
DIMSTYLE
105
21C
100
AcDbSymbolTableRecord
100
AcDbDimStyleTableRecord
  2
DIMSTYLE_1
 70
0
  3

  4

 40
1.0
 41
3.0
 42
0.5
 43
0.38
 44
1.5
 45
0.0
 46
0.0
 47
0.0
 48
0.0
140
3.0
141
0.09
142
0.0
143
25.4
144
1.0
145
0.0
146
1.0
147
0.75
 71
0
 72
0
 73
0
 74
0
 75
0
 76
0
 77
1
 78
8
 79
2
170
0
171
1
172
0
173
0
174
0
175
0
176
0
177
0
178
0
270
2
179
2
271
2
272
2
273
2
274
2
275
0
280
0
281
0
282
0
283
1
284
8
285
0
286
0
287
3
288
0
340
11
278
44
341
213
342
213
343
213
344
213
  0
ENDTAB
  0
ENDSEC
  0
SECTION
  2
BLOCKS
  0
BLOCK
  5
20
100
AcDbEntity
  8
0
100
AcDbBlockBegin
  2
*Model_Space
 70
0
 10
0.0
 20
0.0
 30
0.0
  3
*Model_Space
  1

  0
ENDBLK
  5
21
100
AcDbEntity
  8
0
100
AcDbBlockEnd
  0
BLOCK
  5
1C
100
AcDbEntity
  8
0
100
AcDbBlockBegin
  2
*Paper_Space
 70
0
 10
0.0
 20
0.0
 30
0.0
  3
*Paper_Space
  1

  0
ENDBLK
  5
1D
100
AcDbEntity
  8
0
100
AcDbBlockEnd
  0
BLOCK
  5
21D
100
AcDbEntity
  8
0
100
AcDbBlockBegin
  2
_FILLED
 70
64
 10
0.0
 20
0.0
  3
_FILLED
  1

  0
SOLID
  5
21E
100
AcDbEntity
  8
0
  6
BYBLOCK
 62
0
100
AcDbTrace
 10
0.0
 20
0.0
 11
-1.0
 21
0.3166666667
 12
-1.0
 22
-0.3166666667
 13
-1.0
 23
-0.3166666667
  0
ENDBLK
  5
21F
100
AcDbEntity
  8
0
  6
BYBLOCK
 62
0
100
AcDbBlockEnd
  0
BLOCK
  5
220
100
AcDbEntity
  8
0
100
AcDbBlockBegin
 62
7
  6
CONTINUOUS
  2
*D0
 70
65
 10
0.0
 20
0.0
  3
*D0
  1

  0
LINE
  5
221
100
AcDbEntity
  8
0
100
AcDbLine
 62
7
  6
CONTINUOUS
 10
-43.0
 20
3.75
 11
-43.0
 21
66.2
  0
LINE
  5
222
100
AcDbEntity
  8
0
100
AcDbLine
 62
7
  6
CONTINUOUS
 10
43.0
 20
3.75
 11
43.0
 21
66.2
  0
LINE
  5
223
100
AcDbEntity
  8
0
100
AcDbLine
 62
7
  6
CONTINUOUS
 10
-43.0
 20
64.7
 11
0.0
 21
64.7
  0
LINE
  5
224
100
AcDbEntity
  8
0
100
AcDbLine
 62
7
  6
CONTINUOUS
 10
43.0
 20
64.7
 11
0.0
 21
64.7
  0
INSERT
  5
225
100
AcDbEntity
  8
0
100
AcDbBlockReference
 62
7
  6
CONTINUOUS
  2
_FILLED
 10
-43.0
 20
64.7
 41
3.0
 42
3.0
 43
3.0
 50
180.0
  0
INSERT
  5
226
100
AcDbEntity
  8
0
100
AcDbBlockReference
 62
7
  6
CONTINUOUS
  2
_FILLED
 10
43.0
 20
64.7
 41
3.0
 42
3.0
 43
3.0
  0
ENDBLK
  5
227
100
AcDbEntity
  8
0
  6
BYBLOCK
 62
0
100
AcDbBlockEnd
  0
BLOCK
  5
228
100
AcDbEntity
  8
0
100
AcDbBlockBegin
 62
7
  6
CONTINUOUS
  2
*D1
 70
65
 10
0.0
 20
0.0
  3
*D1
  1

  0
LINE
  5
229
100
AcDbEntity
  8
0
100
AcDbLine
 62
7
  6
CONTINUOUS
 10
-40.0
 20
27.2137046525
 11
-40.0
 21
56.2
  0
LINE
  5
22A
100
AcDbEntity
  8
0
100
AcDbLine
 62
7
  6
CONTINUOUS
 10
40.0
 20
27.2137046525
 11
40.0
 21
56.2
  0
LINE
  5
22B
100
AcDbEntity
  8
0
100
AcDbLine
 62
7
  6
CONTINUOUS
 10
-40.0
 20
54.7
 11
0.0
 21
54.7
  0
LINE
  5
22C
100
AcDbEntity
  8
0
100
AcDbLine
 62
7
  6
CONTINUOUS
 10
40.0
 20
54.7
 11
0.0
 21
54.7
  0
INSERT
  5
22D
100
AcDbEntity
  8
0
100
AcDbBlockReference
 62
7
  6
CONTINUOUS
  2
_FILLED
 10
-40.0
 20
54.7
 41
3.0
 42
3.0
 43
3.0
 50
180.0
  0
INSERT
  5
22E
100
AcDbEntity
  8
0
100
AcDbBlockReference
 62
7
  6
CONTINUOUS
  2
_FILLED
 10
40.0
 20
54.7
 41
3.0
 42
3.0
 43
3.0
  0
ENDBLK
  5
22F
100
AcDbEntity
  8
0
  6
BYBLOCK
 62
0
100
AcDbBlockEnd
  0
BLOCK
  5
230
100
AcDbEntity
  8
0
100
AcDbBlockBegin
 62
7
  6
CONTINUOUS
  2
*D2
 70
65
 10
0.0
 20
0.0
  3
*D2
  1

  0
LINE
  5
231
100
AcDbEntity
  8
0
100
AcDbLine
 62
7
  6
CONTINUOUS
 10
-33.0
 20
29.5
 11
-33.0
 21
46.2
  0
LINE
  5
232
100
AcDbEntity
  8
0
100
AcDbLine
 62
7
  6
CONTINUOUS
 10
33.0
 20
29.5
 11
33.0
 21
46.2
  0
LINE
  5
233
100
AcDbEntity
  8
0
100
AcDbLine
 62
7
  6
CONTINUOUS
 10
-33.0
 20
44.7
 11
0.0
 21
44.7
  0
LINE
  5
234
100
AcDbEntity
  8
0
100
AcDbLine
 62
7
  6
CONTINUOUS
 10
33.0
 20
44.7
 11
0.0
 21
44.7
  0
INSERT
  5
235
100
AcDbEntity
  8
0
100
AcDbBlockReference
 62
7
  6
CONTINUOUS
  2
_FILLED
 10
-33.0
 20
44.7
 41
3.0
 42
3.0
 43
3.0
 50
180.0
  0
INSERT
  5
236
100
AcDbEntity
  8
0
100
AcDbBlockReference
 62
7
  6
CONTINUOUS
  2
_FILLED
 10
33.0
 20
44.7
 41
3.0
 42
3.0
 43
3.0
  0
ENDBLK
  5
237
100
AcDbEntity
  8
0
  6
BYBLOCK
 62
0
100
AcDbBlockEnd
  0
BLOCK
  5
238
100
AcDbEntity
  8
0
100
AcDbBlockBegin
 62
7
  6
CONTINUOUS
  2
*D3
 70
65
 10
0.0
 20
0.0
  3
*D3
  1

  0
LINE
  5
239
100
AcDbEntity
  8
0
100
AcDbLine
 62
7
  6
CONTINUOUS
 10
33.5
 20
29.0
 11
52.5
 21
29.0
  0
LINE
  5
23A
100
AcDbEntity
  8
0
100
AcDbLine
 62
7
  6
CONTINUOUS
 10
33.5
 20
-29.0
 11
52.5
 21
-29.0
  0
LINE
  5
23B
100
AcDbEntity
  8
0
100
AcDbLine
 62
7
  6
CONTINUOUS
 10
51.0
 20
29.0
 11
51.0
 21
0.0
  0
LINE
  5
23C
100
AcDbEntity
  8
0
100
AcDbLine
 62
7
  6
CONTINUOUS
 10
51.0
 20
-29.0
 11
51.0
 21
0.0
  0
INSERT
  5
23D
100
AcDbEntity
  8
0
100
AcDbBlockReference
 62
7
  6
CONTINUOUS
  2
_FILLED
 10
51.0
 20
29.0
 41
3.0
 42
3.0
 43
3.0
 50
90.0
  0
INSERT
  5
23E
100
AcDbEntity
  8
0
100
AcDbBlockReference
 62
7
  6
CONTINUOUS
  2
_FILLED
 10
51.0
 20
-29.0
 41
3.0
 42
3.0
 43
3.0
 50
270.0
  0
ENDBLK
  5
23F
100
AcDbEntity
  8
0
  6
BYBLOCK
 62
0
100
AcDbBlockEnd
  0
BLOCK
  5
240
100
AcDbEntity
  8
0
100
AcDbBlockBegin
 62
7
  6
CONTINUOUS
  2
*D4
 70
65
 10
0.0
 20
0.0
  3
*D4
  1

  0
LINE
  5
241
100
AcDbEntity
  8
0
100
AcDbLine
 62
7
  6
CONTINUOUS
 10
-73.8871779605
 20
36.7
 11
-87.889008533
 21
36.7
  0
LINE
  5
242
100
AcDbEntity
  8
0
100
AcDbLine
 62
7
  6
CONTINUOUS
 10
-73.8871779605
 20
-36.7
 11
-87.889008533
 21
-36.7
  0
LINE
  5
243
100
AcDbEntity
  8
0
100
AcDbLine
 62
7
  6
CONTINUOUS
 10
-86.389008533
 20
36.7
 11
-86.389008533
 21
0.0
  0
LINE
  5
244
100
AcDbEntity
  8
0
100
AcDbLine
 62
7
  6
CONTINUOUS
 10
-86.389008533
 20
-36.7
 11
-86.389008533
 21
0.0
  0
INSERT
  5
245
100
AcDbEntity
  8
0
100
AcDbBlockReference
 62
7
  6
CONTINUOUS
  2
_FILLED
 10
-86.389008533
 20
36.7
 41
3.0
 42
3.0
 43
3.0
 50
90.0
  0
INSERT
  5
246
100
AcDbEntity
  8
0
100
AcDbBlockReference
 62
7
  6
CONTINUOUS
  2
_FILLED
 10
-86.389008533
 20
-36.7
 41
3.0
 42
3.0
 43
3.0
 50
270.0
  0
ENDBLK
  5
247
100
AcDbEntity
  8
0
  6
BYBLOCK
 62
0
100
AcDbBlockEnd
  0
BLOCK
  5
248
100
AcDbEntity
  8
0
100
AcDbBlockBegin
 62
7
  6
CONTINUOUS
  2
*D5
 70
65
 10
0.0
 20
0.0
  3
*D5
  1

  0
LINE
  5
249
100
AcDbEntity
  8
0
100
AcDbLine
 62
7
  6
CONTINUOUS
 10
-73.3871779605
 20
37.2
 11
-73.3871779605
 21
46.2
  0
LINE
  5
24A
100
AcDbEntity
  8
0
100
AcDbLine
 62
7
  6
CONTINUOUS
 10
-62.3871941368
 20
17.4133016579
 11
-62.3871941368
 21
46.2
  0
LINE
  5
24B
100
AcDbEntity
  8
0
100
AcDbLine
 62
7
  6
CONTINUOUS
 10
-73.3871779605
 20
44.7
 11
-77.3871779605
 21
44.7
  0
LINE
  5
24C
100
AcDbEntity
  8
0
100
AcDbLine
 62
7
  6
CONTINUOUS
 10
-77.3871779605
 20
44.7
 11
-67.8871860487
 21
44.7
  0
LINE
  5
24D
100
AcDbEntity
  8
0
100
AcDbLine
 62
7
  6
CONTINUOUS
 10
-62.3871941368
 20
44.7
 11
-58.3871941368
 21
44.7
  0
LINE
  5
24E
100
AcDbEntity
  8
0
100
AcDbLine
 62
7
  6
CONTINUOUS
 10
-58.3871941368
 20
44.7
 11
-67.8871860487
 21
44.7
  0
INSERT
  5
24F
100
AcDbEntity
  8
0
100
AcDbBlockReference
 62
7
  6
CONTINUOUS
  2
_FILLED
 10
-73.3871779605
 20
44.7
 41
3.0
 42
3.0
 43
3.0
  0
INSERT
  5
250
100
AcDbEntity
  8
0
100
AcDbBlockReference
 62
7
  6
CONTINUOUS
  2
_FILLED
 10
-62.3871941368
 20
44.7
 41
3.0
 42
3.0
 43
3.0
 50
180.0
  0
ENDBLK
  5
251
100
AcDbEntity
  8
0
  6
BYBLOCK
 62
0
100
AcDbBlockEnd
  0
BLOCK
  5
252
100
AcDbEntity
  8
0
100
AcDbBlockBegin
 62
7
  6
CONTINUOUS
  2
*D6
 70
65
 10
0.0
 20
0.0
  3
*D6
  1

  0
LINE
  5
253
100
AcDbEntity
  8
0
100
AcDbLine
 62
7
  6
CONTINUOUS
 10
-78.3871779605
 20
15.75
 11
-78.3871779605
 21
56.2
  0
LINE
  5
254
100
AcDbEntity
  8
0
100
AcDbLine
 62
7
  6
CONTINUOUS
 10
-62.3871941368
 20
12.25
 11
-62.3871941368
 21
56.2
  0
LINE
  5
255
100
AcDbEntity
  8
0
100
AcDbLine
 62
7
  6
CONTINUOUS
 10
-78.3871779605
 20
54.7
 11
-70.3871860487
 21
54.7
  0
LINE
  5
256
100
AcDbEntity
  8
0
100
AcDbLine
 62
7
  6
CONTINUOUS
 10
-62.3871941368
 20
54.7
 11
-70.3871860487
 21
54.7
  0
INSERT
  5
257
100
AcDbEntity
  8
0
100
AcDbBlockReference
 62
7
  6
CONTINUOUS
  2
_FILLED
 10
-78.3871779605
 20
54.7
 41
3.0
 42
3.0
 43
3.0
 50
180.0
  0
INSERT
  5
258
100
AcDbEntity
  8
0
100
AcDbBlockReference
 62
7
  6
CONTINUOUS
  2
_FILLED
 10
-62.3871941368
 20
54.7
 41
3.0
 42
3.0
 43
3.0
  0
ENDBLK
  5
259
100
AcDbEntity
  8
0
  6
BYBLOCK
 62
0
100
AcDbBlockEnd
  0
ENDSEC
  0
SECTION
  2
ENTITIES
  0
DIMENSION
  5
25A
100
AcDbEntity
  8
0
100
AcDbDimension
 62
7
  6
CONTINUOUS
  2
*D0
 10
43.0
 20
64.7
 11
-2.3571428571
 21
64.7
 70
160
 71
2
 72
2
 41
0.9
 42
86.0
  3
DIMSTYLE_1
100
AcDbAlignedDimension
 13
-43.0
 23
3.25
 14
43.0
 24
3.25
100
AcDbRotatedDimension
  0
DIMENSION
  5
25B
100
AcDbEntity
  8
0
100
AcDbDimension
 62
7
  6
CONTINUOUS
  2
*D1
 10
40.0
 20
54.7
 11
-2.3571428571
 21
54.7
 70
160
 71
2
 72
2
 41
0.9
 42
80.0
  3
DIMSTYLE_1
100
AcDbAlignedDimension
 13
-40.0
 23
26.7137046525
 14
40.0
 24
26.7137046525
100
AcDbRotatedDimension
  0
DIMENSION
  5
25C
100
AcDbEntity
  8
0
100
AcDbDimension
 62
7
  6
CONTINUOUS
  2
*D2
 10
33.0
 20
44.7
 11
-2.3571428571
 21
44.7
 70
160
 71
2
 72
2
 41
0.9
 42
66.0
  3
DIMSTYLE_1
100
AcDbAlignedDimension
 13
-33.0
 23
29.0
 14
33.0
 24
29.0
100
AcDbRotatedDimension
  0
DIMENSION
  5
25D
100
AcDbEntity
  8
0
100
AcDbDimension
 62
7
  6
CONTINUOUS
  2
*D3
 10
51.0
 20
-29.0
 11
51.0
 21
-2.25
 70
160
 71
2
 72
2
 41
0.9
 42
58.0
  3
DIMSTYLE_1
100
AcDbAlignedDimension
 13
33.0
 23
29.0
 14
33.0
 24
-29.0
 50
270.0
100
AcDbRotatedDimension
  0
DIMENSION
  5
25E
100
AcDbEntity
  8
0
100
AcDbDimension
 62
7
  6
CONTINUOUS
  2
*D4
 10
-86.389008533
 20
-36.7
 11
-86.389008533
 21
-4.2857142857
 70
160
 71
2
 72
2
 41
0.9
 42
73.4
  3
DIMSTYLE_1
100
AcDbAlignedDimension
 13
-73.3871779605
 23
36.7
 14
-73.3871779605
 24
-36.7
 50
270.0
100
AcDbRotatedDimension
  0
DIMENSION
  5
25F
100
AcDbEntity
  8
0
100
AcDbDimension
 62
7
  6
CONTINUOUS
  2
*D5
 10
-62.3871941368
 20
44.7
 11
-69.6014717629
 21
44.7
 70
160
 71
2
 72
2
 41
0.9
 42
10.9999838236
  3
DIMSTYLE_1
100
AcDbAlignedDimension
 13
-73.3871779605
 23
36.7
 14
-62.3871941368
 24
16.9133016579
100
AcDbRotatedDimension
  0
DIMENSION
  5
260
100
AcDbEntity
  8
0
100
AcDbDimension
 62
7
  6
CONTINUOUS
  2
*D6
 10
-62.3871941368
 20
54.7
 11
-72.4229003344
 21
54.7
 70
160
 71
2
 72
2
 41
0.9
 42
15.9999838236
  3
DIMSTYLE_1
100
AcDbAlignedDimension
 13
-78.3871779605
 23
15.25
 14
-62.3871941368
 24
11.75
100
AcDbRotatedDimension
  0
LWPOLYLINE
  5
261
100
AcDbEntity
  8
0
100
AcDbPolyline
 62
7
  6
CONTINUOUS
 90
10
 70
0
 43
0.3500000006
 10
1.0714285848
 20
68.4500024414
 10
0.4285714127
 20
67.8071399231
 10
0.0
 20
66.9500019836
 10
0.0
 20
65.8785704956
 10
0.4285714127
 20
65.4500015259
 10
1.0714285848
 20
65.4500015259
 10
1.5000000329
 20
65.8785704956
 10
1.5000000329
 20
66.7357174988
 10
1.0714285848
 20
67.1642864685
 10
0.1428571435
 20
67.1642864685
  0
LINE
  5
262
100
AcDbEntity
  8
0
100
AcDbLine
 62
7
  6
CONTINUOUS
 10
-43.0
 20
3.25
 11
-43.0
 21
-3.25
  0
LINE
  5
263
100
AcDbEntity
  8
0
100
AcDbLine
 62
7
  6
CONTINUOUS
 10
-41.3711307144
 20
3.25
 11
-41.3711307144
 21
-3.25
  0
LWPOLYLINE
  5
264
100
AcDbEntity
  8
RACCORDO
100
AcDbPolyline
 62
250
  6
CONTINUOUS
 90
28
 70
0
 10
-39.8386624453
 20
-26.5523670977
 10
-39.8217273603
 20
-27.1303844511
 10
-39.7713491813
 20
-27.7070829776
 10
-39.6875797263
 20
-28.2805266786
 10
-39.5705642651
 20
-28.8488784757
 10
-39.4205888583
 20
-29.4101039471
 10
-39.2381358493
 20
-29.9619927782
 10
-39.0237407524
 20
-30.5026976392
 10
-38.7780783321
 20
-31.0303304544
 10
-38.5021195622
 20
-31.5427102689
 10
-38.1968648031
 20
-32.038007062
 10
-37.8632997201
 20
-32.5146519557
 10
-37.5025964858
 20
-32.9709787313
 10
-37.1160384924
 20
-33.4053962147
 10
-36.7048990607
 20
-33.8165074976
 10
-36.2704544186
 20
-34.2030363268
 10
-35.8140983059
 20
-34.5637116962
 10
-35.3374247995
 20
-34.8972474736
 10
-34.8421103896
 20
-35.2024655518
 10
-34.3297261965
 20
-35.4783813932
 10
-33.8021019214
 20
-35.723997266
 10
-33.2614263804
 20
-35.9383415657
 10
-32.7095937258
 20
-36.1207412388
 10
-32.1484465917
 20
-36.2706663365
 10
-31.5801865943
 20
-36.387639514
 10
-31.0068446116
 20
-36.4713769772
 10
-30.4302597809
 20
-36.5217346286
 10
-29.8523670977
 20
-36.5386624453
  0
LWPOLYLINE
  5
265
100
AcDbEntity
  8
RACCORDO
100
AcDbPolyline
 62
250
  6
CONTINUOUS
 90
28
 70
0
 10
-38.3407181432
 20
-26.5523670977
 10
-38.3264313448
 20
-27.0456221797
 10
-38.283932819
 20
-27.5347464025
 10
-38.2132225659
 20
-28.0197397663
 10
-38.1139296788
 20
-28.5024007704
 10
-37.9864250644
 20
-28.9809309154
 10
-37.8318214425
 20
-29.4499347032
 10
-37.6497649107
 20
-29.9092439129
 10
-37.4406093714
 20
-30.3590267655
 10
-37.2065292517
 20
-30.7943924247
 10
-36.9472765499
 20
-31.215090394
 10
-36.6630992677
 20
-31.6213711701
 10
-36.3569158381
 20
-32.0090954065
 10
-36.0285512999
 20
-32.3780319995
 10
-35.6781806143
 20
-32.728412053
 10
-35.3092470979
 20
-33.0567895314
 10
-34.9215142775
 20
-33.3629912701
 10
-34.5152186264
 20
-33.6471904339
 10
-34.0945128803
 20
-33.9064604817
 10
-33.6591482911
 20
-34.1405500086
 10
-33.209373607
 20
-34.3497104196
 10
-32.7500878086
 20
-34.5317693881
 10
-32.281148722
 20
-34.6863705873
 10
-31.8026985211
 20
-34.8138703441
 10
-31.320062708
 20
-34.9131653127
 10
-30.8350164501
 20
-34.9838877111
 10
-30.34578458
 20
-35.0264053212
 10
-29.8523670977
 20
-35.0407181432
  0
LINE
  5
266
100
AcDbEntity
  8
ASSI
100
AcDbLine
 62
7
  6
CONTINUOUS
 10
-40.8
 20
-14.0
 11
-40.8
 21
-20.0
  0
LINE
  5
267
100
AcDbEntity
  8
ASSI
100
AcDbLine
 62
7
  6
CONTINUOUS
 10
-40.8
 20
14.0
 11
-40.8
 21
20.0
  0
LINE
  5
268
100
AcDbEntity
  8
RACCORDO
100
AcDbLine
 62
7
  6
CONTINUOUS
 10
-40.0
 20
26.7137046525
 11
-40.0
 21
20.0
  0
LINE
  5
269
100
AcDbEntity
  8
RACCORDO
100
AcDbLine
 62
7
  6
CONTINUOUS
 10
-40.0
 20
14.0
 11
-40.0
 21
3.25
  0
LINE
  5
26A
100
AcDbEntity
  8
RACCORDO
100
AcDbLine
 62
7
  6
CONTINUOUS
 10
-40.0
 20
-3.25
 11
-40.0
 21
-14.0
  0
LINE
  5
26B
100
AcDbEntity
  8
RACCORDO
100
AcDbLine
 62
7
  6
CONTINUOUS
 10
-40.0
 20
-20.0
 11
-40.0
 21
-26.7137046525
  0
LINE
  5
26C
100
AcDbEntity
  8
DRAFT
100
AcDbLine
 62
7
  6
CONTINUOUS
 10
-39.9475922207
 20
5.5
 11
-39.9475922207
 21
3.25
  0
LINE
  5
26D
100
AcDbEntity
  8
DRAFT
100
AcDbLine
 62
7
  6
CONTINUOUS
 10
-39.9475922207
 20
-3.25
 11
-39.9475922207
 21
-5.5
  0
LINE
  5
26E
100
AcDbEntity
  8
ASSI
100
AcDbLine
 62
250
  6
CONTINUOUS
 10
-39.9393398282
 20
-14.0
 11
-39.9393398282
 21
-20.0
  0
LINE
  5
26F
100
AcDbEntity
  8
ASSI
100
AcDbLine
 62
250
  6
CONTINUOUS
 10
-39.9393398282
 20
14.0
 11
-39.9393398282
 21
20.0
  0
LINE
  5
270
100
AcDbEntity
  8
ASSI
100
AcDbLine
 62
250
  6
CONTINUOUS
 10
-39.8386624453
 20
26.5523670977
 11
-39.8386624453
 21
20.0
  0
LINE
  5
271
100
AcDbEntity
  8
ASSI
100
AcDbLine
 62
250
  6
CONTINUOUS
 10
-39.8386624453
 20
14.0
 11
-39.8386624453
 21
5.518138829
  0
LINE
  5
272
100
AcDbEntity
  8
ASSI
100
AcDbLine
 62
250
  6
CONTINUOUS
 10
-39.8386624453
 20
-5.518138829
 11
-39.8386624453
 21
-14.0
  0
LINE
  5
273
100
AcDbEntity
  8
ASSI
100
AcDbLine
 62
250
  6
CONTINUOUS
 10
-39.8386624453
 20
-20.0
 11
-39.8386624453
 21
-26.5523670977
  0
LINE
  5
274
100
AcDbEntity
  8
ASSI
100
AcDbLine
 62
250
  6
CONTINUOUS
 10
-38.8786796564
 20
-14.0
 11
-38.8786796564
 21
-20.0
  0
LINE
  5
275
100
AcDbEntity
  8
ASSI
100
AcDbLine
 62
250
  6
CONTINUOUS
 10
-38.8786796564
 20
14.0
 11
-38.8786796564
 21
20.0
  0
LINE
  5
276
100
AcDbEntity
  8
DRAFT
100
AcDbLine
 62
7
  6
CONTINUOUS
 10
-38.5
 20
-5.5
 11
-38.5
 21
5.5
  0
LINE
  5
277
100
AcDbEntity
  8
RACCORDO
100
AcDbLine
 62
7
  6
CONTINUOUS
 10
-38.4711861052
 20
5.5288138948
 11
-38.4711861052
 21
-5.5288138948
  0
LINE
  5
278
100
AcDbEntity
  8
ASSI
100
AcDbLine
 62
250
  6
CONTINUOUS
 10
-38.3407181432
 20
26.5523670977
 11
-38.3407181432
 21
20.0
  0
LINE
  5
279
100
AcDbEntity
  8
ASSI
100
AcDbLine
 62
250
  6
CONTINUOUS
 10
-38.3407181432
 20
14.0
 11
-38.3407181432
 21
5.5304943898
  0
LINE
  5
27A
100
AcDbEntity
  8
ASSI
100
AcDbLine
 62
250
  6
CONTINUOUS
 10
-38.3407181432
 20
-5.5305440373
 11
-38.3407181432
 21
-14.0
  0
LINE
  5
27B
100
AcDbEntity
  8
ASSI
100
AcDbLine
 62
250
  6
CONTINUOUS
 10
-38.3407181432
 20
-20.0
 11
-38.3407181432
 21
-26.5523670977
  0
LINE
  5
27C
100
AcDbEntity
  8
RACCORDO
100
AcDbLine
 62
250
  6
CONTINUOUS
 10
-38.2711937206
 20
5.5305440373
 11
-38.2711937206
 21
-5.5305440373
  0
LINE
  5
27D
100
AcDbEntity
  8
RACCORDO
100
AcDbLine
 62
7
  6
CONTINUOUS
 10
-38.2
 20
25.8
 11
-38.2
 21
8.2000266549
  0
LINE
  5
27E
100
AcDbEntity
  8
RACCORDO
100
AcDbLine
 62
7
  6
CONTINUOUS
 10
-38.2
 20
-8.2
 11
-38.2
 21
-25.8
  0
LWPOLYLINE
  5
27F
100
AcDbEntity
  8
RACCORDO
100
AcDbPolyline
 62
7
  6
CONTINUOUS
 90
28
 70
0
 10
-36.8
 20
8.2000266549
 10
-36.8046015685
 20
8.1177877959
 10
-36.8186704836
 20
8.0379877691
 10
-36.8422067453
 20
7.9606265744
 10
-36.8760370291
 20
7.8842045265
 10
-36.9193346595
 20
7.8102213107
 10
-36.9696196101
 20
7.7431759835
 10
-37.0269695468
 20
7.6840752735
 10
-37.0913068036
 20
7.631912452
 10
-37.1599183555
 20
7.5881663894
 10
-37.2328637085
 20
7.5530797152
 10
-37.3100833567
 20
7.5264097999
 10
-37.3886857568
 20
7.5089076252
 10
-37.4687088813
 20
7.5008357498
 10
-37.5501147578
 20
7.501931615
 10
-37.6298979262
 20
7.5121585271
 10
-37.7080941839
 20
7.531875036
 10
-37.7846677335
 20
7.5607225918
 10
-37.8565057228
 20
7.5975888509
 10
-37.9234062214
 20
7.6428494355
 10
-37.9855711597
 20
7.6961287233
 10
-38.0404934771
 20
7.7551875037
 10
-38.0878159392
 20
7.8202573156
 10
-38.1278957805
 20
7.8911066201
 10
-38.1592976429
 20
7.9648015891
 10
-38.1815430741
 20
8.0403642798
 10
-38.1951105264
 20
8.1187726351
 10
-38.2
 20
8.2000266549
  0
LWPOLYLINE
  5
280
100
AcDbEntity
  8
RACCORDO
100
AcDbPolyline
 62
250
  6
CONTINUOUS
 90
28
 70
0
 10
29.8523670977
 20
-36.5386624453
 10
30.4303844511
 20
-36.5217273603
 10
31.0070829776
 20
-36.4713491813
 10
31.5805266786
 20
-36.3875797263
 10
32.1488784757
 20
-36.2705642651
 10
32.7101039471
 20
-36.1205888583
 10
33.2619927782
 20
-35.9381358493
 10
33.8026976392
 20
-35.7237407524
 10
34.3303304544
 20
-35.4780783321
 10
34.8427102689
 20
-35.2021195622
 10
35.338007062
 20
-34.8968648031
 10
35.8146519557
 20
-34.5632997201
 10
36.2709787313
 20
-34.2025964858
 10
36.7053962147
 20
-33.8160384924
 10
37.1165074976
 20
-33.4048990607
 10
37.5030363268
 20
-32.9704544186
 10
37.8637116962
 20
-32.5140983059
 10
38.1972474736
 20
-32.0374247995
 10
38.5024655518
 20
-31.5421103896
 10
38.7783813932
 20
-31.0297261965
 10
39.023997266
 20
-30.5021019214
 10
39.2383415657
 20
-29.9614263804
 10
39.4207412388
 20
-29.4095937258
 10
39.5706663365
 20
-28.8484465917
 10
39.687639514
 20
-28.2801865943
 10
39.7713769772
 20
-27.7068446116
 10
39.8217346286
 20
-27.1302597809
 10
39.8386624453
 20
-26.5523670977
  0
LINE
  5
281
100
AcDbEntity
  8
RACCORDO
100
AcDbLine
 62
7
  6
CONTINUOUS
 10
-36.8
 20
-25.8
 11
-36.8
 21
-8.2
  0
LINE
  5
282
100
AcDbEntity
  8
RACCORDO
100
AcDbLine
 62
7
  6
CONTINUOUS
 10
-36.8
 20
8.2000266549
 11
-36.8
 21
25.8
  0
LINE
  5
283
100
AcDbEntity
  8
RACCORDO
100
AcDbLine
 62
7
  6
CONTINUOUS
 10
-35.0
 20
15.25
 11
-35.0
 21
1.7320508076
  0
LINE
  5
284
100
AcDbEntity
  8
RACCORDO
100
AcDbLine
 62
7
  6
CONTINUOUS
 10
-35.0
 20
-1.7320508076
 11
-35.0
 21
-15.25
  0
LINE
  5
285
100
AcDbEntity
  8
RACCORDO
100
AcDbLine
 62
7
  6
CONTINUOUS
 10
-33.5
 20
-15.25
 11
-33.5
 21
-7.75
  0
LINE
  5
286
100
AcDbEntity
  8
RACCORDO
100
AcDbLine
 62
7
  6
CONTINUOUS
 10
-33.5
 20
7.75
 11
-33.5
 21
15.25
  0
LINE
  5
287
100
AcDbEntity
  8
RACCORDO
100
AcDbLine
 62
250
  6
CONTINUOUS
 10
-33.4788062794
 20
-2.2
 11
-33.4788062794
 21
2.2
  0
LWPOLYLINE
  5
288
100
AcDbEntity
  8
0
100
AcDbPolyline
 62
7
  6
CONTINUOUS
 90
10
 70
0
 10
-32.4908503196
 20
13.731019
 10
-32.531230833
 20
13.662495683
 10
-32.5789597832
 20
13.5960739073
 10
-32.6340371702
 20
13.531753673
 10
-32.6969179076
 20
13.4692703682
 10
-32.7671470818
 20
13.4088886047
 10
-32.8433599522
 20
13.3514022182
 10
-32.9251016053
 20
13.2970758206
 10
-33.0128269545
 20
13.2456448
 10
-33.106536
 20
13.1971091564
  0
LWPOLYLINE
  5
289
100
AcDbEntity
  8
0
100
AcDbPolyline
 62
7
  6
CONTINUOUS
 90
10
 70
0
 43
0.3500000006
 10
-1.2857142735
 20
48.4500008698
 10
-1.9285714102
 20
47.8071428833
 10
-2.3571427875
 20
46.950000412
 10
-2.3571427875
 20
45.8785734558
 10
-1.9285714102
 20
45.4499999542
 10
-1.2857142735
 20
45.4499999542
 10
-0.8571428254
 20
45.8785734558
 10
-0.8571428254
 20
46.7357159271
 10
-1.2857142735
 20
47.1642848969
 10
-2.2142856617
 20
47.1642848969
  0
LWPOLYLINE
  5
28A
100
AcDbEntity
  8
0
100
AcDbPolyline
 62
7
  6
CONTINUOUS
 90
10
 70
0
 43
0.3500000006
 10
1.0714285848
 20
48.4500008698
 10
0.4285714127
 20
47.8071428833
 10
0.0
 20
46.950000412
 10
0.0
 20
45.8785734558
 10
0.4285714127
 20
45.4499999542
 10
1.0714285848
 20
45.4499999542
 10
1.5000000329
 20
45.8785734558
 10
1.5000000329
 20
46.7357159271
 10
1.0714285848
 20
47.1642848969
 10
0.1428571435
 20
47.1642848969
  0
LWPOLYLINE
  5
28B
100
AcDbEntity
  8
RACCORDO
100
AcDbPolyline
 62
250
  6
CONTINUOUS
 90
28
 70
0
 10
29.8523670977
 20
-35.0407181432
 10
30.3456221797
 20
-35.0264313448
 10
30.8347464025
 20
-34.983932819
 10
31.3197397663
 20
-34.9132225659
 10
31.8024007704
 20
-34.8139296788
 10
32.2809309154
 20
-34.6864250644
 10
32.7499347032
 20
-34.5318214425
 10
33.2092439129
 20
-34.3497649107
 10
33.6590267655
 20
-34.1406093714
 10
34.0943924247
 20
-33.9065292517
 10
34.515090394
 20
-33.6472765499
 10
34.9213711701
 20
-33.3630992677
 10
35.3090954065
 20
-33.0569158381
 10
35.6780319995
 20
-32.7285512999
 10
36.028412053
 20
-32.3781806143
 10
36.3567895314
 20
-32.0092470979
 10
36.6629912701
 20
-31.6215142775
 10
36.9471904339
 20
-31.2152186264
 10
37.2064604817
 20
-30.7945128803
 10
37.4405500086
 20
-30.3591482911
 10
37.6497104196
 20
-29.909373607
 10
37.8317693881
 20
-29.4500878086
 10
37.9863705873
 20
-28.981148722
 10
38.1138703441
 20
-28.5026985211
 10
38.2131653127
 20
-28.020062708
 10
38.2838877111
 20
-27.5350164501
 10
38.3264053212
 20
-27.04578458
 10
38.3407181432
 20
-26.5523670977
  0
LINE
  5
28C
100
AcDbEntity
  8
RACCORDO
100
AcDbLine
 62
7
  6
CONTINUOUS
 10
2.3813791011
 20
-33.4962168839
 11
2.5875215975
 21
-33.4925490811
  0
LINE
  5
28D
100
AcDbEntity
  8
RACCORDO
100
AcDbLine
 62
7
  6
CONTINUOUS
 10
2.3221003053
 20
-33.4969840051
 11
2.3813791011
 21
-33.4962168839
  0
LINE
  5
28E
100
AcDbEntity
  8
RACCORDO
100
AcDbLine
 62
7
  6
CONTINUOUS
 10
2.5875215975
 20
-33.4925490811
 11
2.6204938322
 21
-33.4921389916
  0
LINE
  5
28F
100
AcDbEntity
  8
RACCORDO
100
AcDbLine
 62
7
  6
CONTINUOUS
 10
2.2553914281
 20
-33.4975082165
 11
2.3221003053
 21
-33.4969840051
  0
LINE
  5
290
100
AcDbEntity
  8
RACCORDO
100
AcDbLine
 62
7
  6
CONTINUOUS
 10
2.6204938322
 20
-33.4921389916
 11
2.651826247
 21
-33.4919256151
  0
LINE
  5
291
100
AcDbEntity
  8
RACCORDO
100
AcDbLine
 62
7
  6
CONTINUOUS
 10
-30.0137046525
 20
-36.7
 11
30.0137046525
 21
-36.7
  0
LINE
  5
292
100
AcDbEntity
  8
RACCORDO
100
AcDbLine
 62
250
  6
CONTINUOUS
 10
-29.8523670977
 20
-36.5386624453
 11
29.8523670977
 21
-36.5386624453
  0
LINE
  5
293
100
AcDbEntity
  8
RACCORDO
100
AcDbLine
 62
250
  6
CONTINUOUS
 10
-29.8523670977
 20
-35.0407181432
 11
29.8523670977
 21
-35.0407181432
  0
LINE
  5
294
100
AcDbEntity
  8
RACCORDO
100
AcDbLine
 62
7
  6
CONTINUOUS
 10
-2.1999999986
 20
-33.4976513105
 11
2.2553914281
 21
-33.4975082165
  0
LINE
  5
295
100
AcDbEntity
  8
RACCORDO
100
AcDbLine
 62
7
  6
CONTINUOUS
 10
25.3
 20
-33.4918713663
 11
2.651826247
 21
-33.4919256151
  0
LINE
  5
296
100
AcDbEntity
  8
RACCORDO
100
AcDbLine
 62
7
  6
CONTINUOUS
 10
-25.3
 20
-33.4918713663
 11
-2.6510135549
 21
-33.4919127951
  0
LINE
  5
297
100
AcDbEntity
  8
RACCORDO
100
AcDbLine
 62
7
  6
CONTINUOUS
 10
-2.2579194274
 20
-33.4975019834
 11
-2.1999999986
 21
-33.4976513105
  0
LINE
  5
298
100
AcDbEntity
  8
RACCORDO
100
AcDbLine
 62
7
  6
CONTINUOUS
 10
-2.6510135549
 20
-33.4919127951
 11
-2.6246880479
 21
-33.4920804737
  0
LINE
  5
299
100
AcDbEntity
  8
RACCORDO
100
AcDbLine
 62
7
  6
CONTINUOUS
 10
-2.3109693965
 20
-33.4971019654
 11
-2.2579194274
 21
-33.4975019834
  0
LINE
  5
29A
100
AcDbEntity
  8
RACCORDO
100
AcDbLine
 62
7
  6
CONTINUOUS
 10
-2.3747963392
 20
-33.49631842
 11
-2.3109693965
 21
-33.4971019654
  0
LINE
  5
29B
100
AcDbEntity
  8
RACCORDO
100
AcDbLine
 62
7
  6
CONTINUOUS
 10
-2.6246880479
 20
-33.4920804737
 11
-2.5881532779
 21
-33.4925262205
  0
LINE
  5
29C
100
AcDbEntity
  8
RACCORDO
100
AcDbLine
 62
7
  6
CONTINUOUS
 10
-2.5881532779
 20
-33.4925262205
 11
-2.3747963392
 21
-33.49631842
  0
LWPOLYLINE
  5
29D
100
AcDbEntity
  8
RACCORDO
100
AcDbPolyline
 62
250
  6
CONTINUOUS
 90
40
 70
0
 10
-2.6589716788
 20
-33.4918713663
 10
-2.932654158
 20
-33.4451205269
 10
-3.1987536815
 20
-33.3787353402
 10
-3.4572702492
 20
-33.2927158062
 10
-3.7095670858
 20
-33.1863350259
 10
-3.9542809665
 20
-33.0603198984
 10
-4.1873222176
 20
-32.9168511208
 10
-4.4085126407
 20
-32.7556986197
 10
-4.6180304342
 20
-32.5770924685
 10
-4.8123205189
 20
-32.3839035853
 10
-4.991205365
 20
-32.1758620806
 10
-5.1548625024
 20
-31.9532378438
 10
-5.3002694419
 20
-31.7197114603
 10
-5.427160444
 20
-31.4750092347
 10
-5.5358012483
 20
-31.2194048623
 10
-5.6239665845
 20
-30.9574000142
 10
-5.6912645124
 20
-30.6887587681
 10
-5.7380869722
 20
-30.4137170464
 10
-5.7633845149
 20
-30.1374842868
 10
-5.7666661569
 20
-29.860007416
 10
-5.7484228817
 20
-29.5813395073
 10
-5.7090781911
 20
-29.3068492191
 10
-5.6481914408
 20
-29.0367195857
 10
-5.5662032749
 20
-28.7707675728
 10
-5.4648591274
 20
-28.5138127355
 10
-5.3438408243
 20
-28.2661113194
 10
-5.2034665395
 20
-28.0274070791
 10
-5.0464362283
 20
-27.8017508331
 10
-4.8725467118
 20
-27.5894193468
 10
-4.682001169
 20
-27.3901358549
 10
-4.4781090914
 20
-27.2071208801
 10
-4.2606771987
 20
-27.0406075425
 10
-4.0298987714
 20
-26.890362722
 10
-3.7896631419
 20
-26.7589075809
 10
-3.539689969
 20
-26.6465112082
 10
-3.280259594
 20
-26.5529045149
 10
-3.0161023738
 20
-26.4798013963
 10
-2.7487950943
 20
-26.4277731507
 10
-2.4767609697
 20
-26.3962484798
 10
-2.2
 20
-26.3852273835
  0
LWPOLYLINE
  5
29E
100
AcDbEntity
  8
0
100
AcDbPolyline
 62
7
  6
CONTINUOUS
 90
12
 70
0
 10
-17.9729022095
 20
-31.684068675
 10
-18.0401977929
 20
-31.6640265177
 10
-18.1026942397
 20
-31.6372495642
 10
-18.1603915497
 20
-31.6037378145
 10
-18.2140543469
 20
-31.5627440861
 10
-18.2629180075
 20
-31.5150155615
 10
-18.3046886596
 20
-31.4627937886
 10
-18.3389402594
 20
-31.405871208
 10
-18.3660988508
 20
-31.3444553792
 10
-18.3851486944
 20
-31.2814105274
 10
-18.3957512106
 20
-31.2176913946
 10
-18.3985587516
 20
-31.1612618386
  0
LWPOLYLINE
  5
29F
100
AcDbEntity
  8
0
100
AcDbPolyline
 62
7
  6
CONTINUOUS
 90
10
 70
0
 10
-15.1954225841
 20
-31.684068675
 10
-15.2682180774
 20
-31.6561253512
 10
-15.334697904
 20
-31.6210475038
 10
-15.3948620637
 20
-31.5788351327
 10
-15.44943915
 20
-31.5285423346
 10
-15.4977005694
 20
-31.4711150129
 10
-15.5374605421
 20
-31.4093908777
 10
-15.5679904748
 20
-31.3443158326
 10
-15.5900189608
 20
-31.2749439742
 10
-15.603546
 20
-31.2012753023
  0
LWPOLYLINE
  5
2A0
100
AcDbEntity
  8
0
100
AcDbPolyline
 62
7
  6
CONTINUOUS
 90
34
 70
0
 10
-29.9996125215
 20
12.6446352976
 10
-29.9982545895
 20
12.5364713659
 10
-29.992557437
 20
12.4321586534
 10
-29.9825210641
 20
12.3316971603
 10
-29.9685110509
 20
12.2346374905
 10
-29.9501618172
 20
12.14142904
 10
-29.9263766231
 20
12.0534199969
 10
-29.8969921903
 20
11.9702174555
 10
-29.862171797
 20
11.8922143214
 10
-29.8213085379
 20
11.8219374991
 10
-29.7740174311
 20
11.7600072174
 10
-29.7206834584
 20
11.7058032474
 10
-29.6618546607
 20
11.6599918074
 10
-29.5972646634
 20
11.6226786264
 10
-29.5271798409
 20
11.5937579753
 10
-29.4529473578
 20
11.5735788848
 10
-29.3726323842
 20
11.5621680112
 10
-29.28816975
 20
11.5594986982
 10
-29.2067111083
 20
11.5658400068
 10
-29.1298524401
 20
11.5812547997
 10
-29.0559977644
 20
11.6056802144
 10
-28.9875107921
 20
11.6391967238
 10
-28.9251005273
 20
11.6819548154
 10
-28.8680579658
 20
11.7338040018
 10
-28.8166198061
 20
11.7943732943
 10
-28.7705992767
 20
11.8644000621
 10
-28.7301831491
 20
11.9431469361
 10
-28.6961684356
 20
12.0280308204
 10
-28.669289198
 20
12.1187974378
 10
-28.6488113747
 20
12.2157010655
 10
-28.6333297929
 20
12.316921439
 10
-28.6223760618
 20
12.4218518033
 10
-28.6164185723
 20
12.5310989134
 10
-28.6154573243
 20
12.6446627692
  0
LINE
  5
2A1
100
AcDbEntity
  8
RACCORDO
100
AcDbLine
 62
7
  6
CONTINUOUS
 10
-33.2788138948
 20
-2.2
 11
-33.2788138948
 21
2.2
  0
LINE
  5
2A2
100
AcDbEntity
  8
DRAFT
100
AcDbLine
 62
7
  6
CONTINUOUS
 10
-33.25
 20
2.2
 11
-33.25
 21
-2.2
  0
LINE
  5
2A3
100
AcDbEntity
  8
0
100
AcDbLine
 62
7
  6
CONTINUOUS
 10
-33.106536
 20
13.1971091564
 11
-33.106536
 21
12.9446809353
  0
LINE
  5
2A4
100
AcDbEntity
  8
ASSI
100
AcDbLine
 62
7
  6
CONTINUOUS
 10
-33.1
 20
2.2
 11
-33.1
 21
-2.2
  0
LINE
  5
2A5
100
AcDbEntity
  8
0
100
AcDbLine
 62
7
  6
CONTINUOUS
 10
-32.583765
 20
13.2594851865
 11
-32.583765
 21
11.59538
  0
LINE
  5
2A6
100
AcDbEntity
  8
0
100
AcDbLine
 62
7
  6
CONTINUOUS
 10
-32.322379
 20
11.59538
 11
-32.322379
 21
13.731019
  0
LINE
  5
2A7
100
AcDbEntity
  8
ASSI
100
AcDbLine
 62
7
  6
CONTINUOUS
 10
-31.8
 20
2.0
 11
-31.8
 21
-2.0
  0
LINE
  5
2A8
100
AcDbEntity
  8
0
100
AcDbLine
 62
7
  6
CONTINUOUS
 10
-31.636242
 20
13.695375
 11
-31.636242
 21
13.445871
  0
LINE
  5
2A9
100
AcDbEntity
  8
0
100
AcDbLine
 62
7
  6
CONTINUOUS
 10
-31.35
 20
3.1894527801
 11
-31.35
 21
-3.1894527801
  0
LINE
  5
2AA
100
AcDbEntity
  8
0
100
AcDbLine
 62
7
  6
CONTINUOUS
 10
-30.260998
 20
13.4934421195
 11
-30.260998
 21
13.695375
  0
LINE
  5
2AB
100
AcDbEntity
  8
RACCORDO
100
AcDbLine
 62
250
  6
CONTINUOUS
 10
-29.8523670977
 20
-35.0407181432
 11
-29.8523670977
 21
-36.5386624453
  0
LINE
  5
2AC
100
AcDbEntity
  8
RACCORDO
100
AcDbLine
 62
250
  6
CONTINUOUS
 10
-29.8523670977
 20
35.0407181432
 11
-29.8523670962
 21
36.5386624453
  0
LWPOLYLINE
  5
2AD
100
AcDbEntity
  8
0
100
AcDbPolyline
 62
7
  6
CONTINUOUS
 90
37
 70
0
 10
-29.7322864215
 20
12.6438927138
 10
-29.7317991087
 20
12.718496865
 10
-29.7295460353
 20
12.7909063245
 10
-29.7255272013
 20
12.8611210922
 10
-29.7198907257
 20
12.9291127557
 10
-29.7124884895
 20
12.9949097274
 10
-29.7028761358
 20
13.0585972449
 10
-29.6914068167
 20
13.1207992062
 10
-29.6777273801
 20
13.1808917134
 10
-29.6603340123
 20
13.2370883095
 10
-29.63879146
 20
13.289284952
 10
-29.6135349766
 20
13.3375856836
 10
-29.5843665093
 20
13.3805161753
 10
-29.5509921672
 20
13.4179067772
 10
-29.5137058411
 20
13.4499271392
 10
-29.4731911505
 20
13.4756118816
 10
-29.4288929955
 20
13.4947919758
 10
-29.381366476
 20
13.5076364503
 10
-29.332960511
 20
13.5136870111
 10
-29.2834195079
 20
13.5128110706
 10
-29.2329990593
 20
13.5051412163
 10
-29.1848148622
 20
13.490616917
 10
-29.1393382858
 20
13.4690098727
 10
-29.096097961
 20
13.4405483834
 10
-29.0567954767
 20
13.4058568178
 10
-29.0217692316
 20
13.3646843152
 10
-28.9906808271
 20
13.3172817364
 10
-28.9642166562
 20
13.2650260321
 10
-28.943134305
 20
13.2076163849
 10
-28.9266761874
 20
13.1453536122
 10
-28.9132559382
 20
13.0805171172
 10
-28.90273638
 20
13.0137724105
 10
-28.8952546903
 20
12.9444539815
 10
-28.8896360364
 20
12.8728447017
 10
-28.8854888078
 20
12.7990388614
 10
-28.883204615
 20
12.7229421703
 10
-28.8827834583
 20
12.6445546283
  0
LWPOLYLINE
  5
2AE
100
AcDbEntity
  8
0
100
AcDbPolyline
 62
7
  6
CONTINUOUS
 90
13
 70
0
 10
-31.071887271
 20
11.59538
 10
-31.0475831034
 20
11.8039056109
 10
-31.0131221463
 20
12.0029065023
 10
-30.9685043997
 20
12.1923826742
 10
-30.9120067221
 20
12.3720731129
 10
-30.8453522551
 20
12.542238832
 10
-30.7737104236
 20
12.7036628729
 10
-30.6983771704
 20
12.8564860949
 10
-30.6180565528
 20
13.0005676386
 10
-30.5340301673
 20
13.1362679667
 10
-30.4467252128
 20
13.2637072333
 10
-30.3557144903
 20
13.3827652842
 10
-30.260998
 20
13.4934421195
  0
LWPOLYLINE
  5
2AF
100
AcDbEntity
  8
0
100
AcDbPolyline
 62
7
  6
CONTINUOUS
 90
13
 70
0
 10
-30.5966408211
 20
13.445871
 10
-30.7171970641
 20
13.2902588562
 10
-30.8264681723
 20
13.133010349
 10
-30.9244541457
 20
12.9741254784
 10
-31.0108475479
 20
12.8121545649
 10
-31.0859558152
 20
12.6485472879
 10
-31.1507012571
 20
12.4876526864
 10
-31.2048056003
 20
12.3306452303
 10
-31.2485471182
 20
12.1763504496
 10
-31.2836829397
 20
12.0255939733
 10
-31.3107987747
 20
11.8786510111
 10
-31.3293089134
 20
11.7352463533
 10
-31.3392133558
 20
11.59538
  0
LINE
  5
2B0
100
AcDbEntity
  8
RACCORDO
100
AcDbLine
 62
7
  6
CONTINUOUS
 10
-38.5
 20
5.5
 11
-38.4711861052
 21
5.5288138948
  0
LWPOLYLINE
  5
2B1
100
AcDbEntity
  8
RACCORDO
100
AcDbPolyline
 62
250
  6
CONTINUOUS
 90
37
 70
0
 10
2.2
 20
-33.2736708559
 10
2.4818569846
 20
-33.2614929968
 10
2.7618736517
 20
-33.2250081375
 10
3.0379474882
 20
-33.1644215224
 10
3.3079327131
 20
-33.0801424655
 10
3.5698499124
 20
-32.9727289211
 10
3.8218808732
 20
-32.8428305657
 10
4.0620977891
 20
-32.6913027822
 10
4.2885922131
 20
-32.5192063862
 10
4.4996525924
 20
-32.3276851432
 10
4.6936109002
 20
-32.1180472164
 10
4.8688356133
 20
-31.891834454
 10
5.0238425658
 20
-31.650755428
 10
5.157350212
 20
-31.3965572997
 10
5.2681901722
 20
-31.1311814096
 10
5.3553450957
 20
-30.8568283016
 10
5.4180737331
 20
-30.5755663982
 10
5.4558022004
 20
-30.2896040362
 10
5.4681739129
 20
-30.0014726716
 10
5.4550987879
 20
-29.7133986925
 10
5.4166848859
 20
-29.4276421582
 10
5.353345236
 20
-29.1467750212
 10
5.2656923082
 20
-28.8730067518
 10
5.1544916427
 20
-28.608366641
 10
5.0208009344
 20
-28.3550163021
 10
4.8658482799
 20
-28.1149228439
 10
4.6908948718
 20
-27.8897338879
 10
4.4972865818
 20
-27.6809553874
 10
4.2865540375
 20
-27.4900798529
 10
4.0603782855
 20
-27.3184876302
 10
3.8204590953
 20
-27.1673383317
 10
3.5686319232
 20
-27.037688374
 10
3.3068367559
 20
-26.930443957
 10
3.0370280148
 20
-26.8463159895
 10
2.7612293591
 20
-26.7858588234
 10
2.4815234894
 20
-26.7494572823
 10
2.2
 20
-26.7373104138
  0
LINE
  5
2B2
100
AcDbEntity
  8
RACCORDO
100
AcDbLine
 62
7
  6
CONTINUOUS
 10
2.2
 20
-33.2736708559
 11
-2.2
 21
-33.2736708559
  0
LINE
  5
2B3
100
AcDbEntity
  8
DRAFT
100
AcDbLine
 62
7
  6
CONTINUOUS
 10
-2.2
 20
-33.25
 11
2.2
 21
-33.25
  0
LINE
  5
2B4
100
AcDbEntity
  8
ASSI
100
AcDbLine
 62
7
  6
CONTINUOUS
 10
-2.2
 20
-31.8
 11
2.2
 21
-31.8
  0
LINE
  5
2B5
100
AcDbEntity
  8
0
100
AcDbLine
 62
7
  6
CONTINUOUS
 10
-20.042745
 20
-31.684068675
 11
-19.085646
 21
-31.684068675
  0
LINE
  5
2B6
100
AcDbEntity
  8
0
100
AcDbLine
 62
7
  6
CONTINUOUS
 10
-17.9729022095
 20
-31.684068675
 11
-16.220604
 21
-31.684068675
  0
LINE
  5
2B7
100
AcDbEntity
  8
0
100
AcDbLine
 62
7
  6
CONTINUOUS
 10
-15.1954225841
 20
-31.684068675
 11
-13.704635
 21
-31.684068675
  0
LINE
  5
2B8
100
AcDbEntity
  8
0
100
AcDbLine
 62
7
  6
CONTINUOUS
 10
-12.3465006199
 20
-31.684068675
 11
-10.59758
 21
-31.684068675
  0
LINE
  5
2B9
100
AcDbEntity
  8
0
100
AcDbLine
 62
7
  6
CONTINUOUS
 10
-3.39058809
 20
-31.35
 11
3.39058809
 21
-31.35
  0
LINE
  5
2BA
100
AcDbEntity
  8
0
100
AcDbLine
 62
7
  6
CONTINUOUS
 10
21.099736
 20
-31.0518239256
 11
21.820624
 21
-31.0518161668
  0
LINE
  5
2BB
100
AcDbEntity
  8
0
100
AcDbLine
 62
7
  6
CONTINUOUS
 10
16.138
 20
-31.0518316843
 11
16.778024
 21
-31.0518239256
  0
LINE
  5
2BC
100
AcDbEntity
  8
0
100
AcDbLine
 62
7
  6
CONTINUOUS
 10
13.826176
 20
-31.0518316843
 11
14.466184
 21
-31.0518239256
  0
LINE
  5
2BD
100
AcDbEntity
  8
0
100
AcDbLine
 62
7
  6
CONTINUOUS
 10
11.301016
 20
-31.0518394431
 11
11.94104
 21
-31.0518316843
  0
LINE
  5
2BE
100
AcDbEntity
  8
0
100
AcDbLine
 62
7
  6
CONTINUOUS
 10
9.206832
 20
-31.0518394431
 11
9.84688
 21
-31.0518316843
  0
LINE
  5
2BF
100
AcDbEntity
  8
0
100
AcDbLine
 62
7
  6
CONTINUOUS
 10
12.581048
 20
-31.0518316843
 11
13.221072
 21
-31.0518316843
  0
LINE
  5
2C0
100
AcDbEntity
  8
0
100
AcDbLine
 62
7
  6
CONTINUOUS
 10
15.071296
 20
-31.0518316843
 11
15.71132
 21
-31.0518316843
  0
LINE
  5
2C1
100
AcDbEntity
  8
0
100
AcDbLine
 62
7
  6
CONTINUOUS
 10
19.259648
 20
-31.0518239256
 11
19.89968
 21
-31.0518239256
  0
LINE
  5
2C2
100
AcDbEntity
  8
0
100
AcDbLine
 62
7
  6
CONTINUOUS
 10
18.192936
 20
-31.0518239256
 11
18.832968
 21
-31.0518316843
  0
LINE
  5
2C3
100
AcDbEntity
  8
0
100
AcDbLine
 62
7
  6
CONTINUOUS
 10
16.98008
 20
-30.4414724867
 11
17.990888
 21
-30.4414724867
  0
LINE
  5
2C4
100
AcDbEntity
  8
0
100
AcDbLine
 62
7
  6
CONTINUOUS
 10
17.795656
 20
-29.8865122892
 11
17.175304
 21
-29.8865122892
  0
LINE
  5
2C5
100
AcDbEntity
  8
0
100
AcDbLine
 62
7
  6
CONTINUOUS
 10
17.795656
 20
-29.8517826537
 11
17.175304
 21
-29.8517826537
  0
LINE
  5
2C6
100
AcDbEntity
  8
0
100
AcDbLine
 62
7
  6
CONTINUOUS
 10
19.899752
 20
-29.8517748949
 11
20.458352
 21
-29.8517826537
  0
LWPOLYLINE
  5
2C7
100
AcDbEntity
  8
0
100
AcDbPolyline
 62
7
  6
CONTINUOUS
 90
10
 70
0
 10
-16.460137
 20
-29.0806268172
 10
-16.5243159363
 20
-29.0626288679
 10
-16.5878731192
 20
-29.0534273985
 10
-16.6508085486
 20
-29.0530224091
 10
-16.7143625727
 20
-29.0617782259
 10
-16.7772948434
 20
-29.0793305227
 10
-16.8358843165
 20
-29.1045863205
 10
-16.8888906439
 20
-29.1371812931
 10
-16.9375541737
 20
-29.1774797666
 10
-16.981874906
 20
-29.2254817412
  0
LINE
  5
2C8
100
AcDbEntity
  8
RACCORDO
100
AcDbLine
 62
7
  6
CONTINUOUS
 10
-38.5
 20
-5.5
 11
-38.4711861052
 21
-5.5288138948
  0
LWPOLYLINE
  5
2C9
100
AcDbEntity
  8
0
100
AcDbPolyline
 62
7
  6
CONTINUOUS
 90
34
 70
0
 10
-28.6154573243
 20
12.6446627692
 10
-28.6156924024
 20
12.7547180263
 10
-28.6208655452
 20
12.8605858748
 10
-28.6309767528
 20
12.9622663148
 10
-28.6458242754
 20
13.0601766701
 10
-28.6656098626
 20
13.153899617
 10
-28.6909387641
 20
13.2421831835
 10
-28.7220191158
 20
13.3253999146
 10
-28.7586427817
 20
13.4031772653
 10
-28.8007906028
 20
13.4731456294
 10
-28.8486986226
 20
13.5347733612
 10
-28.9021307976
 20
13.5885921064
 10
-28.9603598387
 20
13.6338271948
 10
-29.0233360016
 20
13.670148399
 10
-29.0911090306
 20
13.6978859465
 10
-29.1631008689
 20
13.71725585
 10
-29.241292903
 20
13.7285058932
 10
-29.3237037463
 20
13.7313882924
 10
-29.4038111823
 20
13.7253757101
 10
-29.4804491755
 20
13.7103750528
 10
-29.5547837613
 20
13.6864794139
 10
-29.6237908299
 20
13.6534407369
 10
-29.6865015526
 20
13.6111980714
 10
-29.743884758
 20
13.5598123677
 10
-29.7958228227
 20
13.4992184203
 10
-29.8426951592
 20
13.4282602457
 10
-29.8841223549
 20
13.3480938274
 10
-29.9188485489
 20
13.2621219104
 10
-29.9458758776
 20
13.1709804145
 10
-29.9662022046
 20
13.07403342
 10
-29.9815652595
 20
12.9727759125
 10
-29.9925442855
 20
12.8677062205
 10
-29.9985600395
 20
12.7583260156
 10
-29.9996125215
 20
12.6446352976
  0
LINE
  5
2CA
100
AcDbEntity
  8
0
100
AcDbLine
 62
250
  6
CONTINUOUS
 10
-28.8
 20
-3.3406088205
 11
-28.8
 21
3.3406088205
  0
LINE
  5
2CB
100
AcDbEntity
  8
0
100
AcDbLine
 62
7
  6
CONTINUOUS
 10
-28.65
 20
3.1894527801
 11
-28.65
 21
0.7337885493
  0
LINE
  5
2CC
100
AcDbEntity
  8
0
100
AcDbLine
 62
7
  6
CONTINUOUS
 10
-28.65
 20
-0.7337885493
 11
-28.65
 21
-3.1894527801
  0
LINE
  5
2CD
100
AcDbEntity
  8
ASSI
100
AcDbLine
 62
7
  6
CONTINUOUS
 10
-28.2
 20
-2.0
 11
-28.2
 21
-1.6494396592
  0
LINE
  5
2CE
100
AcDbEntity
  8
ASSI
100
AcDbLine
 62
7
  6
CONTINUOUS
 10
-28.2
 20
1.6494396592
 11
-28.2
 21
2.0
  0
LINE
  5
2CF
100
AcDbEntity
  8
0
100
AcDbLine
 62
7
  6
CONTINUOUS
 10
-27.1426949447
 20
-0.35
 11
-27.1426949447
 21
-0.0726172387
  0
LINE
  5
2D0
100
AcDbEntity
  8
0
100
AcDbLine
 62
7
  6
CONTINUOUS
 10
-27.1426949447
 20
0.0726172387
 11
-27.1426949447
 21
0.35
  0
LINE
  5
2D1
100
AcDbEntity
  8
0
100
AcDbLine
 62
7
  6
CONTINUOUS
 10
-26.5
 20
-2.6329543503
 11
-26.5
 21
-0.5860176963
  0
LINE
  5
2D2
100
AcDbEntity
  8
0
100
AcDbLine
 62
7
  6
CONTINUOUS
 10
-26.5
 20
0.5860176963
 11
-26.5
 21
2.6329543503
  0
LINE
  5
2D3
100
AcDbEntity
  8
0
100
AcDbLine
 62
7
  6
CONTINUOUS
 10
-26.35
 20
-1.4917020703
 11
-26.35
 21
-1.0901949367
  0
LINE
  5
2D4
100
AcDbEntity
  8
0
100
AcDbLine
 62
7
  6
CONTINUOUS
 10
-26.35
 20
1.0901949367
 11
-26.35
 21
1.4917020703
  0
LWPOLYLINE
  5
2D5
100
AcDbEntity
  8
0
100
AcDbPolyline
 62
7
  6
CONTINUOUS
 90
34
 70
0
 10
-28.8827834583
 20
12.6445546283
 10
-28.883191961
 20
12.5603958054
 10
-28.8858387387
 20
12.4788557835
 10
-28.8907237913
 20
12.3999345626
 10
-28.8973117267
 20
12.3233987516
 10
-28.9061379371
 20
12.2494817416
 10
-28.9188085989
 20
12.1788837059
 10
-28.9353571862
 20
12.110947675
 10
-28.9557502249
 20
12.0463306183
 10
-28.9814934688
 20
11.9877036176
 10
-29.0136879992
 20
11.9354185112
 10
-29.0512327348
 20
11.8891234608
 10
-29.0923301853
 20
11.8504340331
 10
-29.1371850819
 20
11.819803708
 10
-29.1855926935
 20
11.7967790056
 10
-29.235141336
 20
11.781615053
 10
-29.2857940299
 20
11.7743850043
 10
-29.3375877548
 20
11.7750157055
 10
-29.3882217657
 20
11.7835428211
 10
-29.4378660187
 20
11.8001297127
 10
-29.4863505577
 20
11.8246130188
 10
-29.5308647702
 20
11.8565383196
 10
-29.5708994526
 20
11.8964481873
 10
-29.6069638083
 20
11.9438000497
 10
-29.6377748352
 20
11.9965117705
 10
-29.6623487589
 20
12.0545772466
 10
-29.6816693537
 20
12.1180025811
 10
-29.6974049404
 20
12.1847239475
 10
-29.7096517563
 20
12.2542848277
 10
-29.7183135641
 20
12.3271417397
 10
-29.7247699736
 20
12.4026004116
 10
-29.7294808546
 20
12.4804294192
 10
-29.7319863372
 20
12.5608601866
 10
-29.7322864215
 20
12.6438927138
  0
LWPOLYLINE
  5
2D6
100
AcDbEntity
  8
0
100
AcDbPolyline
 62
7
  6
CONTINUOUS
 90
10
 70
0
 10
-27.9476429476
 20
0.35
 10
-27.9492111406
 20
0.2723539704
 10
-27.9503872854
 20
0.1946420669
 10
-27.9511713819
 20
0.1168642894
 10
-27.9515634301
 20
0.0389767221
 10
-27.9515634301
 20
-0.0389767192
 10
-27.9511713819
 20
-0.1168642868
 10
-27.9503872854
 20
-0.1946420649
 10
-27.9492111406
 20
-0.2723539693
 10
-27.9476429476
 20
-0.35
  0
LWPOLYLINE
  5
2D7
100
AcDbEntity
  8
0
100
AcDbPolyline
 62
7
  6
CONTINUOUS
 90
25
 70
0
 10
-27.2194393411
 20
12.2047456993
 10
-27.2226695564
 20
12.1445509905
 10
-27.2320293561
 20
12.0883539557
 10
-27.24751874
 20
12.036154595
 10
-27.2693032963
 20
11.9877538675
 10
-27.297217437
 20
11.9433508141
 10
-27.3307643977
 20
11.9035425569
 10
-27.3700885424
 20
11.8681065607
 10
-27.4150455072
 20
11.8372653607
 10
-27.4647054364
 20
11.8122836846
 10
-27.5204225606
 20
11.7930491455
 10
-27.5808426493
 20
11.7796741304
 10
-27.6409731551
 20
11.7737605268
 10
-27.7002413472
 20
11.7760361897
 10
-27.7592199564
 20
11.7857732643
 10
-27.8146346281
 20
11.8023900744
 10
-27.8659575039
 20
11.8261694397
 10
-27.9137164421
 20
11.8568285405
 10
-27.9562206632
 20
11.8929372414
 10
-27.9934154589
 20
11.9344824732
 10
-28.0253555374
 20
11.9814773052
 10
-28.0505142435
 20
12.0325308095
 10
-28.0683826919
 20
12.0871793435
 10
-28.0794697679
 20
12.1458865498
 10
-28.0837754715
 20
12.2086524285
  0
LWPOLYLINE
  5
2D8
100
AcDbEntity
  8
0
100
AcDbPolyline
 62
7
  6
CONTINUOUS
 90
25
 70
0
 10
-28.0837754715
 20
12.2086524285
 10
-28.0792231848
 20
12.270695937
 10
-28.0680270844
 20
12.328675342
 10
-28.0501871701
 20
12.3825906435
 10
-28.0251083513
 20
12.4329349112
 10
-27.9933857187
 20
12.4792150753
 10
-27.9568045441
 20
12.5199519263
 10
-27.9154818882
 20
12.5550245753
 10
-27.8693006903
 20
12.5845539111
 10
-27.8196950403
 20
12.6074233911
 10
-27.7660467629
 20
12.6232319341
 10
-27.7089740334
 20
12.6323806211
 10
-27.6517654688
 20
12.6349561528
 10
-27.5943847604
 20
12.6310587813
 10
-27.5368682168
 20
12.6205882544
 10
-27.4826133809
 20
12.6033305164
 10
-27.4320778286
 20
12.5786422639
 10
-27.384803984
 20
12.5471668004
 10
-27.3428166618
 20
12.51061998
 10
-27.3062915408
 20
12.4689636275
 10
-27.2750529421
 20
12.4222359181
 10
-27.250598645
 20
12.3722672325
 10
-27.2334279089
 20
12.3196676976
 10
-27.2230414743
 20
12.2638271866
 10
-27.2194393411
 20
12.2047456993
  0
LWPOLYLINE
  5
2D9
100
AcDbEntity
  8
0
100
AcDbPolyline
 62
7
  6
CONTINUOUS
 90
24
 70
0
 10
-26.4174428272
 20
13.0894359827
 10
-26.4112495816
 20
13.1598625745
 10
-26.3985193971
 20
13.2241849651
 10
-26.3792522738
 20
13.2824031547
 10
-26.353091747
 20
13.3347596406
 10
-26.3203942813
 20
13.3810119254
 10
-26.282229271
 20
13.4204325164
 10
-26.238363219
 20
13.4527620391
 10
-26.1890296224
 20
13.478259868
 10
-26.1359983672
 20
13.4969766344
 10
-26.0781562808
 20
13.5089554393
 10
-26.0166165357
 20
13.5141531817
 10
-25.9564885358
 20
13.5124911897
 10
-25.8983054726
 20
13.5039411402
 10
-25.8415341546
 20
13.4885313563
 10
-25.7896844115
 20
13.4662681345
 10
-25.7434092106
 20
13.436597029
 10
-25.7020555845
 20
13.4000724856
 10
-25.667174461
 20
13.3583641382
 10
-25.6386191707
 20
13.3109327264
 10
-25.6165363831
 20
13.2583175105
 10
-25.6029170338
 20
13.203805906
 10
-25.5986348731
 20
13.1477274352
 10
-25.6028161508
 20
13.0897525757
  0
LWPOLYLINE
  5
2DA
100
AcDbEntity
  8
0
100
AcDbPolyline
 62
7
  6
CONTINUOUS
 90
22
 70
0
 10
-27.9976370615
 20
13.1917255955
 10
-27.9913739996
 20
13.2444372773
 10
-27.9785873234
 20
13.2935081084
 10
-27.9592770328
 20
13.3389380889
 10
-27.9328499287
 20
13.3815911572
 10
-27.8998992102
 20
13.4206033749
 10
-27.8622044745
 20
13.4533829264
 10
-27.8196352902
 20
13.4794179929
 10
-27.7723220886
 20
13.4992203933
 10
-27.7224357612
 20
13.5117337679
 10
-27.6689086751
 20
13.5164755137
 10
-27.6128084631
 20
13.5139282339
 10
-27.5595089157
 20
13.5044833781
 10
-27.5098916313
 20
13.4878200167
 10
-27.4630750115
 20
13.4642590794
 10
-27.4217880511
 20
13.4351548055
 10
-27.3865636203
 20
13.4002268863
 10
-27.3568688489
 20
13.3597556304
 10
-27.3338341214
 20
13.3159362031
 10
-27.3178362326
 20
13.269500326
 10
-27.3084983876
 20
13.2197162773
 10
-27.3058205864
 20
13.1665840572
  0
LWPOLYLINE
  5
2DB
100
AcDbEntity
  8
0
100
AcDbPolyline
 62
7
  6
CONTINUOUS
 90
22
 70
0
 10
-27.3058205864
 20
13.1665840572
 10
-27.3129237896
 20
13.1131030072
 10
-27.3264150389
 20
13.0637647121
 10
-27.3462943342
 20
13.0185691718
 10
-27.3731022991
 20
12.976810785
 10
-27.40629831
 20
12.9391951531
 10
-27.4442604965
 20
12.9078390795
 10
-27.487313953
 20
12.8833057121
 10
-27.5351335851
 20
12.8650319029
 10
-27.5851222385
 20
12.8534450118
 10
-27.6381560044
 20
12.8487353635
 10
-27.6933587915
 20
12.8507126332
 10
-27.7455051721
 20
12.8592332067
 10
-27.7934557025
 20
12.8744652362
 10
-27.8383498263
 20
12.8962405696
 10
-27.8783804467
 20
12.9239111356
 10
-27.9135073958
 20
12.9580280466
 10
-27.9437708414
 20
12.9980401902
 10
-27.9674841901
 20
13.0416461578
 10
-27.9840852441
 20
13.0880788131
 10
-27.9941362012
 20
13.1381052923
 10
-27.9976370615
 20
13.1917255955
  0
LWPOLYLINE
  5
2DC
100
AcDbEntity
  8
0
100
AcDbPolyline
 62
7
  6
CONTINUOUS
 90
14
 70
0
 10
-25.6028161508
 20
13.0897525757
 10
-25.6148305512
 20
13.0321801756
 10
-25.6351650837
 20
12.9756707675
 10
-25.6633327391
 20
12.9195638189
 10
-25.6972421734
 20
12.8641765798
 10
-25.7368908267
 20
12.8097561106
 10
-25.7822812589
 20
12.7560553511
 10
-25.8313298064
 20
12.7026503703
 10
-25.8836833549
 20
12.6496652381
 10
-25.9396950186
 20
12.5969758847
 10
-25.9983404757
 20
12.5437861704
 10
-26.0592782859
 20
12.4898307152
 10
-26.1228498895
 20
12.4353748991
 10
-26.1890552866
 20
12.3804187221
  0
LINE
  5
2DD
100
AcDbEntity
  8
RACCORDO
100
AcDbLine
 62
250
  6
CONTINUOUS
 10
-28.3234980271
 20
5.2481854052
 11
-28.4337640632
 21
5.0477017032
  0
LINE
  5
2DE
100
AcDbEntity
  8
RACCORDO
100
AcDbLine
 62
7
  6
CONTINUOUS
 10
-29.9133974596
 20
5.3
 11
-29.7021787917
 21
5.6658414644
  0
LWPOLYLINE
  5
2DF
100
AcDbEntity
  8
0
100
AcDbPolyline
 62
7
  6
CONTINUOUS
 90
6
 70
0
 10
-26.3715422663
 20
11.844885
 10
-26.3378085956
 20
11.8936505312
 10
-26.300531009
 20
11.9412490612
 10
-26.2597095064
 20
11.9876805899
 10
-26.2146675128
 20
12.0324834472
 10
-26.1660816033
 20
12.0761193031
  0
LINE
  5
2E0
100
AcDbEntity
  8
RACCORDO
100
AcDbLine
 62
7
  6
CONTINUOUS
 10
-14.0364684712
 20
24.2980026566
 11
-14.0086507125
 21
24.3258204153
  0
LWPOLYLINE
  5
2E1
100
AcDbEntity
  8
0
100
AcDbPolyline
 62
7
  6
CONTINUOUS
 90
8
 70
0
 10
-26.4668160631
 20
13.582415698
 10
-26.5157103786
 20
13.5350495064
 10
-26.5588388179
 20
13.4808542142
 10
-26.5960733744
 20
13.4200550621
 10
-26.627295509
 20
13.3531383347
 10
-26.6524657087
 20
13.2802661266
 10
-26.6716234866
 20
13.2012763431
 10
-26.6847688426
 20
13.1161689843
  0
LWPOLYLINE
  5
2E2
100
AcDbEntity
  8
0
100
AcDbPolyline
 62
7
  6
CONTINUOUS
 90
32
 70
0
 10
-25.876116019
 20
12.3235831191
 10
-25.7974801002
 20
12.3928474065
 10
-25.7227180202
 20
12.4620206933
 10
-25.6508149715
 20
12.5306234559
 10
-25.5827857617
 20
12.599135218
 10
-25.5216748138
 20
12.6689945509
 10
-25.4676011758
 20
12.7407912193
 10
-25.4204457997
 20
12.8139354585
 10
-25.3828959645
 20
12.8880965456
 10
-25.3557665287
 20
12.9637180815
 10
-25.3382426339
 20
13.0403564654
 10
-25.3305669834
 20
13.116350172
 10
-25.3333133768
 20
13.1921131558
 10
-25.3459080145
 20
13.2672314624
 10
-25.3668722005
 20
13.338801703
 10
-25.3961485305
 20
13.4068458392
 10
-25.4337944088
 20
13.4713419094
 10
-25.4785033533
 20
13.5293206393
 10
-25.5302715275
 20
13.5801508586
 10
-25.5891027678
 20
13.6244637376
 10
-25.6537021022
 20
13.6611835131
 10
-25.7247053618
 20
13.6898635563
 10
-25.8014767154
 20
13.7109504961
 10
-25.8808136972
 20
13.7247084561
 10
-25.9636202462
 20
13.7310902901
 10
-26.0489924235
 20
13.7301431443
 10
-26.1310159459
 20
13.7222725803
 10
-26.2086562892
 20
13.7074441195
 10
-26.2829479778
 20
13.6856922405
 10
-26.3510803019
 20
13.65752594
 10
-26.4120278647
 20
13.6231780297
 10
-26.4668160631
 20
13.582415698
  0
LWPOLYLINE
  5
2E3
100
AcDbEntity
  8
0
100
AcDbPolyline
 62
7
  6
CONTINUOUS
 90
4
 70
0
 10
-26.1660816033
 20
12.0761193031
 10
-26.0650437852
 20
12.1645067134
 10
-26.0125918766
 20
12.2092582676
 10
-25.876116019
 20
12.3235831191
  0
LWPOLYLINE
  5
2E4
100
AcDbEntity
  8
0
100
AcDbPolyline
 62
7
  6
CONTINUOUS
 90
16
 70
0
 10
-26.1890552866
 20
12.3804187221
 10
-26.2510347576
 20
12.3299131183
 10
-26.3101395289
 20
12.2792334285
 10
-26.3663696006
 20
12.2283796525
 10
-26.4199642104
 20
12.177470511
 10
-26.4706841206
 20
12.1263872833
 10
-26.5178116176
 20
12.0747738081
 10
-26.5615400891
 20
12.022478674
 10
-26.6016761474
 20
11.9696532923
 10
-26.6369219156
 20
11.9163957354
 10
-26.6671351686
 20
11.8624642817
 10
-26.6924581314
 20
11.8081006529
 10
-26.7120196024
 20
11.7541280865
 10
-26.7255291808
 20
11.7008209952
 10
-26.7332772673
 20
11.6479049663
 10
-26.7352638618
 20
11.59538
  0
LINE
  5
2E5
100
AcDbEntity
  8
0
100
AcDbLine
 62
7
  6
CONTINUOUS
 10
29.0300000668
 20
-22.0531914979
 11
28.7499999332
 21
-22.1170212775
  0
LINE
  5
2E6
100
AcDbEntity
  8
0
100
AcDbLine
 62
7
  6
CONTINUOUS
 10
28.7499999332
 20
-22.5
 11
29.1
 21
-22.4361702148
  0
LWPOLYLINE
  5
2E7
100
AcDbEntity
  8
RACCORDO
100
AcDbPolyline
 62
250
  6
CONTINUOUS
 90
37
 70
0
 10
-2.2
 20
-26.7373104138
 10
-2.4813772368
 20
-26.7494445895
 10
-2.7608570196
 20
-26.7857939048
 10
-3.0363576476
 20
-26.8461384599
 10
-3.3057582282
 20
-26.9300560259
 10
-3.5671031406
 20
-27.0369839056
 10
-3.8185947211
 20
-27.1662746827
 10
-4.0583009105
 20
-27.317050543
 10
-4.2843738289
 20
-27.488273007
 10
-4.495198971
 20
-27.6788941068
 10
-4.6891260934
 20
-27.8876531747
 10
-4.8645029677
 20
-28.1130272213
 10
-5.0198462558
 20
-28.3533857641
 10
-5.1538747693
 20
-28.6070628738
 10
-5.2653572469
 20
-28.8721000955
 10
-5.3531907439
 20
-29.1462079125
 10
-5.4166200289
 20
-29.4272813376
 10
-5.4550770999
 20
-29.7131572006
 10
-5.4681737113
 20
-30.0013136726
 10
-5.4558117876
 20
-30.2894941
 10
-5.4180915932
 20
-30.5754655506
 10
-5.3553702054
 20
-30.8567352181
 10
-5.2682178
 20
-31.1311060924
 10
-5.1573782855
 20
-31.3964976042
 10
-5.0238683214
 20
-31.6507112099
 10
-4.8688550208
 20
-31.8918069818
 10
-4.6936209522
 20
-32.1180353372
 10
-4.4996533615
 20
-32.3276843683
 10
-4.2885895462
 20
-32.5192085911
 10
-4.0620941647
 20
-32.6913052831
 10
-3.8218665146
 20
-32.8428387553
 10
-3.569797356
 20
-32.9727531556
 10
-3.3078288334
 20
-33.0801798686
 10
-3.0378171695
 20
-33.1644560778
 10
-2.7617574013
 20
-33.2250284323
 10
-2.4817841903
 20
-33.2614993138
 10
-2.2
 20
-33.2736708559
  0
LINE
  5
2E8
100
AcDbEntity
  8
0
100
AcDbLine
 62
7
  6
CONTINUOUS
 10
20.669534
 20
-29.3123322384
 11
19.890856
 21
-29.3123322384
  0
LINE
  5
2E9
100
AcDbEntity
  8
0
100
AcDbLine
 62
7
  6
CONTINUOUS
 10
20.6695426916
 20
-29.2776026029
 11
19.890856
 21
-29.2776026029
  0
LINE
  5
2EA
100
AcDbEntity
  8
0
100
AcDbLine
 62
7
  6
CONTINUOUS
 10
-10.3610019518
 20
-28.8103194214
 11
-11.745905
 21
-28.8103194214
  0
LINE
  5
2EB
100
AcDbEntity
  8
0
100
AcDbLine
 62
7
  6
CONTINUOUS
 10
-13.315991
 20
-28.8103194214
 11
-14.494748855
 21
-28.8103194214
  0
LINE
  5
2EC
100
AcDbEntity
  8
0
100
AcDbLine
 62
7
  6
CONTINUOUS
 10
-16.361167
 20
-28.8103194214
 11
-17.2040115651
 21
-28.8105944069
  0
LINE
  5
2ED
100
AcDbEntity
  8
0
100
AcDbLine
 62
7
  6
CONTINUOUS
 10
-10.3610019518
 20
-28.7755897858
 11
-11.7487414068
 21
-28.7755897858
  0
LINE
  5
2EE
100
AcDbEntity
  8
0
100
AcDbLine
 62
7
  6
CONTINUOUS
 10
-13.3159923213
 20
-28.7755897858
 11
-14.494748855
 21
-28.7755897858
  0
LINE
  5
2EF
100
AcDbEntity
  8
0
100
AcDbLine
 62
7
  6
CONTINUOUS
 10
-16.361167
 20
-28.7755897858
 11
-17.2039923348
 21
-28.7758644312
  0
LINE
  5
2F0
100
AcDbEntity
  8
0
100
AcDbLine
 62
7
  6
CONTINUOUS
 10
-3.39058809
 20
-28.65
 11
3.39058809
 21
-28.65
  0
LINE
  5
2F1
100
AcDbEntity
  8
0
100
AcDbLine
 62
7
  6
CONTINUOUS
 10
19.890848
 20
-28.5223483665
 11
20.669534
 21
-28.5223483665
  0
LINE
  5
2F2
100
AcDbEntity
  8
ASSI
100
AcDbLine
 62
7
  6
CONTINUOUS
 10
2.2
 20
-28.2
 11
-2.2
 21
-28.2
  0
LINE
  5
2F3
100
AcDbEntity
  8
0
100
AcDbLine
 62
7
  6
CONTINUOUS
 10
15.71132
 20
-27.9829134687
 11
14.743776
 21
-27.9829134687
  0
LINE
  5
2F4
100
AcDbEntity
  8
0
100
AcDbLine
 62
7
  6
CONTINUOUS
 10
13.548592
 20
-27.9829134687
 11
12.581048
 21
-27.9829134687
  0
LINE
  5
2F5
100
AcDbEntity
  8
0
100
AcDbLine
 62
7
  6
CONTINUOUS
 10
11.941048
 20
-27.9829134687
 11
11.301024
 21
-27.9829134687
  0
LINE
  5
2F6
100
AcDbEntity
  8
0
100
AcDbLine
 62
7
  6
CONTINUOUS
 10
10.874344
 20
-27.9829134687
 11
10.234312
 21
-27.9829134687
  0
LINE
  5
2F7
100
AcDbEntity
  8
0
100
AcDbLine
 62
7
  6
CONTINUOUS
 10
8.819408
 20
-27.9829134687
 11
8.179376
 21
-27.9829134687
  0
LINE
  5
2F8
100
AcDbEntity
  8
0
100
AcDbLine
 62
7
  6
CONTINUOUS
 10
20.7583679747
 20
-27.98290571
 11
19.259648
 21
-27.98290571
  0
LINE
  5
2F9
100
AcDbEntity
  8
0
100
AcDbLine
 62
7
  6
CONTINUOUS
 10
17.805504
 20
-27.98290571
 11
17.165448
 21
-27.98290571
  0
LINE
  5
2FA
100
AcDbEntity
  8
0
100
AcDbLine
 62
7
  6
CONTINUOUS
 10
15.71132
 20
-27.9481838332
 11
14.743776
 21
-27.9481838332
  0
LINE
  5
2FB
100
AcDbEntity
  8
0
100
AcDbLine
 62
7
  6
CONTINUOUS
 10
13.548592
 20
-27.9481838332
 11
12.581048
 21
-27.9481838332
  0
LINE
  5
2FC
100
AcDbEntity
  8
0
100
AcDbLine
 62
7
  6
CONTINUOUS
 10
11.941048
 20
-27.9481838332
 11
11.301024
 21
-27.9481838332
  0
LINE
  5
2FD
100
AcDbEntity
  8
0
100
AcDbLine
 62
7
  6
CONTINUOUS
 10
10.874344
 20
-27.9481838332
 11
10.234312
 21
-27.9481838332
  0
LINE
  5
2FE
100
AcDbEntity
  8
0
100
AcDbLine
 62
7
  6
CONTINUOUS
 10
8.819408
 20
-27.9481838332
 11
8.179376
 21
-27.9481838332
  0
LINE
  5
2FF
100
AcDbEntity
  8
0
100
AcDbLine
 62
7
  6
CONTINUOUS
 10
20.7583881671
 20
-27.9481760744
 11
19.259648
 21
-27.9481760744
  0
LINE
  5
300
100
AcDbEntity
  8
0
100
AcDbLine
 62
7
  6
CONTINUOUS
 10
17.805504
 20
-27.9481760744
 11
17.165448
 21
-27.9481760744
  0
LINE
  5
301
100
AcDbEntity
  8
DRAFT
100
AcDbLine
 62
7
  6
CONTINUOUS
 10
2.2
 20
-26.75
 11
-2.2
 21
-26.75
  0
LINE
  5
302
100
AcDbEntity
  8
RACCORDO
100
AcDbLine
 62
7
  6
CONTINUOUS
 10
-2.2
 20
-26.7373104138
 11
2.2
 21
-26.7373104138
  0
LINE
  5
303
100
AcDbEntity
  8
RACCORDO
100
AcDbLine
 62
250
  6
CONTINUOUS
 10
38.3407181432
 20
-26.5523670977
 11
39.8386624453
 21
-26.5523670977
  0
LINE
  5
304
100
AcDbEntity
  8
RACCORDO
100
AcDbLine
 62
250
  6
CONTINUOUS
 10
-38.3407181432
 20
-26.5523670977
 11
-39.8386624453
 21
-26.5523670962
  0
LINE
  5
305
100
AcDbEntity
  8
RACCORDO
100
AcDbLine
 62
250
  6
CONTINUOUS
 10
-2.2
 20
-26.3852273835
 11
2.2
 21
-26.3852273835
  0
LINE
  5
306
100
AcDbEntity
  8
DRAFT
100
AcDbLine
 62
7
  6
CONTINUOUS
 10
-14.0391477143
 20
-26.0391477143
 11
-7.9608522857
 21
-26.0391477143
  0
LINE
  5
307
100
AcDbEntity
  8
DRAFT
100
AcDbLine
 62
7
  6
CONTINUOUS
 10
7.9608522857
 20
-26.0391477143
 11
14.0391477143
 21
-26.0391477143
  0
LINE
  5
308
100
AcDbEntity
  8
DRAFT
100
AcDbLine
 62
7
  6
CONTINUOUS
 10
-14.0156577535
 20
-26.0156577535
 11
-7.9843422465
 21
-26.0156577535
  0
LINE
  5
309
100
AcDbEntity
  8
DRAFT
100
AcDbLine
 62
7
  6
CONTINUOUS
 10
7.9843422465
 20
-26.0156577535
 11
14.0156577535
 21
-26.0156577535
  0
LINE
  5
30A
100
AcDbEntity
  8
RACCORDO
100
AcDbLine
 62
7
  6
CONTINUOUS
 10
-13.0086887894
 20
-25.9546029997
 11
-8.9913112106
 21
-25.9546029997
  0
LINE
  5
30B
100
AcDbEntity
  8
DRAFT
100
AcDbLine
 62
7
  6
CONTINUOUS
 10
8.0
 20
-25.9546029997
 11
13.9774790858
 21
-25.9546029997
  0
LWPOLYLINE
  5
30C
100
AcDbEntity
  8
RACCORDO
100
AcDbPolyline
 62
250
  6
CONTINUOUS
 90
40
 70
0
 10
2.2
 20
-26.3852273835
 10
2.4764511367
 20
-26.3962062926
 10
2.748230661
 20
-26.4276724116
 10
3.0153385729
 20
-26.4796257403
 10
3.2793619037
 20
-26.5526347888
 10
3.5387136221
 20
-26.6461310471
 10
3.7886326336
 20
-26.7584089853
 10
4.0288261188
 20
-26.8897316234
 10
4.2595868971
 20
-27.0398359414
 10
4.4770323326
 20
-27.2062273498
 10
4.6809768343
 20
-27.3891447407
 10
4.8716059932
 20
-27.5883492219
 10
5.0455939457
 20
-27.8006295274
 10
5.2027387201
 20
-28.0262676633
 10
5.3432422881
 20
-28.2649816235
 10
5.4643847017
 20
-28.5127141239
 10
5.5658440203
 20
-28.7697265179
 10
5.6479421845
 20
-29.0357574522
 10
5.7089250675
 20
-29.3059655823
 10
5.7483461813
 20
-29.5805332378
 10
5.7666520141
 20
-29.8592780893
 10
5.7634279031
 20
-30.1368118041
 10
5.7381844692
 20
-30.4130670971
 10
5.6914110915
 20
-30.6881112536
 10
5.6241612458
 20
-30.9567577972
 10
5.536047104
 20
-31.2187755766
 10
5.4274564942
 20
-31.4743957432
 10
5.3006063756
 20
-31.7191252747
 10
5.1552343918
 20
-31.9526927603
 10
4.9916028992
 20
-32.1753696108
 10
4.8127159262
 20
-32.3834770369
 10
4.6183887078
 20
-32.5767523508
 10
4.408806009
 20
-32.7554582403
 10
4.1875261536
 20
-32.9167039795
 10
3.9543526161
 20
-33.060261639
 10
3.709481922
 20
-33.186359148
 10
3.4570619715
 20
-33.2927895691
 10
3.1984753979
 20
-33.3788172562
 10
2.9323395679
 20
-33.4451778553
 10
2.6586544814
 20
-33.4918713663
  0
LWPOLYLINE
  5
30D
100
AcDbEntity
  8
0
100
AcDbPolyline
 62
7
  6
CONTINUOUS
 90
12
 70
0
 10
-13.3159923213
 20
-28.8103194214
 10
-13.2509389522
 20
-28.8146234768
 10
-13.1884040652
 20
-28.8260043779
 10
-13.1283876605
 20
-28.8444621247
 10
-13.0698846289
 20
-28.8705558057
 10
-13.0139000795
 20
-28.9037263323
 10
-12.9634493392
 20
-28.9422964387
 10
-12.9190977436
 20
-28.9863224247
 10
-12.8802799572
 20
-29.0357479904
 10
-12.8483152999
 20
-29.0887269707
 10
-12.8234168304
 20
-29.1456936809
 10
-12.80537149
 20
-29.2062138056
  0
LWPOLYLINE
  5
30E
100
AcDbEntity
  8
0
100
AcDbPolyline
 62
7
  6
CONTINUOUS
 90
14
 70
0
 10
-13.3159923213
 20
-28.7755897858
 10
-13.2509389522
 20
-28.7798938413
 10
-13.1884040652
 20
-28.7912747424
 10
-13.1283876605
 20
-28.8097324891
 10
-13.0698846289
 20
-28.8358261701
 10
-13.0139000795
 20
-28.8689966968
 10
-12.9634493392
 20
-28.9075668032
 10
-12.9190977436
 20
-28.9515927891
 10
-12.8802799572
 20
-29.0010183549
 10
-12.8483152999
 20
-29.0539973351
 10
-12.8234168304
 20
-29.1109640453
 10
-12.80537149
 20
-29.1714841701
 10
-12.7948594223
 20
-29.2324085976
 10
-12.7921127855
 20
-29.2865303759
  0
LINE
  5
30F
100
AcDbEntity
  8
RACCORDO
100
AcDbLine
 62
7
  6
CONTINUOUS
 10
-14.0364684712
 20
-24.2980026566
 11
-14.0086507125
 21
-24.3258204153
  0
LINE
  5
310
100
AcDbEntity
  8
RACCORDO
100
AcDbLine
 62
7
  6
CONTINUOUS
 10
-29.7020725711
 20
-5.6660254437
 11
-29.9133974596
 21
-5.3
  0
LINE
  5
311
100
AcDbEntity
  8
RACCORDO
100
AcDbLine
 62
250
  6
CONTINUOUS
 10
-28.3234980271
 20
-5.2481854052
 11
-28.4337640632
 21
-5.0477017032
  0
LWPOLYLINE
  5
312
100
AcDbEntity
  8
0
100
AcDbPolyline
 62
7
  6
CONTINUOUS
 90
12
 70
0
 10
-17.4648340642
 20
-31.1410195846
 10
-17.4512228938
 20
-31.1844877591
 10
-17.4322274888
 20
-31.2253239789
 10
-17.4073986492
 20
-31.2641696613
 10
-17.377185575
 20
-31.3003833889
 10
-17.3429358657
 20
-31.3320409101
 10
-17.3043720071
 20
-31.3588891491
 10
-17.2617715134
 20
-31.3811811817
 10
-17.2173145276
 20
-31.3977519838
 10
-17.1717277637
 20
-31.4082132141
 10
-17.1242845076
 20
-31.412953214
 10
-17.0749847593
 20
-31.4119719834
  0
LWPOLYLINE
  5
313
100
AcDbEntity
  8
RACCORDO
100
AcDbPolyline
 62
7
  6
CONTINUOUS
 90
6
 70
0
 10
-24.0000430633
 20
-2.9687652983
 10
-24.0031502656
 20
-2.9336929609
 10
-24.0123601683
 20
-2.8997085255
 10
-24.0273872874
 20
-2.8678654264
 10
-24.0477658197
 20
-2.8391507214
 10
-24.0630976902
 20
-2.8230500051
  0
LINE
  5
314
100
AcDbEntity
  8
RACCORDO
100
AcDbLine
 62
7
  6
CONTINUOUS
 10
-24.0004346121
 20
-2.9506166271
 11
-24.0
 21
-2.9636612867
  0
LINE
  5
315
100
AcDbEntity
  8
RACCORDO
100
AcDbLine
 62
250
  6
CONTINUOUS
 10
-24.3038706922
 20
-2.7907160296
 11
-24.3036879205
 21
-2.7977513446
  0
LINE
  5
316
100
AcDbEntity
  8
0
100
AcDbLine
 62
7
  6
CONTINUOUS
 10
-25.65
 20
-1.4917020703
 11
-25.65
 21
-1.0901949367
  0
LINE
  5
317
100
AcDbEntity
  8
0
100
AcDbLine
 62
7
  6
CONTINUOUS
 10
-25.65
 20
1.0901949367
 11
-25.65
 21
1.4917020703
  0
LINE
  5
318
100
AcDbEntity
  8
0
100
AcDbLine
 62
7
  6
CONTINUOUS
 10
-25.5
 20
2.6329543503
 11
-25.5
 21
0.5860176963
  0
LINE
  5
319
100
AcDbEntity
  8
0
100
AcDbLine
 62
7
  6
CONTINUOUS
 10
-25.5
 20
-0.5860176963
 11
-25.5
 21
-2.6329543503
  0
LINE
  5
31A
100
AcDbEntity
  8
0
100
AcDbLine
 62
7
  6
CONTINUOUS
 10
-25.327346
 20
11.59538
 11
-25.327346
 21
11.844885
  0
LINE
  5
31B
100
AcDbEntity
  8
RACCORDO
100
AcDbLine
 62
250
  6
CONTINUOUS
 10
-25.3
 20
-33.4918713663
 11
-25.3
 21
-22.4
  0
LINE
  5
31C
100
AcDbEntity
  8
RACCORDO
100
AcDbLine
 62
250
  6
CONTINUOUS
 10
-25.3
 20
22.4
 11
-25.3
 21
33.4918713663
  0
LINE
  5
31D
100
AcDbEntity
  8
RACCORDO
100
AcDbLine
 62
7
  6
CONTINUOUS
 10
-25.0
 20
-31.7904868204
 11
-25.0
 21
-22.4
  0
LINE
  5
31E
100
AcDbEntity
  8
RACCORDO
100
AcDbLine
 62
250
  6
CONTINUOUS
 10
-25.0
 20
-22.4
 11
-25.0
 21
-3.4202614903
  0
LINE
  5
31F
100
AcDbEntity
  8
RACCORDO
100
AcDbLine
 62
250
  6
CONTINUOUS
 10
-25.0
 20
3.4202614903
 11
-25.0
 21
22.4
  0
LINE
  5
320
100
AcDbEntity
  8
RACCORDO
100
AcDbLine
 62
7
  6
CONTINUOUS
 10
-25.0
 20
22.4
 11
-25.0
 21
31.7904868204
  0
LINE
  5
321
100
AcDbEntity
  8
0
100
AcDbLine
 62
7
  6
CONTINUOUS
 10
-24.8573050553
 20
-0.35
 11
-24.8573050553
 21
-0.0726172387
  0
LINE
  5
322
100
AcDbEntity
  8
0
100
AcDbLine
 62
7
  6
CONTINUOUS
 10
-24.8573050553
 20
0.0726172387
 11
-24.8573050553
 21
0.35
  0
LINE
  5
323
100
AcDbEntity
  8
RACCORDO
100
AcDbLine
 62
7
  6
CONTINUOUS
 10
-24.0
 20
-22.4
 11
-24.0
 21
-2.9687652886
  0
LINE
  5
324
100
AcDbEntity
  8
RACCORDO
100
AcDbLine
 62
7
  6
CONTINUOUS
 10
-24.0
 20
2.9687652886
 11
-24.0
 21
22.4
  0
LINE
  5
325
100
AcDbEntity
  8
RACCORDO
100
AcDbLine
 62
250
  6
CONTINUOUS
 10
-22.2952116462
 20
22.4
 11
-22.2952116462
 21
14.75
  0
LINE
  5
326
100
AcDbEntity
  8
RACCORDO
100
AcDbLine
 62
250
  6
CONTINUOUS
 10
-22.2952116462
 20
11.75
 11
-22.2952116462
 21
8.5
  0
LINE
  5
327
100
AcDbEntity
  8
RACCORDO
100
AcDbLine
 62
250
  6
CONTINUOUS
 10
-22.2952116462
 20
5.5
 11
-22.2952116462
 21
-5.5
  0
LINE
  5
328
100
AcDbEntity
  8
RACCORDO
100
AcDbLine
 62
250
  6
CONTINUOUS
 10
-22.2952116462
 20
-8.5
 11
-22.2952116462
 21
-11.75
  0
LINE
  5
329
100
AcDbEntity
  8
RACCORDO
100
AcDbLine
 62
250
  6
CONTINUOUS
 10
-22.2952116462
 20
-14.75
 11
-22.2952116462
 21
-22.4
  0
LWPOLYLINE
  5
32A
100
AcDbEntity
  8
0
100
AcDbPolyline
 62
7
  6
CONTINUOUS
 90
10
 70
0
 10
-24.0523570524
 20
-0.35
 10
-24.0507888594
 20
-0.2723539704
 10
-24.0496127146
 20
-0.1946420669
 10
-24.0488286181
 20
-0.1168642894
 10
-24.0484365699
 20
-0.0389767221
 10
-24.0484365699
 20
0.0389767192
 10
-24.0488286181
 20
0.1168642868
 10
-24.0496127146
 20
0.1946420649
 10
-24.0507888594
 20
0.2723539693
 10
-24.0523570524
 20
0.35
  0
LINE
  5
32B
100
AcDbEntity
  8
RACCORDO
100
AcDbLine
 62
250
  6
CONTINUOUS
 10
-24.3036879205
 20
2.7977513446
 11
-24.3038706922
 21
2.7907160296
  0
LINE
  5
32C
100
AcDbEntity
  8
RACCORDO
100
AcDbLine
 62
7
  6
CONTINUOUS
 10
-24.0004346121
 20
2.9506166271
 11
-24.0
 21
2.9636612867
  0
LWPOLYLINE
  5
32D
100
AcDbEntity
  8
0
100
AcDbPolyline
 62
7
  6
CONTINUOUS
 90
19
 70
0
 10
-23.5175525372
 20
29.2998876508
 10
-23.5063815996
 20
29.5288755889
 10
-23.4751659941
 20
29.7476601724
 10
-23.424717422
 20
29.9611507267
 10
-23.3546900013
 20
30.1691227436
 10
-23.2654296138
 20
30.3718007315
 10
-23.158806146
 20
30.5647710875
 10
-23.0343473977
 20
30.7479819148
 10
-22.892525569
 20
30.9214851103
 10
-22.7366271473
 20
31.0810227625
 10
-22.5663221931
 20
31.2262478972
 10
-22.3819406458
 20
31.3575074887
 10
-22.1877588106
 20
31.4715845472
 10
-21.9836413953
 20
31.5680576856
 10
-21.7697236921
 20
31.647348291
 10
-21.5506878828
 20
31.7075035363
 10
-21.3280946946
 20
31.7478724788
 10
-21.1003834004
 20
31.7691060611
 10
-20.867554
 20
31.7712042832
  0
LWPOLYLINE
  5
32E
100
AcDbEntity
  8
RACCORDO
100
AcDbPolyline
 62
7
  6
CONTINUOUS
 90
6
 70
0
 10
-24.0
 20
2.968765289
 10
-24.0031007724
 20
2.933685865
 10
-24.012306944
 20
2.8996941679
 10
-24.0273330556
 20
2.8678442041
 10
-24.0477131871
 20
2.8391235675
 10
-24.0526785702
 20
2.8335081608
  0
LWPOLYLINE
  5
32F
100
AcDbEntity
  8
RACCORDO
100
AcDbPolyline
 62
250
  6
CONTINUOUS
 90
13
 70
0
 10
-24.1563015139
 20
3.0453521637
 10
-24.1637357177
 20
3.0138480451
 10
-24.1755716094
 20
2.983203644
 10
-24.1914862422
 20
2.9542550705
 10
-24.2110453832
 20
2.9277921644
 10
-24.2337153605
 20
2.9045369461
 10
-24.2588776236
 20
2.8851239154
 10
-24.2858456206
 20
2.8700827393
 10
-24.3138835311
 20
2.8598238002
 10
-24.3422263411
 20
2.8546269991
 10
-24.3701007163
 20
2.8546341189
 10
-24.3967461015
 20
2.8598449553
 10
-24.4214354725
 20
2.8701173225
  0
LINE
  5
330
100
AcDbEntity
  8
0
100
AcDbLine
 62
7
  6
CONTINUOUS
 10
-26.5197234842
 20
0.5197234842
 11
-26.35
 21
1.0901949367
  0
LINE
  5
331
100
AcDbEntity
  8
0
100
AcDbLine
 62
7
  6
CONTINUOUS
 10
-25.65
 20
-1.0901949367
 11
-25.4802765158
 21
-0.5197234842
  0
LINE
  5
332
100
AcDbEntity
  8
RACCORDO
100
AcDbLine
 62
250
  6
CONTINUOUS
 10
-25.0
 20
3.4202614903
 11
-25.09638008
 21
3.2450249813
  0
LINE
  5
333
100
AcDbEntity
  8
RACCORDO
100
AcDbLine
 62
250
  6
CONTINUOUS
 10
-24.4214363913
 20
2.8701156521
 11
-24.4337640632
 21
2.8477017032
  0
LINE
  5
334
100
AcDbEntity
  8
RACCORDO
100
AcDbLine
 62
7
  6
CONTINUOUS
 10
-30.0866025404
 20
-5.3
 11
-30.2979245834
 21
-5.6660205153
  0
LINE
  5
335
100
AcDbEntity
  8
DRAFT
100
AcDbLine
 62
7
  6
CONTINUOUS
 10
-7.9608522857
 20
26.0391477143
 11
-7.9843422465
 21
26.0156577535
  0
LWPOLYLINE
  5
336
100
AcDbEntity
  8
0
100
AcDbPolyline
 62
7
  6
CONTINUOUS
 90
19
 70
0
 10
-27.9153248655
 20
13.687366291
 10
-27.9851593434
 20
13.6545747038
 10
-28.0494000416
 20
13.6131078554
 10
-28.1057389302
 20
13.5658335229
 10
-28.1537150126
 20
13.512737239
 10
-28.1937892852
 20
13.453833471
 10
-28.2250367074
 20
13.3920333986
 10
-28.2468786994
 20
13.3269621197
 10
-28.2598938409
 20
13.2589945364
 10
-28.2648928302
 20
13.1921665342
 10
-28.2622775347
 20
13.1267880383
 10
-28.2516460869
 20
13.0625491235
 10
-28.2326035831
 20
13.0025559003
 10
-28.2048483457
 20
12.9474552978
 10
-28.1686820522
 20
12.8966003869
 10
-28.124614831
 20
12.8511564906
 10
-28.0728167249
 20
12.8115120501
 10
-28.013117691
 20
12.7772786243
 10
-27.9455177293
 20
12.7484562131
  0
LWPOLYLINE
  5
337
100
AcDbEntity
  8
0
100
AcDbPolyline
 62
7
  6
CONTINUOUS
 90
25
 70
0
 10
-27.3504386766
 20
12.7484562131
 10
-27.2836947079
 20
12.7778878053
 10
-27.2248018456
 20
12.8127775886
 10
-27.1737600897
 20
12.8531255633
 10
-27.1303223725
 20
12.8993007091
 10
-27.0947357617
 20
12.9509340462
 10
-27.06774146
 20
13.0069186348
 10
-27.0492649043
 20
13.0675280667
 10
-27.0393806577
 20
13.1324887501
 10
-27.0390536123
 20
13.1998729699
 10
-27.0489751997
 20
13.2713293971
 10
-27.0684539883
 20
13.3452093608
 10
-27.0963805754
 20
13.4146391326
 10
-27.1328896394
 20
13.4782986172
 10
-27.1778465018
 20
13.53750791
 10
-27.2297377245
 20
13.5893535687
 10
-27.2883963451
 20
13.6332030613
 10
-27.3539893258
 20
13.6696889198
 10
-27.4255041153
 20
13.6977952983
 10
-27.5048847099
 20
13.7172230818
 10
-27.5901871132
 20
13.7282713851
 10
-27.6745667845
 20
13.7308217078
 10
-27.757299226
 20
13.7248936431
 10
-27.8391089355
 20
13.7104675977
 10
-27.9153248655
 20
13.687366291
  0
LWPOLYLINE
  5
338
100
AcDbEntity
  8
0
100
AcDbPolyline
 62
7
  6
CONTINUOUS
 90
10
 70
0
 10
-33.106536
 20
12.9446809353
 10
-33.0384646442
 20
12.9733304373
 10
-32.9727688166
 20
13.0036056234
 10
-32.9094485171
 20
13.0355064937
 10
-32.8483425536
 20
13.0690910442
 10
-32.7896121182
 20
13.1043012788
 10
-32.7337407874
 20
13.1409632092
 10
-32.6808897536
 20
13.1790188392
 10
-32.6308978245
 20
13.218526165
 10
-32.583765
 20
13.2594851865
  0
LWPOLYLINE
  5
339
100
AcDbEntity
  8
0
100
AcDbPolyline
 62
7
  6
CONTINUOUS
 90
11
 70
0
 10
9.8468701984
 20
29.2308967481
 10
9.9072909206
 20
29.2482300785
 10
9.9629738974
 20
29.2719159202
 10
10.013541121
 20
29.3018820553
 10
10.0578585678
 20
29.33791183
 10
10.0957516729
 20
29.380580736
 10
10.1273950012
 20
29.4293132817
 10
10.1521782233
 20
29.4821663381
 10
10.1698978963
 20
29.5384921958
 10
10.1807574632
 20
29.5989385643
 10
10.1826138918
 20
29.6289085537
  0
LWPOLYLINE
  5
33A
100
AcDbEntity
  8
0
100
AcDbPolyline
 62
7
  6
CONTINUOUS
 90
11
 70
0
 10
15.4198982284
 20
29.2308967481
 10
15.4803189506
 20
29.2482300785
 10
15.5360019274
 20
29.2719159202
 10
15.586569151
 20
29.3018820553
 10
15.6308865978
 20
29.33791183
 10
15.6687797029
 20
29.380580736
 10
15.7004230312
 20
29.4293132817
 10
15.7252062533
 20
29.4821663381
 10
15.7429259263
 20
29.5384921958
 10
15.7537854932
 20
29.5989385643
 10
15.7556419218
 20
29.6289085537
  0
LINE
  5
33B
100
AcDbEntity
  8
0
100
AcDbLine
 62
7
  6
CONTINUOUS
 10
27.84
 20
-19.9468084574
 11
28.1200000334
 21
-19.8829786777
  0
LINE
  5
33C
100
AcDbEntity
  8
0
100
AcDbLine
 62
7
  6
CONTINUOUS
 10
28.1200000334
 20
-19.5
 11
27.7700000167
 21
-19.5638297796
  0
LINE
  5
33D
100
AcDbEntity
  8
DRAFT
100
AcDbLine
 62
7
  6
CONTINUOUS
 10
9.4
 20
-24.3344711278
 11
12.6
 21
-24.3344711278
  0
LINE
  5
33E
100
AcDbEntity
  8
DRAFT
100
AcDbLine
 62
7
  6
CONTINUOUS
 10
-9.4
 20
-24.3344711278
 11
-12.6
 21
-24.3344711278
  0
LINE
  5
33F
100
AcDbEntity
  8
DRAFT
100
AcDbLine
 62
7
  6
CONTINUOUS
 10
-17.25
 20
-24.2980026566
 11
-14.0364684712
 21
-24.2980026566
  0
LINE
  5
340
100
AcDbEntity
  8
DRAFT
100
AcDbLine
 62
7
  6
CONTINUOUS
 10
-7.9635315288
 20
-24.2980026566
 11
-4.7519973434
 21
-24.2980026566
  0
LINE
  5
341
100
AcDbEntity
  8
DRAFT
100
AcDbLine
 62
7
  6
CONTINUOUS
 10
4.7519973434
 20
-24.2980026566
 11
7.9635315288
 21
-24.2980026566
  0
LINE
  5
342
100
AcDbEntity
  8
DRAFT
100
AcDbLine
 62
7
  6
CONTINUOUS
 10
14.0364684712
 20
-24.2980026566
 11
17.25
 21
-24.2980026566
  0
LINE
  5
343
100
AcDbEntity
  8
0
100
AcDbLine
 62
7
  6
CONTINUOUS
 10
-9.4
 20
-23.3
 11
-7.1
 21
-23.3
  0
LINE
  5
344
100
AcDbEntity
  8
0
100
AcDbLine
 62
7
  6
CONTINUOUS
 10
9.4
 20
-23.3
 11
7.1
 21
-23.3
  0
LINE
  5
345
100
AcDbEntity
  8
0
100
AcDbLine
 62
7
  6
CONTINUOUS
 10
12.6
 20
-23.3
 11
14.9
 21
-23.3
  0
LINE
  5
346
100
AcDbEntity
  8
0
100
AcDbLine
 62
7
  6
CONTINUOUS
 10
-12.6
 20
-23.3
 11
-14.9
 21
-23.3
  0
LINE
  5
347
100
AcDbEntity
  8
0
100
AcDbLine
 62
7
  6
CONTINUOUS
 10
25.0
 20
-23.0
 11
17.25
 21
-23.0
  0
LINE
  5
348
100
AcDbEntity
  8
DRAFT
100
AcDbLine
 62
7
  6
CONTINUOUS
 10
4.75
 20
-23.0
 11
-4.75
 21
-23.0
  0
LINE
  5
349
100
AcDbEntity
  8
0
100
AcDbLine
 62
7
  6
CONTINUOUS
 10
-17.25
 20
-23.0
 11
-25.0
 21
-23.0
  0
LINE
  5
34A
100
AcDbEntity
  8
0
100
AcDbLine
 62
7
  6
CONTINUOUS
 10
28.1200000334
 20
-22.5
 11
28.7499999332
 21
-22.5
  0
LINE
  5
34B
100
AcDbEntity
  8
0
100
AcDbLine
 62
7
  6
CONTINUOUS
 10
30.2900000668
 20
-22.5
 11
30.7099998665
 21
-22.5
  0
LINE
  5
34C
100
AcDbEntity
  8
0
100
AcDbLine
 62
7
  6
CONTINUOUS
 10
32.46
 20
-22.5
 11
32.9500001335
 21
-22.5
  0
LINE
  5
34D
100
AcDbEntity
  8
DRAFT
100
AcDbLine
 62
7
  6
CONTINUOUS
 10
-22.0
 20
-22.45
 11
-17.25
 21
-22.45
  0
LINE
  5
34E
100
AcDbEntity
  8
DRAFT
100
AcDbLine
 62
7
  6
CONTINUOUS
 10
-4.75
 20
-22.45
 11
4.75
 21
-22.45
  0
LINE
  5
34F
100
AcDbEntity
  8
DRAFT
100
AcDbLine
 62
7
  6
CONTINUOUS
 10
17.25
 20
-22.45
 11
22.0
 21
-22.45
  0
LINE
  5
350
100
AcDbEntity
  8
RACCORDO
100
AcDbLine
 62
7
  6
CONTINUOUS
 10
21.9952230693
 20
-22.4
 11
25.3
 21
-22.4
  0
LINE
  5
351
100
AcDbEntity
  8
RACCORDO
100
AcDbLine
 62
7
  6
CONTINUOUS
 10
-21.9952230693
 20
-22.4
 11
-25.3
 21
-22.4
  0
LINE
  5
352
100
AcDbEntity
  8
0
100
AcDbLine
 62
7
  6
CONTINUOUS
 10
28.7499999332
 20
-22.1170212775
 11
28.1200000334
 21
-22.1170212775
  0
LINE
  5
353
100
AcDbEntity
  8
DRAFT
100
AcDbLine
 62
7
  6
CONTINUOUS
 10
-7.9608522857
 20
-26.0391477143
 11
-7.9843447995
 21
-26.0164475978
  0
LINE
  5
354
100
AcDbEntity
  8
RACCORDO
100
AcDbLine
 62
7
  6
CONTINUOUS
 10
-30.0866025404
 20
5.3
 11
-30.2979274289
 21
5.6660254437
  0
LINE
  5
355
100
AcDbEntity
  8
RACCORDO
100
AcDbLine
 62
250
  6
CONTINUOUS
 10
-25.0
 20
-3.4202614903
 11
-25.09638008
 21
-3.2450249813
  0
LINE
  5
356
100
AcDbEntity
  8
RACCORDO
100
AcDbLine
 62
250
  6
CONTINUOUS
 10
-24.4214363913
 20
-2.8701156521
 11
-24.4337640632
 21
-2.8477017032
  0
LINE
  5
357
100
AcDbEntity
  8
0
100
AcDbLine
 62
7
  6
CONTINUOUS
 10
-26.35
 20
-1.0901949367
 11
-26.5197234842
 21
-0.5197234842
  0
LINE
  5
358
100
AcDbEntity
  8
0
100
AcDbLine
 62
7
  6
CONTINUOUS
 10
-25.4802765158
 20
0.5197234842
 11
-25.65
 21
1.0901949367
  0
LWPOLYLINE
  5
359
100
AcDbEntity
  8
RACCORDO
100
AcDbPolyline
 62
250
  6
CONTINUOUS
 90
13
 70
0
 10
-24.1563390652
 20
-3.0453521605
 10
-24.1637754538
 20
-3.0138525135
 10
-24.1756119741
 20
-2.9832125033
 10
-24.1915257403
 20
-2.9542679234
 10
-24.2110826472
 20
-2.9278083196
 10
-24.233749212
 20
-2.9045554521
 10
-24.258907126
 20
-2.8851436077
 10
-24.2858701209
 20
-2.8701022972
 10
-24.3139026887
 20
-2.8598418116
 10
-24.3422401446
 20
-2.8546420298
 10
-24.3701094858
 20
-2.8546447839
 10
-24.3967504775
 20
-2.8598499908
 10
-24.4214363904
 20
-2.8701156537
  0
LWPOLYLINE
  5
35A
100
AcDbEntity
  8
0
100
AcDbPolyline
 62
7
  6
CONTINUOUS
 90
13
 70
0
 10
-17.473061
 20
-31.0601898198
 10
-17.4648340568
 20
-31.1062899778
 10
-17.4512228732
 20
-31.1497581767
 10
-17.4322274491
 20
-31.1905944163
 10
-17.4073985836
 20
-31.229440115
 10
-17.3771854777
 20
-31.2656538546
 10
-17.3429357342
 20
-31.2973113805
 10
-17.3043718255
 20
-31.3241596149
 10
-17.2617712793
 20
-31.3464516356
 10
-17.217314281
 20
-31.3630224213
 10
-17.1717275591
 20
-31.3734836318
 10
-17.1242843852
 20
-31.3782236073
 10
-17.0749847593
 20
-31.3772423479
  0
LWPOLYLINE
  5
35B
100
AcDbEntity
  8
0
100
AcDbPolyline
 62
7
  6
CONTINUOUS
 90
18
 70
0
 10
-22.7675539234
 20
29.2999368109
 10
-22.7646990416
 20
29.2069440886
 10
-22.7470337682
 20
29.0375056129
 10
-22.7120154305
 20
28.8707295671
 10
-22.6600735781
 20
28.7065203434
 10
-22.5926206458
 20
28.5493798522
 10
-22.5092564646
 20
28.399472077
 10
-22.4103812035
 20
28.2566330343
 10
-22.2986078036
 20
28.1248726844
 10
-22.1734634682
 20
28.0044122899
 10
-22.0354209941
 20
27.8950305882
 10
-21.8885117123
 20
27.8000737515
 10
-21.7326483528
 20
27.7200265937
 10
-21.5679181858
 20
27.6544043009
 10
-21.3986143529
 20
27.6050986035
 10
-21.2261679012
 20
27.5727400783
 10
-21.0491477836
 20
27.5566981484
 10
-20.867554
 20
27.556972814
  0
LINE
  5
35C
100
AcDbEntity
  8
DRAFT
100
AcDbLine
 62
7
  6
CONTINUOUS
 10
-22.0
 20
-22.4
 11
-22.0
 21
-22.45
  0
LINE
  5
35D
100
AcDbEntity
  8
DRAFT
100
AcDbLine
 62
7
  6
CONTINUOUS
 10
-22.0
 20
22.4
 11
-22.0
 21
22.45
  0
LINE
  5
35E
100
AcDbEntity
  8
RACCORDO
100
AcDbLine
 62
7
  6
CONTINUOUS
 10
-21.9952230693
 20
22.4
 11
-21.9952230693
 21
14.75
  0
LINE
  5
35F
100
AcDbEntity
  8
RACCORDO
100
AcDbLine
 62
7
  6
CONTINUOUS
 10
-21.9952230693
 20
11.75
 11
-21.9952230693
 21
8.5
  0
LINE
  5
360
100
AcDbEntity
  8
RACCORDO
100
AcDbLine
 62
7
  6
CONTINUOUS
 10
-21.9952230693
 20
5.5
 11
-21.9952230693
 21
-5.5
  0
LINE
  5
361
100
AcDbEntity
  8
RACCORDO
100
AcDbLine
 62
7
  6
CONTINUOUS
 10
-21.9952230693
 20
-8.5
 11
-21.9952230693
 21
-11.75
  0
LINE
  5
362
100
AcDbEntity
  8
RACCORDO
100
AcDbLine
 62
7
  6
CONTINUOUS
 10
-21.9952230693
 20
-14.75
 11
-21.9952230693
 21
-22.4
  0
LINE
  5
363
100
AcDbEntity
  8
0
100
AcDbLine
 62
7
  6
CONTINUOUS
 10
-21.9
 20
-14.75
 11
-21.9
 21
-11.75
  0
LINE
  5
364
100
AcDbEntity
  8
0
100
AcDbLine
 62
7
  6
CONTINUOUS
 10
-21.9
 20
-8.5
 11
-21.9
 21
-5.5
  0
LINE
  5
365
100
AcDbEntity
  8
0
100
AcDbLine
 62
7
  6
CONTINUOUS
 10
-21.9
 20
5.5
 11
-21.9
 21
8.5
  0
LINE
  5
366
100
AcDbEntity
  8
0
100
AcDbLine
 62
7
  6
CONTINUOUS
 10
-21.9
 20
11.75
 11
-21.9
 21
14.75
  0
LINE
  5
367
100
AcDbEntity
  8
0
100
AcDbLine
 62
7
  6
CONTINUOUS
 10
-20.867554
 20
26.8287957168
 11
-20.867554
 21
27.556972814
  0
LINE
  5
368
100
AcDbEntity
  8
0
100
AcDbLine
 62
7
  6
CONTINUOUS
 10
-20.867554
 20
31.043027186
 11
-20.867554
 21
31.7712042832
  0
LINE
  5
369
100
AcDbEntity
  8
0
100
AcDbLine
 62
7
  6
CONTINUOUS
 10
-18.342945
 20
28.9363076336
 11
-18.342945
 21
28.9710372691
  0
LWPOLYLINE
  5
36A
100
AcDbEntity
  8
0
100
AcDbPolyline
 62
7
  6
CONTINUOUS
 90
19
 70
0
 10
-19.1324426549
 20
29.2998876656
 10
-19.121271733
 20
29.5288754271
 10
-19.0900561419
 20
29.7476600222
 10
-19.0396075826
 20
29.9611505898
 10
-18.9695801734
 20
30.1691226218
 10
-18.880319796
 20
30.3718006262
 10
-18.7736963359
 20
30.5647710002
 10
-18.6492375931
 20
30.7479818467
 10
-18.5074157676
 20
30.9214850626
 10
-18.3515173453
 20
31.0810227358
 10
-18.1812123865
 20
31.2262478924
 10
-17.9968308308
 20
31.3575075061
 10
-17.8026489839
 20
31.4715845857
 10
-17.5985315548
 20
31.5680577439
 10
-17.3846138344
 20
31.6473483679
 10
-17.1655780009
 20
31.7075036282
 10
-16.9429847803
 20
31.7478725816
 10
-16.7152734467
 20
31.7691061713
 10
-16.482444
 20
31.7712043974
  0
LWPOLYLINE
  5
36B
100
AcDbEntity
  8
RACCORDO
100
AcDbPolyline
 62
7
  6
CONTINUOUS
 90
9
 70
0
 10
-24.0330767749
 20
2.8534891387
 10
-24.0262545636
 20
2.8646156268
 10
-24.0202074094
 20
2.8760597742
 10
-24.0149353124
 20
2.8878215811
 10
-24.0104226773
 20
2.8999529727
 10
-24.0066850995
 20
2.9124020238
 10
-24.0037693642
 20
2.9250129583
 10
-24.0016910668
 20
2.937733851
 10
-24.0004346121
 20
2.9506166271
  0
LWPOLYLINE
  5
36C
100
AcDbEntity
  8
RACCORDO
100
AcDbPolyline
 62
7
  6
CONTINUOUS
 90
5
 70
0
 10
-24.0330767749
 20
2.8534891387
 10
-24.0627677885
 20
2.8220692218
 10
-24.0937737387
 20
2.796529435
 10
-24.1253775228
 20
2.7777258875
 10
-24.1579817766
 20
2.7668524001
  0
LWPOLYLINE
  5
36D
100
AcDbEntity
  8
RACCORDO
100
AcDbPolyline
 62
250
  6
CONTINUOUS
 90
9
 70
0
 10
-24.0526785702
 20
2.8335081608
 10
-24.0728153976
 20
2.8144228268
 10
-24.1018613148
 20
2.7945079058
 10
-24.133950283
 20
2.7799963208
 10
-24.1680872983
 20
2.7713380372
 10
-24.2032138512
 20
2.768801526
 10
-24.2382407479
 20
2.7724654372
 10
-24.272081883
 20
2.7822161598
 10
-24.3036879205
 20
2.7977513446
  0
LWPOLYLINE
  5
36E
100
AcDbEntity
  8
0
100
AcDbPolyline
 62
7
  6
CONTINUOUS
 90
20
 70
0
 10
-27.3596064097
 20
11.6105163245
 10
-27.2806675841
 20
11.6459423213
 10
-27.2097133497
 20
11.6906329376
 10
-27.145893303
 20
11.7440030914
 10
-27.0907015139
 20
11.8033410894
 10
-27.0442683792
 20
11.8687665292
 10
-27.006463502
 20
11.9401598133
 10
-26.9783897621
 20
12.0144504555
 10
-26.9607416215
 20
12.0924580879
 10
-26.9528246181
 20
12.1733630784
 10
-26.9536582451
 20
12.2516360456
 10
-26.962912421
 20
12.3262096631
 10
-26.9809172273
 20
12.3981512572
 10
-27.0076824028
 20
12.4651334251
 10
-27.0432786758
 20
12.5267421236
 10
-27.087635318
 20
12.5833913959
 10
-27.1405498837
 20
12.6339959683
 10
-27.2019548911
 20
12.6781940831
 10
-27.2719178221
 20
12.716347498
 10
-27.3504386766
 20
12.7484562131
  0
LWPOLYLINE
  5
36F
100
AcDbEntity
  8
0
100
AcDbPolyline
 62
7
  6
CONTINUOUS
 90
27
 70
0
 10
-27.9455177293
 20
12.7484562131
 10
-28.0205878327
 20
12.7230058814
 10
-28.0882868321
 20
12.690925238
 10
-28.1486147274
 20
12.6522142831
 10
-28.2019073146
 20
12.606420871
 10
-28.2478287977
 20
12.5539971474
 10
-28.2853717893
 20
12.4962995489
 10
-28.3141270398
 20
12.4332320166
 10
-28.3345037987
 20
12.3648906094
 10
-28.3467224269
 20
12.2929199405
 10
-28.3513182775
 20
12.2160900486
 10
-28.3477559974
 20
12.135630895
 10
-28.3346498884
 20
12.0568769776
 10
-28.3113043169
 20
11.9802295973
 10
-28.2784149166
 20
11.9052874532
 10
-28.2366828904
 20
11.8361811407
 10
-28.1857931848
 20
11.7734822139
 10
-28.1260608534
 20
11.7166191188
 10
-28.05913226
 20
11.6680077881
 10
-27.9846262138
 20
11.6280016562
 10
-27.9029239056
 20
11.5962472887
 10
-27.816815271
 20
11.5741003154
 10
-27.724731877
 20
11.5620030828
 10
-27.6282421566
 20
11.5595132443
 10
-27.5348413437
 20
11.56665939
 10
-27.4456794229
 20
11.5837698652
 10
-27.3596064097
 20
11.6105163245
  0
LINE
  5
370
100
AcDbEntity
  8
0
100
AcDbLine
 62
7
  6
CONTINUOUS
 10
28.68
 20
-21.2234042287
 11
29.31
 21
-21.2234042287
  0
LINE
  5
371
100
AcDbEntity
  8
0
100
AcDbLine
 62
7
  6
CONTINUOUS
 10
30.7099998665
 20
-21.1595744491
 11
31.9000001335
 21
-21.1595744491
  0
LINE
  5
372
100
AcDbEntity
  8
0
100
AcDbLine
 62
7
  6
CONTINUOUS
 10
29.73
 20
-20.8404255509
 11
28.68
 21
-20.8404255509
  0
LINE
  5
373
100
AcDbEntity
  8
0
100
AcDbLine
 62
7
  6
CONTINUOUS
 10
32.04
 20
-20.7765957713
 11
30.7099998665
 21
-20.7765957713
  0
LINE
  5
374
100
AcDbEntity
  8
0
100
AcDbLine
 62
7
  6
CONTINUOUS
 10
29.31
 20
-20.2659575343
 11
29.73
 21
-20.2659575343
  0
LINE
  5
375
100
AcDbEntity
  8
ASSI
100
AcDbLine
 62
7
  6
CONTINUOUS
 10
40.8
 20
-20.0
 11
38.3407181432
 21
-20.0
  0
LINE
  5
376
100
AcDbEntity
  8
ASSI
100
AcDbLine
 62
7
  6
CONTINUOUS
 10
-38.3407181432
 20
-20.0
 11
-40.8
 21
-20.0
  0
LINE
  5
377
100
AcDbEntity
  8
0
100
AcDbLine
 62
7
  6
CONTINUOUS
 10
28.1200000334
 20
-19.8829786777
 11
28.7499999332
 21
-19.8829786777
  0
LINE
  5
378
100
AcDbEntity
  8
0
100
AcDbLine
 62
7
  6
CONTINUOUS
 10
30.7099998665
 20
-19.8191488981
 11
32.04
 21
-19.8191488981
  0
LINE
  5
379
100
AcDbEntity
  8
0
100
AcDbLine
 62
7
  6
CONTINUOUS
 10
31.9699998665
 20
-19.5
 11
30.2900000668
 21
-19.5
  0
LINE
  5
37A
100
AcDbEntity
  8
0
100
AcDbLine
 62
7
  6
CONTINUOUS
 10
28.7499999332
 20
-19.5
 11
28.1200000334
 21
-19.5
  0
LWPOLYLINE
  5
37B
100
AcDbEntity
  8
RACCORDO
100
AcDbPolyline
 62
7
  6
CONTINUOUS
 90
5
 70
0
 10
-24.0330767749
 20
-2.8534891387
 10
-24.0627677885
 20
-2.8220692218
 10
-24.0937737387
 20
-2.796529435
 10
-24.1253775228
 20
-2.7777258875
 10
-24.1579817766
 20
-2.7668524001
  0
LWPOLYLINE
  5
37C
100
AcDbEntity
  8
RACCORDO
100
AcDbPolyline
 62
7
  6
CONTINUOUS
 90
9
 70
0
 10
-24.0330767749
 20
-2.8534891387
 10
-24.0262545636
 20
-2.8646156268
 10
-24.0202074094
 20
-2.8760597742
 10
-24.0149353124
 20
-2.8878215811
 10
-24.0104226773
 20
-2.8999529727
 10
-24.0066850995
 20
-2.9124020238
 10
-24.0037693642
 20
-2.9250129583
 10
-24.0016910668
 20
-2.937733851
 10
-24.0004346121
 20
-2.9506166271
  0
LWPOLYLINE
  5
37D
100
AcDbEntity
  8
0
100
AcDbPolyline
 62
7
  6
CONTINUOUS
 90
8
 70
0
 10
-9.9901290833
 20
-29.178131399
 10
-10.0195905075
 20
-29.109784709
 10
-10.0583903519
 20
-29.0445677279
 10
-10.105873118
 20
-28.9834156841
 10
-10.1600723106
 20
-28.929134263
 10
-10.2203324312
 20
-28.8826586931
 10
-10.2873089783
 20
-28.8430537459
 10
-10.3610019518
 20
-28.8103194214
  0
LWPOLYLINE
  5
37E
100
AcDbEntity
  8
0
100
AcDbPolyline
 62
7
  6
CONTINUOUS
 90
11
 70
0
 10
-11.8365289695
 20
-31.1221783356
 10
-11.8249863397
 20
-31.1673413713
 10
-11.8076112567
 20
-31.2115485228
 10
-11.7846817641
 20
-31.2541728935
 10
-11.7570319921
 20
-31.2933337938
 10
-11.7244059698
 20
-31.3288770704
 10
-11.6870596682
 20
-31.3609568765
 10
-11.6465951306
 20
-31.3881549822
 10
-11.6035463715
 20
-31.4099986442
 10
-11.5573793765
 20
-31.4269606058
 10
-11.5080941456
 20
-31.439040867
  0
LWPOLYLINE
  5
37F
100
AcDbEntity
  8
0
100
AcDbPolyline
 62
7
  6
CONTINUOUS
 90
26
 70
0
 10
-14.6383192212
 20
-31.0740624118
 10
-14.6319381799
 20
-31.1121926631
 10
-14.6242429695
 20
-31.1492426219
 10
-14.61420144
 20
-31.1853221266
 10
-14.601505027
 20
-31.2187297729
 10
-14.5855823039
 20
-31.2489314673
 10
-14.5670046973
 20
-31.2764613032
 10
-14.5471779225
 20
-31.3012201567
 10
-14.5261589179
 20
-31.3227606265
 10
-14.5038907452
 20
-31.341530114
 10
-14.4816083045
 20
-31.3587716988
 10
-14.4597982725
 20
-31.3753260351
 10
-14.4379739726
 20
-31.3903524687
 10
-14.4159102754
 20
-31.4025721168
 10
-14.393183413
 20
-31.4120169969
 10
-14.3702171533
 20
-31.4186550915
 10
-14.348057671
 20
-31.4211114654
 10
-14.3265314627
 20
-31.4185972919
 10
-14.3058120318
 20
-31.4119013979
 10
-14.2874660636
 20
-31.4020153278
 10
-14.2720123515
 20
-31.3888296466
 10
-14.2589321022
 20
-31.3724537893
 10
-14.248235621
 20
-31.3542076063
 10
-14.2408036843
 20
-31.3341005619
 10
-14.2357555157
 20
-31.3121231917
 10
-14.2304590922
 20
-31.2895669529
  0
LWPOLYLINE
  5
380
100
AcDbEntity
  8
0
100
AcDbPolyline
 62
7
  6
CONTINUOUS
 90
28
 70
0
 10
-14.6425403257
 20
-30.9885425851
 10
-14.6423546584
 20
-31.0002518152
 10
-14.6383178883
 20
-31.039348806
 10
-14.6319360249
 20
-31.077473977
 10
-14.6242418401
 20
-31.1145174183
 10
-14.614202562
 20
-31.1505890398
 10
-14.6015096854
 20
-31.1839895559
 10
-14.5855923654
 20
-31.2141853892
 10
-14.5670214468
 20
-31.2417101172
 10
-14.5472009594
 20
-31.2664651866
 10
-14.5261875576
 20
-31.2880035312
 10
-14.503924587
 20
-31.3067722172
 10
-14.4816461136
 20
-31.3240138901
 10
-14.4598384026
 20
-31.3405686515
 10
-14.4380151888
 20
-31.3555963998
 10
-14.4159517429
 20
-31.367819475
 10
-14.3932247025
 20
-31.3772714821
 10
-14.37025743
 20
-31.3839188161
 10
-14.3480952818
 20
-31.3863830011
 10
-14.3265637177
 20
-31.3838739444
 10
-14.3058372781
 20
-31.3771817388
 10
-14.2874849401
 20
-31.3672981868
 10
-14.2720261477
 20
-31.3541137398
 10
-14.2589414569
 20
-31.3377379464
 10
-14.2482415142
 20
-31.319491256
 10
-14.2408074457
 20
-31.299383312
 10
-14.2357581251
 20
-31.2774044709
 10
-14.2304608204
 20
-31.254846252
  0
LINE
  5
381
100
AcDbEntity
  8
DRAFT
100
AcDbLine
 62
7
  6
CONTINUOUS
 10
-17.25
 20
-22.45
 11
-17.25
 21
-24.2980026566
  0
LINE
  5
382
100
AcDbEntity
  8
DRAFT
100
AcDbLine
 62
7
  6
CONTINUOUS
 10
-17.25
 20
22.45
 11
-17.25
 21
24.2980026566
  0
LINE
  5
383
100
AcDbEntity
  8
0
100
AcDbLine
 62
7
  6
CONTINUOUS
 10
-17.120059859
 20
-28.7755897858
 11
-17.120059859
 21
-28.8103194214
  0
LINE
  5
384
100
AcDbEntity
  8
0
100
AcDbLine
 62
7
  6
CONTINUOUS
 10
-17.0749847593
 20
-31.3772423479
 11
-17.0749847593
 21
-31.4119719834
  0
LINE
  5
385
100
AcDbEntity
  8
0
100
AcDbLine
 62
7
  6
CONTINUOUS
 10
-16.882444
 20
28.9363076336
 11
-16.882444
 21
29.6636923664
  0
LINE
  5
386
100
AcDbEntity
  8
0
100
AcDbLine
 62
7
  6
CONTINUOUS
 10
-16.482444
 20
26.8287956026
 11
-16.482444
 21
27.5569757705
  0
LINE
  5
387
100
AcDbEntity
  8
0
100
AcDbLine
 62
7
  6
CONTINUOUS
 10
-16.482444
 20
31.043027186
 11
-16.482444
 21
31.7712043974
  0
LINE
  5
388
100
AcDbEntity
  8
0
100
AcDbLine
 62
7
  6
CONTINUOUS
 10
-16.361167
 20
-28.7755897858
 11
-16.361167
 21
-28.8103194214
  0
LINE
  5
389
100
AcDbEntity
  8
0
100
AcDbLine
 62
7
  6
CONTINUOUS
 10
-15.025153376
 20
-29.0408296087
 11
-15.025153376
 21
-29.0755592442
  0
LINE
  5
38A
100
AcDbEntity
  8
DRAFT
100
AcDbLine
 62
7
  6
CONTINUOUS
 10
-14.9
 20
24.2980026566
 11
-14.9
 21
23.3
  0
LINE
  5
38B
100
AcDbEntity
  8
DRAFT
100
AcDbLine
 62
7
  6
CONTINUOUS
 10
-14.9
 20
-23.3
 11
-14.9
 21
-24.2980026566
  0
LWPOLYLINE
  5
38C
100
AcDbEntity
  8
0
100
AcDbPolyline
 62
7
  6
CONTINUOUS
 90
3
 70
0
 10
-18.3985587516
 20
-31.1612618386
 10
-18.3982449792
 20
-31.1523432388
 10
-18.39263
 20
-31.0853660602
  0
LWPOLYLINE
  5
38D
100
AcDbEntity
  8
RACCORDO
100
AcDbPolyline
 62
250
  6
CONTINUOUS
 90
10
 70
0
 10
-24.3036879205
 20
-2.7977513446
 10
-24.3050601184
 20
-2.7990841784
 10
-24.3093110142
 20
-2.8021522682
 10
-24.3164500352
 20
-2.8069424985
 10
-24.3264798581
 20
-2.813427297
 10
-24.3394322696
 20
-2.8215812455
 10
-24.3553682775
 20
-2.8313804255
 10
-24.3743299065
 20
-2.8427800754
 10
-24.3963396643
 20
-2.8557149913
 10
-24.4214363913
 20
-2.8701156521
  0
LINE
  5
38E
100
AcDbEntity
  8
RACCORDO
100
AcDbLine
 62
7
  6
CONTINUOUS
 10
14.0086507125
 20
25.9465950349
 11
14.0113449281
 21
25.9481505411
  0
LINE
  5
38F
100
AcDbEntity
  8
RACCORDO
100
AcDbLine
 62
7
  6
CONTINUOUS
 10
-22.2952116462
 20
-14.75
 11
-21.9
 21
-14.75
  0
LINE
  5
390
100
AcDbEntity
  8
RACCORDO
100
AcDbLine
 62
7
  6
CONTINUOUS
 10
21.9
 20
-14.75
 11
22.2952116462
 21
-14.75
  0
LINE
  5
391
100
AcDbEntity
  8
0
100
AcDbLine
 62
7
  6
CONTINUOUS
 10
27.7700000167
 20
-22.4361702148
 11
28.1200000334
 21
-22.5
  0
LINE
  5
392
100
AcDbEntity
  8
0
100
AcDbLine
 62
7
  6
CONTINUOUS
 10
28.1200000334
 20
-22.1170212775
 11
27.84
 21
-22.0531914979
  0
LINE
  5
393
100
AcDbEntity
  8
DRAFT
100
AcDbLine
 62
7
  6
CONTINUOUS
 10
14.0
 20
-25.9416005438
 11
14.0113449281
 21
-25.9481505411
  0
LWPOLYLINE
  5
394
100
AcDbEntity
  8
RACCORDO
100
AcDbPolyline
 62
250
  6
CONTINUOUS
 90
9
 70
0
 10
-24.0630976902
 20
-2.8230500051
 10
-24.0728640809
 20
-2.8144544966
 10
-24.1019040854
 20
-2.7945422755
 10
-24.1339856637
 20
-2.780031288
 10
-24.1681143659
 20
-2.7713713387
 10
-24.2032322862
 20
-2.7688308645
 10
-24.2382508554
 20
-2.7724886139
 10
-24.2720845839
 20
-2.7822312056
 10
-24.3036847092
 20
-2.7977566432
  0
LWPOLYLINE
  5
395
100
AcDbEntity
  8
0
100
AcDbPolyline
 62
7
  6
CONTINUOUS
 90
14
 70
0
 10
-12.8260475946
 20
-31.2162935782
 10
-12.8233307571
 20
-31.2677555621
 10
-12.8135361607
 20
-31.3232682955
 10
-12.796900784
 20
-31.378375491
 10
-12.7740626319
 20
-31.4302333629
 10
-12.7448488105
 20
-31.4784392927
 10
-12.7094322136
 20
-31.5233958988
 10
-12.668969527
 20
-31.563467252
 10
-12.6229588416
 20
-31.5986252468
 10
-12.5719020666
 20
-31.6288979885
 10
-12.5184616155
 20
-31.6527338636
 10
-12.4635249596
 20
-31.6696156674
 10
-12.4062046278
 20
-31.6800606046
 10
-12.3465006199
 20
-31.684068675
  0
LWPOLYLINE
  5
396
100
AcDbEntity
  8
0
100
AcDbPolyline
 62
7
  6
CONTINUOUS
 90
13
 70
0
 10
-11.8435820582
 20
-31.0132891512
 10
-11.8425171896
 20
-31.0407028833
 10
-11.8365289696
 20
-31.0874486994
 10
-11.82498634
 20
-31.1326117348
 10
-11.8076112573
 20
-31.176818886
 10
-11.784681765
 20
-31.2194432564
 10
-11.7570319935
 20
-31.2586041566
 10
-11.7244059718
 20
-31.294147433
 10
-11.6870596709
 20
-31.3262272391
 10
-11.6465951335
 20
-31.353425345
 10
-11.6035463739
 20
-31.3752690073
 10
-11.557379378
 20
-31.3922309695
 10
-11.5080941456
 20
-31.4043112314
  0
LINE
  5
397
100
AcDbEntity
  8
DRAFT
100
AcDbLine
 62
7
  6
CONTINUOUS
 10
-14.0391477143
 20
26.0391477143
 11
-14.0364684712
 21
24.2980026566
  0
LWPOLYLINE
  5
398
100
AcDbEntity
  8
0
100
AcDbPolyline
 62
7
  6
CONTINUOUS
 90
4
 70
0
 10
-12.7921127855
 20
-29.2865303759
 10
-12.7921073421
 20
-29.2926876241
 10
-12.7968885346
 20
-29.3533709534
 10
-12.809203
 20
-29.4144585856
  0
LINE
  5
399
100
AcDbEntity
  8
0
100
AcDbLine
 62
7
  6
CONTINUOUS
 10
-14.494748855
 20
-28.7755897858
 11
-14.494748855
 21
-28.8103194214
  0
LINE
  5
39A
100
AcDbEntity
  8
0
100
AcDbLine
 62
7
  6
CONTINUOUS
 10
-14.476813
 20
-30.4168102649
 11
-14.476813
 21
-30.4515399004
  0
LINE
  5
39B
100
AcDbEntity
  8
DRAFT
100
AcDbLine
 62
7
  6
CONTINUOUS
 10
-14.0113449281
 20
26.0
 11
-14.0113449281
 21
25.9481505411
  0
LINE
  5
39C
100
AcDbEntity
  8
DRAFT
100
AcDbLine
 62
7
  6
CONTINUOUS
 10
-14.0113449281
 20
-25.9481505411
 11
-14.0113449281
 21
-26.0
  0
LINE
  5
39D
100
AcDbEntity
  8
RACCORDO
100
AcDbLine
 62
7
  6
CONTINUOUS
 10
-14.0086507125
 20
-25.9465950349
 11
-14.0086507125
 21
-24.3258204153
  0
LINE
  5
39E
100
AcDbEntity
  8
RACCORDO
100
AcDbLine
 62
7
  6
CONTINUOUS
 10
-14.0086507125
 20
24.3258204153
 11
-14.0086507125
 21
25.9465950349
  0
LINE
  5
39F
100
AcDbEntity
  8
0
100
AcDbLine
 62
7
  6
CONTINUOUS
 10
-13.964844
 20
-30.2012367064
 11
-13.964844
 21
-30.235966342
  0
LINE
  5
3A0
100
AcDbEntity
  8
0
100
AcDbLine
 62
250
  6
CONTINUOUS
 10
-13.315991
 20
-28.7755897858
 11
-13.315991
 21
-28.8103194214
  0
LINE
  5
3A1
100
AcDbEntity
  8
RACCORDO
100
AcDbLine
 62
250
  6
CONTINUOUS
 10
-13.0086887894
 20
-25.9546029997
 11
-13.0086887894
 21
-24.3344711278
  0
LINE
  5
3A2
100
AcDbEntity
  8
RACCORDO
100
AcDbLine
 62
250
  6
CONTINUOUS
 10
-13.0086887894
 20
24.3344711278
 11
-13.0086887894
 21
25.9546029997
  0
LINE
  5
3A3
100
AcDbEntity
  8
0
100
AcDbLine
 62
7
  6
CONTINUOUS
 10
-12.658387
 20
-30.5314625862
 11
-12.658387
 21
-30.5661922217
  0
LINE
  5
3A4
100
AcDbEntity
  8
DRAFT
100
AcDbLine
 62
7
  6
CONTINUOUS
 10
-12.6
 20
24.3344711278
 11
-12.6
 21
23.3
  0
LINE
  5
3A5
100
AcDbEntity
  8
DRAFT
100
AcDbLine
 62
7
  6
CONTINUOUS
 10
-12.6
 20
-23.3
 11
-12.6
 21
-24.3344711278
  0
LINE
  5
3A6
100
AcDbEntity
  8
0
100
AcDbLine
 62
250
  6
CONTINUOUS
 10
-12.2995603903
 20
-29.1911518166
 11
-12.2995603903
 21
-29.2258814521
  0
LINE
  5
3A7
100
AcDbEntity
  8
0
100
AcDbLine
 62
250
  6
CONTINUOUS
 10
-11.745905
 20
-28.7755897858
 11
-11.745905
 21
-28.8103194214
  0
LINE
  5
3A8
100
AcDbEntity
  8
0
100
AcDbLine
 62
7
  6
CONTINUOUS
 10
-11.5080941456
 20
-31.4043112314
 11
-11.5080941456
 21
-31.439040867
  0
LINE
  5
3A9
100
AcDbEntity
  8
0
100
AcDbLine
 62
7
  6
CONTINUOUS
 10
-11.098581
 20
-29.8746768457
 11
-11.098581
 21
-29.9094064812
  0
LINE
  5
3AA
100
AcDbEntity
  8
DRAFT
100
AcDbLine
 62
7
  6
CONTINUOUS
 10
-14.0364684712
 20
-24.2980026566
 11
-14.0391477143
 21
-26.0391477143
  0
LINE
  5
3AB
100
AcDbEntity
  8
0
100
AcDbLine
 62
7
  6
CONTINUOUS
 10
-11.842951
 20
-30.9923742864
 11
-11.8435820582
 21
-31.0132891512
  0
LINE
  5
3AC
100
AcDbEntity
  8
RACCORDO
100
AcDbLine
 62
7
  6
CONTINUOUS
 10
-7.9847421242
 20
26.0156577535
 11
-7.9913492875
 21
25.9892190318
  0
LINE
  5
3AD
100
AcDbEntity
  8
0
100
AcDbLine
 62
7
  6
CONTINUOUS
 10
-19.375444
 20
-29.2254820923
 11
-20.042745
 21
-31.684068675
  0
LINE
  5
3AE
100
AcDbEntity
  8
0
100
AcDbLine
 62
7
  6
CONTINUOUS
 10
-18.966055
 20
-27.7630857553
 11
-19.201616
 21
-28.6309818216
  0
LINE
  5
3AF
100
AcDbEntity
  8
RACCORDO
100
AcDbLine
 62
7
  6
CONTINUOUS
 10
7.9635315288
 20
24.2980026566
 11
7.9913492875
 21
24.3258204153
  0
LWPOLYLINE
  5
3B0
100
AcDbEntity
  8
RACCORDO
100
AcDbPolyline
 62
250
  6
CONTINUOUS
 90
8
 70
0
 10
-24.0
 20
-2.9687652886
 10
-24.0018831598
 20
-2.9702334518
 10
-24.0075676864
 20
-2.9734927691
 10
-24.0170952025
 20
-2.9785432406
 10
-24.030474875
 20
-2.9854259087
 10
-24.0477260635
 20
-2.994099731
 10
-24.0689201989
 20
-3.0044415801
 10
-24.0941014941
 20
-3.0164104136
  0
LINE
  5
3B1
100
AcDbEntity
  8
RACCORDO
100
AcDbLine
 62
7
  6
CONTINUOUS
 10
39.8386624453
 20
-5.518138829
 11
39.9475922207
 21
-5.5
  0
LINE
  5
3B2
100
AcDbEntity
  8
ASSI
100
AcDbLine
 62
7
  6
CONTINUOUS
 10
40.8
 20
-14.0
 11
38.3407181432
 21
-14.0
  0
LINE
  5
3B3
100
AcDbEntity
  8
ASSI
100
AcDbLine
 62
7
  6
CONTINUOUS
 10
-38.3407181432
 20
-14.0
 11
-40.8
 21
-14.0
  0
LINE
  5
3B4
100
AcDbEntity
  8
RACCORDO
100
AcDbLine
 62
7
  6
CONTINUOUS
 10
22.2952116462
 20
-11.75
 11
21.9
 21
-11.75
  0
LINE
  5
3B5
100
AcDbEntity
  8
RACCORDO
100
AcDbLine
 62
7
  6
CONTINUOUS
 10
-21.9
 20
-11.75
 11
-22.2952116462
 21
-11.75
  0
LINE
  5
3B6
100
AcDbEntity
  8
RACCORDO
100
AcDbLine
 62
7
  6
CONTINUOUS
 10
-39.8386624453
 20
-5.518138829
 11
-39.9475922207
 21
-5.5
  0
LINE
  5
3B7
100
AcDbEntity
  8
0
100
AcDbLine
 62
7
  6
CONTINUOUS
 10
29.1
 20
-19.5638297796
 11
28.7499999332
 21
-19.5
  0
LINE
  5
3B8
100
AcDbEntity
  8
0
100
AcDbLine
 62
7
  6
CONTINUOUS
 10
32.3200001335
 20
-19.5638297796
 11
31.9699998665
 21
-19.5
  0
LINE
  5
3B9
100
AcDbEntity
  8
0
100
AcDbLine
 62
7
  6
CONTINUOUS
 10
28.7499999332
 20
-19.8829786777
 11
29.0300000668
 21
-19.9468084574
  0
LINE
  5
3BA
100
AcDbEntity
  8
DRAFT
100
AcDbLine
 62
7
  6
CONTINUOUS
 10
7.9635315288
 20
-24.2980026566
 11
8.0
 21
-24.3344711278
  0
LINE
  5
3BB
100
AcDbEntity
  8
RACCORDO
100
AcDbLine
 62
7
  6
CONTINUOUS
 10
-7.9913492875
 20
-25.9892190318
 11
-7.9847421242
 21
-26.0156577535
  0
LWPOLYLINE
  5
3BC
100
AcDbEntity
  8
0
100
AcDbPolyline
 62
7
  6
CONTINUOUS
 90
10
 70
0
 10
-9.957255
 20
-29.2922899554
 10
-9.9693506052
 20
-29.2158132883
 10
-9.9901291523
 20
-29.1434015731
 10
-10.0195906413
 20
-29.0750548101
 10
-10.0583906056
 20
-29.0098377559
 10
-10.1058735119
 20
-28.9486856539
 10
-10.1600727597
 20
-28.8944042329
 10
-10.2203328155
 20
-28.8479287361
 10
-10.2873092129
 20
-28.8083239204
 10
-10.3610019518
 20
-28.7755897858
  0
LINE
  5
3BD
100
AcDbEntity
  8
DRAFT
100
AcDbLine
 62
7
  6
CONTINUOUS
 10
-7.9608522857
 20
-26.0391477143
 11
-7.9635315288
 21
-24.2980026566
  0
LINE
  5
3BE
100
AcDbEntity
  8
0
100
AcDbLine
 62
7
  6
CONTINUOUS
 10
-10.3610019518
 20
-28.7755897858
 11
-10.3610019518
 21
-28.8103194214
  0
LINE
  5
3BF
100
AcDbEntity
  8
DRAFT
100
AcDbLine
 62
7
  6
CONTINUOUS
 10
-9.4
 20
24.3344711278
 11
-9.4
 21
23.3
  0
LINE
  5
3C0
100
AcDbEntity
  8
DRAFT
100
AcDbLine
 62
7
  6
CONTINUOUS
 10
-9.4
 20
-23.3
 11
-9.4
 21
-24.3344711278
  0
LINE
  5
3C1
100
AcDbEntity
  8
RACCORDO
100
AcDbLine
 62
250
  6
CONTINUOUS
 10
-8.9913112106
 20
25.9546029997
 11
-8.9913112106
 21
24.3344711278
  0
LINE
  5
3C2
100
AcDbEntity
  8
RACCORDO
100
AcDbLine
 62
250
  6
CONTINUOUS
 10
-8.9913112106
 20
-24.3344711278
 11
-8.9913112106
 21
-25.9546029997
  0
LINE
  5
3C3
100
AcDbEntity
  8
RACCORDO
100
AcDbLine
 62
7
  6
CONTINUOUS
 10
-7.9913492875
 20
25.9892190318
 11
-7.9913492875
 21
24.3258204153
  0
LINE
  5
3C4
100
AcDbEntity
  8
RACCORDO
100
AcDbLine
 62
7
  6
CONTINUOUS
 10
-7.9913492875
 20
-24.3258204153
 11
-7.9913492875
 21
-25.9892190318
  0
LINE
  5
3C5
100
AcDbEntity
  8
DRAFT
100
AcDbLine
 62
7
  6
CONTINUOUS
 10
-7.1
 20
24.2980026566
 11
-7.1
 21
23.3
  0
LINE
  5
3C6
100
AcDbEntity
  8
DRAFT
100
AcDbLine
 62
7
  6
CONTINUOUS
 10
-7.1
 20
-23.3
 11
-7.1
 21
-24.2980026566
  0
LINE
  5
3C7
100
AcDbEntity
  8
DRAFT
100
AcDbLine
 62
7
  6
CONTINUOUS
 10
-7.9635315288
 20
24.2980026566
 11
-7.9608522857
 21
26.0391477143
  0
LINE
  5
3C8
100
AcDbEntity
  8
DRAFT
100
AcDbLine
 62
7
  6
CONTINUOUS
 10
-14.0152578758
 20
-26.0156577535
 11
-14.0113449281
 21
-26.0
  0
LINE
  5
3C9
100
AcDbEntity
  8
0
100
AcDbLine
 62
7
  6
CONTINUOUS
 10
-18.149695
 20
-28.1880510719
 11
-17.917751
 21
-27.3216766945
  0
LINE
  5
3CA
100
AcDbEntity
  8
0
100
AcDbLine
 62
7
  6
CONTINUOUS
 10
-19.085646
 20
-31.684068675
 11
-18.306991
 21
-28.7755897858
  0
LINE
  5
3CB
100
AcDbEntity
  8
0
100
AcDbLine
 62
7
  6
CONTINUOUS
 10
-17.8568848222
 20
-29.0842194337
 11
-18.39263
 21
-31.0853660602
  0
LINE
  5
3CC
100
AcDbEntity
  8
0
100
AcDbLine
 62
7
  6
CONTINUOUS
 10
-17.473061
 20
-31.0601898198
 11
-16.981874906
 21
-29.2254817412
  0
LINE
  5
3CD
100
AcDbEntity
  8
0
100
AcDbLine
 62
7
  6
CONTINUOUS
 10
-16.460137
 20
-29.0806268172
 11
-17.0749847593
 21
-31.3772423479
  0
LINE
  5
3CE
100
AcDbEntity
  8
0
100
AcDbLine
 62
7
  6
CONTINUOUS
 10
-16.220604
 20
-31.684068675
 11
-15.052708
 21
-27.3216766945
  0
LINE
  5
3CF
100
AcDbEntity
  8
0
100
AcDbLine
 62
7
  6
CONTINUOUS
 10
-16.074773
 20
-27.7520362963
 11
-16.361167
 21
-28.7755897858
  0
LINE
  5
3D0
100
AcDbEntity
  8
RACCORDO
100
AcDbLine
 62
250
  6
CONTINUOUS
 10
-39.8386624453
 20
-26.5523670977
 11
-40.0
 21
-26.7137046525
  0
LINE
  5
3D1
100
AcDbEntity
  8
DRAFT
100
AcDbLine
 62
7
  6
CONTINUOUS
 10
14.0391477143
 20
26.0391477143
 11
14.0156577535
 21
26.0156577535
  0
LINE
  5
3D2
100
AcDbEntity
  8
RACCORDO
100
AcDbLine
 62
250
  6
CONTINUOUS
 10
-24.4214363913
 20
-2.8701156521
 11
-24.5946684167
 21
-2.9673201391
  0
LINE
  5
3D3
100
AcDbEntity
  8
RACCORDO
100
AcDbLine
 62
250
  6
CONTINUOUS
 10
-24.5946684167
 20
-2.9673201391
 11
-24.894900903
 21
-3.133954745
  0
LINE
  5
3D4
100
AcDbEntity
  8
RACCORDO
100
AcDbLine
 62
250
  6
CONTINUOUS
 10
-24.894900903
 20
-3.133954745
 11
-25.09638008
 21
-3.2450249813
  0
LINE
  5
3D5
100
AcDbEntity
  8
ASSI
100
AcDbLine
 62
7
  6
CONTINUOUS
 10
-28.5060518757
 20
-4.9162693169
 11
-24.5060518757
 21
-2.7162693169
  0
LINE
  5
3D6
100
AcDbEntity
  8
DRAFT
100
AcDbLine
 62
7
  6
CONTINUOUS
 10
-28.4337640632
 20
-5.0477017032
 11
-24.4337640632
 21
-2.8477017032
  0
LINE
  5
3D7
100
AcDbEntity
  8
RACCORDO
100
AcDbLine
 62
7
  6
CONTINUOUS
 10
-25.09638008
 20
-3.2450249813
 11
-28.4198781071
 21
-5.0729488962
  0
LINE
  5
3D8
100
AcDbEntity
  8
RACCORDO
100
AcDbLine
 62
250
  6
CONTINUOUS
 10
-25.0
 20
-3.4202614903
 11
-28.3234980271
 21
-5.2481854052
  0
LINE
  5
3D9
100
AcDbEntity
  8
RACCORDO
100
AcDbLine
 62
250
  6
CONTINUOUS
 10
-24.0941014941
 20
-3.0164104136
 11
-24.1563203892
 21
-3.0453521611
  0
LINE
  5
3DA
100
AcDbEntity
  8
RACCORDO
100
AcDbLine
 62
250
  6
CONTINUOUS
 10
-24.1563203892
 20
-3.0453521611
 11
-24.2021696699
 21
-3.0662462633
  0
LINE
  5
3DB
100
AcDbEntity
  8
RACCORDO
100
AcDbLine
 62
250
  6
CONTINUOUS
 10
-24.9144026312
 20
-3.382126664
 11
-25.0
 21
-3.4202614903
  0
LINE
  5
3DC
100
AcDbEntity
  8
RACCORDO
100
AcDbLine
 62
250
  6
CONTINUOUS
 10
-24.2021696699
 20
-3.0662462633
 11
-24.4393942282
 21
-3.1723214565
  0
LINE
  5
3DD
100
AcDbEntity
  8
0
100
AcDbLine
 62
7
  6
CONTINUOUS
 10
-27.0901949367
 20
0.35
 11
-26.5197234842
 21
0.5197234842
  0
LINE
  5
3DE
100
AcDbEntity
  8
RACCORDO
100
AcDbLine
 62
7
  6
CONTINUOUS
 10
-22.2952116462
 20
-8.5
 11
-21.9
 21
-8.5
  0
LINE
  5
3DF
100
AcDbEntity
  8
RACCORDO
100
AcDbLine
 62
7
  6
CONTINUOUS
 10
21.9
 20
-8.5
 11
22.2952116462
 21
-8.5
  0
LINE
  5
3E0
100
AcDbEntity
  8
RACCORDO
100
AcDbLine
 62
7
  6
CONTINUOUS
 10
24.0
 20
-7.75
 11
33.5
 21
-7.75
  0
LINE
  5
3E1
100
AcDbEntity
  8
RACCORDO
100
AcDbLine
 62
7
  6
CONTINUOUS
 10
-24.0
 20
-7.75
 11
-33.5
 21
-7.75
  0
LINE
  5
3E2
100
AcDbEntity
  8
0
100
AcDbLine
 62
7
  6
CONTINUOUS
 10
-26.5197234842
 20
-0.5197234842
 11
-27.0901949367
 21
-0.35
  0
LINE
  5
3E3
100
AcDbEntity
  8
0
100
AcDbLine
 62
7
  6
CONTINUOUS
 10
32.04
 20
-19.8191488981
 11
32.25
 21
-19.8829786777
  0
LINE
  5
3E4
100
AcDbEntity
  8
RACCORDO
100
AcDbLine
 62
250
  6
CONTINUOUS
 10
-25.0
 20
3.4202614903
 11
-24.9144026281
 21
3.3821266712
  0
LWPOLYLINE
  5
3E5
100
AcDbEntity
  8
RACCORDO
100
AcDbPolyline
 62
250
  6
CONTINUOUS
 90
3
 70
0
 10
-24.4393942293
 20
3.1723214533
 10
-24.2021696695
 20
3.0662462654
 10
-24.1563203892
 20
3.0453521611
  0
LINE
  5
3E6
100
AcDbEntity
  8
0
100
AcDbLine
 62
7
  6
CONTINUOUS
 10
27.4899999833
 20
-22.3085106388
 11
27.7700000167
 21
-22.4361702148
  0
LWPOLYLINE
  5
3E7
100
AcDbEntity
  8
RACCORDO
100
AcDbPolyline
 62
250
  6
CONTINUOUS
 90
7
 70
0
 10
-24.1563203892
 20
3.0453521611
 10
-24.108281029
 20
3.0228584481
 10
-24.0690062433
 20
3.0042564287
 10
-24.0385876119
 20
2.9895461031
 10
-24.0170218386
 20
2.9787274712
 10
-24.0042170996
 20
2.971800533
 10
-24.0
 20
2.9687652886
  0
LINE
  5
3E8
100
AcDbEntity
  8
ASSI
100
AcDbLine
 62
7
  6
CONTINUOUS
 10
-24.5060518757
 20
2.7162693169
 11
-28.5060518757
 21
4.9162693169
  0
LINE
  5
3E9
100
AcDbEntity
  8
DRAFT
100
AcDbLine
 62
7
  6
CONTINUOUS
 10
-24.4337640632
 20
2.8477017032
 11
-28.4337640632
 21
5.0477017032
  0
LINE
  5
3EA
100
AcDbEntity
  8
RACCORDO
100
AcDbLine
 62
7
  6
CONTINUOUS
 10
-28.4198781071
 20
5.0729488962
 11
-25.09638008
 21
3.2450249813
  0
LINE
  5
3EB
100
AcDbEntity
  8
RACCORDO
100
AcDbLine
 62
250
  6
CONTINUOUS
 10
-28.3234980271
 20
5.2481854052
 11
-25.0
 21
3.4202614903
  0
LINE
  5
3EC
100
AcDbEntity
  8
RACCORDO
100
AcDbLine
 62
250
  6
CONTINUOUS
 10
-25.09638008
 20
3.2450249813
 11
-24.7663063625
 21
3.062772818
  0
LINE
  5
3ED
100
AcDbEntity
  8
RACCORDO
100
AcDbLine
 62
250
  6
CONTINUOUS
 10
-24.7663063625
 20
3.062772818
 11
-24.499522231
 21
2.9140934833
  0
LINE
  5
3EE
100
AcDbEntity
  8
RACCORDO
100
AcDbLine
 62
250
  6
CONTINUOUS
 10
-24.499522231
 20
2.9140934833
 11
-24.4214363913
 21
2.8701156521
  0
LWPOLYLINE
  5
3EF
100
AcDbEntity
  8
RACCORDO
100
AcDbPolyline
 62
250
  6
CONTINUOUS
 90
7
 70
0
 10
-24.4214363913
 20
2.8701156521
 10
-24.385034241
 20
2.8491013622
 10
-24.3554783057
 20
2.8314386763
 10
-24.3326494066
 20
2.8173355807
 10
-24.316451305
 20
2.8069521527
 10
-24.3068125745
 20
2.8004016532
 10
-24.3036879205
 20
2.7977513446
  0
LINE
  5
3F0
100
AcDbEntity
  8
DRAFT
100
AcDbLine
 62
7
  6
CONTINUOUS
 10
14.0391477143
 20
-26.0391477143
 11
14.0156552005
 21
-26.0164475978
  0
LINE
  5
3F1
100
AcDbEntity
  8
RACCORDO
100
AcDbLine
 62
250
  6
CONTINUOUS
 10
-39.8386624453
 20
26.5523670977
 11
-40.0
 21
26.7137046525
  0
LWPOLYLINE
  5
3F2
100
AcDbEntity
  8
0
100
AcDbPolyline
 62
7
  6
CONTINUOUS
 90
16
 70
0
 10
-18.342945
 20
28.9363076336
 10
-18.2996516609
 20
28.777099332
 10
-18.2422593719
 20
28.6246084825
 10
-18.170768133
 20
28.478835085
 10
-18.084371794
 20
28.3384950295
 10
-17.9838765051
 20
28.2048724259
 10
-17.871700717
 20
28.0818196048
 10
-17.7474504297
 20
27.9696332196
 10
-17.6115196433
 20
27.8680166167
 10
-17.467508808
 20
27.7799321663
 10
-17.3150817654
 20
27.7057950893
 10
-17.154574674
 20
27.6451901648
 10
-16.9905964592
 20
27.5998341
 10
-16.8246834295
 20
27.5702991305
 10
-16.6552992764
 20
27.5560130207
 10
-16.482444
 20
27.5569757705
  0
LINE
  5
3F3
100
AcDbEntity
  8
DRAFT
100
AcDbLine
 62
7
  6
CONTINUOUS
 10
-14.0113449281
 20
26.0
 11
-14.0152578758
 21
26.0156577535
  0
LINE
  5
3F4
100
AcDbEntity
  8
DRAFT
100
AcDbLine
 62
7
  6
CONTINUOUS
 10
-4.75
 20
23.0
 11
-4.7519973434
 21
24.2980026566
  0
LINE
  5
3F5
100
AcDbEntity
  8
DRAFT
100
AcDbLine
 62
7
  6
CONTINUOUS
 10
-4.75
 20
23.0
 11
-4.75
 21
22.45
  0
LINE
  5
3F6
100
AcDbEntity
  8
DRAFT
100
AcDbLine
 62
7
  6
CONTINUOUS
 10
-4.75
 20
-23.0
 11
-4.75
 21
-22.45
  0
LINE
  5
3F7
100
AcDbEntity
  8
DRAFT
100
AcDbLine
 62
7
  6
CONTINUOUS
 10
-4.75
 20
-23.0
 11
-4.7519973434
 21
-24.2980026566
  0
LWPOLYLINE
  5
3F8
100
AcDbEntity
  8
0
100
AcDbPolyline
 62
7
  6
CONTINUOUS
 90
3
 70
0
 10
-12.81103186
 20
-31.1016279204
 10
-12.8219722726
 20
-31.1574093388
 10
-12.8260475946
 20
-31.2162935782
  0
LINE
  5
3F9
100
AcDbEntity
  8
0
100
AcDbLine
 62
7
  6
CONTINUOUS
 10
-15.025153376
 20
-29.0408296087
 11
-15.603546
 21
-31.2012753023
  0
LINE
  5
3FA
100
AcDbEntity
  8
0
100
AcDbLine
 62
7
  6
CONTINUOUS
 10
-15.025153376
 20
-29.0755592442
 11
-15.5948700485
 21
-31.2035980204
  0
LINE
  5
3FB
100
AcDbEntity
  8
0
100
AcDbLine
 62
7
  6
CONTINUOUS
 10
-14.476813
 20
-30.4168102649
 11
-14.1736589784
 21
-29.2844515769
  0
LINE
  5
3FC
100
AcDbEntity
  8
0
100
AcDbLine
 62
7
  6
CONTINUOUS
 10
-13.667068
 20
-29.088964586
 11
-13.964844
 21
-30.2012367064
  0
LINE
  5
3FD
100
AcDbEntity
  8
0
100
AcDbLine
 62
7
  6
CONTINUOUS
 10
-13.667068
 20
-29.1236942215
 11
-13.964844
 21
-30.235966342
  0
LINE
  5
3FE
100
AcDbEntity
  8
0
100
AcDbLine
 62
7
  6
CONTINUOUS
 10
-13.3239524427
 20
-31.3371818078
 11
-13.165401
 21
-30.7449500053
  0
LINE
  5
3FF
100
AcDbEntity
  8
0
100
AcDbLine
 62
7
  6
CONTINUOUS
 10
-13.016228
 20
-30.1877509935
 11
-12.809203
 21
-29.4144585856
  0
LINE
  5
400
100
AcDbEntity
  8
0
100
AcDbLine
 62
7
  6
CONTINUOUS
 10
-12.2985014951
 20
-29.1871965813
 11
-12.509215
 21
-29.9742635744
  0
LINE
  5
401
100
AcDbEntity
  8
0
100
AcDbLine
 62
7
  6
CONTINUOUS
 10
-12.658387
 20
-30.5314625862
 11
-12.81103186
 21
-31.1016279204
  0
LINE
  5
402
100
AcDbEntity
  8
0
100
AcDbLine
 62
7
  6
CONTINUOUS
 10
-12.2995603903
 20
-29.2258814521
 11
-12.5005390264
 21
-29.9765863053
  0
LINE
  5
403
100
AcDbEntity
  8
0
100
AcDbLine
 62
7
  6
CONTINUOUS
 10
-12.658387
 20
-30.5661922217
 11
-12.81103186
 21
-31.1363575559
  0
LINE
  5
404
100
AcDbEntity
  8
0
100
AcDbLine
 62
7
  6
CONTINUOUS
 10
-11.842951
 20
-30.9923742864
 11
-11.704358
 21
-30.4746955419
  0
LWPOLYLINE
  5
405
100
AcDbEntity
  8
0
100
AcDbPolyline
 62
7
  6
CONTINUOUS
 90
3
 70
0
 10
-14.2304608204
 20
-31.254846252
 10
-14.2173671039
 20
-31.2088526932
 10
-14.2104482694
 20
-31.184986847
  0
LWPOLYLINE
  5
406
100
AcDbEntity
  8
0
100
AcDbPolyline
 62
7
  6
CONTINUOUS
 90
3
 70
0
 10
-14.2304590922
 20
-31.2895669529
 10
-14.2173667986
 20
-31.2435788412
 10
-14.2104482694
 20
-31.2197164825
  0
LINE
  5
407
100
AcDbEntity
  8
RACCORDO
100
AcDbLine
 62
250
  6
CONTINUOUS
 10
29.8523670977
 20
36.5386624453
 11
30.0137046525
 21
36.7
  0
LWPOLYLINE
  5
408
100
AcDbEntity
  8
RACCORDO
100
AcDbPolyline
 62
250
  6
CONTINUOUS
 90
3
 70
0
 10
-24.4393942282
 20
-3.1723214565
 10
-24.5859840475
 20
-3.2373407152
 10
-24.6648236788
 20
-3.2724310293
  0
LINE
  5
409
100
AcDbEntity
  8
RACCORDO
100
AcDbLine
 62
250
  6
CONTINUOUS
 10
-24.6648236788
 20
-3.2724310293
 11
-24.9144026312
 21
-3.382126664
  0
LINE
  5
40A
100
AcDbEntity
  8
0
100
AcDbLine
 62
7
  6
CONTINUOUS
 10
-24.9098050633
 20
-0.35
 11
-25.4802765158
 21
-0.5197234842
  0
LWPOLYLINE
  5
40B
100
AcDbEntity
  8
RACCORDO
100
AcDbPolyline
 62
7
  6
CONTINUOUS
 90
6
 70
0
 10
24.1579817766
 20
-2.7668524001
 10
24.1909025674
 20
-2.7629967966
 10
24.2220273499
 20
-2.7637265781
 10
24.2506795913
 20
-2.7683486299
 10
24.2778570217
 20
-2.7774432068
 10
24.3038706849
 20
-2.7907160251
  0
LWPOLYLINE
  5
40C
100
AcDbEntity
  8
RACCORDO
100
AcDbPolyline
 62
7
  6
CONTINUOUS
 90
5
 70
0
 10
39.7291638487
 20
-5.52239762
 10
39.7726215957
 20
-5.5213531175
 10
39.8050873294
 20
-5.5203009078
 10
39.827100946
 20
-5.5192294783
 10
39.8386624453
 20
-5.518138829
  0
LINE
  5
40D
100
AcDbEntity
  8
RACCORDO
100
AcDbLine
 62
7
  6
CONTINUOUS
 10
39.6125116914
 20
-5.5243944279
 11
39.7291638487
 21
-5.52239762
  0
LINE
  5
40E
100
AcDbEntity
  8
RACCORDO
100
AcDbLine
 62
7
  6
CONTINUOUS
 10
39.3729099255
 20
-5.5269519204
 11
39.6125116914
 21
-5.5243944279
  0
LINE
  5
40F
100
AcDbEntity
  8
RACCORDO
100
AcDbLine
 62
7
  6
CONTINUOUS
 10
38.8345863139
 20
-5.5298123523
 11
39.3729099255
 21
-5.5269519204
  0
LINE
  5
410
100
AcDbEntity
  8
RACCORDO
100
AcDbLine
 62
7
  6
CONTINUOUS
 10
38.2711937206
 20
-5.5305440373
 11
38.8345863139
 21
-5.5298123523
  0
LINE
  5
411
100
AcDbEntity
  8
RACCORDO
100
AcDbLine
 62
7
  6
CONTINUOUS
 10
-38.2711937206
 20
-5.5305440373
 11
-38.3407181432
 21
-5.5305440373
  0
LINE
  5
412
100
AcDbEntity
  8
DRAFT
100
AcDbLine
 62
7
  6
CONTINUOUS
 10
-39.9475922207
 20
-5.5
 11
-38.5
 21
-5.5
  0
LINE
  5
413
100
AcDbEntity
  8
RACCORDO
100
AcDbLine
 62
7
  6
CONTINUOUS
 10
22.2952116462
 20
-5.5
 11
21.9
 21
-5.5
  0
LINE
  5
414
100
AcDbEntity
  8
RACCORDO
100
AcDbLine
 62
7
  6
CONTINUOUS
 10
-21.9
 20
-5.5
 11
-22.2952116462
 21
-5.5
  0
LINE
  5
415
100
AcDbEntity
  8
DRAFT
100
AcDbLine
 62
7
  6
CONTINUOUS
 10
38.5
 20
-5.5
 11
39.9475922207
 21
-5.5
  0
LWPOLYLINE
  5
416
100
AcDbEntity
  8
RACCORDO
100
AcDbPolyline
 62
7
  6
CONTINUOUS
 90
6
 70
0
 10
-24.1579817766
 20
-2.7668524001
 10
-24.1909025674
 20
-2.7629967966
 10
-24.2220273499
 20
-2.7637265781
 10
-24.2506795913
 20
-2.7683486299
 10
-24.2778570217
 20
-2.7774432068
 10
-24.3038706849
 20
-2.7907160251
  0
LINE
  5
417
100
AcDbEntity
  8
0
100
AcDbLine
 62
7
  6
CONTINUOUS
 10
-25.4802765158
 20
0.5197234842
 11
-24.9098050633
 21
0.35
  0
LWPOLYLINE
  5
418
100
AcDbEntity
  8
RACCORDO
100
AcDbPolyline
 62
250
  6
CONTINUOUS
 90
3
 70
0
 10
-24.9144026281
 20
3.3821266712
 10
-24.6648236755
 20
3.2724310371
 10
-24.5859840472
 20
3.2373407157
  0
LINE
  5
419
100
AcDbEntity
  8
RACCORDO
100
AcDbLine
 62
250
  6
CONTINUOUS
 10
-24.5859840472
 20
3.2373407157
 11
-24.4393942293
 21
3.1723214533
  0
LINE
  5
41A
100
AcDbEntity
  8
0
100
AcDbLine
 62
7
  6
CONTINUOUS
 10
29.3799999332
 20
-19.6914893389
 11
29.1
 21
-19.5638297796
  0
LINE
  5
41B
100
AcDbEntity
  8
0
100
AcDbLine
 62
7
  6
CONTINUOUS
 10
27.84
 20
-22.0531914979
 11
27.63
 21
-21.925531894
  0
LINE
  5
41C
100
AcDbEntity
  8
RACCORDO
100
AcDbLine
 62
250
  6
CONTINUOUS
 10
29.8523670977
 20
-36.5386624453
 11
30.0137046525
 21
-36.7
  0
LWPOLYLINE
  5
41D
100
AcDbEntity
  8
0
100
AcDbPolyline
 62
7
  6
CONTINUOUS
 90
4
 70
0
 43
0.3500000006
 10
-2.3571427875
 20
55.8785674438
 10
-2.3571427875
 20
56.735714447
 10
-1.9285714102
 20
57.1642834167
 10
-1.2857142735
 20
57.1642834167
  0
LWPOLYLINE
  5
41E
100
AcDbEntity
  8
0
100
AcDbPolyline
 62
7
  6
CONTINUOUS
 90
4
 70
0
 43
0.3500000006
 10
-2.3571427875
 20
65.8785704956
 10
-2.3571427875
 20
66.7357174988
 10
-1.9285714102
 20
67.1642864685
 10
-1.2857142735
 20
67.1642864685
  0
LINE
  5
41F
100
AcDbEntity
  8
RACCORDO
100
AcDbLine
 62
250
  6
CONTINUOUS
 10
-2.2
 20
26.3852273835
 11
-2.1999999842
 21
26.7373104138
  0
LINE
  5
420
100
AcDbEntity
  8
RACCORDO
100
AcDbLine
 62
250
  6
CONTINUOUS
 10
-2.1999999999
 20
33.4976320449
 11
-2.2
 21
33.25
  0
LINE
  5
421
100
AcDbEntity
  8
RACCORDO
100
AcDbLine
 62
250
  6
CONTINUOUS
 10
-2.2
 20
-26.3852273835
 11
-2.2
 21
-26.7373104138
  0
LINE
  5
422
100
AcDbEntity
  8
RACCORDO
100
AcDbLine
 62
250
  6
CONTINUOUS
 10
-2.1999999988
 20
-33.497650404
 11
-2.2
 21
-33.25
  0
LWPOLYLINE
  5
423
100
AcDbEntity
  8
0
100
AcDbPolyline
 62
7
  6
CONTINUOUS
 90
13
 70
0
 43
0.3500000006
 10
0.0
 20
56.3071454773
 10
0.0
 20
57.5928614502
 10
0.2142857063
 20
58.0214304199
 10
0.6428571367
 20
58.4499993896
 10
0.8571428254
 20
58.4499993896
 10
1.2857142735
 20
58.0214304199
 10
1.5000000329
 20
57.5928614502
 10
1.5000000329
 20
56.3071454773
 10
1.2857142735
 20
55.8785674438
 10
0.8571428254
 20
55.4499984741
 10
0.6428571367
 20
55.4499984741
 10
0.2142857063
 20
55.8785674438
 10
0.0
 20
56.3071454773
  0
LINE
  5
424
100
AcDbEntity
  8
0
100
AcDbLine
 62
7
  6
CONTINUOUS
 10
-10.884495902
 20
-29.0750129806
 11
-11.098581
 21
-29.8746768457
  0
LINE
  5
425
100
AcDbEntity
  8
0
100
AcDbLine
 62
7
  6
CONTINUOUS
 10
-11.202663
 20
-30.263447498
 11
-11.5080941456
 21
-31.4043112314
  0
LINE
  5
426
100
AcDbEntity
  8
0
100
AcDbLine
 62
7
  6
CONTINUOUS
 10
-10.59758
 20
-31.684068675
 11
-9.957255
 21
-29.2922899554
  0
LINE
  5
427
100
AcDbEntity
  8
0
100
AcDbLine
 62
7
  6
CONTINUOUS
 10
10.539698
 20
28.560185156
 11
10.706835
 21
29.0119279293
  0
LINE
  5
428
100
AcDbEntity
  8
0
100
AcDbLine
 62
7
  6
CONTINUOUS
 10
10.539698
 20
28.5254555205
 11
10.706835
 21
28.9771982937
  0
LINE
  5
429
100
AcDbEntity
  8
0
100
AcDbLine
 62
7
  6
CONTINUOUS
 10
10.773665
 20
29.1977950953
 11
11.032168
 21
29.8868708988
  0
LINE
  5
42A
100
AcDbEntity
  8
0
100
AcDbLine
 62
7
  6
CONTINUOUS
 10
10.773665
 20
29.1630654597
 11
11.032168
 21
29.8521412633
  0
LINE
  5
42B
100
AcDbEntity
  8
0
100
AcDbLine
 62
7
  6
CONTINUOUS
 10
10.918569
 20
30.0772096171
 11
10.316847
 21
28.5254555205
  0
LWPOLYLINE
  5
42C
100
AcDbEntity
  8
0
100
AcDbPolyline
 62
7
  6
CONTINUOUS
 90
10
 70
0
 10
-13.3239524427
 20
-31.3371818078
 10
-13.3470800733
 20
-31.3920098738
 10
-13.3753486098
 20
-31.4431213029
 10
-13.4087580522
 20
-31.4905160951
 10
-13.447772798
 20
-31.5346670949
 10
-13.4919284497
 20
-31.5751014577
 10
-13.5398318149
 20
-31.6104006504
 10
-13.5910184964
 20
-31.6400918287
 10
-13.6459528914
 20
-31.6646478369
 10
-13.704635
 20
-31.684068675
  0
LWPOLYLINE
  5
42D
100
AcDbEntity
  8
0
100
AcDbPolyline
 62
7
  6
CONTINUOUS
 90
12
 70
0
 10
-17.8568848222
 20
-29.0842194337
 10
-17.8262464678
 20
-29.0286765304
 10
-17.7893057379
 20
-28.9787027794
 10
-17.7460626325
 20
-28.9342981808
 10
-17.6961995207
 20
-28.8953500211
 10
-17.6400340333
 20
-28.8619710136
 10
-17.5785190639
 20
-28.8344992988
 10
-17.5111920972
 20
-28.8137442066
 10
-17.4385156485
 20
-28.798896407
 10
-17.3628301564
 20
-28.7878660501
 10
-17.2849157672
 20
-28.7799565193
 10
-17.2039923348
 20
-28.7758644312
  0
LWPOLYLINE
  5
42E
100
AcDbEntity
  8
0
100
AcDbPolyline
 62
7
  6
CONTINUOUS
 90
12
 70
0
 10
-17.8568848222
 20
-29.1189490693
 10
-17.8262544804
 20
-29.0634165449
 10
-17.7893219991
 20
-29.0134503138
 10
-17.7460873783
 20
-28.969050376
 10
-17.6962343082
 20
-28.9301034991
 10
-17.6400790986
 20
-28.8967229155
 10
-17.5785706794
 20
-28.8692483216
 10
-17.5112453888
 20
-28.8484887466
 10
-17.4385668887
 20
-28.8336351614
 10
-17.3628750941
 20
-28.8226001754
 10
-17.2849499768
 20
-28.8146879916
 10
-17.2040115651
 20
-28.8105944069
  0
LINE
  5
42F
100
AcDbEntity
  8
0
100
AcDbLine
 62
7
  6
CONTINUOUS
 10
43.0
 20
-3.25
 11
41.3711307144
 21
-3.25
  0
LINE
  5
430
100
AcDbEntity
  8
DRAFT
100
AcDbLine
 62
7
  6
CONTINUOUS
 10
41.3711307144
 20
-3.25
 11
39.9475922207
 21
-3.25
  0
LINE
  5
431
100
AcDbEntity
  8
DRAFT
100
AcDbLine
 62
7
  6
CONTINUOUS
 10
-39.9475922207
 20
-3.25
 11
-41.3711307144
 21
-3.25
  0
LINE
  5
432
100
AcDbEntity
  8
0
100
AcDbLine
 62
7
  6
CONTINUOUS
 10
-41.3711307144
 20
-3.25
 11
-43.0
 21
-3.25
  0
LINE
  5
433
100
AcDbEntity
  8
RACCORDO
100
AcDbLine
 62
250
  6
CONTINUOUS
 10
-33.4788062794
 20
-2.2
 11
-33.25
 21
-2.2
  0
LINE
  5
434
100
AcDbEntity
  8
RACCORDO
100
AcDbLine
 62
250
  6
CONTINUOUS
 10
33.4788062794
 20
-2.2
 11
33.25
 21
-2.2
  0
LINE
  5
435
100
AcDbEntity
  8
0
100
AcDbLine
 62
7
  6
CONTINUOUS
 10
-26.35
 20
-1.4917020703
 11
-25.65
 21
-1.4917020703
  0
LINE
  5
436
100
AcDbEntity
  8
0
100
AcDbLine
 62
7
  6
CONTINUOUS
 10
25.65
 20
-1.4917020703
 11
26.35
 21
-1.4917020703
  0
LINE
  5
437
100
AcDbEntity
  8
0
100
AcDbLine
 62
7
  6
CONTINUOUS
 10
26.35
 20
-1.1426949447
 11
26.0726172387
 21
-1.1426949447
  0
LINE
  5
438
100
AcDbEntity
  8
0
100
AcDbLine
 62
7
  6
CONTINUOUS
 10
25.9273827613
 20
-1.1426949447
 11
25.65
 21
-1.1426949447
  0
LINE
  5
439
100
AcDbEntity
  8
0
100
AcDbLine
 62
7
  6
CONTINUOUS
 10
-25.65
 20
-1.1426949447
 11
-25.9273827613
 21
-1.1426949447
  0
LINE
  5
43A
100
AcDbEntity
  8
0
100
AcDbLine
 62
7
  6
CONTINUOUS
 10
-26.0726172387
 20
-1.1426949447
 11
-26.35
 21
-1.1426949447
  0
LINE
  5
43B
100
AcDbEntity
  8
0
100
AcDbLine
 62
7
  6
CONTINUOUS
 10
27.9476429476
 20
-0.35
 11
27.0901949367
 21
-0.35
  0
LINE
  5
43C
100
AcDbEntity
  8
0
100
AcDbLine
 62
7
  6
CONTINUOUS
 10
24.9098050633
 20
-0.35
 11
24.0523570524
 21
-0.35
  0
LINE
  5
43D
100
AcDbEntity
  8
0
100
AcDbLine
 62
7
  6
CONTINUOUS
 10
-24.0523570524
 20
-0.35
 11
-24.9098050633
 21
-0.35
  0
LINE
  5
43E
100
AcDbEntity
  8
0
100
AcDbLine
 62
7
  6
CONTINUOUS
 10
-27.0901949367
 20
-0.35
 11
-27.9476429476
 21
-0.35
  0
LWPOLYLINE
  5
43F
100
AcDbEntity
  8
0
100
AcDbPolyline
 62
7
  6
CONTINUOUS
 90
4
 70
0
 43
0.3500000006
 10
49.8214282379
 20
-0.1071425629
 10
48.9642857666
 20
-0.1071425629
 10
48.535712265
 20
0.3214286728
 10
48.535712265
 20
0.9642866592
  0
LINE
  5
440
100
AcDbEntity
  8
0
100
AcDbLine
 62
7
  6
CONTINUOUS
 10
27.9476429476
 20
0.35
 11
27.0901949367
 21
0.35
  0
LINE
  5
441
100
AcDbEntity
  8
0
100
AcDbLine
 62
7
  6
CONTINUOUS
 10
24.9098050633
 20
0.35
 11
24.0523570524
 21
0.35
  0
LINE
  5
442
100
AcDbEntity
  8
0
100
AcDbLine
 62
7
  6
CONTINUOUS
 10
-24.0523570524
 20
0.35
 11
-24.9098050633
 21
0.35
  0
LINE
  5
443
100
AcDbEntity
  8
0
100
AcDbLine
 62
7
  6
CONTINUOUS
 10
-27.0901949367
 20
0.35
 11
-27.9476429476
 21
0.35
  0
LINE
  5
444
100
AcDbEntity
  8
0
100
AcDbLine
 62
7
  6
CONTINUOUS
 10
29.0300000668
 20
-19.9468084574
 11
29.2400000668
 21
-20.0744680166
  0
LINE
  5
445
100
AcDbEntity
  8
0
100
AcDbLine
 62
7
  6
CONTINUOUS
 10
8.179376
 20
-27.9481838332
 11
9.206832
 21
-31.0518394431
  0
LINE
  5
446
100
AcDbEntity
  8
0
100
AcDbLine
 62
7
  6
CONTINUOUS
 10
9.526864
 20
-30.0852130225
 11
8.819408
 21
-27.9481838332
  0
LINE
  5
447
100
AcDbEntity
  8
RACCORDO
100
AcDbLine
 62
250
  6
CONTINUOUS
 10
2.1999999988
 20
33.497650404
 11
2.2
 21
33.25
  0
LINE
  5
448
100
AcDbEntity
  8
RACCORDO
100
AcDbLine
 62
250
  6
CONTINUOUS
 10
2.1999999999
 20
-33.4976320449
 11
2.2
 21
-33.25
  0
LINE
  5
449
100
AcDbEntity
  8
RACCORDO
100
AcDbLine
 62
250
  6
CONTINUOUS
 10
2.2
 20
26.3852273835
 11
2.2
 21
26.7373104138
  0
LINE
  5
44A
100
AcDbEntity
  8
RACCORDO
100
AcDbLine
 62
250
  6
CONTINUOUS
 10
2.2
 20
-26.3852273835
 11
2.1999999842
 21
-26.7373104138
  0
LWPOLYLINE
  5
44B
100
AcDbEntity
  8
0
100
AcDbPolyline
 62
7
  6
CONTINUOUS
 90
5
 70
0
 10
-14.6043628905
 20
-30.8564648276
 10
-14.6217956724
 20
-30.8906566959
 10
-14.6340935504
 20
-30.9259057602
 10
-14.6412565247
 20
-30.9622120204
 10
-14.6425403257
 20
-30.9885425851
  0
LWPOLYLINE
  5
44C
100
AcDbEntity
  8
0
100
AcDbPolyline
 62
7
  6
CONTINUOUS
 90
13
 70
0
 10
-15.025153376
 20
-29.0408296087
 10
-15.0036621593
 20
-29.0036741571
 10
-14.9772154137
 20
-28.9693412218
 10
-14.9458131393
 20
-28.9378308028
 10
-14.9089184294
 20
-28.9090840319
 10
-14.8670681907
 20
-28.8831597773
 10
-14.8218731425
 20
-28.8602346434
 10
-14.7734603559
 20
-28.8407537502
 10
-14.7217027598
 20
-28.8242719778
 10
-14.667829861
 20
-28.8096305707
 10
-14.6122514951
 20
-28.7964432771
 10
-14.5545578264
 20
-28.7850963488
 10
-14.494748855
 20
-28.7755897858
  0
LWPOLYLINE
  5
44D
100
AcDbEntity
  8
0
100
AcDbPolyline
 62
7
  6
CONTINUOUS
 90
13
 70
0
 10
-15.025153376
 20
-29.0755592442
 10
-15.0036692443
 20
-29.0384118592
 10
-14.9772289999
 20
-29.0040847594
 10
-14.9458326428
 20
-28.9725779446
 10
-14.9089438345
 20
-28.9438320143
 10
-14.8670989135
 20
-28.9179063691
 10
-14.8219068962
 20
-28.8949792112
 10
-14.7734943047
 20
-28.8754959222
 10
-14.7217346168
 20
-28.8590111205
 10
-14.6678572829
 20
-28.8443668639
 10
-14.6122721196
 20
-28.8311771714
 10
-14.5545693103
 20
-28.8198280239
 10
-14.494748855
 20
-28.8103194214
  0
LINE
  5
44E
100
AcDbEntity
  8
0
100
AcDbLine
 62
7
  6
CONTINUOUS
 10
26.35
 20
1.1426949447
 11
26.0726172387
 21
1.1426949447
  0
LINE
  5
44F
100
AcDbEntity
  8
0
100
AcDbLine
 62
7
  6
CONTINUOUS
 10
25.9273827613
 20
1.1426949447
 11
25.65
 21
1.1426949447
  0
LINE
  5
450
100
AcDbEntity
  8
0
100
AcDbLine
 62
7
  6
CONTINUOUS
 10
-25.65
 20
1.1426949447
 11
-25.9273827613
 21
1.1426949447
  0
LINE
  5
451
100
AcDbEntity
  8
0
100
AcDbLine
 62
7
  6
CONTINUOUS
 10
-26.0726172387
 20
1.1426949447
 11
-26.35
 21
1.1426949447
  0
LINE
  5
452
100
AcDbEntity
  8
0
100
AcDbLine
 62
7
  6
CONTINUOUS
 10
-26.35
 20
1.4917020703
 11
-25.65
 21
1.4917020703
  0
LINE
  5
453
100
AcDbEntity
  8
0
100
AcDbLine
 62
7
  6
CONTINUOUS
 10
25.65
 20
1.4917020703
 11
26.35
 21
1.4917020703
  0
LINE
  5
454
100
AcDbEntity
  8
RACCORDO
100
AcDbLine
 62
250
  6
CONTINUOUS
 10
-33.4788062794
 20
2.2
 11
-33.25
 21
2.2
  0
LINE
  5
455
100
AcDbEntity
  8
RACCORDO
100
AcDbLine
 62
250
  6
CONTINUOUS
 10
33.4788062794
 20
2.2
 11
33.25
 21
2.2
  0
LINE
  5
456
100
AcDbEntity
  8
0
100
AcDbLine
 62
7
  6
CONTINUOUS
 10
43.0
 20
3.25
 11
41.3711307144
 21
3.25
  0
LINE
  5
457
100
AcDbEntity
  8
DRAFT
100
AcDbLine
 62
7
  6
CONTINUOUS
 10
41.3711307144
 20
3.25
 11
39.9475922207
 21
3.25
  0
LINE
  5
458
100
AcDbEntity
  8
DRAFT
100
AcDbLine
 62
7
  6
CONTINUOUS
 10
-39.9475922207
 20
3.25
 11
-41.3711307144
 21
3.25
  0
LINE
  5
459
100
AcDbEntity
  8
0
100
AcDbLine
 62
7
  6
CONTINUOUS
 10
-41.3711307144
 20
3.25
 11
-43.0
 21
3.25
  0
LINE
  5
45A
100
AcDbEntity
  8
0
100
AcDbLine
 62
7
  6
CONTINUOUS
 10
32.5999998665
 20
-19.7553191185
 11
32.3200001335
 21
-19.5638297796
  0
LINE
  5
45B
100
AcDbEntity
  8
0
100
AcDbLine
 62
7
  6
CONTINUOUS
 10
27.21
 20
-22.0531914979
 11
27.4899999833
 21
-22.3085106388
  0
LINE
  5
45C
100
AcDbEntity
  8
0
100
AcDbLine
 62
7
  6
CONTINUOUS
 10
20.458352
 20
-29.8517826537
 11
21.099736
 21
-31.0518239256
  0
LINE
  5
45D
100
AcDbEntity
  8
DRAFT
100
AcDbLine
 62
7
  6
CONTINUOUS
 10
4.75
 20
-23.0
 11
4.7519973434
 21
-24.2980026566
  0
LINE
  5
45E
100
AcDbEntity
  8
DRAFT
100
AcDbLine
 62
7
  6
CONTINUOUS
 10
7.9608522857
 20
26.0391477143
 11
7.9635315288
 21
24.2980026566
  0
LINE
  5
45F
100
AcDbEntity
  8
DRAFT
100
AcDbLine
 62
7
  6
CONTINUOUS
 10
4.75
 20
23.0
 11
4.75
 21
22.45
  0
LINE
  5
460
100
AcDbEntity
  8
DRAFT
100
AcDbLine
 62
7
  6
CONTINUOUS
 10
4.75
 20
-23.0
 11
4.75
 21
-22.45
  0
LINE
  5
461
100
AcDbEntity
  8
DRAFT
100
AcDbLine
 62
7
  6
CONTINUOUS
 10
7.1
 20
24.2980026566
 11
7.1
 21
23.3
  0
LINE
  5
462
100
AcDbEntity
  8
DRAFT
100
AcDbLine
 62
7
  6
CONTINUOUS
 10
7.1
 20
-23.3
 11
7.1
 21
-24.2980026566
  0
LINE
  5
463
100
AcDbEntity
  8
RACCORDO
100
AcDbLine
 62
7
  6
CONTINUOUS
 10
7.9913492875
 20
24.3258204153
 11
7.9913492875
 21
25.9892190318
  0
LINE
  5
464
100
AcDbEntity
  8
DRAFT
100
AcDbLine
 62
7
  6
CONTINUOUS
 10
8.0
 20
-24.3344711278
 11
8.0
 21
-25.9546029997
  0
LINE
  5
465
100
AcDbEntity
  8
DRAFT
100
AcDbLine
 62
7
  6
CONTINUOUS
 10
4.75
 20
23.0
 11
4.7519973434
 21
24.2980026566
  0
LINE
  5
466
100
AcDbEntity
  8
DRAFT
100
AcDbLine
 62
7
  6
CONTINUOUS
 10
7.9635315288
 20
-24.2980026566
 11
7.9608522857
 21
-26.0391477143
  0
LINE
  5
467
100
AcDbEntity
  8
DRAFT
100
AcDbLine
 62
7
  6
CONTINUOUS
 10
14.0152578758
 20
26.0156577535
 11
14.0113449281
 21
26.0
  0
LWPOLYLINE
  5
468
100
AcDbEntity
  8
0
100
AcDbPolyline
 62
7
  6
CONTINUOUS
 90
13
 70
0
 10
-14.1736589784
 20
-29.2844515769
 10
-14.146311212
 20
-29.2446226878
 10
-14.1154128054
 20
-29.2086000321
 10
-14.0809637586
 20
-29.1763836097
 10
-14.0424772483
 20
-29.1476302762
 10
-14.0004400979
 20
-29.1226831762
 10
-13.9563127771
 20
-29.1025717431
 10
-13.9099713024
 20
-29.0875112115
 10
-13.8615396573
 20
-29.077286347
 10
-13.8128502625
 20
-29.0722808792
 10
-13.7645139247
 20
-29.072622718
 10
-13.7159198372
 20
-29.0781839536
 10
-13.667068
 20
-29.088964586
  0
LINE
  5
469
100
AcDbEntity
  8
RACCORDO
100
AcDbLine
 62
250
  6
CONTINUOUS
 10
-29.8523670977
 20
-36.5386624453
 11
-30.0137046525
 21
-36.7
  0
LINE
  5
46A
100
AcDbEntity
  8
RACCORDO
100
AcDbLine
 62
250
  6
CONTINUOUS
 10
24.0941014941
 20
3.0164104136
 11
24.1563203892
 21
3.0453521611
  0
LINE
  5
46B
100
AcDbEntity
  8
RACCORDO
100
AcDbLine
 62
250
  6
CONTINUOUS
 10
24.1563203892
 20
3.0453521611
 11
24.2021696699
 21
3.0662462633
  0
LINE
  5
46C
100
AcDbEntity
  8
RACCORDO
100
AcDbLine
 62
250
  6
CONTINUOUS
 10
24.9144026312
 20
3.382126664
 11
25.0
 21
3.4202614903
  0
LINE
  5
46D
100
AcDbEntity
  8
RACCORDO
100
AcDbLine
 62
250
  6
CONTINUOUS
 10
24.2021696699
 20
3.0662462633
 11
24.6648236788
 21
3.2724310293
  0
LINE
  5
46E
100
AcDbEntity
  8
RACCORDO
100
AcDbLine
 62
250
  6
CONTINUOUS
 10
24.6648236788
 20
3.2724310293
 11
24.9144026312
 21
3.382126664
  0
LINE
  5
46F
100
AcDbEntity
  8
0
100
AcDbLine
 62
7
  6
CONTINUOUS
 10
24.9098050633
 20
0.35
 11
25.4802765158
 21
0.5197234842
  0
LWPOLYLINE
  5
470
100
AcDbEntity
  8
RACCORDO
100
AcDbPolyline
 62
7
  6
CONTINUOUS
 90
6
 70
0
 10
-24.1579817766
 20
2.7668524001
 10
-24.1909025674
 20
2.7629967966
 10
-24.2220273499
 20
2.7637265781
 10
-24.2506795913
 20
2.7683486299
 10
-24.2778570217
 20
2.7774432068
 10
-24.3038706849
 20
2.7907160251
  0
LWPOLYLINE
  5
471
100
AcDbEntity
  8
RACCORDO
100
AcDbPolyline
 62
7
  6
CONTINUOUS
 90
5
 70
0
 10
-39.7291638487
 20
5.52239762
 10
-39.7726215957
 20
5.5213531175
 10
-39.8050873294
 20
5.5203009078
 10
-39.827100946
 20
5.5192294783
 10
-39.8386624453
 20
5.518138829
  0
LINE
  5
472
100
AcDbEntity
  8
RACCORDO
100
AcDbLine
 62
7
  6
CONTINUOUS
 10
-39.6125116914
 20
5.5243944279
 11
-39.7291638487
 21
5.52239762
  0
LINE
  5
473
100
AcDbEntity
  8
RACCORDO
100
AcDbLine
 62
7
  6
CONTINUOUS
 10
-39.3729099255
 20
5.5269519204
 11
-39.6125116914
 21
5.5243944279
  0
LINE
  5
474
100
AcDbEntity
  8
RACCORDO
100
AcDbLine
 62
7
  6
CONTINUOUS
 10
-38.8345863139
 20
5.5298123523
 11
-39.3729099255
 21
5.5269519204
  0
LINE
  5
475
100
AcDbEntity
  8
RACCORDO
100
AcDbLine
 62
7
  6
CONTINUOUS
 10
-38.2711937206
 20
5.5305440373
 11
-38.8345863139
 21
5.5298123523
  0
LINE
  5
476
100
AcDbEntity
  8
DRAFT
100
AcDbLine
 62
7
  6
CONTINUOUS
 10
-39.9475922207
 20
5.5
 11
-38.5
 21
5.5
  0
LINE
  5
477
100
AcDbEntity
  8
RACCORDO
100
AcDbLine
 62
7
  6
CONTINUOUS
 10
-22.2952116462
 20
5.5
 11
-21.9
 21
5.5
  0
LINE
  5
478
100
AcDbEntity
  8
RACCORDO
100
AcDbLine
 62
7
  6
CONTINUOUS
 10
21.9
 20
5.5
 11
22.2952116462
 21
5.5
  0
LINE
  5
479
100
AcDbEntity
  8
DRAFT
100
AcDbLine
 62
7
  6
CONTINUOUS
 10
38.5
 20
5.5
 11
39.9475922207
 21
5.5
  0
LINE
  5
47A
100
AcDbEntity
  8
RACCORDO
100
AcDbLine
 62
7
  6
CONTINUOUS
 10
38.2711937206
 20
5.5305440373
 11
38.3407181432
 21
5.5305440373
  0
LINE
  5
47B
100
AcDbEntity
  8
RACCORDO
100
AcDbLine
 62
7
  6
CONTINUOUS
 10
24.0
 20
7.75
 11
33.5
 21
7.75
  0
LINE
  5
47C
100
AcDbEntity
  8
RACCORDO
100
AcDbLine
 62
7
  6
CONTINUOUS
 10
-24.0
 20
7.75
 11
-33.5
 21
7.75
  0
LWPOLYLINE
  5
47D
100
AcDbEntity
  8
RACCORDO
100
AcDbPolyline
 62
7
  6
CONTINUOUS
 90
6
 70
0
 10
24.1579817766
 20
2.7668524001
 10
24.1909025674
 20
2.7629967966
 10
24.2220273499
 20
2.7637265781
 10
24.2506795913
 20
2.7683486299
 10
24.2778570217
 20
2.7774432068
 10
24.3038706849
 20
2.7907160251
  0
LINE
  5
47E
100
AcDbEntity
  8
0
100
AcDbLine
 62
7
  6
CONTINUOUS
 10
25.4802765158
 20
-0.5197234842
 11
24.9098050633
 21
-0.35
  0
LINE
  5
47F
100
AcDbEntity
  8
RACCORDO
100
AcDbLine
 62
250
  6
CONTINUOUS
 10
24.9144026281
 20
-3.3821266712
 11
24.6648236755
 21
-3.2724310371
  0
LINE
  5
480
100
AcDbEntity
  8
RACCORDO
100
AcDbLine
 62
250
  6
CONTINUOUS
 10
25.0
 20
-3.4202614903
 11
24.9144026281
 21
-3.3821266712
  0
LWPOLYLINE
  5
481
100
AcDbEntity
  8
RACCORDO
100
AcDbPolyline
 62
250
  6
CONTINUOUS
 90
3
 70
0
 10
24.6648236755
 20
-3.2724310371
 10
24.2021696695
 20
-3.0662462654
 10
24.1563203892
 20
-3.0453521611
  0
LWPOLYLINE
  5
482
100
AcDbEntity
  8
RACCORDO
100
AcDbPolyline
 62
250
  6
CONTINUOUS
 90
7
 70
0
 10
24.1563203892
 20
-3.0453521611
 10
24.108281029
 20
-3.0228584481
 10
24.0690062433
 20
-3.0042564287
 10
24.0385876119
 20
-2.9895461031
 10
24.0170218386
 20
-2.9787274712
 10
24.0042170996
 20
-2.971800533
 10
24.0
 20
-2.9687652886
  0
LINE
  5
483
100
AcDbEntity
  8
0
100
AcDbLine
 62
7
  6
CONTINUOUS
 10
29.6600000668
 20
-19.9468084574
 11
29.3799999332
 21
-19.6914893389
  0
LINE
  5
484
100
AcDbEntity
  8
0
100
AcDbLine
 62
7
  6
CONTINUOUS
 10
32.25
 20
-19.8829786777
 11
32.3899998665
 21
-20.010638237
  0
LINE
  5
485
100
AcDbEntity
  8
RACCORDO
100
AcDbLine
 62
250
  6
CONTINUOUS
 10
-29.8523670977
 20
36.5386624453
 11
-30.0137046525
 21
36.7
  0
LINE
  5
486
100
AcDbEntity
  8
0
100
AcDbLine
 62
7
  6
CONTINUOUS
 10
21.8061863764
 20
-31.0595325692
 11
21.1393507907
 21
-29.8118628957
  0
LINE
  5
487
100
AcDbEntity
  8
0
100
AcDbLine
 62
7
  6
CONTINUOUS
 10
21.820624
 20
-31.0518161668
 11
21.1393507907
 21
-29.7771332602
  0
LINE
  5
488
100
AcDbEntity
  8
0
100
AcDbLine
 62
7
  6
CONTINUOUS
 10
17.485472
 20
-28.9148024951
 11
17.795656
 21
-29.8517826537
  0
LINE
  5
489
100
AcDbEntity
  8
0
100
AcDbLine
 62
7
  6
CONTINUOUS
 10
17.990888
 20
-30.4414724867
 11
18.192936
 21
-31.0518239256
  0
LINE
  5
48A
100
AcDbEntity
  8
0
100
AcDbLine
 62
7
  6
CONTINUOUS
 10
13.221072
 20
-29.0051844124
 11
13.826176
 21
-31.0518316843
  0
LINE
  5
48B
100
AcDbEntity
  8
0
100
AcDbLine
 62
7
  6
CONTINUOUS
 10
14.146184
 20
-29.9693900967
 11
13.548592
 21
-27.9481838332
  0
LINE
  5
48C
100
AcDbEntity
  8
DRAFT
100
AcDbLine
 62
7
  6
CONTINUOUS
 10
14.0113449281
 20
-26.0
 11
14.0152578758
 21
-26.0156577535
  0
LWPOLYLINE
  5
48D
100
AcDbEntity
  8
0
100
AcDbPolyline
 62
7
  6
CONTINUOUS
 90
13
 70
0
 10
9.9620676921
 20
29.628775808
 10
9.9618930497
 20
29.6695067987
 10
9.9565363737
 20
29.7074693487
 10
9.945997664
 20
29.7426634582
 10
9.9301069861
 20
29.7755502792
 10
9.9090342745
 20
29.8056686597
 10
9.8832893323
 20
29.8316351433
 10
9.8525078546
 20
29.8529752723
 10
9.8170541462
 20
29.8701635044
 10
9.7785309251
 20
29.8832397557
 10
9.7374724307
 20
29.8922173319
 10
9.6933444236
 20
29.8970829273
 10
9.6461469039
 20
29.897836542
  0
LINE
  5
48E
100
AcDbEntity
  8
0
100
AcDbLine
 62
7
  6
CONTINUOUS
 10
8.819408
 20
-27.9481838332
 11
8.819408
 21
-27.9829134687
  0
LINE
  5
48F
100
AcDbEntity
  8
0
100
AcDbLine
 62
7
  6
CONTINUOUS
 10
8.990989
 20
30.0772096171
 11
8.990989
 21
28.5254555205
  0
LINE
  5
490
100
AcDbEntity
  8
RACCORDO
100
AcDbLine
 62
250
  6
CONTINUOUS
 10
8.9913112106
 20
24.3344711278
 11
8.9913112106
 21
25.9546029997
  0
LINE
  5
491
100
AcDbEntity
  8
0
100
AcDbLine
 62
7
  6
CONTINUOUS
 10
9.207143
 20
28.5254555205
 11
9.207143
 21
29.2150709676
  0
LINE
  5
492
100
AcDbEntity
  8
0
100
AcDbLine
 62
7
  6
CONTINUOUS
 10
9.207143
 20
29.359715377
 11
9.207143
 21
29.9325661776
  0
LINE
  5
493
100
AcDbEntity
  8
DRAFT
100
AcDbLine
 62
7
  6
CONTINUOUS
 10
9.4
 20
24.3344711278
 11
9.4
 21
23.3
  0
LINE
  5
494
100
AcDbEntity
  8
DRAFT
100
AcDbLine
 62
7
  6
CONTINUOUS
 10
9.4
 20
-23.3
 11
9.4
 21
-24.3344711278
  0
LINE
  5
495
100
AcDbEntity
  8
0
100
AcDbLine
 62
7
  6
CONTINUOUS
 10
9.526864
 20
-30.0852130225
 11
9.526864
 21
-30.119942658
  0
LINE
  5
496
100
AcDbEntity
  8
0
100
AcDbLine
 62
250
  6
CONTINUOUS
 10
9.6461484791
 20
29.897836542
 11
9.6461484791
 21
29.9325661776
  0
LINE
  5
497
100
AcDbEntity
  8
0
100
AcDbLine
 62
250
  6
CONTINUOUS
 10
9.7106814943
 20
29.1803413321
 11
9.7106814943
 21
29.2150709676
  0
LINE
  5
498
100
AcDbEntity
  8
0
100
AcDbLine
 62
7
  6
CONTINUOUS
 10
10.706835
 20
28.9771982937
 11
10.706835
 21
29.0119279293
  0
LINE
  5
499
100
AcDbEntity
  8
0
100
AcDbLine
 62
7
  6
CONTINUOUS
 10
11.032168
 20
29.8521412633
 11
11.032168
 21
29.8868708988
  0
LINE
  5
49A
100
AcDbEntity
  8
0
100
AcDbLine
 62
7
  6
CONTINUOUS
 10
11.301024
 20
-27.9481838332
 11
11.301016
 21
-31.0518394431
  0
LINE
  5
49B
100
AcDbEntity
  8
0
100
AcDbLine
 62
7
  6
CONTINUOUS
 10
11.348604
 20
28.9771982937
 11
11.348604
 21
29.0119279293
  0
LINE
  5
49C
100
AcDbEntity
  8
0
100
AcDbLine
 62
7
  6
CONTINUOUS
 10
11.803148
 20
30.0772096171
 11
11.803148
 21
29.8913424511
  0
LINE
  5
49D
100
AcDbEntity
  8
DRAFT
100
AcDbLine
 62
7
  6
CONTINUOUS
 10
-14.0391477143
 20
-26.0391477143
 11
-14.0156577535
 21
-26.0156577535
  0
LINE
  5
49E
100
AcDbEntity
  8
RACCORDO
100
AcDbLine
 62
250
  6
CONTINUOUS
 10
39.8386624453
 20
26.5523670977
 11
40.0
 21
26.7137046525
  0
LINE
  5
49F
100
AcDbEntity
  8
RACCORDO
100
AcDbLine
 62
7
  6
CONTINUOUS
 10
-7.9635315288
 20
-24.2980026566
 11
-7.9913492875
 21
-24.3258204153
  0
LINE
  5
4A0
100
AcDbEntity
  8
ASSI
100
AcDbLine
 62
7
  6
CONTINUOUS
 10
30.8796169934
 20
13.8793829944
 11
29.554665
 21
12.762838
  0
LINE
  5
4A1
100
AcDbEntity
  8
ASSI
100
AcDbLine
 62
7
  6
CONTINUOUS
 10
29.554665
 20
12.182916
 11
30.818141367
 21
13.2476553092
  0
LINE
  5
4A2
100
AcDbEntity
  8
RACCORDO
100
AcDbLine
 62
250
  6
CONTINUOUS
 10
24.4214363913
 20
2.8701156521
 11
24.5946684167
 21
2.9673201391
  0
LINE
  5
4A3
100
AcDbEntity
  8
RACCORDO
100
AcDbLine
 62
250
  6
CONTINUOUS
 10
24.5946684167
 20
2.9673201391
 11
24.894900903
 21
3.133954745
  0
LINE
  5
4A4
100
AcDbEntity
  8
RACCORDO
100
AcDbLine
 62
250
  6
CONTINUOUS
 10
24.894900903
 20
3.133954745
 11
25.09638008
 21
3.2450249813
  0
LINE
  5
4A5
100
AcDbEntity
  8
RACCORDO
100
AcDbLine
 62
250
  6
CONTINUOUS
 10
25.0
 20
3.4202614903
 11
28.3234980271
 21
5.2481854052
  0
LINE
  5
4A6
100
AcDbEntity
  8
RACCORDO
100
AcDbLine
 62
7
  6
CONTINUOUS
 10
25.09638008
 20
3.2450249813
 11
28.4198781071
 21
5.0729488962
  0
LINE
  5
4A7
100
AcDbEntity
  8
DRAFT
100
AcDbLine
 62
7
  6
CONTINUOUS
 10
28.4337640632
 20
5.0477017032
 11
24.4337640632
 21
2.8477017032
  0
LINE
  5
4A8
100
AcDbEntity
  8
ASSI
100
AcDbLine
 62
7
  6
CONTINUOUS
 10
28.5060518757
 20
4.9162693169
 11
24.5060518757
 21
2.7162693169
  0
LINE
  5
4A9
100
AcDbEntity
  8
0
100
AcDbLine
 62
7
  6
CONTINUOUS
 10
27.0901949367
 20
-0.35
 11
26.5197234842
 21
-0.5197234842
  0
LINE
  5
4AA
100
AcDbEntity
  8
RACCORDO
100
AcDbLine
 62
7
  6
CONTINUOUS
 10
22.2952116462
 20
8.5
 11
21.9
 21
8.5
  0
LINE
  5
4AB
100
AcDbEntity
  8
RACCORDO
100
AcDbLine
 62
7
  6
CONTINUOUS
 10
-21.9
 20
8.5
 11
-22.2952116462
 21
8.5
  0
LINE
  5
4AC
100
AcDbEntity
  8
ASSI
100
AcDbLine
 62
7
  6
CONTINUOUS
 10
28.633113
 20
10.139734
 11
29.972991
 21
10.139734
  0
LINE
  5
4AD
100
AcDbEntity
  8
ASSI
100
AcDbLine
 62
7
  6
CONTINUOUS
 10
29.972991
 20
10.611955
 11
29.554665
 21
10.611955
  0
LINE
  5
4AE
100
AcDbEntity
  8
ASSI
100
AcDbLine
 62
7
  6
CONTINUOUS
 10
29.051602
 20
10.611955
 11
28.633113
 21
10.611955
  0
LINE
  5
4AF
100
AcDbEntity
  8
0
100
AcDbLine
 62
7
  6
CONTINUOUS
 10
-32.583765
 20
11.59538
 11
-32.322379
 21
11.59538
  0
LINE
  5
4B0
100
AcDbEntity
  8
0
100
AcDbLine
 62
7
  6
CONTINUOUS
 10
-31.3392133558
 20
11.59538
 11
-31.071887271
 21
11.59538
  0
LINE
  5
4B1
100
AcDbEntity
  8
0
100
AcDbLine
 62
7
  6
CONTINUOUS
 10
-26.7352638618
 20
11.59538
 11
-25.327346
 21
11.59538
  0
LINE
  5
4B2
100
AcDbEntity
  8
RACCORDO
100
AcDbLine
 62
7
  6
CONTINUOUS
 10
-22.2952116462
 20
11.75
 11
-21.9
 21
11.75
  0
LINE
  5
4B3
100
AcDbEntity
  8
RACCORDO
100
AcDbLine
 62
7
  6
CONTINUOUS
 10
21.9
 20
11.75
 11
22.2952116462
 21
11.75
  0
LINE
  5
4B4
100
AcDbEntity
  8
0
100
AcDbLine
 62
7
  6
CONTINUOUS
 10
-26.6847688426
 20
13.1161689843
 11
-26.4174428272
 21
13.0894359827
  0
LINE
  5
4B5
100
AcDbEntity
  8
0
100
AcDbLine
 62
7
  6
CONTINUOUS
 10
26.5197234842
 20
0.5197234842
 11
27.0901949367
 21
0.35
  0
LINE
  5
4B6
100
AcDbEntity
  8
RACCORDO
100
AcDbLine
 62
250
  6
CONTINUOUS
 10
28.3234980271
 20
-5.2481854052
 11
25.0
 21
-3.4202614903
  0
LINE
  5
4B7
100
AcDbEntity
  8
RACCORDO
100
AcDbLine
 62
7
  6
CONTINUOUS
 10
28.4198781071
 20
-5.0729488962
 11
25.09638008
 21
-3.2450249813
  0
LINE
  5
4B8
100
AcDbEntity
  8
DRAFT
100
AcDbLine
 62
7
  6
CONTINUOUS
 10
24.4337640632
 20
-2.8477017032
 11
28.4337640632
 21
-5.0477017032
  0
LINE
  5
4B9
100
AcDbEntity
  8
ASSI
100
AcDbLine
 62
7
  6
CONTINUOUS
 10
24.5060518757
 20
-2.7162693169
 11
28.5060518757
 21
-4.9162693169
  0
LINE
  5
4BA
100
AcDbEntity
  8
RACCORDO
100
AcDbLine
 62
250
  6
CONTINUOUS
 10
25.09638008
 20
-3.2450249813
 11
24.7663063625
 21
-3.062772818
  0
LINE
  5
4BB
100
AcDbEntity
  8
RACCORDO
100
AcDbLine
 62
250
  6
CONTINUOUS
 10
24.7663063625
 20
-3.062772818
 11
24.499522231
 21
-2.9140934833
  0
LINE
  5
4BC
100
AcDbEntity
  8
RACCORDO
100
AcDbLine
 62
250
  6
CONTINUOUS
 10
24.499522231
 20
-2.9140934833
 11
24.4214363913
 21
-2.8701156521
  0
LWPOLYLINE
  5
4BD
100
AcDbEntity
  8
RACCORDO
100
AcDbPolyline
 62
250
  6
CONTINUOUS
 90
7
 70
0
 10
24.4214363913
 20
-2.8701156521
 10
24.385034241
 20
-2.8491013622
 10
24.3554783057
 20
-2.8314386763
 10
24.3326494066
 20
-2.8173355807
 10
24.316451305
 20
-2.8069521527
 10
24.3068125745
 20
-2.8004016532
 10
24.3036879205
 20
-2.7977513446
  0
LINE
  5
4BE
100
AcDbEntity
  8
DRAFT
100
AcDbLine
 62
7
  6
CONTINUOUS
 10
-14.0391477143
 20
26.0391477143
 11
-14.0156552005
 21
26.0164475978
  0
LINE
  5
4BF
100
AcDbEntity
  8
RACCORDO
100
AcDbLine
 62
250
  6
CONTINUOUS
 10
39.8386624453
 20
-26.5523670977
 11
40.0
 21
-26.7137046525
  0
LINE
  5
4C0
100
AcDbEntity
  8
RACCORDO
100
AcDbLine
 62
7
  6
CONTINUOUS
 10
-7.9635315288
 20
24.2980026566
 11
-7.9913492875
 21
24.3258204153
  0
LINE
  5
4C1
100
AcDbEntity
  8
0
100
AcDbLine
 62
7
  6
CONTINUOUS
 10
27.63
 20
-21.925531894
 11
27.4899999833
 21
-21.7340425551
  0
LINE
  5
4C2
100
AcDbEntity
  8
0
100
AcDbLine
 62
7
  6
CONTINUOUS
 10
18.832968
 20
-31.0518316843
 11
17.805504
 21
-27.9481760744
  0
LWPOLYLINE
  5
4C3
100
AcDbEntity
  8
0
100
AcDbPolyline
 62
7
  6
CONTINUOUS
 90
13
 70
0
 10
10.1847569241
 20
29.628775808
 10
10.1807073371
 20
29.6940205189
 10
10.1696078099
 20
29.7550729718
 10
10.1514583426
 20
29.8119331666
 10
10.1258887539
 20
29.8653430898
 10
10.093269225
 20
29.914560755
 10
10.0547102996
 20
29.9573602029
 10
10.010215357
 20
29.9929147355
 10
9.9597810177
 20
30.0220510508
 10
9.9045076879
 20
30.0450232832
 10
9.8447621694
 20
30.0619161441
 10
9.7801776603
 20
30.0726449221
 10
9.7107541605
 20
30.0772096171
  0
LINE
  5
4C4
100
AcDbEntity
  8
DRAFT
100
AcDbLine
 62
7
  6
CONTINUOUS
 10
14.0391477143
 20
-26.0391477143
 11
14.0364684712
 21
-24.2980026566
  0
LINE
  5
4C5
100
AcDbEntity
  8
0
100
AcDbLine
 62
7
  6
CONTINUOUS
 10
11.94104
 20
-31.0518316843
 11
11.941048
 21
-27.9481838332
  0
LINE
  5
4C6
100
AcDbEntity
  8
0
100
AcDbLine
 62
7
  6
CONTINUOUS
 10
12.344609
 20
28.5254555205
 11
12.344609
 21
29.9260720867
  0
LINE
  5
4C7
100
AcDbEntity
  8
0
100
AcDbLine
 62
7
  6
CONTINUOUS
 10
12.560764
 20
28.5254555205
 11
12.560764
 21
29.9260720867
  0
LINE
  5
4C8
100
AcDbEntity
  8
0
100
AcDbLine
 62
7
  6
CONTINUOUS
 10
12.581048
 20
-27.9481838332
 11
12.581048
 21
-31.0518316843
  0
LINE
  5
4C9
100
AcDbEntity
  8
DRAFT
100
AcDbLine
 62
7
  6
CONTINUOUS
 10
12.6
 20
24.3344711278
 11
12.6
 21
23.3
  0
LINE
  5
4CA
100
AcDbEntity
  8
DRAFT
100
AcDbLine
 62
7
  6
CONTINUOUS
 10
12.6
 20
-23.3
 11
12.6
 21
-24.3344711278
  0
LINE
  5
4CB
100
AcDbEntity
  8
RACCORDO
100
AcDbLine
 62
250
  6
CONTINUOUS
 10
13.0086887894
 20
25.9546029997
 11
13.0086887894
 21
24.3344711278
  0
LINE
  5
4CC
100
AcDbEntity
  8
0
100
AcDbLine
 62
7
  6
CONTINUOUS
 10
13.102224
 20
29.8913424511
 11
13.102224
 21
30.0772096171
  0
LINE
  5
4CD
100
AcDbEntity
  8
0
100
AcDbLine
 62
7
  6
CONTINUOUS
 10
13.221072
 20
-31.0518316843
 11
13.221072
 21
-29.0051844124
  0
LINE
  5
4CE
100
AcDbEntity
  8
0
100
AcDbLine
 62
7
  6
CONTINUOUS
 10
13.327349
 20
28.7545739526
 11
13.327349
 21
28.5254555205
  0
LINE
  5
4CF
100
AcDbEntity
  8
0
100
AcDbLine
 62
7
  6
CONTINUOUS
 10
13.548592
 20
-27.9481838332
 11
13.548592
 21
-27.9829134687
  0
LINE
  5
4D0
100
AcDbEntity
  8
0
100
AcDbLine
 62
7
  6
CONTINUOUS
 10
13.559042
 20
28.5254555205
 11
13.559042
 21
28.7545739526
  0
LINE
  5
4D1
100
AcDbEntity
  8
DRAFT
100
AcDbLine
 62
7
  6
CONTINUOUS
 10
14.0
 20
-25.9416005438
 11
14.0
 21
-24.3344711278
  0
LINE
  5
4D2
100
AcDbEntity
  8
RACCORDO
100
AcDbLine
 62
7
  6
CONTINUOUS
 10
14.0086507125
 20
25.9465950349
 11
14.0086507125
 21
24.3258204153
  0
LINE
  5
4D3
100
AcDbEntity
  8
DRAFT
100
AcDbLine
 62
7
  6
CONTINUOUS
 10
14.0113449281
 20
-26.0
 11
14.0113449281
 21
-25.9481505411
  0
LINE
  5
4D4
100
AcDbEntity
  8
DRAFT
100
AcDbLine
 62
7
  6
CONTINUOUS
 10
14.0113449281
 20
25.9481505411
 11
14.0113449281
 21
26.0
  0
LINE
  5
4D5
100
AcDbEntity
  8
0
100
AcDbLine
 62
7
  6
CONTINUOUS
 10
14.146184
 20
-29.9693900967
 11
14.146184
 21
-30.0041197322
  0
LINE
  5
4D6
100
AcDbEntity
  8
0
100
AcDbLine
 62
7
  6
CONTINUOUS
 10
14.564017
 20
30.0772096171
 11
14.564017
 21
28.5254555205
  0
LINE
  5
4D7
100
AcDbEntity
  8
0
100
AcDbLine
 62
7
  6
CONTINUOUS
 10
14.780171
 20
28.5254555205
 11
14.780171
 21
29.2150709676
  0
LINE
  5
4D8
100
AcDbEntity
  8
0
100
AcDbLine
 62
7
  6
CONTINUOUS
 10
14.780171
 20
29.359715377
 11
14.780171
 21
29.9325661776
  0
LINE
  5
4D9
100
AcDbEntity
  8
DRAFT
100
AcDbLine
 62
7
  6
CONTINUOUS
 10
14.9
 20
24.2980026566
 11
14.9
 21
23.3
  0
LINE
  5
4DA
100
AcDbEntity
  8
DRAFT
100
AcDbLine
 62
7
  6
CONTINUOUS
 10
14.9
 20
-23.3
 11
14.9
 21
-24.2980026566
  0
LINE
  5
4DB
100
AcDbEntity
  8
0
100
AcDbLine
 62
7
  6
CONTINUOUS
 10
15.071288
 20
-29.0051844124
 11
15.071296
 21
-31.0518316843
  0
LINE
  5
4DC
100
AcDbEntity
  8
0
100
AcDbLine
 62
250
  6
CONTINUOUS
 10
15.2191765091
 20
29.897836542
 11
15.2191765091
 21
29.9325661776
  0
LINE
  5
4DD
100
AcDbEntity
  8
0
100
AcDbLine
 62
250
  6
CONTINUOUS
 10
15.2837095244
 20
29.1803413321
 11
15.2837095244
 21
29.2150709676
  0
LINE
  5
4DE
100
AcDbEntity
  8
DRAFT
100
AcDbLine
 62
7
  6
CONTINUOUS
 10
14.0364684712
 20
24.2980026566
 11
14.0391477143
 21
26.0391477143
  0
LINE
  5
4DF
100
AcDbEntity
  8
DRAFT
100
AcDbLine
 62
7
  6
CONTINUOUS
 10
7.9847421242
 20
-26.0156577535
 11
8.0
 21
-25.9546029997
  0
LWPOLYLINE
  5
4E0
100
AcDbEntity
  8
RACCORDO
100
AcDbPolyline
 62
250
  6
CONTINUOUS
 90
10
 70
0
 10
24.3036879205
 20
2.7977513446
 10
24.3050601184
 20
2.7990841784
 10
24.3093110142
 20
2.8021522682
 10
24.3164500352
 20
2.8069424985
 10
24.3264798581
 20
2.813427297
 10
24.3394322696
 20
2.8215812455
 10
24.3553682775
 20
2.8313804255
 10
24.3743299065
 20
2.8427800754
 10
24.3963396643
 20
2.8557149913
 10
24.4214363913
 20
2.8701156521
  0
LWPOLYLINE
  5
4E1
100
AcDbEntity
  8
0
100
AcDbPolyline
 62
7
  6
CONTINUOUS
 90
16
 70
0
 10
-11.5470633204
 20
-29.5691313287
 10
-11.5032907562
 20
-29.5279734485
 10
-11.4649653441
 20
-29.482664525
 10
-11.4320870841
 20
-29.4332045582
 10
-11.4087399458
 20
-29.3767032451
 10
-11.3908399595
 20
-29.3160508887
 10
-11.3661352165
 20
-29.2599183981
 10
-11.3301593189
 20
-29.2100397498
 10
-11.2873786645
 20
-29.1646809673
 10
-11.2389405387
 20
-29.1273110301
 10
-11.1832756495
 20
-29.0991893068
 10
-11.1219532888
 20
-29.0790564288
 10
-11.0608286176
 20
-29.0666032698
 10
-11.0018533562
 20
-29.0617267877
 10
-10.9430757844
 20
-29.0645300246
 10
-10.884495902
 20
-29.0750129806
  0
LWPOLYLINE
  5
4E2
100
AcDbEntity
  8
RACCORDO
100
AcDbPolyline
 62
250
  6
CONTINUOUS
 90
8
 70
0
 10
24.0
 20
2.9687652886
 10
24.0018831598
 20
2.9702334518
 10
24.0075676864
 20
2.9734927691
 10
24.0170952025
 20
2.9785432406
 10
24.030474875
 20
2.9854259087
 10
24.0477260635
 20
2.994099731
 10
24.0689201989
 20
3.0044415801
 10
24.0941014941
 20
3.0164104136
  0
LINE
  5
4E3
100
AcDbEntity
  8
RACCORDO
100
AcDbLine
 62
7
  6
CONTINUOUS
 10
-14.0086507125
 20
-25.9465950349
 11
-14.0113449281
 21
-25.9481505411
  0
LINE
  5
4E4
100
AcDbEntity
  8
RACCORDO
100
AcDbLine
 62
7
  6
CONTINUOUS
 10
-39.8386624453
 20
5.518138829
 11
-39.9475922207
 21
5.5
  0
LINE
  5
4E5
100
AcDbEntity
  8
0
100
AcDbLine
 62
7
  6
CONTINUOUS
 10
-25.327346
 20
11.844885
 11
-26.3715422663
 21
11.844885
  0
LINE
  5
4E6
100
AcDbEntity
  8
0
100
AcDbLine
 62
7
  6
CONTINUOUS
 10
-31.636242
 20
13.445871
 11
-30.5966408211
 21
13.445871
  0
LINE
  5
4E7
100
AcDbEntity
  8
0
100
AcDbLine
 62
7
  6
CONTINUOUS
 10
-30.260998
 20
13.695375
 11
-31.636242
 21
13.695375
  0
LINE
  5
4E8
100
AcDbEntity
  8
0
100
AcDbLine
 62
7
  6
CONTINUOUS
 10
-32.322379
 20
13.731019
 11
-32.4908503196
 21
13.731019
  0
LINE
  5
4E9
100
AcDbEntity
  8
ASSI
100
AcDbLine
 62
7
  6
CONTINUOUS
 10
28.648534
 20
13.966846
 11
29.051602
 21
13.966846
  0
LINE
  5
4EA
100
AcDbEntity
  8
ASSI
100
AcDbLine
 62
7
  6
CONTINUOUS
 10
29.554665
 20
13.966846
 11
29.95757
 21
13.966846
  0
LINE
  5
4EB
100
AcDbEntity
  8
ASSI
100
AcDbLine
 62
7
  6
CONTINUOUS
 10
40.8
 20
14.0
 11
38.3407181432
 21
14.0
  0
LINE
  5
4EC
100
AcDbEntity
  8
ASSI
100
AcDbLine
 62
7
  6
CONTINUOUS
 10
-38.3407181432
 20
14.0
 11
-40.8
 21
14.0
  0
LINE
  5
4ED
100
AcDbEntity
  8
ASSI
100
AcDbLine
 62
7
  6
CONTINUOUS
 10
29.95757
 20
14.441663
 11
28.648534
 21
14.441663
  0
LINE
  5
4EE
100
AcDbEntity
  8
RACCORDO
100
AcDbLine
 62
7
  6
CONTINUOUS
 10
22.2952116462
 20
14.75
 11
21.9
 21
14.75
  0
LINE
  5
4EF
100
AcDbEntity
  8
RACCORDO
100
AcDbLine
 62
7
  6
CONTINUOUS
 10
-21.9
 20
14.75
 11
-22.2952116462
 21
14.75
  0
LINE
  5
4F0
100
AcDbEntity
  8
RACCORDO
100
AcDbLine
 62
7
  6
CONTINUOUS
 10
39.8386624453
 20
5.518138829
 11
39.9475922207
 21
5.5
  0
LINE
  5
4F1
100
AcDbEntity
  8
RACCORDO
100
AcDbLine
 62
7
  6
CONTINUOUS
 10
-14.0086507125
 20
25.9465950349
 11
-14.0113449281
 21
25.9481505411
  0
LINE
  5
4F2
100
AcDbEntity
  8
0
100
AcDbLine
 62
7
  6
CONTINUOUS
 10
32.8099998665
 20
-20.010638237
 11
32.5999998665
 21
-19.7553191185
  0
LINE
  5
4F3
100
AcDbEntity
  8
0
100
AcDbLine
 62
7
  6
CONTINUOUS
 10
27.0700000021
 20
-21.7978723347
 11
27.21
 21
-22.0531914979
  0
LINE
  5
4F4
100
AcDbEntity
  8
RACCORDO
100
AcDbLine
 62
7
  6
CONTINUOUS
 10
7.9913492875
 20
25.9892190318
 11
7.9847421242
 21
26.0156577535
  0
LWPOLYLINE
  5
4F5
100
AcDbEntity
  8
0
100
AcDbPolyline
 62
7
  6
CONTINUOUS
 90
13
 70
0
 10
15.7577849541
 20
29.628775808
 10
15.7537353671
 20
29.6940205189
 10
15.7426358399
 20
29.7550729718
 10
15.7244863726
 20
29.8119331666
 10
15.6989167839
 20
29.8653430898
 10
15.666297255
 20
29.914560755
 10
15.6277383296
 20
29.9573602029
 10
15.583243387
 20
29.9929147355
 10
15.5328090477
 20
30.0220510508
 10
15.4775357179
 20
30.0450232832
 10
15.4177901994
 20
30.0619161441
 10
15.3532056903
 20
30.0726449221
 10
15.2837821905
 20
30.0772096171
  0
LWPOLYLINE
  5
4F6
100
AcDbEntity
  8
0
100
AcDbPolyline
 62
7
  6
CONTINUOUS
 90
13
 70
0
 10
15.5350957221
 20
29.628775808
 10
15.5349210797
 20
29.6695067987
 10
15.5295644037
 20
29.7074693487
 10
15.519025694
 20
29.7426634582
 10
15.5031350161
 20
29.7755502793
 10
15.4820623045
 20
29.8056686597
 10
15.4563173623
 20
29.8316351433
 10
15.4255358846
 20
29.8529752723
 10
15.3900821762
 20
29.8701635044
 10
15.3515589551
 20
29.8832397557
 10
15.3105004607
 20
29.8922173319
 10
15.2663724536
 20
29.8970829273
 10
15.2191749339
 20
29.897836542
  0
LINE
  5
4F7
100
AcDbEntity
  8
0
100
AcDbLine
 62
7
  6
CONTINUOUS
 10
15.71132
 20
-31.0518316843
 11
15.71132
 21
-27.9481838332
  0
LINE
  5
4F8
100
AcDbEntity
  8
0
100
AcDbLine
 62
7
  6
CONTINUOUS
 10
16.050317
 20
30.0772096171
 11
16.050317
 21
28.5254555205
  0
LINE
  5
4F9
100
AcDbEntity
  8
0
100
AcDbLine
 62
7
  6
CONTINUOUS
 10
16.266472
 20
28.7113236564
 11
16.266472
 21
29.2646931541
  0
LINE
  5
4FA
100
AcDbEntity
  8
0
100
AcDbLine
 62
7
  6
CONTINUOUS
 10
16.266472
 20
29.4158306845
 11
16.266472
 21
29.9260720867
  0
LINE
  5
4FB
100
AcDbEntity
  8
0
100
AcDbLine
 62
7
  6
CONTINUOUS
 10
17.142335
 20
29.2299635185
 11
17.142335
 21
29.4158306845
  0
LINE
  5
4FC
100
AcDbEntity
  8
0
100
AcDbLine
 62
7
  6
CONTINUOUS
 10
17.165448
 20
-27.9481760744
 11
17.165448
 21
-27.98290571
  0
LINE
  5
4FD
100
AcDbEntity
  8
0
100
AcDbLine
 62
7
  6
CONTINUOUS
 10
17.175304
 20
-29.8517826537
 11
17.175304
 21
-29.8865122892
  0
LINE
  5
4FE
100
AcDbEntity
  8
0
100
AcDbLine
 62
7
  6
CONTINUOUS
 10
17.21586
 20
29.8913424511
 11
17.21586
 21
30.0772096171
  0
LINE
  5
4FF
100
AcDbEntity
  8
0
100
AcDbLine
 62
7
  6
CONTINUOUS
 10
17.231399
 20
28.5254555205
 11
17.231399
 21
28.7113236564
  0
LINE
  5
500
100
AcDbEntity
  8
DRAFT
100
AcDbLine
 62
7
  6
CONTINUOUS
 10
17.25
 20
-22.45
 11
17.25
 21
-24.2980026566
  0
LINE
  5
501
100
AcDbEntity
  8
DRAFT
100
AcDbLine
 62
7
  6
CONTINUOUS
 10
17.25
 20
22.45
 11
17.25
 21
24.2980026566
  0
LINE
  5
502
100
AcDbEntity
  8
0
100
AcDbLine
 62
7
  6
CONTINUOUS
 10
17.514384
 20
30.0772096171
 11
17.514384
 21
28.5254555205
  0
LINE
  5
503
100
AcDbEntity
  8
0
100
AcDbLine
 62
7
  6
CONTINUOUS
 10
17.723843
 20
28.5254555205
 11
17.723843
 21
29.8205324413
  0
LINE
  5
504
100
AcDbEntity
  8
0
100
AcDbLine
 62
7
  6
CONTINUOUS
 10
17.795656
 20
-29.8517826537
 11
17.795656
 21
-29.8865122892
  0
LINE
  5
505
100
AcDbEntity
  8
0
100
AcDbLine
 62
7
  6
CONTINUOUS
 10
18.541719
 20
28.5254555205
 11
18.541719
 21
28.560185156
  0
LINE
  5
506
100
AcDbEntity
  8
0
100
AcDbLine
 62
7
  6
CONTINUOUS
 10
18.575071
 20
30.0772096171
 11
18.575071
 21
28.81674789
  0
LINE
  5
507
100
AcDbEntity
  8
0
100
AcDbLine
 62
7
  6
CONTINUOUS
 10
18.78453
 20
28.5254555205
 11
18.78453
 21
30.0772096171
  0
LINE
  5
508
100
AcDbEntity
  8
0
100
AcDbLine
 62
7
  6
CONTINUOUS
 10
19.134344
 20
30.0772096171
 11
19.134344
 21
28.5254555205
  0
LINE
  5
509
100
AcDbEntity
  8
0
100
AcDbLine
 62
7
  6
CONTINUOUS
 10
19.259648
 20
-27.9481760744
 11
19.259648
 21
-31.0518239256
  0
LWPOLYLINE
  5
50A
100
AcDbEntity
  8
0
100
AcDbPolyline
 62
7
  6
CONTINUOUS
 90
15
 70
0
 10
20.4530391948
 20
29.210370843
 10
20.4442665015
 20
29.1240333559
 10
20.4286625006
 20
29.0423205654
 10
20.4057931625
 20
28.9646408381
 10
20.3760925168
 20
28.8915858074
 10
20.3408626523
 20
28.8249303742
 10
20.300609937
 20
28.7652442148
 10
20.254828003
 20
28.7119576528
 10
20.2032998351
 20
28.6651365594
 10
20.1455908765
 20
28.6246051535
 10
20.082135684
 20
28.5905392163
 10
20.014020913
 20
28.5635319629
 10
19.941608782
 20
28.5437811317
 10
19.8645370725
 20
28.5310889842
 10
19.7828057844
 20
28.5254555205
  0
LWPOLYLINE
  5
50B
100
AcDbEntity
  8
0
100
AcDbPolyline
 62
7
  6
CONTINUOUS
 90
13
 70
0
 10
20.4530361601
 20
29.2450821591
 10
20.4442600186
 20
29.1587309136
 10
20.4286521559
 20
29.0770089261
 10
20.4057777986
 20
28.9993251906
 10
20.3760717201
 20
28.926270713
 10
20.3408382405
 20
28.8596185113
 10
20.3005848535
 20
28.7999389325
 10
20.2548040653
 20
28.7466616296
 10
20.2032777154
 20
28.6998485794
 10
20.1455708875
 20
28.6593226028
 10
20.0821184977
 20
28.6252608788
 10
20.0140071337
 20
28.5982569208
 10
19.9415989914
 20
28.5785085666
  0
LINE
  5
50C
100
AcDbEntity
  8
0
100
AcDbLine
 62
7
  6
CONTINUOUS
 10
10.234312
 20
-27.9481838332
 11
9.526864
 21
-30.0852130225
  0
LINE
  5
50D
100
AcDbEntity
  8
0
100
AcDbLine
 62
7
  6
CONTINUOUS
 10
9.84688
 20
-31.0518316843
 11
10.874344
 21
-27.9481838332
  0
LWPOLYLINE
  5
50E
100
AcDbEntity
  8
RACCORDO
100
AcDbPolyline
 62
250
  6
CONTINUOUS
 90
9
 70
0
 10
24.0526785702
 20
-2.8335081608
 10
24.0728153976
 20
-2.8144228268
 10
24.1018613148
 20
-2.7945079058
 10
24.133950283
 20
-2.7799963208
 10
24.1680872983
 20
-2.7713380372
 10
24.2032138512
 20
-2.768801526
 10
24.2382407479
 20
-2.7724654372
 10
24.272081883
 20
-2.7822161598
 10
24.3036879205
 20
-2.7977513446
  0
LINE
  5
50F
100
AcDbEntity
  8
0
100
AcDbLine
 62
7
  6
CONTINUOUS
 10
-17.917751
 20
-27.3216766945
 11
-18.966055
 21
-27.7630857553
  0
LINE
  5
510
100
AcDbEntity
  8
0
100
AcDbLine
 62
7
  6
CONTINUOUS
 10
-17.917751
 20
-27.3564063301
 11
-18.966055
 21
-27.7978153909
  0
LINE
  5
511
100
AcDbEntity
  8
0
100
AcDbLine
 62
7
  6
CONTINUOUS
 10
-19.201616
 20
-28.6309818216
 11
-18.149695
 21
-28.1880510719
  0
LINE
  5
512
100
AcDbEntity
  8
0
100
AcDbLine
 62
7
  6
CONTINUOUS
 10
-15.052708
 20
-27.3216766945
 11
-16.074773
 21
-27.7520362963
  0
LWPOLYLINE
  5
513
100
AcDbEntity
  8
RACCORDO
100
AcDbPolyline
 62
250
  6
CONTINUOUS
 90
9
 70
0
 10
24.0630976902
 20
2.8230500051
 10
24.0728640809
 20
2.8144544966
 10
24.1019040854
 20
2.7945422755
 10
24.1339856637
 20
2.780031288
 10
24.1681143659
 20
2.7713713387
 10
24.2032322862
 20
2.7688308645
 10
24.2382508554
 20
2.7724886139
 10
24.2720845839
 20
2.7822312056
 10
24.3036847092
 20
2.7977566432
  0
LWPOLYLINE
  5
514
100
AcDbEntity
  8
0
100
AcDbPolyline
 62
7
  6
CONTINUOUS
 90
11
 70
0
 10
9.9565360522
 20
29.7421988009
 10
9.9459979415
 20
29.7773923437
 10
9.9301085165
 20
29.8102779822
 10
9.9090375644
 20
29.8403948635
 10
9.8832944459
 20
29.8663604287
 10
9.852515321
 20
29.8877006722
 10
9.8170640298
 20
29.9048895996
 10
9.7785414543
 20
29.917966668
 10
9.7374812218
 20
29.9269450301
 10
9.6933497051
 20
29.9318115333
 10
9.646146904
 20
29.9325661776
  0
LWPOLYLINE
  5
515
100
AcDbEntity
  8
0
100
AcDbPolyline
 62
7
  6
CONTINUOUS
 90
14
 70
0
 10
21.7358813864
 20
-28.8530594001
 10
21.7203057124
 20
-28.7463453429
 10
21.6919421017
 20
-28.6421027199
 10
21.6512177763
 20
-28.5402724724
 10
21.5996041166
 20
-28.4446571564
 10
21.5366773722
 20
-28.3554331688
 10
21.4628612935
 20
-28.2724241127
 10
21.3808985122
 20
-28.198903354
 10
21.2904120595
 20
-28.1352462394
 10
21.1917789042
 20
-28.0810774222
 10
21.0888725836
 20
-28.0385442281
 10
20.9829842768
 20
-28.0083624323
 10
20.8728228046
 20
-27.9898162596
 10
20.7583881671
 20
-27.98290571
  0
LWPOLYLINE
  5
516
100
AcDbEntity
  8
0
100
AcDbPolyline
 62
7
  6
CONTINUOUS
 90
15
 70
0
 10
20.231370986
 20
29.4049236498
 10
20.2257068112
 20
29.4707350638
 10
20.2156016769
 20
29.5334969044
 10
20.2012272087
 20
29.5938064206
 10
20.1824117811
 20
29.6510663634
 10
20.1586405172
 20
29.7034849862
 10
20.1293999645
 20
29.7506811241
 10
20.0952035757
 20
29.793035942
 10
20.0570768313
 20
29.8299011872
 10
20.0151375786
 20
29.8611329588
 10
19.9692679704
 20
29.8868751576
 10
19.9201399463
 20
29.9069112339
 10
19.8679774861
 20
29.9211690044
 10
19.81255661
 20
29.9297206523
 10
19.753877318
 20
29.9325661776
  0
LWPOLYLINE
  5
517
100
AcDbEntity
  8
0
100
AcDbPolyline
 62
7
  6
CONTINUOUS
 90
15
 70
0
 10
21.7397639239
 20
-28.8995271842
 10
21.7358813863
 20
-28.818329761
 10
21.7203057138
 20
-28.7116157141
 10
21.6919421075
 20
-28.6073731011
 10
21.6512177889
 20
-28.5055428631
 10
21.5996041375
 20
-28.4099275546
 10
21.5366774033
 20
-28.3207035721
 10
21.4628613362
 20
-28.2376945192
 10
21.3808985657
 20
-28.164173761
 10
21.2904121258
 20
-28.1005166435
 10
21.1917789825
 20
-28.0463478208
 10
21.0888726622
 20
-28.0038146198
 10
20.9829843407
 20
-27.9736328162
 10
20.8728228423
 20
-27.9550866344
 10
20.7583881671
 20
-27.9481760744
  0
LINE
  5
518
100
AcDbEntity
  8
0
100
AcDbLine
 62
7
  6
CONTINUOUS
 10
20.4530388859
 20
29.3923083015
 11
20.4549805805
 21
29.3013330269
  0
LWPOLYLINE
  5
519
100
AcDbEntity
  8
0
100
AcDbPolyline
 62
7
  6
CONTINUOUS
 90
16
 70
0
 10
20.2325942013
 20
29.3013330269
 10
20.2313723978
 20
29.3701796805
 10
20.2257103317
 20
29.4359801066
 10
20.215608003
 20
29.4987343053
 10
20.2012376769
 20
29.559039851
 10
20.1824270883
 20
29.6162991693
 10
20.1586594416
 20
29.6687195363
 10
20.1294207768
 20
29.7159203866
 10
20.0952250538
 20
29.7582822856
 10
20.0570973577
 20
29.7951542059
 10
20.0151546645
 20
29.826391641
 10
19.9692799981
 20
29.8521390974
 10
19.9201475147
 20
29.8721790665
 10
19.8679819329
 20
29.8864390456
 10
19.812558534
 20
29.8949915374
 10
19.753877318
 20
29.897836542
  0
LINE
  5
51A
100
AcDbEntity
  8
0
100
AcDbLine
 62
7
  6
CONTINUOUS
 10
19.350499
 20
28.7048295655
 11
19.350499
 21
29.9325661776
  0
LINE
  5
51B
100
AcDbEntity
  8
0
100
AcDbLine
 62
250
  6
CONTINUOUS
 10
19.7538784436
 20
29.897836542
 11
19.7538784436
 21
29.9325661776
  0
LINE
  5
51C
100
AcDbEntity
  8
0
100
AcDbLine
 62
250
  6
CONTINUOUS
 10
19.782808566
 20
28.5254555205
 11
19.782808566
 21
28.560185156
  0
LINE
  5
51D
100
AcDbEntity
  8
0
100
AcDbLine
 62
7
  6
CONTINUOUS
 10
19.890848
 20
-28.5223483665
 11
19.890856
 21
-29.3123322384
  0
LINE
  5
51E
100
AcDbEntity
  8
0
100
AcDbLine
 62
250
  6
CONTINUOUS
 10
20.669534
 20
-29.2776026029
 11
20.669534
 21
-29.3123322384
  0
LINE
  5
51F
100
AcDbEntity
  8
0
100
AcDbLine
 62
7
  6
CONTINUOUS
 10
20.756579
 20
28.7545739526
 11
20.756579
 21
28.5254555205
  0
LINE
  5
520
100
AcDbEntity
  8
0
100
AcDbLine
 62
250
  6
CONTINUOUS
 10
20.7583679747
 20
-27.9481760744
 11
20.7583679747
 21
-27.98290571
  0
LINE
  5
521
100
AcDbEntity
  8
0
100
AcDbLine
 62
7
  6
CONTINUOUS
 10
20.988399
 20
28.5254555205
 11
20.988399
 21
28.7545739526
  0
LINE
  5
522
100
AcDbEntity
  8
0
100
AcDbLine
 62
7
  6
CONTINUOUS
 10
21.9
 20
14.75
 11
21.9
 21
11.75
  0
LINE
  5
523
100
AcDbEntity
  8
0
100
AcDbLine
 62
7
  6
CONTINUOUS
 10
21.9
 20
8.5
 11
21.9
 21
5.5
  0
LINE
  5
524
100
AcDbEntity
  8
0
100
AcDbLine
 62
7
  6
CONTINUOUS
 10
21.9
 20
-5.5
 11
21.9
 21
-8.5
  0
LINE
  5
525
100
AcDbEntity
  8
0
100
AcDbLine
 62
7
  6
CONTINUOUS
 10
21.9
 20
-11.75
 11
21.9
 21
-14.75
  0
LINE
  5
526
100
AcDbEntity
  8
RACCORDO
100
AcDbLine
 62
7
  6
CONTINUOUS
 10
21.9952230693
 20
-22.4
 11
21.9952230693
 21
-14.75
  0
LINE
  5
527
100
AcDbEntity
  8
RACCORDO
100
AcDbLine
 62
7
  6
CONTINUOUS
 10
21.9952230693
 20
-11.75
 11
21.9952230693
 21
-8.5
  0
LINE
  5
528
100
AcDbEntity
  8
RACCORDO
100
AcDbLine
 62
7
  6
CONTINUOUS
 10
21.9952230693
 20
-5.5
 11
21.9952230693
 21
5.5
  0
LINE
  5
529
100
AcDbEntity
  8
RACCORDO
100
AcDbLine
 62
7
  6
CONTINUOUS
 10
21.9952230693
 20
8.5
 11
21.9952230693
 21
11.75
  0
LINE
  5
52A
100
AcDbEntity
  8
RACCORDO
100
AcDbLine
 62
7
  6
CONTINUOUS
 10
21.9952230693
 20
14.75
 11
21.9952230693
 21
22.4
  0
LINE
  5
52B
100
AcDbEntity
  8
DRAFT
100
AcDbLine
 62
7
  6
CONTINUOUS
 10
22.0
 20
-22.4
 11
22.0
 21
-22.45
  0
LINE
  5
52C
100
AcDbEntity
  8
DRAFT
100
AcDbLine
 62
7
  6
CONTINUOUS
 10
22.0
 20
22.4
 11
22.0
 21
22.45
  0
LINE
  5
52D
100
AcDbEntity
  8
RACCORDO
100
AcDbLine
 62
250
  6
CONTINUOUS
 10
22.2952116462
 20
-22.4
 11
22.2952116462
 21
-14.75
  0
LINE
  5
52E
100
AcDbEntity
  8
RACCORDO
100
AcDbLine
 62
250
  6
CONTINUOUS
 10
22.2952116462
 20
-11.75
 11
22.2952116462
 21
-8.5
  0
LINE
  5
52F
100
AcDbEntity
  8
RACCORDO
100
AcDbLine
 62
250
  6
CONTINUOUS
 10
22.2952116462
 20
-5.5
 11
22.2952116462
 21
5.5
  0
LINE
  5
530
100
AcDbEntity
  8
RACCORDO
100
AcDbLine
 62
250
  6
CONTINUOUS
 10
22.2952116462
 20
8.5
 11
22.2952116462
 21
11.75
  0
LINE
  5
531
100
AcDbEntity
  8
RACCORDO
100
AcDbLine
 62
250
  6
CONTINUOUS
 10
22.2952116462
 20
14.75
 11
22.2952116462
 21
22.4
  0
LINE
  5
532
100
AcDbEntity
  8
0
100
AcDbLine
 62
7
  6
CONTINUOUS
 10
19.89968
 20
-31.0518239256
 11
19.899752
 21
-29.8517748949
  0
LINE
  5
533
100
AcDbEntity
  8
0
100
AcDbLine
 62
7
  6
CONTINUOUS
 10
20.4549805805
 20
29.3013330269
 11
20.4530391948
 21
29.210370843
  0
LINE
  5
534
100
AcDbEntity
  8
0
100
AcDbLine
 62
7
  6
CONTINUOUS
 10
14.743776
 20
-27.9481838332
 11
14.146184
 21
-29.9693900967
  0
LINE
  5
535
100
AcDbEntity
  8
0
100
AcDbLine
 62
7
  6
CONTINUOUS
 10
14.466184
 20
-31.0518239256
 11
15.071288
 21
-29.0051844124
  0
LINE
  5
536
100
AcDbEntity
  8
RACCORDO
100
AcDbLine
 62
250
  6
CONTINUOUS
 10
24.4214363913
 20
-2.8701156521
 11
24.4337640632
 21
-2.8477017032
  0
LINE
  5
537
100
AcDbEntity
  8
ASSI
100
AcDbLine
 62
7
  6
CONTINUOUS
 10
28.2067010727
 20
10.3520941296
 11
28.4240702271
 21
10.7393754046
  0
LWPOLYLINE
  5
538
100
AcDbEntity
  8
RACCORDO
100
AcDbPolyline
 62
7
  6
CONTINUOUS
 90
9
 70
0
 10
24.0330767749
 20
-2.8534891387
 10
24.0262545636
 20
-2.8646156268
 10
24.0202074094
 20
-2.8760597742
 10
24.0149353124
 20
-2.8878215811
 10
24.0104226773
 20
-2.8999529727
 10
24.0066850995
 20
-2.9124020238
 10
24.0037693642
 20
-2.9250129583
 10
24.0016910668
 20
-2.937733851
 10
24.0004346121
 20
-2.9506166271
  0
LINE
  5
539
100
AcDbEntity
  8
ASSI
100
AcDbLine
 62
7
  6
CONTINUOUS
 10
31.010123
 20
8.640447
 11
31.256541
 21
8.989783
  0
LWPOLYLINE
  5
53A
100
AcDbEntity
  8
RACCORDO
100
AcDbPolyline
 62
7
  6
CONTINUOUS
 90
5
 70
0
 10
24.0330767749
 20
-2.8534891387
 10
24.0627677885
 20
-2.8220692218
 10
24.0937737387
 20
-2.796529435
 10
24.1253775228
 20
-2.7777258875
 10
24.1579817766
 20
-2.7668524001
  0
LINE
  5
53B
100
AcDbEntity
  8
0
100
AcDbLine
 62
7
  6
CONTINUOUS
 10
-15.052708
 20
-27.3564063301
 11
-16.074773
 21
-27.7867659318
  0
LINE
  5
53C
100
AcDbEntity
  8
0
100
AcDbLine
 62
7
  6
CONTINUOUS
 10
-18.306991
 20
-28.7755897858
 11
-19.375444
 21
-29.2254820923
  0
LINE
  5
53D
100
AcDbEntity
  8
0
100
AcDbLine
 62
7
  6
CONTINUOUS
 10
-18.306991
 20
-28.8103194214
 11
-19.375444
 21
-29.2602117278
  0
LINE
  5
53E
100
AcDbEntity
  8
0
100
AcDbLine
 62
7
  6
CONTINUOUS
 10
-13.964844
 20
-30.2012367064
 11
-14.476813
 21
-30.4168102649
  0
LINE
  5
53F
100
AcDbEntity
  8
0
100
AcDbLine
 62
7
  6
CONTINUOUS
 10
-13.964844
 20
-30.235966342
 11
-14.476813
 21
-30.4515399004
  0
LINE
  5
540
100
AcDbEntity
  8
0
100
AcDbLine
 62
7
  6
CONTINUOUS
 10
-12.509215
 20
-29.9742635744
 11
-11.5470633204
 21
-29.5691313287
  0
LINE
  5
541
100
AcDbEntity
  8
0
100
AcDbLine
 62
7
  6
CONTINUOUS
 10
-14.6043628905
 20
-30.8564648276
 11
-13.016228
 21
-30.1877509935
  0
LINE
  5
542
100
AcDbEntity
  8
ASSI
100
AcDbLine
 62
7
  6
CONTINUOUS
 10
40.8
 20
20.0
 11
38.3407181432
 21
20.0
  0
LINE
  5
543
100
AcDbEntity
  8
ASSI
100
AcDbLine
 62
7
  6
CONTINUOUS
 10
-38.3407181432
 20
20.0
 11
-40.8
 21
20.0
  0
LINE
  5
544
100
AcDbEntity
  8
RACCORDO
100
AcDbLine
 62
7
  6
CONTINUOUS
 10
-25.3
 20
22.4
 11
-21.9952230693
 21
22.4
  0
LINE
  5
545
100
AcDbEntity
  8
RACCORDO
100
AcDbLine
 62
7
  6
CONTINUOUS
 10
21.9952230693
 20
22.4
 11
25.3
 21
22.4
  0
LINE
  5
546
100
AcDbEntity
  8
DRAFT
100
AcDbLine
 62
7
  6
CONTINUOUS
 10
22.0
 20
22.45
 11
17.25
 21
22.45
  0
LINE
  5
547
100
AcDbEntity
  8
DRAFT
100
AcDbLine
 62
7
  6
CONTINUOUS
 10
4.75
 20
22.45
 11
-4.75
 21
22.45
  0
LINE
  5
548
100
AcDbEntity
  8
DRAFT
100
AcDbLine
 62
7
  6
CONTINUOUS
 10
-17.25
 20
22.45
 11
-22.0
 21
22.45
  0
LINE
  5
549
100
AcDbEntity
  8
0
100
AcDbLine
 62
7
  6
CONTINUOUS
 10
25.0
 20
23.0
 11
17.25
 21
23.0
  0
LINE
  5
54A
100
AcDbEntity
  8
DRAFT
100
AcDbLine
 62
7
  6
CONTINUOUS
 10
4.75
 20
23.0
 11
-4.75
 21
23.0
  0
LINE
  5
54B
100
AcDbEntity
  8
0
100
AcDbLine
 62
7
  6
CONTINUOUS
 10
-17.25
 20
23.0
 11
-25.0
 21
23.0
  0
LWPOLYLINE
  5
54C
100
AcDbEntity
  8
RACCORDO
100
AcDbPolyline
 62
7
  6
CONTINUOUS
 90
5
 70
0
 10
24.0330767749
 20
2.8534891387
 10
24.0627677885
 20
2.8220692218
 10
24.0937737387
 20
2.796529435
 10
24.1253775228
 20
2.7777258875
 10
24.1579817766
 20
2.7668524001
  0
LWPOLYLINE
  5
54D
100
AcDbEntity
  8
RACCORDO
100
AcDbPolyline
 62
7
  6
CONTINUOUS
 90
9
 70
0
 10
24.0330767749
 20
2.8534891387
 10
24.0262545636
 20
2.8646156268
 10
24.0202074094
 20
2.8760597742
 10
24.0149353124
 20
2.8878215811
 10
24.0104226773
 20
2.8999529727
 10
24.0066850995
 20
2.9124020238
 10
24.0037693642
 20
2.9250129583
 10
24.0016910668
 20
2.937733851
 10
24.0004346121
 20
2.9506166271
  0
LINE
  5
54E
100
AcDbEntity
  8
RACCORDO
100
AcDbLine
 62
250
  6
CONTINUOUS
 10
24.4214363913
 20
2.8701156521
 11
24.4337640632
 21
2.8477017032
  0
LINE
  5
54F
100
AcDbEntity
  8
0
100
AcDbLine
 62
7
  6
CONTINUOUS
 10
32.9500001335
 20
-22.5
 11
32.3200001335
 21
-21.0319148898
  0
LINE
  5
550
100
AcDbEntity
  8
0
100
AcDbLine
 62
7
  6
CONTINUOUS
 10
31.9000001335
 20
-21.1595744491
 11
32.46
 21
-22.5
  0
LINE
  5
551
100
AcDbEntity
  8
0
100
AcDbLine
 62
7
  6
CONTINUOUS
 10
11.743014
 20
28.5254555205
 11
11.163653
 21
30.0772096171
  0
LINE
  5
552
100
AcDbEntity
  8
0
100
AcDbLine
 62
7
  6
CONTINUOUS
 10
29.2400000668
 20
-20.0744680166
 11
29.31
 21
-20.2659575343
  0
LINE
  5
553
100
AcDbEntity
  8
0
100
AcDbLine
 62
7
  6
CONTINUOUS
 10
11.348604
 20
28.9771982937
 11
11.506899
 21
28.5254555205
  0
LINE
  5
554
100
AcDbEntity
  8
0
100
AcDbLine
 62
7
  6
CONTINUOUS
 10
11.032168
 20
29.8521412633
 11
11.270531
 21
29.1630654597
  0
LINE
  5
555
100
AcDbEntity
  8
0
100
AcDbLine
 62
7
  6
CONTINUOUS
 10
27.4899999833
 20
-21.7340425551
 11
27.42
 21
-21.4787234366
  0
LINE
  5
556
100
AcDbEntity
  8
0
100
AcDbLine
 62
7
  6
CONTINUOUS
 10
27.0
 20
-21.4787234366
 11
27.0700000021
 21
-21.7978723347
  0
LWPOLYLINE
  5
557
100
AcDbEntity
  8
RACCORDO
100
AcDbPolyline
 62
7
  6
CONTINUOUS
 90
6
 70
0
 10
24.0000430633
 20
2.9687652983
 10
24.0031502656
 20
2.9336929609
 10
24.0123601683
 20
2.8997085255
 10
24.0273872874
 20
2.8678654264
 10
24.0477658197
 20
2.8391507214
 10
24.0630976902
 20
2.8230500051
  0
LINE
  5
558
100
AcDbEntity
  8
RACCORDO
100
AcDbLine
 62
7
  6
CONTINUOUS
 10
24.0004346121
 20
2.9506166271
 11
24.0
 21
2.9636612867
  0
LINE
  5
559
100
AcDbEntity
  8
RACCORDO
100
AcDbLine
 62
250
  6
CONTINUOUS
 10
24.3038706922
 20
2.7907160296
 11
24.3036879205
 21
2.7977513446
  0
LINE
  5
55A
100
AcDbEntity
  8
RACCORDO
100
AcDbLine
 62
7
  6
CONTINUOUS
 10
24.0
 20
22.4
 11
24.0
 21
2.9687652886
  0
LINE
  5
55B
100
AcDbEntity
  8
RACCORDO
100
AcDbLine
 62
7
  6
CONTINUOUS
 10
24.0
 20
-2.9687652886
 11
24.0
 21
-22.4
  0
LINE
  5
55C
100
AcDbEntity
  8
0
100
AcDbLine
 62
7
  6
CONTINUOUS
 10
24.8573050553
 20
-0.35
 11
24.8573050553
 21
-0.0726172387
  0
LINE
  5
55D
100
AcDbEntity
  8
0
100
AcDbLine
 62
7
  6
CONTINUOUS
 10
24.8573050553
 20
0.0726172387
 11
24.8573050553
 21
0.35
  0
LINE
  5
55E
100
AcDbEntity
  8
RACCORDO
100
AcDbLine
 62
7
  6
CONTINUOUS
 10
25.0
 20
31.7904868204
 11
25.0
 21
22.4
  0
LINE
  5
55F
100
AcDbEntity
  8
RACCORDO
100
AcDbLine
 62
250
  6
CONTINUOUS
 10
25.0
 20
22.4
 11
25.0
 21
3.4202614903
  0
LINE
  5
560
100
AcDbEntity
  8
RACCORDO
100
AcDbLine
 62
250
  6
CONTINUOUS
 10
25.0
 20
-3.4202614903
 11
25.0
 21
-22.4
  0
LINE
  5
561
100
AcDbEntity
  8
RACCORDO
100
AcDbLine
 62
7
  6
CONTINUOUS
 10
25.0
 20
-22.4
 11
25.0
 21
-31.7904868204
  0
LINE
  5
562
100
AcDbEntity
  8
RACCORDO
100
AcDbLine
 62
250
  6
CONTINUOUS
 10
25.3
 20
33.4918713663
 11
25.3
 21
22.4
  0
LINE
  5
563
100
AcDbEntity
  8
RACCORDO
100
AcDbLine
 62
250
  6
CONTINUOUS
 10
25.3
 20
-22.4
 11
25.3
 21
-33.4918713663
  0
LINE
  5
564
100
AcDbEntity
  8
0
100
AcDbLine
 62
7
  6
CONTINUOUS
 10
25.5
 20
-2.6329543503
 11
25.5
 21
-0.5860176963
  0
LINE
  5
565
100
AcDbEntity
  8
0
100
AcDbLine
 62
7
  6
CONTINUOUS
 10
25.5
 20
0.5860176963
 11
25.5
 21
2.6329543503
  0
LINE
  5
566
100
AcDbEntity
  8
0
100
AcDbLine
 62
7
  6
CONTINUOUS
 10
25.65
 20
-1.4917020703
 11
25.65
 21
-1.0901949367
  0
LINE
  5
567
100
AcDbEntity
  8
0
100
AcDbLine
 62
7
  6
CONTINUOUS
 10
25.65
 20
1.0901949367
 11
25.65
 21
1.4917020703
  0
LINE
  5
568
100
AcDbEntity
  8
0
100
AcDbLine
 62
7
  6
CONTINUOUS
 10
26.35
 20
-1.4917020703
 11
26.35
 21
-1.0901949367
  0
LINE
  5
569
100
AcDbEntity
  8
0
100
AcDbLine
 62
7
  6
CONTINUOUS
 10
26.35
 20
1.0901949367
 11
26.35
 21
1.4917020703
  0
LINE
  5
56A
100
AcDbEntity
  8
0
100
AcDbLine
 62
7
  6
CONTINUOUS
 10
26.5
 20
2.6329543503
 11
26.5
 21
0.5860176963
  0
LINE
  5
56B
100
AcDbEntity
  8
0
100
AcDbLine
 62
7
  6
CONTINUOUS
 10
26.5
 20
-0.5860176963
 11
26.5
 21
-2.6329543503
  0
LWPOLYLINE
  5
56C
100
AcDbEntity
  8
0
100
AcDbPolyline
 62
7
  6
CONTINUOUS
 90
10
 70
0
 10
24.0523570524
 20
0.35
 10
24.0507888594
 20
0.2723539704
 10
24.0496127146
 20
0.1946420669
 10
24.0488286181
 20
0.1168642894
 10
24.0484365699
 20
0.0389767221
 10
24.0484365699
 20
-0.0389767192
 10
24.0488286181
 20
-0.1168642868
 10
24.0496127146
 20
-0.1946420649
 10
24.0507888594
 20
-0.2723539693
 10
24.0523570524
 20
-0.35
  0
LINE
  5
56D
100
AcDbEntity
  8
RACCORDO
100
AcDbLine
 62
250
  6
CONTINUOUS
 10
24.3036879205
 20
-2.7977513446
 11
24.3038706922
 21
-2.7907160296
  0
LINE
  5
56E
100
AcDbEntity
  8
RACCORDO
100
AcDbLine
 62
7
  6
CONTINUOUS
 10
24.0004346121
 20
-2.9506166271
 11
24.0
 21
-2.9636612867
  0
LWPOLYLINE
  5
56F
100
AcDbEntity
  8
RACCORDO
100
AcDbPolyline
 62
7
  6
CONTINUOUS
 90
6
 70
0
 10
24.0
 20
-2.968765289
 10
24.0031007724
 20
-2.933685865
 10
24.012306944
 20
-2.8996941679
 10
24.0273330556
 20
-2.8678442041
 10
24.0477131871
 20
-2.8391235675
 10
24.0526785702
 20
-2.8335081608
  0
LWPOLYLINE
  5
570
100
AcDbEntity
  8
RACCORDO
100
AcDbPolyline
 62
250
  6
CONTINUOUS
 90
13
 70
0
 10
24.1563015139
 20
-3.0453521637
 10
24.1637357177
 20
-3.0138480451
 10
24.1755716094
 20
-2.983203644
 10
24.1914862422
 20
-2.9542550705
 10
24.2110453832
 20
-2.9277921644
 10
24.2337153605
 20
-2.9045369461
 10
24.2588776236
 20
-2.8851239154
 10
24.2858456206
 20
-2.8700827393
 10
24.3138835311
 20
-2.8598238002
 10
24.3422263411
 20
-2.8546269991
 10
24.3701007163
 20
-2.8546341189
 10
24.3967461015
 20
-2.8598449553
 10
24.4214354725
 20
-2.8701173225
  0
LINE
  5
571
100
AcDbEntity
  8
0
100
AcDbLine
 62
7
  6
CONTINUOUS
 10
25.4802765158
 20
0.5197234842
 11
25.65
 21
1.0901949367
  0
LINE
  5
572
100
AcDbEntity
  8
0
100
AcDbLine
 62
7
  6
CONTINUOUS
 10
26.35
 20
-1.0901949367
 11
26.5197234842
 21
-0.5197234842
  0
LINE
  5
573
100
AcDbEntity
  8
0
100
AcDbLine
 62
7
  6
CONTINUOUS
 10
17.165448
 20
-27.9481760744
 11
16.138
 21
-31.0518316843
  0
LINE
  5
574
100
AcDbEntity
  8
0
100
AcDbLine
 62
7
  6
CONTINUOUS
 10
17.165448
 20
-27.98290571
 11
16.148361529
 21
-31.0552618111
  0
LINE
  5
575
100
AcDbEntity
  8
0
100
AcDbLine
 62
7
  6
CONTINUOUS
 10
17.175304
 20
-29.8517826537
 11
17.485472
 21
-28.9148024951
  0
LINE
  5
576
100
AcDbEntity
  8
0
100
AcDbLine
 62
7
  6
CONTINUOUS
 10
16.778024
 20
-31.0518239256
 11
16.98008
 21
-30.4414724867
  0
LINE
  5
577
100
AcDbEntity
  8
RACCORDO
100
AcDbLine
 62
250
  6
CONTINUOUS
 10
25.0
 20
-3.4202614903
 11
25.09638008
 21
-3.2450249813
  0
LINE
  5
578
100
AcDbEntity
  8
RACCORDO
100
AcDbLine
 62
7
  6
CONTINUOUS
 10
30.0866025404
 20
5.3
 11
30.2979245834
 21
5.6660205153
  0
LINE
  5
579
100
AcDbEntity
  8
DRAFT
100
AcDbLine
 62
7
  6
CONTINUOUS
 10
7.9608522857
 20
-26.0391477143
 11
7.9843422465
 21
-26.0156577535
  0
LINE
  5
57A
100
AcDbEntity
  8
0
100
AcDbLine
 62
7
  6
CONTINUOUS
 10
-11.098581
 20
-29.8746768457
 11
-12.658387
 21
-30.5314625862
  0
LINE
  5
57B
100
AcDbEntity
  8
0
100
AcDbLine
 62
7
  6
CONTINUOUS
 10
-13.165401
 20
-30.7449500053
 11
-14.2104482694
 21
-31.184986847
  0
LINE
  5
57C
100
AcDbEntity
  8
0
100
AcDbLine
 62
7
  6
CONTINUOUS
 10
-11.098581
 20
-29.9094064812
 11
-12.658387
 21
-30.5661922217
  0
LINE
  5
57D
100
AcDbEntity
  8
0
100
AcDbLine
 62
7
  6
CONTINUOUS
 10
-13.165401
 20
-30.7796796408
 11
-14.2104482694
 21
-31.2197164825
  0
LINE
  5
57E
100
AcDbEntity
  8
0
100
AcDbLine
 62
7
  6
CONTINUOUS
 10
-11.704358
 20
-30.4746955419
 11
-11.202663
 21
-30.263447498
  0
LWPOLYLINE
  5
57F
100
AcDbEntity
  8
0
100
AcDbPolyline
 62
7
  6
CONTINUOUS
 90
3
 70
0
 10
19.9415989914
 20
28.5785085666
 10
19.8645318749
 20
28.5658179783
 10
19.7828057842
 20
28.560185156
  0
LWPOLYLINE
  5
580
100
AcDbEntity
  8
RACCORDO
100
AcDbPolyline
 62
250
  6
CONTINUOUS
 90
37
 70
0
 10
2.2
 20
26.7373104138
 10
2.4813772368
 20
26.7494445895
 10
2.7608570196
 20
26.7857939048
 10
3.0363576476
 20
26.8461384599
 10
3.3057582282
 20
26.9300560259
 10
3.5671031406
 20
27.0369839056
 10
3.8185947211
 20
27.1662746827
 10
4.0583009105
 20
27.317050543
 10
4.2843738289
 20
27.488273007
 10
4.495198971
 20
27.6788941068
 10
4.6891260934
 20
27.8876531747
 10
4.8645029677
 20
28.1130272213
 10
5.0198462558
 20
28.3533857641
 10
5.1538747693
 20
28.6070628738
 10
5.2653572469
 20
28.8721000955
 10
5.3531907439
 20
29.1462079125
 10
5.4166200289
 20
29.4272813376
 10
5.4550770999
 20
29.7131572006
 10
5.4681737113
 20
30.0013136726
 10
5.4558117876
 20
30.2894941
 10
5.4180915932
 20
30.5754655506
 10
5.3553702054
 20
30.8567352181
 10
5.2682178
 20
31.1311060924
 10
5.1573782855
 20
31.3964976042
 10
5.0238683214
 20
31.6507112099
 10
4.8688550208
 20
31.8918069818
 10
4.6936209522
 20
32.1180353372
 10
4.4996533615
 20
32.3276843683
 10
4.2885895462
 20
32.5192085911
 10
4.0620941647
 20
32.6913052831
 10
3.8218665146
 20
32.8428387553
 10
3.569797356
 20
32.9727531556
 10
3.3078288334
 20
33.0801798686
 10
3.0378171695
 20
33.1644560778
 10
2.7617574013
 20
33.2250284323
 10
2.4817841903
 20
33.2614993138
 10
2.2
 20
33.2736708559
  0
LINE
  5
581
100
AcDbEntity
  8
0
100
AcDbLine
 62
7
  6
CONTINUOUS
 10
-9.4
 20
23.3
 11
-7.1
 21
23.3
  0
LINE
  5
582
100
AcDbEntity
  8
0
100
AcDbLine
 62
7
  6
CONTINUOUS
 10
9.4
 20
23.3
 11
7.1
 21
23.3
  0
LINE
  5
583
100
AcDbEntity
  8
0
100
AcDbLine
 62
7
  6
CONTINUOUS
 10
12.6
 20
23.3
 11
14.9
 21
23.3
  0
LINE
  5
584
100
AcDbEntity
  8
0
100
AcDbLine
 62
7
  6
CONTINUOUS
 10
-12.6
 20
23.3
 11
-14.9
 21
23.3
  0
LINE
  5
585
100
AcDbEntity
  8
DRAFT
100
AcDbLine
 62
7
  6
CONTINUOUS
 10
17.25
 20
24.2980026566
 11
14.0364684712
 21
24.2980026566
  0
LINE
  5
586
100
AcDbEntity
  8
DRAFT
100
AcDbLine
 62
7
  6
CONTINUOUS
 10
7.9635315288
 20
24.2980026566
 11
4.7519973434
 21
24.2980026566
  0
LINE
  5
587
100
AcDbEntity
  8
DRAFT
100
AcDbLine
 62
7
  6
CONTINUOUS
 10
-4.7519973434
 20
24.2980026566
 11
-7.9635315288
 21
24.2980026566
  0
LINE
  5
588
100
AcDbEntity
  8
DRAFT
100
AcDbLine
 62
7
  6
CONTINUOUS
 10
-14.0364684712
 20
24.2980026566
 11
-17.25
 21
24.2980026566
  0
LINE
  5
589
100
AcDbEntity
  8
DRAFT
100
AcDbLine
 62
7
  6
CONTINUOUS
 10
9.4
 20
24.3344711278
 11
12.6
 21
24.3344711278
  0
LINE
  5
58A
100
AcDbEntity
  8
DRAFT
100
AcDbLine
 62
7
  6
CONTINUOUS
 10
-9.4
 20
24.3344711278
 11
-12.6
 21
24.3344711278
  0
LINE
  5
58B
100
AcDbEntity
  8
RACCORDO
100
AcDbLine
 62
7
  6
CONTINUOUS
 10
-13.0086887894
 20
25.9546029997
 11
-8.9913112106
 21
25.9546029997
  0
LINE
  5
58C
100
AcDbEntity
  8
RACCORDO
100
AcDbLine
 62
7
  6
CONTINUOUS
 10
8.9913112106
 20
25.9546029997
 11
13.0086887894
 21
25.9546029997
  0
LINE
  5
58D
100
AcDbEntity
  8
DRAFT
100
AcDbLine
 62
7
  6
CONTINUOUS
 10
14.0156577535
 20
26.0156577535
 11
7.9843422465
 21
26.0156577535
  0
LINE
  5
58E
100
AcDbEntity
  8
DRAFT
100
AcDbLine
 62
7
  6
CONTINUOUS
 10
-7.9843422465
 20
26.0156577535
 11
-14.0156577535
 21
26.0156577535
  0
LINE
  5
58F
100
AcDbEntity
  8
DRAFT
100
AcDbLine
 62
7
  6
CONTINUOUS
 10
14.0391477143
 20
26.0391477143
 11
7.9608522857
 21
26.0391477143
  0
LINE
  5
590
100
AcDbEntity
  8
DRAFT
100
AcDbLine
 62
7
  6
CONTINUOUS
 10
-7.9608522857
 20
26.0391477143
 11
-14.0391477143
 21
26.0391477143
  0
LINE
  5
591
100
AcDbEntity
  8
RACCORDO
100
AcDbLine
 62
250
  6
CONTINUOUS
 10
2.2
 20
26.3852273835
 11
-2.2
 21
26.3852273835
  0
LINE
  5
592
100
AcDbEntity
  8
RACCORDO
100
AcDbLine
 62
250
  6
CONTINUOUS
 10
38.3407181432
 20
26.5523670977
 11
39.8386624453
 21
26.5523670962
  0
LINE
  5
593
100
AcDbEntity
  8
RACCORDO
100
AcDbLine
 62
250
  6
CONTINUOUS
 10
-38.3407181432
 20
26.5523670977
 11
-39.8386624453
 21
26.5523670977
  0
LINE
  5
594
100
AcDbEntity
  8
RACCORDO
100
AcDbLine
 62
7
  6
CONTINUOUS
 10
2.2
 20
26.7373104138
 11
-2.2
 21
26.7373104138
  0
LINE
  5
595
100
AcDbEntity
  8
DRAFT
100
AcDbLine
 62
7
  6
CONTINUOUS
 10
-2.2
 20
26.75
 11
2.2
 21
26.75
  0
LWPOLYLINE
  5
596
100
AcDbEntity
  8
0
100
AcDbPolyline
 62
7
  6
CONTINUOUS
 90
19
 70
0
 10
-20.867554
 20
26.8287957168
 10
-21.1005435233
 20
26.8307809245
 10
-21.3286475432
 20
26.8521038348
 10
-21.5518660599
 20
26.8927644476
 10
-21.7718489295
 20
26.9533884554
 10
-21.9869462958
 20
27.0333501659
 10
-22.1922085898
 20
27.1307725014
 10
-22.3874935359
 20
27.2461458106
 10
-22.5729434097
 20
27.3789797449
 10
-22.7440354684
 20
27.5259261811
 10
-22.900383187
 20
27.6873696609
 10
-23.0423730905
 20
27.8629256426
 10
-23.1666420102
 20
28.0480923784
 10
-23.2726561692
 20
28.2429259901
 10
-23.3609493446
 20
28.4473703559
 10
-23.4297596987
 20
28.6567553616
 10
-23.4786940816
 20
28.8712401496
 10
-23.5081456433
 20
29.0906655776
 10
-23.5175525372
 20
29.2998876508
  0
LWPOLYLINE
  5
597
100
AcDbEntity
  8
0
100
AcDbPolyline
 62
7
  6
CONTINUOUS
 90
19
 70
0
 10
-20.867554
 20
26.8635253523
 10
-21.1005435742
 20
26.8655105686
 10
-21.3286476308
 20
26.8868334871
 10
-21.5518661697
 20
26.9274941081
 10
-21.7718490429
 20
26.9881181242
 10
-21.9869463984
 20
27.0680798427
 10
-22.192208681
 20
27.1655021854
 10
-22.3874936195
 20
27.2808755004
 10
-22.5729434851
 20
27.4137094397
 10
-22.7440355353
 20
27.5606558798
 10
-22.9003832454
 20
27.7220993623
 10
-23.0423731402
 20
27.8976553457
 10
-23.1666420516
 20
28.0828220822
 10
-23.2726562025
 20
28.2776556939
 10
-23.36094937
 20
28.4821000586
 10
-23.4297597169
 20
28.6914850626
 10
-23.478694093
 20
28.9059698484
 10
-23.5081456486
 20
29.1253952734
 10
-23.5159941987
 20
29.2999577157
  0
LWPOLYLINE
  5
598
100
AcDbEntity
  8
0
100
AcDbPolyline
 62
7
  6
CONTINUOUS
 90
19
 70
0
 10
-16.482444
 20
26.8287956026
 10
-16.7154335152
 20
26.8307808094
 10
-16.9435375289
 20
26.8521037173
 10
-17.1667560409
 20
26.8927643263
 10
-17.3867389077
 20
26.9533883285
 10
-17.601836273
 20
27.0333500318
 10
-17.8070985677
 20
27.1307723597
 10
-18.0023835165
 20
27.2461456606
 10
-18.1878333946
 20
27.3789795861
 10
-18.3589254598
 20
27.5259260143
 10
-18.5152731876
 20
27.687369487
 10
-18.6572631024
 20
27.8629254624
 10
-18.7815320349
 20
28.0480921934
 10
-18.8875462079
 20
28.2429258022
 10
-18.9758393986
 20
28.4473701666
 10
-19.0446497686
 20
28.6567551731
 10
-19.0935841676
 20
28.8712399646
 10
-19.1230357458
 20
29.0906653983
 10
-19.1324426549
 20
29.2998876656
  0
LWPOLYLINE
  5
599
100
AcDbEntity
  8
0
100
AcDbPolyline
 62
7
  6
CONTINUOUS
 90
19
 70
0
 10
-16.482444
 20
26.8635252381
 10
-16.7154335862
 20
26.865510455
 10
-16.9435376548
 20
26.8868333753
 10
-17.1667562056
 20
26.9274939993
 10
-17.3867390907
 20
26.9881180197
 10
-17.6018364581
 20
27.0680797437
 10
-17.8070987518
 20
27.1655020929
 10
-18.0023837005
 20
27.2808754158
 10
-18.1878335755
 20
27.413709364
 10
-18.3589256342
 20
27.5606558141
 10
-18.5152733522
 20
27.722099308
 10
-18.6572632539
 20
27.897655304
 10
-18.7815321707
 20
28.0828220535
 10
-18.8875463254
 20
28.2776556787
 10
-18.9758394951
 20
28.4821000576
 10
-19.0446498426
 20
28.6914850754
 10
-19.0935842176
 20
28.9059698746
 10
-19.1230357704
 20
29.1253953127
 10
-19.130884317
 20
29.2999577305
  0
LWPOLYLINE
  5
59A
100
AcDbEntity
  8
RACCORDO
100
AcDbPolyline
 62
250
  6
CONTINUOUS
 90
40
 70
0
 10
-2.2
 20
26.3852273835
 10
-2.4764511367
 20
26.3962062926
 10
-2.748230661
 20
26.4276724116
 10
-3.0153385729
 20
26.4796257403
 10
-3.2793619037
 20
26.5526347888
 10
-3.5387136221
 20
26.6461310471
 10
-3.7886326336
 20
26.7584089853
 10
-4.0288261188
 20
26.8897316234
 10
-4.2595868971
 20
27.0398359414
 10
-4.4770323326
 20
27.2062273498
 10
-4.6809768343
 20
27.3891447407
 10
-4.8716059932
 20
27.5883492219
 10
-5.0455939457
 20
27.8006295274
 10
-5.2027387201
 20
28.0262676633
 10
-5.3432422881
 20
28.2649816235
 10
-5.4643847017
 20
28.5127141239
 10
-5.5658440203
 20
28.7697265179
 10
-5.6479421845
 20
29.0357574522
 10
-5.7089250675
 20
29.3059655823
 10
-5.7483461813
 20
29.5805332378
 10
-5.7666520141
 20
29.8592780893
 10
-5.7634279031
 20
30.1368118041
 10
-5.7381844692
 20
30.4130670971
 10
-5.6914110915
 20
30.6881112536
 10
-5.6241612458
 20
30.9567577972
 10
-5.536047104
 20
31.2187755766
 10
-5.4274564942
 20
31.4743957432
 10
-5.3006063756
 20
31.7191252747
 10
-5.1552343918
 20
31.9526927603
 10
-4.9916028992
 20
32.1753696108
 10
-4.8127159262
 20
32.3834770369
 10
-4.6183887078
 20
32.5767523508
 10
-4.408806009
 20
32.7554582403
 10
-4.1875261536
 20
32.9167039795
 10
-3.9543526161
 20
33.060261639
 10
-3.709481922
 20
33.186359148
 10
-3.4570619715
 20
33.2927895691
 10
-3.1984753979
 20
33.3788172562
 10
-2.9323395679
 20
33.4451778553
 10
-2.6586544814
 20
33.4918713663
  0
LINE
  5
59B
100
AcDbEntity
  8
DRAFT
100
AcDbLine
 62
7
  6
CONTINUOUS
 10
7.9608522857
 20
26.0391477143
 11
7.9843447995
 21
26.0164475978
  0
LINE
  5
59C
100
AcDbEntity
  8
RACCORDO
100
AcDbLine
 62
7
  6
CONTINUOUS
 10
30.0866025404
 20
-5.3
 11
30.2979274289
 21
-5.6660254437
  0
LINE
  5
59D
100
AcDbEntity
  8
RACCORDO
100
AcDbLine
 62
250
  6
CONTINUOUS
 10
25.0
 20
3.4202614903
 11
25.09638008
 21
3.2450249813
  0
LINE
  5
59E
100
AcDbEntity
  8
0
100
AcDbLine
 62
7
  6
CONTINUOUS
 10
32.3899998665
 20
-20.010638237
 11
32.46
 21
-20.2021275759
  0
LINE
  5
59F
100
AcDbEntity
  8
0
100
AcDbLine
 62
7
  6
CONTINUOUS
 10
32.88
 20
-20.2021275759
 11
32.8099998665
 21
-20.010638237
  0
LWPOLYLINE
  5
5A0
100
AcDbEntity
  8
0
100
AcDbPolyline
 62
7
  6
CONTINUOUS
 90
11
 70
0
 10
15.5295640822
 20
29.7421988009
 10
15.5190259715
 20
29.7773923437
 10
15.5031365465
 20
29.8102779822
 10
15.4820655944
 20
29.8403948635
 10
15.456322476
 20
29.8663604287
 10
15.425543351
 20
29.8877006722
 10
15.3900920598
 20
29.9048895996
 10
15.3515694843
 20
29.917966668
 10
15.3105092518
 20
29.9269450301
 10
15.2663777351
 20
29.9318115333
 10
15.219174934
 20
29.9325661776
  0
LINE
  5
5A1
100
AcDbEntity
  8
0
100
AcDbLine
 62
7
  6
CONTINUOUS
 10
25.65
 20
-1.0901949367
 11
25.4802765158
 21
-0.5197234842
  0
LINE
  5
5A2
100
AcDbEntity
  8
0
100
AcDbLine
 62
7
  6
CONTINUOUS
 10
26.5197234842
 20
0.5197234842
 11
26.35
 21
1.0901949367
  0
LWPOLYLINE
  5
5A3
100
AcDbEntity
  8
RACCORDO
100
AcDbPolyline
 62
250
  6
CONTINUOUS
 90
13
 70
0
 10
24.1563390652
 20
3.0453521605
 10
24.1637754538
 20
3.0138525135
 10
24.1756119741
 20
2.9832125033
 10
24.1915257403
 20
2.9542679234
 10
24.2110826472
 20
2.9278083196
 10
24.233749212
 20
2.9045554521
 10
24.258907126
 20
2.8851436077
 10
24.2858701209
 20
2.8701022972
 10
24.3139026887
 20
2.8598418116
 10
24.3422401446
 20
2.8546420298
 10
24.3701094858
 20
2.8546447839
 10
24.3967504775
 20
2.8598499908
 10
24.4214363904
 20
2.8701156537
  0
LINE
  5
5A4
100
AcDbEntity
  8
0
100
AcDbLine
 62
7
  6
CONTINUOUS
 10
29.73
 20
-20.2659575343
 11
29.6600000668
 21
-19.9468084574
  0
LINE
  5
5A5
100
AcDbEntity
  8
0
100
AcDbLine
 62
7
  6
CONTINUOUS
 10
27.0
 20
-20.5212766528
 11
27.0
 21
-21.4787234366
  0
LINE
  5
5A6
100
AcDbEntity
  8
0
100
AcDbLine
 62
7
  6
CONTINUOUS
 10
27.1426949447
 20
-0.35
 11
27.1426949447
 21
-0.0726172387
  0
LINE
  5
5A7
100
AcDbEntity
  8
0
100
AcDbLine
 62
7
  6
CONTINUOUS
 10
27.1426949447
 20
0.0726172387
 11
27.1426949447
 21
0.35
  0
LINE
  5
5A8
100
AcDbEntity
  8
0
100
AcDbLine
 62
7
  6
CONTINUOUS
 10
27.42
 20
-21.4787234366
 11
27.42
 21
-20.5212766528
  0
LINE
  5
5A9
100
AcDbEntity
  8
ASSI
100
AcDbLine
 62
7
  6
CONTINUOUS
 10
28.2
 20
2.0
 11
28.2
 21
1.6494396592
  0
LINE
  5
5AA
100
AcDbEntity
  8
ASSI
100
AcDbLine
 62
7
  6
CONTINUOUS
 10
28.2
 20
-1.6494396592
 11
28.2
 21
-2.0
  0
LINE
  5
5AB
100
AcDbEntity
  8
ASSI
100
AcDbLine
 62
7
  6
CONTINUOUS
 10
28.633113
 20
10.611955
 11
28.633113
 21
10.139734
  0
LINE
  5
5AC
100
AcDbEntity
  8
ASSI
100
AcDbLine
 62
7
  6
CONTINUOUS
 10
28.648534
 20
14.441663
 11
28.648534
 21
13.966846
  0
LINE
  5
5AD
100
AcDbEntity
  8
0
100
AcDbLine
 62
7
  6
CONTINUOUS
 10
28.65
 20
3.1894527801
 11
28.65
 21
0.7337885493
  0
LINE
  5
5AE
100
AcDbEntity
  8
0
100
AcDbLine
 62
7
  6
CONTINUOUS
 10
28.65
 20
-0.7337885493
 11
28.65
 21
-3.1894527801
  0
LINE
  5
5AF
100
AcDbEntity
  8
0
100
AcDbLine
 62
7
  6
CONTINUOUS
 10
28.68
 20
-20.8404255509
 11
28.68
 21
-21.2234042287
  0
LINE
  5
5B0
100
AcDbEntity
  8
0
100
AcDbLine
 62
250
  6
CONTINUOUS
 10
28.8
 20
3.3406088205
 11
28.8
 21
-3.3406088205
  0
LINE
  5
5B1
100
AcDbEntity
  8
ASSI
100
AcDbLine
 62
7
  6
CONTINUOUS
 10
29.051602
 20
13.966846
 11
29.051602
 21
12.762838
  0
LINE
  5
5B2
100
AcDbEntity
  8
ASSI
100
AcDbLine
 62
7
  6
CONTINUOUS
 10
29.051602
 20
12.177635
 11
29.051602
 21
10.611955
  0
LINE
  5
5B3
100
AcDbEntity
  8
0
100
AcDbLine
 62
7
  6
CONTINUOUS
 10
29.31
 20
-21.2234042287
 11
29.31
 21
-21.7340425551
  0
LINE
  5
5B4
100
AcDbEntity
  8
ASSI
100
AcDbLine
 62
7
  6
CONTINUOUS
 10
29.554665
 20
10.611955
 11
29.554665
 21
12.182916
  0
LINE
  5
5B5
100
AcDbEntity
  8
ASSI
100
AcDbLine
 62
7
  6
CONTINUOUS
 10
29.554665
 20
12.762838
 11
29.554665
 21
13.966846
  0
LINE
  5
5B6
100
AcDbEntity
  8
0
100
AcDbLine
 62
7
  6
CONTINUOUS
 10
29.73
 20
-21.7978723347
 11
29.73
 21
-20.8404255509
  0
LINE
  5
5B7
100
AcDbEntity
  8
RACCORDO
100
AcDbLine
 62
250
  6
CONTINUOUS
 10
29.8523670977
 20
-35.0407181432
 11
29.8523670962
 21
-36.5386624453
  0
LINE
  5
5B8
100
AcDbEntity
  8
RACCORDO
100
AcDbLine
 62
250
  6
CONTINUOUS
 10
29.8523670977
 20
35.0407181432
 11
29.8523670977
 21
36.5386624453
  0
LINE
  5
5B9
100
AcDbEntity
  8
ASSI
100
AcDbLine
 62
7
  6
CONTINUOUS
 10
29.95757
 20
13.966846
 11
29.95757
 21
14.441663
  0
LINE
  5
5BA
100
AcDbEntity
  8
ASSI
100
AcDbLine
 62
7
  6
CONTINUOUS
 10
29.972991
 20
10.139734
 11
29.972991
 21
10.611955
  0
LINE
  5
5BB
100
AcDbEntity
  8
0
100
AcDbLine
 62
7
  6
CONTINUOUS
 10
30.2900000668
 20
-19.5
 11
30.2900000668
 21
-22.5
  0
LWPOLYLINE
  5
5BC
100
AcDbEntity
  8
0
100
AcDbPolyline
 62
7
  6
CONTINUOUS
 90
10
 70
0
 10
27.9476429476
 20
-0.35
 10
27.9492111406
 20
-0.2723539704
 10
27.9503872854
 20
-0.1946420669
 10
27.9511713819
 20
-0.1168642894
 10
27.9515634301
 20
-0.0389767221
 10
27.9515634301
 20
0.0389767192
 10
27.9511713819
 20
0.1168642868
 10
27.9503872854
 20
0.1946420649
 10
27.9492111406
 20
0.2723539693
 10
27.9476429476
 20
0.35
  0
LINE
  5
5BD
100
AcDbEntity
  8
RACCORDO
100
AcDbLine
 62
250
  6
CONTINUOUS
 10
28.3234980271
 20
-5.2481854052
 11
28.4337640632
 21
-5.0477017032
  0
LINE
  5
5BE
100
AcDbEntity
  8
RACCORDO
100
AcDbLine
 62
7
  6
CONTINUOUS
 10
29.7021787917
 20
-5.6658414644
 11
29.9133974596
 21
-5.3
  0
LINE
  5
5BF
100
AcDbEntity
  8
DRAFT
100
AcDbLine
 62
7
  6
CONTINUOUS
 10
14.0364684712
 20
-24.2980026566
 11
14.0
 21
-24.3344711278
  0
LINE
  5
5C0
100
AcDbEntity
  8
DRAFT
100
AcDbLine
 62
7
  6
CONTINUOUS
 10
14.0
 20
-25.9416005438
 11
13.9774790858
 21
-25.9546029997
  0
LINE
  5
5C1
100
AcDbEntity
  8
0
100
AcDbLine
 62
7
  6
CONTINUOUS
 10
27.7700000167
 20
-19.5638297796
 11
27.4899999833
 21
-19.6914893389
  0
LINE
  5
5C2
100
AcDbEntity
  8
0
100
AcDbLine
 62
7
  6
CONTINUOUS
 10
32.25
 20
-20.7127659917
 11
32.04
 21
-20.7765957713
  0
LWPOLYLINE
  5
5C3
100
AcDbEntity
  8
0
100
AcDbPolyline
 62
7
  6
CONTINUOUS
 90
13
 70
0
 10
15.2837095244
 20
29.1803413321
 10
15.3543473928
 20
29.1851095945
 10
15.4198746813
 20
29.1961593937
 10
15.4802913897
 20
29.2134907295
 10
15.5359776813
 20
29.237176097
 10
15.586553393
 20
29.2671430012
 10
15.6308780348
 20
29.303173957
 10
15.6687746838
 20
29.3458443951
 10
15.700420263
 20
29.3945788849
 10
15.7252050517
 20
29.4474336488
 10
15.7429258097
 20
29.503760761
 10
15.7537857771
 20
29.5642081475
 10
15.7577849541
 20
29.628775808
  0
LWPOLYLINE
  5
5C4
100
AcDbEntity
  8
0
100
AcDbPolyline
 62
7
  6
CONTINUOUS
 90
3
 70
0
 10
15.2837095244
 20
29.2150709676
 10
15.354361753
 20
29.2198437112
 10
15.4198982284
 20
29.2308967481
  0
LWPOLYLINE
  5
5C5
100
AcDbEntity
  8
0
100
AcDbPolyline
 62
7
  6
CONTINUOUS
 90
13
 70
0
 10
9.7106814943
 20
29.1803413321
 10
9.7813193628
 20
29.1851095945
 10
9.8468466513
 20
29.1961593937
 10
9.9072633597
 20
29.2134907295
 10
9.9629496513
 20
29.237176097
 10
10.013525363
 20
29.2671430012
 10
10.0578500048
 20
29.303173957
 10
10.0957466538
 20
29.3458443951
 10
10.127392233
 20
29.3945788849
 10
10.1521770217
 20
29.4474336488
 10
10.1698977797
 20
29.503760761
 10
10.1807577471
 20
29.5642081475
 10
10.1847569241
 20
29.628775808
  0
LWPOLYLINE
  5
5C6
100
AcDbEntity
  8
0
100
AcDbPolyline
 62
7
  6
CONTINUOUS
 90
3
 70
0
 10
9.7106814943
 20
29.2150709676
 10
9.781333723
 20
29.2198437112
 10
9.8468701984
 20
29.2308967481
  0
LWPOLYLINE
  5
5C7
100
AcDbEntity
  8
0
100
AcDbPolyline
 62
7
  6
CONTINUOUS
 90
16
 70
0
 10
19.7538776642
 20
28.7048295655
 10
19.812407859
 20
28.7076444351
 10
19.8677167511
 20
28.7161586914
 10
19.9198043405
 20
28.7303723341
 10
19.9688993074
 20
28.7503476184
 10
20.0147729716
 20
28.7760222892
 10
20.0567392927
 20
28.8072095818
 10
20.0949226018
 20
28.8440672737
 10
20.1291985678
 20
28.8864375873
 10
20.1585081575
 20
28.9336604255
 10
20.1823264904
 20
28.9861175059
 10
20.2011784471
 20
29.0434271109
 10
20.2155796357
 20
29.1037839905
 10
20.2257019256
 20
29.1665863947
 10
20.2313734475
 20
29.2324360735
 10
20.2325942013
 20
29.3013330269
  0
LWPOLYLINE
  5
5C8
100
AcDbEntity
  8
0
100
AcDbPolyline
 62
7
  6
CONTINUOUS
 90
13
 70
0
 10
15.2191776802
 20
29.359715377
 10
15.2664285652
 20
29.3604755929
 10
15.3105958936
 20
29.3653515007
 10
15.3516796655
 20
29.3743431006
 10
15.3902129128
 20
29.3874432411
 10
15.4256626034
 20
29.4046590736
 10
15.4564296414
 20
29.4260120525
 10
15.482144041
 20
29.4519640363
 10
15.5031757879
 20
29.4820531665
 10
15.5190357433
 20
29.5149153209
 10
15.529560861
 20
29.5500957923
 10
15.5349141873
 20
29.588049288
 10
15.5350957221
 20
29.628775808
  0
LWPOLYLINE
  5
5C9
100
AcDbEntity
  8
0
100
AcDbPolyline
 62
7
  6
CONTINUOUS
 90
13
 70
0
 10
9.6461496502
 20
29.359715377
 10
9.6934005352
 20
29.3604755929
 10
9.7375678636
 20
29.3653515007
 10
9.7786516355
 20
29.3743431006
 10
9.8171848828
 20
29.3874432411
 10
9.8526345734
 20
29.4046590736
 10
9.8834016114
 20
29.4260120525
 10
9.909116011
 20
29.4519640363
 10
9.9301477579
 20
29.4820531665
 10
9.9460077133
 20
29.5149153209
 10
9.956532831
 20
29.5500957923
 10
9.9618861573
 20
29.588049288
 10
9.9620676921
 20
29.628775808
  0
LINE
  5
5CA
100
AcDbEntity
  8
ASSI
100
AcDbLine
 62
7
  6
CONTINUOUS
 10
-2.2
 20
28.2
 11
2.2
 21
28.2
  0
LINE
  5
5CB
100
AcDbEntity
  8
0
100
AcDbLine
 62
7
  6
CONTINUOUS
 10
8.990989
 20
28.5254555205
 11
9.207143
 21
28.5254555205
  0
LINE
  5
5CC
100
AcDbEntity
  8
0
100
AcDbLine
 62
7
  6
CONTINUOUS
 10
10.316847
 20
28.5254555205
 11
10.539698
 21
28.5254555205
  0
LINE
  5
5CD
100
AcDbEntity
  8
0
100
AcDbLine
 62
7
  6
CONTINUOUS
 10
11.506899
 20
28.5254555205
 11
11.743014
 21
28.5254555205
  0
LINE
  5
5CE
100
AcDbEntity
  8
0
100
AcDbLine
 62
7
  6
CONTINUOUS
 10
12.344609
 20
28.5254555205
 11
12.560764
 21
28.5254555205
  0
LINE
  5
5CF
100
AcDbEntity
  8
0
100
AcDbLine
 62
7
  6
CONTINUOUS
 10
13.327349
 20
28.5254555205
 11
13.559042
 21
28.5254555205
  0
LINE
  5
5D0
100
AcDbEntity
  8
0
100
AcDbLine
 62
7
  6
CONTINUOUS
 10
14.564017
 20
28.5254555205
 11
14.780171
 21
28.5254555205
  0
LINE
  5
5D1
100
AcDbEntity
  8
0
100
AcDbLine
 62
7
  6
CONTINUOUS
 10
16.050317
 20
28.5254555205
 11
17.231399
 21
28.5254555205
  0
LINE
  5
5D2
100
AcDbEntity
  8
0
100
AcDbLine
 62
7
  6
CONTINUOUS
 10
17.514384
 20
28.5254555205
 11
17.723843
 21
28.5254555205
  0
LINE
  5
5D3
100
AcDbEntity
  8
0
100
AcDbLine
 62
7
  6
CONTINUOUS
 10
18.541719
 20
28.5254555205
 11
18.78453
 21
28.5254555205
  0
LINE
  5
5D4
100
AcDbEntity
  8
0
100
AcDbLine
 62
7
  6
CONTINUOUS
 10
19.134344
 20
28.5254555205
 11
19.7828057844
 21
28.5254555205
  0
LINE
  5
5D5
100
AcDbEntity
  8
0
100
AcDbLine
 62
7
  6
CONTINUOUS
 10
20.756579
 20
28.5254555205
 11
20.988399
 21
28.5254555205
  0
LINE
  5
5D6
100
AcDbEntity
  8
0
100
AcDbLine
 62
7
  6
CONTINUOUS
 10
8.990989
 20
28.560185156
 11
9.207143
 21
28.560185156
  0
LINE
  5
5D7
100
AcDbEntity
  8
0
100
AcDbLine
 62
7
  6
CONTINUOUS
 10
10.330314073
 20
28.560185156
 11
10.539698
 21
28.560185156
  0
LINE
  5
5D8
100
AcDbEntity
  8
0
100
AcDbLine
 62
7
  6
CONTINUOUS
 10
11.506899
 20
28.560185156
 11
11.730047386
 21
28.560185156
  0
LINE
  5
5D9
100
AcDbEntity
  8
0
100
AcDbLine
 62
7
  6
CONTINUOUS
 10
12.344609
 20
28.560185156
 11
12.560764
 21
28.560185156
  0
LINE
  5
5DA
100
AcDbEntity
  8
0
100
AcDbLine
 62
7
  6
CONTINUOUS
 10
13.327349
 20
28.560185156
 11
13.559042
 21
28.560185156
  0
LINE
  5
5DB
100
AcDbEntity
  8
0
100
AcDbLine
 62
7
  6
CONTINUOUS
 10
14.564017
 20
28.560185156
 11
14.780171
 21
28.560185156
  0
LINE
  5
5DC
100
AcDbEntity
  8
0
100
AcDbLine
 62
7
  6
CONTINUOUS
 10
16.050317
 20
28.560185156
 11
17.231399
 21
28.560185156
  0
LINE
  5
5DD
100
AcDbEntity
  8
0
100
AcDbLine
 62
7
  6
CONTINUOUS
 10
17.514384
 20
28.560185156
 11
17.723843
 21
28.560185156
  0
LINE
  5
5DE
100
AcDbEntity
  8
0
100
AcDbLine
 62
7
  6
CONTINUOUS
 10
18.541719
 20
28.560185156
 11
18.78453
 21
28.560185156
  0
LINE
  5
5DF
100
AcDbEntity
  8
0
100
AcDbLine
 62
7
  6
CONTINUOUS
 10
19.134344
 20
28.560185156
 11
19.782808566
 21
28.560185156
  0
LINE
  5
5E0
100
AcDbEntity
  8
0
100
AcDbLine
 62
7
  6
CONTINUOUS
 10
20.756579
 20
28.560185156
 11
20.988399
 21
28.560185156
  0
LINE
  5
5E1
100
AcDbEntity
  8
0
100
AcDbLine
 62
7
  6
CONTINUOUS
 10
-3.39058809
 20
28.65
 11
3.39058809
 21
28.65
  0
LINE
  5
5E2
100
AcDbEntity
  8
0
100
AcDbLine
 62
7
  6
CONTINUOUS
 10
19.7538776642
 20
28.7048295655
 11
19.350499
 21
28.7048295655
  0
LINE
  5
5E3
100
AcDbEntity
  8
0
100
AcDbLine
 62
7
  6
CONTINUOUS
 10
17.231399
 20
28.7113236564
 11
16.266472
 21
28.7113236564
  0
LINE
  5
5E4
100
AcDbEntity
  8
0
100
AcDbLine
 62
7
  6
CONTINUOUS
 10
20.988399
 20
28.7545739526
 11
20.756579
 21
28.7545739526
  0
LINE
  5
5E5
100
AcDbEntity
  8
0
100
AcDbLine
 62
7
  6
CONTINUOUS
 10
13.559042
 20
28.7545739526
 11
13.327349
 21
28.7545739526
  0
LINE
  5
5E6
100
AcDbEntity
  8
0
100
AcDbLine
 62
7
  6
CONTINUOUS
 10
-18.342945
 20
28.9363076336
 11
-16.882444
 21
28.9363076336
  0
LINE
  5
5E7
100
AcDbEntity
  8
0
100
AcDbLine
 62
7
  6
CONTINUOUS
 10
-18.342945
 20
28.9710372691
 11
-16.882444
 21
28.9710372691
  0
LINE
  5
5E8
100
AcDbEntity
  8
0
100
AcDbLine
 62
7
  6
CONTINUOUS
 10
10.706835
 20
28.9771982937
 11
11.348604
 21
28.9771982937
  0
LINE
  5
5E9
100
AcDbEntity
  8
0
100
AcDbLine
 62
7
  6
CONTINUOUS
 10
10.706835
 20
29.0119279293
 11
11.348604
 21
29.0119279293
  0
LINE
  5
5EA
100
AcDbEntity
  8
0
100
AcDbLine
 62
7
  6
CONTINUOUS
 10
11.270531
 20
29.1630654597
 11
10.773665
 21
29.1630654597
  0
LINE
  5
5EB
100
AcDbEntity
  8
0
100
AcDbLine
 62
7
  6
CONTINUOUS
 10
9.207143
 20
29.1803413321
 11
9.7106814943
 21
29.1803413321
  0
LINE
  5
5EC
100
AcDbEntity
  8
0
100
AcDbLine
 62
7
  6
CONTINUOUS
 10
14.780171
 20
29.1803413321
 11
15.2837095244
 21
29.1803413321
  0
LINE
  5
5ED
100
AcDbEntity
  8
0
100
AcDbLine
 62
7
  6
CONTINUOUS
 10
9.207143
 20
29.2150709676
 11
9.7106814943
 21
29.2150709676
  0
LINE
  5
5EE
100
AcDbEntity
  8
0
100
AcDbLine
 62
7
  6
CONTINUOUS
 10
14.780171
 20
29.2150709676
 11
15.2837095244
 21
29.2150709676
  0
LINE
  5
5EF
100
AcDbEntity
  8
0
100
AcDbLine
 62
7
  6
CONTINUOUS
 10
16.266472
 20
29.2299635185
 11
17.142335
 21
29.2299635185
  0
LINE
  5
5F0
100
AcDbEntity
  8
0
100
AcDbLine
 62
7
  6
CONTINUOUS
 10
16.266472
 20
29.2646931541
 11
17.142335
 21
29.2646931541
  0
LINE
  5
5F1
100
AcDbEntity
  8
0
100
AcDbLine
 62
7
  6
CONTINUOUS
 10
15.2191776802
 20
29.359715377
 11
14.780171
 21
29.359715377
  0
LINE
  5
5F2
100
AcDbEntity
  8
0
100
AcDbLine
 62
7
  6
CONTINUOUS
 10
9.6461496502
 20
29.359715377
 11
9.207143
 21
29.359715377
  0
LINE
  5
5F3
100
AcDbEntity
  8
0
100
AcDbLine
 62
7
  6
CONTINUOUS
 10
17.142335
 20
29.4158306845
 11
16.266472
 21
29.4158306845
  0
LINE
  5
5F4
100
AcDbEntity
  8
0
100
AcDbLine
 62
7
  6
CONTINUOUS
 10
-16.882444
 20
29.6636923664
 11
-18.342948112
 21
29.6636923664
  0
LINE
  5
5F5
100
AcDbEntity
  8
0
100
AcDbLine
 62
7
  6
CONTINUOUS
 10
11.803148
 20
29.8913424511
 11
12.344609
 21
29.8913424511
  0
LINE
  5
5F6
100
AcDbEntity
  8
0
100
AcDbLine
 62
7
  6
CONTINUOUS
 10
12.560764
 20
29.8913424511
 11
13.102224
 21
29.8913424511
  0
LINE
  5
5F7
100
AcDbEntity
  8
0
100
AcDbLine
 62
7
  6
CONTINUOUS
 10
16.266472
 20
29.8913424511
 11
17.21586
 21
29.8913424511
  0
LINE
  5
5F8
100
AcDbEntity
  8
0
100
AcDbLine
 62
7
  6
CONTINUOUS
 10
9.207143
 20
29.897836542
 11
9.6461469039
 21
29.897836542
  0
LINE
  5
5F9
100
AcDbEntity
  8
0
100
AcDbLine
 62
7
  6
CONTINUOUS
 10
14.780171
 20
29.897836542
 11
15.2191749339
 21
29.897836542
  0
LINE
  5
5FA
100
AcDbEntity
  8
0
100
AcDbLine
 62
7
  6
CONTINUOUS
 10
19.350499
 20
29.897836542
 11
19.753877318
 21
29.897836542
  0
LINE
  5
5FB
100
AcDbEntity
  8
0
100
AcDbLine
 62
7
  6
CONTINUOUS
 10
11.803148
 20
29.9260720867
 11
12.344609
 21
29.9260720867
  0
LINE
  5
5FC
100
AcDbEntity
  8
0
100
AcDbLine
 62
7
  6
CONTINUOUS
 10
12.560764
 20
29.9260720867
 11
13.102224
 21
29.9260720867
  0
LINE
  5
5FD
100
AcDbEntity
  8
0
100
AcDbLine
 62
7
  6
CONTINUOUS
 10
16.266472
 20
29.9260720867
 11
17.21586
 21
29.9260720867
  0
LINE
  5
5FE
100
AcDbEntity
  8
0
100
AcDbLine
 62
7
  6
CONTINUOUS
 10
9.207143
 20
29.9325661776
 11
9.6461484791
 21
29.9325661776
  0
LINE
  5
5FF
100
AcDbEntity
  8
0
100
AcDbLine
 62
7
  6
CONTINUOUS
 10
14.780171
 20
29.9325661776
 11
15.2191765091
 21
29.9325661776
  0
LINE
  5
600
100
AcDbEntity
  8
0
100
AcDbLine
 62
7
  6
CONTINUOUS
 10
19.350499
 20
29.9325661776
 11
19.7538784436
 21
29.9325661776
  0
LINE
  5
601
100
AcDbEntity
  8
0
100
AcDbLine
 62
7
  6
CONTINUOUS
 10
19.7828113496
 20
30.0772096171
 11
19.134344
 21
30.0772096171
  0
LINE
  5
602
100
AcDbEntity
  8
0
100
AcDbLine
 62
7
  6
CONTINUOUS
 10
18.78453
 20
30.0772096171
 11
18.575071
 21
30.0772096171
  0
LINE
  5
603
100
AcDbEntity
  8
0
100
AcDbLine
 62
7
  6
CONTINUOUS
 10
17.770712
 20
30.0772096171
 11
17.514384
 21
30.0772096171
  0
LINE
  5
604
100
AcDbEntity
  8
0
100
AcDbLine
 62
7
  6
CONTINUOUS
 10
17.21586
 20
30.0772096171
 11
16.050317
 21
30.0772096171
  0
LINE
  5
605
100
AcDbEntity
  8
0
100
AcDbLine
 62
7
  6
CONTINUOUS
 10
15.2837821905
 20
30.0772096171
 11
14.564017
 21
30.0772096171
  0
LINE
  5
606
100
AcDbEntity
  8
0
100
AcDbLine
 62
7
  6
CONTINUOUS
 10
13.102224
 20
30.0772096171
 11
11.803148
 21
30.0772096171
  0
LINE
  5
607
100
AcDbEntity
  8
0
100
AcDbLine
 62
7
  6
CONTINUOUS
 10
11.163653
 20
30.0772096171
 11
10.918569
 21
30.0772096171
  0
LINE
  5
608
100
AcDbEntity
  8
0
100
AcDbLine
 62
7
  6
CONTINUOUS
 10
9.7107541605
 20
30.0772096171
 11
8.990989
 21
30.0772096171
  0
LINE
  5
609
100
AcDbEntity
  8
ASSI
100
AcDbLine
 62
7
  6
CONTINUOUS
 10
27.781859
 20
13.247655
 11
29.051602
 21
12.177635
  0
LINE
  5
60A
100
AcDbEntity
  8
ASSI
100
AcDbLine
 62
7
  6
CONTINUOUS
 10
29.051602
 20
12.762838
 11
27.723252
 21
13.882247
  0
LINE
  5
60B
100
AcDbEntity
  8
RACCORDO
100
AcDbLine
 62
7
  6
CONTINUOUS
 10
14.0364684712
 20
24.2980026566
 11
14.0086507125
 21
24.3258204153
  0
LINE
  5
60C
100
AcDbEntity
  8
RACCORDO
100
AcDbLine
 62
7
  6
CONTINUOUS
 10
29.9133974596
 20
5.3
 11
29.7020725711
 21
5.6660254437
  0
LINE
  5
60D
100
AcDbEntity
  8
RACCORDO
100
AcDbLine
 62
250
  6
CONTINUOUS
 10
28.3234980271
 20
5.2481854052
 11
28.4337640632
 21
5.0477017032
  0
LINE
  5
60E
100
AcDbEntity
  8
0
100
AcDbLine
 62
7
  6
CONTINUOUS
 10
30.7099998665
 20
-22.5
 11
30.7099998665
 21
-21.1595744491
  0
LINE
  5
60F
100
AcDbEntity
  8
0
100
AcDbLine
 62
7
  6
CONTINUOUS
 10
30.7099998665
 20
-20.7765957713
 11
30.7099998665
 21
-19.8191488981
  0
LINE
  5
610
100
AcDbEntity
  8
0
100
AcDbLine
 62
7
  6
CONTINUOUS
 10
31.35
 20
3.1894527801
 11
31.35
 21
-3.1894527801
  0
LINE
  5
611
100
AcDbEntity
  8
ASSI
100
AcDbLine
 62
7
  6
CONTINUOUS
 10
31.8
 20
-2.0
 11
31.8
 21
2.0
  0
LINE
  5
612
100
AcDbEntity
  8
0
100
AcDbLine
 62
7
  6
CONTINUOUS
 10
32.46
 20
-20.2021275759
 11
32.46
 21
-20.3936170936
  0
LINE
  5
613
100
AcDbEntity
  8
0
100
AcDbLine
 62
7
  6
CONTINUOUS
 10
32.88
 20
-20.4574468732
 11
32.88
 21
-20.2021275759
  0
LINE
  5
614
100
AcDbEntity
  8
ASSI
100
AcDbLine
 62
7
  6
CONTINUOUS
 10
33.1
 20
-2.2
 11
33.1
 21
2.2
  0
LINE
  5
615
100
AcDbEntity
  8
DRAFT
100
AcDbLine
 62
7
  6
CONTINUOUS
 10
33.25
 20
-2.2
 11
33.25
 21
2.2
  0
LINE
  5
616
100
AcDbEntity
  8
RACCORDO
100
AcDbLine
 62
7
  6
CONTINUOUS
 10
33.2788138948
 20
2.2
 11
33.2788138948
 21
-2.2
  0
LINE
  5
617
100
AcDbEntity
  8
RACCORDO
100
AcDbLine
 62
250
  6
CONTINUOUS
 10
33.4788062794
 20
2.2
 11
33.4788062794
 21
-2.2
  0
LINE
  5
618
100
AcDbEntity
  8
RACCORDO
100
AcDbLine
 62
7
  6
CONTINUOUS
 10
33.5
 20
15.25
 11
33.5
 21
7.75
  0
LINE
  5
619
100
AcDbEntity
  8
RACCORDO
100
AcDbLine
 62
7
  6
CONTINUOUS
 10
33.5
 20
-7.75
 11
33.5
 21
-15.25
  0
LINE
  5
61A
100
AcDbEntity
  8
0
100
AcDbLine
 62
7
  6
CONTINUOUS
 10
27.0700000021
 20
-20.2021275759
 11
27.0
 21
-20.5212766528
  0
LINE
  5
61B
100
AcDbEntity
  8
0
100
AcDbLine
 62
7
  6
CONTINUOUS
 10
27.42
 20
-20.5212766528
 11
27.4899999833
 21
-20.2659575343
  0
LINE
  5
61C
100
AcDbEntity
  8
0
100
AcDbLine
 62
7
  6
CONTINUOUS
 10
27.21
 20
-19.9468084574
 11
27.0700000021
 21
-20.2021275759
  0
LINE
  5
61D
100
AcDbEntity
  8
0
100
AcDbLine
 62
7
  6
CONTINUOUS
 10
27.4899999833
 20
-20.2659575343
 11
27.63
 21
-20.0744680166
  0
LINE
  5
61E
100
AcDbEntity
  8
RACCORDO
100
AcDbLine
 62
7
  6
CONTINUOUS
 10
38.4711861052
 20
-5.5288138948
 11
38.5
 21
-5.5
  0
LINE
  5
61F
100
AcDbEntity
  8
0
100
AcDbLine
 62
7
  6
CONTINUOUS
 10
27.4899999833
 20
-19.6914893389
 11
27.21
 21
-19.9468084574
  0
LINE
  5
620
100
AcDbEntity
  8
0
100
AcDbLine
 62
7
  6
CONTINUOUS
 10
27.63
 20
-20.0744680166
 11
27.84
 21
-19.9468084574
  0
LINE
  5
621
100
AcDbEntity
  8
0
100
AcDbLine
 62
7
  6
CONTINUOUS
 10
29.2400000668
 20
-21.925531894
 11
29.0300000668
 21
-22.0531914979
  0
LINE
  5
622
100
AcDbEntity
  8
0
100
AcDbLine
 62
7
  6
CONTINUOUS
 10
29.1
 20
-22.4361702148
 11
29.3799999332
 21
-22.3085106388
  0
LINE
  5
623
100
AcDbEntity
  8
0
100
AcDbLine
 62
7
  6
CONTINUOUS
 10
32.3200001335
 20
-21.0319148898
 11
32.5999998665
 21
-20.9042553306
  0
LWPOLYLINE
  5
624
100
AcDbEntity
  8
RACCORDO
100
AcDbPolyline
 62
250
  6
CONTINUOUS
 90
37
 70
0
 10
-2.2
 20
33.2736708559
 10
-2.4818569846
 20
33.2614929968
 10
-2.7618736517
 20
33.2250081375
 10
-3.0379474882
 20
33.1644215224
 10
-3.3079327131
 20
33.0801424655
 10
-3.5698499124
 20
32.9727289211
 10
-3.8218808732
 20
32.8428305657
 10
-4.0620977891
 20
32.6913027822
 10
-4.2885922131
 20
32.5192063862
 10
-4.4996525924
 20
32.3276851432
 10
-4.6936109002
 20
32.1180472164
 10
-4.8688356133
 20
31.891834454
 10
-5.0238425658
 20
31.650755428
 10
-5.157350212
 20
31.3965572997
 10
-5.2681901722
 20
31.1311814096
 10
-5.3553450957
 20
30.8568283016
 10
-5.4180737331
 20
30.5755663982
 10
-5.4558022004
 20
30.2896040362
 10
-5.4681739129
 20
30.0014726716
 10
-5.4550987879
 20
29.7133986925
 10
-5.4166848859
 20
29.4276421582
 10
-5.353345236
 20
29.1467750212
 10
-5.2656923082
 20
28.8730067518
 10
-5.1544916427
 20
28.608366641
 10
-5.0208009344
 20
28.3550163021
 10
-4.8658482799
 20
28.1149228439
 10
-4.6908948718
 20
27.8897338879
 10
-4.4972865818
 20
27.6809553874
 10
-4.2865540375
 20
27.4900798529
 10
-4.0603782855
 20
27.3184876302
 10
-3.8204590953
 20
27.1673383317
 10
-3.5686319232
 20
27.037688374
 10
-3.3068367559
 20
26.930443957
 10
-3.0370280148
 20
26.8463159895
 10
-2.7612293591
 20
26.7858588234
 10
-2.4815234894
 20
26.7494572823
 10
-2.2
 20
26.7373104138
  0
LINE
  5
625
100
AcDbEntity
  8
RACCORDO
100
AcDbLine
 62
7
  6
CONTINUOUS
 10
-2.3813791011
 20
33.4962168839
 11
-2.5875215975
 21
33.4925490811
  0
LINE
  5
626
100
AcDbEntity
  8
RACCORDO
100
AcDbLine
 62
7
  6
CONTINUOUS
 10
-2.3221003053
 20
33.4969840051
 11
-2.3813791011
 21
33.4962168839
  0
LINE
  5
627
100
AcDbEntity
  8
RACCORDO
100
AcDbLine
 62
7
  6
CONTINUOUS
 10
-2.5875215975
 20
33.4925490811
 11
-2.6204938322
 21
33.4921389916
  0
LINE
  5
628
100
AcDbEntity
  8
RACCORDO
100
AcDbLine
 62
7
  6
CONTINUOUS
 10
-2.2553914281
 20
33.4975082165
 11
-2.3221003053
 21
33.4969840051
  0
LINE
  5
629
100
AcDbEntity
  8
RACCORDO
100
AcDbLine
 62
7
  6
CONTINUOUS
 10
-2.6204938322
 20
33.4921389916
 11
-2.651826247
 21
33.4919256151
  0
LINE
  5
62A
100
AcDbEntity
  8
0
100
AcDbLine
 62
7
  6
CONTINUOUS
 10
-3.39058809
 20
31.35
 11
3.39058809
 21
31.35
  0
LINE
  5
62B
100
AcDbEntity
  8
ASSI
100
AcDbLine
 62
7
  6
CONTINUOUS
 10
2.2
 20
31.8
 11
-2.2
 21
31.8
  0
LINE
  5
62C
100
AcDbEntity
  8
DRAFT
100
AcDbLine
 62
7
  6
CONTINUOUS
 10
2.2
 20
33.25
 11
-2.2
 21
33.25
  0
LINE
  5
62D
100
AcDbEntity
  8
RACCORDO
100
AcDbLine
 62
7
  6
CONTINUOUS
 10
-2.2
 20
33.2736708559
 11
2.2
 21
33.2736708559
  0
LINE
  5
62E
100
AcDbEntity
  8
RACCORDO
100
AcDbLine
 62
7
  6
CONTINUOUS
 10
-25.3
 20
33.4918713663
 11
-2.651826247
 21
33.4919256151
  0
LINE
  5
62F
100
AcDbEntity
  8
RACCORDO
100
AcDbLine
 62
7
  6
CONTINUOUS
 10
2.1999999986
 20
33.4976513105
 11
-2.2553914281
 21
33.4975082165
  0
LWPOLYLINE
  5
630
100
AcDbEntity
  8
0
100
AcDbPolyline
 62
7
  6
CONTINUOUS
 90
18
 70
0
 10
-20.867554
 20
31.043027186
 10
-21.049301739
 20
31.0434026853
 10
-21.2266570281
 20
31.0272806743
 10
-21.3996198675
 20
30.994661153
 10
-21.5697048925
 20
30.9449298729
 10
-21.7353974676
 20
30.8787010826
 10
-21.8921536869
 20
30.7978175274
 10
-22.039871088
 20
30.7017263777
 10
-22.1786521332
 20
30.5909804631
 10
-22.3042603037
 20
30.4690810173
 10
-22.4161601177
 20
30.3357777063
 10
-22.5148870569
 20
30.191320864
 10
-22.597811048
 20
30.0399627259
 10
-22.6644701839
 20
29.8815609092
 10
-22.7153263715
 20
29.7162577965
 10
-22.749135259
 20
29.5487327722
 10
-22.7654408004
 20
29.3789493863
 10
-22.7675539234
 20
29.2999368109
  0
LWPOLYLINE
  5
631
100
AcDbEntity
  8
0
100
AcDbPolyline
 62
7
  6
CONTINUOUS
 90
17
 70
0
 10
-20.867554
 20
31.0777568215
 10
-21.0493017357
 20
31.078132321
 10
-21.2266570218
 20
31.0620103107
 10
-21.3996198584
 20
31.0293907907
 10
-21.5697048806
 20
30.9796595126
 10
-21.7353974532
 20
30.9134307247
 10
-21.8921536705
 20
30.8325471724
 10
-22.03987107
 20
30.7364560262
 10
-22.1786521141
 20
30.6257101155
 10
-22.3042602841
 20
30.5038106739
 10
-22.4161600983
 20
30.3705073673
 10
-22.5148870385
 20
30.2260505297
 10
-22.5978110312
 20
30.0746923963
 10
-22.6644701695
 20
29.9162905841
 10
-22.7153263604
 20
29.7509874761
 10
-22.7491352519
 20
29.583462456
 10
-22.765440798
 20
29.4136790739
  0
LINE
  5
632
100
AcDbEntity
  8
RACCORDO
100
AcDbLine
 62
7
  6
CONTINUOUS
 10
25.3
 20
33.4918713663
 11
2.6510135549
 21
33.4919127951
  0
LINE
  5
633
100
AcDbEntity
  8
RACCORDO
100
AcDbLine
 62
7
  6
CONTINUOUS
 10
2.2579194274
 20
33.4975019834
 11
2.1999999986
 21
33.4976513105
  0
LWPOLYLINE
  5
634
100
AcDbEntity
  8
0
100
AcDbPolyline
 62
7
  6
CONTINUOUS
 90
16
 70
0
 10
-16.482444
 20
31.043027186
 10
-16.6547773671
 20
31.0440733082
 10
-16.8237853087
 20
31.0298717623
 10
-16.9894678249
 20
31.0004225482
 10
-17.1533923684
 20
30.9551719633
 10
-17.3139914865
 20
30.8946737103
 10
-17.4665628201
 20
30.820588897
 10
-17.6107663177
 20
30.7324744042
 10
-17.7469420308
 20
30.6307733512
 10
-17.8714077549
 20
30.5184762039
 10
-17.9837501554
 20
30.3952636329
 10
-18.0843825668
 20
30.2614549677
 10
-18.1708627883
 20
30.120998663
 10
-18.2423767528
 20
29.9752108703
 10
-18.2997385274
 20
29.8227754381
 10
-18.342948112
 20
29.6636923664
  0
LWPOLYLINE
  5
635
100
AcDbEntity
  8
0
100
AcDbPolyline
 62
7
  6
CONTINUOUS
 90
16
 70
0
 10
-16.482444
 20
31.0777568215
 10
-16.6547773679
 20
31.0788029437
 10
-16.8237853102
 20
31.0646013976
 10
-16.9894678269
 20
31.0351521833
 10
-17.1533923709
 20
30.9899015981
 10
-17.3139914892
 20
30.9294033447
 10
-17.4665628233
 20
30.8553185308
 10
-17.6107663215
 20
30.7672040373
 10
-17.7469420354
 20
30.6655029832
 10
-17.8714077605
 20
30.5532058339
 10
-17.9837501629
 20
30.429993258
 10
-18.0843825766
 20
30.2961845869
 10
-18.1708627986
 20
30.1557282797
 10
-18.2423767614
 20
30.0099404898
 10
-18.2997385325
 20
29.8575050638
 10
-18.342948112
 20
29.6984220019
  0
LINE
  5
636
100
AcDbEntity
  8
RACCORDO
100
AcDbLine
 62
7
  6
CONTINUOUS
 10
2.6510135549
 20
33.4919127951
 11
2.6246880479
 21
33.4920804737
  0
LINE
  5
637
100
AcDbEntity
  8
RACCORDO
100
AcDbLine
 62
7
  6
CONTINUOUS
 10
2.3109693965
 20
33.4971019654
 11
2.2579194274
 21
33.4975019834
  0
LINE
  5
638
100
AcDbEntity
  8
RACCORDO
100
AcDbLine
 62
7
  6
CONTINUOUS
 10
2.3747963392
 20
33.49631842
 11
2.3109693965
 21
33.4971019654
  0
LINE
  5
639
100
AcDbEntity
  8
RACCORDO
100
AcDbLine
 62
7
  6
CONTINUOUS
 10
2.6246880479
 20
33.4920804737
 11
2.5881532779
 21
33.4925262205
  0
LINE
  5
63A
100
AcDbEntity
  8
RACCORDO
100
AcDbLine
 62
7
  6
CONTINUOUS
 10
2.5881532779
 20
33.4925262205
 11
2.3747963392
 21
33.49631842
  0
LWPOLYLINE
  5
63B
100
AcDbEntity
  8
0
100
AcDbPolyline
 62
7
  6
CONTINUOUS
 90
15
 70
0
 10
19.7828113496
 20
30.0772096171
 10
19.8644623047
 20
30.0715971679
 10
19.9414778082
 20
30.0589237693
 10
20.0138578601
 20
30.0391894215
 10
20.0819720025
 20
30.0121974025
 10
20.1454506933
 20
29.9781444342
 10
20.2031853062
 20
29.9376206824
 10
20.2547358351
 20
29.8908001713
 10
20.3005422861
 20
29.8375088767
 10
20.3408160513
 20
29.7778148924
 10
20.3760614631
 20
29.711148237
 10
20.4057741891
 20
29.6380788917
 10
20.4286526243
 20
29.5603848944
 10
20.4442629005
 20
29.478658924
 10
20.4530388859
 20
29.3923083015
  0
LWPOLYLINE
  5
63C
100
AcDbEntity
  8
RACCORDO
100
AcDbPolyline
 62
250
  6
CONTINUOUS
 90
40
 70
0
 10
2.6589716788
 20
33.4918713663
 10
2.932654158
 20
33.4451205269
 10
3.1987536815
 20
33.3787353402
 10
3.4572702492
 20
33.2927158062
 10
3.7095670858
 20
33.1863350259
 10
3.9542809665
 20
33.0603198984
 10
4.1873222176
 20
32.9168511208
 10
4.4085126407
 20
32.7556986197
 10
4.6180304342
 20
32.5770924685
 10
4.8123205189
 20
32.3839035853
 10
4.991205365
 20
32.1758620806
 10
5.1548625024
 20
31.9532378438
 10
5.3002694419
 20
31.7197114603
 10
5.427160444
 20
31.4750092347
 10
5.5358012483
 20
31.2194048623
 10
5.6239665845
 20
30.9574000142
 10
5.6912645124
 20
30.6887587681
 10
5.7380869722
 20
30.4137170464
 10
5.7633845149
 20
30.1374842868
 10
5.7666661569
 20
29.860007416
 10
5.7484228817
 20
29.5813395073
 10
5.7090781911
 20
29.3068492191
 10
5.6481914408
 20
29.0367195857
 10
5.5662032749
 20
28.7707675728
 10
5.4648591274
 20
28.5138127355
 10
5.3438408243
 20
28.2661113194
 10
5.2034665395
 20
28.0274070791
 10
5.0464362283
 20
27.8017508331
 10
4.8725467118
 20
27.5894193468
 10
4.682001169
 20
27.3901358549
 10
4.4781090914
 20
27.2071208801
 10
4.2606771987
 20
27.0406075425
 10
4.0298987714
 20
26.890362722
 10
3.7896631419
 20
26.7589075809
 10
3.539689969
 20
26.6465112082
 10
3.280259594
 20
26.5529045149
 10
3.0161023738
 20
26.4798013963
 10
2.7487950943
 20
26.4277731507
 10
2.4767609697
 20
26.3962484798
 10
2.2
 20
26.3852273835
  0
LINE
  5
63D
100
AcDbEntity
  8
RACCORDO
100
AcDbLine
 62
7
  6
CONTINUOUS
 10
38.4711861052
 20
5.5288138948
 11
38.5
 21
5.5
  0
LINE
  5
63E
100
AcDbEntity
  8
0
100
AcDbLine
 62
7
  6
CONTINUOUS
 10
17.723843
 20
29.7858028058
 11
18.541719
 21
28.5254555205
  0
LINE
  5
63F
100
AcDbEntity
  8
0
100
AcDbLine
 62
7
  6
CONTINUOUS
 10
17.723843
 20
29.8205324413
 11
18.541719
 21
28.560185156
  0
LINE
  5
640
100
AcDbEntity
  8
0
100
AcDbLine
 62
7
  6
CONTINUOUS
 10
18.575071
 20
28.81674789
 11
17.770712
 21
30.0772096171
  0
LINE
  5
641
100
AcDbEntity
  8
ASSI
100
AcDbLine
 62
7
  6
CONTINUOUS
 10
30.17593
 20
10.739375
 11
30.393299
 21
10.352094
  0
LINE
  5
642
100
AcDbEntity
  8
RACCORDO
100
AcDbLine
 62
7
  6
CONTINUOUS
 10
35.0
 20
-15.25
 11
35.0
 21
-1.7320508076
  0
LINE
  5
643
100
AcDbEntity
  8
RACCORDO
100
AcDbLine
 62
7
  6
CONTINUOUS
 10
35.0
 20
1.7320508076
 11
35.0
 21
15.25
  0
LINE
  5
644
100
AcDbEntity
  8
RACCORDO
100
AcDbLine
 62
7
  6
CONTINUOUS
 10
36.8
 20
25.8
 11
36.8
 21
8.2
  0
LINE
  5
645
100
AcDbEntity
  8
RACCORDO
100
AcDbLine
 62
7
  6
CONTINUOUS
 10
36.8
 20
-8.2
 11
36.8
 21
-25.8
  0
LINE
  5
646
100
AcDbEntity
  8
0
100
AcDbLine
 62
7
  6
CONTINUOUS
 10
29.6600000668
 20
-22.0531914979
 11
29.73
 21
-21.7978723347
  0
LINE
  5
647
100
AcDbEntity
  8
0
100
AcDbLine
 62
7
  6
CONTINUOUS
 10
29.31
 20
-21.7340425551
 11
29.2400000668
 21
-21.925531894
  0
LINE
  5
648
100
AcDbEntity
  8
0
100
AcDbLine
 62
7
  6
CONTINUOUS
 10
32.46
 20
-20.3936170936
 11
32.3899998665
 21
-20.5851064324
  0
LINE
  5
649
100
AcDbEntity
  8
0
100
AcDbLine
 62
7
  6
CONTINUOUS
 10
32.8099998665
 20
-20.6489362121
 11
32.88
 21
-20.4574468732
  0
LINE
  5
64A
100
AcDbEntity
  8
0
100
AcDbLine
 62
7
  6
CONTINUOUS
 10
29.3799999332
 20
-22.3085106388
 11
29.6600000668
 21
-22.0531914979
  0
LINE
  5
64B
100
AcDbEntity
  8
0
100
AcDbLine
 62
7
  6
CONTINUOUS
 10
32.3899998665
 20
-20.5851064324
 11
32.25
 21
-20.7127659917
  0
LWPOLYLINE
  5
64C
100
AcDbEntity
  8
0
100
AcDbPolyline
 62
7
  6
CONTINUOUS
 90
12
 70
0
 10
21.1393507907
 20
-29.7771332602
 10
21.2418496801
 20
-29.7278195066
 10
21.335809774
 20
-29.6693762763
 10
21.4212310724
 20
-29.601803569
 10
21.499027771
 20
-29.5239766835
 10
21.568285674
 20
-29.4370203212
 10
21.626262195
 20
-29.3443085862
 10
21.6724661536
 20
-29.2455701742
 10
21.7073887301
 20
-29.1410763895
 10
21.7297608789
 20
-29.0350152494
 10
21.7390963464
 20
-28.9274561828
 10
21.7397639239
 20
-28.8995271842
  0
LWPOLYLINE
  5
64D
100
AcDbEntity
  8
RACCORDO
100
AcDbPolyline
 62
250
  6
CONTINUOUS
 90
28
 70
0
 10
-29.8523670977
 20
36.5386624453
 10
-30.4303844511
 20
36.5217273603
 10
-31.0070829776
 20
36.4713491813
 10
-31.5805266786
 20
36.3875797263
 10
-32.1488784757
 20
36.2705642651
 10
-32.7101039471
 20
36.1205888583
 10
-33.2619927782
 20
35.9381358493
 10
-33.8026976392
 20
35.7237407524
 10
-34.3303304544
 20
35.4780783321
 10
-34.8427102689
 20
35.2021195622
 10
-35.338007062
 20
34.8968648031
 10
-35.8146519557
 20
34.5632997201
 10
-36.2709787313
 20
34.2025964858
 10
-36.7053962147
 20
33.8160384924
 10
-37.1165074976
 20
33.4048990607
 10
-37.5030363268
 20
32.9704544186
 10
-37.8637116962
 20
32.5140983059
 10
-38.1972474736
 20
32.0374247995
 10
-38.5024655518
 20
31.5421103896
 10
-38.7783813932
 20
31.0297261965
 10
-39.023997266
 20
30.5021019214
 10
-39.2383415657
 20
29.9614263804
 10
-39.4207412388
 20
29.4095937258
 10
-39.5706663365
 20
28.8484465917
 10
-39.687639514
 20
28.2801865943
 10
-39.7713769772
 20
27.7068446116
 10
-39.8217346286
 20
27.1302597809
 10
-39.8386624453
 20
26.5523670977
  0
LWPOLYLINE
  5
64E
100
AcDbEntity
  8
RACCORDO
100
AcDbPolyline
 62
250
  6
CONTINUOUS
 90
28
 70
0
 10
-29.8523670977
 20
35.0407181432
 10
-30.3456221797
 20
35.0264313448
 10
-30.8347464025
 20
34.983932819
 10
-31.3197397663
 20
34.9132225659
 10
-31.8024007704
 20
34.8139296788
 10
-32.2809309154
 20
34.6864250644
 10
-32.7499347032
 20
34.5318214425
 10
-33.2092439129
 20
34.3497649107
 10
-33.6590267655
 20
34.1406093714
 10
-34.0943924247
 20
33.9065292517
 10
-34.515090394
 20
33.6472765499
 10
-34.9213711701
 20
33.3630992677
 10
-35.3090954065
 20
33.0569158381
 10
-35.6780319995
 20
32.7285512999
 10
-36.028412053
 20
32.3781806143
 10
-36.3567895314
 20
32.0092470979
 10
-36.6629912701
 20
31.6215142775
 10
-36.9471904339
 20
31.2152186264
 10
-37.2064604817
 20
30.7945128803
 10
-37.4405500086
 20
30.3591482911
 10
-37.6497104196
 20
29.909373607
 10
-37.8317693881
 20
29.4500878086
 10
-37.9863705873
 20
28.981148722
 10
-38.1138703441
 20
28.5026985211
 10
-38.2131653127
 20
28.020062708
 10
-38.2838877111
 20
27.5350164501
 10
-38.3264053212
 20
27.04578458
 10
-38.3407181432
 20
26.5523670977
  0
LINE
  5
64F
100
AcDbEntity
  8
RACCORDO
100
AcDbLine
 62
250
  6
CONTINUOUS
 10
29.8523670977
 20
35.0407181432
 11
-29.8523670977
 21
35.0407181432
  0
LINE
  5
650
100
AcDbEntity
  8
RACCORDO
100
AcDbLine
 62
250
  6
CONTINUOUS
 10
29.8523670977
 20
36.5386624453
 11
-29.8523670977
 21
36.5386624453
  0
LINE
  5
651
100
AcDbEntity
  8
RACCORDO
100
AcDbLine
 62
7
  6
CONTINUOUS
 10
30.0137046525
 20
36.7
 11
-30.0137046525
 21
36.7
  0
LWPOLYLINE
  5
652
100
AcDbEntity
  8
RACCORDO
100
AcDbPolyline
 62
250
  6
CONTINUOUS
 90
28
 70
0
 10
39.8386624453
 20
26.5523670977
 10
39.8217273603
 20
27.1303844511
 10
39.7713491813
 20
27.7070829776
 10
39.6875797263
 20
28.2805266786
 10
39.5705642651
 20
28.8488784757
 10
39.4205888583
 20
29.4101039471
 10
39.2381358493
 20
29.9619927782
 10
39.0237407524
 20
30.5026976392
 10
38.7780783321
 20
31.0303304544
 10
38.5021195622
 20
31.5427102689
 10
38.1968648031
 20
32.038007062
 10
37.8632997201
 20
32.5146519557
 10
37.5025964858
 20
32.9709787313
 10
37.1160384924
 20
33.4053962147
 10
36.7048990607
 20
33.8165074976
 10
36.2704544186
 20
34.2030363268
 10
35.8140983059
 20
34.5637116962
 10
35.3374247995
 20
34.8972474736
 10
34.8421103896
 20
35.2024655518
 10
34.3297261965
 20
35.4783813932
 10
33.8021019214
 20
35.723997266
 10
33.2614263804
 20
35.9383415657
 10
32.7095937258
 20
36.1207412388
 10
32.1484465917
 20
36.2706663365
 10
31.5801865943
 20
36.387639514
 10
31.0068446116
 20
36.4713769772
 10
30.4302597809
 20
36.5217346286
 10
29.8523670977
 20
36.5386624453
  0
LWPOLYLINE
  5
653
100
AcDbEntity
  8
RACCORDO
100
AcDbPolyline
 62
250
  6
CONTINUOUS
 90
28
 70
0
 10
38.3407181432
 20
26.5523670977
 10
38.3264313448
 20
27.0456221797
 10
38.283932819
 20
27.5347464025
 10
38.2132225659
 20
28.0197397663
 10
38.1139296788
 20
28.5024007704
 10
37.9864250644
 20
28.9809309154
 10
37.8318214425
 20
29.4499347032
 10
37.6497649107
 20
29.9092439129
 10
37.4406093714
 20
30.3590267655
 10
37.2065292517
 20
30.7943924247
 10
36.9472765499
 20
31.215090394
 10
36.6630992677
 20
31.6213711701
 10
36.3569158381
 20
32.0090954065
 10
36.0285512999
 20
32.3780319995
 10
35.6781806143
 20
32.728412053
 10
35.3092470979
 20
33.0567895314
 10
34.9215142775
 20
33.3629912701
 10
34.5152186264
 20
33.6471904339
 10
34.0945128803
 20
33.9064604817
 10
33.6591482911
 20
34.1405500086
 10
33.209373607
 20
34.3497104196
 10
32.7500878086
 20
34.5317693881
 10
32.281148722
 20
34.6863705873
 10
31.8026985211
 20
34.8138703441
 10
31.320062708
 20
34.9131653127
 10
30.8350164501
 20
34.9838877111
 10
30.34578458
 20
35.0264053212
 10
29.8523670977
 20
35.0407181432
  0
LINE
  5
654
100
AcDbEntity
  8
RACCORDO
100
AcDbLine
 62
7
  6
CONTINUOUS
 10
38.2
 20
-25.8
 11
38.2
 21
-8.2
  0
LINE
  5
655
100
AcDbEntity
  8
RACCORDO
100
AcDbLine
 62
7
  6
CONTINUOUS
 10
38.2
 20
8.2
 11
38.2
 21
25.8
  0
LINE
  5
656
100
AcDbEntity
  8
RACCORDO
100
AcDbLine
 62
250
  6
CONTINUOUS
 10
38.2711937206
 20
-5.5305440373
 11
38.2711937206
 21
5.5305440373
  0
LINE
  5
657
100
AcDbEntity
  8
ASSI
100
AcDbLine
 62
250
  6
CONTINUOUS
 10
38.3407181432
 20
-26.5523670977
 11
38.3407181432
 21
-20.0
  0
LINE
  5
658
100
AcDbEntity
  8
ASSI
100
AcDbLine
 62
250
  6
CONTINUOUS
 10
38.3407181432
 20
-14.0
 11
38.3407181432
 21
-5.5304943898
  0
LINE
  5
659
100
AcDbEntity
  8
ASSI
100
AcDbLine
 62
250
  6
CONTINUOUS
 10
38.3407181432
 20
5.5305440373
 11
38.3407181432
 21
14.0
  0
LINE
  5
65A
100
AcDbEntity
  8
ASSI
100
AcDbLine
 62
250
  6
CONTINUOUS
 10
38.3407181432
 20
20.0
 11
38.3407181432
 21
26.5523670977
  0
LINE
  5
65B
100
AcDbEntity
  8
RACCORDO
100
AcDbLine
 62
7
  6
CONTINUOUS
 10
38.4711861052
 20
-5.5288138948
 11
38.4711861052
 21
5.5288138948
  0
LINE
  5
65C
100
AcDbEntity
  8
DRAFT
100
AcDbLine
 62
7
  6
CONTINUOUS
 10
38.5
 20
-5.5
 11
38.5
 21
5.5
  0
LINE
  5
65D
100
AcDbEntity
  8
ASSI
100
AcDbLine
 62
250
  6
CONTINUOUS
 10
38.8786796564
 20
-14.0
 11
38.8786796564
 21
-20.0
  0
LINE
  5
65E
100
AcDbEntity
  8
ASSI
100
AcDbLine
 62
250
  6
CONTINUOUS
 10
38.8786796564
 20
14.0
 11
38.8786796564
 21
20.0
  0
LINE
  5
65F
100
AcDbEntity
  8
ASSI
100
AcDbLine
 62
250
  6
CONTINUOUS
 10
39.8386624453
 20
-26.5523670977
 11
39.8386624453
 21
-20.0
  0
LINE
  5
660
100
AcDbEntity
  8
ASSI
100
AcDbLine
 62
250
  6
CONTINUOUS
 10
39.8386624453
 20
-14.0
 11
39.8386624453
 21
-5.518138829
  0
LINE
  5
661
100
AcDbEntity
  8
ASSI
100
AcDbLine
 62
250
  6
CONTINUOUS
 10
39.8386624453
 20
5.518138829
 11
39.8386624453
 21
14.0
  0
LINE
  5
662
100
AcDbEntity
  8
ASSI
100
AcDbLine
 62
250
  6
CONTINUOUS
 10
39.8386624453
 20
20.0
 11
39.8386624453
 21
26.5523670977
  0
LINE
  5
663
100
AcDbEntity
  8
ASSI
100
AcDbLine
 62
250
  6
CONTINUOUS
 10
39.9393398282
 20
-14.0
 11
39.9393398282
 21
-20.0
  0
LINE
  5
664
100
AcDbEntity
  8
ASSI
100
AcDbLine
 62
250
  6
CONTINUOUS
 10
39.9393398282
 20
14.0
 11
39.9393398282
 21
20.0
  0
LINE
  5
665
100
AcDbEntity
  8
DRAFT
100
AcDbLine
 62
7
  6
CONTINUOUS
 10
39.9475922207
 20
5.5
 11
39.9475922207
 21
3.25
  0
LINE
  5
666
100
AcDbEntity
  8
DRAFT
100
AcDbLine
 62
7
  6
CONTINUOUS
 10
39.9475922207
 20
-3.25
 11
39.9475922207
 21
-5.5
  0
LINE
  5
667
100
AcDbEntity
  8
RACCORDO
100
AcDbLine
 62
7
  6
CONTINUOUS
 10
40.0
 20
-26.7137046525
 11
40.0
 21
-20.0
  0
LINE
  5
668
100
AcDbEntity
  8
RACCORDO
100
AcDbLine
 62
7
  6
CONTINUOUS
 10
40.0
 20
-14.0
 11
40.0
 21
-3.25
  0
LINE
  5
669
100
AcDbEntity
  8
RACCORDO
100
AcDbLine
 62
7
  6
CONTINUOUS
 10
40.0
 20
3.25
 11
40.0
 21
14.0
  0
LINE
  5
66A
100
AcDbEntity
  8
RACCORDO
100
AcDbLine
 62
7
  6
CONTINUOUS
 10
40.0
 20
20.0
 11
40.0
 21
26.7137046525
  0
LINE
  5
66B
100
AcDbEntity
  8
ASSI
100
AcDbLine
 62
7
  6
CONTINUOUS
 10
40.8
 20
-14.0
 11
40.8
 21
-20.0
  0
LINE
  5
66C
100
AcDbEntity
  8
ASSI
100
AcDbLine
 62
7
  6
CONTINUOUS
 10
40.8
 20
14.0
 11
40.8
 21
20.0
  0
LINE
  5
66D
100
AcDbEntity
  8
0
100
AcDbLine
 62
7
  6
CONTINUOUS
 10
41.3711307144
 20
3.25
 11
41.3711307144
 21
-3.25
  0
LWPOLYLINE
  5
66E
100
AcDbEntity
  8
0
100
AcDbPolyline
 62
7
  6
CONTINUOUS
 90
13
 70
0
 43
0.3500000006
 10
48.535712265
 20
0.3214286728
 10
48.3214277802
 20
0.035715271
 10
47.6785697937
 20
0.035715271
 10
47.250000824
 20
0.3214286728
 10
47.250000824
 20
0.9642866592
 10
47.6785697937
 20
1.250000061
 10
48.3214277802
 20
1.250000061
 10
48.535712265
 20
0.9642866592
 10
48.9642857666
 20
1.3928578949
 10
49.8214282379
 20
1.3928578949
 10
50.2500017395
 20
0.9642866592
 10
50.2500017395
 20
0.3214286728
 10
49.8214282379
 20
-0.1071425629
  0
LINE
  5
66F
100
AcDbEntity
  8
0
100
AcDbLine
 62
7
  6
CONTINUOUS
 10
32.5999998665
 20
-20.9042553306
 11
32.8099998665
 21
-20.6489362121
  0
LINE
  5
670
100
AcDbEntity
  8
0
100
AcDbLine
 62
7
  6
CONTINUOUS
 10
43.0
 20
3.25
 11
43.0
 21
-3.25
  0
LWPOLYLINE
  5
671
100
AcDbEntity
  8
0
100
AcDbPolyline
 62
7
  6
CONTINUOUS
 90
13
 70
0
 43
0.3500000006
 10
-1.9285714102
 20
57.1642834167
 10
-2.2142856617
 20
57.3785679016
 10
-2.2142856617
 20
58.0214304199
 10
-1.9285714102
 20
58.4499993896
 10
-1.2857142735
 20
58.4499993896
 10
-1.0000000219
 20
58.0214304199
 10
-1.0000000219
 20
57.3785679016
 10
-1.2857142735
 20
57.1642834167
 10
-0.8571428254
 20
56.735714447
 10
-0.8571428254
 20
55.8785674438
 10
-1.2857142735
 20
55.4499984741
 10
-1.9285714102
 20
55.4499984741
 10
-2.3571427875
 20
55.8785674438
  0
LWPOLYLINE
  5
672
100
AcDbEntity
  8
0
100
AcDbPolyline
 62
7
  6
CONTINUOUS
 90
8
 70
0
 43
0.3500000006
 10
50.2500017395
 20
-2.2499998741
 10
50.2500017395
 20
-1.3928574028
 10
49.8214282379
 20
-0.9642850342
 10
48.9642857666
 20
-0.9642850342
 10
48.535712265
 20
-1.3928574028
 10
48.535712265
 20
-2.2499998741
 10
47.250000824
 20
-2.2499998741
 10
47.250000824
 20
-0.9642850342
  0
LWPOLYLINE
  5
673
100
AcDbEntity
  8
0
100
AcDbPolyline
 62
7
  6
CONTINUOUS
 90
13
 70
0
 43
0.3500000006
 10
-1.9285714102
 20
67.1642864685
 10
-2.2142856617
 20
67.3785709534
 10
-2.2142856617
 20
68.021424408
 10
-1.9285714102
 20
68.4500024414
 10
-1.2857142735
 20
68.4500024414
 10
-1.0000000219
 20
68.021424408
 10
-1.0000000219
 20
67.3785709534
 10
-1.2857142735
 20
67.1642864685
 10
-0.8571428254
 20
66.7357174988
 10
-0.8571428254
 20
65.8785704956
 10
-1.2857142735
 20
65.4500015259
 10
-1.9285714102
 20
65.4500015259
 10
-2.3571427875
 20
65.8785704956
  0
LWPOLYLINE
  5
674
100
AcDbEntity
  8
0
100
AcDbPolyline
 62
7
  6
CONTINUOUS
 90
3
 70
0
 43
0.3500000006
 10
-72.4228989258
 20
57.5928614502
 10
-71.5657564545
 20
58.4499993896
 10
-71.5657564545
 20
55.4499984741
  0
LWPOLYLINE
  5
675
100
AcDbEntity
  8
0
100
AcDbPolyline
 62
7
  6
CONTINUOUS
 90
10
 70
0
 43
0.3500000006
 10
-69.637187027
 20
58.4499993896
 10
-70.2800450134
 20
57.8071459351
 10
-70.7086139832
 20
56.9499989319
 10
-70.7086139832
 20
55.8785674438
 10
-70.2800450134
 20
55.4499984741
 10
-69.637187027
 20
55.4499984741
 10
-69.2086135254
 20
55.8785674438
 10
-69.2086135254
 20
56.735714447
 10
-69.637187027
 20
57.1642834167
 10
-70.5657561493
 20
57.1642834167
  0
LWPOLYLINE
  5
676
100
AcDbEntity
  8
0
100
AcDbPolyline
 62
7
  6
CONTINUOUS
 90
3
 70
0
 43
0.3500000006
 10
-69.6014714355
 20
47.5928583984
 10
-68.7443289642
 20
48.4500008698
 10
-68.7443289642
 20
45.4499999542
  0
LINE
  5
677
100
AcDbEntity
  8
RACCORDO
100
AcDbLine
 62
7
  6
CONTINUOUS
 10
-76.4656818948
 20
-36.5386624453
 11
-73.3871779605
 21
-36.7
  0
LWPOLYLINE
  5
678
100
AcDbEntity
  8
0
100
AcDbPolyline
 62
7
  6
CONTINUOUS
 90
3
 70
0
 43
0.3500000006
 10
-67.8871864929
 20
47.5928583984
 10
-67.0300440216
 20
48.4500008698
 10
-67.0300440216
 20
45.4499999542
  0
LINE
  5
679
100
AcDbEntity
  8
DRAFT
100
AcDbLine
 62
7
  6
CONTINUOUS
 10
-62.3871779605
 20
-25.6158715356
 11
-73.3880196657
 21
-26.000029393
  0
LINE
  5
67A
100
AcDbEntity
  8
DRAFT
100
AcDbLine
 62
7
  6
CONTINUOUS
 10
-72.0871779605
 20
-25.9416005438
 11
-73.3871779605
 21
-25.9481505411
  0
LINE
  5
67B
100
AcDbEntity
  8
ASSI
100
AcDbLine
 62
7
  6
CONTINUOUS
 10
-73.3871779605
 20
-27.0
 11
-62.6871779605
 21
-27.0
  0
LINE
  5
67C
100
AcDbEntity
  8
RACCORDO
100
AcDbLine
 62
250
  6
CONTINUOUS
 10
-77.8871779605
 20
-26.5523670977
 11
-76.4656818948
 21
-26.5523670977
  0
LINE
  5
67D
100
AcDbEntity
  8
RACCORDO
100
AcDbLine
 62
250
  6
CONTINUOUS
 10
-76.4656818948
 20
-26.5523670977
 11
-73.3871779605
 21
-26.7137046525
  0
LINE
  5
67E
100
AcDbEntity
  8
DRAFT
100
AcDbLine
 62
7
  6
CONTINUOUS
 10
-70.5871779605
 20
23.3
 11
-67.6383222511
 21
24.3732957034
  0
LINE
  5
67F
100
AcDbEntity
  8
RACCORDO
100
AcDbLine
 62
7
  6
CONTINUOUS
 10
-73.3871779605
 20
-24.8
 11
-62.6399629429
 21
-24.7458505927
  0
LINE
  5
680
100
AcDbEntity
  8
0
100
AcDbLine
 62
7
  6
CONTINUOUS
 10
-70.5871779605
 20
-23.3
 11
-72.0871779605
 21
-23.3
  0
LINE
  5
681
100
AcDbEntity
  8
RACCORDO
100
AcDbLine
 62
7
  6
CONTINUOUS
 10
-73.3871779605
 20
-24.3231261996
 11
-63.378451425
 21
-24.4104710329
  0
LINE
  5
682
100
AcDbEntity
  8
RACCORDO
100
AcDbLine
 62
250
  6
CONTINUOUS
 10
-65.378451425
 20
-23.6786065424
 11
-69.6493682616
 21
-23.6413348158
  0
LINE
  5
683
100
AcDbEntity
  8
RACCORDO
100
AcDbLine
 62
250
  6
CONTINUOUS
 10
-72.0871779605
 20
-23.6200603728
 11
-73.3871779605
 21
-23.6087154447
  0
LINE
  5
684
100
AcDbEntity
  8
RACCORDO
100
AcDbLine
 62
7
  6
CONTINUOUS
 10
-65.378451425
 20
-23.3786179654
 11
-70.4938275964
 21
-23.3339767539
  0
LINE
  5
685
100
AcDbEntity
  8
RACCORDO
100
AcDbLine
 62
7
  6
CONTINUOUS
 10
-72.087353111
 20
-23.3200702674
 11
-73.3871779605
 21
-23.3087268678
  0
LINE
  5
686
100
AcDbEntity
  8
DRAFT
100
AcDbLine
 62
7
  6
CONTINUOUS
 10
-67.6383222511
 20
-24.3732957034
 11
-70.5871779605
 21
-23.3
  0
LWPOLYLINE
  5
687
100
AcDbEntity
  8
0
100
AcDbPolyline
 62
7
  6
CONTINUOUS
 90
3
 70
0
 43
0.3500000006
 10
-87.7818630981
 20
3.4285718307
 10
-87.7818630981
 20
1.928571373
 10
-90.1390105591
 20
2.5714293594
  0
LWPOLYLINE
  5
688
100
AcDbEntity
  8
0
100
AcDbPolyline
 62
7
  6
CONTINUOUS
 90
6
 70
0
 43
0.3500000006
 10
-87.1390096436
 20
-1.9285708809
 10
-87.1390096436
 20
-0.8571427917
 10
-87.3532941284
 20
-0.642856041
 10
-88.4247256165
 20
-0.642856041
 10
-88.8532945862
 20
-1.0714295425
 10
-88.8532945862
 20
-1.4999996452
  0
LINE
  5
689
100
AcDbEntity
  8
RACCORDO
100
AcDbLine
 62
250
  6
CONTINUOUS
 10
-65.8740881572
 20
-22.838680518
 11
-73.3871779605
 21
-22.7731147766
  0
LINE
  5
68A
100
AcDbEntity
  8
RACCORDO
100
AcDbLine
 62
7
  6
CONTINUOUS
 10
-65.8740881572
 20
-22.5386919411
 11
-73.3871779605
 21
-22.4731261996
  0
LWPOLYLINE
  5
68B
100
AcDbEntity
  8
RACCORDO
100
AcDbPolyline
 62
250
  6
CONTINUOUS
 90
10
 70
0
 10
-65.1801967321
 20
23.0671038755
 10
-65.2497207819
 20
23.020439693
 10
-65.3214620485
 20
22.9790220143
 10
-65.3954205319
 20
22.9428508396
 10
-65.4720275219
 20
22.9118269042
 10
-65.5508517288
 20
22.8860494727
 10
-65.6305992828
 20
22.865816339
 10
-65.7108388939
 20
22.8512267676
 10
-65.792001852
 20
22.8421814939
 10
-65.8740881572
 20
22.838680518
  0
LINE
  5
68C
100
AcDbEntity
  8
RACCORDO
100
AcDbLine
 62
7
  6
CONTINUOUS
 10
-75.1925618026
 20
-20.0
 11
-76.5871779605
 21
-20.0
  0
LINE
  5
68D
100
AcDbEntity
  8
ASSI
100
AcDbLine
 62
7
  6
CONTINUOUS
 10
-76.5871779605
 20
-20.0
 11
-77.8871779605
 21
-20.0
  0
LWPOLYLINE
  5
68E
100
AcDbEntity
  8
RACCORDO
100
AcDbPolyline
 62
250
  6
CONTINUOUS
 90
13
 70
0
 10
-65.1801967321
 20
-23.0671038755
 10
-65.2230243814
 20
-23.0370055692
 10
-65.2685638794
 20
-23.0084505837
 10
-65.3168152262
 20
-22.9814389192
 10
-65.3677576186
 20
-22.9556991909
 10
-65.4214118597
 20
-22.9315027836
 10
-65.4778403587
 20
-22.909663851
 10
-65.5370901197
 20
-22.8901235932
 10
-65.5991141387
 20
-22.8729408101
 10
-65.6638338123
 20
-22.8591060556
 10
-65.7312229393
 20
-22.8489495144
 10
-65.801307721
 20
-22.8421410019
 10
-65.8740881572
 20
-22.838680518
  0
LWPOLYLINE
  5
68F
100
AcDbEntity
  8
0
100
AcDbPolyline
 62
7
  6
CONTINUOUS
 90
5
 70
0
 43
0.3500000006
 10
-88.8532945862
 20
-1.0714295425
 10
-89.067579071
 20
-0.7142849579
 10
-89.7104415894
 20
-0.7142849579
 10
-90.1390105591
 20
-1.0714295425
 10
-90.1390105591
 20
-1.9285708809
  0
LWPOLYLINE
  5
690
100
AcDbEntity
  8
RACCORDO
100
AcDbPolyline
 62
250
  6
CONTINUOUS
 90
8
 70
0
 10
-76.4656818948
 20
-36.5386624453
 10
-76.4699403675
 20
-36.5217273603
 10
-76.4740865156
 20
-36.4713491813
 10
-76.4780215934
 20
-36.3875797263
 10
-76.4815872817
 20
-36.2705642651
 10
-76.4847616081
 20
-36.1205888583
 10
-76.4876629795
 20
-35.9381358493
 10
-76.4902449144
 20
-35.7237407524
  0
LINE
  5
691
100
AcDbEntity
  8
RACCORDO
100
AcDbLine
 62
7
  6
CONTINUOUS
 10
-62.8774096242
 20
-17.4082826412
 11
-73.3871779605
 21
-17.5
  0
LINE
  5
692
100
AcDbEntity
  8
RACCORDO
100
AcDbLine
 62
250
  6
CONTINUOUS
 10
-62.8778583254
 20
-16.9133054051
 11
-73.3871779605
 21
-17.0050188481
  0
LINE
  5
693
100
AcDbEntity
  8
RACCORDO
100
AcDbLine
 62
250
  6
CONTINUOUS
 10
-62.3871859678
 20
-16.9133054051
 11
-62.8778583254
 21
-16.9133054051
  0
LINE
  5
694
100
AcDbEntity
  8
RACCORDO
100
AcDbLine
 62
7
  6
CONTINUOUS
 10
-77.8871779605
 20
-16.0
 11
-78.3871779605
 21
-16.0
  0
LINE
  5
695
100
AcDbEntity
  8
RACCORDO
100
AcDbLine
 62
250
  6
CONTINUOUS
 10
-77.8871779605
 20
-15.25
 11
-78.3871779605
 21
-15.25
  0
LINE
  5
696
100
AcDbEntity
  8
RACCORDO
100
AcDbLine
 62
7
  6
CONTINUOUS
 10
-62.6845599998
 20
-13.8804190647
 11
-73.3871779605
 21
-13.9738193966
  0
LINE
  5
697
100
AcDbEntity
  8
RACCORDO
100
AcDbLine
 62
250
  6
CONTINUOUS
 10
-62.8828146927
 20
-13.5821606302
 11
-73.3871779605
 21
-13.6738308197
  0
LINE
  5
698
100
AcDbEntity
  8
RACCORDO
100
AcDbLine
 62
250
  6
CONTINUOUS
 10
-62.3871779605
 20
-13.5804304878
 11
-62.8828146927
 21
-13.5821606302
  0
LINE
  5
699
100
AcDbEntity
  8
ASSI
100
AcDbLine
 62
7
  6
CONTINUOUS
 10
-73.3871779605
 20
-14.25
 11
-62.3871779605
 21
-14.25
  0
LINE
  5
69A
100
AcDbEntity
  8
RACCORDO
100
AcDbLine
 62
7
  6
CONTINUOUS
 10
-75.1925618026
 20
-14.0
 11
-76.5871779605
 21
-14.0
  0
LINE
  5
69B
100
AcDbEntity
  8
ASSI
100
AcDbLine
 62
7
  6
CONTINUOUS
 10
-76.5871779605
 20
-14.0
 11
-77.8871779605
 21
-14.0
  0
LINE
  5
69C
100
AcDbEntity
  8
RACCORDO
100
AcDbLine
 62
250
  6
CONTINUOUS
 10
-62.3871779605
 20
-12.9195695122
 11
-62.8828146927
 21
-12.9178393698
  0
LINE
  5
69D
100
AcDbEntity
  8
RACCORDO
100
AcDbLine
 62
250
  6
CONTINUOUS
 10
-62.8828146927
 20
-12.9178393698
 11
-73.3871779605
 21
-12.8261691803
  0
LINE
  5
69E
100
AcDbEntity
  8
RACCORDO
100
AcDbLine
 62
7
  6
CONTINUOUS
 10
-62.6845599998
 20
-12.6195809353
 11
-73.3871779605
 21
-12.5261806034
  0
LINE
  5
69F
100
AcDbEntity
  8
RACCORDO
100
AcDbLine
 62
250
  6
CONTINUOUS
 10
-76.4656818948
 20
26.5523670977
 11
-76.4780215934
 21
28.2805266786
  0
LINE
  5
6A0
100
AcDbEntity
  8
RACCORDO
100
AcDbLine
 62
250
  6
CONTINUOUS
 10
-76.4902449144
 20
-35.7237407524
 11
-76.4942716605
 21
-35.2021195622
  0
LINE
  5
6A1
100
AcDbEntity
  8
RACCORDO
100
AcDbLine
 62
250
  6
CONTINUOUS
 10
-76.4780215934
 20
28.2805266786
 11
-76.4847616081
 21
29.4101039471
  0
LINE
  5
6A2
100
AcDbEntity
  8
RACCORDO
100
AcDbLine
 62
250
  6
CONTINUOUS
 10
-76.4847616081
 20
29.4101039471
 11
-76.4902449144
 21
30.5026976392
  0
LINE
  5
6A3
100
AcDbEntity
  8
RACCORDO
100
AcDbLine
 62
250
  6
CONTINUOUS
 10
-76.4902449144
 20
30.5026976392
 11
-76.4942716605
 21
31.5427102689
  0
LINE
  5
6A4
100
AcDbEntity
  8
RACCORDO
100
AcDbLine
 62
250
  6
CONTINUOUS
 10
-76.4942716605
 20
-35.2021195622
 11
-76.4968835561
 21
-34.5632997201
  0
LINE
  5
6A5
100
AcDbEntity
  8
RACCORDO
100
AcDbLine
 62
250
  6
CONTINUOUS
 10
-76.4942716605
 20
31.5427102689
 11
-76.4968835561
 21
32.5146519557
  0
LINE
  5
6A6
100
AcDbEntity
  8
RACCORDO
100
AcDbLine
 62
250
  6
CONTINUOUS
 10
-76.4968835561
 20
-34.5632997201
 11
-76.4980115576
 21
-33.8160384924
  0
LINE
  5
6A7
100
AcDbEntity
  8
RACCORDO
100
AcDbLine
 62
250
  6
CONTINUOUS
 10
-76.4968835561
 20
32.5146519557
 11
-76.4980115576
 21
33.4053962147
  0
LINE
  5
6A8
100
AcDbEntity
  8
ASSI
100
AcDbLine
 62
7
  6
CONTINUOUS
 10
-78.3871779605
 20
1.7320508076
 11
-78.3871779605
 21
-1.7320508076
  0
LINE
  5
6A9
100
AcDbEntity
  8
RACCORDO
100
AcDbLine
 62
7
  6
CONTINUOUS
 10
-78.3871779605
 20
-15.9999999941
 11
-78.3871779605
 21
-1.7320508076
  0
LINE
  5
6AA
100
AcDbEntity
  8
RACCORDO
100
AcDbLine
 62
7
  6
CONTINUOUS
 10
-78.3871779605
 20
1.7320508076
 11
-78.3871779605
 21
15.9999999942
  0
LINE
  5
6AB
100
AcDbEntity
  8
RACCORDO
100
AcDbLine
 62
7
  6
CONTINUOUS
 10
-77.8871779605
 20
-35.0407181432
 11
-77.8871779605
 21
-26.5523670977
  0
LINE
  5
6AC
100
AcDbEntity
  8
ASSI
100
AcDbLine
 62
7
  6
CONTINUOUS
 10
-77.8871779605
 20
-26.5523670977
 11
-77.8871779605
 21
-5.5304943898
  0
LINE
  5
6AD
100
AcDbEntity
  8
RACCORDO
100
AcDbLine
 62
7
  6
CONTINUOUS
 10
-77.8871779605
 20
-5.5305440373
 11
-77.8871779605
 21
5.5305440373
  0
LINE
  5
6AE
100
AcDbEntity
  8
ASSI
100
AcDbLine
 62
7
  6
CONTINUOUS
 10
-77.8871779605
 20
5.5305440373
 11
-77.8871779605
 21
26.5523670977
  0
LINE
  5
6AF
100
AcDbEntity
  8
RACCORDO
100
AcDbLine
 62
7
  6
CONTINUOUS
 10
-77.8871779605
 20
26.5523670977
 11
-77.8871779605
 21
35.0407181432
  0
LINE
  5
6B0
100
AcDbEntity
  8
RACCORDO
100
AcDbLine
 62
250
  6
CONTINUOUS
 10
-77.6889232676
 20
-5.5288138948
 11
-77.6889232676
 21
5.5288138948
  0
LINE
  5
6B1
100
AcDbEntity
  8
ASSI
100
AcDbLine
 62
250
  6
CONTINUOUS
 10
-77.4478381322
 20
-14.0
 11
-77.4478381322
 21
-20.0
  0
LINE
  5
6B2
100
AcDbEntity
  8
ASSI
100
AcDbLine
 62
250
  6
CONTINUOUS
 10
-77.4478381322
 20
14.0
 11
-77.4478381322
 21
20.0
  0
LINE
  5
6B3
100
AcDbEntity
  8
ASSI
100
AcDbLine
 62
7
  6
CONTINUOUS
 10
-76.5871779605
 20
-14.0
 11
-76.5871779605
 21
-20.0
  0
LINE
  5
6B4
100
AcDbEntity
  8
ASSI
100
AcDbLine
 62
7
  6
CONTINUOUS
 10
-76.5871779605
 20
14.0
 11
-76.5871779605
 21
20.0
  0
LINE
  5
6B5
100
AcDbEntity
  8
ASSI
100
AcDbLine
 62
250
  6
CONTINUOUS
 10
-76.4656818948
 20
-26.5523670977
 11
-76.4656818948
 21
-20.0
  0
LINE
  5
6B6
100
AcDbEntity
  8
ASSI
100
AcDbLine
 62
250
  6
CONTINUOUS
 10
-76.4656818948
 20
-14.0
 11
-76.4656818948
 21
-5.518138829
  0
LINE
  5
6B7
100
AcDbEntity
  8
ASSI
100
AcDbLine
 62
250
  6
CONTINUOUS
 10
-76.4656818948
 20
5.518138829
 11
-76.4656818948
 21
14.0
  0
LINE
  5
6B8
100
AcDbEntity
  8
ASSI
100
AcDbLine
 62
250
  6
CONTINUOUS
 10
-76.4656818948
 20
20.0
 11
-76.4656818948
 21
26.5523670977
  0
LINE
  5
6B9
100
AcDbEntity
  8
RACCORDO
100
AcDbLine
 62
250
  6
CONTINUOUS
 10
-76.2942847417
 20
-20.0
 11
-76.2942847417
 21
-14.0
  0
LINE
  5
6BA
100
AcDbEntity
  8
RACCORDO
100
AcDbLine
 62
250
  6
CONTINUOUS
 10
-76.2942847417
 20
14.0
 11
-76.2942847417
 21
20.0
  0
LINE
  5
6BB
100
AcDbEntity
  8
RACCORDO
100
AcDbLine
 62
250
  6
CONTINUOUS
 10
-75.9407313511
 20
-20.0
 11
-75.9407313511
 21
-14.0
  0
LINE
  5
6BC
100
AcDbEntity
  8
RACCORDO
100
AcDbLine
 62
250
  6
CONTINUOUS
 10
-75.9407313511
 20
14.0
 11
-75.9407313511
 21
20.0
  0
LINE
  5
6BD
100
AcDbEntity
  8
RACCORDO
100
AcDbLine
 62
250
  6
CONTINUOUS
 10
-76.4980115576
 20
-33.8160384924
 11
-76.4976256506
 21
-32.9704544186
  0
LINE
  5
6BE
100
AcDbEntity
  8
RACCORDO
100
AcDbLine
 62
250
  6
CONTINUOUS
 10
-76.4980115576
 20
33.4053962147
 11
-76.4976256506
 21
34.2030363268
  0
LINE
  5
6BF
100
AcDbEntity
  8
RACCORDO
100
AcDbLine
 62
250
  6
CONTINUOUS
 10
-76.4976256506
 20
-32.9704544186
 11
-76.4957763329
 21
-32.0374247995
  0
LINE
  5
6C0
100
AcDbEntity
  8
RACCORDO
100
AcDbLine
 62
250
  6
CONTINUOUS
 10
-76.4976256506
 20
34.2030363268
 11
-76.4957763329
 21
34.8972474736
  0
LINE
  5
6C1
100
AcDbEntity
  8
RACCORDO
100
AcDbLine
 62
250
  6
CONTINUOUS
 10
-76.4957763329
 20
-32.0374247995
 11
-76.4924189771
 21
-31.0297261965
  0
LINE
  5
6C2
100
AcDbEntity
  8
RACCORDO
100
AcDbLine
 62
250
  6
CONTINUOUS
 10
-76.4924189771
 20
-31.0297261965
 11
-76.4876597885
 21
-29.9614263804
  0
LINE
  5
6C3
100
AcDbEntity
  8
RACCORDO
100
AcDbLine
 62
250
  6
CONTINUOUS
 10
-76.4876597885
 20
-29.9614263804
 11
-76.481584459
 21
-28.8484465917
  0
LWPOLYLINE
  5
6C4
100
AcDbEntity
  8
RACCORDO
100
AcDbPolyline
 62
250
  6
CONTINUOUS
 90
10
 70
0
 10
-76.4957763329
 20
34.8972474736
 10
-76.4924189771
 20
35.4783813932
 10
-76.4902420313
 20
35.723997266
 10
-76.4876597885
 20
35.9383415657
 10
-76.4847583772
 20
36.1207412388
 10
-76.481584459
 20
36.2706663365
 10
-76.4780192967
 20
36.387639514
 10
-76.4740847504
 20
36.4713769772
 10
-76.469939354
 20
36.5217346286
 10
-76.4656818948
 20
36.5386624453
  0
LINE
  5
6C5
100
AcDbEntity
  8
RACCORDO
100
AcDbLine
 62
250
  6
CONTINUOUS
 10
-76.481584459
 20
-28.8484465917
 11
-76.4740847504
 21
-27.7068446116
  0
LINE
  5
6C6
100
AcDbEntity
  8
RACCORDO
100
AcDbLine
 62
250
  6
CONTINUOUS
 10
-76.4740847504
 20
-27.7068446116
 11
-76.4656818948
 21
-26.5523670977
  0
LWPOLYLINE
  5
6C7
100
AcDbEntity
  8
0
100
AcDbPolyline
 62
7
  6
CONTINUOUS
 90
10
 70
0
 43
0.3500000006
 10
-87.6390097961
 20
0.8571421509
 10
-87.4961474304
 20
0.9285710678
 10
-87.4247253113
 20
0.9285710678
 10
-87.2818629456
 20
0.7857132339
 10
-87.2818629456
 20
0.7142865829
 10
-87.3532941284
 20
0.642857666
 10
-87.4247253113
 20
0.642857666
 10
-87.5675786133
 20
0.7142865829
 10
-87.6390097961
 20
0.7857132339
 10
-87.6390097961
 20
0.8571421509
  0
LINE
  5
6C8
100
AcDbEntity
  8
ASSI
100
AcDbLine
 62
7
  6
CONTINUOUS
 10
-73.3871779605
 20
-12.25
 11
-62.3871779605
 21
-12.25
  0
LINE
  5
6C9
100
AcDbEntity
  8
ASSI
100
AcDbLine
 62
7
  6
CONTINUOUS
 10
-75.1925618026
 20
-14.0
 11
-75.1925618026
 21
-20.0
  0
LINE
  5
6CA
100
AcDbEntity
  8
ASSI
100
AcDbLine
 62
7
  6
CONTINUOUS
 10
-75.1925618026
 20
14.0
 11
-75.1925618026
 21
20.0
  0
LINE
  5
6CB
100
AcDbEntity
  8
DRAFT
100
AcDbLine
 62
7
  6
CONTINUOUS
 10
-74.3871779605
 20
5.5
 11
-74.3871779605
 21
3.25
  0
LINE
  5
6CC
100
AcDbEntity
  8
0
100
AcDbLine
 62
7
  6
CONTINUOUS
 10
-74.3871779605
 20
3.25
 11
-74.3871779605
 21
-3.25
  0
LINE
  5
6CD
100
AcDbEntity
  8
DRAFT
100
AcDbLine
 62
7
  6
CONTINUOUS
 10
-74.3871779605
 20
-3.25
 11
-74.3871779605
 21
-5.5
  0
LINE
  5
6CE
100
AcDbEntity
  8
0
100
AcDbLine
 62
7
  6
CONTINUOUS
 10
-74.1871779605
 20
3.25
 11
-74.1871779605
 21
-3.25
  0
LINE
  5
6CF
100
AcDbEntity
  8
0
100
AcDbLine
 62
7
  6
CONTINUOUS
 10
-73.3871779605
 20
3.25
 11
-73.3871779605
 21
-3.25
  0
LINE
  5
6D0
100
AcDbEntity
  8
RACCORDO
100
AcDbLine
 62
7
  6
CONTINUOUS
 10
-73.3871779605
 20
-36.7
 11
-73.3871779605
 21
-3.25
  0
LINE
  5
6D1
100
AcDbEntity
  8
RACCORDO
100
AcDbLine
 62
7
  6
CONTINUOUS
 10
-73.3871779605
 20
3.25
 11
-73.3871779605
 21
36.7
  0
LINE
  5
6D2
100
AcDbEntity
  8
RACCORDO
100
AcDbLine
 62
7
  6
CONTINUOUS
 10
-62.3871779605
 20
-7.6278238509
 11
-73.3871779605
 21
-7.7238193966
  0
LINE
  5
6D3
100
AcDbEntity
  8
RACCORDO
100
AcDbLine
 62
250
  6
CONTINUOUS
 10
-62.3871779605
 20
-7.4033666635
 11
-73.3871779605
 21
-7.5001001234
  0
LINE
  5
6D4
100
AcDbEntity
  8
ASSI
100
AcDbLine
 62
7
  6
CONTINUOUS
 10
-73.3871779605
 20
-8.0
 11
-62.3871779605
 21
-8.0
  0
LINE
  5
6D5
100
AcDbEntity
  8
RACCORDO
100
AcDbLine
 62
250
  6
CONTINUOUS
 10
-73.078451425
 20
25.9465950349
 11
-73.078451425
 21
25.9892190318
  0
LINE
  5
6D6
100
AcDbEntity
  8
DRAFT
100
AcDbLine
 62
7
  6
CONTINUOUS
 10
-72.0871779605
 20
24.3344711278
 11
-72.0871779605
 21
23.3
  0
LINE
  5
6D7
100
AcDbEntity
  8
DRAFT
100
AcDbLine
 62
7
  6
CONTINUOUS
 10
-72.0871779605
 20
-23.3
 11
-72.0871779605
 21
-24.3344711278
  0
LINE
  5
6D8
100
AcDbEntity
  8
DRAFT
100
AcDbLine
 62
7
  6
CONTINUOUS
 10
-72.0871779605
 20
-25.9416005438
 11
-72.0871779605
 21
-25.9546029997
  0
LINE
  5
6D9
100
AcDbEntity
  8
DRAFT
100
AcDbLine
 62
7
  6
CONTINUOUS
 10
-71.3871779605
 20
5.9174537356
 11
-71.3871779605
 21
4.45
  0
LINE
  5
6DA
100
AcDbEntity
  8
0
100
AcDbLine
 62
7
  6
CONTINUOUS
 10
-71.3871779605
 20
4.45
 11
-71.3871779605
 21
-4.45
  0
LINE
  5
6DB
100
AcDbEntity
  8
DRAFT
100
AcDbLine
 62
7
  6
CONTINUOUS
 10
-71.3871779605
 20
-4.45
 11
-71.3871779605
 21
-5.9174537356
  0
LINE
  5
6DC
100
AcDbEntity
  8
RACCORDO
100
AcDbLine
 62
7
  6
CONTINUOUS
 10
-77.8884443689
 20
-5.530555089
 11
-74.3871779605
 21
-5.5
  0
LINE
  5
6DD
100
AcDbEntity
  8
DRAFT
100
AcDbLine
 62
7
  6
CONTINUOUS
 10
-73.3871779605
 20
-6.25
 11
-62.3871779605
 21
-6.2406854326
  0
LINE
  5
6DE
100
AcDbEntity
  8
0
100
AcDbLine
 62
7
  6
CONTINUOUS
 10
-53.3871779668
 20
-5.75
 11
-70.0871779605
 21
-5.75
  0
LINE
  5
6DF
100
AcDbEntity
  8
DRAFT
100
AcDbLine
 62
250
  6
CONTINUOUS
 10
-62.3871779605
 20
-6.0969966593
 11
-73.3871779605
 21
-6.025
  0
LINE
  5
6E0
100
AcDbEntity
  8
DRAFT
100
AcDbLine
 62
7
  6
CONTINUOUS
 10
-73.3871779605
 20
-5.9
 11
-62.3871779605
 21
-5.9959955457
  0
LWPOLYLINE
  5
6E1
100
AcDbEntity
  8
0
100
AcDbPolyline
 62
7
  6
CONTINUOUS
 90
3
 70
0
 43
0.3500000006
 10
-87.4247253113
 20
0.9285710678
 10
-87.2104408264
 20
0.8571421509
 10
-86.9247251587
 20
0.7142865829
  0
LINE
  5
6E2
100
AcDbEntity
  8
0
100
AcDbLine
 62
7
  6
CONTINUOUS
 10
-70.3871779605
 20
4.45
 11
-70.3871779605
 21
-4.45
  0
LINE
  5
6E3
100
AcDbEntity
  8
0
100
AcDbLine
 62
7
  6
CONTINUOUS
 10
-70.0871779605
 20
5.75
 11
-70.0871779605
 21
4.75
  0
LINE
  5
6E4
100
AcDbEntity
  8
0
100
AcDbLine
 62
7
  6
CONTINUOUS
 10
-70.0871779605
 20
-5.75
 11
-70.0871779605
 21
-4.75
  0
LINE
  5
6E5
100
AcDbEntity
  8
0
100
AcDbLine
 62
250
  6
CONTINUOUS
 10
-69.5238293238
 20
5.75
 11
-69.5238293238
 21
4.75
  0
LINE
  5
6E6
100
AcDbEntity
  8
0
100
AcDbLine
 62
250
  6
CONTINUOUS
 10
-69.5238293238
 20
-5.75
 11
-69.5238293238
 21
-4.75
  0
LINE
  5
6E7
100
AcDbEntity
  8
0
100
AcDbLine
 62
250
  6
CONTINUOUS
 10
-70.339324491
 20
-5.7253125606
 11
-70.1453656214
 21
-4.7443028986
  0
LINE
  5
6E8
100
AcDbEntity
  8
0
100
AcDbLine
 62
7
  6
CONTINUOUS
 10
-70.0871779605
 20
-4.75
 11
-53.3871779668
 21
-4.75
  0
LINE
  5
6E9
100
AcDbEntity
  8
0
100
AcDbLine
 62
7
  6
CONTINUOUS
 10
-71.3871779605
 20
-4.45
 11
-70.3871779605
 21
-4.45
  0
LWPOLYLINE
  5
6EA
100
AcDbEntity
  8
0
100
AcDbPolyline
 62
7
  6
CONTINUOUS
 90
4
 70
0
 43
0.3500000006
 10
-89.4961480408
 20
-4.28571381
 10
-90.1390105591
 20
-4.28571381
 10
-90.1390105591
 20
-2.7857144852
 10
-87.1390096436
 20
-3.6428569565
  0
LINE
  5
6EB
100
AcDbEntity
  8
RACCORDO
100
AcDbLine
 62
250
  6
CONTINUOUS
 10
-62.3871859678
 20
-3.995
 11
-70.3871779605
 21
-3.995
  0
LINE
  5
6EC
100
AcDbEntity
  8
RACCORDO
100
AcDbLine
 62
7
  6
CONTINUOUS
 10
-62.8817292571
 20
-3.5
 11
-70.3871779605
 21
-3.5
  0
LINE
  5
6ED
100
AcDbEntity
  8
0
100
AcDbLine
 62
7
  6
CONTINUOUS
 10
-73.3871779605
 20
-3.25
 11
-74.3871779605
 21
-3.25
  0
LINE
  5
6EE
100
AcDbEntity
  8
0
100
AcDbLine
 62
250
  6
CONTINUOUS
 10
-70.339324491
 20
5.7253125606
 11
-70.1453656214
 21
4.7443028986
  0
LWPOLYLINE
  5
6EF
100
AcDbEntity
  8
RACCORDO
100
AcDbPolyline
 62
250
  6
CONTINUOUS
 90
25
 70
0
 10
-64.3871779605
 20
-24.3785798885
 10
-64.390803796
 20
-24.3185688331
 10
-64.4012522073
 20
-24.2612109682
 10
-64.4178635833
 20
-24.2065062936
 10
-64.4399000771
 20
-24.1544147226
 10
-64.4667289868
 20
-24.1049763421
 10
-64.497980415
 20
-24.0583114125
 10
-64.5331709933
 20
-24.014457721
 10
-64.5717583474
 20
-23.9733774805
 10
-64.6135012445
 20
-23.935077591
 10
-64.6580567513
 20
-23.899555107
 10
-64.7049498809
 20
-23.866812974
 10
-64.7538396849
 20
-23.8368669285
 10
-64.804363191
 20
-23.8097681763
 10
-64.8561594133
 20
-23.7854655117
 10
-64.9089296516
 20
-23.7638210534
 10
-64.962495828
 20
-23.7448561377
 10
-65.0164381006
 20
-23.7285494284
 10
-65.0701005658
 20
-23.7146990357
 10
-65.1228548857
 20
-23.7033920703
 10
-65.1748040598
 20
-23.6945414215
 10
-65.22643107
 20
-23.6876838666
 10
-65.2777988282
 20
-23.682664998
 10
-65.3285201344
 20
-23.6796392232
 10
-65.378451425
 20
-23.6786065424
  0
LWPOLYLINE
  5
6F0
100
AcDbEntity
  8
RACCORDO
100
AcDbPolyline
 62
250
  6
CONTINUOUS
 90
4
 70
0
 10
-65.873130041
 20
-22.578890405
 10
-65.8733507389
 20
-22.5567895432
 10
-65.8736733784
 20
-22.5432529678
 10
-65.8740881572
 20
-22.5386919411
  0
LWPOLYLINE
  5
6F1
100
AcDbEntity
  8
RACCORDO
100
AcDbPolyline
 62
250
  6
CONTINUOUS
 90
4
 70
0
 10
-65.377493314
 20
-23.4188164287
 10
-65.3777140111
 20
-23.3967155672
 10
-65.3780366488
 20
-23.383178992
 10
-65.378451425
 20
-23.3786179654
  0
LINE
  5
6F2
100
AcDbEntity
  8
RACCORDO
100
AcDbLine
 62
250
  6
CONTINUOUS
 10
-65.8731300417
 20
22.6886928274
 11
-65.8740881572
 21
22.838680518
  0
LINE
  5
6F3
100
AcDbEntity
  8
RACCORDO
100
AcDbLine
 62
250
  6
CONTINUOUS
 10
-65.87301799
 20
-22.6458593566
 11
-65.873130041
 21
-22.578890405
  0
LWPOLYLINE
  5
6F4
100
AcDbEntity
  8
RACCORDO
100
AcDbPolyline
 62
250
  6
CONTINUOUS
 90
3
 70
0
 10
-65.8740881572
 20
-22.838680518
 10
-65.8736733784
 20
-22.7865905486
 10
-65.87301799
 20
-22.6458593566
  0
LWPOLYLINE
  5
6F5
100
AcDbEntity
  8
RACCORDO
100
AcDbPolyline
 62
250
  6
CONTINUOUS
 90
6
 70
0
 10
-65.8740881572
 20
22.5386919411
 10
-65.8736733794
 20
22.543252968
 10
-65.8733507406
 20
22.556789544
 10
-65.8731300431
 20
22.5788904065
 10
-65.8730179918
 20
22.6088840965
 10
-65.8731300417
 20
22.6886928274
  0
LINE
  5
6F6
100
AcDbEntity
  8
0
100
AcDbLine
 62
7
  6
CONTINUOUS
 10
-70.3871779605
 20
-1.75
 11
-58.0552389605
 21
-1.75
  0
LINE
  5
6F7
100
AcDbEntity
  8
ASSI
100
AcDbLine
 62
7
  6
CONTINUOUS
 10
-77.8871779605
 20
-1.7320508076
 11
-78.3871779605
 21
-1.7320508076
  0
LINE
  5
6F8
100
AcDbEntity
  8
ASSI
100
AcDbLine
 62
7
  6
CONTINUOUS
 10
-73.3871779605
 20
-1.4620191517
 11
-71.3871779605
 21
-1.4620191517
  0
LINE
  5
6F9
100
AcDbEntity
  8
0
100
AcDbLine
 62
7
  6
CONTINUOUS
 10
-70.3871779605
 20
-1.381939
 11
-57.6871779605
 21
-1.381939
  0
LINE
  5
6FA
100
AcDbEntity
  8
0
100
AcDbLine
 62
7
  6
CONTINUOUS
 10
-57.6871779605
 20
-1.3
 11
-55.8871779605
 21
-1.3
  0
LWPOLYLINE
  5
6FB
100
AcDbEntity
  8
RACCORDO
100
AcDbPolyline
 62
250
  6
CONTINUOUS
 90
22
 70
0
 10
-64.3871779605
 20
-24.0386345761
 10
-64.3904717588
 20
-23.9680272053
 10
-64.3999785691
 20
-23.9000386571
 10
-64.4151168251
 20
-23.8346689317
 10
-64.4352148866
 20
-23.7719785099
 10
-64.459712062
 20
-23.7119069107
 10
-64.4883308873
 20
-23.6542726913
 10
-64.5206969727
 20
-23.5990142417
 10
-64.5563004489
 20
-23.5461931719
 10
-64.5948515205
 20
-23.4958128683
 10
-64.6359271074
 20
-23.4479383494
 10
-64.6791612564
 20
-23.4025045967
 10
-64.7244534305
 20
-23.359319941
 10
-64.7715550338
 20
-23.3183447634
 10
-64.820081625
 20
-23.2796186829
 10
-64.8697956273
 20
-23.243068887
 10
-64.9203394694
 20
-23.2087534232
 10
-64.9714947589
 20
-23.1766142439
 10
-65.0232729989
 20
-23.146404395
 10
-65.0755221262
 20
-23.1180415582
 10
-65.1279082787
 20
-23.0916080517
 10
-65.1801967321
 20
-23.0671038755
  0
LWPOLYLINE
  5
6FC
100
AcDbEntity
  8
RACCORDO
100
AcDbPolyline
 62
250
  6
CONTINUOUS
 90
4
 70
0
 10
-62.8818565766
 20
-12.6580492558
 10
-62.8820772744
 20
-12.6359483945
 10
-62.8823999139
 20
-12.6224118194
 10
-62.8828146927
 20
-12.6178507928
  0
LINE
  5
6FD
100
AcDbEntity
  8
RACCORDO
100
AcDbLine
 62
250
  6
CONTINUOUS
 10
-62.8820772745
 20
-13.6847579962
 11
-62.8828146927
 21
-13.5821606302
  0
LINE
  5
6FE
100
AcDbEntity
  8
RACCORDO
100
AcDbLine
 62
250
  6
CONTINUOUS
 10
-62.8765302687
 20
-17.1034991027
 11
-62.8778583254
 21
-16.9133054051
  0
LINE
  5
6FF
100
AcDbEntity
  8
RACCORDO
100
AcDbLine
 62
250
  6
CONTINUOUS
 10
-65.378451425
 20
23.6786065424
 11
-65.3774935319
 21
23.5286231285
  0
LINE
  5
700
100
AcDbEntity
  8
RACCORDO
100
AcDbLine
 62
250
  6
CONTINUOUS
 10
-65.378451425
 20
-24.3930172973
 11
-65.378451425
 21
-23.6786065424
  0
LINE
  5
701
100
AcDbEntity
  8
RACCORDO
100
AcDbLine
 62
250
  6
CONTINUOUS
 10
-65.378451425
 20
23.6786065424
 11
-65.378451425
 21
24.3930172973
  0
LINE
  5
702
100
AcDbEntity
  8
RACCORDO
100
AcDbLine
 62
250
  6
CONTINUOUS
 10
-65.3773812609
 20
-23.4857853798
 11
-65.377493314
 21
-23.4188164287
  0
LWPOLYLINE
  5
703
100
AcDbEntity
  8
RACCORDO
100
AcDbPolyline
 62
250
  6
CONTINUOUS
 90
6
 70
0
 10
-65.3774935319
 20
23.5286231285
 10
-65.3773814794
 20
23.4488135569
 10
-65.3774934976
 20
23.4188188089
 10
-65.3777141468
 20
23.3967168263
 10
-65.3780367243
 20
23.3831793555
 10
-65.3784514298
 20
23.3786179654
  0
LINE
  5
704
100
AcDbEntity
  8
RACCORDO
100
AcDbLine
 62
250
  6
CONTINUOUS
 10
-65.1801967321
 20
23.4002349743
 11
-65.1801967321
 21
23.0671038755
  0
LINE
  5
705
100
AcDbEntity
  8
RACCORDO
100
AcDbLine
 62
250
  6
CONTINUOUS
 10
-65.1801967321
 20
-23.4002349743
 11
-65.1801967321
 21
-23.0671038755
  0
LINE
  5
706
100
AcDbEntity
  8
RACCORDO
100
AcDbLine
 62
7
  6
CONTINUOUS
 10
-64.3871779605
 20
-24.0386348257
 11
-64.3871779605
 21
-24.4016680098
  0
LINE
  5
707
100
AcDbEntity
  8
RACCORDO
100
AcDbLine
 62
7
  6
CONTINUOUS
 10
-64.3871779605
 20
24.0386348257
 11
-64.3871779605
 21
24.4016680098
  0
LWPOLYLINE
  5
708
100
AcDbEntity
  8
RACCORDO
100
AcDbPolyline
 62
250
  6
CONTINUOUS
 90
3
 70
0
 10
-65.378451425
 20
-23.6786065424
 10
-65.3780366466
 20
-23.6265165724
 10
-65.3773812609
 20
-23.4857853798
  0
LINE
  5
709
100
AcDbEntity
  8
RACCORDO
100
AcDbLine
 62
250
  6
CONTINUOUS
 10
-62.8828146927
 20
13.5821606302
 11
-62.8820772744
 21
13.6847579961
  0
LINE
  5
70A
100
AcDbEntity
  8
RACCORDO
100
AcDbLine
 62
250
  6
CONTINUOUS
 10
-62.8778583254
 20
16.9133054051
 11
-62.8765302687
 21
17.1034991027
  0
LWPOLYLINE
  5
70B
100
AcDbEntity
  8
RACCORDO
100
AcDbPolyline
 62
250
  6
CONTINUOUS
 90
25
 70
0
 10
-64.3871779605
 20
24.0386348257
 10
-64.3898046479
 20
23.9756290881
 10
-64.3974087475
 20
23.9147263208
 10
-64.4095639579
 20
23.8559265239
 10
-64.4257943854
 20
23.7992444495
 10
-64.4456815423
 20
23.7446653455
 10
-64.4689578881
 20
23.6921449555
 10
-64.4952792839
 20
23.6417044436
 10
-64.5242804152
 20
23.5933226459
 10
-64.555797287
 20
23.5468918138
 10
-64.5895624841
 20
23.5024045672
 10
-64.6252661246
 20
23.4598682862
 10
-64.6627661836
 20
23.4191973626
 10
-64.7018301841
 20
23.3803941356
 10
-64.7421986182
 20
23.3434562661
 10
-64.7837371011
 20
23.3082911287
 10
-64.82623695
 20
23.2749064065
 10
-64.8694804669
 20
23.2432944163
 10
-64.9133500571
 20
23.2133394838
 10
-64.9576764283
 20
23.1850427868
 10
-65.0022608572
 20
23.1584031473
 10
-65.0469610602
 20
23.1333013572
 10
-65.0916239775
 20
23.1096976806
 10
-65.1360846354
 20
23.0876318533
 10
-65.1801967321
 20
23.0671038755
  0
LWPOLYLINE
  5
70C
100
AcDbEntity
  8
RACCORDO
100
AcDbPolyline
 62
250
  6
CONTINUOUS
 90
6
 70
0
 10
-62.8828146927
 20
12.6178507928
 10
-62.8823999139
 20
12.6224118194
 10
-62.8820772744
 20
12.6359483945
 10
-62.8818565766
 20
12.6580492558
 10
-62.8817445256
 20
12.6880429449
 10
-62.8818565766
 20
12.7678516756
  0
LINE
  5
70D
100
AcDbEntity
  8
0
100
AcDbLine
 62
7
  6
CONTINUOUS
 10
-71.2633851021
 20
-5.0036576198
 11
-70.3586103778
 21
-4.577767143
  0
LINE
  5
70E
100
AcDbEntity
  8
0
100
AcDbLine
 62
7
  6
CONTINUOUS
 10
-57.6871779605
 20
1.3
 11
-55.8871779605
 21
1.3
  0
LINE
  5
70F
100
AcDbEntity
  8
0
100
AcDbLine
 62
7
  6
CONTINUOUS
 10
-70.3871779605
 20
1.381939
 11
-57.6871779605
 21
1.381939
  0
LINE
  5
710
100
AcDbEntity
  8
ASSI
100
AcDbLine
 62
7
  6
CONTINUOUS
 10
-73.3871779605
 20
1.4620191517
 11
-71.3871779605
 21
1.4620191517
  0
LINE
  5
711
100
AcDbEntity
  8
ASSI
100
AcDbLine
 62
7
  6
CONTINUOUS
 10
-77.8871779605
 20
1.7320508076
 11
-78.3871779605
 21
1.7320508076
  0
LINE
  5
712
100
AcDbEntity
  8
0
100
AcDbLine
 62
7
  6
CONTINUOUS
 10
-70.3871779605
 20
1.75
 11
-58.0552389605
 21
1.75
  0
LWPOLYLINE
  5
713
100
AcDbEntity
  8
0
100
AcDbPolyline
 62
7
  6
CONTINUOUS
 90
2
 70
0
 43
0.3500000006
 10
-87.1390096436
 20
2.9285716782
 10
-88.6390101013
 20
2.9285716782
  0
LINE
  5
714
100
AcDbEntity
  8
0
100
AcDbLine
 62
7
  6
CONTINUOUS
 10
-71.2633851021
 20
5.0036576198
 11
-70.3586103778
 21
4.577767143
  0
LWPOLYLINE
  5
715
100
AcDbEntity
  8
RACCORDO
100
AcDbPolyline
 62
7
  6
CONTINUOUS
 90
13
 70
0
 10
-62.387179382
 20
-3.995
 10
-62.391414154
 20
-3.9303897117
 10
-62.4040460309
 20
-3.8668849301
 10
-62.424858874
 20
-3.8055722321
 10
-62.4534965606
 20
-3.7475006775
 10
-62.4894690988
 20
-3.6936638884
 10
-62.532161001
 20
-3.6449830405
 10
-62.5808415563
 20
-3.6022911506
 10
-62.634678028
 20
-3.5663185448
 10
-62.6927500369
 20
-3.5376805378
 10
-62.7540643944
 20
-3.5168672279
 10
-62.8175719171
 20
-3.5042349513
 10
-62.8821860699
 20
-3.5
  0
LWPOLYLINE
  5
716
100
AcDbEntity
  8
RACCORDO
100
AcDbPolyline
 62
250
  6
CONTINUOUS
 90
5
 70
0
 10
-62.8800400898
 20
-3.5648752155
 10
-62.8805487619
 20
-3.5365569174
 10
-62.8810803356
 20
-3.5162470839
 10
-62.8816265186
 20
-3.5040500547
 10
-62.8821779605
 20
-3.5
  0
LINE
  5
717
100
AcDbEntity
  8
RACCORDO
100
AcDbLine
 62
250
  6
CONTINUOUS
 10
-62.8791352393
 20
-3.6436440129
 11
-62.8800400898
 21
-3.5648752155
  0
LWPOLYLINE
  5
718
100
AcDbEntity
  8
RACCORDO
100
AcDbPolyline
 62
250
  6
CONTINUOUS
 90
4
 70
0
 10
-62.8818565766
 20
13.8419507442
 10
-62.8820772744
 20
13.8640516055
 10
-62.8823999139
 20
13.8775881806
 10
-62.8828146927
 20
13.8821492072
  0
LWPOLYLINE
  5
719
100
AcDbEntity
  8
RACCORDO
100
AcDbPolyline
 62
250
  6
CONTINUOUS
 90
5
 70
0
 10
-62.8762866617
 20
17.3433812496
 10
-62.8765481041
 20
17.3717040538
 10
-62.8769023792
 20
17.3920229291
 10
-62.8773421285
 20
17.4042294733
 10
-62.8778583254
 20
17.408286557
  0
LINE
  5
71A
100
AcDbEntity
  8
RACCORDO
100
AcDbLine
 62
250
  6
CONTINUOUS
 10
-62.8818565766
 20
12.7678516756
 11
-62.8828146927
 21
12.9178393698
  0
LINE
  5
71B
100
AcDbEntity
  8
RACCORDO
100
AcDbLine
 62
250
  6
CONTINUOUS
 10
-62.878189965
 20
-3.8047915112
 11
-62.8791352393
 21
-3.6436440129
  0
LINE
  5
71C
100
AcDbEntity
  8
RACCORDO
100
AcDbLine
 62
250
  6
CONTINUOUS
 10
-62.8817445256
 20
-13.7749817932
 11
-62.8820772745
 21
-13.6847579962
  0
LINE
  5
71D
100
AcDbEntity
  8
RACCORDO
100
AcDbLine
 62
250
  6
CONTINUOUS
 10
-62.8760693504
 20
17.2646200001
 11
-62.8762866617
 21
17.3433812496
  0
LINE
  5
71E
100
AcDbEntity
  8
RACCORDO
100
AcDbLine
 62
250
  6
CONTINUOUS
 10
-62.8760693504
 20
-17.2646200001
 11
-62.8765302687
 21
-17.1034991027
  0
LINE
  5
71F
100
AcDbEntity
  8
RACCORDO
100
AcDbLine
 62
250
  6
CONTINUOUS
 10
-62.8828146927
 20
13.5821606302
 11
-62.8828146927
 21
12.9178393698
  0
LINE
  5
720
100
AcDbEntity
  8
RACCORDO
100
AcDbLine
 62
250
  6
CONTINUOUS
 10
-62.8828146927
 20
-12.9178393698
 11
-62.8828146927
 21
-13.5821606302
  0
LINE
  5
721
100
AcDbEntity
  8
RACCORDO
100
AcDbLine
 62
250
  6
CONTINUOUS
 10
-62.8817445255
 20
-12.7250182069
 11
-62.8818565766
 21
-12.6580492558
  0
LINE
  5
722
100
AcDbEntity
  8
RACCORDO
100
AcDbLine
 62
250
  6
CONTINUOUS
 10
-62.8817445255
 20
13.7749817931
 11
-62.8818565766
 21
13.8419507442
  0
LINE
  5
723
100
AcDbEntity
  8
RACCORDO
100
AcDbLine
 62
250
  6
CONTINUOUS
 10
-62.8778583254
 20
16.9133054051
 11
-62.8778583254
 21
14.2457854409
  0
LINE
  5
724
100
AcDbEntity
  8
RACCORDO
100
AcDbLine
 62
250
  6
CONTINUOUS
 10
-62.8778583254
 20
12.2542145591
 11
-62.8778583254
 21
7.9957854409
  0
LINE
  5
725
100
AcDbEntity
  8
RACCORDO
100
AcDbLine
 62
250
  6
CONTINUOUS
 10
-62.8778583254
 20
5.991713443
 11
-62.8778583254
 21
5.75
  0
LINE
  5
726
100
AcDbEntity
  8
RACCORDO
100
AcDbLine
 62
250
  6
CONTINUOUS
 10
-62.878189965
 20
-3.8047915112
 11
-62.8778583254
 21
-4.75
  0
LINE
  5
727
100
AcDbEntity
  8
RACCORDO
100
AcDbLine
 62
250
  6
CONTINUOUS
 10
-62.8778583254
 20
-5.75
 11
-62.8778583254
 21
-5.991713443
  0
LINE
  5
728
100
AcDbEntity
  8
RACCORDO
100
AcDbLine
 62
250
  6
CONTINUOUS
 10
-62.8778583254
 20
-7.9957854409
 11
-62.8778583254
 21
-12.2542145591
  0
LINE
  5
729
100
AcDbEntity
  8
RACCORDO
100
AcDbLine
 62
250
  6
CONTINUOUS
 10
-62.8778583254
 20
-14.2457854409
 11
-62.8778583254
 21
-16.9133054051
  0
LINE
  5
72A
100
AcDbEntity
  8
RACCORDO
100
AcDbLine
 62
250
  6
CONTINUOUS
 10
-62.6871779605
 20
27.0
 11
-62.6871779605
 21
25.6263477664
  0
LINE
  5
72B
100
AcDbEntity
  8
RACCORDO
100
AcDbLine
 62
250
  6
CONTINUOUS
 10
-62.6871779605
 20
-25.6263477664
 11
-62.6871779605
 21
-27.0
  0
LINE
  5
72C
100
AcDbEntity
  8
RACCORDO
100
AcDbLine
 62
7
  6
CONTINUOUS
 10
-62.3871941368
 20
4.75
 11
-62.3871941368
 21
3.995
  0
LINE
  5
72D
100
AcDbEntity
  8
RACCORDO
100
AcDbLine
 62
7
  6
CONTINUOUS
 10
-62.3871941368
 20
-3.995
 11
-62.3871941368
 21
-4.75
  0
LINE
  5
72E
100
AcDbEntity
  8
RACCORDO
100
AcDbLine
 62
7
  6
CONTINUOUS
 10
-62.3871941368
 20
16.9133016579
 11
-62.3871779605
 21
6.2406854326
  0
LINE
  5
72F
100
AcDbEntity
  8
DRAFT
100
AcDbLine
 62
7
  6
CONTINUOUS
 10
-62.3871779605
 20
6.2406854326
 11
-62.3871779605
 21
5.9959958016
  0
LINE
  5
730
100
AcDbEntity
  8
RACCORDO
100
AcDbLine
 62
7
  6
CONTINUOUS
 10
-62.3871779605
 20
6.0
 11
-62.3871779605
 21
5.75
  0
LINE
  5
731
100
AcDbEntity
  8
RACCORDO
100
AcDbLine
 62
7
  6
CONTINUOUS
 10
-62.3871779605
 20
-5.75
 11
-62.3871779605
 21
-6.0000000686
  0
LINE
  5
732
100
AcDbEntity
  8
DRAFT
100
AcDbLine
 62
7
  6
CONTINUOUS
 10
-62.3871779605
 20
-5.9959958019
 11
-62.3871779605
 21
-6.2406854326
  0
LINE
  5
733
100
AcDbEntity
  8
RACCORDO
100
AcDbLine
 62
7
  6
CONTINUOUS
 10
-62.3871779605
 20
-6.2406854326
 11
-62.3871941368
 21
-16.9133015342
  0
LINE
  5
734
100
AcDbEntity
  8
RACCORDO
100
AcDbLine
 62
7
  6
CONTINUOUS
 10
-62.3871779605
 20
-25.4104329559
 11
-62.3871779605
 21
-26.7
  0
LINE
  5
735
100
AcDbEntity
  8
RACCORDO
100
AcDbLine
 62
7
  6
CONTINUOUS
 10
-62.3871779605
 20
25.4104329559
 11
-62.3871779605
 21
26.7
  0
LINE
  5
736
100
AcDbEntity
  8
RACCORDO
100
AcDbLine
 62
250
  6
CONTINUOUS
 10
-62.8778583254
 20
4.75
 11
-62.878187138
 21
3.805571701
  0
LINE
  5
737
100
AcDbEntity
  8
RACCORDO
100
AcDbLine
 62
250
  6
CONTINUOUS
 10
-62.8765302687
 20
17.1034991027
 11
-62.8760693504
 21
17.2646200001
  0
LINE
  5
738
100
AcDbEntity
  8
RACCORDO
100
AcDbLine
 62
250
  6
CONTINUOUS
 10
-62.8820772744
 20
13.6847579961
 11
-62.8817445255
 21
13.7749817931
  0
LINE
  5
739
100
AcDbEntity
  8
RACCORDO
100
AcDbLine
 62
250
  6
CONTINUOUS
 10
-62.878187138
 20
3.805571701
 11
-62.8791235172
 21
3.6449821433
  0
LWPOLYLINE
  5
73A
100
AcDbEntity
  8
RACCORDO
100
AcDbPolyline
 62
250
  6
CONTINUOUS
 90
3
 70
0
 10
-62.8828146927
 20
-12.9178393698
 10
-62.8823999139
 20
-12.8657493997
 10
-62.8817445255
 20
-12.7250182069
  0
LWPOLYLINE
  5
73B
100
AcDbEntity
  8
RACCORDO
100
AcDbPolyline
 62
250
  6
CONTINUOUS
 90
6
 70
0
 10
-62.8791235172
 20
3.6449821433
 10
-62.8800181429
 20
3.5663174251
 10
-62.8805249077
 20
3.5376796314
 10
-62.8810599566
 20
3.516866716
 10
-62.8816141349
 20
3.5042347936
 10
-62.8821779605
 20
3.5
  0
LWPOLYLINE
  5
73C
100
AcDbEntity
  8
RACCORDO
100
AcDbPolyline
 62
7
  6
CONTINUOUS
 90
13
 70
0
 10
-62.387179382
 20
3.995
 10
-62.3914509399
 20
3.9301109056
 10
-62.4041975365
 20
3.866320834
 10
-62.4252073485
 20
3.8047331185
 10
-62.4541303101
 20
3.746406221
 10
-62.4904711202
 20
3.6923625025
 10
-62.5335865707
 20
3.6435632508
 10
-62.5828378088
 20
3.6007673991
 10
-62.6372827928
 20
3.5648251921
 10
-62.6955634156
 20
3.5365253035
 10
-62.7564613431
 20
3.5162313922
 10
-62.8190257272
 20
3.5040457406
 10
-62.8821860685
 20
3.5
  0
LWPOLYLINE
  5
73D
100
AcDbEntity
  8
RACCORDO
100
AcDbPolyline
 62
7
  6
CONTINUOUS
 90
13
 70
0
 10
-62.3871872007
 20
-16.9138620307
 10
-62.3914149633
 20
-16.9778642547
 10
-62.4038988067
 20
-17.0408425459
 10
-62.4244523962
 20
-17.1017326631
 10
-62.452762456
 20
-17.1595183677
 10
-62.4883668867
 20
-17.2131926595
 10
-62.5306393054
 20
-17.2617896164
 10
-62.5788478519
 20
-17.3044737224
 10
-62.6321893536
 20
-17.3405389797
 10
-62.689761075
 20
-17.3693750188
 10
-62.7505888545
 20
-17.390493808
 10
-62.813643563
 20
-17.4035379147
 10
-62.8778582786
 20
-17.4082865566
  0
LWPOLYLINE
  5
73E
100
AcDbEntity
  8
RACCORDO
100
AcDbPolyline
 62
250
  6
CONTINUOUS
 90
5
 70
0
 10
-62.8828146927
 20
-13.8821492072
 10
-62.8823999139
 20
-13.8775881806
 10
-62.8820772744
 20
-13.8640516055
 10
-62.8818565766
 20
-13.8419507442
 10
-62.8817445256
 20
-13.7749817932
  0
LWPOLYLINE
  5
73F
100
AcDbEntity
  8
RACCORDO
100
AcDbPolyline
 62
250
  6
CONTINUOUS
 90
6
 70
0
 10
-62.8778583254
 20
-17.408286557
 10
-62.8773421285
 20
-17.4042294733
 10
-62.8769023792
 20
-17.3920229291
 10
-62.8765481041
 20
-17.3717040538
 10
-62.8762866617
 20
-17.3433812496
 10
-62.8760693504
 20
-17.2646200001
  0
LINE
  5
740
100
AcDbEntity
  8
0
100
AcDbLine
 62
7
  6
CONTINUOUS
 10
-73.3871779605
 20
3.25
 11
-74.3871779605
 21
3.25
  0
LINE
  5
741
100
AcDbEntity
  8
RACCORDO
100
AcDbLine
 62
7
  6
CONTINUOUS
 10
-70.3871779605
 20
3.5
 11
-62.8817292572
 21
3.5
  0
LINE
  5
742
100
AcDbEntity
  8
RACCORDO
100
AcDbLine
 62
250
  6
CONTINUOUS
 10
-62.3871859678
 20
3.995
 11
-70.3871779605
 21
3.995
  0
LINE
  5
743
100
AcDbEntity
  8
0
100
AcDbLine
 62
7
  6
CONTINUOUS
 10
-71.3871779605
 20
4.45
 11
-70.3871779605
 21
4.45
  0
LINE
  5
744
100
AcDbEntity
  8
0
100
AcDbLine
 62
7
  6
CONTINUOUS
 10
-53.3871779668
 20
4.75
 11
-70.0871779605
 21
4.75
  0
LINE
  5
745
100
AcDbEntity
  8
RACCORDO
100
AcDbLine
 62
7
  6
CONTINUOUS
 10
-74.3871779605
 20
5.5
 11
-77.8871779605
 21
5.5305440373
  0
LINE
  5
746
100
AcDbEntity
  8
0
100
AcDbLine
 62
7
  6
CONTINUOUS
 10
-58.0552389605
 20
1.75
 11
-58.0552389605
 21
-1.75
  0
LINE
  5
747
100
AcDbEntity
  8
0
100
AcDbLine
 62
7
  6
CONTINUOUS
 10
-57.6871779605
 20
-1.381939
 11
-58.0552389605
 21
-1.75
  0
LINE
  5
748
100
AcDbEntity
  8
DRAFT
100
AcDbLine
 62
7
  6
CONTINUOUS
 10
-73.3871779605
 20
5.9
 11
-62.3871779605
 21
5.9959955457
  0
LINE
  5
749
100
AcDbEntity
  8
DRAFT
100
AcDbLine
 62
250
  6
CONTINUOUS
 10
-62.3871779605
 20
6.0969966593
 11
-73.3871779605
 21
6.025
  0
LINE
  5
74A
100
AcDbEntity
  8
0
100
AcDbLine
 62
7
  6
CONTINUOUS
 10
-53.3871779668
 20
5.75
 11
-70.0871779605
 21
5.75
  0
LINE
  5
74B
100
AcDbEntity
  8
ASSI
100
AcDbLine
 62
7
  6
CONTINUOUS
 10
-73.3871779605
 20
8.0
 11
-62.3871779605
 21
8.0
  0
LINE
  5
74C
100
AcDbEntity
  8
DRAFT
100
AcDbLine
 62
7
  6
CONTINUOUS
 10
-73.3871779605
 20
6.25
 11
-62.3871779605
 21
6.2406854326
  0
LINE
  5
74D
100
AcDbEntity
  8
RACCORDO
100
AcDbLine
 62
7
  6
CONTINUOUS
 10
-62.3871779605
 20
7.6278238509
 11
-73.3871779605
 21
7.7238193966
  0
LINE
  5
74E
100
AcDbEntity
  8
RACCORDO
100
AcDbLine
 62
250
  6
CONTINUOUS
 10
-62.3871779605
 20
7.4033666635
 11
-73.3871779605
 21
7.5001001239
  0
LINE
  5
74F
100
AcDbEntity
  8
0
100
AcDbLine
 62
7
  6
CONTINUOUS
 10
-57.6871779605
 20
1.381939
 11
-58.0552389605
 21
1.75
  0
LINE
  5
750
100
AcDbEntity
  8
0
100
AcDbLine
 62
7
  6
CONTINUOUS
 10
-57.6871779605
 20
1.381939
 11
-57.6871779605
 21
-1.381939
  0
LINE
  5
751
100
AcDbEntity
  8
0
100
AcDbLine
 62
7
  6
CONTINUOUS
 10
-57.1257917248
 20
-4.75
 11
-57.1257917248
 21
-5.75
  0
LINE
  5
752
100
AcDbEntity
  8
0
100
AcDbLine
 62
7
  6
CONTINUOUS
 10
-57.1257917248
 20
4.75
 11
-57.1257917248
 21
5.75
  0
LINE
  5
753
100
AcDbEntity
  8
0
100
AcDbLine
 62
250
  6
CONTINUOUS
 10
-55.8871779605
 20
-1.3
 11
-55.8871779605
 21
1.3
  0
LINE
  5
754
100
AcDbEntity
  8
0
100
AcDbLine
 62
7
  6
CONTINUOUS
 10
-55.6871779605
 20
1.1
 11
-55.6871779605
 21
-1.1
  0
LINE
  5
755
100
AcDbEntity
  8
0
100
AcDbLine
 62
250
  6
CONTINUOUS
 10
-54.0621045643
 20
-5.75
 11
-54.0621045643
 21
-4.75
  0
LINE
  5
756
100
AcDbEntity
  8
0
100
AcDbLine
 62
250
  6
CONTINUOUS
 10
-54.0621045643
 20
4.75
 11
-54.0621045643
 21
5.75
  0
LINE
  5
757
100
AcDbEntity
  8
0
100
AcDbLine
 62
7
  6
CONTINUOUS
 10
-53.3871779605
 20
-5.75
 11
-53.3871779605
 21
-4.75
  0
LINE
  5
758
100
AcDbEntity
  8
0
100
AcDbLine
 62
7
  6
CONTINUOUS
 10
-53.3871779605
 20
4.75
 11
-53.3871779605
 21
5.75
  0
LINE
  5
759
100
AcDbEntity
  8
RACCORDO
100
AcDbLine
 62
7
  6
CONTINUOUS
 10
-62.6845599998
 20
12.6195809353
 11
-73.3871779605
 21
12.5261806034
  0
LINE
  5
75A
100
AcDbEntity
  8
RACCORDO
100
AcDbLine
 62
250
  6
CONTINUOUS
 10
-62.8828146927
 20
12.9178393698
 11
-73.3871779605
 21
12.8261691803
  0
LINE
  5
75B
100
AcDbEntity
  8
RACCORDO
100
AcDbLine
 62
250
  6
CONTINUOUS
 10
-62.3871779605
 20
12.9195695122
 11
-62.8828146927
 21
12.9178393698
  0
LINE
  5
75C
100
AcDbEntity
  8
ASSI
100
AcDbLine
 62
7
  6
CONTINUOUS
 10
-73.3871779605
 20
12.25
 11
-62.3871779605
 21
12.25
  0
LWPOLYLINE
  5
75D
100
AcDbEntity
  8
RACCORDO
100
AcDbPolyline
 62
250
  6
CONTINUOUS
 90
5
 70
0
 10
-65.0067247584
 20
22.8242223557
 10
-65.0090855796
 20
22.8281036306
 10
-65.0166907809
 20
22.8391996407
 10
-65.0293107839
 20
22.85717543
 10
-65.0679314713
 20
22.9114045018
  0
LWPOLYLINE
  5
75E
100
AcDbEntity
  8
RACCORDO
100
AcDbPolyline
 62
250
  6
CONTINUOUS
 90
4
 70
0
 10
-65.0293107937
 20
-22.8571755212
 10
-65.016690808
 20
-22.8391997393
 10
-65.0090856252
 20
-22.8281037287
 10
-65.0067248229
 20
-22.8242224444
  0
LINE
  5
75F
100
AcDbEntity
  8
RACCORDO
100
AcDbLine
 62
250
  6
CONTINUOUS
 10
-65.0679314547
 20
-22.9114045606
 11
-65.0293107937
 21
-22.8571755212
  0
LINE
  5
760
100
AcDbEntity
  8
RACCORDO
100
AcDbLine
 62
250
  6
CONTINUOUS
 10
-65.1801967321
 20
-23.0671038755
 11
-65.0679314547
 21
-22.9114045606
  0
LINE
  5
761
100
AcDbEntity
  8
RACCORDO
100
AcDbLine
 62
7
  6
CONTINUOUS
 10
-75.1925618026
 20
14.0
 11
-76.5871779605
 21
14.0
  0
LINE
  5
762
100
AcDbEntity
  8
ASSI
100
AcDbLine
 62
7
  6
CONTINUOUS
 10
-76.5871779605
 20
14.0
 11
-77.8871779605
 21
14.0
  0
LINE
  5
763
100
AcDbEntity
  8
ASSI
100
AcDbLine
 62
7
  6
CONTINUOUS
 10
-73.3871779605
 20
14.25
 11
-62.3871779605
 21
14.25
  0
LINE
  5
764
100
AcDbEntity
  8
RACCORDO
100
AcDbLine
 62
250
  6
CONTINUOUS
 10
-78.3871779605
 20
15.25
 11
-77.8871779605
 21
15.25
  0
LINE
  5
765
100
AcDbEntity
  8
RACCORDO
100
AcDbLine
 62
250
  6
CONTINUOUS
 10
-62.3871779605
 20
13.5804304878
 11
-62.8828146927
 21
13.5821606302
  0
LINE
  5
766
100
AcDbEntity
  8
RACCORDO
100
AcDbLine
 62
250
  6
CONTINUOUS
 10
-62.8828146927
 20
13.5821606302
 11
-73.3871779605
 21
13.6738308197
  0
LINE
  5
767
100
AcDbEntity
  8
RACCORDO
100
AcDbLine
 62
7
  6
CONTINUOUS
 10
-62.6845599998
 20
13.8804190647
 11
-73.3871779605
 21
13.9738193966
  0
LINE
  5
768
100
AcDbEntity
  8
RACCORDO
100
AcDbLine
 62
250
  6
CONTINUOUS
 10
-65.0679314713
 20
22.9114045018
 11
-65.1801967321
 21
23.0671038755
  0
LINE
  5
769
100
AcDbEntity
  8
RACCORDO
100
AcDbLine
 62
7
  6
CONTINUOUS
 10
-78.3871779605
 20
16.0
 11
-77.8871779605
 21
16.0
  0
LINE
  5
76A
100
AcDbEntity
  8
RACCORDO
100
AcDbLine
 62
250
  6
CONTINUOUS
 10
-62.3871859678
 20
16.9133054051
 11
-62.8778583254
 21
16.9133054051
  0
LINE
  5
76B
100
AcDbEntity
  8
RACCORDO
100
AcDbLine
 62
250
  6
CONTINUOUS
 10
-62.8778583254
 20
16.9133054051
 11
-73.3871779605
 21
17.0050188481
  0
LINE
  5
76C
100
AcDbEntity
  8
RACCORDO
100
AcDbLine
 62
7
  6
CONTINUOUS
 10
-62.8774251653
 20
17.4082827768
 11
-73.3871779605
 21
17.5
  0
LWPOLYLINE
  5
76D
100
AcDbEntity
  8
RACCORDO
100
AcDbPolyline
 62
7
  6
CONTINUOUS
 90
13
 70
0
 10
-62.8778582825
 20
17.4082865566
 10
-62.8136435694
 20
17.4035379181
 10
-62.750588856
 20
17.3904938202
 10
-62.689761064
 20
17.3693750448
 10
-62.6321893259
 20
17.3405390235
 10
-62.578847802
 20
17.3044737862
 10
-62.5306392234
 20
17.2617896974
 10
-62.488366951
 20
17.213192994
 10
-62.4527625987
 20
17.159518991
 10
-62.4244521931
 20
17.1017327463
 10
-62.4038980932
 20
17.0408408341
 10
-62.3914140998
 20
16.9778597318
 10
-62.3871869233
 20
16.9138537481
  0
LINE
  5
76E
100
AcDbEntity
  8
RACCORDO
100
AcDbLine
 62
7
  6
CONTINUOUS
 10
-75.1925618026
 20
20.0
 11
-76.5871779605
 21
20.0
  0
LINE
  5
76F
100
AcDbEntity
  8
ASSI
100
AcDbLine
 62
7
  6
CONTINUOUS
 10
-76.5871779605
 20
20.0
 11
-77.8871779605
 21
20.0
  0
LINE
  5
770
100
AcDbEntity
  8
RACCORDO
100
AcDbLine
 62
7
  6
CONTINUOUS
 10
-65.8740881572
 20
22.5386919411
 11
-73.3871779605
 21
22.4731261996
  0
LINE
  5
771
100
AcDbEntity
  8
RACCORDO
100
AcDbLine
 62
250
  6
CONTINUOUS
 10
-65.8740881572
 20
22.838680518
 11
-73.3871779605
 21
22.7731147766
  0
LINE
  5
772
100
AcDbEntity
  8
RACCORDO
100
AcDbLine
 62
7
  6
CONTINUOUS
 10
-73.3871779605
 20
23.3087268678
 11
-72.087353111
 21
23.3200702674
  0
LINE
  5
773
100
AcDbEntity
  8
RACCORDO
100
AcDbLine
 62
7
  6
CONTINUOUS
 10
-70.4938275964
 20
23.3339767539
 11
-65.378451425
 21
23.3786179654
  0
LINE
  5
774
100
AcDbEntity
  8
0
100
AcDbLine
 62
7
  6
CONTINUOUS
 10
-72.0871779605
 20
23.3
 11
-70.5871779605
 21
23.3
  0
LWPOLYLINE
  5
775
100
AcDbEntity
  8
RACCORDO
100
AcDbPolyline
 62
250
  6
CONTINUOUS
 90
25
 70
0
 10
-65.378451425
 20
23.6786065424
 10
-65.3285201351
 20
23.6796392293
 10
-65.2777988293
 20
23.6826650074
 10
-65.2264310712
 20
23.6876838769
 10
-65.1748040605
 20
23.6945414286
 10
-65.1228548857
 20
23.7033920716
 10
-65.0701005652
 20
23.7146990329
 10
-65.0164381
 20
23.7285494253
 10
-64.9624958276
 20
23.744856136
 10
-64.9089296515
 20
23.763821053
 10
-64.8561594134
 20
23.785465512
 10
-64.8043631914
 20
23.8097681773
 10
-64.7538396853
 20
23.8368669296
 10
-64.7049498809
 20
23.8668129743
 10
-64.6580567509
 20
23.899555106
 10
-64.6135012439
 20
23.9350775895
 10
-64.5717583472
 20
23.97337748
 10
-64.5331709937
 20
24.0144577222
 10
-64.4979804156
 20
24.0583114149
 10
-64.4667289875
 20
24.1049763446
 10
-64.4399000776
 20
24.1544147248
 10
-64.4178635835
 20
24.2065062954
 10
-64.4012522074
 20
24.2612109694
 10
-64.390803796
 20
24.3185688338
 10
-64.3871779605
 20
24.3785798885
  0
LINE
  5
776
100
AcDbEntity
  8
RACCORDO
100
AcDbLine
 62
250
  6
CONTINUOUS
 10
-73.3871779605
 20
23.6087154447
 11
-72.0871779605
 21
23.6200603728
  0
LINE
  5
777
100
AcDbEntity
  8
RACCORDO
100
AcDbLine
 62
250
  6
CONTINUOUS
 10
-69.6493682616
 20
23.6413348158
 11
-65.378451425
 21
23.6786065424
  0
LINE
  5
778
100
AcDbEntity
  8
RACCORDO
100
AcDbLine
 62
7
  6
CONTINUOUS
 10
-73.3871779605
 20
24.3231261996
 11
-63.378451425
 21
24.4104710329
  0
LINE
  5
779
100
AcDbEntity
  8
RACCORDO
100
AcDbLine
 62
7
  6
CONTINUOUS
 10
-73.3871779605
 20
24.8
 11
-62.6399629429
 21
24.7458505927
  0
LINE
  5
77A
100
AcDbEntity
  8
RACCORDO
100
AcDbLine
 62
7
  6
CONTINUOUS
 10
-73.078451425
 20
25.9465950349
 11
-73.3871779605
 21
25.9481505411
  0
LINE
  5
77B
100
AcDbEntity
  8
RACCORDO
100
AcDbLine
 62
7
  6
CONTINUOUS
 10
-72.7470902865
 20
25.9776476459
 11
-62.3871779605
 21
25.6158715356
  0
LINE
  5
77C
100
AcDbEntity
  8
RACCORDO
100
AcDbLine
 62
7
  6
CONTINUOUS
 10
-72.871757713
 20
25.9820011283
 11
-73.3880196657
 21
26.000029393
  0
LINE
  5
77D
100
AcDbEntity
  8
RACCORDO
100
AcDbLine
 62
250
  6
CONTINUOUS
 10
-76.4656818948
 20
26.5523670977
 11
-73.3871779605
 21
26.7137046525
  0
LINE
  5
77E
100
AcDbEntity
  8
RACCORDO
100
AcDbLine
 62
250
  6
CONTINUOUS
 10
-77.8871779605
 20
26.5523670977
 11
-76.4656818948
 21
26.5523670962
  0
LINE
  5
77F
100
AcDbEntity
  8
ASSI
100
AcDbLine
 62
7
  6
CONTINUOUS
 10
-73.3871779605
 20
27.0
 11
-62.6871779605
 21
27.0
  0
LINE
  5
780
100
AcDbEntity
  8
RACCORDO
100
AcDbLine
 62
7
  6
CONTINUOUS
 10
-76.4656818948
 20
36.5386624453
 11
-73.3871779605
 21
36.7
  0
CIRCLE
  5
781
100
AcDbEntity
  8
RACCORDO
100
AcDbCircle
 62
250
  6
CONTINUOUS
 10
-33.0
 20
-29.0
 40
4.4499963835
  0
CIRCLE
  5
782
100
AcDbEntity
  8
RACCORDO
100
AcDbCircle
 62
7
  6
CONTINUOUS
 10
-33.0
 20
-29.0
 40
4.25
  0
CIRCLE
  5
783
100
AcDbEntity
  8
RACCORDO
100
AcDbCircle
 62
250
  6
CONTINUOUS
 10
-30.0
 20
-21.0
 40
3.9999951001
  0
CIRCLE
  5
784
100
AcDbEntity
  8
RACCORDO
100
AcDbCircle
 62
7
  6
CONTINUOUS
 10
-30.0
 20
-21.0
 40
3.5
  0
ARC
  5
785
100
AcDbEntity
  8
RACCORDO
100
AcDbCircle
 62
250
  6
CONTINUOUS
 10
-30.0
 20
-2.2
 40
3.4788062794
100
AcDbArc
 50
180.0
 51
265.0871707209
  0
ARC
  5
786
100
AcDbEntity
  8
RACCORDO
100
AcDbCircle
 62
250
  6
CONTINUOUS
 10
-30.0
 20
-2.2
 40
3.4788062794
100
AcDbArc
 50
274.9114161403
 51
298.810793743
  0
ARC
  5
787
100
AcDbEntity
  8
RACCORDO
100
AcDbCircle
 62
250
  6
CONTINUOUS
 10
-30.0
 20
-2.2
 40
3.4178199262
100
AcDbArc
 50
265.566681992
 51
274.4333435836
  0
ARC
  5
788
100
AcDbEntity
  8
RACCORDO
100
AcDbCircle
 62
7
  6
CONTINUOUS
 10
-30.0
 20
-2.2
 40
3.2788138948
100
AcDbArc
 50
180.0
 51
266.7345608089
  0
ARC
  5
789
100
AcDbEntity
  8
RACCORDO
100
AcDbCircle
 62
7
  6
CONTINUOUS
 10
-30.0
 20
-2.2
 40
3.2788138948
100
AcDbArc
 50
273.2654391911
 51
298.810793743
  0
ARC
  5
78A
100
AcDbEntity
  8
DRAFT
100
AcDbCircle
 62
7
  6
CONTINUOUS
 10
-30.0
 20
-2.2
 40
3.25
100
AcDbArc
 50
180.0
 51
266.7528238338
  0
ARC
  5
78B
100
AcDbEntity
  8
DRAFT
100
AcDbCircle
 62
7
  6
CONTINUOUS
 10
-30.0
 20
-2.2
 40
3.25
100
AcDbArc
 50
273.0092817157
 51
298.810793743
  0
ARC
  5
78C
100
AcDbEntity
  8
DRAFT
100
AcDbCircle
 62
7
  6
CONTINUOUS
 10
-2.2
 20
-30.0
 40
3.25
100
AcDbArc
 50
90.0
 51
270.0
  0
ARC
  5
78D
100
AcDbEntity
  8
RACCORDO
100
AcDbCircle
 62
250
  6
CONTINUOUS
 10
-30.0
 20
-2.2
 40
3.2208583756
100
AcDbArc
 50
267.2550618826
 51
272.7449381174
  0
ARC
  5
78E
100
AcDbEntity
  8
ASSI
100
AcDbCircle
 62
7
  6
CONTINUOUS
 10
-30.0
 20
-2.2
 40
3.1
100
AcDbArc
 50
180.0
 51
268.4022625052
  0
ARC
  5
78F
100
AcDbEntity
  8
ASSI
100
AcDbCircle
 62
7
  6
CONTINUOUS
 10
-30.0
 20
-2.2
 40
3.1
100
AcDbArc
 50
271.5752040039
 51
298.810793743
  0
CIRCLE
  5
790
100
AcDbEntity
  8
0
100
AcDbCircle
 62
7
  6
CONTINUOUS
 10
-33.0
 20
-29.0
 40
2.0
  0
ARC
  5
791
100
AcDbEntity
  8
ASSI
100
AcDbCircle
 62
7
  6
CONTINUOUS
 10
-30.0
 20
-2.0
 40
1.8
100
AcDbArc
 50
180.0
 51
360.0
  0
ARC
  5
792
100
AcDbEntity
  8
ASSI
100
AcDbCircle
 62
7
  6
CONTINUOUS
 10
-2.2
 20
-30.0
 40
1.8
100
AcDbArc
 50
90.0
 51
270.0
  0
ARC
  5
793
100
AcDbEntity
  8
RACCORDO
100
AcDbCircle
 62
7
  6
CONTINUOUS
 10
-34.25
 20
-15.25
 40
0.75
100
AcDbArc
 50
180.0
 51
360.0
  0
ARC
  5
794
100
AcDbEntity
  8
RACCORDO
100
AcDbCircle
 62
7
  6
CONTINUOUS
 10
-37.5
 20
-25.8
 40
0.7
100
AcDbArc
 50
180.0
 51
360.0
  0
ARC
  5
795
100
AcDbEntity
  8
RACCORDO
100
AcDbCircle
 62
7
  6
CONTINUOUS
 10
-37.5
 20
-8.2
 40
0.7
100
AcDbArc
 50
0.0
 51
180.0
  0
ARC
  5
796
100
AcDbEntity
  8
0
100
AcDbCircle
 62
7
  6
CONTINUOUS
 10
-30.0
 20
-5.35
 40
0.1
100
AcDbArc
 50
30.0
 51
150.0
  0
CIRCLE
  5
797
100
AcDbEntity
  8
ASSI
100
AcDbCircle
 62
7
  6
CONTINUOUS
 10
-36.0
 20
0.0
 40
2.0
  0
CIRCLE
  5
798
100
AcDbEntity
  8
ASSI
100
AcDbCircle
 62
7
  6
CONTINUOUS
 10
-36.0
 20
0.0
 40
1.39
  0
ARC
  5
799
100
AcDbEntity
  8
RACCORDO
100
AcDbCircle
 62
250
  6
CONTINUOUS
 10
-30.0
 20
2.2
 40
3.4788062794
100
AcDbArc
 50
61.189206257
 51
85.0886145799
  0
ARC
  5
79A
100
AcDbEntity
  8
RACCORDO
100
AcDbCircle
 62
250
  6
CONTINUOUS
 10
-30.0
 20
2.2
 40
3.4788062794
100
AcDbArc
 50
94.9127844518
 51
180.0
  0
ARC
  5
79B
100
AcDbEntity
  8
RACCORDO
100
AcDbCircle
 62
250
  6
CONTINUOUS
 10
-26.0
 20
0.0
 40
3.4657159777
100
AcDbArc
 50
304.5786748601
 51
55.4213251399
  0
ARC
  5
79C
100
AcDbEntity
  8
RACCORDO
100
AcDbCircle
 62
250
  6
CONTINUOUS
 10
-30.0
 20
2.2
 40
3.4178199262
100
AcDbArc
 50
85.566681992
 51
94.4333435836
  0
ARC
  5
79D
100
AcDbEntity
  8
RACCORDO
100
AcDbCircle
 62
7
  6
CONTINUOUS
 10
-30.0
 20
2.2
 40
3.2788138948
100
AcDbArc
 50
93.2654391911
 51
180.0
  0
ARC
  5
79E
100
AcDbEntity
  8
RACCORDO
100
AcDbCircle
 62
7
  6
CONTINUOUS
 10
-30.0
 20
2.2
 40
3.2788138948
100
AcDbArc
 50
61.189206257
 51
86.7345608089
  0
ARC
  5
79F
100
AcDbEntity
  8
RACCORDO
100
AcDbCircle
 62
7
  6
CONTINUOUS
 10
-26.0
 20
0.0
 40
3.2657235931
100
AcDbArc
 50
301.2902162754
 51
58.7097837246
  0
ARC
  5
7A0
100
AcDbEntity
  8
DRAFT
100
AcDbCircle
 62
7
  6
CONTINUOUS
 10
-30.0
 20
2.2
 40
3.25
100
AcDbArc
 50
93.2471761662
 51
180.0
  0
ARC
  5
7A1
100
AcDbEntity
  8
DRAFT
100
AcDbCircle
 62
7
  6
CONTINUOUS
 10
-26.0
 20
0.0
 40
3.25
100
AcDbArc
 50
298.810793743
 51
61.189206257
  0
ARC
  5
7A2
100
AcDbEntity
  8
DRAFT
100
AcDbCircle
 62
7
  6
CONTINUOUS
 10
-30.0
 20
2.2
 40
3.25
100
AcDbArc
 50
61.189206257
 51
86.9907182843
  0
ARC
  5
7A3
100
AcDbEntity
  8
RACCORDO
100
AcDbCircle
 62
250
  6
CONTINUOUS
 10
-30.0
 20
2.2
 40
3.2208583756
100
AcDbArc
 50
87.2550618826
 51
92.7449381174
  0
ARC
  5
7A4
100
AcDbEntity
  8
ASSI
100
AcDbCircle
 62
7
  6
CONTINUOUS
 10
-30.0
 20
2.2
 40
3.1
100
AcDbArc
 50
61.189206257
 51
88.4247699795
  0
ARC
  5
7A5
100
AcDbEntity
  8
ASSI
100
AcDbCircle
 62
7
  6
CONTINUOUS
 10
-30.0
 20
2.2
 40
3.1
100
AcDbArc
 50
91.5977374948
 51
180.0
  0
ARC
  5
7A6
100
AcDbEntity
  8
ASSI
100
AcDbCircle
 62
7
  6
CONTINUOUS
 10
-26.0
 20
0.0
 40
3.1
100
AcDbArc
 50
298.810793743
 51
61.189206257
  0
CIRCLE
  5
7A7
100
AcDbEntity
  8
0
100
AcDbCircle
 62
7
  6
CONTINUOUS
 10
-26.0
 20
0.0
 40
2.75
  0
ARC
  5
7A8
100
AcDbEntity
  8
0
100
AcDbCircle
 62
7
  6
CONTINUOUS
 10
-26.0
 20
0.0
 40
2.6800090692
100
AcDbArc
 50
79.2475216065
 51
100.7524783935
  0
ARC
  5
7A9
100
AcDbEntity
  8
0
100
AcDbCircle
 62
7
  6
CONTINUOUS
 10
-26.0
 20
0.0
 40
2.6800090692
100
AcDbArc
 50
259.2475216065
 51
280.7524783935
  0
ARC
  5
7AA
100
AcDbEntity
  8
0
100
AcDbCircle
 62
250
  6
CONTINUOUS
 10
-26.0
 20
0.0
 40
2.6303144964
100
AcDbArc
 50
100.9581145825
 51
259.0418854175
  0
ARC
  5
7AB
100
AcDbEntity
  8
0
100
AcDbCircle
 62
250
  6
CONTINUOUS
 10
-26.0
 20
0.0
 40
2.6303144964
100
AcDbArc
 50
280.9581145825
 51
79.0418854175
  0
ARC
  5
7AC
100
AcDbEntity
  8
0
100
AcDbCircle
 62
250
  6
CONTINUOUS
 10
-26.0
 20
0.0
 40
2.5025777791
100
AcDbArc
 50
101.5249123964
 51
258.4750876036
  0
ARC
  5
7AD
100
AcDbEntity
  8
0
100
AcDbCircle
 62
250
  6
CONTINUOUS
 10
-26.0
 20
0.0
 40
2.5025777791
100
AcDbArc
 50
281.5249123964
 51
78.4750876036
  0
ARC
  5
7AE
100
AcDbEntity
  8
ASSI
100
AcDbCircle
 62
7
  6
CONTINUOUS
 10
-30.0
 20
2.0
 40
1.8
100
AcDbArc
 50
0.0
 51
180.0
  0
ARC
  5
7AF
100
AcDbEntity
  8
0
100
AcDbCircle
 62
7
  6
CONTINUOUS
 10
-26.0
 20
0.0
 40
1.145
100
AcDbArc
 50
176.3637942714
 51
183.6362057286
  0
ARC
  5
7B0
100
AcDbEntity
  8
0
100
AcDbCircle
 62
7
  6
CONTINUOUS
 10
-26.0
 20
0.0
 40
1.145
100
AcDbArc
 50
356.3637942714
 51
3.6362057286
  0
ARC
  5
7B1
100
AcDbEntity
  8
0
100
AcDbCircle
 62
7
  6
CONTINUOUS
 10
-26.0
 20
0.0
 40
1.145
100
AcDbArc
 50
266.3637942714
 51
273.6362057286
  0
ARC
  5
7B2
100
AcDbEntity
  8
0
100
AcDbCircle
 62
7
  6
CONTINUOUS
 10
-26.0
 20
0.0
 40
1.145
100
AcDbArc
 50
86.3637942714
 51
93.6362057286
  0
ARC
  5
7B3
100
AcDbEntity
  8
0
100
AcDbCircle
 62
7
  6
CONTINUOUS
 10
-30.0
 20
5.35
 40
0.1
100
AcDbArc
 50
210.0
 51
330.0
  0
CIRCLE
  5
7B4
100
AcDbEntity
  8
RACCORDO
100
AcDbCircle
 62
250
  6
CONTINUOUS
 10
-33.0
 20
29.0
 40
4.4499963837
  0
CIRCLE
  5
7B5
100
AcDbEntity
  8
RACCORDO
100
AcDbCircle
 62
7
  6
CONTINUOUS
 10
-33.0
 20
29.0
 40
4.25
  0
CIRCLE
  5
7B6
100
AcDbEntity
  8
RACCORDO
100
AcDbCircle
 62
250
  6
CONTINUOUS
 10
-30.0
 20
21.0
 40
3.9999951001
  0
CIRCLE
  5
7B7
100
AcDbEntity
  8
RACCORDO
100
AcDbCircle
 62
7
  6
CONTINUOUS
 10
-30.0
 20
21.0
 40
3.5
  0
CIRCLE
  5
7B8
100
AcDbEntity
  8
0
100
AcDbCircle
 62
7
  6
CONTINUOUS
 10
-33.0
 20
29.0
 40
2.0
  0
ARC
  5
7B9
100
AcDbEntity
  8
RACCORDO
100
AcDbCircle
 62
7
  6
CONTINUOUS
 10
-34.25
 20
15.25
 40
0.75
100
AcDbArc
 50
0.0
 51
180.0
  0
ARC
  5
7BA
100
AcDbEntity
  8
RACCORDO
100
AcDbCircle
 62
7
  6
CONTINUOUS
 10
-37.5
 20
25.8
 40
0.7
100
AcDbArc
 50
0.0
 51
180.0
  0
ARC
  5
7BB
100
AcDbEntity
  8
0
100
AcDbCircle
 62
7
  6
CONTINUOUS
 10
-4.25
 20
0.0
 40
25.0
100
AcDbArc
 50
171.9574948866
 51
188.0425062769
  0
ARC
  5
7BC
100
AcDbEntity
  8
DRAFT
100
AcDbCircle
 62
7
  6
CONTINUOUS
 10
-2.2
 20
30.0
 40
3.25
100
AcDbArc
 50
90.0
 51
270.0
  0
ARC
  5
7BD
100
AcDbEntity
  8
ASSI
100
AcDbCircle
 62
7
  6
CONTINUOUS
 10
-2.2
 20
30.0
 40
1.8
100
AcDbArc
 50
90.0
 51
270.0
  0
CIRCLE
  5
7BE
100
AcDbEntity
  8
RACCORDO
100
AcDbCircle
 62
250
  6
CONTINUOUS
 10
33.0
 20
-29.0
 40
4.4499963837
  0
CIRCLE
  5
7BF
100
AcDbEntity
  8
RACCORDO
100
AcDbCircle
 62
7
  6
CONTINUOUS
 10
33.0
 20
-29.0
 40
4.25
  0
CIRCLE
  5
7C0
100
AcDbEntity
  8
RACCORDO
100
AcDbCircle
 62
250
  6
CONTINUOUS
 10
30.0
 20
-21.0
 40
3.9999951001
  0
CIRCLE
  5
7C1
100
AcDbEntity
  8
RACCORDO
100
AcDbCircle
 62
7
  6
CONTINUOUS
 10
30.0
 20
-21.0
 40
3.5
  0
ARC
  5
7C2
100
AcDbEntity
  8
RACCORDO
100
AcDbCircle
 62
250
  6
CONTINUOUS
 10
30.0
 20
-2.2
 40
3.4788062794
100
AcDbArc
 50
241.189206257
 51
265.0886145799
  0
ARC
  5
7C3
100
AcDbEntity
  8
RACCORDO
100
AcDbCircle
 62
250
  6
CONTINUOUS
 10
30.0
 20
-2.2
 40
3.4788062794
100
AcDbArc
 50
274.9127844518
 51
360.0
  0
ARC
  5
7C4
100
AcDbEntity
  8
RACCORDO
100
AcDbCircle
 62
250
  6
CONTINUOUS
 10
30.0
 20
-2.2
 40
3.4178199262
100
AcDbArc
 50
265.566681992
 51
274.4333435836
  0
ARC
  5
7C5
100
AcDbEntity
  8
RACCORDO
100
AcDbCircle
 62
7
  6
CONTINUOUS
 10
30.0
 20
-2.2
 40
3.2788138948
100
AcDbArc
 50
273.2654391911
 51
360.0
  0
ARC
  5
7C6
100
AcDbEntity
  8
RACCORDO
100
AcDbCircle
 62
7
  6
CONTINUOUS
 10
30.0
 20
-2.2
 40
3.2788138948
100
AcDbArc
 50
241.189206257
 51
266.7345608089
  0
ARC
  5
7C7
100
AcDbEntity
  8
DRAFT
100
AcDbCircle
 62
7
  6
CONTINUOUS
 10
30.0
 20
-2.2
 40
3.25
100
AcDbArc
 50
241.189206257
 51
266.9907182843
  0
ARC
  5
7C8
100
AcDbEntity
  8
DRAFT
100
AcDbCircle
 62
7
  6
CONTINUOUS
 10
30.0
 20
-2.2
 40
3.25
100
AcDbArc
 50
273.2471761662
 51
360.0
  0
ARC
  5
7C9
100
AcDbEntity
  8
DRAFT
100
AcDbCircle
 62
7
  6
CONTINUOUS
 10
2.2
 20
-30.0
 40
3.25
100
AcDbArc
 50
270.0
 51
90.0
  0
ARC
  5
7CA
100
AcDbEntity
  8
RACCORDO
100
AcDbCircle
 62
250
  6
CONTINUOUS
 10
30.0
 20
-2.2
 40
3.2208583756
100
AcDbArc
 50
267.2550618826
 51
272.7449381174
  0
ARC
  5
7CB
100
AcDbEntity
  8
ASSI
100
AcDbCircle
 62
7
  6
CONTINUOUS
 10
30.0
 20
-2.2
 40
3.1
100
AcDbArc
 50
241.189206257
 51
268.4247699795
  0
ARC
  5
7CC
100
AcDbEntity
  8
ASSI
100
AcDbCircle
 62
7
  6
CONTINUOUS
 10
30.0
 20
-2.2
 40
3.1
100
AcDbArc
 50
271.5977374948
 51
360.0
  0
CIRCLE
  5
7CD
100
AcDbEntity
  8
0
100
AcDbCircle
 62
7
  6
CONTINUOUS
 10
33.0
 20
-29.0
 40
2.0
  0
ARC
  5
7CE
100
AcDbEntity
  8
ASSI
100
AcDbCircle
 62
7
  6
CONTINUOUS
 10
30.0
 20
-2.0
 40
1.8
100
AcDbArc
 50
180.0
 51
360.0
  0
ARC
  5
7CF
100
AcDbEntity
  8
ASSI
100
AcDbCircle
 62
7
  6
CONTINUOUS
 10
2.2
 20
-30.0
 40
1.8
100
AcDbArc
 50
270.0
 51
90.0
  0
ARC
  5
7D0
100
AcDbEntity
  8
RACCORDO
100
AcDbCircle
 62
7
  6
CONTINUOUS
 10
34.25
 20
-15.25
 40
0.75
100
AcDbArc
 50
180.0
 51
360.0
  0
ARC
  5
7D1
100
AcDbEntity
  8
RACCORDO
100
AcDbCircle
 62
7
  6
CONTINUOUS
 10
37.5
 20
-8.2
 40
0.7
100
AcDbArc
 50
0.0
 51
180.0
  0
ARC
  5
7D2
100
AcDbEntity
  8
RACCORDO
100
AcDbCircle
 62
7
  6
CONTINUOUS
 10
37.5
 20
-25.8
 40
0.7
100
AcDbArc
 50
180.0
 51
360.0
  0
ARC
  5
7D3
100
AcDbEntity
  8
0
100
AcDbCircle
 62
7
  6
CONTINUOUS
 10
30.0
 20
-5.35
 40
0.1
100
AcDbArc
 50
30.0
 51
150.0
  0
ARC
  5
7D4
100
AcDbEntity
  8
0
100
AcDbCircle
 62
7
  6
CONTINUOUS
 10
4.25
 20
0.0
 40
25.0
100
AcDbArc
 50
351.9574948866
 51
8.0425062769
  0
ARC
  5
7D5
100
AcDbEntity
  8
DRAFT
100
AcDbCircle
 62
7
  6
CONTINUOUS
 10
2.2
 20
30.0
 40
3.25
100
AcDbArc
 50
270.0
 51
90.0
  0
ARC
  5
7D6
100
AcDbEntity
  8
ASSI
100
AcDbCircle
 62
7
  6
CONTINUOUS
 10
2.2
 20
30.0
 40
1.8
100
AcDbArc
 50
270.0
 51
90.0
  0
ARC
  5
7D7
100
AcDbEntity
  8
RACCORDO
100
AcDbCircle
 62
250
  6
CONTINUOUS
 10
30.0
 20
2.2
 40
3.4788062794
100
AcDbArc
 50
0.0
 51
85.0871707209
  0
ARC
  5
7D8
100
AcDbEntity
  8
RACCORDO
100
AcDbCircle
 62
250
  6
CONTINUOUS
 10
30.0
 20
2.2
 40
3.4788062794
100
AcDbArc
 50
94.9114161403
 51
118.810793743
  0
ARC
  5
7D9
100
AcDbEntity
  8
RACCORDO
100
AcDbCircle
 62
250
  6
CONTINUOUS
 10
26.0
 20
0.0
 40
3.4657159777
100
AcDbArc
 50
124.5786748601
 51
235.4213251399
  0
ARC
  5
7DA
100
AcDbEntity
  8
RACCORDO
100
AcDbCircle
 62
250
  6
CONTINUOUS
 10
30.0
 20
2.2
 40
3.4178199262
100
AcDbArc
 50
85.566681992
 51
94.4333435836
  0
ARC
  5
7DB
100
AcDbEntity
  8
RACCORDO
100
AcDbCircle
 62
7
  6
CONTINUOUS
 10
30.0
 20
2.2
 40
3.2788138948
100
AcDbArc
 50
0.0
 51
86.7345608089
  0
ARC
  5
7DC
100
AcDbEntity
  8
RACCORDO
100
AcDbCircle
 62
7
  6
CONTINUOUS
 10
30.0
 20
2.2
 40
3.2788138948
100
AcDbArc
 50
93.2654391911
 51
118.810793743
  0
ARC
  5
7DD
100
AcDbEntity
  8
RACCORDO
100
AcDbCircle
 62
7
  6
CONTINUOUS
 10
26.0
 20
0.0
 40
3.2657235931
100
AcDbArc
 50
121.2902162754
 51
238.7097837246
  0
ARC
  5
7DE
100
AcDbEntity
  8
DRAFT
100
AcDbCircle
 62
7
  6
CONTINUOUS
 10
30.0
 20
2.2
 40
3.25
100
AcDbArc
 50
93.0092817157
 51
118.810793743
  0
ARC
  5
7DF
100
AcDbEntity
  8
DRAFT
100
AcDbCircle
 62
7
  6
CONTINUOUS
 10
26.0
 20
0.0
 40
3.25
100
AcDbArc
 50
118.810793743
 51
241.189206257
  0
ARC
  5
7E0
100
AcDbEntity
  8
DRAFT
100
AcDbCircle
 62
7
  6
CONTINUOUS
 10
30.0
 20
2.2
 40
3.25
100
AcDbArc
 50
0.0
 51
86.7528238338
  0
ARC
  5
7E1
100
AcDbEntity
  8
RACCORDO
100
AcDbCircle
 62
250
  6
CONTINUOUS
 10
30.0
 20
2.2
 40
3.2208583756
100
AcDbArc
 50
87.2550618826
 51
92.7449381174
  0
ARC
  5
7E2
100
AcDbEntity
  8
ASSI
100
AcDbCircle
 62
7
  6
CONTINUOUS
 10
30.0
 20
2.2
 40
3.1
100
AcDbArc
 50
0.0
 51
88.4022625052
  0
ARC
  5
7E3
100
AcDbEntity
  8
ASSI
100
AcDbCircle
 62
7
  6
CONTINUOUS
 10
30.0
 20
2.2
 40
3.1
100
AcDbArc
 50
91.5752040039
 51
118.810793743
  0
ARC
  5
7E4
100
AcDbEntity
  8
ASSI
100
AcDbCircle
 62
7
  6
CONTINUOUS
 10
26.0
 20
0.0
 40
3.1
100
AcDbArc
 50
118.810793743
 51
241.189206257
  0
CIRCLE
  5
7E5
100
AcDbEntity
  8
0
100
AcDbCircle
 62
7
  6
CONTINUOUS
 10
26.0
 20
0.0
 40
2.75
  0
ARC
  5
7E6
100
AcDbEntity
  8
0
100
AcDbCircle
 62
7
  6
CONTINUOUS
 10
26.0
 20
0.0
 40
2.6800090692
100
AcDbArc
 50
79.2475216065
 51
100.7524783935
  0
ARC
  5
7E7
100
AcDbEntity
  8
0
100
AcDbCircle
 62
7
  6
CONTINUOUS
 10
26.0
 20
0.0
 40
2.6800090692
100
AcDbArc
 50
259.2475216065
 51
280.7524783935
  0
ARC
  5
7E8
100
AcDbEntity
  8
0
100
AcDbCircle
 62
250
  6
CONTINUOUS
 10
26.0
 20
0.0
 40
2.6303144964
100
AcDbArc
 50
100.9581145825
 51
259.0418854175
  0
ARC
  5
7E9
100
AcDbEntity
  8
0
100
AcDbCircle
 62
250
  6
CONTINUOUS
 10
26.0
 20
0.0
 40
2.6303144964
100
AcDbArc
 50
280.9581145825
 51
79.0418854175
  0
ARC
  5
7EA
100
AcDbEntity
  8
0
100
AcDbCircle
 62
250
  6
CONTINUOUS
 10
26.0
 20
0.0
 40
2.5025777791
100
AcDbArc
 50
101.5249123964
 51
258.4750876036
  0
ARC
  5
7EB
100
AcDbEntity
  8
0
100
AcDbCircle
 62
250
  6
CONTINUOUS
 10
26.0
 20
0.0
 40
2.5025777791
100
AcDbArc
 50
281.5249123964
 51
78.4750876036
  0
ARC
  5
7EC
100
AcDbEntity
  8
ASSI
100
AcDbCircle
 62
7
  6
CONTINUOUS
 10
30.0
 20
2.0
 40
1.8
100
AcDbArc
 50
0.0
 51
180.0
  0
ARC
  5
7ED
100
AcDbEntity
  8
0
100
AcDbCircle
 62
7
  6
CONTINUOUS
 10
26.0
 20
0.0
 40
1.145
100
AcDbArc
 50
176.3637942714
 51
183.6362057286
  0
ARC
  5
7EE
100
AcDbEntity
  8
0
100
AcDbCircle
 62
7
  6
CONTINUOUS
 10
26.0
 20
0.0
 40
1.145
100
AcDbArc
 50
356.3637942714
 51
3.6362057286
  0
ARC
  5
7EF
100
AcDbEntity
  8
0
100
AcDbCircle
 62
7
  6
CONTINUOUS
 10
26.0
 20
0.0
 40
1.145
100
AcDbArc
 50
266.3637942714
 51
273.6362057286
  0
ARC
  5
7F0
100
AcDbEntity
  8
0
100
AcDbCircle
 62
7
  6
CONTINUOUS
 10
26.0
 20
0.0
 40
1.145
100
AcDbArc
 50
86.3637942714
 51
93.6362057286
  0
ARC
  5
7F1
100
AcDbEntity
  8
0
100
AcDbCircle
 62
7
  6
CONTINUOUS
 10
30.0
 20
5.35
 40
0.1
100
AcDbArc
 50
210.0
 51
330.0
  0
ARC
  5
7F2
100
AcDbEntity
  8
ASSI
100
AcDbCircle
 62
7
  6
CONTINUOUS
 10
29.3
 20
12.3
 40
2.9735749324
100
AcDbArc
 50
292.0885430493
 51
273.4298135376
  0
ARC
  5
7F3
100
AcDbEntity
  8
ASSI
100
AcDbCircle
 62
7
  6
CONTINUOUS
 10
29.210062
 20
6.694428
 40
2.6508884458
100
AcDbArc
 50
47.2312789315
 51
84.2011848539
  0
ARC
  5
7F4
100
AcDbEntity
  8
ASSI
100
AcDbCircle
 62
7
  6
CONTINUOUS
 10
29.418685
 20
7.123813
 40
2.6190759282
100
AcDbArc
 50
45.4348969444
 51
67.5658555825
  0
CIRCLE
  5
7F5
100
AcDbEntity
  8
ASSI
100
AcDbCircle
 62
7
  6
CONTINUOUS
 10
29.3
 20
12.3
 40
2.497595
  0
ARC
  5
7F6
100
AcDbEntity
  8
ASSI
100
AcDbCircle
 62
7
  6
CONTINUOUS
 10
29.3
 20
12.3
 40
2.2337503191
100
AcDbArc
 50
299.3041411838
 51
44.9957558871
  0
ARC
  5
7F7
100
AcDbEntity
  8
ASSI
100
AcDbCircle
 62
7
  6
CONTINUOUS
 10
29.3
 20
12.3
 40
2.2337501706
100
AcDbArc
 50
134.9002628452
 51
240.6958588162
  0
ARC
  5
7F8
100
AcDbEntity
  8
ASSI
100
AcDbCircle
 62
7
  6
CONTINUOUS
 10
29.3
 20
12.3
 40
1.7896378839
100
AcDbArc
 50
299.3041347443
 51
31.9732648174
  0
ARC
  5
7F9
100
AcDbEntity
  8
ASSI
100
AcDbCircle
 62
7
  6
CONTINUOUS
 10
29.3
 20
12.3
 40
1.78963742
100
AcDbArc
 50
148.02673736
 51
240.6958652557
  0
CIRCLE
  5
7FA
100
AcDbEntity
  8
ASSI
100
AcDbCircle
 62
7
  6
CONTINUOUS
 10
36.0
 20
0.0
 40
2.0
  0
CIRCLE
  5
7FB
100
AcDbEntity
  8
ASSI
100
AcDbCircle
 62
7
  6
CONTINUOUS
 10
36.0
 20
0.0
 40
1.39
  0
ARC
  5
7FC
100
AcDbEntity
  8
RACCORDO
100
AcDbCircle
 62
7
  6
CONTINUOUS
 10
37.5
 20
8.2
 40
0.7
100
AcDbArc
 50
180.0
 51
360.0
  0
CIRCLE
  5
7FD
100
AcDbEntity
  8
RACCORDO
100
AcDbCircle
 62
250
  6
CONTINUOUS
 10
33.0
 20
29.0
 40
4.4499963835
  0
CIRCLE
  5
7FE
100
AcDbEntity
  8
RACCORDO
100
AcDbCircle
 62
7
  6
CONTINUOUS
 10
33.0
 20
29.0
 40
4.25
  0
CIRCLE
  5
7FF
100
AcDbEntity
  8
RACCORDO
100
AcDbCircle
 62
250
  6
CONTINUOUS
 10
30.0
 20
21.0
 40
3.9999951001
  0
CIRCLE
  5
800
100
AcDbEntity
  8
RACCORDO
100
AcDbCircle
 62
7
  6
CONTINUOUS
 10
30.0
 20
21.0
 40
3.5
  0
CIRCLE
  5
801
100
AcDbEntity
  8
ASSI
100
AcDbCircle
 62
7
  6
CONTINUOUS
 10
33.0
 20
29.0
 40
2.0
  0
ARC
  5
802
100
AcDbEntity
  8
RACCORDO
100
AcDbCircle
 62
7
  6
CONTINUOUS
 10
34.25
 20
15.25
 40
0.75
100
AcDbArc
 50
0.0
 51
180.0
  0
ARC
  5
803
100
AcDbEntity
  8
RACCORDO
100
AcDbCircle
 62
7
  6
CONTINUOUS
 10
37.5
 20
25.8
 40
0.7
100
AcDbArc
 50
0.0
 51
180.0
  0
ARC
  5
804
100
AcDbEntity
  8
RACCORDO
100
AcDbCircle
 62
7
  6
CONTINUOUS
 10
-76.3871779605
 20
-35.0407019545
 40
1.5
100
AcDbArc
 50
180.0006183607
 51
267.0000323617
  0
ARC
  5
805
100
AcDbEntity
  8
0
100
AcDbCircle
 62
7
  6
CONTINUOUS
 10
-66.3884168585
 20
-4.75
 40
1.5
100
AcDbArc
 50
221.8103148958
 51
233.3589032603
  0
ARC
  5
806
100
AcDbEntity
  8
0
100
AcDbCircle
 62
7
  6
CONTINUOUS
 10
-66.3884168585
 20
-4.75
 40
1.5
100
AcDbArc
 50
305.6404508246
 51
318.1896851042
  0
ARC
  5
807
100
AcDbEntity
  8
0
100
AcDbCircle
 62
7
  6
CONTINUOUS
 10
-70.0871779605
 20
-4.45
 40
1.3
100
AcDbArc
 50
180.0
 51
270.0
  0
ARC
  5
808
100
AcDbEntity
  8
0
100
AcDbCircle
 62
7
  6
CONTINUOUS
 10
-70.0871779605
 20
-4.45
 40
0.3
100
AcDbArc
 50
180.0
 51
270.0
  0
ARC
  5
809
100
AcDbEntity
  8
RACCORDO
100
AcDbCircle
 62
7
  6
CONTINUOUS
 10
-76.3871779605
 20
35.0407019545
 40
1.5
100
AcDbArc
 50
92.9999676383
 51
179.9993816393
  0
ARC
  5
80A
100
AcDbEntity
  8
0
100
AcDbCircle
 62
7
  6
CONTINUOUS
 10
-66.3884168585
 20
4.75
 40
1.5
100
AcDbArc
 50
41.8103148958
 51
54.3595491754
  0
ARC
  5
80B
100
AcDbEntity
  8
0
100
AcDbCircle
 62
7
  6
CONTINUOUS
 10
-66.3884168585
 20
4.75
 40
1.5
100
AcDbArc
 50
126.6410967397
 51
138.1896851042
  0
ARC
  5
80C
100
AcDbEntity
  8
0
100
AcDbCircle
 62
7
  6
CONTINUOUS
 10
-70.0871779605
 20
4.45
 40
1.3
100
AcDbArc
 50
90.0
 51
180.0
  0
ARC
  5
80D
100
AcDbEntity
  8
0
100
AcDbCircle
 62
7
  6
CONTINUOUS
 10
-70.0871779605
 20
4.45
 40
0.3
100
AcDbArc
 50
90.0
 51
180.0
  0
ARC
  5
80E
100
AcDbEntity
  8
0
100
AcDbCircle
 62
7
  6
CONTINUOUS
 10
-64.3884168585
 20
-5.75
 40
1.5
100
AcDbArc
 50
41.8103148958
 51
138.1896851042
  0
ARC
  5
80F
100
AcDbEntity
  8
RACCORDO
100
AcDbCircle
 62
7
  6
CONTINUOUS
 10
-65.8871779605
 20
-24.0386348257
 40
1.5
100
AcDbArc
 50
0.0
 51
89.5
  0
ARC
  5
810
100
AcDbEntity
  8
RACCORDO
100
AcDbCircle
 62
7
  6
CONTINUOUS
 10
-65.3871779605
 20
-24.3785798885
 40
1.0
100
AcDbArc
 50
0.0
 51
89.5
  0
ARC
  5
811
100
AcDbEntity
  8
RACCORDO
100
AcDbCircle
 62
7
  6
CONTINUOUS
 10
-63.3871779605
 20
-25.4104329559
 40
1.0
100
AcDbArc
 50
0.0
 51
89.5
  0
ARC
  5
812
100
AcDbEntity
  8
RACCORDO
100
AcDbCircle
 62
7
  6
CONTINUOUS
 10
-62.6871779605
 20
-26.7
 40
0.3
100
AcDbArc
 50
270.0
 51
360.0
  0
ARC
  5
813
100
AcDbEntity
  8
RACCORDO
100
AcDbCircle
 62
7
  6
CONTINUOUS
 10
-62.6871780364
 20
-13.5804304884
 40
0.3
100
AcDbArc
 50
270.500014511
 51
0.0000001266
  0
ARC
  5
814
100
AcDbEntity
  8
RACCORDO
100
AcDbCircle
 62
7
  6
CONTINUOUS
 10
-62.6871779232
 20
-12.9195695126
 40
0.3
100
AcDbArc
 50
0.0000000621
 51
89.5000071144
  0
ARC
  5
815
100
AcDbEntity
  8
0
100
AcDbCircle
 62
7
  6
CONTINUOUS
 10
-55.8871779605
 20
-1.1
 40
0.2
100
AcDbArc
 50
270.0
 51
360.0
  0
ARC
  5
816
100
AcDbEntity
  8
0
100
AcDbCircle
 62
7
  6
CONTINUOUS
 10
-64.3884168585
 20
5.75
 40
1.5
100
AcDbArc
 50
221.8103148958
 51
318.1896851042
  0
ARC
  5
817
100
AcDbEntity
  8
RACCORDO
100
AcDbCircle
 62
7
  6
CONTINUOUS
 10
-65.8871779605
 20
24.0386348257
 40
1.5
100
AcDbArc
 50
270.5
 51
360.0
  0
ARC
  5
818
100
AcDbEntity
  8
RACCORDO
100
AcDbCircle
 62
7
  6
CONTINUOUS
 10
-65.3871779605
 20
24.3785798885
 40
1.0
100
AcDbArc
 50
270.5
 51
360.0
  0
ARC
  5
819
100
AcDbEntity
  8
RACCORDO
100
AcDbCircle
 62
7
  6
CONTINUOUS
 10
-63.3871779605
 20
25.4104329559
 40
1.0
100
AcDbArc
 50
270.5
 51
360.0
  0
ARC
  5
81A
100
AcDbEntity
  8
RACCORDO
100
AcDbCircle
 62
7
  6
CONTINUOUS
 10
-62.6871779605
 20
26.7
 40
0.3
100
AcDbArc
 50
0.0
 51
90.0
  0
ARC
  5
81B
100
AcDbEntity
  8
RACCORDO
100
AcDbCircle
 62
7
  6
CONTINUOUS
 10
-62.6871779232
 20
13.5804304874
 40
0.3
100
AcDbArc
 50
0.0000000621
 51
89.5000071144
  0
ARC
  5
81C
100
AcDbEntity
  8
RACCORDO
100
AcDbCircle
 62
7
  6
CONTINUOUS
 10
-62.6871780364
 20
12.9195695116
 40
0.3
100
AcDbArc
 50
270.500014511
 51
0.0000001266
  0
ARC
  5
81D
100
AcDbEntity
  8
0
100
AcDbCircle
 62
7
  6
CONTINUOUS
 10
-55.8871779605
 20
1.1
 40
0.2
100
AcDbArc
 50
0.0
 51
90.0
  0
ELLIPSE
  5
81E
100
AcDbEntity
  8
RACCORDO
100
AcDbEllipse
 62
7
  6
CONTINUOUS
 10
-8.9913112106
 20
24.32574426
 30
0.0
 11
1.0
 21
-0.0
 31
0.0
 40
0.0087268678
 41
0.0087266463
 42
1.5707963268
  0
ELLIPSE
  5
81F
100
AcDbEntity
  8
RACCORDO
100
AcDbEllipse
 62
7
  6
CONTINUOUS
 10
-8.9913112106
 20
25.9895237692
 30
0.0
 11
1.0
 21
0.0
 31
0.0
 40
0.0349207695
 41
4.7123889804
 42
6.2744586609
  0
ELLIPSE
  5
820
100
AcDbEntity
  8
RACCORDO
100
AcDbEllipse
 62
7
  6
CONTINUOUS
 10
-13.0086887894
 20
25.9895237692
 30
0.0
 11
1.0
 21
0.0
 31
0.0
 40
0.0349207695
 41
3.4886027807
 42
4.7123889804
  0
ELLIPSE
  5
821
100
AcDbEntity
  8
RACCORDO
100
AcDbEllipse
 62
7
  6
CONTINUOUS
 10
29.98627654
 20
26.68627654
 30
0.0
 11
7.0904624344
 21
7.0904624344
 31
0.0
 40
0.9972646886
 41
-0.7840286355
 42
0.7840286355
  0
ELLIPSE
  5
822
100
AcDbEntity
  8
RACCORDO
100
AcDbEllipse
 62
7
  6
CONTINUOUS
 10
-29.98627654
 20
26.68627654
 30
0.0
 11
7.0904624344
 21
-7.0904624344
 31
0.0
 40
0.9972646886
 41
2.3575640181
 42
3.9256212891
  0
ELLIPSE
  5
823
100
AcDbEntity
  8
RACCORDO
100
AcDbEllipse
 62
7
  6
CONTINUOUS
 10
-13.0086887894
 20
26.524011257
 30
0.0
 11
0.9999904793
 21
0.5773887445
 31
0.0
 40
0.0075575453
 41
3.1459556444
 42
3.4842391252
  0
ELLIPSE
  5
824
100
AcDbEntity
  8
RACCORDO
100
AcDbEllipse
 62
7
  6
CONTINUOUS
 10
-29.98627654
 20
-26.68627654
 30
0.0
 11
7.0904624344
 21
7.0904624344
 31
0.0
 40
0.9972646886
 41
-3.9256212891
 42
-2.3575640181
  0
ELLIPSE
  5
825
100
AcDbEntity
  8
RACCORDO
100
AcDbEllipse
 62
7
  6
CONTINUOUS
 10
29.98627654
 20
-26.68627654
 30
0.0
 11
7.0904624344
 21
-7.0904624344
 31
0.0
 40
0.9972646886
 41
-0.7840286355
 42
0.7840286355
  0
ELLIPSE
  5
826
100
AcDbEntity
  8
RACCORDO
100
AcDbEllipse
 62
7
  6
CONTINUOUS
 10
-13.0086887894
 20
24.32574426
 30
0.0
 11
1.0
 21
-0.0
 31
0.0
 40
0.0087268678
 41
1.5707963268
 42
3.1328660073
  0
ELLIPSE
  5
827
100
AcDbEntity
  8
RACCORDO
100
AcDbEllipse
 62
7
  6
CONTINUOUS
 10
8.9913112106
 20
25.9895237692
 30
0.0
 11
1.0
 21
-0.0
 31
0.0
 40
0.0349207695
 41
3.1503192998
 42
4.7123889804
  0
ELLIPSE
  5
828
100
AcDbEntity
  8
RACCORDO
100
AcDbEllipse
 62
7
  6
CONTINUOUS
 10
8.9913112106
 20
24.32574426
 30
0.0
 11
1.0
 21
-0.0
 31
0.0
 40
0.0087268678
 41
1.5707963268
 42
3.1328660073
  0
ELLIPSE
  5
829
100
AcDbEntity
  8
RACCORDO
100
AcDbEllipse
 62
7
  6
CONTINUOUS
 10
13.0086887894
 20
24.32574426
 30
0.0
 11
1.0
 21
0.0
 31
0.0
 40
0.0087268678
 41
0.0087266463
 42
1.5707963268
  0
ELLIPSE
  5
82A
100
AcDbEntity
  8
RACCORDO
100
AcDbEllipse
 62
7
  6
CONTINUOUS
 10
13.0086887894
 20
26.524011257
 30
0.0
 11
0.9999904793
 21
-0.5773887445
 31
0.0
 40
0.0075575453
 41
5.9405388355
 42
6.2788223164
  0
ELLIPSE
  5
82B
100
AcDbEntity
  8
RACCORDO
100
AcDbEllipse
 62
7
  6
CONTINUOUS
 10
13.0086887894
 20
25.9895237692
 30
0.0
 11
1.0
 21
0.0
 31
0.0
 40
0.0349207695
 41
4.7123889804
 42
5.9361751801
  0
ELLIPSE
  5
82C
100
AcDbEntity
  8
RACCORDO
100
AcDbEllipse
 62
7
  6
CONTINUOUS
 10
-13.0086887894
 20
-24.32574426
 30
0.0
 11
1.0
 21
0.0
 31
0.0
 40
0.0087268678
 41
-3.1328660073
 42
-1.5707963268
  0
ELLIPSE
  5
82D
100
AcDbEntity
  8
RACCORDO
100
AcDbEllipse
 62
7
  6
CONTINUOUS
 10
-13.0086887894
 20
-26.524011257
 30
0.0
 11
0.9999904793
 21
-0.5773887445
 31
0.0
 40
0.0075575453
 41
9.0821314891
 42
9.42041497
  0
ELLIPSE
  5
82E
100
AcDbEntity
  8
RACCORDO
100
AcDbEllipse
 62
7
  6
CONTINUOUS
 10
-13.0086887894
 20
-25.9895237692
 30
0.0
 11
1.0
 21
0.0
 31
0.0
 40
0.0349207695
 41
7.853981634
 42
9.0777678337
  0
ELLIPSE
  5
82F
100
AcDbEntity
  8
RACCORDO
100
AcDbEllipse
 62
7
  6
CONTINUOUS
 10
-8.9913112106
 20
-25.9895237692
 30
0.0
 11
1.0
 21
0.0
 31
0.0
 40
0.0349207695
 41
6.2919119534
 42
7.853981634
  0
ELLIPSE
  5
830
100
AcDbEntity
  8
RACCORDO
100
AcDbEllipse
 62
7
  6
CONTINUOUS
 10
-8.9913112106
 20
-24.32574426
 30
0.0
 11
1.0
 21
-0.0
 31
0.0
 40
0.0087268678
 41
-1.5707963268
 42
-0.0087266463
  0
ELLIPSE
  5
831
100
AcDbEntity
  8
0
100
AcDbEllipse
 62
7
  6
CONTINUOUS
 10
20.669534
 20
-28.9347060901
 30
0.0
 11
0.389369
 21
-0.0
 31
0.0
 40
0.9698463104
 41
-1.5707740043
 42
0.0000976854
  0
ELLIPSE
  5
832
100
AcDbEntity
  8
0
100
AcDbEllipse
 62
7
  6
CONTINUOUS
 10
20.669534
 20
-28.8999764545
 30
0.0
 11
0.389369
 21
0.0
 31
0.0
 40
0.9698463104
 41
-1.5707740043
 42
1.5707963268
  0
ELLIPSE
  5
833
100
AcDbEntity
  8
0
100
AcDbEllipse
 62
7
  6
CONTINUOUS
 10
-11.745905
 20
-29.3305668797
 30
0.0
 11
0.572706
 21
-0.0
 31
0.0
 40
0.9698463104
 41
1.575752907
 42
2.8801892312
  0
ELLIPSE
  5
834
100
AcDbEntity
  8
RACCORDO
100
AcDbEllipse
 62
7
  6
CONTINUOUS
 10
-38.2711937206
 20
-5.5287986637
 30
0.0
 11
0.2
 21
-0.0
 31
0.0
 40
0.0087268678
 41
-3.1328660073
 42
-1.5707963268
  0
ELLIPSE
  5
835
100
AcDbEntity
  8
RACCORDO
100
AcDbEllipse
 62
7
  6
CONTINUOUS
 10
38.2711937206
 20
5.5287986637
 30
0.0
 11
0.2
 21
-0.0
 31
0.0
 40
0.0087268678
 41
0.0087266463
 42
1.5707963268
  0
ELLIPSE
  5
836
100
AcDbEntity
  8
0
100
AcDbEllipse
 62
7
  6
CONTINUOUS
 10
-11.745905
 20
-29.3652965153
 30
0.0
 11
0.572706
 21
0.0
 31
0.0
 40
0.9698463104
 41
1.5757529076
 42
2.8801892336
  0
ELLIPSE
  5
837
100
AcDbEntity
  8
RACCORDO
100
AcDbEllipse
 62
7
  6
CONTINUOUS
 10
25.3
 20
-31.7904868204
 30
0.0
 11
-0.0
 21
1.7013845459
 31
0.0
 40
0.1763269807
 41
1.5707963268
 42
3.1415926536
  0
ELLIPSE
  5
838
100
AcDbEntity
  8
RACCORDO
100
AcDbEllipse
 62
7
  6
CONTINUOUS
 10
25.3
 20
31.7904868204
 30
0.0
 11
-0.0
 21
1.7013845459
 31
0.0
 40
0.1763269807
 41
0.0
 42
1.5707963268
  0
ELLIPSE
  5
839
100
AcDbEntity
  8
RACCORDO
100
AcDbEllipse
 62
7
  6
CONTINUOUS
 10
-25.3
 20
31.7904868204
 30
0.0
 11
-0.0
 21
1.7013845459
 31
0.0
 40
0.1763269807
 41
-1.5707963268
 42
0.0
  0
ELLIPSE
  5
83A
100
AcDbEntity
  8
RACCORDO
100
AcDbEllipse
 62
7
  6
CONTINUOUS
 10
-25.3
 20
-31.7904868204
 30
0.0
 11
-0.0
 21
1.7013845459
 31
0.0
 40
0.1763269807
 41
-3.1415926536
 42
-1.5707963268
  0
ELLIPSE
  5
83B
100
AcDbEntity
  8
RACCORDO
100
AcDbEllipse
 62
7
  6
CONTINUOUS
 10
-38.3407181432
 20
-5.5174537356
 30
0.0
 11
1.5
 21
-0.0
 31
0.0
 40
0.0087268678
 41
3.1939525311
 42
4.7123889804
  0
ELLIPSE
  5
83C
100
AcDbEntity
  8
RACCORDO
100
AcDbEllipse
 62
7
  6
CONTINUOUS
 10
38.3407181432
 20
5.5174537356
 30
0.0
 11
1.5
 21
0.0
 31
0.0
 40
0.0087268678
 41
6.3355451847
 42
7.853981634
  0
ELLIPSE
  5
83D
100
AcDbEntity
  8
RACCORDO
100
AcDbEllipse
 62
7
  6
CONTINUOUS
 10
-73.0871779605
 20
26.524011257
 30
0.0
 11
0.9999619405
 21
-0.0151136524
 31
0.0
 40
0.5772623493
 41
-1.5533450274
 42
-1.2150615466
  0
ENDSEC
  0
SECTION
  2
OBJECTS
  0
DICTIONARY
  5
C
100
AcDbDictionary
280
0
281
1
  3
ACAD_GROUP
350
D
  3
ACAD_MLINESTYLE
350
17
  3
ACAD_LAYOUT
350
1A
  3
ACAD_PLOTSETTINGS
350
19
  3
ACAD_PLOTSTYLENAME
350
E
  0
DICTIONARY
  5
D
102
{ACAD_REACTORS
330
C
102
}
100
AcDbDictionary
280
0
281
1
  0
ACDBDICTIONARYWDFLT
  5
E
102
{ACAD_REACTORS
330
C
102
}
100
AcDbDictionary
281
1
  3
Normal
350
F
100
AcDbDictionaryWithDefault
340
F
  0
DICTIONARY
  5
17
102
{ACAD_REACTORS
330
C
102
}
100
AcDbDictionary
280
0
281
1
  3
Standard
350
18
  0
DICTIONARY
  5
19
102
{ACAD_REACTORS
330
C
102
}
100
AcDbDictionary
281
1
  0
DICTIONARY
  5
1A
102
{ACAD_REACTORS
330
C
102
}
100
AcDbDictionary
281
1
  3
Model
350
83E
  3
Layout1
350
83F
  0
ACDBPLACEHOLDER
  5
F
102
{ACAD_REACTORS
330
E
102
}
  0
MLINESTYLE
  5
18
102
{ACAD_REACTORS
330
17
102
}
100
AcDbMlineStyle
  2
STANDARD
 70
0
  3

 62
256
 51
90.0
 52
90.0
 71
2
 49
0.5
 62
256
  6
BYLAYER
 49
-0.5
 62
256
  6
BYLAYER
  0
LAYOUT
  5
83E
102
{ACAD_REACTORS
330
1A
102
}
100
AcDbPlotSettings
  1

  2
none_device
  4
ISO_A4_(297.00_x_210.00_MM)
  6

 40
0.0
 41
0.0
 42
0.0
 43
0.0
 44
297.0
 45
210.0
 46
0.0
 47
0.0
 48
0.0
 49
0.0
140
0.0
141
0.0
142
1.0
143
1.0
 70
1024
 72
1
 73
0
 74
0
  7

 75
0
147
1.0
148
0.0
149
0.0
100
AcDbLayout
  1
Model
 70
0
 71
0
 10
0.0
 20
0.0
 11
297.0
 21
210.0
 12
0.0
 22
0.0
 32
0.0
 14
0.0
 24
0.0
 34
0.0
 15
0.0
 25
0.0
 35
0.0
146
0.0
 13
0.0
 23
0.0
 33
0.0
 16
1.0
 26
0.0
 36
0.0
 17
0.0
 27
1.0
 37
0.0
 76
0
330
211
345
0
346
0
  0
LAYOUT
  5
83F
102
{ACAD_REACTORS
330
1A
102
}
100
AcDbPlotSettings
  1

  2
none_device
  4
ISO_A4_(297.00_x_210.00_MM)
  6

 40
0.0
 41
0.0
 42
0.0
 43
0.0
 44
297.0
 45
210.0
 46
0.0
 47
0.0
 48
0.0
 49
0.0
140
0.0
141
0.0
142
1.0
143
1.0
 70
0
 72
1
 73
0
 74
0
  7

 75
0
147
1.0
148
0.0
149
0.0
100
AcDbLayout
  1
Layout1
 70
0
 71
1
 10
0.0
 20
0.0
 11
297.0
 21
210.0
 12
0.0
 22
0.0
 32
0.0
 14
0.0
 24
0.0
 34
0.0
 15
0.0
 25
0.0
 35
0.0
146
0.0
 13
0.0
 23
0.0
 33
0.0
 16
1.0
 26
0.0
 36
0.0
 17
0.0
 27
1.0
 37
0.0
 76
0
330
212
345
0
346
0
  0
ENDSEC
  0
EOF
