  0
SECTION
  2
HEADER
  9
$ACADVER
  1
AC1015
  9
$DWGCODEPAGE
  3
ANSI_1252
  9
$EXTMAX
 10
297.0
 20
210.0
 30
0.0
  9
$EXTMIN
 10
0.0
 20
0.0
 30
0.0
  9
$LIMMIN
 10
0.0
 20
0.0
  9
$LIMMAX
 10
297.0
 20
210.0
  9
$VIEWCTR
 10
148.5
 20
105.0
  9
$VIEWSIZE
 40
210.0
  9
$CLAYER
  8
0
  9
$LTSCALE
 40
16.335
  9
$CELTYPE
  6
BYLAYER
  9
$DIMSCALE
 40
1.0
  9
$DIMASZ
 40
3.0
  9
$DIMEXO
 40
0.5
  9
$DIMDLI
 40
11.286
  9
$DIMEXE
 40
1.5
  9
$DIMCEN
 40
2.673
  9
$DIMLFAC
 40
1.0
  9
$DIMBLK
  1
_FILLED
  9
$DIMTXT
 40
3.0
  9
$DIMTOL
 70
1
  9
$DIMLIM
 70
0
  9
$DIMTFAC
 40
1.0
  9
$DIMTP
 40
0.01
  9
$DIMTM
 40
0.01
  9
$DIMGAP
 40
0.625
  9
$DIMDSEP
 70
44
  9
$PDMODE
 70
3
  9
$PDSIZE
 40
3.0
  9
$HANDSEED
  5
8A4
  9
$TILEMODE
 70
1
  9
$MEASUREMENT
 70
1
  9
$INSUNITS
 70
4
  0
ENDSEC
  0
SECTION
  2
CLASSES
  0
CLASS
  1
ACDBDICTIONARYWDFLT
  2
AcDbDictionaryWithDefault
  3
AutoCAD 2000
 90
0
280
0
281
0
  0
CLASS
  1
ACDBPLACEHOLDER
  2
AcDbPlaceHolder
  3
AutoCAD 2000
 90
0
280
0
281
0
  0
CLASS
  1
LAYOUT
  2
AcDbLayout
  3
AutoCAD 2000
 90
0
280
0
281
0
  0
ENDSEC
  0
SECTION
  2
TABLES
  0
TABLE
  2
VPORT
  5
8
100
AcDbSymbolTable
 70
2
  0
VPORT
  5
1F4
100
AcDbSymbolTableRecord
100
AcDbViewportTableRecord
  2
*ACTIVE
 70
0
 10
0.0
 20
0.0
 11
1.0
 21
1.0
 12
148.5
 22
105.0
 13
0.0
 23
0.0
 14
1.0
 24
1.0
 15
0.0
 25
0.0
 16
0.0
 26
0.0
 36
1.0
 17
0.0
 27
0.0
 37
0.0
 40
210.0
 41
1.4142857143
 42
50.0
 43
0.0
 44
0.0
 50
0.0
 51
0.0
 71
0
 72
100
 73
1
 74
1
 75
0
 76
0
 77
0
 78
0
  0
ENDTAB
  0
TABLE
  2
LTYPE
  5
5
100
AcDbSymbolTable
 70
6
  0
LTYPE
  5
14
100
AcDbSymbolTableRecord
100
AcDbLinetypeTableRecord
  2
BYBLOCK
 70
0
  3

 72
65
 73
0
 40
0.0
  0
LTYPE
  5
15
100
AcDbSymbolTableRecord
100
AcDbLinetypeTableRecord
  2
BYLAYER
 70
0
  3

 72
65
 73
0
 40
0.0
  0
LTYPE
  5
16
100
AcDbSymbolTableRecord
100
AcDbLinetypeTableRecord
  2
CONTINUOUS
 70
64
  3
Solid line
 72
65
 73
0
 40
0.0
  0
LTYPE
  5
1F5
100
AcDbSymbolTableRecord
100
AcDbLinetypeTableRecord
  2
CENTER
 70
64
  3
____ _ ____ _ ____ _ ____ _ ____ _ ____ _ ____
 72
65
 73
4
 40
0.6
 49
0.375
 74
0
 49
-0.075
 74
0
 49
0.075
 74
0
 49
-0.075
 74
0
  0
LTYPE
  5
1F6
100
AcDbSymbolTableRecord
100
AcDbLinetypeTableRecord
  2
HIDDEN
 70
64
  3
- - - - - - - - - - - - - - - - - - - -
 72
65
 73
2
 40
0.2
 49
0.1
 74
0
 49
-0.1
 74
0
  0
LTYPE
  5
1F7
100
AcDbSymbolTableRecord
100
AcDbLinetypeTableRecord
  2
PHANTOM
 70
64
  3
_____ _ _ _____ _ _ _____ _ _ _____
 72
65
 73
6
 40
0.8
 49
0.45
 74
0
 49
-0.05
 74
0
 49
0.1
 74
0
 49
-0.05
 74
0
 49
0.1
 74
0
 49
-0.05
 74
0
  0
LTYPE
  5
1F8
100
AcDbSymbolTableRecord
100
AcDbLinetypeTableRecord
  2
DOT
 70
64
  3
. . . . . . . . . . . . . . . . . . . .
 72
65
 73
2
 40
0.2
 49
0.1
 74
0
 49
-0.1
 74
0
  0
LTYPE
  5
1F9
100
AcDbSymbolTableRecord
100
AcDbLinetypeTableRecord
  2
DASHED
 70
64
  3
- - - - - - - - - - - - - - - - - - - -
 72
65
 73
2
 40
0.2
 49
0.1
 74
0
 49
-0.1
 74
0
  0
ENDTAB
  0
TABLE
  2
LAYER
  5
2
100
AcDbSymbolTable
 70
36
  0
LAYER
  5
10
100
AcDbSymbolTableRecord
100
AcDbLayerTableRecord
  2
0
 70
0
 62
7
  6
CONTINUOUS
370
-3
390
F
  0
LAYER
  5
1FA
100
AcDbSymbolTableRecord
100
AcDbLayerTableRecord
  2
DEFAULT_1
 70
0
 62
7
  6
CENTER
370
-3
390
F
  0
LAYER
  5
1FB
100
AcDbSymbolTableRecord
100
AcDbLayerTableRecord
  2
DEFAULT_2
 70
0
 62
7
  6
HIDDEN
370
-3
390
F
  0
LAYER
  5
1FC
100
AcDbSymbolTableRecord
100
AcDbLayerTableRecord
  2
DEFAULT_3
 70
0
 62
7
  6
PHANTOM
370
-3
390
F
  0
LAYER
  5
1FD
100
AcDbSymbolTableRecord
100
AcDbLayerTableRecord
  2
ALTRI_ASSI
 70
0
 62
7
  6
CONTINUOUS
370
-3
390
F
  0
LAYER
  5
1FE
100
AcDbSymbolTableRecord
100
AcDbLayerTableRecord
  2
ALTRI_PIANI
 70
0
 62
7
  6
CONTINUOUS
370
-3
390
F
  0
LAYER
  5
1FF
100
AcDbSymbolTableRecord
100
AcDbLayerTableRecord
  2
ASSI
 70
0
 62
7
  6
CONTINUOUS
370
-3
390
F
  0
LAYER
  5
200
100
AcDbSymbolTableRecord
100
AcDbLayerTableRecord
  2
COORDINATE
 70
0
 62
7
  6
CONTINUOUS
370
-3
390
F
  0
LAYER
  5
201
100
AcDbSymbolTableRecord
100
AcDbLayerTableRecord
  2
COORD_ORIGINE
 70
0
 62
7
  6
CONTINUOUS
370
-3
390
F
  0
LAYER
  5
202
100
AcDbSymbolTableRecord
100
AcDbLayerTableRecord
  2
COPY_GEOM
 70
0
 62
7
  6
CONTINUOUS
370
-3
390
F
  0
LAYER
  5
203
100
AcDbSymbolTableRecord
100
AcDbLayerTableRecord
  2
CURVE
 70
0
 62
7
  6
CONTINUOUS
370
-3
390
F
  0
LAYER
  5
204
100
AcDbSymbolTableRecord
100
AcDbLayerTableRecord
  2
DRAFT
 70
0
 62
7
  6
CONTINUOUS
370
-3
390
F
  0
LAYER
  5
205
100
AcDbSymbolTableRecord
100
AcDbLayerTableRecord
  2
IGES
 70
0
 62
7
  6
CONTINUOUS
370
-3
390
F
  0
LAYER
  5
206
100
AcDbSymbolTableRecord
100
AcDbLayerTableRecord
  2
NOTE
 70
0
 62
7
  6
CONTINUOUS
370
-3
390
F
  0
LAYER
  5
207
100
AcDbSymbolTableRecord
100
AcDbLayerTableRecord
  2
PIANI
 70
0
 62
7
  6
CONTINUOUS
370
-3
390
F
  0
LAYER
  5
208
100
AcDbSymbolTableRecord
100
AcDbLayerTableRecord
  2
PIANI_ORIGINE
 70
0
 62
7
  6
CONTINUOUS
370
-3
390
F
  0
LAYER
  5
209
100
AcDbSymbolTableRecord
100
AcDbLayerTableRecord
  2
PUNTI
 70
0
 62
7
  6
CONTINUOUS
370
-3
390
F
  0
LAYER
  5
20A
100
AcDbSymbolTableRecord
100
AcDbLayerTableRecord
  2
RACCORDO
 70
0
 62
7
  6
CONTINUOUS
370
-3
390
F
  0
LAYER
  5
20B
100
AcDbSymbolTableRecord
100
AcDbLayerTableRecord
  2
SNAPLINE
 70
0
 62
7
  6
CONTINUOUS
370
-3
390
F
  0
LAYER
  5
20C
100
AcDbSymbolTableRecord
100
AcDbLayerTableRecord
  2
SUPERFICI
 70
0
 62
7
  6
CONTINUOUS
370
-3
390
F
  0
LAYER
  5
20D
100
AcDbSymbolTableRecord
100
AcDbLayerTableRecord
  2
TRASH
 70
0
 62
7
  6
CONTINUOUS
370
-3
390
F
  0
ENDTAB
  0
TABLE
  2
STYLE
  5
3
100
AcDbSymbolTable
 70
1
  0
STYLE
  5
11
100
AcDbSymbolTableRecord
100
AcDbTextStyleTableRecord
  2
STANDARD
 70
0
 40
0.0
 41
0.8
 50
0.0
 71
0
 42
0.2
  3
txt
  4

  0
STYLE
  5
20E
100
AcDbSymbolTableRecord
100
AcDbTextStyleTableRecord
  2
TEXTSTYLE_1
 70
0
 40
0.0
 41
0.8
 50
0.0
 71
0
 42
0.2
  3
gdt
  4

  0
ENDTAB
  0
TABLE
  2
VIEW
  5
6
100
AcDbSymbolTable
 70
0
  0
ENDTAB
  0
TABLE
  2
UCS
  5
7
100
AcDbSymbolTable
 70
0
  0
ENDTAB
  0
TABLE
  2
APPID
  5
9
100
AcDbSymbolTable
 70
1
  0
APPID
  5
20F
100
AcDbSymbolTableRecord
100
AcDbRegAppTableRecord
  2
ACAD
 70
0
  0
ENDTAB
  0
TABLE
  2
BLOCK_RECORD
  5
1
100
AcDbSymbolTable
 70
0
  0
BLOCK_RECORD
  5
210
100
AcDbSymbolTableRecord
100
AcDbBlockTableRecord
  2
*Model_Space
  0
BLOCK_RECORD
  5
211
100
AcDbSymbolTableRecord
100
AcDbBlockTableRecord
  2
*Paper_Space
  0
BLOCK_RECORD
  5
212
100
AcDbSymbolTableRecord
100
AcDbBlockTableRecord
  2
_FILLED
  0
BLOCK_RECORD
  5
213
100
AcDbSymbolTableRecord
100
AcDbBlockTableRecord
  2
*D0
  0
BLOCK_RECORD
  5
214
100
AcDbSymbolTableRecord
100
AcDbBlockTableRecord
  2
*D1
  0
BLOCK_RECORD
  5
215
100
AcDbSymbolTableRecord
100
AcDbBlockTableRecord
  2
*D2
  0
BLOCK_RECORD
  5
216
100
AcDbSymbolTableRecord
100
AcDbBlockTableRecord
  2
*D3
  0
BLOCK_RECORD
  5
217
100
AcDbSymbolTableRecord
100
AcDbBlockTableRecord
  2
*D4
  0
BLOCK_RECORD
  5
218
100
AcDbSymbolTableRecord
100
AcDbBlockTableRecord
  2
*D5
  0
BLOCK_RECORD
  5
219
100
AcDbSymbolTableRecord
100
AcDbBlockTableRecord
  2
*D6
  0
BLOCK_RECORD
  5
21A
100
AcDbSymbolTableRecord
100
AcDbBlockTableRecord
  2
*D7
  0
BLOCK_RECORD
  5
21B
100
AcDbSymbolTableRecord
100
AcDbBlockTableRecord
  2
*D8
  0
ENDTAB
  0
TABLE
  2
DIMSTYLE
  5
A
100
AcDbSymbolTable
 70
1
100
AcDbDimStyleTable
 71
0
  0
DIMSTYLE
105
21C
100
AcDbSymbolTableRecord
100
AcDbDimStyleTableRecord
  2
STANDARD
 70
0
  3

  4

 40
1.0
 41
3.0
 42
0.5
 43
0.38
 44
1.5
 45
0.0
 46
0.0
 47
0.01
 48
0.01
140
3.0
141
0.09
142
0.0
143
25.4
144
1.0
145
0.0
146
1.0
147
0.625
 71
1.0
 72
0.0
 73
0
 74
0
 75
0
 76
0
 77
1
 78
8
170
0
171
2
172
0
173
0
174
0
175
0
176
0
177
0
178
0
270
2
271
2
272
2
273
2
274
2
275
0
280
0
281
0
282
0
283
1
284
8
285
0
286
0
287
3
288
0
340
11
278
44
341
212
342
212
343
212
344
212
  0
DIMSTYLE
105
21D
100
AcDbSymbolTableRecord
100
AcDbDimStyleTableRecord
  2
DIMSTYLE_1
 70
0
  3

  4

 40
1.0
 41
3.0
 42
0.5
 43
0.38
 44
1.5
 45
0.0
 46
0.0
 47
0.0
 48
0.0
140
3.0
141
0.09
142
0.0
143
25.4
144
1.0
145
0.0
146
1.0
147
0.75
 71
0.0
 72
0.0
 73
0
 74
0
 75
0
 76
0
 77
1
 78
8
170
0
171
2
172
0
173
0
174
0
175
0
176
0
177
0
178
0
270
2
271
2
272
2
273
2
274
2
275
0
280
0
281
0
282
0
283
1
284
8
285
0
286
0
287
3
288
0
340
11
278
44
341
212
342
212
343
212
344
212
  0
ENDTAB
  0
ENDSEC
  0
SECTION
  2
BLOCKS
  0
BLOCK
  5
20
100
AcDbEntity
  8
0
100
AcDbBlockBegin
  2
*Model_Space
 70
0
 10
0.0
 20
0.0
 30
0.0
  3
*Model_Space
  1

  0
ENDBLK
  5
21
100
AcDbEntity
  8
0
100
AcDbBlockEnd
  0
BLOCK
  5
1C
100
AcDbEntity
  8
0
100
AcDbBlockBegin
  2
*Paper_Space
 70
0
 10
0.0
 20
0.0
 30
0.0
  3
*Paper_Space
  1

  0
ENDBLK
  5
1D
100
AcDbEntity
  8
0
100
AcDbBlockEnd
  0
BLOCK
  5
21E
100
AcDbEntity
  8
0
100
AcDbBlockBegin
  2
_FILLED
 70
64
 10
0.0
 20
0.0
  3
_FILLED
  1

  0
SOLID
  5
21F
100
AcDbEntity
  8
0
  6
BYBLOCK
 62
0
100
AcDbTrace
 10
0.0
 20
0.0
 11
-1.0
 21
0.3166666667
 12
-1.0
 22
-0.3166666667
 13
-1.0
 23
-0.3166666667
  0
ENDBLK
  5
220
100
AcDbEntity
  8
0
  6
BYBLOCK
 62
0
100
AcDbBlockEnd
  0
BLOCK
  5
221
100
AcDbEntity
  8
0
100
AcDbBlockBegin
 62
7
  6
CONTINUOUS
  2
*D0
 70
65
 10
0.0
 20
0.0
  3
*D0
  1

  0
MTEXT
  5
222
100
AcDbEntity
  8
0
100
AcDbMText
 62
7
  6
CONTINUOUS
  7
STANDARD
 71
2
 72
1
 10
61.0915799477
 20
175.2125637755
 30
0.0
 11
1.0
 21
0.0
 31
0.0
 44
0.9
  1
16
 40
3.0
 41
4.0714285714
  0
LINE
  5
223
100
AcDbEntity
  8
0
100
AcDbLine
 62
7
  6
CONTINUOUS
 10
53.0915799477
 20
132.5125637755
 11
53.0915799477
 21
172.9625637755
  0
LINE
  5
224
100
AcDbEntity
  8
0
100
AcDbLine
 62
7
  6
CONTINUOUS
 10
69.0915799477
 20
144.2625637755
 11
69.0915799477
 21
172.9625637755
  0
LINE
  5
225
100
AcDbEntity
  8
0
100
AcDbLine
 62
7
  6
CONTINUOUS
 10
53.0915799477
 20
171.4625637755
 11
61.0915799477
 21
171.4625637755
  0
LINE
  5
226
100
AcDbEntity
  8
0
100
AcDbLine
 62
7
  6
CONTINUOUS
 10
69.0915799477
 20
171.4625637755
 11
61.0915799477
 21
171.4625637755
  0
INSERT
  5
227
100
AcDbEntity
  8
0
100
AcDbBlockReference
 62
7
  6
CONTINUOUS
  2
_FILLED
 10
53.0915799477
 20
171.4625637755
 41
3.0
 42
3.0
 43
3.0
 50
180.0
  0
INSERT
  5
228
100
AcDbEntity
  8
0
100
AcDbBlockReference
 62
7
  6
CONTINUOUS
  2
_FILLED
 10
69.0915799477
 20
171.4625637755
 41
3.0
 42
3.0
 43
3.0
  0
ENDBLK
  5
229
100
AcDbEntity
  8
0
  6
BYBLOCK
 62
0
100
AcDbBlockEnd
  0
BLOCK
  5
22A
100
AcDbEntity
  8
0
100
AcDbBlockBegin
 62
7
  6
CONTINUOUS
  2
*D1
 70
65
 10
0.0
 20
0.0
  3
*D1
  1

  0
MTEXT
  5
22B
100
AcDbEntity
  8
0
100
AcDbMText
 62
7
  6
CONTINUOUS
  7
STANDARD
 71
2
 72
1
 10
63.5915799477
 20
165.2125637755
 30
0.0
 11
1.0
 21
0.0
 31
0.0
 44
0.9
  1
11
 40
3.0
 41
3.4285714286
  0
LINE
  5
22C
100
AcDbEntity
  8
0
100
AcDbLine
 62
7
  6
CONTINUOUS
 10
58.0915799477
 20
153.9625637755
 11
58.0915799477
 21
162.9625637755
  0
LINE
  5
22D
100
AcDbEntity
  8
0
100
AcDbLine
 62
7
  6
CONTINUOUS
 10
69.0915799477
 20
144.2625637755
 11
69.0915799477
 21
162.9625637755
  0
LINE
  5
22E
100
AcDbEntity
  8
0
100
AcDbLine
 62
7
  6
CONTINUOUS
 10
58.0915799477
 20
161.4625637755
 11
63.5915799477
 21
161.4625637755
  0
LINE
  5
22F
100
AcDbEntity
  8
0
100
AcDbLine
 62
7
  6
CONTINUOUS
 10
69.0915799477
 20
161.4625637755
 11
63.5915799477
 21
161.4625637755
  0
INSERT
  5
230
100
AcDbEntity
  8
0
100
AcDbBlockReference
 62
7
  6
CONTINUOUS
  2
_FILLED
 10
58.0915799477
 20
161.4625637755
 41
3.0
 42
3.0
 43
3.0
 50
180.0
  0
INSERT
  5
231
100
AcDbEntity
  8
0
100
AcDbBlockReference
 62
7
  6
CONTINUOUS
  2
_FILLED
 10
69.0915799477
 20
161.4625637755
 41
3.0
 42
3.0
 43
3.0
  0
ENDBLK
  5
232
100
AcDbEntity
  8
0
  6
BYBLOCK
 62
0
100
AcDbBlockEnd
  0
BLOCK
  5
233
100
AcDbEntity
  8
0
100
AcDbBlockBegin
 62
7
  6
CONTINUOUS
  2
*D2
 70
65
 10
0.0
 20
0.0
  3
*D2
  1

  0
MTEXT
  5
234
100
AcDbEntity
  8
0
100
AcDbMText
 62
7
  6
CONTINUOUS
  7
STANDARD
 71
2
 72
1
 10
128.725255102
 20
195.2125637755
 30
0.0
 11
1.0
 21
0.0
 31
0.0
 44
0.9
  1
86
 40
3.0
 41
4.7142857143
  0
LINE
  5
235
100
AcDbEntity
  8
0
100
AcDbLine
 62
7
  6
CONTINUOUS
 10
85.725255102
 20
120.5125637755
 11
85.725255102
 21
192.9625637755
  0
LINE
  5
236
100
AcDbEntity
  8
0
100
AcDbLine
 62
7
  6
CONTINUOUS
 10
171.725255102
 20
120.5125637755
 11
171.725255102
 21
192.9625637755
  0
LINE
  5
237
100
AcDbEntity
  8
0
100
AcDbLine
 62
7
  6
CONTINUOUS
 10
85.725255102
 20
191.4625637755
 11
128.725255102
 21
191.4625637755
  0
LINE
  5
238
100
AcDbEntity
  8
0
100
AcDbLine
 62
7
  6
CONTINUOUS
 10
171.725255102
 20
191.4625637755
 11
128.725255102
 21
191.4625637755
  0
INSERT
  5
239
100
AcDbEntity
  8
0
100
AcDbBlockReference
 62
7
  6
CONTINUOUS
  2
_FILLED
 10
85.725255102
 20
191.4625637755
 41
3.0
 42
3.0
 43
3.0
 50
180.0
  0
INSERT
  5
23A
100
AcDbEntity
  8
0
100
AcDbBlockReference
 62
7
  6
CONTINUOUS
  2
_FILLED
 10
171.725255102
 20
191.4625637755
 41
3.0
 42
3.0
 43
3.0
  0
ENDBLK
  5
23B
100
AcDbEntity
  8
0
  6
BYBLOCK
 62
0
100
AcDbBlockEnd
  0
BLOCK
  5
23C
100
AcDbEntity
  8
0
100
AcDbBlockBegin
 62
7
  6
CONTINUOUS
  2
*D3
 70
65
 10
0.0
 20
0.0
  3
*D3
  1

  0
MTEXT
  5
23D
100
AcDbEntity
  8
0
100
AcDbMText
 62
7
  6
CONTINUOUS
  7
STANDARD
 71
2
 72
1
 10
195.975255102
 20
116.7625637755
 30
0.0
 11
0.0
 21
1.0
 31
0.0
 44
0.9
  1
73,4
 40
3.0
 41
8.5714285714
  0
LINE
  5
23E
100
AcDbEntity
  8
0
100
AcDbLine
 62
7
  6
CONTINUOUS
 10
159.2389597545
 20
153.4625637755
 11
201.225255102
 21
153.4625637755
  0
LINE
  5
23F
100
AcDbEntity
  8
0
100
AcDbLine
 62
7
  6
CONTINUOUS
 10
159.2389597545
 20
80.0625637755
 11
201.225255102
 21
80.0625637755
  0
LINE
  5
240
100
AcDbEntity
  8
0
100
AcDbLine
 62
7
  6
CONTINUOUS
 10
199.725255102
 20
153.4625637755
 11
199.725255102
 21
116.7625637755
  0
LINE
  5
241
100
AcDbEntity
  8
0
100
AcDbLine
 62
7
  6
CONTINUOUS
 10
199.725255102
 20
80.0625637755
 11
199.725255102
 21
116.7625637755
  0
INSERT
  5
242
100
AcDbEntity
  8
0
100
AcDbBlockReference
 62
7
  6
CONTINUOUS
  2
_FILLED
 10
199.725255102
 20
153.4625637755
 41
3.0
 42
3.0
 43
3.0
 50
90.0
  0
INSERT
  5
243
100
AcDbEntity
  8
0
100
AcDbBlockReference
 62
7
  6
CONTINUOUS
  2
_FILLED
 10
199.725255102
 20
80.0625637755
 41
3.0
 42
3.0
 43
3.0
 50
270.0
  0
ENDBLK
  5
244
100
AcDbEntity
  8
0
  6
BYBLOCK
 62
0
100
AcDbBlockEnd
  0
BLOCK
  5
245
100
AcDbEntity
  8
0
100
AcDbBlockBegin
 62
7
  6
CONTINUOUS
  2
*D4
 70
65
 10
0.0
 20
0.0
  3
*D4
  1

  0
MTEXT
  5
246
100
AcDbEntity
  8
0
100
AcDbMText
 62
7
  6
CONTINUOUS
  7
STANDARD
 71
2
 72
1
 10
128.725255102
 20
185.2125637755
 30
0.0
 11
1.0
 21
0.0
 31
0.0
 44
0.9
  1
80
 40
3.0
 41
4.7142857143
  0
LINE
  5
247
100
AcDbEntity
  8
0
100
AcDbLine
 62
7
  6
CONTINUOUS
 10
88.725255102
 20
143.976268428
 11
88.725255102
 21
182.9625637755
  0
LINE
  5
248
100
AcDbEntity
  8
0
100
AcDbLine
 62
7
  6
CONTINUOUS
 10
168.725255102
 20
143.976268428
 11
168.725255102
 21
182.9625637755
  0
LINE
  5
249
100
AcDbEntity
  8
0
100
AcDbLine
 62
7
  6
CONTINUOUS
 10
88.725255102
 20
181.4625637755
 11
128.725255102
 21
181.4625637755
  0
LINE
  5
24A
100
AcDbEntity
  8
0
100
AcDbLine
 62
7
  6
CONTINUOUS
 10
168.725255102
 20
181.4625637755
 11
128.725255102
 21
181.4625637755
  0
INSERT
  5
24B
100
AcDbEntity
  8
0
100
AcDbBlockReference
 62
7
  6
CONTINUOUS
  2
_FILLED
 10
88.725255102
 20
181.4625637755
 41
3.0
 42
3.0
 43
3.0
 50
180.0
  0
INSERT
  5
24C
100
AcDbEntity
  8
0
100
AcDbBlockReference
 62
7
  6
CONTINUOUS
  2
_FILLED
 10
168.725255102
 20
181.4625637755
 41
3.0
 42
3.0
 43
3.0
  0
ENDBLK
  5
24D
100
AcDbEntity
  8
0
  6
BYBLOCK
 62
0
100
AcDbBlockEnd
  0
BLOCK
  5
24E
100
AcDbEntity
  8
0
100
AcDbBlockBegin
 62
7
  6
CONTINUOUS
  2
*D5
 70
65
 10
0.0
 20
0.0
  3
*D5
  1

  0
MTEXT
  5
24F
100
AcDbEntity
  8
0
100
AcDbMText
 62
7
  6
CONTINUOUS
  7
STANDARD
 71
2
 72
1
 10
128.725255102
 20
175.2125637755
 30
0.0
 11
1.0
 21
0.0
 31
0.0
 44
0.9
  1
60
 40
3.0
 41
4.7142857143
  0
LINE
  5
250
100
AcDbEntity
  8
0
100
AcDbLine
 62
7
  6
CONTINUOUS
 10
98.725255102
 20
113.8586633654
 11
98.725255102
 21
172.9625637755
  0
LINE
  5
251
100
AcDbEntity
  8
0
100
AcDbLine
 62
7
  6
CONTINUOUS
 10
158.725255102
 20
114.7573179208
 11
158.725255102
 21
172.9625637755
  0
LINE
  5
252
100
AcDbEntity
  8
0
100
AcDbLine
 62
7
  6
CONTINUOUS
 10
98.725255102
 20
171.4625637755
 11
128.725255102
 21
171.4625637755
  0
LINE
  5
253
100
AcDbEntity
  8
0
100
AcDbLine
 62
7
  6
CONTINUOUS
 10
158.725255102
 20
171.4625637755
 11
128.725255102
 21
171.4625637755
  0
INSERT
  5
254
100
AcDbEntity
  8
0
100
AcDbBlockReference
 62
7
  6
CONTINUOUS
  2
_FILLED
 10
98.725255102
 20
171.4625637755
 41
3.0
 42
3.0
 43
3.0
 50
180.0
  0
INSERT
  5
255
100
AcDbEntity
  8
0
100
AcDbBlockReference
 62
7
  6
CONTINUOUS
  2
_FILLED
 10
158.725255102
 20
171.4625637755
 41
3.0
 42
3.0
 43
3.0
  0
ENDBLK
  5
256
100
AcDbEntity
  8
0
  6
BYBLOCK
 62
0
100
AcDbBlockEnd
  0
BLOCK
  5
257
100
AcDbEntity
  8
0
100
AcDbBlockBegin
 62
7
  6
CONTINUOUS
  2
*D6
 70
65
 10
0.0
 20
0.0
  3
*D6
  1

  0
MTEXT
  5
258
100
AcDbEntity
  8
0
100
AcDbMText
 62
7
  6
CONTINUOUS
  7
STANDARD
 71
2
 72
1
 10
128.725255102
 20
165.2125637755
 30
0.0
 11
1.0
 21
0.0
 31
0.0
 44
0.9
  1
56
 40
3.0
 41
4.5
  0
LINE
  5
259
100
AcDbEntity
  8
0
100
AcDbLine
 62
7
  6
CONTINUOUS
 10
100.725255102
 20
145.7809951473
 11
100.725255102
 21
162.9625637755
  0
LINE
  5
25A
100
AcDbEntity
  8
0
100
AcDbLine
 62
7
  6
CONTINUOUS
 10
156.725255102
 20
145.5113987807
 11
156.725255102
 21
162.9625637755
  0
LINE
  5
25B
100
AcDbEntity
  8
0
100
AcDbLine
 62
7
  6
CONTINUOUS
 10
100.725255102
 20
161.4625637755
 11
128.725255102
 21
161.4625637755
  0
LINE
  5
25C
100
AcDbEntity
  8
0
100
AcDbLine
 62
7
  6
CONTINUOUS
 10
156.725255102
 20
161.4625637755
 11
128.725255102
 21
161.4625637755
  0
INSERT
  5
25D
100
AcDbEntity
  8
0
100
AcDbBlockReference
 62
7
  6
CONTINUOUS
  2
_FILLED
 10
100.725255102
 20
161.4625637755
 41
3.0
 42
3.0
 43
3.0
 50
180.0
  0
INSERT
  5
25E
100
AcDbEntity
  8
0
100
AcDbBlockReference
 62
7
  6
CONTINUOUS
  2
_FILLED
 10
156.725255102
 20
161.4625637755
 41
3.0
 42
3.0
 43
3.0
  0
ENDBLK
  5
25F
100
AcDbEntity
  8
0
  6
BYBLOCK
 62
0
100
AcDbBlockEnd
  0
BLOCK
  5
260
100
AcDbEntity
  8
0
100
AcDbBlockBegin
 62
7
  6
CONTINUOUS
  2
*D7
 70
65
 10
0.0
 20
0.0
  3
*D7
  1

  0
MTEXT
  5
261
100
AcDbEntity
  8
0
100
AcDbMText
 62
7
  6
CONTINUOUS
  7
STANDARD
 71
2
 72
1
 10
185.975255102
 20
116.7625637755
 30
0.0
 11
0.0
 21
1.0
 31
0.0
 44
0.9
  1
60
 40
3.0
 41
4.7142857143
  0
LINE
  5
262
100
AcDbEntity
  8
0
100
AcDbLine
 62
7
  6
CONTINUOUS
 10
131.425255102
 20
146.7625637755
 11
191.225255102
 21
146.7625637755
  0
LINE
  5
263
100
AcDbEntity
  8
0
100
AcDbLine
 62
7
  6
CONTINUOUS
 10
131.425255102
 20
86.7625637755
 11
191.225255102
 21
86.7625637755
  0
LINE
  5
264
100
AcDbEntity
  8
0
100
AcDbLine
 62
7
  6
CONTINUOUS
 10
189.725255102
 20
146.7625637755
 11
189.725255102
 21
116.7625637755
  0
LINE
  5
265
100
AcDbEntity
  8
0
100
AcDbLine
 62
7
  6
CONTINUOUS
 10
189.725255102
 20
86.7625637755
 11
189.725255102
 21
116.7625637755
  0
INSERT
  5
266
100
AcDbEntity
  8
0
100
AcDbBlockReference
 62
7
  6
CONTINUOUS
  2
_FILLED
 10
189.725255102
 20
146.7625637755
 41
3.0
 42
3.0
 43
3.0
 50
90.0
  0
INSERT
  5
267
100
AcDbEntity
  8
0
100
AcDbBlockReference
 62
7
  6
CONTINUOUS
  2
_FILLED
 10
189.725255102
 20
86.7625637755
 41
3.0
 42
3.0
 43
3.0
 50
270.0
  0
ENDBLK
  5
268
100
AcDbEntity
  8
0
  6
BYBLOCK
 62
0
100
AcDbBlockEnd
  0
BLOCK
  5
269
100
AcDbEntity
  8
0
100
AcDbBlockBegin
 62
7
  6
CONTINUOUS
  2
*D8
 70
65
 10
0.0
 20
0.0
  3
*D8
  1

  0
MTEXT
  5
26A
100
AcDbEntity
  8
0
100
AcDbMText
 62
7
  6
CONTINUOUS
  7
STANDARD
 71
2
 72
1
 10
175.975255102
 20
116.7625637755
 30
0.0
 11
0.0
 21
1.0
 31
0.0
 44
0.9
  1
56
 40
3.0
 41
4.5
  0
LINE
  5
26B
100
AcDbEntity
  8
0
100
AcDbLine
 62
7
  6
CONTINUOUS
 10
157.7871658768
 20
144.7625637755
 11
181.225255102
 21
144.7625637755
  0
LINE
  5
26C
100
AcDbEntity
  8
0
100
AcDbLine
 62
7
  6
CONTINUOUS
 10
157.225255102
 20
88.7625637755
 11
181.225255102
 21
88.7625637755
  0
LINE
  5
26D
100
AcDbEntity
  8
0
100
AcDbLine
 62
7
  6
CONTINUOUS
 10
179.725255102
 20
144.7625637755
 11
179.725255102
 21
116.7625637755
  0
LINE
  5
26E
100
AcDbEntity
  8
0
100
AcDbLine
 62
7
  6
CONTINUOUS
 10
179.725255102
 20
88.7625637755
 11
179.725255102
 21
116.7625637755
  0
INSERT
  5
26F
100
AcDbEntity
  8
0
100
AcDbBlockReference
 62
7
  6
CONTINUOUS
  2
_FILLED
 10
179.725255102
 20
144.7625637755
 41
3.0
 42
3.0
 43
3.0
 50
90.0
  0
INSERT
  5
270
100
AcDbEntity
  8
0
100
AcDbBlockReference
 62
7
  6
CONTINUOUS
  2
_FILLED
 10
179.725255102
 20
88.7625637755
 41
3.0
 42
3.0
 43
3.0
 50
270.0
  0
ENDBLK
  5
271
100
AcDbEntity
  8
0
  6
BYBLOCK
 62
0
100
AcDbBlockEnd
  0
ENDSEC
  0
SECTION
  2
ENTITIES
  0
DIMENSION
  5
272
100
AcDbEntity
  8
0
100
AcDbDimension
 62
7
  6
CONTINUOUS
  2
*D0
 10
69.0915799477
 20
171.4625637755
 11
61.0915799477
 21
171.4625637755
 70
160
 71
2
 42
16.0
  3
DIMSTYLE_1
100
AcDbAlignedDimension
 13
53.0915799477
 23
132.0125637755
 14
69.0915799477
 24
143.7625637755
100
AcDbRotatedDimension
  0
DIMENSION
  5
273
100
AcDbEntity
  8
0
100
AcDbDimension
 62
7
  6
CONTINUOUS
  2
*D1
 10
69.0915799477
 20
161.4625637755
 11
63.5915799477
 21
161.4625637755
 70
160
 71
2
 42
11.0
  3
DIMSTYLE_1
100
AcDbAlignedDimension
 13
58.0915799477
 23
153.4625637755
 14
69.0915799477
 24
143.7625637755
100
AcDbRotatedDimension
  0
DIMENSION
  5
274
100
AcDbEntity
  8
0
100
AcDbDimension
 62
7
  6
CONTINUOUS
  2
*D2
 10
171.725255102
 20
191.4625637755
 11
128.725255102
 21
191.4625637755
 70
160
 71
2
 42
86.0
  3
DIMSTYLE_1
100
AcDbAlignedDimension
 13
85.725255102
 23
120.0125637755
 14
171.725255102
 24
120.0125637755
100
AcDbRotatedDimension
  0
DIMENSION
  5
275
100
AcDbEntity
  8
0
100
AcDbDimension
 62
7
  6
CONTINUOUS
  2
*D3
 10
199.725255102
 20
80.0625637755
 11
199.725255102
 21
116.7625637755
 70
160
 71
2
 42
73.4
  3
DIMSTYLE_1
100
AcDbAlignedDimension
 13
158.7389597545
 23
153.4625637755
 14
158.7389597545
 24
80.0625637755
 50
270.0
100
AcDbRotatedDimension
  0
DIMENSION
  5
276
100
AcDbEntity
  8
0
100
AcDbDimension
 62
7
  6
CONTINUOUS
  2
*D4
 10
168.725255102
 20
181.4625637755
 11
128.725255102
 21
181.4625637755
 70
160
 71
2
 42
80.0
  3
DIMSTYLE_1
100
AcDbAlignedDimension
 13
88.725255102
 23
143.476268428
 14
168.725255102
 24
143.476268428
100
AcDbRotatedDimension
  0
DIMENSION
  5
277
100
AcDbEntity
  8
0
100
AcDbDimension
 62
7
  6
CONTINUOUS
  2
*D5
 10
158.725255102
 20
171.4625637755
 11
128.725255102
 21
171.4625637755
 70
160
 71
2
 42
60.0
  3
DIMSTYLE_1
100
AcDbAlignedDimension
 13
98.725255102
 23
113.3586633654
 14
158.725255102
 24
114.2573179208
100
AcDbRotatedDimension
  0
DIMENSION
  5
278
100
AcDbEntity
  8
0
100
AcDbDimension
 62
7
  6
CONTINUOUS
  2
*D6
 10
156.725255102
 20
161.4625637755
 11
128.725255102
 21
161.4625637755
 70
160
 71
2
 42
56.0
  3
DIMSTYLE_1
100
AcDbAlignedDimension
 13
100.725255102
 23
145.2809951473
 14
156.725255102
 24
145.0113987807
100
AcDbRotatedDimension
  0
DIMENSION
  5
279
100
AcDbEntity
  8
0
100
AcDbDimension
 62
7
  6
CONTINUOUS
  2
*D7
 10
189.725255102
 20
86.7625637755
 11
189.725255102
 21
116.7625637755
 70
160
 71
2
 42
60.0
  3
DIMSTYLE_1
100
AcDbAlignedDimension
 13
130.925255102
 23
146.7625637755
 14
130.925255102
 24
86.7625637755
 50
270.0
100
AcDbRotatedDimension
  0
DIMENSION
  5
27A
100
AcDbEntity
  8
0
100
AcDbDimension
 62
7
  6
CONTINUOUS
  2
*D8
 10
179.725255102
 20
88.7625637755
 11
179.725255102
 21
116.7625637755
 70
160
 71
2
 42
56.0
  3
DIMSTYLE_1
100
AcDbAlignedDimension
 13
157.2871658768
 23
144.7625637755
 14
156.725255102
 24
88.7625637755
 50
270.0
100
AcDbRotatedDimension
  0
LINE
  5
27B
100
AcDbEntity
  8
0
100
AcDbLine
 62
7
  6
CONTINUOUS
 10
85.725255102
 20
120.0125637755
 11
85.725255102
 21
113.5125637755
  0
LINE
  5
27C
100
AcDbEntity
  8
0
100
AcDbLine
 62
7
  6
CONTINUOUS
 10
87.3541243876
 20
120.0125637755
 11
87.3541243876
 21
113.5125637755
  0
LINE
  5
27D
100
AcDbEntity
  8
RACCORDO
100
AcDbLine
 62
253
  6
CONTINUOUS
 10
96.4677963515
 20
145.6259099763
 11
99.8619089012
 21
149.020022526
  0
LINE
  5
27E
100
AcDbEntity
  8
RACCORDO
100
AcDbLine
 62
7
  6
CONTINUOUS
 10
96.6799203086
 20
145.4137860193
 11
100.0740328582
 21
148.807898569
  0
LINE
  5
27F
100
AcDbEntity
  8
DRAFT
100
AcDbLine
 62
7
  6
CONTINUOUS
 10
100.088858999
 20
148.7930724283
 11
96.6947464493
 21
145.3989598786
  0
LINE
  5
280
100
AcDbEntity
  8
DRAFT
100
AcDbLine
 62
7
  6
CONTINUOUS
 10
101.290940527
 20
147.5909909003
 11
97.8968279773
 21
144.1968783506
  0
LINE
  5
281
100
AcDbEntity
  8
RACCORDO
100
AcDbLine
 62
253
  6
CONTINUOUS
 10
99.8619089012
 20
84.505105025
 11
96.4677963515
 21
87.8992175747
  0
LINE
  5
282
100
AcDbEntity
  8
RACCORDO
100
AcDbLine
 62
7
  6
CONTINUOUS
 10
100.0740328582
 20
84.717228982
 11
96.6799203086
 21
88.1113415317
  0
LINE
  5
283
100
AcDbEntity
  8
DRAFT
100
AcDbLine
 62
7
  6
CONTINUOUS
 10
96.6947464493
 20
88.1261676724
 11
100.088858999
 21
84.7320551227
  0
LINE
  5
284
100
AcDbEntity
  8
DRAFT
100
AcDbLine
 62
7
  6
CONTINUOUS
 10
97.8968279773
 20
89.3282492005
 11
101.290940527
 21
85.9341366508
  0
LINE
  5
285
100
AcDbEntity
  8
ASSI
100
AcDbLine
 62
7
  6
CONTINUOUS
 10
87.925255102
 20
102.7625637755
 11
87.925255102
 21
96.7625637755
  0
LINE
  5
286
100
AcDbEntity
  8
ASSI
100
AcDbLine
 62
7
  6
CONTINUOUS
 10
87.925255102
 20
130.7625637755
 11
87.925255102
 21
136.7625637755
  0
LINE
  5
287
100
AcDbEntity
  8
RACCORDO
100
AcDbLine
 62
7
  6
CONTINUOUS
 10
88.725255102
 20
90.0488591231
 11
88.725255102
 21
96.7625637755
  0
LINE
  5
288
100
AcDbEntity
  8
RACCORDO
100
AcDbLine
 62
7
  6
CONTINUOUS
 10
88.725255102
 20
102.7625637755
 11
88.725255102
 21
113.5125637755
  0
LINE
  5
289
100
AcDbEntity
  8
RACCORDO
100
AcDbLine
 62
7
  6
CONTINUOUS
 10
88.725255102
 20
120.0125637755
 11
88.725255102
 21
130.7625637755
  0
LINE
  5
28A
100
AcDbEntity
  8
RACCORDO
100
AcDbLine
 62
7
  6
CONTINUOUS
 10
88.725255102
 20
136.7625637755
 11
88.725255102
 21
143.476268428
  0
LINE
  5
28B
100
AcDbEntity
  8
DRAFT
100
AcDbLine
 62
7
  6
CONTINUOUS
 10
88.7776628813
 20
122.2625637755
 11
88.7776628813
 21
120.0125637755
  0
LINE
  5
28C
100
AcDbEntity
  8
DRAFT
100
AcDbLine
 62
7
  6
CONTINUOUS
 10
88.7776628813
 20
113.5125637755
 11
88.7776628813
 21
111.2625637755
  0
LINE
  5
28D
100
AcDbEntity
  8
ASSI
100
AcDbLine
 62
253
  6
CONTINUOUS
 10
88.7859152738
 20
102.7625637755
 11
88.7859152738
 21
96.7625637755
  0
LINE
  5
28E
100
AcDbEntity
  8
ASSI
100
AcDbLine
 62
253
  6
CONTINUOUS
 10
88.7859152738
 20
130.7625637755
 11
88.7859152738
 21
136.7625637755
  0
LINE
  5
28F
100
AcDbEntity
  8
ASSI
100
AcDbLine
 62
253
  6
CONTINUOUS
 10
88.8865926568
 20
90.2101966778
 11
88.8865926568
 21
96.7625637755
  0
LINE
  5
290
100
AcDbEntity
  8
ASSI
100
AcDbLine
 62
253
  6
CONTINUOUS
 10
88.8865926568
 20
102.7625637755
 11
88.8865926568
 21
111.2444249465
  0
LINE
  5
291
100
AcDbEntity
  8
ASSI
100
AcDbLine
 62
253
  6
CONTINUOUS
 10
88.8865926568
 20
122.2807026045
 11
88.8865926568
 21
130.7625637755
  0
LINE
  5
292
100
AcDbEntity
  8
ASSI
100
AcDbLine
 62
253
  6
CONTINUOUS
 10
88.8865926568
 20
136.7625637755
 11
88.8865926568
 21
143.3149308733
  0
LINE
  5
293
100
AcDbEntity
  8
ASSI
100
AcDbLine
 62
253
  6
CONTINUOUS
 10
89.8465754456
 20
102.7625637755
 11
89.8465754456
 21
96.7625637755
  0
LINE
  5
294
100
AcDbEntity
  8
ASSI
100
AcDbLine
 62
253
  6
CONTINUOUS
 10
89.8465754456
 20
130.7625637755
 11
89.8465754456
 21
136.7625637755
  0
LINE
  5
295
100
AcDbEntity
  8
DRAFT
100
AcDbLine
 62
7
  6
CONTINUOUS
 10
90.225255102
 20
111.2625637755
 11
90.225255102
 21
122.2625637755
  0
LINE
  5
296
100
AcDbEntity
  8
RACCORDO
100
AcDbLine
 62
7
  6
CONTINUOUS
 10
90.2540689968
 20
122.2913776703
 11
90.2540689968
 21
111.2337498807
  0
LINE
  5
297
100
AcDbEntity
  8
ASSI
100
AcDbLine
 62
253
  6
CONTINUOUS
 10
90.3845369589
 20
90.2101966778
 11
90.3845369589
 21
96.7625637755
  0
LINE
  5
298
100
AcDbEntity
  8
ASSI
100
AcDbLine
 62
253
  6
CONTINUOUS
 10
90.3845369589
 20
102.7625637755
 11
90.3845369589
 21
111.2320197382
  0
LINE
  5
299
100
AcDbEntity
  8
ASSI
100
AcDbLine
 62
253
  6
CONTINUOUS
 10
90.3845369589
 20
122.2930581653
 11
90.3845369589
 21
130.7625637755
  0
LINE
  5
29A
100
AcDbEntity
  8
ASSI
100
AcDbLine
 62
253
  6
CONTINUOUS
 10
90.3845369589
 20
136.7625637755
 11
90.3845369589
 21
143.3149308733
  0
LINE
  5
29B
100
AcDbEntity
  8
RACCORDO
100
AcDbLine
 62
253
  6
CONTINUOUS
 10
90.4540613814
 20
122.2931078128
 11
90.4540613814
 21
111.2320197382
  0
LINE
  5
29C
100
AcDbEntity
  8
RACCORDO
100
AcDbLine
 62
7
  6
CONTINUOUS
 10
90.525255102
 20
90.9625637755
 11
90.525255102
 21
108.5625637755
  0
LINE
  5
29D
100
AcDbEntity
  8
RACCORDO
100
AcDbLine
 62
7
  6
CONTINUOUS
 10
90.525255102
 20
124.9625637755
 11
90.525255102
 21
142.5625637755
  0
LWPOLYLINE
  5
29E
100
AcDbEntity
  8
RACCORDO
100
AcDbPolyline
 62
253
  6
CONTINUOUS
 90
28
 70
0
 10
90.3845369589
 20
143.3149308733
 10
90.3988627034
 20
143.8084561592
 10
90.4413948106
 20
144.2977711189
 10
90.5121332804
 20
144.7828757523
 10
90.6114495971
 20
145.2655435254
 10
90.7389722764
 20
145.7440009722
 10
90.8935868654
 20
146.2129276951
 10
91.0756458191
 20
146.6721774449
 10
91.2847966825
 20
147.1218964708
 10
91.5188676372
 20
147.5572031235
 10
91.7781073326
 20
147.9778503188
 10
92.0622671194
 20
148.3840851408
 10
92.3684292308
 20
148.7717671918
 10
92.6967705331
 20
149.1406659632
 10
93.0471141601
 20
149.4910119637
 10
93.4160117464
 20
149.8193563212
 10
93.8036948597
 20
150.1255225193
 10
94.2099319323
 20
150.4096870744
 10
94.6305798969
 20
150.6689306643
 10
95.0658854371
 20
150.9030039625
 10
95.5156018692
 20
151.1121562955
 10
95.9748460746
 20
151.2942163201
 10
96.4437585063
 20
151.4488311213
 10
96.9221987111
 20
151.5763536142
 10
97.4048622112
 20
151.6756712002
 10
97.8899808471
 20
151.7464130132
 10
98.3793227781
 20
151.7889499194
 10
98.8728880043
 20
151.8032819187
  0
LWPOLYLINE
  5
29F
100
AcDbEntity
  8
RACCORDO
100
AcDbPolyline
 62
253
  6
CONTINUOUS
 90
28
 70
0
 10
88.8865926568
 20
143.3149308733
 10
88.9035311894
 20
143.8930070965
 10
88.9539169066
 20
144.4697408574
 10
89.0376939527
 20
145.043196148
 10
89.1547116278
 20
145.6115303065
 10
89.3046806571
 20
146.1727160534
 10
89.4871212154
 20
146.7245620084
 10
89.7014983581
 20
147.2652243289
 10
89.9471358835
 20
147.7928127442
 10
90.2230670401
 20
148.3051552955
 10
90.5282945785
 20
148.8004252056
 10
90.8618320405
 20
149.2770499893
 10
91.2225067739
 20
149.7333615143
 10
91.6090368707
 20
150.167769469
 10
92.0201487853
 20
150.578875757
 10
92.4545621586
 20
150.9654000162
 10
92.9108795357
 20
151.3260691718
 10
93.3875100148
 20
151.6596007626
 10
93.8827833804
 20
151.964820935
 10
94.3951266549
 20
152.2407434434
 10
94.9227131604
 20
152.4863715963
 10
95.463369461
 20
152.7007385588
 10
96.0152040997
 20
152.8831684699
 10
96.5763741538
 20
153.0331274787
 10
97.1446900124
 20
153.1501367549
 10
97.7181251162
 20
153.2339074635
 10
98.2948363829
 20
153.2842891226
 10
98.8728880043
 20
153.3012262208
  0
LWPOLYLINE
  5
2A0
100
AcDbEntity
  8
RACCORDO
100
AcDbPolyline
 62
7
  6
CONTINUOUS
 90
5
 70
0
 10
96.5766852632
 20
140.5673480155
 10
96.5892688961
 20
140.5991293573
 10
96.5973090676
 20
140.6308848149
 10
96.6021311544
 20
140.6618781857
 10
96.6038362186
 20
140.6920031524
  0
LINE
  5
2A1
100
AcDbEntity
  8
RACCORDO
100
AcDbLine
 62
7
  6
CONTINUOUS
 10
96.5591373941
 20
140.5358922067
 11
96.5766852632
 21
140.5673480155
  0
LINE
  5
2A2
100
AcDbEntity
  8
RACCORDO
100
AcDbLine
 62
7
  6
CONTINUOUS
 10
96.5112506623
 20
140.4745288128
 11
96.523688029
 21
140.4890234131
  0
LINE
  5
2A3
100
AcDbEntity
  8
RACCORDO
100
AcDbLine
 62
7
  6
CONTINUOUS
 10
96.5324057748
 20
140.4991831393
 11
96.5372396262
 21
140.504816546
  0
LINE
  5
2A4
100
AcDbEntity
  8
DRAFT
100
AcDbLine
 62
7
  6
CONTINUOUS
 10
100.1595696771
 20
141.9341366508
 11
103.5536822268
 21
145.3282492005
  0
LWPOLYLINE
  5
2A5
100
AcDbEntity
  8
RACCORDO
100
AcDbPolyline
 62
7
  6
CONTINUOUS
 90
10
 70
0
 10
96.4911681637
 20
140.4567926536
 10
96.5288866265
 20
140.4941757944
 10
96.5594221427
 20
140.5376243366
 10
96.5818177989
 20
140.5857767018
 10
96.5953717663
 20
140.637123905
 10
96.5996592944
 20
140.6900568418
 10
96.594546022
 20
140.7429167147
 10
96.5801921873
 20
140.7940470161
 10
96.5570476068
 20
140.8418454387
 10
96.5258375787
 20
140.8848140892
  0
LWPOLYLINE
  5
2A6
100
AcDbEntity
  8
RACCORDO
100
AcDbPolyline
 62
7
  6
CONTINUOUS
 90
10
 70
0
 10
96.5115442597
 20
140.4748047656
 10
96.5095838436
 20
140.4729328634
 10
96.5076416225
 20
140.4711073663
 10
96.5057175965
 20
140.4693282742
 10
96.5038225051
 20
140.4676056876
 10
96.5019456088
 20
140.4659295062
 10
96.5000546887
 20
140.4642694285
 10
96.4981390053
 20
140.4626153541
 10
96.4962092981
 20
140.4609773835
 10
96.4942655672
 20
140.4593555167
  0
LINE
  5
2A7
100
AcDbEntity
  8
RACCORDO
100
AcDbLine
 62
253
  6
CONTINUOUS
 10
96.5312080673
 20
140.8892781883
 11
96.5258377129
 21
140.8848142061
  0
LINE
  5
2A8
100
AcDbEntity
  8
RACCORDO
100
AcDbLine
 62
253
  6
CONTINUOUS
 10
96.1711500745
 20
140.8409639296
 11
96.4078505514
 21
141.0252626831
  0
LWPOLYLINE
  5
2A9
100
AcDbEntity
  8
RACCORDO
100
AcDbPolyline
 62
253
  6
CONTINUOUS
 90
28
 70
0
 10
98.8728880043
 20
80.2239013302
 10
98.294811781
 20
80.2408398629
 10
97.7180780202
 20
80.2912255801
 10
97.1446227296
 20
80.3750026262
 10
96.5762885711
 20
80.4920203013
 10
96.0151028241
 20
80.6419893305
 10
95.4632568692
 20
80.8244298889
 10
94.9225945486
 20
81.0388070316
 10
94.3950061334
 20
81.284444557
 10
93.8826635821
 20
81.5603757136
 10
93.3873936719
 20
81.865603252
 10
92.9107688883
 20
82.199140714
 10
92.4544573632
 20
82.5598154473
 10
92.0200494086
 20
82.9463455442
 10
91.6089431205
 20
83.3574574587
 10
91.2224188614
 20
83.7918708321
 10
90.8617497057
 20
84.2481882091
 10
90.5282181149
 20
84.7248186883
 10
90.2229979426
 20
85.2200920539
 10
89.9470754342
 20
85.7324353284
 10
89.7014472813
 20
86.2600218339
 10
89.4870803187
 20
86.8006781345
 10
89.3046504077
 20
87.3525127731
 10
89.1546913989
 20
87.9136828273
 10
89.0376821227
 20
88.4819986859
 10
88.953911414
 20
89.0554337896
 10
88.903529755
 20
89.6321450564
 10
88.8865926568
 20
90.2101966778
  0
LINE
  5
2AA
100
AcDbEntity
  8
RACCORDO
100
AcDbLine
 62
253
  6
CONTINUOUS
 10
96.1711500745
 20
92.6841636215
 11
96.4078505513
 21
92.4998648678
  0
LINE
  5
2AB
100
AcDbEntity
  8
RACCORDO
100
AcDbLine
 62
253
  6
CONTINUOUS
 10
96.5258377129
 20
92.6403133449
 11
96.5312080673
 21
92.6358493627
  0
LWPOLYLINE
  5
2AC
100
AcDbEntity
  8
RACCORDO
100
AcDbPolyline
 62
7
  6
CONTINUOUS
 90
10
 70
0
 10
96.5115200816
 20
93.0503455105
 10
96.5095704113
 20
93.0522073127
 10
96.5076362496
 20
93.0540252348
 10
96.5057175965
 20
93.0557992768
 10
96.5038242961
 20
93.05752018
 10
96.5019465043
 20
93.0591972032
 10
96.5000546887
 20
93.0608581226
 10
96.4981390053
 20
93.0625121969
 10
96.4962092981
 20
93.0641501675
 10
96.4942655672
 20
93.0657720343
  0
LWPOLYLINE
  5
2AD
100
AcDbEntity
  8
RACCORDO
100
AcDbPolyline
 62
7
  6
CONTINUOUS
 90
10
 70
0
 10
96.4911694126
 20
93.0683364035
 10
96.5288879639
 20
93.0309532021
 10
96.5594235172
 20
92.9875045427
 10
96.581819154
 20
92.9393520127
 10
96.5953730434
 20
92.8880046087
 10
96.5996604355
 20
92.8350714477
 10
96.5945469729
 20
92.7822113409
 10
96.5801929005
 20
92.7310808101
 10
96.5570480438
 20
92.6832821761
 10
96.5258377129
 20
92.6403133449
  0
LINE
  5
2AE
100
AcDbEntity
  8
DRAFT
100
AcDbLine
 62
7
  6
CONTINUOUS
 10
103.5536822268
 20
88.1968783506
 11
100.1595696771
 21
91.5909909003
  0
LINE
  5
2AF
100
AcDbEntity
  8
RACCORDO
100
AcDbLine
 62
7
  6
CONTINUOUS
 10
96.5112506623
 20
93.0505987382
 11
96.5236721527
 21
93.0361226403
  0
LINE
  5
2B0
100
AcDbEntity
  8
RACCORDO
100
AcDbLine
 62
7
  6
CONTINUOUS
 10
96.5324187503
 20
93.0259292899
 11
96.5372396262
 21
93.020311005
  0
LINE
  5
2B1
100
AcDbEntity
  8
RACCORDO
100
AcDbLine
 62
7
  6
CONTINUOUS
 10
96.5591373941
 20
92.9892353443
 11
96.5766852632
 21
92.9577795355
  0
LWPOLYLINE
  5
2B2
100
AcDbEntity
  8
RACCORDO
100
AcDbPolyline
 62
7
  6
CONTINUOUS
 90
5
 70
0
 10
96.5766852632
 20
92.9577795355
 10
96.5892688961
 20
92.9259981937
 10
96.5973090676
 20
92.8942427361
 10
96.6021311544
 20
92.8632493653
 10
96.6038362186
 20
92.8331243986
  0
LINE
  5
2B3
100
AcDbEntity
  8
RACCORDO
100
AcDbLine
 62
7
  6
CONTINUOUS
 10
91.925255102
 20
142.5625637755
 11
91.925255102
 21
124.9625637755
  0
LINE
  5
2B4
100
AcDbEntity
  8
RACCORDO
100
AcDbLine
 62
7
  6
CONTINUOUS
 10
91.925255102
 20
108.5625637755
 11
91.925255102
 21
90.9625637755
  0
LINE
  5
2B5
100
AcDbEntity
  8
RACCORDO
100
AcDbLine
 62
7
  6
CONTINUOUS
 10
93.725255102
 20
132.0125637755
 11
93.725255102
 21
118.4946145831
  0
LINE
  5
2B6
100
AcDbEntity
  8
RACCORDO
100
AcDbLine
 62
7
  6
CONTINUOUS
 10
93.725255102
 20
115.0305129679
 11
93.725255102
 21
101.5125637755
  0
LINE
  5
2B7
100
AcDbEntity
  8
RACCORDO
100
AcDbLine
 62
7
  6
CONTINUOUS
 10
95.225255102
 20
101.5125637755
 11
95.225255102
 21
105.5125637755
  0
LINE
  5
2B8
100
AcDbEntity
  8
RACCORDO
100
AcDbLine
 62
7
  6
CONTINUOUS
 10
95.225255102
 20
128.0125637755
 11
95.225255102
 21
132.0125637755
  0
LWPOLYLINE
  5
2B9
100
AcDbEntity
  8
0
100
AcDbPolyline
 62
7
  6
CONTINUOUS
 90
10
 70
0
 10
95.9949376796
 20
130.8895737755
 10
95.9545571145
 20
130.8210503878
 10
95.9068281252
 20
130.7546285593
 10
95.8517507117
 20
130.69030829
 10
95.7888699563
 20
130.627824969
 10
95.7186407766
 20
130.5674432073
 10
95.6424279261
 20
130.5099568372
 10
95.5606863223
 20
130.4556304695
 10
95.4729610476
 20
130.4041994934
 10
95.379252102
 20
130.3556639089
  0
LINE
  5
2BA
100
AcDbEntity
  8
DRAFT
100
AcDbLine
 62
7
  6
CONTINUOUS
 10
101.3616512051
 20
140.7320551227
 11
103.7104289613
 21
143.080832879
  0
LINE
  5
2BB
100
AcDbEntity
  8
RACCORDO
100
AcDbLine
 62
7
  6
CONTINUOUS
 10
103.725255102
 20
143.0660067382
 11
101.4013157093
 21
140.7420673455
  0
LINE
  5
2BC
100
AcDbEntity
  8
RACCORDO
100
AcDbLine
 62
253
  6
CONTINUOUS
 10
103.725255102
 20
142.6417588242
 11
101.6134396662
 21
140.5299433884
  0
LINE
  5
2BD
100
AcDbEntity
  8
RACCORDO
100
AcDbLine
 62
7
  6
CONTINUOUS
 10
104.7636538775
 20
144.1182775497
 11
103.725255102
 21
143.0821335963
  0
LINE
  5
2BE
100
AcDbEntity
  8
RACCORDO
100
AcDbLine
 62
253
  6
CONTINUOUS
 10
104.9757778345
 20
143.8540591394
 11
103.7430085504
 21
142.6239667414
  0
LWPOLYLINE
  5
2BF
100
AcDbEntity
  8
RACCORDO
100
AcDbPolyline
 62
253
  6
CONTINUOUS
 90
10
 70
0
 10
101.4013157093
 20
140.7420673455
 10
101.3648354648
 20
140.7057308958
 10
101.3534693788
 20
140.6945990145
 10
101.3423648831
 20
140.6838482658
 10
101.3313707541
 20
140.6733254286
 10
101.3206463181
 20
140.6631768572
 10
101.3106679736
 20
140.6538415417
 10
101.3014969105
 20
140.6453599419
 10
101.2930905622
 20
140.6376726294
 10
101.2857772276
 20
140.6310602769
  0
LINE
  5
2C0
100
AcDbEntity
  8
RACCORDO
100
AcDbLine
 62
253
  6
CONTINUOUS
 10
101.6134396664
 20
140.5299433885
 11
101.4877852949
 21
140.4079107806
  0
LINE
  5
2C1
100
AcDbEntity
  8
RACCORDO
100
AcDbLine
 62
253
  6
CONTINUOUS
 10
101.4877852949
 20
140.4079107806
 11
101.4268649039
 21
140.3494333966
  0
LINE
  5
2C2
100
AcDbEntity
  8
RACCORDO
100
AcDbLine
 62
253
  6
CONTINUOUS
 10
101.4268649039
 20
140.3494333966
 11
101.3459431527
 21
140.27255843
  0
LINE
  5
2C3
100
AcDbEntity
  8
RACCORDO
100
AcDbLine
 62
253
  6
CONTINUOUS
 10
101.3459431527
 20
140.27255843
 11
101.2875591588
 21
140.2177556005
  0
LWPOLYLINE
  5
2C4
100
AcDbEntity
  8
RACCORDO
100
AcDbPolyline
 62
253
  6
CONTINUOUS
 90
5
 70
0
 10
101.2875591588
 20
140.2177556005
 10
101.2641579852
 20
140.1960675184
 10
101.2571476516
 20
140.1896437636
 10
101.2530313678
 20
140.1859563253
 10
101.2516335453
 20
140.1848379056
  0
LWPOLYLINE
  5
2C5
100
AcDbEntity
  8
RACCORDO
100
AcDbPolyline
 62
253
  6
CONTINUOUS
 90
7
 70
0
 10
101.2857772276
 20
140.6310602769
 10
101.2796722606
 20
140.625610824
 10
101.274677708
 20
140.6212173396
 10
101.2708025456
 20
140.6178671167
 10
101.2680523616
 20
140.6155528603
 10
101.2664294079
 20
140.614272717
 10
101.2659354552
 20
140.6140244444
  0
LINE
  5
2C6
100
AcDbEntity
  8
RACCORDO
100
AcDbLine
 62
7
  6
CONTINUOUS
 10
131.1066342031
 20
83.2663468916
 11
131.3127766995
 21
83.2700146944
  0
LINE
  5
2C7
100
AcDbEntity
  8
RACCORDO
100
AcDbLine
 62
7
  6
CONTINUOUS
 10
131.0473554074
 20
83.2655797704
 11
131.1066342031
 21
83.2663468916
  0
LINE
  5
2C8
100
AcDbEntity
  8
RACCORDO
100
AcDbLine
 62
7
  6
CONTINUOUS
 10
131.3127766995
 20
83.2700146944
 11
131.3457489342
 21
83.2704247839
  0
LINE
  5
2C9
100
AcDbEntity
  8
RACCORDO
100
AcDbLine
 62
7
  6
CONTINUOUS
 10
130.9806465301
 20
83.265055559
 11
131.0473554074
 21
83.2655797704
  0
LINE
  5
2CA
100
AcDbEntity
  8
RACCORDO
100
AcDbLine
 62
7
  6
CONTINUOUS
 10
131.3457489342
 20
83.2704247839
 11
131.3770813491
 21
83.2706381605
  0
LINE
  5
2CB
100
AcDbEntity
  8
RACCORDO
100
AcDbLine
 62
7
  6
CONTINUOUS
 10
98.7115504496
 20
80.0625637755
 11
158.7389597545
 21
80.0625637755
  0
LINE
  5
2CC
100
AcDbEntity
  8
RACCORDO
100
AcDbLine
 62
253
  6
CONTINUOUS
 10
158.5776221998
 20
80.2239013302
 11
98.8728880043
 21
80.2239013302
  0
LINE
  5
2CD
100
AcDbEntity
  8
RACCORDO
100
AcDbLine
 62
253
  6
CONTINUOUS
 10
158.5776221998
 20
81.7218456324
 11
98.8728880043
 21
81.7218456324
  0
LINE
  5
2CE
100
AcDbEntity
  8
RACCORDO
100
AcDbLine
 62
7
  6
CONTINUOUS
 10
126.5252551035
 20
83.264912465
 11
130.9806465301
 21
83.265055559
  0
LINE
  5
2CF
100
AcDbEntity
  8
RACCORDO
100
AcDbLine
 62
7
  6
CONTINUOUS
 10
153.725255102
 20
83.2706924092
 11
131.3770813491
 21
83.2706381605
  0
LINE
  5
2D0
100
AcDbEntity
  8
RACCORDO
100
AcDbLine
 62
7
  6
CONTINUOUS
 10
103.725255102
 20
83.2706924092
 11
126.0742415471
 21
83.2706509804
  0
LINE
  5
2D1
100
AcDbEntity
  8
RACCORDO
100
AcDbLine
 62
7
  6
CONTINUOUS
 10
126.4673356747
 20
83.2650617921
 11
126.5252551035
 21
83.264912465
  0
LINE
  5
2D2
100
AcDbEntity
  8
RACCORDO
100
AcDbLine
 62
7
  6
CONTINUOUS
 10
126.0742415471
 20
83.2706509804
 11
126.1005670541
 21
83.2704833018
  0
LINE
  5
2D3
100
AcDbEntity
  8
RACCORDO
100
AcDbLine
 62
7
  6
CONTINUOUS
 10
126.4142857056
 20
83.2654618101
 11
126.4673356747
 21
83.2650617921
  0
LINE
  5
2D4
100
AcDbEntity
  8
RACCORDO
100
AcDbLine
 62
7
  6
CONTINUOUS
 10
126.3504587628
 20
83.2662453555
 11
126.4142857056
 21
83.2654618101
  0
LINE
  5
2D5
100
AcDbEntity
  8
RACCORDO
100
AcDbLine
 62
7
  6
CONTINUOUS
 10
126.1005670541
 20
83.2704833018
 11
126.1371018242
 21
83.270037555
  0
LINE
  5
2D6
100
AcDbEntity
  8
RACCORDO
100
AcDbLine
 62
7
  6
CONTINUOUS
 10
126.1371018242
 20
83.270037555
 11
126.3504587628
 21
83.2662453555
  0
LWPOLYLINE
  5
2D7
100
AcDbEntity
  8
RACCORDO
100
AcDbPolyline
 62
253
  6
CONTINUOUS
 90
28
 70
0
 10
98.8728880043
 20
81.7218456324
 10
98.3793627183
 20
81.7361713769
 10
97.8900477586
 20
81.7787034841
 10
97.4049431252
 20
81.8494419538
 10
96.9222753522
 20
81.9487582705
 10
96.4438179054
 20
82.0762809499
 10
95.9748911824
 20
82.2308955388
 10
95.5156414327
 20
82.4129544926
 10
95.0659224067
 20
82.6221053559
 10
94.6306157541
 20
82.8561763106
 10
94.2099685588
 20
83.1154160061
 10
93.8037337367
 20
83.3995757928
 10
93.4160516857
 20
83.7057379042
 10
93.0471529143
 20
84.0340792065
 10
92.6968069139
 20
84.3844228335
 10
92.3684625564
 20
84.7533204199
 10
92.0622963583
 20
85.1410035331
 10
91.7781318031
 20
85.5472406058
 10
91.5188882132
 20
85.9678885703
 10
91.284814915
 20
86.4031941105
 10
91.0756625821
 20
86.8529105427
 10
90.8936025575
 20
87.3121547481
 10
90.7389877562
 20
87.7810671797
 10
90.6114652633
 20
88.2595073846
 10
90.5121476773
 20
88.7421708847
 10
90.4414058643
 20
89.2272895205
 10
90.3988689582
 20
89.7166314516
 10
90.3845369589
 20
90.2101966778
  0
LWPOLYLINE
  5
2D8
100
AcDbEntity
  8
RACCORDO
100
AcDbPolyline
 62
253
  6
CONTINUOUS
 90
40
 70
0
 10
126.0662834233
 20
83.2706924092
 10
125.792600944
 20
83.3174432486
 10
125.5265014205
 20
83.3838284353
 10
125.2679848528
 20
83.4698479693
 10
125.0156880163
 20
83.5762287496
 10
124.7709741355
 20
83.7022438771
 10
124.5379328845
 20
83.8457126547
 10
124.3167424613
 20
84.0068651558
 10
124.1072246679
 20
84.185471307
 10
123.9129345831
 20
84.3786601903
 10
123.7340497371
 20
84.5867016949
 10
123.5703925997
 20
84.8093259317
 10
123.4249856601
 20
85.0428523152
 10
123.298094658
 20
85.2875545408
 10
123.1894538538
 20
85.5431589132
 10
123.1012885175
 20
85.8051637613
 10
123.0339905897
 20
86.0738050074
 10
122.9871681298
 20
86.3488467291
 10
122.9618705871
 20
86.6250794887
 10
122.9585889451
 20
86.9025563595
 10
122.9768322203
 20
87.1812242682
 10
123.016176911
 20
87.4557145564
 10
123.0770636613
 20
87.7258441898
 10
123.1590518271
 20
87.9917962027
 10
123.2603959746
 20
88.24875104
 10
123.3814142777
 20
88.4964524561
 10
123.5217885626
 20
88.7351566965
 10
123.6788188738
 20
88.9608129425
 10
123.8527083902
 20
89.1731444287
 10
124.0432539331
 20
89.3724279206
 10
124.2471460107
 20
89.5554428954
 10
124.4645779033
 20
89.721956233
 10
124.6953563307
 20
89.8722010535
 10
124.9355919601
 20
90.0036561946
 10
125.1855651331
 20
90.1160525673
 10
125.4449955081
 20
90.2096592606
 10
125.7091527282
 20
90.2827623792
 10
125.9764600077
 20
90.3347906248
 10
126.2484941323
 20
90.3663152957
 10
126.525255102
 20
90.377336392
  0
LWPOLYLINE
  5
2D9
100
AcDbEntity
  8
0
100
AcDbPolyline
 62
7
  6
CONTINUOUS
 90
11
 70
0
 10
110.7523528926
 20
85.5784951005
 10
110.6850573091
 20
85.5985372578
 10
110.6225608624
 20
85.6253142113
 10
110.5648635523
 20
85.658825961
 10
110.5112007551
 20
85.6998196894
 10
110.4623370946
 20
85.747548214
 10
110.4205664424
 20
85.7997699869
 10
110.3863148427
 20
85.8566925675
 10
110.3591562513
 20
85.9181083963
 10
110.3401064076
 20
85.9811532481
 10
110.3295038914
 20
86.044872381
  0
LWPOLYLINE
  5
2DA
100
AcDbEntity
  8
0
100
AcDbPolyline
 62
7
  6
CONTINUOUS
 90
9
 70
0
 10
113.5298325179
 20
85.5784951005
 10
113.4570370246
 20
85.6064384243
 10
113.3905571981
 20
85.6415162717
 10
113.3303930383
 20
85.6837286428
 10
113.2758159521
 20
85.7340214409
 10
113.2275545326
 20
85.7914487626
 10
113.1877945599
 20
85.8531728978
 10
113.1572646272
 20
85.9182479429
 10
113.1352361413
 20
85.9876198013
  0
LWPOLYLINE
  5
2DB
100
AcDbEntity
  8
RACCORDO
100
AcDbPolyline
 62
253
  6
CONTINUOUS
 90
15
 70
0
 10
101.2659354552
 20
92.9111031066
 10
101.2664298978
 20
92.9108543741
 10
101.2680523912
 20
92.9095746218
 10
101.2708011668
 20
92.9072616101
 10
101.2746737972
 20
92.903913644
 10
101.2796648813
 20
92.8995232837
 10
101.2857659906
 20
92.8940773692
 10
101.293074552
 20
92.887469485
 10
101.3014757584
 20
92.879787077
 10
101.3106434447
 20
92.8713088251
 10
101.3206206935
 20
92.8619747941
 10
101.3313457627
 20
92.8518259096
 10
101.342342751
 20
92.8413005932
 10
101.353452474
 20
92.8305449853
 10
101.3648259489
 20
92.8194060127
  0
LWPOLYLINE
  5
2DC
100
AcDbEntity
  8
RACCORDO
100
AcDbPolyline
 62
253
  6
CONTINUOUS
 90
3
 70
0
 10
101.2516335453
 20
93.3402896454
 10
101.2530313019
 20
93.3391712882
 10
101.2571467807
 20
93.3354845785
  0
LINE
  5
2DD
100
AcDbEntity
  8
RACCORDO
100
AcDbLine
 62
253
  6
CONTINUOUS
 10
101.2571467807
 20
93.3354845785
 11
101.2742533728
 21
93.3197338834
  0
LINE
  5
2DE
100
AcDbEntity
  8
RACCORDO
100
AcDbLine
 62
253
  6
CONTINUOUS
 10
101.2742533728
 20
93.3197338834
 11
101.3039151737
 21
93.2920797669
  0
LINE
  5
2DF
100
AcDbEntity
  8
RACCORDO
100
AcDbLine
 62
253
  6
CONTINUOUS
 10
101.3039151737
 20
93.2920797669
 11
101.3708077337
 21
93.2290473568
  0
LINE
  5
2E0
100
AcDbEntity
  8
RACCORDO
100
AcDbLine
 62
253
  6
CONTINUOUS
 10
101.3708077337
 20
93.2290473568
 11
101.4569222578
 21
93.14691209
  0
LINE
  5
2E1
100
AcDbEntity
  8
RACCORDO
100
AcDbLine
 62
253
  6
CONTINUOUS
 10
101.4569222578
 20
93.14691209
 11
101.5505388995
 21
93.0564420271
  0
LINE
  5
2E2
100
AcDbEntity
  8
RACCORDO
100
AcDbLine
 62
253
  6
CONTINUOUS
 10
101.5505388995
 20
93.0564420271
 11
101.6134396664
 21
92.9951841625
  0
LINE
  5
2E3
100
AcDbEntity
  8
RACCORDO
100
AcDbLine
 62
7
  6
CONTINUOUS
 10
103.725255102
 20
90.4429939548
 11
104.7636538775
 21
89.4068500013
  0
LINE
  5
2E4
100
AcDbEntity
  8
RACCORDO
100
AcDbLine
 62
253
  6
CONTINUOUS
 10
103.7430085504
 20
90.9011608096
 11
104.9757778345
 21
89.6710684116
  0
LINE
  5
2E5
100
AcDbEntity
  8
RACCORDO
100
AcDbLine
 62
253
  6
CONTINUOUS
 10
101.3648259489
 20
92.8194060127
 11
101.4013157093
 21
92.7830602055
  0
LINE
  5
2E6
100
AcDbEntity
  8
DRAFT
100
AcDbLine
 62
7
  6
CONTINUOUS
 10
103.7104289613
 20
90.4442946721
 11
101.3616512051
 21
92.7930724283
  0
LINE
  5
2E7
100
AcDbEntity
  8
RACCORDO
100
AcDbLine
 62
7
  6
CONTINUOUS
 10
101.4013157093
 20
92.7830602055
 11
103.725255102
 21
90.4591208128
  0
LINE
  5
2E8
100
AcDbEntity
  8
RACCORDO
100
AcDbLine
 62
253
  6
CONTINUOUS
 10
101.6134396662
 20
92.9951841627
 11
103.725255102
 21
90.8833687268
  0
LWPOLYLINE
  5
2E9
100
AcDbEntity
  8
RACCORDO
100
AcDbPolyline
 62
253
  6
CONTINUOUS
 90
27
 70
0
 10
104.9757778345
 20
89.6710684116
 10
105.1591330621
 20
89.4736582084
 10
105.3259285327
 20
89.2655317742
 10
105.4761642463
 20
89.0466891091
 10
105.610530563
 20
88.8157255279
 10
105.7283371227
 20
88.5740457158
 10
105.827512845
 20
88.3258637281
 10
105.9076720786
 20
88.0711469135
 10
105.9692004749
 20
87.8099279232
 10
106.011183908
 20
87.5465187662
 10
106.0333009734
 20
87.2809346754
 10
106.0358730756
 20
87.0131604179
 10
106.0189503018
 20
86.7474623041
 10
105.982223793
 20
86.4838571822
 10
105.9260024082
 20
86.222328204
 10
105.8512628116
 20
85.967091136
 10
105.7576880981
 20
85.7182366992
 10
105.6455951728
 20
85.4756741726
 10
105.5169114154
 20
85.2433471591
 10
105.3713446955
 20
85.0214398136
 10
105.2091871437
 20
84.8097679812
 10
105.0332425307
 20
84.6117228001
 10
104.8432750401
 20
84.4275633764
 10
104.6395204885
 20
84.257030604
 10
104.4254900967
 20
84.1027383032
 10
104.2023542719
 20
83.9655577472
 10
103.968942607
 20
83.8446176628
  0
LWPOLYLINE
  5
2EA
100
AcDbEntity
  8
RACCORDO
100
AcDbPolyline
 62
253
  6
CONTINUOUS
 90
25
 70
0
 10
104.7636538775
 20
89.4068500013
 10
104.9479672
 20
89.2072542144
 10
105.115240636
 20
88.9933355164
 10
105.2643783912
 20
88.7665489839
 10
105.3944217992
 20
88.5284119013
 10
105.5045129788
 20
88.2805512409
 10
105.5939167494
 20
88.024702663
 10
105.6620746045
 20
87.7626292319
 10
105.7085936287
 20
87.4960555363
 10
105.7332058225
 20
87.2267211724
 10
105.7357859742
 20
86.9564283603
 10
105.7163562448
 20
86.686968297
 10
105.6750634905
 20
86.4200689203
 10
105.612191516
 20
86.1574504875
 10
105.5281866043
 20
85.9009003391
 10
105.4236591245
 20
85.6521972961
 10
105.2993354081
 20
85.4129570301
 10
105.1560857718
 20
85.1847577962
 10
104.9949801902
 20
84.9691979706
 10
104.8171297553
 20
84.7676342787
 10
104.6237800656
 20
84.5813587772
 10
104.4164244687
 20
84.4116686666
 10
104.1965633264
 20
84.2596104648
 10
103.9656521623
 20
84.126015485
 10
103.7252551021
 20
84.0116340601
  0
LINE
  5
2EB
100
AcDbEntity
  8
0
100
AcDbLine
 62
7
  6
CONTINUOUS
 10
97.129666102
 20
104.1409517755
 11
96.713604102
 21
105.3726387755
  0
LINE
  5
2EC
100
AcDbEntity
  8
0
100
AcDbLine
 62
7
  6
CONTINUOUS
 10
96.622710102
 20
105.1380747755
 11
97.030734102
 21
103.9230337755
  0
LWPOLYLINE
  5
2ED
100
AcDbEntity
  8
RACCORDO
100
AcDbPolyline
 62
7
  6
CONTINUOUS
 90
9
 70
0
 10
96.6038362186
 20
140.6920031524
 10
96.6022839941
 20
140.7213523073
 10
96.5983172539
 20
140.7494479729
 10
96.5919817106
 20
140.7763374793
 10
96.5832319261
 20
140.8020909008
 10
96.5726914639
 20
140.8262201136
 10
96.5605741761
 20
140.8486208671
 10
96.546725938
 20
140.8695991423
 10
96.5312080672
 20
140.8892781885
  0
LWPOLYLINE
  5
2EE
100
AcDbEntity
  8
0
100
AcDbPolyline
 62
7
  6
CONTINUOUS
 90
34
 70
0
 10
98.4861753743
 20
129.8031899291
 10
98.4875333055
 20
129.6950260089
 10
98.4932304569
 20
129.5907133054
 10
98.5032668284
 20
129.4902518186
 10
98.5172768396
 20
129.3931921525
 10
98.535626071
 20
129.299983703
 10
98.5594112636
 20
129.2119746585
 10
98.5887956957
 20
129.1287721126
 10
98.623616089
 20
129.0507689717
 10
98.6644793498
 20
128.9804921425
 10
98.7117704611
 20
128.918561854
 10
98.76510444
 20
128.8643578773
 10
98.8239332443
 20
128.8185464325
 10
98.888523249
 20
128.7812332499
 10
98.9586080792
 20
128.7523125992
 10
99.0328405684
 20
128.7321335102
 10
99.1131555451
 20
128.7207226392
 10
99.1976181809
 20
128.7180533297
 10
99.279076824
 20
128.724394643
 10
99.3559354945
 20
128.7398094416
 10
99.4297901724
 20
128.7642348629
 10
99.4982771462
 20
128.7977513803
 10
99.560687412
 20
128.8405094821
 10
99.6177299737
 20
128.89235868
 10
99.6691681317
 20
128.952927982
 10
99.7151886563
 20
129.0229547568
 10
99.7556047772
 20
129.1017016358
 10
99.789619484
 20
129.1865855214
 10
99.8164987152
 20
129.277352136
 10
99.8369765322
 20
129.3742557573
 10
99.852458109
 20
129.4754761209
 10
99.8634118367
 20
129.5804064719
 10
99.8693693242
 20
129.6896535652
 10
99.8703305714
 20
129.8032174007
  0
LINE
  5
2EF
100
AcDbEntity
  8
0
100
AcDbLine
 62
7
  6
CONTINUOUS
 10
95.379252102
 20
130.3556639089
 11
95.379252102
 21
130.1032356619
  0
LINE
  5
2F0
100
AcDbEntity
  8
0
100
AcDbLine
 62
7
  6
CONTINUOUS
 10
95.902023102
 20
130.4180399811
 11
95.902023102
 21
128.7539347755
  0
LINE
  5
2F1
100
AcDbEntity
  8
0
100
AcDbLine
 62
7
  6
CONTINUOUS
 10
96.163408102
 20
128.7539347755
 11
96.163408102
 21
130.8895737755
  0
LINE
  5
2F2
100
AcDbEntity
  8
0
100
AcDbLine
 62
7
  6
CONTINUOUS
 10
96.432831102
 20
105.3726387755
 11
96.432831102
 21
103.9230337755
  0
LINE
  5
2F3
100
AcDbEntity
  8
0
100
AcDbLine
 62
7
  6
CONTINUOUS
 10
96.622710102
 20
103.9230337755
 11
96.622710102
 21
105.1380747755
  0
LINE
  5
2F4
100
AcDbEntity
  8
0
100
AcDbLine
 62
7
  6
CONTINUOUS
 10
96.731665102
 20
101.2032657755
 11
96.731665102
 21
99.7524887755
  0
LINE
  5
2F5
100
AcDbEntity
  8
0
100
AcDbLine
 62
7
  6
CONTINUOUS
 10
96.849545102
 20
130.8539297755
 11
96.849545102
 21
130.6044257755
  0
LINE
  5
2F6
100
AcDbEntity
  8
0
100
AcDbLine
 62
7
  6
CONTINUOUS
 10
96.927643102
 20
99.7524887755
 11
96.927643102
 21
101.2032657755
  0
LINE
  5
2F7
100
AcDbEntity
  8
0
100
AcDbLine
 62
7
  6
CONTINUOUS
 10
97.137812102
 20
101.2032657755
 11
97.137812102
 21
101.0296887755
  0
LINE
  5
2F8
100
AcDbEntity
  8
0
100
AcDbLine
 62
7
  6
CONTINUOUS
 10
97.628637102
 20
101.0296887755
 11
97.628637102
 21
99.7524887755
  0
LINE
  5
2F9
100
AcDbEntity
  8
0
100
AcDbLine
 62
7
  6
CONTINUOUS
 10
97.632625102
 20
105.1404207755
 11
97.632625102
 21
103.9230337755
  0
LINE
  5
2FA
100
AcDbEntity
  8
0
100
AcDbLine
 62
7
  6
CONTINUOUS
 10
97.822504102
 20
103.9230337755
 11
97.822504102
 21
105.3726387755
  0
LINE
  5
2FB
100
AcDbEntity
  8
0
100
AcDbLine
 62
7
  6
CONTINUOUS
 10
97.824498102
 20
99.7524887755
 11
97.824498102
 21
101.0296887755
  0
LINE
  5
2FC
100
AcDbEntity
  8
0
100
AcDbLine
 62
7
  6
CONTINUOUS
 10
98.224790102
 20
130.6519970209
 11
98.224790102
 21
130.8539297755
  0
LINE
  5
2FD
100
AcDbEntity
  8
0
100
AcDbLine
 62
7
  6
CONTINUOUS
 10
98.315323102
 20
101.0296887755
 11
98.315323102
 21
101.2032657755
  0
LINE
  5
2FE
100
AcDbEntity
  8
0
100
AcDbLine
 62
7
  6
CONTINUOUS
 10
98.376896102
 20
103.2873657755
 11
98.376896102
 21
101.8377617755
  0
LINE
  5
2FF
100
AcDbEntity
  8
0
100
AcDbLine
 62
7
  6
CONTINUOUS
 10
98.572874102
 20
101.8377617755
 11
98.572874102
 21
103.2873657755
  0
LINE
  5
300
100
AcDbEntity
  8
RACCORDO
100
AcDbLine
 62
253
  6
CONTINUOUS
 10
98.8728880043
 20
153.3012262208
 11
98.8728880043
 21
151.8032819187
  0
LINE
  5
301
100
AcDbEntity
  8
RACCORDO
100
AcDbLine
 62
253
  6
CONTINUOUS
 10
98.8728880043
 20
80.2239013302
 11
98.8728880043
 21
81.7218456324
  0
LINE
  5
302
100
AcDbEntity
  8
0
100
AcDbLine
 62
7
  6
CONTINUOUS
 10
98.908066102
 20
103.2873657755
 11
98.908066102
 21
101.8377617755
  0
LWPOLYLINE
  5
303
100
AcDbEntity
  8
0
100
AcDbPolyline
 62
7
  6
CONTINUOUS
 90
37
 70
0
 10
98.7535014743
 20
129.8024473453
 10
98.7539887867
 20
129.8770514843
 10
98.7562418594
 20
129.9494609332
 10
98.7602606923
 20
130.0196756921
 10
98.7658971663
 20
130.0876673483
 10
98.7732994006
 20
130.1534643145
 10
98.782911752
 20
130.2171518281
 10
98.7943810682
 20
130.2793537871
 10
98.8080605015
 20
130.3394462936
 10
98.825453866
 20
130.395642891
 10
98.8469964147
 20
130.4478395375
 10
98.8722528946
 20
130.4961402749
 10
98.90142136
 20
130.5390707731
 10
98.934795702
 20
130.5764613823
 10
98.9720820295
 20
130.6084817521
 10
99.0125967229
 20
130.6341665012
 10
99.0568948826
 20
130.6533466006
 10
99.1044214082
 20
130.6661910793
 10
99.1528273798
 20
130.6722416424
 10
99.20236839
 20
130.6713657017
 10
99.2527888461
 20
130.6636958454
 10
99.3009730494
 20
130.6491715425
 10
99.3464496305
 20
130.6275644925
 10
99.3896899589
 20
130.5991029958
 10
99.428992445
 20
130.564411423
 10
99.4640186893
 20
130.5232389133
 10
99.4951070912
 20
130.4758363274
 10
99.521571259
 20
130.423580618
 10
99.5426536067
 20
130.3661709682
 10
99.5591117202
 20
130.3039081949
 10
99.5725319658
 20
130.2390717013
 10
99.5830515214
 20
130.172326998
 10
99.5905332091
 20
130.1030085744
 10
99.5961518613
 20
130.0313993017
 10
99.6002990889
 20
129.9575934702
 10
99.6025832809
 20
129.8814967896
 10
99.6030044374
 20
129.8031092598
  0
LWPOLYLINE
  5
304
100
AcDbEntity
  8
RACCORDO
100
AcDbPolyline
 62
7
  6
CONTINUOUS
 90
9
 70
0
 10
96.6038362186
 20
92.8331243986
 10
96.6022839941
 20
92.8037752437
 10
96.5983172539
 20
92.7756795781
 10
96.5919817106
 20
92.7487900717
 10
96.5832319261
 20
92.7230366503
 10
96.5726914639
 20
92.6989074374
 10
96.5605741761
 20
92.6765066839
 10
96.546725938
 20
92.6555284087
 10
96.5312080672
 20
92.6358493625
  0
LWPOLYLINE
  5
305
100
AcDbEntity
  8
0
100
AcDbPolyline
 62
7
  6
CONTINUOUS
 90
13
 70
0
 10
97.4139006497
 20
128.7539347755
 10
97.4382048059
 20
128.962460318
 10
97.4726657531
 20
129.1614611558
 10
97.5172834912
 20
129.3509372889
 10
97.5737811619
 20
129.5306277072
 10
97.6404356235
 20
129.7007934208
 10
97.7120774513
 20
129.8622174605
 10
97.787410695
 20
130.0150406729
 10
97.8677313049
 20
130.1591222113
 10
97.9517577079
 20
130.2948225663
 10
98.0390627129
 20
130.4222619013
 10
98.1300735109
 20
130.5413200528
 10
98.224790102
 20
130.6519970209
  0
LINE
  5
306
100
AcDbEntity
  8
RACCORDO
100
AcDbLine
 62
253
  6
CONTINUOUS
 10
101.3735275819
 20
140.7073452626
 11
101.3764578155
 21
140.7172485123
  0
LWPOLYLINE
  5
307
100
AcDbEntity
  8
0
100
AcDbPolyline
 62
7
  6
CONTINUOUS
 90
13
 70
0
 10
97.8891471747
 20
130.6044257755
 10
97.7685908894
 20
130.4488135698
 10
97.6593197502
 20
130.2915650188
 10
97.5613337571
 20
130.1326801226
 10
97.4749403512
 20
129.9707092091
 10
97.3998320914
 20
129.8071019504
 10
97.3350866551
 20
129.6462073627
 10
97.2809823096
 20
129.4891999027
 10
97.2372407876
 20
129.3349051138
 10
97.202104964
 20
129.184148642
 10
97.1749891304
 20
129.0372057027
 10
97.1564789952
 20
128.8938010805
 10
97.1465745585
 20
128.7539347755
  0
LINE
  5
308
100
AcDbEntity
  8
RACCORDO
100
AcDbLine
 62
7
  6
CONTINUOUS
 10
90.225255102
 20
122.2625637755
 11
90.2540689968
 21
122.2913776703
  0
LWPOLYLINE
  5
309
100
AcDbEntity
  8
RACCORDO
100
AcDbPolyline
 62
253
  6
CONTINUOUS
 90
37
 70
0
 10
130.925255102
 20
83.4888929197
 10
131.2071120867
 20
83.5010707787
 10
131.4871287538
 20
83.5375556381
 10
131.7632025903
 20
83.5981422531
 10
132.0331878152
 20
83.68242131
 10
132.2951050144
 20
83.7898348544
 10
132.5471359752
 20
83.9197332098
 10
132.7873528911
 20
84.0712609933
 10
133.0138473151
 20
84.2433573893
 10
133.2249076944
 20
84.4348786323
 10
133.4188660023
 20
84.6445165591
 10
133.5940907153
 20
84.8707293215
 10
133.7490976678
 20
85.1118083475
 10
133.882605314
 20
85.3660064758
 10
133.9934452742
 20
85.6313823659
 10
134.0806001977
 20
85.9057354739
 10
134.1433288352
 20
86.1869973773
 10
134.1810573024
 20
86.4729597393
 10
134.193429015
 20
86.7610911039
 10
134.1803538899
 20
87.049165083
 10
134.141939988
 20
87.3349216173
 10
134.078600338
 20
87.6157887543
 10
133.9909474102
 20
87.8895570238
 10
133.8797467448
 20
88.1541971345
 10
133.7460560364
 20
88.4075474734
 10
133.591103382
 20
88.6476409316
 10
133.4161499738
 20
88.8728298876
 10
133.2225416839
 20
89.0816083881
 10
133.0118091395
 20
89.2724839226
 10
132.7856333875
 20
89.4440761454
 10
132.5457141973
 20
89.5952254438
 10
132.2938870252
 20
89.7248754015
 10
132.032091858
 20
89.8321198185
 10
131.7622831168
 20
89.916247786
 10
131.4864844612
 20
89.9767049521
 10
131.2067785914
 20
90.0131064932
 10
130.925255102
 20
90.0252533618
  0
LINE
  5
30A
100
AcDbEntity
  8
RACCORDO
100
AcDbLine
 62
7
  6
CONTINUOUS
 10
130.925255102
 20
83.4888929197
 11
126.525255102
 21
83.4888929197
  0
LINE
  5
30B
100
AcDbEntity
  8
DRAFT
100
AcDbLine
 62
7
  6
CONTINUOUS
 10
126.525255102
 20
83.5125637755
 11
130.925255102
 21
83.5125637755
  0
LINE
  5
30C
100
AcDbEntity
  8
DRAFT
100
AcDbLine
 62
7
  6
CONTINUOUS
 10
126.525255102
 20
84.9625637755
 11
130.925255102
 21
84.9625637755
  0
LINE
  5
30D
100
AcDbEntity
  8
DRAFT
100
AcDbLine
 62
7
  6
CONTINUOUS
 10
125.3376696482
 20
85.4125637755
 11
132.1128405559
 21
85.4125637755
  0
LINE
  5
30E
100
AcDbEntity
  8
0
100
AcDbLine
 62
7
  6
CONTINUOUS
 10
108.682510102
 20
85.5784951005
 11
109.639609102
 21
85.5784951005
  0
LINE
  5
30F
100
AcDbEntity
  8
0
100
AcDbLine
 62
7
  6
CONTINUOUS
 10
110.7523528926
 20
85.5784951005
 11
112.504651102
 21
85.5784951005
  0
LINE
  5
310
100
AcDbEntity
  8
0
100
AcDbLine
 62
7
  6
CONTINUOUS
 10
113.5298325179
 20
85.5784951005
 11
115.020620102
 21
85.5784951005
  0
LINE
  5
311
100
AcDbEntity
  8
0
100
AcDbLine
 62
7
  6
CONTINUOUS
 10
116.3787544795
 20
85.5784951005
 11
118.127675102
 21
85.5784951005
  0
LINE
  5
312
100
AcDbEntity
  8
0
100
AcDbLine
 62
7
  6
CONTINUOUS
 10
149.824991102
 20
85.7107398499
 11
150.545879102
 21
85.7107476087
  0
LINE
  5
313
100
AcDbEntity
  8
0
100
AcDbLine
 62
7
  6
CONTINUOUS
 10
144.863255102
 20
85.7107320912
 11
145.503279102
 21
85.7107398499
  0
LINE
  5
314
100
AcDbEntity
  8
0
100
AcDbLine
 62
7
  6
CONTINUOUS
 10
142.551431102
 20
85.7107320912
 11
143.191439102
 21
85.7107398499
  0
LINE
  5
315
100
AcDbEntity
  8
0
100
AcDbLine
 62
7
  6
CONTINUOUS
 10
140.026271102
 20
85.7107243324
 11
140.666295102
 21
85.7107320912
  0
LINE
  5
316
100
AcDbEntity
  8
0
100
AcDbLine
 62
7
  6
CONTINUOUS
 10
137.932087102
 20
85.7107243324
 11
138.572135102
 21
85.7107320912
  0
LINE
  5
317
100
AcDbEntity
  8
0
100
AcDbLine
 62
7
  6
CONTINUOUS
 10
141.306303102
 20
85.7107320912
 11
141.946327102
 21
85.7107320912
  0
LINE
  5
318
100
AcDbEntity
  8
0
100
AcDbLine
 62
7
  6
CONTINUOUS
 10
143.796551102
 20
85.7107320912
 11
144.436575102
 21
85.7107320912
  0
LINE
  5
319
100
AcDbEntity
  8
0
100
AcDbLine
 62
7
  6
CONTINUOUS
 10
147.984903102
 20
85.7107398499
 11
148.624935102
 21
85.7107398499
  0
LINE
  5
31A
100
AcDbEntity
  8
0
100
AcDbLine
 62
7
  6
CONTINUOUS
 10
146.918191102
 20
85.7107398499
 11
147.558223102
 21
85.7107320912
  0
LINE
  5
31B
100
AcDbEntity
  8
0
100
AcDbLine
 62
7
  6
CONTINUOUS
 10
145.705335102
 20
86.3210912888
 11
146.716143102
 21
86.3210912888
  0
LINE
  5
31C
100
AcDbEntity
  8
0
100
AcDbLine
 62
7
  6
CONTINUOUS
 10
146.520911102
 20
86.8760514863
 11
145.900559102
 21
86.8760514863
  0
LINE
  5
31D
100
AcDbEntity
  8
0
100
AcDbLine
 62
7
  6
CONTINUOUS
 10
146.520911102
 20
86.9107811218
 11
145.900559102
 21
86.9107811218
  0
LINE
  5
31E
100
AcDbEntity
  8
0
100
AcDbLine
 62
7
  6
CONTINUOUS
 10
148.625007102
 20
86.9107888806
 11
149.183607102
 21
86.9107811218
  0
LWPOLYLINE
  5
31F
100
AcDbEntity
  8
0
100
AcDbPolyline
 62
7
  6
CONTINUOUS
 90
12
 70
0
 10
116.3787544795
 20
85.5784951005
 10
116.3193812797
 20
85.5824099375
 10
116.2622940142
 20
85.5927685873
 10
116.207492683
 20
85.6095710501
 10
116.154064041
 20
85.6333235893
 10
116.1029213333
 20
85.6635199414
 10
116.0568042947
 20
85.698641316
 10
116.0162256157
 20
85.7387389531
 10
115.980672606
 20
85.7837616127
 10
115.9513469291
 20
85.8320367849
 10
115.9284397672
 20
85.8839591776
 10
115.9117599383
 20
85.9391340829
  0
LWPOLYLINE
  5
320
100
AcDbEntity
  8
0
100
AcDbPolyline
 62
7
  6
CONTINUOUS
 90
5
 70
0
 10
117.8407592001
 20
88.1875507949
 10
117.7822868885
 20
88.1981099305
 10
117.7234854435
 20
88.2009097438
 10
117.6643548651
 20
88.195950235
 10
117.6028262508
 20
88.1832997005
  0
LWPOLYLINE
  5
321
100
AcDbEntity
  8
0
100
AcDbPolyline
 62
7
  6
CONTINUOUS
 90
5
 70
0
 10
115.058187102
 20
88.1735991895
 10
115.0095511323
 20
88.1843684127
 10
114.9611235296
 20
88.1899371637
 10
114.9129042939
 20
88.1903054425
 10
114.8642805055
 20
88.1853598545
  0
LWPOLYLINE
  5
322
100
AcDbEntity
  8
0
100
AcDbPolyline
 62
7
  6
CONTINUOUS
 90
4
 70
0
 10
112.265118102
 20
88.1819369583
 10
112.2009391657
 20
88.1999349076
 10
112.1373819829
 20
88.209136377
 10
112.0744465534
 20
88.2095413664
  0
LWPOLYLINE
  5
323
100
AcDbEntity
  8
0
100
AcDbPolyline
 62
7
  6
CONTINUOUS
 90
10
 70
0
 10
118.3642531502
 20
88.4522443541
 10
118.4378427303
 20
88.419598355
 10
118.5047558755
 20
88.3800490924
 10
118.5649925859
 20
88.3335965662
 10
118.6192272173
 20
88.2792914686
 10
118.6667854139
 20
88.2180831075
 10
118.7056441075
 20
88.1528194063
 10
118.735128942
 20
88.0844496726
 10
118.7559142735
 20
88.0120245987
 10
118.7626456573
 20
87.9694276832
  0
LWPOLYLINE
  5
324
100
AcDbEntity
  8
0
100
AcDbPolyline
 62
7
  6
CONTINUOUS
 90
10
 70
0
 10
118.3642531502
 20
88.4869739897
 10
118.4378424937
 20
88.454328182
 10
118.504755488
 20
88.4147790518
 10
118.5649921331
 20
88.3683265992
 10
118.6192268204
 20
88.3140215016
 10
118.6667851584
 20
88.2528130814
 10
118.7056439731
 20
88.1875493064
 10
118.7351288729
 20
88.1191794992
 10
118.7559142492
 20
88.0467543371
 10
118.768000102
 20
87.9702738201
  0
LINE
  5
325
100
AcDbEntity
  8
RACCORDO
100
AcDbLine
 62
7
  6
CONTINUOUS
 10
90.225255102
 20
111.2625637755
 11
90.2540689968
 21
111.2337498807
  0
LINE
  5
326
100
AcDbEntity
  8
0
100
AcDbLine
 62
7
  6
CONTINUOUS
 10
100.539106102
 20
101.2032657755
 11
101.086578102
 21
100.3365527755
  0
LINE
  5
327
100
AcDbEntity
  8
0
100
AcDbLine
 62
7
  6
CONTINUOUS
 10
99.098063102
 20
103.0157447755
 11
99.839285102
 21
101.8377617755
  0
LINE
  5
328
100
AcDbEntity
  8
0
100
AcDbLine
 62
7
  6
CONTINUOUS
 10
99.869661102
 20
102.1102667755
 11
99.140402102
 21
103.2873657755
  0
LINE
  5
329
100
AcDbEntity
  8
0
100
AcDbLine
 62
7
  6
CONTINUOUS
 10
101.183453102
 20
100.5066117755
 11
100.767337102
 21
101.2032657755
  0
LINE
  5
32A
100
AcDbEntity
  8
0
100
AcDbLine
 62
7
  6
CONTINUOUS
 10
99.288880102
 20
103.9230337755
 11
98.763692102
 21
105.3726387755
  0
LINE
  5
32B
100
AcDbEntity
  8
0
100
AcDbLine
 62
7
  6
CONTINUOUS
 10
99.664535102
 20
99.7524887755
 11
99.139346102
 21
101.2032657755
  0
LINE
  5
32C
100
AcDbEntity
  8
0
100
AcDbLine
 62
7
  6
CONTINUOUS
 10
99.307059102
 20
100.1747037755
 11
99.450495102
 21
99.7524887755
  0
LINE
  5
32D
100
AcDbEntity
  8
0
100
AcDbLine
 62
7
  6
CONTINUOUS
 10
98.931405102
 20
104.3452487755
 11
99.074841102
 21
103.9230337755
  0
LINE
  5
32E
100
AcDbEntity
  8
0
100
AcDbLine
 62
7
  6
CONTINUOUS
 10
99.020269102
 20
100.9919927755
 11
99.236338102
 21
100.3482807755
  0
LINE
  5
32F
100
AcDbEntity
  8
0
100
AcDbLine
 62
7
  6
CONTINUOUS
 10
98.644614102
 20
105.1625397755
 11
98.860684102
 21
104.5188267755
  0
LINE
  5
330
100
AcDbEntity
  8
RACCORDO
100
AcDbLine
 62
253
  6
CONTINUOUS
 10
101.3735277664
 20
92.8177825851
 11
101.3764581697
 21
92.8078793929
  0
LWPOLYLINE
  5
331
100
AcDbEntity
  8
RACCORDO
100
AcDbPolyline
 62
7
  6
CONTINUOUS
 90
10
 70
0
 10
101.1647496866
 20
93.1239001899
 10
101.1664864449
 20
93.0937770338
 10
101.1713709484
 20
93.0647955928
 10
101.1785115076
 20
93.0373344591
 10
101.1878680975
 20
93.0113414044
 10
101.1994938408
 20
92.9867519852
 10
101.2127136417
 20
92.9639801359
 10
101.227303167
 20
92.943105075
 10
101.2434503848
 20
92.923840364
 10
101.2611084126
 20
92.9060565728
  0
LWPOLYLINE
  5
332
100
AcDbEntity
  8
0
100
AcDbPolyline
 62
7
  6
CONTINUOUS
 90
16
 70
0
 10
100.6758303102
 20
104.6478366155
 10
100.6738433004
 20
104.7333993609
 10
100.6655196863
 20
104.8146770782
 10
100.6508594678
 20
104.8916697674
 10
100.6294261031
 20
104.9649919519
 10
100.601656134
 20
105.0340291084
 10
100.5688591862
 20
105.0969376667
 10
100.5312680715
 20
105.1532050832
 10
100.488649978
 20
105.2033439017
 10
100.4416160957
 20
105.2470481832
 10
100.3904235806
 20
105.2842492054
 10
100.3348152767
 20
105.3150156908
 10
100.2746309054
 20
105.3392478676
 10
100.2098170405
 20
105.3569124787
 10
100.1404271083
 20
105.3680427814
 10
100.0664611087
 20
105.3726387755
  0
LWPOLYLINE
  5
333
100
AcDbEntity
  8
0
100
AcDbPolyline
 62
7
  6
CONTINUOUS
 90
34
 70
0
 10
99.8703305714
 20
129.8032174007
 10
99.8700954939
 20
129.9132726406
 10
99.8649223527
 20
130.0191404751
 10
99.8548111477
 20
130.1208209042
 10
99.8399636293
 20
130.2187312519
 10
99.8201780471
 20
130.3124541942
 10
99.7948491505
 20
130.4007377591
 10
99.7637688034
 20
130.4839544916
 10
99.7271451419
 20
130.5617318466
 10
99.6849973232
 20
130.6317002166
 10
99.6370893033
 20
130.6933279569
 10
99.5836571261
 20
130.7471467123
 10
99.5254280817
 20
130.7923818096
 10
99.4624519138
 20
130.8287030202
 10
99.3946788785
 20
130.8564405728
 10
99.3226870346
 20
130.87581048
 10
99.2444949967
 20
130.887060525
 10
99.1620841502
 20
130.8899429246
 10
99.0819767102
 20
130.8839303412
 10
99.0053387113
 20
130.8689296815
 10
98.9310041189
 20
130.8450340389
 10
98.8619970447
 20
130.8119953563
 10
98.7992863176
 20
130.7697526822
 10
98.7419031087
 20
130.7183669681
 10
98.6899650427
 20
130.6577730118
 10
98.6430927083
 20
130.5868148299
 10
98.6016655169
 20
130.5066484057
 10
98.5669393276
 20
130.4206764861
 10
98.5399120037
 20
130.3295349917
 10
98.5195856819
 20
130.2325880018
 10
98.5042226312
 20
130.131330502
 10
98.4932436078
 20
130.0262608209
 10
98.4872278555
 20
129.91688063
 10
98.4861753743
 20
129.8031899291
  0
LINE
  5
334
100
AcDbEntity
  8
0
100
AcDbLine
 62
7
  6
CONTINUOUS
 10
99.098063102
 20
101.8377617755
 11
99.098063102
 21
103.0157447755
  0
LINE
  5
335
100
AcDbEntity
  8
0
100
AcDbLine
 62
7
  6
CONTINUOUS
 10
99.478760102
 20
105.3726387755
 11
99.478760102
 21
103.9230337755
  0
LINE
  5
336
100
AcDbEntity
  8
0
100
AcDbLine
 62
7
  6
CONTINUOUS
 10
99.677027662
 20
104.0966114555
 11
99.677027662
 21
105.1990617755
  0
LINE
  5
337
100
AcDbEntity
  8
0
100
AcDbLine
 62
7
  6
CONTINUOUS
 10
99.844328102
 20
101.2032657755
 11
99.844328102
 21
99.7524887755
  0
LINE
  5
338
100
AcDbEntity
  8
0
100
AcDbLine
 62
7
  6
CONTINUOUS
 10
99.869661102
 20
103.2873657755
 11
99.869661102
 21
102.1102667755
  0
LINE
  5
339
100
AcDbEntity
  8
0
100
AcDbLine
 62
7
  6
CONTINUOUS
 10
100.040189102
 20
99.9260657755
 11
100.040189102
 21
101.2032657755
  0
LINE
  5
33A
100
AcDbEntity
  8
0
100
AcDbLine
 62
7
  6
CONTINUOUS
 10
100.059423102
 20
101.8377617755
 11
100.059423102
 21
103.2873657755
  0
LINE
  5
33B
100
AcDbEntity
  8
0
100
AcDbLine
 62
7
  6
CONTINUOUS
 10
100.775429102
 20
99.7524887755
 11
100.775429102
 21
99.9260657755
  0
LINE
  5
33C
100
AcDbEntity
  8
0
100
AcDbLine
 62
7
  6
CONTINUOUS
 10
100.947130102
 20
105.3726387755
 11
100.947130102
 21
103.9230337755
  0
LINE
  5
33D
100
AcDbEntity
  8
0
100
AcDbLine
 62
7
  6
CONTINUOUS
 10
101.086578102
 20
100.3365527755
 11
101.086578102
 21
99.7524887755
  0
LINE
  5
33E
100
AcDbEntity
  8
0
100
AcDbLine
 62
7
  6
CONTINUOUS
 10
101.143108102
 20
104.0966117755
 11
101.143108102
 21
104.5809857755
  0
LINE
  5
33F
100
AcDbEntity
  8
0
100
AcDbLine
 62
7
  6
CONTINUOUS
 10
101.143108102
 20
104.7545627755
 11
101.143108102
 21
105.1990617755
  0
LINE
  5
340
100
AcDbEntity
  8
0
100
AcDbLine
 62
7
  6
CONTINUOUS
 10
101.282439102
 20
99.7524887755
 11
101.282439102
 21
100.3365527755
  0
LINE
  5
341
100
AcDbEntity
  8
0
100
AcDbLine
 62
7
  6
CONTINUOUS
 10
101.7786258129
 20
130.8792572962
 11
101.7786258129
 21
130.6104181873
  0
LINE
  5
342
100
AcDbEntity
  8
0
100
AcDbLine
 62
7
  6
CONTINUOUS
 10
101.936872102
 20
104.5809857755
 11
101.936872102
 21
104.7545627755
  0
LINE
  5
343
100
AcDbEntity
  8
0
100
AcDbLine
 62
7
  6
CONTINUOUS
 10
102.003488102
 20
105.1990617755
 11
102.003488102
 21
105.3726387755
  0
LINE
  5
344
100
AcDbEntity
  8
0
100
AcDbLine
 62
7
  6
CONTINUOUS
 10
102.017679102
 20
103.9230337755
 11
102.017679102
 21
104.0966117755
  0
LINE
  5
345
100
AcDbEntity
  8
RACCORDO
100
AcDbLine
 62
7
  6
CONTINUOUS
 10
102.725255102
 20
109.3471477663
 11
102.725255102
 21
110.3625694871
  0
LWPOLYLINE
  5
346
100
AcDbEntity
  8
0
100
AcDbPolyline
 62
7
  6
CONTINUOUS
 90
34
 70
0
 10
99.6030044374
 20
129.8031092598
 10
99.602595935
 20
129.7189504528
 10
99.5999491583
 20
129.6374104446
 10
99.5950641074
 20
129.5584892353
 10
99.5884761743
 20
129.4819534339
 10
99.579649967
 20
129.4080364314
 10
99.5669793094
 20
129.3374384004
 10
99.5504307278
 20
129.2695023711
 10
99.5300376959
 20
129.2048853134
 10
99.504294458
 20
129.146258309
 10
99.4720999326
 20
129.0939731957
 10
99.4345552013
 20
129.0476781358
 10
99.3934577528
 20
129.0089886985
 10
99.3486028553
 20
128.9783583641
 10
99.3001952407
 20
128.9553336524
 10
99.2506465941
 20
128.9401696921
 10
99.1999938955
 20
128.9329396378
 10
99.1482001649
 20
128.9335703349
 10
99.0975661482
 20
128.9420974481
 10
99.0479218894
 20
128.9586843392
 10
98.9994373446
 20
128.9831676464
 10
98.9549231272
 20
129.0150929497
 10
98.914888441
 20
129.0550028219
 10
98.8788240822
 20
129.1023546902
 10
98.8480130535
 20
129.1550664166
 10
98.8234391296
 20
129.2131318974
 10
98.8041185357
 20
129.2765572363
 10
98.78838295
 20
129.3432786053
 10
98.7761361354
 20
129.4128394857
 10
98.767474329
 20
129.4856963963
 10
98.7610179207
 20
129.5611550647
 10
98.7563070404
 20
129.638984067
 10
98.7538015583
 20
129.7194148272
 10
98.7535014743
 20
129.8024473453
  0
LWPOLYLINE
  5
347
100
AcDbEntity
  8
0
100
AcDbPolyline
 62
7
  6
CONTINUOUS
 90
25
 70
0
 10
101.2663485546
 20
129.3633003308
 10
101.2631183399
 20
129.3031056237
 10
101.2537585407
 20
129.2469085898
 10
101.2382691568
 20
129.1947092294
 10
101.2164846
 20
129.1463085011
 10
101.1885704586
 20
129.1019054462
 10
101.1550234976
 20
129.062097188
 10
101.1156993535
 20
129.0266611921
 10
101.0707423897
 20
128.9958199928
 10
101.0210824618
 20
128.9708383172
 10
100.9653653397
 20
128.9516037781
 10
100.9049452534
 20
128.9382287625
 10
100.8448147489
 20
128.9323151586
 10
100.7855465562
 20
128.9345908208
 10
100.7265679452
 20
128.9443278947
 10
100.6711532718
 20
128.9609447043
 10
100.6198303947
 20
128.9847240697
 10
100.5720714551
 20
129.0153831708
 10
100.529567233
 20
129.0514918724
 10
100.4923724365
 20
129.0930371054
 10
100.4604323574
 20
129.1400319389
 10
100.4352736511
 20
129.1910854439
 10
100.4174052027
 20
129.2457339777
 10
100.4063181271
 20
129.304441183
 10
100.4020124243
 20
129.36720706
  0
LWPOLYLINE
  5
348
100
AcDbEntity
  8
RACCORDO
100
AcDbPolyline
 62
7
  6
CONTINUOUS
 90
10
 70
0
 10
101.1647496866
 20
140.4012273611
 10
101.1664864449
 20
140.4313505172
 10
101.1713709484
 20
140.4603319582
 10
101.1785115076
 20
140.4877930919
 10
101.1878680975
 20
140.5137861466
 10
101.1994938408
 20
140.5383755658
 10
101.2127136417
 20
140.5611474151
 10
101.227303167
 20
140.5820224761
 10
101.2434503848
 20
140.601287187
 10
101.2611084126
 20
140.6190709782
  0
LWPOLYLINE
  5
349
100
AcDbEntity
  8
0
100
AcDbPolyline
 62
7
  6
CONTINUOUS
 90
25
 70
0
 10
100.4020124243
 20
129.36720706
 10
100.4065647101
 20
129.4292505668
 10
100.4177608102
 20
129.4872299707
 10
100.4356007244
 20
129.5411452718
 10
100.4606795433
 20
129.5914895402
 10
100.4924021764
 20
129.6377697058
 10
100.5289833517
 20
129.678506558
 10
100.5703060089
 20
129.7135792076
 10
100.6164872082
 20
129.7431085438
 10
100.6660928587
 20
129.7659780239
 10
100.7197411356
 20
129.7817865665
 10
100.7768138638
 20
129.7909352529
 10
100.8340224271
 20
129.7935107843
 10
100.8914031342
 20
129.7896134131
 10
100.9489196764
 20
129.7791428869
 10
101.0031745117
 20
129.7618851492
 10
101.0537100646
 20
129.7371968965
 10
101.1009839106
 20
129.7057214325
 10
101.142971234
 20
129.6691746115
 10
101.1794963557
 20
129.6275182577
 10
101.2107349548
 20
129.580790547
 10
101.2351892521
 20
129.5308218608
 10
101.252359988
 20
129.4782223263
 10
101.2627464222
 20
129.4223818163
 10
101.2663485546
 20
129.3633003308
  0
LWPOLYLINE
  5
34A
100
AcDbEntity
  8
0
100
AcDbPolyline
 62
7
  6
CONTINUOUS
 90
22
 70
0
 10
100.4881508343
 20
130.350280227
 10
100.4944138963
 20
130.4029919095
 10
100.5072005728
 20
130.4520627413
 10
100.5265108639
 20
130.4974927222
 10
100.5529379685
 20
130.5401457908
 10
100.5858886878
 20
130.5791580087
 10
100.6235834243
 20
130.6119375601
 10
100.6661526099
 20
130.6379726264
 10
100.7134658128
 20
130.6577750263
 10
100.7633521406
 20
130.6702884005
 10
100.8168792255
 20
130.6750301458
 10
100.8729794353
 20
130.6724828653
 10
100.9262789807
 20
130.6630380095
 10
100.9758962635
 20
130.6463746488
 10
101.0227128819
 20
130.6228137127
 10
101.0639998416
 20
130.5937094395
 10
101.0992242728
 20
130.5587815204
 10
101.1289190452
 20
130.5183102641
 10
101.1519537736
 20
130.4744908363
 10
101.1679516628
 20
130.4280549587
 10
101.1772895081
 20
130.3782709095
 10
101.1799673093
 20
130.3251386887
  0
LWPOLYLINE
  5
34B
100
AcDbEntity
  8
0
100
AcDbPolyline
 62
7
  6
CONTINUOUS
 90
22
 70
0
 10
101.1799673093
 20
130.3251386887
 10
101.172864106
 20
130.2716576383
 10
101.1593728565
 20
130.2223193428
 10
101.1394935609
 20
130.1771238021
 10
101.1126855955
 20
130.1353654151
 10
101.0794895839
 20
130.097749783
 10
101.0415273969
 20
130.0663937093
 10
100.9984739399
 20
130.0418603422
 10
100.9506543075
 20
130.0235865336
 10
100.9006656544
 20
130.0119996429
 10
100.8476318902
 20
130.0072899946
 10
100.7924291053
 20
130.0092672643
 10
100.7402827263
 20
130.0177878375
 10
100.6923321962
 20
130.0330198667
 10
100.6474380721
 20
130.0547951996
 10
100.6074074513
 20
130.0824657653
 10
100.5722805017
 20
130.1165826763
 10
100.5420170554
 20
130.1565948202
 10
100.5183037062
 20
130.2002007881
 10
100.5017026518
 20
130.2466334437
 10
100.4916516945
 20
130.2966599233
 10
100.4881508343
 20
130.350280227
  0
LWPOLYLINE
  5
34C
100
AcDbEntity
  8
0
100
AcDbPolyline
 62
7
  6
CONTINUOUS
 90
10
 70
0
 10
102.370071846
 20
128.7539347755
 10
102.3981693919
 20
128.8890271156
 10
102.4282328428
 20
129.0185143719
 10
102.4602621988
 20
129.1423965443
 10
102.4943514272
 20
129.2605049861
 10
102.5304065606
 20
129.373008344
 10
102.5681456977
 20
129.4804125586
 10
102.6074748714
 20
129.5828862766
 10
102.6484880488
 20
129.6802608512
 10
102.6911852298
 20
129.7725362825
  0
LWPOLYLINE
  5
34D
100
AcDbEntity
  8
0
100
AcDbPolyline
 62
7
  6
CONTINUOUS
 90
16
 70
0
 10
107.4782213411
 20
146.0597878443
 10
107.5132396824
 20
146.2265638856
 10
107.5651815376
 20
146.3907731045
 10
107.632634472
 20
146.5479135909
 10
107.7159986542
 20
146.6978213612
 10
107.8148739155
 20
146.840660399
 10
107.9266473151
 20
146.9724207444
 10
108.0517916494
 20
147.0928811348
 10
108.189834122
 20
147.2022628329
 10
108.3367434018
 20
147.2972196665
 10
108.492606759
 20
147.3772668218
 10
108.6573369234
 20
147.4428891128
 10
108.8266407541
 20
147.4921948088
 10
108.9990872039
 20
147.5245533331
 10
109.1761073199
 20
147.5405952625
 10
109.357701102
 20
147.540320597
  0
LWPOLYLINE
  5
34E
100
AcDbEntity
  8
0
100
AcDbPolyline
 62
7
  6
CONTINUOUS
 90
16
 70
0
 10
107.4782213335
 20
146.0250581609
 10
107.513239671
 20
146.1918342065
 10
107.5651815231
 20
146.35604343
 10
107.6326344551
 20
146.513183921
 10
107.7159986357
 20
146.6630916959
 10
107.8148738962
 20
146.8059307384
 10
107.9266472956
 20
146.9376910882
 10
108.0517916304
 20
147.0581514827
 10
108.1898341041
 20
147.1675331846
 10
108.3367433855
 20
147.2624900216
 10
108.4926067447
 20
147.3425371798
 10
108.6573369116
 20
147.4081594732
 10
108.826640745
 20
147.4574651711
 10
108.9990871976
 20
147.4898236967
 10
109.1761073166
 20
147.5058656268
 10
109.357701102
 20
147.5055909615
  0
LINE
  5
34F
100
AcDbEntity
  8
0
100
AcDbLine
 62
7
  6
CONTINUOUS
 10
97.543725102
 20
105.3726387755
 11
97.129666102
 21
104.1409517755
  0
LWPOLYLINE
  5
350
100
AcDbEntity
  8
0
100
AcDbPolyline
 62
7
  6
CONTINUOUS
 90
10
 70
0
 10
102.6911852298
 20
129.7725362825
 10
102.7364987362
 20
129.8641217888
 10
102.7860361133
 20
129.9566965124
 10
102.8397973611
 20
130.0502604533
 10
102.8975537828
 20
130.1447433409
 10
102.9595340751
 20
130.2402154458
 10
103.0264243285
 20
130.3368875795
 10
103.0984532396
 20
130.4348300125
 10
103.1753921118
 20
130.5339724743
 10
103.2572409449
 20
130.6343149649
  0
LWPOLYLINE
  5
351
100
AcDbEntity
  8
0
100
AcDbPolyline
 62
7
  6
CONTINUOUS
 90
10
 70
0
 10
102.9406081496
 20
130.6104181873
 10
102.796582745
 20
130.4369829262
 10
102.6641830227
 20
130.2561940087
 10
102.5434089828
 20
130.0680514346
 10
102.434445229
 20
129.87369722
 10
102.3371071576
 20
129.6719893489
 10
102.2508409571
 20
129.4595017736
 10
102.1754620239
 20
129.2350924784
 10
102.1111549616
 20
128.999903479
 10
102.0579197703
 20
128.7539347755
  0
LWPOLYLINE
  5
352
100
AcDbEntity
  8
RACCORDO
100
AcDbPolyline
 62
7
  6
CONTINUOUS
 90
7
 70
0
 10
114.738466277
 20
142.7062620741
 10
114.7482280812
 20
142.7102744564
 10
114.7602894756
 20
142.7142545172
 10
114.774425661
 20
142.7182022566
 10
114.7903883919
 20
142.7224299494
 10
114.807983042
 20
142.7266253208
 10
114.8271032086
 20
142.729851546
  0
LINE
  5
353
100
AcDbEntity
  8
0
100
AcDbLine
 62
7
  6
CONTINUOUS
 10
158.0377551616
 20
95.2093722776
 11
157.7877550424
 21
95.145542498
  0
LINE
  5
354
100
AcDbEntity
  8
0
100
AcDbLine
 62
7
  6
CONTINUOUS
 10
157.7877550424
 20
94.7625637755
 11
158.100255102
 21
94.8263935607
  0
LWPOLYLINE
  5
355
100
AcDbEntity
  8
0
100
AcDbPolyline
 62
7
  6
CONTINUOUS
 90
7
 70
0
 10
112.0744465534
 20
88.2095413664
 10
112.0108925293
 20
88.2007855496
 10
111.9479602587
 20
88.1832332528
 10
111.8893707856
 20
88.157977455
 10
111.8363644581
 20
88.1253824824
 10
111.7877009283
 20
88.0850840089
 10
111.743380196
 20
88.0370820343
  0
LWPOLYLINE
  5
356
100
AcDbEntity
  8
RACCORDO
100
AcDbPolyline
 62
7
  6
CONTINUOUS
 90
3
 70
0
 10
142.6234069955
 20
90.795276005
 10
142.6028980826
 20
90.793331201
 10
142.5812004287
 20
90.7923555433
  0
LWPOLYLINE
  5
357
100
AcDbEntity
  8
RACCORDO
100
AcDbPolyline
 62
253
  6
CONTINUOUS
 90
37
 70
0
 10
126.525255102
 20
90.0252533618
 10
126.2438778652
 20
90.013119186
 10
125.9643980825
 20
89.9767698707
 10
125.6888974544
 20
89.9164253156
 10
125.4194968738
 20
89.8325077496
 10
125.1581519614
 20
89.7255798699
 10
124.906660381
 20
89.5962890928
 10
124.6669541915
 20
89.4455132325
 10
124.4408812732
 20
89.2742907685
 10
124.2300561311
 20
89.0836696687
 10
124.0361290086
 20
88.8749106008
 10
123.8607521343
 20
88.6495365542
 10
123.7054088462
 20
88.4091780115
 10
123.5713803327
 20
88.1555009017
 10
123.4598978551
 20
87.8904636801
 10
123.3720643581
 20
87.616355863
 10
123.3086350731
 20
87.3352824379
 10
123.2701780021
 20
87.0494065749
 10
123.2570813908
 20
86.7612501029
 10
123.2694433144
 20
86.4730696755
 10
123.3071635089
 20
86.1870982249
 10
123.3698848966
 20
85.9058285574
 10
123.4570373021
 20
85.6314576832
 10
123.5678768165
 20
85.3660661713
 10
123.7013867807
 20
85.1118525656
 10
123.8564000812
 20
84.8707567937
 10
124.0316341498
 20
84.6445284383
 10
124.2256017405
 20
84.4348794072
 10
124.4366655558
 20
84.2433551845
 10
124.6631609373
 20
84.0712584924
 10
124.9033885874
 20
83.9197250202
 10
125.155457746
 20
83.7898106199
 10
125.4174262687
 20
83.6823839069
 10
125.6874379326
 20
83.5981076977
 10
125.9634977008
 20
83.5375353432
 10
126.2434709117
 20
83.5010644617
 10
126.525255102
 20
83.4888929197
  0
LINE
  5
358
100
AcDbEntity
  8
RACCORDO
100
AcDbLine
 62
7
  6
CONTINUOUS
 10
137.0179066339
 20
90.7977242765
 11
137.1163421868
 21
90.8007392511
  0
LINE
  5
359
100
AcDbEntity
  8
RACCORDO
100
AcDbLine
 62
7
  6
CONTINUOUS
 10
137.1163421868
 20
90.8007392511
 11
137.2249630258
 21
90.8032752723
  0
LINE
  5
35A
100
AcDbEntity
  8
RACCORDO
100
AcDbLine
 62
7
  6
CONTINUOUS
 10
137.2249630258
 20
90.8032752723
 11
137.3423834712
 21
90.8052998675
  0
LINE
  5
35B
100
AcDbEntity
  8
RACCORDO
100
AcDbLine
 62
7
  6
CONTINUOUS
 10
137.3423834712
 20
90.8052998675
 11
137.4663991708
 21
90.8067695383
  0
LINE
  5
35C
100
AcDbEntity
  8
RACCORDO
100
AcDbLine
 62
7
  6
CONTINUOUS
 10
137.4663991708
 20
90.8067695383
 11
137.5942907114
 21
90.8076593546
  0
LINE
  5
35D
100
AcDbEntity
  8
RACCORDO
100
AcDbLine
 62
7
  6
CONTINUOUS
 10
142.5812004287
 20
90.7923555433
 11
142.5584774081
 21
90.7923490318
  0
LINE
  5
35E
100
AcDbEntity
  8
0
100
AcDbLine
 62
7
  6
CONTINUOUS
 10
149.394789102
 20
87.4502315371
 11
148.616111102
 21
87.4502315371
  0
LINE
  5
35F
100
AcDbEntity
  8
0
100
AcDbLine
 62
7
  6
CONTINUOUS
 10
149.3947977937
 20
87.4849611726
 11
148.616111102
 21
87.4849611726
  0
LINE
  5
360
100
AcDbEntity
  8
DRAFT
100
AcDbLine
 62
7
  6
CONTINUOUS
 10
125.3376696482
 20
88.1125637755
 11
132.1128405559
 21
88.1125637755
  0
LINE
  5
361
100
AcDbEntity
  8
0
100
AcDbLine
 62
7
  6
CONTINUOUS
 10
148.616103102
 20
88.240215409
 11
149.394789102
 21
88.240215409
  0
LINE
  5
362
100
AcDbEntity
  8
0
100
AcDbLine
 62
7
  6
CONTINUOUS
 10
118.3642531502
 20
88.4522443541
 11
116.979350102
 21
88.4522443541
  0
LINE
  5
363
100
AcDbEntity
  8
0
100
AcDbLine
 62
7
  6
CONTINUOUS
 10
115.409264102
 20
88.4522443541
 11
114.230506247
 21
88.4522443541
  0
LINE
  5
364
100
AcDbEntity
  8
0
100
AcDbLine
 62
7
  6
CONTINUOUS
 10
112.364088102
 20
88.4522443541
 11
111.5212439724
 21
88.4519693752
  0
LINE
  5
365
100
AcDbEntity
  8
0
100
AcDbLine
 62
7
  6
CONTINUOUS
 10
118.3642531502
 20
88.4869739897
 11
116.9765175524
 21
88.4869739897
  0
LINE
  5
366
100
AcDbEntity
  8
0
100
AcDbLine
 62
7
  6
CONTINUOUS
 10
115.4092627807
 20
88.4869739897
 11
114.230506247
 21
88.4869739897
  0
LINE
  5
367
100
AcDbEntity
  8
0
100
AcDbLine
 62
7
  6
CONTINUOUS
 10
112.364088102
 20
88.4869739897
 11
111.5212627772
 21
88.4866993444
  0
LINE
  5
368
100
AcDbEntity
  8
DRAFT
100
AcDbLine
 62
7
  6
CONTINUOUS
 10
130.925255102
 20
88.5625637755
 11
126.525255102
 21
88.5625637755
  0
LINE
  5
369
100
AcDbEntity
  8
0
100
AcDbLine
 62
7
  6
CONTINUOUS
 10
144.436575102
 20
88.7796503068
 11
143.469031102
 21
88.7796503068
  0
LINE
  5
36A
100
AcDbEntity
  8
0
100
AcDbLine
 62
7
  6
CONTINUOUS
 10
142.273847102
 20
88.7796503068
 11
141.306303102
 21
88.7796503068
  0
LINE
  5
36B
100
AcDbEntity
  8
0
100
AcDbLine
 62
7
  6
CONTINUOUS
 10
140.666303102
 20
88.7796503068
 11
140.026279102
 21
88.7796503068
  0
LINE
  5
36C
100
AcDbEntity
  8
0
100
AcDbLine
 62
7
  6
CONTINUOUS
 10
139.599599102
 20
88.7796503068
 11
138.959567102
 21
88.7796503068
  0
LINE
  5
36D
100
AcDbEntity
  8
0
100
AcDbLine
 62
7
  6
CONTINUOUS
 10
137.544663102
 20
88.7796503068
 11
136.904631102
 21
88.7796503068
  0
LINE
  5
36E
100
AcDbEntity
  8
0
100
AcDbLine
 62
7
  6
CONTINUOUS
 10
149.4836230768
 20
88.7796580655
 11
147.984903102
 21
88.7796580655
  0
LINE
  5
36F
100
AcDbEntity
  8
0
100
AcDbLine
 62
7
  6
CONTINUOUS
 10
146.530759102
 20
88.7796580655
 11
145.890703102
 21
88.7796580655
  0
LINE
  5
370
100
AcDbEntity
  8
0
100
AcDbLine
 62
7
  6
CONTINUOUS
 10
144.436575102
 20
88.8143799423
 11
143.469031102
 21
88.8143799423
  0
LINE
  5
371
100
AcDbEntity
  8
0
100
AcDbLine
 62
7
  6
CONTINUOUS
 10
142.273847102
 20
88.8143799423
 11
141.306303102
 21
88.8143799423
  0
LINE
  5
372
100
AcDbEntity
  8
0
100
AcDbLine
 62
7
  6
CONTINUOUS
 10
140.666303102
 20
88.8143799423
 11
140.026279102
 21
88.8143799423
  0
LINE
  5
373
100
AcDbEntity
  8
0
100
AcDbLine
 62
7
  6
CONTINUOUS
 10
139.599599102
 20
88.8143799423
 11
138.959567102
 21
88.8143799423
  0
LINE
  5
374
100
AcDbEntity
  8
0
100
AcDbLine
 62
7
  6
CONTINUOUS
 10
137.544663102
 20
88.8143799423
 11
136.904631102
 21
88.8143799423
  0
LINE
  5
375
100
AcDbEntity
  8
0
100
AcDbLine
 62
7
  6
CONTINUOUS
 10
149.4836432692
 20
88.8143877011
 11
147.984903102
 21
88.8143877011
  0
LINE
  5
376
100
AcDbEntity
  8
0
100
AcDbLine
 62
7
  6
CONTINUOUS
 10
146.530759102
 20
88.8143877011
 11
145.890703102
 21
88.8143877011
  0
LINE
  5
377
100
AcDbEntity
  8
DRAFT
100
AcDbLine
 62
7
  6
CONTINUOUS
 10
130.925255102
 20
90.0125637755
 11
126.525255102
 21
90.0125637755
  0
LINE
  5
378
100
AcDbEntity
  8
RACCORDO
100
AcDbLine
 62
7
  6
CONTINUOUS
 10
126.525255102
 20
90.0252533618
 11
130.925255102
 21
90.0252533618
  0
LINE
  5
379
100
AcDbEntity
  8
RACCORDO
100
AcDbLine
 62
253
  6
CONTINUOUS
 10
168.5639175473
 20
90.2101966778
 11
167.0659732452
 21
90.2101966778
  0
LINE
  5
37A
100
AcDbEntity
  8
RACCORDO
100
AcDbLine
 62
253
  6
CONTINUOUS
 10
88.8865926568
 20
90.2101966778
 11
90.3845369589
 21
90.2101966778
  0
LINE
  5
37B
100
AcDbEntity
  8
RACCORDO
100
AcDbLine
 62
253
  6
CONTINUOUS
 10
126.525255102
 20
90.377336392
 11
130.925255102
 21
90.377336392
  0
LINE
  5
37C
100
AcDbEntity
  8
0
100
AcDbLine
 62
7
  6
CONTINUOUS
 10
114.725255102
 20
90.7625637755
 11
120.725255102
 21
90.7625637755
  0
LINE
  5
37D
100
AcDbEntity
  8
0
100
AcDbLine
 62
7
  6
CONTINUOUS
 10
136.725255102
 20
90.7625637755
 11
142.725255102
 21
90.7625637755
  0
LINE
  5
37E
100
AcDbEntity
  8
RACCORDO
100
AcDbLine
 62
7
  6
CONTINUOUS
 10
137.5942907114
 20
90.8076593546
 11
141.725255102
 21
90.8079607758
  0
LWPOLYLINE
  5
37F
100
AcDbEntity
  8
RACCORDO
100
AcDbPolyline
 62
7
  6
CONTINUOUS
 90
9
 70
0
 10
114.892032796
 20
90.7923490318
 10
114.8693089854
 20
90.7923558719
 10
114.8476132205
 20
90.7933312902
 10
114.8271082481
 20
90.7952752867
 10
114.807996026
 20
90.7984994886
 10
114.7904093695
 20
90.8026922687
 10
114.774447671
 20
90.8069187457
 10
114.7603057155
 20
90.8108672925
 10
114.7482362235
 20
90.8148495363
  0
LINE
  5
380
100
AcDbEntity
  8
RACCORDO
100
AcDbLine
 62
7
  6
CONTINUOUS
 10
119.8562194927
 20
90.8076593546
 11
115.725255102
 21
90.8079607758
  0
LINE
  5
381
100
AcDbEntity
  8
RACCORDO
100
AcDbLine
 62
7
  6
CONTINUOUS
 10
119.9841110332
 20
90.8067695383
 11
119.8562194927
 21
90.8076593546
  0
LINE
  5
382
100
AcDbEntity
  8
RACCORDO
100
AcDbLine
 62
7
  6
CONTINUOUS
 10
120.1081267329
 20
90.8052998675
 11
119.9841110332
 21
90.8067695383
  0
LINE
  5
383
100
AcDbEntity
  8
RACCORDO
100
AcDbLine
 62
7
  6
CONTINUOUS
 10
120.2255471783
 20
90.8032752723
 11
120.1081267329
 21
90.8052998675
  0
LINE
  5
384
100
AcDbEntity
  8
RACCORDO
100
AcDbLine
 62
7
  6
CONTINUOUS
 10
120.3341680173
 20
90.8007392511
 11
120.2255471783
 21
90.8032752723
  0
LWPOLYLINE
  5
385
100
AcDbEntity
  8
RACCORDO
100
AcDbPolyline
 62
253
  6
CONTINUOUS
 90
40
 70
0
 10
130.925255102
 20
90.377336392
 10
131.2017062388
 20
90.3663574829
 10
131.4734857631
 20
90.3348913639
 10
131.7405936749
 20
90.2829380352
 10
132.0046170058
 20
90.2099289867
 10
132.2639687242
 20
90.1164327284
 10
132.5138877357
 20
90.0041547902
 10
132.7540812208
 20
89.8728321521
 10
132.9848419992
 20
89.7227278341
 10
133.2022874346
 20
89.5563364257
 10
133.4062319364
 20
89.3734190348
 10
133.5968610952
 20
89.1742145536
 10
133.7708490478
 20
88.9619342481
 10
133.9279938222
 20
88.7362961122
 10
134.0684973902
 20
88.497582152
 10
134.1896398037
 20
88.2498496516
 10
134.2910991223
 20
87.9928372576
 10
134.3731972865
 20
87.7268063234
 10
134.4341801695
 20
87.4565981932
 10
134.4736012834
 20
87.1820305377
 10
134.4919071161
 20
86.9032856863
 10
134.4886830052
 20
86.6257519714
 10
134.4634395712
 20
86.3494966784
 10
134.4166661935
 20
86.0744525219
 10
134.3494163478
 20
85.8058059783
 10
134.2613022061
 20
85.5437881989
 10
134.1527115963
 20
85.2881680323
 10
134.0258614776
 20
85.0434385008
 10
133.8804894938
 20
84.8098710152
 10
133.7168580012
 20
84.5871941647
 10
133.5379710282
 20
84.3790867386
 10
133.3436438098
 20
84.1858114247
 10
133.134061111
 20
84.0071055352
 10
132.9127812556
 20
83.845859796
 10
132.6796077181
 20
83.7023021366
 10
132.4347370241
 20
83.5762046275
 10
132.1823170736
 20
83.4697742064
 10
131.9237305
 20
83.3837465193
 10
131.65759467
 20
83.3173859202
 10
131.3839095835
 20
83.2706924092
  0
LWPOLYLINE
  5
386
100
AcDbEntity
  8
0
100
AcDbPolyline
 62
7
  6
CONTINUOUS
 90
12
 70
0
 10
115.4092627807
 20
88.4522443541
 10
115.4743161498
 20
88.4479402987
 10
115.5368510368
 20
88.4365593976
 10
115.5968674416
 20
88.4181016508
 10
115.6553704732
 20
88.3920079698
 10
115.7113550226
 20
88.3588374432
 10
115.7618057629
 20
88.3202673368
 10
115.8061573584
 20
88.2762413508
 10
115.8449751448
 20
88.2268157851
 10
115.8769398021
 20
88.1738368049
 10
115.9018382716
 20
88.1168700946
 10
115.9198836121
 20
88.0563499699
  0
LWPOLYLINE
  5
387
100
AcDbEntity
  8
0
100
AcDbPolyline
 62
7
  6
CONTINUOUS
 90
14
 70
0
 10
115.4092627807
 20
88.4869739897
 10
115.4743161498
 20
88.4826699342
 10
115.5368510368
 20
88.4712890331
 10
115.5968674416
 20
88.4528312864
 10
115.6553704732
 20
88.4267376054
 10
115.7113550226
 20
88.3935670787
 10
115.7618057629
 20
88.3549969723
 10
115.8061573584
 20
88.3109709864
 10
115.8449751448
 20
88.2615454206
 10
115.8769398021
 20
88.2085664404
 10
115.9018382716
 20
88.1515997302
 10
115.9198836121
 20
88.0910796054
 10
115.9303956797
 20
88.0301551779
 10
115.9332155815
 20
87.9773237618
  0
LINE
  5
388
100
AcDbEntity
  8
RACCORDO
100
AcDbLine
 62
7
  6
CONTINUOUS
 10
114.7482362235
 20
90.8148495363
 11
114.738466277
 21
90.8188654769
  0
LINE
  5
389
100
AcDbEntity
  8
0
100
AcDbLine
 62
7
  6
CONTINUOUS
 10
103.2572409449
 20
130.6343149649
 11
103.2572409449
 21
130.8792572962
  0
LINE
  5
38A
100
AcDbEntity
  8
RACCORDO
100
AcDbLine
 62
7
  6
CONTINUOUS
 10
103.725255102
 20
83.2706924092
 11
103.725255102
 21
84.0108124829
  0
LINE
  5
38B
100
AcDbEntity
  8
RACCORDO
100
AcDbLine
 62
7
  6
CONTINUOUS
 10
103.725255102
 20
90.4591208128
 11
103.725255102
 21
94.3625637755
  0
LINE
  5
38C
100
AcDbEntity
  8
RACCORDO
100
AcDbLine
 62
253
  6
CONTINUOUS
 10
103.725255102
 20
94.3625637755
 11
103.725255102
 21
139.1625637755
  0
LINE
  5
38D
100
AcDbEntity
  8
RACCORDO
100
AcDbLine
 62
7
  6
CONTINUOUS
 10
103.725255102
 20
139.1625637755
 11
103.725255102
 21
143.0660067382
  0
LINE
  5
38E
100
AcDbEntity
  8
RACCORDO
100
AcDbLine
 62
7
  6
CONTINUOUS
 10
103.725255102
 20
149.5143150681
 11
103.725255102
 21
150.2544351418
  0
LINE
  5
38F
100
AcDbEntity
  8
RACCORDO
100
AcDbLine
 62
7
  6
CONTINUOUS
 10
104.725255102
 20
94.3625637755
 11
104.725255102
 21
139.1625637755
  0
LINE
  5
390
100
AcDbEntity
  8
0
100
AcDbLine
 62
7
  6
CONTINUOUS
 10
106.7171094586
 20
145.9718981962
 11
106.7077062258
 21
145.7625637744
  0
LINE
  5
391
100
AcDbEntity
  8
0
100
AcDbLine
 62
7
  6
CONTINUOUS
 10
107.4605560603
 20
145.8556196853
 11
107.4782213411
 21
146.0597878443
  0
LINE
  5
392
100
AcDbEntity
  8
0
100
AcDbLine
 62
7
  6
CONTINUOUS
 10
97.224601102
 20
103.9230337755
 11
97.632625102
 21
105.1404207755
  0
LINE
  5
393
100
AcDbEntity
  8
0
100
AcDbLine
 62
7
  6
CONTINUOUS
 10
98.198158102
 20
103.9230337755
 11
98.349687102
 21
104.3452487755
  0
LINE
  5
394
100
AcDbEntity
  8
0
100
AcDbLine
 62
7
  6
CONTINUOUS
 10
98.573812102
 20
99.7524887755
 11
98.725341102
 21
100.1747037755
  0
LINE
  5
395
100
AcDbEntity
  8
0
100
AcDbLine
 62
7
  6
CONTINUOUS
 10
98.410321102
 20
104.5188267755
 11
98.644614102
 21
105.1625397755
  0
LINE
  5
396
100
AcDbEntity
  8
0
100
AcDbLine
 62
7
  6
CONTINUOUS
 10
98.785858102
 20
100.3482807755
 11
99.020269102
 21
100.9919927755
  0
LINE
  5
397
100
AcDbEntity
  8
0
100
AcDbLine
 62
7
  6
CONTINUOUS
 10
98.917214102
 20
101.2032657755
 11
98.371853102
 21
99.7524887755
  0
LINE
  5
398
100
AcDbEntity
  8
0
100
AcDbLine
 62
7
  6
CONTINUOUS
 10
98.541560102
 20
105.3726387755
 11
97.996199102
 21
103.9230337755
  0
LWPOLYLINE
  5
399
100
AcDbEntity
  8
RACCORDO
100
AcDbPolyline
 62
7
  6
CONTINUOUS
 90
13
 70
0
 10
120.7253084656
 20
142.7521193208
 10
120.7230921787
 20
142.7498109855
 10
120.7166938884
 20
142.7475337806
 10
120.7061135947
 20
142.7452877062
 10
120.6912727127
 20
142.7430641539
 10
120.6722498272
 20
142.7408717319
 10
120.649280693
 20
142.738736265
 10
120.6223128799
 20
142.7366577647
 10
120.5913988179
 20
142.7346362195
 10
120.5569315515
 20
142.7326974188
 10
120.518865627
 20
142.7308424163
 10
120.4772464981
 20
142.7290701584
 10
120.4326035702
 20
142.7274032745
  0
LWPOLYLINE
  5
39A
100
AcDbEntity
  8
0
100
AcDbPolyline
 62
7
  6
CONTINUOUS
 90
19
 70
0
 10
100.570463028
 20
130.8459209216
 10
100.5006285501
 20
130.8131293336
 10
100.4363878506
 20
130.771662484
 10
100.3800489611
 20
130.7243881501
 10
100.3320728786
 20
130.6712918643
 10
100.2919986061
 20
130.6123880941
 10
100.2607511845
 20
130.5505880207
 10
100.2389091937
 20
130.4855167428
 10
100.2258940537
 20
130.4175491616
 10
100.2208950655
 20
130.3507211614
 10
100.2235103612
 20
130.2853426673
 10
100.2341418086
 20
130.2211037543
 10
100.2531843126
 20
130.1611105321
 10
100.2809395509
 20
130.106009929
 10
100.3171058457
 20
130.0551550167
 10
100.3611730676
 20
130.0097111196
 10
100.4129711735
 20
129.9700666793
 10
100.4726702064
 20
129.9358332544
 10
100.5402701664
 20
129.9070108447
  0
LWPOLYLINE
  5
39B
100
AcDbEntity
  8
0
100
AcDbPolyline
 62
7
  6
CONTINUOUS
 90
20
 70
0
 10
101.1261814835
 20
128.7690709551
 10
101.20512031
 20
128.8044969519
 10
101.2760745454
 20
128.8491875688
 10
101.3398945933
 20
128.9025577236
 10
101.3950863833
 20
128.9618957227
 10
101.4415195185
 20
129.0273211644
 10
101.4793243957
 20
129.0987144504
 10
101.5073981355
 20
129.1730050934
 10
101.5250462755
 20
129.2510127242
 10
101.5329632781
 20
129.331917712
 10
101.5321296506
 20
129.4101906766
 10
101.5228754755
 20
129.4847642918
 10
101.5048706705
 20
129.5567058837
 10
101.4781054958
 20
129.6236880505
 10
101.4425092232
 20
129.6852967496
 10
101.398152581
 20
129.7419460235
 10
101.3452380149
 20
129.7925505974
 10
101.2838330069
 20
129.8367487131
 10
101.2138700749
 20
129.8749021289
 10
101.1353492192
 20
129.9070108447
  0
LWPOLYLINE
  5
39C
100
AcDbEntity
  8
0
100
AcDbPolyline
 62
7
  6
CONTINUOUS
 90
25
 70
0
 10
101.1353492192
 20
129.9070108447
 10
101.2020931861
 20
129.9364424352
 10
101.2609860474
 20
129.9713322177
 10
101.312027803
 20
130.0116801921
 10
101.3554655209
 20
130.0578553383
 10
101.391052133
 20
130.1094886765
 10
101.4180464357
 20
130.1654732663
 10
101.4365229917
 20
130.2260826996
 10
101.4464072382
 20
130.2910433845
 10
101.4467342831
 20
130.3584276058
 10
101.4368126948
 20
130.4298840346
 10
101.4173339049
 20
130.5037639997
 10
101.3894073162
 20
130.5731937726
 10
101.3528982504
 20
130.6368532578
 10
101.3079413858
 20
130.6960625507
 10
101.2560501609
 20
130.7479082091
 10
101.1973915373
 20
130.791757701
 10
101.1317985533
 20
130.8282435585
 10
101.0602837623
 20
130.8563499357
 10
100.9809031689
 20
130.8757777171
 10
100.8956007684
 20
130.8868260181
 10
100.8112211001
 20
130.8893763391
 10
100.7284886618
 20
130.8834482738
 10
100.6466789557
 20
130.8690222285
 10
100.570463028
 20
130.8459209216
  0
LWPOLYLINE
  5
39D
100
AcDbEntity
  8
0
100
AcDbPolyline
 62
7
  6
CONTINUOUS
 90
10
 70
0
 10
95.379252102
 20
130.1032356619
 10
95.4473233655
 20
130.1318851214
 10
95.5130191237
 20
130.1621602754
 10
95.5763393765
 20
130.194061124
 10
95.6374453158
 20
130.2276456605
 10
95.6961757497
 20
130.2628558915
 10
95.7520471029
 20
130.299517837
 10
95.8048981834
 20
130.3375735038
 10
95.8548901831
 20
130.3770808852
 10
95.902023102
 20
130.4180399811
  0
LWPOLYLINE
  5
39E
100
AcDbEntity
  8
0
100
AcDbPolyline
 62
7
  6
CONTINUOUS
 90
10
 70
0
 10
144.1451531292
 20
145.693460457
 10
144.2055738183
 20
145.7107937714
 10
144.2612568259
 20
145.734479611
 10
144.3118241253
 20
145.7644457555
 10
144.356141636
 20
145.8004755441
 10
144.3940347726
 20
145.8431444696
 10
144.4256781204
 20
145.8918770392
 10
144.4504613551
 20
145.9447301129
 10
144.4681810352
 20
146.0010559775
 10
144.4790406022
 20
146.0615023462
  0
LINE
  5
39F
100
AcDbEntity
  8
0
100
AcDbLine
 62
7
  6
CONTINUOUS
 10
156.975255102
 20
97.3157553181
 11
157.2252551318
 21
97.3795850978
  0
LWPOLYLINE
  5
3A0
100
AcDbEntity
  8
0
100
AcDbPolyline
 62
7
  6
CONTINUOUS
 90
9
 70
0
 10
114.8642805055
 20
88.1853598545
 10
114.815865084
 20
88.1752137944
 10
114.7694967891
 20
88.160207446
 10
114.7252832839
 20
88.1401087029
 10
114.6831169053
 20
88.1151496715
 10
114.6445134229
 20
88.0863668551
 10
114.6099780935
 20
88.0541057546
 10
114.5790056604
 20
88.0180208692
 10
114.5515961236
 20
87.9781121986
  0
LINE
  5
3A1
100
AcDbEntity
  8
0
100
AcDbLine
 62
7
  6
CONTINUOUS
 10
157.2252551318
 20
97.7625637755
 11
156.9127551169
 21
97.6987339959
  0
LINE
  5
3A2
100
AcDbEntity
  8
DRAFT
100
AcDbLine
 62
7
  6
CONTINUOUS
 10
116.125255102
 20
92.3787794639
 11
119.325255102
 21
92.3787794639
  0
LINE
  5
3A3
100
AcDbEntity
  8
DRAFT
100
AcDbLine
 62
7
  6
CONTINUOUS
 10
138.125255102
 20
92.3787794639
 11
141.325255102
 21
92.3787794639
  0
LINE
  5
3A4
100
AcDbEntity
  8
DRAFT
100
AcDbLine
 62
7
  6
CONTINUOUS
 10
111.475255102
 20
92.4517613566
 11
114.725255102
 21
92.4517613566
  0
LINE
  5
3A5
100
AcDbEntity
  8
DRAFT
100
AcDbLine
 62
7
  6
CONTINUOUS
 10
120.725255102
 20
92.4517613566
 11
123.9732380625
 21
92.4517613566
  0
LINE
  5
3A6
100
AcDbEntity
  8
DRAFT
100
AcDbLine
 62
7
  6
CONTINUOUS
 10
133.4772721415
 20
92.4517613566
 11
136.725255102
 21
92.4517613566
  0
LINE
  5
3A7
100
AcDbEntity
  8
DRAFT
100
AcDbLine
 62
7
  6
CONTINUOUS
 10
142.725255102
 20
92.4517613566
 11
145.975255102
 21
92.4517613566
  0
LINE
  5
3A8
100
AcDbEntity
  8
0
100
AcDbLine
 62
7
  6
CONTINUOUS
 10
138.125255102
 20
93.4625637755
 11
135.825255102
 21
93.4625637755
  0
LINE
  5
3A9
100
AcDbEntity
  8
0
100
AcDbLine
 62
7
  6
CONTINUOUS
 10
116.125255102
 20
93.4625637755
 11
113.825255102
 21
93.4625637755
  0
LINE
  5
3AA
100
AcDbEntity
  8
0
100
AcDbLine
 62
7
  6
CONTINUOUS
 10
119.325255102
 20
93.4625637755
 11
121.625255102
 21
93.4625637755
  0
LINE
  5
3AB
100
AcDbEntity
  8
0
100
AcDbLine
 62
7
  6
CONTINUOUS
 10
141.325255102
 20
93.4625637755
 11
143.625255102
 21
93.4625637755
  0
LINE
  5
3AC
100
AcDbEntity
  8
0
100
AcDbLine
 62
7
  6
CONTINUOUS
 10
153.725255102
 20
93.7625637755
 11
145.975255102
 21
93.7625637755
  0
LINE
  5
3AD
100
AcDbEntity
  8
DRAFT
100
AcDbLine
 62
7
  6
CONTINUOUS
 10
133.475255102
 20
93.7625637755
 11
123.975255102
 21
93.7625637755
  0
LINE
  5
3AE
100
AcDbEntity
  8
0
100
AcDbLine
 62
7
  6
CONTINUOUS
 10
111.475255102
 20
93.7625637755
 11
103.725255102
 21
93.7625637755
  0
LINE
  5
3AF
100
AcDbEntity
  8
DRAFT
100
AcDbLine
 62
7
  6
CONTINUOUS
 10
106.7178372644
 20
94.3125637755
 11
111.475255102
 21
94.3125637755
  0
LINE
  5
3B0
100
AcDbEntity
  8
DRAFT
100
AcDbLine
 62
7
  6
CONTINUOUS
 10
123.975255102
 20
94.3125637755
 11
133.475255102
 21
94.3125637755
  0
LINE
  5
3B1
100
AcDbEntity
  8
DRAFT
100
AcDbLine
 62
7
  6
CONTINUOUS
 10
145.975255102
 20
94.3125637755
 11
150.7326729397
 21
94.3125637755
  0
LINE
  5
3B2
100
AcDbEntity
  8
RACCORDO
100
AcDbLine
 62
7
  6
CONTINUOUS
 10
103.725255102
 20
94.3625637755
 11
106.725255102
 21
94.3625637755
  0
LINE
  5
3B3
100
AcDbEntity
  8
RACCORDO
100
AcDbLine
 62
7
  6
CONTINUOUS
 10
150.725255102
 20
94.3625637755
 11
153.725255102
 21
94.3625637755
  0
LWPOLYLINE
  5
3B4
100
AcDbEntity
  8
0
100
AcDbPolyline
 62
253
  6
CONTINUOUS
 90
5
 70
0
 10
99.7132199515
 20
99.638734554
 10
99.4330275841
 20
99.699448091
 10
99.1506555663
 20
99.7389839578
 10
98.8646874329
 20
99.7578819033
 10
98.575123184
 20
99.7561419274
  0
LINE
  5
3B5
100
AcDbEntity
  8
0
100
AcDbLine
 62
253
  6
CONTINUOUS
 10
99.9898162033
 20
99.5573830957
 11
99.7132199515
 21
99.638734554
  0
LWPOLYLINE
  5
3B6
100
AcDbEntity
  8
RACCORDO
100
AcDbPolyline
 62
7
  6
CONTINUOUS
 90
14
 70
0
 10
120.7253084656
 20
90.7730082303
 10
120.7230921787
 20
90.7753165655
 10
120.7166938884
 20
90.7775937704
 10
120.7061135947
 20
90.7798398449
 10
120.6912727127
 20
90.7820633972
 10
120.6722498272
 20
90.7842558191
 10
120.649280693
 20
90.786391286
 10
120.6223128799
 20
90.7884697863
 10
120.5913988179
 20
90.7904913316
 10
120.5569315515
 20
90.7924301322
 10
120.518865627
 20
90.7942851347
 10
120.4772464981
 20
90.7960573926
 10
120.4326035702
 20
90.7977242765
 10
120.3341680173
 20
90.8007392511
  0
LWPOLYLINE
  5
3B7
100
AcDbEntity
  8
0
100
AcDbPolyline
 62
7
  6
CONTINUOUS
 90
12
 70
0
 10
111.2604210378
 20
86.1215441909
 10
111.2740322082
 20
86.0780760164
 10
111.2930276133
 20
86.0372397966
 10
111.3178564529
 20
85.9983941142
 10
111.3480695271
 20
85.9621803866
 10
111.3823192363
 20
85.9305228654
 10
111.420883095
 20
85.9036746264
 10
111.4634835886
 20
85.8813825938
 10
111.5079405745
 20
85.8648117917
 10
111.5535273383
 20
85.8543505614
 10
111.6009705944
 20
85.8496105615
 10
111.6502703428
 20
85.8505917921
  0
LWPOLYLINE
  5
3B8
100
AcDbEntity
  8
0
100
AcDbPolyline
 62
7
  6
CONTINUOUS
 90
13
 70
0
 10
111.252194102
 20
86.2023739557
 10
111.2604210452
 20
86.1562737977
 10
111.2740322288
 20
86.1128055989
 10
111.2930276529
 20
86.0719693592
 10
111.3178565184
 20
86.0331236605
 10
111.3480696243
 20
85.9969099209
 10
111.3823193679
 20
85.9652523951
 10
111.4208832765
 20
85.9384041607
 10
111.4634838228
 20
85.9161121399
 10
111.5079408211
 20
85.8995413542
 10
111.5535275429
 20
85.8890801437
 10
111.6009707168
 20
85.8843401682
 10
111.6502703428
 20
85.8853214277
  0
LWPOLYLINE
  5
3B9
100
AcDbEntity
  8
0
100
AcDbPolyline
 62
7
  6
CONTINUOUS
 90
19
 70
0
 10
106.7077062258
 20
145.7625637744
 10
106.7188735027
 20
145.5336881849
 10
106.7500891082
 20
145.3149036013
 10
106.8005376806
 20
145.1014130469
 10
106.8705651016
 20
144.8934410297
 10
106.9598254895
 20
144.6907630415
 10
107.0664489577
 20
144.4977926852
 10
107.1909077066
 20
144.3145818578
 10
107.3327295358
 20
144.1410786621
 10
107.4886279581
 20
143.9815410099
 10
107.6589329128
 20
143.8363158753
 10
107.8433144605
 20
143.7050562841
 10
108.0374962959
 20
143.5909792259
 10
108.2416137114
 20
143.494506088
 10
108.4555314146
 20
143.4152154831
 10
108.6745672235
 20
143.3550602383
 10
108.8971604107
 20
143.3146912962
 10
109.1248717035
 20
143.2934577142
 10
109.357701102
 20
143.2913594923
  0
LINE
  5
3BA
100
AcDbEntity
  8
0
100
AcDbLine
 62
7
  6
CONTINUOUS
 10
110.3295038914
 20
86.044872381
 11
110.3268629179
 21
86.0993004049
  0
LINE
  5
3BB
100
AcDbEntity
  8
0
100
AcDbLine
 62
7
  6
CONTINUOUS
 10
107.4598143017
 20
145.6836143876
 11
107.458045655
 21
145.762563681
  0
LINE
  5
3BC
100
AcDbEntity
  8
DRAFT
100
AcDbLine
 62
7
  6
CONTINUOUS
 10
106.7178372644
 20
94.3625637755
 11
106.7178372644
 21
94.3125637755
  0
LINE
  5
3BD
100
AcDbEntity
  8
DRAFT
100
AcDbLine
 62
7
  6
CONTINUOUS
 10
106.7178372644
 20
139.1625637755
 11
106.7178372644
 21
139.2125637755
  0
LINE
  5
3BE
100
AcDbEntity
  8
DRAFT
100
AcDbLine
 62
7
  6
CONTINUOUS
 10
106.725255102
 20
139.1625637755
 11
106.725255102
 21
131.5125637755
  0
LINE
  5
3BF
100
AcDbEntity
  8
DRAFT
100
AcDbLine
 62
7
  6
CONTINUOUS
 10
106.725255102
 20
128.5125637755
 11
106.725255102
 21
125.2625637755
  0
LINE
  5
3C0
100
AcDbEntity
  8
DRAFT
100
AcDbLine
 62
7
  6
CONTINUOUS
 10
106.725255102
 20
122.2625637755
 11
106.725255102
 21
111.2625637755
  0
LINE
  5
3C1
100
AcDbEntity
  8
DRAFT
100
AcDbLine
 62
7
  6
CONTINUOUS
 10
106.725255102
 20
108.2625637755
 11
106.725255102
 21
105.0125637755
  0
LINE
  5
3C2
100
AcDbEntity
  8
DRAFT
100
AcDbLine
 62
7
  6
CONTINUOUS
 10
106.725255102
 20
102.0125637755
 11
106.725255102
 21
94.3625637755
  0
LINE
  5
3C3
100
AcDbEntity
  8
0
100
AcDbLine
 62
7
  6
CONTINUOUS
 10
106.825255102
 20
102.0125637755
 11
106.825255102
 21
105.0125637755
  0
LINE
  5
3C4
100
AcDbEntity
  8
0
100
AcDbLine
 62
7
  6
CONTINUOUS
 10
106.825255102
 20
108.2625637755
 11
106.825255102
 21
111.2625637755
  0
LINE
  5
3C5
100
AcDbEntity
  8
0
100
AcDbLine
 62
7
  6
CONTINUOUS
 10
106.825255102
 20
122.2625637755
 11
106.825255102
 21
125.2625637755
  0
LINE
  5
3C6
100
AcDbEntity
  8
0
100
AcDbLine
 62
7
  6
CONTINUOUS
 10
106.825255102
 20
128.5125637755
 11
106.825255102
 21
131.5125637755
  0
LINE
  5
3C7
100
AcDbEntity
  8
0
100
AcDbLine
 62
7
  6
CONTINUOUS
 10
109.349811102
 20
88.0370816832
 11
109.349811102
 21
88.0023520477
  0
LINE
  5
3C8
100
AcDbEntity
  8
0
100
AcDbLine
 62
7
  6
CONTINUOUS
 10
109.357701102
 20
143.2913594923
 11
109.357701102
 21
144.0195365895
  0
LINE
  5
3C9
100
AcDbEntity
  8
0
100
AcDbLine
 62
7
  6
CONTINUOUS
 10
109.357701102
 20
147.5055909615
 11
109.357701102
 21
148.2337680587
  0
LINE
  5
3CA
100
AcDbEntity
  8
0
100
AcDbLine
 62
7
  6
CONTINUOUS
 10
109.759200102
 20
89.4994780202
 11
109.759200102
 21
89.4647483846
  0
LINE
  5
3CB
100
AcDbEntity
  8
0
100
AcDbLine
 62
7
  6
CONTINUOUS
 10
107.458045655
 20
145.762563681
 11
107.4605560631
 21
145.8903493728
  0
LWPOLYLINE
  5
3CC
100
AcDbEntity
  8
0
100
AcDbPolyline
 62
7
  6
CONTINUOUS
 90
19
 70
0
 10
111.092816108
 20
145.7625637905
 10
111.103983369
 20
145.9914392026
 10
111.1351989601
 20
146.2102237977
 10
111.1856475194
 20
146.4237143653
 10
111.2556749286
 20
146.6316863973
 10
111.344935306
 20
146.8343644017
 10
111.4515587661
 20
147.0273347757
 10
111.576017509
 20
147.2105456222
 10
111.7178393345
 20
147.3840488382
 10
111.8737377567
 20
147.5435865113
 10
112.0440427156
 20
147.6888116679
 10
112.2284242712
 20
147.8200712817
 10
112.4226061181
 20
147.9341483612
 10
112.6267235472
 20
148.0306215194
 10
112.8406412677
 20
148.1099121434
 10
113.0596771012
 20
148.1700674037
 10
113.2822703217
 20
148.2104363571
 10
113.5099816553
 20
148.2316699468
 10
113.742811102
 20
148.2337681729
  0
LWPOLYLINE
  5
3CD
100
AcDbEntity
  8
RACCORDO
100
AcDbPolyline
 62
7
  6
CONTINUOUS
 90
4
 70
0
 10
101.179264626
 20
93.220713221
 10
101.1703822234
 20
93.187705579
 10
101.1660107753
 20
93.1552410771
 10
101.1647496866
 20
93.1239001899
  0
LINE
  5
3CE
100
AcDbEntity
  8
RACCORDO
100
AcDbLine
 62
253
  6
CONTINUOUS
 10
153.4815675971
 20
149.6805098882
 11
153.725255102
 21
149.7852095011
  0
LWPOLYLINE
  5
3CF
100
AcDbEntity
  8
0
100
AcDbPolyline
 62
7
  6
CONTINUOUS
 90
27
 70
0
 10
100.5402701664
 20
129.9070108447
 10
100.4652000618
 20
129.8815605124
 10
100.3975010615
 20
129.8494798684
 10
100.3371731655
 20
129.8107689125
 10
100.2838805779
 20
129.764975499
 10
100.2379590945
 20
129.7125517736
 10
100.2004161031
 20
129.6548541742
 10
100.1716608536
 20
129.5917866425
 10
100.151284096
 20
129.5234452369
 10
100.1390654686
 20
129.4514745701
 10
100.1344696179
 20
129.374644681
 10
100.1380318974
 20
129.2941855308
 10
100.1511380059
 20
129.2154316155
 10
100.1744835771
 20
129.1387842348
 10
100.2073729773
 20
129.0638420889
 10
100.2491050036
 20
128.9947357747
 10
100.2999947098
 20
128.9320368467
 10
100.3597270421
 20
128.8751737505
 10
100.4266556366
 20
128.826562419
 10
100.501161684
 20
128.7865562869
 10
100.5828639936
 20
128.7548019194
 10
100.6689726285
 20
128.7326549462
 10
100.7610560205
 20
128.7205577137
 10
100.857545738
 20
128.7180678754
 10
100.9509465488
 20
128.7252140211
 10
101.0401084694
 20
128.7423244961
 10
101.1261814835
 20
128.7690709551
  0
LINE
  5
3D0
100
AcDbEntity
  8
0
100
AcDbLine
 62
7
  6
CONTINUOUS
 10
157.2252551318
 20
94.7625637755
 11
157.7877550424
 21
94.7625637755
  0
LINE
  5
3D1
100
AcDbEntity
  8
0
100
AcDbLine
 62
7
  6
CONTINUOUS
 10
159.1627551616
 20
94.7625637755
 11
159.5377549828
 21
94.7625637755
  0
LINE
  5
3D2
100
AcDbEntity
  8
0
100
AcDbLine
 62
7
  6
CONTINUOUS
 10
161.100255102
 20
94.7625637755
 11
161.5377552213
 21
94.7625637755
  0
LINE
  5
3D3
100
AcDbEntity
  8
0
100
AcDbLine
 62
7
  6
CONTINUOUS
 10
157.7877550424
 20
95.145542498
 11
157.2252551318
 21
95.145542498
  0
LINE
  5
3D4
100
AcDbEntity
  8
0
100
AcDbLine
 62
7
  6
CONTINUOUS
 10
157.725255102
 20
96.0391595468
 11
158.287755102
 21
96.0391595468
  0
LINE
  5
3D5
100
AcDbEntity
  8
0
100
AcDbLine
 62
7
  6
CONTINUOUS
 10
159.5377549828
 20
96.1029893264
 11
160.6002552213
 21
96.1029893264
  0
LINE
  5
3D6
100
AcDbEntity
  8
0
100
AcDbLine
 62
7
  6
CONTINUOUS
 10
158.662755102
 20
96.4221382246
 11
157.725255102
 21
96.4221382246
  0
LINE
  5
3D7
100
AcDbEntity
  8
0
100
AcDbLine
 62
7
  6
CONTINUOUS
 10
160.725255102
 20
96.4859680042
 11
159.5377549828
 21
96.4859680042
  0
LINE
  5
3D8
100
AcDbEntity
  8
ASSI
100
AcDbLine
 62
7
  6
CONTINUOUS
 10
169.525255102
 20
96.7625637755
 11
167.0659732452
 21
96.7625637755
  0
LINE
  5
3D9
100
AcDbEntity
  8
ASSI
100
AcDbLine
 62
7
  6
CONTINUOUS
 10
90.3845369589
 20
96.7625637755
 11
87.925255102
 21
96.7625637755
  0
LINE
  5
3DA
100
AcDbEntity
  8
0
100
AcDbLine
 62
7
  6
CONTINUOUS
 10
158.287755102
 20
96.9966062412
 11
158.662755102
 21
96.9966062412
  0
LINE
  5
3DB
100
AcDbEntity
  8
0
100
AcDbLine
 62
7
  6
CONTINUOUS
 10
157.2252551318
 20
97.3795850978
 11
157.7877550424
 21
97.3795850978
  0
LINE
  5
3DC
100
AcDbEntity
  8
0
100
AcDbLine
 62
7
  6
CONTINUOUS
 10
159.5377549828
 20
97.4434148774
 11
160.725255102
 21
97.4434148774
  0
LINE
  5
3DD
100
AcDbEntity
  8
0
100
AcDbLine
 62
7
  6
CONTINUOUS
 10
160.6627549828
 20
97.7625637755
 11
159.1627551616
 21
97.7625637755
  0
LINE
  5
3DE
100
AcDbEntity
  8
0
100
AcDbLine
 62
7
  6
CONTINUOUS
 10
157.7877550424
 20
97.7625637755
 11
157.2252551318
 21
97.7625637755
  0
LWPOLYLINE
  5
3DF
100
AcDbEntity
  8
RACCORDO
100
AcDbPolyline
 62
253
  6
CONTINUOUS
 90
25
 70
0
 10
153.725255102
 20
83.7399385207
 10
153.4512627759
 20
83.8592122047
 10
153.1907936846
 20
83.9986830957
 10
152.9438478282
 20
84.1583511937
 10
152.708802395
 20
84.3395324862
 10
152.4872801966
 20
84.5409109857
 10
152.284149668
 20
84.7585387298
 10
152.0998252624
 20
84.9927948289
 10
151.9338925265
 20
85.2433001726
 10
151.7899765354
 20
85.504969467
 10
151.6685615444
 20
85.7780553971
 10
151.5691632981
 20
86.062305278
 10
151.4939541056
 20
86.3518757613
 10
151.4434419881
 20
86.6468376643
 10
151.4171189244
 20
86.9471201698
 10
151.4156331594
 20
87.2466674772
 10
151.4394823818
 20
87.5454955707
 10
151.4881689029
 20
87.8435884661
 10
151.5608479013
 20
88.1348424114
 10
151.6581393217
 20
88.4192773486
 10
151.7794232193
 20
88.6968733356
 10
151.9219949385
 20
88.9614667933
 10
152.0849529273
 20
89.2110031954
 10
152.2691987377
 20
89.4475370681
 10
152.4747323696
 20
89.6710684116
  0
LWPOLYLINE
  5
3E0
100
AcDbEntity
  8
RACCORDO
100
AcDbPolyline
 62
253
  6
CONTINUOUS
 90
25
 70
0
 10
153.725255102
 20
84.0116340217
 10
153.4848500312
 20
84.1260196824
 10
153.2539435925
 20
84.2596125388
 10
153.0340981043
 20
84.4116593459
 10
152.8267664665
 20
84.5813265025
 10
152.6334467618
 20
84.7675649922
 10
152.4556301922
 20
84.9690746926
 10
152.2945626282
 20
85.1845563183
 10
152.1513464023
 20
85.4126572721
 10
152.0270391453
 20
85.6517963867
 10
151.9225104924
 20
85.9003996306
 10
151.8384881818
 20
86.1568515961
 10
151.7755807122
 20
86.4193880999
 10
151.734238261
 20
86.6862245034
 10
151.7147488893
 20
86.9556419997
 10
151.7172644032
 20
87.2259256286
 10
151.7418153712
 20
87.4952922206
 10
151.7882841101
 20
87.7619303847
 10
151.8564061585
 20
88.0240866992
 10
151.9457924125
 20
88.280033924
 10
152.0558879412
 20
88.5280060918
 10
152.1859547603
 20
88.7662540934
 10
152.3351329794
 20
88.9931452621
 10
152.5024655608
 20
89.2071631331
 10
152.6868563266
 20
89.4068500013
  0
LWPOLYLINE
  5
3E1
100
AcDbEntity
  8
RACCORDO
100
AcDbPolyline
 62
7
  6
CONTINUOUS
 90
4
 70
0
 10
101.179264626
 20
140.30441433
 10
101.1703822234
 20
140.337421972
 10
101.1660107753
 20
140.3698864739
 10
101.1647496866
 20
140.4012273611
  0
LWPOLYLINE
  5
3E2
100
AcDbEntity
  8
0
100
AcDbPolyline
 62
7
  6
CONTINUOUS
 90
11
 70
0
 10
116.8887261326
 20
86.1403854399
 10
116.9002687624
 20
86.0952224042
 10
116.9176438453
 20
86.0510152527
 10
116.940573338
 20
86.008390882
 10
116.9682231099
 20
85.9692299817
 10
117.0008491322
 20
85.9336867052
 10
117.0381954339
 20
85.901606899
 10
117.0786599715
 20
85.8744087933
 10
117.1217087305
 20
85.8525651313
 10
117.1678757255
 20
85.8356031697
 10
117.2171609565
 20
85.8235229085
  0
LINE
  5
3E3
100
AcDbEntity
  8
0
100
AcDbLine
 62
7
  6
CONTINUOUS
 10
113.1352361413
 20
85.9876198013
 11
113.121709102
 21
86.0612884732
  0
LWPOLYLINE
  5
3E4
100
AcDbEntity
  8
0
100
AcDbPolyline
 62
7
  6
CONTINUOUS
 90
26
 70
0
 10
114.0869359129
 20
86.1885009782
 10
114.0933169742
 20
86.1503708483
 10
114.1010121602
 20
86.1133210452
 10
114.111053636
 20
86.077241729
 10
114.1237499647
 20
86.0438342532
 10
114.1396725589
 20
86.013632699
 10
114.1582500058
 20
85.9861029854
 10
114.1780766306
 20
85.9613442225
 10
114.1990955015
 20
85.9398038035
 10
114.2213635501
 20
85.9210343352
 10
114.2436458962
 20
85.9037927484
 10
114.265455873
 20
85.8872384018
 10
114.2872801473
 20
85.8722119366
 10
114.3093438388
 20
85.8599922066
 10
114.3320707061
 20
85.8505471567
 10
114.3550369906
 20
85.843908842
 10
114.377196537
 20
85.8414522822
 10
114.3987228734
 20
85.8439663342
 10
114.4194424717
 20
85.8506621412
 10
114.4377885917
 20
85.8605481519
 10
114.4532424245
 20
85.8737338044
 10
114.466322779
 20
85.8901096606
 10
114.477019342
 20
85.9083558559
 10
114.4844513292
 20
85.9284629217
 10
114.4894995249
 20
85.9504403266
 10
114.4947959691
 20
85.972996612
  0
LWPOLYLINE
  5
3E5
100
AcDbEntity
  8
0
100
AcDbPolyline
 62
7
  6
CONTINUOUS
 90
28
 70
0
 10
114.082560825
 20
86.27442246
 10
114.0829004432
 20
86.2623119495
 10
114.0869372145
 20
86.2232149607
 10
114.0933190784
 20
86.1850897925
 10
114.1010132626
 20
86.1480463548
 10
114.1110525395
 20
86.1119747376
 10
114.1237454141
 20
86.0785742253
 10
114.1396627312
 20
86.0483783952
 10
114.1582336461
 20
86.02085367
 10
114.1780541301
 20
85.9960986027
 10
114.1990675288
 20
85.9745602593
 10
114.2213304966
 20
85.9557915737
 10
114.2436089679
 20
85.9385499008
 10
114.2654166776
 20
85.9219951391
 10
114.2872398907
 20
85.9069673901
 10
114.3093033366
 20
85.8947443131
 10
114.332030377
 20
85.885292302
 10
114.3549976502
 20
85.878644963
 10
114.3771597998
 20
85.8761807738
 10
114.3986913668
 20
85.8786898277
 10
114.4194178103
 20
85.8853820313
 10
114.4377701517
 20
85.8952655819
 10
114.4532289469
 20
85.9084500283
 10
114.46631364
 20
85.9248258217
 10
114.4770135846
 20
85.9430725123
 10
114.4844476543
 20
85.9631804569
 10
114.4894969755
 20
85.9851592987
 10
114.4947942807
 20
86.0077175187
  0
LINE
  5
3E6
100
AcDbEntity
  8
0
100
AcDbLine
 62
7
  6
CONTINUOUS
 10
110.8683702798
 20
88.1783443418
 11
110.8683702798
 21
88.1436147062
  0
LINE
  5
3E7
100
AcDbEntity
  8
DRAFT
100
AcDbLine
 62
7
  6
CONTINUOUS
 10
111.475255102
 20
92.4517613566
 11
111.475255102
 21
94.3125637755
  0
LINE
  5
3E8
100
AcDbEntity
  8
DRAFT
100
AcDbLine
 62
7
  6
CONTINUOUS
 10
111.475255102
 20
139.2125637755
 11
111.475255102
 21
141.0733661945
  0
LINE
  5
3E9
100
AcDbEntity
  8
0
100
AcDbLine
 62
7
  6
CONTINUOUS
 10
111.605195243
 20
88.4869739897
 11
111.605195243
 21
88.4522443541
  0
LINE
  5
3EA
100
AcDbEntity
  8
0
100
AcDbLine
 62
7
  6
CONTINUOUS
 10
111.6502703428
 20
85.8853214277
 11
111.6502703428
 21
85.8505917921
  0
LINE
  5
3EB
100
AcDbEntity
  8
0
100
AcDbLine
 62
7
  6
CONTINUOUS
 10
111.882310102
 20
145.3988714091
 11
111.882310102
 21
145.4336010446
  0
LINE
  5
3EC
100
AcDbEntity
  8
0
100
AcDbLine
 62
7
  6
CONTINUOUS
 10
112.364088102
 20
88.4869739897
 11
112.364088102
 21
88.4522443541
  0
LINE
  5
3ED
100
AcDbEntity
  8
0
100
AcDbLine
 62
7
  6
CONTINUOUS
 10
112.650482102
 20
89.5105274792
 11
112.650482102
 21
89.4757978437
  0
LINE
  5
3EE
100
AcDbEntity
  8
0
100
AcDbLine
 62
7
  6
CONTINUOUS
 10
113.342811102
 20
145.3988714091
 11
113.342811102
 21
146.1262561419
  0
LINE
  5
3EF
100
AcDbEntity
  8
0
100
AcDbLine
 62
7
  6
CONTINUOUS
 10
113.700101726
 20
88.2217341668
 11
113.700101726
 21
88.1870045313
  0
LINE
  5
3F0
100
AcDbEntity
  8
0
100
AcDbLine
 62
7
  6
CONTINUOUS
 10
113.742811102
 20
143.2913593781
 11
113.742811102
 21
144.0195395461
  0
LINE
  5
3F1
100
AcDbEntity
  8
0
100
AcDbLine
 62
7
  6
CONTINUOUS
 10
113.742811102
 20
147.5055909615
 11
113.742811102
 21
148.2337681729
  0
LINE
  5
3F2
100
AcDbEntity
  8
DRAFT
100
AcDbLine
 62
7
  6
CONTINUOUS
 10
113.825255102
 20
141.0733661945
 11
113.825255102
 21
140.0625637755
  0
LINE
  5
3F3
100
AcDbEntity
  8
DRAFT
100
AcDbLine
 62
7
  6
CONTINUOUS
 10
113.825255102
 20
93.4625637755
 11
113.825255102
 21
92.4517613566
  0
LWPOLYLINE
  5
3F4
100
AcDbEntity
  8
0
100
AcDbPolyline
 62
7
  6
CONTINUOUS
 90
3
 70
0
 10
110.3268629179
 20
86.0993004049
 10
110.3270101229
 20
86.1102205367
 10
110.332625102
 20
86.1771977153
  0
LINE
  5
3F5
100
AcDbEntity
  8
RACCORDO
100
AcDbLine
 62
7
  6
CONTINUOUS
 10
101.193116041
 20
93.2539627912
 11
101.179264626
 21
93.220713221
  0
LINE
  5
3F6
100
AcDbEntity
  8
0
100
AcDbLine
 62
7
  6
CONTINUOUS
 10
101.599569102
 20
101.2032657755
 11
101.183453102
 21
100.5066117755
  0
LINE
  5
3F7
100
AcDbEntity
  8
0
100
AcDbLine
 62
7
  6
CONTINUOUS
 10
96.731665102
 20
99.7524887755
 11
96.927643102
 21
99.7524887755
  0
LINE
  5
3F8
100
AcDbEntity
  8
0
100
AcDbLine
 62
7
  6
CONTINUOUS
 10
97.628637102
 20
99.7524887755
 11
97.824498102
 21
99.7524887755
  0
LINE
  5
3F9
100
AcDbEntity
  8
0
100
AcDbLine
 62
7
  6
CONTINUOUS
 10
98.371853102
 20
99.7524887755
 11
98.573812102
 21
99.7524887755
  0
LINE
  5
3FA
100
AcDbEntity
  8
0
100
AcDbLine
 62
7
  6
CONTINUOUS
 10
99.450495102
 20
99.7524887755
 11
99.664535102
 21
99.7524887755
  0
LINE
  5
3FB
100
AcDbEntity
  8
0
100
AcDbLine
 62
7
  6
CONTINUOUS
 10
99.844328102
 20
99.7524887755
 11
100.775429102
 21
99.7524887755
  0
LINE
  5
3FC
100
AcDbEntity
  8
0
100
AcDbLine
 62
7
  6
CONTINUOUS
 10
101.086578102
 20
99.7524887755
 11
101.282439102
 21
99.7524887755
  0
LINE
  5
3FD
100
AcDbEntity
  8
0
100
AcDbLine
 62
7
  6
CONTINUOUS
 10
100.775429102
 20
99.9260657755
 11
100.040189102
 21
99.9260657755
  0
LINE
  5
3FE
100
AcDbEntity
  8
0
100
AcDbLine
 62
7
  6
CONTINUOUS
 10
98.725341102
 20
100.1747037755
 11
99.307059102
 21
100.1747037755
  0
LINE
  5
3FF
100
AcDbEntity
  8
0
100
AcDbLine
 62
7
  6
CONTINUOUS
 10
99.236338102
 20
100.3482807755
 11
98.785858102
 21
100.3482807755
  0
LINE
  5
400
100
AcDbEntity
  8
0
100
AcDbLine
 62
7
  6
CONTINUOUS
 10
97.137812102
 20
101.0296887755
 11
97.628637102
 21
101.0296887755
  0
LINE
  5
401
100
AcDbEntity
  8
0
100
AcDbLine
 62
7
  6
CONTINUOUS
 10
97.824498102
 20
101.0296887755
 11
98.315323102
 21
101.0296887755
  0
LINE
  5
402
100
AcDbEntity
  8
0
100
AcDbLine
 62
7
  6
CONTINUOUS
 10
101.829794102
 20
101.2032657755
 11
101.599569102
 21
101.2032657755
  0
LINE
  5
403
100
AcDbEntity
  8
0
100
AcDbLine
 62
7
  6
CONTINUOUS
 10
100.767337102
 20
101.2032657755
 11
100.539106102
 21
101.2032657755
  0
LINE
  5
404
100
AcDbEntity
  8
0
100
AcDbLine
 62
7
  6
CONTINUOUS
 10
100.040189102
 20
101.2032657755
 11
99.844328102
 21
101.2032657755
  0
LINE
  5
405
100
AcDbEntity
  8
0
100
AcDbLine
 62
7
  6
CONTINUOUS
 10
99.139346102
 20
101.2032657755
 11
98.917214102
 21
101.2032657755
  0
LINE
  5
406
100
AcDbEntity
  8
0
100
AcDbLine
 62
7
  6
CONTINUOUS
 10
98.315323102
 20
101.2032657755
 11
97.137812102
 21
101.2032657755
  0
LINE
  5
407
100
AcDbEntity
  8
0
100
AcDbLine
 62
7
  6
CONTINUOUS
 10
96.927643102
 20
101.2032657755
 11
96.731665102
 21
101.2032657755
  0
LINE
  5
408
100
AcDbEntity
  8
0
100
AcDbLine
 62
7
  6
CONTINUOUS
 10
98.376896102
 20
101.8377617755
 11
98.572874102
 21
101.8377617755
  0
LINE
  5
409
100
AcDbEntity
  8
0
100
AcDbLine
 62
7
  6
CONTINUOUS
 10
98.908066102
 20
101.8377617755
 11
99.098063102
 21
101.8377617755
  0
LINE
  5
40A
100
AcDbEntity
  8
0
100
AcDbLine
 62
7
  6
CONTINUOUS
 10
99.839285102
 20
101.8377617755
 11
100.059423102
 21
101.8377617755
  0
LINE
  5
40B
100
AcDbEntity
  8
DRAFT
100
AcDbLine
 62
7
  6
CONTINUOUS
 10
106.725255102
 20
102.0125637755
 11
106.825255102
 21
102.0125637755
  0
LINE
  5
40C
100
AcDbEntity
  8
DRAFT
100
AcDbLine
 62
7
  6
CONTINUOUS
 10
150.625255102
 20
102.0125637755
 11
150.725255102
 21
102.0125637755
  0
LINE
  5
40D
100
AcDbEntity
  8
0
100
AcDbLine
 62
7
  6
CONTINUOUS
 10
156.9127551169
 20
94.8263935607
 11
157.2252551318
 21
94.7625637755
  0
LINE
  5
40E
100
AcDbEntity
  8
RACCORDO
100
AcDbLine
 62
7
  6
CONTINUOUS
 10
101.193116041
 20
140.2711647598
 11
101.179264626
 21
140.30441433
  0
LINE
  5
40F
100
AcDbEntity
  8
0
100
AcDbLine
 62
7
  6
CONTINUOUS
 10
115.9117599383
 20
85.9391340829
 11
115.9019355595
 21
85.9947048668
  0
LWPOLYLINE
  5
410
100
AcDbEntity
  8
0
100
AcDbPolyline
 62
7
  6
CONTINUOUS
 90
18
 70
0
 10
106.7188734969
 20
145.5684178808
 10
106.7500890962
 20
145.3496333
 10
106.8005376619
 20
145.1361427478
 10
106.8705650757
 20
144.9281707321
 10
106.9598254558
 20
144.7254927449
 10
107.066448916
 20
144.5325223887
 10
107.1909076566
 20
144.3493115603
 10
107.3327294772
 20
144.175808363
 10
107.4886278911
 20
144.0162707081
 10
107.6589328374
 20
143.8710455696
 10
107.843314377
 20
143.7397859736
 10
108.0374962049
 20
143.6257089095
 10
108.241613609
 20
143.5292357646
 10
108.4555313015
 20
143.4499451517
 10
108.6745671138
 20
143.3897898988
 10
108.8971603233
 20
143.3494209485
 10
109.1248716527
 20
143.3281873582
 10
109.357701102
 20
143.3260891278
  0
LINE
  5
411
100
AcDbEntity
  8
0
100
AcDbLine
 62
7
  6
CONTINUOUS
 10
115.9019355595
 20
85.9947048668
 11
115.8991440294
 21
86.0450623266
  0
LWPOLYLINE
  5
412
100
AcDbEntity
  8
0
100
AcDbPolyline
 62
7
  6
CONTINUOUS
 90
13
 70
0
 10
116.8818113482
 20
86.248450449
 10
116.8827379124
 20
86.2218608922
 10
116.8887261324
 20
86.1751150761
 10
116.9002687621
 20
86.1299520408
 10
116.9176438447
 20
86.0857448895
 10
116.940573337
 20
86.0431205191
 10
116.9682231086
 20
86.003959619
 10
117.0008491302
 20
85.9684163425
 10
117.0381954312
 20
85.9363365364
 10
117.0786599686
 20
85.9091384305
 10
117.1217087281
 20
85.8872947682
 10
117.1678757241
 20
85.870332806
 10
117.2171609565
 20
85.8582525441
  0
LINE
  5
413
100
AcDbEntity
  8
0
100
AcDbLine
 62
7
  6
CONTINUOUS
 10
114.230506247
 20
88.4869739897
 11
114.230506247
 21
88.4522443541
  0
LINE
  5
414
100
AcDbEntity
  8
0
100
AcDbLine
 62
7
  6
CONTINUOUS
 10
114.248442102
 20
86.8457535106
 11
114.248442102
 21
86.8110238751
  0
LINE
  5
415
100
AcDbEntity
  8
0
100
AcDbLine
 62
7
  6
CONTINUOUS
 10
114.5148068326
 20
86.0775769285
 11
114.5148068326
 21
86.042847293
  0
LINE
  5
416
100
AcDbEntity
  8
DRAFT
100
AcDbLine
 62
7
  6
CONTINUOUS
 10
114.725255102
 20
142.7625637755
 11
114.725255102
 21
141.0733661945
  0
LINE
  5
417
100
AcDbEntity
  8
DRAFT
100
AcDbLine
 62
7
  6
CONTINUOUS
 10
114.725255102
 20
92.4517613566
 11
114.725255102
 21
90.7625637755
  0
LINE
  5
418
100
AcDbEntity
  8
0
100
AcDbLine
 62
7
  6
CONTINUOUS
 10
114.760411102
 20
87.0613270691
 11
114.760411102
 21
87.0265974336
  0
LINE
  5
419
100
AcDbEntity
  8
0
100
AcDbLine
 62
253
  6
CONTINUOUS
 10
115.409264102
 20
88.4869739897
 11
115.409264102
 21
88.4522443541
  0
LINE
  5
41A
100
AcDbEntity
  8
RACCORDO
100
AcDbLine
 62
253
  6
CONTINUOUS
 10
115.725255102
 20
90.8079607758
 11
115.725255102
 21
92.3787794639
  0
LINE
  5
41B
100
AcDbEntity
  8
RACCORDO
100
AcDbLine
 62
253
  6
CONTINUOUS
 10
115.725255102
 20
141.1463480872
 11
115.725255102
 21
142.7171667752
  0
LINE
  5
41C
100
AcDbEntity
  8
0
100
AcDbLine
 62
7
  6
CONTINUOUS
 10
116.066868102
 20
86.7311011893
 11
116.066868102
 21
86.6963715538
  0
LINE
  5
41D
100
AcDbEntity
  8
DRAFT
100
AcDbLine
 62
7
  6
CONTINUOUS
 10
116.125255102
 20
141.1463480872
 11
116.125255102
 21
140.0625637755
  0
LINE
  5
41E
100
AcDbEntity
  8
DRAFT
100
AcDbLine
 62
7
  6
CONTINUOUS
 10
116.125255102
 20
93.4625637755
 11
116.125255102
 21
92.3787794639
  0
LINE
  5
41F
100
AcDbEntity
  8
0
100
AcDbLine
 62
253
  6
CONTINUOUS
 10
116.4256947117
 20
88.0714119589
 11
116.4256947117
 21
88.0366823234
  0
LINE
  5
420
100
AcDbEntity
  8
0
100
AcDbLine
 62
253
  6
CONTINUOUS
 10
116.979350102
 20
88.4869739897
 11
116.979350102
 21
88.4522443541
  0
LINE
  5
421
100
AcDbEntity
  8
0
100
AcDbLine
 62
7
  6
CONTINUOUS
 10
117.2171609565
 20
85.8582525441
 11
117.2171609565
 21
85.8235229085
  0
LINE
  5
422
100
AcDbEntity
  8
0
100
AcDbLine
 62
7
  6
CONTINUOUS
 10
117.626674102
 20
87.3878869298
 11
117.626674102
 21
87.3531572943
  0
LWPOLYLINE
  5
423
100
AcDbEntity
  8
0
100
AcDbPolyline
 62
7
  6
CONTINUOUS
 90
3
 70
0
 10
115.9332155815
 20
87.9773237618
 10
115.93314776
 20
87.9698761514
 10
115.9283665674
 20
87.9091928221
  0
LINE
  5
424
100
AcDbEntity
  8
0
100
AcDbLine
 62
7
  6
CONTINUOUS
 10
116.882304102
 20
86.2701894891
 11
116.8818113482
 21
86.248450449
  0
LINE
  5
425
100
AcDbEntity
  8
0
100
AcDbLine
 62
7
  6
CONTINUOUS
 10
109.349811102
 20
88.0370816832
 11
108.682510102
 21
85.5784951005
  0
LINE
  5
426
100
AcDbEntity
  8
0
100
AcDbLine
 62
7
  6
CONTINUOUS
 10
109.349811102
 20
88.0023520477
 11
108.6912895442
 21
85.5761122149
  0
LINE
  5
427
100
AcDbEntity
  8
0
100
AcDbLine
 62
7
  6
CONTINUOUS
 10
109.759200102
 20
89.4994780202
 11
109.523639102
 21
88.6315819539
  0
LINE
  5
428
100
AcDbEntity
  8
0
100
AcDbLine
 62
7
  6
CONTINUOUS
 10
109.759200102
 20
89.4647483846
 11
109.5324185337
 21
88.6291990745
  0
LINE
  5
429
100
AcDbEntity
  8
0
100
AcDbLine
 62
7
  6
CONTINUOUS
 10
101.282439102
 20
100.3365527755
 11
101.829794102
 21
101.2032657755
  0
LINE
  5
42A
100
AcDbEntity
  8
RACCORDO
100
AcDbLine
 62
7
  6
CONTINUOUS
 10
168.5639175473
 20
111.2444249465
 11
168.6728473228
 21
111.2625637755
  0
LINE
  5
42B
100
AcDbEntity
  8
0
100
AcDbLine
 62
253
  6
CONTINUOUS
 10
98.3707704411
 20
99.7496086658
 11
98.0850138876
 21
99.7122950778
  0
LWPOLYLINE
  5
42C
100
AcDbEntity
  8
0
100
AcDbPolyline
 62
7
  6
CONTINUOUS
 90
16
 70
0
 10
100.0664568696
 20
103.9230337755
 10
100.1404247532
 20
103.9276300718
 10
100.2098160985
 20
103.9387606011
 10
100.2746309054
 20
103.9564253634
 10
100.3348155907
 20
103.9806575906
 10
100.3904237376
 20
104.0114240507
 10
100.4416160957
 20
104.0486250478
 10
100.488649978
 20
104.0923293293
 10
100.5312680715
 20
104.1424681477
 10
100.5688591862
 20
104.1987355642
 10
100.601656134
 20
104.2616441226
 10
100.6294261031
 20
104.330681279
 10
100.6508594678
 20
104.4040034636
 10
100.6655196863
 20
104.4809961528
 10
100.6738433004
 20
104.5622738701
 10
100.6758303102
 20
104.6478366155
  0
LINE
  5
42D
100
AcDbEntity
  8
ASSI
100
AcDbLine
 62
7
  6
CONTINUOUS
 10
169.525255102
 20
102.7625637755
 11
167.0659732452
 21
102.7625637755
  0
LINE
  5
42E
100
AcDbEntity
  8
ASSI
100
AcDbLine
 62
7
  6
CONTINUOUS
 10
90.3845369589
 20
102.7625637755
 11
87.925255102
 21
102.7625637755
  0
LINE
  5
42F
100
AcDbEntity
  8
0
100
AcDbLine
 62
7
  6
CONTINUOUS
 10
100.059423102
 20
103.2873657755
 11
99.869661102
 21
103.2873657755
  0
LINE
  5
430
100
AcDbEntity
  8
0
100
AcDbLine
 62
7
  6
CONTINUOUS
 10
99.140402102
 20
103.2873657755
 11
98.908066102
 21
103.2873657755
  0
LINE
  5
431
100
AcDbEntity
  8
0
100
AcDbLine
 62
7
  6
CONTINUOUS
 10
98.572874102
 20
103.2873657755
 11
98.376896102
 21
103.2873657755
  0
LINE
  5
432
100
AcDbEntity
  8
0
100
AcDbLine
 62
7
  6
CONTINUOUS
 10
96.432831102
 20
103.9230337755
 11
96.622710102
 21
103.9230337755
  0
LINE
  5
433
100
AcDbEntity
  8
0
100
AcDbLine
 62
7
  6
CONTINUOUS
 10
97.030734102
 20
103.9230337755
 11
97.224601102
 21
103.9230337755
  0
LINE
  5
434
100
AcDbEntity
  8
0
100
AcDbLine
 62
7
  6
CONTINUOUS
 10
97.632625102
 20
103.9230337755
 11
97.822504102
 21
103.9230337755
  0
LINE
  5
435
100
AcDbEntity
  8
0
100
AcDbLine
 62
7
  6
CONTINUOUS
 10
97.996199102
 20
103.9230337755
 11
98.198158102
 21
103.9230337755
  0
LINE
  5
436
100
AcDbEntity
  8
0
100
AcDbLine
 62
7
  6
CONTINUOUS
 10
99.074841102
 20
103.9230337755
 11
99.288880102
 21
103.9230337755
  0
LINE
  5
437
100
AcDbEntity
  8
0
100
AcDbLine
 62
7
  6
CONTINUOUS
 10
99.478760102
 20
103.9230337755
 11
100.0664568696
 21
103.9230337755
  0
LINE
  5
438
100
AcDbEntity
  8
0
100
AcDbLine
 62
7
  6
CONTINUOUS
 10
100.947130102
 20
103.9230337755
 11
102.017679102
 21
103.9230337755
  0
LINE
  5
439
100
AcDbEntity
  8
0
100
AcDbLine
 62
7
  6
CONTINUOUS
 10
100.040189102
 20
104.0966114555
 11
99.677027662
 21
104.0966114555
  0
LINE
  5
43A
100
AcDbEntity
  8
0
100
AcDbLine
 62
7
  6
CONTINUOUS
 10
102.017679102
 20
104.0966117755
 11
101.143108102
 21
104.0966117755
  0
LINE
  5
43B
100
AcDbEntity
  8
0
100
AcDbLine
 62
7
  6
CONTINUOUS
 10
98.349687102
 20
104.3452487755
 11
98.931405102
 21
104.3452487755
  0
LINE
  5
43C
100
AcDbEntity
  8
0
100
AcDbLine
 62
7
  6
CONTINUOUS
 10
98.860684102
 20
104.5188267755
 11
98.410321102
 21
104.5188267755
  0
LINE
  5
43D
100
AcDbEntity
  8
0
100
AcDbLine
 62
7
  6
CONTINUOUS
 10
101.143108102
 20
104.5809857755
 11
101.936872102
 21
104.5809857755
  0
LINE
  5
43E
100
AcDbEntity
  8
0
100
AcDbLine
 62
7
  6
CONTINUOUS
 10
101.936872102
 20
104.7545627755
 11
101.143108102
 21
104.7545627755
  0
LINE
  5
43F
100
AcDbEntity
  8
DRAFT
100
AcDbLine
 62
7
  6
CONTINUOUS
 10
150.725255102
 20
105.0125637755
 11
150.625255102
 21
105.0125637755
  0
LINE
  5
440
100
AcDbEntity
  8
DRAFT
100
AcDbLine
 62
7
  6
CONTINUOUS
 10
106.825255102
 20
105.0125637755
 11
106.725255102
 21
105.0125637755
  0
LINE
  5
441
100
AcDbEntity
  8
0
100
AcDbLine
 62
7
  6
CONTINUOUS
 10
99.677027662
 20
105.1990617755
 11
100.040189102
 21
105.1990617755
  0
LINE
  5
442
100
AcDbEntity
  8
0
100
AcDbLine
 62
7
  6
CONTINUOUS
 10
101.143108102
 20
105.1990617755
 11
102.003488102
 21
105.1990617755
  0
LINE
  5
443
100
AcDbEntity
  8
0
100
AcDbLine
 62
7
  6
CONTINUOUS
 10
102.003488102
 20
105.3726387755
 11
100.947130102
 21
105.3726387755
  0
LINE
  5
444
100
AcDbEntity
  8
0
100
AcDbLine
 62
7
  6
CONTINUOUS
 10
100.0664611087
 20
105.3726387755
 11
99.478760102
 21
105.3726387755
  0
LINE
  5
445
100
AcDbEntity
  8
0
100
AcDbLine
 62
7
  6
CONTINUOUS
 10
98.763692102
 20
105.3726387755
 11
98.541560102
 21
105.3726387755
  0
LINE
  5
446
100
AcDbEntity
  8
0
100
AcDbLine
 62
7
  6
CONTINUOUS
 10
97.822504102
 20
105.3726387755
 11
97.543725102
 21
105.3726387755
  0
LINE
  5
447
100
AcDbEntity
  8
0
100
AcDbLine
 62
7
  6
CONTINUOUS
 10
96.713604102
 20
105.3726387755
 11
96.432831102
 21
105.3726387755
  0
LINE
  5
448
100
AcDbEntity
  8
RACCORDO
100
AcDbLine
 62
7
  6
CONTINUOUS
 10
95.225255102
 20
105.5125637755
 11
104.725255102
 21
105.5125637755
  0
LINE
  5
449
100
AcDbEntity
  8
RACCORDO
100
AcDbLine
 62
7
  6
CONTINUOUS
 10
152.725255102
 20
105.5125637755
 11
162.225255102
 21
105.5125637755
  0
LINE
  5
44A
100
AcDbEntity
  8
RACCORDO
100
AcDbLine
 62
7
  6
CONTINUOUS
 10
88.8865926568
 20
111.2444249465
 11
88.7776628813
 21
111.2625637755
  0
LINE
  5
44B
100
AcDbEntity
  8
0
100
AcDbLine
 62
7
  6
CONTINUOUS
 10
158.100255102
 20
97.6987339959
 11
157.7877550424
 21
97.7625637755
  0
LINE
  5
44C
100
AcDbEntity
  8
0
100
AcDbLine
 62
7
  6
CONTINUOUS
 10
160.9752552213
 20
97.6987339959
 11
160.6627549828
 21
97.7625637755
  0
LINE
  5
44D
100
AcDbEntity
  8
0
100
AcDbLine
 62
7
  6
CONTINUOUS
 10
157.2252551318
 20
95.145542498
 11
156.975255102
 21
95.2093722776
  0
LINE
  5
44E
100
AcDbEntity
  8
0
100
AcDbLine
 62
7
  6
CONTINUOUS
 10
157.7877550424
 20
97.3795850978
 11
158.0377551616
 21
97.3157553181
  0
LINE
  5
44F
100
AcDbEntity
  8
0
100
AcDbLine
 62
7
  6
CONTINUOUS
 10
118.3642531502
 20
88.4869739897
 11
118.3642531502
 21
88.4522443541
  0
LINE
  5
450
100
AcDbEntity
  8
DRAFT
100
AcDbLine
 62
7
  6
CONTINUOUS
 10
119.325255102
 20
141.1463480872
 11
119.325255102
 21
140.0625637755
  0
LINE
  5
451
100
AcDbEntity
  8
DRAFT
100
AcDbLine
 62
7
  6
CONTINUOUS
 10
119.325255102
 20
93.4625637755
 11
119.325255102
 21
92.3787794639
  0
LINE
  5
452
100
AcDbEntity
  8
RACCORDO
100
AcDbLine
 62
253
  6
CONTINUOUS
 10
119.725255102
 20
142.7171667752
 11
119.725255102
 21
141.1463480872
  0
LINE
  5
453
100
AcDbEntity
  8
RACCORDO
100
AcDbLine
 62
253
  6
CONTINUOUS
 10
119.725255102
 20
92.3787794639
 11
119.725255102
 21
90.8079607758
  0
LINE
  5
454
100
AcDbEntity
  8
DRAFT
100
AcDbLine
 62
7
  6
CONTINUOUS
 10
120.725255102
 20
90.7625637755
 11
120.725255102
 21
92.4517613566
  0
LINE
  5
455
100
AcDbEntity
  8
DRAFT
100
AcDbLine
 62
7
  6
CONTINUOUS
 10
120.725255102
 20
141.0733661945
 11
120.725255102
 21
142.7625637755
  0
LINE
  5
456
100
AcDbEntity
  8
DRAFT
100
AcDbLine
 62
7
  6
CONTINUOUS
 10
121.625255102
 20
141.0733661945
 11
121.625255102
 21
140.0625637755
  0
LINE
  5
457
100
AcDbEntity
  8
DRAFT
100
AcDbLine
 62
7
  6
CONTINUOUS
 10
121.625255102
 20
93.4625637755
 11
121.625255102
 21
92.4517613566
  0
LWPOLYLINE
  5
458
100
AcDbEntity
  8
0
100
AcDbPolyline
 62
7
  6
CONTINUOUS
 90
3
 70
0
 10
115.8991440294
 20
86.0450623266
 10
115.9032718976
 20
86.1051296472
 10
115.914223242
 20
86.1609358551
  0
LINE
  5
459
100
AcDbEntity
  8
0
100
AcDbLine
 62
7
  6
CONTINUOUS
 10
110.575560102
 20
89.0745127036
 11
110.807504102
 21
89.940887081
  0
LINE
  5
45A
100
AcDbEntity
  8
0
100
AcDbLine
 62
7
  6
CONTINUOUS
 10
109.639609102
 20
85.5784951005
 11
110.418264102
 21
88.4869739897
  0
LINE
  5
45B
100
AcDbEntity
  8
0
100
AcDbLine
 62
7
  6
CONTINUOUS
 10
110.8683702798
 20
88.1783443418
 11
110.332625102
 21
86.1771977153
  0
LINE
  5
45C
100
AcDbEntity
  8
0
100
AcDbLine
 62
7
  6
CONTINUOUS
 10
110.8683702798
 20
88.1436147062
 11
110.332625102
 21
86.1424680798
  0
LINE
  5
45D
100
AcDbEntity
  8
0
100
AcDbLine
 62
7
  6
CONTINUOUS
 10
111.252194102
 20
86.2023739557
 11
111.743380196
 21
88.0370820343
  0
LINE
  5
45E
100
AcDbEntity
  8
0
100
AcDbLine
 62
7
  6
CONTINUOUS
 10
112.265118102
 20
88.1819369583
 11
111.6502703428
 21
85.8853214277
  0
LINE
  5
45F
100
AcDbEntity
  8
0
100
AcDbLine
 62
7
  6
CONTINUOUS
 10
112.265118102
 20
88.1472073227
 11
111.6502703428
 21
85.8505917921
  0
LINE
  5
460
100
AcDbEntity
  8
0
100
AcDbLine
 62
7
  6
CONTINUOUS
 10
112.504651102
 20
85.5784951005
 11
113.672547102
 21
89.940887081
  0
LINE
  5
461
100
AcDbEntity
  8
0
100
AcDbLine
 62
7
  6
CONTINUOUS
 10
113.700101726
 20
88.2217341668
 11
113.121709102
 21
86.0612884732
  0
LINE
  5
462
100
AcDbEntity
  8
0
100
AcDbLine
 62
7
  6
CONTINUOUS
 10
113.700101726
 20
88.1870045313
 11
113.1303850535
 21
86.0589657551
  0
LINE
  5
463
100
AcDbEntity
  8
0
100
AcDbLine
 62
7
  6
CONTINUOUS
 10
112.650482102
 20
89.5105274792
 11
112.364088102
 21
88.4869739897
  0
LINE
  5
464
100
AcDbEntity
  8
0
100
AcDbLine
 62
7
  6
CONTINUOUS
 10
112.650482102
 20
89.4757978437
 11
112.364088102
 21
88.4522443541
  0
LINE
  5
465
100
AcDbEntity
  8
RACCORDO
100
AcDbLine
 62
7
  6
CONTINUOUS
 10
101.2337029647
 20
93.3203804607
 11
101.2229982102
 21
93.3045652357
  0
LINE
  5
466
100
AcDbEntity
  8
RACCORDO
100
AcDbLine
 62
7
  6
CONTINUOUS
 10
101.2154923815
 20
93.2934761099
 11
101.2113323473
 21
93.2873300673
  0
LWPOLYLINE
  5
467
100
AcDbEntity
  8
RACCORDO
100
AcDbPolyline
 62
253
  6
CONTINUOUS
 90
19
 70
0
 10
96.4078505513
 20
92.4998648679
 10
96.4170464273
 20
92.5116133499
 10
96.4263100915
 20
92.5233185356
 10
96.4356413318
 20
92.534979985
 10
96.4451524604
 20
92.5467366542
 10
96.454731988
 20
92.5584476829
 10
96.464038342
 20
92.5696975286
 10
96.4730695197
 20
92.5804930793
 10
96.4818164381
 20
92.5908355136
 10
96.4899165185
 20
92.6003095382
 10
96.4973089968
 20
92.6088611688
 10
96.5040362553
 20
92.6165594795
 10
96.5098845384
 20
92.6231791256
 10
96.5147724791
 20
92.6286428885
 10
96.5187657405
 20
92.6330417051
 10
96.5218711651
 20
92.6364026735
 10
96.5240887399
 20
92.6387369866
 10
96.5254114586
 20
92.6400399999
 10
96.5258377129
 20
92.6403133449
  0
LINE
  5
468
100
AcDbEntity
  8
RACCORDO
100
AcDbLine
 62
253
  6
CONTINUOUS
 10
96.1711500745
 20
92.6841636215
 11
96.2221302768
 21
92.7469111875
  0
LINE
  5
469
100
AcDbEntity
  8
RACCORDO
100
AcDbLine
 62
253
  6
CONTINUOUS
 10
96.2221302768
 20
92.7469111875
 11
96.3005296662
 21
92.8423063783
  0
LINE
  5
46A
100
AcDbEntity
  8
RACCORDO
100
AcDbLine
 62
253
  6
CONTINUOUS
 10
96.3005296662
 20
92.8423063783
 11
96.350693293
 21
92.9027089708
  0
LINE
  5
46B
100
AcDbEntity
  8
RACCORDO
100
AcDbLine
 62
253
  6
CONTINUOUS
 10
96.350693293
 20
92.9027089708
 11
96.4160887358
 21
92.9806751397
  0
LINE
  5
46C
100
AcDbEntity
  8
RACCORDO
100
AcDbLine
 62
253
  6
CONTINUOUS
 10
96.4160887358
 20
92.9806751397
 11
96.4625457527
 21
93.0354269373
  0
LWPOLYLINE
  5
46D
100
AcDbEntity
  8
RACCORDO
100
AcDbPolyline
 62
253
  6
CONTINUOUS
 90
5
 70
0
 10
96.4625457527
 20
93.0354269373
 10
96.4811332827
 20
93.057057225
 10
96.4867279634
 20
93.0634893846
 10
96.4900295916
 20
93.0671966849
 10
96.4911694126
 20
93.0683364035
  0
LINE
  5
46E
100
AcDbEntity
  8
RACCORDO
100
AcDbLine
 62
253
  6
CONTINUOUS
 10
88.8865926568
 20
90.2101966778
 11
88.725255102
 21
90.0488591231
  0
LWPOLYLINE
  5
46F
100
AcDbEntity
  8
0
100
AcDbPolyline
 62
253
  6
CONTINUOUS
 90
32
 70
0
 10
97.8052811924
 20
99.6558593632
 10
97.5315723556
 20
99.580301522
 10
97.2625507278
 20
99.4851544811
 10
96.9995529585
 20
99.3708853136
 10
96.7465889955
 20
99.2388952383
 10
96.503804184
 20
99.0888004624
 10
96.271053179
 20
98.9209847788
 10
96.0519098934
 20
98.7380007847
 10
95.8465797821
 20
98.5395923928
 10
95.6548573903
 20
98.3260156904
 10
95.4797002673
 20
98.1005915373
 10
95.3213876976
 20
97.8631473169
 10
95.1796403967
 20
97.6138556457
 10
95.0565780608
 20
97.3565552331
 10
94.9524964269
 20
97.0911410656
 10
94.8670997581
 20
96.8177181567
 10
94.8016205393
 20
96.5404402554
 10
94.7563498496
 20
96.2593023391
 10
94.73099661
 20
95.9743094305
 10
94.7259200679
 20
95.6896303464
 10
94.7413754229
 20
95.4052885409
 10
94.7771074754
 20
95.1212605598
 10
94.8327098746
 20
94.8416448582
 10
94.9084398597
 20
94.5664584744
 10
95.0040401913
 20
94.29568437
 10
95.1183328008
 20
94.0333698844
 10
95.2517812973
 20
93.7794221307
 10
95.4039220717
 20
93.5339339958
 10
95.5721862274
 20
93.3012314794
 10
95.7557174658
 20
93.0827565816
 10
95.9553720856
 20
92.8770673025
 10
96.1711500868
 20
92.6841636419
  0
LINE
  5
470
100
AcDbEntity
  8
0
100
AcDbLine
 62
253
  6
CONTINUOUS
 10
98.0850138876
 20
99.7122950778
 11
97.8052811924
 21
99.6558593632
  0
LWPOLYLINE
  5
471
100
AcDbEntity
  8
RACCORDO
100
AcDbPolyline
 62
7
  6
CONTINUOUS
 90
5
 70
0
 10
167.1964412073
 20
111.2337498807
 10
167.1951216849
 20
111.2335686774
 10
167.1918300522
 20
111.2333931333
 10
167.1865663091
 20
111.2332232484
 10
167.1792407165
 20
111.2330574281
  0
LINE
  5
472
100
AcDbEntity
  8
DRAFT
100
AcDbLine
 62
7
  6
CONTINUOUS
 10
106.725255102
 20
108.2625637755
 11
106.825255102
 21
108.2625637755
  0
LINE
  5
473
100
AcDbEntity
  8
DRAFT
100
AcDbLine
 62
7
  6
CONTINUOUS
 10
150.625255102
 20
108.2625637755
 11
150.725255102
 21
108.2625637755
  0
LINE
  5
474
100
AcDbEntity
  8
0
100
AcDbLine
 62
7
  6
CONTINUOUS
 10
160.725255102
 20
97.4434148774
 11
160.912755102
 21
97.3795850978
  0
LINE
  5
475
100
AcDbEntity
  8
RACCORDO
100
AcDbLine
 62
253
  6
CONTINUOUS
 10
88.8865926568
 20
143.3149308733
 11
88.725255102
 21
143.476268428
  0
LINE
  5
476
100
AcDbEntity
  8
RACCORDO
100
AcDbLine
 62
253
  6
CONTINUOUS
 10
96.4867305347
 20
140.4616352441
 11
96.4731134227
 21
140.4773715934
  0
LINE
  5
477
100
AcDbEntity
  8
RACCORDO
100
AcDbLine
 62
253
  6
CONTINUOUS
 10
96.4731134227
 20
140.4773715934
 11
96.4495745414
 21
140.5049284881
  0
LINE
  5
478
100
AcDbEntity
  8
RACCORDO
100
AcDbLine
 62
253
  6
CONTINUOUS
 10
96.4495745414
 20
140.5049284881
 11
96.3961998343
 21
140.5680710365
  0
LINE
  5
479
100
AcDbEntity
  8
RACCORDO
100
AcDbLine
 62
253
  6
CONTINUOUS
 10
96.3961998343
 20
140.5680710365
 11
96.3261457619
 21
140.6519071926
  0
LINE
  5
47A
100
AcDbEntity
  8
RACCORDO
100
AcDbLine
 62
253
  6
CONTINUOUS
 10
96.3261457619
 20
140.6519071926
 11
96.2483081429
 21
140.7462261788
  0
LWPOLYLINE
  5
47B
100
AcDbEntity
  8
RACCORDO
100
AcDbPolyline
 62
253
  6
CONTINUOUS
 90
3
 70
0
 10
96.2483081429
 20
140.7462261788
 10
96.19642817
 20
140.8097720911
 10
96.1711500745
 20
140.8409639296
  0
LINE
  5
47C
100
AcDbEntity
  8
RACCORDO
100
AcDbLine
 62
7
  6
CONTINUOUS
 10
101.2337029647
 20
140.2047470903
 11
101.2230108721
 21
140.2205436086
  0
LINE
  5
47D
100
AcDbEntity
  8
RACCORDO
100
AcDbLine
 62
7
  6
CONTINUOUS
 10
101.2154820306
 20
140.2316667336
 11
101.2113323473
 21
140.2377974837
  0
LWPOLYLINE
  5
47E
100
AcDbEntity
  8
0
100
AcDbPolyline
 62
7
  6
CONTINUOUS
 90
16
 70
0
 10
111.882310102
 20
145.3988714091
 10
111.9256034412
 20
145.2396631076
 10
111.9829957302
 20
145.087172258
 10
112.054486969
 20
144.9413988605
 10
112.1408833081
 20
144.801058805
 10
112.241378597
 20
144.6674362015
 10
112.3535543851
 20
144.5443833803
 10
112.4778046723
 20
144.4321969951
 10
112.6137354587
 20
144.3305803922
 10
112.757746294
 20
144.2424959418
 10
112.9101733366
 20
144.1683588648
 10
113.070680428
 20
144.1077539403
 10
113.2346586428
 20
144.0623978755
 10
113.4005716725
 20
144.032862906
 10
113.5699558256
 20
144.0185767962
 10
113.742811102
 20
144.0195395461
  0
LINE
  5
47F
100
AcDbEntity
  8
DRAFT
100
AcDbLine
 62
7
  6
CONTINUOUS
 10
123.9732380625
 20
141.0733661945
 11
123.975255102
 21
139.2125637755
  0
LINE
  5
480
100
AcDbEntity
  8
DRAFT
100
AcDbLine
 62
7
  6
CONTINUOUS
 10
123.975255102
 20
94.3125637755
 11
123.9732380625
 21
92.4517613566
  0
LINE
  5
481
100
AcDbEntity
  8
0
100
AcDbLine
 62
7
  6
CONTINUOUS
 10
115.9283665674
 20
87.9091928221
 11
115.916052102
 21
87.8481051899
  0
LINE
  5
482
100
AcDbEntity
  8
0
100
AcDbLine
 62
7
  6
CONTINUOUS
 10
114.248442102
 20
86.8457535106
 11
114.5515961236
 21
87.9781121986
  0
LINE
  5
483
100
AcDbEntity
  8
0
100
AcDbLine
 62
7
  6
CONTINUOUS
 10
115.058187102
 20
88.1735991895
 11
114.760411102
 21
87.0613270691
  0
LINE
  5
484
100
AcDbEntity
  8
0
100
AcDbLine
 62
7
  6
CONTINUOUS
 10
115.058187102
 20
88.138869554
 11
114.760411102
 21
87.0265974336
  0
LINE
  5
485
100
AcDbEntity
  8
0
100
AcDbLine
 62
7
  6
CONTINUOUS
 10
115.4013026593
 20
85.9253819677
 11
115.559854102
 21
86.5176137703
  0
LINE
  5
486
100
AcDbEntity
  8
0
100
AcDbLine
 62
7
  6
CONTINUOUS
 10
115.709027102
 20
87.074812782
 11
115.916052102
 21
87.8481051899
  0
LINE
  5
487
100
AcDbEntity
  8
0
100
AcDbLine
 62
7
  6
CONTINUOUS
 10
116.4267530239
 20
88.0753650162
 11
116.216040102
 21
87.2883002011
  0
LINE
  5
488
100
AcDbEntity
  8
0
100
AcDbLine
 62
7
  6
CONTINUOUS
 10
116.066868102
 20
86.7311011893
 11
115.914223242
 21
86.1609358551
  0
LINE
  5
489
100
AcDbEntity
  8
0
100
AcDbLine
 62
7
  6
CONTINUOUS
 10
116.4256947117
 20
88.0366823234
 11
116.2247160757
 21
87.2859774702
  0
LINE
  5
48A
100
AcDbEntity
  8
0
100
AcDbLine
 62
7
  6
CONTINUOUS
 10
116.066868102
 20
86.6963715538
 11
115.914223242
 21
86.1262062196
  0
LINE
  5
48B
100
AcDbEntity
  8
0
100
AcDbLine
 62
7
  6
CONTINUOUS
 10
116.882304102
 20
86.2701894891
 11
117.020897102
 21
86.7878682336
  0
LWPOLYLINE
  5
48C
100
AcDbEntity
  8
0
100
AcDbPolyline
 62
7
  6
CONTINUOUS
 90
3
 70
0
 10
114.4947942807
 20
86.0077175187
 10
114.507887998
 20
86.0537110804
 10
114.5148068326
 20
86.0775769285
  0
LWPOLYLINE
  5
48D
100
AcDbEntity
  8
0
100
AcDbPolyline
 62
7
  6
CONTINUOUS
 90
3
 70
0
 10
114.4947959691
 20
85.972996612
 10
114.5078882963
 20
86.0189848521
 10
114.5148068326
 20
86.042847293
  0
LWPOLYLINE
  5
48E
100
AcDbEntity
  8
RACCORDO
100
AcDbPolyline
 62
7
  6
CONTINUOUS
 90
10
 70
0
 10
101.2516348529
 20
93.3402883917
 10
101.2184190907
 20
93.2988529529
 10
101.1930302957
 20
93.2522095876
 10
101.1762640951
 20
93.2018199927
 10
101.1686459034
 20
93.1492632638
 10
101.1704144576
 20
93.0961864092
 10
101.181514335
 20
93.0442527369
 10
101.2015976909
 20
92.9950897303
 10
101.2300351584
 20
92.9502380463
 10
101.265935572
 20
92.9111032346
  0
LWPOLYLINE
  5
48F
100
AcDbEntity
  8
RACCORDO
100
AcDbPolyline
 62
7
  6
CONTINUOUS
 90
10
 70
0
 10
101.2335910488
 20
93.3202481912
 10
101.2352596013
 20
93.3222532519
 10
101.2369318446
 20
93.3242296179
 10
101.2386077788
 20
93.3261772889
 10
101.2402833787
 20
93.3280915008
 10
101.2419626694
 20
93.3299770178
 10
101.2436577266
 20
93.3318481329
 10
101.2453725754
 20
93.3337096104
 10
101.2471031908
 20
93.3355566859
 10
101.2488495726
 20
93.3373893595
  0
LWPOLYLINE
  5
490
100
AcDbEntity
  8
0
100
AcDbPolyline
 62
253
  6
CONTINUOUS
 90
29
 70
0
 10
101.6134396662
 20
92.9951841627
 10
101.8067484208
 20
93.2125183722
 10
101.9824025341
 20
93.4408143477
 10
102.1404020061
 20
93.6800720892
 10
102.2814425818
 20
93.9318457205
 10
102.4048285162
 20
94.1945811179
 10
102.5084725742
 20
94.4636159097
 10
102.5919163502
 20
94.7388006172
 10
102.6556182499
 20
95.0202847191
 10
102.6988662554
 20
95.3038542795
 10
102.7213984342
 20
95.5894990574
 10
102.7234767188
 20
95.8772292938
 10
102.705174889
 20
96.1628617761
 10
102.6662302233
 20
96.4463909527
 10
102.6069054433
 20
96.7278223752
 10
102.5280624935
 20
97.002989486
 10
102.4294052934
 20
97.2718515723
 10
102.3112299235
 20
97.5344493469
 10
102.1752865696
 20
97.7867383907
 10
102.0212883474
 20
98.0285739236
 10
101.8495221411
 20
98.2601007258
 10
101.6625987896
 20
98.4777087185
 10
101.460255734
 20
98.6811881922
 10
101.2427555333
 20
98.8707488565
 10
101.0134967023
 20
99.0434097607
 10
100.7723077067
 20
99.1988835596
 10
100.5193600809
 20
99.3374575985
 10
100.2585669439
 20
99.4570129626
 10
99.9898162033
 20
99.5573830957
  0
LINE
  5
491
100
AcDbEntity
  8
RACCORDO
100
AcDbLine
 62
253
  6
CONTINUOUS
 10
101.2611084124
 20
92.9060565729
 11
101.2659354552
 21
92.9111031066
  0
LINE
  5
492
100
AcDbEntity
  8
RACCORDO
100
AcDbLine
 62
253
  6
CONTINUOUS
 10
158.5776221998
 20
153.3012262208
 11
158.7389597545
 21
153.4625637755
  0
LWPOLYLINE
  5
493
100
AcDbEntity
  8
RACCORDO
100
AcDbPolyline
 62
7
  6
CONTINUOUS
 90
5
 70
0
 10
168.4544769926
 20
111.2401667339
 10
168.4978425194
 20
111.2412097023
 10
168.5302756097
 20
111.2422615094
 10
168.552300619
 20
111.2433332575
 10
168.5639175473
 20
111.2444249465
  0
LINE
  5
494
100
AcDbEntity
  8
RACCORDO
100
AcDbLine
 62
7
  6
CONTINUOUS
 10
168.3380947626
 20
111.2381739265
 11
168.4544769926
 21
111.2401667339
  0
LINE
  5
495
100
AcDbEntity
  8
RACCORDO
100
AcDbLine
 62
7
  6
CONTINUOUS
 10
167.1792407165
 20
111.2330574281
 11
167.1589424178
 21
111.2327475489
  0
LINE
  5
496
100
AcDbEntity
  8
RACCORDO
100
AcDbLine
 62
7
  6
CONTINUOUS
 10
168.0988318767
 20
111.2356173775
 11
168.3380947626
 21
111.2381739265
  0
LINE
  5
497
100
AcDbEntity
  8
RACCORDO
100
AcDbLine
 62
7
  6
CONTINUOUS
 10
167.1589424178
 20
111.2327475489
 11
167.0974654204
 21
111.2322440565
  0
LINE
  5
498
100
AcDbEntity
  8
RACCORDO
100
AcDbLine
 62
7
  6
CONTINUOUS
 10
167.0974654204
 20
111.2322440565
 11
167.0540956371
 21
111.2320086884
  0
LINE
  5
499
100
AcDbEntity
  8
RACCORDO
100
AcDbLine
 62
7
  6
CONTINUOUS
 10
167.5599104024
 20
111.2327518979
 11
168.0988318767
 21
111.2356173775
  0
LINE
  5
49A
100
AcDbEntity
  8
RACCORDO
100
AcDbLine
 62
7
  6
CONTINUOUS
 10
166.9964488227
 20
111.2320197382
 11
167.5599104024
 21
111.2327518979
  0
LINE
  5
49B
100
AcDbEntity
  8
RACCORDO
100
AcDbLine
 62
7
  6
CONTINUOUS
 10
90.4540613814
 20
111.2320197382
 11
90.3845369589
 21
111.2320197382
  0
LINE
  5
49C
100
AcDbEntity
  8
DRAFT
100
AcDbLine
 62
7
  6
CONTINUOUS
 10
150.725255102
 20
111.2625637755
 11
150.625255102
 21
111.2625637755
  0
LINE
  5
49D
100
AcDbEntity
  8
DRAFT
100
AcDbLine
 62
7
  6
CONTINUOUS
 10
106.825255102
 20
111.2625637755
 11
106.725255102
 21
111.2625637755
  0
LINE
  5
49E
100
AcDbEntity
  8
DRAFT
100
AcDbLine
 62
7
  6
CONTINUOUS
 10
88.7776628813
 20
111.2625637755
 11
90.225255102
 21
111.2625637755
  0
LINE
  5
49F
100
AcDbEntity
  8
DRAFT
100
AcDbLine
 62
7
  6
CONTINUOUS
 10
167.225255102
 20
111.2625637755
 11
168.6728473228
 21
111.2625637755
  0
LINE
  5
4A0
100
AcDbEntity
  8
0
100
AcDbLine
 62
7
  6
CONTINUOUS
 10
156.6627550871
 20
94.9540531367
 11
156.9127551169
 21
94.8263935607
  0
LINE
  5
4A1
100
AcDbEntity
  8
0
100
AcDbLine
 62
7
  6
CONTINUOUS
 10
158.3502550424
 20
97.5710744366
 11
158.100255102
 21
97.6987339959
  0
LWPOLYLINE
  5
4A2
100
AcDbEntity
  8
RACCORDO
100
AcDbPolyline
 62
253
  6
CONTINUOUS
 90
3
 70
0
 10
96.4911694126
 20
140.4567911475
 10
96.4900301065
 20
140.4579303052
 10
96.4867305347
 20
140.4616352441
  0
LINE
  5
4A3
100
AcDbEntity
  8
RACCORDO
100
AcDbLine
 62
253
  6
CONTINUOUS
 10
158.5776221998
 20
80.2239013302
 11
158.7389597545
 21
80.0625637755
  0
LINE
  5
4A4
100
AcDbEntity
  8
RACCORDO
100
AcDbLine
 62
253
  6
CONTINUOUS
 10
101.2659354552
 20
140.6140244444
 11
101.2611084124
 21
140.6190709781
  0
LWPOLYLINE
  5
4A5
100
AcDbEntity
  8
RACCORDO
100
AcDbPolyline
 62
7
  6
CONTINUOUS
 90
10
 70
0
 10
101.233648969
 20
140.204810906
 10
101.2352917792
 20
140.2028362691
 10
101.2369447158
 20
140.2008827212
 10
101.2386077788
 20
140.1989502621
 10
101.2402790883
 20
140.1970411209
 10
101.2419605242
 20
140.1951530685
 10
101.2436577266
 20
140.1932794181
 10
101.2453725754
 20
140.1914179407
 10
101.2471031908
 20
140.1895708651
 10
101.2488495726
 20
140.1877381916
  0
LWPOLYLINE
  5
4A6
100
AcDbEntity
  8
RACCORDO
100
AcDbPolyline
 62
7
  6
CONTINUOUS
 90
10
 70
0
 10
101.2516335453
 20
140.1848379056
 10
101.2184177067
 20
140.2262734088
 10
101.1930288887
 20
140.2729168857
 10
101.176262722
 20
140.3233066301
 10
101.1686446224
 20
140.3758635362
 10
101.1704133245
 20
140.4289405836
 10
101.1815134011
 20
140.480874452
 10
101.2015969997
 20
140.530037646
 10
101.2300347436
 20
140.5748894969
 10
101.2659354552
 20
140.6140244444
  0
LINE
  5
4A7
100
AcDbEntity
  8
RACCORDO
100
AcDbLine
 62
253
  6
CONTINUOUS
 10
126.525255102
 20
143.147791159
 11
126.5252551179
 21
143.4998741893
  0
LINE
  5
4A8
100
AcDbEntity
  8
RACCORDO
100
AcDbLine
 62
253
  6
CONTINUOUS
 10
126.5252551021
 20
150.2601958204
 11
126.525255102
 21
150.0125637755
  0
LINE
  5
4A9
100
AcDbEntity
  8
RACCORDO
100
AcDbLine
 62
253
  6
CONTINUOUS
 10
126.525255102
 20
90.377336392
 11
126.525255102
 21
90.0125637755
  0
LINE
  5
4AA
100
AcDbEntity
  8
RACCORDO
100
AcDbLine
 62
253
  6
CONTINUOUS
 10
126.5252551032
 20
83.2649133716
 11
126.525255102
 21
83.5125637755
  0
LINE
  5
4AB
100
AcDbEntity
  8
0
100
AcDbLine
 62
7
  6
CONTINUOUS
 10
117.8407592001
 20
88.1875507949
 11
117.626674102
 21
87.3878869298
  0
LINE
  5
4AC
100
AcDbEntity
  8
0
100
AcDbLine
 62
7
  6
CONTINUOUS
 10
117.522592102
 20
86.9991162775
 11
117.2171609565
 21
85.8582525441
  0
LINE
  5
4AD
100
AcDbEntity
  8
0
100
AcDbLine
 62
7
  6
CONTINUOUS
 10
118.127675102
 20
85.5784951005
 11
118.768000102
 21
87.9702738201
  0
LINE
  5
4AE
100
AcDbEntity
  8
0
100
AcDbLine
 62
7
  6
CONTINUOUS
 10
139.264953102
 20
145.0227489316
 11
139.432090102
 21
145.4744917048
  0
LINE
  5
4AF
100
AcDbEntity
  8
0
100
AcDbLine
 62
7
  6
CONTINUOUS
 10
139.264953102
 20
144.988019296
 11
139.432090102
 21
145.4397620693
  0
LINE
  5
4B0
100
AcDbEntity
  8
0
100
AcDbLine
 62
7
  6
CONTINUOUS
 10
139.498920102
 20
145.6603588708
 11
139.757423102
 21
146.3494346743
  0
LINE
  5
4B1
100
AcDbEntity
  8
0
100
AcDbLine
 62
7
  6
CONTINUOUS
 10
139.498920102
 20
145.6256292353
 11
139.757423102
 21
146.3147050388
  0
LINE
  5
4B2
100
AcDbEntity
  8
0
100
AcDbLine
 62
7
  6
CONTINUOUS
 10
139.643824102
 20
146.5397733927
 11
139.042102102
 21
144.988019296
  0
LWPOLYLINE
  5
4B3
100
AcDbEntity
  8
0
100
AcDbPolyline
 62
7
  6
CONTINUOUS
 90
10
 70
0
 10
115.4013026593
 20
85.9253819677
 10
115.3781750287
 20
85.8705539017
 10
115.3499064923
 20
85.8194424726
 10
115.3164970499
 20
85.7720476804
 10
115.2774823041
 20
85.7278966807
 10
115.2333266524
 20
85.6874623178
 10
115.1854232871
 20
85.6521631251
 10
115.1342366057
 20
85.6224719468
 10
115.0793022107
 20
85.5979159386
 10
115.020620102
 20
85.5784951005
  0
LWPOLYLINE
  5
4B4
100
AcDbEntity
  8
0
100
AcDbPolyline
 62
7
  6
CONTINUOUS
 90
12
 70
0
 10
110.8683702798
 20
88.1783443418
 10
110.8990086386
 20
88.2338872506
 10
110.9359493729
 20
88.2838610057
 10
110.9791924827
 20
88.3282656068
 10
111.0290556
 20
88.3672137672
 10
111.0852210928
 20
88.4005927738
 10
111.1467360657
 20
88.428064487
 10
111.2140630331
 20
88.4488195768
 10
111.2867394805
 20
88.4636673733
 10
111.3624249691
 20
88.4746977277
 10
111.4403393526
 20
88.4826072571
 10
111.5212627772
 20
88.4866993444
  0
LWPOLYLINE
  5
4B5
100
AcDbEntity
  8
0
100
AcDbPolyline
 62
7
  6
CONTINUOUS
 90
12
 70
0
 10
110.8683702798
 20
88.1436147062
 10
110.8990008098
 20
88.1991474738
 10
110.9359334842
 20
88.249113881
 10
110.9791683032
 20
88.2935139279
 10
111.0290216082
 20
88.3324608344
 10
111.0851770578
 20
88.3658413806
 10
111.1466856274
 20
88.3933159065
 10
111.2140109489
 20
88.4140753759
 10
111.2866893906
 20
88.428928825
 10
111.3623810328
 20
88.4399637026
 10
111.4403059024
 20
88.4478758247
 10
111.5212439724
 20
88.4519693752
  0
LWPOLYLINE
  5
4B6
100
AcDbEntity
  8
RACCORDO
100
AcDbPolyline
 62
253
  6
CONTINUOUS
 90
9
 70
0
 10
101.5505395037
 20
93.0564414485
 10
101.5146391497
 20
93.0192684923
 10
101.4809503378
 20
92.9821175074
 10
101.4504806549
 20
92.9460996298
 10
101.4241414086
 20
92.912292106
 10
101.4027203704
 20
92.8817060737
 10
101.3868582147
 20
92.8552563201
 10
101.3770293574
 20
92.8337339219
 10
101.3735277664
 20
92.8177825851
  0
LINE
  5
4B7
100
AcDbEntity
  8
RACCORDO
100
AcDbLine
 62
253
  6
CONTINUOUS
 10
157.5886013029
 20
149.020022526
 11
157.3616512051
 21
148.7930724283
  0
LINE
  5
4B8
100
AcDbEntity
  8
RACCORDO
100
AcDbLine
 62
253
  6
CONTINUOUS
 10
101.3764581697
 20
92.8078793929
 11
101.3616512051
 21
92.7930724283
  0
LINE
  5
4B9
100
AcDbEntity
  8
RACCORDO
100
AcDbLine
 62
253
  6
CONTINUOUS
 10
96.4677963515
 20
87.8992175747
 11
96.6947464493
 21
88.1261676724
  0
LINE
  5
4BA
100
AcDbEntity
  8
RACCORDO
100
AcDbLine
 62
253
  6
CONTINUOUS
 10
101.6134396664
 20
92.9951841625
 11
101.4013157093
 21
92.7830602055
  0
LWPOLYLINE
  5
4BB
100
AcDbEntity
  8
RACCORDO
100
AcDbPolyline
 62
253
  6
CONTINUOUS
 90
10
 70
0
 10
152.4747323696
 20
143.8540591394
 10
152.5144851713
 20
143.8936079861
 10
152.5528466657
 20
143.9335942012
 10
152.5884757253
 20
143.9726196699
 10
152.6201268347
 20
144.0093199293
 10
152.6466940799
 20
144.0424124014
 10
152.6672495145
 20
144.0707410147
 10
152.6810749909
 20
144.0933158763
 10
152.6876875057
 20
144.1093480575
 10
152.6868563335
 20
144.1182775428
  0
LINE
  5
4BC
100
AcDbEntity
  8
RACCORDO
100
AcDbLine
 62
253
  6
CONTINUOUS
 10
161.1930585173
 20
124.2583468198
 11
161.1719462579
 21
124.2527058278
  0
LINE
  5
4BD
100
AcDbEntity
  8
RACCORDO
100
AcDbLine
 62
253
  6
CONTINUOUS
 10
103.0231545182
 20
110.8287663059
 11
102.7308546274
 21
110.7612835712
  0
LINE
  5
4BE
100
AcDbEntity
  8
RACCORDO
100
AcDbLine
 62
253
  6
CONTINUOUS
 10
95.9651517977
 20
109.1992979845
 11
96.2574516868
 21
109.2667807311
  0
LINE
  5
4BF
100
AcDbEntity
  8
RACCORDO
100
AcDbLine
 62
253
  6
CONTINUOUS
 10
161.4853584064
 20
124.3258295665
 11
161.1930585172
 21
124.2583468199
  0
LINE
  5
4C0
100
AcDbEntity
  8
RACCORDO
100
AcDbLine
 62
253
  6
CONTINUOUS
 10
154.4273556858
 20
122.6963612451
 11
154.7196555767
 21
122.7638439799
  0
LINE
  5
4C1
100
AcDbEntity
  8
RACCORDO
100
AcDbLine
 62
253
  6
CONTINUOUS
 10
102.7308546302
 20
110.7612835592
 11
102.7094083026
 21
110.7570895844
  0
LINE
  5
4C2
100
AcDbEntity
  8
0
100
AcDbLine
 62
7
  6
CONTINUOUS
 10
96.9092558074
 20
112.5020252082
 11
97.4048321204
 21
112.5683887373
  0
LINE
  5
4C3
100
AcDbEntity
  8
0
100
AcDbLine
 62
7
  6
CONTINUOUS
 10
160.0456780837
 20
120.9567388137
 11
160.5412543967
 21
121.0231023428
  0
LINE
  5
4C4
100
AcDbEntity
  8
0
100
AcDbLine
 62
7
  6
CONTINUOUS
 10
156.893014794
 20
120.3871070486
 11
156.3971035318
 21
120.3232946671
  0
LINE
  5
4C5
100
AcDbEntity
  8
0
100
AcDbLine
 62
7
  6
CONTINUOUS
 10
101.0534066723
 20
113.201832884
 11
100.5574954101
 21
113.1380205024
  0
LINE
  5
4C6
100
AcDbEntity
  8
0
100
AcDbLine
 62
7
  6
CONTINUOUS
 10
171.725255102
 20
113.5125637755
 11
170.0963858164
 21
113.5125637755
  0
LINE
  5
4C7
100
AcDbEntity
  8
DRAFT
100
AcDbLine
 62
7
  6
CONTINUOUS
 10
170.0963858164
 20
113.5125637755
 11
168.6728473228
 21
113.5125637755
  0
LINE
  5
4C8
100
AcDbEntity
  8
DRAFT
100
AcDbLine
 62
7
  6
CONTINUOUS
 10
88.7776628813
 20
113.5125637755
 11
87.3541243876
 21
113.5125637755
  0
LINE
  5
4C9
100
AcDbEntity
  8
0
100
AcDbLine
 62
7
  6
CONTINUOUS
 10
87.3541243876
 20
113.5125637755
 11
85.725255102
 21
113.5125637755
  0
LINE
  5
4CA
100
AcDbEntity
  8
RACCORDO
100
AcDbLine
 62
253
  6
CONTINUOUS
 10
95.5173670134
 20
122.0221765444
 11
95.8136622287
 21
121.975247978
  0
LINE
  5
4CB
100
AcDbEntity
  8
RACCORDO
100
AcDbLine
 62
253
  6
CONTINUOUS
 10
102.6718427571
 20
120.8890189083
 11
102.3755475374
 21
120.9359474609
  0
LINE
  5
4CC
100
AcDbEntity
  8
0
100
AcDbLine
 62
253
  6
CONTINUOUS
 10
156.7756039749
 20
112.3198249684
 11
156.2817598046
 21
112.3980422009
  0
LINE
  5
4CD
100
AcDbEntity
  8
0
100
AcDbLine
 62
253
  6
CONTINUOUS
 10
101.1687503994
 20
121.1270853501
 11
100.6749062291
 21
121.2053025827
  0
LINE
  5
4CE
100
AcDbEntity
  8
0
100
AcDbLine
 62
253
  6
CONTINUOUS
 10
97.0204593689
 20
121.7841101033
 11
97.5143035392
 21
121.7058928708
  0
LINE
  5
4CF
100
AcDbEntity
  8
0
100
AcDbLine
 62
253
  6
CONTINUOUS
 10
159.9362066648
 20
111.8192346802
 11
160.4300508351
 21
111.7410174477
  0
LINE
  5
4D0
100
AcDbEntity
  8
RACCORDO
100
AcDbLine
 62
253
  6
CONTINUOUS
 10
154.778667447
 20
112.6361086427
 11
155.0749626667
 21
112.5891800901
  0
LINE
  5
4D1
100
AcDbEntity
  8
RACCORDO
100
AcDbLine
 62
253
  6
CONTINUOUS
 10
161.9331431906
 20
111.5029510066
 11
161.6368479754
 21
111.549879573
  0
LINE
  5
4D2
100
AcDbEntity
  8
RACCORDO
100
AcDbLine
 62
253
  6
CONTINUOUS
 10
95.813662231
 20
121.9752479926
 11
95.8351411103
 21
121.9712489848
  0
LINE
  5
4D3
100
AcDbEntity
  8
RACCORDO
100
AcDbLine
 62
253
  6
CONTINUOUS
 10
102.3755475374
 20
120.9359474609
 11
102.3540698576
 21
120.939954355
  0
LWPOLYLINE
  5
4D4
100
AcDbEntity
  8
RACCORDO
100
AcDbPolyline
 62
253
  6
CONTINUOUS
 90
19
 70
0
 10
160.9246724912
 20
92.6403133449
 10
160.9250990075
 20
92.6400396413
 10
160.9264208291
 20
92.6387375829
 10
160.928636351
 20
92.6364055417
 10
160.9317384514
 20
92.6330482954
 10
160.9357272494
 20
92.6286545332
 10
160.940609965
 20
92.6231967858
 10
160.9464518538
 20
92.6165846304
 10
160.9531719899
 20
92.6088948002
 10
160.9605582503
 20
92.6003507527
 10
160.968653099
 20
92.5908833265
 10
160.9773956839
 20
92.5805465852
 10
160.9864247599
 20
92.5697541476
 10
160.9957311931
 20
92.5585048372
 10
161.005312966
 20
92.5467917082
 10
161.0148298444
 20
92.5350284994
 10
161.0241707349
 20
92.523355431
 10
161.0334474287
 20
92.5116340892
 10
161.0426596527
 20
92.4998648679
  0
LINE
  5
4D5
100
AcDbEntity
  8
0
100
AcDbLine
 62
7
  6
CONTINUOUS
 10
156.975255102
 20
95.2093722776
 11
156.787755102
 21
95.3370318815
  0
LINE
  5
4D6
100
AcDbEntity
  8
0
100
AcDbLine
 62
7
  6
CONTINUOUS
 10
158.0377551616
 20
97.3157553181
 11
158.2252551616
 21
97.1880957589
  0
LWPOLYLINE
  5
4D7
100
AcDbEntity
  8
RACCORDO
100
AcDbPolyline
 62
253
  6
CONTINUOUS
 90
10
 70
0
 10
152.4747323696
 20
89.6710684116
 10
152.5144805176
 20
89.631524326
 10
152.5528390865
 20
89.5915414847
 10
152.5884670756
 20
89.5525176724
 10
152.6201189448
 20
89.5158171476
 10
152.6466881559
 20
89.482722946
 10
152.6672458569
 20
89.4543920257
 10
152.6810733574
 20
89.4318148243
 10
152.6876872538
 20
89.415780633
 10
152.6868563266
 20
89.4068500013
  0
LINE
  5
4D8
100
AcDbEntity
  8
RACCORDO
100
AcDbLine
 62
253
  6
CONTINUOUS
 10
96.4677963515
 20
145.6259099763
 11
96.6947464493
 21
145.3989598786
  0
LINE
  5
4D9
100
AcDbEntity
  8
RACCORDO
100
AcDbLine
 62
253
  6
CONTINUOUS
 10
101.3764581697
 20
140.7172481582
 11
101.3616512051
 21
140.7320551227
  0
LINE
  5
4DA
100
AcDbEntity
  8
RACCORDO
100
AcDbLine
 62
253
  6
CONTINUOUS
 10
157.5886013029
 20
84.505105025
 11
157.3616512051
 21
84.7320551227
  0
LINE
  5
4DB
100
AcDbEntity
  8
RACCORDO
100
AcDbLine
 62
253
  6
CONTINUOUS
 10
101.6134396664
 20
140.5299433885
 11
101.4013157093
 21
140.7420673455
  0
LWPOLYLINE
  5
4DC
100
AcDbEntity
  8
RACCORDO
100
AcDbPolyline
 62
253
  6
CONTINUOUS
 90
9
 70
0
 10
101.5505398812
 20
140.4686864642
 10
101.5146395464
 20
140.505859376
 10
101.4809507292
 20
140.5430103219
 10
101.4504810148
 20
140.5790281689
 10
101.4241417099
 20
140.6128356732
 10
101.402720586
 20
140.6434216992
 10
101.386858319
 20
140.6698714615
 10
101.3770293272
 20
140.6913938846
 10
101.3735275819
 20
140.7073452626
  0
LINE
  5
4DD
100
AcDbEntity
  8
0
100
AcDbLine
 62
7
  6
CONTINUOUS
 10
136.904631102
 20
88.8143799423
 11
137.932087102
 21
85.7107243324
  0
LINE
  5
4DE
100
AcDbEntity
  8
0
100
AcDbLine
 62
7
  6
CONTINUOUS
 10
138.252119102
 20
86.6426211175
 11
137.544663102
 21
88.7796503068
  0
LINE
  5
4DF
100
AcDbEntity
  8
0
100
AcDbLine
 62
7
  6
CONTINUOUS
 10
138.252119102
 20
86.677350753
 11
137.544663102
 21
88.8143799423
  0
LINE
  5
4E0
100
AcDbEntity
  8
RACCORDO
100
AcDbLine
 62
253
  6
CONTINUOUS
 10
130.9252551008
 20
150.2602141795
 11
130.925255102
 21
150.0125637755
  0
LINE
  5
4E1
100
AcDbEntity
  8
RACCORDO
100
AcDbLine
 62
253
  6
CONTINUOUS
 10
130.925255102
 20
83.2649317306
 11
130.925255102
 21
83.5125637755
  0
LINE
  5
4E2
100
AcDbEntity
  8
RACCORDO
100
AcDbLine
 62
253
  6
CONTINUOUS
 10
130.925255102
 20
143.147791159
 11
130.925255102
 21
143.5125637755
  0
LINE
  5
4E3
100
AcDbEntity
  8
RACCORDO
100
AcDbLine
 62
253
  6
CONTINUOUS
 10
130.925255102
 20
90.377336392
 11
130.925255102
 21
90.0125637755
  0
LWPOLYLINE
  5
4E4
100
AcDbEntity
  8
0
100
AcDbPolyline
 62
7
  6
CONTINUOUS
 90
11
 70
0
 10
138.6817914759
 20
146.0126460428
 10
138.6712527658
 20
145.977451933
 10
138.6553620872
 20
145.9445651112
 10
138.6342893746
 20
145.9144467298
 10
138.6085444314
 20
145.8884802457
 10
138.5777628504
 20
145.8671401056
 10
138.5423090388
 20
145.8499518627
 10
138.5037860209
 20
145.8368756342
 10
138.4627281381
 20
145.8278981259
 10
138.418601049
 20
145.823032632
 10
138.3714047536
 20
145.8222791525
  0
LWPOLYLINE
  5
4E5
100
AcDbEntity
  8
0
100
AcDbPolyline
 62
7
  6
CONTINUOUS
 90
9
 70
0
 10
138.8948612136
 20
145.9997667396
 10
138.8767107807
 20
145.9429051737
 10
138.8511402523
 20
145.8894950172
 10
138.8185197061
 20
145.8402779767
 10
138.7799593752
 20
145.7974791713
 10
138.7354643664
 20
145.7619249289
 10
138.6850295729
 20
145.7327889216
 10
138.6297499078
 20
145.7098172858
 10
138.5699903423
 20
145.6929254001
  0
LWPOLYLINE
  5
4E6
100
AcDbEntity
  8
0
100
AcDbPolyline
 62
7
  6
CONTINUOUS
 90
5
 70
0
 10
114.1208922116
 20
86.4060989479
 10
114.1034594289
 20
86.3719070741
 10
114.0911615505
 20
86.3366580062
 10
114.0839985762
 20
86.300351744
 10
114.082560825
 20
86.27442246
  0
LWPOLYLINE
  5
4E7
100
AcDbEntity
  8
0
100
AcDbPolyline
 62
7
  6
CONTINUOUS
 90
13
 70
0
 10
113.700101726
 20
88.2217341668
 10
113.7215929468
 20
88.258889623
 10
113.748039696
 20
88.2932225616
 10
113.7794419738
 20
88.3247329826
 10
113.8163366869
 20
88.3534797539
 10
113.8581869285
 20
88.3794040077
 10
113.9033819782
 20
88.4023291404
 10
113.9517947649
 20
88.4218100322
 10
114.0035523597
 20
88.4382918029
 10
114.057425256
 20
88.4529332084
 10
114.1130036182
 20
88.4661205007
 10
114.1706972819
 20
88.4774674278
 10
114.230506247
 20
88.4869739897
  0
LWPOLYLINE
  5
4E8
100
AcDbEntity
  8
0
100
AcDbPolyline
 62
7
  6
CONTINUOUS
 90
13
 70
0
 10
113.700101726
 20
88.1870045313
 10
113.721586035
 20
88.2241521167
 10
113.7480264402
 20
88.258479361
 10
113.7794229418
 20
88.289986264
 10
113.8163118914
 20
88.3187322129
 10
113.8581569372
 20
88.3446578206
 10
113.903349024
 20
88.3675849263
 10
113.9517616162
 20
88.3870681557
 10
114.0035212494
 20
88.4035528832
 10
114.057398474
 20
88.4181970706
 10
114.1129834736
 20
88.4313867052
 10
114.1706860646
 20
88.4427357997
 10
114.230506247
 20
88.4522443541
  0
LINE
  5
4E9
100
AcDbEntity
  8
RACCORDO
100
AcDbLine
 62
253
  6
CONTINUOUS
 10
156.1894017917
 20
140.6190709781
 11
156.1845747489
 21
140.6140244444
  0
LWPOLYLINE
  5
4EA
100
AcDbEntity
  8
RACCORDO
100
AcDbPolyline
 62
253
  6
CONTINUOUS
 90
9
 70
0
 10
155.8999707004
 20
140.4686861025
 10
155.9358710543
 20
140.5058590587
 10
155.9695598663
 20
140.5430100437
 10
156.0000295491
 20
140.5790279213
 10
156.0263687954
 20
140.612835445
 10
156.0477898337
 20
140.6434214773
 10
156.0636519894
 20
140.6698712309
 10
156.0734808467
 20
140.6913936291
 10
156.0769824376
 20
140.7073449659
  0
LINE
  5
4EB
100
AcDbEntity
  8
RACCORDO
100
AcDbLine
 62
253
  6
CONTINUOUS
 10
155.8370705377
 20
140.5299433885
 11
156.0491944947
 21
140.7420673455
  0
LINE
  5
4EC
100
AcDbEntity
  8
RACCORDO
100
AcDbLine
 62
253
  6
CONTINUOUS
 10
160.9827138525
 20
145.6259099763
 11
160.7557637548
 21
145.3989598786
  0
LINE
  5
4ED
100
AcDbEntity
  8
RACCORDO
100
AcDbLine
 62
253
  6
CONTINUOUS
 10
99.8619089012
 20
84.505105025
 11
100.088858999
 21
84.7320551227
  0
LINE
  5
4EE
100
AcDbEntity
  8
RACCORDO
100
AcDbLine
 62
253
  6
CONTINUOUS
 10
156.0740520344
 20
140.7172481582
 11
156.088858999
 21
140.7320551227
  0
LWPOLYLINE
  5
4EF
100
AcDbEntity
  8
RACCORDO
100
AcDbPolyline
 62
253
  6
CONTINUOUS
 90
10
 70
0
 10
104.9757778345
 20
89.6710684116
 10
104.9360251729
 20
89.6315197082
 10
104.8976637665
 20
89.5915335944
 10
104.8620347391
 20
89.5525081754
 10
104.8303836067
 20
89.5158079077
 10
104.8038163023
 20
89.4827153832
 10
104.7832607996
 20
89.4543867004
 10
104.7694352625
 20
89.4318117686
 10
104.7628227063
 20
89.4157795272
 10
104.7636538711
 20
89.4068500077
  0
LINE
  5
4F0
100
AcDbEntity
  8
ASSI
100
AcDbLine
 62
7
  6
CONTINUOUS
 10
159.8004566209
 20
138.3376062127
 11
158.898598102
 21
137.5776047755
  0
LINE
  5
4F1
100
AcDbEntity
  8
ASSI
100
AcDbLine
 62
7
  6
CONTINUOUS
 10
158.898598102
 20
137.1828677755
 11
159.7586112449
 21
137.9076068959
  0
LINE
  5
4F2
100
AcDbEntity
  8
RACCORDO
100
AcDbLine
 62
253
  6
CONTINUOUS
 10
96.2574516868
 20
109.2667807312
 11
96.2785639462
 21
109.2724217232
  0
LINE
  5
4F3
100
AcDbEntity
  8
RACCORDO
100
AcDbLine
 62
253
  6
CONTINUOUS
 10
154.7196555739
 20
122.7638439918
 11
154.7411019014
 21
122.7680379667
  0
LINE
  5
4F4
100
AcDbEntity
  8
0
100
AcDbLine
 62
7
  6
CONTINUOUS
 10
171.725255102
 20
120.0125637755
 11
170.0963858164
 21
120.0125637755
  0
LINE
  5
4F5
100
AcDbEntity
  8
DRAFT
100
AcDbLine
 62
7
  6
CONTINUOUS
 10
170.0963858164
 20
120.0125637755
 11
168.6728473228
 21
120.0125637755
  0
LINE
  5
4F6
100
AcDbEntity
  8
DRAFT
100
AcDbLine
 62
7
  6
CONTINUOUS
 10
88.7776628813
 20
120.0125637755
 11
87.3541243876
 21
120.0125637755
  0
LINE
  5
4F7
100
AcDbEntity
  8
0
100
AcDbLine
 62
7
  6
CONTINUOUS
 10
87.3541243876
 20
120.0125637755
 11
85.725255102
 21
120.0125637755
  0
LINE
  5
4F8
100
AcDbEntity
  8
RACCORDO
100
AcDbLine
 62
253
  6
CONTINUOUS
 10
161.6368479731
 20
111.5498795584
 11
161.6153690938
 21
111.5538785662
  0
LINE
  5
4F9
100
AcDbEntity
  8
RACCORDO
100
AcDbLine
 62
253
  6
CONTINUOUS
 10
155.0749626667
 20
112.5891800902
 11
155.0964403464
 21
112.585173196
  0
LWPOLYLINE
  5
4FA
100
AcDbEntity
  8
RACCORDO
100
AcDbPolyline
 62
253
  6
CONTINUOUS
 90
19
 70
0
 10
96.5258377129
 20
140.8848142061
 10
96.5254111966
 20
140.8850879098
 10
96.5240893749
 20
140.8863899681
 10
96.521873853
 20
140.8887220093
 10
96.5187717526
 20
140.8920792556
 10
96.5147829547
 20
140.8964730179
 10
96.509900239
 20
140.9019307652
 10
96.5040583503
 20
140.9085429206
 10
96.4973382142
 20
140.9162327508
 10
96.4899519537
 20
140.9247767983
 10
96.4818571051
 20
140.9342442246
 10
96.4731145202
 20
140.9445809658
 10
96.4640854441
 20
140.9553734034
 10
96.454779011
 20
140.9666227138
 10
96.445197238
 20
140.9783358429
 10
96.4356803597
 20
140.9900990516
 10
96.4263394691
 20
141.00177212
 10
96.4170627753
 20
141.0134934619
 10
96.4078505513
 20
141.0252626831
  0
LWPOLYLINE
  5
4FB
100
AcDbEntity
  8
RACCORDO
100
AcDbPolyline
 62
253
  6
CONTINUOUS
 90
10
 70
0
 10
104.9757778345
 20
143.8540591394
 10
104.9360296865
 20
143.893603225
 10
104.8976711175
 20
143.9335860663
 10
104.8620431285
 20
143.9726098786
 10
104.8303912593
 20
144.0093104034
 10
104.8038220482
 20
144.042404605
 10
104.7832643472
 20
144.0707355253
 10
104.7694368467
 20
144.0933127268
 10
104.7628229502
 20
144.109346918
 10
104.7636538775
 20
144.1182775497
  0
LINE
  5
4FC
100
AcDbEntity
  8
RACCORDO
100
AcDbLine
 62
253
  6
CONTINUOUS
 10
155.8370705377
 20
92.9951841625
 11
156.0491944947
 21
92.7830602055
  0
LINE
  5
4FD
100
AcDbEntity
  8
RACCORDO
100
AcDbLine
 62
253
  6
CONTINUOUS
 10
99.8619089012
 20
149.020022526
 11
100.088858999
 21
148.7930724283
  0
LINE
  5
4FE
100
AcDbEntity
  8
RACCORDO
100
AcDbLine
 62
253
  6
CONTINUOUS
 10
160.9827138525
 20
87.8992175747
 11
160.7557637548
 21
88.1261676724
  0
LINE
  5
4FF
100
AcDbEntity
  8
RACCORDO
100
AcDbLine
 62
253
  6
CONTINUOUS
 10
156.0740520344
 20
92.8078793929
 11
156.088858999
 21
92.7930724283
  0
LWPOLYLINE
  5
500
100
AcDbEntity
  8
RACCORDO
100
AcDbPolyline
 62
253
  6
CONTINUOUS
 90
9
 70
0
 10
155.8999703228
 20
93.0564410868
 10
155.9358706577
 20
93.0192681751
 10
155.9695594749
 20
92.9821172291
 10
156.0000291892
 20
92.9460993821
 10
156.0263684942
 20
92.9122918778
 10
156.0477896181
 20
92.8817058518
 10
156.0636518851
 20
92.8552560895
 10
156.0734808769
 20
92.8337336665
 10
156.0769826222
 20
92.8177822884
  0
LINE
  5
501
100
AcDbEntity
  8
RACCORDO
100
AcDbLine
 62
253
  6
CONTINUOUS
 10
156.1845747489
 20
92.9111031066
 11
156.1894017917
 21
92.9060565729
  0
LINE
  5
502
100
AcDbEntity
  8
0
100
AcDbLine
 62
7
  6
CONTINUOUS
 10
149.183607102
 20
86.9107811218
 11
149.824991102
 21
85.7107398499
  0
LINE
  5
503
100
AcDbEntity
  8
DRAFT
100
AcDbLine
 62
7
  6
CONTINUOUS
 10
133.4772721415
 20
92.4517613566
 11
133.475255102
 21
94.3125637755
  0
LINE
  5
504
100
AcDbEntity
  8
DRAFT
100
AcDbLine
 62
7
  6
CONTINUOUS
 10
135.825255102
 20
141.0733661945
 11
135.825255102
 21
140.0625637755
  0
LINE
  5
505
100
AcDbEntity
  8
DRAFT
100
AcDbLine
 62
7
  6
CONTINUOUS
 10
135.825255102
 20
93.4625637755
 11
135.825255102
 21
92.4517613566
  0
LINE
  5
506
100
AcDbEntity
  8
DRAFT
100
AcDbLine
 62
7
  6
CONTINUOUS
 10
136.725255102
 20
142.7625637755
 11
136.725255102
 21
141.0733661945
  0
LINE
  5
507
100
AcDbEntity
  8
DRAFT
100
AcDbLine
 62
7
  6
CONTINUOUS
 10
136.725255102
 20
92.4517613566
 11
136.725255102
 21
90.7625637755
  0
LINE
  5
508
100
AcDbEntity
  8
DRAFT
100
AcDbLine
 62
7
  6
CONTINUOUS
 10
133.475255102
 20
139.2125637755
 11
133.4772721415
 21
141.0733661945
  0
LWPOLYLINE
  5
509
100
AcDbEntity
  8
RACCORDO
100
AcDbPolyline
 62
7
  6
CONTINUOUS
 90
10
 70
0
 10
156.1988753512
 20
140.1848391593
 10
156.2320911134
 20
140.2262745981
 10
156.2574799084
 20
140.2729179635
 10
156.274246109
 20
140.3233075583
 10
156.2818643007
 20
140.3758642873
 10
156.2800957465
 20
140.4289411419
 10
156.268995869
 20
140.4808748141
 10
156.2489125132
 20
140.5300378207
 10
156.2204750457
 20
140.5748895048
 10
156.1845746321
 20
140.6140243165
  0
LWPOLYLINE
  5
50A
100
AcDbEntity
  8
RACCORDO
100
AcDbPolyline
 62
7
  6
CONTINUOUS
 90
10
 70
0
 10
156.2169191553
 20
140.2048793598
 10
156.2152506028
 20
140.2028742991
 10
156.2135783595
 20
140.2008979332
 10
156.2119024252
 20
140.1989502621
 10
156.2102268254
 20
140.1970360502
 10
156.2085475347
 20
140.1951505332
 10
156.2068524775
 20
140.1932794181
 10
156.2051376286
 20
140.1914179407
 10
156.2034070133
 20
140.1895708651
 10
156.2016606315
 20
140.1877381916
  0
LINE
  5
50B
100
AcDbEntity
  8
RACCORDO
100
AcDbLine
 62
253
  6
CONTINUOUS
 10
98.8728880043
 20
80.2239013302
 11
98.7115504496
 21
80.0625637755
  0
LINE
  5
50C
100
AcDbEntity
  8
RACCORDO
100
AcDbLine
 62
7
  6
CONTINUOUS
 10
88.9960332115
 20
122.2849608171
 11
89.1124154415
 21
122.2869536245
  0
LINE
  5
50D
100
AcDbEntity
  8
RACCORDO
100
AcDbLine
 62
7
  6
CONTINUOUS
 10
90.2712694875
 20
122.2920701229
 11
90.2915677863
 21
122.2923800022
  0
LINE
  5
50E
100
AcDbEntity
  8
RACCORDO
100
AcDbLine
 62
7
  6
CONTINUOUS
 10
89.1124154415
 20
122.2869536245
 11
89.3516783274
 21
122.2895101735
  0
LINE
  5
50F
100
AcDbEntity
  8
RACCORDO
100
AcDbLine
 62
7
  6
CONTINUOUS
 10
90.2915677863
 20
122.2923800022
 11
90.3530447837
 21
122.2928834945
  0
LINE
  5
510
100
AcDbEntity
  8
RACCORDO
100
AcDbLine
 62
7
  6
CONTINUOUS
 10
90.3530447837
 20
122.2928834945
 11
90.396414567
 21
122.2931188626
  0
LINE
  5
511
100
AcDbEntity
  8
RACCORDO
100
AcDbLine
 62
7
  6
CONTINUOUS
 10
89.3516783274
 20
122.2895101735
 11
89.8905998017
 21
122.2923756531
  0
LINE
  5
512
100
AcDbEntity
  8
RACCORDO
100
AcDbLine
 62
7
  6
CONTINUOUS
 10
89.8905998017
 20
122.2923756531
 11
90.4540613814
 21
122.2931078128
  0
LINE
  5
513
100
AcDbEntity
  8
DRAFT
100
AcDbLine
 62
7
  6
CONTINUOUS
 10
88.7776628813
 20
122.2625637755
 11
90.225255102
 21
122.2625637755
  0
LINE
  5
514
100
AcDbEntity
  8
DRAFT
100
AcDbLine
 62
7
  6
CONTINUOUS
 10
106.725255102
 20
122.2625637755
 11
106.825255102
 21
122.2625637755
  0
LINE
  5
515
100
AcDbEntity
  8
DRAFT
100
AcDbLine
 62
7
  6
CONTINUOUS
 10
150.625255102
 20
122.2625637755
 11
150.725255102
 21
122.2625637755
  0
LINE
  5
516
100
AcDbEntity
  8
DRAFT
100
AcDbLine
 62
7
  6
CONTINUOUS
 10
167.225255102
 20
122.2625637755
 11
168.6728473228
 21
122.2625637755
  0
LINE
  5
517
100
AcDbEntity
  8
RACCORDO
100
AcDbLine
 62
7
  6
CONTINUOUS
 10
166.9964488227
 20
122.2931078128
 11
167.0659732452
 21
122.2931078128
  0
LINE
  5
518
100
AcDbEntity
  8
0
100
AcDbLine
 62
7
  6
CONTINUOUS
 10
161.2252549828
 20
97.507244657
 11
160.9752552213
 21
97.6987339959
  0
LINE
  5
519
100
AcDbEntity
  8
RACCORDO
100
AcDbLine
 62
253
  6
CONTINUOUS
 10
98.8728880043
 20
153.3012262208
 11
98.7115504496
 21
153.4625637755
  0
LWPOLYLINE
  5
51A
100
AcDbEntity
  8
RACCORDO
100
AcDbPolyline
 62
253
  6
CONTINUOUS
 90
3
 70
0
 10
160.9593407915
 20
93.0683364035
 10
160.9604800976
 20
93.0671972458
 10
160.9637796694
 20
93.0634923069
  0
LINE
  5
51B
100
AcDbEntity
  8
0
100
AcDbLine
 62
7
  6
CONTINUOUS
 10
156.412755102
 20
95.2093722776
 11
156.6627550871
 21
94.9540531367
  0
LINE
  5
51C
100
AcDbEntity
  8
0
100
AcDbLine
 62
7
  6
CONTINUOUS
 10
158.6002551616
 20
97.3157553181
 11
158.3502550424
 21
97.5710744366
  0
LWPOLYLINE
  5
51D
100
AcDbEntity
  8
RACCORDO
100
AcDbPolyline
 62
7
  6
CONTINUOUS
 90
10
 70
0
 10
156.2169187431
 20
93.3202486784
 10
156.2152503738
 20
93.3222535226
 10
156.2135782678
 20
93.3242297261
 10
156.2119024252
 20
93.3261772889
 10
156.2102268559
 20
93.3280914647
 10
156.2085475499
 20
93.3299769998
 10
156.2068524775
 20
93.3318481329
 10
156.2051376286
 20
93.3337096104
 10
156.2034070133
 20
93.3355566859
 10
156.2016606315
 20
93.3373893595
  0
LWPOLYLINE
  5
51E
100
AcDbEntity
  8
RACCORDO
100
AcDbPolyline
 62
7
  6
CONTINUOUS
 90
10
 70
0
 10
156.1988766587
 20
93.3402896454
 10
156.2320924974
 20
93.2988541422
 10
156.2574813154
 20
93.2522106653
 10
156.274247482
 20
93.2018209209
 10
156.2818655817
 20
93.1492640148
 10
156.2800968796
 20
93.0961869675
 10
156.2689968029
 20
93.044253099
 10
156.2489132043
 20
92.995089905
 10
156.2204754604
 20
92.9502380541
 10
156.1845747489
 20
92.9111031066
  0
LINE
  5
51F
100
AcDbEntity
  8
0
100
AcDbLine
 62
7
  6
CONTINUOUS
 10
150.5314414784
 20
85.7030312064
 11
149.8646058927
 21
86.9507008798
  0
LINE
  5
520
100
AcDbEntity
  8
0
100
AcDbLine
 62
7
  6
CONTINUOUS
 10
150.545879102
 20
85.7107476087
 11
149.8646058927
 21
86.9854305153
  0
LINE
  5
521
100
AcDbEntity
  8
0
100
AcDbLine
 62
7
  6
CONTINUOUS
 10
146.210727102
 20
87.8477612804
 11
146.520911102
 21
86.9107811218
  0
LINE
  5
522
100
AcDbEntity
  8
0
100
AcDbLine
 62
7
  6
CONTINUOUS
 10
146.716143102
 20
86.3210912888
 11
146.918191102
 21
85.7107398499
  0
LINE
  5
523
100
AcDbEntity
  8
0
100
AcDbLine
 62
7
  6
CONTINUOUS
 10
141.946327102
 20
87.7573793631
 11
142.551431102
 21
85.7107320912
  0
LINE
  5
524
100
AcDbEntity
  8
0
100
AcDbLine
 62
7
  6
CONTINUOUS
 10
142.871439102
 20
86.7584440433
 11
142.273847102
 21
88.7796503068
  0
LINE
  5
525
100
AcDbEntity
  8
0
100
AcDbLine
 62
7
  6
CONTINUOUS
 10
142.871439102
 20
86.7931736788
 11
142.273847102
 21
88.8143799423
  0
LINE
  5
526
100
AcDbEntity
  8
0
100
AcDbLine
 62
7
  6
CONTINUOUS
 10
137.544663102
 20
88.8143799423
 11
137.544663102
 21
88.7796503068
  0
LINE
  5
527
100
AcDbEntity
  8
0
100
AcDbLine
 62
7
  6
CONTINUOUS
 10
137.716244102
 20
146.5397733927
 11
137.716244102
 21
144.988019296
  0
LINE
  5
528
100
AcDbEntity
  8
RACCORDO
100
AcDbLine
 62
253
  6
CONTINUOUS
 10
137.725255102
 20
90.8079607758
 11
137.725255102
 21
92.3787794639
  0
LINE
  5
529
100
AcDbEntity
  8
RACCORDO
100
AcDbLine
 62
253
  6
CONTINUOUS
 10
137.725255102
 20
141.1463480872
 11
137.725255102
 21
142.7171667752
  0
LINE
  5
52A
100
AcDbEntity
  8
0
100
AcDbLine
 62
7
  6
CONTINUOUS
 10
137.932398102
 20
144.988019296
 11
137.932398102
 21
145.6776347431
  0
LINE
  5
52B
100
AcDbEntity
  8
0
100
AcDbLine
 62
7
  6
CONTINUOUS
 10
137.932398102
 20
145.8222791525
 11
137.932398102
 21
146.3951299531
  0
LINE
  5
52C
100
AcDbEntity
  8
DRAFT
100
AcDbLine
 62
7
  6
CONTINUOUS
 10
138.125255102
 20
141.1463480872
 11
138.125255102
 21
140.0625637755
  0
LINE
  5
52D
100
AcDbEntity
  8
DRAFT
100
AcDbLine
 62
7
  6
CONTINUOUS
 10
138.125255102
 20
93.4625637755
 11
138.125255102
 21
92.3787794639
  0
LINE
  5
52E
100
AcDbEntity
  8
0
100
AcDbLine
 62
7
  6
CONTINUOUS
 10
138.252119102
 20
86.677350753
 11
138.252119102
 21
86.6426211175
  0
LINE
  5
52F
100
AcDbEntity
  8
0
100
AcDbLine
 62
253
  6
CONTINUOUS
 10
138.3714035812
 20
146.3604003175
 11
138.3714035812
 21
146.3951299531
  0
LINE
  5
530
100
AcDbEntity
  8
0
100
AcDbLine
 62
253
  6
CONTINUOUS
 10
138.4359365964
 20
145.6429051076
 11
138.4359365964
 21
145.6776347431
  0
LINE
  5
531
100
AcDbEntity
  8
0
100
AcDbLine
 62
7
  6
CONTINUOUS
 10
138.959567102
 20
88.8143799423
 11
138.959567102
 21
88.7796503068
  0
LINE
  5
532
100
AcDbEntity
  8
0
100
AcDbLine
 62
7
  6
CONTINUOUS
 10
139.264953102
 20
144.988019296
 11
139.264953102
 21
145.0227489316
  0
LINE
  5
533
100
AcDbEntity
  8
0
100
AcDbLine
 62
7
  6
CONTINUOUS
 10
139.432090102
 20
145.4397620693
 11
139.432090102
 21
145.4744917048
  0
LINE
  5
534
100
AcDbEntity
  8
0
100
AcDbLine
 62
7
  6
CONTINUOUS
 10
139.757423102
 20
146.3147050388
 11
139.757423102
 21
146.3494346743
  0
LINE
  5
535
100
AcDbEntity
  8
0
100
AcDbLine
 62
7
  6
CONTINUOUS
 10
140.026279102
 20
88.8143799423
 11
140.026271102
 21
85.7107243324
  0
LINE
  5
536
100
AcDbEntity
  8
0
100
AcDbLine
 62
7
  6
CONTINUOUS
 10
140.073859102
 20
145.4397620693
 11
140.073859102
 21
145.4744917048
  0
LINE
  5
537
100
AcDbEntity
  8
0
100
AcDbLine
 62
7
  6
CONTINUOUS
 10
140.232154102
 20
144.988019296
 11
140.232154102
 21
145.0227489316
  0
LINE
  5
538
100
AcDbEntity
  8
0
100
AcDbLine
 62
7
  6
CONTINUOUS
 10
140.528403102
 20
146.5397733927
 11
140.528403102
 21
146.3539062267
  0
LWPOLYLINE
  5
539
100
AcDbEntity
  8
0
100
AcDbPolyline
 62
7
  6
CONTINUOUS
 90
3
 70
0
 10
138.6873227941
 20
146.0913395836
 10
138.687148152
 20
146.050608593
 10
138.6817914759
 20
146.0126460428
  0
LWPOLYLINE
  5
53A
100
AcDbEntity
  8
0
100
AcDbPolyline
 62
7
  6
CONTINUOUS
 90
13
 70
0
 10
138.9100120261
 20
146.0913395836
 10
138.9059619013
 20
146.0260908325
 10
138.8948610247
 20
145.9650349926
 10
138.8767093965
 20
145.9081720637
 10
138.8511370865
 20
145.8547601068
 10
138.8185140249
 20
145.8055410611
 10
138.7799500013
 20
145.7627407434
 10
138.7354478582
 20
145.7271854872
 10
138.6850047531
 20
145.698048959
 10
138.6297219481
 20
145.6750779752
 10
138.5699665307
 20
145.6581881415
 10
138.5053714135
 20
145.6474638523
 10
138.4359365964
 20
145.6429051076
  0
LINE
  5
53B
100
AcDbEntity
  8
RACCORDO
100
AcDbLine
 62
7
  6
CONTINUOUS
 10
156.2168072394
 20
140.2047470903
 11
156.2275119939
 21
140.2205623153
  0
LINE
  5
53C
100
AcDbEntity
  8
RACCORDO
100
AcDbLine
 62
7
  6
CONTINUOUS
 10
156.2350178226
 20
140.2316514411
 11
156.2391778568
 21
140.2377974837
  0
LWPOLYLINE
  5
53D
100
AcDbEntity
  8
RACCORDO
100
AcDbPolyline
 62
253
  6
CONTINUOUS
 90
19
 70
0
 10
161.0426596527
 20
141.0252626831
 10
161.0334637768
 20
141.0135142011
 10
161.0242001126
 20
141.0018090154
 10
161.0148688722
 20
140.990147566
 10
161.0053577437
 20
140.9783908968
 10
160.9957782161
 20
140.9666798681
 10
160.9864718621
 20
140.9554300225
 10
160.9774406844
 20
140.9446344717
 10
160.968693766
 20
140.9342920374
 10
160.9605936856
 20
140.9248180128
 10
160.9532012073
 20
140.9162663822
 10
160.9464739488
 20
140.9085680716
 10
160.9406256657
 20
140.9019484254
 10
160.9357377249
 20
140.8964846625
 10
160.9317444636
 20
140.892085846
 10
160.928639039
 20
140.8887248776
 10
160.9264214642
 20
140.8863905644
 10
160.9250987455
 20
140.8850875511
 10
160.9246724912
 20
140.8848142061
  0
LINE
  5
53E
100
AcDbEntity
  8
RACCORDO
100
AcDbLine
 62
253
  6
CONTINUOUS
 10
161.2793601295
 20
140.8409639296
 11
161.2283799273
 21
140.7782163635
  0
LINE
  5
53F
100
AcDbEntity
  8
RACCORDO
100
AcDbLine
 62
253
  6
CONTINUOUS
 10
161.2283799273
 20
140.7782163635
 11
161.1499805379
 21
140.6828211727
  0
LINE
  5
540
100
AcDbEntity
  8
RACCORDO
100
AcDbLine
 62
253
  6
CONTINUOUS
 10
161.1499805379
 20
140.6828211727
 11
161.0998169111
 21
140.6224185803
  0
LINE
  5
541
100
AcDbEntity
  8
RACCORDO
100
AcDbLine
 62
253
  6
CONTINUOUS
 10
161.0998169111
 20
140.6224185803
 11
161.0344214683
 21
140.5444524113
  0
LINE
  5
542
100
AcDbEntity
  8
RACCORDO
100
AcDbLine
 62
253
  6
CONTINUOUS
 10
161.0344214683
 20
140.5444524113
 11
160.9879644514
 21
140.4897006138
  0
LWPOLYLINE
  5
543
100
AcDbEntity
  8
RACCORDO
100
AcDbPolyline
 62
253
  6
CONTINUOUS
 90
5
 70
0
 10
160.9879644514
 20
140.4897006138
 10
160.9693769214
 20
140.4680703261
 10
160.9637822406
 20
140.4616381664
 10
160.9604806125
 20
140.4579308662
 10
160.9593407915
 20
140.4567911475
  0
LINE
  5
544
100
AcDbEntity
  8
RACCORDO
100
AcDbLine
 62
253
  6
CONTINUOUS
 10
168.5639175473
 20
143.3149308733
 11
168.725255102
 21
143.476268428
  0
LWPOLYLINE
  5
545
100
AcDbEntity
  8
RACCORDO
100
AcDbPolyline
 62
7
  6
CONTINUOUS
 90
5
 70
0
 10
90.2540689968
 20
122.2913776703
 10
90.2553885192
 20
122.2915588736
 10
90.2586801519
 20
122.2917344177
 10
90.2639438949
 20
122.2919043026
 10
90.2712694875
 20
122.2920701229
  0
LWPOLYLINE
  5
546
100
AcDbEntity
  8
RACCORDO
100
AcDbPolyline
 62
7
  6
CONTINUOUS
 90
5
 70
0
 10
88.8865926568
 20
122.2807026045
 10
88.8982095851
 20
122.2817942935
 10
88.9202345944
 20
122.2828660416
 10
88.9526676847
 20
122.2839178487
 10
88.9960332115
 20
122.2849608171
  0
LINE
  5
547
100
AcDbEntity
  8
DRAFT
100
AcDbLine
 62
7
  6
CONTINUOUS
 10
150.725255102
 20
125.2625637755
 11
150.625255102
 21
125.2625637755
  0
LINE
  5
548
100
AcDbEntity
  8
DRAFT
100
AcDbLine
 62
7
  6
CONTINUOUS
 10
106.825255102
 20
125.2625637755
 11
106.725255102
 21
125.2625637755
  0
LINE
  5
549
100
AcDbEntity
  8
RACCORDO
100
AcDbLine
 62
7
  6
CONTINUOUS
 10
95.225255102
 20
128.0125637755
 11
104.725255102
 21
128.0125637755
  0
LINE
  5
54A
100
AcDbEntity
  8
RACCORDO
100
AcDbLine
 62
7
  6
CONTINUOUS
 10
152.725255102
 20
128.0125637755
 11
162.225255102
 21
128.0125637755
  0
LINE
  5
54B
100
AcDbEntity
  8
DRAFT
100
AcDbLine
 62
7
  6
CONTINUOUS
 10
106.725255102
 20
128.5125637755
 11
106.825255102
 21
128.5125637755
  0
LINE
  5
54C
100
AcDbEntity
  8
DRAFT
100
AcDbLine
 62
7
  6
CONTINUOUS
 10
150.625255102
 20
128.5125637755
 11
150.725255102
 21
128.5125637755
  0
LINE
  5
54D
100
AcDbEntity
  8
RACCORDO
100
AcDbLine
 62
253
  6
CONTINUOUS
 10
168.5639175473
 20
90.2101966778
 11
168.725255102
 21
90.0488591231
  0
LINE
  5
54E
100
AcDbEntity
  8
0
100
AcDbLine
 62
7
  6
CONTINUOUS
 10
160.912755102
 20
97.3795850978
 11
161.0377549828
 21
97.2519255385
  0
LINE
  5
54F
100
AcDbEntity
  8
RACCORDO
100
AcDbLine
 62
253
  6
CONTINUOUS
 10
160.9637796694
 20
93.0634923069
 11
160.9773967814
 21
93.0477559577
  0
LINE
  5
550
100
AcDbEntity
  8
RACCORDO
100
AcDbLine
 62
253
  6
CONTINUOUS
 10
160.9773967814
 20
93.0477559577
 11
161.0009356627
 21
93.0201990629
  0
LINE
  5
551
100
AcDbEntity
  8
RACCORDO
100
AcDbLine
 62
253
  6
CONTINUOUS
 10
161.0009356627
 20
93.0201990629
 11
161.0543103698
 21
92.9570565145
  0
LINE
  5
552
100
AcDbEntity
  8
RACCORDO
100
AcDbLine
 62
253
  6
CONTINUOUS
 10
161.0543103698
 20
92.9570565145
 11
161.1243644422
 21
92.8732203584
  0
LINE
  5
553
100
AcDbEntity
  8
RACCORDO
100
AcDbLine
 62
253
  6
CONTINUOUS
 10
161.1243644422
 20
92.8732203584
 11
161.2022020612
 21
92.7789013722
  0
LWPOLYLINE
  5
554
100
AcDbEntity
  8
RACCORDO
100
AcDbPolyline
 62
253
  6
CONTINUOUS
 90
3
 70
0
 10
161.2022020612
 20
92.7789013722
 10
161.2540820341
 20
92.7153554599
 10
161.2793601295
 20
92.6841636215
  0
LINE
  5
555
100
AcDbEntity
  8
RACCORDO
100
AcDbLine
 62
7
  6
CONTINUOUS
 10
156.2391778568
 20
93.2873300673
 11
156.2350281735
 21
93.2934608174
  0
LINE
  5
556
100
AcDbEntity
  8
RACCORDO
100
AcDbLine
 62
7
  6
CONTINUOUS
 10
156.227499332
 20
93.3045839424
 11
156.2168072394
 21
93.3203804607
  0
LINE
  5
557
100
AcDbEntity
  8
0
100
AcDbLine
 62
7
  6
CONTINUOUS
 10
156.787755102
 20
95.3370318815
 11
156.6627550871
 21
95.5285212204
  0
LINE
  5
558
100
AcDbEntity
  8
0
100
AcDbLine
 62
7
  6
CONTINUOUS
 10
147.5478614435
 20
85.7073018681
 11
146.530759102
 21
88.7796580655
  0
LINE
  5
559
100
AcDbEntity
  8
0
100
AcDbLine
 62
7
  6
CONTINUOUS
 10
147.558223102
 20
85.7107320912
 11
146.530759102
 21
88.8143877011
  0
LINE
  5
55A
100
AcDbEntity
  8
0
100
AcDbLine
 62
7
  6
CONTINUOUS
 10
138.9060133766
 20
146.1559034332
 11
138.9100120261
 21
146.0913395836
  0
LINE
  5
55B
100
AcDbEntity
  8
0
100
AcDbLine
 62
7
  6
CONTINUOUS
 10
140.666295102
 20
85.7107320912
 11
140.666303102
 21
88.8143799423
  0
LINE
  5
55C
100
AcDbEntity
  8
0
100
AcDbLine
 62
7
  6
CONTINUOUS
 10
141.069864102
 20
144.988019296
 11
141.069864102
 21
146.3886358622
  0
LINE
  5
55D
100
AcDbEntity
  8
0
100
AcDbLine
 62
7
  6
CONTINUOUS
 10
141.286019102
 20
144.988019296
 11
141.286019102
 21
146.3886358622
  0
LINE
  5
55E
100
AcDbEntity
  8
0
100
AcDbLine
 62
7
  6
CONTINUOUS
 10
141.306303102
 20
88.8143799423
 11
141.306303102
 21
85.7107320912
  0
LINE
  5
55F
100
AcDbEntity
  8
DRAFT
100
AcDbLine
 62
7
  6
CONTINUOUS
 10
141.325255102
 20
141.1463480872
 11
141.325255102
 21
140.0625637755
  0
LINE
  5
560
100
AcDbEntity
  8
DRAFT
100
AcDbLine
 62
7
  6
CONTINUOUS
 10
141.325255102
 20
93.4625637755
 11
141.325255102
 21
92.3787794639
  0
LINE
  5
561
100
AcDbEntity
  8
RACCORDO
100
AcDbLine
 62
253
  6
CONTINUOUS
 10
141.725255102
 20
142.7171667752
 11
141.725255102
 21
141.1463480872
  0
LINE
  5
562
100
AcDbEntity
  8
RACCORDO
100
AcDbLine
 62
253
  6
CONTINUOUS
 10
141.725255102
 20
92.3787794639
 11
141.725255102
 21
90.8079607758
  0
LINE
  5
563
100
AcDbEntity
  8
0
100
AcDbLine
 62
7
  6
CONTINUOUS
 10
141.827479102
 20
146.3539062267
 11
141.827479102
 21
146.5397733927
  0
LINE
  5
564
100
AcDbEntity
  8
0
100
AcDbLine
 62
7
  6
CONTINUOUS
 10
141.946327102
 20
85.7107320912
 11
141.946327102
 21
87.7573793631
  0
LINE
  5
565
100
AcDbEntity
  8
0
100
AcDbLine
 62
7
  6
CONTINUOUS
 10
142.052604102
 20
145.2171377281
 11
142.052604102
 21
144.988019296
  0
LINE
  5
566
100
AcDbEntity
  8
0
100
AcDbLine
 62
7
  6
CONTINUOUS
 10
142.273847102
 20
88.8143799423
 11
142.273847102
 21
88.7796503068
  0
LINE
  5
567
100
AcDbEntity
  8
0
100
AcDbLine
 62
7
  6
CONTINUOUS
 10
142.284297102
 20
144.988019296
 11
142.284297102
 21
145.2171377281
  0
LINE
  5
568
100
AcDbEntity
  8
DRAFT
100
AcDbLine
 62
7
  6
CONTINUOUS
 10
142.725255102
 20
90.7625637755
 11
142.725255102
 21
92.4517613566
  0
LINE
  5
569
100
AcDbEntity
  8
DRAFT
100
AcDbLine
 62
7
  6
CONTINUOUS
 10
142.725255102
 20
141.0733661945
 11
142.725255102
 21
142.7625637755
  0
LINE
  5
56A
100
AcDbEntity
  8
0
100
AcDbLine
 62
7
  6
CONTINUOUS
 10
142.871439102
 20
86.7931736788
 11
142.871439102
 21
86.7584440433
  0
LINE
  5
56B
100
AcDbEntity
  8
0
100
AcDbLine
 62
7
  6
CONTINUOUS
 10
143.289272102
 20
146.5397733927
 11
143.289272102
 21
144.988019296
  0
LINE
  5
56C
100
AcDbEntity
  8
0
100
AcDbLine
 62
7
  6
CONTINUOUS
 10
143.469031102
 20
88.8143799423
 11
143.469031102
 21
88.7796503068
  0
LINE
  5
56D
100
AcDbEntity
  8
0
100
AcDbLine
 62
7
  6
CONTINUOUS
 10
143.505426102
 20
144.988019296
 11
143.505426102
 21
145.6776347431
  0
LINE
  5
56E
100
AcDbEntity
  8
0
100
AcDbLine
 62
7
  6
CONTINUOUS
 10
143.505426102
 20
145.8222791525
 11
143.505426102
 21
146.3951299531
  0
LINE
  5
56F
100
AcDbEntity
  8
DRAFT
100
AcDbLine
 62
7
  6
CONTINUOUS
 10
143.625255102
 20
141.0733661945
 11
143.625255102
 21
140.0625637755
  0
LINE
  5
570
100
AcDbEntity
  8
DRAFT
100
AcDbLine
 62
7
  6
CONTINUOUS
 10
143.625255102
 20
93.4625637755
 11
143.625255102
 21
92.4517613566
  0
LINE
  5
571
100
AcDbEntity
  8
0
100
AcDbLine
 62
7
  6
CONTINUOUS
 10
143.796543102
 20
87.7573793631
 11
143.796551102
 21
85.7107320912
  0
LINE
  5
572
100
AcDbEntity
  8
0
100
AcDbLine
 62
253
  6
CONTINUOUS
 10
143.9444316112
 20
146.3604003175
 11
143.9444316112
 21
146.3951299531
  0
LINE
  5
573
100
AcDbEntity
  8
0
100
AcDbLine
 62
253
  6
CONTINUOUS
 10
144.0089646264
 20
145.6429051076
 11
144.0089646264
 21
145.6776347431
  0
LINE
  5
574
100
AcDbEntity
  8
ASSI
100
AcDbLine
 62
7
  6
CONTINUOUS
 10
159.889288102
 20
134.7716077755
 11
160.057018102
 21
135.0093907755
  0
LINE
  5
575
100
AcDbEntity
  8
RACCORDO
100
AcDbLine
 62
7
  6
CONTINUOUS
 10
88.8865926568
 20
122.2807026045
 11
88.7776628813
 21
122.2625637755
  0
LINE
  5
576
100
AcDbEntity
  8
0
100
AcDbLine
 62
7
  6
CONTINUOUS
 10
95.902023102
 20
128.7539347755
 11
96.163408102
 21
128.7539347755
  0
LINE
  5
577
100
AcDbEntity
  8
0
100
AcDbLine
 62
7
  6
CONTINUOUS
 10
97.1465745585
 20
128.7539347755
 11
97.4139006497
 21
128.7539347755
  0
LINE
  5
578
100
AcDbEntity
  8
0
100
AcDbLine
 62
7
  6
CONTINUOUS
 10
102.0579197703
 20
128.7539347755
 11
102.370071846
 21
128.7539347755
  0
LINE
  5
579
100
AcDbEntity
  8
0
100
AcDbLine
 62
7
  6
CONTINUOUS
 10
96.849545102
 20
130.6044257755
 11
97.8891471747
 21
130.6044257755
  0
LINE
  5
57A
100
AcDbEntity
  8
0
100
AcDbLine
 62
7
  6
CONTINUOUS
 10
101.7786258129
 20
130.6104181873
 11
102.9406081496
 21
130.6104181873
  0
LINE
  5
57B
100
AcDbEntity
  8
ASSI
100
AcDbLine
 62
7
  6
CONTINUOUS
 10
169.525255102
 20
130.7625637755
 11
167.0659732452
 21
130.7625637755
  0
LINE
  5
57C
100
AcDbEntity
  8
ASSI
100
AcDbLine
 62
7
  6
CONTINUOUS
 10
90.3845369589
 20
130.7625637755
 11
87.925255102
 21
130.7625637755
  0
LINE
  5
57D
100
AcDbEntity
  8
0
100
AcDbLine
 62
7
  6
CONTINUOUS
 10
98.224790102
 20
130.8539297755
 11
96.849545102
 21
130.8539297755
  0
LINE
  5
57E
100
AcDbEntity
  8
0
100
AcDbLine
 62
7
  6
CONTINUOUS
 10
103.2572409449
 20
130.8792572962
 11
101.7786258129
 21
130.8792572962
  0
LINE
  5
57F
100
AcDbEntity
  8
0
100
AcDbLine
 62
7
  6
CONTINUOUS
 10
96.163408102
 20
130.8895737755
 11
95.9949376796
 21
130.8895737755
  0
LINE
  5
580
100
AcDbEntity
  8
DRAFT
100
AcDbLine
 62
7
  6
CONTINUOUS
 10
150.725255102
 20
131.5125637755
 11
150.625255102
 21
131.5125637755
  0
LINE
  5
581
100
AcDbEntity
  8
DRAFT
100
AcDbLine
 62
7
  6
CONTINUOUS
 10
106.825255102
 20
131.5125637755
 11
106.725255102
 21
131.5125637755
  0
LINE
  5
582
100
AcDbEntity
  8
RACCORDO
100
AcDbLine
 62
7
  6
CONTINUOUS
 10
168.5639175473
 20
122.2807026045
 11
168.6728473228
 21
122.2625637755
  0
LINE
  5
583
100
AcDbEntity
  8
0
100
AcDbLine
 62
7
  6
CONTINUOUS
 10
161.4127549828
 20
97.2519255385
 11
161.2252549828
 21
97.507244657
  0
LINE
  5
584
100
AcDbEntity
  8
0
100
AcDbLine
 62
7
  6
CONTINUOUS
 10
156.2877551039
 20
95.4646914408
 11
156.412755102
 21
95.2093722776
  0
LWPOLYLINE
  5
585
100
AcDbEntity
  8
0
100
AcDbPolyline
 62
7
  6
CONTINUOUS
 90
3
 70
0
 10
144.4830400561
 20
146.0913395836
 10
144.4789904694
 20
146.1565842942
 10
144.4678909422
 20
146.2176367471
  0
LWPOLYLINE
  5
586
100
AcDbEntity
  8
0
100
AcDbPolyline
 62
7
  6
CONTINUOUS
 90
13
 70
0
 10
144.2603508241
 20
146.0913395836
 10
144.260176182
 20
146.1320705741
 10
144.2548195059
 20
146.1700331243
 10
144.2442807958
 20
146.2052272341
 10
144.2283901172
 20
146.2381140559
 10
144.2073174046
 20
146.2682324373
 10
144.1815724614
 20
146.2941989214
 10
144.1507909822
 20
146.3155390503
 10
144.1153372724
 20
146.332727282
 10
144.0768140509
 20
146.3458035329
 10
144.0357555575
 20
146.3547811085
 10
143.9916275525
 20
146.3596467034
 10
143.9444300359
 20
146.3604003175
  0
LINE
  5
587
100
AcDbEntity
  8
0
100
AcDbLine
 62
7
  6
CONTINUOUS
 10
144.436575102
 20
85.7107320912
 11
144.436575102
 21
88.8143799423
  0
LINE
  5
588
100
AcDbEntity
  8
0
100
AcDbLine
 62
7
  6
CONTINUOUS
 10
144.775572102
 20
146.5397733927
 11
144.775572102
 21
144.988019296
  0
LINE
  5
589
100
AcDbEntity
  8
0
100
AcDbLine
 62
7
  6
CONTINUOUS
 10
144.991727102
 20
145.1738874319
 11
144.991727102
 21
145.7272569296
  0
LINE
  5
58A
100
AcDbEntity
  8
0
100
AcDbLine
 62
7
  6
CONTINUOUS
 10
144.991727102
 20
145.8783944601
 11
144.991727102
 21
146.3886358622
  0
LINE
  5
58B
100
AcDbEntity
  8
0
100
AcDbLine
 62
7
  6
CONTINUOUS
 10
145.867590102
 20
145.6925272941
 11
145.867590102
 21
145.8783944601
  0
LINE
  5
58C
100
AcDbEntity
  8
0
100
AcDbLine
 62
7
  6
CONTINUOUS
 10
145.890703102
 20
88.8143877011
 11
145.890703102
 21
88.7796580655
  0
LINE
  5
58D
100
AcDbEntity
  8
0
100
AcDbLine
 62
7
  6
CONTINUOUS
 10
145.900559102
 20
86.9107811218
 11
145.900559102
 21
86.8760514863
  0
LINE
  5
58E
100
AcDbEntity
  8
0
100
AcDbLine
 62
7
  6
CONTINUOUS
 10
145.941115102
 20
146.3539062267
 11
145.941115102
 21
146.5397733927
  0
LINE
  5
58F
100
AcDbEntity
  8
0
100
AcDbLine
 62
7
  6
CONTINUOUS
 10
145.956654102
 20
144.988019296
 11
145.956654102
 21
145.1738874319
  0
LINE
  5
590
100
AcDbEntity
  8
DRAFT
100
AcDbLine
 62
7
  6
CONTINUOUS
 10
145.975255102
 20
92.4517613566
 11
145.975255102
 21
94.3125637755
  0
LINE
  5
591
100
AcDbEntity
  8
DRAFT
100
AcDbLine
 62
7
  6
CONTINUOUS
 10
145.975255102
 20
139.2125637755
 11
145.975255102
 21
141.0733661945
  0
LINE
  5
592
100
AcDbEntity
  8
0
100
AcDbLine
 62
7
  6
CONTINUOUS
 10
146.239639102
 20
146.5397733927
 11
146.239639102
 21
144.988019296
  0
LINE
  5
593
100
AcDbEntity
  8
0
100
AcDbLine
 62
7
  6
CONTINUOUS
 10
146.449098102
 20
144.988019296
 11
146.449098102
 21
146.2830962168
  0
LINE
  5
594
100
AcDbEntity
  8
0
100
AcDbLine
 62
7
  6
CONTINUOUS
 10
146.520911102
 20
86.9107811218
 11
146.520911102
 21
86.8760514863
  0
LINE
  5
595
100
AcDbEntity
  8
0
100
AcDbLine
 62
7
  6
CONTINUOUS
 10
146.530759102
 20
88.8143877011
 11
146.530759102
 21
88.7796580655
  0
LINE
  5
596
100
AcDbEntity
  8
0
100
AcDbLine
 62
7
  6
CONTINUOUS
 10
147.300326102
 20
146.5397733927
 11
147.300326102
 21
145.2793116655
  0
LINE
  5
597
100
AcDbEntity
  8
0
100
AcDbLine
 62
7
  6
CONTINUOUS
 10
147.509785102
 20
144.988019296
 11
147.509785102
 21
146.5397733927
  0
LINE
  5
598
100
AcDbEntity
  8
0
100
AcDbLine
 62
7
  6
CONTINUOUS
 10
147.859599102
 20
146.5397733927
 11
147.859599102
 21
144.988019296
  0
LINE
  5
599
100
AcDbEntity
  8
0
100
AcDbLine
 62
7
  6
CONTINUOUS
 10
147.984903102
 20
88.8143877011
 11
147.984903102
 21
85.7107398499
  0
LINE
  5
59A
100
AcDbEntity
  8
0
100
AcDbLine
 62
7
  6
CONTINUOUS
 10
138.959567102
 20
88.8143799423
 11
138.252119102
 21
86.677350753
  0
LINE
  5
59B
100
AcDbEntity
  8
0
100
AcDbLine
 62
7
  6
CONTINUOUS
 10
138.959567102
 20
88.7796503068
 11
138.252119102
 21
86.6426211175
  0
LINE
  5
59C
100
AcDbEntity
  8
0
100
AcDbLine
 62
7
  6
CONTINUOUS
 10
138.572135102
 20
85.7107320912
 11
139.599599102
 21
88.8143799423
  0
LINE
  5
59D
100
AcDbEntity
  8
RACCORDO
100
AcDbLine
 62
7
  6
CONTINUOUS
 10
156.2573941631
 20
140.2711647598
 11
156.271245578
 21
140.30441433
  0
LINE
  5
59E
100
AcDbEntity
  8
ASSI
100
AcDbLine
 62
7
  6
CONTINUOUS
 10
157.9810770049
 20
135.9366776025
 11
158.1290341899
 21
136.200289932
  0
LINE
  5
59F
100
AcDbEntity
  8
0
100
AcDbLine
 62
7
  6
CONTINUOUS
 10
110.807504102
 20
89.940887081
 11
109.759200102
 21
89.4994780202
  0
LINE
  5
5A0
100
AcDbEntity
  8
0
100
AcDbLine
 62
7
  6
CONTINUOUS
 10
110.807504102
 20
89.9061574454
 11
109.759200102
 21
89.4647483846
  0
LINE
  5
5A1
100
AcDbEntity
  8
0
100
AcDbLine
 62
7
  6
CONTINUOUS
 10
109.523639102
 20
88.6315819539
 11
110.575560102
 21
89.0745127036
  0
LINE
  5
5A2
100
AcDbEntity
  8
0
100
AcDbLine
 62
7
  6
CONTINUOUS
 10
113.672547102
 20
89.940887081
 11
112.650482102
 21
89.5105274792
  0
LINE
  5
5A3
100
AcDbEntity
  8
0
100
AcDbLine
 62
7
  6
CONTINUOUS
 10
113.672547102
 20
89.9061574454
 11
112.650482102
 21
89.4757978437
  0
LINE
  5
5A4
100
AcDbEntity
  8
0
100
AcDbLine
 62
7
  6
CONTINUOUS
 10
110.418264102
 20
88.4869739897
 11
109.349811102
 21
88.0370816832
  0
LINE
  5
5A5
100
AcDbEntity
  8
0
100
AcDbLine
 62
7
  6
CONTINUOUS
 10
110.418264102
 20
88.4522443541
 11
109.349811102
 21
88.0023520477
  0
LINE
  5
5A6
100
AcDbEntity
  8
ASSI
100
AcDbLine
 62
7
  6
CONTINUOUS
 10
158.271323102
 20
135.7921307755
 11
159.183342102
 21
135.7921307755
  0
LWPOLYLINE
  5
5A7
100
AcDbEntity
  8
RACCORDO
100
AcDbPolyline
 62
253
  6
CONTINUOUS
 90
25
 70
0
 10
103.7252551021
 20
149.5134935293
 10
103.9656601729
 20
149.3991078686
 10
104.1965666116
 20
149.2655150122
 10
104.4164120998
 20
149.1134682052
 10
104.6237437376
 20
148.9438010485
 10
104.8170634422
 20
148.7575625589
 10
104.9948800118
 20
148.5560528584
 10
105.1559475759
 20
148.3405712328
 10
105.2991638018
 20
148.1124702789
 10
105.4234710588
 20
147.8733311643
 10
105.5279997116
 20
147.6247279204
 10
105.6120220223
 20
147.368275955
 10
105.6749294919
 20
147.1057394511
 10
105.7162719431
 20
146.8389030477
 10
105.7357613148
 20
146.5694855513
 10
105.7332458009
 20
146.2992019224
 10
105.7086948329
 20
146.0298353304
 10
105.662226094
 20
145.7631971663
 10
105.5941040456
 20
145.5010408518
 10
105.5047177916
 20
145.245093627
 10
105.3946222629
 20
144.9971214592
 10
105.2645554438
 20
144.7588734577
 10
105.1153772247
 20
144.5319822889
 10
104.9480446432
 20
144.317964418
 10
104.7636538775
 20
144.1182775497
  0
LWPOLYLINE
  5
5A8
100
AcDbEntity
  8
0
100
AcDbPolyline
 62
7
  6
CONTINUOUS
 90
14
 70
0
 10
150.4611364885
 20
87.9095043754
 10
150.4455608144
 20
88.0162184326
 10
150.4171972038
 20
88.1204610556
 10
150.3764728783
 20
88.2222913031
 10
150.3248592186
 20
88.3179066191
 10
150.2619324742
 20
88.4071306067
 10
150.1881163956
 20
88.4901396628
 10
150.1061536142
 20
88.5636604215
 10
150.0156671616
 20
88.6273175361
 10
149.9170340063
 20
88.6814863533
 10
149.8141276856
 20
88.7240195474
 10
149.7082393788
 20
88.7542013432
 10
149.5980779066
 20
88.7727475159
 10
149.4836432692
 20
88.7796580655
  0
LWPOLYLINE
  5
5A9
100
AcDbEntity
  8
0
100
AcDbPolyline
 62
7
  6
CONTINUOUS
 90
15
 70
0
 10
148.9566275007
 20
145.8327434475
 10
148.9509619676
 20
145.9332984485
 10
148.9408568766
 20
145.9960601712
 10
148.9264824723
 20
146.0563696261
 10
148.9076671193
 20
146.1136295593
 10
148.8838959112
 20
146.166048209
 10
148.8546553877
 20
146.2132444197
 10
148.8204590091
 20
146.2555993469
 10
148.7823322501
 20
146.2924646951
 10
148.7403929443
 20
146.3236965541
 10
148.694523258
 20
146.349438834
 10
148.6453951651
 20
146.3694749704
 10
148.5932326567
 20
146.3837327749
 10
148.5378117417
 20
146.3922844358
 10
148.47913242
 20
146.3951299531
  0
LWPOLYLINE
  5
5AA
100
AcDbEntity
  8
0
100
AcDbPolyline
 62
7
  6
CONTINUOUS
 90
15
 70
0
 10
150.464716484
 20
87.8627644743
 10
150.4611364883
 20
87.9442340146
 10
150.4455608158
 20
88.0509480614
 10
150.4171972096
 20
88.1551906745
 10
150.376472891
 20
88.2570209125
 10
150.3248592395
 20
88.3526362209
 10
150.2619325053
 20
88.4418602034
 10
150.1881164383
 20
88.5248692563
 10
150.1061536677
 20
88.5983900145
 10
150.0156672279
 20
88.662047132
 10
149.9170340845
 20
88.7162159547
 10
149.8141277643
 20
88.7587491558
 10
149.7082394428
 20
88.7889309593
 10
149.5980779444
 20
88.8074771411
 10
149.4836432692
 20
88.8143877011
  0
LINE
  5
5AB
100
AcDbEntity
  8
0
100
AcDbLine
 62
7
  6
CONTINUOUS
 10
149.1802356825
 20
145.7638968024
 11
149.1782942986
 21
145.8548589754
  0
LINE
  5
5AC
100
AcDbEntity
  8
0
100
AcDbLine
 62
7
  6
CONTINUOUS
 10
148.9578493034
 20
145.7638968024
 11
148.9566275007
 21
145.8327434475
  0
LINE
  5
5AD
100
AcDbEntity
  8
0
100
AcDbLine
 62
7
  6
CONTINUOUS
 10
148.075754102
 20
145.167393341
 11
148.075754102
 21
146.3951299531
  0
LINE
  5
5AE
100
AcDbEntity
  8
0
100
AcDbLine
 62
253
  6
CONTINUOUS
 10
148.4791335456
 20
146.3604003175
 11
148.4791335456
 21
146.3951299531
  0
LINE
  5
5AF
100
AcDbEntity
  8
0
100
AcDbLine
 62
253
  6
CONTINUOUS
 10
148.508063668
 20
144.988019296
 11
148.508063668
 21
145.0227489316
  0
LINE
  5
5B0
100
AcDbEntity
  8
0
100
AcDbLine
 62
7
  6
CONTINUOUS
 10
148.616103102
 20
88.240215409
 11
148.616111102
 21
87.4502315371
  0
LINE
  5
5B1
100
AcDbEntity
  8
0
100
AcDbLine
 62
253
  6
CONTINUOUS
 10
149.394789102
 20
87.4849611726
 11
149.394789102
 21
87.4502315371
  0
LINE
  5
5B2
100
AcDbEntity
  8
0
100
AcDbLine
 62
7
  6
CONTINUOUS
 10
149.481834102
 20
145.2171377281
 11
149.481834102
 21
144.988019296
  0
LINE
  5
5B3
100
AcDbEntity
  8
0
100
AcDbLine
 62
253
  6
CONTINUOUS
 10
149.4836230768
 20
88.8143877011
 11
149.4836230768
 21
88.7796580655
  0
LINE
  5
5B4
100
AcDbEntity
  8
0
100
AcDbLine
 62
7
  6
CONTINUOUS
 10
149.713654102
 20
144.988019296
 11
149.713654102
 21
145.2171377281
  0
LINE
  5
5B5
100
AcDbEntity
  8
0
100
AcDbLine
 62
7
  6
CONTINUOUS
 10
150.625255102
 20
131.5125637755
 11
150.625255102
 21
128.5125637755
  0
LINE
  5
5B6
100
AcDbEntity
  8
0
100
AcDbLine
 62
7
  6
CONTINUOUS
 10
150.625255102
 20
125.2625637755
 11
150.625255102
 21
122.2625637755
  0
LINE
  5
5B7
100
AcDbEntity
  8
0
100
AcDbLine
 62
7
  6
CONTINUOUS
 10
150.625255102
 20
111.2625637755
 11
150.625255102
 21
108.2625637755
  0
LINE
  5
5B8
100
AcDbEntity
  8
0
100
AcDbLine
 62
7
  6
CONTINUOUS
 10
150.625255102
 20
105.0125637755
 11
150.625255102
 21
102.0125637755
  0
LINE
  5
5B9
100
AcDbEntity
  8
DRAFT
100
AcDbLine
 62
7
  6
CONTINUOUS
 10
150.725255102
 20
94.3625637755
 11
150.725255102
 21
102.0125637755
  0
LINE
  5
5BA
100
AcDbEntity
  8
DRAFT
100
AcDbLine
 62
7
  6
CONTINUOUS
 10
150.725255102
 20
105.0125637755
 11
150.725255102
 21
108.2625637755
  0
LINE
  5
5BB
100
AcDbEntity
  8
DRAFT
100
AcDbLine
 62
7
  6
CONTINUOUS
 10
150.725255102
 20
111.2625637755
 11
150.725255102
 21
122.2625637755
  0
LINE
  5
5BC
100
AcDbEntity
  8
DRAFT
100
AcDbLine
 62
7
  6
CONTINUOUS
 10
150.725255102
 20
125.2625637755
 11
150.725255102
 21
128.5125637755
  0
LINE
  5
5BD
100
AcDbEntity
  8
DRAFT
100
AcDbLine
 62
7
  6
CONTINUOUS
 10
150.725255102
 20
131.5125637755
 11
150.725255102
 21
139.1625637755
  0
LINE
  5
5BE
100
AcDbEntity
  8
DRAFT
100
AcDbLine
 62
7
  6
CONTINUOUS
 10
150.7326729397
 20
94.3625637755
 11
150.7326729397
 21
94.3125637755
  0
LINE
  5
5BF
100
AcDbEntity
  8
DRAFT
100
AcDbLine
 62
7
  6
CONTINUOUS
 10
150.7326729397
 20
139.1625637755
 11
150.7326729397
 21
139.2125637755
  0
LINE
  5
5C0
100
AcDbEntity
  8
0
100
AcDbLine
 62
7
  6
CONTINUOUS
 10
148.624935102
 20
85.7107398499
 11
148.625007102
 21
86.9107888806
  0
LINE
  5
5C1
100
AcDbEntity
  8
0
100
AcDbLine
 62
7
  6
CONTINUOUS
 10
150.4643514485
 20
87.8351075927
 11
150.464716484
 21
87.8627644743
  0
LINE
  5
5C2
100
AcDbEntity
  8
0
100
AcDbLine
 62
7
  6
CONTINUOUS
 10
149.1782939897
 20
145.6729215386
 11
149.1802356825
 21
145.7638968024
  0
LWPOLYLINE
  5
5C3
100
AcDbEntity
  8
RACCORDO
100
AcDbPolyline
 62
7
  6
CONTINUOUS
 90
4
 70
0
 10
156.271245578
 20
140.30441433
 10
156.2801279806
 20
140.337421972
 10
156.2844994288
 20
140.3698864739
 10
156.2857605175
 20
140.4012273611
  0
LINE
  5
5C4
100
AcDbEntity
  8
0
100
AcDbLine
 62
7
  6
CONTINUOUS
 10
143.469031102
 20
88.8143799423
 11
142.871439102
 21
86.7931736788
  0
LINE
  5
5C5
100
AcDbEntity
  8
0
100
AcDbLine
 62
7
  6
CONTINUOUS
 10
143.469031102
 20
88.7796503068
 11
142.871439102
 21
86.7584440433
  0
LINE
  5
5C6
100
AcDbEntity
  8
0
100
AcDbLine
 62
7
  6
CONTINUOUS
 10
143.191439102
 20
85.7107398499
 11
143.796543102
 21
87.7573793631
  0
LINE
  5
5C7
100
AcDbEntity
  8
RACCORDO
100
AcDbLine
 62
253
  6
CONTINUOUS
 10
103.968942607
 20
83.8446176628
 11
103.725255102
 21
83.7399180499
  0
LINE
  5
5C8
100
AcDbEntity
  8
0
100
AcDbLine
 62
7
  6
CONTINUOUS
 10
114.760411102
 20
87.0613270691
 11
114.248442102
 21
86.8457535106
  0
LINE
  5
5C9
100
AcDbEntity
  8
0
100
AcDbLine
 62
7
  6
CONTINUOUS
 10
114.760411102
 20
87.0265974336
 11
114.248442102
 21
86.8110238751
  0
LINE
  5
5CA
100
AcDbEntity
  8
0
100
AcDbLine
 62
7
  6
CONTINUOUS
 10
116.216040102
 20
87.2883002011
 11
117.1781917817
 21
87.6934324468
  0
LINE
  5
5CB
100
AcDbEntity
  8
0
100
AcDbLine
 62
7
  6
CONTINUOUS
 10
114.1208922116
 20
86.4060989479
 11
115.709027102
 21
87.074812782
  0
LINE
  5
5CC
100
AcDbEntity
  8
0
100
AcDbLine
 62
7
  6
CONTINUOUS
 10
117.626674102
 20
87.3878869298
 11
116.066868102
 21
86.7311011893
  0
LINE
  5
5CD
100
AcDbEntity
  8
0
100
AcDbLine
 62
7
  6
CONTINUOUS
 10
115.559854102
 20
86.5176137703
 11
114.5148068326
 21
86.0775769285
  0
LINE
  5
5CE
100
AcDbEntity
  8
0
100
AcDbLine
 62
7
  6
CONTINUOUS
 10
117.626674102
 20
87.3531572943
 11
116.066868102
 21
86.6963715538
  0
LINE
  5
5CF
100
AcDbEntity
  8
0
100
AcDbLine
 62
7
  6
CONTINUOUS
 10
115.559854102
 20
86.4828841347
 11
114.5148068326
 21
86.042847293
  0
LINE
  5
5D0
100
AcDbEntity
  8
0
100
AcDbLine
 62
7
  6
CONTINUOUS
 10
117.020897102
 20
86.7878682336
 11
117.522592102
 21
86.9991162775
  0
LWPOLYLINE
  5
5D1
100
AcDbEntity
  8
0
100
AcDbPolyline
 62
7
  6
CONTINUOUS
 90
12
 70
0
 10
148.6667220104
 20
145.041033322
 10
148.7390993638
 20
145.0607654309
 10
148.807210557
 20
145.0877542669
 10
148.8706862772
 20
145.1218030454
 10
148.928418585
 20
145.1623214123
 10
148.9799673291
 20
145.2091340029
 10
149.025772661
 20
145.2624161819
 10
149.066047096
 20
145.3221036891
 10
149.1012960736
 20
145.388767166
 10
149.1310141544
 20
145.4618359711
 10
149.1538975359
 20
145.5395339193
 10
149.1695116174
 20
145.621268949
  0
LINE
  5
5D2
100
AcDbEntity
  8
ASSI
100
AcDbLine
 62
7
  6
CONTINUOUS
 10
159.183342102
 20
136.1135577755
 11
158.898598102
 21
136.1135577755
  0
LINE
  5
5D3
100
AcDbEntity
  8
ASSI
100
AcDbLine
 62
7
  6
CONTINUOUS
 10
158.556177102
 20
136.1135577755
 11
158.271323102
 21
136.1135577755
  0
LINE
  5
5D4
100
AcDbEntity
  8
ASSI
100
AcDbLine
 62
7
  6
CONTINUOUS
 10
169.525255102
 20
136.7625637755
 11
167.0659732452
 21
136.7625637755
  0
LINE
  5
5D5
100
AcDbEntity
  8
ASSI
100
AcDbLine
 62
7
  6
CONTINUOUS
 10
90.3845369589
 20
136.7625637755
 11
87.925255102
 21
136.7625637755
  0
LINE
  5
5D6
100
AcDbEntity
  8
ASSI
100
AcDbLine
 62
7
  6
CONTINUOUS
 10
158.281820102
 20
138.3971397755
 11
158.556177102
 21
138.3971397755
  0
LINE
  5
5D7
100
AcDbEntity
  8
ASSI
100
AcDbLine
 62
7
  6
CONTINUOUS
 10
158.898598102
 20
138.3971397755
 11
159.172845102
 21
138.3971397755
  0
LINE
  5
5D8
100
AcDbEntity
  8
ASSI
100
AcDbLine
 62
7
  6
CONTINUOUS
 10
159.172845102
 20
138.7203347755
 11
158.281820102
 21
138.7203347755
  0
LINE
  5
5D9
100
AcDbEntity
  8
RACCORDO
100
AcDbLine
 62
7
  6
CONTINUOUS
 10
103.725255102
 20
139.1625637755
 11
106.725255102
 21
139.1625637755
  0
LINE
  5
5DA
100
AcDbEntity
  8
RACCORDO
100
AcDbLine
 62
7
  6
CONTINUOUS
 10
150.725255102
 20
139.1625637755
 11
153.725255102
 21
139.1625637755
  0
LINE
  5
5DB
100
AcDbEntity
  8
DRAFT
100
AcDbLine
 62
7
  6
CONTINUOUS
 10
150.7326729397
 20
139.2125637755
 11
145.975255102
 21
139.2125637755
  0
LINE
  5
5DC
100
AcDbEntity
  8
DRAFT
100
AcDbLine
 62
7
  6
CONTINUOUS
 10
133.475255102
 20
139.2125637755
 11
123.975255102
 21
139.2125637755
  0
LINE
  5
5DD
100
AcDbEntity
  8
DRAFT
100
AcDbLine
 62
7
  6
CONTINUOUS
 10
111.475255102
 20
139.2125637755
 11
106.7178372644
 21
139.2125637755
  0
LINE
  5
5DE
100
AcDbEntity
  8
0
100
AcDbLine
 62
7
  6
CONTINUOUS
 10
153.725255102
 20
139.7625637755
 11
145.975255102
 21
139.7625637755
  0
LINE
  5
5DF
100
AcDbEntity
  8
DRAFT
100
AcDbLine
 62
7
  6
CONTINUOUS
 10
133.475255102
 20
139.7625637755
 11
123.975255102
 21
139.7625637755
  0
LINE
  5
5E0
100
AcDbEntity
  8
0
100
AcDbLine
 62
7
  6
CONTINUOUS
 10
111.475255102
 20
139.7625637755
 11
103.725255102
 21
139.7625637755
  0
LWPOLYLINE
  5
5E1
100
AcDbEntity
  8
RACCORDO
100
AcDbPolyline
 62
253
  6
CONTINUOUS
 90
25
 70
0
 10
103.725255102
 20
149.7851890303
 10
103.9992474282
 20
149.6659153464
 10
104.2597165195
 20
149.5264444554
 10
104.5066623759
 20
149.3667763574
 10
104.7417078091
 20
149.1855950648
 10
104.9632300075
 20
148.9842165653
 10
105.1663605361
 20
148.7665888212
 10
105.3506849417
 20
148.5323327221
 10
105.5166176775
 20
148.2818273784
 10
105.6605336686
 20
148.020158084
 10
105.7819486597
 20
147.7470721539
 10
105.8813469059
 20
147.462822273
 10
105.9565560985
 20
147.1732517898
 10
106.0070682159
 20
146.8782898867
 10
106.0333912797
 20
146.5780073813
 10
106.0348770447
 20
146.2784600738
 10
106.0110278223
 20
145.9796319803
 10
105.9623413011
 20
145.6815390849
 10
105.8896623028
 20
145.3902851397
 10
105.7923708824
 20
145.1058502024
 10
105.6710869847
 20
144.8282542154
 10
105.5285152656
 20
144.5636607577
 10
105.3655572767
 20
144.3141243556
 10
105.1813114664
 20
144.0775904829
 10
104.9757778345
 20
143.8540591394
  0
LINE
  5
5E2
100
AcDbEntity
  8
0
100
AcDbLine
 62
7
  6
CONTINUOUS
 10
161.5377552213
 20
94.7625637755
 11
160.9752552213
 21
96.2306488857
  0
LINE
  5
5E3
100
AcDbEntity
  8
0
100
AcDbLine
 62
7
  6
CONTINUOUS
 10
140.468269102
 20
144.988019296
 11
139.888908102
 21
146.5397733927
  0
LINE
  5
5E4
100
AcDbEntity
  8
0
100
AcDbLine
 62
7
  6
CONTINUOUS
 10
160.6002552213
 20
96.1029893264
 11
161.100255102
 21
94.7625637755
  0
LINE
  5
5E5
100
AcDbEntity
  8
0
100
AcDbLine
 62
7
  6
CONTINUOUS
 10
140.073859102
 20
145.4397620693
 11
140.232154102
 21
144.988019296
  0
LINE
  5
5E6
100
AcDbEntity
  8
0
100
AcDbLine
 62
7
  6
CONTINUOUS
 10
139.757423102
 20
146.3147050388
 11
139.995786102
 21
145.6256292353
  0
LINE
  5
5E7
100
AcDbEntity
  8
0
100
AcDbLine
 62
7
  6
CONTINUOUS
 10
139.757423102
 20
146.3494346743
 11
139.995786102
 21
145.6603588708
  0
LINE
  5
5E8
100
AcDbEntity
  8
0
100
AcDbLine
 62
7
  6
CONTINUOUS
 10
158.2252551616
 20
97.1880957589
 11
158.287755102
 21
96.9966062412
  0
LINE
  5
5E9
100
AcDbEntity
  8
0
100
AcDbLine
 62
7
  6
CONTINUOUS
 10
156.6627550871
 20
95.5285212204
 11
156.600255102
 21
95.7838403389
  0
LINE
  5
5EA
100
AcDbEntity
  8
0
100
AcDbLine
 62
7
  6
CONTINUOUS
 10
156.225255102
 20
95.7838403389
 11
156.2877551039
 21
95.4646914408
  0
LWPOLYLINE
  5
5EB
100
AcDbEntity
  8
0
100
AcDbPolyline
 62
7
  6
CONTINUOUS
 90
13
 70
0
 10
149.1782942986
 20
145.8548589754
 10
149.1695216074
 20
145.9411964544
 10
149.1539176088
 20
146.0229092394
 10
149.1310482737
 20
146.1005889644
 10
149.1013476311
 20
146.1736439954
 10
149.0661177688
 20
146.2402994305
 10
149.0258650539
 20
146.2999855938
 10
148.9800831192
 20
146.3532721613
 10
148.9285549503
 20
146.4000932594
 10
148.8708457844
 20
146.4406247025
 10
148.8073903842
 20
146.4746906761
 10
148.7392760232
 20
146.5016978636
 10
148.6668651261
 20
146.5214484928
  0
LWPOLYLINE
  5
5EC
100
AcDbEntity
  8
RACCORDO
100
AcDbPolyline
 62
7
  6
CONTINUOUS
 90
5
 70
0
 10
156.2857605175
 20
93.1239001899
 10
156.2844994288
 20
93.1552410771
 10
156.2801279806
 20
93.187705579
 10
156.271245578
 20
93.220713221
 10
156.2573941631
 20
93.2539627912
  0
LINE
  5
5ED
100
AcDbEntity
  8
RACCORDO
100
AcDbLine
 62
7
  6
CONTINUOUS
 10
152.725255102
 20
139.1625637755
 11
152.725255102
 21
94.3625637755
  0
LINE
  5
5EE
100
AcDbEntity
  8
RACCORDO
100
AcDbLine
 62
7
  6
CONTINUOUS
 10
153.725255102
 20
150.2544351418
 11
153.725255102
 21
149.5143150681
  0
LINE
  5
5EF
100
AcDbEntity
  8
RACCORDO
100
AcDbLine
 62
253
  6
CONTINUOUS
 10
153.725255102
 20
139.1625637755
 11
153.725255102
 21
94.3625637755
  0
LINE
  5
5F0
100
AcDbEntity
  8
RACCORDO
100
AcDbLine
 62
7
  6
CONTINUOUS
 10
153.725255102
 20
84.0108124829
 11
153.725255102
 21
83.2706924092
  0
LINE
  5
5F1
100
AcDbEntity
  8
RACCORDO
100
AcDbLine
 62
7
  6
CONTINUOUS
 10
153.725255102
 20
90.4591208128
 11
153.725255102
 21
94.3625637755
  0
LINE
  5
5F2
100
AcDbEntity
  8
RACCORDO
100
AcDbLine
 62
7
  6
CONTINUOUS
 10
153.725255102
 20
139.1625637755
 11
153.725255102
 21
143.0660067382
  0
LINE
  5
5F3
100
AcDbEntity
  8
RACCORDO
100
AcDbLine
 62
7
  6
CONTINUOUS
 10
154.725255102
 20
124.1779797847
 11
154.725255102
 21
123.162558064
  0
LINE
  5
5F4
100
AcDbEntity
  8
0
100
AcDbLine
 62
7
  6
CONTINUOUS
 10
145.890703102
 20
88.8143877011
 11
144.863255102
 21
85.7107320912
  0
LINE
  5
5F5
100
AcDbEntity
  8
0
100
AcDbLine
 62
7
  6
CONTINUOUS
 10
145.890703102
 20
88.7796580655
 11
144.8736166311
 21
85.7073019644
  0
LINE
  5
5F6
100
AcDbEntity
  8
0
100
AcDbLine
 62
7
  6
CONTINUOUS
 10
145.900559102
 20
86.9107811218
 11
146.210727102
 21
87.8477612804
  0
LINE
  5
5F7
100
AcDbEntity
  8
0
100
AcDbLine
 62
7
  6
CONTINUOUS
 10
145.503279102
 20
85.7107398499
 11
145.705335102
 21
86.3210912888
  0
LWPOLYLINE
  5
5F8
100
AcDbEntity
  8
RACCORDO
100
AcDbPolyline
 62
7
  6
CONTINUOUS
 90
13
 70
0
 10
136.7252017384
 20
90.7730082303
 10
136.7274180253
 20
90.7753165655
 10
136.7338163157
 20
90.7775937704
 10
136.7443966094
 20
90.7798398449
 10
136.7592374914
 20
90.7820633972
 10
136.7782603768
 20
90.7842558191
 10
136.8012295111
 20
90.786391286
 10
136.8281973242
 20
90.7884697863
 10
136.8591113862
 20
90.7904913316
 10
136.8935786525
 20
90.7924301322
 10
136.931644577
 20
90.7942851347
 10
136.973263706
 20
90.7960573926
 10
137.0179066339
 20
90.7977242765
  0
LWPOLYLINE
  5
5F9
100
AcDbEntity
  8
0
100
AcDbPolyline
 62
7
  6
CONTINUOUS
 90
12
 70
0
 10
117.6028262508
 20
88.1832997005
 10
117.5409685031
 20
88.1628898438
 10
117.4849883297
 20
88.1345157751
 10
117.4366487674
 20
88.0968930001
 10
117.3941867793
 20
88.0513060131
 10
117.3585199624
 20
88.0014034077
 10
117.334060148
 20
87.9456319197
 10
117.3163955048
 20
87.8855448132
 10
117.2932081363
 20
87.8294504742
 10
117.2603920768
 20
87.7801183644
 10
117.2220532919
 20
87.7347790219
 10
117.1781917817
 20
87.6934324468
  0
LWPOLYLINE
  5
5FA
100
AcDbEntity
  8
0
100
AcDbPolyline
 62
7
  6
CONTINUOUS
 90
15
 70
0
 10
148.5080608844
 20
144.988019296
 10
148.5897143169
 20
144.9936321529
 10
148.6667316789
 20
145.0063058577
 10
148.7391129703
 20
145.0260404106
 10
148.8072275271
 20
145.0530324994
 10
148.8707060134
 20
145.0870854363
 10
148.9284404214
 20
145.1276091573
 10
148.9799909514
 20
145.1744296732
 10
149.025797403
 20
145.2277209733
 10
149.0660711678
 20
145.2874149615
 10
149.1013165775
 20
145.3540816189
 10
149.1310293002
 20
145.4271509644
 10
149.1539077325
 20
145.5048449594
 10
149.1695180064
 20
145.5865709243
 10
149.1782909996
 20
145.7076331219
  0
LWPOLYLINE
  5
5FB
100
AcDbEntity
  8
0
100
AcDbPolyline
 62
7
  6
CONTINUOUS
 90
3
 70
0
 10
148.5080608842
 20
145.0227489316
 10
148.5897091839
 20
145.0283611555
 10
148.6667220104
 20
145.041033322
  0
LWPOLYLINE
  5
5FC
100
AcDbEntity
  8
RACCORDO
100
AcDbPolyline
 62
253
  6
CONTINUOUS
 90
37
 70
0
 10
130.925255102
 20
143.4998741893
 10
131.2066323389
 20
143.512008365
 10
131.4861121216
 20
143.5483576803
 10
131.7616127497
 20
143.6087022354
 10
132.0310133303
 20
143.6926198014
 10
132.2923582427
 20
143.7995476811
 10
132.5438498231
 20
143.9288384582
 10
132.7835560126
 20
144.0796143185
 10
133.0096289309
 20
144.2508367825
 10
133.220454073
 20
144.4414578823
 10
133.4143811955
 20
144.6502169502
 10
133.5897580698
 20
144.8755909968
 10
133.7451013579
 20
145.1159495396
 10
133.8791298714
 20
145.3696266493
 10
133.9906123489
 20
145.634663871
 10
134.078445846
 20
145.908771688
 10
134.141875131
 20
146.1898451131
 10
134.180332202
 20
146.4757209761
 10
134.1934288133
 20
146.7638774481
 10
134.1810668897
 20
147.0520578755
 10
134.1433466952
 20
147.3380293261
 10
134.0806253075
 20
147.6192989936
 10
133.993472902
 20
147.8936698679
 10
133.8826333876
 20
148.1590613797
 10
133.7491234234
 20
148.4132749854
 10
133.5941101228
 20
148.6543707573
 10
133.4188760543
 20
148.8805991127
 10
133.2249084636
 20
149.0902481438
 10
133.0138446482
 20
149.2817723666
 10
132.7873492667
 20
149.4538690586
 10
132.5471216166
 20
149.6054025308
 10
132.2950524581
 20
149.7353169312
 10
132.0330839354
 20
149.8427436441
 10
131.7630722715
 20
149.9270198533
 10
131.4870125033
 20
149.9875922078
 10
131.2070392923
 20
150.0240630893
 10
130.925255102
 20
150.0362346314
  0
LINE
  5
5FD
100
AcDbEntity
  8
RACCORDO
100
AcDbLine
 62
7
  6
CONTINUOUS
 10
120.4326035702
 20
142.7274032745
 11
120.3341680173
 21
142.7243882999
  0
LINE
  5
5FE
100
AcDbEntity
  8
RACCORDO
100
AcDbLine
 62
7
  6
CONTINUOUS
 10
120.3341680173
 20
142.7243882999
 11
120.2255471783
 21
142.7218522788
  0
LINE
  5
5FF
100
AcDbEntity
  8
RACCORDO
100
AcDbLine
 62
7
  6
CONTINUOUS
 10
120.2255471783
 20
142.7218522788
 11
120.1081267329
 21
142.7198276835
  0
LINE
  5
600
100
AcDbEntity
  8
RACCORDO
100
AcDbLine
 62
7
  6
CONTINUOUS
 10
120.1081267329
 20
142.7198276835
 11
119.9841110332
 21
142.7183580128
  0
LINE
  5
601
100
AcDbEntity
  8
RACCORDO
100
AcDbLine
 62
7
  6
CONTINUOUS
 10
119.9841110332
 20
142.7183580128
 11
119.8562194927
 21
142.7174681964
  0
LINE
  5
602
100
AcDbEntity
  8
RACCORDO
100
AcDbLine
 62
7
  6
CONTINUOUS
 10
114.8693097753
 20
142.7327720078
 11
114.892032796
 21
142.7327785193
  0
LINE
  5
603
100
AcDbEntity
  8
0
100
AcDbLine
 62
7
  6
CONTINUOUS
 10
138.125255102
 20
140.0625637755
 11
135.825255102
 21
140.0625637755
  0
LINE
  5
604
100
AcDbEntity
  8
0
100
AcDbLine
 62
7
  6
CONTINUOUS
 10
116.125255102
 20
140.0625637755
 11
113.825255102
 21
140.0625637755
  0
LINE
  5
605
100
AcDbEntity
  8
0
100
AcDbLine
 62
7
  6
CONTINUOUS
 10
119.325255102
 20
140.0625637755
 11
121.625255102
 21
140.0625637755
  0
LINE
  5
606
100
AcDbEntity
  8
0
100
AcDbLine
 62
7
  6
CONTINUOUS
 10
141.325255102
 20
140.0625637755
 11
143.625255102
 21
140.0625637755
  0
LINE
  5
607
100
AcDbEntity
  8
DRAFT
100
AcDbLine
 62
7
  6
CONTINUOUS
 10
145.975255102
 20
141.0733661945
 11
142.725255102
 21
141.0733661945
  0
LINE
  5
608
100
AcDbEntity
  8
DRAFT
100
AcDbLine
 62
7
  6
CONTINUOUS
 10
136.725255102
 20
141.0733661945
 11
133.4772721415
 21
141.0733661945
  0
LINE
  5
609
100
AcDbEntity
  8
DRAFT
100
AcDbLine
 62
7
  6
CONTINUOUS
 10
123.9732380625
 20
141.0733661945
 11
120.725255102
 21
141.0733661945
  0
LINE
  5
60A
100
AcDbEntity
  8
DRAFT
100
AcDbLine
 62
7
  6
CONTINUOUS
 10
114.725255102
 20
141.0733661945
 11
111.475255102
 21
141.0733661945
  0
LINE
  5
60B
100
AcDbEntity
  8
DRAFT
100
AcDbLine
 62
7
  6
CONTINUOUS
 10
116.125255102
 20
141.1463480872
 11
119.325255102
 21
141.1463480872
  0
LINE
  5
60C
100
AcDbEntity
  8
DRAFT
100
AcDbLine
 62
7
  6
CONTINUOUS
 10
138.125255102
 20
141.1463480872
 11
141.325255102
 21
141.1463480872
  0
LINE
  5
60D
100
AcDbEntity
  8
RACCORDO
100
AcDbLine
 62
7
  6
CONTINUOUS
 10
115.725255102
 20
142.7171667752
 11
119.8562194927
 21
142.7174681964
  0
LINE
  5
60E
100
AcDbEntity
  8
0
100
AcDbLine
 62
7
  6
CONTINUOUS
 10
142.725255102
 20
142.7625637755
 11
136.725255102
 21
142.7625637755
  0
LINE
  5
60F
100
AcDbEntity
  8
0
100
AcDbLine
 62
7
  6
CONTINUOUS
 10
120.725255102
 20
142.7625637755
 11
114.725255102
 21
142.7625637755
  0
LINE
  5
610
100
AcDbEntity
  8
RACCORDO
100
AcDbLine
 62
253
  6
CONTINUOUS
 10
130.925255102
 20
143.147791159
 11
126.525255102
 21
143.147791159
  0
LINE
  5
611
100
AcDbEntity
  8
RACCORDO
100
AcDbLine
 62
253
  6
CONTINUOUS
 10
168.5639175473
 20
143.3149308733
 11
167.0659732452
 21
143.3149308733
  0
LINE
  5
612
100
AcDbEntity
  8
RACCORDO
100
AcDbLine
 62
253
  6
CONTINUOUS
 10
88.8865926568
 20
143.3149308733
 11
90.3845369589
 21
143.3149308733
  0
LINE
  5
613
100
AcDbEntity
  8
RACCORDO
100
AcDbLine
 62
7
  6
CONTINUOUS
 10
130.925255102
 20
143.4998741893
 11
126.525255102
 21
143.4998741893
  0
LINE
  5
614
100
AcDbEntity
  8
DRAFT
100
AcDbLine
 62
7
  6
CONTINUOUS
 10
126.525255102
 20
143.5125637755
 11
130.925255102
 21
143.5125637755
  0
LWPOLYLINE
  5
615
100
AcDbEntity
  8
RACCORDO
100
AcDbPolyline
 62
7
  6
CONTINUOUS
 90
9
 70
0
 10
142.5584774081
 20
142.7327785193
 10
142.5812012187
 20
142.7327716792
 10
142.6028969836
 20
142.7317962608
 10
142.623401956
 20
142.7298522643
 10
142.6425141781
 20
142.7266280624
 10
142.6601008346
 20
142.7224352823
 10
142.6760625331
 20
142.7182088053
 10
142.6902044886
 20
142.7142602585
 10
142.7022739806
 20
142.7102780147
  0
LINE
  5
616
100
AcDbEntity
  8
RACCORDO
100
AcDbLine
 62
7
  6
CONTINUOUS
 10
137.5942907114
 20
142.7174681964
 11
141.725255102
 21
142.7171667752
  0
LINE
  5
617
100
AcDbEntity
  8
RACCORDO
100
AcDbLine
 62
7
  6
CONTINUOUS
 10
137.4663991708
 20
142.7183580128
 11
137.5942907114
 21
142.7174681964
  0
LWPOLYLINE
  5
618
100
AcDbEntity
  8
0
100
AcDbPolyline
 62
7
  6
CONTINUOUS
 90
19
 70
0
 10
113.742811102
 20
143.2913593781
 10
113.5098215868
 20
143.293344585
 10
113.2817175732
 20
143.3146674929
 10
113.0584990611
 20
143.3553281018
 10
112.8385161943
 20
143.415952104
 10
112.623418829
 20
143.4959138073
 10
112.4181565343
 20
143.5933361352
 10
112.2228715856
 20
143.7087094361
 10
112.0374217074
 20
143.8415433616
 10
111.8663296422
 20
143.9884897899
 10
111.7099819144
 20
144.1499332625
 10
111.5679919996
 20
144.3254892379
 10
111.4437230672
 20
144.5106559689
 10
111.3377088941
 20
144.7054895777
 10
111.2494157034
 20
144.9099339421
 10
111.1806053335
 20
145.1193189486
 10
111.1316709345
 20
145.3338037401
 10
111.1022193562
 20
145.5532291738
 10
111.092816108
 20
145.7625637905
  0
LWPOLYLINE
  5
619
100
AcDbEntity
  8
0
100
AcDbPolyline
 62
7
  6
CONTINUOUS
 90
18
 70
0
 10
113.742811102
 20
143.3260890137
 10
113.5098215158
 20
143.3280742305
 10
113.2817174473
 20
143.3493971509
 10
113.0584988964
 20
143.3900577749
 10
112.8385160113
 20
143.4506817952
 10
112.6234186439
 20
143.5306435192
 10
112.4181563503
 20
143.6280658684
 10
112.2228714015
 20
143.7434391913
 10
112.0374215266
 20
143.8762731395
 10
111.8663294678
 20
144.0232195896
 10
111.7099817498
 20
144.1846630835
 10
111.5679918481
 20
144.3602190795
 10
111.4437229313
 20
144.545385829
 10
111.3377087766
 20
144.7402194542
 10
111.2494156069
 20
144.9446638331
 10
111.1806052595
 20
145.1540488509
 10
111.1316708844
 20
145.3685336501
 10
111.1022193317
 20
145.5879590882
  0
LINE
  5
61A
100
AcDbEntity
  8
RACCORDO
100
AcDbLine
 62
7
  6
CONTINUOUS
 10
137.3423834712
 20
142.7198276835
 11
137.4663991708
 21
142.7183580128
  0
LINE
  5
61B
100
AcDbEntity
  8
RACCORDO
100
AcDbLine
 62
7
  6
CONTINUOUS
 10
137.2249630258
 20
142.7218522788
 11
137.3423834712
 21
142.7198276835
  0
LINE
  5
61C
100
AcDbEntity
  8
RACCORDO
100
AcDbLine
 62
7
  6
CONTINUOUS
 10
137.1163421868
 20
142.7243882999
 11
137.2249630258
 21
142.7218522788
  0
LWPOLYLINE
  5
61D
100
AcDbEntity
  8
RACCORDO
100
AcDbPolyline
 62
253
  6
CONTINUOUS
 90
40
 70
0
 10
126.525255102
 20
143.147791159
 10
126.2488039653
 20
143.1587700682
 10
125.977024441
 20
143.1902361871
 10
125.7099165292
 20
143.2421895158
 10
125.4458931983
 20
143.3151985643
 10
125.1865414799
 20
143.4086948226
 10
124.9366224684
 20
143.5209727608
 10
124.6964289832
 20
143.6522953989
 10
124.4656682049
 20
143.8023997169
 10
124.2482227695
 20
143.9687911253
 10
124.0442782677
 20
144.1517085162
 10
123.8536491088
 20
144.3509129974
 10
123.6796611563
 20
144.5631933029
 10
123.5225163819
 20
144.7888314388
 10
123.3820128139
 20
145.027545399
 10
123.2608704004
 20
145.2752778994
 10
123.1594110817
 20
145.5322902934
 10
123.0773129176
 20
145.7983212277
 10
123.0163300346
 20
146.0685293578
 10
122.9769089207
 20
146.3430970133
 10
122.958603088
 20
146.6218418648
 10
122.9618271989
 20
146.8993755797
 10
122.9870706329
 20
147.1756308726
 10
123.0338440105
 20
147.4506750291
 10
123.1010938563
 20
147.7193215727
 10
123.189207998
 20
147.9813393521
 10
123.2977986078
 20
148.2369595187
 10
123.4246487264
 20
148.4816890502
 10
123.5700207103
 20
148.7152565358
 10
123.7336522029
 20
148.9379333863
 10
123.9125391758
 20
149.1460408124
 10
124.1068663943
 20
149.3393161263
 10
124.3164490931
 20
149.5180220159
 10
124.5377289485
 20
149.679267755
 10
124.7709024859
 20
149.8228254145
 10
125.01577318
 20
149.9489229236
 10
125.2681931305
 20
150.0553533446
 10
125.5267797041
 20
150.1413810317
 10
125.7929155341
 20
150.2077416308
 10
126.0666006206
 20
150.2544351418
  0
LWPOLYLINE
  5
61E
100
AcDbEntity
  8
RACCORDO
100
AcDbPolyline
 62
7
  6
CONTINUOUS
 90
14
 70
0
 10
136.7252017384
 20
142.7521193208
 10
136.7274180253
 20
142.7498109855
 10
136.7338163157
 20
142.7475337806
 10
136.7443966094
 20
142.7452877062
 10
136.7592374914
 20
142.7430641539
 10
136.7782603768
 20
142.7408717319
 10
136.8012295111
 20
142.738736265
 10
136.8281973242
 20
142.7366577647
 10
136.8591113862
 20
142.7346362195
 10
136.8935786525
 20
142.7326974188
 10
136.931644577
 20
142.7308424163
 10
136.973263706
 20
142.7290701584
 10
137.0179066339
 20
142.7274032745
 10
137.1163421868
 20
142.7243882999
  0
LINE
  5
61F
100
AcDbEntity
  8
0
100
AcDbLine
 62
7
  6
CONTINUOUS
 10
161.0377549828
 20
97.2519255385
 11
161.100255102
 21
97.0604361996
  0
LINE
  5
620
100
AcDbEntity
  8
0
100
AcDbLine
 62
7
  6
CONTINUOUS
 10
161.475255102
 20
97.0604361996
 11
161.4127549828
 21
97.2519255385
  0
LWPOLYLINE
  5
621
100
AcDbEntity
  8
0
100
AcDbPolyline
 62
7
  6
CONTINUOUS
 90
9
 70
0
 10
144.4678909422
 20
146.2176367471
 10
144.4497414746
 20
146.2744969422
 10
144.4241718853
 20
146.3279068662
 10
144.3915523556
 20
146.3771245323
 10
144.352993429
 20
146.4199239809
 10
144.3084984839
 20
146.455478514
 10
144.2580641418
 20
146.4846148296
 10
144.2027908108
 20
146.5075870618
 10
144.1430452937
 20
146.5244799221
  0
LWPOLYLINE
  5
622
100
AcDbEntity
  8
0
100
AcDbPolyline
 62
7
  6
CONTINUOUS
 90
11
 70
0
 10
144.2548191892
 20
146.2047625792
 10
144.2442810693
 20
146.2399561308
 10
144.228391625
 20
146.2728417876
 10
144.2073206456
 20
146.302958692
 10
144.1815774991
 20
146.3289242713
 10
144.1507983378
 20
146.3502645131
 10
144.1153470093
 20
146.3674534297
 10
144.0768244239
 20
146.3805304856
 10
144.0357642182
 20
146.3895088355
 10
143.9916327556
 20
146.3943753247
 10
143.9444300361
 20
146.3951299531
  0
LINE
  5
623
100
AcDbEntity
  8
0
100
AcDbLine
 62
7
  6
CONTINUOUS
 10
158.662755102
 20
96.9966062412
 11
158.6002551616
 21
97.3157553181
  0
LWPOLYLINE
  5
624
100
AcDbEntity
  8
0
100
AcDbPolyline
 62
7
  6
CONTINUOUS
 90
14
 70
0
 10
148.9509654358
 20
145.8985438671
 10
148.9408631088
 20
145.9612980613
 10
148.9264927852
 20
146.0216036046
 10
148.9076821994
 20
146.0788629225
 10
148.8839145549
 20
146.1312832906
 10
148.8546758911
 20
146.1784841437
 10
148.8204801686
 20
146.2208460469
 10
148.7823524719
 20
146.2577179711
 10
148.7404097767
 20
146.2889554096
 10
148.6945351073
 20
146.3147028691
 10
148.6454026212
 20
146.3347428405
 10
148.5932370375
 20
146.3490028209
 10
148.5378136372
 20
146.3575553132
 10
148.4791324201
 20
146.3604003175
  0
LWPOLYLINE
  5
625
100
AcDbEntity
  8
RACCORDO
100
AcDbPolyline
 62
7
  6
CONTINUOUS
 90
10
 70
0
 10
156.2857605175
 20
140.4012273611
 10
156.2840237592
 20
140.4313505172
 10
156.2791392557
 20
140.4603319582
 10
156.2719986965
 20
140.4877930919
 10
156.2626421066
 20
140.5137861466
 10
156.2510163633
 20
140.5383755658
 10
156.2377965624
 20
140.5611474151
 10
156.2232070371
 20
140.5820224761
 10
156.2070598192
 20
140.601287187
 10
156.1894017915
 20
140.6190709782
  0
LINE
  5
626
100
AcDbEntity
  8
0
100
AcDbLine
 62
7
  6
CONTINUOUS
 10
156.225255102
 20
96.7412871227
 11
156.225255102
 21
95.7838403389
  0
LINE
  5
627
100
AcDbEntity
  8
0
100
AcDbLine
 62
7
  6
CONTINUOUS
 10
156.600255102
 20
95.7838403389
 11
156.600255102
 21
96.7412871227
  0
LINE
  5
628
100
AcDbEntity
  8
0
100
AcDbLine
 62
7
  6
CONTINUOUS
 10
157.725255102
 20
96.4221382246
 11
157.725255102
 21
96.0391595468
  0
LINE
  5
629
100
AcDbEntity
  8
ASSI
100
AcDbLine
 62
7
  6
CONTINUOUS
 10
158.271323102
 20
136.1135577755
 11
158.271323102
 21
135.7921307755
  0
LINE
  5
62A
100
AcDbEntity
  8
ASSI
100
AcDbLine
 62
7
  6
CONTINUOUS
 10
158.281820102
 20
138.7203347755
 11
158.281820102
 21
138.3971397755
  0
LINE
  5
62B
100
AcDbEntity
  8
0
100
AcDbLine
 62
7
  6
CONTINUOUS
 10
158.287755102
 20
96.0391595468
 11
158.287755102
 21
95.5285212204
  0
LINE
  5
62C
100
AcDbEntity
  8
ASSI
100
AcDbLine
 62
7
  6
CONTINUOUS
 10
158.556177102
 20
138.3971397755
 11
158.556177102
 21
137.5776047755
  0
LINE
  5
62D
100
AcDbEntity
  8
ASSI
100
AcDbLine
 62
7
  6
CONTINUOUS
 10
158.556177102
 20
137.1792737755
 11
158.556177102
 21
136.1135577755
  0
LINE
  5
62E
100
AcDbEntity
  8
RACCORDO
100
AcDbLine
 62
253
  6
CONTINUOUS
 10
158.5776221998
 20
153.3012262208
 11
158.5776221998
 21
151.8032819187
  0
LINE
  5
62F
100
AcDbEntity
  8
RACCORDO
100
AcDbLine
 62
253
  6
CONTINUOUS
 10
158.5776221998
 20
80.2239013302
 11
158.5776221998
 21
81.7218456324
  0
LINE
  5
630
100
AcDbEntity
  8
0
100
AcDbLine
 62
7
  6
CONTINUOUS
 10
158.662755102
 20
95.4646914408
 11
158.662755102
 21
96.4221382246
  0
LINE
  5
631
100
AcDbEntity
  8
ASSI
100
AcDbLine
 62
7
  6
CONTINUOUS
 10
158.898598102
 20
136.1135577755
 11
158.898598102
 21
137.1828677755
  0
LINE
  5
632
100
AcDbEntity
  8
ASSI
100
AcDbLine
 62
7
  6
CONTINUOUS
 10
158.898598102
 20
137.5776047755
 11
158.898598102
 21
138.3971397755
  0
LINE
  5
633
100
AcDbEntity
  8
0
100
AcDbLine
 62
7
  6
CONTINUOUS
 10
159.1627551616
 20
97.7625637755
 11
159.1627551616
 21
94.7625637755
  0
LINE
  5
634
100
AcDbEntity
  8
ASSI
100
AcDbLine
 62
7
  6
CONTINUOUS
 10
159.172845102
 20
138.3971397755
 11
159.172845102
 21
138.7203347755
  0
LINE
  5
635
100
AcDbEntity
  8
ASSI
100
AcDbLine
 62
7
  6
CONTINUOUS
 10
159.183342102
 20
135.7921307755
 11
159.183342102
 21
136.1135577755
  0
LINE
  5
636
100
AcDbEntity
  8
0
100
AcDbLine
 62
7
  6
CONTINUOUS
 10
156.9127551169
 20
97.6987339959
 11
156.6627550871
 21
97.5710744366
  0
LWPOLYLINE
  5
637
100
AcDbEntity
  8
RACCORDO
100
AcDbPolyline
 62
7
  6
CONTINUOUS
 90
7
 70
0
 10
142.712043927
 20
90.8188654769
 10
142.7022821229
 20
90.8148530947
 10
142.6902207285
 20
90.8108730338
 10
142.6760845431
 20
90.8069252945
 10
142.6601218122
 20
90.8026976016
 10
142.642527162
 20
90.7985022302
 10
142.6234069955
 20
90.795276005
  0
LINE
  5
638
100
AcDbEntity
  8
0
100
AcDbLine
 62
7
  6
CONTINUOUS
 10
160.912755102
 20
96.5497977838
 11
160.725255102
 21
96.4859680042
  0
LWPOLYLINE
  5
639
100
AcDbEntity
  8
0
100
AcDbPolyline
 62
7
  6
CONTINUOUS
 90
3
 70
0
 10
138.5699903423
 20
145.6929254001
 10
138.5053859051
 20
145.6821978859
 10
138.4359365964
 20
145.6776347431
  0
LWPOLYLINE
  5
63A
100
AcDbEntity
  8
RACCORDO
100
AcDbPolyline
 62
7
  6
CONTINUOUS
 90
3
 70
0
 10
114.8271032086
 20
142.729851546
 10
114.8476121215
 20
142.73179635
 10
114.8693097753
 20
142.7327720078
  0
LWPOLYLINE
  5
63B
100
AcDbEntity
  8
0
100
AcDbPolyline
 62
7
  6
CONTINUOUS
 90
13
 70
0
 10
144.0089646264
 20
145.6429051076
 10
144.0796024901
 20
145.6476733686
 10
144.1451297756
 20
145.6587231666
 10
144.2055464827
 20
145.6760545018
 10
144.2612327756
 20
145.6997398693
 10
144.3118084901
 20
145.7297067738
 10
144.3561331344
 20
145.7657377301
 10
144.3940297846
 20
145.808408169
 10
144.4256753646
 20
145.8571426597
 10
144.4504601538
 20
145.9099974243
 10
144.468180912
 20
145.9663245368
 10
144.4790408794
 20
146.0267719232
 10
144.4830400561
 20
146.0913395836
  0
LWPOLYLINE
  5
63C
100
AcDbEntity
  8
0
100
AcDbPolyline
 62
7
  6
CONTINUOUS
 90
3
 70
0
 10
144.0089646264
 20
145.6776347431
 10
144.0796167319
 20
145.6824074476
 10
144.1451531292
 20
145.693460457
  0
LWPOLYLINE
  5
63D
100
AcDbEntity
  8
0
100
AcDbPolyline
 62
7
  6
CONTINUOUS
 90
16
 70
0
 10
148.4791327662
 20
145.167393341
 10
148.5376629622
 20
145.1702082103
 10
148.5929718557
 20
145.178722467
 10
148.645059447
 20
145.1929361111
 10
148.6941544165
 20
145.2129113977
 10
148.7400280837
 20
145.2385860716
 10
148.7819944069
 20
145.2697733676
 10
148.8201777165
 20
145.3066310634
 10
148.8544536821
 20
145.3490013812
 10
148.8837632707
 20
145.3962242222
 10
148.9075816015
 20
145.4486813037
 10
148.9264335553
 20
145.5059909083
 10
148.9408347415
 20
145.5663477856
 10
148.9509570297
 20
145.6291501852
 10
148.9566285504
 20
145.6949998575
 10
148.9578493034
 20
145.7638968024
  0
LWPOLYLINE
  5
63E
100
AcDbEntity
  8
0
100
AcDbPolyline
 62
7
  6
CONTINUOUS
 90
13
 70
0
 10
143.9444327822
 20
145.8222791525
 10
143.991683662
 20
145.8230393676
 10
144.0358509867
 20
145.8279152745
 10
144.0769347563
 20
145.8369068732
 10
144.1154680032
 20
145.8500070121
 10
144.1509176951
 20
145.8672228428
 10
144.1816847349
 20
145.8885758206
 10
144.2073991366
 20
145.9145278049
 10
144.2284308862
 20
145.9446169362
 10
144.2442908437
 20
145.9774790921
 10
144.2548159626
 20
146.0126595648
 10
144.2601692894
 20
146.0506130619
 10
144.2603508241
 20
146.0913395836
  0
LWPOLYLINE
  5
63F
100
AcDbEntity
  8
0
100
AcDbPolyline
 62
7
  6
CONTINUOUS
 90
17
 70
0
 10
109.357701102
 20
144.0195365895
 10
109.175953365
 20
144.01916109
 10
108.9985980772
 20
144.0352831007
 10
108.8256352388
 20
144.0679026216
 10
108.6555502142
 20
144.1176339011
 10
108.489857639
 20
144.1838626909
 10
108.3331014194
 20
144.2647462457
 10
108.185384018
 20
144.360837395
 10
108.0466029722
 20
144.4715833094
 10
107.9209948012
 20
144.5934827552
 10
107.8090949866
 20
144.7267860663
 10
107.7103680468
 20
144.8712429088
 10
107.6274440552
 20
145.0226010472
 10
107.560784919
 20
145.1810028642
 10
107.509928731
 20
145.3463059771
 10
107.4761198433
 20
145.5138310016
 10
107.4598143017
 20
145.6836143876
  0
LINE
  5
640
100
AcDbEntity
  8
DRAFT
100
AcDbLine
 62
7
  6
CONTINUOUS
 10
126.525255102
 20
144.9625637755
 11
130.925255102
 21
144.9625637755
  0
LINE
  5
641
100
AcDbEntity
  8
0
100
AcDbLine
 62
7
  6
CONTINUOUS
 10
137.716244102
 20
144.988019296
 11
137.932398102
 21
144.988019296
  0
LINE
  5
642
100
AcDbEntity
  8
0
100
AcDbLine
 62
7
  6
CONTINUOUS
 10
139.042102102
 20
144.988019296
 11
139.264953102
 21
144.988019296
  0
LINE
  5
643
100
AcDbEntity
  8
0
100
AcDbLine
 62
7
  6
CONTINUOUS
 10
140.232154102
 20
144.988019296
 11
140.468269102
 21
144.988019296
  0
LINE
  5
644
100
AcDbEntity
  8
0
100
AcDbLine
 62
7
  6
CONTINUOUS
 10
141.069864102
 20
144.988019296
 11
141.286019102
 21
144.988019296
  0
LINE
  5
645
100
AcDbEntity
  8
0
100
AcDbLine
 62
7
  6
CONTINUOUS
 10
142.052604102
 20
144.988019296
 11
142.284297102
 21
144.988019296
  0
LINE
  5
646
100
AcDbEntity
  8
0
100
AcDbLine
 62
7
  6
CONTINUOUS
 10
143.289272102
 20
144.988019296
 11
143.505426102
 21
144.988019296
  0
LINE
  5
647
100
AcDbEntity
  8
0
100
AcDbLine
 62
7
  6
CONTINUOUS
 10
144.775572102
 20
144.988019296
 11
145.956654102
 21
144.988019296
  0
LINE
  5
648
100
AcDbEntity
  8
0
100
AcDbLine
 62
7
  6
CONTINUOUS
 10
146.239639102
 20
144.988019296
 11
146.449098102
 21
144.988019296
  0
LINE
  5
649
100
AcDbEntity
  8
0
100
AcDbLine
 62
7
  6
CONTINUOUS
 10
147.266974102
 20
144.988019296
 11
147.509785102
 21
144.988019296
  0
LINE
  5
64A
100
AcDbEntity
  8
0
100
AcDbLine
 62
7
  6
CONTINUOUS
 10
147.859599102
 20
144.988019296
 11
148.5080608844
 21
144.988019296
  0
LINE
  5
64B
100
AcDbEntity
  8
0
100
AcDbLine
 62
7
  6
CONTINUOUS
 10
149.481834102
 20
144.988019296
 11
149.713654102
 21
144.988019296
  0
LINE
  5
64C
100
AcDbEntity
  8
0
100
AcDbLine
 62
7
  6
CONTINUOUS
 10
137.716244102
 20
145.0227489316
 11
137.932398102
 21
145.0227489316
  0
LINE
  5
64D
100
AcDbEntity
  8
0
100
AcDbLine
 62
7
  6
CONTINUOUS
 10
139.0555691751
 20
145.0227489316
 11
139.264953102
 21
145.0227489316
  0
LINE
  5
64E
100
AcDbEntity
  8
0
100
AcDbLine
 62
7
  6
CONTINUOUS
 10
140.232154102
 20
145.0227489316
 11
140.4553024881
 21
145.0227489316
  0
LINE
  5
64F
100
AcDbEntity
  8
0
100
AcDbLine
 62
7
  6
CONTINUOUS
 10
141.069864102
 20
145.0227489316
 11
141.286019102
 21
145.0227489316
  0
LINE
  5
650
100
AcDbEntity
  8
0
100
AcDbLine
 62
7
  6
CONTINUOUS
 10
142.052604102
 20
145.0227489316
 11
142.284297102
 21
145.0227489316
  0
LINE
  5
651
100
AcDbEntity
  8
0
100
AcDbLine
 62
7
  6
CONTINUOUS
 10
143.289272102
 20
145.0227489316
 11
143.505426102
 21
145.0227489316
  0
LINE
  5
652
100
AcDbEntity
  8
0
100
AcDbLine
 62
7
  6
CONTINUOUS
 10
144.775572102
 20
145.0227489316
 11
145.956654102
 21
145.0227489316
  0
LINE
  5
653
100
AcDbEntity
  8
0
100
AcDbLine
 62
7
  6
CONTINUOUS
 10
146.239639102
 20
145.0227489316
 11
146.449098102
 21
145.0227489316
  0
LINE
  5
654
100
AcDbEntity
  8
0
100
AcDbLine
 62
7
  6
CONTINUOUS
 10
147.266974102
 20
145.0227489316
 11
147.509785102
 21
145.0227489316
  0
LINE
  5
655
100
AcDbEntity
  8
0
100
AcDbLine
 62
7
  6
CONTINUOUS
 10
147.859599102
 20
145.0227489316
 11
148.5080608842
 21
145.0227489316
  0
LINE
  5
656
100
AcDbEntity
  8
0
100
AcDbLine
 62
7
  6
CONTINUOUS
 10
149.481834102
 20
145.0227489316
 11
149.713654102
 21
145.0227489316
  0
LINE
  5
657
100
AcDbEntity
  8
0
100
AcDbLine
 62
7
  6
CONTINUOUS
 10
148.4791327662
 20
145.167393341
 11
148.075754102
 21
145.167393341
  0
LINE
  5
658
100
AcDbEntity
  8
0
100
AcDbLine
 62
7
  6
CONTINUOUS
 10
145.956654102
 20
145.1738874319
 11
144.991727102
 21
145.1738874319
  0
LINE
  5
659
100
AcDbEntity
  8
0
100
AcDbLine
 62
7
  6
CONTINUOUS
 10
149.713654102
 20
145.2171377281
 11
149.481834102
 21
145.2171377281
  0
LINE
  5
65A
100
AcDbEntity
  8
0
100
AcDbLine
 62
7
  6
CONTINUOUS
 10
142.284297102
 20
145.2171377281
 11
142.052604102
 21
145.2171377281
  0
LINE
  5
65B
100
AcDbEntity
  8
0
100
AcDbLine
 62
7
  6
CONTINUOUS
 10
111.882310102
 20
145.3988714091
 11
113.342811102
 21
145.3988714091
  0
LINE
  5
65C
100
AcDbEntity
  8
DRAFT
100
AcDbLine
 62
7
  6
CONTINUOUS
 10
125.3376696482
 20
145.4125637755
 11
132.1128405559
 21
145.4125637755
  0
LINE
  5
65D
100
AcDbEntity
  8
0
100
AcDbLine
 62
7
  6
CONTINUOUS
 10
111.882310102
 20
145.4336010446
 11
113.342811102
 21
145.4336010446
  0
LINE
  5
65E
100
AcDbEntity
  8
0
100
AcDbLine
 62
7
  6
CONTINUOUS
 10
139.432090102
 20
145.4397620693
 11
140.073859102
 21
145.4397620693
  0
LINE
  5
65F
100
AcDbEntity
  8
0
100
AcDbLine
 62
7
  6
CONTINUOUS
 10
139.432090102
 20
145.4744917048
 11
140.073859102
 21
145.4744917048
  0
LINE
  5
660
100
AcDbEntity
  8
0
100
AcDbLine
 62
7
  6
CONTINUOUS
 10
139.995786102
 20
145.6256292353
 11
139.498920102
 21
145.6256292353
  0
LINE
  5
661
100
AcDbEntity
  8
0
100
AcDbLine
 62
7
  6
CONTINUOUS
 10
137.932398102
 20
145.6429051076
 11
138.4359365964
 21
145.6429051076
  0
LINE
  5
662
100
AcDbEntity
  8
0
100
AcDbLine
 62
7
  6
CONTINUOUS
 10
143.505426102
 20
145.6429051076
 11
144.0089646264
 21
145.6429051076
  0
LINE
  5
663
100
AcDbEntity
  8
0
100
AcDbLine
 62
7
  6
CONTINUOUS
 10
137.932398102
 20
145.6776347431
 11
138.4359365964
 21
145.6776347431
  0
LINE
  5
664
100
AcDbEntity
  8
0
100
AcDbLine
 62
7
  6
CONTINUOUS
 10
143.505426102
 20
145.6776347431
 11
144.0089646264
 21
145.6776347431
  0
LINE
  5
665
100
AcDbEntity
  8
0
100
AcDbLine
 62
7
  6
CONTINUOUS
 10
144.991727102
 20
145.6925272941
 11
145.867590102
 21
145.6925272941
  0
LINE
  5
666
100
AcDbEntity
  8
0
100
AcDbLine
 62
7
  6
CONTINUOUS
 10
144.991727102
 20
145.7272569296
 11
145.867590102
 21
145.7272569296
  0
LINE
  5
667
100
AcDbEntity
  8
0
100
AcDbLine
 62
7
  6
CONTINUOUS
 10
143.9444327822
 20
145.8222791525
 11
143.505426102
 21
145.8222791525
  0
LINE
  5
668
100
AcDbEntity
  8
0
100
AcDbLine
 62
7
  6
CONTINUOUS
 10
138.3714047536
 20
145.8222791525
 11
137.932398102
 21
145.8222791525
  0
LINE
  5
669
100
AcDbEntity
  8
0
100
AcDbLine
 62
7
  6
CONTINUOUS
 10
145.867590102
 20
145.8783944601
 11
144.991727102
 21
145.8783944601
  0
LINE
  5
66A
100
AcDbEntity
  8
0
100
AcDbLine
 62
7
  6
CONTINUOUS
 10
113.342811102
 20
146.1262561419
 11
111.88230699
 21
146.1262561419
  0
LINE
  5
66B
100
AcDbEntity
  8
0
100
AcDbLine
 62
7
  6
CONTINUOUS
 10
140.528403102
 20
146.3539062267
 11
141.069864102
 21
146.3539062267
  0
LINE
  5
66C
100
AcDbEntity
  8
0
100
AcDbLine
 62
7
  6
CONTINUOUS
 10
141.286019102
 20
146.3539062267
 11
141.827479102
 21
146.3539062267
  0
LINE
  5
66D
100
AcDbEntity
  8
0
100
AcDbLine
 62
7
  6
CONTINUOUS
 10
144.991727102
 20
146.3539062267
 11
145.941115102
 21
146.3539062267
  0
LINE
  5
66E
100
AcDbEntity
  8
0
100
AcDbLine
 62
7
  6
CONTINUOUS
 10
137.932398102
 20
146.3604003175
 11
138.3714020078
 21
146.3604003175
  0
LINE
  5
66F
100
AcDbEntity
  8
0
100
AcDbLine
 62
7
  6
CONTINUOUS
 10
143.505426102
 20
146.3604003175
 11
143.9444300359
 21
146.3604003175
  0
LINE
  5
670
100
AcDbEntity
  8
0
100
AcDbLine
 62
7
  6
CONTINUOUS
 10
148.075754102
 20
146.3604003175
 11
148.4791324201
 21
146.3604003175
  0
LINE
  5
671
100
AcDbEntity
  8
0
100
AcDbLine
 62
7
  6
CONTINUOUS
 10
140.528403102
 20
146.3886358622
 11
141.069864102
 21
146.3886358622
  0
LINE
  5
672
100
AcDbEntity
  8
0
100
AcDbLine
 62
7
  6
CONTINUOUS
 10
141.286019102
 20
146.3886358622
 11
141.827479102
 21
146.3886358622
  0
LINE
  5
673
100
AcDbEntity
  8
0
100
AcDbLine
 62
7
  6
CONTINUOUS
 10
144.991727102
 20
146.3886358622
 11
145.941115102
 21
146.3886358622
  0
LINE
  5
674
100
AcDbEntity
  8
0
100
AcDbLine
 62
7
  6
CONTINUOUS
 10
137.932398102
 20
146.3951299531
 11
138.3714020081
 21
146.3951299531
  0
LINE
  5
675
100
AcDbEntity
  8
0
100
AcDbLine
 62
7
  6
CONTINUOUS
 10
143.505426102
 20
146.3951299531
 11
143.9444300361
 21
146.3951299531
  0
LINE
  5
676
100
AcDbEntity
  8
0
100
AcDbLine
 62
7
  6
CONTINUOUS
 10
148.075754102
 20
146.3951299531
 11
148.47913242
 21
146.3951299531
  0
LINE
  5
677
100
AcDbEntity
  8
0
100
AcDbLine
 62
7
  6
CONTINUOUS
 10
148.5080664496
 20
146.5397733927
 11
147.859599102
 21
146.5397733927
  0
LINE
  5
678
100
AcDbEntity
  8
0
100
AcDbLine
 62
7
  6
CONTINUOUS
 10
147.509785102
 20
146.5397733927
 11
147.300326102
 21
146.5397733927
  0
LINE
  5
679
100
AcDbEntity
  8
0
100
AcDbLine
 62
7
  6
CONTINUOUS
 10
146.495967102
 20
146.5397733927
 11
146.239639102
 21
146.5397733927
  0
LINE
  5
67A
100
AcDbEntity
  8
0
100
AcDbLine
 62
7
  6
CONTINUOUS
 10
145.941115102
 20
146.5397733927
 11
144.775572102
 21
146.5397733927
  0
LINE
  5
67B
100
AcDbEntity
  8
0
100
AcDbLine
 62
7
  6
CONTINUOUS
 10
144.0090372926
 20
146.5397733927
 11
143.289272102
 21
146.5397733927
  0
LINE
  5
67C
100
AcDbEntity
  8
0
100
AcDbLine
 62
7
  6
CONTINUOUS
 10
141.827479102
 20
146.5397733927
 11
140.528403102
 21
146.5397733927
  0
LINE
  5
67D
100
AcDbEntity
  8
0
100
AcDbLine
 62
7
  6
CONTINUOUS
 10
139.888908102
 20
146.5397733927
 11
139.643824102
 21
146.5397733927
  0
LINE
  5
67E
100
AcDbEntity
  8
0
100
AcDbLine
 62
7
  6
CONTINUOUS
 10
138.4360092626
 20
146.5397733927
 11
137.716244102
 21
146.5397733927
  0
LWPOLYLINE
  5
67F
100
AcDbEntity
  8
0
100
AcDbPolyline
 62
7
  6
CONTINUOUS
 90
16
 70
0
 10
113.742811102
 20
147.5055909615
 10
113.5704777349
 20
147.5066370837
 10
113.4014697933
 20
147.4924355378
 10
113.2357872772
 20
147.4629863237
 10
113.0718627336
 20
147.4177357388
 10
112.9112636155
 20
147.3572374858
 10
112.7586922819
 20
147.2831526725
 10
112.6144887843
 20
147.1950381797
 10
112.4783130712
 20
147.0933371267
 10
112.3538473471
 20
146.9810399794
 10
112.2415049466
 20
146.8578274084
 10
112.1408725352
 20
146.7240187432
 10
112.0543923137
 20
146.5835624385
 10
111.9828783492
 20
146.4377746458
 10
111.9255165746
 20
146.2853392136
 10
111.88230699
 20
146.1262561419
  0
LWPOLYLINE
  5
680
100
AcDbEntity
  8
0
100
AcDbPolyline
 62
7
  6
CONTINUOUS
 90
12
 70
0
 10
138.3714020078
 20
146.3604003175
 10
138.4186541073
 20
146.3596399679
 10
138.4628223468
 20
146.35476396
 10
138.5039067263
 20
146.3457722939
 10
138.5424401765
 20
146.3326721326
 10
138.5778897668
 20
146.3154563131
 10
138.6086567048
 20
146.2941033465
 10
138.6343711066
 20
146.2681513622
 10
138.6554028562
 20
146.2380622309
 10
138.6712628137
 20
146.205200075
 10
138.6817879326
 20
146.1700196023
 10
138.6871412594
 20
146.1320661052
  0
LWPOLYLINE
  5
681
100
AcDbEntity
  8
0
100
AcDbPolyline
 62
7
  6
CONTINUOUS
 90
13
 70
0
 10
138.3714020081
 20
146.3951299531
 10
138.4186629027
 20
146.3943682678
 10
138.4628373729
 20
146.389490646
 10
138.5039254188
 20
146.3804970878
 10
138.5424593845
 20
146.367394208
 10
138.5779069259
 20
146.3501753916
 10
138.6086710105
 20
146.3288207945
 10
138.6343817407
 20
146.3028694651
 10
138.6554090141
 20
146.2727823549
 10
138.6712654902
 20
146.2399224742
 10
138.6817887221
 20
146.2047441597
 10
138.6871411568
 20
146.1667930746
 10
138.6873227941
 20
146.0913395836
  0
LWPOLYLINE
  5
682
100
AcDbEntity
  8
0
100
AcDbPolyline
 62
7
  6
CONTINUOUS
 90
3
 70
0
 10
138.4360092626
 20
146.5397733927
 10
138.5066351308
 20
146.5349992267
 10
138.5721513131
 20
146.5239450272
  0
LINE
  5
683
100
AcDbEntity
  8
RACCORDO
100
AcDbLine
 62
7
  6
CONTINUOUS
 10
142.7022739806
 20
142.7102780147
 11
142.712043927
 21
142.7062620741
  0
LWPOLYLINE
  5
684
100
AcDbEntity
  8
RACCORDO
100
AcDbPolyline
 62
7
  6
CONTINUOUS
 90
9
 70
0
 10
160.8466739855
 20
92.8331243986
 10
160.84822621
 20
92.8037752437
 10
160.8521929502
 20
92.7756795781
 10
160.8585284935
 20
92.7487900717
 10
160.867278278
 20
92.7230366503
 10
160.8778187402
 20
92.6989074374
 10
160.889936028
 20
92.6765066839
 10
160.9037842661
 20
92.6555284087
 10
160.9193021369
 20
92.6358493625
  0
LINE
  5
685
100
AcDbEntity
  8
0
100
AcDbLine
 62
7
  6
CONTINUOUS
 10
159.5377549828
 20
94.7625637755
 11
159.5377549828
 21
96.1029893264
  0
LINE
  5
686
100
AcDbEntity
  8
0
100
AcDbLine
 62
7
  6
CONTINUOUS
 10
159.5377549828
 20
96.4859680042
 11
159.5377549828
 21
97.4434148774
  0
LINE
  5
687
100
AcDbEntity
  8
0
100
AcDbLine
 62
7
  6
CONTINUOUS
 10
161.100255102
 20
97.0604361996
 11
161.100255102
 21
96.8689466819
  0
LINE
  5
688
100
AcDbEntity
  8
0
100
AcDbLine
 62
7
  6
CONTINUOUS
 10
161.475255102
 20
96.8051169023
 11
161.475255102
 21
97.0604361996
  0
LINE
  5
689
100
AcDbEntity
  8
RACCORDO
100
AcDbLine
 62
7
  6
CONTINUOUS
 10
162.225255102
 20
132.0125637755
 11
162.225255102
 21
128.0125637755
  0
LINE
  5
68A
100
AcDbEntity
  8
RACCORDO
100
AcDbLine
 62
7
  6
CONTINUOUS
 10
162.225255102
 20
105.5125637755
 11
162.225255102
 21
101.5125637755
  0
LWPOLYLINE
  5
68B
100
AcDbEntity
  8
RACCORDO
100
AcDbPolyline
 62
7
  6
CONTINUOUS
 90
9
 70
0
 10
160.8466739855
 20
140.6920031524
 10
160.84822621
 20
140.7213523073
 10
160.8521929502
 20
140.7494479729
 10
160.8585284935
 20
140.7763374793
 10
160.867278278
 20
140.8020909008
 10
160.8778187402
 20
140.8262201136
 10
160.889936028
 20
140.8486208671
 10
160.9037842661
 20
140.8695991423
 10
160.9193021369
 20
140.8892781885
  0
LINE
  5
68C
100
AcDbEntity
  8
0
100
AcDbLine
 62
7
  6
CONTINUOUS
 10
156.2877551039
 20
97.0604361996
 11
156.225255102
 21
96.7412871227
  0
LINE
  5
68D
100
AcDbEntity
  8
0
100
AcDbLine
 62
7
  6
CONTINUOUS
 10
156.600255102
 20
96.7412871227
 11
156.6627550871
 21
96.9966062412
  0
LINE
  5
68E
100
AcDbEntity
  8
0
100
AcDbLine
 62
7
  6
CONTINUOUS
 10
158.6002551616
 20
95.2093722776
 11
158.662755102
 21
95.4646914408
  0
LINE
  5
68F
100
AcDbEntity
  8
RACCORDO
100
AcDbLine
 62
253
  6
CONTINUOUS
 10
156.0769826222
 20
92.8177822884
 11
156.0740523885
 21
92.8078790387
  0
LINE
  5
690
100
AcDbEntity
  8
0
100
AcDbLine
 62
7
  6
CONTINUOUS
 10
156.412755102
 20
97.3157553181
 11
156.2877551039
 21
97.0604361996
  0
LINE
  5
691
100
AcDbEntity
  8
0
100
AcDbLine
 62
7
  6
CONTINUOUS
 10
156.6627550871
 20
96.9966062412
 11
156.787755102
 21
97.1880957589
  0
LINE
  5
692
100
AcDbEntity
  8
0
100
AcDbLine
 62
7
  6
CONTINUOUS
 10
156.6627550871
 20
97.5710744366
 11
156.412755102
 21
97.3157553181
  0
LINE
  5
693
100
AcDbEntity
  8
RACCORDO
100
AcDbLine
 62
7
  6
CONTINUOUS
 10
167.1964412073
 20
111.2337498807
 11
167.225255102
 21
111.2625637755
  0
LINE
  5
694
100
AcDbEntity
  8
0
100
AcDbLine
 62
7
  6
CONTINUOUS
 10
156.787755102
 20
97.1880957589
 11
156.975255102
 21
97.3157553181
  0
LINE
  5
695
100
AcDbEntity
  8
0
100
AcDbLine
 62
7
  6
CONTINUOUS
 10
158.2252551616
 20
95.3370318815
 11
158.0377551616
 21
95.2093722776
  0
LINE
  5
696
100
AcDbEntity
  8
0
100
AcDbLine
 62
7
  6
CONTINUOUS
 10
158.100255102
 20
94.8263935607
 11
158.3502550424
 21
94.9540531367
  0
LINE
  5
697
100
AcDbEntity
  8
0
100
AcDbLine
 62
7
  6
CONTINUOUS
 10
160.9752552213
 20
96.2306488857
 11
161.2252549828
 21
96.3583084449
  0
LWPOLYLINE
  5
698
100
AcDbEntity
  8
RACCORDO
100
AcDbPolyline
 62
253
  6
CONTINUOUS
 90
37
 70
0
 10
126.525255102
 20
150.0362346314
 10
126.2433981174
 20
150.0240567723
 10
125.9633814503
 20
149.987571913
 10
125.6873076138
 20
149.9269852979
 10
125.4173223889
 20
149.842706241
 10
125.1554051897
 20
149.7352926966
 10
124.9033742289
 20
149.6053943412
 10
124.663157313
 20
149.4538665577
 10
124.436662889
 20
149.2817701618
 10
124.2256025097
 20
149.0902489187
 10
124.0316442018
 20
148.8806109919
 10
123.8564194888
 20
148.6543982295
 10
123.7014125362
 20
148.4133192035
 10
123.5679048901
 20
148.1591210752
 10
123.4570649299
 20
147.8937451851
 10
123.3699100064
 20
147.6193920771
 10
123.3071813689
 20
147.3381301737
 10
123.2694529016
 20
147.0521678117
 10
123.2570811891
 20
146.7640364472
 10
123.2701563142
 20
146.475962468
 10
123.3085702161
 20
146.1902059337
 10
123.3719098661
 20
145.9093387967
 10
123.4595627939
 20
145.6355705273
 10
123.5707634593
 20
145.3709304166
 10
123.7044541676
 20
145.1175800777
 10
123.8594068221
 20
144.8774866194
 10
124.0343602303
 20
144.6522976634
 10
124.2279685202
 20
144.4435191629
 10
124.4387010646
 20
144.2526436284
 10
124.6648768165
 20
144.0810514057
 10
124.9047960067
 20
143.9299021072
 10
125.1566231789
 20
143.8002521495
 10
125.4184183461
 20
143.6930077325
 10
125.6882270872
 20
143.608879765
 10
125.9640257429
 20
143.5484225989
 10
126.2437316126
 20
143.5120210578
 10
126.525255102
 20
143.4998741893
  0
LINE
  5
699
100
AcDbEntity
  8
RACCORDO
100
AcDbLine
 62
7
  6
CONTINUOUS
 10
126.343876001
 20
150.2587806594
 11
126.1377335045
 21
150.2551128566
  0
LINE
  5
69A
100
AcDbEntity
  8
RACCORDO
100
AcDbLine
 62
7
  6
CONTINUOUS
 10
126.4031547967
 20
150.2595477806
 11
126.343876001
 21
150.2587806594
  0
LINE
  5
69B
100
AcDbEntity
  8
RACCORDO
100
AcDbLine
 62
7
  6
CONTINUOUS
 10
126.1377335045
 20
150.2551128566
 11
126.1047612699
 21
150.2547027671
  0
LWPOLYLINE
  5
69C
100
AcDbEntity
  8
0
100
AcDbPolyline
 62
7
  6
CONTINUOUS
 90
18
 70
0
 10
109.357701102
 20
148.2337680587
 10
109.1247115769
 20
148.2317828508
 10
108.8966075555
 20
148.2104599402
 10
108.6733890379
 20
148.169799327
 10
108.4534061678
 20
148.1091753187
 10
108.2383088015
 20
148.0292136077
 10
108.0330465077
 20
147.9317912717
 10
107.8377615618
 20
147.8164179621
 10
107.6523116884
 20
147.6835840276
 10
107.4812196303
 20
147.5366375912
 10
107.3248719122
 20
147.3751941114
 10
107.1828820093
 20
147.1996381298
 10
107.0586130901
 20
147.0144713943
 10
106.9525989316
 20
146.8196377828
 10
106.8643057566
 20
146.6151934173
 10
106.7954954028
 20
146.4058084119
 10
106.7465610202
 20
146.191323624
 10
106.7171094586
 20
145.9718981962
  0
LINE
  5
69D
100
AcDbEntity
  8
RACCORDO
100
AcDbLine
 62
7
  6
CONTINUOUS
 10
126.469863674
 20
150.260071992
 11
126.4031547967
 21
150.2595477806
  0
LINE
  5
69E
100
AcDbEntity
  8
RACCORDO
100
AcDbLine
 62
7
  6
CONTINUOUS
 10
126.1047612699
 20
150.2547027671
 11
126.073428855
 21
150.2544893906
  0
LINE
  5
69F
100
AcDbEntity
  8
DRAFT
100
AcDbLine
 62
7
  6
CONTINUOUS
 10
125.3376696482
 20
148.1125637755
 11
132.1128405559
 21
148.1125637755
  0
LINE
  5
6A0
100
AcDbEntity
  8
DRAFT
100
AcDbLine
 62
7
  6
CONTINUOUS
 10
130.925255102
 20
148.5625637755
 11
126.525255102
 21
148.5625637755
  0
LINE
  5
6A1
100
AcDbEntity
  8
DRAFT
100
AcDbLine
 62
7
  6
CONTINUOUS
 10
130.925255102
 20
150.0125637755
 11
126.525255102
 21
150.0125637755
  0
LINE
  5
6A2
100
AcDbEntity
  8
RACCORDO
100
AcDbLine
 62
7
  6
CONTINUOUS
 10
126.525255102
 20
150.0362346314
 11
130.925255102
 21
150.0362346314
  0
LINE
  5
6A3
100
AcDbEntity
  8
RACCORDO
100
AcDbLine
 62
7
  6
CONTINUOUS
 10
103.725255102
 20
150.2544351418
 11
126.073428855
 21
150.2544893906
  0
LINE
  5
6A4
100
AcDbEntity
  8
RACCORDO
100
AcDbLine
 62
7
  6
CONTINUOUS
 10
130.9252551006
 20
150.260215086
 11
126.469863674
 21
150.260071992
  0
LINE
  5
6A5
100
AcDbEntity
  8
RACCORDO
100
AcDbLine
 62
7
  6
CONTINUOUS
 10
153.725255102
 20
150.2544351418
 11
131.3762686569
 21
150.2544765706
  0
LINE
  5
6A6
100
AcDbEntity
  8
RACCORDO
100
AcDbLine
 62
7
  6
CONTINUOUS
 10
130.9831745294
 20
150.2600657589
 11
130.9252551006
 21
150.260215086
  0
LWPOLYLINE
  5
6A7
100
AcDbEntity
  8
0
100
AcDbPolyline
 62
7
  6
CONTINUOUS
 90
16
 70
0
 10
113.742811102
 20
147.540320597
 10
113.5704777341
 20
147.5413667192
 10
113.4014697919
 20
147.5271651731
 10
113.2357872752
 20
147.4977159588
 10
113.0718627312
 20
147.4524653736
 10
112.9112636128
 20
147.3919671202
 10
112.7586922788
 20
147.3178823063
 10
112.6144887805
 20
147.2297678128
 10
112.4783130666
 20
147.1280667587
 10
112.3538473415
 20
147.0157696094
 10
112.2415049391
 20
146.8925570335
 10
112.1408725254
 20
146.7587483624
 10
112.0543923034
 20
146.6182920553
 10
111.9828783407
 20
146.4725042653
 10
111.9255165695
 20
146.3200688393
 10
111.88230699
 20
146.1609857774
  0
LINE
  5
6A8
100
AcDbEntity
  8
RACCORDO
100
AcDbLine
 62
7
  6
CONTINUOUS
 10
131.3762686569
 20
150.2544765706
 11
131.34994315
 21
150.2546442492
  0
LINE
  5
6A9
100
AcDbEntity
  8
RACCORDO
100
AcDbLine
 62
7
  6
CONTINUOUS
 10
131.0362244985
 20
150.2596657409
 11
130.9831745294
 21
150.2600657589
  0
LINE
  5
6AA
100
AcDbEntity
  8
RACCORDO
100
AcDbLine
 62
7
  6
CONTINUOUS
 10
131.1000514412
 20
150.2588821955
 11
131.0362244985
 21
150.2596657409
  0
LINE
  5
6AB
100
AcDbEntity
  8
RACCORDO
100
AcDbLine
 62
7
  6
CONTINUOUS
 10
131.34994315
 20
150.2546442492
 11
131.3134083799
 21
150.255089996
  0
LINE
  5
6AC
100
AcDbEntity
  8
RACCORDO
100
AcDbLine
 62
7
  6
CONTINUOUS
 10
131.3134083799
 20
150.255089996
 11
131.1000514412
 21
150.2588821955
  0
LWPOLYLINE
  5
6AD
100
AcDbEntity
  8
0
100
AcDbPolyline
 62
7
  6
CONTINUOUS
 90
3
 70
0
 10
148.6668651261
 20
146.5214484928
 10
148.5897952682
 20
146.5341403358
 10
148.5080664496
 20
146.5397733927
  0
LWPOLYLINE
  5
6AE
100
AcDbEntity
  8
0
100
AcDbPolyline
 62
7
  6
CONTINUOUS
 90
3
 70
0
 10
144.1430452937
 20
146.5244799221
 10
144.0784607876
 20
146.5352086991
 10
144.0090372926
 20
146.5397733927
  0
LWPOLYLINE
  5
6AF
100
AcDbEntity
  8
RACCORDO
100
AcDbPolyline
 62
253
  6
CONTINUOUS
 90
40
 70
0
 10
131.3842267808
 20
150.2544351418
 10
131.6579092601
 20
150.2076843024
 10
131.9240087836
 20
150.1412991157
 10
132.1825253513
 20
150.0552795817
 10
132.4348221878
 20
149.9488988014
 10
132.6795360686
 20
149.8228836739
 10
132.9125773196
 20
149.6794148963
 10
133.1337677427
 20
149.5182623952
 10
133.3432855362
 20
149.3396562441
 10
133.5375756209
 20
149.1464673608
 10
133.716460467
 20
148.9384258561
 10
133.8801176044
 20
148.7158016194
 10
134.025524544
 20
148.4822752358
 10
134.152415546
 20
148.2375730102
 10
134.2610563503
 20
147.9819686378
 10
134.3492216866
 20
147.7199637897
 10
134.4165196144
 20
147.4513225436
 10
134.4633420743
 20
147.1762808219
 10
134.488639617
 20
146.9000480623
 10
134.491921259
 20
146.6225711915
 10
134.4736779838
 20
146.3439032829
 10
134.4343332931
 20
146.0694129947
 10
134.3734465428
 20
145.7992833613
 10
134.291458377
 20
145.5333313483
 10
134.1901142294
 20
145.276376511
 10
134.0690959263
 20
145.028675095
 10
133.9287216415
 20
144.7899708546
 10
133.7716913303
 20
144.5643146086
 10
133.5978018139
 20
144.3519831223
 10
133.407256271
 20
144.1526996304
 10
133.2033641934
 20
143.9696846556
 10
132.9859323008
 20
143.803171318
 10
132.7551538734
 20
143.6529264975
 10
132.514918244
 20
143.5214713564
 10
132.264945071
 20
143.4090749837
 10
132.005514696
 20
143.3154682904
 10
131.7413574759
 20
143.2423651718
 10
131.4740501964
 20
143.1903369262
 10
131.2020160717
 20
143.1588122553
 10
130.925255102
 20
143.147791159
  0
LWPOLYLINE
  5
6B0
100
AcDbEntity
  8
0
100
AcDbPolyline
 62
7
  6
CONTINUOUS
 90
10
 70
0
 10
138.5721513131
 20
146.5239450272
 10
138.6325578096
 20
146.506610794
 10
138.6882345276
 20
146.4829243979
 10
138.7388015596
 20
146.4529579683
 10
138.7831191839
 20
146.4169278924
 10
138.8210110449
 20
146.3742583015
 10
138.8526534982
 20
146.3255250643
 10
138.8774358885
 20
146.2726721746
 10
138.8951546641
 20
146.2163476302
 10
138.9060133766
 20
146.1559034332
  0
LWPOLYLINE
  5
6B1
100
AcDbEntity
  8
RACCORDO
100
AcDbPolyline
 62
253
  6
CONTINUOUS
 90
15
 70
0
 10
156.1845747489
 20
140.6140244444
 10
156.1840803063
 20
140.614273177
 10
156.1824578129
 20
140.6155529292
 10
156.1797090372
 20
140.617865941
 10
156.1758364069
 20
140.621213907
 10
156.1708453227
 20
140.6256042673
 10
156.1647442135
 20
140.6310501818
 10
156.1574356521
 20
140.637658066
 10
156.1490344457
 20
140.645340474
 10
156.1398667594
 20
140.6538187259
 10
156.1298895106
 20
140.6631527569
 10
156.1191644414
 20
140.6733016414
 10
156.1081674531
 20
140.6838269578
 10
156.0970577301
 20
140.6945825657
 10
156.0856842551
 20
140.7057215383
  0
LINE
  5
6B2
100
AcDbEntity
  8
RACCORDO
100
AcDbLine
 62
7
  6
CONTINUOUS
 10
167.1964412073
 20
122.2913776703
 11
167.225255102
 21
122.2625637755
  0
LINE
  5
6B3
100
AcDbEntity
  8
0
100
AcDbLine
 62
7
  6
CONTINUOUS
 10
146.449098102
 20
146.2483665813
 11
147.266974102
 21
144.988019296
  0
LINE
  5
6B4
100
AcDbEntity
  8
0
100
AcDbLine
 62
7
  6
CONTINUOUS
 10
146.449098102
 20
146.2830962168
 11
147.266974102
 21
145.0227489316
  0
LINE
  5
6B5
100
AcDbEntity
  8
0
100
AcDbLine
 62
7
  6
CONTINUOUS
 10
147.300326102
 20
145.2793116655
 11
146.495967102
 21
146.5397733927
  0
LINE
  5
6B6
100
AcDbEntity
  8
RACCORDO
100
AcDbLine
 62
253
  6
CONTINUOUS
 10
156.0769824376
 20
140.7073449659
 11
156.0740520344
 21
140.7172481582
  0
LINE
  5
6B7
100
AcDbEntity
  8
RACCORDO
100
AcDbLine
 62
7
  6
CONTINUOUS
 10
163.725255102
 20
101.5125637755
 11
163.725255102
 21
115.0305129679
  0
LINE
  5
6B8
100
AcDbEntity
  8
RACCORDO
100
AcDbLine
 62
7
  6
CONTINUOUS
 10
163.725255102
 20
118.4946145831
 11
163.725255102
 21
132.0125637755
  0
LINE
  5
6B9
100
AcDbEntity
  8
RACCORDO
100
AcDbLine
 62
7
  6
CONTINUOUS
 10
165.525255102
 20
90.9625637755
 11
165.525255102
 21
108.5625637755
  0
LINE
  5
6BA
100
AcDbEntity
  8
RACCORDO
100
AcDbLine
 62
7
  6
CONTINUOUS
 10
165.525255102
 20
124.9625637755
 11
165.525255102
 21
142.5625637755
  0
LINE
  5
6BB
100
AcDbEntity
  8
0
100
AcDbLine
 62
7
  6
CONTINUOUS
 10
158.287755102
 20
95.5285212204
 11
158.2252551616
 21
95.3370318815
  0
LINE
  5
6BC
100
AcDbEntity
  8
0
100
AcDbLine
 62
7
  6
CONTINUOUS
 10
161.100255102
 20
96.8689466819
 11
161.0377549828
 21
96.6774573431
  0
LINE
  5
6BD
100
AcDbEntity
  8
0
100
AcDbLine
 62
7
  6
CONTINUOUS
 10
161.4127549828
 20
96.6136275634
 11
161.475255102
 21
96.8051169023
  0
LINE
  5
6BE
100
AcDbEntity
  8
0
100
AcDbLine
 62
7
  6
CONTINUOUS
 10
158.3502550424
 20
94.9540531367
 11
158.6002551616
 21
95.2093722776
  0
LINE
  5
6BF
100
AcDbEntity
  8
0
100
AcDbLine
 62
7
  6
CONTINUOUS
 10
161.0377549828
 20
96.6774573431
 11
160.912755102
 21
96.5497977838
  0
LWPOLYLINE
  5
6C0
100
AcDbEntity
  8
RACCORDO
100
AcDbPolyline
 62
7
  6
CONTINUOUS
 90
10
 70
0
 10
156.1894017915
 20
92.9060565728
 10
156.2070598192
 20
92.923840364
 10
156.2232070371
 20
92.943105075
 10
156.2377965624
 20
92.9639801359
 10
156.2510163633
 20
92.9867519852
 10
156.2626421066
 20
93.0113414044
 10
156.2719986965
 20
93.0373344591
 10
156.2791392557
 20
93.0647955928
 10
156.2840237592
 20
93.0937770338
 10
156.2857605175
 20
93.1239001899
  0
LINE
  5
6C1
100
AcDbEntity
  8
RACCORDO
100
AcDbLine
 62
253
  6
CONTINUOUS
 10
153.725255102
 20
90.8833687268
 11
155.8370705379
 21
92.9951841627
  0
LINE
  5
6C2
100
AcDbEntity
  8
RACCORDO
100
AcDbLine
 62
7
  6
CONTINUOUS
 10
153.725255102
 20
90.4591208128
 11
156.0491944947
 21
92.7830602055
  0
LINE
  5
6C3
100
AcDbEntity
  8
DRAFT
100
AcDbLine
 62
7
  6
CONTINUOUS
 10
156.088858999
 20
92.7930724283
 11
153.7400812428
 21
90.4442946721
  0
LINE
  5
6C4
100
AcDbEntity
  8
DRAFT
100
AcDbLine
 62
7
  6
CONTINUOUS
 10
157.290940527
 20
91.5909909003
 11
153.8968279773
 21
88.1968783506
  0
LINE
  5
6C5
100
AcDbEntity
  8
RACCORDO
100
AcDbLine
 62
253
  6
CONTINUOUS
 10
152.4747323696
 20
89.6710684116
 11
153.7075016537
 21
90.9011608096
  0
LINE
  5
6C6
100
AcDbEntity
  8
RACCORDO
100
AcDbLine
 62
7
  6
CONTINUOUS
 10
152.6868563266
 20
89.4068500013
 11
153.725255102
 21
90.4429939548
  0
LWPOLYLINE
  5
6C7
100
AcDbEntity
  8
RACCORDO
100
AcDbPolyline
 62
253
  6
CONTINUOUS
 90
10
 70
0
 10
156.0491944947
 20
92.7830602055
 10
156.0856747393
 20
92.8193966552
 10
156.0970408253
 20
92.8305285366
 10
156.108145321
 20
92.8412792852
 10
156.11913945
 20
92.8518021224
 10
156.129863886
 20
92.8619506938
 10
156.1398422305
 20
92.8712860093
 10
156.1490132936
 20
92.8797676091
 10
156.1574196419
 20
92.8874549216
 10
156.1647329764
 20
92.8940672742
  0
LINE
  5
6C8
100
AcDbEntity
  8
RACCORDO
100
AcDbLine
 62
253
  6
CONTINUOUS
 10
155.8370705377
 20
92.9951841625
 11
155.9627249092
 21
93.1172167704
  0
LINE
  5
6C9
100
AcDbEntity
  8
RACCORDO
100
AcDbLine
 62
253
  6
CONTINUOUS
 10
155.9627249092
 20
93.1172167704
 11
156.0236453001
 21
93.1756941544
  0
LINE
  5
6CA
100
AcDbEntity
  8
RACCORDO
100
AcDbLine
 62
253
  6
CONTINUOUS
 10
156.0236453001
 20
93.1756941544
 11
156.1045670514
 21
93.2525691211
  0
LINE
  5
6CB
100
AcDbEntity
  8
RACCORDO
100
AcDbLine
 62
253
  6
CONTINUOUS
 10
156.1045670514
 20
93.2525691211
 11
156.1629510453
 21
93.3073719505
  0
LWPOLYLINE
  5
6CC
100
AcDbEntity
  8
RACCORDO
100
AcDbPolyline
 62
253
  6
CONTINUOUS
 90
5
 70
0
 10
156.1629510453
 20
93.3073719505
 10
156.1863522188
 20
93.3290600326
 10
156.1933625525
 20
93.3354837874
 10
156.1974788362
 20
93.3391712258
 10
156.1988766588
 20
93.3402896454
  0
LWPOLYLINE
  5
6CD
100
AcDbEntity
  8
RACCORDO
100
AcDbPolyline
 62
253
  6
CONTINUOUS
 90
7
 70
0
 10
156.1647329764
 20
92.8940672742
 10
156.1708379435
 20
92.899516727
 10
156.1758324961
 20
92.9039102114
 10
156.1797076585
 20
92.9072604343
 10
156.1824578425
 20
92.9095746907
 10
156.1840807962
 20
92.910854834
 10
156.1845747489
 20
92.9111031066
  0
LWPOLYLINE
  5
6CE
100
AcDbEntity
  8
0
100
AcDbPolyline
 62
7
  6
CONTINUOUS
 90
10
 70
0
 10
149.9671047821
 20
87.0347442689
 10
150.061064876
 20
87.0931874993
 10
150.1464861745
 20
87.1607602065
 10
150.224282873
 20
87.238587092
 10
150.2935407761
 20
87.3255434543
 10
150.351517297
 20
87.4182551893
 10
150.3977212556
 20
87.5169936013
 10
150.4326438321
 20
87.6214873861
 10
150.4550159809
 20
87.7275485262
 10
150.4643514485
 20
87.8351075927
  0
LINE
  5
6CF
100
AcDbEntity
  8
0
100
AcDbLine
 62
7
  6
CONTINUOUS
 10
149.8646058927
 20
86.9854305153
 11
149.9671047821
 21
87.0347442689
  0
LINE
  5
6D0
100
AcDbEntity
  8
RACCORDO
100
AcDbLine
 62
253
  6
CONTINUOUS
 10
98.8728880043
 20
151.8032819187
 11
158.5776221998
 21
151.8032819187
  0
LINE
  5
6D1
100
AcDbEntity
  8
RACCORDO
100
AcDbLine
 62
253
  6
CONTINUOUS
 10
98.8728880043
 20
153.3012262208
 11
158.5776221998
 21
153.3012262208
  0
LINE
  5
6D2
100
AcDbEntity
  8
RACCORDO
100
AcDbLine
 62
7
  6
CONTINUOUS
 10
158.7389597545
 20
153.4625637755
 11
98.7115504496
 21
153.4625637755
  0
LWPOLYLINE
  5
6D3
100
AcDbEntity
  8
RACCORDO
100
AcDbPolyline
 62
253
  6
CONTINUOUS
 90
28
 70
0
 10
158.5776221998
 20
151.8032819187
 10
159.0711474857
 20
151.7889561741
 10
159.5604624454
 20
151.746424067
 10
160.0455670789
 20
151.6756855972
 10
160.5282348519
 20
151.5763692805
 10
161.0066922987
 20
151.4488466012
 10
161.4756190216
 20
151.2942320122
 10
161.9348687714
 20
151.1121730585
 10
162.3845877974
 20
150.9030221951
 10
162.81989445
 20
150.6689512404
 10
163.2405416453
 20
150.4097115449
 10
163.6467764673
 20
150.1255517582
 10
164.0344585183
 20
149.8193896468
 10
164.4033572898
 20
149.4910483445
 10
164.7537032902
 20
149.1407047175
 10
165.0820476477
 20
148.7718071311
 10
165.3882138458
 20
148.3841240179
 10
165.6723784009
 20
147.9778869453
 10
165.9316219908
 20
147.5572389807
 10
166.1656952891
 20
147.1219334405
 10
166.374847622
 20
146.6722170083
 10
166.5569076466
 20
146.212972803
 10
166.7115224479
 20
145.7440603713
 10
166.8390449408
 20
145.2656201664
 10
166.9383625268
 20
144.7829566664
 10
167.0091043398
 20
144.2978380305
 10
167.0516412459
 20
143.8084960995
 10
167.0659732452
 20
143.3149308733
  0
LWPOLYLINE
  5
6D4
100
AcDbEntity
  8
RACCORDO
100
AcDbPolyline
 62
253
  6
CONTINUOUS
 90
28
 70
0
 10
158.5776221998
 20
153.3012262208
 10
159.1556984231
 20
153.2842876881
 10
159.7324321839
 20
153.233901971
 10
160.3058874745
 20
153.1501249249
 10
160.874221633
 20
153.0331072498
 10
161.4354073799
 20
152.8831382205
 10
161.9872533349
 20
152.7006976622
 10
162.5279156554
 20
152.4863205194
 10
163.0555040707
 20
152.240682994
 10
163.567846622
 20
151.9647518374
 10
164.0631165322
 20
151.659524299
 10
164.5397413158
 20
151.325986837
 10
164.9960528409
 20
150.9653121037
 10
165.4304607955
 20
150.5787820068
 10
165.8415670835
 20
150.1676700923
 10
166.2280913427
 20
149.7332567189
 10
166.5887604984
 20
149.2769393419
 10
166.9222920892
 20
148.8003088627
 10
167.2275122615
 20
148.3050354971
 10
167.5034347699
 20
147.7926922226
 10
167.7490629228
 20
147.2651057171
 10
167.9634298854
 20
146.7244494165
 10
168.1458597964
 20
146.1726147779
 10
168.2958188052
 20
145.6114447238
 10
168.4128280814
 20
145.0431288651
 10
168.4965987901
 20
144.4696937614
 10
168.5469804491
 20
143.8929824946
 10
168.5639175473
 20
143.3149308733
  0
LWPOLYLINE
  5
6D5
100
AcDbEntity
  8
RACCORDO
100
AcDbPolyline
 62
253
  6
CONTINUOUS
 90
3
 70
0
 10
156.1988766588
 20
140.1848379056
 10
156.1974789022
 20
140.1859562629
 10
156.1933634234
 20
140.1896429725
  0
LINE
  5
6D6
100
AcDbEntity
  8
ASSI
100
AcDbLine
 62
7
  6
CONTINUOUS
 10
157.691899102
 20
137.9076067755
 11
158.556177102
 21
137.1792737755
  0
LINE
  5
6D7
100
AcDbEntity
  8
ASSI
100
AcDbLine
 62
7
  6
CONTINUOUS
 10
158.556177102
 20
137.5776047755
 11
157.652006102
 21
138.3395557755
  0
LINE
  5
6D8
100
AcDbEntity
  8
RACCORDO
100
AcDbLine
 62
253
  6
CONTINUOUS
 10
156.1933634234
 20
140.1896429725
 11
156.1762568313
 21
140.2053936677
  0
LINE
  5
6D9
100
AcDbEntity
  8
RACCORDO
100
AcDbLine
 62
253
  6
CONTINUOUS
 10
156.1762568313
 20
140.2053936677
 11
156.1465950304
 21
140.2330477841
  0
LINE
  5
6DA
100
AcDbEntity
  8
RACCORDO
100
AcDbLine
 62
253
  6
CONTINUOUS
 10
156.1465950304
 20
140.2330477841
 11
156.0797024704
 21
140.2960801942
  0
LINE
  5
6DB
100
AcDbEntity
  8
RACCORDO
100
AcDbLine
 62
253
  6
CONTINUOUS
 10
156.0797024704
 20
140.2960801942
 11
155.9935879463
 21
140.378215461
  0
LINE
  5
6DC
100
AcDbEntity
  8
RACCORDO
100
AcDbLine
 62
253
  6
CONTINUOUS
 10
155.9935879463
 20
140.378215461
 11
155.8999713045
 21
140.4686855239
  0
LINE
  5
6DD
100
AcDbEntity
  8
RACCORDO
100
AcDbLine
 62
253
  6
CONTINUOUS
 10
155.8999713045
 20
140.4686855239
 11
155.8370705377
 21
140.5299433885
  0
LINE
  5
6DE
100
AcDbEntity
  8
RACCORDO
100
AcDbLine
 62
253
  6
CONTINUOUS
 10
153.7075016537
 20
142.6239667414
 11
152.4747323696
 21
143.8540591394
  0
LINE
  5
6DF
100
AcDbEntity
  8
RACCORDO
100
AcDbLine
 62
7
  6
CONTINUOUS
 10
153.725255102
 20
143.0821335963
 11
152.6868563266
 21
144.1182775497
  0
LINE
  5
6E0
100
AcDbEntity
  8
RACCORDO
100
AcDbLine
 62
253
  6
CONTINUOUS
 10
156.0856842551
 20
140.7057215383
 11
156.0491944947
 21
140.7420673455
  0
LINE
  5
6E1
100
AcDbEntity
  8
RACCORDO
100
AcDbLine
 62
253
  6
CONTINUOUS
 10
155.8370705379
 20
140.5299433883
 11
153.725255102
 21
142.6417588242
  0
LINE
  5
6E2
100
AcDbEntity
  8
RACCORDO
100
AcDbLine
 62
7
  6
CONTINUOUS
 10
156.0491944947
 20
140.7420673455
 11
153.725255102
 21
143.0660067382
  0
LINE
  5
6E3
100
AcDbEntity
  8
DRAFT
100
AcDbLine
 62
7
  6
CONTINUOUS
 10
153.7400812428
 20
143.080832879
 11
156.088858999
 21
140.7320551227
  0
LINE
  5
6E4
100
AcDbEntity
  8
DRAFT
100
AcDbLine
 62
7
  6
CONTINUOUS
 10
153.8968279773
 20
145.3282492005
 11
157.290940527
 21
141.9341366508
  0
LWPOLYLINE
  5
6E5
100
AcDbEntity
  8
RACCORDO
100
AcDbPolyline
 62
253
  6
CONTINUOUS
 90
27
 70
0
 10
152.4747323696
 20
143.8540591394
 10
152.291377142
 20
144.0514693427
 10
152.1245816714
 20
144.2595957768
 10
151.9743459578
 20
144.478438442
 10
151.8399796411
 20
144.7094020231
 10
151.7221730814
 20
144.9510818352
 10
151.622997359
 20
145.1992638229
 10
151.5428381254
 20
145.4539806376
 10
151.4813097292
 20
145.7151996279
 10
151.4393262961
 20
145.9786087848
 10
151.4172092307
 20
146.2441928757
 10
151.4146371285
 20
146.5119671331
 10
151.4315599023
 20
146.7776652469
 10
151.4682864111
 20
147.0412703688
 10
151.5245077959
 20
147.302799347
 10
151.5992473924
 20
147.558036415
 10
151.692822106
 20
147.8068908518
 10
151.8049150313
 20
148.0494533784
 10
151.9335987887
 20
148.281780392
 10
152.0791655085
 20
148.5036877375
 10
152.2413230604
 20
148.7153595698
 10
152.4172676733
 20
148.9134047509
 10
152.607235164
 20
149.0975641746
 10
152.8109897156
 20
149.268096947
 10
153.0250201073
 20
149.4223892478
 10
153.2481559322
 20
149.5595698038
 10
153.4815675971
 20
149.6805098882
  0
LWPOLYLINE
  5
6E6
100
AcDbEntity
  8
RACCORDO
100
AcDbPolyline
 62
253
  6
CONTINUOUS
 90
25
 70
0
 10
152.6868563266
 20
144.1182775497
 10
152.5025430041
 20
144.3178733366
 10
152.3352695681
 20
144.5317920346
 10
152.1861318129
 20
144.7585785671
 10
152.0560884049
 20
144.9967156497
 10
151.9459972253
 20
145.2445763101
 10
151.8565934546
 20
145.500424888
 10
151.7884355996
 20
145.7624983192
 10
151.7419165754
 20
146.0290720148
 10
151.7173043816
 20
146.2984063786
 10
151.7147242299
 20
146.5686991907
 10
151.7341539593
 20
146.838159254
 10
151.7754467136
 20
147.1050586307
 10
151.8383186881
 20
147.3676770635
 10
151.9223235998
 20
147.6242272119
 10
152.0268510796
 20
147.872930255
 10
152.151174796
 20
148.1121705209
 10
152.2944244322
 20
148.3403697548
 10
152.4555300139
 20
148.5559295804
 10
152.6333804488
 20
148.7574932723
 10
152.8267301385
 20
148.9437687738
 10
153.0340857354
 20
149.1134588844
 10
153.2539468777
 20
149.2655170862
 10
153.4848580418
 20
149.399112066
 10
153.725255102
 20
149.5134934909
  0
LINE
  5
6E7
100
AcDbEntity
  8
ASSI
100
AcDbLine
 62
7
  6
CONTINUOUS
 10
159.321476102
 20
136.2002897755
 11
159.469433102
 21
135.9366777755
  0
LINE
  5
6E8
100
AcDbEntity
  8
RACCORDO
100
AcDbLine
 62
7
  6
CONTINUOUS
 10
166.925255102
 20
142.5625637755
 11
166.925255102
 21
124.9625637755
  0
LINE
  5
6E9
100
AcDbEntity
  8
RACCORDO
100
AcDbLine
 62
7
  6
CONTINUOUS
 10
166.925255102
 20
108.5625637755
 11
166.925255102
 21
90.9625637755
  0
LINE
  5
6EA
100
AcDbEntity
  8
RACCORDO
100
AcDbLine
 62
253
  6
CONTINUOUS
 10
166.9964488227
 20
111.2320197382
 11
166.9964488227
 21
122.2931078128
  0
LINE
  5
6EB
100
AcDbEntity
  8
ASSI
100
AcDbLine
 62
253
  6
CONTINUOUS
 10
167.0659732452
 20
143.3149308733
 11
167.0659732452
 21
136.7625637755
  0
LINE
  5
6EC
100
AcDbEntity
  8
ASSI
100
AcDbLine
 62
253
  6
CONTINUOUS
 10
167.0659732452
 20
130.7625637755
 11
167.0659732452
 21
122.2931078128
  0
LINE
  5
6ED
100
AcDbEntity
  8
ASSI
100
AcDbLine
 62
253
  6
CONTINUOUS
 10
167.0659732452
 20
111.2320693857
 11
167.0659732452
 21
102.7625637755
  0
LINE
  5
6EE
100
AcDbEntity
  8
ASSI
100
AcDbLine
 62
253
  6
CONTINUOUS
 10
167.0659732452
 20
96.7625637755
 11
167.0659732452
 21
90.2101966778
  0
LINE
  5
6EF
100
AcDbEntity
  8
RACCORDO
100
AcDbLine
 62
7
  6
CONTINUOUS
 10
167.1964412073
 20
111.2337498807
 11
167.1964412073
 21
122.2913776703
  0
LINE
  5
6F0
100
AcDbEntity
  8
DRAFT
100
AcDbLine
 62
7
  6
CONTINUOUS
 10
167.225255102
 20
111.2625637755
 11
167.225255102
 21
122.2625637755
  0
LINE
  5
6F1
100
AcDbEntity
  8
ASSI
100
AcDbLine
 62
253
  6
CONTINUOUS
 10
167.6039347585
 20
102.7625637755
 11
167.6039347585
 21
96.7625637755
  0
LINE
  5
6F2
100
AcDbEntity
  8
ASSI
100
AcDbLine
 62
253
  6
CONTINUOUS
 10
167.6039347585
 20
130.7625637755
 11
167.6039347585
 21
136.7625637755
  0
LINE
  5
6F3
100
AcDbEntity
  8
ASSI
100
AcDbLine
 62
253
  6
CONTINUOUS
 10
168.5639175473
 20
143.3149308733
 11
168.5639175473
 21
136.7625637755
  0
LINE
  5
6F4
100
AcDbEntity
  8
ASSI
100
AcDbLine
 62
253
  6
CONTINUOUS
 10
168.5639175473
 20
130.7625637755
 11
168.5639175473
 21
122.2807026045
  0
LINE
  5
6F5
100
AcDbEntity
  8
ASSI
100
AcDbLine
 62
253
  6
CONTINUOUS
 10
168.5639175473
 20
111.2444249465
 11
168.5639175473
 21
102.7625637755
  0
LINE
  5
6F6
100
AcDbEntity
  8
ASSI
100
AcDbLine
 62
253
  6
CONTINUOUS
 10
168.5639175473
 20
96.7625637755
 11
168.5639175473
 21
90.2101966778
  0
LINE
  5
6F7
100
AcDbEntity
  8
ASSI
100
AcDbLine
 62
253
  6
CONTINUOUS
 10
168.6645949303
 20
102.7625637755
 11
168.6645949303
 21
96.7625637755
  0
LINE
  5
6F8
100
AcDbEntity
  8
ASSI
100
AcDbLine
 62
253
  6
CONTINUOUS
 10
168.6645949303
 20
130.7625637755
 11
168.6645949303
 21
136.7625637755
  0
LINE
  5
6F9
100
AcDbEntity
  8
DRAFT
100
AcDbLine
 62
7
  6
CONTINUOUS
 10
168.6728473228
 20
122.2625637755
 11
168.6728473228
 21
120.0125637755
  0
LINE
  5
6FA
100
AcDbEntity
  8
DRAFT
100
AcDbLine
 62
7
  6
CONTINUOUS
 10
168.6728473228
 20
113.5125637755
 11
168.6728473228
 21
111.2625637755
  0
LINE
  5
6FB
100
AcDbEntity
  8
RACCORDO
100
AcDbLine
 62
7
  6
CONTINUOUS
 10
168.725255102
 20
143.476268428
 11
168.725255102
 21
136.7625637755
  0
LINE
  5
6FC
100
AcDbEntity
  8
RACCORDO
100
AcDbLine
 62
7
  6
CONTINUOUS
 10
168.725255102
 20
130.7625637755
 11
168.725255102
 21
120.0125637755
  0
LINE
  5
6FD
100
AcDbEntity
  8
RACCORDO
100
AcDbLine
 62
7
  6
CONTINUOUS
 10
168.725255102
 20
113.5125637755
 11
168.725255102
 21
102.7625637755
  0
LINE
  5
6FE
100
AcDbEntity
  8
RACCORDO
100
AcDbLine
 62
7
  6
CONTINUOUS
 10
168.725255102
 20
96.7625637755
 11
168.725255102
 21
90.0488591231
  0
LINE
  5
6FF
100
AcDbEntity
  8
ASSI
100
AcDbLine
 62
7
  6
CONTINUOUS
 10
169.525255102
 20
102.7625637755
 11
169.525255102
 21
96.7625637755
  0
LINE
  5
700
100
AcDbEntity
  8
ASSI
100
AcDbLine
 62
7
  6
CONTINUOUS
 10
169.525255102
 20
130.7625637755
 11
169.525255102
 21
136.7625637755
  0
LINE
  5
701
100
AcDbEntity
  8
0
100
AcDbLine
 62
7
  6
CONTINUOUS
 10
170.0963858164
 20
120.0125637755
 11
170.0963858164
 21
113.5125637755
  0
LWPOLYLINE
  5
702
100
AcDbEntity
  8
RACCORDO
100
AcDbPolyline
 62
253
  6
CONTINUOUS
 90
28
 70
0
 10
167.0659732452
 20
90.2101966778
 10
167.0516475007
 20
89.7166713918
 10
167.0091153935
 20
89.2273564321
 10
166.9383769237
 20
88.7422517987
 10
166.839060607
 20
88.2595840256
 10
166.7115379277
 20
87.7811265789
 10
166.5569233387
 20
87.3121998559
 10
166.374864385
 20
86.8529501061
 10
166.1657135216
 20
86.4032310802
 10
165.9316425669
 20
85.9679244276
 10
165.6724028715
 20
85.5472772322
 10
165.3882430847
 20
85.1410424102
 10
165.0820809733
 20
84.7533603592
 10
164.753739671
 20
84.3844615878
 10
164.403396044
 20
84.0341155874
 10
164.0344984576
 20
83.7057712298
 10
163.6468153444
 20
83.3996050318
 10
163.2405782718
 20
83.1154404766
 10
162.8199303072
 20
82.8561968867
 10
162.384624767
 20
82.6221235885
 10
161.9349083348
 20
82.4129712555
 10
161.4756641295
 20
82.230911231
 10
161.0067516978
 20
82.0762964297
 10
160.5283114929
 20
81.9487739368
 10
160.0456479929
 20
81.8494563508
 10
159.560529357
 20
81.7787145378
 10
159.071187426
 20
81.7361776316
 10
158.5776221998
 20
81.7218456324
  0
LWPOLYLINE
  5
703
100
AcDbEntity
  8
RACCORDO
100
AcDbPolyline
 62
253
  6
CONTINUOUS
 90
28
 70
0
 10
168.5639175473
 20
90.2101966778
 10
168.5469790147
 20
89.6321204545
 10
168.4965932975
 20
89.0553866936
 10
168.4128162514
 20
88.481931403
 10
168.2957985763
 20
87.9135972445
 10
168.145829547
 20
87.3524114976
 10
167.9633889887
 20
86.8005655426
 10
167.749011846
 20
86.2599032221
 10
167.5033743206
 20
85.7323148069
 10
167.2274431639
 20
85.2199722556
 10
166.9222156256
 20
84.7247023454
 10
166.5886781635
 20
84.2480775617
 10
166.2280034302
 20
83.7917660367
 10
165.8414733334
 20
83.357358082
 10
165.4303614188
 20
82.946251794
 10
164.9959480454
 20
82.5597275348
 10
164.5396306684
 20
82.1990583792
 10
164.0630001893
 20
81.8655267884
 10
163.5677268236
 20
81.560306616
 10
163.0553835491
 20
81.2843841077
 10
162.5277970437
 20
81.0387559547
 10
161.9871407431
 20
80.8243889922
 10
161.4353061044
 20
80.6419590811
 10
160.8741360503
 20
80.4920000723
 10
160.3058201916
 20
80.3749907961
 10
159.7323850879
 20
80.2912200875
 10
159.1556738212
 20
80.2408384285
 10
158.5776221998
 20
80.2239013302
  0
LWPOLYLINE
  5
704
100
AcDbEntity
  8
RACCORDO
100
AcDbPolyline
 62
7
  6
CONTINUOUS
 90
5
 70
0
 10
160.8738249409
 20
92.9577795355
 10
160.861241308
 20
92.9259981937
 10
160.8532011365
 20
92.8942427361
 10
160.8483790497
 20
92.8632493653
 10
160.8466739855
 20
92.8331243986
  0
LINE
  5
705
100
AcDbEntity
  8
RACCORDO
100
AcDbLine
 62
7
  6
CONTINUOUS
 10
160.89137281
 20
92.9892353443
 11
160.8738249409
 21
92.9577795355
  0
LINE
  5
706
100
AcDbEntity
  8
0
100
AcDbLine
 62
7
  6
CONTINUOUS
 10
161.2252549828
 20
96.3583084449
 11
161.4127549828
 21
96.6136275634
  0
LINE
  5
707
100
AcDbEntity
  8
RACCORDO
100
AcDbLine
 62
7
  6
CONTINUOUS
 10
160.9392595418
 20
93.0505987382
 11
160.9268221751
 21
93.0361041379
  0
LINE
  5
708
100
AcDbEntity
  8
RACCORDO
100
AcDbLine
 62
7
  6
CONTINUOUS
 10
160.9181044293
 20
93.0259444117
 11
160.9132705779
 21
93.020311005
  0
LINE
  5
709
100
AcDbEntity
  8
DRAFT
100
AcDbLine
 62
7
  6
CONTINUOUS
 10
156.1595696771
 20
85.9341366508
 11
159.5536822268
 21
89.3282492005
  0
LWPOLYLINE
  5
70A
100
AcDbEntity
  8
RACCORDO
100
AcDbPolyline
 62
7
  6
CONTINUOUS
 90
10
 70
0
 10
160.9593420404
 20
93.0683348974
 10
160.9216235776
 20
93.0309517566
 10
160.8910880613
 20
92.9875032144
 10
160.8686924052
 20
92.9393508492
 10
160.8551384378
 20
92.888003646
 10
160.8508509097
 20
92.8350707092
 10
160.8559641821
 20
92.7822108363
 10
160.8703180168
 20
92.731080535
 10
160.8934625973
 20
92.6832821123
 10
160.9246726254
 20
92.6403134618
  0
LWPOLYLINE
  5
70B
100
AcDbEntity
  8
RACCORDO
100
AcDbPolyline
 62
7
  6
CONTINUOUS
 90
10
 70
0
 10
160.9392516453
 20
93.0505913162
 10
160.9410850832
 20
93.0523438714
 10
160.9429320707
 20
93.0540798583
 10
160.9447926076
 20
93.0557992768
 10
160.946666536
 20
93.0575019722
 10
160.9485540138
 20
93.0591880993
 10
160.9504555153
 20
93.0608581226
 10
160.9523711988
 20
93.0625121969
 10
160.9543009059
 20
93.0641501675
 10
160.9562446369
 20
93.0657720343
  0
LINE
  5
70C
100
AcDbEntity
  8
RACCORDO
100
AcDbLine
 62
253
  6
CONTINUOUS
 10
160.9193021368
 20
92.6358493627
 11
160.9246724912
 21
92.6403133449
  0
LINE
  5
70D
100
AcDbEntity
  8
RACCORDO
100
AcDbLine
 62
253
  6
CONTINUOUS
 10
161.2793601295
 20
92.6841636215
 11
161.0426596527
 21
92.4998648679
  0
LINE
  5
70E
100
AcDbEntity
  8
RACCORDO
100
AcDbLine
 62
253
  6
CONTINUOUS
 10
161.2793601295
 20
140.8409639296
 11
161.0426596528
 21
141.0252626832
  0
LINE
  5
70F
100
AcDbEntity
  8
RACCORDO
100
AcDbLine
 62
253
  6
CONTINUOUS
 10
160.9246724912
 20
140.8848142061
 11
160.9193021368
 21
140.8892781883
  0
LWPOLYLINE
  5
710
100
AcDbEntity
  8
RACCORDO
100
AcDbPolyline
 62
7
  6
CONTINUOUS
 90
10
 70
0
 10
160.9389901225
 20
140.4747820405
 10
160.9409397928
 20
140.4729202384
 10
160.9428739545
 20
140.4711023162
 10
160.9447926076
 20
140.4693282742
 10
160.946685908
 20
140.467607371
 10
160.9485636998
 20
140.4659303478
 10
160.9504555153
 20
140.4642694285
 10
160.9523711988
 20
140.4626153541
 10
160.9543009059
 20
140.4609773835
 10
160.9562446369
 20
140.4593555167
  0
LWPOLYLINE
  5
711
100
AcDbEntity
  8
RACCORDO
100
AcDbPolyline
 62
7
  6
CONTINUOUS
 90
10
 70
0
 10
160.9593407915
 20
140.4567911475
 10
160.9216222402
 20
140.494174349
 10
160.8910866869
 20
140.5376230083
 10
160.8686910501
 20
140.5857755383
 10
160.8551371607
 20
140.6371229423
 10
160.8508497685
 20
140.6900561033
 10
160.8559632311
 20
140.7429162101
 10
160.8703173036
 20
140.7940467409
 10
160.8934621603
 20
140.841845375
 10
160.9246724912
 20
140.8848142061
  0
LINE
  5
712
100
AcDbEntity
  8
DRAFT
100
AcDbLine
 62
7
  6
CONTINUOUS
 10
159.5536822268
 20
144.1968783506
 11
156.1595696771
 21
147.5909909003
  0
LINE
  5
713
100
AcDbEntity
  8
RACCORDO
100
AcDbLine
 62
7
  6
CONTINUOUS
 10
160.9392595418
 20
140.4745288128
 11
160.9268380514
 21
140.4890049107
  0
LINE
  5
714
100
AcDbEntity
  8
RACCORDO
100
AcDbLine
 62
7
  6
CONTINUOUS
 10
160.9180914537
 20
140.4991982611
 11
160.9132705779
 21
140.504816546
  0
LINE
  5
715
100
AcDbEntity
  8
RACCORDO
100
AcDbLine
 62
7
  6
CONTINUOUS
 10
160.89137281
 20
140.5358922067
 11
160.8738249409
 21
140.5673480155
  0
LWPOLYLINE
  5
716
100
AcDbEntity
  8
RACCORDO
100
AcDbPolyline
 62
7
  6
CONTINUOUS
 90
5
 70
0
 10
160.8738249409
 20
140.5673480155
 10
160.861241308
 20
140.5991293573
 10
160.8532011365
 20
140.6308848149
 10
160.8483790497
 20
140.6618781857
 10
160.8466739855
 20
140.6920031524
  0
LINE
  5
717
100
AcDbEntity
  8
0
100
AcDbLine
 62
7
  6
CONTINUOUS
 10
171.725255102
 20
120.0125637755
 11
171.725255102
 21
113.5125637755
  0
LINE
  5
718
100
AcDbEntity
  8
DRAFT
100
AcDbLine
 62
7
  6
CONTINUOUS
 10
157.3616512051
 20
84.7320551227
 11
160.7557637548
 21
88.1261676724
  0
LINE
  5
719
100
AcDbEntity
  8
RACCORDO
100
AcDbLine
 62
7
  6
CONTINUOUS
 10
160.7705898955
 20
88.1113415317
 11
157.3764773458
 21
84.717228982
  0
LINE
  5
71A
100
AcDbEntity
  8
RACCORDO
100
AcDbLine
 62
253
  6
CONTINUOUS
 10
160.9827138525
 20
87.8992175747
 11
157.5886013029
 21
84.505105025
  0
LINE
  5
71B
100
AcDbEntity
  8
DRAFT
100
AcDbLine
 62
7
  6
CONTINUOUS
 10
160.7557637548
 20
145.3989598786
 11
157.3616512051
 21
148.7930724283
  0
LINE
  5
71C
100
AcDbEntity
  8
RACCORDO
100
AcDbLine
 62
7
  6
CONTINUOUS
 10
157.3764773458
 20
148.807898569
 11
160.7705898955
 21
145.4137860193
  0
LINE
  5
71D
100
AcDbEntity
  8
RACCORDO
100
AcDbLine
 62
253
  6
CONTINUOUS
 10
157.5886013029
 20
149.020022526
 11
160.9827138525
 21
145.6259099763
  0
LINE
  5
71E
100
AcDbEntity
  8
RACCORDO
100
AcDbLine
 62
7
  6
CONTINUOUS
 10
55.0130760133
 20
80.2239013302
 11
58.0915799477
 21
80.0625637755
  0
LINE
  5
71F
100
AcDbEntity
  8
RACCORDO
100
AcDbLine
 62
7
  6
CONTINUOUS
 10
58.0915799477
 20
90.8078632371
 11
58.3915799477
 21
90.8199601465
  0
LINE
  5
720
100
AcDbEntity
  8
RACCORDO
100
AcDbLine
 62
7
  6
CONTINUOUS
 10
68.8020497967
 20
91.1365816243
 11
58.9445180895
 21
90.7923490318
  0
LINE
  5
721
100
AcDbEntity
  8
RACCORDO
100
AcDbLine
 62
7
  6
CONTINUOUS
 10
58.0915799477
 20
90.7625637755
 11
58.7739105733
 21
90.786391286
  0
LINE
  5
722
100
AcDbEntity
  8
RACCORDO
100
AcDbLine
 62
253
  6
CONTINUOUS
 10
58.5535917215
 20
90.8188654769
 11
68.8020497967
 21
91.176749519
  0
LINE
  5
723
100
AcDbEntity
  8
RACCORDO
100
AcDbLine
 62
7
  6
CONTINUOUS
 10
58.0915799477
 20
91.9625637755
 11
68.8020497967
 21
92.1785030812
  0
LINE
  5
724
100
AcDbEntity
  8
ASSI
100
AcDbLine
 62
7
  6
CONTINUOUS
 10
58.0915799477
 20
89.7625637755
 11
69.0915799477
 21
89.7625637755
  0
LINE
  5
725
100
AcDbEntity
  8
RACCORDO
100
AcDbLine
 62
253
  6
CONTINUOUS
 10
55.0130760133
 20
90.2101966778
 11
53.5915799477
 21
90.2101966778
  0
LINE
  5
726
100
AcDbEntity
  8
RACCORDO
100
AcDbLine
 62
253
  6
CONTINUOUS
 10
55.0130760133
 20
90.2101966778
 11
58.0915799477
 21
90.0488591231
  0
LWPOLYLINE
  5
727
100
AcDbEntity
  8
RACCORDO
100
AcDbPolyline
 62
7
  6
CONTINUOUS
 90
3
 70
0
 10
58.5535917215
 20
90.8188654769
 10
58.6539562799
 20
90.8108730338
 10
58.7012949362
 20
90.8069252945
  0
LWPOLYLINE
  5
728
100
AcDbEntity
  8
RACCORDO
100
AcDbPolyline
 62
7
  6
CONTINUOUS
 90
6
 70
0
 10
58.7012949362
 20
90.8069252945
 10
58.7898411282
 20
90.7985022302
 10
58.8312652627
 20
90.795276005
 10
58.8708948741
 20
90.793331201
 10
58.9086462855
 20
90.7923555433
 10
58.9445180895
 20
90.7923490318
  0
LINE
  5
729
100
AcDbEntity
  8
RACCORDO
100
AcDbLine
 62
253
  6
CONTINUOUS
 10
66.7941979083
 20
92.383983887
 11
67.0915799477
 21
92.383983887
  0
LINE
  5
72A
100
AcDbEntity
  8
0
100
AcDbLine
 62
7
  6
CONTINUOUS
 10
60.8915799477
 20
93.4625637755
 11
59.3915799477
 21
93.4625637755
  0
LINE
  5
72B
100
AcDbEntity
  8
RACCORDO
100
AcDbLine
 62
253
  6
CONTINUOUS
 10
66.856761641
 20
93.6197920683
 11
66.9313659217
 21
93.6197919049
  0
LINE
  5
72C
100
AcDbEntity
  8
RACCORDO
100
AcDbLine
 62
253
  6
CONTINUOUS
 10
66.1003064832
 20
93.0839572332
 11
61.8293896465
 21
93.1212289597
  0
LINE
  5
72D
100
AcDbEntity
  8
RACCORDO
100
AcDbLine
 62
253
  6
CONTINUOUS
 10
59.3915799477
 20
93.1425034027
 11
58.0915799477
 21
93.1538483308
  0
LINE
  5
72E
100
AcDbEntity
  8
RACCORDO
100
AcDbLine
 62
7
  6
CONTINUOUS
 10
66.1003064832
 20
93.3839458101
 11
60.9849303118
 21
93.4285870216
  0
LINE
  5
72F
100
AcDbEntity
  8
RACCORDO
100
AcDbLine
 62
7
  6
CONTINUOUS
 10
59.3914047971
 20
93.4424935081
 11
58.0915037952
 21
93.4538375723
  0
LINE
  5
730
100
AcDbEntity
  8
RACCORDO
100
AcDbLine
 62
253
  6
CONTINUOUS
 10
66.1141756137
 20
93.6262729223
 11
66.856761641
 21
93.6197920696
  0
LINE
  5
731
100
AcDbEntity
  8
RACCORDO
100
AcDbLine
 62
7
  6
CONTINUOUS
 10
58.0915799477
 20
92.4014710483
 11
68.7968156696
 21
92.2146104637
  0
LINE
  5
732
100
AcDbEntity
  8
RACCORDO
100
AcDbLine
 62
253
  6
CONTINUOUS
 10
58.0915799477
 20
93.7663078506
 11
66.1141756137
 21
93.6262729223
  0
LINE
  5
733
100
AcDbEntity
  8
RACCORDO
100
AcDbLine
 62
7
  6
CONTINUOUS
 10
58.0896485534
 20
94.2663415661
 11
66.3121555031
 21
94.1228171734
  0
LINE
  5
734
100
AcDbEntity
  8
DRAFT
100
AcDbLine
 62
7
  6
CONTINUOUS
 10
60.8915799477
 20
140.0625637755
 11
64.0948074172
 21
141.228443228
  0
LINE
  5
735
100
AcDbEntity
  8
RACCORDO
100
AcDbLine
 62
7
  6
CONTINUOUS
 10
56.2861961056
 20
96.7625637755
 11
54.8915799477
 21
96.7625637755
  0
LINE
  5
736
100
AcDbEntity
  8
ASSI
100
AcDbLine
 62
7
  6
CONTINUOUS
 10
54.8915799477
 20
96.7625637755
 11
53.5915799477
 21
96.7625637755
  0
LINE
  5
737
100
AcDbEntity
  8
DRAFT
100
AcDbLine
 62
7
  6
CONTINUOUS
 10
64.0948074172
 20
92.296684323
 11
60.8915799477
 21
93.4625637755
  0
LINE
  5
738
100
AcDbEntity
  8
RACCORDO
100
AcDbLine
 62
7
  6
CONTINUOUS
 10
68.60585595
 20
99.3543204721
 11
58.0915799477
 21
99.2625637755
  0
LWPOLYLINE
  5
739
100
AcDbEntity
  8
RACCORDO
100
AcDbPolyline
 62
253
  6
CONTINUOUS
 90
7
 70
0
 10
55.0130760133
 20
153.3012262208
 10
55.0088167907
 20
153.2842876881
 10
55.0046705115
 20
153.233901971
 10
55.0007357102
 20
153.1501249249
 10
54.9971703997
 20
153.0331072498
 10
54.9939963241
 20
152.8831382205
 10
54.988513456
 20
152.4863205194
  0
LINE
  5
73A
100
AcDbEntity
  8
RACCORDO
100
AcDbLine
 62
253
  6
CONTINUOUS
 10
68.60585595
 20
99.8443018144
 11
58.0915799477
 21
99.7525451178
  0
LINE
  5
73B
100
AcDbEntity
  8
0
100
AcDbLine
 62
7
  6
CONTINUOUS
 10
53.3915799477
 20
99.7524887755
 11
53.5915799477
 21
99.7524887755
  0
LINE
  5
73C
100
AcDbEntity
  8
RACCORDO
100
AcDbLine
 62
253
  6
CONTINUOUS
 10
69.0915797884
 20
99.8443018144
 11
68.60585595
 21
99.8443018144
  0
LINE
  5
73D
100
AcDbEntity
  8
0
100
AcDbLine
 62
7
  6
CONTINUOUS
 10
53.3915799477
 20
100.3365527755
 11
53.5915799477
 21
100.3365527755
  0
LINE
  5
73E
100
AcDbEntity
  8
RACCORDO
100
AcDbLine
 62
7
  6
CONTINUOUS
 10
53.0915799477
 20
100.7625637755
 11
53.5915799477
 21
100.7625637755
  0
LINE
  5
73F
100
AcDbEntity
  8
RACCORDO
100
AcDbLine
 62
253
  6
CONTINUOUS
 10
53.0915799477
 20
101.5125637755
 11
53.5915799477
 21
101.5125637755
  0
LINE
  5
740
100
AcDbEntity
  8
RACCORDO
100
AcDbLine
 62
7
  6
CONTINUOUS
 10
58.0915799477
 20
102.7625637755
 11
68.8933252548
 21
102.8568291787
  0
LINE
  5
741
100
AcDbEntity
  8
RACCORDO
100
AcDbLine
 62
253
  6
CONTINUOUS
 10
58.0915799477
 20
102.9625561601
 11
69.0915799477
 21
103.0568215633
  0
LINE
  5
742
100
AcDbEntity
  8
ASSI
100
AcDbLine
 62
7
  6
CONTINUOUS
 10
58.0892857812
 20
102.5125637755
 11
69.0915799477
 21
102.5125637755
  0
LINE
  5
743
100
AcDbEntity
  8
ASSI
100
AcDbLine
 62
7
  6
CONTINUOUS
 10
54.8915799477
 20
102.7625637755
 11
53.5915799477
 21
102.7625637755
  0
LINE
  5
744
100
AcDbEntity
  8
RACCORDO
100
AcDbLine
 62
7
  6
CONTINUOUS
 10
54.8915799477
 20
102.7625637755
 11
56.2861961056
 21
102.7625637755
  0
LINE
  5
745
100
AcDbEntity
  8
ASSI
100
AcDbLine
 62
7
  6
CONTINUOUS
 10
58.0892857812
 20
104.5125637755
 11
69.0915799477
 21
104.5125637755
  0
LINE
  5
746
100
AcDbEntity
  8
RACCORDO
100
AcDbLine
 62
253
  6
CONTINUOUS
 10
69.0915799477
 20
103.9683059877
 11
58.0915799477
 21
104.0625713909
  0
LINE
  5
747
100
AcDbEntity
  8
RACCORDO
100
AcDbLine
 62
7
  6
CONTINUOUS
 10
68.8933252548
 20
104.1682983723
 11
58.0915799477
 21
104.2625637755
  0
LINE
  5
748
100
AcDbEntity
  8
ASSI
100
AcDbLine
 62
7
  6
CONTINUOUS
 10
53.0915799477
 20
118.4946145831
 11
53.0915799477
 21
115.0305129679
  0
LINE
  5
749
100
AcDbEntity
  8
RACCORDO
100
AcDbLine
 62
7
  6
CONTINUOUS
 10
53.0915799477
 20
100.7628692646
 11
53.0915799477
 21
115.0305129679
  0
LINE
  5
74A
100
AcDbEntity
  8
RACCORDO
100
AcDbLine
 62
7
  6
CONTINUOUS
 10
53.0915799477
 20
118.4946145831
 11
53.0915799477
 21
132.7622559801
  0
LINE
  5
74B
100
AcDbEntity
  8
0
100
AcDbLine
 62
7
  6
CONTINUOUS
 10
53.3915799477
 20
99.7524887755
 11
53.3915799477
 21
100.7625637755
  0
LINE
  5
74C
100
AcDbEntity
  8
RACCORDO
100
AcDbLine
 62
7
  6
CONTINUOUS
 10
53.5915799477
 20
151.8032819187
 11
53.5915799477
 21
143.3149308733
  0
LINE
  5
74D
100
AcDbEntity
  8
ASSI
100
AcDbLine
 62
7
  6
CONTINUOUS
 10
53.5915799477
 20
111.2320693857
 11
53.5915799477
 21
90.2101966778
  0
LINE
  5
74E
100
AcDbEntity
  8
RACCORDO
100
AcDbLine
 62
7
  6
CONTINUOUS
 10
53.5915799477
 20
90.2101966778
 11
53.5915799477
 21
81.7218456324
  0
LINE
  5
74F
100
AcDbEntity
  8
RACCORDO
100
AcDbLine
 62
7
  6
CONTINUOUS
 10
53.5915799477
 20
111.2320197382
 11
53.5915799477
 21
122.2931078128
  0
LINE
  5
750
100
AcDbEntity
  8
ASSI
100
AcDbLine
 62
7
  6
CONTINUOUS
 10
53.5915799477
 20
122.2931078128
 11
53.5915799477
 21
143.3149308733
  0
LINE
  5
751
100
AcDbEntity
  8
RACCORDO
100
AcDbLine
 62
253
  6
CONTINUOUS
 10
53.7898346406
 20
111.2337498807
 11
53.7898346406
 21
122.2913776703
  0
LINE
  5
752
100
AcDbEntity
  8
RACCORDO
100
AcDbLine
 62
7
  6
CONTINUOUS
 10
58.0915799477
 20
109.0125637755
 11
68.8933252548
 21
109.1068291787
  0
LINE
  5
753
100
AcDbEntity
  8
RACCORDO
100
AcDbLine
 62
253
  6
CONTINUOUS
 10
58.0915799477
 20
109.2125561601
 11
69.0915799477
 21
109.3068215633
  0
LINE
  5
754
100
AcDbEntity
  8
ASSI
100
AcDbLine
 62
7
  6
CONTINUOUS
 10
58.0892857812
 20
108.7625637755
 11
69.0915799477
 21
108.7625637755
  0
LWPOLYLINE
  5
755
100
AcDbEntity
  8
RACCORDO
100
AcDbPolyline
 62
253
  6
CONTINUOUS
 90
19
 70
0
 10
66.7938297197
 20
93.8558906339
 10
66.776802081
 20
93.8834669714
 10
66.7578116815
 20
93.9101120593
 10
66.7369640019
 20
93.9357057708
 10
66.7144684546
 20
93.9598740266
 10
66.6904878603
 20
93.9825237677
 10
66.6651775063
 20
94.0036104568
 10
66.6387985117
 20
94.0229224931
 10
66.611523138
 20
94.0404525377
 10
66.5835476034
 20
94.0562018406
 10
66.5551902129
 20
94.0700659089
 10
66.5266228332
 20
94.0821054605
 10
66.4980137314
 20
94.0923973784
 10
66.4696595464
 20
94.100953333
 10
66.4416861204
 20
94.1078948489
 10
66.4142073328
 20
94.1133491738
 10
66.3874552282
 20
94.117412382
 10
66.361531508
 20
94.1202358795
 10
66.3364253559
 20
94.1219877935
  0
LWPOLYLINE
  5
756
100
AcDbEntity
  8
RACCORDO
100
AcDbPolyline
 62
253
  6
CONTINUOUS
 90
6
 70
0
 10
54.9939969651
 20
80.6419590811
 10
54.9971709576
 20
80.4920000723
 10
55.0007361618
 20
80.3749907961
 10
55.004670857
 20
80.2912200875
 10
55.0088169882
 20
80.2408384285
 10
55.0130760133
 20
80.2239013302
  0
LINE
  5
757
100
AcDbEntity
  8
RACCORDO
100
AcDbLine
 62
253
  6
CONTINUOUS
 10
54.9885140305
 20
81.0387559547
 11
54.9939969651
 21
80.6419590811
  0
LINE
  5
758
100
AcDbEntity
  8
RACCORDO
100
AcDbLine
 62
253
  6
CONTINUOUS
 10
54.9829807529
 20
81.8655267884
 11
54.9885140305
 21
81.0387559547
  0
LINE
  5
759
100
AcDbEntity
  8
RACCORDO
100
AcDbLine
 62
253
  6
CONTINUOUS
 10
54.9829807529
 20
148.8003088627
 11
55.0130760133
 21
143.3149308733
  0
LINE
  5
75A
100
AcDbEntity
  8
ASSI
100
AcDbLine
 62
253
  6
CONTINUOUS
 10
54.0309197759
 20
102.7625637755
 11
54.0309197759
 21
96.7625637755
  0
LINE
  5
75B
100
AcDbEntity
  8
ASSI
100
AcDbLine
 62
253
  6
CONTINUOUS
 10
54.0309197759
 20
130.7625637755
 11
54.0309197759
 21
136.7625637755
  0
LINE
  5
75C
100
AcDbEntity
  8
ASSI
100
AcDbLine
 62
7
  6
CONTINUOUS
 10
54.8915799477
 20
102.7625637755
 11
54.8915799477
 21
96.7625637755
  0
LINE
  5
75D
100
AcDbEntity
  8
ASSI
100
AcDbLine
 62
7
  6
CONTINUOUS
 10
54.8915799477
 20
130.7625637755
 11
54.8915799477
 21
136.7625637755
  0
LINE
  5
75E
100
AcDbEntity
  8
ASSI
100
AcDbLine
 62
253
  6
CONTINUOUS
 10
55.0130760133
 20
143.3149308733
 11
55.0130760133
 21
136.7625637755
  0
LINE
  5
75F
100
AcDbEntity
  8
ASSI
100
AcDbLine
 62
253
  6
CONTINUOUS
 10
55.0130760133
 20
130.7625637755
 11
55.0130760133
 21
122.2807026045
  0
LINE
  5
760
100
AcDbEntity
  8
ASSI
100
AcDbLine
 62
253
  6
CONTINUOUS
 10
55.0130760133
 20
111.2444249465
 11
55.0130760133
 21
102.7625637755
  0
LINE
  5
761
100
AcDbEntity
  8
ASSI
100
AcDbLine
 62
253
  6
CONTINUOUS
 10
55.0130760133
 20
96.7625637755
 11
55.0130760133
 21
90.2101966778
  0
LINE
  5
762
100
AcDbEntity
  8
RACCORDO
100
AcDbLine
 62
253
  6
CONTINUOUS
 10
55.1844731665
 20
96.7625637755
 11
55.1844731665
 21
102.7625637755
  0
LINE
  5
763
100
AcDbEntity
  8
RACCORDO
100
AcDbLine
 62
253
  6
CONTINUOUS
 10
55.1844731665
 20
130.7625637755
 11
55.1844731665
 21
136.7625637755
  0
LINE
  5
764
100
AcDbEntity
  8
RACCORDO
100
AcDbLine
 62
253
  6
CONTINUOUS
 10
55.5380265571
 20
96.7625637755
 11
55.5380265571
 21
102.7625637755
  0
LINE
  5
765
100
AcDbEntity
  8
RACCORDO
100
AcDbLine
 62
253
  6
CONTINUOUS
 10
55.5380265571
 20
130.7625637755
 11
55.5380265571
 21
136.7625637755
  0
LINE
  5
766
100
AcDbEntity
  8
ASSI
100
AcDbLine
 62
7
  6
CONTINUOUS
 10
56.2861961056
 20
102.7625637755
 11
56.2861961056
 21
96.7625637755
  0
LINE
  5
767
100
AcDbEntity
  8
ASSI
100
AcDbLine
 62
7
  6
CONTINUOUS
 10
56.2861961056
 20
130.7625637755
 11
56.2861961056
 21
136.7625637755
  0
LINE
  5
768
100
AcDbEntity
  8
RACCORDO
100
AcDbLine
 62
253
  6
CONTINUOUS
 10
54.9811317854
 20
83.7917660367
 11
54.9829807529
 21
81.8655267884
  0
LINE
  5
769
100
AcDbEntity
  8
RACCORDO
100
AcDbLine
 62
253
  6
CONTINUOUS
 10
54.9811317854
 20
150.9653121037
 11
54.9829807529
 21
148.8003088627
  0
LINE
  5
76A
100
AcDbEntity
  8
RACCORDO
100
AcDbLine
 62
253
  6
CONTINUOUS
 10
54.9844867288
 20
151.9647518374
 11
54.9811317854
 21
150.9653121037
  0
LINE
  5
76B
100
AcDbEntity
  8
RACCORDO
100
AcDbLine
 62
253
  6
CONTINUOUS
 10
55.0007357102
 20
88.481931403
 11
54.9811317854
 21
83.7917660367
  0
LINE
  5
76C
100
AcDbEntity
  8
RACCORDO
100
AcDbLine
 62
253
  6
CONTINUOUS
 10
55.0130760133
 20
90.2101966778
 11
55.0007357102
 21
88.481931403
  0
LINE
  5
76D
100
AcDbEntity
  8
RACCORDO
100
AcDbLine
 62
253
  6
CONTINUOUS
 10
54.988513456
 20
152.4863205194
 11
54.9844867288
 21
151.9647518374
  0
LINE
  5
76E
100
AcDbEntity
  8
RACCORDO
100
AcDbLine
 62
7
  6
CONTINUOUS
 10
53.5903137578
 20
111.2320086884
 11
57.0915799477
 21
111.2625637755
  0
LINE
  5
76F
100
AcDbEntity
  8
ASSI
100
AcDbLine
 62
7
  6
CONTINUOUS
 10
58.0892857812
 20
110.7625637755
 11
69.0915799477
 21
110.7625637755
  0
LINE
  5
770
100
AcDbEntity
  8
RACCORDO
100
AcDbLine
 62
253
  6
CONTINUOUS
 10
69.0915799477
 20
110.2183059877
 11
58.0915799477
 21
110.3125713909
  0
LINE
  5
771
100
AcDbEntity
  8
RACCORDO
100
AcDbLine
 62
7
  6
CONTINUOUS
 10
68.8933252548
 20
110.4182983723
 11
58.0915799477
 21
110.5125637755
  0
LINE
  5
772
100
AcDbEntity
  8
DRAFT
100
AcDbLine
 62
7
  6
CONTINUOUS
 10
57.0915799477
 20
122.2625637755
 11
57.0915799477
 21
120.0125637755
  0
LINE
  5
773
100
AcDbEntity
  8
0
100
AcDbLine
 62
7
  6
CONTINUOUS
 10
57.0915799477
 20
120.0125637755
 11
57.0915799477
 21
113.5125637755
  0
LINE
  5
774
100
AcDbEntity
  8
DRAFT
100
AcDbLine
 62
7
  6
CONTINUOUS
 10
57.0915799477
 20
113.5125637755
 11
57.0915799477
 21
111.2625637755
  0
LINE
  5
775
100
AcDbEntity
  8
0
100
AcDbLine
 62
7
  6
CONTINUOUS
 10
57.2915799477
 20
120.0125637755
 11
57.2915799477
 21
113.5125637755
  0
LINE
  5
776
100
AcDbEntity
  8
RACCORDO
100
AcDbLine
 62
7
  6
CONTINUOUS
 10
58.0915799477
 20
153.4625637755
 11
58.0915799477
 21
120.0125637755
  0
LINE
  5
777
100
AcDbEntity
  8
0
100
AcDbLine
 62
7
  6
CONTINUOUS
 10
58.0915799477
 20
120.0125637755
 11
58.0915799477
 21
113.5125637755
  0
LINE
  5
778
100
AcDbEntity
  8
RACCORDO
100
AcDbLine
 62
7
  6
CONTINUOUS
 10
58.0915799477
 20
113.5125637755
 11
58.0915799477
 21
80.0625637755
  0
LINE
  5
779
100
AcDbEntity
  8
RACCORDO
100
AcDbLine
 62
253
  6
CONTINUOUS
 10
58.3915799477
 20
90.7730397192
 11
58.3915799477
 21
90.8199601465
  0
LINE
  5
77A
100
AcDbEntity
  8
RACCORDO
100
AcDbLine
 62
253
  6
CONTINUOUS
 10
58.3915799477
 20
142.7051674045
 11
58.3915799477
 21
142.7520878319
  0
LINE
  5
77B
100
AcDbEntity
  8
0
100
AcDbLine
 62
7
  6
CONTINUOUS
 10
58.0915799477
 20
113.5125637755
 11
57.0915799477
 21
113.5125637755
  0
LINE
  5
77C
100
AcDbEntity
  8
DRAFT
100
AcDbLine
 62
7
  6
CONTINUOUS
 10
59.3915799477
 20
141.1463480872
 11
59.3915799477
 21
140.0625637755
  0
LINE
  5
77D
100
AcDbEntity
  8
DRAFT
100
AcDbLine
 62
7
  6
CONTINUOUS
 10
59.3915799477
 20
93.4625637755
 11
59.3915799477
 21
92.3787794639
  0
LINE
  5
77E
100
AcDbEntity
  8
ASSI
100
AcDbLine
 62
7
  6
CONTINUOUS
 10
53.5915799477
 20
115.0305129679
 11
53.0915799477
 21
115.0305129679
  0
LWPOLYLINE
  5
77F
100
AcDbEntity
  8
RACCORDO
100
AcDbPolyline
 62
253
  6
CONTINUOUS
 90
6
 70
0
 10
66.1185385492
 20
139.3989307811
 10
66.1190332021
 20
139.4032168079
 10
66.1193701142
 20
139.4159816931
 10
66.1195435219
 20
139.4370070683
 10
66.1195504587
 20
139.4659332533
 10
66.1190672949
 20
139.5453820018
  0
LINE
  5
780
100
AcDbEntity
  8
ASSI
100
AcDbLine
 62
7
  6
CONTINUOUS
 10
53.5915799477
 20
118.4946145831
 11
53.0915799477
 21
118.4946145831
  0
LWPOLYLINE
  5
781
100
AcDbEntity
  8
RACCORDO
100
AcDbPolyline
 62
253
  6
CONTINUOUS
 90
6
 70
0
 10
66.8477516744
 20
93.7123831231
 10
66.8409534407
 20
93.741718951
 10
66.83236404
 20
93.770277041
 10
66.821700939
 20
93.7987948751
 10
66.8088180366
 20
93.8275130718
 10
66.7938297197
 20
93.8558906339
  0
LWPOLYLINE
  5
782
100
AcDbEntity
  8
RACCORDO
100
AcDbPolyline
 62
7
  6
CONTINUOUS
 90
13
 70
0
 10
66.9265434369
 20
93.6855749663
 10
66.9132661469
 20
93.7464009116
 10
66.8914578597
 20
93.8058990587
 10
66.8614259613
 20
93.8623413265
 10
66.8223533727
 20
93.9164462029
 10
66.7746989922
 20
93.9662207748
 10
66.7195105881
 20
94.010052807
 10
66.6565958657
 20
94.0476548948
 10
66.5878265917
 20
94.0775974678
 10
66.5144677896
 20
94.0996228301
 10
66.4352110771
 20
94.1142333249
 10
66.3513735857
 20
94.1215776348
 10
66.311856846
 20
94.1228234567
  0
LINE
  5
783
100
AcDbEntity
  8
RACCORDO
100
AcDbLine
 62
7
  6
CONTINUOUS
 10
66.9267985815
 20
93.6836919133
 11
66.9137971127
 21
93.7446666581
  0
LWPOLYLINE
  5
784
100
AcDbEntity
  8
RACCORDO
100
AcDbPolyline
 62
253
  6
CONTINUOUS
 90
5
 70
0
 10
66.1185385492
 20
94.1261967699
 10
66.119033202
 20
94.1219107452
 10
66.1193701141
 20
94.1091458654
 10
66.1195435218
 20
94.0881204975
 10
66.1195504587
 20
94.0591943208
  0
LINE
  5
785
100
AcDbEntity
  8
RACCORDO
100
AcDbLine
 62
7
  6
CONTINUOUS
 10
66.9313443523
 20
93.6197939825
 11
66.92661961
 21
93.6845312602
  0
LWPOLYLINE
  5
786
100
AcDbEntity
  8
RACCORDO
100
AcDbPolyline
 62
253
  6
CONTINUOUS
 90
4
 70
0
 10
66.8567625996
 20
93.6197920609
 10
66.8557775002
 20
93.6511695799
 10
66.8527515101
 20
93.682070826
 10
66.8477516744
 20
93.7123831231
  0
LWPOLYLINE
  5
787
100
AcDbEntity
  8
RACCORDO
100
AcDbPolyline
 62
253
  6
CONTINUOUS
 90
4
 70
0
 10
66.1012645993
 20
93.3437473471
 10
66.1010439014
 20
93.3658482084
 10
66.100721262
 20
93.3793847835
 10
66.1003064832
 20
93.3839458101
  0
LINE
  5
788
100
AcDbEntity
  8
RACCORDO
100
AcDbLine
 62
253
  6
CONTINUOUS
 10
66.1190672949
 20
139.5453820018
 11
66.1171823555
 21
139.7075596383
  0
LINE
  5
789
100
AcDbEntity
  8
RACCORDO
100
AcDbLine
 62
253
  6
CONTINUOUS
 10
66.1003064832
 20
140.4411703179
 11
66.1012645991
 21
140.2911826559
  0
LWPOLYLINE
  5
78A
100
AcDbEntity
  8
RACCORDO
100
AcDbPolyline
 62
253
  6
CONTINUOUS
 90
6
 70
0
 10
66.1012645991
 20
140.2911826559
 10
66.1013766503
 20
140.211373918
 10
66.1012645993
 20
140.1813802209
 10
66.1010439015
 20
140.1592793515
 10
66.100721262
 20
140.1457427701
 10
66.1003064831
 20
140.1411817409
  0
LINE
  5
78B
100
AcDbEntity
  8
RACCORDO
100
AcDbLine
 62
253
  6
CONTINUOUS
 10
66.1013766503
 20
93.276778396
 11
66.1012645993
 21
93.3437473471
  0
LINE
  5
78C
100
AcDbEntity
  8
RACCORDO
100
AcDbLine
 62
253
  6
CONTINUOUS
 10
66.1141756137
 20
93.3837285724
 11
66.1141756137
 21
93.6262729223
  0
LINE
  5
78D
100
AcDbEntity
  8
RACCORDO
100
AcDbLine
 62
253
  6
CONTINUOUS
 10
66.1141756137
 20
139.8988546287
 11
66.1141756137
 21
140.1413989787
  0
LINE
  5
78E
100
AcDbEntity
  8
RACCORDO
100
AcDbLine
 62
253
  6
CONTINUOUS
 10
66.1195504587
 20
94.0591943208
 11
66.1190672952
 21
93.979745586
  0
LWPOLYLINE
  5
78F
100
AcDbEntity
  8
RACCORDO
100
AcDbPolyline
 62
253
  6
CONTINUOUS
 90
3
 70
0
 10
66.1003064832
 20
93.0839572332
 10
66.100721262
 20
93.1360472033
 10
66.1013766503
 20
93.276778396
  0
LINE
  5
790
100
AcDbEntity
  8
RACCORDO
100
AcDbLine
 62
253
  6
CONTINUOUS
 10
66.1190672952
 20
93.979745586
 11
66.1171823559
 21
93.8175679457
  0
LINE
  5
791
100
AcDbEntity
  8
RACCORDO
100
AcDbLine
 62
7
  6
CONTINUOUS
 10
66.9308253002
 20
139.8834274921
 11
66.9313655718
 21
139.9053354924
  0
LINE
  5
792
100
AcDbEntity
  8
0
100
AcDbLine
 62
7
  6
CONTINUOUS
 10
58.0915799477
 20
120.0125637755
 11
57.0915799477
 21
120.0125637755
  0
LINE
  5
793
100
AcDbEntity
  8
RACCORDO
100
AcDbLine
 62
253
  6
CONTINUOUS
 10
66.1171823555
 20
139.7075596383
 11
66.1141756137
 21
139.8988546287
  0
LWPOLYLINE
  5
794
100
AcDbEntity
  8
RACCORDO
100
AcDbPolyline
 62
253
  6
CONTINUOUS
 90
28
 70
0
 10
66.7941979083
 20
92.383983887
 10
66.7937553622
 20
92.4166119743
 10
66.7913146185
 20
92.450269879
 10
66.7868756775
 20
92.4849576008
 10
66.7805924599
 20
92.5208836009
 10
66.7723110448
 20
92.5578394183
 10
66.7615696696
 20
92.5951996701
 10
66.748250625
 20
92.6330819101
 10
66.7324716203
 20
92.6713685845
 10
66.7141240197
 20
92.7090816489
 10
66.6930968477
 20
92.7461819262
 10
66.6695010799
 20
92.7827085935
 10
66.643561007
 20
92.8178011375
 10
66.6151716321
 20
92.8514023221
 10
66.5844379521
 20
92.8835693835
 10
66.5518992483
 20
92.9136135173
 10
66.5174670673
 20
92.9414462507
 10
66.4812298625
 20
92.9671560566
 10
66.4439922752
 20
92.9903195495
 10
66.4057042584
 20
93.01081791
 10
66.3664158592
 20
93.0287699575
 10
66.3270818607
 20
93.0441087653
 10
66.2877139816
 20
93.0567073016
 10
66.2483005032
 20
93.0666925981
 10
66.2097610515
 20
93.0743788227
 10
66.1724021687
 20
93.0798706981
 10
66.1359173125
 20
93.0830635015
 10
66.1003064832
 20
93.0839572332
  0
LWPOLYLINE
  5
795
100
AcDbEntity
  8
RACCORDO
100
AcDbPolyline
 62
253
  6
CONTINUOUS
 90
4
 70
0
 10
68.5965819603
 20
104.1440946108
 10
68.596434828
 20
104.1588285183
 10
68.5962197348
 20
104.1678529017
 10
68.5959432154
 20
104.170893586
  0
LWPOLYLINE
  5
796
100
AcDbEntity
  8
RACCORDO
100
AcDbPolyline
 62
253
  6
CONTINUOUS
 90
4
 70
0
 10
68.5965819603
 20
110.3940946108
 10
68.596434828
 20
110.4088285183
 10
68.5962197348
 20
110.4178529017
 10
68.5959432154
 20
110.420893586
  0
LWPOLYLINE
  5
797
100
AcDbEntity
  8
RACCORDO
100
AcDbPolyline
 62
253
  6
CONTINUOUS
 90
4
 70
0
 10
68.5964222735
 20
124.4007943545
 10
68.5963119245
 20
124.4118447852
 10
68.5961506048
 20
124.4186130728
 10
68.5959432154
 20
124.420893586
  0
LWPOLYLINE
  5
798
100
AcDbEntity
  8
RACCORDO
100
AcDbPolyline
 62
253
  6
CONTINUOUS
 90
4
 70
0
 10
68.5965819603
 20
130.6440946108
 10
68.596434828
 20
130.6588285183
 10
68.5962197348
 20
130.6678529017
 10
68.5959432154
 20
130.670893586
  0
LWPOLYLINE
  5
799
100
AcDbEntity
  8
RACCORDO
100
AcDbPolyline
 62
253
  6
CONTINUOUS
 90
5
 70
0
 10
68.607420873
 20
134.1051495894
 10
68.6071666454
 20
134.1334987613
 10
68.606816837
 20
134.1541033221
 10
68.6063774327
 20
134.1666107563
 10
68.60585595
 20
134.1708070789
  0
LINE
  5
79A
100
AcDbEntity
  8
RACCORDO
100
AcDbLine
 62
253
  6
CONTINUOUS
 10
68.5959432154
 20
103.0542263496
 11
68.5965819271
 21
102.9542331193
  0
LINE
  5
79B
100
AcDbEntity
  8
RACCORDO
100
AcDbLine
 62
253
  6
CONTINUOUS
 10
68.5959432154
 20
109.3042263496
 11
68.5965819271
 21
109.2042331193
  0
LINE
  5
79C
100
AcDbEntity
  8
RACCORDO
100
AcDbLine
 62
253
  6
CONTINUOUS
 10
68.5959432154
 20
123.2542282534
 11
68.5964222812
 21
123.1792344864
  0
LINE
  5
79D
100
AcDbEntity
  8
RACCORDO
100
AcDbLine
 62
253
  6
CONTINUOUS
 10
68.5959432154
 20
129.5542263496
 11
68.5965819271
 21
129.4542331193
  0
LINE
  5
79E
100
AcDbEntity
  8
RACCORDO
100
AcDbLine
 62
253
  6
CONTINUOUS
 10
68.607420873
 20
99.599321914
 11
68.60585595
 21
99.8443018144
  0
LINE
  5
79F
100
AcDbEntity
  8
RACCORDO
100
AcDbLine
 62
253
  6
CONTINUOUS
 10
68.607626898
 20
134.0272816749
 11
68.607420873
 21
134.1051495894
  0
LINE
  5
7A0
100
AcDbEntity
  8
RACCORDO
100
AcDbLine
 62
253
  6
CONTINUOUS
 10
66.7941979083
 20
92.2495662867
 11
66.7941979083
 21
92.383983887
  0
LINE
  5
7A1
100
AcDbEntity
  8
RACCORDO
100
AcDbLine
 62
253
  6
CONTINUOUS
 10
66.7941979083
 20
141.141143664
 11
66.7941979083
 21
141.2755612643
  0
LINE
  5
7A2
100
AcDbEntity
  8
RACCORDO
100
AcDbLine
 62
253
  6
CONTINUOUS
 10
66.8567615383
 20
139.9053354957
 11
66.8567604223
 21
140.497327709
  0
LINE
  5
7A3
100
AcDbEntity
  8
RACCORDO
100
AcDbLine
 62
253
  6
CONTINUOUS
 10
66.8567604767
 20
93.027799779
 11
66.856761641
 21
93.6197920696
  0
LINE
  5
7A4
100
AcDbEntity
  8
RACCORDO
100
AcDbLine
 62
7
  6
CONTINUOUS
 10
66.9313659217
 20
92.9268297344
 11
66.9313659217
 21
93.6197919129
  0
LINE
  5
7A5
100
AcDbEntity
  8
RACCORDO
100
AcDbLine
 62
7
  6
CONTINUOUS
 10
66.9313659217
 20
139.9053354918
 11
66.9313659217
 21
140.5982978199
  0
LINE
  5
7A6
100
AcDbEntity
  8
RACCORDO
100
AcDbLine
 62
7
  6
CONTINUOUS
 10
67.0915799477
 20
92.2443754639
 11
67.0915799477
 21
92.383983887
  0
LINE
  5
7A7
100
AcDbEntity
  8
RACCORDO
100
AcDbLine
 62
7
  6
CONTINUOUS
 10
67.0915799477
 20
141.141143664
 11
67.0915799477
 21
141.2807520871
  0
LINE
  5
7A8
100
AcDbEntity
  8
RACCORDO
100
AcDbLine
 62
253
  6
CONTINUOUS
 10
68.5959432154
 20
130.4709012014
 11
68.5959432154
 21
129.5542263496
  0
LINE
  5
7A9
100
AcDbEntity
  8
RACCORDO
100
AcDbLine
 62
253
  6
CONTINUOUS
 10
68.5959432154
 20
124.2708992976
 11
68.5959432154
 21
123.2542282534
  0
LINE
  5
7AA
100
AcDbEntity
  8
RACCORDO
100
AcDbLine
 62
253
  6
CONTINUOUS
 10
68.5959432154
 20
110.2209012014
 11
68.5959432154
 21
109.3042263496
  0
LINE
  5
7AB
100
AcDbEntity
  8
RACCORDO
100
AcDbLine
 62
253
  6
CONTINUOUS
 10
68.5959432154
 20
103.9709012014
 11
68.5959432154
 21
103.0542263496
  0
LWPOLYLINE
  5
7AC
100
AcDbEntity
  8
RACCORDO
100
AcDbPolyline
 62
253
  6
CONTINUOUS
 90
6
 70
0
 10
68.5964222812
 20
123.1792344864
 10
68.5964783081
 20
123.1393301147
 10
68.5964222819
 20
123.1243332504
 10
68.5963119313
 20
123.1132827951
 10
68.5961506087
 20
123.1065144869
 10
68.5959432154
 20
123.104233965
  0
LINE
  5
7AD
100
AcDbEntity
  8
RACCORDO
100
AcDbLine
 62
253
  6
CONTINUOUS
 10
68.596478299
 20
124.367309879
 11
68.5964222735
 21
124.4007943545
  0
LWPOLYLINE
  5
7AE
100
AcDbEntity
  8
RACCORDO
100
AcDbPolyline
 62
253
  6
CONTINUOUS
 90
6
 70
0
 10
68.5965819271
 20
129.4542331193
 10
68.5966566125
 20
129.4010274481
 10
68.5965819111
 20
129.38103201
 10
68.5964347864
 20
129.3662985299
 10
68.5962197092
 20
129.3572745017
 10
68.5959432154
 20
129.354233965
  0
LINE
  5
7AF
100
AcDbEntity
  8
RACCORDO
100
AcDbLine
 62
253
  6
CONTINUOUS
 10
68.5966566626
 20
104.0994486434
 11
68.5965819603
 21
104.1440946108
  0
LINE
  5
7B0
100
AcDbEntity
  8
RACCORDO
100
AcDbLine
 62
253
  6
CONTINUOUS
 10
68.5966566626
 20
110.3494486434
 11
68.5965819603
 21
110.3940946108
  0
LINE
  5
7B1
100
AcDbEntity
  8
RACCORDO
100
AcDbLine
 62
253
  6
CONTINUOUS
 10
68.5966566626
 20
130.5994486434
 11
68.5965819603
 21
130.6440946108
  0
LWPOLYLINE
  5
7B2
100
AcDbEntity
  8
RACCORDO
100
AcDbPolyline
 62
253
  6
CONTINUOUS
 90
6
 70
0
 10
68.5965819271
 20
109.2042331193
 10
68.5966566125
 20
109.1510274481
 10
68.5965819111
 20
109.13103201
 10
68.5964347864
 20
109.1162985299
 10
68.5962197092
 20
109.1072745017
 10
68.5959432154
 20
109.104233965
  0
LWPOLYLINE
  5
7B3
100
AcDbEntity
  8
RACCORDO
100
AcDbPolyline
 62
253
  6
CONTINUOUS
 90
6
 70
0
 10
68.5965819271
 20
102.9542331193
 10
68.5966566125
 20
102.9010274481
 10
68.5965819111
 20
102.88103201
 10
68.5964347864
 20
102.8662985299
 10
68.5962197092
 20
102.8572745017
 10
68.5959432154
 20
102.854233965
  0
LINE
  5
7B4
100
AcDbEntity
  8
RACCORDO
100
AcDbLine
 62
253
  6
CONTINUOUS
 10
68.60585595
 20
133.6808257366
 11
68.60585595
 21
131.0083452318
  0
LINE
  5
7B5
100
AcDbEntity
  8
RACCORDO
100
AcDbLine
 62
253
  6
CONTINUOUS
 10
68.60585595
 20
129.0167823193
 11
68.60585595
 21
124.7583452318
  0
LINE
  5
7B6
100
AcDbEntity
  8
RACCORDO
100
AcDbLine
 62
253
  6
CONTINUOUS
 10
68.60585595
 20
122.7667823193
 11
68.60585595
 21
110.7583452318
  0
LINE
  5
7B7
100
AcDbEntity
  8
RACCORDO
100
AcDbLine
 62
253
  6
CONTINUOUS
 10
68.60585595
 20
108.7667823193
 11
68.60585595
 21
104.5083452318
  0
LINE
  5
7B8
100
AcDbEntity
  8
RACCORDO
100
AcDbLine
 62
253
  6
CONTINUOUS
 10
68.60585595
 20
102.5167823193
 11
68.60585595
 21
99.8443018144
  0
LINE
  5
7B9
100
AcDbEntity
  8
RACCORDO
100
AcDbLine
 62
253
  6
CONTINUOUS
 10
68.8020497967
 20
142.348378032
 11
68.8020497967
 21
141.3466244699
  0
LINE
  5
7BA
100
AcDbEntity
  8
RACCORDO
100
AcDbLine
 62
253
  6
CONTINUOUS
 10
68.8020497967
 20
92.1785030812
 11
68.8020497967
 21
91.176749519
  0
LINE
  5
7BB
100
AcDbEntity
  8
RACCORDO
100
AcDbLine
 62
253
  6
CONTINUOUS
 10
68.6071666454
 20
133.8683248608
 11
68.607626898
 21
134.0272816749
  0
LWPOLYLINE
  5
7BC
100
AcDbEntity
  8
RACCORDO
100
AcDbPolyline
 62
253
  6
CONTINUOUS
 90
3
 70
0
 10
68.5959432154
 20
130.4709012014
 10
68.5962197361
 20
130.5056278482
 10
68.5966566626
 20
130.5994486434
  0
LWPOLYLINE
  5
7BD
100
AcDbEntity
  8
RACCORDO
100
AcDbPolyline
 62
253
  6
CONTINUOUS
 90
3
 70
0
 10
68.5959432154
 20
124.2708992976
 10
68.5961506048
 20
124.2969442826
 10
68.596478299
 20
124.367309879
  0
LWPOLYLINE
  5
7BE
100
AcDbEntity
  8
RACCORDO
100
AcDbPolyline
 62
253
  6
CONTINUOUS
 90
3
 70
0
 10
68.5959432154
 20
110.2209012014
 10
68.5962197361
 20
110.2556278482
 10
68.5966566626
 20
110.3494486434
  0
LWPOLYLINE
  5
7BF
100
AcDbEntity
  8
RACCORDO
100
AcDbPolyline
 62
253
  6
CONTINUOUS
 90
3
 70
0
 10
68.5959432154
 20
103.9709012014
 10
68.5962197361
 20
104.0056278482
 10
68.5966566626
 20
104.0994486434
  0
LINE
  5
7C0
100
AcDbEntity
  8
RACCORDO
100
AcDbLine
 62
253
  6
CONTINUOUS
 10
68.60585595
 20
133.6808257366
 11
68.6071666454
 21
133.8683248608
  0
LWPOLYLINE
  5
7C1
100
AcDbEntity
  8
RACCORDO
100
AcDbPolyline
 62
253
  6
CONTINUOUS
 90
3
 70
0
 10
68.802377601
 20
142.3704682682
 10
68.8021951207
 20
142.3566567029
 10
68.8020497967
 20
142.348378032
  0
LINE
  5
7C2
100
AcDbEntity
  8
RACCORDO
100
AcDbLine
 62
253
  6
CONTINUOUS
 10
66.1171823559
 20
93.8175679457
 11
66.1141756137
 21
93.6262729223
  0
LINE
  5
7C3
100
AcDbEntity
  8
RACCORDO
100
AcDbLine
 62
7
  6
CONTINUOUS
 10
58.0915799477
 20
123.0125637755
 11
68.942888928
 21
123.1072617143
  0
LINE
  5
7C4
100
AcDbEntity
  8
RACCORDO
100
AcDbLine
 62
253
  6
CONTINUOUS
 10
58.0915799477
 20
123.162558064
 11
69.0915799477
 21
123.2572560028
  0
LINE
  5
7C5
100
AcDbEntity
  8
ASSI
100
AcDbLine
 62
7
  6
CONTINUOUS
 10
58.0892857812
 20
122.7625637755
 11
69.0915799477
 21
122.7625637755
  0
LINE
  5
7C6
100
AcDbEntity
  8
RACCORDO
100
AcDbLine
 62
7
  6
CONTINUOUS
 10
53.5915799477
 20
122.2931078128
 11
57.0915799477
 21
122.2625637755
  0
LINE
  5
7C7
100
AcDbEntity
  8
RACCORDO
100
AcDbLine
 62
253
  6
CONTINUOUS
 10
69.0915799477
 20
124.2678715482
 11
58.0915799477
 21
124.3625694871
  0
LINE
  5
7C8
100
AcDbEntity
  8
RACCORDO
100
AcDbLine
 62
7
  6
CONTINUOUS
 10
68.942888928
 20
124.4178658367
 11
58.0915799477
 21
124.5125637755
  0
LWPOLYLINE
  5
7C9
100
AcDbEntity
  8
RACCORDO
100
AcDbPolyline
 62
253
  6
CONTINUOUS
 90
6
 70
0
 10
69.0915799477
 20
142.0887286787
 10
69.089185075
 20
142.1214913272
 10
69.0820009109
 20
142.1538573826
 10
69.0700869917
 20
142.185296633
 10
69.0535579931
 20
142.2153210473
 10
69.0326452248
 20
142.2433755315
  0
LWPOLYLINE
  5
7CA
100
AcDbEntity
  8
RACCORDO
100
AcDbPolyline
 62
7
  6
CONTINUOUS
 90
13
 70
0
 10
69.0915796004
 20
133.680837092
 10
69.0874576954
 20
133.7442436509
 10
69.0750215186
 20
133.807129263
 10
69.0543655229
 20
133.8681354777
 10
69.0259555955
 20
133.9257845129
 10
68.9904204337
 20
133.9789919248
 10
68.9482171011
 20
134.027152934
 10
68.8995255428
 20
134.0698340536
 10
68.8458527816
 20
134.1055970483
 10
68.7893390849
 20
134.1334254111
 10
68.7307284376
 20
134.1534987192
 10
68.6696447138
 20
134.1660739824
 10
68.6058559415
 20
134.170807079
  0
LINE
  5
7CB
100
AcDbEntity
  8
RACCORDO
100
AcDbLine
 62
7
  6
CONTINUOUS
 10
69.0915799477
 20
143.7621930305
 11
69.0915799477
 21
141.6104713959
  0
LINE
  5
7CC
100
AcDbEntity
  8
RACCORDO
100
AcDbLine
 62
7
  6
CONTINUOUS
 10
69.0915799477
 20
133.6808257366
 11
69.0915799477
 21
99.8443018144
  0
LINE
  5
7CD
100
AcDbEntity
  8
RACCORDO
100
AcDbLine
 62
7
  6
CONTINUOUS
 10
69.0915799477
 20
91.9146561551
 11
69.0915799477
 21
89.7629345205
  0
LWPOLYLINE
  5
7CE
100
AcDbEntity
  8
RACCORDO
100
AcDbPolyline
 62
7
  6
CONTINUOUS
 90
13
 70
0
 10
69.0915796002
 20
99.8442904557
 10
69.0874576958
 20
99.7808838999
 10
69.0750215194
 20
99.7179982901
 10
69.054365524
 20
99.6569920766
 10
69.0259555974
 20
99.5993430418
 10
68.9904204362
 20
99.5461356295
 10
68.9482171033
 20
99.4979746193
 10
68.8995255447
 20
99.4552934991
 10
68.8458527836
 20
99.419530504
 10
68.7893390858
 20
99.3917021403
 10
68.7307284362
 20
99.3716288315
 10
68.6696447115
 20
99.3590535683
 10
68.6058559415
 20
99.354320472
  0
LWPOLYLINE
  5
7CF
100
AcDbEntity
  8
RACCORDO
100
AcDbPolyline
 62
253
  6
CONTINUOUS
 90
6
 70
0
 10
69.0915799477
 20
91.4363988724
 10
69.089185075
 20
91.4036362238
 10
69.0820009109
 20
91.3712701684
 10
69.0700869917
 20
91.339830918
 10
69.0535579931
 20
91.3098065038
 10
69.0326452248
 20
91.2817520195
  0
LWPOLYLINE
  5
7D0
100
AcDbEntity
  8
RACCORDO
100
AcDbPolyline
 62
253
  6
CONTINUOUS
 90
7
 70
0
 10
68.60585595
 20
99.3543204721
 10
68.6063774327
 20
99.3585167947
 10
68.606816837
 20
99.3710242289
 10
68.6071666454
 20
99.3916287897
 10
68.607420873
 20
99.4199779617
 10
68.6075751705
 20
99.4555867294
 10
68.607420873
 20
99.599321914
  0
LINE
  5
7D1
100
AcDbEntity
  8
ASSI
100
AcDbLine
 62
7
  6
CONTINUOUS
 10
58.0892857812
 20
124.7625637755
 11
69.0915799477
 21
124.7625637755
  0
LINE
  5
7D2
100
AcDbEntity
  8
RACCORDO
100
AcDbLine
 62
7
  6
CONTINUOUS
 10
58.0915799477
 20
129.2625637755
 11
68.8933252548
 21
129.3568291787
  0
LINE
  5
7D3
100
AcDbEntity
  8
RACCORDO
100
AcDbLine
 62
253
  6
CONTINUOUS
 10
58.0915799477
 20
129.4625561601
 11
69.0915799477
 21
129.5568215633
  0
LINE
  5
7D4
100
AcDbEntity
  8
ASSI
100
AcDbLine
 62
7
  6
CONTINUOUS
 10
58.0892857812
 20
129.0125637755
 11
69.0915799477
 21
129.0125637755
  0
LWPOLYLINE
  5
7D5
100
AcDbEntity
  8
RACCORDO
100
AcDbPolyline
 62
253
  6
CONTINUOUS
 90
9
 70
0
 10
68.8020497967
 20
91.1365816243
 10
68.8021947023
 20
91.1370914182
 10
68.8023039874
 20
91.1386093974
 10
68.802377195
 20
91.1411329286
 10
68.8024139938
 20
91.1446570628
 10
68.8024141444
 20
91.1491717726
 10
68.802377601
 20
91.1546592829
 10
68.8023045123
 20
91.1610991183
 10
68.8020497967
 20
91.176749519
  0
LINE
  5
7D6
100
AcDbEntity
  8
RACCORDO
100
AcDbLine
 62
7
  6
CONTINUOUS
 10
56.2861961056
 20
130.7625637755
 11
54.8915799477
 21
130.7625637755
  0
LINE
  5
7D7
100
AcDbEntity
  8
ASSI
100
AcDbLine
 62
7
  6
CONTINUOUS
 10
54.8915799477
 20
130.7625637755
 11
53.5915799477
 21
130.7625637755
  0
LINE
  5
7D8
100
AcDbEntity
  8
ASSI
100
AcDbLine
 62
7
  6
CONTINUOUS
 10
58.0892857812
 20
131.0125637755
 11
69.0915799477
 21
131.0125637755
  0
LINE
  5
7D9
100
AcDbEntity
  8
RACCORDO
100
AcDbLine
 62
253
  6
CONTINUOUS
 10
53.5915799477
 20
132.0125637755
 11
53.0915799477
 21
132.0125637755
  0
LINE
  5
7DA
100
AcDbEntity
  8
RACCORDO
100
AcDbLine
 62
253
  6
CONTINUOUS
 10
69.0915799477
 20
130.4683059877
 11
58.0915799477
 21
130.5625713909
  0
LINE
  5
7DB
100
AcDbEntity
  8
RACCORDO
100
AcDbLine
 62
7
  6
CONTINUOUS
 10
68.8933252548
 20
130.6682983723
 11
58.0915799477
 21
130.7625637755
  0
LWPOLYLINE
  5
7DC
100
AcDbEntity
  8
RACCORDO
100
AcDbPolyline
 62
253
  6
CONTINUOUS
 90
7
 70
0
 10
68.8020497967
 20
142.3885459268
 10
68.8021947023
 20
142.3880361328
 10
68.8023039874
 20
142.3865181537
 10
68.802377195
 20
142.3839946224
 10
68.8024139938
 20
142.3804704882
 10
68.8024141444
 20
142.3759557784
 10
68.802377601
 20
142.3704682682
  0
LINE
  5
7DD
100
AcDbEntity
  8
RACCORDO
100
AcDbLine
 62
7
  6
CONTINUOUS
 10
53.5915799477
 20
132.7625637755
 11
53.0915799477
 21
132.7625637755
  0
LINE
  5
7DE
100
AcDbEntity
  8
RACCORDO
100
AcDbLine
 62
253
  6
CONTINUOUS
 10
69.0915797884
 20
133.6808257366
 11
68.60585595
 21
133.6808257366
  0
LINE
  5
7DF
100
AcDbEntity
  8
RACCORDO
100
AcDbLine
 62
253
  6
CONTINUOUS
 10
68.60585595
 20
133.6808257366
 11
58.0915799477
 21
133.7725824332
  0
LINE
  5
7E0
100
AcDbEntity
  8
RACCORDO
100
AcDbLine
 62
7
  6
CONTINUOUS
 10
68.60585595
 20
134.1708070789
 11
58.0915799477
 21
134.2625637755
  0
LINE
  5
7E1
100
AcDbEntity
  8
ASSI
100
AcDbLine
 62
7
  6
CONTINUOUS
 10
54.8915799477
 20
136.7625637755
 11
53.5915799477
 21
136.7625637755
  0
LINE
  5
7E2
100
AcDbEntity
  8
RACCORDO
100
AcDbLine
 62
7
  6
CONTINUOUS
 10
54.8915799477
 20
136.7625637755
 11
56.2861961056
 21
136.7625637755
  0
LWPOLYLINE
  5
7E3
100
AcDbEntity
  8
RACCORDO
100
AcDbPolyline
 62
253
  6
CONTINUOUS
 90
28
 70
0
 10
66.312155898
 20
139.4023103845
 10
66.3364086398
 20
139.4031390717
 10
66.3614823468
 20
139.4048876401
 10
66.3873566854
 20
139.4077025305
 10
66.4140373645
 20
139.4117484872
 10
66.4414250133
 20
139.4171741548
 10
66.469299158
 20
139.424074959
 10
66.4975474257
 20
139.4325761787
 10
66.5260448335
 20
139.4427975423
 10
66.5545073628
 20
139.4547532074
 10
66.5827706738
 20
139.4685196258
 10
66.6106631372
 20
139.48415781
 10
66.6378738536
 20
139.5015704032
 10
66.664208555
 20
139.5207608406
 10
66.6894959955
 20
139.5417239015
 10
66.7134793095
 20
139.5642584333
 10
66.7360053956
 20
139.588326543
 10
66.7569073947
 20
139.6138356488
 10
66.7759689454
 20
139.6404137168
 10
66.7930769703
 20
139.6679315965
 10
66.8081587341
 20
139.6962716575
 10
66.821153315
 20
139.725009508
 10
66.8319446247
 20
139.7536249573
 10
66.8406639357
 20
139.7823432719
 10
66.8475761799
 20
139.8118846771
 10
66.8526647425
 20
139.8424413277
 10
66.8557513445
 20
139.8736300273
 10
66.8567626799
 20
139.9053355034
  0
LWPOLYLINE
  5
7E4
100
AcDbEntity
  8
RACCORDO
100
AcDbPolyline
 62
7
  6
CONTINUOUS
 90
14
 70
0
 10
66.3119429188
 20
139.4023064442
 10
66.3397648483
 20
139.4030600573
 10
66.4233834055
 20
139.4094030168
 10
66.5025023616
 20
139.4227465981
 10
66.5758660355
 20
139.4432998865
 10
66.6448319714
 20
139.4716183107
 10
66.7082717488
 20
139.5075085421
 10
66.7642361739
 20
139.549628956
 10
66.8130101425
 20
139.597798165
 10
66.8534865574
 20
139.650409659
 10
66.885124807
 20
139.7056712232
 10
66.9087751735
 20
139.7640879275
 10
66.9239813371
 20
139.8240909343
 10
66.9308540971
 20
139.8839923662
  0
LINE
  5
7E5
100
AcDbEntity
  8
RACCORDO
100
AcDbLine
 62
7
  6
CONTINUOUS
 10
66.312155898
 20
139.4023103845
 11
58.0915799477
 21
139.2588196976
  0
LWPOLYLINE
  5
7E6
100
AcDbEntity
  8
RACCORDO
100
AcDbPolyline
 62
253
  6
CONTINUOUS
 90
8
 70
0
 10
69.0326452248
 20
91.2817520195
 10
69.0077485141
 20
91.2562507024
 10
68.9793064869
 20
91.2337438457
 10
68.9477662375
 20
91.2145782643
 10
68.9136847033
 20
91.1990851107
 10
68.8776427707
 20
91.1875115628
 10
68.8402256737
 20
91.1800296172
 10
68.8020497967
 20
91.176749519
  0
LWPOLYLINE
  5
7E7
100
AcDbEntity
  8
RACCORDO
100
AcDbPolyline
 62
253
  6
CONTINUOUS
 90
28
 70
0
 10
66.1003064832
 20
140.4411703179
 10
66.1354892929
 20
140.4420479523
 10
66.1715376533
 20
140.4451681179
 10
66.2084515642
 20
140.4505308146
 10
66.2465178926
 20
140.4580275118
 10
66.2854497717
 20
140.4677667402
 10
66.3243866003
 20
140.4800740916
 10
66.3633451885
 20
140.4950643202
 10
66.4023087262
 20
140.5126226718
 10
66.4403661832
 20
140.5327304751
 10
66.4774807819
 20
140.5555002832
 10
66.5136892997
 20
140.5808195429
 10
66.5481910386
 20
140.6083319232
 10
66.5809175291
 20
140.6381397325
 10
66.6119372406
 20
140.6701406624
 10
66.6406548831
 20
140.7036714565
 10
66.666966923
 20
140.7388052461
 10
66.6909768938
 20
140.7754688999
 10
66.7124001062
 20
140.8127797683
 10
66.7311161627
 20
140.8507862438
 10
66.7472454607
 20
140.889439934
 10
66.7608645035
 20
140.927713011
 10
66.7718439215
 20
140.9654909871
 10
66.7803130843
 20
141.0028883501
 10
66.7867366032
 20
141.0392207357
 10
66.7912693487
 20
141.0742600225
 10
66.7937564504
 20
141.1082343319
 10
66.7941979083
 20
141.141143664
  0
LINE
  5
7E8
100
AcDbEntity
  8
RACCORDO
100
AcDbLine
 62
253
  6
CONTINUOUS
 10
66.1141756137
 20
139.8988546287
 11
58.0915799477
 21
139.7588197005
  0
LINE
  5
7E9
100
AcDbEntity
  8
RACCORDO
100
AcDbLine
 62
7
  6
CONTINUOUS
 10
58.0915799477
 20
141.1236565028
 11
68.7968156696
 21
141.3105170874
  0
LINE
  5
7EA
100
AcDbEntity
  8
RACCORDO
100
AcDbLine
 62
253
  6
CONTINUOUS
 10
66.8567615383
 20
139.9053354957
 11
66.1141756137
 21
139.8988546287
  0
LINE
  5
7EB
100
AcDbEntity
  8
RACCORDO
100
AcDbLine
 62
7
  6
CONTINUOUS
 10
58.0915037952
 20
140.0712899787
 11
59.3914047971
 21
140.0826340429
  0
LINE
  5
7EC
100
AcDbEntity
  8
RACCORDO
100
AcDbLine
 62
7
  6
CONTINUOUS
 10
60.9849303118
 20
140.0965405294
 11
66.1003064832
 21
140.1411817409
  0
LINE
  5
7ED
100
AcDbEntity
  8
RACCORDO
100
AcDbLine
 62
253
  6
CONTINUOUS
 10
58.0915799477
 20
140.3712792202
 11
59.3915799477
 21
140.3826241483
  0
LINE
  5
7EE
100
AcDbEntity
  8
RACCORDO
100
AcDbLine
 62
253
  6
CONTINUOUS
 10
61.8293896465
 20
140.4038985913
 11
66.1003064832
 21
140.4411703179
  0
LINE
  5
7EF
100
AcDbEntity
  8
RACCORDO
100
AcDbLine
 62
253
  6
CONTINUOUS
 10
66.8567615383
 20
139.9053354967
 11
66.9313659217
 21
139.9053354918
  0
LINE
  5
7F0
100
AcDbEntity
  8
0
100
AcDbLine
 62
7
  6
CONTINUOUS
 10
59.3915799477
 20
140.0625637755
 11
60.8915799477
 21
140.0625637755
  0
LINE
  5
7F1
100
AcDbEntity
  8
RACCORDO
100
AcDbLine
 62
253
  6
CONTINUOUS
 10
66.7941979083
 20
141.141143664
 11
67.0915799477
 21
141.141143664
  0
LINE
  5
7F2
100
AcDbEntity
  8
RACCORDO
100
AcDbLine
 62
7
  6
CONTINUOUS
 10
58.0915799477
 20
141.5625637755
 11
68.8020497967
 21
141.3466244699
  0
LWPOLYLINE
  5
7F3
100
AcDbEntity
  8
RACCORDO
100
AcDbPolyline
 62
253
  6
CONTINUOUS
 90
8
 70
0
 10
69.0326452248
 20
142.2433755315
 10
69.0077485141
 20
142.2688768487
 10
68.9793064869
 20
142.2913837054
 10
68.9477662375
 20
142.3105492867
 10
68.9136847033
 20
142.3260424404
 10
68.8776427707
 20
142.3376159882
 10
68.8402256737
 20
142.3450979338
 10
68.8020497967
 20
142.348378032
  0
LINE
  5
7F4
100
AcDbEntity
  8
RACCORDO
100
AcDbLine
 62
7
  6
CONTINUOUS
 10
58.7898710314
 20
142.7266280624
 11
58.7013624988
 21
142.7182088053
  0
LWPOLYLINE
  5
7F5
100
AcDbEntity
  8
RACCORDO
100
AcDbPolyline
 62
7
  6
CONTINUOUS
 90
3
 70
0
 10
58.7013624988
 20
142.7182088053
 10
58.6047327355
 20
142.7102780147
 10
58.5535917215
 20
142.7062620741
  0
LINE
  5
7F6
100
AcDbEntity
  8
RACCORDO
100
AcDbLine
 62
253
  6
CONTINUOUS
 10
55.0130760133
 20
143.3149308733
 11
58.0915799477
 21
143.476268428
  0
LWPOLYLINE
  5
7F7
100
AcDbEntity
  8
RACCORDO
100
AcDbPolyline
 62
7
  6
CONTINUOUS
 90
5
 70
0
 10
58.9445180895
 20
142.7327785193
 10
58.9086449778
 20
142.7327716792
 10
58.8708968863
 20
142.7317962608
 10
58.8312755569
 20
142.7298522643
 10
58.7898710314
 20
142.7266280624
  0
LINE
  5
7F8
100
AcDbEntity
  8
RACCORDO
100
AcDbLine
 62
253
  6
CONTINUOUS
 10
55.0130760133
 20
143.3149308733
 11
53.5915799477
 21
143.3149308733
  0
LINE
  5
7F9
100
AcDbEntity
  8
ASSI
100
AcDbLine
 62
7
  6
CONTINUOUS
 10
58.0915799477
 20
143.7625637755
 11
69.0915799477
 21
143.7625637755
  0
LINE
  5
7FA
100
AcDbEntity
  8
RACCORDO
100
AcDbLine
 62
253
  6
CONTINUOUS
 10
58.5535917215
 20
142.7062620741
 11
68.8020497967
 21
142.348378032
  0
LINE
  5
7FB
100
AcDbEntity
  8
RACCORDO
100
AcDbLine
 62
7
  6
CONTINUOUS
 10
58.9445180895
 20
142.7327785193
 11
68.8020497967
 21
142.3885459268
  0
LINE
  5
7FC
100
AcDbEntity
  8
RACCORDO
100
AcDbLine
 62
7
  6
CONTINUOUS
 10
58.0915799477
 20
142.7625637755
 11
58.7739105733
 21
142.738736265
  0
LINE
  5
7FD
100
AcDbEntity
  8
RACCORDO
100
AcDbLine
 62
7
  6
CONTINUOUS
 10
58.0915799477
 20
142.7172643139
 11
58.3915799477
 21
142.7051674045
  0
LINE
  5
7FE
100
AcDbEntity
  8
RACCORDO
100
AcDbLine
 62
7
  6
CONTINUOUS
 10
55.0130760133
 20
153.3012262208
 11
58.0915799477
 21
153.4625637755
  0
ARC
  5
7FF
100
AcDbEntity
  8
RACCORDO
100
AcDbCircle
 62
253
  6
CONTINUOUS
 10
99.4941531585
 20
110.0140321452
 40
3.621823077
100
AcDbArc
 50
193.0
 51
13.0
  0
ARC
  5
800
100
AcDbEntity
  8
RACCORDO
100
AcDbCircle
 62
253
  6
CONTINUOUS
 10
102.4223113769
 20
87.0655075007
 40
3.6209559062
100
AcDbArc
 50
225.0
 51
291.0913525969
  0
ARC
  5
801
100
AcDbEntity
  8
RACCORDO
100
AcDbCircle
 62
253
  6
CONTINUOUS
 10
99.0281988272
 20
90.4596200504
 40
3.6209462286
100
AcDbArc
 50
142.0951076156
 51
225.0
  0
ARC
  5
802
100
AcDbEntity
  8
RACCORDO
100
AcDbCircle
 62
253
  6
CONTINUOUS
 10
99.0281988272
 20
90.4596200504
 40
3.6122290384
100
AcDbArc
 50
52.3696871485
 51
134.1693888227
  0
ARC
  5
803
100
AcDbEntity
  8
RACCORDO
100
AcDbCircle
 62
7
  6
CONTINUOUS
 10
98.725255102
 20
95.7625637755
 40
3.5
100
AcDbArc
 50
316.2051478701
 51
230.334069757
  0
ARC
  5
804
100
AcDbEntity
  8
RACCORDO
100
AcDbCircle
 62
7
  6
CONTINUOUS
 10
99.4941531585
 20
110.0140321452
 40
3.3218400156
100
AcDbArc
 50
193.0
 51
13.0
  0
ARC
  5
805
100
AcDbEntity
  8
RACCORDO
100
AcDbCircle
 62
7
  6
CONTINUOUS
 10
102.4223113769
 20
87.0655075007
 40
3.3209673293
100
AcDbArc
 50
225.0
 51
293.1000960515
  0
ARC
  5
806
100
AcDbEntity
  8
RACCORDO
100
AcDbCircle
 62
7
  6
CONTINUOUS
 10
99.0281988272
 20
90.4596200504
 40
3.3209673285
100
AcDbArc
 50
142.0951079907
 51
225.0
  0
ARC
  5
807
100
AcDbEntity
  8
RACCORDO
100
AcDbCircle
 62
7
  6
CONTINUOUS
 10
99.0281988272
 20
90.4596200504
 40
3.3122404615
100
AcDbArc
 50
47.6126965273
 51
138.9265210998
  0
ARC
  5
808
100
AcDbEntity
  8
DRAFT
100
AcDbCircle
 62
7
  6
CONTINUOUS
 10
99.4941531585
 20
110.0140321452
 40
3.3
100
AcDbArc
 50
129.2812490524
 51
71.2024676086
  0
ARC
  5
809
100
AcDbEntity
  8
DRAFT
100
AcDbCircle
 62
7
  6
CONTINUOUS
 10
102.4223113769
 20
87.0655075007
 40
3.3
100
AcDbArc
 50
225.0
 51
45.0
  0
ARC
  5
80A
100
AcDbEntity
  8
DRAFT
100
AcDbCircle
 62
7
  6
CONTINUOUS
 10
99.0281988272
 20
90.4596200504
 40
3.3
100
AcDbArc
 50
45.0
 51
225.0
  0
ARC
  5
80B
100
AcDbEntity
  8
DRAFT
100
AcDbCircle
 62
7
  6
CONTINUOUS
 10
126.525255102
 20
86.7625637755
 40
3.25
100
AcDbArc
 50
90.0
 51
270.0
  0
ARC
  5
80C
100
AcDbEntity
  8
DRAFT
100
AcDbCircle
 62
7
  6
CONTINUOUS
 10
126.525255102
 20
86.7625637755
 40
1.8
100
AcDbArc
 50
90.0
 51
270.0
  0
ARC
  5
80D
100
AcDbEntity
  8
DRAFT
100
AcDbCircle
 62
7
  6
CONTINUOUS
 10
102.4223113769
 20
87.0655075007
 40
1.6
100
AcDbArc
 50
225.0
 51
45.0
  0
ARC
  5
80E
100
AcDbEntity
  8
DRAFT
100
AcDbCircle
 62
7
  6
CONTINUOUS
 10
99.0281988272
 20
90.4596200504
 40
1.6
100
AcDbArc
 50
45.0
 51
225.0
  0
ARC
  5
80F
100
AcDbEntity
  8
RACCORDO
100
AcDbCircle
 62
7
  6
CONTINUOUS
 10
94.475255102
 20
101.5125637755
 40
0.75
100
AcDbArc
 50
180.0
 51
360.0
  0
ARC
  5
810
100
AcDbEntity
  8
RACCORDO
100
AcDbCircle
 62
7
  6
CONTINUOUS
 10
91.225255102
 20
108.5625637755
 40
0.7
100
AcDbArc
 50
0.0
 51
180.0
  0
ARC
  5
811
100
AcDbEntity
  8
RACCORDO
100
AcDbCircle
 62
7
  6
CONTINUOUS
 10
91.225255102
 20
90.9625637755
 40
0.7
100
AcDbArc
 50
180.0
 51
360.0
  0
ARC
  5
812
100
AcDbEntity
  8
0
100
AcDbCircle
 62
7
  6
CONTINUOUS
 10
100.040189102
 20
104.7545627755
 40
0.444499
100
AcDbArc
 50
346.1072985388
 51
90.0
  0
ARC
  5
813
100
AcDbEntity
  8
0
100
AcDbCircle
 62
7
  6
CONTINUOUS
 10
100.040189102
 20
104.5411104555
 40
0.444499
100
AcDbArc
 50
270.0
 51
13.8927014612
  0
ARC
  5
814
100
AcDbEntity
  8
RACCORDO
100
AcDbCircle
 62
253
  6
CONTINUOUS
 10
99.0946048842
 20
121.4555977267
 40
3.6218230894
100
AcDbArc
 50
351.0
 51
171.0
  0
ARC
  5
815
100
AcDbEntity
  8
RACCORDO
100
AcDbCircle
 62
7
  6
CONTINUOUS
 10
99.0946048842
 20
121.4555977267
 40
3.3218400156
100
AcDbArc
 50
351.0
 51
171.0
  0
ARC
  5
816
100
AcDbEntity
  8
DRAFT
100
AcDbCircle
 62
7
  6
CONTINUOUS
 10
99.0946048842
 20
121.4555977267
 40
3.3
100
AcDbArc
 50
351.0103624612
 51
171.0102432744
  0
ARC
  5
817
100
AcDbEntity
  8
0
100
AcDbCircle
 62
7
  6
CONTINUOUS
 10
99.0946048842
 20
121.4555977267
 40
2.1
100
AcDbArc
 50
351.0
 51
171.0
  0
CIRCLE
  5
818
100
AcDbEntity
  8
ASSI
100
AcDbCircle
 62
7
  6
CONTINUOUS
 10
92.725255102
 20
116.7625637755
 40
2.0
  0
ARC
  5
819
100
AcDbEntity
  8
0
100
AcDbCircle
 62
7
  6
CONTINUOUS
 10
99.0946048842
 20
121.4555977267
 40
1.6
100
AcDbArc
 50
351.0
 51
171.0
  0
CIRCLE
  5
81A
100
AcDbEntity
  8
ASSI
100
AcDbCircle
 62
7
  6
CONTINUOUS
 10
92.725255102
 20
116.7625637755
 40
1.39
  0
ARC
  5
81B
100
AcDbEntity
  8
RACCORDO
100
AcDbCircle
 62
7
  6
CONTINUOUS
 10
91.225255102
 20
124.9625637755
 40
0.7
100
AcDbArc
 50
180.0
 51
360.0
  0
ARC
  5
81C
100
AcDbEntity
  8
RACCORDO
100
AcDbCircle
 62
253
  6
CONTINUOUS
 10
98.725255102
 20
137.7625637755
 40
4.0
100
AcDbArc
 50
129.6820138178
 51
43.7763269537
  0
ARC
  5
81D
100
AcDbEntity
  8
RACCORDO
100
AcDbCircle
 62
253
  6
CONTINUOUS
 10
102.4223113769
 20
146.4596200504
 40
3.6209559062
100
AcDbArc
 50
68.9088376471
 51
135.0
  0
ARC
  5
81E
100
AcDbEntity
  8
RACCORDO
100
AcDbCircle
 62
253
  6
CONTINUOUS
 10
99.0281988272
 20
143.0655075007
 40
3.6209538561
100
AcDbArc
 50
135.0
 51
217.9048924015
  0
ARC
  5
81F
100
AcDbEntity
  8
RACCORDO
100
AcDbCircle
 62
253
  6
CONTINUOUS
 10
99.0281988272
 20
143.0655075007
 40
3.6122290384
100
AcDbArc
 50
225.8306351016
 51
307.6303774953
  0
ARC
  5
820
100
AcDbEntity
  8
RACCORDO
100
AcDbCircle
 62
7
  6
CONTINUOUS
 10
98.725255102
 20
137.7625637755
 40
3.5
100
AcDbArc
 50
129.665930243
 51
43.7948521299
  0
ARC
  5
821
100
AcDbEntity
  8
RACCORDO
100
AcDbCircle
 62
7
  6
CONTINUOUS
 10
102.4223113769
 20
146.4596200504
 40
3.3209673293
100
AcDbArc
 50
66.8999039484
 51
135.0
  0
ARC
  5
822
100
AcDbEntity
  8
RACCORDO
100
AcDbCircle
 62
7
  6
CONTINUOUS
 10
99.0281988272
 20
143.0655075007
 40
3.3209673291
100
AcDbArc
 50
135.0
 51
217.9048920093
  0
ARC
  5
823
100
AcDbEntity
  8
RACCORDO
100
AcDbCircle
 62
7
  6
CONTINUOUS
 10
99.0281988272
 20
143.0655075007
 40
3.3122404615
100
AcDbArc
 50
221.0734789002
 51
312.3873034727
  0
ARC
  5
824
100
AcDbEntity
  8
DRAFT
100
AcDbCircle
 62
7
  6
CONTINUOUS
 10
102.4223113769
 20
146.4596200504
 40
3.3
100
AcDbArc
 50
315.0
 51
135.0
  0
ARC
  5
825
100
AcDbEntity
  8
DRAFT
100
AcDbCircle
 62
7
  6
CONTINUOUS
 10
99.0281988272
 20
143.0655075007
 40
3.3
100
AcDbArc
 50
135.0
 51
315.0
  0
ARC
  5
826
100
AcDbEntity
  8
DRAFT
100
AcDbCircle
 62
7
  6
CONTINUOUS
 10
102.4223113769
 20
146.4596200504
 40
1.6
100
AcDbArc
 50
315.0
 51
135.0
  0
ARC
  5
827
100
AcDbEntity
  8
DRAFT
100
AcDbCircle
 62
7
  6
CONTINUOUS
 10
99.0281988272
 20
143.0655075007
 40
1.6
100
AcDbArc
 50
135.0
 51
315.0
  0
ARC
  5
828
100
AcDbEntity
  8
RACCORDO
100
AcDbCircle
 62
7
  6
CONTINUOUS
 10
94.475255102
 20
132.0125637755
 40
0.75
100
AcDbArc
 50
0.0
 51
180.0
  0
ARC
  5
829
100
AcDbEntity
  8
RACCORDO
100
AcDbCircle
 62
7
  6
CONTINUOUS
 10
91.225255102
 20
142.5625637755
 40
0.7
100
AcDbArc
 50
0.0
 51
180.0
  0
ARC
  5
82A
100
AcDbEntity
  8
DRAFT
100
AcDbCircle
 62
7
  6
CONTINUOUS
 10
126.525255102
 20
146.7625637755
 40
3.25
100
AcDbArc
 50
90.0
 51
270.0
  0
ARC
  5
82B
100
AcDbEntity
  8
DRAFT
100
AcDbCircle
 62
7
  6
CONTINUOUS
 10
126.525255102
 20
146.7625637755
 40
1.8
100
AcDbArc
 50
90.0
 51
270.0
  0
ARC
  5
82C
100
AcDbEntity
  8
RACCORDO
100
AcDbCircle
 62
253
  6
CONTINUOUS
 10
158.725255102
 20
95.7625637755
 40
4.0
100
AcDbArc
 50
309.6820138178
 51
223.7763269537
  0
ARC
  5
82D
100
AcDbEntity
  8
RACCORDO
100
AcDbCircle
 62
253
  6
CONTINUOUS
 10
158.3559053199
 20
112.0695298243
 40
3.6218230894
100
AcDbArc
 50
171.0
 51
351.0
  0
ARC
  5
82E
100
AcDbEntity
  8
RACCORDO
100
AcDbCircle
 62
253
  6
CONTINUOUS
 10
155.0281988272
 20
87.0655075007
 40
3.6209559062
100
AcDbArc
 50
248.9088376471
 51
315.0
  0
ARC
  5
82F
100
AcDbEntity
  8
RACCORDO
100
AcDbCircle
 62
253
  6
CONTINUOUS
 10
158.4223113769
 20
90.4596200504
 40
3.6209538561
100
AcDbArc
 50
315.0
 51
37.9048924015
  0
ARC
  5
830
100
AcDbEntity
  8
RACCORDO
100
AcDbCircle
 62
253
  6
CONTINUOUS
 10
158.4223113769
 20
90.4596200504
 40
3.6122290384
100
AcDbArc
 50
45.8303524287
 51
127.6303133116
  0
ARC
  5
831
100
AcDbEntity
  8
RACCORDO
100
AcDbCircle
 62
7
  6
CONTINUOUS
 10
158.725255102
 20
95.7625637755
 40
3.5
100
AcDbArc
 50
309.665930243
 51
223.7948521299
  0
ARC
  5
832
100
AcDbEntity
  8
RACCORDO
100
AcDbCircle
 62
7
  6
CONTINUOUS
 10
158.3559053199
 20
112.0695298243
 40
3.3218400156
100
AcDbArc
 50
171.0
 51
351.0
  0
ARC
  5
833
100
AcDbEntity
  8
RACCORDO
100
AcDbCircle
 62
7
  6
CONTINUOUS
 10
155.0281988272
 20
87.0655075007
 40
3.3209673293
100
AcDbArc
 50
246.8999039484
 51
315.0
  0
ARC
  5
834
100
AcDbEntity
  8
RACCORDO
100
AcDbCircle
 62
7
  6
CONTINUOUS
 10
158.4223113769
 20
90.4596200504
 40
3.3209673291
100
AcDbArc
 50
315.0
 51
37.9048920093
  0
ARC
  5
835
100
AcDbEntity
  8
RACCORDO
100
AcDbCircle
 62
7
  6
CONTINUOUS
 10
158.4223113769
 20
90.4596200504
 40
3.3122404615
100
AcDbArc
 50
41.0734789002
 51
132.3873034727
  0
ARC
  5
836
100
AcDbEntity
  8
DRAFT
100
AcDbCircle
 62
7
  6
CONTINUOUS
 10
158.3559053199
 20
112.0695298243
 40
3.3
100
AcDbArc
 50
171.0103624612
 51
351.0102432744
  0
ARC
  5
837
100
AcDbEntity
  8
DRAFT
100
AcDbCircle
 62
7
  6
CONTINUOUS
 10
155.0281988272
 20
87.0655075007
 40
3.3
100
AcDbArc
 50
135.0
 51
315.0
  0
ARC
  5
838
100
AcDbEntity
  8
DRAFT
100
AcDbCircle
 62
7
  6
CONTINUOUS
 10
158.4223113769
 20
90.4596200504
 40
3.3
100
AcDbArc
 50
315.0
 51
135.0
  0
ARC
  5
839
100
AcDbEntity
  8
DRAFT
100
AcDbCircle
 62
7
  6
CONTINUOUS
 10
130.925255102
 20
86.7625637755
 40
3.25
100
AcDbArc
 50
270.0
 51
90.0
  0
ARC
  5
83A
100
AcDbEntity
  8
0
100
AcDbCircle
 62
7
  6
CONTINUOUS
 10
158.3559053199
 20
112.0695298243
 40
2.1
100
AcDbArc
 50
171.0
 51
351.0
  0
ARC
  5
83B
100
AcDbEntity
  8
DRAFT
100
AcDbCircle
 62
7
  6
CONTINUOUS
 10
130.925255102
 20
86.7625637755
 40
1.8
100
AcDbArc
 50
270.0
 51
90.0
  0
ARC
  5
83C
100
AcDbEntity
  8
0
100
AcDbCircle
 62
7
  6
CONTINUOUS
 10
158.3559053199
 20
112.0695298243
 40
1.6
100
AcDbArc
 50
171.0
 51
351.0
  0
ARC
  5
83D
100
AcDbEntity
  8
DRAFT
100
AcDbCircle
 62
7
  6
CONTINUOUS
 10
155.0281988272
 20
87.0655075007
 40
1.6
100
AcDbArc
 50
135.0
 51
315.0
  0
ARC
  5
83E
100
AcDbEntity
  8
DRAFT
100
AcDbCircle
 62
7
  6
CONTINUOUS
 10
158.4223113769
 20
90.4596200504
 40
1.6
100
AcDbArc
 50
315.0
 51
135.0
  0
ARC
  5
83F
100
AcDbEntity
  8
RACCORDO
100
AcDbCircle
 62
7
  6
CONTINUOUS
 10
162.975255102
 20
101.5125637755
 40
0.75
100
AcDbArc
 50
180.0
 51
360.0
  0
ARC
  5
840
100
AcDbEntity
  8
RACCORDO
100
AcDbCircle
 62
7
  6
CONTINUOUS
 10
166.225255102
 20
90.9625637755
 40
0.7
100
AcDbArc
 50
180.0
 51
360.0
  0
ARC
  5
841
100
AcDbEntity
  8
RACCORDO
100
AcDbCircle
 62
7
  6
CONTINUOUS
 10
166.225255102
 20
108.5625637755
 40
0.7
100
AcDbArc
 50
0.0
 51
180.0
  0
ARC
  5
842
100
AcDbEntity
  8
RACCORDO
100
AcDbCircle
 62
253
  6
CONTINUOUS
 10
128.725255102
 20
116.7625637755
 40
33.6218307286
100
AcDbArc
 50
171.0
 51
193.0
  0
ARC
  5
843
100
AcDbEntity
  8
RACCORDO
100
AcDbCircle
 62
253
  6
CONTINUOUS
 10
128.725255102
 20
116.7625637755
 40
33.6218307286
100
AcDbArc
 50
351.0
 51
13.0
  0
ARC
  5
844
100
AcDbEntity
  8
RACCORDO
100
AcDbCircle
 62
7
  6
CONTINUOUS
 10
128.725255102
 20
116.7625637755
 40
33.3218400162
100
AcDbArc
 50
171.0
 51
193.0
  0
ARC
  5
845
100
AcDbEntity
  8
RACCORDO
100
AcDbCircle
 62
7
  6
CONTINUOUS
 10
128.725255102
 20
116.7625637755
 40
33.3218400162
100
AcDbArc
 50
351.0
 51
13.0
  0
ARC
  5
846
100
AcDbEntity
  8
DRAFT
100
AcDbCircle
 62
7
  6
CONTINUOUS
 10
128.725255102
 20
116.7625637755
 40
33.3
100
AcDbArc
 50
171.0010150993
 51
192.9987370978
  0
ARC
  5
847
100
AcDbEntity
  8
DRAFT
100
AcDbCircle
 62
7
  6
CONTINUOUS
 10
128.725255102
 20
116.7625637755
 40
33.3
100
AcDbArc
 50
351.0010150993
 51
12.9987370978
  0
ARC
  5
848
100
AcDbEntity
  8
0
100
AcDbCircle
 62
7
  6
CONTINUOUS
 10
128.725255102
 20
116.7625637755
 40
32.1
100
AcDbArc
 50
171.0
 51
187.6272071403
  0
ARC
  5
849
100
AcDbEntity
  8
0
100
AcDbCircle
 62
7
  6
CONTINUOUS
 10
128.725255102
 20
116.7625637755
 40
32.1
100
AcDbArc
 50
351.0
 51
7.6272071403
  0
ARC
  5
84A
100
AcDbEntity
  8
0
100
AcDbCircle
 62
7
  6
CONTINUOUS
 10
128.725255102
 20
116.7625637755
 40
31.6
100
AcDbArc
 50
351.0
 51
7.6272071403
  0
ARC
  5
84B
100
AcDbEntity
  8
0
100
AcDbCircle
 62
7
  6
CONTINUOUS
 10
128.725255102
 20
116.7625637755
 40
31.6
100
AcDbArc
 50
171.0
 51
187.6272071403
  0
ARC
  5
84C
100
AcDbEntity
  8
0
100
AcDbCircle
 62
7
  6
CONTINUOUS
 10
128.725255102
 20
116.7625637755
 40
28.4
100
AcDbArc
 50
351.0
 51
7.3323579326
  0
ARC
  5
84D
100
AcDbEntity
  8
0
100
AcDbCircle
 62
7
  6
CONTINUOUS
 10
128.725255102
 20
116.7625637755
 40
28.4
100
AcDbArc
 50
171.0
 51
187.3323579326
  0
ARC
  5
84E
100
AcDbEntity
  8
0
100
AcDbCircle
 62
7
  6
CONTINUOUS
 10
128.725255102
 20
116.7625637755
 40
27.9
100
AcDbArc
 50
171.0
 51
187.3323579326
  0
ARC
  5
84F
100
AcDbEntity
  8
0
100
AcDbCircle
 62
7
  6
CONTINUOUS
 10
128.725255102
 20
116.7625637755
 40
27.9
100
AcDbArc
 50
351.0
 51
7.3323579326
  0
ARC
  5
850
100
AcDbEntity
  8
DRAFT
100
AcDbCircle
 62
7
  6
CONTINUOUS
 10
128.725255102
 20
116.7625637755
 40
26.7
100
AcDbArc
 50
170.9987192463
 51
192.9984181333
  0
ARC
  5
851
100
AcDbEntity
  8
DRAFT
100
AcDbCircle
 62
7
  6
CONTINUOUS
 10
128.725255102
 20
116.7625637755
 40
26.7
100
AcDbArc
 50
350.9987192463
 51
12.9984181333
  0
ARC
  5
852
100
AcDbEntity
  8
RACCORDO
100
AcDbCircle
 62
7
  6
CONTINUOUS
 10
128.725255102
 20
116.7625637755
 40
26.6781599841
100
AcDbArc
 50
171.0
 51
193.0
  0
ARC
  5
853
100
AcDbEntity
  8
RACCORDO
100
AcDbCircle
 62
7
  6
CONTINUOUS
 10
128.725255102
 20
116.7625637755
 40
26.6781599841
100
AcDbArc
 50
351.0
 51
13.0
  0
ARC
  5
854
100
AcDbEntity
  8
RACCORDO
100
AcDbCircle
 62
253
  6
CONTINUOUS
 10
128.725255102
 20
116.7625637755
 40
26.3781735403
100
AcDbArc
 50
171.0
 51
193.0
  0
ARC
  5
855
100
AcDbEntity
  8
RACCORDO
100
AcDbCircle
 62
253
  6
CONTINUOUS
 10
128.725255102
 20
116.7625637755
 40
26.3781735403
100
AcDbArc
 50
351.0
 51
13.0
  0
ARC
  5
856
100
AcDbEntity
  8
DRAFT
100
AcDbCircle
 62
7
  6
CONTINUOUS
 10
130.925255102
 20
146.7625637755
 40
3.25
100
AcDbArc
 50
270.0
 51
90.0
  0
ARC
  5
857
100
AcDbEntity
  8
DRAFT
100
AcDbCircle
 62
7
  6
CONTINUOUS
 10
130.925255102
 20
146.7625637755
 40
1.8
100
AcDbArc
 50
270.0
 51
90.0
  0
ARC
  5
858
100
AcDbEntity
  8
RACCORDO
100
AcDbCircle
 62
253
  6
CONTINUOUS
 10
157.9563570456
 20
123.5110954058
 40
3.621823077
100
AcDbArc
 50
13.0
 51
193.0
  0
ARC
  5
859
100
AcDbEntity
  8
RACCORDO
100
AcDbCircle
 62
7
  6
CONTINUOUS
 10
157.9563570456
 20
123.5110954058
 40
3.3218400156
100
AcDbArc
 50
13.0
 51
193.0
  0
ARC
  5
85A
100
AcDbEntity
  8
DRAFT
100
AcDbCircle
 62
7
  6
CONTINUOUS
 10
157.9563570456
 20
123.5110954058
 40
3.3
100
AcDbArc
 50
309.2812490524
 51
251.2024676086
  0
CIRCLE
  5
85B
100
AcDbEntity
  8
ASSI
100
AcDbCircle
 62
7
  6
CONTINUOUS
 10
164.725255102
 20
116.7625637755
 40
2.0
  0
CIRCLE
  5
85C
100
AcDbEntity
  8
ASSI
100
AcDbCircle
 62
7
  6
CONTINUOUS
 10
164.725255102
 20
116.7625637755
 40
1.39
  0
ARC
  5
85D
100
AcDbEntity
  8
RACCORDO
100
AcDbCircle
 62
7
  6
CONTINUOUS
 10
166.225255102
 20
124.9625637755
 40
0.7
100
AcDbArc
 50
180.0
 51
360.0
  0
ARC
  5
85E
100
AcDbEntity
  8
RACCORDO
100
AcDbCircle
 62
253
  6
CONTINUOUS
 10
158.725255102
 20
137.7625637755
 40
4.0
100
AcDbArc
 50
136.2236730464
 51
50.3179861845
  0
ARC
  5
85F
100
AcDbEntity
  8
RACCORDO
100
AcDbCircle
 62
253
  6
CONTINUOUS
 10
155.0281988272
 20
146.4596200504
 40
3.6209559062
100
AcDbArc
 50
45.0
 51
111.0913525969
  0
ARC
  5
860
100
AcDbEntity
  8
RACCORDO
100
AcDbCircle
 62
253
  6
CONTINUOUS
 10
158.4223113769
 20
143.0655075007
 40
3.6209462286
100
AcDbArc
 50
322.0951076156
 51
45.0
  0
ARC
  5
861
100
AcDbEntity
  8
RACCORDO
100
AcDbCircle
 62
253
  6
CONTINUOUS
 10
158.4223113769
 20
143.0655075007
 40
3.6122290384
100
AcDbArc
 50
232.3696871485
 51
314.1693888227
  0
ARC
  5
862
100
AcDbEntity
  8
RACCORDO
100
AcDbCircle
 62
7
  6
CONTINUOUS
 10
158.725255102
 20
137.7625637755
 40
3.5
100
AcDbArc
 50
136.2051478701
 51
50.334069757
  0
ARC
  5
863
100
AcDbEntity
  8
RACCORDO
100
AcDbCircle
 62
7
  6
CONTINUOUS
 10
155.0281988272
 20
146.4596200504
 40
3.3209673293
100
AcDbArc
 50
45.0
 51
113.1000960515
  0
ARC
  5
864
100
AcDbEntity
  8
RACCORDO
100
AcDbCircle
 62
7
  6
CONTINUOUS
 10
158.4223113769
 20
143.0655075007
 40
3.3209673285
100
AcDbArc
 50
322.0951079907
 51
45.0
  0
ARC
  5
865
100
AcDbEntity
  8
RACCORDO
100
AcDbCircle
 62
7
  6
CONTINUOUS
 10
158.4223113769
 20
143.0655075007
 40
3.3122404615
100
AcDbArc
 50
227.6126965273
 51
318.9265210998
  0
ARC
  5
866
100
AcDbEntity
  8
DRAFT
100
AcDbCircle
 62
7
  6
CONTINUOUS
 10
155.0281988272
 20
146.4596200504
 40
3.3
100
AcDbArc
 50
45.0
 51
225.0
  0
ARC
  5
867
100
AcDbEntity
  8
DRAFT
100
AcDbCircle
 62
7
  6
CONTINUOUS
 10
158.4223113769
 20
143.0655075007
 40
3.3
100
AcDbArc
 50
225.0
 51
45.0
  0
ARC
  5
868
100
AcDbEntity
  8
ASSI
100
AcDbCircle
 62
7
  6
CONTINUOUS
 10
158.725255102
 20
137.2625637755
 40
2.0240299518
100
AcDbArc
 50
292.0885300128
 51
273.4299172726
  0
ARC
  5
869
100
AcDbEntity
  8
ASSI
100
AcDbCircle
 62
7
  6
CONTINUOUS
 10
158.664036102
 20
133.4470067755
 40
1.8043863978
100
AcDbArc
 50
47.231266101
 51
84.2010441072
  0
ARC
  5
86A
100
AcDbEntity
  8
ASSI
100
AcDbCircle
 62
7
  6
CONTINUOUS
 10
158.806041102
 20
133.7392767755
 40
1.7827319001
100
AcDbArc
 50
45.4349102329
 51
67.5658787562
  0
CIRCLE
  5
86B
100
AcDbEntity
  8
ASSI
100
AcDbCircle
 62
7
  6
CONTINUOUS
 10
158.725255102
 20
137.2625637755
 40
1.700044
  0
ARC
  5
86C
100
AcDbEntity
  8
DRAFT
100
AcDbCircle
 62
7
  6
CONTINUOUS
 10
155.0281988272
 20
146.4596200504
 40
1.6
100
AcDbArc
 50
45.0
 51
225.0
  0
ARC
  5
86D
100
AcDbEntity
  8
DRAFT
100
AcDbCircle
 62
7
  6
CONTINUOUS
 10
158.4223113769
 20
143.0655075007
 40
1.6
100
AcDbArc
 50
225.0
 51
45.0
  0
ARC
  5
86E
100
AcDbEntity
  8
ASSI
100
AcDbCircle
 62
7
  6
CONTINUOUS
 10
158.725255102
 20
137.2625637755
 40
1.5204522959
100
AcDbArc
 50
134.9002633258
 51
240.6958764731
  0
ARC
  5
86F
100
AcDbEntity
  8
ASSI
100
AcDbCircle
 62
7
  6
CONTINUOUS
 10
158.725255102
 20
137.2625637755
 40
1.5204520975
100
AcDbArc
 50
299.3041235269
 51
44.9957610834
  0
ARC
  5
870
100
AcDbEntity
  8
ASSI
100
AcDbCircle
 62
7
  6
CONTINUOUS
 10
158.725255102
 20
137.2625637755
 40
1.2181566122
100
AcDbArc
 50
299.3041277351
 51
31.973296603
  0
ARC
  5
871
100
AcDbEntity
  8
ASSI
100
AcDbCircle
 62
7
  6
CONTINUOUS
 10
158.725255102
 20
137.2625637755
 40
1.2181564327
100
AcDbArc
 50
148.0267046423
 51
240.6958722649
  0
ARC
  5
872
100
AcDbEntity
  8
RACCORDO
100
AcDbCircle
 62
7
  6
CONTINUOUS
 10
162.975255102
 20
132.0125637755
 40
0.75
100
AcDbArc
 50
0.0
 51
180.0
  0
ARC
  5
873
100
AcDbEntity
  8
RACCORDO
100
AcDbCircle
 62
7
  6
CONTINUOUS
 10
166.225255102
 20
142.5625637755
 40
0.7
100
AcDbArc
 50
0.0
 51
180.0
  0
ARC
  5
874
100
AcDbEntity
  8
RACCORDO
100
AcDbCircle
 62
7
  6
CONTINUOUS
 10
55.0915799477
 20
81.7218563497
 40
1.5
100
AcDbArc
 50
180.0004093729
 51
267.0000214248
  0
ARC
  5
875
100
AcDbEntity
  8
RACCORDO
100
AcDbCircle
 62
7
  6
CONTINUOUS
 10
55.0915799477
 20
151.8032712013
 40
1.5
100
AcDbArc
 50
92.9999785752
 51
179.9995906271
  0
ARC
  5
876
100
AcDbEntity
  8
RACCORDO
100
AcDbCircle
 62
7
  6
CONTINUOUS
 10
66.0915799477
 20
92.383983887
 40
1.0
100
AcDbArc
 50
0.0
 51
89.5
  0
ARC
  5
877
100
AcDbEntity
  8
RACCORDO
100
AcDbCircle
 62
7
  6
CONTINUOUS
 10
68.7915799477
 20
91.4363988724
 40
0.3
100
AcDbArc
 50
272.0
 51
360.0
  0
ARC
  5
878
100
AcDbEntity
  8
RACCORDO
100
AcDbCircle
 62
7
  6
CONTINUOUS
 10
68.7915799477
 20
91.9146561551
 40
0.3
100
AcDbArc
 50
0.0
 51
89.0
  0
ARC
  5
879
100
AcDbEntity
  8
RACCORDO
100
AcDbCircle
 62
7
  6
CONTINUOUS
 10
68.8915799477
 20
103.0568215633
 40
0.2
100
AcDbArc
 50
270.5
 51
360.0
  0
ARC
  5
87A
100
AcDbEntity
  8
RACCORDO
100
AcDbCircle
 62
7
  6
CONTINUOUS
 10
68.8915803887
 20
103.9683059838
 40
0.2
100
AcDbArc
 50
0.0000011026
 51
89.5001263485
  0
ARC
  5
87B
100
AcDbEntity
  8
RACCORDO
100
AcDbCircle
 62
7
  6
CONTINUOUS
 10
68.8915799477
 20
109.3068215633
 40
0.2
100
AcDbArc
 50
270.5
 51
360.0
  0
ARC
  5
87C
100
AcDbEntity
  8
RACCORDO
100
AcDbCircle
 62
7
  6
CONTINUOUS
 10
68.8915803887
 20
110.2183059838
 40
0.2
100
AcDbArc
 50
0.0000011026
 51
89.5001263485
  0
ARC
  5
87D
100
AcDbEntity
  8
RACCORDO
100
AcDbCircle
 62
7
  6
CONTINUOUS
 10
66.0915799477
 20
141.141143664
 40
1.0
100
AcDbArc
 50
270.5
 51
360.0
  0
ARC
  5
87E
100
AcDbEntity
  8
RACCORDO
100
AcDbCircle
 62
7
  6
CONTINUOUS
 10
68.7915799477
 20
142.0887286787
 40
0.3
100
AcDbArc
 50
0.0
 51
88.0
  0
ARC
  5
87F
100
AcDbEntity
  8
RACCORDO
100
AcDbCircle
 62
7
  6
CONTINUOUS
 10
68.7915799477
 20
141.6104713959
 40
0.3
100
AcDbArc
 50
271.0
 51
360.0
  0
ARC
  5
880
100
AcDbEntity
  8
RACCORDO
100
AcDbCircle
 62
7
  6
CONTINUOUS
 10
68.8915799477
 20
129.5568215633
 40
0.2
100
AcDbArc
 50
270.5
 51
360.0
  0
ARC
  5
881
100
AcDbEntity
  8
RACCORDO
100
AcDbCircle
 62
7
  6
CONTINUOUS
 10
68.8915803887
 20
130.4683059838
 40
0.2
100
AcDbArc
 50
0.0000011026
 51
89.5001263485
  0
ARC
  5
882
100
AcDbEntity
  8
RACCORDO
100
AcDbCircle
 62
7
  6
CONTINUOUS
 10
68.9415799477
 20
123.2572560028
 40
0.15
100
AcDbArc
 50
270.5
 51
360.0
  0
ARC
  5
883
100
AcDbEntity
  8
RACCORDO
100
AcDbCircle
 62
7
  6
CONTINUOUS
 10
68.9415794151
 20
124.2678715529
 40
0.15
100
AcDbArc
 50
359.9999982249
 51
89.4997965827
  0
ELLIPSE
  5
884
100
AcDbEntity
  8
RACCORDO
100
AcDbEllipse
 62
7
  6
CONTINUOUS
 10
98.738978562
 20
143.4488403155
 30
0.0
 11
7.0904624344
 21
-7.0904624344
 31
0.0
 40
0.9972646886
 41
2.3575640181
 42
3.9256212891
  0
ELLIPSE
  5
885
100
AcDbEntity
  8
RACCORDO
100
AcDbEllipse
 62
7
  6
CONTINUOUS
 10
98.738978562
 20
90.0762872355
 30
0.0
 11
7.0904624344
 21
7.0904624344
 31
0.0
 40
0.9972646886
 41
-3.9256212891
 42
-2.3575640181
  0
ELLIPSE
  5
886
100
AcDbEntity
  8
RACCORDO
100
AcDbEllipse
 62
7
  6
CONTINUOUS
 10
158.7115316421
 20
90.0762872355
 30
0.0
 11
7.0904624344
 21
-7.0904624344
 31
0.0
 40
0.9972646886
 41
-0.7840286355
 42
0.7840286355
  0
ELLIPSE
  5
887
100
AcDbEntity
  8
RACCORDO
100
AcDbEllipse
 62
7
  6
CONTINUOUS
 10
158.7115316421
 20
143.4488403155
 30
0.0
 11
7.0904624344
 21
7.0904624344
 31
0.0
 40
0.9972646886
 41
-0.7840286355
 42
0.7840286355
  0
ELLIPSE
  5
888
100
AcDbEntity
  8
RACCORDO
100
AcDbEllipse
 62
7
  6
CONTINUOUS
 10
137.725255102
 20
92.3962345288
 30
0.0
 11
1.0
 21
0.0
 31
0.0
 40
0.0174550649
 41
3.1415926536
 42
4.7123889804
  0
ELLIPSE
  5
889
100
AcDbEntity
  8
RACCORDO
100
AcDbEllipse
 62
7
  6
CONTINUOUS
 10
115.725255102
 20
92.3962345288
 30
0.0
 11
1.0
 21
-0.0
 31
0.0
 40
0.0174550649
 41
3.1415926536
 42
4.7123889804
  0
ELLIPSE
  5
88A
100
AcDbEntity
  8
RACCORDO
100
AcDbEllipse
 62
7
  6
CONTINUOUS
 10
115.725255102
 20
90.7730400064
 30
0.0
 11
1.0
 21
0.0
 31
0.0
 40
0.0349207695
 41
1.5707963268
 42
2.5557062846
  0
ELLIPSE
  5
88B
100
AcDbEntity
  8
RACCORDO
100
AcDbEllipse
 62
7
  6
CONTINUOUS
 10
119.725255102
 20
92.3962345288
 30
0.0
 11
1.0
 21
0.0
 31
0.0
 40
0.0174550649
 41
-1.5707963268
 42
0.0
  0
ELLIPSE
  5
88C
100
AcDbEntity
  8
RACCORDO
100
AcDbEllipse
 62
7
  6
CONTINUOUS
 10
141.725255102
 20
90.7730400064
 30
0.0
 11
1.0
 21
-0.0
 31
0.0
 40
0.0349207695
 41
0.585886369
 42
1.5707963268
  0
ELLIPSE
  5
88D
100
AcDbEntity
  8
RACCORDO
100
AcDbEllipse
 62
7
  6
CONTINUOUS
 10
141.725255102
 20
92.3962345288
 30
0.0
 11
1.0
 21
-0.0
 31
0.0
 40
0.0174550649
 41
-1.5707963268
 42
0.0
  0
ELLIPSE
  5
88E
100
AcDbEntity
  8
RACCORDO
100
AcDbEllipse
 62
7
  6
CONTINUOUS
 10
141.725255102
 20
141.1288930222
 30
0.0
 11
1.0
 21
0.0
 31
0.0
 40
0.0174550649
 41
6.2831853072
 42
7.853981634
  0
ELLIPSE
  5
88F
100
AcDbEntity
  8
RACCORDO
100
AcDbEllipse
 62
7
  6
CONTINUOUS
 10
141.725255102
 20
142.7520875447
 30
0.0
 11
1.0
 21
-0.0
 31
0.0
 40
0.0349207695
 41
-1.5707963268
 42
-0.585886369
  0
ELLIPSE
  5
890
100
AcDbEntity
  8
RACCORDO
100
AcDbEllipse
 62
7
  6
CONTINUOUS
 10
119.725255102
 20
141.1288930222
 30
0.0
 11
1.0
 21
0.0
 31
0.0
 40
0.0174550649
 41
6.2831853072
 42
7.853981634
  0
ELLIPSE
  5
891
100
AcDbEntity
  8
RACCORDO
100
AcDbEllipse
 62
7
  6
CONTINUOUS
 10
137.725255102
 20
141.1288930222
 30
0.0
 11
1.0
 21
-0.0
 31
0.0
 40
0.0174550649
 41
1.5707963268
 42
3.1415926536
  0
ELLIPSE
  5
892
100
AcDbEntity
  8
RACCORDO
100
AcDbEllipse
 62
7
  6
CONTINUOUS
 10
115.725255102
 20
142.7520875447
 30
0.0
 11
1.0
 21
0.0
 31
0.0
 40
0.0349207695
 41
-2.5557062846
 42
-1.5707963268
  0
ELLIPSE
  5
893
100
AcDbEntity
  8
RACCORDO
100
AcDbEllipse
 62
7
  6
CONTINUOUS
 10
115.725255102
 20
141.1288930222
 30
0.0
 11
1.0
 21
0.0
 31
0.0
 40
0.0174550649
 41
1.5707963268
 42
3.1415926536
  0
ELLIPSE
  5
894
100
AcDbEntity
  8
RACCORDO
100
AcDbEllipse
 62
7
  6
CONTINUOUS
 10
102.8752608138
 20
110.3625580638
 30
0.0
 11
0.1060740947
 21
-0.1060740947
 31
0.0
 40
0.9999238505
 41
3.2016658846
 42
3.9269527408
  0
ELLIPSE
  5
895
100
AcDbEntity
  8
RACCORDO
100
AcDbEllipse
 62
7
  6
CONTINUOUS
 10
154.5752493903
 20
123.1625694873
 30
0.0
 11
0.1060740947
 21
-0.1060740947
 31
0.0
 40
0.9999238505
 41
0.0602765387
 42
0.7853600872
  0
ELLIPSE
  5
896
100
AcDbEntity
  8
0
100
AcDbEllipse
 62
7
  6
CONTINUOUS
 10
149.394789102
 20
87.862587321
 30
0.0
 11
0.389369
 21
0.0
 31
0.0
 40
0.9698463104
 41
-1.5707740043
 42
1.5707963268
  0
ELLIPSE
  5
897
100
AcDbEntity
  8
RACCORDO
100
AcDbEllipse
 62
7
  6
CONTINUOUS
 10
167.0659732452
 20
122.2800175111
 30
0.0
 11
1.5
 21
0.0
 31
0.0
 40
0.0087268678
 41
6.3355451847
 42
7.853981634
  0
ELLIPSE
  5
898
100
AcDbEntity
  8
RACCORDO
100
AcDbEllipse
 62
7
  6
CONTINUOUS
 10
90.3845369589
 20
111.2451100399
 30
0.0
 11
1.5
 21
0.0
 31
0.0
 40
0.0087268678
 41
3.1939525311
 42
4.7123889804
  0
ELLIPSE
  5
899
100
AcDbEntity
  8
0
100
AcDbEllipse
 62
7
  6
CONTINUOUS
 10
116.979350102
 20
87.8972672602
 30
0.0
 11
0.572706
 21
-0.0
 31
0.0
 40
0.9698463104
 41
1.5757461673
 42
2.8801932893
  0
ELLIPSE
  5
89A
100
AcDbEntity
  8
0
100
AcDbEllipse
 62
7
  6
CONTINUOUS
 10
149.394789102
 20
87.8278576854
 30
0.0
 11
0.389369
 21
0.0
 31
0.0
 40
0.9698463104
 41
-1.5707740043
 42
-0.0000005205
  0
ELLIPSE
  5
89B
100
AcDbEntity
  8
RACCORDO
100
AcDbEllipse
 62
7
  6
CONTINUOUS
 10
90.4540613814
 20
111.2337651118
 30
0.0
 11
0.2
 21
-0.0
 31
0.0
 40
0.0087268678
 41
-3.1328660073
 42
-1.5707963268
  0
ELLIPSE
  5
89C
100
AcDbEntity
  8
RACCORDO
100
AcDbEllipse
 62
7
  6
CONTINUOUS
 10
166.9964488227
 20
122.2913624392
 30
0.0
 11
0.2
 21
0.0
 31
0.0
 40
0.0087268678
 41
0.0087266463
 42
1.5707963268
  0
ELLIPSE
  5
89D
100
AcDbEntity
  8
0
100
AcDbEllipse
 62
7
  6
CONTINUOUS
 10
116.979350102
 20
87.9319968958
 30
0.0
 11
0.572706
 21
0.0
 31
0.0
 40
0.9698463104
 41
1.5757461668
 42
2.8801932869
  0
ELLIPSE
  5
89E
100
AcDbEntity
  8
RACCORDO
100
AcDbEllipse
 62
7
  6
CONTINUOUS
 10
58.3915799477
 20
90.2426098773
 30
0.0
 11
0.9993952505
 21
0.0603746126
 31
0.0
 40
0.5759472843
 41
1.3732877005
 42
1.5360167214
  0
ELLIPSE
  5
89F
100
AcDbEntity
  8
RACCORDO
100
AcDbEllipse
 62
7
  6
CONTINUOUS
 10
58.3915799477
 20
143.2825176737
 30
0.0
 11
0.9993952505
 21
-0.0603746126
 31
0.0
 40
0.5759472843
 41
-1.5360167214
 42
-1.3732877005
  0
ELLIPSE
  5
8A0
100
AcDbEntity
  8
RACCORDO
100
AcDbEllipse
 62
7
  6
CONTINUOUS
 10
68.7915799477
 20
141.000214244
 30
0.0
 11
0.0208260926
 21
0.3459943327
 31
0.0
 40
0.8649744282
 41
-0.2760360689
 42
0.0345696031
  0
ELLIPSE
  5
8A1
100
AcDbEntity
  8
RACCORDO
100
AcDbEllipse
 62
7
  6
CONTINUOUS
 10
68.7915799477
 20
92.524913307
 30
0.0
 11
-0.0208260926
 21
0.3459943327
 31
0.0
 40
0.8649744282
 41
-3.1761622567
 42
-2.8655565847
  0
ENDSEC
  0
SECTION
  2
OBJECTS
  0
DICTIONARY
  5
C
100
AcDbDictionary
280
0
281
1
  3
ACAD_GROUP
350
D
  3
ACAD_MLINESTYLE
350
17
  3
ACAD_LAYOUT
350
1A
  3
ACAD_PLOTSETTINGS
350
19
  3
ACAD_PLOTSTYLENAME
350
E
  0
DICTIONARY
  5
D
102
{ACAD_REACTORS
330
C
102
}
100
AcDbDictionary
280
0
281
1
  0
ACDBDICTIONARYWDFLT
  5
E
102
{ACAD_REACTORS
330
C
102
}
100
AcDbDictionary
281
1
  3
Normal
350
F
100
AcDbDictionaryWithDefault
340
F
  0
DICTIONARY
  5
17
102
{ACAD_REACTORS
330
C
102
}
100
AcDbDictionary
280
0
281
1
  3
Standard
350
18
  0
DICTIONARY
  5
19
102
{ACAD_REACTORS
330
C
102
}
100
AcDbDictionary
281
1
  0
DICTIONARY
  5
1A
102
{ACAD_REACTORS
330
C
102
}
100
AcDbDictionary
281
1
  3
Model
350
8A2
  3
Layout1
350
8A3
  0
ACDBPLACEHOLDER
  5
F
102
{ACAD_REACTORS
330
E
102
}
  0
MLINESTYLE
  5
18
102
{ACAD_REACTORS
330
17
102
}
100
AcDbMlineStyle
  2
STANDARD
 70
0
  3

 62
256
 51
90.0
 52
90.0
 71
2
 49
0.5
 62
256
  6
BYLAYER
 49
-0.5
 62
256
  6
BYLAYER
  0
LAYOUT
  5
8A2
102
{ACAD_REACTORS
330
1A
102
}
100
AcDbPlotSettings
  1

  2
none_device
  4
ISO_A4_(297.00_x_210.00_MM)
  6

 40
0.0
 41
0.0
 42
0.0
 43
0.0
 44
297.0
 45
210.0
 46
0.0
 47
0.0
 48
0.0
 49
0.0
140
0.0
141
0.0
142
1.0
143
1.0
 70
1024
 72
1
 73
0
 74
0
  7

 75
0
147
1.0
148
0.0
149
0.0
100
AcDbLayout
  1
Model
 70
0
 71
0
 10
0.0
 20
0.0
 11
297.0
 21
210.0
 12
0.0
 22
0.0
 32
0.0
 14
0.0
 24
0.0
 34
0.0
 15
0.0
 25
0.0
 35
0.0
146
0.0
 13
0.0
 23
0.0
 33
0.0
 16
1.0
 26
0.0
 36
0.0
 17
0.0
 27
1.0
 37
0.0
 76
0
330
210
345
0
346
0
  0
LAYOUT
  5
8A3
102
{ACAD_REACTORS
330
1A
102
}
100
AcDbPlotSettings
  1

  2
none_device
  4
ISO_A4_(297.00_x_210.00_MM)
  6

 40
0.0
 41
0.0
 42
0.0
 43
0.0
 44
297.0
 45
210.0
 46
0.0
 47
0.0
 48
0.0
 49
0.0
140
0.0
141
0.0
142
1.0
143
1.0
 70
0
 72
1
 73
0
 74
0
  7

 75
0
147
1.0
148
0.0
149
0.0
100
AcDbLayout
  1
Layout1
 70
0
 71
1
 10
0.0
 20
0.0
 11
297.0
 21
210.0
 12
0.0
 22
0.0
 32
0.0
 14
0.0
 24
0.0
 34
0.0
 15
0.0
 25
0.0
 35
0.0
146
0.0
 13
0.0
 23
0.0
 33
0.0
 16
1.0
 26
0.0
 36
0.0
 17
0.0
 27
1.0
 37
0.0
 76
0
330
211
345
0
346
0
  0
ENDSEC
  0
EOF
