  0
SECTION
  2
HEADER
  9
$ACADVER
  1
AC1024
  9
$DWGCODEPAGE
  3
ANSI_1252
  9
$EXTMAX
 10
297.0
 20
210.0
 30
0.0
  9
$EXTMIN
 10
0.0
 20
0.0
 30
0.0
  9
$LIMMIN
 10
0.0
 20
0.0
  9
$LIMMAX
 10
297.0
 20
210.0
  9
$VIEWCTR
 10
148.5
 20
105.0
  9
$VIEWSIZE
 40
210.0
  9
$CLAYER
  8
0
  9
$LTSCALE
 40
16.335
  9
$CELTYPE
  6
BYLAYER
  9
$DIMSCALE
 40
1.0
  9
$DIMASZ
 40
3.0
  9
$DIMEXO
 40
0.5
  9
$DIMDLI
 40
11.286
  9
$DIMEXE
 40
1.5
  9
$DIMCEN
 40
2.673
  9
$DIMLFAC
 40
1.0
  9
$DIMBLK
  1
_FILLED
  9
$DIMALT
 70
0
  9
$DIMALTF
 40
0.0393700787
  9
$DIMTXT
 40
3.0
  9
$DIMTOL
 70
1
  9
$DIMLIM
 70
0
  9
$DIMTFAC
 40
1.0
  9
$DIMTP
 40
0.01
  9
$DIMTM
 40
0.01
  9
$DIMGAP
 40
0.625
  9
$DIMDSEP
 70
44
  9
$AUNITS
 70
0
  9
$PDMODE
 70
3
  9
$PDSIZE
 40
3.0
  9
$HANDSEED
  5
4BC
  9
$TILEMODE
 70
1
  9
$MEASUREMENT
 70
1
  9
$INSUNITS
 70
4
  0
ENDSEC
  0
SECTION
  2
CLASSES
  0
CLASS
  1
ACDBDICTIONARYWDFLT
  2
AcDbDictionaryWithDefault
  3
AutoCAD 2000
 90
0
 91
1
280
0
281
0
  0
CLASS
  1
ACDBPLACEHOLDER
  2
AcDbPlaceHolder
  3
AutoCAD 2000
 90
0
 91
1
280
0
281
0
  0
CLASS
  1
LAYOUT
  2
AcDbLayout
  3
AutoCAD 2000
 90
0
 91
0
280
0
281
0
  0
ENDSEC
  0
SECTION
  2
TABLES
  0
TABLE
  2
VPORT
  5
8
100
AcDbSymbolTable
 70
2
  0
VPORT
  5
1F4
100
AcDbSymbolTableRecord
100
AcDbViewportTableRecord
  2
*ACTIVE
 70
0
 10
0.0
 20
0.0
 11
1.0
 21
1.0
 12
148.5
 22
105.0
 13
0.0
 23
0.0
 14
1.0
 24
1.0
 15
0.0
 25
0.0
 16
0.0
 26
0.0
 36
1.0
 17
0.0
 27
0.0
 37
0.0
 40
210.0
 41
1.4142857143
 42
50.0
 43
0.0
 44
0.0
 50
0.0
 51
0.0
 71
0
 72
100
 73
1
 74
1
 75
0
 76
0
 77
0
 78
0
  0
ENDTAB
  0
TABLE
  2
LTYPE
  5
5
100
AcDbSymbolTable
 70
6
  0
LTYPE
  5
14
100
AcDbSymbolTableRecord
100
AcDbLinetypeTableRecord
  2
BYBLOCK
 70
0
  3

 72
65
 73
0
 40
0.0
  0
LTYPE
  5
15
100
AcDbSymbolTableRecord
100
AcDbLinetypeTableRecord
  2
BYLAYER
 70
0
  3

 72
65
 73
0
 40
0.0
  0
LTYPE
  5
16
100
AcDbSymbolTableRecord
100
AcDbLinetypeTableRecord
  2
CONTINUOUS
 70
64
  3
Solid line
 72
65
 73
0
 40
0.0
  0
LTYPE
  5
1F5
100
AcDbSymbolTableRecord
100
AcDbLinetypeTableRecord
  2
CENTER
 70
64
  3
____ _ ____ _ ____ _ ____ _ ____ _ ____ _ ____
 72
65
 73
4
 40
0.6
 49
0.375
 74
0
 49
-0.075
 74
0
 49
0.075
 74
0
 49
-0.075
 74
0
  0
LTYPE
  5
1F6
100
AcDbSymbolTableRecord
100
AcDbLinetypeTableRecord
  2
HIDDEN
 70
64
  3
- - - - - - - - - - - - - - - - - - - -
 72
65
 73
2
 40
0.2
 49
0.1
 74
0
 49
-0.1
 74
0
  0
LTYPE
  5
1F7
100
AcDbSymbolTableRecord
100
AcDbLinetypeTableRecord
  2
PHANTOM
 70
64
  3
_____ _ _ _____ _ _ _____ _ _ _____
 72
65
 73
6
 40
0.8
 49
0.45
 74
0
 49
-0.05
 74
0
 49
0.1
 74
0
 49
-0.05
 74
0
 49
0.1
 74
0
 49
-0.05
 74
0
  0
LTYPE
  5
1F8
100
AcDbSymbolTableRecord
100
AcDbLinetypeTableRecord
  2
DOT
 70
64
  3
. . . . . . . . . . . . . . . . . . . .
 72
65
 73
2
 40
0.2
 49
0.1
 74
0
 49
-0.1
 74
0
  0
LTYPE
  5
1F9
100
AcDbSymbolTableRecord
100
AcDbLinetypeTableRecord
  2
DASHED
 70
64
  3
- - - - - - - - - - - - - - - - - - - -
 72
65
 73
2
 40
0.2
 49
0.1
 74
0
 49
-0.1
 74
0
  0
ENDTAB
  0
TABLE
  2
LAYER
  5
2
100
AcDbSymbolTable
 70
36
  0
LAYER
  5
10
100
AcDbSymbolTableRecord
100
AcDbLayerTableRecord
  2
0
 70
0
 62
7
  6
CONTINUOUS
370
-3
390
F
  0
LAYER
  5
1FA
100
AcDbSymbolTableRecord
100
AcDbLayerTableRecord
  2
DEFAULT_1
 70
0
 62
7
  6
CENTER
370
-3
390
F
  0
LAYER
  5
1FB
100
AcDbSymbolTableRecord
100
AcDbLayerTableRecord
  2
DEFAULT_2
 70
0
 62
7
  6
HIDDEN
370
-3
390
F
  0
LAYER
  5
1FC
100
AcDbSymbolTableRecord
100
AcDbLayerTableRecord
  2
DEFAULT_3
 70
0
 62
7
  6
PHANTOM
370
-3
390
F
  0
LAYER
  5
1FD
100
AcDbSymbolTableRecord
100
AcDbLayerTableRecord
  2
ASSI
 70
0
 62
7
  6
CONTINUOUS
370
-3
390
F
  0
LAYER
  5
1FE
100
AcDbSymbolTableRecord
100
AcDbLayerTableRecord
  2
COORDINATE
 70
0
 62
7
  6
CONTINUOUS
370
-3
390
F
  0
LAYER
  5
1FF
100
AcDbSymbolTableRecord
100
AcDbLayerTableRecord
  2
COORD_ORIGINE
 70
0
 62
7
  6
CONTINUOUS
370
-3
390
F
  0
LAYER
  5
200
100
AcDbSymbolTableRecord
100
AcDbLayerTableRecord
  2
COSMETICI
 70
0
 62
7
  6
CONTINUOUS
370
-3
390
F
  0
LAYER
  5
201
100
AcDbSymbolTableRecord
100
AcDbLayerTableRecord
  2
CURVE
 70
0
 62
7
  6
CONTINUOUS
370
-3
390
F
  0
LAYER
  5
202
100
AcDbSymbolTableRecord
100
AcDbLayerTableRecord
  2
DRAFT
 70
0
 62
7
  6
CONTINUOUS
370
-3
390
F
  0
LAYER
  5
203
100
AcDbSymbolTableRecord
100
AcDbLayerTableRecord
  2
IMPORT
 70
0
 62
7
  6
CONTINUOUS
370
-3
390
F
  0
LAYER
  5
204
100
AcDbSymbolTableRecord
100
AcDbLayerTableRecord
  2
INTF_1
 70
0
 62
7
  6
CONTINUOUS
370
-3
390
F
  0
LAYER
  5
205
100
AcDbSymbolTableRecord
100
AcDbLayerTableRecord
  2
NOTE
 70
0
 62
7
  6
CONTINUOUS
370
-3
390
F
  0
LAYER
  5
206
100
AcDbSymbolTableRecord
100
AcDbLayerTableRecord
  2
PIANI
 70
0
 62
7
  6
CONTINUOUS
370
-3
390
F
  0
LAYER
  5
207
100
AcDbSymbolTableRecord
100
AcDbLayerTableRecord
  2
PIANI_ORIGINE
 70
0
 62
7
  6
CONTINUOUS
370
-3
390
F
  0
LAYER
  5
208
100
AcDbSymbolTableRecord
100
AcDbLayerTableRecord
  2
PUNTI
 70
0
 62
7
  6
CONTINUOUS
370
-3
390
F
  0
LAYER
  5
209
100
AcDbSymbolTableRecord
100
AcDbLayerTableRecord
  2
RACCORDO
 70
0
 62
7
  6
CONTINUOUS
370
-3
390
F
  0
LAYER
  5
20A
100
AcDbSymbolTableRecord
100
AcDbLayerTableRecord
  2
RGB____0____0____0__
 70
0
 62
7
  6
CONTINUOUS
370
-3
390
F
  0
LAYER
  5
20B
100
AcDbSymbolTableRecord
100
AcDbLayerTableRecord
  2
SIMBOLI
 70
0
 62
7
  6
CONTINUOUS
370
-3
390
F
  0
LAYER
  5
20C
100
AcDbSymbolTableRecord
100
AcDbLayerTableRecord
  2
SNAPLINE
 70
0
 62
7
  6
CONTINUOUS
370
-3
390
F
  0
LAYER
  5
20D
100
AcDbSymbolTableRecord
100
AcDbLayerTableRecord
  2
SUPERFICI
 70
0
 62
7
  6
CONTINUOUS
370
-3
390
F
  0
LAYER
  5
20E
100
AcDbSymbolTableRecord
100
AcDbLayerTableRecord
  2
TRASH
 70
0
 62
7
  6
CONTINUOUS
370
-3
390
F
  0
LAYER
  5
20F
100
AcDbSymbolTableRecord
100
AcDbLayerTableRecord
  2
XSEC_DATUMS
 70
0
 62
7
  6
CONTINUOUS
370
-3
390
F
  0
ENDTAB
  0
TABLE
  2
STYLE
  5
3
100
AcDbSymbolTable
 70
1
  0
STYLE
  5
11
100
AcDbSymbolTableRecord
100
AcDbTextStyleTableRecord
  2
STANDARD
 70
0
 40
0.0
 41
0.8
 50
0.0
 71
0
 42
0.2
  3
txt
  4

  0
STYLE
  5
210
100
AcDbSymbolTableRecord
100
AcDbTextStyleTableRecord
  2
TEXTSTYLE_1
 70
0
 40
0.0
 41
0.8
 50
0.0
 71
0
 42
0.2
  3
gdt
  4

  0
ENDTAB
  0
TABLE
  2
VIEW
  5
6
100
AcDbSymbolTable
 70
0
  0
ENDTAB
  0
TABLE
  2
UCS
  5
7
100
AcDbSymbolTable
 70
0
  0
ENDTAB
  0
TABLE
  2
APPID
  5
9
100
AcDbSymbolTable
 70
1
  0
APPID
  5
211
100
AcDbSymbolTableRecord
100
AcDbRegAppTableRecord
  2
ACAD
 70
0
  0
ENDTAB
  0
TABLE
  2
BLOCK_RECORD
  5
1
100
AcDbSymbolTable
 70
0
  0
BLOCK_RECORD
  5
212
100
AcDbSymbolTableRecord
100
AcDbBlockTableRecord
  2
*Model_Space
  0
BLOCK_RECORD
  5
213
100
AcDbSymbolTableRecord
100
AcDbBlockTableRecord
  2
*Paper_Space
  0
BLOCK_RECORD
  5
214
100
AcDbSymbolTableRecord
100
AcDbBlockTableRecord
  2
_FILLED
  0
BLOCK_RECORD
  5
215
100
AcDbSymbolTableRecord
100
AcDbBlockTableRecord
  2
*D0
  0
BLOCK_RECORD
  5
216
100
AcDbSymbolTableRecord
100
AcDbBlockTableRecord
  2
*D1
  0
BLOCK_RECORD
  5
217
100
AcDbSymbolTableRecord
100
AcDbBlockTableRecord
  2
*D2
  0
ENDTAB
  0
TABLE
  2
DIMSTYLE
  5
A
100
AcDbSymbolTable
 70
1
100
AcDbDimStyleTable
 71
0
  0
DIMSTYLE
105
218
100
AcDbSymbolTableRecord
100
AcDbDimStyleTableRecord
  2
STANDARD
 70
0
  3

  4

 40
1.0
 41
3.0
 42
0.5
 43
0.38
 44
1.5
 45
0.0
 46
0.0
 47
0.01
 48
0.01
140
3.0
141
0.09
142
0.0
143
25.4
144
1.0
145
0.0
146
1.0
147
0.625
 71
1
 72
0
 73
0
 74
0
 75
0
 76
0
 77
1
 78
8
 79
2
170
0
171
1
172
0
173
0
174
0
175
0
176
0
177
0
178
0
270
2
179
2
271
2
272
2
273
2
274
2
275
0
280
0
281
0
282
0
283
1
284
8
285
0
286
0
287
3
288
0
340
11
278
44
341
214
342
214
343
214
344
214
  0
DIMSTYLE
105
219
100
AcDbSymbolTableRecord
100
AcDbDimStyleTableRecord
  2
DIMSTYLE_1
 70
0
  3

  4

 40
1.0
 41
3.0
 42
0.5
 43
0.38
 44
1.5
 45
0.0
 46
0.0
 47
0.0
 48
0.0
140
3.0
141
0.09
142
0.0
143
25.4
144
1.0
145
0.0
146
1.0
147
0.75
 71
0
 72
0
 73
0
 74
0
 75
0
 76
0
 77
1
 78
8
 79
2
170
0
171
1
172
0
173
0
174
0
175
0
176
0
177
0
178
0
270
2
179
2
271
2
272
2
273
2
274
2
275
0
280
0
281
0
282
0
283
1
284
8
285
0
286
0
287
3
288
0
340
11
278
44
341
214
342
214
343
214
344
214
  0
ENDTAB
  0
ENDSEC
  0
SECTION
  2
BLOCKS
  0
BLOCK
  5
20
100
AcDbEntity
  8
0
100
AcDbBlockBegin
  2
*Model_Space
 70
0
 10
0.0
 20
0.0
 30
0.0
  3
*Model_Space
  1

  0
ENDBLK
  5
21
100
AcDbEntity
  8
0
100
AcDbBlockEnd
  0
BLOCK
  5
1C
100
AcDbEntity
  8
0
100
AcDbBlockBegin
  2
*Paper_Space
 70
0
 10
0.0
 20
0.0
 30
0.0
  3
*Paper_Space
  1

  0
ENDBLK
  5
1D
100
AcDbEntity
  8
0
100
AcDbBlockEnd
  0
BLOCK
  5
21A
100
AcDbEntity
  8
0
100
AcDbBlockBegin
  2
_FILLED
 70
64
 10
0.0
 20
0.0
  3
_FILLED
  1

  0
SOLID
  5
21B
100
AcDbEntity
  8
0
  6
BYBLOCK
 62
0
100
AcDbTrace
 10
0.0
 20
0.0
 11
-1.0
 21
0.3166666667
 12
-1.0
 22
-0.3166666667
 13
-1.0
 23
-0.3166666667
  0
ENDBLK
  5
21C
100
AcDbEntity
  8
0
  6
BYBLOCK
 62
0
100
AcDbBlockEnd
  0
BLOCK
  5
21D
100
AcDbEntity
  8
0
100
AcDbBlockBegin
 62
7
  6
CONTINUOUS
  2
*D0
 70
65
 10
0.0
 20
0.0
  3
*D0
  1

  0
LINE
  5
21E
100
AcDbEntity
  8
0
100
AcDbLine
 62
7
  6
CONTINUOUS
 10
-44.0
 20
39.3016445583
 11
-44.0
 21
49.5
  0
LINE
  5
21F
100
AcDbEntity
  8
0
100
AcDbLine
 62
7
  6
CONTINUOUS
 10
44.0
 20
39.3016445583
 11
44.0
 21
49.5
  0
LINE
  5
220
100
AcDbEntity
  8
0
100
AcDbLine
 62
7
  6
CONTINUOUS
 10
-44.0
 20
48.0
 11
0.0
 21
48.0
  0
LINE
  5
221
100
AcDbEntity
  8
0
100
AcDbLine
 62
7
  6
CONTINUOUS
 10
44.0
 20
48.0
 11
0.0
 21
48.0
  0
INSERT
  5
222
100
AcDbEntity
  8
0
100
AcDbBlockReference
 62
7
  6
CONTINUOUS
  2
_FILLED
 10
-44.0
 20
48.0
 41
3.0
 42
3.0
 43
3.0
 50
180.0
  0
INSERT
  5
223
100
AcDbEntity
  8
0
100
AcDbBlockReference
 62
7
  6
CONTINUOUS
  2
_FILLED
 10
44.0
 20
48.0
 41
3.0
 42
3.0
 43
3.0
  0
ENDBLK
  5
224
100
AcDbEntity
  8
0
  6
BYBLOCK
 62
0
100
AcDbBlockEnd
  0
BLOCK
  5
225
100
AcDbEntity
  8
0
100
AcDbBlockBegin
 62
7
  6
CONTINUOUS
  2
*D1
 70
65
 10
0.0
 20
0.0
  3
*D1
  1

  0
LINE
  5
226
100
AcDbEntity
  8
0
100
AcDbLine
 62
7
  6
CONTINUOUS
 10
-65.2899436929
 20
0.5
 11
-65.2899436929
 21
49.5
  0
LINE
  5
227
100
AcDbEntity
  8
0
100
AcDbLine
 62
7
  6
CONTINUOUS
 10
-56.3899436929
 20
40.5
 11
-56.3899436929
 21
49.5
  0
LINE
  5
228
100
AcDbEntity
  8
0
100
AcDbLine
 62
7
  6
CONTINUOUS
 10
-65.2899436929
 20
48.0
 11
-69.2899436929
 21
48.0
  0
LINE
  5
229
100
AcDbEntity
  8
0
100
AcDbLine
 62
7
  6
CONTINUOUS
 10
-69.2899436929
 20
48.0
 11
-60.8399436929
 21
48.0
  0
LINE
  5
22A
100
AcDbEntity
  8
0
100
AcDbLine
 62
7
  6
CONTINUOUS
 10
-56.3899436929
 20
48.0
 11
-52.3899436929
 21
48.0
  0
LINE
  5
22B
100
AcDbEntity
  8
0
100
AcDbLine
 62
7
  6
CONTINUOUS
 10
-52.3899436929
 20
48.0
 11
-60.8399436929
 21
48.0
  0
INSERT
  5
22C
100
AcDbEntity
  8
0
100
AcDbBlockReference
 62
7
  6
CONTINUOUS
  2
_FILLED
 10
-65.2899436929
 20
48.0
 41
3.0
 42
3.0
 43
3.0
  0
INSERT
  5
22D
100
AcDbEntity
  8
0
100
AcDbBlockReference
 62
7
  6
CONTINUOUS
  2
_FILLED
 10
-56.3899436929
 20
48.0
 41
3.0
 42
3.0
 43
3.0
 50
180.0
  0
ENDBLK
  5
22E
100
AcDbEntity
  8
0
  6
BYBLOCK
 62
0
100
AcDbBlockEnd
  0
BLOCK
  5
22F
100
AcDbEntity
  8
0
100
AcDbBlockBegin
 62
7
  6
CONTINUOUS
  2
*D2
 70
65
 10
0.0
 20
0.0
  3
*D2
  1

  0
LINE
  5
230
100
AcDbEntity
  8
0
100
AcDbLine
 62
7
  6
CONTINUOUS
 10
-56.8899436929
 20
40.0
 11
-74.7857054923
 21
40.0
  0
LINE
  5
231
100
AcDbEntity
  8
0
100
AcDbLine
 62
7
  6
CONTINUOUS
 10
-56.8899436929
 20
-40.0
 11
-74.7857054923
 21
-40.0
  0
LINE
  5
232
100
AcDbEntity
  8
0
100
AcDbLine
 62
7
  6
CONTINUOUS
 10
-73.2857054923
 20
40.0
 11
-73.2857054923
 21
0.0
  0
LINE
  5
233
100
AcDbEntity
  8
0
100
AcDbLine
 62
7
  6
CONTINUOUS
 10
-73.2857054923
 20
-40.0
 11
-73.2857054923
 21
0.0
  0
INSERT
  5
234
100
AcDbEntity
  8
0
100
AcDbBlockReference
 62
7
  6
CONTINUOUS
  2
_FILLED
 10
-73.2857054923
 20
40.0
 41
3.0
 42
3.0
 43
3.0
 50
90.0
  0
INSERT
  5
235
100
AcDbEntity
  8
0
100
AcDbBlockReference
 62
7
  6
CONTINUOUS
  2
_FILLED
 10
-73.2857054923
 20
-40.0
 41
3.0
 42
3.0
 43
3.0
 50
270.0
  0
ENDBLK
  5
236
100
AcDbEntity
  8
0
  6
BYBLOCK
 62
0
100
AcDbBlockEnd
  0
ENDSEC
  0
SECTION
  2
ENTITIES
  0
DIMENSION
  5
237
100
AcDbEntity
  8
0
100
AcDbDimension
 62
7
  6
CONTINUOUS
  2
*D0
 10
44.0
 20
48.0
 11
-2.3571428571
 21
48.0
 70
160
 71
2
 72
2
 41
0.9
 42
88.0
  3
DIMSTYLE_1
100
AcDbAlignedDimension
 13
-44.0
 23
38.8016445583
 14
44.0
 24
38.8016445583
100
AcDbRotatedDimension
  0
DIMENSION
  5
238
100
AcDbEntity
  8
0
100
AcDbDimension
 62
7
  6
CONTINUOUS
  2
*D1
 10
-56.3899436929
 20
48.0
 11
-64.0542294072
 21
48.0
 70
160
 71
2
 72
2
 41
0.9
 42
8.9
  3
DIMSTYLE_1
100
AcDbAlignedDimension
 13
-65.2899436929
 23
0.0
 14
-56.3899436929
 24
40.0
100
AcDbRotatedDimension
  0
DIMENSION
  5
239
100
AcDbEntity
  8
0
100
AcDbDimension
 62
7
  6
CONTINUOUS
  2
*D2
 10
-73.2857054923
 20
-40.0
 11
-73.2857054923
 21
-2.3571428571
 70
160
 71
2
 72
2
 41
0.9
 42
80.0
  3
DIMSTYLE_1
100
AcDbAlignedDimension
 13
-56.3899436929
 23
40.0
 14
-56.3899436929
 24
-40.0
 50
270.0
100
AcDbRotatedDimension
  0
LWPOLYLINE
  5
23A
100
AcDbEntity
  8
RACCORDO
100
AcDbPolyline
 62
250
  6
CONTINUOUS
 90
31
 70
0
 10
-43.6907520401
 20
38.4923965984
 10
-43.6890840536
 20
38.4949616463
 10
-43.6868388593
 20
38.49750935
 10
-43.6840177132
 20
38.500047276
 10
-43.6806178399
 20
38.5025907684
 10
-43.6766392762
 20
38.5051364597
 10
-43.6720893494
 20
38.5076661599
 10
-43.6669689218
 20
38.5101904724
 10
-43.6612760247
 20
38.5127147906
 10
-43.6550194062
 20
38.5152183268
 10
-43.6482006458
 20
38.517712536
 10
-43.6408184757
 20
38.5202046127
 10
-43.632882257
 20
38.5226712476
 10
-43.6243946944
 20
38.5251244846
 10
-43.6153556501
 20
38.5275732514
 10
-43.6057743687
 20
38.5299922188
 10
-43.595654881
 20
38.5323938588
 10
-43.5849985346
 20
38.5347885494
 10
-43.5738139588
 20
38.5371493922
 10
-43.5621065668
 20
38.5394890566
 10
-43.5498794087
 20
38.5418190854
 10
-43.5371402853
 20
38.5441115535
 10
-43.5238959856
 20
38.5463791428
 10
-43.510151317
 20
38.5486342263
 10
-43.4959132029
 20
38.5508483681
 10
-43.4811897251
 20
38.5530340959
 10
-43.4659874034
 20
38.5552042898
 10
-43.4503123822
 20
38.5573304749
 10
-43.4341739294
 20
38.559424899
 10
-43.4175801503
 20
38.5615006561
 10
-43.4005365732
 20
38.5635296243
  0
LWPOLYLINE
  5
23B
100
AcDbEntity
  8
RACCORDO
100
AcDbPolyline
 62
250
  6
CONTINUOUS
 90
35
 70
0
 10
-43.6907520401
 20
-38.4923965984
 10
-43.6890860817
 20
-38.4949489168
 10
-43.6868404292
 20
-38.4975000023
 10
-43.6840161702
 20
-38.5000486201
 10
-43.6806146731
 20
-38.5025935373
 10
-43.6766375854
 20
-38.5051335213
 10
-43.6720868338
 20
-38.5076673401
 10
-43.6669646227
 20
-38.5101937667
 10
-43.6612734334
 20
-38.5127115781
 10
-43.6550160228
 20
-38.5152195535
 10
-43.6481954221
 20
-38.5177164784
 10
-43.6408149352
 20
-38.5202011439
 10
-43.6328781374
 20
-38.5226723454
 10
-43.6243888733
 20
-38.5251288861
 10
-43.6153512554
 20
-38.5275695767
 10
-43.6057696616
 20
-38.529993234
 10
-43.5956487333
 20
-38.5323986842
 10
-43.5849933732
 20
-38.5347847625
 10
-43.5738087431
 20
-38.5371503125
 10
-43.5621002608
 20
-38.5394941884
 10
-43.5498735982
 20
-38.5418152552
 10
-43.537134678
 20
-38.544112388
 10
-43.5238896711
 20
-38.5463844743
 10
-43.5101449936
 20
-38.5486304136
 10
-43.4959073037
 20
-38.5508491176
 10
-43.4811834983
 20
-38.5530395117
 10
-43.4659807099
 20
-38.555200535
 10
-43.4503063028
 20
-38.5573311404
 10
-43.43416787
 20
-38.5594302958
 10
-43.4175732292
 20
-38.5614969846
 10
-43.4005304191
 20
-38.5635302055
 10
-43.3830476955
 20
-38.5655289735
 10
-43.3651335272
 20
-38.5674923206
 10
-43.3467965922
 20
-38.5694192955
 10
-43.3088901533
 20
-38.5731604132
  0
LWPOLYLINE
  5
23C
100
AcDbEntity
  8
RACCORDO
100
AcDbPolyline
 62
250
  6
CONTINUOUS
 90
70
 70
0
 10
-43.6907520401
 20
-38.4923965984
 10
-43.6903681473
 20
-38.5196226599
 10
-43.6893657562
 20
-38.5468358757
 10
-43.6877453017
 20
-38.5740221933
 10
-43.6855075004
 20
-38.6011679728
 10
-43.6826534452
 20
-38.6282587865
 10
-43.6791846956
 20
-38.6552794357
 10
-43.6751031121
 20
-38.6822155439
 10
-43.6704107527
 20
-38.7090536254
 10
-43.6651100262
 20
-38.7357798899
 10
-43.659203654
 20
-38.7623805819
 10
-43.6526946907
 20
-38.7888419151
 10
-43.6455865134
 20
-38.8151501501
 10
-43.6378828016
 20
-38.8412916739
 10
-43.629587527
 20
-38.8672530135
 10
-43.6207049708
 20
-38.89302077
 10
-43.6112397183
 20
-38.9185816404
 10
-43.6011966588
 20
-38.9439224198
 10
-43.5905809807
 20
-38.9690300165
 10
-43.5793981673
 20
-38.9938914621
 10
-43.5676539928
 20
-39.0184939195
 10
-43.5553545213
 20
-39.0428246853
 10
-43.5425061042
 20
-39.0668711951
 10
-43.529115377
 20
-39.0906210297
 10
-43.5151892551
 20
-39.1140619238
 10
-43.5007349304
 20
-39.1371817715
 10
-43.4857598674
 20
-39.1599686332
 10
-43.4702717996
 20
-39.1824107409
 10
-43.4542787253
 20
-39.204496505
 10
-43.4377889039
 20
-39.2262145194
 10
-43.4208108511
 20
-39.2475535682
 10
-43.403353335
 20
-39.2685026311
 10
-43.3854253711
 20
-39.2890508893
 10
-43.367036218
 20
-39.3091877309
 10
-43.3481953723
 20
-39.3289027564
 10
-43.3289125641
 20
-39.3481857844
 10
-43.3091977517
 20
-39.3670268563
 10
-43.2890611164
 20
-39.3854162419
 10
-43.2685130573
 20
-39.4033444443
 10
-43.2475641863
 20
-39.4208022046
 10
-43.2262253219
 20
-39.4377805071
 10
-43.2045074842
 20
-39.4542705835
 10
-43.1824218891
 20
-39.4702639178
 10
-43.1599799422
 20
-39.4857522504
 10
-43.1371932333
 20
-39.5007275825
 10
-43.1140735303
 20
-39.5151821804
 10
-43.090632773
 20
-39.5291085792
 10
-43.0668830667
 20
-39.5424995869
 10
-43.0428366768
 20
-39.5553482877
 10
-43.0185060217
 20
-39.5676480462
 10
-42.9939036662
 20
-39.5793925104
 10
-42.9690423162
 20
-39.590575615
 10
-42.9439348106
 20
-39.6011915847
 10
-42.9185941159
 20
-39.6112349369
 10
-42.8930333189
 20
-39.620700485
 10
-42.86726562
 20
-39.6295833407
 10
-42.8413043263
 20
-39.6378789164
 10
-42.8151628454
 20
-39.6455829282
 10
-42.7888546775
 20
-39.6526913973
 10
-42.762393409
 20
-39.6592006527
 10
-42.7357927054
 20
-39.6651073328
 10
-42.7090663041
 20
-39.6704083873
 10
-42.6822280076
 20
-39.6751010784
 10
-42.6552916764
 20
-39.6791829827
 10
-42.6282712214
 20
-39.6826519921
 10
-42.6011805967
 20
-39.6855063152
 10
-42.5740337924
 20
-39.687744478
 10
-42.546844828
 20
-39.6893653245
 10
-42.5196277447
 20
-39.6903680179
 10
-42.4923965984
 20
-39.6907520401
  0
LINE
  5
23D
100
AcDbEntity
  8
RACCORDO
100
AcDbLine
 62
7
  6
CONTINUOUS
 10
-44.0
 20
-38.8016445583
 11
-44.0
 21
-3.6749773271
  0
LINE
  5
23E
100
AcDbEntity
  8
RACCORDO
100
AcDbLine
 62
7
  6
CONTINUOUS
 10
-44.0
 20
3.6749773271
 11
-44.0
 21
38.8016445583
  0
LINE
  5
23F
100
AcDbEntity
  8
DRAFT
100
AcDbLine
 62
7
  6
CONTINUOUS
 10
-43.8951844414
 20
3.5
 11
-43.8951844414
 21
-3.5
  0
LWPOLYLINE
  5
240
100
AcDbEntity
  8
RACCORDO
100
AcDbPolyline
 62
250
  6
CONTINUOUS
 90
64
 70
0
 10
-43.6907520427
 20
-38.492396601
 10
-43.6846590393
 20
-37.2740382926
 10
-43.6787621031
 20
-36.0553467202
 10
-43.6730612342
 20
-34.8363218836
 10
-43.6675563743
 20
-33.6169506673
 10
-43.6622475817
 20
-32.3972461869
 10
-43.6571350312
 20
-31.1772477895
 10
-43.6522187355
 20
-29.9569568374
 10
-43.6474986819
 20
-28.7363719684
 10
-43.6429750067
 20
-27.5155284421
 10
-43.6386477159
 20
-26.2944262277
 10
-43.6345168035
 20
-25.0730653562
 10
-43.6305823877
 20
-23.8514811806
 10
-43.6268444748
 20
-22.6296737985
 10
-43.6233030584
 20
-21.4076431124
 10
-43.6199582379
 20
-20.1854241827
 10
-43.6168100198
 20
-18.9630173499
 10
-43.6138583975
 20
-17.7404222735
 10
-43.611103451
 20
-16.5176729928
 10
-43.6085451855
 20
-15.2947696572
 10
-43.6061835958
 20
-14.0717121172
 10
-43.6040187454
 20
-12.848533964
 10
-43.6020506392
 20
-11.6252351717
 10
-43.6002792723
 20
-10.4018157663
 10
-43.5987046935
 20
-9.1783094158
 10
-43.5973269077
 20
-7.9547159404
 10
-43.5961459101
 20
-6.7310355199
 10
-43.5951617346
 20
-5.5073023623
 10
-43.5943743866
 20
-4.2835161658
 10
-43.5937838608
 20
-3.0596772322
 10
-43.5933901749
 20
-1.8358206742
 10
-43.5931933349
 20
-0.6119464469
 10
-43.5931933348
 20
0.6119454048
 10
-43.5933901746
 20
1.8358196326
 10
-43.5937838604
 20
3.0596761917
 10
-43.594374386
 20
4.2835151269
 10
-43.5951617338
 20
5.5073013253
 10
-43.5961459092
 20
6.7310344855
 10
-43.5973269066
 20
7.954714909
 10
-43.5987046922
 20
9.1783083868
 10
-43.6002792709
 20
10.4018147389
 10
-43.6020506376
 20
11.6252341455
 10
-43.6040187437
 20
12.8485329383
 10
-43.6061835939
 20
14.0717110919
 10
-43.6085451835
 20
15.2947686317
 10
-43.6111034487
 20
16.517671966
 10
-43.6138583951
 20
17.7404212439
 10
-43.6168100172
 20
18.9630163164
 10
-43.6199582351
 20
20.1854231443
 10
-43.6233030554
 20
21.4076420678
 10
-43.6268444716
 20
22.6296727468
 10
-43.6305823844
 20
23.8514801221
 10
-43.6345168
 20
25.0730642928
 10
-43.6386477122
 20
26.2944251597
 10
-43.6429750028
 20
27.5155273666
 10
-43.6474986778
 20
28.7363708718
 10
-43.6522187311
 20
29.956955717
 10
-43.6571350266
 20
31.1772466696
 10
-43.662247577
 20
32.3972450814
 10
-43.6675563696
 20
33.6169496006
 10
-43.6730612299
 20
34.8363209409
 10
-43.6787620997
 20
36.0553460066
 10
-43.6846590373
 20
37.2740378932
 10
-43.6907520425
 20
38.4923966008
  0
LWPOLYLINE
  5
241
100
AcDbEntity
  8
RACCORDO
100
AcDbPolyline
 62
250
  6
CONTINUOUS
 90
70
 70
0
 10
-43.6907520401
 20
38.4923965984
 10
-43.690368023
 20
38.5196275444
 10
-43.6893653438
 20
38.5468444277
 10
-43.6877445206
 20
38.5740331927
 10
-43.6855063901
 20
38.6011797987
 10
-43.6826521084
 20
38.6282702263
 10
-43.6791831494
 20
38.6552904854
 10
-43.6751013045
 20
38.682226622
 10
-43.6704086817
 20
38.7090647258
 10
-43.6651077045
 20
38.7357909368
 10
-43.6592011104
 20
38.762391453
 10
-43.6526919496
 20
38.7888525372
 10
-43.6455835837
 20
38.8151605242
 10
-43.6378796836
 20
38.841301828
 10
-43.6295842278
 20
38.8672629485
 10
-43.6207015003
 20
38.8930304788
 10
-43.6112360883
 20
38.9185911119
 10
-43.60119288
 20
38.9439316476
 10
-43.5905770619
 20
38.9690389995
 10
-43.5793941164
 20
38.9939002015
 10
-43.5676498186
 20
39.0185024146
 10
-43.5553502335
 20
39.0428329338
 10
-43.5425017129
 20
39.0668791941
 10
-43.5291108922
 20
39.0906287773
 10
-43.5151846866
 20
39.1140694188
 10
-43.5007302881
 20
39.137189013
 10
-43.4857551612
 20
39.1599756206
 10
-43.4702670394
 20
39.1824174739
 10
-43.4542739212
 20
39.2045029834
 10
-43.4377840658
 20
39.2262207436
 10
-43.4208059891
 20
39.2475595389
 10
-43.4033484588
 20
39.2685083495
 10
-43.3854204906
 20
39.2890563568
 10
-43.3670313428
 20
39.3091929494
 10
-43.348190512
 20
39.3289077282
 10
-43.3289077282
 20
39.348190512
 10
-43.3091929494
 20
39.3670313428
 10
-43.2890563568
 20
39.3854204906
 10
-43.2685083495
 20
39.4033484588
 10
-43.2475595389
 20
39.4208059891
 10
-43.2262207436
 20
39.4377840658
 10
-43.2045029834
 20
39.4542739212
 10
-43.1824174739
 20
39.4702670394
 10
-43.1599756206
 20
39.4857551612
 10
-43.137189013
 20
39.5007302881
 10
-43.1140694188
 20
39.5151846866
 10
-43.0906287773
 20
39.5291108922
 10
-43.0668791941
 20
39.5425017129
 10
-43.0428329338
 20
39.5553502335
 10
-43.0185024146
 20
39.5676498186
 10
-42.9939002015
 20
39.5793941164
 10
-42.9690389995
 20
39.5905770619
 10
-42.9439316476
 20
39.60119288
 10
-42.9185911119
 20
39.6112360883
 10
-42.8930304788
 20
39.6207015003
 10
-42.8672629485
 20
39.6295842278
 10
-42.841301828
 20
39.6378796836
 10
-42.8151605242
 20
39.6455835837
 10
-42.7888525372
 20
39.6526919496
 10
-42.762391453
 20
39.6592011104
 10
-42.7357909368
 20
39.6651077045
 10
-42.7090647258
 20
39.6704086817
 10
-42.682226622
 20
39.6751013045
 10
-42.6552904854
 20
39.6791831494
 10
-42.6282702263
 20
39.6826521084
 10
-42.6011797987
 20
39.6855063901
 10
-42.5740331927
 20
39.6877445206
 10
-42.5468444277
 20
39.6893653438
 10
-42.5196275444
 20
39.690368023
 10
-42.4923965984
 20
39.6907520401
  0
LINE
  5
242
100
AcDbEntity
  8
RACCORDO
100
AcDbLine
 62
250
  6
CONTINUOUS
 10
-23.0587834021
 20
38.2884229115
 11
-22.9701303914
 21
38.3765293139
  0
LINE
  5
243
100
AcDbEntity
  8
RACCORDO
100
AcDbLine
 62
250
  6
CONTINUOUS
 10
-22.9701303914
 20
38.3765293139
 11
-22.8985953545
 21
38.4472634965
  0
LINE
  5
244
100
AcDbEntity
  8
RACCORDO
100
AcDbLine
 62
250
  6
CONTINUOUS
 10
43.4005365732
 20
-38.5635296244
 11
43.3651405405
 21
-38.5674958969
  0
LWPOLYLINE
  5
245
100
AcDbEntity
  8
RACCORDO
100
AcDbPolyline
 62
250
  6
CONTINUOUS
 90
3
 70
0
 10
-23.058783406
 20
-38.2884229089
 10
-23.0411625833
 20
-38.3059751352
 10
-22.8985953548
 20
-38.4472634921
  0
LINE
  5
246
100
AcDbEntity
  8
RACCORDO
100
AcDbLine
 62
250
  6
CONTINUOUS
 10
-42.4923965984
 20
39.6907520401
 11
-42.4923965984
 21
38.6082212622
  0
LINE
  5
247
100
AcDbEntity
  8
RACCORDO
100
AcDbLine
 62
250
  6
CONTINUOUS
 10
-42.4923965984
 20
-38.6082212622
 11
-42.4923965984
 21
-39.6907520401
  0
LWPOLYLINE
  5
248
100
AcDbEntity
  8
RACCORDO
100
AcDbPolyline
 62
250
  6
CONTINUOUS
 90
64
 70
0
 10
-42.4923965984
 20
-38.6082212622
 10
-42.4863035288
 20
-37.3862017115
 10
-42.4804065457
 20
-36.1638287825
 10
-42.474705649
 20
-34.9411139867
 10
-42.469200787
 20
-33.718068538
 10
-42.4638920114
 20
-32.4947042554
 10
-42.4587794772
 20
-31.2710335637
 10
-42.4538631904
 20
-30.0470680057
 10
-42.4491431449
 20
-28.8228190908
 10
-42.4446194775
 20
-27.5982991999
 10
-42.4402921943
 20
-26.3735198688
 10
-42.436161289
 20
-25.1484926308
 10
-42.43222688
 20
-23.9232298673
 10
-42.4284889736
 20
-22.6977432199
 10
-42.4249475633
 20
-21.4720441307
 10
-42.4216027486
 20
-20.2461446863
 10
-42.4184545359
 20
-19.0200567826
 10
-42.4155029188
 20
-17.793791619
 10
-42.412747977
 20
-16.5673602406
 10
-42.4101897161
 20
-15.3407743529
 10
-42.4078281305
 20
-14.1140453545
 10
-42.405663284
 20
-12.8871838314
 10
-42.4036951812
 20
-11.6602013161
 10
-42.4019238175
 20
-10.4331093871
 10
-42.4003492415
 20
-9.2059187004
 10
-42.3989714583
 20
-7.9786406458
 10
-42.3977904628
 20
-6.7512869499
 10
-42.3968062891
 20
-5.5238687755
 10
-42.3960189426
 20
-4.2963973607
 10
-42.3954284178
 20
-3.0688845878
 10
-42.3950347327
 20
-1.8413425859
 10
-42.3948378931
 20
-0.6137828884
 10
-42.3948378931
 20
0.6137829154
 10
-42.3950347327
 20
1.8413426126
 10
-42.3954284178
 20
3.0688846138
 10
-42.3960189426
 20
4.2963973857
 10
-42.3968062892
 20
5.5238687995
 10
-42.3977904628
 20
6.7512869729
 10
-42.3989714583
 20
7.9786406678
 10
-42.4003492416
 20
9.2059187221
 10
-42.4019238175
 20
10.4331094094
 10
-42.4036951813
 20
11.6602013399
 10
-42.405663284
 20
12.887183857
 10
-42.4078281306
 20
14.1140453825
 10
-42.4101897162
 20
15.3407743839
 10
-42.4127479771
 20
16.5673602745
 10
-42.4155029189
 20
17.7937916562
 10
-42.418454536
 20
19.0200568232
 10
-42.4216027487
 20
20.2461447295
 10
-42.4249475634
 20
21.4720441752
 10
-42.4284889737
 20
22.6977432649
 10
-42.4322268802
 20
23.9232299117
 10
-42.4361612892
 20
25.1484926731
 10
-42.4402921944
 20
26.373519908
 10
-42.4446194776
 20
27.5982992354
 10
-42.449143145
 20
28.822819122
 10
-42.4538631905
 20
30.047068032
 10
-42.4587794772
 20
31.2710335852
 10
-42.4638920115
 20
32.4947042721
 10
-42.469200787
 20
33.7180685499
 10
-42.474705649
 20
34.9411139944
 10
-42.4804065457
 20
36.163828787
 10
-42.4863035288
 20
37.3862017134
 10
-42.4923965984
 20
38.6082212622
  0
LWPOLYLINE
  5
249
100
AcDbEntity
  8
RACCORDO
100
AcDbPolyline
 62
250
  6
CONTINUOUS
 90
3
 70
0
 10
43.3651405405
 20
-38.5674958969
 10
43.3280513252
 20
-38.5713038482
 10
43.3088971323
 20
-38.5731638923
  0
LINE
  5
24A
100
AcDbEntity
  8
RACCORDO
100
AcDbLine
 62
250
  6
CONTINUOUS
 10
43.3088971323
 20
-38.5731638923
 11
43.2694070415
 21
-38.5767401821
  0
LINE
  5
24B
100
AcDbEntity
  8
RACCORDO
100
AcDbLine
 62
250
  6
CONTINUOUS
 10
43.2694070415
 20
-38.5767401821
 11
43.2284138686
 21
-38.580166013
  0
LINE
  5
24C
100
AcDbEntity
  8
RACCORDO
100
AcDbLine
 62
250
  6
CONTINUOUS
 10
43.2284138686
 20
-38.580166013
 11
43.1859949811
 21
-38.5834208941
  0
LINE
  5
24D
100
AcDbEntity
  8
RACCORDO
100
AcDbLine
 62
250
  6
CONTINUOUS
 10
43.1859949811
 20
-38.5834208941
 11
43.1422293479
 21
-38.5864881142
  0
LINE
  5
24E
100
AcDbEntity
  8
RACCORDO
100
AcDbLine
 62
250
  6
CONTINUOUS
 10
43.1422293479
 20
-38.5864881142
 11
43.0972075378
 21
-38.5893849532
  0
LINE
  5
24F
100
AcDbEntity
  8
RACCORDO
100
AcDbLine
 62
250
  6
CONTINUOUS
 10
43.0972075378
 20
-38.5893849532
 11
43.0510140331
 21
-38.5920930731
  0
LINE
  5
250
100
AcDbEntity
  8
RACCORDO
100
AcDbLine
 62
250
  6
CONTINUOUS
 10
43.0510140331
 20
-38.5920930731
 11
43.0037351432
 21
-38.5945976109
  0
LINE
  5
251
100
AcDbEntity
  8
RACCORDO
100
AcDbLine
 62
250
  6
CONTINUOUS
 10
43.0037351432
 20
-38.5945976109
 11
42.9554686363
 21
-38.5969150666
  0
LINE
  5
252
100
AcDbEntity
  8
RACCORDO
100
AcDbLine
 62
250
  6
CONTINUOUS
 10
42.9554686363
 20
-38.5969150666
 11
42.9063049608
 21
-38.5990294192
  0
LINE
  5
253
100
AcDbEntity
  8
RACCORDO
100
AcDbLine
 62
250
  6
CONTINUOUS
 10
42.9063049608
 20
-38.5990294192
 11
42.8310844669
 21
-38.6018076666
  0
LINE
  5
254
100
AcDbEntity
  8
RACCORDO
100
AcDbLine
 62
250
  6
CONTINUOUS
 10
42.8310844669
 20
-38.6018076666
 11
42.7543878379
 21
-38.6041091432
  0
LINE
  5
255
100
AcDbEntity
  8
RACCORDO
100
AcDbLine
 62
250
  6
CONTINUOUS
 10
42.7543878379
 20
-38.6041091432
 11
42.67654935
 21
-38.6059238207
  0
LWPOLYLINE
  5
256
100
AcDbEntity
  8
RACCORDO
100
AcDbPolyline
 62
250
  6
CONTINUOUS
 90
3
 70
0
 10
42.67654935
 20
-38.6059238207
 10
42.5979082571
 20
-38.6072437863
 10
42.571574289
 20
-38.6075695663
  0
LINE
  5
257
100
AcDbEntity
  8
RACCORDO
100
AcDbLine
 62
7
  6
CONTINUOUS
 10
-42.8016445583
 20
-40.0
 11
42.8016445583
 21
-40.0
  0
LINE
  5
258
100
AcDbEntity
  8
RACCORDO
100
AcDbLine
 62
250
  6
CONTINUOUS
 10
-42.4923965984
 20
-39.6907520401
 11
42.4923965984
 21
-39.6907520401
  0
LINE
  5
259
100
AcDbEntity
  8
RACCORDO
100
AcDbLine
 62
250
  6
CONTINUOUS
 10
-42.6504054342
 20
-38.6064159254
 11
-42.5715735557
 21
-38.6075695503
  0
LINE
  5
25A
100
AcDbEntity
  8
RACCORDO
100
AcDbLine
 62
250
  6
CONTINUOUS
 10
-42.7025985356
 20
-38.6053703952
 11
-42.6504054342
 21
-38.6064159254
  0
LINE
  5
25B
100
AcDbEntity
  8
RACCORDO
100
AcDbLine
 62
250
  6
CONTINUOUS
 10
-42.7543843866
 20
-38.6041060078
 11
-42.7025985356
 21
-38.6053703952
  0
LINE
  5
25C
100
AcDbEntity
  8
RACCORDO
100
AcDbLine
 62
250
  6
CONTINUOUS
 10
-42.8056626561
 20
-38.6026252138
 11
-42.7543843866
 21
-38.6041060078
  0
LINE
  5
25D
100
AcDbEntity
  8
RACCORDO
100
AcDbLine
 62
250
  6
CONTINUOUS
 10
-42.8563339963
 20
-38.6009308815
 11
-42.8056626561
 21
-38.6026252138
  0
LINE
  5
25E
100
AcDbEntity
  8
RACCORDO
100
AcDbLine
 62
250
  6
CONTINUOUS
 10
-42.9063002352
 20
-38.5990262934
 11
-42.8563339963
 21
-38.6009308815
  0
LINE
  5
25F
100
AcDbEntity
  8
RACCORDO
100
AcDbLine
 62
250
  6
CONTINUOUS
 10
-42.9554645669
 20
-38.5969151401
 11
-42.9063002352
 21
-38.5990262934
  0
LINE
  5
260
100
AcDbEntity
  8
RACCORDO
100
AcDbLine
 62
250
  6
CONTINUOUS
 10
-43.0037317394
 20
-38.5946015113
 11
-42.9554645669
 21
-38.5969151401
  0
LINE
  5
261
100
AcDbEntity
  8
RACCORDO
100
AcDbLine
 62
250
  6
CONTINUOUS
 10
-43.0510082385
 20
-38.5920898894
 11
-43.0037317394
 21
-38.5946015113
  0
LINE
  5
262
100
AcDbEntity
  8
RACCORDO
100
AcDbLine
 62
250
  6
CONTINUOUS
 10
-43.0972024696
 20
-38.589385141
 11
-43.0510082385
 21
-38.5920898894
  0
LINE
  5
263
100
AcDbEntity
  8
RACCORDO
100
AcDbLine
 62
250
  6
CONTINUOUS
 10
-43.1422249349
 20
-38.586492506
 11
-43.0972024696
 21
-38.589385141
  0
LINE
  5
264
100
AcDbEntity
  8
RACCORDO
100
AcDbLine
 62
250
  6
CONTINUOUS
 10
-43.1859884067
 20
-38.5834175886
 11
-43.1422249349
 21
-38.586492506
  0
LINE
  5
265
100
AcDbEntity
  8
RACCORDO
100
AcDbLine
 62
250
  6
CONTINUOUS
 10
-43.2284080966
 20
-38.5801663465
 11
-43.1859884067
 21
-38.5834175886
  0
LINE
  5
266
100
AcDbEntity
  8
RACCORDO
100
AcDbLine
 62
250
  6
CONTINUOUS
 10
-43.2694018195
 20
-38.5767450785
 11
-43.2284080966
 21
-38.5801663465
  0
LINE
  5
267
100
AcDbEntity
  8
RACCORDO
100
AcDbLine
 62
250
  6
CONTINUOUS
 10
-43.3088901533
 20
-38.5731604132
 11
-43.2694018195
 21
-38.5767450785
  0
LINE
  5
268
100
AcDbEntity
  8
DRAFT
100
AcDbLine
 62
7
  6
CONTINUOUS
 10
-43.8951844414
 20
-3.5
 11
-44.0
 21
-3.6749773271
  0
LINE
  5
269
100
AcDbEntity
  8
RACCORDO
100
AcDbLine
 62
250
  6
CONTINUOUS
 10
42.571574289
 20
-38.6075695663
 11
42.4923965984
 21
-38.6082212622
  0
LINE
  5
26A
100
AcDbEntity
  8
RACCORDO
100
AcDbLine
 62
250
  6
CONTINUOUS
 10
-42.4923965984
 20
-38.6082212622
 11
-23.2187037469
 21
-38.6082212622
  0
LINE
  5
26B
100
AcDbEntity
  8
RACCORDO
100
AcDbLine
 62
250
  6
CONTINUOUS
 10
23.2187037469
 20
-38.6082212622
 11
42.4923965984
 21
-38.6082212622
  0
LINE
  5
26C
100
AcDbEntity
  8
RACCORDO
100
AcDbLine
 62
250
  6
CONTINUOUS
 10
-22.8985953548
 20
-38.4472634921
 11
22.8985953548
 21
-38.4472634921
  0
LINE
  5
26D
100
AcDbEntity
  8
RACCORDO
100
AcDbLine
 62
250
  6
CONTINUOUS
 10
-42.5715735557
 20
-38.6075695503
 11
-42.4923965984
 21
-38.6082212622
  0
LINE
  5
26E
100
AcDbEntity
  8
DRAFT
100
AcDbLine
 62
7
  6
CONTINUOUS
 10
-44.0
 20
3.6749773271
 11
-43.8951844414
 21
3.5
  0
LINE
  5
26F
100
AcDbEntity
  8
0
100
AcDbLine
 62
7
  6
CONTINUOUS
 10
33.99575
 20
-33.90007
 11
34.555771
 21
-33.900063
  0
LINE
  5
270
100
AcDbEntity
  8
0
100
AcDbLine
 62
7
  6
CONTINUOUS
 10
38.337269
 20
-33.900063
 11
38.968046
 21
-33.900056
  0
LINE
  5
271
100
AcDbEntity
  8
0
100
AcDbLine
 62
7
  6
CONTINUOUS
 10
31.972904
 20
-33.90007
 11
32.532911
 21
-33.900063
  0
LINE
  5
272
100
AcDbEntity
  8
0
100
AcDbLine
 62
7
  6
CONTINUOUS
 10
29.763389
 20
-33.900077
 11
30.32341
 21
-33.90007
  0
LINE
  5
273
100
AcDbEntity
  8
0
100
AcDbLine
 62
7
  6
CONTINUOUS
 10
27.930978
 20
-33.900077
 11
28.49102
 21
-33.90007
  0
LINE
  5
274
100
AcDbEntity
  8
0
100
AcDbLine
 62
7
  6
CONTINUOUS
 10
30.883417
 20
-33.90007
 11
31.443438
 21
-33.90007
  0
LINE
  5
275
100
AcDbEntity
  8
0
100
AcDbLine
 62
7
  6
CONTINUOUS
 10
33.062384
 20
-33.90007
 11
33.622405
 21
-33.90007
  0
LINE
  5
276
100
AcDbEntity
  8
0
100
AcDbLine
 62
7
  6
CONTINUOUS
 10
36.727192
 20
-33.900063
 11
37.28722
 21
-33.900063
  0
LINE
  5
277
100
AcDbEntity
  8
0
100
AcDbLine
 62
7
  6
CONTINUOUS
 10
35.793819
 20
-33.900063
 11
36.353847
 21
-33.90007
  0
LINE
  5
278
100
AcDbEntity
  8
0
100
AcDbLine
 62
7
  6
CONTINUOUS
 10
34.73257
 20
-33.349401
 11
35.617027
 21
-33.349401
  0
LINE
  5
279
100
AcDbEntity
  8
0
100
AcDbLine
 62
7
  6
CONTINUOUS
 10
34.903391
 20
-32.81738
 11
35.446199
 21
-32.81738
  0
LINE
  5
27A
100
AcDbEntity
  8
0
100
AcDbLine
 62
7
  6
CONTINUOUS
 10
37.287283
 20
-32.817373
 11
37.776058
 21
-32.81738
  0
LINE
  5
27B
100
AcDbEntity
  8
0
100
AcDbLine
 62
7
  6
CONTINUOUS
 10
37.279499
 20
-32.299352
 11
37.960842
 21
-32.299352
  0
LINE
  5
27C
100
AcDbEntity
  8
0
100
AcDbLine
 62
7
  6
CONTINUOUS
 10
37.279492
 20
-31.617958
 11
37.960842
 21
-31.617958
  0
LWPOLYLINE
  5
27D
100
AcDbEntity
  8
RACCORDO
100
AcDbPolyline
 62
250
  6
CONTINUOUS
 90
3
 70
0
 10
-21.802744553
 20
22.5001894955
 10
-21.8029274076
 20
22.5000450168
 10
-21.8028712911
 20
22.5000000001
  0
LINE
  5
27E
100
AcDbEntity
  8
RACCORDO
100
AcDbLine
 62
250
  6
CONTINUOUS
 10
-21.2977807869
 20
22.8611945783
 11
-21.3511486313
 21
22.819749699
  0
LINE
  5
27F
100
AcDbEntity
  8
RACCORDO
100
AcDbLine
 62
250
  6
CONTINUOUS
 10
-21.3511486313
 20
22.819749699
 11
-21.400547911
 21
22.7820377334
  0
LINE
  5
280
100
AcDbEntity
  8
RACCORDO
100
AcDbLine
 62
250
  6
CONTINUOUS
 10
-21.400547911
 20
22.7820377334
 11
-21.4462606436
 21
22.7476033168
  0
LINE
  5
281
100
AcDbEntity
  8
RACCORDO
100
AcDbLine
 62
250
  6
CONTINUOUS
 10
-21.4462606436
 20
22.7476033168
 11
-21.4885222868
 21
22.716165184
  0
LINE
  5
282
100
AcDbEntity
  8
RACCORDO
100
AcDbLine
 62
250
  6
CONTINUOUS
 10
-21.4885222868
 20
22.716165184
 11
-21.527453549
 21
22.6875334545
  0
LINE
  5
283
100
AcDbEntity
  8
RACCORDO
100
AcDbLine
 62
250
  6
CONTINUOUS
 10
-21.527453549
 20
22.6875334545
 11
-21.5632453836
 21
22.6615074685
  0
LINE
  5
284
100
AcDbEntity
  8
RACCORDO
100
AcDbLine
 62
250
  6
CONTINUOUS
 10
-21.5632453836
 20
22.6615074685
 11
-21.5960610267
 21
22.6379322815
  0
LINE
  5
285
100
AcDbEntity
  8
RACCORDO
100
AcDbLine
 62
250
  6
CONTINUOUS
 10
-21.5960610267
 20
22.6379322815
 11
-21.6260033019
 21
22.6166774056
  0
LINE
  5
286
100
AcDbEntity
  8
RACCORDO
100
AcDbLine
 62
250
  6
CONTINUOUS
 10
-21.6260033019
 20
22.6166774056
 11
-21.6532170347
 21
22.5976115206
  0
LINE
  5
287
100
AcDbEntity
  8
RACCORDO
100
AcDbLine
 62
250
  6
CONTINUOUS
 10
-21.6532170347
 20
22.5976115206
 11
-21.6778244877
 21
22.5806212432
  0
LINE
  5
288
100
AcDbEntity
  8
RACCORDO
100
AcDbLine
 62
250
  6
CONTINUOUS
 10
-21.6778244877
 20
22.5806212432
 11
-21.6999043504
 21
22.5655983876
  0
LINE
  5
289
100
AcDbEntity
  8
RACCORDO
100
AcDbLine
 62
250
  6
CONTINUOUS
 10
-21.6999043504
 20
22.5655983876
 11
-21.7195681759
 21
22.5524354096
  0
LWPOLYLINE
  5
28A
100
AcDbEntity
  8
RACCORDO
100
AcDbPolyline
 62
250
  6
CONTINUOUS
 90
3
 70
0
 10
-21.7195681759
 20
22.5524354096
 10
-21.7369176354
 20
22.5410290204
 10
-21.7447374153
 20
22.5359513549
  0
LWPOLYLINE
  5
28B
100
AcDbEntity
  8
RACCORDO
100
AcDbPolyline
 62
250
  6
CONTINUOUS
 90
3
 70
0
 10
-21.7447374153
 20
22.5359513549
 10
-21.7587686236
 20
22.5269800988
 10
-21.7649800521
 20
22.5230598152
  0
LWPOLYLINE
  5
28C
100
AcDbEntity
  8
RACCORDO
100
AcDbPolyline
 62
250
  6
CONTINUOUS
 90
3
 70
0
 10
-21.7649800521
 20
22.5230598152
 10
-21.7758682144
 20
22.5162967714
 10
-21.7805449482
 20
22.51342517
  0
LINE
  5
28D
100
AcDbEntity
  8
RACCORDO
100
AcDbLine
 62
250
  6
CONTINUOUS
 10
-21.8008158292
 20
22.5013686898
 11
-21.802744553
 21
22.5001894955
  0
LINE
  5
28E
100
AcDbEntity
  8
RACCORDO
100
AcDbLine
 62
250
  6
CONTINUOUS
 10
-21.7805449482
 20
22.51342517
 11
-21.7913859246
 21
22.5069119508
  0
LWPOLYLINE
  5
28F
100
AcDbEntity
  8
RACCORDO
100
AcDbPolyline
 62
250
  6
CONTINUOUS
 90
4
 70
0
 10
-21.7913859246
 20
22.5069119508
 10
-21.7962929954
 20
22.5040289425
 10
-21.798117945
 20
22.5029461723
 10
-21.8008158292
 20
22.5013686898
  0
LINE
  5
290
100
AcDbEntity
  8
0
100
AcDbLine
 62
7
  6
CONTINUOUS
 10
27.031954
 20
-31.099944
 11
27.591982
 21
-31.099944
  0
LINE
  5
291
100
AcDbEntity
  8
0
100
AcDbLine
 62
7
  6
CONTINUOUS
 10
28.830023
 20
-31.099944
 11
29.390051
 21
-31.099944
  0
LINE
  5
292
100
AcDbEntity
  8
0
100
AcDbLine
 62
7
  6
CONTINUOUS
 10
29.763396
 20
-31.099944
 11
30.323417
 21
-31.099944
  0
LINE
  5
293
100
AcDbEntity
  8
0
100
AcDbLine
 62
7
  6
CONTINUOUS
 10
30.883417
 20
-31.099944
 11
31.730018
 21
-31.099944
  0
LINE
  5
294
100
AcDbEntity
  8
0
100
AcDbLine
 62
7
  6
CONTINUOUS
 10
32.775804
 20
-31.099944
 11
33.622405
 21
-31.099944
  0
LINE
  5
295
100
AcDbEntity
  8
0
100
AcDbLine
 62
7
  6
CONTINUOUS
 10
34.894767
 20
-31.099937
 11
35.454816
 21
-31.099937
  0
LINE
  5
296
100
AcDbEntity
  8
0
100
AcDbLine
 62
7
  6
CONTINUOUS
 10
36.727192
 20
-31.099937
 11
38.038572
 21
-31.099937
  0
LINE
  5
297
100
AcDbEntity
  8
RACCORDO
100
AcDbLine
 62
250
  6
CONTINUOUS
 10
-21.8008913038
 20
-22.5013236833
 11
-21.7982817152
 21
-22.5028501432
  0
LINE
  5
298
100
AcDbEntity
  8
RACCORDO
100
AcDbLine
 62
250
  6
CONTINUOUS
 10
-21.796515274
 20
-22.5038980617
 11
-21.791769515
 21
-22.5066856273
  0
LINE
  5
299
100
AcDbEntity
  8
RACCORDO
100
AcDbLine
 62
250
  6
CONTINUOUS
 10
-21.7982817152
 20
-22.5028501432
 11
-21.796515274
 21
-22.5038980617
  0
LINE
  5
29A
100
AcDbEntity
  8
RACCORDO
100
AcDbLine
 62
250
  6
CONTINUOUS
 10
-21.791769515
 20
-22.5066856273
 11
-21.7812406372
 21
-22.5130016237
  0
LWPOLYLINE
  5
29B
100
AcDbEntity
  8
RACCORDO
100
AcDbPolyline
 62
250
  6
CONTINUOUS
 90
3
 70
0
 10
-21.7812406372
 20
-22.5130016237
 10
-21.7715754762
 20
-22.5189509986
 10
-21.7659581649
 20
-22.5224452261
  0
LWPOLYLINE
  5
29C
100
AcDbEntity
  8
RACCORDO
100
AcDbPolyline
 62
250
  6
CONTINUOUS
 90
3
 70
0
 10
-21.7659581649
 20
-22.5224452261
 10
-21.7531364868
 20
-22.5305604882
 10
-21.7459257533
 20
-22.5351846803
  0
LWPOLYLINE
  5
29D
100
AcDbEntity
  8
RACCORDO
100
AcDbPolyline
 62
250
  6
CONTINUOUS
 90
3
 70
0
 10
-21.7459257533
 20
-22.5351846803
 10
-21.729858176
 20
-22.5456449971
 10
-21.7209688089
 20
-22.5515067326
  0
LINE
  5
29E
100
AcDbEntity
  8
RACCORDO
100
AcDbLine
 62
250
  6
CONTINUOUS
 10
-21.7209688089
 20
-22.5515067326
 11
-21.7014435146
 21
-22.5645604548
  0
LINE
  5
29F
100
AcDbEntity
  8
RACCORDO
100
AcDbLine
 62
250
  6
CONTINUOUS
 10
-21.7014435146
 20
-22.5645604548
 11
-21.6794994124
 21
-22.57947377
  0
LINE
  5
2A0
100
AcDbEntity
  8
RACCORDO
100
AcDbLine
 62
250
  6
CONTINUOUS
 10
-21.6794994124
 20
-22.57947377
 11
-21.6550248326
 21
-22.596354625
  0
LINE
  5
2A1
100
AcDbEntity
  8
RACCORDO
100
AcDbLine
 62
250
  6
CONTINUOUS
 10
-21.6550248326
 20
-22.596354625
 11
-21.6279410449
 21
-22.6153116215
  0
LINE
  5
2A2
100
AcDbEntity
  8
RACCORDO
100
AcDbLine
 62
250
  6
CONTINUOUS
 10
-21.6279410449
 20
-22.6153116215
 11
-21.5981258131
 21
-22.6364582869
  0
LINE
  5
2A3
100
AcDbEntity
  8
RACCORDO
100
AcDbLine
 62
250
  6
CONTINUOUS
 10
-21.5981258131
 20
-22.6364582869
 11
-21.5654343854
 21
-22.6599258337
  0
LINE
  5
2A4
100
AcDbEntity
  8
RACCORDO
100
AcDbLine
 62
250
  6
CONTINUOUS
 10
-21.5654343854
 20
-22.6599258337
 11
-21.5297639526
 21
-22.6858447144
  0
LINE
  5
2A5
100
AcDbEntity
  8
RACCORDO
100
AcDbLine
 62
250
  6
CONTINUOUS
 10
-21.5297639526
 20
-22.6858447144
 11
-21.490951377
 21
-22.714369381
  0
LINE
  5
2A6
100
AcDbEntity
  8
RACCORDO
100
AcDbLine
 62
250
  6
CONTINUOUS
 10
-21.490951377
 20
-22.714369381
 11
-21.4488053006
 21
-22.7456996305
  0
LINE
  5
2A7
100
AcDbEntity
  8
RACCORDO
100
AcDbLine
 62
250
  6
CONTINUOUS
 10
-21.4488053006
 20
-22.7456996305
 11
-21.4032038416
 21
-22.7800250502
  0
LINE
  5
2A8
100
AcDbEntity
  8
RACCORDO
100
AcDbLine
 62
250
  6
CONTINUOUS
 10
-21.4032038416
 20
-22.7800250502
 11
-21.3539194744
 21
-22.8176190967
  0
LWPOLYLINE
  5
2A9
100
AcDbEntity
  8
RACCORDO
100
AcDbPolyline
 62
250
  6
CONTINUOUS
 90
43
 70
0
 10
-21.3539194744
 20
-22.8176190967
 10
-21.3006192534
 20
-22.8589696193
 10
-21.2724155011
 20
-22.8811534638
 10
-21.244591684
 20
-22.9033797246
 10
-21.2173103308
 20
-22.9254427809
 10
-21.1904089127
 20
-22.9474494912
 10
-21.1646752777
 20
-22.9689077207
 10
-21.140395122
 20
-22.9895320586
 10
-21.1172827494
 20
-23.0094804323
 10
-21.0952689189
 20
-23.0289168972
 10
-21.0743604575
 20
-23.0478172908
 10
-21.0545505382
 20
-23.0661293585
 10
-21.0357494396
 20
-23.0839948755
 10
-21.0179541264
 20
-23.1014050385
 10
-21.0011676337
 20
-23.118318428
 10
-20.9853093455
 20
-23.1348400908
 10
-20.9703707099
 20
-23.1509737705
 10
-20.9563602786
 20
-23.1666813931
 10
-20.9432230909
 20
-23.1820119556
 10
-20.9309634615
 20
-23.1969604577
 10
-20.9195770755
 20
-23.2115063154
 10
-20.9089960279
 20
-23.2256786227
 10
-20.8992264519
 20
-23.2394713586
 10
-20.8902622141
 20
-23.2528710022
 10
-20.882017009
 20
-23.2658975733
 10
-20.8744990662
 20
-23.27853656
 10
-20.8677001561
 20
-23.2907873222
 10
-20.8615092839
 20
-23.3026925108
 10
-20.8559311627
 20
-23.314226541
 10
-20.8509610796
 20
-23.3254037465
 10
-20.8464739013
 20
-23.3363289172
 10
-20.8424570828
 20
-23.3470035727
 10
-20.8389231691
 20
-23.3574191004
 10
-20.8357846632
 20
-23.3676672819
 10
-20.8330305362
 20
-23.3777521027
 10
-20.830671817
 20
-23.3876650456
 10
-20.8286540941
 20
-23.3974806352
 10
-20.826968988
 20
-23.4072022139
 10
-20.8256248782
 20
-23.416823496
 10
-20.8245924931
 20
-23.4264055742
 10
-20.8238620752
 20
-23.4359683281
 10
-20.823443382
 20
-23.4454899994
 10
-20.8233364133
 20
-23.4549696424
  0
LWPOLYLINE
  5
2AA
100
AcDbEntity
  8
RACCORDO
100
AcDbPolyline
 62
250
  6
CONTINUOUS
 90
70
 70
0
 10
-22.0232907196
 20
-23.2099392933
 10
-22.0227510835
 20
-23.2154857558
 10
-22.0215966179
 20
-23.2210296196
 10
-22.019827914
 20
-23.2265680423
 10
-22.017445878
 20
-23.2320982595
 10
-22.0144517305
 20
-23.2376173607
 10
-22.0108470063
 20
-23.2431222912
 10
-22.0066335535
 20
-23.2486101555
 10
-22.0018135318
 20
-23.2540782141
 10
-21.996389412
 20
-23.2595236585
 10
-21.9903639745
 20
-23.2649436968
 10
-21.9837403081
 20
-23.2703355512
 10
-21.976521808
 20
-23.2756964536
 10
-21.9687121746
 20
-23.2810236556
 10
-21.9603154112
 20
-23.2863144268
 10
-21.9513358219
 20
-23.291566052
 10
-21.9417780099
 20
-23.296775839
 10
-21.9316468745
 20
-23.3019411175
 10
-21.9209476091
 20
-23.3070592377
 10
-21.9096856981
 20
-23.3121275757
 10
-21.8978669146
 20
-23.3171435338
 10
-21.8854973169
 20
-23.3221045396
 10
-21.8725832459
 20
-23.3270080498
 10
-21.8591313214
 20
-23.3318515512
 10
-21.845148439
 20
-23.33663256
 10
-21.8306417664
 20
-23.3413486257
 10
-21.8156187398
 20
-23.3459973308
 10
-21.8000870603
 20
-23.3505762911
 10
-21.7840546895
 20
-23.3550831598
 10
-21.7675298458
 20
-23.3595156265
 10
-21.7505209999
 20
-23.3638714177
 10
-21.7330368707
 20
-23.3681483007
 10
-21.7150864207
 20
-23.3723440832
 10
-21.6966788515
 20
-23.3764566131
 10
-21.6778235991
 20
-23.3804837821
 10
-21.6585303287
 20
-23.384423526
 10
-21.6388089303
 20
-23.3882738244
 10
-21.6186695132
 20
-23.3920327033
 10
-21.5981224011
 20
-23.3956982362
 10
-21.5771781266
 20
-23.3992685439
 10
-21.555847426
 20
-23.4027417961
 10
-21.5341412335
 20
-23.4061162125
 10
-21.512070676
 20
-23.4093900637
 10
-21.489647067
 20
-23.4125616713
 10
-21.4668819011
 20
-23.4156294098
 10
-21.4437868479
 20
-23.4185917073
 10
-21.4203737462
 20
-23.4214470453
 10
-21.3966545976
 20
-23.4241939601
 10
-21.3726415609
 20
-23.4268310449
 10
-21.3483469454
 20
-23.4293569478
 10
-21.3237832047
 20
-23.4317703741
 10
-21.2989629304
 20
-23.4340700881
 10
-21.2738988456
 20
-23.4362549108
 10
-21.2486037984
 20
-23.4383237225
 10
-21.2230907553
 20
-23.4402754639
 10
-21.1973727944
 20
-23.4421091347
 10
-21.1714630991
 20
-23.4438237948
 10
-21.1453749509
 20
-23.4454185666
 10
-21.1191217227
 20
-23.4468926327
 10
-21.0927168724
 20
-23.4482452374
 10
-21.0661739351
 20
-23.4494756881
 10
-21.0395065172
 20
-23.4505833544
 10
-21.0127282884
 20
-23.4515676683
 10
-20.9858529757
 20
-23.4524281256
 10
-20.9588943556
 20
-23.4531642855
 10
-20.9318662471
 20
-23.4537757705
 10
-20.9047825053
 20
-23.4542622667
 10
-20.8776570135
 20
-23.4546235248
 10
-20.8505036764
 20
-23.4548593598
 10
-20.823336413
 20
-23.4549696507
  0
LWPOLYLINE
  5
2AB
100
AcDbEntity
  8
RACCORDO
100
AcDbPolyline
 62
250
  6
CONTINUOUS
 90
69
 70
0
 10
-22.0232907196
 20
23.2099392933
 10
-22.0227510841
 20
23.2154860901
 10
-22.021596619
 20
23.2210302625
 10
-22.0198279156
 20
23.2265689681
 10
-22.0174458799
 20
23.2320994416
 10
-22.0144517328
 20
23.2376187735
 10
-22.010847009
 20
23.2431239122
 10
-22.0066335565
 20
23.2486119624
 10
-22.001813535
 20
23.2540801844
 10
-21.9963894154
 20
23.2595257729
 10
-21.9903639781
 20
23.2649459361
 10
-21.9837403118
 20
23.2703378962
 10
-21.9765218119
 20
23.2756988881
 10
-21.9687121786
 20
23.2810261636
 10
-21.9603154152
 20
23.2863169921
 10
-21.951335826
 20
23.2915686616
 10
-21.941778014
 20
23.29677848
 10
-21.9316468787
 20
23.3019437768
 10
-21.9209476132
 20
23.3070619054
 10
-21.9096857022
 20
23.3121302419
 10
-21.8978669187
 20
23.3171461886
 10
-21.885497321
 20
23.3221071759
 10
-21.8725832499
 20
23.3270106609
 10
-21.8591313253
 20
23.33185413
 10
-21.8451484428
 20
23.3366351019
 10
-21.8306417701
 20
23.3413511261
 10
-21.8156187435
 20
23.3459997847
 10
-21.8000870639
 20
23.3505786952
 10
-21.784054693
 20
23.3550855104
 10
-21.7675298491
 20
23.3595179199
 10
-21.7505210031
 20
23.3638736519
 10
-21.7330368738
 20
23.3681504735
 10
-21.7150864237
 20
23.3723461924
 10
-21.6966788544
 20
23.3764586579
 10
-21.6778236018
 20
23.3804857616
 10
-21.6585303313
 20
23.3844254394
 10
-21.6388089328
 20
23.3882756722
 10
-21.6186695156
 20
23.3920344862
 10
-21.5981224034
 20
23.3956999548
 10
-21.5771781288
 20
23.3992701997
 10
-21.5558474281
 20
23.402743391
 10
-21.5341412355
 20
23.406117748
 10
-21.5120706779
 20
23.4093915418
 10
-21.4896470689
 20
23.4125630941
 10
-21.4668819029
 20
23.4156307793
 10
-21.4437868496
 20
23.4185930251
 10
-21.4203737478
 20
23.4214483133
 10
-21.3966545992
 20
23.4241951801
 10
-21.3726415624
 20
23.4268322178
 10
-21.3483469469
 20
23.4293580745
 10
-21.3237832061
 20
23.4317714555
 10
-21.2989629317
 20
23.434071124
 10
-21.2738988469
 20
23.4362559009
 10
-21.2486037996
 20
23.4383246664
 10
-21.2230907564
 20
23.4402763605
 10
-21.1973727955
 20
23.4421099826
 10
-21.1714631001
 20
23.4438245927
 10
-21.1453749518
 20
23.4454193126
 10
-21.1191217236
 20
23.4468933247
 10
-21.0927168732
 20
23.4482458735
 10
-21.0661739359
 20
23.4494762663
 10
-21.0395065178
 20
23.4505838725
 10
-21.012728289
 20
23.4515681243
 10
-20.9858529762
 20
23.4524285181
 10
-20.958894356
 20
23.453164613
 10
-20.9318662475
 20
23.4537760315
 10
-20.9047825056
 20
23.4542624617
 10
-20.8776570136
 20
23.4546236545
 10
-20.8505036764
 20
23.4548594245
  0
LWPOLYLINE
  5
2AC
100
AcDbEntity
  8
RACCORDO
100
AcDbPolyline
 62
250
  6
CONTINUOUS
 90
56
 70
0
 10
-22.0276967461
 20
25.8202046208
 10
-22.0271558249
 20
25.8249744304
 10
-22.0260001116
 20
25.8297417952
 10
-22.0242301985
 20
25.8345042713
 10
-22.0218469928
 20
25.8392594179
 10
-22.0188517161
 20
25.8440047973
 10
-22.0152459037
 20
25.8487379773
 10
-22.0110314039
 20
25.8534565318
 10
-22.006210377
 20
25.8581580421
 10
-22.000785294
 20
25.8628400983
 10
-21.9947589358
 20
25.8675003005
 10
-21.9881343913
 20
25.8721362601
 10
-21.9809150561
 20
25.8767456007
 10
-21.9731046307
 20
25.8813259596
 10
-21.9647071185
 20
25.8858749891
 10
-21.955726824
 20
25.8903903575
 10
-21.9461683502
 20
25.8948697502
 10
-21.9360365965
 20
25.8993108713
 10
-21.9253367563
 20
25.9037114443
 10
-21.9140743141
 20
25.9080692136
 10
-21.9022550427
 20
25.9123819455
 10
-21.8898850005
 20
25.9166474294
 10
-21.876970528
 20
25.9208634789
 10
-21.8635182449
 20
25.925027933
 10
-21.8495350465
 20
25.9291386569
 10
-21.8350281004
 20
25.9331935438
 10
-21.8200048423
 20
25.9371905151
 10
-21.8044729731
 20
25.941127522
 10
-21.7884404538
 20
25.9450025466
 10
-21.7719155025
 20
25.9488136027
 10
-21.7549065893
 20
25.9525587366
 10
-21.7374224328
 20
25.9562360289
 10
-21.719471995
 20
25.9598435945
 10
-21.7010644767
 20
25.9633795843
 10
-21.6822093132
 20
25.9668421859
 10
-21.6629161694
 20
25.9702296244
 10
-21.6431949344
 20
25.9735401634
 10
-21.6230557169
 20
25.9767721062
 10
-21.6025088398
 20
25.9799237959
 10
-21.5815648349
 20
25.9829936173
 10
-21.5602344377
 20
25.9859799966
 10
-21.5385285817
 20
25.9888814033
 10
-21.5164583928
 20
25.9916963501
 10
-21.4940351837
 20
25.994423394
 10
-21.4712704479
 20
25.9970611374
 10
-21.4481758543
 20
25.9996082281
 10
-21.4247632405
 20
26.0020633606
 10
-21.4010446073
 20
26.0044252764
 10
-21.3770321124
 20
26.0066927649
 10
-21.3527380641
 20
26.0088646638
 10
-21.3281749149
 20
26.0109398598
 10
-21.3033552552
 20
26.0129172892
 10
-21.2782918073
 20
26.0147959384
 10
-21.2529974179
 20
26.0165748446
 10
-21.2274850524
 20
26.0182530958
 10
-21.2017677878
 20
26.0198298318
  0
LINE
  5
2AD
100
AcDbEntity
  8
RACCORDO
100
AcDbLine
 62
250
  6
CONTINUOUS
 10
-22.0058827676
 20
22.2830893126
 11
-22.0048388661
 21
22.2908840514
  0
LINE
  5
2AE
100
AcDbEntity
  8
RACCORDO
100
AcDbLine
 62
250
  6
CONTINUOUS
 10
-22.0060809738
 20
22.2816672707
 11
-22.0058827676
 21
22.2830893126
  0
LINE
  5
2AF
100
AcDbEntity
  8
RACCORDO
100
AcDbLine
 62
250
  6
CONTINUOUS
 10
-22.0048388661
 20
22.2908840514
 11
-22.0046113112
 21
22.292516476
  0
LINE
  5
2B0
100
AcDbEntity
  8
RACCORDO
100
AcDbLine
 62
250
  6
CONTINUOUS
 10
-22.0062837019
 20
22.280264148
 11
-22.0060809738
 21
22.2816672707
  0
LINE
  5
2B1
100
AcDbEntity
  8
RACCORDO
100
AcDbLine
 62
250
  6
CONTINUOUS
 10
-22.0046113112
 20
22.292516476
 11
-22.0044448096
 21
22.293661819
  0
LINE
  5
2B2
100
AcDbEntity
  8
RACCORDO
100
AcDbLine
 62
250
  6
CONTINUOUS
 10
-22.0064214248
 20
22.279347008
 11
-22.0062837019
 21
22.280264148
  0
LINE
  5
2B3
100
AcDbEntity
  8
RACCORDO
100
AcDbLine
 62
250
  6
CONTINUOUS
 10
-22.0044448096
 20
22.293661819
 11
-22.004335744
 21
22.2943834838
  0
LINE
  5
2B4
100
AcDbEntity
  8
RACCORDO
100
AcDbLine
 62
250
  6
CONTINUOUS
 10
-22.0065612353
 20
22.2784490516
 11
-22.0064214248
 21
22.279347008
  0
LINE
  5
2B5
100
AcDbEntity
  8
RACCORDO
100
AcDbLine
 62
250
  6
CONTINUOUS
 10
-22.004335744
 20
22.2943834838
 11
-22.004228194
 21
22.2950690515
  0
LWPOLYLINE
  5
2B6
100
AcDbEntity
  8
RACCORDO
100
AcDbPolyline
 62
250
  6
CONTINUOUS
 90
28
 70
0
 10
-22.004228194
 20
22.2950690515
 10
-22.0041221236
 20
22.2957164038
 10
-22.0040696389
 20
22.2960254777
 10
-22.004017509
 20
22.2963241796
 10
-22.0039657341
 20
22.2966124879
 10
-22.0039143139
 20
22.2968904242
 10
-22.0038632364
 20
22.2971574085
 10
-22.0038125014
 20
22.297413421
 10
-22.003762109
 20
22.2976584815
 10
-22.0037120471
 20
22.2978920686
 10
-22.0036623158
 20
22.2981141639
 10
-22.003612915
 20
22.2983247859
 10
-22.0035638328
 20
22.2985234682
 10
-22.0035150692
 20
22.2987101941
 10
-22.0034666243
 20
22.2988849803
 10
-22.0034184861
 20
22.2990474119
 10
-22.0033706547
 20
22.2991974732
 10
-22.0033231301
 20
22.2993351799
 10
-22.0032759008
 20
22.2994601633
 10
-22.0032289666
 20
22.2995724091
 10
-22.0031823276
 20
22.2996719318
 10
-22.0031359726
 20
22.2997584057
 10
-22.0030899015
 20
22.2998318178
 10
-22.0030441143
 20
22.2998921813
 10
-22.0029985993
 20
22.2999392098
 10
-22.0029533526
 20
22.2999728081
 10
-22.0029083781
 20
22.2999930715
 10
-22.0028636757
 20
22.3000000001
  0
LINE
  5
2B7
100
AcDbEntity
  8
RACCORDO
100
AcDbLine
 62
250
  6
CONTINUOUS
 10
22.8985953545
 20
38.4472634921
 11
23.0402052105
 21
38.5187257346
  0
LWPOLYLINE
  5
2B8
100
AcDbEntity
  8
RACCORDO
100
AcDbPolyline
 62
250
  6
CONTINUOUS
 90
3
 70
0
 10
23.0402052105
 20
38.5187257346
 10
23.1828757624
 20
38.5903157816
 10
23.2187037467
 20
38.6082212622
  0
LINE
  5
2B9
100
AcDbEntity
  8
RACCORDO
100
AcDbLine
 62
250
  6
CONTINUOUS
 10
21.2017677878
 20
-26.0198298317
 11
21.1497713883
 21
-26.0226755779
  0
LINE
  5
2BA
100
AcDbEntity
  8
RACCORDO
100
AcDbLine
 62
250
  6
CONTINUOUS
 10
21.1497713883
 20
-26.0226755779
 11
21.0971148144
 21
-26.0251062492
  0
LINE
  5
2BB
100
AcDbEntity
  8
RACCORDO
100
AcDbLine
 62
250
  6
CONTINUOUS
 10
21.0971148144
 20
-26.0251062492
 11
21.0439060145
 21
-26.0271168626
  0
LINE
  5
2BC
100
AcDbEntity
  8
RACCORDO
100
AcDbLine
 62
250
  6
CONTINUOUS
 10
21.0439060145
 20
-26.0271168626
 11
20.9902540691
 21
-26.0287032962
  0
LINE
  5
2BD
100
AcDbEntity
  8
RACCORDO
100
AcDbLine
 62
250
  6
CONTINUOUS
 10
20.9902540691
 20
-26.0287032962
 11
20.9362689673
 21
-26.0298622977
  0
LINE
  5
2BE
100
AcDbEntity
  8
RACCORDO
100
AcDbLine
 62
250
  6
CONTINUOUS
 10
20.9362689673
 20
-26.0298622977
 11
20.8820613811
 21
-26.0305914911
  0
LINE
  5
2BF
100
AcDbEntity
  8
RACCORDO
100
AcDbLine
 62
250
  6
CONTINUOUS
 10
20.8820613811
 20
-26.0305914911
 11
20.8277424384
 21
-26.0308893817
  0
LINE
  5
2C0
100
AcDbEntity
  8
RACCORDO
100
AcDbLine
 62
250
  6
CONTINUOUS
 10
-20.8233364133
 20
-23.4549696424
 11
20.8505036764
 21
-23.4548594272
  0
LINE
  5
2C1
100
AcDbEntity
  8
RACCORDO
100
AcDbLine
 62
250
  6
CONTINUOUS
 10
-20.8820613804
 20
-26.0305915052
 11
-20.8277424384
 21
-26.0308893967
  0
LINE
  5
2C2
100
AcDbEntity
  8
RACCORDO
100
AcDbLine
 62
250
  6
CONTINUOUS
 10
-20.9362689657
 20
-26.0298623109
 11
-20.8820613804
 21
-26.0305915052
  0
LINE
  5
2C3
100
AcDbEntity
  8
RACCORDO
100
AcDbLine
 62
250
  6
CONTINUOUS
 10
-20.9902540664
 20
-26.0287033085
 11
-20.9362689657
 21
-26.0298623109
  0
LINE
  5
2C4
100
AcDbEntity
  8
RACCORDO
100
AcDbLine
 62
250
  6
CONTINUOUS
 10
-21.0439060103
 20
-26.027116874
 11
-20.9902540664
 21
-26.0287033085
  0
LINE
  5
2C5
100
AcDbEntity
  8
RACCORDO
100
AcDbLine
 62
250
  6
CONTINUOUS
 10
-21.0971148087
 20
-26.0251062599
 11
-21.0439060103
 21
-26.027116874
  0
LINE
  5
2C6
100
AcDbEntity
  8
RACCORDO
100
AcDbLine
 62
250
  6
CONTINUOUS
 10
-21.1497713809
 20
-26.0226755878
 11
-21.0971148087
 21
-26.0251062599
  0
LWPOLYLINE
  5
2C7
100
AcDbEntity
  8
RACCORDO
100
AcDbPolyline
 62
250
  6
CONTINUOUS
 90
26
 70
0
 10
-22.0028636757
 20
-22.3
 10
-22.0029083776
 20
-22.2999930718
 10
-22.0029533517
 20
-22.2999728088
 10
-22.0029985981
 20
-22.299939211
 10
-22.0030441129
 20
-22.299892183
 10
-22.0030898999
 20
-22.2998318201
 10
-22.0031359709
 20
-22.2997584087
 10
-22.0031823258
 20
-22.2996719355
 10
-22.0032289646
 20
-22.2995724136
 10
-22.0032758987
 20
-22.2994601686
 10
-22.0033231279
 20
-22.2993351859
 10
-22.0033706524
 20
-22.2991974801
 10
-22.0034184838
 20
-22.2990474194
 10
-22.0034666219
 20
-22.2988849885
 10
-22.0035150669
 20
-22.2987102028
 10
-22.0035638305
 20
-22.2985234775
 10
-22.0036129127
 20
-22.2983247954
 10
-22.0036623136
 20
-22.2981141735
 10
-22.0037120451
 20
-22.2978920782
 10
-22.0037621071
 20
-22.2976584908
 10
-22.0038124996
 20
-22.2974134298
 10
-22.0038632348
 20
-22.2971574165
 10
-22.0039143126
 20
-22.2968904314
 10
-22.0039657329
 20
-22.296612494
 10
-22.0040175081
 20
-22.2963241844
 10
-22.0040696383
 20
-22.296025481
  0
LINE
  5
2C8
100
AcDbEntity
  8
RACCORDO
100
AcDbLine
 62
250
  6
CONTINUOUS
 10
23.2187037469
 20
-38.6082212622
 11
23.075782403
 21
-38.5366125012
  0
LWPOLYLINE
  5
2C9
100
AcDbEntity
  8
RACCORDO
100
AcDbPolyline
 62
250
  6
CONTINUOUS
 90
3
 70
0
 10
23.075782403
 20
-38.5366125012
 10
22.9338987163
 20
-38.4651105342
 10
22.8985953548
 20
-38.4472634921
  0
LWPOLYLINE
  5
2CA
100
AcDbEntity
  8
RACCORDO
100
AcDbPolyline
 62
250
  6
CONTINUOUS
 90
53
 70
0
 10
-22.0067749498
 20
-22.2771501671
 10
-22.0068472821
 20
-22.2767326526
 10
-22.0069201641
 20
-22.2763232022
 10
-22.0069936129
 20
-22.2759238514
 10
-22.007067629
 20
-22.2755345532
 10
-22.007142212
 20
-22.2751553546
 10
-22.0072173781
 20
-22.2747884315
 10
-22.0072931273
 20
-22.2744337369
 10
-22.0073694595
 20
-22.2740913178
 10
-22.0074463906
 20
-22.2737634922
 10
-22.0075239198
 20
-22.2734502132
 10
-22.0076020478
 20
-22.2731515276
 10
-22.0076807929
 20
-22.2728698935
 10
-22.0077601542
 20
-22.2726052583
 10
-22.0078401326
 20
-22.2723576746
 10
-22.0079207482
 20
-22.2721297577
 10
-22.0080020021
 20
-22.2719214472
 10
-22.0080838933
 20
-22.2717328036
 10
-22.0081664393
 20
-22.2715666234
 10
-22.0082496398
 20
-22.2714228471
 10
-22.0083334951
 20
-22.2713015342
 10
-22.0084180225
 20
-22.2712056604
 10
-22.0085032209
 20
-22.2711351613
 10
-22.0085890914
 20
-22.2710901011
 10
-22.008675655
 20
-22.2710736489
 10
-22.0087629116
 20
-22.2710857318
 10
-22.0088508613
 20
-22.2711264225
 10
-22.0089395257
 20
-22.2711991081
 10
-22.0090289048
 20
-22.2713037103
 10
-22.0091189986
 20
-22.2714403075
 10
-22.0092098285
 20
-22.271612521
 10
-22.009301394
 20
-22.2718202652
 10
-22.0093936956
 20
-22.2720636259
 10
-22.0094867559
 20
-22.2723464821
 10
-22.009580574
 20
-22.2726687367
 10
-22.0096751508
 20
-22.2730304869
 10
-22.0097705111
 20
-22.273435903
 10
-22.0098666546
 20
-22.273884878
 10
-22.0099635817
 20
-22.274377519
 10
-22.0100613183
 20
-22.274918317
 10
-22.010159866
 20
-22.2755071707
 10
-22.0102592231
 20
-22.2761441814
 10
-22.0103594106
 20
-22.2768341451
 10
-22.0104604289
 20
-22.2775769499
 10
-22.0105622775
 20
-22.2783727077
 10
-22.010664976
 20
-22.2792265497
 10
-22.0107685161
 20
-22.2801382556
 10
-22.010872906
 20
-22.2811080457
 10
-22.0109781899
 20
-22.2821417127
 10
-22.0110843687
 20
-22.2832390774
 10
-22.0111914415
 20
-22.284400319
 10
-22.0112994493
 20
-22.2856317671
 10
-22.0115183174
 20
-22.288305586
  0
LINE
  5
2CB
100
AcDbEntity
  8
RACCORDO
100
AcDbLine
 62
250
  6
CONTINUOUS
 10
-22.0040696383
 20
-22.296025481
 11
-22.0041749752
 21
-22.295397603
  0
LINE
  5
2CC
100
AcDbEntity
  8
RACCORDO
100
AcDbLine
 62
250
  6
CONTINUOUS
 10
-22.0066319348
 20
-22.2780092993
 11
-22.0067749498
 21
-22.2771501671
  0
LINE
  5
2CD
100
AcDbEntity
  8
RACCORDO
100
AcDbLine
 62
250
  6
CONTINUOUS
 10
-22.0041749752
 20
-22.295397603
 11
-22.0042817802
 21
-22.2947307693
  0
LINE
  5
2CE
100
AcDbEntity
  8
RACCORDO
100
AcDbLine
 62
250
  6
CONTINUOUS
 10
-22.0064910639
 20
-22.2788949497
 11
-22.0066319348
 21
-22.2780092993
  0
LINE
  5
2CF
100
AcDbEntity
  8
RACCORDO
100
AcDbLine
 62
250
  6
CONTINUOUS
 10
-22.0042817802
 20
-22.2947307693
 11
-22.0043900885
 21
-22.2940271497
  0
LINE
  5
2D0
100
AcDbEntity
  8
RACCORDO
100
AcDbLine
 62
250
  6
CONTINUOUS
 10
-22.006352306
 20
-22.2798034074
 11
-22.0064910639
 21
-22.2788949497
  0
LINE
  5
2D1
100
AcDbEntity
  8
RACCORDO
100
AcDbLine
 62
250
  6
CONTINUOUS
 10
-22.0043900885
 20
-22.2940271497
 11
-22.0045554228
 21
-22.2929064694
  0
LINE
  5
2D2
100
AcDbEntity
  8
RACCORDO
100
AcDbLine
 62
250
  6
CONTINUOUS
 10
-22.0061480441
 20
-22.2811969353
 11
-22.006352306
 21
-22.2798034074
  0
LINE
  5
2D3
100
AcDbEntity
  8
RACCORDO
100
AcDbLine
 62
250
  6
CONTINUOUS
 10
-22.0045554228
 20
-22.2929064694
 11
-22.0047242863
 21
-22.2917144567
  0
LINE
  5
2D4
100
AcDbEntity
  8
RACCORDO
100
AcDbLine
 62
250
  6
CONTINUOUS
 10
-22.0059483468
 20
-22.2826142384
 11
-22.0061480441
 21
-22.2811969353
  0
LINE
  5
2D5
100
AcDbEntity
  8
RACCORDO
100
AcDbLine
 62
250
  6
CONTINUOUS
 10
-22.0047242863
 20
-22.2917144567
 11
-22.0050138253
 21
-22.2895915206
  0
LINE
  5
2D6
100
AcDbEntity
  8
RACCORDO
100
AcDbLine
 62
250
  6
CONTINUOUS
 10
-22.0056253008
 20
-22.2849912277
 11
-22.0059483468
 21
-22.2826142384
  0
LINE
  5
2D7
100
AcDbEntity
  8
RACCORDO
100
AcDbLine
 62
250
  6
CONTINUOUS
 10
-22.0054371336
 20
-22.2864049706
 11
-22.0056253008
 21
-22.2849912277
  0
LWPOLYLINE
  5
2D8
100
AcDbEntity
  8
RACCORDO
100
AcDbPolyline
 62
250
  6
CONTINUOUS
 90
3
 70
0
 10
-22.0050138253
 20
-22.2895915206
 10
-22.0053139725
 20
-22.2873345847
 10
-22.0054371336
 20
-22.2864049706
  0
LWPOLYLINE
  5
2D9
100
AcDbEntity
  8
RACCORDO
100
AcDbPolyline
 62
250
  6
CONTINUOUS
 90
57
 70
0
 10
-22.0276966836
 20
-25.8202046207
 10
-22.0271557626
 20
-25.8249744303
 10
-22.0260000496
 20
-25.8297417951
 10
-22.0242301367
 20
-25.8345042713
 10
-22.0218469314
 20
-25.8392594179
 10
-22.0188516551
 20
-25.8440047973
 10
-22.0152458432
 20
-25.8487379774
 10
-22.0110313438
 20
-25.8534565319
 10
-22.0062103174
 20
-25.8581580423
 10
-22.0007852349
 20
-25.8628400985
 10
-21.9947588773
 20
-25.8675003008
 10
-21.9881343334
 20
-25.8721362604
 10
-21.9809149989
 20
-25.876745601
 10
-21.9731045743
 20
-25.88132596
 10
-21.9647070629
 20
-25.8858749896
 10
-21.9557267691
 20
-25.890390358
 10
-21.9461682961
 20
-25.8948697509
 10
-21.9360365433
 20
-25.899310872
 10
-21.925336704
 20
-25.9037114451
 10
-21.9140742627
 20
-25.9080692145
 10
-21.9022549923
 20
-25.9123819465
 10
-21.889884951
 20
-25.9166474305
 10
-21.8769704795
 20
-25.9208634801
 10
-21.8635181975
 20
-25.9250279343
 10
-21.8495350002
 20
-25.9291386584
 10
-21.8350280551
 20
-25.9331935453
 10
-21.8200047982
 20
-25.9371905168
 10
-21.8044729301
 20
-25.9411275238
 10
-21.788440412
 20
-25.9450025486
 10
-21.7719154618
 20
-25.9488136048
 10
-21.7549065499
 20
-25.9525587389
 10
-21.7374223946
 20
-25.9562360313
 10
-21.719471958
 20
-25.9598435971
 10
-21.7010644409
 20
-25.9633795871
 10
-21.6822092787
 20
-25.9668421889
 10
-21.6629161362
 20
-25.9702296276
 10
-21.6431949024
 20
-25.9735401668
 10
-21.6230556862
 20
-25.9767721098
 10
-21.6025088103
 20
-25.9799237998
 10
-21.5815648068
 20
-25.9829936213
 10
-21.5602344109
 20
-25.9859800009
 10
-21.5385285561
 20
-25.9888814078
 10
-21.5164583685
 20
-25.9916963549
 10
-21.4940351606
 20
-25.9944233991
 10
-21.4712704261
 20
-25.9970611428
 10
-21.4481758337
 20
-25.9996082338
 10
-21.4247632211
 20
-26.0020633665
 10
-21.4010445892
 20
-26.0044252827
 10
-21.3770320955
 20
-26.0066927714
 10
-21.3527380483
 20
-26.0088646706
 10
-21.3281749002
 20
-26.0109398669
 10
-21.3033552417
 20
-26.0129172967
 10
-21.2782917948
 20
-26.0147959463
 10
-21.2529974065
 20
-26.0165748528
 10
-21.227485042
 20
-26.0182531044
 10
-21.2017677785
 20
-26.0198298408
 10
-21.1497713809
 20
-26.0226755878
  0
LWPOLYLINE
  5
2DA
100
AcDbEntity
  8
RACCORDO
100
AcDbPolyline
 62
250
  6
CONTINUOUS
 90
53
 70
0
 10
-22.0111913894
 20
22.2843997275
 10
-22.0110843341
 20
22.2832386991
 10
-22.0109781681
 20
22.2821414931
 10
-22.0108728877
 20
22.2811078768
 10
-22.0107684966
 20
22.2801380828
 10
-22.0106649546
 20
22.2792263673
 10
-22.0105622542
 20
22.2783725214
 10
-22.0104604028
 20
22.277576754
 10
-22.0103593828
 20
22.2768339477
 10
-22.0102591957
 20
22.2761439983
 10
-22.0101598401
 20
22.27550701
 10
-22.010061294
 20
22.2749181777
 10
-22.0099635588
 20
22.2743773971
 10
-22.009866633
 20
22.2738847725
 10
-22.0097704906
 20
22.2734358118
 10
-22.0096751311
 20
22.2730304075
 10
-22.0095805548
 20
22.2726686672
 10
-22.009486737
 20
22.2723464213
 10
-22.0093936767
 20
22.2720635727
 10
-22.0093013749
 20
22.2718202186
 10
-22.0092098093
 20
22.2716124812
 10
-22.0091189797
 20
22.2714402751
 10
-22.0090288864
 20
22.2713036857
 10
-22.008939508
 20
22.2711990907
 10
-22.0088508446
 20
22.2711264117
 10
-22.0087628962
 20
22.2710857271
 10
-22.008675641
 20
22.2710736494
 10
-22.0085890789
 20
22.2710901055
 10
-22.00850321
 20
22.2711351685
 10
-22.0084180131
 20
22.2712056698
 10
-22.008333487
 20
22.271301545
 10
-22.0082496328
 20
22.2714228584
 10
-22.0081664335
 20
22.2715666342
 10
-22.0080838892
 20
22.2717328123
 10
-22.0080019997
 20
22.2719214528
 10
-22.0079207472
 20
22.2721297605
 10
-22.0078401325
 20
22.2723576751
 10
-22.0077601547
 20
22.2726052569
 10
-22.0076807936
 20
22.2728698911
 10
-22.0076020484
 20
22.2731515258
 10
-22.0075239199
 20
22.2734502128
 10
-22.0074463905
 20
22.2737634927
 10
-22.0073694594
 20
22.2740913184
 10
-22.0072931273
 20
22.2744337369
 10
-22.0072173783
 20
22.2747884304
 10
-22.0071422127
 20
22.2751553511
 10
-22.0070676303
 20
22.2755345468
 10
-22.0069936146
 20
22.2759238423
 10
-22.0069201661
 20
22.2763231908
 10
-22.0068472845
 20
22.2767326391
 10
-22.0067749523
 20
22.2771501528
 10
-22.0067031697
 20
22.2775756878
 10
-22.0065612353
 20
22.2784490516
  0
LINE
  5
2DB
100
AcDbEntity
  8
RACCORDO
100
AcDbLine
 62
250
  6
CONTINUOUS
 10
-22.0114083451
 20
22.2869327018
 11
-22.0111913894
 21
22.2843997275
  0
LINE
  5
2DC
100
AcDbEntity
  8
RACCORDO
100
AcDbLine
 62
250
  6
CONTINUOUS
 10
-22.0116290672
 20
22.2897529243
 11
-22.0114083451
 21
22.2869327018
  0
LINE
  5
2DD
100
AcDbEntity
  8
RACCORDO
100
AcDbLine
 62
250
  6
CONTINUOUS
 10
-22.0118535367
 20
22.2928793678
 11
-22.0116290672
 21
22.2897529243
  0
LINE
  5
2DE
100
AcDbEntity
  8
RACCORDO
100
AcDbLine
 62
250
  6
CONTINUOUS
 10
-22.0120813877
 20
22.2963261409
 11
-22.0118535367
 21
22.2928793678
  0
LINE
  5
2DF
100
AcDbEntity
  8
RACCORDO
100
AcDbLine
 62
250
  6
CONTINUOUS
 10
-22.0123122824
 20
22.3001001256
 11
-22.0120813877
 21
22.2963261409
  0
LINE
  5
2E0
100
AcDbEntity
  8
RACCORDO
100
AcDbLine
 62
250
  6
CONTINUOUS
 10
-22.0126627754
 20
22.3063873616
 11
-22.0123122824
 21
22.3001001256
  0
LINE
  5
2E1
100
AcDbEntity
  8
RACCORDO
100
AcDbLine
 62
250
  6
CONTINUOUS
 10
-22.0130134112
 20
22.3133657848
 11
-22.0126627754
 21
22.3063873616
  0
LINE
  5
2E2
100
AcDbEntity
  8
RACCORDO
100
AcDbLine
 62
250
  6
CONTINUOUS
 10
-22.0134719991
 20
22.3235645851
 11
-22.0130134112
 21
22.3133657848
  0
LINE
  5
2E3
100
AcDbEntity
  8
RACCORDO
100
AcDbLine
 62
250
  6
CONTINUOUS
 10
-22.0140304576
 20
22.3376894133
 11
-22.0134719991
 21
22.3235645851
  0
LINE
  5
2E4
100
AcDbEntity
  8
RACCORDO
100
AcDbLine
 62
250
  6
CONTINUOUS
 10
-22.0146792665
 20
22.3565686606
 11
-22.0140304576
 21
22.3376894133
  0
LINE
  5
2E5
100
AcDbEntity
  8
RACCORDO
100
AcDbLine
 62
250
  6
CONTINUOUS
 10
-22.0154064147
 20
22.3810870012
 11
-22.0146792665
 21
22.3565686606
  0
LINE
  5
2E6
100
AcDbEntity
  8
RACCORDO
100
AcDbLine
 62
250
  6
CONTINUOUS
 10
-22.0163872196
 20
22.4203040711
 11
-22.0154064147
 21
22.3810870012
  0
LINE
  5
2E7
100
AcDbEntity
  8
RACCORDO
100
AcDbLine
 62
250
  6
CONTINUOUS
 10
-22.0175554725
 20
22.477513825
 11
-22.0163872196
 21
22.4203040711
  0
LWPOLYLINE
  5
2E8
100
AcDbEntity
  8
RACCORDO
100
AcDbPolyline
 62
250
  6
CONTINUOUS
 90
46
 70
0
 10
-22.0028636757
 20
-22.3
 10
-22.0027418458
 20
-22.3069798993
 10
-22.0023765043
 20
-22.3139512947
 10
-22.0017680965
 20
-22.3209056927
 10
-22.0009173636
 20
-22.3278346202
 10
-21.999825342
 20
-22.3347296355
 10
-21.9984933623
 20
-22.3415823382
 10
-21.9969230472
 20
-22.3483843791
 10
-21.9951163099
 20
-22.3551274712
 10
-21.9930753517
 20
-22.3618033989
 10
-21.9908026592
 20
-22.3684040287
 10
-21.9883010012
 20
-22.3749213187
 10
-21.9855734256
 20
-22.3813473286
 10
-21.9826232557
 20
-22.3876742294
 10
-21.9794540857
 20
-22.3938943126
 10
-21.9760697768
 20
-22.4
 10
-21.9724744521
 20
-22.4059838528
 10
-21.9686724922
 20
-22.4118385807
 10
-21.964668529
 20
-22.4175570505
 10
-21.9604674408
 20
-22.4231322951
 10
-21.956074346
 20
-22.4285575219
 10
-21.9514945969
 20
-22.4338261213
 10
-21.9467337731
 20
-22.4389316741
 10
-21.9417976751
 20
-22.4438679601
 10
-21.9366923167
 20
-22.4486289651
 10
-21.931423918
 20
-22.4532088886
 10
-21.9259988977
 20
-22.4576021507
 10
-21.9204238654
 20
-22.4618033989
 10
-21.9147056133
 20
-22.4658075145
 10
-21.9088511084
 20
-22.4696096192
 10
-21.9028674834
 20
-22.4732050808
 10
-21.8967620285
 20
-22.4765895186
 10
-21.8905421821
 20
-22.4797588093
 10
-21.8842155223
 20
-22.4827090915
 10
-21.877789757
 20
-22.4854367709
 10
-21.8712727152
 20
-22.4879385242
 10
-21.8646723367
 20
-22.4902113033
 10
-21.8579966632
 20
-22.4922523392
 10
-21.8512538279
 20
-22.4940591453
 10
-21.844452046
 20
-22.4956295201
 10
-21.8375996042
 20
-22.4969615506
 10
-21.8307048514
 20
-22.4980536137
 10
-21.8237761877
 20
-22.4989043791
 10
-21.8168220546
 20
-22.4995128101
 10
-21.8098509247
 20
-22.4998781654
 10
-21.8028712911
 20
-22.5
  0
LINE
  5
2E9
100
AcDbEntity
  8
RACCORDO
100
AcDbLine
 62
250
  6
CONTINUOUS
 10
-22.0190368546
 20
22.5704362591
 11
-22.0175554725
 21
22.477513825
  0
LINE
  5
2EA
100
AcDbEntity
  8
RACCORDO
100
AcDbLine
 62
250
  6
CONTINUOUS
 10
-22.0208447877
 20
22.7295900534
 11
-22.0190368546
 21
22.5704362591
  0
LINE
  5
2EB
100
AcDbEntity
  8
RACCORDO
100
AcDbLine
 62
250
  6
CONTINUOUS
 10
-22.02254719
 20
22.9792497021
 11
-22.0208447877
 21
22.7295900534
  0
LINE
  5
2EC
100
AcDbEntity
  8
RACCORDO
100
AcDbLine
 62
250
  6
CONTINUOUS
 10
-22.0232907167
 20
23.2099370215
 11
-22.02254719
 21
22.9792497021
  0
LWPOLYLINE
  5
2ED
100
AcDbEntity
  8
RACCORDO
100
AcDbPolyline
 62
250
  6
CONTINUOUS
 90
4
 70
0
 10
-22.0276967461
 20
25.8202046104
 10
-22.027008452
 20
25.3840942067
 10
-22.0263017403
 20
24.9484101253
 10
-22.0232907167
 20
23.2099370215
  0
LWPOLYLINE
  5
2EE
100
AcDbEntity
  8
RACCORDO
100
AcDbPolyline
 62
250
  6
CONTINUOUS
 90
4
 70
0
 10
-20.8277424384
 20
26.0308893819
 10
-20.8270541794
 20
25.6005546218
 10
-20.826347489
 20
25.1706122927
 10
-20.823336413
 20
23.4549696425
  0
LWPOLYLINE
  5
2EF
100
AcDbEntity
  8
RACCORDO
100
AcDbPolyline
 62
250
  6
CONTINUOUS
 90
6
 70
0
 10
-23.2243015852
 20
-31.2710657309
 10
-23.2234502582
 20
-32.4947285121
 10
-23.2225662534
 20
-33.7180852577
 10
-23.221649596
 20
-34.9411244249
 10
-23.2207002942
 20
-36.1638344879
 10
-23.2187037326
 20
-38.6082212622
  0
LWPOLYLINE
  5
2F0
100
AcDbEntity
  8
RACCORDO
100
AcDbPolyline
 62
250
  6
CONTINUOUS
 90
7
 70
0
 10
-23.2293454972
 20
-22.69782575
 10
-23.2287230666
 20
-23.9233079265
 10
-23.2280679157
 20
-25.1485647958
 10
-23.2273800455
 20
-26.3735848179
 10
-23.2266594754
 20
-27.5983564563
 10
-23.2259062045
 20
-28.8228681767
 10
-23.2243015852
 20
-31.2710657309
  0
LWPOLYLINE
  5
2F1
100
AcDbEntity
  8
RACCORDO
100
AcDbPolyline
 62
250
  6
CONTINUOUS
 90
4
 70
0
 10
-22.0295136837
 20
-22.3814069951
 10
-22.0289368501
 20
-23.5278583953
 10
-22.0283312043
 20
-24.6741242668
 10
-22.0276967461
 20
-25.8202046098
  0
LWPOLYLINE
  5
2F2
100
AcDbEntity
  8
RACCORDO
100
AcDbPolyline
 62
250
  6
CONTINUOUS
 90
3
 70
0
 10
-23.2310164224
 20
-19.0201427992
 10
-23.2304921839
 20
-20.2462316426
 10
-23.2293454972
 20
-22.69782575
  0
LINE
  5
2F3
100
AcDbEntity
  8
RACCORDO
100
AcDbLine
 62
250
  6
CONTINUOUS
 10
-22.0305809224
 20
-20.0879285953
 11
-22.0295136837
 21
-22.3814069951
  0
LINE
  5
2F4
100
AcDbEntity
  8
RACCORDO
100
AcDbLine
 62
250
  6
CONTINUOUS
 10
-23.2334741515
 20
-11.6602522671
 11
-23.2310164224
 21
-19.0201427992
  0
LINE
  5
2F5
100
AcDbEntity
  8
RACCORDO
100
AcDbLine
 62
250
  6
CONTINUOUS
 10
-22.0330908021
 20
-13.2038108974
 11
-22.0305809224
 21
-20.0879285953
  0
LINE
  5
2F6
100
AcDbEntity
  8
RACCORDO
100
AcDbLine
 62
250
  6
CONTINUOUS
 10
-22.0345623907
 20
-6.3157535891
 11
-22.0330908021
 21
-13.2038108974
  0
LINE
  5
2F7
100
AcDbEntity
  8
RACCORDO
100
AcDbLine
 62
250
  6
CONTINUOUS
 10
-23.2347523997
 20
-4.296408494
 11
-23.2334741515
 21
-11.6602522671
  0
LINE
  5
2F8
100
AcDbEntity
  8
RACCORDO
100
AcDbLine
 62
250
  6
CONTINUOUS
 10
-23.2349490674
 20
-0.6137843012
 11
-23.2347523997
 21
-4.296408494
  0
LINE
  5
2F9
100
AcDbEntity
  8
RACCORDO
100
AcDbLine
 62
250
  6
CONTINUOUS
 10
-22.0349952498
 20
-0.5741855265
 11
-22.0345623907
 21
-6.3157535891
  0
LINE
  5
2FA
100
AcDbEntity
  8
RACCORDO
100
AcDbLine
 62
7
  6
CONTINUOUS
 10
-22.0
 20
22.3000000001
 11
-22.0
 21
-22.3
  0
LWPOLYLINE
  5
2FB
100
AcDbEntity
  8
RACCORDO
100
AcDbPolyline
 62
250
  6
CONTINUOUS
 90
3
 70
0
 10
-23.2344574066
 20
6.7513080122
 10
-23.2348507335
 20
3.0688919165
 10
-23.2349490674
 20
-0.6137843012
  0
LWPOLYLINE
  5
2FC
100
AcDbEntity
  8
RACCORDO
100
AcDbPolyline
 62
250
  6
CONTINUOUS
 90
3
 70
0
 10
-22.0345623904
 20
6.3157559537
 10
-22.0349086766
 20
2.8708923144
 10
-22.0349952498
 20
-0.5741855265
  0
LINE
  5
2FD
100
AcDbEntity
  8
RACCORDO
100
AcDbLine
 62
250
  6
CONTINUOUS
 10
-23.2327859315
 20
14.1141113903
 11
-23.2344574066
 21
6.7513080122
  0
LWPOLYLINE
  5
2FE
100
AcDbEntity
  8
RACCORDO
100
AcDbPolyline
 62
250
  6
CONTINUOUS
 90
3
 70
0
 10
-22.0327445734
 20
14.3515010233
 10
-22.0336967233
 20
10.9081364666
 10
-22.0345623904
 20
6.3157559537
  0
LWPOLYLINE
  5
2FF
100
AcDbEntity
  8
RACCORDO
100
AcDbPolyline
 62
250
  6
CONTINUOUS
 90
5
 70
0
 10
-23.2293454973
 20
22.6978255212
 10
-23.2299352087
 20
21.4721295792
 10
-23.230492184
 20
20.2462314137
 10
-23.2310164225
 20
19.0201425703
 10
-23.2327859315
 20
14.1141113903
  0
LWPOLYLINE
  5
300
100
AcDbEntity
  8
RACCORDO
100
AcDbPolyline
 62
250
  6
CONTINUOUS
 90
6
 70
0
 10
-22.0276967461
 20
25.8202046104
 10
-22.0283312041
 20
24.6741246182
 10
-22.0289368498
 20
23.5278590366
 10
-22.0295136832
 20
22.3814078658
 10
-22.0300617087
 20
21.2347615744
 10
-22.0305809219
 20
20.0879296938
  0
LINE
  5
301
100
AcDbEntity
  8
RACCORDO
100
AcDbLine
 62
250
  6
CONTINUOUS
 10
-22.0305809219
 20
20.0879296938
 11
-22.0327445734
 21
14.3515010233
  0
LWPOLYLINE
  5
302
100
AcDbEntity
  8
RACCORDO
100
AcDbPolyline
 62
250
  6
CONTINUOUS
 90
4
 70
0
 10
-23.2251202338
 20
30.047108217
 10
-23.2259062046
 20
28.8228679482
 10
-23.2266594755
 20
27.5983562277
 10
-23.2293454973
 20
22.6978255212
  0
LWPOLYLINE
  5
303
100
AcDbEntity
  8
RACCORDO
100
AcDbPolyline
 62
250
  6
CONTINUOUS
 90
5
 70
0
 10
-23.2187037326
 20
38.6082212622
 10
-23.2197183398
 20
37.3862038365
 10
-23.2207002943
 20
36.1638343104
 10
-23.2216495961
 20
34.9411241966
 10
-23.2251202338
 20
30.047108217
  0
LWPOLYLINE
  5
304
100
AcDbEntity
  8
RACCORDO
100
AcDbPolyline
 62
250
  6
CONTINUOUS
 90
4
 70
0
 10
-22.0248330638
 20
-24.0783209121
 10
-22.0255766109
 20
-24.5131523482
 10
-22.0263017403
 20
-24.9484101099
 10
-22.0276967461
 20
-25.8202046098
  0
LWPOLYLINE
  5
305
100
AcDbEntity
  8
RACCORDO
100
AcDbPolyline
 62
250
  6
CONTINUOUS
 90
4
 70
0
 10
-20.8248788138
 20
-24.3119454078
 10
-20.8256223671
 20
-24.7410725064
 10
-20.8263474889
 20
-25.1706122801
 10
-20.8277424384
 20
-26.0308893817
  0
LINE
  5
306
100
AcDbEntity
  8
RACCORDO
100
AcDbLine
 62
250
  6
CONTINUOUS
 10
-22.0232907167
 20
-23.2099370163
 11
-22.0248330638
 21
-24.0783209121
  0
LINE
  5
307
100
AcDbEntity
  8
RACCORDO
100
AcDbLine
 62
250
  6
CONTINUOUS
 10
-22.0232803016
 20
-23.2043131781
 11
-22.0232907167
 21
-23.2099370163
  0
LINE
  5
308
100
AcDbEntity
  8
RACCORDO
100
AcDbLine
 62
250
  6
CONTINUOUS
 10
-20.823336413
 20
-23.4549696424
 11
-20.8248788138
 21
-24.3119454078
  0
LWPOLYLINE
  5
309
100
AcDbEntity
  8
RACCORDO
100
AcDbPolyline
 62
250
  6
CONTINUOUS
 90
3
 70
0
 10
-22.0232469527
 20
-23.1874720497
 10
-22.0232584185
 20
-23.1930803943
 10
-22.0232803016
 20
-23.2043131781
  0
LWPOLYLINE
  5
30A
100
AcDbEntity
  8
RACCORDO
100
AcDbPolyline
 62
250
  6
CONTINUOUS
 90
3
 70
0
 10
-22.0232104304
 20
-23.1706714412
 10
-22.0232229616
 20
-23.1762684499
 10
-22.0232469527
 20
-23.1874720497
  0
LINE
  5
30B
100
AcDbEntity
  8
RACCORDO
100
AcDbLine
 62
250
  6
CONTINUOUS
 10
-22.0231842866
 20
-23.1594849532
 11
-22.0232104304
 21
-23.1706714412
  0
LWPOLYLINE
  5
30C
100
AcDbEntity
  8
RACCORDO
100
AcDbPolyline
 62
250
  6
CONTINUOUS
 90
3
 70
0
 10
-22.0231423153
 20
-23.1427123274
 10
-22.0231566788
 20
-23.1483032274
 10
-22.0231842866
 20
-23.1594849532
  0
LINE
  5
30D
100
AcDbEntity
  8
RACCORDO
100
AcDbLine
 62
250
  6
CONTINUOUS
 10
-22.0231124594
 20
-23.1315284359
 11
-22.0231423153
 21
-23.1427123274
  0
LWPOLYLINE
  5
30E
100
AcDbEntity
  8
RACCORDO
100
AcDbPolyline
 62
250
  6
CONTINUOUS
 90
91
 70
0
 10
-22.0276966836
 20
-25.8202046207
 10
-22.0286956287
 20
-26.1853213897
 10
-22.0313274358
 20
-26.5546397642
 10
-22.03558842
 20
-26.9281369585
 10
-22.0415060949
 20
-27.3074615758
 10
-22.0490722626
 20
-27.6909262346
 10
-22.058164762
 20
-28.073499406
 10
-22.0688165059
 20
-28.4579534337
 10
-22.0809280258
 20
-28.8414763198
 10
-22.0939649456
 20
-29.2106563033
 10
-22.1075509991
 20
-29.5605408758
 10
-22.1216964954
 20
-29.8960542369
 10
-22.1363220229
 20
-30.2186035464
 10
-22.15130149
 20
-30.5281413187
 10
-22.1665236617
 20
-30.8247032871
 10
-22.1819661246
 20
-31.1098240089
 10
-22.1975368097
 20
-31.3834708805
 10
-22.2131540669
 20
-31.645673271
 10
-22.2288405691
 20
-31.8980594816
 10
-22.2445392675
 20
-32.1407627846
 10
-22.2601807858
 20
-32.3736508435
 10
-22.2757918926
 20
-32.5979534129
 10
-22.2913173002
 20
-32.8136057752
 10
-22.3067142794
 20
-33.020676123
 10
-22.3220468037
 20
-33.2205927641
 10
-22.3372894114
 20
-33.413503208
 10
-22.3523961884
 20
-33.5992635742
 10
-22.3674156436
 20
-33.7788639032
 10
-22.3823213293
 20
-33.9523353461
 10
-22.3970835886
 20
-34.1196506005
 10
-22.4117570214
 20
-34.2817109823
 10
-22.4263336702
 20
-34.4386730874
 10
-22.4407786212
 20
-34.5903835242
 10
-22.455112931
 20
-34.7372780491
 10
-22.4693298113
 20
-34.8794872871
 10
-22.4833983149
 20
-35.0168842467
 10
-22.4973041696
 20
-35.149518968
 10
-22.5110105672
 20
-35.2772418271
 10
-22.5245141106
 20
-35.400208366
 10
-22.5378520662
 20
-35.5189268252
 10
-22.551005443
 20
-35.6333895453
 10
-22.5639585244
 20
-35.7436099234
 10
-22.5767586431
 20
-35.8501269647
 10
-22.5893970662
 20
-35.952994463
 10
-22.6018533992
 20
-36.052163678
 10
-22.614162044
 20
-36.1480189907
 10
-22.6263112411
 20
-36.2405762809
 10
-22.6382864681
 20
-36.3298246267
 10
-22.650121389
 20
-36.4161076306
 10
-22.6618039505
 20
-36.4994288534
 10
-22.673322427
 20
-36.5797894982
 10
-22.684714419
 20
-36.6575289017
 10
-22.6959698842
 20
-36.7326540625
 10
-22.7070779574
 20
-36.8051621694
 10
-22.7180787516
 20
-36.8753768448
 10
-22.7289687401
 20
-36.9433349572
 10
-22.7397338621
 20
-37.0090027614
 10
-22.7504014971
 20
-37.0725971363
 10
-22.7609655016
 20
-37.1341329577
 10
-22.7714157983
 20
-37.1935980699
 10
-22.7817758596
 20
-37.2511684006
 10
-22.792037376
 20
-37.3068435398
 10
-22.8021932753
 20
-37.3606263283
 10
-22.8122708921
 20
-37.4126970792
 10
-22.8222626866
 20
-37.4630553799
 10
-22.8321622704
 20
-37.51170326
 10
-22.8420012991
 20
-37.5588237723
 10
-22.8517736139
 20
-37.6044173976
 10
-22.86147362
 20
-37.6484836986
 10
-22.8711370568
 20
-37.6912028718
 10
-22.8807689404
 20
-37.7326153192
 10
-22.8903560244
 20
-37.7726776322
 10
-22.8999084613
 20
-37.8114436069
 10
-22.9094313048
 20
-37.8489509395
 10
-22.9189107788
 20
-37.885158015
 10
-22.928326429
 20
-37.9200020327
 10
-22.9376694919
 20
-37.9534801887
 10
-22.9469333922
 20
-37.9855952684
 10
-22.9560960178
 20
-38.0162976643
 10
-22.9651288856
 20
-38.0455367573
 10
-22.9740364343
 20
-38.0733702096
 10
-22.9828448214
 20
-38.0999128157
 10
-22.9915324553
 20
-38.1251403719
 10
-23.0000964395
 20
-38.1490846481
 10
-23.008596876
 20
-38.1719393408
 10
-23.0170201863
 20
-38.1936941955
 10
-23.0253608014
 20
-38.2143608039
 10
-23.0337019039
 20
-38.234154001
 10
-23.0420711654
 20
-38.2531387514
 10
-23.0504335163
 20
-38.2712329847
 10
-23.058783399
 20
-38.2884229139
  0
LWPOLYLINE
  5
30F
100
AcDbEntity
  8
RACCORDO
100
AcDbPolyline
 62
250
  6
CONTINUOUS
 90
3
 70
0
 10
-22.0230647844
 20
-23.1147381019
 10
-22.0230810638
 20
-23.1203371358
 10
-22.0231124594
 20
-23.1315284359
  0
LWPOLYLINE
  5
310
100
AcDbEntity
  8
RACCORDO
100
AcDbPolyline
 62
250
  6
CONTINUOUS
 90
3
 70
0
 10
-22.023013545
 20
-23.0979189986
 10
-22.023031025
 20
-23.1035290333
 10
-22.0230647844
 20
-23.1147381019
  0
LINE
  5
311
100
AcDbEntity
  8
RACCORDO
100
AcDbLine
 62
250
  6
CONTINUOUS
 10
-22.0229773419
 20
-23.0866837009
 11
-22.023013545
 21
-23.0979189986
  0
LINE
  5
312
100
AcDbEntity
  8
RACCORDO
100
AcDbLine
 62
250
  6
CONTINUOUS
 10
-22.0229394674
 20
-23.0754272465
 11
-22.0229773419
 21
-23.0866837009
  0
LWPOLYLINE
  5
313
100
AcDbEntity
  8
RACCORDO
100
AcDbPolyline
 62
250
  6
CONTINUOUS
 90
3
 70
0
 10
-22.0228794292
 20
-23.0584971988
 10
-22.0228998748
 20
-23.064145604
 10
-22.0229394674
 20
-23.0754272465
  0
LINE
  5
314
100
AcDbEntity
  8
RACCORDO
100
AcDbLine
 62
250
  6
CONTINUOUS
 10
-22.02283723
 20
-23.0471859687
 11
-22.0228794292
 21
-23.0584971988
  0
LINE
  5
315
100
AcDbEntity
  8
RACCORDO
100
AcDbLine
 62
250
  6
CONTINUOUS
 10
-22.0227932816
 20
-23.0358627051
 11
-22.02283723
 21
-23.0471859687
  0
LWPOLYLINE
  5
316
100
AcDbEntity
  8
RACCORDO
100
AcDbPolyline
 62
250
  6
CONTINUOUS
 90
3
 70
0
 10
-22.0227240701
 20
-23.0188658558
 10
-22.0227475799
 20
-23.0245317211
 10
-22.0227932816
 20
-23.0358627051
  0
LINE
  5
317
100
AcDbEntity
  8
RACCORDO
100
AcDbLine
 62
250
  6
CONTINUOUS
 10
-22.0226757319
 20
-23.0075351069
 11
-22.0227240701
 21
-23.0188658558
  0
LINE
  5
318
100
AcDbEntity
  8
RACCORDO
100
AcDbLine
 62
250
  6
CONTINUOUS
 10
-22.0226256331
 20
-22.9962110306
 11
-22.0226757319
 21
-23.0075351069
  0
LINE
  5
319
100
AcDbEntity
  8
RACCORDO
100
AcDbLine
 62
250
  6
CONTINUOUS
 10
-22.0225737676
 20
-22.9848977685
 11
-22.0226256331
 21
-22.9962110306
  0
LINE
  5
31A
100
AcDbEntity
  8
RACCORDO
100
AcDbLine
 62
250
  6
CONTINUOUS
 10
-22.0225201317
 20
-22.9735981376
 11
-22.0225737676
 21
-22.9848977685
  0
LINE
  5
31B
100
AcDbEntity
  8
RACCORDO
100
AcDbLine
 62
250
  6
CONTINUOUS
 10
-22.0224647207
 20
-22.9623162308
 11
-22.0225201317
 21
-22.9735981376
  0
LINE
  5
31C
100
AcDbEntity
  8
RACCORDO
100
AcDbLine
 62
250
  6
CONTINUOUS
 10
-22.0224075335
 20
-22.951056191
 11
-22.0224647207
 21
-22.9623162308
  0
LINE
  5
31D
100
AcDbEntity
  8
RACCORDO
100
AcDbLine
 62
250
  6
CONTINUOUS
 10
-22.0223485596
 20
-22.9398190001
 11
-22.0224075335
 21
-22.951056191
  0
LINE
  5
31E
100
AcDbEntity
  8
RACCORDO
100
AcDbLine
 62
250
  6
CONTINUOUS
 10
-22.0222877735
 20
-22.9286039296
 11
-22.0223485596
 21
-22.9398190001
  0
LINE
  5
31F
100
AcDbEntity
  8
RACCORDO
100
AcDbLine
 62
250
  6
CONTINUOUS
 10
-22.022225127
 20
-22.9174069802
 11
-22.0222877735
 21
-22.9286039296
  0
LINE
  5
320
100
AcDbEntity
  8
RACCORDO
100
AcDbLine
 62
250
  6
CONTINUOUS
 10
-22.0221605936
 20
-22.9062267155
 11
-22.022225127
 21
-22.9174069802
  0
LINE
  5
321
100
AcDbEntity
  8
RACCORDO
100
AcDbLine
 62
250
  6
CONTINUOUS
 10
-22.0220941374
 20
-22.8950620379
 11
-22.0221605936
 21
-22.9062267155
  0
LWPOLYLINE
  5
322
100
AcDbEntity
  8
RACCORDO
100
AcDbPolyline
 62
250
  6
CONTINUOUS
 90
91
 70
0
 10
-20.8277424384
 20
-26.0308893817
 10
-20.8299465554
 20
-26.3941111019
 10
-20.835419479
 20
-26.7615090251
 10
-20.8441612092
 20
-27.1330852147
 10
-20.856280935
 20
-27.5105209589
 10
-20.8716694674
 20
-27.8921404019
 10
-20.8899992391
 20
-28.2728990888
 10
-20.9116578894
 20
-28.6555482257
 10
-20.936257779
 20
-29.0373217784
 10
-20.9623084228
 20
-29.4048644542
 10
-20.9895552104
 20
-29.7532115851
 10
-21.0182527522
 20
-30.0872620868
 10
-21.0476743946
 20
-30.4084369116
 10
-21.0777301639
 20
-30.7166737396
 10
-21.1085100338
 20
-31.0119916862
 10
-21.1395572708
 20
-31.2959405015
 10
-21.1708048837
 20
-31.5684760147
 10
-21.2023198638
 20
-31.8296116561
 10
-21.2338464513
 20
-32.0809889242
 10
-21.2653565256
 20
-32.3227315184
 10
-21.2968782073
 20
-32.554694314
 10
-21.3282400994
 20
-32.7781194472
 10
-21.3593988827
 20
-32.9929351395
 10
-21.3903978763
 20
-33.1991977307
 10
-21.4211956404
 20
-33.3983443722
 10
-21.4517886745
 20
-33.5905168935
 10
-21.4821804791
 20
-33.775562819
 10
-21.5123401162
 20
-33.9544799317
 10
-21.5422540018
 20
-34.1272950288
 10
-21.5719357197
 20
-34.2939735905
 10
-21.601395084
 20
-34.4554228039
 10
-21.6306485825
 20
-34.6117952616
 10
-21.6596797273
 20
-34.7629328204
 10
-21.6884488687
 20
-34.9092774377
 10
-21.7169782773
 20
-35.0509550692
 10
-21.7452456826
 20
-35.1878354704
 10
-21.7731446229
 20
-35.3199766993
 10
-21.8006393628
 20
-35.4472248154
 10
-21.8277656377
 20
-35.5697301928
 10
-21.8545241932
 20
-35.6880077028
 10
-21.8809049322
 20
-35.80204628
 10
-21.9069179519
 20
-35.9118543455
 10
-21.9325942888
 20
-36.0179764086
 10
-21.9579398312
 20
-36.1204632458
 10
-21.9829486908
 20
-36.2192621388
 10
-22.0076342396
 20
-36.3147626588
 10
-22.0319951027
 20
-36.4069778593
 10
-22.056032655
 20
-36.49589321
 10
-22.0797643933
 20
-36.5818571164
 10
-22.1031858788
 20
-36.6648707129
 10
-22.1263015503
 20
-36.7449317403
 10
-22.1491422214
 20
-36.8223836763
 10
-22.1717042268
 20
-36.8972316892
 10
-22.1939912317
 20
-36.9694697606
 10
-22.2160450452
 20
-37.0394247201
 10
-22.2378726515
 20
-37.107132027
 10
-22.2594670664
 20
-37.1725555835
 10
-22.2808491459
 20
-37.2359149781
 10
-22.3020206869
 20
-37.2972237496
 10
-22.3229798925
 20
-37.3564678603
 10
-22.3437422288
 20
-37.413825596
 10
-22.3643043106
 20
-37.4692955432
 10
-22.384669523
 20
-37.5228787212
 10
-22.4048634876
 20
-37.5747571148
 10
-22.4248821079
 20
-37.6249300996
 10
-22.4447294804
 20
-37.6733979917
 10
-22.4644435164
 20
-37.7203442273
 10
-22.4840197453
 20
-37.7657703775
 10
-22.5034626377
 20
-37.8096746321
 10
-22.522823517
 20
-37.8522353901
 10
-22.5421186763
 20
-37.8934951549
 10
-22.5613318224
 20
-37.9334112401
 10
-22.5804653995
 20
-37.9720342814
 10
-22.5995421017
 20
-38.0094024745
 10
-22.6185392348
 20
-38.0454774705
 10
-22.6373911601
 20
-38.080195094
 10
-22.6561036053
 20
-38.1135492634
 10
-22.6746708427
 20
-38.1455459215
 10
-22.69301005
 20
-38.176138929
 10
-22.7110917969
 20
-38.2052724975
 10
-22.7289455136
 20
-38.2330022935
 10
-22.7465766698
 20
-38.259449368
 10
-22.7639610889
 20
-38.2845883808
 10
-22.7811229474
 20
-38.3084445794
 10
-22.798140244
 20
-38.331214912
 10
-22.8149933806
 20
-38.3528969549
 10
-22.8317019553
 20
-38.3734930662
 10
-22.8484027608
 20
-38.3932073812
 10
-22.8651413946
 20
-38.4121079323
 10
-22.8818722593
 20
-38.4301266428
 10
-22.8985953548
 20
-38.4472634921
  0
LINE
  5
323
100
AcDbEntity
  8
RACCORDO
100
AcDbLine
 62
250
  6
CONTINUOUS
 10
-22.0220257277
 20
-22.8839132012
 11
-22.0220941374
 21
-22.8950620379
  0
LINE
  5
324
100
AcDbEntity
  8
RACCORDO
100
AcDbLine
 62
250
  6
CONTINUOUS
 10
-22.0219553422
 20
-22.8727801973
 11
-22.0220257277
 21
-22.8839132012
  0
LINE
  5
325
100
AcDbEntity
  8
RACCORDO
100
AcDbLine
 62
250
  6
CONTINUOUS
 10
-22.0218829465
 20
-22.8616629714
 11
-22.0219553422
 21
-22.8727801973
  0
LINE
  5
326
100
AcDbEntity
  8
RACCORDO
100
AcDbLine
 62
250
  6
CONTINUOUS
 10
-22.0218085041
 20
-22.850561587
 11
-22.0218829465
 21
-22.8616629714
  0
LINE
  5
327
100
AcDbEntity
  8
RACCORDO
100
AcDbLine
 62
250
  6
CONTINUOUS
 10
-22.0216929425
 20
-22.8339394619
 11
-22.0218085041
 21
-22.850561587
  0
LINE
  5
328
100
AcDbEntity
  8
RACCORDO
100
AcDbLine
 62
250
  6
CONTINUOUS
 10
-22.0216132517
 20
-22.8228783344
 11
-22.0216929425
 21
-22.8339394619
  0
LINE
  5
329
100
AcDbEntity
  8
RACCORDO
100
AcDbLine
 62
250
  6
CONTINUOUS
 10
-22.0214896471
 20
-22.8063177742
 11
-22.0216132517
 21
-22.8228783344
  0
LINE
  5
32A
100
AcDbEntity
  8
RACCORDO
100
AcDbLine
 62
250
  6
CONTINUOUS
 10
-22.0214044809
 20
-22.7952986828
 11
-22.0214896471
 21
-22.8063177742
  0
LINE
  5
32B
100
AcDbEntity
  8
RACCORDO
100
AcDbLine
 62
250
  6
CONTINUOUS
 10
-22.0212724876
 20
-22.7788034563
 11
-22.0214044809
 21
-22.7952986828
  0
LINE
  5
32C
100
AcDbEntity
  8
RACCORDO
100
AcDbLine
 62
250
  6
CONTINUOUS
 10
-22.0211352911
 20
-22.7623508017
 11
-22.0212724876
 21
-22.7788034563
  0
LINE
  5
32D
100
AcDbEntity
  8
RACCORDO
100
AcDbLine
 62
250
  6
CONTINUOUS
 10
-22.020992764
 20
-22.7459444741
 11
-22.0211352911
 21
-22.7623508017
  0
LINE
  5
32E
100
AcDbEntity
  8
RACCORDO
100
AcDbLine
 62
250
  6
CONTINUOUS
 10
-22.0208447777
 20
-22.7295889659
 11
-22.020992764
 21
-22.7459444741
  0
LINE
  5
32F
100
AcDbEntity
  8
RACCORDO
100
AcDbLine
 62
250
  6
CONTINUOUS
 10
-22.0206387376
 20
-22.7078692782
 11
-22.0208447777
 21
-22.7295889659
  0
LINE
  5
330
100
AcDbEntity
  8
RACCORDO
100
AcDbLine
 62
250
  6
CONTINUOUS
 10
-22.0203667087
 20
-22.6808786992
 11
-22.0206387376
 21
-22.7078692782
  0
LINE
  5
331
100
AcDbEntity
  8
RACCORDO
100
AcDbLine
 62
250
  6
CONTINUOUS
 10
-22.0200182795
 20
-22.6487745772
 11
-22.0203667087
 21
-22.6808786992
  0
LWPOLYLINE
  5
332
100
AcDbEntity
  8
RACCORDO
100
AcDbPolyline
 62
250
  6
CONTINUOUS
 90
42
 70
0
 10
-20.8233364133
 20
23.4549696425
 10
-20.8234427117
 20
23.4455134098
 10
-20.8238593026
 20
23.4360148102
 10
-20.8245861861
 20
23.4264747852
 10
-20.8256136622
 20
23.4169148343
 10
-20.8269514309
 20
23.40731533
 10
-20.8286285919
 20
23.3976159369
 10
-20.8306369085
 20
23.3878228333
 10
-20.8329846175
 20
23.3779327641
 10
-20.8357255293
 20
23.3678722379
 10
-20.8388485814
 20
23.3576501118
 10
-20.8423648362
 20
23.3472620138
 10
-20.8463612913
 20
23.3366160923
 10
-20.8508254151
 20
23.3257208828
 10
-20.8557697391
 20
23.3145748815
 10
-20.8613188558
 20
23.3030733574
 10
-20.8674775069
 20
23.2912017985
 10
-20.8742409506
 20
23.2789858784
 10
-20.8817195538
 20
23.2663833853
 10
-20.8899214574
 20
23.253394937
 10
-20.8988385203
 20
23.2400349322
 10
-20.9085566862
 20
23.2262836304
 10
-20.9190820279
 20
23.2121544152
 10
-20.9304084724
 20
23.1976532557
 10
-20.9426037449
 20
23.1827514337
 10
-20.955672696
 20
23.1674687423
 10
-20.9696104749
 20
23.1518107121
 10
-20.9844702543
 20
23.1357306122
 10
-21.0002452171
 20
23.1192646188
 10
-21.0169421803
 20
23.1024104286
 10
-21.0346347672
 20
23.0850699518
 10
-21.053318964
 20
23.0672847947
 10
-21.0729987845
 20
23.0490623912
 10
-21.0937598934
 20
23.0302650596
 10
-21.1156084829
 20
23.0109438217
 10
-21.1385383609
 20
22.9911219662
 10
-21.1626166153
 20
22.9706393462
 10
-21.1880958478
 20
22.9493637731
 10
-21.2147234569
 20
22.9275500257
 10
-21.2418087252
 20
22.9056137468
 10
-21.2695659264
 20
22.883412123
 10
-21.2977807869
 20
22.8611945783
  0
LINE
  5
333
100
AcDbEntity
  8
RACCORDO
100
AcDbLine
 62
250
  6
CONTINUOUS
 10
-22.0183688771
 20
-22.5253065513
 11
-22.0200182795
 21
-22.6487745772
  0
LWPOLYLINE
  5
334
100
AcDbEntity
  8
RACCORDO
100
AcDbPolyline
 62
250
  6
CONTINUOUS
 90
46
 70
0
 10
-22.0028636757
 20
22.3000000001
 10
-22.0027418458
 20
22.3069798994
 10
-22.0023765043
 20
22.3139512948
 10
-22.0017680965
 20
22.3209056927
 10
-22.0009173636
 20
22.3278346203
 10
-21.999825342
 20
22.3347296356
 10
-21.9984933623
 20
22.3415823382
 10
-21.9969230472
 20
22.3483843792
 10
-21.9951163099
 20
22.3551274712
 10
-21.9930753517
 20
22.361803399
 10
-21.9908026591
 20
22.3684040287
 10
-21.9883010012
 20
22.3749213188
 10
-21.9855734256
 20
22.3813473287
 10
-21.9826232557
 20
22.3876742294
 10
-21.9794540857
 20
22.3938943126
 10
-21.9760697768
 20
22.4000000001
 10
-21.9724744521
 20
22.4059838529
 10
-21.9686724922
 20
22.4118385808
 10
-21.964668529
 20
22.4175570505
 10
-21.9604674408
 20
22.4231322951
 10
-21.956074346
 20
22.428557522
 10
-21.9514945969
 20
22.4338261214
 10
-21.9467337731
 20
22.4389316742
 10
-21.9417976751
 20
22.4438679602
 10
-21.9366923167
 20
22.4486289652
 10
-21.931423918
 20
22.4532088887
 10
-21.9259988977
 20
22.4576021508
 10
-21.9204238654
 20
22.461803399
 10
-21.9147056133
 20
22.4658075146
 10
-21.9088511084
 20
22.4696096193
 10
-21.9028674834
 20
22.4732050808
 10
-21.8967620285
 20
22.4765895187
 10
-21.8905421821
 20
22.4797588093
 10
-21.8842155223
 20
22.4827090916
 10
-21.877789757
 20
22.485436771
 10
-21.8712727152
 20
22.4879385242
 10
-21.8646723367
 20
22.4902113033
 10
-21.8579966632
 20
22.4922523393
 10
-21.8512538279
 20
22.4940591453
 10
-21.8444520459
 20
22.4956295202
 10
-21.8375996042
 20
22.4969615507
 10
-21.8307048514
 20
22.4980536138
 10
-21.8237761877
 20
22.4989043792
 10
-21.8168220546
 20
22.4995128101
 10
-21.8098509247
 20
22.4998781655
 10
-21.8028712911
 20
22.5000000001
  0
LINE
  5
335
100
AcDbEntity
  8
RACCORDO
100
AcDbLine
 62
250
  6
CONTINUOUS
 10
-22.0170316352
 20
-22.4503288652
 11
-22.0183688771
 21
-22.5253065513
  0
LINE
  5
336
100
AcDbEntity
  8
RACCORDO
100
AcDbLine
 62
250
  6
CONTINUOUS
 10
-22.0159054892
 20
-22.4001153782
 11
-22.0170316352
 21
-22.4503288652
  0
LINE
  5
337
100
AcDbEntity
  8
RACCORDO
100
AcDbLine
 62
250
  6
CONTINUOUS
 10
-22.0150987724
 20
-22.3702639712
 11
-22.0159054892
 21
-22.4001153782
  0
LINE
  5
338
100
AcDbEntity
  8
RACCORDO
100
AcDbLine
 62
250
  6
CONTINUOUS
 10
-22.0143578138
 20
-22.3468739724
 11
-22.0150987724
 21
-22.3702639712
  0
LINE
  5
339
100
AcDbEntity
  8
RACCORDO
100
AcDbLine
 62
250
  6
CONTINUOUS
 10
-22.0138090378
 20
-22.331859954
 11
-22.0143578138
 21
-22.3468739724
  0
LINE
  5
33A
100
AcDbEntity
  8
RACCORDO
100
AcDbLine
 62
250
  6
CONTINUOUS
 10
-22.0133583663
 20
-22.3209222091
 11
-22.0138090378
 21
-22.331859954
  0
LINE
  5
33B
100
AcDbEntity
  8
RACCORDO
100
AcDbLine
 62
250
  6
CONTINUOUS
 10
-22.0128969205
 20
-22.3109706813
 11
-22.0133583663
 21
-22.3209222091
  0
LINE
  5
33C
100
AcDbEntity
  8
RACCORDO
100
AcDbLine
 62
250
  6
CONTINUOUS
 10
-22.0125455766
 20
-22.3042097571
 11
-22.0128969205
 21
-22.3109706813
  0
LINE
  5
33D
100
AcDbEntity
  8
RACCORDO
100
AcDbLine
 62
250
  6
CONTINUOUS
 10
-22.0121963121
 20
-22.2981676848
 11
-22.0125455766
 21
-22.3042097571
  0
LINE
  5
33E
100
AcDbEntity
  8
RACCORDO
100
AcDbLine
 62
250
  6
CONTINUOUS
 10
-22.0119669421
 20
-22.294560327
 11
-22.0121963121
 21
-22.2981676848
  0
LINE
  5
33F
100
AcDbEntity
  8
RACCORDO
100
AcDbLine
 62
250
  6
CONTINUOUS
 10
-22.0117408578
 20
-22.291278186
 11
-22.0119669421
 21
-22.294560327
  0
LINE
  5
340
100
AcDbEntity
  8
RACCORDO
100
AcDbLine
 62
250
  6
CONTINUOUS
 10
-22.0115183174
 20
-22.288305586
 11
-22.0117408578
 21
-22.291278186
  0
LINE
  5
341
100
AcDbEntity
  8
RACCORDO
100
AcDbLine
 62
7
  6
CONTINUOUS
 10
-21.8028712911
 20
-22.5
 11
21.8028712911
 21
-22.5
  0
LINE
  5
342
100
AcDbEntity
  8
RACCORDO
100
AcDbLine
 62
250
  6
CONTINUOUS
 10
22.0028636757
 20
-22.3
 11
22.0
 21
-22.3
  0
LINE
  5
343
100
AcDbEntity
  8
RACCORDO
100
AcDbLine
 62
250
  6
CONTINUOUS
 10
-22.0
 20
-22.3
 11
-22.0028636757
 21
-22.3
  0
LWPOLYLINE
  5
344
100
AcDbEntity
  8
RACCORDO
100
AcDbPolyline
 62
250
  6
CONTINUOUS
 90
88
 70
0
 10
22.8986043143
 20
38.4472634921
 10
22.8853289832
 20
38.4337905586
 10
22.8717870602
 20
38.4194111148
 10
22.8579785451
 20
38.4041251775
 10
22.8439131731
 20
38.3879817931
 10
22.8295812092
 20
38.3709319518
 10
22.8149534479
 20
38.3528285914
 10
22.8000191737
 20
38.3336631593
 10
22.7847891021
 20
38.3134442605
 10
22.7692661747
 20
38.2920505775
 10
22.7534514623
 20
38.2694858148
 10
22.7373438941
 20
38.2457463384
 10
22.7209431988
 20
38.2206998333
 10
22.7042496808
 20
38.1943494634
 10
22.6872630358
 20
38.1666921589
 10
22.6699820803
 20
38.1375862684
 10
22.6524073745
 20
38.1070358308
 10
22.6345383581
 20
38.0750369321
 10
22.6163721669
 20
38.0414360098
 10
22.5979094283
 20
38.0062380024
 10
22.5791495149
 20
37.9694381364
 10
22.56008768
 20
37.9308683038
 10
22.5407244364
 20
37.8905341097
 10
22.5210592714
 20
37.8484301663
 10
22.5010859004
 20
37.8043719074
 10
22.4808046826
 20
37.7583655584
 10
22.4602152588
 20
37.7104051795
 10
22.4393102669
 20
37.6602879958
 10
22.4180899992
 20
37.6080211553
 10
22.3965541634
 20
37.5535978853
 10
22.3746945193
 20
37.4967945811
 10
22.3525112752
 20
37.4376195047
 10
22.3300042229
 20
37.3760648867
 10
22.3071644977
 20
37.3118831435
 10
22.28399217
 20
37.2450837774
 10
22.2604871694
 20
37.1756579333
 10
22.2366404203
 20
37.1033305782
 10
22.212451798
 20
37.0281126414
 10
22.1879214272
 20
36.9499940453
 10
22.1630406073
 20
36.8686683628
 10
22.1378089856
 20
36.7841483498
 10
22.1122269147
 20
36.6964223732
 10
22.0862867515
 20
36.6051475758
 10
22.0599878471
 20
36.5103390625
 10
22.0333308504
 20
36.4119832119
 10
22.006310065
 20
36.3096942828
 10
21.9789244405
 20
36.2034904068
 10
21.9511750273
 20
36.0933554185
 10
21.9230592805
 20
35.9788524046
 10
21.8945755798
 20
35.860003454
 10
21.8657255454
 20
35.7367890938
 10
21.8365114933
 20
35.6087104375
 10
21.8069309511
 20
35.4757947612
 10
21.7769863913
 20
35.3380182852
 10
21.7466875463
 20
35.194806044
 10
21.7160306853
 20
35.0461922861
 10
21.6850195392
 20
34.8921474624
 10
21.653675034
 20
34.7320016071
 10
21.6219914687
 20
34.5657982217
 10
21.5899745442
 20
34.3935001646
 10
21.5576622895
 20
34.214317477
 10
21.5250460355
 20
34.0283069523
 10
21.4921344512
 20
33.8354204746
 10
21.4589915723
 20
33.6347121008
 10
21.425603702
 20
33.4262556416
 10
21.3919845371
 20
33.2099892462
 10
21.3582392033
 20
32.9847654694
 10
21.3243464188
 20
32.7506876632
 10
21.2903274653
 20
32.5076691536
 10
21.2563513142
 20
32.2542803969
 10
21.2223820816
 20
31.9906578433
 10
21.1884556512
 20
31.7166886703
 10
21.154848646
 20
31.4305738674
 10
21.1215016002
 20
31.1325246734
 10
21.0884739795
 20
30.8223638975
 10
21.0562208028
 20
30.4977168423
 10
21.0245169944
 20
30.1566417784
 10
20.99358763
 20
29.8011331394
 10
20.9645629563
 20
29.4347211493
 10
20.9374072667
 20
29.0547099274
 10
20.9121562678
 20
28.6638504221
 10
20.8900473256
 20
28.2738178903
 10
20.8714228643
 20
27.8864035584
 10
20.8559404596
 20
27.4998263722
 10
20.8438102053
 20
27.1203678115
 10
20.8351021326
 20
26.7501107808
 10
20.8297462103
 20
26.3869540936
 10
20.8277424384
 20
26.0308893819
  0
LWPOLYLINE
  5
345
100
AcDbEntity
  8
RACCORDO
100
AcDbPolyline
 62
250
  6
CONTINUOUS
 90
91
 70
0
 10
22.8985953548
 20
-38.4472634921
 10
22.8818722588
 20
-38.43012664
 10
22.8651413931
 20
-38.4121079268
 10
22.8484027576
 20
-38.3932073734
 10
22.8317019498
 20
-38.3734930565
 10
22.8149933723
 20
-38.3528969436
 10
22.7981402332
 20
-38.3312148985
 10
22.7811229346
 20
-38.3084445628
 10
22.7639610744
 20
-38.2845883606
 10
22.7465766535
 20
-38.259449344
 10
22.7289454953
 20
-38.2330022654
 10
22.7110917764
 20
-38.2052724651
 10
22.6930100275
 20
-38.176138892
 10
22.6746708179
 20
-38.1455458795
 10
22.6561035783
 20
-38.1135492161
 10
22.6373911309
 20
-38.0801950412
 10
22.6185392035
 20
-38.045477412
 10
22.5995420683
 20
-38.00940241
 10
22.5804653639
 20
-37.9720342107
 10
22.5613317848
 20
-37.9334111629
 10
22.5421186365
 20
-37.893495071
 10
22.5228234751
 20
-37.8522352992
 10
22.5034625936
 20
-37.8096745337
 10
22.4840196989
 20
-37.7657702712
 10
22.4644434677
 20
-37.7203441127
 10
22.4447294292
 20
-37.6733978683
 10
22.4248820542
 20
-37.6249299669
 10
22.4048634314
 20
-37.5747569723
 10
22.3846694642
 20
-37.5228785684
 10
22.3643042492
 20
-37.4692953795
 10
22.3437421647
 20
-37.413825421
 10
22.3229798256
 20
-37.3564676733
 10
22.3020206172
 20
-37.2972235501
 10
22.2808490733
 20
-37.2359147654
 10
22.2594669908
 20
-37.1725553571
 10
22.237872573
 20
-37.1071317863
 10
22.2160449636
 20
-37.0394244643
 10
22.193991147
 20
-36.9694694888
 10
22.1717041388
 20
-36.8972314006
 10
22.14914213
 20
-36.82238337
 10
22.1263014555
 20
-36.7449314152
 10
22.1031857804
 20
-36.664870368
 10
22.0797642912
 20
-36.5818567505
 10
22.056032549
 20
-36.4958928221
 10
22.0319949928
 20
-36.4069774481
 10
22.0076341257
 20
-36.3147622231
 10
21.9829485728
 20
-36.2192616773
 10
21.957939709
 20
-36.1204627573
 10
21.9325941623
 20
-36.0179758916
 10
21.9069178209
 20
-35.9118537983
 10
21.8809047967
 20
-35.802045701
 10
21.854524053
 20
-35.6880070903
 10
21.8277654927
 20
-35.5697295449
 10
21.8006392129
 20
-35.4472241304
 10
21.7731444683
 20
-35.3199759757
 10
21.7452455232
 20
-35.187834707
 10
21.7169781133
 20
-35.0509542647
 10
21.6884486999
 20
-34.9092765899
 10
21.6596795537
 20
-34.7629319271
 10
21.6306484041
 20
-34.6117943207
 10
21.6013949007
 20
-34.4554218123
 10
21.5719355312
 20
-34.293972544
 10
21.5422538079
 20
-34.1272939245
 10
21.5123399175
 20
-33.9544787692
 10
21.4821802762
 20
-33.7755615992
 10
21.4517884679
 20
-33.5905156162
 10
21.4211954306
 20
-33.3983430366
 10
21.3903976644
 20
-33.1991963411
 10
21.3593986692
 20
-32.9929336951
 10
21.328239883
 20
-32.7781179328
 10
21.2968779799
 20
-32.5546926564
 10
21.2653562859
 20
-32.3227297024
 10
21.2338462169
 20
-32.0809870939
 10
21.2023196673
 20
-31.8296100791
 10
21.1708047427
 20
-31.5684748347
 10
21.1395571752
 20
-31.2959396501
 10
21.1085099623
 20
-31.0119910082
 10
21.0777301065
 20
-30.7166731667
 10
21.0476743482
 20
-30.4084364227
 10
21.0182527151
 20
-30.08726166
 10
20.9895551795
 20
-29.7532111991
 10
20.962308399
 20
-29.404864137
 10
20.9362577656
 20
-29.0373215988
 10
20.9116578872
 20
-28.6555482114
 10
20.8899992446
 20
-28.2728991944
 10
20.8716694745
 20
-27.8921405477
 10
20.8562809403
 20
-27.5105210998
 10
20.8441612125
 20
-27.1330853356
 10
20.8354194814
 20
-26.7615091208
 10
20.8299465567
 20
-26.3941111573
 10
20.8277424384
 20
-26.0308893817
  0
LINE
  5
346
100
AcDbEntity
  8
RACCORDO
100
AcDbLine
 62
250
  6
CONTINUOUS
 10
-23.058783406
 20
-38.2884229089
 11
-23.1473031073
 21
-38.4656988478
  0
LINE
  5
347
100
AcDbEntity
  8
RACCORDO
100
AcDbLine
 62
250
  6
CONTINUOUS
 10
-23.1473031073
 20
-38.4656988478
 11
-23.2187037325
 21
-38.6082212548
  0
LINE
  5
348
100
AcDbEntity
  8
RACCORDO
100
AcDbLine
 62
250
  6
CONTINUOUS
 10
-44.0
 20
-38.8016445583
 11
-43.6907520427
 21
-38.492396601
  0
LWPOLYLINE
  5
349
100
AcDbEntity
  8
RACCORDO
100
AcDbPolyline
 62
250
  6
CONTINUOUS
 90
3
 70
0
 10
21.8028712911
 20
-22.5
 10
21.8029276671
 20
-22.5000434959
 10
21.802752636
 20
-22.5001831369
  0
LINE
  5
34A
100
AcDbEntity
  8
RACCORDO
100
AcDbLine
 62
250
  6
CONTINUOUS
 10
-43.6907520425
 20
38.4923966008
 11
-44.0
 21
38.8016445583
  0
LINE
  5
34B
100
AcDbEntity
  8
RACCORDO
100
AcDbLine
 62
250
  6
CONTINUOUS
 10
-23.2187037325
 20
38.6082212549
 11
-23.1295306148
 21
38.4301583797
  0
LINE
  5
34C
100
AcDbEntity
  8
RACCORDO
100
AcDbLine
 62
250
  6
CONTINUOUS
 10
-23.1295306148
 20
38.4301583797
 11
-23.0587834054
 21
38.2884229092
  0
LWPOLYLINE
  5
34D
100
AcDbEntity
  8
RACCORDO
100
AcDbPolyline
 62
250
  6
CONTINUOUS
 90
91
 70
0
 10
-23.0587834021
 20
38.2884229115
 10
-23.0504244384
 20
38.2712142076
 10
-23.0420528473
 20
38.2530989574
 10
-23.0336743713
 20
38.234090144
 10
-23.0253236789
 20
38.2142711714
 10
-23.0169735523
 20
38.1935770694
 10
-23.0085416027
 20
38.1717937865
 10
-23.0000333117
 20
38.1489119474
 10
-22.9914619641
 20
38.1249403278
 10
-22.9827670275
 20
38.0996827428
 10
-22.9739508885
 20
38.0731080513
 10
-22.9650354615
 20
38.0452404752
 10
-22.9559946114
 20
38.0159637523
 10
-22.9468231896
 20
37.985219971
 10
-22.9375501876
 20
37.9530605017
 10
-22.9281986279
 20
37.9195366679
 10
-22.9187746595
 20
37.8846464601
 10
-22.9092871402
 20
37.8483924584
 10
-22.899757273
 20
37.8108391175
 10
-22.8901988001
 20
37.7720302657
 10
-22.8806063029
 20
37.7319264917
 10
-22.8709691548
 20
37.6904707853
 10
-22.861300042
 20
37.6477058411
 10
-22.8515942911
 20
37.6035922695
 10
-22.8418164728
 20
37.5579499861
 10
-22.8319719259
 20
37.5107798048
 10
-22.8220668475
 20
37.4620811223
 10
-22.8120698175
 20
37.4116708269
 10
-22.8019870091
 20
37.3595472533
 10
-22.7918259745
 20
37.3057106635
 10
-22.7815595277
 20
37.2499803553
 10
-22.7711944803
 20
37.1923533846
 10
-22.7607392236
 20
37.1328304411
 10
-22.7501705768
 20
37.0712361304
 10
-22.7394985249
 20
37.0075833715
 10
-22.7287291168
 20
36.9418566865
 10
-22.7178349559
 20
36.8738379496
 10
-22.7068298524
 20
36.8035604493
 10
-22.6957174406
 20
36.7309878987
 10
-22.6844578694
 20
36.6557971972
 10
-22.6730618117
 20
36.5779909481
 10
-22.6615393531
 20
36.497562477
 10
-22.6498532687
 20
36.4141739417
 10
-22.6380151337
 20
36.3278242028
 10
-22.6260369812
 20
36.2385097511
 10
-22.6138855032
 20
36.1458886027
 10
-22.601575136
 20
36.0499722294
 10
-22.5891175345
 20
35.9507443145
 10
-22.5764784548
 20
35.8478207215
 10
-22.5636782903
 20
35.7412513766
 10
-22.5507255884
 20
35.630981402
 10
-22.5375727945
 20
35.5164687019
 10
-22.5242354815
 20
35.3976994827
 10
-22.5107326595
 20
35.2746818749
 10
-22.4970270215
 20
35.1469058936
 10
-22.4831214491
 20
35.0142116754
 10
-22.4690531893
 20
34.8767532224
 10
-22.4548377655
 20
34.7344918573
 10
-22.4405066894
 20
34.5875619556
 10
-22.426065908
 20
34.4358256112
 10
-22.4114934518
 20
34.2788364607
 10
-22.3968236857
 20
34.1167423574
 10
-22.3820650619
 20
33.9493922828
 10
-22.3671636372
 20
33.7758909916
 10
-22.352149154
 20
33.5962677842
 10
-22.3370478118
 20
33.4104895711
 10
-22.3218112109
 20
33.2175664906
 10
-22.3064852847
 20
33.017643661
 10
-22.291095321
 20
32.8105723867
 10
-22.2755772013
 20
32.5949208923
 10
-22.2599732517
 20
32.3706155986
 10
-22.2443390921
 20
32.1377266445
 10
-22.2286488761
 20
31.8950370176
 10
-22.2129722968
 20
31.6426863688
 10
-22.1973657612
 20
31.3805341699
 10
-22.1818061036
 20
31.1069429958
 10
-22.1663747356
 20
30.8218800388
 10
-22.1511638181
 20
30.5253813667
 10
-22.1361958946
 20
30.2159136291
 10
-22.1215818791
 20
29.8934353471
 10
-22.1074480175
 20
29.5579997756
 10
-22.0938744565
 20
29.2082182264
 10
-22.0808507424
 20
28.8391671281
 10
-22.0687526078
 20
28.4557983496
 10
-22.0581143316
 20
28.0715402079
 10
-22.0490350471
 20
27.6892147727
 10
-22.0414809751
 20
27.3060395526
 10
-22.0355734984
 20
26.9270322802
 10
-22.0313203692
 20
26.5538756784
 10
-22.0286936864
 20
26.1849255771
 10
-22.0276966842
 20
25.8202046208
  0
LWPOLYLINE
  5
34E
100
AcDbEntity
  8
0
100
AcDbPolyline
 62
7
  6
CONTINUOUS
 90
4
 70
0
 43
0.3500000006
 10
-2.3571427875
 20
49.178569931
 10
-2.3571427875
 20
50.0357124023
 10
-1.9285714102
 20
50.4642859039
 10
-1.2857142735
 20
50.4642859039
  0
LWPOLYLINE
  5
34F
100
AcDbEntity
  8
0
100
AcDbPolyline
 62
7
  6
CONTINUOUS
 90
4
 70
0
 43
0.3500000006
 10
0.0
 20
49.178569931
 10
0.0
 20
50.0357124023
 10
0.4285714127
 20
50.4642859039
 10
1.0714285848
 20
50.4642859039
  0
LINE
  5
350
100
AcDbEntity
  8
RACCORDO
100
AcDbLine
 62
250
  6
CONTINUOUS
 10
-42.8016445583
 20
-40.0
 11
-42.4923965984
 21
-39.6907520401
  0
LINE
  5
351
100
AcDbEntity
  8
RACCORDO
100
AcDbLine
 62
250
  6
CONTINUOUS
 10
-42.4923965984
 20
39.6907520401
 11
-42.8016445583
 21
40.0
  0
LINE
  5
352
100
AcDbEntity
  8
RACCORDO
100
AcDbLine
 62
250
  6
CONTINUOUS
 10
23.0587834054
 20
38.2884229092
 11
23.1473004841
 21
38.465693669
  0
LINE
  5
353
100
AcDbEntity
  8
RACCORDO
100
AcDbLine
 62
250
  6
CONTINUOUS
 10
23.1473004841
 20
38.465693669
 11
23.2187037325
 21
38.6082212549
  0
LINE
  5
354
100
AcDbEntity
  8
RACCORDO
100
AcDbLine
 62
250
  6
CONTINUOUS
 10
42.8016445583
 20
40.0
 11
42.4923965984
 21
39.6907520401
  0
LINE
  5
355
100
AcDbEntity
  8
RACCORDO
100
AcDbLine
 62
250
  6
CONTINUOUS
 10
44.0
 20
38.8016445583
 11
43.6907520427
 21
38.492396601
  0
LWPOLYLINE
  5
356
100
AcDbEntity
  8
RACCORDO
100
AcDbPolyline
 62
250
  6
CONTINUOUS
 90
4
 70
0
 10
-21.8028712911
 20
-22.5
 10
-21.802927667
 20
-22.5000434965
 10
-21.8027526328
 20
-22.5001831394
 10
-21.8008913038
 20
-22.5013236833
  0
LINE
  5
357
100
AcDbEntity
  8
RACCORDO
100
AcDbLine
 62
250
  6
CONTINUOUS
 10
42.4923965984
 20
-39.6907520401
 11
42.8016445583
 21
-40.0
  0
LINE
  5
358
100
AcDbEntity
  8
RACCORDO
100
AcDbLine
 62
250
  6
CONTINUOUS
 10
43.6907520425
 20
-38.4923966008
 11
44.0
 21
-38.8016445583
  0
LINE
  5
359
100
AcDbEntity
  8
RACCORDO
100
AcDbLine
 62
250
  6
CONTINUOUS
 10
23.2187037325
 20
-38.6082212548
 11
23.1295331714
 21
-38.4301634302
  0
LINE
  5
35A
100
AcDbEntity
  8
RACCORDO
100
AcDbLine
 62
250
  6
CONTINUOUS
 10
23.1295331714
 20
-38.4301634302
 11
23.058783406
 21
-38.2884229089
  0
LWPOLYLINE
  5
35B
100
AcDbEntity
  8
RACCORDO
100
AcDbPolyline
 62
250
  6
CONTINUOUS
 90
91
 70
0
 10
23.058783399
 20
-38.2884229139
 10
23.0504335167
 20
-38.2712329849
 10
23.0420711506
 20
-38.253138716
 10
23.0337018774
 20
-38.2341539381
 10
23.0253607731
 20
-38.2143607358
 10
23.0170201611
 20
-38.193694133
 10
23.0085968531
 20
-38.1719392812
 10
23.0000964161
 20
-38.1490845841
 10
22.99153243
 20
-38.1251402994
 10
22.9828447942
 20
-38.0999127348
 10
22.9740364059
 20
-38.0733701223
 10
22.9651288563
 20
-38.0455366644
 10
22.9560959877
 20
-38.0162975654
 10
22.9469333611
 20
-37.9855951625
 10
22.9376694598
 20
-37.9534800753
 10
22.9283263957
 20
-37.9200019115
 10
22.9189107446
 20
-37.8851578863
 10
22.9094312697
 20
-37.8489508033
 10
22.8999084253
 20
-37.8114434631
 10
22.8903559876
 20
-37.7726774805
 10
22.8807689027
 20
-37.7326151594
 10
22.8711370181
 20
-37.6912027034
 10
22.8614735804
 20
-37.6484835213
 10
22.8517735733
 20
-37.6044172109
 10
22.8420012575
 20
-37.5588235759
 10
22.8321622278
 20
-37.5117030532
 10
22.8222626429
 20
-37.4630551623
 10
22.8122708472
 20
-37.4126968502
 10
22.8021932292
 20
-37.3606260874
 10
22.7920373287
 20
-37.3068432865
 10
22.7817758111
 20
-37.2511681342
 10
22.7714157485
 20
-37.19359779
 10
22.7609654505
 20
-37.1341326637
 10
22.7504014447
 20
-37.0725968276
 10
22.7397338084
 20
-37.0090024374
 10
22.728968685
 20
-36.9433346174
 10
22.7180786951
 20
-36.8753764882
 10
22.7070778994
 20
-36.8051617953
 10
22.6959698248
 20
-36.73265367
 10
22.6847143579
 20
-36.6575284898
 10
22.6733223643
 20
-36.5797890658
 10
22.6618038861
 20
-36.4994283995
 10
22.6501213229
 20
-36.416107154
 10
22.6382864002
 20
-36.3298241264
 10
22.6263111714
 20
-36.2405757557
 10
22.6141619724
 20
-36.1480184393
 10
22.6018533257
 20
-36.0521630992
 10
22.5893969907
 20
-35.9529938556
 10
22.5767585656
 20
-35.8501263271
 10
22.5639584449
 20
-35.743609254
 10
22.5510053614
 20
-35.6333888426
 10
22.5378519823
 20
-35.5189260875
 10
22.5245140245
 20
-35.4002075912
 10
22.5110104789
 20
-35.2772410136
 10
22.497304079
 20
-35.1495181145
 10
22.4833982223
 20
-35.0168833523
 10
22.4693297165
 20
-34.8794863505
 10
22.4551128341
 20
-34.7372770682
 10
22.4407785222
 20
-34.5903824972
 10
22.4263335691
 20
-34.4386720122
 10
22.4117569181
 20
-34.281709856
 10
22.3970834829
 20
-34.119649419
 10
22.3823212213
 20
-33.9523341064
 10
22.3674155335
 20
-33.778862605
 10
22.3523960766
 20
-33.5992622186
 10
22.3372892981
 20
-33.4135017948
 10
22.3220466891
 20
-33.2205912927
 10
22.3067141642
 20
-33.0206745976
 10
22.2913171845
 20
-32.8136041953
 10
22.2757917758
 20
-32.5979517634
 10
22.2601806632
 20
-32.3736490511
 10
22.2445391389
 20
-32.1407608343
 10
22.2288404445
 20
-31.8980575179
 10
22.213153963
 20
-31.6456715629
 10
22.1975367336
 20
-31.383469573
 10
22.1819660704
 20
-31.1098230336
 10
22.1665236196
 20
-30.8247024887
 10
22.1513014556
 20
-30.5281406289
 10
22.1363219946
 20
-30.218602944
 10
22.1216964719
 20
-29.8960537002
 10
22.1075509792
 20
-29.5605403842
 10
22.0939649301
 20
-29.2106558868
 10
22.0809280167
 20
-28.8414760501
 10
22.0688165031
 20
-28.4579533391
 10
22.0581647628
 20
-28.0734994379
 10
22.0490722643
 20
-27.6909263083
 10
22.0415060961
 20
-27.3074616496
 10
22.035588421
 20
-26.9281370321
 10
22.0313274369
 20
-26.5546398525
 10
22.0286956298
 20
-26.1853214675
 10
22.0276966839
 20
-25.8202046207
  0
LWPOLYLINE
  5
35C
100
AcDbEntity
  8
RACCORDO
100
AcDbPolyline
 62
250
  6
CONTINUOUS
 90
91
 70
0
 10
-22.8985953545
 20
38.4472634921
 10
-22.8818526161
 20
38.4301054725
 10
-22.8651024043
 20
38.4120640819
 10
-22.8483447189
 20
38.3931393414
 10
-22.8316248823
 20
38.3733989415
 10
-22.8148975721
 20
38.3527752358
 10
-22.7980268219
 20
38.3310652471
 10
-22.7809937629
 20
38.3082676027
 10
-22.7638172638
 20
38.2843837408
 10
-22.7464179639
 20
38.2592149155
 10
-22.7287713552
 20
38.2327355741
 10
-22.7109019457
 20
38.2049713622
 10
-22.6928038993
 20
38.1758003463
 10
-22.6744472342
 20
38.1451658308
 10
-22.6558619321
 20
38.1131246336
 10
-22.6371321015
 20
38.0797250989
 10
-22.6182636304
 20
38.044961317
 10
-22.5992506309
 20
38.0088393365
 10
-22.580159547
 20
37.9714254389
 10
-22.5610138543
 20
37.9327596264
 10
-22.5417900773
 20
37.89280205
 10
-22.5224842338
 20
37.8514992187
 10
-22.5031120368
 20
37.8088927415
 10
-22.4836577733
 20
37.764941193
 10
-22.4640703218
 20
37.7194665533
 10
-22.4443452553
 20
37.6724707052
 10
-22.4244870007
 20
37.6239520055
 10
-22.404457718
 20
37.5737271791
 10
-22.384253358
 20
37.5217960314
 10
-22.3638779699
 20
37.4681590658
 10
-22.343305861
 20
37.4126340959
 10
-22.3225335451
 20
37.3552198051
 10
-22.3015645084
 20
37.2959179049
 10
-22.2803835178
 20
37.2345507999
 10
-22.2589925662
 20
37.1711331298
 10
-22.2373896605
 20
37.1056507546
 10
-22.2155535884
 20
37.0378829724
 10
-22.1934911361
 20
36.9678652979
 10
-22.1711955172
 20
36.8955628562
 10
-22.1486251604
 20
36.8206494556
 10
-22.1257763331
 20
36.7431307935
 10
-22.1026527678
 20
36.6630020241
 10
-22.0792240902
 20
36.5799212717
 10
-22.0554858872
 20
36.4938907559
 10
-22.031442572
 20
36.4049093832
 10
-22.0070770102
 20
36.312630472
 10
-21.9823879633
 20
36.2170690132
 10
-21.9573766698
 20
36.1182114934
 10
-21.9320297107
 20
36.0156686836
 10
-21.9063532075
 20
35.9094944143
 10
-21.8803410387
 20
35.7996367974
 10
-21.8539614199
 20
35.6855483305
 10
-21.8272041037
 20
35.5672201484
 10
-21.8000793376
 20
35.4446637632
 10
-21.772586079
 20
35.317362649
 10
-21.7446877685
 20
35.1851620857
 10
-21.7164209655
 20
35.0482203654
 10
-21.6878943053
 20
34.9064908188
 10
-21.6591315009
 20
34.760110986
 10
-21.6301088394
 20
34.60894761
 10
-21.6008638174
 20
34.4525482271
 10
-21.5714118418
 20
34.2910654485
 10
-21.5417375059
 20
34.1243522194
 10
-21.5118320858
 20
33.9515074534
 10
-21.4816823877
 20
33.7725676238
 10
-21.4513016055
 20
33.5875039782
 10
-21.4207205969
 20
33.3953189679
 10
-21.3899360121
 20
33.1961662784
 10
-21.3589512008
 20
32.9899028674
 10
-21.3278070705
 20
32.7750881868
 10
-21.2964596346
 20
32.5516605137
 10
-21.2649528798
 20
32.3196970142
 10
-21.2334596731
 20
32.0779683042
 10
-21.2019528643
 20
31.8266267506
 10
-21.1704596036
 20
31.5655413838
 10
-21.1392342101
 20
31.2930616845
 10
-21.1082092474
 20
31.0091707933
 10
-21.0774521518
 20
30.713916299
 10
-21.047419551
 20
30.405749707
 10
-21.0180212349
 20
30.0846461357
 10
-20.9893474136
 20
29.7506736534
 10
-20.9621253445
 20
29.4024298032
 10
-20.9361012836
 20
29.0350162559
 10
-20.9115289749
 20
28.6533969893
 10
-20.8898969081
 20
28.2709438147
 10
-20.8715932511
 20
27.8904327849
 10
-20.8562298359
 20
27.5091024732
 10
-20.8441306485
 20
27.1319834958
 10
-20.8354036841
 20
26.7607470647
 10
-20.8299409474
 20
26.3937164047
 10
-20.8277424384
 20
26.0308893819
  0
LINE
  5
35D
100
AcDbEntity
  8
0
100
AcDbLine
 62
7
  6
CONTINUOUS
 10
27.031954
 20
-31.099944
 11
27.930978
 21
-33.900077
  0
LWPOLYLINE
  5
35E
100
AcDbEntity
  8
RACCORDO
100
AcDbPolyline
 62
250
  6
CONTINUOUS
 90
53
 70
0
 10
22.0111912902
 20
-22.2843986261
 10
22.0110842354
 20
-22.2832376553
 10
22.01097807
 20
-22.2821405056
 10
22.0108727909
 20
-22.2811069515
 10
22.0107684011
 20
-22.2801372186
 10
22.0106648606
 20
-22.2792255632
 10
22.010562162
 20
-22.2783717776
 10
22.0104603126
 20
-22.2775760695
 10
22.0103592944
 20
-22.2768333189
 10
22.0102591088
 20
-22.2761434201
 10
22.0101597544
 20
-22.2755064787
 10
22.0100612095
 20
-22.2749176917
 10
22.0099634756
 20
-22.2743769554
 10
22.0098665513
 20
-22.2738843735
 10
22.0097704102
 20
-22.2734354537
 10
22.0096750521
 20
-22.2730300885
 10
22.0095804773
 20
-22.2726683854
 10
22.0094866609
 20
-22.2723461751
 10
22.009393602
 20
-22.2720633604
 10
22.0093013015
 20
-22.2718200385
 10
22.0092097373
 20
-22.2716123316
 10
22.0091189089
 20
-22.2714401544
 10
22.0090288169
 20
-22.2713035923
 10
22.0089394398
 20
-22.2711990231
 10
22.0088507779
 20
-22.2711263688
 10
22.008762831
 20
-22.2710857074
 10
22.0086755774
 20
-22.2710736513
 10
22.0085890169
 20
-22.2710901276
 10
22.0085031497
 20
-22.2711352092
 10
22.0084179546
 20
-22.2712057274
 10
22.0083334303
 20
-22.2713016178
 10
22.0082495781
 20
-22.2714229449
 10
22.0081663805
 20
-22.2715667337
 10
22.0080838374
 20
-22.2717329244
 10
22.0080019488
 20
-22.2719215768
 10
22.0079206972
 20
-22.2721298954
 10
22.0078400835
 20
-22.2723578202
 10
22.0077601066
 20
-22.2726054112
 10
22.0076807466
 20
-22.2728700537
 10
22.0076020024
 20
-22.2731516957
 10
22.007523875
 20
-22.2734503892
 10
22.0074463466
 20
-22.2737636749
 10
22.0073694165
 20
-22.274091506
 10
22.0072930853
 20
-22.2744339294
 10
22.0072173372
 20
-22.2747886272
 10
22.0071421725
 20
-22.2751555516
 10
22.0070675909
 20
-22.2755347504
 10
22.0069935761
 20
-22.2759240486
 10
22.0069201284
 20
-22.2763233994
 10
22.0068472475
 20
-22.2767328495
 10
22.0067749161
 20
-22.2771503645
 10
22.0067031343
 20
-22.2775759005
 10
22.0065612015
 20
-22.2784492643
  0
LINE
  5
35F
100
AcDbEntity
  8
RACCORDO
100
AcDbLine
 62
250
  6
CONTINUOUS
 10
22.0114082388
 20
-22.2869313991
 11
22.0111912902
 21
-22.2843986261
  0
LWPOLYLINE
  5
360
100
AcDbEntity
  8
RACCORDO
100
AcDbPolyline
 62
250
  6
CONTINUOUS
 90
3
 70
0
 10
22.0117407171
 20
-22.2912762413
 10
22.0116289489
 20
-22.2897513457
 10
22.0114082388
 20
-22.2869313991
  0
LINE
  5
361
100
AcDbEntity
  8
RACCORDO
100
AcDbLine
 62
250
  6
CONTINUOUS
 10
22.0115183065
 20
22.2883054453
 11
22.0117408433
 21
22.2912779847
  0
LINE
  5
362
100
AcDbEntity
  8
0
100
AcDbLine
 62
7
  6
CONTINUOUS
 10
37.776058
 20
-32.81738
 11
38.337269
 21
-33.900063
  0
LINE
  5
363
100
AcDbEntity
  8
0
100
AcDbLine
 62
7
  6
CONTINUOUS
 10
38.3719317907
 20
-32.7500306669
 11
38.968046
 21
-33.900056
  0
LINE
  5
364
100
AcDbEntity
  8
0
100
AcDbLine
 62
7
  6
CONTINUOUS
 10
27.591982
 20
-31.099944
 11
28.211006
 21
-33.027982
  0
LWPOLYLINE
  5
365
100
AcDbEntity
  8
RACCORDO
100
AcDbPolyline
 62
250
  6
CONTINUOUS
 90
70
 70
0
 10
22.0232907196
 20
23.2099392933
 10
22.0227510835
 20
23.2154857551
 10
22.0215966179
 20
23.2210296184
 10
22.019827914
 20
23.2265680406
 10
22.017445878
 20
23.2320982574
 10
22.0144517305
 20
23.2376173585
 10
22.0108470063
 20
23.2431222888
 10
22.0066335535
 20
23.2486101532
 10
22.0018135318
 20
23.2540782118
 10
21.996389412
 20
23.2595236562
 10
21.9903639745
 20
23.2649436948
 10
21.983740308
 20
23.2703355494
 10
21.976521808
 20
23.275696452
 10
21.9687121746
 20
23.2810236542
 10
21.9603154112
 20
23.2863144256
 10
21.9513358219
 20
23.2915660511
 10
21.9417780099
 20
23.2967758383
 10
21.9316468745
 20
23.301941117
 10
21.920947609
 20
23.3070592374
 10
21.9096856981
 20
23.3121275756
 10
21.8978669146
 20
23.3171435338
 10
21.8854973169
 20
23.3221045397
 10
21.8725832459
 20
23.32700805
 10
21.8591313214
 20
23.3318515513
 10
21.8451484389
 20
23.3366325602
 10
21.8306417663
 20
23.3413486258
 10
21.8156187398
 20
23.3459973307
 10
21.8000870603
 20
23.350576291
 10
21.7840546895
 20
23.3550831595
 10
21.7675298458
 20
23.3595156259
 10
21.7505209999
 20
23.3638714169
 10
21.7330368706
 20
23.3681482997
 10
21.7150864207
 20
23.372344082
 10
21.6966788515
 20
23.3764566116
 10
21.6778235991
 20
23.3804837804
 10
21.6585303287
 20
23.3844235241
 10
21.6388089302
 20
23.3882738224
 10
21.6186695131
 20
23.3920327012
 10
21.598122401
 20
23.3956982341
 10
21.5771781266
 20
23.3992685418
 10
21.5558474259
 20
23.402741794
 10
21.5341412335
 20
23.4061162106
 10
21.512070676
 20
23.409390062
 10
21.489647067
 20
23.41256167
 10
21.4668819011
 20
23.4156294089
 10
21.4437868479
 20
23.4185917069
 10
21.4203737461
 20
23.4214470454
 10
21.3966545976
 20
23.4241939608
 10
21.3726415609
 20
23.4268310463
 10
21.3483469454
 20
23.42935695
 10
21.3237832047
 20
23.4317703771
 10
21.2989629304
 20
23.4340700919
 10
21.2738988456
 20
23.4362549155
 10
21.2486037984
 20
23.4383237279
 10
21.2230907553
 20
23.4402754701
 10
21.1973727944
 20
23.4421091416
 10
21.1714630991
 20
23.4438238024
 10
21.1453749509
 20
23.4454185748
 10
21.1191217227
 20
23.4468926413
 10
21.0927168724
 20
23.4482452462
 10
21.0661739351
 20
23.4494756971
 10
21.0395065172
 20
23.4505833633
 10
21.0127282885
 20
23.451567677
 10
20.9858529757
 20
23.4524281339
 10
20.9588943556
 20
23.4531642931
 10
20.9318662472
 20
23.4537757771
 10
20.9047825053
 20
23.4542622721
 10
20.8776570135
 20
23.4546235287
 10
20.8505036764
 20
23.4548593619
 10
20.823336413
 20
23.4549696508
  0
LINE
  5
366
100
AcDbEntity
  8
RACCORDO
100
AcDbLine
 62
250
  6
CONTINUOUS
 10
22.0119669162
 20
-22.2945599344
 11
22.0117407171
 21
-22.2912762413
  0
LINE
  5
367
100
AcDbEntity
  8
RACCORDO
100
AcDbLine
 62
250
  6
CONTINUOUS
 10
22.0121964647
 20
-22.2981702295
 11
22.0119669162
 21
-22.2945599344
  0
LINE
  5
368
100
AcDbEntity
  8
RACCORDO
100
AcDbLine
 62
250
  6
CONTINUOUS
 10
22.0125458484
 20
-22.3042147294
 11
22.0121964647
 21
-22.2981702295
  0
LINE
  5
369
100
AcDbEntity
  8
RACCORDO
100
AcDbLine
 62
250
  6
CONTINUOUS
 10
22.0128970926
 20
-22.3109741181
 11
22.0125458484
 21
-22.3042147294
  0
LINE
  5
36A
100
AcDbEntity
  8
RACCORDO
100
AcDbLine
 62
250
  6
CONTINUOUS
 10
22.0133584858
 20
-22.3209249485
 11
22.0128970926
 21
-22.3109741181
  0
LINE
  5
36B
100
AcDbEntity
  8
RACCORDO
100
AcDbLine
 62
250
  6
CONTINUOUS
 10
22.0138091203
 20
-22.3318620759
 11
22.0133584858
 21
-22.3209249485
  0
LINE
  5
36C
100
AcDbEntity
  8
RACCORDO
100
AcDbLine
 62
250
  6
CONTINUOUS
 10
22.0143578959
 20
-22.3468763593
 11
22.0138091203
 21
-22.3318620759
  0
LINE
  5
36D
100
AcDbEntity
  8
RACCORDO
100
AcDbLine
 62
250
  6
CONTINUOUS
 10
22.0150988663
 20
-22.3702671751
 11
22.0143578959
 21
-22.3468763593
  0
LINE
  5
36E
100
AcDbEntity
  8
RACCORDO
100
AcDbLine
 62
250
  6
CONTINUOUS
 10
22.0160033518
 20
-22.4040677847
 11
22.0150988663
 21
-22.3702671751
  0
LINE
  5
36F
100
AcDbEntity
  8
RACCORDO
100
AcDbLine
 62
250
  6
CONTINUOUS
 10
22.0171208743
 20
-22.4547763541
 11
22.0160033518
 21
-22.4040677847
  0
LWPOLYLINE
  5
370
100
AcDbEntity
  8
RACCORDO
100
AcDbPolyline
 62
250
  6
CONTINUOUS
 90
46
 70
0
 10
22.0028636757
 20
22.3000000001
 10
22.0027418458
 20
22.3069798994
 10
22.0023765043
 20
22.3139512948
 10
22.0017680965
 20
22.3209056927
 10
22.0009173636
 20
22.3278346203
 10
21.999825342
 20
22.3347296356
 10
21.9984933623
 20
22.3415823382
 10
21.9969230472
 20
22.3483843792
 10
21.9951163099
 20
22.3551274712
 10
21.9930753517
 20
22.361803399
 10
21.9908026592
 20
22.3684040287
 10
21.9883010012
 20
22.3749213188
 10
21.9855734256
 20
22.3813473287
 10
21.9826232557
 20
22.3876742294
 10
21.9794540857
 20
22.3938943126
 10
21.9760697768
 20
22.4000000001
 10
21.9724744521
 20
22.4059838529
 10
21.9686724922
 20
22.4118385808
 10
21.964668529
 20
22.4175570505
 10
21.9604674408
 20
22.4231322951
 10
21.956074346
 20
22.428557522
 10
21.9514945969
 20
22.4338261214
 10
21.9467337731
 20
22.4389316742
 10
21.9417976751
 20
22.4438679602
 10
21.9366923167
 20
22.4486289652
 10
21.931423918
 20
22.4532088887
 10
21.9259988977
 20
22.4576021508
 10
21.9204238654
 20
22.461803399
 10
21.9147056133
 20
22.4658075146
 10
21.9088511084
 20
22.4696096193
 10
21.9028674834
 20
22.4732050808
 10
21.8967620285
 20
22.4765895187
 10
21.8905421821
 20
22.4797588093
 10
21.8842155223
 20
22.4827090916
 10
21.877789757
 20
22.485436771
 10
21.8712727152
 20
22.4879385242
 10
21.8646723367
 20
22.4902113033
 10
21.8579966632
 20
22.4922523393
 10
21.8512538279
 20
22.4940591453
 10
21.844452046
 20
22.4956295202
 10
21.8375996043
 20
22.4969615507
 10
21.8307048515
 20
22.4980536138
 10
21.8237761877
 20
22.4989043792
 10
21.8168220546
 20
22.4995128101
 10
21.8098509247
 20
22.4998781655
 10
21.8028712911
 20
22.5000000001
  0
LINE
  5
371
100
AcDbEntity
  8
RACCORDO
100
AcDbLine
 62
250
  6
CONTINUOUS
 10
22.0185226215
 20
-22.535187135
 11
22.0171208743
 21
-22.4547763541
  0
LINE
  5
372
100
AcDbEntity
  8
RACCORDO
100
AcDbLine
 62
250
  6
CONTINUOUS
 10
22.0196450935
 20
-22.6170658048
 11
22.0185226215
 21
-22.535187135
  0
LWPOLYLINE
  5
373
100
AcDbEntity
  8
RACCORDO
100
AcDbPolyline
 62
250
  6
CONTINUOUS
 90
43
 70
0
 10
20.8233364133
 20
23.4549696425
 10
20.8234427114
 20
23.4455134305
 10
20.8238592999
 20
23.4360148552
 10
20.8245861789
 20
23.4264748581
 10
20.825613648
 20
23.416914942
 10
20.8269514074
 20
23.4073154762
 10
20.8286285588
 20
23.3976161148
 10
20.8306368656
 20
23.3878230314
 10
20.8329845642
 20
23.3779329758
 10
20.8357254652
 20
23.3678724616
 10
20.8388485064
 20
23.3576503472
 10
20.8423647499
 20
23.3472622594
 10
20.8463611923
 20
23.3366163484
 10
20.8508253002
 20
23.325721153
 10
20.8557696071
 20
23.3145751662
 10
20.8613187097
 20
23.3030736498
 10
20.8674773524
 20
23.2912020874
 10
20.8742407909
 20
23.2789861574
 10
20.8817193891
 20
23.2663836546
 10
20.8899212869
 20
23.2533951995
 10
20.8988383443
 20
23.2400351882
 10
20.9085565051
 20
23.2262838799
 10
20.9190818423
 20
23.2121546583
 10
20.9304082829
 20
23.1976534926
 10
20.9426035519
 20
23.1827516643
 10
20.9556725004
 20
23.1674689665
 10
20.9696102773
 20
23.1518109299
 10
20.9844700552
 20
23.1357308237
 10
21.000245017
 20
23.1192648242
 10
21.0169419798
 20
23.102410628
 10
21.0346345668
 20
23.0850701453
 10
21.053318764
 20
23.0672849825
 10
21.0729985855
 20
23.0490625735
 10
21.0937596957
 20
23.0302652364
 10
21.1156082868
 20
23.0109439933
 10
21.1385381667
 20
22.9911221327
 10
21.1626164238
 20
22.9706395073
 10
21.1880956592
 20
22.9493639292
 10
21.2147232717
 20
22.9275501766
 10
21.2418085466
 20
22.9056138904
 10
21.2695657599
 20
22.883412255
 10
21.2977806355
 20
22.8611946968
 10
21.3511484979
 20
22.8197498018
  0
LINE
  5
374
100
AcDbEntity
  8
RACCORDO
100
AcDbLine
 62
250
  6
CONTINUOUS
 10
22.020195584
 20
-22.6647871975
 11
22.0196450935
 21
-22.6170658048
  0
LINE
  5
375
100
AcDbEntity
  8
RACCORDO
100
AcDbLine
 62
250
  6
CONTINUOUS
 10
22.0204775222
 20
-22.6916556637
 11
22.020195584
 21
-22.6647871975
  0
LINE
  5
376
100
AcDbEntity
  8
RACCORDO
100
AcDbLine
 62
250
  6
CONTINUOUS
 10
22.0207430545
 20
-22.7187198808
 11
22.0204775222
 21
-22.6916556637
  0
LINE
  5
377
100
AcDbEntity
  8
RACCORDO
100
AcDbLine
 62
250
  6
CONTINUOUS
 10
22.0208947547
 20
-22.7350390179
 11
22.0207430545
 21
-22.7187198808
  0
LINE
  5
378
100
AcDbEntity
  8
RACCORDO
100
AcDbLine
 62
250
  6
CONTINUOUS
 10
22.0210409047
 20
-22.7514119091
 11
22.0208947547
 21
-22.7350390179
  0
LINE
  5
379
100
AcDbEntity
  8
RACCORDO
100
AcDbLine
 62
250
  6
CONTINUOUS
 10
22.021181637
 20
-22.7678338601
 11
22.0210409047
 21
-22.7514119091
  0
LINE
  5
37A
100
AcDbEntity
  8
RACCORDO
100
AcDbLine
 62
250
  6
CONTINUOUS
 10
22.021317082
 20
-22.7843008295
 11
22.021181637
 21
-22.7678338601
  0
LINE
  5
37B
100
AcDbEntity
  8
RACCORDO
100
AcDbLine
 62
250
  6
CONTINUOUS
 10
22.0214473672
 20
-22.8008094483
 11
22.021317082
 21
-22.7843008295
  0
LINE
  5
37C
100
AcDbEntity
  8
RACCORDO
100
AcDbLine
 62
250
  6
CONTINUOUS
 10
22.0215314233
 20
-22.8118370206
 11
22.0214473672
 21
-22.8008094483
  0
LINE
  5
37D
100
AcDbEntity
  8
RACCORDO
100
AcDbLine
 62
250
  6
CONTINUOUS
 10
22.0216533901
 20
-22.828409973
 11
22.0215314233
 21
-22.8118370206
  0
LINE
  5
37E
100
AcDbEntity
  8
RACCORDO
100
AcDbLine
 62
250
  6
CONTINUOUS
 10
22.0217320116
 20
-22.8394791833
 11
22.0216533901
 21
-22.828409973
  0
LINE
  5
37F
100
AcDbEntity
  8
RACCORDO
100
AcDbLine
 62
250
  6
CONTINUOUS
 10
22.021846003
 20
-22.8561133472
 11
22.0217320116
 21
-22.8394791833
  0
LINE
  5
380
100
AcDbEntity
  8
RACCORDO
100
AcDbLine
 62
250
  6
CONTINUOUS
 10
22.0219194168
 20
-22.8672228518
 11
22.021846003
 21
-22.8561133472
  0
LINE
  5
381
100
AcDbEntity
  8
RACCORDO
100
AcDbLine
 62
250
  6
CONTINUOUS
 10
22.0219908085
 20
-22.878348241
 11
22.0219194168
 21
-22.8672228518
  0
LINE
  5
382
100
AcDbEntity
  8
RACCORDO
100
AcDbLine
 62
250
  6
CONTINUOUS
 10
22.0220602015
 20
-22.889489471
 11
22.0219908085
 21
-22.878348241
  0
LINE
  5
383
100
AcDbEntity
  8
RACCORDO
100
AcDbLine
 62
250
  6
CONTINUOUS
 10
22.0221276306
 20
-22.9006465742
 11
22.0220602015
 21
-22.889489471
  0
LINE
  5
384
100
AcDbEntity
  8
RACCORDO
100
AcDbLine
 62
250
  6
CONTINUOUS
 10
22.0221931264
 20
-22.911819365
 11
22.0221276306
 21
-22.9006465742
  0
LINE
  5
385
100
AcDbEntity
  8
RACCORDO
100
AcDbLine
 62
250
  6
CONTINUOUS
 10
22.0222567103
 20
-22.9230079437
 11
22.0221931264
 21
-22.911819365
  0
LINE
  5
386
100
AcDbEntity
  8
RACCORDO
100
AcDbLine
 62
250
  6
CONTINUOUS
 10
22.0223184116
 20
-22.9342120937
 11
22.0222567103
 21
-22.9230079437
  0
LINE
  5
387
100
AcDbEntity
  8
RACCORDO
100
AcDbLine
 62
250
  6
CONTINUOUS
 10
22.0223782793
 20
-22.945435966
 11
22.0223184116
 21
-22.9342120937
  0
LINE
  5
388
100
AcDbEntity
  8
RACCORDO
100
AcDbLine
 62
250
  6
CONTINUOUS
 10
22.0224363419
 20
-22.9566818663
 11
22.0223782793
 21
-22.945435966
  0
LINE
  5
389
100
AcDbEntity
  8
RACCORDO
100
AcDbLine
 62
250
  6
CONTINUOUS
 10
22.0224926452
 20
-22.9679543522
 11
22.0224363419
 21
-22.9566818663
  0
LINE
  5
38A
100
AcDbEntity
  8
RACCORDO
100
AcDbLine
 62
250
  6
CONTINUOUS
 10
22.0225471979
 20
-22.9792513593
 11
22.0224926452
 21
-22.9679543522
  0
LINE
  5
38B
100
AcDbEntity
  8
RACCORDO
100
AcDbLine
 62
250
  6
CONTINUOUS
 10
22.0226000003
 20
-22.9905700496
 11
22.0225471979
 21
-22.9792513593
  0
LINE
  5
38C
100
AcDbEntity
  8
RACCORDO
100
AcDbLine
 62
250
  6
CONTINUOUS
 10
22.022651038
 20
-23.0019029083
 11
22.0226000003
 21
-22.9905700496
  0
LWPOLYLINE
  5
38D
100
AcDbEntity
  8
RACCORDO
100
AcDbPolyline
 62
250
  6
CONTINUOUS
 90
3
 70
0
 10
22.0227242726
 20
-23.0189142471
 10
22.0227003045
 20
-23.013242675
 10
22.022651038
 20
-23.0019029083
  0
LINE
  5
38E
100
AcDbEntity
  8
RACCORDO
100
AcDbLine
 62
250
  6
CONTINUOUS
 10
22.0227708782
 20
-23.0302538202
 11
22.0227242726
 21
-23.0189142471
  0
LINE
  5
38F
100
AcDbEntity
  8
RACCORDO
100
AcDbLine
 62
250
  6
CONTINUOUS
 10
22.0228157137
 20
-23.0415870737
 11
22.0227708782
 21
-23.0302538202
  0
LWPOLYLINE
  5
390
100
AcDbEntity
  8
RACCORDO
100
AcDbPolyline
 62
250
  6
CONTINUOUS
 90
3
 70
0
 10
22.0228796761
 20
-23.0585647113
 10
22.0228587909
 20
-23.0529091944
 10
22.0228157137
 20
-23.0415870737
  0
LINE
  5
391
100
AcDbEntity
  8
RACCORDO
100
AcDbLine
 62
250
  6
CONTINUOUS
 10
22.0229201444
 20
-23.0698632247
 11
22.0228796761
 21
-23.0585647113
  0
LINE
  5
392
100
AcDbEntity
  8
RACCORDO
100
AcDbLine
 62
250
  6
CONTINUOUS
 10
22.022958895
 20
-23.0811405864
 11
22.0229201444
 21
-23.0698632247
  0
LWPOLYLINE
  5
393
100
AcDbEntity
  8
RACCORDO
100
AcDbPolyline
 62
250
  6
CONTINUOUS
 90
3
 70
0
 10
22.0230138382
 20
-23.0980120251
 10
22.0229959433
 20
-23.0923948005
 10
22.022958895
 20
-23.0811405864
  0
LINE
  5
394
100
AcDbEntity
  8
RACCORDO
100
AcDbLine
 62
250
  6
CONTINUOUS
 10
22.0230483873
 20
-23.1092292901
 11
22.0230138382
 21
-23.0980120251
  0
LWPOLYLINE
  5
395
100
AcDbEntity
  8
RACCORDO
100
AcDbPolyline
 62
250
  6
CONTINUOUS
 90
3
 70
0
 10
22.023097197
 20
-23.1260200923
 10
22.0230813217
 20
-23.1204269
 10
22.0230483873
 20
-23.1092292901
  0
LINE
  5
396
100
AcDbEntity
  8
RACCORDO
100
AcDbLine
 62
250
  6
CONTINUOUS
 10
22.0231277788
 20
-23.1371968518
 11
22.023097197
 21
-23.1260200923
  0
LWPOLYLINE
  5
397
100
AcDbEntity
  8
RACCORDO
100
AcDbPolyline
 62
250
  6
CONTINUOUS
 90
3
 70
0
 10
22.0231708013
 20
-23.1539483732
 10
22.0231568381
 20
-23.148366006
 10
22.0231277788
 20
-23.1371968518
  0
LWPOLYLINE
  5
398
100
AcDbEntity
  8
RACCORDO
100
AcDbPolyline
 62
250
  6
CONTINUOUS
 90
3
 70
0
 10
22.0232104957
 20
-23.1707001259
 10
22.0231976302
 20
-23.1651154331
 10
22.0231708013
 20
-23.1539483732
  0
LINE
  5
399
100
AcDbEntity
  8
RACCORDO
100
AcDbLine
 62
250
  6
CONTINUOUS
 10
22.0232351646
 20
-23.1818820788
 11
22.0232104957
 21
-23.1707001259
  0
LWPOLYLINE
  5
39A
100
AcDbEntity
  8
RACCORDO
100
AcDbPolyline
 62
250
  6
CONTINUOUS
 90
3
 70
0
 10
22.0232695355
 20
-23.1986945335
 10
22.0232584241
 20
-23.1930832121
 10
22.0232351646
 20
-23.1818820788
  0
LWPOLYLINE
  5
39B
100
AcDbEntity
  8
RACCORDO
100
AcDbPolyline
 62
250
  6
CONTINUOUS
 90
3
 70
0
 10
20.8248788138
 20
-24.3119454078
 10
20.8241168291
 20
-23.8832410887
 10
20.823336413
 20
-23.4549696424
  0
LINE
  5
39C
100
AcDbEntity
  8
RACCORDO
100
AcDbLine
 62
250
  6
CONTINUOUS
 10
22.0232907167
 20
-23.2099370161
 11
22.0232695355
 21
-23.1986945335
  0
LWPOLYLINE
  5
39D
100
AcDbEntity
  8
RACCORDO
100
AcDbPolyline
 62
250
  6
CONTINUOUS
 90
3
 70
0
 10
22.0248330638
 20
-24.078320912
 10
22.0240710991
 20
-23.6439158013
 10
22.0232907167
 20
-23.2099370161
  0
LWPOLYLINE
  5
39E
100
AcDbEntity
  8
RACCORDO
100
AcDbPolyline
 62
250
  6
CONTINUOUS
 90
4
 70
0
 10
20.8277424384
 20
-26.0308893817
 10
20.8270541794
 20
-25.6005546138
 10
20.8263474889
 20
-25.1706122801
 10
20.8248788138
 20
-24.3119454078
  0
LWPOLYLINE
  5
39F
100
AcDbEntity
  8
RACCORDO
100
AcDbPolyline
 62
250
  6
CONTINUOUS
 90
4
 70
0
 10
22.0276967461
 20
-25.8202046098
 10
22.027008452
 20
-25.3840941971
 10
22.0263017403
 20
-24.94841011
 10
22.0248330638
 20
-24.078320912
  0
LWPOLYLINE
  5
3A0
100
AcDbEntity
  8
RACCORDO
100
AcDbPolyline
 62
250
  6
CONTINUOUS
 90
4
 70
0
 10
23.2225662534
 20
33.7180852716
 10
23.221649596
 20
34.941124438
 10
23.2207002942
 20
36.1638344982
 10
23.2187037326
 20
38.6082212622
  0
LINE
  5
3A1
100
AcDbEntity
  8
RACCORDO
100
AcDbLine
 62
250
  6
CONTINUOUS
 10
22.0283312041
 20
24.6741246186
 11
22.0276967461
 21
25.8202046104
  0
LWPOLYLINE
  5
3A2
100
AcDbEntity
  8
RACCORDO
100
AcDbPolyline
 62
250
  6
CONTINUOUS
 90
5
 70
0
 10
23.2280679157
 20
25.1485648072
 10
23.2273800455
 20
26.3735848295
 10
23.2266594754
 20
27.5983564682
 10
23.2259062045
 20
28.8228681888
 10
23.2225662534
 20
33.7180852716
  0
LWPOLYLINE
  5
3A3
100
AcDbEntity
  8
RACCORDO
100
AcDbPolyline
 62
250
  6
CONTINUOUS
 90
3
 70
0
 10
22.0315328718
 20
17.7937949688
 10
22.0305809219
 20
20.0879296948
 10
22.0283312041
 20
24.6741246186
  0
LWPOLYLINE
  5
3A4
100
AcDbEntity
  8
RACCORDO
100
AcDbPolyline
 62
250
  6
CONTINUOUS
 90
3
 70
0
 10
23.2310164224
 20
19.0201428095
 10
23.2304921839
 20
20.2462316531
 10
23.2280679157
 20
25.1485648072
  0
LWPOLYLINE
  5
3A5
100
AcDbEntity
  8
RACCORDO
100
AcDbPolyline
 62
250
  6
CONTINUOUS
 90
3
 70
0
 10
22.033956417
 20
9.7601484189
 10
22.0330908015
 20
13.2038127702
 10
22.0315328718
 20
17.7937949688
  0
LWPOLYLINE
  5
3A6
100
AcDbEntity
  8
RACCORDO
100
AcDbPolyline
 62
250
  6
CONTINUOUS
 90
3
 70
0
 10
23.2340313186
 20
9.2059536641
 10
23.2331464224
 20
12.8872426378
 10
23.2310164224
 20
19.0201428095
  0
LINE
  5
3A7
100
AcDbEntity
  8
RACCORDO
100
AcDbLine
 62
7
  6
CONTINUOUS
 10
22.0
 20
22.3000000001
 11
22.0
 21
-22.3
  0
LINE
  5
3A8
100
AcDbEntity
  8
RACCORDO
100
AcDbLine
 62
250
  6
CONTINUOUS
 10
22.0348221034
 20
4.0192230311
 11
22.033956417
 21
9.7601484189
  0
LINE
  5
3A9
100
AcDbEntity
  8
RACCORDO
100
AcDbLine
 62
250
  6
CONTINUOUS
 10
23.2347523997
 20
4.2964085017
 11
23.2340313186
 21
9.2059536641
  0
LINE
  5
3AA
100
AcDbEntity
  8
RACCORDO
100
AcDbLine
 62
250
  6
CONTINUOUS
 10
22.0345623907
 20
-6.3157535882
 11
22.0348221034
 21
4.0192230311
  0
LINE
  5
3AB
100
AcDbEntity
  8
RACCORDO
100
AcDbLine
 62
250
  6
CONTINUOUS
 10
23.2344574066
 20
-6.7513080065
 11
23.2347523997
 21
4.2964085017
  0
LINE
  5
3AC
100
AcDbEntity
  8
RACCORDO
100
AcDbLine
 62
250
  6
CONTINUOUS
 10
22.0330908021
 20
-13.2038108965
 11
22.0345623907
 21
-6.3157535882
  0
LINE
  5
3AD
100
AcDbEntity
  8
RACCORDO
100
AcDbLine
 62
250
  6
CONTINUOUS
 10
23.2327859315
 20
-14.1141113859
 11
23.2344574066
 21
-6.7513080065
  0
LWPOLYLINE
  5
3AE
100
AcDbEntity
  8
RACCORDO
100
AcDbPolyline
 62
250
  6
CONTINUOUS
 90
7
 70
0
 10
22.0276967461
 20
-25.8202046098
 10
22.0283312043
 20
-24.6741242664
 10
22.0289368501
 20
-23.5278583946
 10
22.0295136837
 20
-22.3814069942
 10
22.0300617092
 20
-21.2347605585
 10
22.0305809224
 20
-20.0879285943
 10
22.0330908021
 20
-13.2038108965
  0
LWPOLYLINE
  5
3AF
100
AcDbEntity
  8
RACCORDO
100
AcDbPolyline
 62
250
  6
CONTINUOUS
 90
7
 70
0
 10
23.2280679158
 20
-25.1485645647
 10
23.2287230667
 20
-23.9233076951
 10
23.2293454974
 20
-22.6978255183
 10
23.2299352087
 20
-21.4721295761
 10
23.230492184
 20
-20.2462314104
 10
23.2310164225
 20
-19.0201425667
 10
23.2327859315
 20
-14.1141113859
  0
LWPOLYLINE
  5
3B0
100
AcDbEntity
  8
RACCORDO
100
AcDbPolyline
 62
250
  6
CONTINUOUS
 90
6
 70
0
 10
23.2234502583
 20
-32.4947282742
 10
23.2243015854
 20
-31.2710655012
 10
23.2251202338
 20
-30.0471082154
 10
23.2259062046
 20
-28.8228679464
 10
23.2266594755
 20
-27.5983562258
 10
23.2280679158
 20
-25.1485645647
  0
LWPOLYLINE
  5
3B1
100
AcDbEntity
  8
RACCORDO
100
AcDbPolyline
 62
250
  6
CONTINUOUS
 90
5
 70
0
 10
23.2187037326
 20
-38.6082212622
 10
23.2197183398
 20
-37.3862038363
 10
23.2207002943
 20
-36.16383431
 10
23.2216495961
 20
-34.9411241959
 10
23.2234502583
 20
-32.4947282742
  0
LINE
  5
3B2
100
AcDbEntity
  8
RACCORDO
100
AcDbLine
 62
250
  6
CONTINUOUS
 10
20.823336413
 20
23.4549696425
 11
20.8277424384
 21
26.0308893819
  0
LWPOLYLINE
  5
3B3
100
AcDbEntity
  8
RACCORDO
100
AcDbPolyline
 62
250
  6
CONTINUOUS
 90
91
 70
0
 10
22.0276966839
 20
25.8202046208
 10
22.0286936853
 20
26.1849254974
 10
22.031320368
 20
26.5538755862
 10
22.0355734973
 20
26.9270322005
 10
22.0414809737
 20
27.3060394706
 10
22.0490350453
 20
27.6892146887
 10
22.0581143305
 20
28.0715401636
 10
22.0687526101
 20
28.4557984282
 10
22.0808507508
 20
28.8391673778
 10
22.0938744711
 20
29.2082186214
 10
22.1074480367
 20
29.5580002506
 10
22.1215819021
 20
29.8934358747
 10
22.1361959225
 20
30.2159142239
 10
22.1511638516
 20
30.5253820371
 10
22.1663747758
 20
30.8218807999
 10
22.1818061552
 20
31.106943924
 10
22.197365835
 20
31.3805354378
 10
22.2129723992
 20
31.6426880525
 10
22.2286489998
 20
31.8950389674
 10
22.2443392197
 20
32.1377285802
 10
22.2599733729
 20
32.3706173707
 10
22.2755773163
 20
32.5949225171
 10
22.2910954347
 20
32.8105739407
 10
22.3064853979
 20
33.0176451605
 10
22.3218113234
 20
33.2175679361
 10
22.337047923
 20
33.4104909583
 10
22.3521492636
 20
33.5962691139
 10
22.367163745
 20
33.7758922639
 10
22.3820651676
 20
33.9493934967
 10
22.3968237889
 20
34.1167435132
 10
22.4114935527
 20
34.2788375613
 10
22.4260660066
 20
34.4358266607
 10
22.4405067859
 20
34.5875629568
 10
22.4548378598
 20
34.7344928124
 10
22.4690532815
 20
34.8767541335
 10
22.4831215391
 20
35.0142125444
 10
22.4970271093
 20
35.1469067219
 10
22.5107327451
 20
35.2746826634
 10
22.5242355648
 20
35.3977002327
 10
22.5375728755
 20
35.5164694152
 10
22.5507256672
 20
35.6309820804
 10
22.5636783669
 20
35.741252022
 10
22.5764785294
 20
35.8478213354
 10
22.589117607
 20
35.9507448985
 10
22.6015752066
 20
36.0499727851
 10
22.6138855718
 20
36.1458891313
 10
22.6260370479
 20
36.2385102538
 10
22.6380151985
 20
36.3278246809
 10
22.6498533317
 20
36.4141743964
 10
22.6615394144
 20
36.4975629093
 10
22.6730618712
 20
36.5779913592
 10
22.6844579273
 20
36.6557975881
 10
22.6957174969
 20
36.7309882705
 10
22.7068299071
 20
36.803560803
 10
22.7178350092
 20
36.873838286
 10
22.7287291686
 20
36.9418570064
 10
22.7394985753
 20
37.0075836759
 10
22.7501706259
 20
37.0712364198
 10
22.7607392713
 20
37.1328307161
 10
22.7711945267
 20
37.1923536458
 10
22.7815595728
 20
37.2499806032
 10
22.7918260184
 20
37.3057108987
 10
22.8019870517
 20
37.3595474764
 10
22.812069859
 20
37.4116710384
 10
22.8220668878
 20
37.4620813227
 10
22.831971965
 20
37.5107799947
 10
22.8418165108
 20
37.5579501659
 10
22.8515943281
 20
37.6035924398
 10
22.8613000779
 20
37.6477060024
 10
22.8709691897
 20
37.6904709379
 10
22.8806063369
 20
37.7319266361
 10
22.8901988332
 20
37.7720304022
 10
22.8997573052
 20
37.8108392464
 10
22.9092871715
 20
37.8483925799
 10
22.9187746899
 20
37.8846465744
 10
22.9281986573
 20
37.919536775
 10
22.9375502158
 20
37.9530606015
 10
22.9468232168
 20
37.9852200636
 10
22.9559946376
 20
38.0159638385
 10
22.9650354869
 20
38.0452405559
 10
22.9739509131
 20
38.0731081268
 10
22.9827670507
 20
38.0996828119
 10
22.9914619852
 20
38.1249403887
 10
23.0000333311
 20
38.1489120005
 10
23.0085416222
 20
38.1717938366
 10
23.0169735745
 20
38.1935771241
 10
23.0253237037
 20
38.214271231
 10
23.0336743927
 20
38.2340901951
 10
23.0420528554
 20
38.253098977
 10
23.0504244328
 20
38.2712141955
 10
23.0587834022
 20
38.2884229115
  0
LINE
  5
3B4
100
AcDbEntity
  8
RACCORDO
100
AcDbLine
 62
250
  6
CONTINUOUS
 10
22.0220941386
 20
22.8950622284
 11
22.0276967461
 21
25.8202046104
  0
LINE
  5
3B5
100
AcDbEntity
  8
RACCORDO
100
AcDbLine
 62
250
  6
CONTINUOUS
 10
22.0203667104
 20
22.680878866
 11
22.0220941386
 21
22.8950622284
  0
LINE
  5
3B6
100
AcDbEntity
  8
RACCORDO
100
AcDbLine
 62
250
  6
CONTINUOUS
 10
22.0186732164
 20
22.5451499134
 11
22.0203667104
 21
22.680878866
  0
LWPOLYLINE
  5
3B7
100
AcDbEntity
  8
RACCORDO
100
AcDbPolyline
 62
250
  6
CONTINUOUS
 90
46
 70
0
 10
22.0028636757
 20
-22.3
 10
22.0027418458
 20
-22.3069798993
 10
22.0023765043
 20
-22.3139512947
 10
22.0017680965
 20
-22.3209056927
 10
22.0009173636
 20
-22.3278346202
 10
21.999825342
 20
-22.3347296355
 10
21.9984933623
 20
-22.3415823382
 10
21.9969230472
 20
-22.3483843791
 10
21.9951163099
 20
-22.3551274712
 10
21.9930753517
 20
-22.3618033989
 10
21.9908026591
 20
-22.3684040287
 10
21.9883010012
 20
-22.3749213187
 10
21.9855734256
 20
-22.3813473286
 10
21.9826232557
 20
-22.3876742294
 10
21.9794540857
 20
-22.3938943126
 10
21.9760697768
 20
-22.4
 10
21.9724744521
 20
-22.4059838528
 10
21.9686724922
 20
-22.4118385807
 10
21.964668529
 20
-22.4175570505
 10
21.9604674408
 20
-22.4231322951
 10
21.956074346
 20
-22.4285575219
 10
21.9514945969
 20
-22.4338261213
 10
21.9467337731
 20
-22.4389316741
 10
21.9417976751
 20
-22.4438679601
 10
21.9366923167
 20
-22.4486289651
 10
21.931423918
 20
-22.4532088886
 10
21.9259988977
 20
-22.4576021507
 10
21.9204238654
 20
-22.4618033989
 10
21.9147056133
 20
-22.4658075145
 10
21.9088511084
 20
-22.4696096192
 10
21.9028674834
 20
-22.4732050808
 10
21.8967620285
 20
-22.4765895186
 10
21.8905421821
 20
-22.4797588093
 10
21.8842155223
 20
-22.4827090915
 10
21.877789757
 20
-22.4854367709
 10
21.8712727152
 20
-22.4879385242
 10
21.8646723367
 20
-22.4902113033
 10
21.8579966632
 20
-22.4922523392
 10
21.8512538279
 20
-22.4940591453
 10
21.8444520459
 20
-22.4956295201
 10
21.8375996042
 20
-22.4969615506
 10
21.8307048514
 20
-22.4980536137
 10
21.8237761877
 20
-22.4989043791
 10
21.8168220546
 20
-22.4995128101
 10
21.8098509247
 20
-22.4998781654
 10
21.8028712911
 20
-22.5
  0
LINE
  5
3B8
100
AcDbEntity
  8
RACCORDO
100
AcDbLine
 62
250
  6
CONTINUOUS
 10
22.017296862
 20
22.4637651987
 11
22.0186732164
 21
22.5451499134
  0
LINE
  5
3B9
100
AcDbEntity
  8
RACCORDO
100
AcDbLine
 62
250
  6
CONTINUOUS
 10
22.0161966195
 20
22.412094622
 11
22.017296862
 21
22.4637651987
  0
LINE
  5
3BA
100
AcDbEntity
  8
RACCORDO
100
AcDbLine
 62
250
  6
CONTINUOUS
 10
22.0153045318
 20
22.3774281323
 11
22.0161966195
 21
22.412094622
  0
LINE
  5
3BB
100
AcDbEntity
  8
RACCORDO
100
AcDbLine
 62
250
  6
CONTINUOUS
 10
22.014572793
 20
22.353282241
 11
22.0153045318
 21
22.3774281323
  0
LINE
  5
3BC
100
AcDbEntity
  8
RACCORDO
100
AcDbLine
 62
250
  6
CONTINUOUS
 10
22.013920091
 20
22.3347458849
 11
22.014572793
 21
22.353282241
  0
LINE
  5
3BD
100
AcDbEntity
  8
RACCORDO
100
AcDbLine
 62
250
  6
CONTINUOUS
 10
22.0134720208
 20
22.3235651068
 11
22.013920091
 21
22.3347458849
  0
LINE
  5
3BE
100
AcDbEntity
  8
RACCORDO
100
AcDbLine
 62
250
  6
CONTINUOUS
 10
22.0130134379
 20
22.3133663423
 11
22.0134720208
 21
22.3235651068
  0
LINE
  5
3BF
100
AcDbEntity
  8
RACCORDO
100
AcDbLine
 62
250
  6
CONTINUOUS
 10
22.012662605
 20
22.3063841383
 11
22.0130134379
 21
22.3133663423
  0
LINE
  5
3C0
100
AcDbEntity
  8
RACCORDO
100
AcDbLine
 62
250
  6
CONTINUOUS
 10
22.0123120269
 20
22.30009579
 11
22.012662605
 21
22.3063841383
  0
LINE
  5
3C1
100
AcDbEntity
  8
RACCORDO
100
AcDbLine
 62
250
  6
CONTINUOUS
 10
22.0120812205
 20
22.2963234842
 11
22.0123120269
 21
22.30009579
  0
LWPOLYLINE
  5
3C2
100
AcDbEntity
  8
RACCORDO
100
AcDbPolyline
 62
250
  6
CONTINUOUS
 90
3
 70
0
 10
22.0117408433
 20
22.2912779847
 10
22.0118534825
 20
22.2928785666
 10
22.0120812205
 20
22.2963234842
  0
LWPOLYLINE
  5
3C3
100
AcDbEntity
  8
RACCORDO
100
AcDbPolyline
 62
250
  6
CONTINUOUS
 90
69
 70
0
 10
22.0232907196
 20
-23.2099392933
 10
22.0227510841
 20
-23.2154860917
 10
22.021596619
 20
-23.2210302659
 10
22.0198279156
 20
-23.2265689732
 10
22.01744588
 20
-23.2320994484
 10
22.0144517328
 20
-23.237618782
 10
22.010847009
 20
-23.2431239223
 10
22.0066335565
 20
-23.2486119742
 10
22.001813535
 20
-23.2540801977
 10
21.9963894154
 20
-23.2595257878
 10
21.9903639782
 20
-23.2649459526
 10
21.9837403119
 20
-23.2703379142
 10
21.976521812
 20
-23.2756989076
 10
21.9687121787
 20
-23.2810261844
 10
21.9603154153
 20
-23.2863170143
 10
21.9513358261
 20
-23.2915686852
 10
21.9417780141
 20
-23.2967785049
 10
21.9316468787
 20
-23.301943803
 10
21.9209476133
 20
-23.3070619328
 10
21.9096857023
 20
-23.3121302705
 10
21.8978669188
 20
-23.3171462183
 10
21.8854973211
 20
-23.3221072067
 10
21.87258325
 20
-23.3270106928
 10
21.8591313254
 20
-23.3318541629
 10
21.8451484429
 20
-23.3366351356
 10
21.8306417702
 20
-23.3413511607
 10
21.8156187436
 20
-23.3459998201
 10
21.800087064
 20
-23.3505787314
 10
21.7840546931
 20
-23.3550855472
 10
21.7675298492
 20
-23.3595179575
 10
21.7505210032
 20
-23.36387369
 10
21.7330368739
 20
-23.3681505122
 10
21.7150864238
 20
-23.3723462315
 10
21.6966788545
 20
-23.3764586973
 10
21.6778236019
 20
-23.3804858014
 10
21.6585303314
 20
-23.3844254794
 10
21.6388089329
 20
-23.3882757124
 10
21.6186695157
 20
-23.3920345266
 10
21.5981224035
 20
-23.3956999952
 10
21.5771781289
 20
-23.3992702401
 10
21.5558474282
 20
-23.4027434312
 10
21.5341412356
 20
-23.4061177881
 10
21.512070678
 20
-23.4093915816
 10
21.489647069
 20
-23.4125631336
 10
21.466881903
 20
-23.4156308183
 10
21.4437868497
 20
-23.4185930637
 10
21.4203737479
 20
-23.4214483513
 10
21.3966545993
 20
-23.4241952174
 10
21.3726415625
 20
-23.4268322543
 10
21.3483469469
 20
-23.4293581103
 10
21.3237832062
 20
-23.4317714904
 10
21.2989629318
 20
-23.4340711578
 10
21.273898847
 20
-23.4362559336
 10
21.2486037997
 20
-23.438324698
 10
21.2230907565
 20
-23.4402763908
 10
21.1973727956
 20
-23.4421100115
 10
21.1714631002
 20
-23.4438246202
 10
21.1453749519
 20
-23.4454193386
 10
21.1191217237
 20
-23.446893349
 10
21.0927168732
 20
-23.448245896
 10
21.0661739359
 20
-23.4494762871
 10
21.0395065179
 20
-23.4505838913
 10
21.0127282891
 20
-23.4515681411
 10
20.9858529763
 20
-23.4524285328
 10
20.958894356
 20
-23.4531646255
 10
20.9318662475
 20
-23.4537760417
 10
20.9047825056
 20
-23.4542624695
 10
20.8776570136
 20
-23.4546236598
 10
20.8505036764
 20
-23.4548594272
  0
LINE
  5
3C4
100
AcDbEntity
  8
RACCORDO
100
AcDbLine
 62
250
  6
CONTINUOUS
 10
-22.8985953548
 20
-38.4472634921
 11
-23.0402107426
 21
-38.5187285495
  0
LWPOLYLINE
  5
3C5
100
AcDbEntity
  8
RACCORDO
100
AcDbPolyline
 62
250
  6
CONTINUOUS
 90
3
 70
0
 10
-23.0402107426
 20
-38.5187285495
 10
-23.1828780031
 20
-38.590316916
 10
-23.2187037469
 20
-38.6082212622
  0
LINE
  5
3C6
100
AcDbEntity
  8
RACCORDO
100
AcDbLine
 62
250
  6
CONTINUOUS
 10
-22.0028636757
 20
22.3000000001
 11
-22.0
 21
22.3000000001
  0
LINE
  5
3C7
100
AcDbEntity
  8
RACCORDO
100
AcDbLine
 62
250
  6
CONTINUOUS
 10
22.0
 20
22.3000000001
 11
22.0028636757
 21
22.3000000001
  0
LINE
  5
3C8
100
AcDbEntity
  8
RACCORDO
100
AcDbLine
 62
7
  6
CONTINUOUS
 10
-21.8028712911
 20
22.5000000001
 11
21.8028712911
 21
22.5000000001
  0
LINE
  5
3C9
100
AcDbEntity
  8
RACCORDO
100
AcDbLine
 62
250
  6
CONTINUOUS
 10
-20.8505036764
 20
23.4548594245
 11
20.8233364133
 21
23.4549696425
  0
LINE
  5
3CA
100
AcDbEntity
  8
RACCORDO
100
AcDbLine
 62
250
  6
CONTINUOUS
 10
-23.2187037467
 20
38.6082212622
 11
-23.0757768416
 21
38.536609675
  0
LWPOLYLINE
  5
3CB
100
AcDbEntity
  8
RACCORDO
100
AcDbPolyline
 62
250
  6
CONTINUOUS
 90
3
 70
0
 10
-23.0757768416
 20
38.536609675
 10
-22.9338965193
 20
38.4651094152
 10
-22.8985953545
 20
38.4472634921
  0
LINE
  5
3CC
100
AcDbEntity
  8
0
100
AcDbLine
 62
7
  6
CONTINUOUS
 10
35.174788
 20
-31.972032
 11
35.446199
 21
-32.81738
  0
LINE
  5
3CD
100
AcDbEntity
  8
0
100
AcDbLine
 62
7
  6
CONTINUOUS
 10
35.617027
 20
-33.349401
 11
35.793819
 21
-33.900063
  0
LINE
  5
3CE
100
AcDbEntity
  8
0
100
AcDbLine
 62
7
  6
CONTINUOUS
 10
35.454816
 20
-31.099937
 11
36.353847
 21
-33.90007
  0
LINE
  5
3CF
100
AcDbEntity
  8
0
100
AcDbLine
 62
7
  6
CONTINUOUS
 10
31.443438
 20
-32.053575
 11
31.972904
 21
-33.90007
  0
LINE
  5
3D0
100
AcDbEntity
  8
0
100
AcDbLine
 62
7
  6
CONTINUOUS
 10
31.730018
 20
-31.099944
 11
32.252911
 21
-32.923486
  0
LWPOLYLINE
  5
3D1
100
AcDbEntity
  8
RACCORDO
100
AcDbPolyline
 62
250
  6
CONTINUOUS
 90
56
 70
0
 10
22.0276967461
 20
-25.8202046207
 10
22.0271558249
 20
-25.8249744303
 10
22.0260001116
 20
-25.829741795
 10
22.0242301985
 20
-25.8345042712
 10
22.0218469928
 20
-25.8392594177
 10
22.0188517161
 20
-25.8440047972
 10
22.0152459037
 20
-25.8487379772
 10
22.0110314039
 20
-25.8534565317
 10
22.006210377
 20
-25.8581580419
 10
22.000785294
 20
-25.8628400982
 10
21.9947589358
 20
-25.8675003004
 10
21.9881343913
 20
-25.87213626
 10
21.9809150561
 20
-25.8767456005
 10
21.9731046307
 20
-25.8813259594
 10
21.9647071185
 20
-25.885874989
 10
21.955726824
 20
-25.8903903573
 10
21.9461683502
 20
-25.8948697501
 10
21.9360365965
 20
-25.8993108712
 10
21.9253367563
 20
-25.9037114442
 10
21.9140743141
 20
-25.9080692135
 10
21.9022550427
 20
-25.9123819454
 10
21.8898850005
 20
-25.9166474293
 10
21.876970528
 20
-25.9208634788
 10
21.8635182449
 20
-25.9250279328
 10
21.8495350465
 20
-25.9291386568
 10
21.8350281003
 20
-25.9331935436
 10
21.8200048423
 20
-25.9371905149
 10
21.8044729731
 20
-25.9411275219
 10
21.7884404538
 20
-25.9450025465
 10
21.7719155025
 20
-25.9488136025
 10
21.7549065893
 20
-25.9525587365
 10
21.7374224328
 20
-25.9562360287
 10
21.719471995
 20
-25.9598435943
 10
21.7010644767
 20
-25.9633795842
 10
21.6822093132
 20
-25.9668421857
 10
21.6629161694
 20
-25.9702296242
 10
21.6431949344
 20
-25.9735401633
 10
21.6230557169
 20
-25.976772106
 10
21.6025088398
 20
-25.9799237958
 10
21.5815648349
 20
-25.9829936171
 10
21.5602344377
 20
-25.9859799965
 10
21.5385285817
 20
-25.9888814032
 10
21.5164583928
 20
-25.9916963499
 10
21.4940351837
 20
-25.9944233939
 10
21.4712704479
 20
-25.9970611373
 10
21.4481758543
 20
-25.999608228
 10
21.4247632405
 20
-26.0020633605
 10
21.4010446073
 20
-26.0044252763
 10
21.3770321124
 20
-26.0066927648
 10
21.3527380641
 20
-26.0088646636
 10
21.3281749149
 20
-26.0109398596
 10
21.3033552552
 20
-26.012917289
 10
21.2782918073
 20
-26.0147959383
 10
21.2529974179
 20
-26.0165748444
 10
21.2274850524
 20
-26.0182530957
 10
21.2017677878
 20
-26.0198298317
  0
LINE
  5
3D2
100
AcDbEntity
  8
RACCORDO
100
AcDbLine
 62
250
  6
CONTINUOUS
 10
22.0058827388
 20
-22.2830895225
 11
22.0048388476
 21
-22.2908841866
  0
LINE
  5
3D3
100
AcDbEntity
  8
RACCORDO
100
AcDbLine
 62
250
  6
CONTINUOUS
 10
22.0060809442
 20
-22.2816674798
 11
22.0058827388
 21
-22.2830895225
  0
LINE
  5
3D4
100
AcDbEntity
  8
RACCORDO
100
AcDbLine
 62
250
  6
CONTINUOUS
 10
22.0048388476
 20
-22.2908841866
 11
22.004611296
 21
-22.2925165827
  0
LINE
  5
3D5
100
AcDbEntity
  8
RACCORDO
100
AcDbLine
 62
250
  6
CONTINUOUS
 10
22.0062836717
 20
-22.2802643527
 11
22.0060809442
 21
-22.2816674798
  0
LINE
  5
3D6
100
AcDbEntity
  8
RACCORDO
100
AcDbLine
 62
250
  6
CONTINUOUS
 10
22.004611296
 20
-22.2925165827
 11
22.0044447961
 21
-22.2936619101
  0
LINE
  5
3D7
100
AcDbEntity
  8
RACCORDO
100
AcDbLine
 62
250
  6
CONTINUOUS
 10
22.0064213932
 20
-22.2793472145
 11
22.0062836717
 21
-22.2802643527
  0
LINE
  5
3D8
100
AcDbEntity
  8
RACCORDO
100
AcDbLine
 62
250
  6
CONTINUOUS
 10
22.0044447961
 20
-22.2936619101
 11
22.0043357309
 21
-22.2943835689
  0
LINE
  5
3D9
100
AcDbEntity
  8
RACCORDO
100
AcDbLine
 62
250
  6
CONTINUOUS
 10
22.0065612015
 20
-22.2784492643
 11
22.0064213932
 21
-22.2793472145
  0
LINE
  5
3DA
100
AcDbEntity
  8
RACCORDO
100
AcDbLine
 62
250
  6
CONTINUOUS
 10
22.0043357309
 20
-22.2943835689
 11
22.0042281811
 21
-22.2950691317
  0
LWPOLYLINE
  5
3DB
100
AcDbEntity
  8
RACCORDO
100
AcDbPolyline
 62
250
  6
CONTINUOUS
 90
28
 70
0
 10
22.0042281811
 20
-22.2950691317
 10
22.0041221111
 20
-22.2957164782
 10
22.0040696267
 20
-22.2960255484
 10
22.0040174972
 20
-22.2963242463
 10
22.0039657227
 20
-22.2966125502
 10
22.0039143031
 20
-22.2968904819
 10
22.0038632261
 20
-22.2971574615
 10
22.0038124916
 20
-22.2974134695
 10
22.0037620998
 20
-22.2976585254
 10
22.0037120385
 20
-22.2978921082
 10
22.0036623077
 20
-22.2981141994
 10
22.0036129074
 20
-22.2983248175
 10
22.0035638257
 20
-22.2985234963
 10
22.0035150626
 20
-22.2987102189
 10
22.003466618
 20
-22.2988850021
 10
22.0034184803
 20
-22.2990474309
 10
22.0033706493
 20
-22.2991974896
 10
22.0033231251
 20
-22.2993351939
 10
22.0032758961
 20
-22.2994601751
 10
22.0032289623
 20
-22.2995724188
 10
22.0031823237
 20
-22.2996719396
 10
22.0031359691
 20
-22.2997584118
 10
22.0030898984
 20
-22.2998318224
 10
22.0030441116
 20
-22.2998921844
 10
22.0029985971
 20
-22.2999392118
 10
22.002953351
 20
-22.2999728092
 10
22.0029083772
 20
-22.2999930719
 10
22.0028636757
 20
-22.3
  0
LINE
  5
3DC
100
AcDbEntity
  8
RACCORDO
100
AcDbLine
 62
250
  6
CONTINUOUS
 10
-21.2017677878
 20
26.0198298318
 11
-21.1497713883
 21
26.0226755781
  0
LINE
  5
3DD
100
AcDbEntity
  8
RACCORDO
100
AcDbLine
 62
250
  6
CONTINUOUS
 10
-21.1497713883
 20
26.0226755781
 11
-21.0971148144
 21
26.0251062494
  0
LINE
  5
3DE
100
AcDbEntity
  8
RACCORDO
100
AcDbLine
 62
250
  6
CONTINUOUS
 10
-21.0971148144
 20
26.0251062494
 11
-21.0439060145
 21
26.0271168627
  0
LINE
  5
3DF
100
AcDbEntity
  8
RACCORDO
100
AcDbLine
 62
250
  6
CONTINUOUS
 10
-21.0439060145
 20
26.0271168627
 11
-20.9902540691
 21
26.0287032963
  0
LINE
  5
3E0
100
AcDbEntity
  8
RACCORDO
100
AcDbLine
 62
250
  6
CONTINUOUS
 10
-20.9902540691
 20
26.0287032963
 11
-20.9362689673
 21
26.0298622978
  0
LINE
  5
3E1
100
AcDbEntity
  8
RACCORDO
100
AcDbLine
 62
250
  6
CONTINUOUS
 10
-20.9362689673
 20
26.0298622978
 11
-20.8820613811
 21
26.0305914913
  0
LINE
  5
3E2
100
AcDbEntity
  8
RACCORDO
100
AcDbLine
 62
250
  6
CONTINUOUS
 10
-20.8820613811
 20
26.0305914913
 11
-20.8277424384
 21
26.0308893818
  0
LINE
  5
3E3
100
AcDbEntity
  8
RACCORDO
100
AcDbLine
 62
250
  6
CONTINUOUS
 10
20.8820613804
 20
26.0305915053
 11
20.8277424384
 21
26.0308893968
  0
LINE
  5
3E4
100
AcDbEntity
  8
RACCORDO
100
AcDbLine
 62
250
  6
CONTINUOUS
 10
20.9362689657
 20
26.0298623109
 11
20.8820613804
 21
26.0305915053
  0
LINE
  5
3E5
100
AcDbEntity
  8
RACCORDO
100
AcDbLine
 62
250
  6
CONTINUOUS
 10
20.9902540664
 20
26.0287033085
 11
20.9362689657
 21
26.0298623109
  0
LINE
  5
3E6
100
AcDbEntity
  8
RACCORDO
100
AcDbLine
 62
250
  6
CONTINUOUS
 10
21.0439060104
 20
26.0271168741
 11
20.9902540664
 21
26.0287033085
  0
LINE
  5
3E7
100
AcDbEntity
  8
RACCORDO
100
AcDbLine
 62
250
  6
CONTINUOUS
 10
21.0971148087
 20
26.0251062599
 11
21.0439060104
 21
26.0271168741
  0
LINE
  5
3E8
100
AcDbEntity
  8
RACCORDO
100
AcDbLine
 62
250
  6
CONTINUOUS
 10
21.1497713809
 20
26.0226755879
 11
21.0971148087
 21
26.0251062599
  0
LWPOLYLINE
  5
3E9
100
AcDbEntity
  8
RACCORDO
100
AcDbPolyline
 62
250
  6
CONTINUOUS
 90
26
 70
0
 10
22.0028636757
 20
22.3000000001
 10
22.0029083781
 20
22.2999930715
 10
22.0029533526
 20
22.2999728081
 10
22.0029985993
 20
22.2999392099
 10
22.0030441142
 20
22.2998921815
 10
22.0030899012
 20
22.2998318183
 10
22.0031359721
 20
22.2997584064
 10
22.0031823271
 20
22.2996719329
 10
22.0032289659
 20
22.2995724107
 10
22.0032759
 20
22.2994601654
 10
22.0033231292
 20
22.2993351825
 10
22.0033706537
 20
22.2991974764
 10
22.003418485
 20
22.2990474155
 10
22.0034666231
 20
22.2988849843
 10
22.0035150681
 20
22.2987101983
 10
22.0035638317
 20
22.2985234726
 10
22.003612914
 20
22.29832479
 10
22.003662315
 20
22.2981141676
 10
22.0037120465
 20
22.2978920716
 10
22.0037621086
 20
22.2976584834
 10
22.0038125013
 20
22.2974134216
 10
22.0038632366
 20
22.2971574077
 10
22.0039143144
 20
22.2968904219
 10
22.0039657348
 20
22.296612484
 10
22.0040175099
 20
22.2963241744
 10
22.0040696399
 20
22.2960254715
  0
LWPOLYLINE
  5
3EA
100
AcDbEntity
  8
RACCORDO
100
AcDbPolyline
 62
250
  6
CONTINUOUS
 90
53
 70
0
 10
22.0067749454
 20
22.2771501931
 10
22.0068472775
 20
22.2767326786
 10
22.0069201594
 20
22.2763232281
 10
22.0069936082
 20
22.275923877
 10
22.0070676242
 20
22.2755345784
 10
22.0071422071
 20
22.2751553792
 10
22.0072173731
 20
22.2747884556
 10
22.0072931222
 20
22.2744337602
 10
22.0073694543
 20
22.2740913405
 10
22.0074463854
 20
22.2737635139
 10
22.0075239146
 20
22.2734502336
 10
22.0076020427
 20
22.2731515466
 10
22.0076807878
 20
22.272869911
 10
22.0077601491
 20
22.2726052747
 10
22.0078401274
 20
22.27235769
 10
22.007920743
 20
22.272129772
 10
22.0080019967
 20
22.2719214604
 10
22.0080838877
 20
22.2717328156
 10
22.0081664337
 20
22.271566634
 10
22.0082496347
 20
22.2714228555
 10
22.0083334907
 20
22.2713015402
 10
22.0084180188
 20
22.2712056642
 10
22.0085032176
 20
22.2711351635
 10
22.0085890885
 20
22.2710901023
 10
22.0086756525
 20
22.271073649
 10
22.0087629094
 20
22.2710857312
 10
22.0088508594
 20
22.2711264214
 10
22.0089395239
 20
22.2711991064
 10
22.009028903
 20
22.2713037079
 10
22.0091189968
 20
22.2714403043
 10
22.0092098266
 20
22.2716125171
 10
22.0093013921
 20
22.2718202606
 10
22.0093936937
 20
22.2720636207
 10
22.009486754
 20
22.2723464761
 10
22.0095805721
 20
22.2726687298
 10
22.0096751488
 20
22.2730304789
 10
22.009770509
 20
22.2734358938
 10
22.0098666526
 20
22.2738848682
 10
22.0099635797
 20
22.2743775084
 10
22.0100613161
 20
22.2749183045
 10
22.0101598632
 20
22.2755071534
 10
22.0102592197
 20
22.2761441582
 10
22.0103594068
 20
22.2768341185
 10
22.0104604254
 20
22.2775769237
 10
22.0105622746
 20
22.2783726843
 10
22.0106649739
 20
22.2792265319
 10
22.0107685154
 20
22.2801382502
 10
22.0108729069
 20
22.2811080554
 10
22.0109781914
 20
22.2821417277
 10
22.0110843694
 20
22.2832390838
 10
22.0111914404
 20
22.2844003069
 10
22.0112994458
 20
22.2856317271
 10
22.0115183065
 20
22.2883054453
  0
LINE
  5
3EB
100
AcDbEntity
  8
RACCORDO
100
AcDbLine
 62
250
  6
CONTINUOUS
 10
22.0040696399
 20
22.2960254715
 11
22.0041749764
 21
22.2953975958
  0
LINE
  5
3EC
100
AcDbEntity
  8
RACCORDO
100
AcDbLine
 62
250
  6
CONTINUOUS
 10
22.0066319306
 20
22.278009325
 11
22.0067749454
 21
22.2771501931
  0
LINE
  5
3ED
100
AcDbEntity
  8
RACCORDO
100
AcDbLine
 62
250
  6
CONTINUOUS
 10
22.0041749764
 20
22.2953975958
 11
22.0042817806
 21
22.2947307668
  0
LINE
  5
3EE
100
AcDbEntity
  8
RACCORDO
100
AcDbLine
 62
250
  6
CONTINUOUS
 10
22.0064910596
 20
22.2788949778
 11
22.0066319306
 21
22.278009325
  0
LINE
  5
3EF
100
AcDbEntity
  8
RACCORDO
100
AcDbLine
 62
250
  6
CONTINUOUS
 10
22.0042817806
 20
22.2947307668
 11
22.0043900882
 21
22.2940271519
  0
LINE
  5
3F0
100
AcDbEntity
  8
RACCORDO
100
AcDbLine
 62
250
  6
CONTINUOUS
 10
22.0063523013
 20
22.2798034389
 11
22.0064910596
 21
22.2788949778
  0
LINE
  5
3F1
100
AcDbEntity
  8
RACCORDO
100
AcDbLine
 62
250
  6
CONTINUOUS
 10
22.0043900882
 20
22.2940271519
 11
22.004555422
 21
22.292906475
  0
LINE
  5
3F2
100
AcDbEntity
  8
RACCORDO
100
AcDbLine
 62
250
  6
CONTINUOUS
 10
22.0061480411
 20
22.2811969566
 11
22.0063523013
 21
22.2798034389
  0
LINE
  5
3F3
100
AcDbEntity
  8
RACCORDO
100
AcDbLine
 62
250
  6
CONTINUOUS
 10
22.004555422
 20
22.292906475
 11
22.0047242861
 21
22.2917144584
  0
LINE
  5
3F4
100
AcDbEntity
  8
RACCORDO
100
AcDbLine
 62
250
  6
CONTINUOUS
 10
22.0059483456
 20
22.2826142477
 11
22.0061480411
 21
22.2811969566
  0
LINE
  5
3F5
100
AcDbEntity
  8
RACCORDO
100
AcDbLine
 62
250
  6
CONTINUOUS
 10
22.0047242861
 20
22.2917144584
 11
22.0050138255
 21
22.2895915197
  0
LINE
  5
3F6
100
AcDbEntity
  8
RACCORDO
100
AcDbLine
 62
250
  6
CONTINUOUS
 10
22.0056253008
 20
22.2849912275
 11
22.0059483456
 21
22.2826142477
  0
LWPOLYLINE
  5
3F7
100
AcDbEntity
  8
RACCORDO
100
AcDbPolyline
 62
250
  6
CONTINUOUS
 90
3
 70
0
 10
22.0050138255
 20
22.2895915197
 10
22.0053139724
 20
22.2873345856
 10
22.0056253008
 20
22.2849912275
  0
LWPOLYLINE
  5
3F8
100
AcDbEntity
  8
RACCORDO
100
AcDbPolyline
 62
250
  6
CONTINUOUS
 90
57
 70
0
 10
22.0276966839
 20
25.8202046208
 10
22.027155763
 20
25.8249744305
 10
22.0260000499
 20
25.8297417952
 10
22.0242301371
 20
25.8345042714
 10
22.0218469318
 20
25.839259418
 10
22.0188516554
 20
25.8440047975
 10
22.0152458435
 20
25.8487379775
 10
22.0110313442
 20
25.8534565321
 10
22.0062103177
 20
25.8581580424
 10
22.0007852353
 20
25.8628400987
 10
21.9947588776
 20
25.8675003009
 10
21.9881343338
 20
25.8721362605
 10
21.9809149993
 20
25.8767456012
 10
21.9731045746
 20
25.8813259602
 10
21.9647070632
 20
25.8858749897
 10
21.9557267694
 20
25.8903903582
 10
21.9461682964
 20
25.894869751
 10
21.9360365436
 20
25.8993108722
 10
21.9253367043
 20
25.9037114453
 10
21.914074263
 20
25.9080692147
 10
21.9022549926
 20
25.9123819467
 10
21.8898849513
 20
25.9166474307
 10
21.8769704798
 20
25.9208634803
 10
21.8635181977
 20
25.9250279344
 10
21.8495350004
 20
25.9291386585
 10
21.8350280554
 20
25.9331935455
 10
21.8200047985
 20
25.9371905169
 10
21.8044729304
 20
25.941127524
 10
21.7884404122
 20
25.9450025487
 10
21.7719154621
 20
25.9488136049
 10
21.7549065501
 20
25.952558739
 10
21.7374223949
 20
25.9562360314
 10
21.7194719582
 20
25.9598435972
 10
21.7010644411
 20
25.9633795872
 10
21.6822092789
 20
25.966842189
 10
21.6629161364
 20
25.9702296277
 10
21.6431949026
 20
25.9735401669
 10
21.6230556864
 20
25.9767721099
 10
21.6025088105
 20
25.9799237999
 10
21.5815648069
 20
25.9829936214
 10
21.560234411
 20
25.985980001
 10
21.5385285563
 20
25.988881408
 10
21.5164583686
 20
25.991696355
 10
21.4940351607
 20
25.9944233992
 10
21.4712704262
 20
25.9970611429
 10
21.4481758338
 20
25.9996082339
 10
21.4247632212
 20
26.0020633666
 10
21.4010445893
 20
26.0044252828
 10
21.3770320956
 20
26.0066927715
 10
21.3527380484
 20
26.0088646707
 10
21.3281749003
 20
26.010939867
 10
21.3033552418
 20
26.0129172968
 10
21.2782917949
 20
26.0147959464
 10
21.2529974065
 20
26.0165748529
 10
21.2274850421
 20
26.0182531045
 10
21.2017677785
 20
26.0198298409
 10
21.1497713809
 20
26.0226755879
  0
LINE
  5
3F9
100
AcDbEntity
  8
0
100
AcDbLine
 62
7
  6
CONTINUOUS
 10
29.763396
 20
-31.099944
 11
29.763389
 21
-33.900077
  0
LINE
  5
3FA
100
AcDbEntity
  8
0
100
AcDbLine
 62
7
  6
CONTINUOUS
 10
30.323417
 20
-31.099944
 11
30.32341
 21
-33.90007
  0
LINE
  5
3FB
100
AcDbEntity
  8
0
100
AcDbLine
 62
7
  6
CONTINUOUS
 10
30.883417
 20
-31.099944
 11
30.883417
 21
-33.90007
  0
LINE
  5
3FC
100
AcDbEntity
  8
0
100
AcDbLine
 62
7
  6
CONTINUOUS
 10
31.443438
 20
-32.053575
 11
31.443438
 21
-33.90007
  0
LWPOLYLINE
  5
3FD
100
AcDbEntity
  8
RACCORDO
100
AcDbPolyline
 62
250
  6
CONTINUOUS
 90
42
 70
0
 10
21.3006206308
 20
-22.8589685406
 10
21.2724169216
 20
-22.8811523389
 10
21.2445931002
 20
-22.9033785885
 10
21.2173116613
 20
-22.9254416976
 10
21.1904101101
 20
-22.9474485008
 10
21.1646763492
 20
-22.9689068201
 10
21.1403960928
 20
-22.9895312279
 10
21.1172836267
 20
-23.0094796659
 10
21.0952697107
 20
-23.0289161904
 10
21.0743611723
 20
-23.0478166376
 10
21.054551184
 20
-23.0661287531
 10
21.0357500225
 20
-23.0839943136
 10
21.0179546532
 20
-23.1014045155
 10
21.0011681108
 20
-23.1183179391
 10
20.9853097762
 20
-23.134839634
 10
20.9703710972
 20
-23.1509733445
 10
20.956360626
 20
-23.1666809957
 10
20.943223401
 20
-23.1820115856
 10
20.9309637367
 20
-23.1969601144
 10
20.9195773185
 20
-23.2115059977
 10
20.9089962412
 20
-23.2256783293
 10
20.899226638
 20
-23.2394710887
 10
20.8902623756
 20
-23.2528707546
 10
20.8820171489
 20
-23.2658973452
 10
20.8744991886
 20
-23.278536347
 10
20.8677002639
 20
-23.2907871213
 10
20.8615093777
 20
-23.3026923237
 10
20.855931241
 20
-23.3142263725
 10
20.8509611428
 20
-23.3254035982
 10
20.8464739521
 20
-23.3363287855
 10
20.8424571251
 20
-23.3470034514
 10
20.8389232056
 20
-23.3574189858
 10
20.8357846945
 20
-23.3676671725
 10
20.8330305628
 20
-23.3777519963
 10
20.8306718395
 20
-23.3876649406
 10
20.8286541127
 20
-23.3974805352
 10
20.8269690021
 20
-23.4072021249
 10
20.825624888
 20
-23.4168234215
 10
20.8245924992
 20
-23.4264055161
 10
20.8238620786
 20
-23.4359682876
 10
20.8234433833
 20
-23.4454899782
 10
20.8233364133
 20
-23.4549696424
  0
LINE
  5
3FE
100
AcDbEntity
  8
RACCORDO
100
AcDbLine
 62
250
  6
CONTINUOUS
 10
21.3539207813
 20
-22.8176180918
 11
21.3006206308
 21
-22.8589685406
  0
LINE
  5
3FF
100
AcDbEntity
  8
RACCORDO
100
AcDbLine
 62
250
  6
CONTINUOUS
 10
21.4032050919
 20
-22.7800241028
 11
21.3539207813
 21
-22.8176180918
  0
LINE
  5
400
100
AcDbEntity
  8
RACCORDO
100
AcDbLine
 62
250
  6
CONTINUOUS
 10
21.4488064833
 20
-22.745698746
 11
21.4032050919
 21
-22.7800241028
  0
LINE
  5
401
100
AcDbEntity
  8
RACCORDO
100
AcDbLine
 62
250
  6
CONTINUOUS
 10
21.4909524926
 20
-22.7143685566
 11
21.4488064833
 21
-22.745698746
  0
LINE
  5
402
100
AcDbEntity
  8
RACCORDO
100
AcDbLine
 62
250
  6
CONTINUOUS
 10
21.5297650038
 20
-22.6858439463
 11
21.4909524926
 21
-22.7143685566
  0
LINE
  5
403
100
AcDbEntity
  8
RACCORDO
100
AcDbLine
 62
250
  6
CONTINUOUS
 10
21.5654353736
 20
-22.65992512
 11
21.5297650038
 21
-22.6858439463
  0
LINE
  5
404
100
AcDbEntity
  8
RACCORDO
100
AcDbLine
 62
250
  6
CONTINUOUS
 10
21.5981267387
 20
-22.6364576265
 11
21.5654353736
 21
-22.65992512
  0
LINE
  5
405
100
AcDbEntity
  8
RACCORDO
100
AcDbLine
 62
250
  6
CONTINUOUS
 10
21.6279419077
 20
-22.6153110136
 11
21.5981267387
 21
-22.6364576265
  0
LINE
  5
406
100
AcDbEntity
  8
RACCORDO
100
AcDbLine
 62
250
  6
CONTINUOUS
 10
21.6550256324
 20
-22.5963540692
 11
21.6279419077
 21
-22.6153110136
  0
LINE
  5
407
100
AcDbEntity
  8
RACCORDO
100
AcDbLine
 62
250
  6
CONTINUOUS
 10
21.6795001489
 20
-22.5794732657
 11
21.6550256324
 21
-22.5963540692
  0
LINE
  5
408
100
AcDbEntity
  8
RACCORDO
100
AcDbLine
 62
250
  6
CONTINUOUS
 10
21.7014441874
 20
-22.5645600013
 11
21.6795001489
 21
-22.5794732657
  0
LINE
  5
409
100
AcDbEntity
  8
RACCORDO
100
AcDbLine
 62
250
  6
CONTINUOUS
 10
21.7209694176
 20
-22.5515063292
 11
21.7014441874
 21
-22.5645600013
  0
LWPOLYLINE
  5
40A
100
AcDbEntity
  8
RACCORDO
100
AcDbPolyline
 62
250
  6
CONTINUOUS
 90
3
 70
0
 10
21.7459262653
 20
-22.5351843502
 10
21.7381778618
 20
-22.5402083559
 10
21.7209694176
 20
-22.5515063292
  0
LWPOLYLINE
  5
40B
100
AcDbEntity
  8
RACCORDO
100
AcDbPolyline
 62
250
  6
CONTINUOUS
 90
3
 70
0
 10
21.765958585
 20
-22.5224449619
 10
21.759816627
 20
-22.5263158563
 10
21.7459262653
 20
-22.5351843502
  0
LWPOLYLINE
  5
40C
100
AcDbEntity
  8
RACCORDO
100
AcDbPolyline
 62
250
  6
CONTINUOUS
 90
3
 70
0
 10
21.7812409192
 20
-22.5130014529
 10
21.7766707312
 20
-22.5158045933
 10
21.765958585
 20
-22.5224449619
  0
LINE
  5
40D
100
AcDbEntity
  8
RACCORDO
100
AcDbLine
 62
250
  6
CONTINUOUS
 10
21.802752636
 20
-22.5001831369
 11
21.8008913336
 21
-22.5013236655
  0
LINE
  5
40E
100
AcDbEntity
  8
RACCORDO
100
AcDbLine
 62
250
  6
CONTINUOUS
 10
21.7917696646
 20
-22.5066855388
 11
21.7812409192
 21
-22.5130014529
  0
LINE
  5
40F
100
AcDbEntity
  8
RACCORDO
100
AcDbLine
 62
250
  6
CONTINUOUS
 10
21.7965153614
 20
-22.5038980102
 11
21.7917696646
 21
-22.5066855388
  0
LWPOLYLINE
  5
410
100
AcDbEntity
  8
RACCORDO
100
AcDbPolyline
 62
250
  6
CONTINUOUS
 90
3
 70
0
 10
21.8008913336
 20
-22.5013236655
 10
21.7982817797
 20
-22.5028501054
 10
21.7965153614
 20
-22.5038980102
  0
LINE
  5
411
100
AcDbEntity
  8
RACCORDO
100
AcDbLine
 62
250
  6
CONTINUOUS
 10
21.7981179412
 20
22.5029461745
 11
21.8008158274
 21
22.5013686908
  0
LINE
  5
412
100
AcDbEntity
  8
RACCORDO
100
AcDbLine
 62
250
  6
CONTINUOUS
 10
21.7913859156
 20
22.5069119561
 11
21.7962929902
 21
22.5040289455
  0
LINE
  5
413
100
AcDbEntity
  8
RACCORDO
100
AcDbLine
 62
250
  6
CONTINUOUS
 10
21.7962929902
 20
22.5040289455
 11
21.7981179412
 21
22.5029461745
  0
LINE
  5
414
100
AcDbEntity
  8
RACCORDO
100
AcDbLine
 62
250
  6
CONTINUOUS
 10
21.7805449318
 20
22.5134251799
 11
21.7913859156
 21
22.5069119561
  0
LWPOLYLINE
  5
415
100
AcDbEntity
  8
RACCORDO
100
AcDbPolyline
 62
250
  6
CONTINUOUS
 90
4
 70
0
 10
21.8008158274
 20
22.5013686908
 10
21.8027445529
 20
22.5001894957
 10
21.8029274076
 20
22.5000450168
 10
21.8028712911
 20
22.5000000001
  0
LWPOLYLINE
  5
416
100
AcDbEntity
  8
RACCORDO
100
AcDbPolyline
 62
250
  6
CONTINUOUS
 90
3
 70
0
 10
21.7649800282
 20
22.5230598303
 10
21.770676811
 20
22.5195085776
 10
21.7805449318
 20
22.5134251799
  0
LWPOLYLINE
  5
417
100
AcDbEntity
  8
RACCORDO
100
AcDbPolyline
 62
250
  6
CONTINUOUS
 90
3
 70
0
 10
21.7447373842
 20
22.535951375
 10
21.7520199092
 20
22.5312739968
 10
21.7649800282
 20
22.5230598303
  0
LWPOLYLINE
  5
418
100
AcDbEntity
  8
RACCORDO
100
AcDbPolyline
 62
250
  6
CONTINUOUS
 90
3
 70
0
 10
21.7195681368
 20
22.5524354355
 10
21.7285276898
 20
22.5465193634
 10
21.7447373842
 20
22.535951375
  0
LINE
  5
419
100
AcDbEntity
  8
RACCORDO
100
AcDbLine
 62
250
  6
CONTINUOUS
 10
21.6999043055
 20
22.5655984179
 11
21.7195681368
 21
22.5524354355
  0
LINE
  5
41A
100
AcDbEntity
  8
RACCORDO
100
AcDbLine
 62
250
  6
CONTINUOUS
 10
21.6778244366
 20
22.5806212782
 11
21.6999043055
 21
22.5655984179
  0
LINE
  5
41B
100
AcDbEntity
  8
RACCORDO
100
AcDbLine
 62
250
  6
CONTINUOUS
 10
21.6532169771
 20
22.5976115608
 11
21.6778244366
 21
22.5806212782
  0
LINE
  5
41C
100
AcDbEntity
  8
RACCORDO
100
AcDbLine
 62
250
  6
CONTINUOUS
 10
21.6260032371
 20
22.6166774513
 11
21.6532169771
 21
22.5976115608
  0
LINE
  5
41D
100
AcDbEntity
  8
RACCORDO
100
AcDbLine
 62
250
  6
CONTINUOUS
 10
21.5960609542
 20
22.6379323333
 11
21.6260032371
 21
22.6166774513
  0
LINE
  5
41E
100
AcDbEntity
  8
RACCORDO
100
AcDbLine
 62
250
  6
CONTINUOUS
 10
21.5632453028
 20
22.6615075269
 11
21.5960609542
 21
22.6379323333
  0
LINE
  5
41F
100
AcDbEntity
  8
RACCORDO
100
AcDbLine
 62
250
  6
CONTINUOUS
 10
21.527453459
 20
22.6875335204
 11
21.5632453028
 21
22.6615075269
  0
LINE
  5
420
100
AcDbEntity
  8
RACCORDO
100
AcDbLine
 62
250
  6
CONTINUOUS
 10
21.4885221842
 20
22.7161652599
 11
21.527453459
 21
22.6875335204
  0
LINE
  5
421
100
AcDbEntity
  8
RACCORDO
100
AcDbLine
 62
250
  6
CONTINUOUS
 10
21.4462605283
 20
22.7476034032
 11
21.4885221842
 21
22.7161652599
  0
LINE
  5
422
100
AcDbEntity
  8
RACCORDO
100
AcDbLine
 62
250
  6
CONTINUOUS
 10
21.4005477841
 20
22.7820378299
 11
21.4462605283
 21
22.7476034032
  0
LINE
  5
423
100
AcDbEntity
  8
RACCORDO
100
AcDbLine
 62
250
  6
CONTINUOUS
 10
21.3511484979
 20
22.8197498018
 11
21.4005477841
 21
22.7820378299
  0
LINE
  5
424
100
AcDbEntity
  8
0
100
AcDbLine
 62
7
  6
CONTINUOUS
 10
33.062377
 20
-32.053575
 11
33.062384
 21
-33.90007
  0
LINE
  5
425
100
AcDbEntity
  8
0
100
AcDbLine
 62
7
  6
CONTINUOUS
 10
33.622405
 20
-31.099944
 11
33.622405
 21
-33.90007
  0
LINE
  5
426
100
AcDbEntity
  8
DRAFT
100
AcDbLine
 62
7
  6
CONTINUOUS
 10
44.0
 20
3.6749773271
 11
43.8951844414
 21
3.5
  0
LINE
  5
427
100
AcDbEntity
  8
DRAFT
100
AcDbLine
 62
7
  6
CONTINUOUS
 10
43.8951844414
 20
-3.5
 11
44.0
 21
-3.6749773271
  0
LINE
  5
428
100
AcDbEntity
  8
0
100
AcDbLine
 62
7
  6
CONTINUOUS
 10
36.727192
 20
-31.099937
 11
36.727192
 21
-33.900063
  0
LINE
  5
429
100
AcDbEntity
  8
0
100
AcDbLine
 62
7
  6
CONTINUOUS
 10
37.279492
 20
-31.617958
 11
37.279499
 21
-32.299352
  0
LINE
  5
42A
100
AcDbEntity
  8
0
100
AcDbLine
 62
7
  6
CONTINUOUS
 10
37.287283
 20
-32.817373
 11
37.28722
 21
-33.900063
  0
LINE
  5
42B
100
AcDbEntity
  8
0
100
AcDbLine
 62
7
  6
CONTINUOUS
 10
32.775804
 20
-31.099944
 11
32.252911
 21
-32.923486
  0
LINE
  5
42C
100
AcDbEntity
  8
0
100
AcDbLine
 62
7
  6
CONTINUOUS
 10
28.830023
 20
-31.099944
 11
28.211006
 21
-33.027982
  0
LINE
  5
42D
100
AcDbEntity
  8
0
100
AcDbLine
 62
7
  6
CONTINUOUS
 10
29.390051
 20
-31.099944
 11
28.49102
 21
-33.90007
  0
LINE
  5
42E
100
AcDbEntity
  8
RACCORDO
100
AcDbLine
 62
250
  6
CONTINUOUS
 10
-42.8814148175
 20
38.6000046167
 11
-42.8310844669
 21
38.6018076665
  0
LINE
  5
42F
100
AcDbEntity
  8
RACCORDO
100
AcDbLine
 62
250
  6
CONTINUOUS
 10
-42.8310844669
 20
38.6018076665
 11
-42.7543878379
 21
38.6041091432
  0
LINE
  5
430
100
AcDbEntity
  8
RACCORDO
100
AcDbLine
 62
250
  6
CONTINUOUS
 10
-42.7543878379
 20
38.6041091432
 11
-42.67654935
 21
38.6059238207
  0
LINE
  5
431
100
AcDbEntity
  8
RACCORDO
100
AcDbLine
 62
250
  6
CONTINUOUS
 10
-42.67654935
 20
38.6059238207
 11
-42.5979082571
 21
38.6072437862
  0
LWPOLYLINE
  5
432
100
AcDbEntity
  8
RACCORDO
100
AcDbPolyline
 62
250
  6
CONTINUOUS
 90
3
 70
0
 10
-42.5979082571
 20
38.6072437862
 10
-42.5188007973
 20
38.6080440162
 10
-42.4923965984
 20
38.6082212622
  0
LINE
  5
433
100
AcDbEntity
  8
RACCORDO
100
AcDbLine
 62
250
  6
CONTINUOUS
 10
-22.8985953545
 20
38.4472634921
 11
22.8986043143
 21
38.4472634921
  0
LINE
  5
434
100
AcDbEntity
  8
RACCORDO
100
AcDbLine
 62
250
  6
CONTINUOUS
 10
-42.4923965984
 20
38.6082212622
 11
-23.2187037326
 21
38.6082212622
  0
LINE
  5
435
100
AcDbEntity
  8
RACCORDO
100
AcDbLine
 62
250
  6
CONTINUOUS
 10
23.2187037326
 20
38.6082212622
 11
42.4923965984
 21
38.6082212622
  0
LINE
  5
436
100
AcDbEntity
  8
RACCORDO
100
AcDbLine
 62
250
  6
CONTINUOUS
 10
-42.4923965984
 20
39.6907520401
 11
42.4923965984
 21
39.6907520401
  0
LINE
  5
437
100
AcDbEntity
  8
RACCORDO
100
AcDbLine
 62
7
  6
CONTINUOUS
 10
-42.8016445583
 20
40.0
 11
42.8016445583
 21
40.0
  0
LINE
  5
438
100
AcDbEntity
  8
RACCORDO
100
AcDbLine
 62
250
  6
CONTINUOUS
 10
42.5715735557
 20
38.6075695503
 11
42.4923965984
 21
38.6082212622
  0
LINE
  5
439
100
AcDbEntity
  8
RACCORDO
100
AcDbLine
 62
250
  6
CONTINUOUS
 10
42.6504054342
 20
38.6064159254
 11
42.5715735557
 21
38.6075695503
  0
LINE
  5
43A
100
AcDbEntity
  8
RACCORDO
100
AcDbLine
 62
250
  6
CONTINUOUS
 10
42.7025985356
 20
38.6053703952
 11
42.6504054342
 21
38.6064159254
  0
LINE
  5
43B
100
AcDbEntity
  8
RACCORDO
100
AcDbLine
 62
250
  6
CONTINUOUS
 10
42.7543843866
 20
38.6041060077
 11
42.7025985356
 21
38.6053703952
  0
LINE
  5
43C
100
AcDbEntity
  8
RACCORDO
100
AcDbLine
 62
250
  6
CONTINUOUS
 10
42.8056626561
 20
38.6026252138
 11
42.7543843866
 21
38.6041060077
  0
LWPOLYLINE
  5
43D
100
AcDbEntity
  8
RACCORDO
100
AcDbPolyline
 62
250
  6
CONTINUOUS
 90
3
 70
0
 10
42.881411338
 20
38.6000046482
 10
42.8563339963
 20
38.6009308815
 10
42.8056626561
 20
38.6026252138
  0
LWPOLYLINE
  5
43E
100
AcDbEntity
  8
0
100
AcDbPolyline
 62
7
  6
CONTINUOUS
 90
13
 70
0
 43
0.3500000006
 10
-1.9285714102
 20
50.4642859039
 10
-2.2142856617
 20
50.6785703888
 10
-2.2142856617
 20
51.3214283752
 10
-1.9285714102
 20
51.7500018768
 10
-1.2857142735
 20
51.7500018768
 10
-1.0000000219
 20
51.3214283752
 10
-1.0000000219
 20
50.6785703888
 10
-1.2857142735
 20
50.4642859039
 10
-0.8571428254
 20
50.0357124023
 10
-0.8571428254
 20
49.178569931
 10
-1.2857142735
 20
48.7500009613
 10
-1.9285714102
 20
48.7500009613
 10
-2.3571427875
 20
49.178569931
  0
LINE
  5
43F
100
AcDbEntity
  8
RACCORDO
100
AcDbLine
 62
250
  6
CONTINUOUS
 10
42.4923965984
 20
-39.6907520401
 11
42.4923965984
 21
-38.6082212622
  0
LINE
  5
440
100
AcDbEntity
  8
RACCORDO
100
AcDbLine
 62
250
  6
CONTINUOUS
 10
42.4923965984
 20
38.6082212622
 11
42.4923965984
 21
39.6907520401
  0
LINE
  5
441
100
AcDbEntity
  8
DRAFT
100
AcDbLine
 62
7
  6
CONTINUOUS
 10
43.8951844414
 20
3.5
 11
43.8951844414
 21
-3.5
  0
LINE
  5
442
100
AcDbEntity
  8
RACCORDO
100
AcDbLine
 62
7
  6
CONTINUOUS
 10
44.0
 20
-38.8016445583
 11
44.0
 21
-3.6749773271
  0
LINE
  5
443
100
AcDbEntity
  8
RACCORDO
100
AcDbLine
 62
7
  6
CONTINUOUS
 10
44.0
 20
3.6749773271
 11
44.0
 21
38.8016445583
  0
LWPOLYLINE
  5
444
100
AcDbEntity
  8
RACCORDO
100
AcDbPolyline
 62
250
  6
CONTINUOUS
 90
64
 70
0
 10
42.4923965984
 20
38.6082212622
 10
42.4863035288
 20
37.3862017134
 10
42.4804065457
 20
36.163828787
 10
42.474705649
 20
34.9411139944
 10
42.469200787
 20
33.7180685499
 10
42.4638920115
 20
32.4947042721
 10
42.4587794772
 20
31.2710335852
 10
42.4538631905
 20
30.047068032
 10
42.449143145
 20
28.822819122
 10
42.4446194776
 20
27.5982992354
 10
42.4402921944
 20
26.373519908
 10
42.4361612892
 20
25.1484926731
 10
42.4322268802
 20
23.9232299117
 10
42.4284889737
 20
22.6977432649
 10
42.4249475634
 20
21.4720441752
 10
42.4216027487
 20
20.2461447295
 10
42.418454536
 20
19.0200568232
 10
42.4155029189
 20
17.7937916562
 10
42.4127479771
 20
16.5673602745
 10
42.4101897162
 20
15.3407743839
 10
42.4078281306
 20
14.1140453825
 10
42.405663284
 20
12.887183857
 10
42.4036951813
 20
11.6602013399
 10
42.4019238175
 20
10.4331094094
 10
42.4003492416
 20
9.2059187221
 10
42.3989714583
 20
7.9786406678
 10
42.3977904628
 20
6.7512869729
 10
42.3968062892
 20
5.5238687995
 10
42.3960189426
 20
4.2963973857
 10
42.3954284178
 20
3.0688846138
 10
42.3950347327
 20
1.8413426126
 10
42.3948378931
 20
0.6137829154
 10
42.3948378931
 20
-0.6137828884
 10
42.3950347327
 20
-1.8413425859
 10
42.3954284178
 20
-3.0688845878
 10
42.3960189426
 20
-4.2963973607
 10
42.3968062891
 20
-5.5238687755
 10
42.3977904628
 20
-6.7512869499
 10
42.3989714583
 20
-7.9786406458
 10
42.4003492415
 20
-9.2059187004
 10
42.4019238175
 20
-10.4331093871
 10
42.4036951812
 20
-11.6602013161
 10
42.405663284
 20
-12.8871838314
 10
42.4078281305
 20
-14.1140453545
 10
42.4101897161
 20
-15.3407743529
 10
42.412747977
 20
-16.5673602406
 10
42.4155029188
 20
-17.793791619
 10
42.4184545359
 20
-19.0200567826
 10
42.4216027486
 20
-20.2461446863
 10
42.4249475633
 20
-21.4720441307
 10
42.4284889736
 20
-22.6977432199
 10
42.43222688
 20
-23.9232298673
 10
42.436161289
 20
-25.1484926308
 10
42.4402921943
 20
-26.3735198688
 10
42.4446194775
 20
-27.5982991999
 10
42.4491431449
 20
-28.8228190908
 10
42.4538631904
 20
-30.0470680057
 10
42.4587794772
 20
-31.2710335637
 10
42.4638920114
 20
-32.4947042554
 10
42.469200787
 20
-33.718068538
 10
42.474705649
 20
-34.9411139867
 10
42.4804065457
 20
-36.1638287825
 10
42.4863035288
 20
-37.3862017115
 10
42.4923965984
 20
-38.6082212622
  0
LWPOLYLINE
  5
445
100
AcDbEntity
  8
RACCORDO
100
AcDbPolyline
 62
250
  6
CONTINUOUS
 90
64
 70
0
 10
43.6907520427
 20
38.492396601
 10
43.6846590393
 20
37.2740382886
 10
43.6787621031
 20
36.0553467143
 10
43.6730612342
 20
34.8363218781
 10
43.6675563743
 20
33.6169506652
 10
43.6622475817
 20
32.3972461905
 10
43.6571350312
 20
31.1772477986
 10
43.6522187356
 20
29.9569568513
 10
43.647498682
 20
28.7363719869
 10
43.6429750068
 20
27.5155284647
 10
43.638647716
 20
26.2944262539
 10
43.6345168036
 20
25.0730653853
 10
43.6305823878
 20
23.8514812115
 10
43.6268444748
 20
22.62967383
 10
43.6233030585
 20
21.4076431434
 10
43.619958238
 20
20.1854242122
 10
43.6168100198
 20
18.9630173768
 10
43.6138583976
 20
17.7404222969
 10
43.611103451
 20
16.5176730128
 10
43.6085451856
 20
15.2947696739
 10
43.6061835958
 20
14.0717121308
 10
43.6040187454
 20
12.848533975
 10
43.6020506392
 20
11.6252351807
 10
43.6002792723
 20
10.4018157737
 10
43.5987046935
 20
9.1783094223
 10
43.5973269077
 20
7.9547159469
 10
43.5961459101
 20
6.7310355272
 10
43.5951617346
 20
5.5073023704
 10
43.5943743866
 20
4.2835161747
 10
43.5937838608
 20
3.0596772419
 10
43.5933901749
 20
1.8358206845
 10
43.5931933349
 20
0.6119464574
 10
43.5931933348
 20
-0.6119453943
 10
43.5933901746
 20
-1.8358196224
 10
43.5937838604
 20
-3.059676182
 10
43.594374386
 20
-4.283515118
 10
43.5951617338
 20
-5.5073013172
 10
43.5961459092
 20
-6.7310344782
 10
43.5973269066
 20
-7.9547149024
 10
43.5987046922
 20
-9.1783083803
 10
43.6002792708
 20
-10.4018147315
 10
43.6020506376
 20
-11.6252341365
 10
43.6040187436
 20
-12.8485329273
 10
43.6061835939
 20
-14.0717110782
 10
43.6085451834
 20
-15.2947686149
 10
43.6111034487
 20
-16.5176719461
 10
43.6138583951
 20
-17.7404212206
 10
43.6168100171
 20
-18.9630162895
 10
43.6199582351
 20
-20.1854231148
 10
43.6233030554
 20
-21.4076420369
 10
43.6268444715
 20
-22.6296727153
 10
43.6305823843
 20
-23.8514800912
 10
43.6345167999
 20
-25.0730642637
 10
43.6386477121
 20
-26.2944251336
 10
43.6429750027
 20
-27.5155273439
 10
43.6474986777
 20
-28.7363708533
 10
43.652218731
 20
-29.9569557031
 10
43.6571350265
 20
-31.1772466605
 10
43.662247577
 20
-32.3972450777
 10
43.6675563696
 20
-33.6169496026
 10
43.6730612299
 20
-34.8363209463
 10
43.6787620998
 20
-36.0553460124
 10
43.6846590373
 20
-37.2740378972
 10
43.6907520425
 20
-38.4923966008
  0
LINE
  5
446
100
AcDbEntity
  8
0
100
AcDbLine
 62
7
  6
CONTINUOUS
 10
33.062377
 20
-32.053575
 11
32.532911
 21
-33.900063
  0
LINE
  5
447
100
AcDbEntity
  8
0
100
AcDbLine
 62
7
  6
CONTINUOUS
 10
34.894767
 20
-31.099937
 11
33.99575
 21
-33.90007
  0
LINE
  5
448
100
AcDbEntity
  8
0
100
AcDbLine
 62
7
  6
CONTINUOUS
 10
35.174788
 20
-31.972032
 11
34.903391
 21
-32.81738
  0
LINE
  5
449
100
AcDbEntity
  8
0
100
AcDbLine
 62
7
  6
CONTINUOUS
 10
34.73257
 20
-33.349401
 11
34.555771
 21
-33.900063
  0
LINE
  5
44A
100
AcDbEntity
  8
RACCORDO
100
AcDbLine
 62
250
  6
CONTINUOUS
 10
23.058783399
 20
-38.2884229139
 11
22.9701303774
 21
-38.376529304
  0
LINE
  5
44B
100
AcDbEntity
  8
RACCORDO
100
AcDbLine
 62
250
  6
CONTINUOUS
 10
22.9701303774
 20
-38.376529304
 11
22.8985953548
 21
-38.4472635002
  0
LINE
  5
44C
100
AcDbEntity
  8
RACCORDO
100
AcDbLine
 62
250
  6
CONTINUOUS
 10
-43.4005365732
 20
38.5635296243
 11
-43.3651405405
 21
38.5674958968
  0
LWPOLYLINE
  5
44D
100
AcDbEntity
  8
RACCORDO
100
AcDbPolyline
 62
250
  6
CONTINUOUS
 90
3
 70
0
 10
-43.3651405405
 20
38.5674958968
 10
-43.3280513252
 20
38.5713038481
 10
-43.3088971323
 20
38.5731638922
  0
LINE
  5
44E
100
AcDbEntity
  8
RACCORDO
100
AcDbLine
 62
250
  6
CONTINUOUS
 10
-43.3088971323
 20
38.5731638922
 11
-43.2694070415
 21
38.576740182
  0
LINE
  5
44F
100
AcDbEntity
  8
RACCORDO
100
AcDbLine
 62
250
  6
CONTINUOUS
 10
-43.2694070415
 20
38.576740182
 11
-43.2284138686
 21
38.5801660129
  0
LINE
  5
450
100
AcDbEntity
  8
RACCORDO
100
AcDbLine
 62
250
  6
CONTINUOUS
 10
-43.2284138686
 20
38.5801660129
 11
-43.1859949811
 21
38.583420894
  0
LINE
  5
451
100
AcDbEntity
  8
RACCORDO
100
AcDbLine
 62
250
  6
CONTINUOUS
 10
-43.1859949811
 20
38.583420894
 11
-43.1422293479
 21
38.5864881141
  0
LINE
  5
452
100
AcDbEntity
  8
RACCORDO
100
AcDbLine
 62
250
  6
CONTINUOUS
 10
-43.1422293479
 20
38.5864881141
 11
-43.0972075378
 21
38.5893849531
  0
LINE
  5
453
100
AcDbEntity
  8
RACCORDO
100
AcDbLine
 62
250
  6
CONTINUOUS
 10
-43.0972075378
 20
38.5893849531
 11
-43.0510140331
 21
38.592093073
  0
LINE
  5
454
100
AcDbEntity
  8
RACCORDO
100
AcDbLine
 62
250
  6
CONTINUOUS
 10
-43.0510140331
 20
38.592093073
 11
-43.0037351432
 21
38.5945976108
  0
LINE
  5
455
100
AcDbEntity
  8
RACCORDO
100
AcDbLine
 62
250
  6
CONTINUOUS
 10
-43.0037351432
 20
38.5945976108
 11
-42.9554686363
 21
38.5969150665
  0
LWPOLYLINE
  5
456
100
AcDbEntity
  8
RACCORDO
100
AcDbPolyline
 62
250
  6
CONTINUOUS
 90
3
 70
0
 10
-42.9554686363
 20
38.5969150665
 10
-42.9063049608
 20
38.5990294191
 10
-42.8814148175
 20
38.6000046167
  0
LINE
  5
457
100
AcDbEntity
  8
RACCORDO
100
AcDbLine
 62
250
  6
CONTINUOUS
 10
42.9309886313
 20
38.5979962911
 11
42.881411338
 21
38.6000046482
  0
LINE
  5
458
100
AcDbEntity
  8
RACCORDO
100
AcDbLine
 62
250
  6
CONTINUOUS
 10
42.9797161856
 20
38.5957833638
 11
42.9309886313
 21
38.5979962911
  0
LINE
  5
459
100
AcDbEntity
  8
RACCORDO
100
AcDbLine
 62
250
  6
CONTINUOUS
 10
43.0274995949
 20
38.5933701541
 11
42.9797161856
 21
38.5957833638
  0
LINE
  5
45A
100
AcDbEntity
  8
RACCORDO
100
AcDbLine
 62
250
  6
CONTINUOUS
 10
43.0742462824
 20
38.5907613372
 11
43.0274995949
 21
38.5933701541
  0
LINE
  5
45B
100
AcDbEntity
  8
RACCORDO
100
AcDbLine
 62
250
  6
CONTINUOUS
 10
43.11986568
 20
38.5879619673
 11
43.0742462824
 21
38.5907613372
  0
LINE
  5
45C
100
AcDbEntity
  8
RACCORDO
100
AcDbLine
 62
250
  6
CONTINUOUS
 10
43.1642694034
 20
38.5849774683
 11
43.11986568
 21
38.5879619673
  0
LINE
  5
45D
100
AcDbEntity
  8
RACCORDO
100
AcDbLine
 62
250
  6
CONTINUOUS
 10
43.2073714238
 20
38.5818136223
 11
43.1642694034
 21
38.5849774683
  0
LINE
  5
45E
100
AcDbEntity
  8
RACCORDO
100
AcDbLine
 62
250
  6
CONTINUOUS
 10
43.2490882344
 20
38.5784765589
 11
43.2073714238
 21
38.5818136223
  0
LINE
  5
45F
100
AcDbEntity
  8
RACCORDO
100
AcDbLine
 62
250
  6
CONTINUOUS
 10
43.2893390118
 20
38.5749727436
 11
43.2490882344
 21
38.5784765589
  0
LINE
  5
460
100
AcDbEntity
  8
RACCORDO
100
AcDbLine
 62
250
  6
CONTINUOUS
 10
43.3280457732
 20
38.5713089647
 11
43.2893390118
 21
38.5749727436
  0
LWPOLYLINE
  5
461
100
AcDbEntity
  8
0
100
AcDbPolyline
 62
7
  6
CONTINUOUS
 90
13
 70
0
 43
0.3500000006
 10
0.4285714127
 20
50.4642859039
 10
0.1428571435
 20
50.6785703888
 10
0.1428571435
 20
51.3214283752
 10
0.4285714127
 20
51.7500018768
 10
1.0714285848
 20
51.7500018768
 10
1.3571429071
 20
51.3214283752
 10
1.3571429071
 20
50.6785703888
 10
1.0714285848
 20
50.4642859039
 10
1.5000000329
 20
50.0357124023
 10
1.5000000329
 20
49.178569931
 10
1.0714285848
 20
48.7500009613
 10
0.4285714127
 20
48.7500009613
 10
0.0
 20
49.178569931
  0
LWPOLYLINE
  5
462
100
AcDbEntity
  8
RACCORDO
100
AcDbPolyline
 62
250
  6
CONTINUOUS
 90
3
 70
0
 10
23.0587834054
 20
38.2884229092
 10
23.0411625827
 20
38.3059751354
 10
22.8985953545
 20
38.4472634919
  0
LWPOLYLINE
  5
463
100
AcDbEntity
  8
RACCORDO
100
AcDbPolyline
 62
250
  6
CONTINUOUS
 90
70
 70
0
 10
43.6907520401
 20
38.4923965984
 10
43.6903681473
 20
38.5196226599
 10
43.6893657562
 20
38.5468358757
 10
43.6877453017
 20
38.5740221933
 10
43.6855075004
 20
38.6011679728
 10
43.6826534452
 20
38.6282587865
 10
43.6791846956
 20
38.6552794357
 10
43.6751031121
 20
38.6822155439
 10
43.6704107527
 20
38.7090536254
 10
43.6651100262
 20
38.7357798899
 10
43.659203654
 20
38.7623805819
 10
43.6526946907
 20
38.7888419151
 10
43.6455865134
 20
38.8151501501
 10
43.6378828016
 20
38.8412916739
 10
43.629587527
 20
38.8672530135
 10
43.6207049708
 20
38.89302077
 10
43.6112397183
 20
38.9185816404
 10
43.6011966588
 20
38.9439224198
 10
43.5905809807
 20
38.9690300165
 10
43.5793981673
 20
38.9938914621
 10
43.5676539928
 20
39.0184939195
 10
43.5553545213
 20
39.0428246853
 10
43.5425061042
 20
39.0668711951
 10
43.529115377
 20
39.0906210297
 10
43.5151892551
 20
39.1140619238
 10
43.5007349304
 20
39.1371817715
 10
43.4857598674
 20
39.1599686332
 10
43.4702717996
 20
39.1824107409
 10
43.4542787253
 20
39.204496505
 10
43.4377889039
 20
39.2262145194
 10
43.4208108511
 20
39.2475535682
 10
43.403353335
 20
39.2685026311
 10
43.3854253711
 20
39.2890508893
 10
43.367036218
 20
39.3091877309
 10
43.3481953723
 20
39.3289027564
 10
43.3289125641
 20
39.3481857844
 10
43.3091977517
 20
39.3670268563
 10
43.2890611164
 20
39.3854162419
 10
43.2685130573
 20
39.4033444443
 10
43.2475641863
 20
39.4208022046
 10
43.2262253219
 20
39.4377805071
 10
43.2045074842
 20
39.4542705835
 10
43.1824218891
 20
39.4702639178
 10
43.1599799422
 20
39.4857522504
 10
43.1371932333
 20
39.5007275825
 10
43.1140735303
 20
39.5151821804
 10
43.090632773
 20
39.5291085792
 10
43.0668830667
 20
39.5424995869
 10
43.0428366768
 20
39.5553482877
 10
43.0185060217
 20
39.5676480462
 10
42.9939036662
 20
39.5793925104
 10
42.9690423162
 20
39.590575615
 10
42.9439348106
 20
39.6011915847
 10
42.9185941159
 20
39.6112349369
 10
42.8930333189
 20
39.620700485
 10
42.86726562
 20
39.6295833407
 10
42.8413043263
 20
39.6378789164
 10
42.8151628454
 20
39.6455829282
 10
42.7888546775
 20
39.6526913973
 10
42.762393409
 20
39.6592006527
 10
42.7357927054
 20
39.6651073328
 10
42.7090663041
 20
39.6704083873
 10
42.6822280076
 20
39.6751010784
 10
42.6552916764
 20
39.6791829827
 10
42.6282712214
 20
39.6826519921
 10
42.6011805967
 20
39.6855063152
 10
42.5740337924
 20
39.687744478
 10
42.546844828
 20
39.6893653245
 10
42.5196277447
 20
39.6903680179
 10
42.4923965984
 20
39.6907520401
  0
LWPOLYLINE
  5
464
100
AcDbEntity
  8
RACCORDO
100
AcDbPolyline
 62
250
  6
CONTINUOUS
 90
70
 70
0
 10
43.6907520401
 20
-38.4923965984
 10
43.690368023
 20
-38.5196275444
 10
43.6893653438
 20
-38.5468444277
 10
43.6877445206
 20
-38.5740331927
 10
43.6855063901
 20
-38.6011797987
 10
43.6826521084
 20
-38.6282702263
 10
43.6791831494
 20
-38.6552904854
 10
43.6751013045
 20
-38.682226622
 10
43.6704086817
 20
-38.7090647258
 10
43.6651077045
 20
-38.7357909368
 10
43.6592011104
 20
-38.762391453
 10
43.6526919496
 20
-38.7888525372
 10
43.6455835837
 20
-38.8151605242
 10
43.6378796836
 20
-38.841301828
 10
43.6295842278
 20
-38.8672629485
 10
43.6207015003
 20
-38.8930304788
 10
43.6112360883
 20
-38.9185911119
 10
43.60119288
 20
-38.9439316476
 10
43.5905770619
 20
-38.9690389995
 10
43.5793941164
 20
-38.9939002015
 10
43.5676498186
 20
-39.0185024146
 10
43.5553502335
 20
-39.0428329338
 10
43.5425017129
 20
-39.0668791941
 10
43.5291108922
 20
-39.0906287773
 10
43.5151846866
 20
-39.1140694188
 10
43.5007302881
 20
-39.137189013
 10
43.4857551612
 20
-39.1599756206
 10
43.4702670394
 20
-39.1824174739
 10
43.4542739212
 20
-39.2045029834
 10
43.4377840658
 20
-39.2262207436
 10
43.4208059891
 20
-39.2475595389
 10
43.4033484588
 20
-39.2685083495
 10
43.3854204906
 20
-39.2890563568
 10
43.3670313428
 20
-39.3091929494
 10
43.348190512
 20
-39.3289077282
 10
43.3289077282
 20
-39.348190512
 10
43.3091929494
 20
-39.3670313428
 10
43.2890563568
 20
-39.3854204906
 10
43.2685083495
 20
-39.4033484588
 10
43.2475595389
 20
-39.4208059891
 10
43.2262207436
 20
-39.4377840658
 10
43.2045029834
 20
-39.4542739212
 10
43.1824174739
 20
-39.4702670394
 10
43.1599756206
 20
-39.4857551612
 10
43.137189013
 20
-39.5007302881
 10
43.1140694188
 20
-39.5151846866
 10
43.0906287773
 20
-39.5291108922
 10
43.0668791941
 20
-39.5425017129
 10
43.0428329338
 20
-39.5553502335
 10
43.0185024146
 20
-39.5676498186
 10
42.9939002015
 20
-39.5793941164
 10
42.9690389995
 20
-39.5905770619
 10
42.9439316476
 20
-39.60119288
 10
42.9185911119
 20
-39.6112360883
 10
42.8930304788
 20
-39.6207015003
 10
42.8672629485
 20
-39.6295842278
 10
42.841301828
 20
-39.6378796836
 10
42.8151605242
 20
-39.6455835837
 10
42.7888525372
 20
-39.6526919496
 10
42.762391453
 20
-39.6592011104
 10
42.7357909368
 20
-39.6651077045
 10
42.7090647258
 20
-39.6704086817
 10
42.682226622
 20
-39.6751013045
 10
42.6552904854
 20
-39.6791831494
 10
42.6282702263
 20
-39.6826521084
 10
42.6011797987
 20
-39.6855063901
 10
42.5740331927
 20
-39.6877445206
 10
42.5468444277
 20
-39.6893653438
 10
42.5196275444
 20
-39.690368023
 10
42.4923965984
 20
-39.6907520401
  0
LWPOLYLINE
  5
465
100
AcDbEntity
  8
RACCORDO
100
AcDbPolyline
 62
250
  6
CONTINUOUS
 90
31
 70
0
 10
43.6907520401
 20
-38.4923965984
 10
43.6890840536
 20
-38.4949616463
 10
43.6868388593
 20
-38.49750935
 10
43.6840177132
 20
-38.500047276
 10
43.6806178399
 20
-38.5025907684
 10
43.6766392762
 20
-38.5051364598
 10
43.6720893494
 20
-38.5076661599
 10
43.6669689218
 20
-38.5101904724
 10
43.6612760247
 20
-38.5127147907
 10
43.6550194062
 20
-38.5152183269
 10
43.6482006458
 20
-38.517712536
 10
43.6408184757
 20
-38.5202046127
 10
43.632882257
 20
-38.5226712476
 10
43.6243946944
 20
-38.5251244847
 10
43.6153556501
 20
-38.5275732514
 10
43.6057743687
 20
-38.5299922189
 10
43.595654881
 20
-38.5323938588
 10
43.5849985346
 20
-38.5347885495
 10
43.5738139588
 20
-38.5371493923
 10
43.5621065668
 20
-38.5394890566
 10
43.5498794087
 20
-38.5418190855
 10
43.5371402853
 20
-38.5441115536
 10
43.5238959856
 20
-38.5463791429
 10
43.510151317
 20
-38.5486342264
 10
43.4959132029
 20
-38.5508483682
 10
43.4811897251
 20
-38.553034096
 10
43.4659874034
 20
-38.5552042899
 10
43.4503123822
 20
-38.557330475
 10
43.4341739294
 20
-38.5594248991
 10
43.4175801503
 20
-38.5615006562
 10
43.4005365732
 20
-38.5635296244
  0
LWPOLYLINE
  5
466
100
AcDbEntity
  8
RACCORDO
100
AcDbPolyline
 62
250
  6
CONTINUOUS
 90
34
 70
0
 10
43.6907520401
 20
38.4923965984
 10
43.6890860817
 20
38.4949489168
 10
43.6868404292
 20
38.4975000023
 10
43.6840161702
 20
38.5000486201
 10
43.6806146731
 20
38.5025935373
 10
43.6766375854
 20
38.5051335213
 10
43.6720868338
 20
38.50766734
 10
43.6669646227
 20
38.5101937666
 10
43.6612734334
 20
38.5127115781
 10
43.6550160228
 20
38.5152195535
 10
43.6481954221
 20
38.5177164783
 10
43.6408149352
 20
38.5202011438
 10
43.6328781374
 20
38.5226723453
 10
43.6243888733
 20
38.5251288861
 10
43.6153512554
 20
38.5275695766
 10
43.6057696616
 20
38.5299932339
 10
43.5956487333
 20
38.5323986841
 10
43.5849933732
 20
38.5347847624
 10
43.5738087431
 20
38.5371503124
 10
43.5621002608
 20
38.5394941883
 10
43.5498735982
 20
38.5418152551
 10
43.5371346779
 20
38.5441123879
 10
43.5238896711
 20
38.5463844742
 10
43.5101449936
 20
38.5486304135
 10
43.4959073037
 20
38.5508491175
 10
43.4811834983
 20
38.5530395116
 10
43.4659807099
 20
38.5552005349
 10
43.4503063028
 20
38.5573311402
 10
43.43416787
 20
38.5594302957
 10
43.4175732292
 20
38.5614969845
 10
43.4005304191
 20
38.5635302054
 10
43.3830476955
 20
38.5655289734
 10
43.3651335272
 20
38.5674923204
 10
43.3280457732
 20
38.5713089647
  0
LWPOLYLINE
  5
467
100
AcDbEntity
  8
RACCORDO
100
AcDbPolyline
 62
250
  6
CONTINUOUS
 90
7
 70
0
 10
-63.4120176021
 20
-38.6064159499
 10
-63.4151797777
 20
-38.6068527962
 10
-63.4177655681
 20
-38.6072437863
 10
-63.4197762146
 20
-38.6075695663
 10
-63.4212105338
 20
-38.6078299577
 10
-63.422065617
 20
-38.6080440162
 10
-63.4223403287
 20
-38.6082212622
  0
LINE
  5
468
100
AcDbEntity
  8
RACCORDO
100
AcDbLine
 62
250
  6
CONTINUOUS
 10
-63.4039756382
 20
-38.6053671513
 11
-63.4120176021
 21
-38.6064159499
  0
LINE
  5
469
100
AcDbEntity
  8
RACCORDO
100
AcDbLine
 62
250
  6
CONTINUOUS
 10
-63.3876458718
 20
-38.6033891381
 11
-63.4039756382
 21
-38.6053671513
  0
LINE
  5
46A
100
AcDbEntity
  8
RACCORDO
100
AcDbLine
 62
250
  6
CONTINUOUS
 10
-63.3580251444
 20
-38.6000046167
 11
-63.3876458718
 21
-38.6033891381
  0
LINE
  5
46B
100
AcDbEntity
  8
RACCORDO
100
AcDbLine
 62
250
  6
CONTINUOUS
 10
-63.0288068372
 20
-38.5655236833
 11
-63.3580251444
 21
-38.6000046167
  0
LINE
  5
46C
100
AcDbEntity
  8
RACCORDO
100
AcDbLine
 62
250
  6
CONTINUOUS
 10
-62.2907462863
 20
-38.4923965984
 11
-63.0288068372
 21
-38.5655236833
  0
LINE
  5
46D
100
AcDbEntity
  8
RACCORDO
100
AcDbLine
 62
7
  6
CONTINUOUS
 10
-62.2907462863
 20
-39.6907520401
 11
-56.3899436929
 21
-40.0
  0
LINE
  5
46E
100
AcDbEntity
  8
RACCORDO
100
AcDbLine
 62
250
  6
CONTINUOUS
 10
-62.2907462405
 20
-38.4923966008
 11
-56.3899436929
 21
-38.8016445583
  0
LWPOLYLINE
  5
46F
100
AcDbEntity
  8
0
100
AcDbPolyline
 62
7
  6
CONTINUOUS
 90
10
 70
0
 43
0.3500000006
 10
-59.5542282715
 20
48.7500009613
 10
-58.6970858002
 20
49.6071434326
 10
-58.4828013153
 20
50.4642859039
 10
-58.4828013153
 20
51.3214283752
 10
-58.911370285
 20
51.7500018768
 10
-59.5542282715
 20
51.7500018768
 10
-59.9828017731
 20
51.3214283752
 10
-59.9828017731
 20
50.4642859039
 10
-59.5542282715
 20
50.0357124023
 10
-58.6256591492
 20
50.0357124023
  0
LINE
  5
470
100
AcDbEntity
  8
0
100
AcDbLine
 62
7
  6
CONTINUOUS
 10
-63.8508376642
 20
-33.900056
 11
-64.0013790734
 21
-33.900056
  0
LINE
  5
471
100
AcDbEntity
  8
0
100
AcDbLine
 62
7
  6
CONTINUOUS
 10
-63.9469836299
 20
-32.7500306669
 11
-64.097488746
 21
-32.7500306669
  0
LINE
  5
472
100
AcDbEntity
  8
0
100
AcDbLine
 62
7
  6
CONTINUOUS
 10
-64.0791034234
 20
-31.099937
 11
-64.2295588905
 21
-31.099937
  0
LWPOLYLINE
  5
473
100
AcDbEntity
  8
0
100
AcDbPolyline
 62
7
  6
CONTINUOUS
 90
3
 70
0
 43
0.3500000006
 10
-60.9828020782
 20
49.0357120972
 10
-61.0542287292
 20
48.8214276123
 10
-61.1970865631
 20
48.5357164764
  0
LWPOLYLINE
  5
474
100
AcDbEntity
  8
0
100
AcDbPolyline
 62
7
  6
CONTINUOUS
 90
13
 70
0
 43
0.3500000006
 10
-75.749991394
 20
-1.9285708809
 10
-75.9642758789
 20
-2.2142854156
 10
-76.6071383972
 20
-2.2142854156
 10
-77.0357073669
 20
-1.9285708809
 10
-77.0357073669
 20
-1.2857140274
 10
-76.6071383972
 20
-1.0000006256
 10
-75.9642758789
 20
-1.0000006256
 10
-75.749991394
 20
-1.2857140274
 10
-75.3214178925
 20
-0.8571427917
 10
-74.4642754211
 20
-0.8571427917
 10
-74.0357064514
 20
-1.2857140274
 10
-74.0357064514
 20
-1.9285708809
 10
-74.4642754211
 20
-2.3571432495
  0
LWPOLYLINE
  5
475
100
AcDbEntity
  8
RACCORDO
100
AcDbPolyline
 62
250
  6
CONTINUOUS
 90
64
 70
0
 10
-62.2907462361
 20
38.492396601
 10
-62.4070076679
 20
37.2740382886
 10
-62.5195279131
 20
36.0553467143
 10
-62.6283069717
 20
34.8363218781
 10
-62.7333459554
 20
33.6169506652
 10
-62.8346437525
 20
32.3972461905
 10
-62.932197028
 20
31.1772477986
 10
-63.0260055371
 20
29.9569568513
 10
-63.1160695246
 20
28.7363719869
 10
-63.2023863893
 20
27.5155284647
 10
-63.2849560161
 20
26.2944262539
 10
-63.3637785202
 20
25.0730653853
 10
-63.4388516463
 20
23.8514812115
 10
-63.5101752741
 20
22.62967383
 10
-63.5777495239
 20
21.4076431434
 10
-63.641572501
 20
20.1854242122
 10
-63.7016440816
 20
18.9630173768
 10
-63.7579643895
 20
17.7404222969
 10
-63.8105319014
 20
16.5176730128
 10
-63.8593465139
 20
15.2947696739
 10
-63.9044083304
 20
14.0717121308
 10
-63.9457161374
 20
12.848533975
 10
-63.9832698412
 20
11.6252351807
 10
-64.0170695356
 20
10.4018157737
 10
-64.047114289
 20
9.1783094223
 10
-64.0734040071
 20
7.9547159469
 10
-64.0959387841
 20
6.7310355272
 10
-64.1147179713
 20
5.5073023704
 10
-64.1297414656
 20
4.2835161747
 10
-64.14100937
 20
3.0596772419
 10
-64.1485213445
 20
1.8358206845
 10
-64.152277276
 20
0.6119464574
 10
-64.1522772776
 20
-0.6119453943
 10
-64.1485213494
 20
-1.8358196224
 10
-64.1410093781
 20
-3.059676182
 10
-64.1297414769
 20
-4.283515118
 10
-64.1147179859
 20
-5.5073013172
 10
-64.0959388018
 20
-6.7310344782
 10
-64.0734040279
 20
-7.9547149024
 10
-64.0471143129
 20
-9.1783083803
 10
-64.0170695628
 20
-10.4018147315
 10
-63.9832698717
 20
-11.6252341365
 10
-63.9457161712
 20
-12.8485329273
 10
-63.9044083675
 20
-14.0717110782
 10
-63.8593465546
 20
-15.2947686149
 10
-63.8105319456
 20
-16.5176719461
 10
-63.7579644375
 20
-17.7404212206
 10
-63.7016441334
 20
-18.9630162895
 10
-63.6415725566
 20
-20.1854231148
 10
-63.5777495834
 20
-21.4076420369
 10
-63.5101753375
 20
-22.6296727153
 10
-63.4388517134
 20
-23.8514800912
 10
-63.3637785908
 20
-25.0730642637
 10
-63.2849560901
 20
-26.2944251336
 10
-63.2023864668
 20
-27.5155273439
 10
-63.1160696066
 20
-28.7363708533
 10
-63.0260056238
 20
-29.9569557031
 10
-62.9321971172
 20
-31.1772466605
 10
-62.8346438433
 20
-32.3972450777
 10
-62.7333460455
 20
-33.6169496026
 10
-62.6283070534
 20
-34.8363209463
 10
-62.5195279768
 20
-36.0553460124
 10
-62.4070077058
 20
-37.2740378972
 10
-62.2907462405
 20
-38.4923966008
  0
LINE
  5
476
100
AcDbEntity
  8
RACCORDO
100
AcDbLine
 62
7
  6
CONTINUOUS
 10
-63.4223403287
 20
38.6082212622
 11
-63.421038044
 21
38.6209444382
  0
LWPOLYLINE
  5
477
100
AcDbEntity
  8
RACCORDO
100
AcDbPolyline
 62
250
  6
CONTINUOUS
 90
25
 70
0
 10
-62.3141256831
 20
-39.5151846866
 10
-62.3136270527
 20
-39.5291108922
 10
-62.3130841729
 20
-39.5425017129
 10
-62.3124973242
 20
-39.5553502335
 10
-62.3118668097
 20
-39.5676498186
 10
-62.3111929549
 20
-39.5793941164
 10
-62.3104761079
 20
-39.5905770619
 10
-62.3097166388
 20
-39.60119288
 10
-62.3089149398
 20
-39.6112360883
 10
-62.308071425
 20
-39.6207015003
 10
-62.30718653
 20
-39.6295842278
 10
-62.3062607117
 20
-39.6378796836
 10
-62.3052944484
 20
-39.6455835837
 10
-62.3042882388
 20
-39.6526919496
 10
-62.3032426028
 20
-39.6592011104
 10
-62.3021580804
 20
-39.6651077045
 10
-62.3010352314
 20
-39.6704086817
 10
-62.2998746359
 20
-39.6751013045
 10
-62.2986768933
 20
-39.6791831494
 10
-62.2974426219
 20
-39.6826521084
 10
-62.2961724593
 20
-39.6855063901
 10
-62.2948670615
 20
-39.6877445206
 10
-62.2935271024
 20
-39.6893653438
 10
-62.2921532742
 20
-39.690368023
 10
-62.2907462863
 20
-39.6907520401
  0
LWPOLYLINE
  5
478
100
AcDbEntity
  8
RACCORDO
100
AcDbPolyline
 62
250
  6
CONTINUOUS
 90
3
 70
0
 10
-62.3153536188
 20
-39.4702670394
 10
-62.3149891891
 20
-39.4857551612
 10
-62.3141256831
 20
-39.5151846866
  0
LWPOLYLINE
  5
479
100
AcDbEntity
  8
0
100
AcDbPolyline
 62
7
  6
CONTINUOUS
 90
4
 70
0
 43
0.3500000006
 10
-64.0542296448
 20
49.178569931
 10
-64.0542296448
 20
50.0357124023
 10
-63.6256561432
 20
50.4642859039
 10
-62.9828026886
 20
50.4642859039
  0
LWPOLYLINE
  5
47A
100
AcDbEntity
  8
RACCORDO
100
AcDbPolyline
 62
250
  6
CONTINUOUS
 90
27
 70
0
 10
-62.3153536865
 20
39.4702639178
 10
-62.3145798862
 20
39.5007275825
 10
-62.3141257672
 20
39.5151821804
 10
-62.3136271408
 20
39.5291085792
 10
-62.3130842644
 20
39.5424995869
 10
-62.3124974184
 20
39.5553482877
 10
-62.3118669059
 20
39.5676480462
 10
-62.3111930523
 20
39.5793925104
 10
-62.3104762059
 20
39.590575615
 10
-62.3097167366
 20
39.6011915847
 10
-62.3089150369
 20
39.6112349369
 10
-62.3080715206
 20
39.620700485
 10
-62.3071866235
 20
39.6295833407
 10
-62.3062608025
 20
39.6378789164
 10
-62.3052945356
 20
39.6455829282
 10
-62.3042883221
 20
39.6526913973
 10
-62.3032426814
 20
39.6592006527
 10
-62.3021581536
 20
39.6651073328
 10
-62.3010352987
 20
39.6704083873
 10
-62.2998746967
 20
39.6751010784
 10
-62.2986769469
 20
39.6791829827
 10
-62.297442668
 20
39.6826519921
 10
-62.2961724972
 20
39.6855063152
 10
-62.2948670907
 20
39.687744478
 10
-62.2935271224
 20
39.6893653245
 10
-62.2921532844
 20
39.6903680179
 10
-62.2907462863
 20
39.6907520401
  0
LWPOLYLINE
  5
47B
100
AcDbEntity
  8
0
100
AcDbPolyline
 62
7
  6
CONTINUOUS
 90
4
 70
0
 43
0.3500000006
 10
-74.4642754211
 20
-2.3571432495
 10
-75.3214178925
 20
-2.3571432495
 10
-75.749991394
 20
-1.9285708809
 10
-75.749991394
 20
-1.2857140274
  0
LINE
  5
47C
100
AcDbEntity
  8
DRAFT
100
AcDbLine
 62
7
  6
CONTINUOUS
 10
-58.3899436929
 20
-3.5
 11
-56.3899436929
 21
-3.6749773271
  0
LINE
  5
47D
100
AcDbEntity
  8
RACCORDO
100
AcDbLine
 62
250
  6
CONTINUOUS
 10
-62.2961718978
 20
38.6011679728
 11
-62.2998741501
 21
38.6822155439
  0
LINE
  5
47E
100
AcDbEntity
  8
RACCORDO
100
AcDbLine
 62
250
  6
CONTINUOUS
 10
-62.2998741501
 20
38.6822155439
 11
-62.3032421664
 21
38.7623805819
  0
LINE
  5
47F
100
AcDbEntity
  8
RACCORDO
100
AcDbLine
 62
250
  6
CONTINUOUS
 10
-62.3032421664
 20
38.7623805819
 11
-62.306260343
 21
38.8412916739
  0
LINE
  5
480
100
AcDbEntity
  8
RACCORDO
100
AcDbLine
 62
250
  6
CONTINUOUS
 10
-62.306260343
 20
38.8412916739
 11
-62.3089146337
 21
38.9185816404
  0
LINE
  5
481
100
AcDbEntity
  8
RACCORDO
100
AcDbLine
 62
250
  6
CONTINUOUS
 10
-62.3089146337
 20
38.9185816404
 11
-62.3111927092
 21
38.9938914621
  0
LINE
  5
482
100
AcDbEntity
  8
RACCORDO
100
AcDbLine
 62
250
  6
CONTINUOUS
 10
-62.3111927092
 20
38.9938914621
 11
-62.3130839838
 21
39.0668711951
  0
LINE
  5
483
100
AcDbEntity
  8
RACCORDO
100
AcDbLine
 62
250
  6
CONTINUOUS
 10
-62.3130839838
 20
39.0668711951
 11
-62.3145796706
 21
39.1371817715
  0
LINE
  5
484
100
AcDbEntity
  8
RACCORDO
100
AcDbLine
 62
250
  6
CONTINUOUS
 10
-62.3159468903
 20
-39.4377840658
 11
-62.3153536188
 21
-39.4702670394
  0
LINE
  5
485
100
AcDbEntity
  8
RACCORDO
100
AcDbLine
 62
250
  6
CONTINUOUS
 10
-62.3145796706
 20
39.1371817715
 11
-62.3156728197
 21
39.204496505
  0
LINE
  5
486
100
AcDbEntity
  8
RACCORDO
100
AcDbLine
 62
250
  6
CONTINUOUS
 10
-62.3163583962
 20
-39.4033484588
 11
-62.3159468903
 21
-39.4377840658
  0
LINE
  5
487
100
AcDbEntity
  8
RACCORDO
100
AcDbLine
 62
250
  6
CONTINUOUS
 10
-62.3156728197
 20
39.204496505
 11
-62.316358352
 21
39.2685026311
  0
LINE
  5
488
100
AcDbEntity
  8
RACCORDO
100
AcDbLine
 62
250
  6
CONTINUOUS
 10
-62.3165872863
 20
-39.3670313428
 11
-62.3163583962
 21
-39.4033484588
  0
LINE
  5
489
100
AcDbEntity
  8
RACCORDO
100
AcDbLine
 62
250
  6
CONTINUOUS
 10
-62.316358352
 20
39.2685026311
 11
-62.3166330821
 21
39.3289027564
  0
LINE
  5
48A
100
AcDbEntity
  8
RACCORDO
100
AcDbLine
 62
250
  6
CONTINUOUS
 10
-62.316633088
 20
-39.3289077282
 11
-62.3165872863
 21
-39.3670313428
  0
LINE
  5
48B
100
AcDbEntity
  8
RACCORDO
100
AcDbLine
 62
250
  6
CONTINUOUS
 10
-62.3166330821
 20
39.3289027564
 11
-62.3165873028
 21
39.3670268563
  0
LINE
  5
48C
100
AcDbEntity
  8
RACCORDO
100
AcDbLine
 62
250
  6
CONTINUOUS
 10
-62.3163583962
 20
-39.2685083495
 11
-62.316633088
 21
-39.3289077282
  0
LINE
  5
48D
100
AcDbEntity
  8
RACCORDO
100
AcDbLine
 62
250
  6
CONTINUOUS
 10
-62.3165873028
 20
39.3670268563
 11
-62.3163584325
 21
39.4033444443
  0
LINE
  5
48E
100
AcDbEntity
  8
RACCORDO
100
AcDbLine
 62
250
  6
CONTINUOUS
 10
-62.3156729075
 20
-39.2045029834
 11
-62.3163583962
 21
-39.2685083495
  0
LINE
  5
48F
100
AcDbEntity
  8
RACCORDO
100
AcDbLine
 62
250
  6
CONTINUOUS
 10
-62.3163584325
 20
39.4033444443
 11
-62.3159469438
 21
39.4377805071
  0
LINE
  5
490
100
AcDbEntity
  8
RACCORDO
100
AcDbLine
 62
250
  6
CONTINUOUS
 10
-62.3145798068
 20
-39.137189013
 11
-62.3156729075
 21
-39.2045029834
  0
LINE
  5
491
100
AcDbEntity
  8
RACCORDO
100
AcDbLine
 62
250
  6
CONTINUOUS
 10
-62.3159469438
 20
39.4377805071
 11
-62.3153536865
 21
39.4702639178
  0
LINE
  5
492
100
AcDbEntity
  8
RACCORDO
100
AcDbLine
 62
250
  6
CONTINUOUS
 10
-62.3130841729
 20
-39.0668791941
 11
-62.3145798068
 21
-39.137189013
  0
LINE
  5
493
100
AcDbEntity
  8
RACCORDO
100
AcDbLine
 62
250
  6
CONTINUOUS
 10
-62.3111929549
 20
-38.9939002015
 11
-62.3130841729
 21
-39.0668791941
  0
LINE
  5
494
100
AcDbEntity
  8
RACCORDO
100
AcDbLine
 62
250
  6
CONTINUOUS
 10
-62.308071425
 20
-38.8930304788
 11
-62.3111929549
 21
-38.9939002015
  0
LINE
  5
495
100
AcDbEntity
  8
RACCORDO
100
AcDbLine
 62
250
  6
CONTINUOUS
 10
-62.3042882388
 20
-38.7888525372
 11
-62.308071425
 21
-38.8930304788
  0
LINE
  5
496
100
AcDbEntity
  8
RACCORDO
100
AcDbLine
 62
250
  6
CONTINUOUS
 10
-62.2998746359
 20
-38.682226622
 11
-62.3042882388
 21
-38.7888525372
  0
LINE
  5
497
100
AcDbEntity
  8
RACCORDO
100
AcDbLine
 62
250
  6
CONTINUOUS
 10
-62.2961724593
 20
-38.6011797987
 11
-62.2998746359
 21
-38.682226622
  0
LWPOLYLINE
  5
498
100
AcDbEntity
  8
0
100
AcDbPolyline
 62
7
  6
CONTINUOUS
 90
13
 70
0
 43
0.3500000006
 10
-74.8928489227
 20
-0.0000003204
 10
-76.1785603638
 20
-0.0000003204
 10
-76.6071383972
 20
0.2142864304
 10
-77.0357073669
 20
0.642857666
 10
-77.0357073669
 20
0.8571421509
 10
-76.6071383972
 20
1.2857133865
 10
-76.1785603638
 20
1.5000001373
 10
-74.8928489227
 20
1.5000001373
 10
-74.4642754211
 20
1.2857133865
 10
-74.0357064514
 20
0.8571421509
 10
-74.0357064514
 20
0.642857666
 10
-74.4642754211
 20
0.2142864304
 10
-74.8928489227
 20
-0.0000003204
  0
LWPOLYLINE
  5
499
100
AcDbEntity
  8
RACCORDO
100
AcDbPolyline
 62
250
  6
CONTINUOUS
 90
3
 70
0
 10
-62.2907462863
 20
38.4923965984
 10
-62.2948665259
 20
38.5740221933
 10
-62.2961718978
 20
38.6011679728
  0
LINE
  5
49A
100
AcDbEntity
  8
DRAFT
100
AcDbLine
 62
7
  6
CONTINUOUS
 10
-58.3899436929
 20
3.5
 11
-58.3899436929
 21
-3.5
  0
LINE
  5
49B
100
AcDbEntity
  8
RACCORDO
100
AcDbLine
 62
250
  6
CONTINUOUS
 10
-62.2907462863
 20
-38.4923965984
 11
-62.2961724593
 21
-38.6011797987
  0
LINE
  5
49C
100
AcDbEntity
  8
RACCORDO
100
AcDbLine
 62
7
  6
CONTINUOUS
 10
-56.3899436929
 20
-3.6749773271
 11
-56.3899436929
 21
-40.0
  0
LINE
  5
49D
100
AcDbEntity
  8
RACCORDO
100
AcDbLine
 62
7
  6
CONTINUOUS
 10
-56.3899436929
 20
3.6749773271
 11
-56.3899436929
 21
40.0
  0
LINE
  5
49E
100
AcDbEntity
  8
DRAFT
100
AcDbLine
 62
7
  6
CONTINUOUS
 10
-56.3899436929
 20
3.6749773271
 11
-58.3899436929
 21
3.5
  0
LWPOLYLINE
  5
49F
100
AcDbEntity
  8
0
100
AcDbPolyline
 62
7
  6
CONTINUOUS
 90
10
 70
0
 43
0.3500000006
 10
-61.0542287292
 20
49.2500011139
 10
-60.9828020782
 20
49.10714328
 10
-60.9828020782
 20
49.0357120972
 10
-61.1256599121
 20
48.8928587952
 10
-61.1970865631
 20
48.8928587952
 10
-61.2685132141
 20
48.9642854462
 10
-61.2685132141
 20
49.0357120972
 10
-61.1970865631
 20
49.178569931
 10
-61.1256599121
 20
49.2500011139
 10
-61.0542287292
 20
49.2500011139
  0
LINE
  5
4A0
100
AcDbEntity
  8
RACCORDO
100
AcDbLine
 62
250
  6
CONTINUOUS
 10
-56.3899436929
 20
38.8016445583
 11
-62.2907462361
 21
38.492396601
  0
LINE
  5
4A1
100
AcDbEntity
  8
RACCORDO
100
AcDbLine
 62
7
  6
CONTINUOUS
 10
-56.3899436929
 20
40.0
 11
-62.2907462863
 21
39.6907520401
  0
LINE
  5
4A2
100
AcDbEntity
  8
RACCORDO
100
AcDbLine
 62
250
  6
CONTINUOUS
 10
-62.2907462863
 20
38.4923965984
 11
-62.5748757417
 21
38.5202011438
  0
LINE
  5
4A3
100
AcDbEntity
  8
RACCORDO
100
AcDbLine
 62
250
  6
CONTINUOUS
 10
-62.5748757417
 20
38.5202011438
 11
-62.8160314163
 21
38.5441123879
  0
LINE
  5
4A4
100
AcDbEntity
  8
RACCORDO
100
AcDbLine
 62
250
  6
CONTINUOUS
 10
-62.8160314163
 20
38.5441123879
 11
-63.0288128404
 21
38.5655289734
  0
LINE
  5
4A5
100
AcDbEntity
  8
RACCORDO
100
AcDbLine
 62
250
  6
CONTINUOUS
 10
-63.0288128404
 20
38.5655289734
 11
-63.1875345074
 21
38.5818136223
  0
LINE
  5
4A6
100
AcDbEntity
  8
RACCORDO
100
AcDbLine
 62
250
  6
CONTINUOUS
 10
-63.1875345074
 20
38.5818136223
 11
-63.2972742962
 21
38.5933701541
  0
LINE
  5
4A7
100
AcDbEntity
  8
RACCORDO
100
AcDbLine
 62
250
  6
CONTINUOUS
 10
-63.2972742962
 20
38.5933701541
 11
-63.3580263392
 21
38.6000046482
  0
LINE
  5
4A8
100
AcDbEntity
  8
RACCORDO
100
AcDbLine
 62
250
  6
CONTINUOUS
 10
-63.3580263392
 20
38.6000046482
 11
-63.3876459347
 21
38.6033924923
  0
LINE
  5
4A9
100
AcDbEntity
  8
RACCORDO
100
AcDbLine
 62
250
  6
CONTINUOUS
 10
-63.3876459347
 20
38.6033924923
 11
-63.3990987447
 21
38.6047654154
  0
LWPOLYLINE
  5
4AA
100
AcDbEntity
  8
RACCORDO
100
AcDbPolyline
 62
250
  6
CONTINUOUS
 90
9
 70
0
 10
-63.3990987447
 20
38.6047654154
 10
-63.4082825266
 20
38.6059206536
 10
-63.412017799
 20
38.6064159254
 10
-63.4151794874
 20
38.6068559697
 10
-63.4177660604
 20
38.6072405729
 10
-63.4197762649
 20
38.6075695503
 10
-63.4212091271
 20
38.6078427423
 10
-63.422063953
 20
38.608060015
 10
-63.4223403287
 20
38.6082212622
  0
LWPOLYLINE
  5
4AB
100
AcDbEntity
  8
0
100
AcDbPolyline
 62
7
  6
CONTINUOUS
 90
13
 70
0
 43
0.3500000006
 10
-63.6256561432
 20
50.4642859039
 10
-63.9113718109
 20
50.6785703888
 10
-63.9113718109
 20
51.3214283752
 10
-63.6256561432
 20
51.7500018768
 10
-62.9828026886
 20
51.7500018768
 10
-62.6970870209
 20
51.3214283752
 10
-62.6970870209
 20
50.6785703888
 10
-62.9828026886
 20
50.4642859039
 10
-62.554229187
 20
50.0357124023
 10
-62.554229187
 20
49.178569931
 10
-62.9828026886
 20
48.7500009613
 10
-63.6256561432
 20
48.7500009613
 10
-64.0542296448
 20
49.178569931
  0
ARC
  5
4AC
100
AcDbEntity
  8
0
100
AcDbCircle
 62
7
  6
CONTINUOUS
 10
38.038572
 20
-31.958656
 40
0.8587214994
100
AcDbArc
 50
292.8428415932
 51
90.0
  0
ARC
  5
4AD
100
AcDbEntity
  8
0
100
AcDbCircle
 62
7
  6
CONTINUOUS
 10
37.960842
 20
-31.958656
 40
0.340698
100
AcDbArc
 50
270.0
 51
90.0
  0
ARC
  5
4AE
100
AcDbEntity
  8
0
100
AcDbCircle
 62
7
  6
CONTINUOUS
 10
334.7100563071
 20
0.0
 40
400.15
100
AcDbArc
 50
184.4575631144
 51
184.8598302796
  0
ARC
  5
4AF
100
AcDbEntity
  8
RACCORDO
100
AcDbCircle
 62
7
  6
CONTINUOUS
 10
334.7100563071
 20
0.0
 40
400.0
100
AcDbArc
 50
174.4611566797
 51
185.5388433203
  0
ARC
  5
4B0
100
AcDbEntity
  8
RACCORDO
100
AcDbCircle
 62
7
  6
CONTINUOUS
 10
-62.2279431388
 20
38.4923965984
 40
1.2
100
AcDbArc
 50
93.0
 51
174.4611566797
  0
ARC
  5
4B1
100
AcDbEntity
  8
RACCORDO
100
AcDbCircle
 62
7
  6
CONTINUOUS
 10
-62.2279431388
 20
-38.4923965984
 40
1.2
100
AcDbArc
 50
185.5388433203
 51
267.0
  0
ELLIPSE
  5
4B2
100
AcDbEntity
  8
RACCORDO
100
AcDbEllipse
 62
7
  6
CONTINUOUS
 10
-42.7983531848
 20
-38.7983531848
 30
0.0
 11
0.8508554921
 21
0.8508554921
 31
0.0
 40
0.9972646886
 41
-3.9256212891
 42
-2.3575640181
  0
ELLIPSE
  5
4B3
100
AcDbEntity
  8
RACCORDO
100
AcDbEllipse
 62
7
  6
CONTINUOUS
 10
-42.7983531848
 20
38.7983531848
 30
0.0
 11
0.8508554921
 21
-0.8508554921
 31
0.0
 40
0.9972646886
 41
2.3575640181
 42
3.9256212891
  0
ELLIPSE
  5
4B4
100
AcDbEntity
  8
RACCORDO
100
AcDbEllipse
 62
7
  6
CONTINUOUS
 10
42.7983531848
 20
-38.7983531848
 30
0.0
 11
-0.8508554921
 21
0.8508554921
 31
0.0
 40
0.9972646886
 41
-3.9256212891
 42
-2.3575640181
  0
ELLIPSE
  5
4B5
100
AcDbEntity
  8
RACCORDO
100
AcDbEllipse
 62
7
  6
CONTINUOUS
 10
42.7983531848
 20
38.7983531848
 30
0.0
 11
0.8508554921
 21
0.8508554921
 31
0.0
 40
0.9972646886
 41
-0.7840286355
 42
0.7840286355
  0
ELLIPSE
  5
4B6
100
AcDbEntity
  8
RACCORDO
100
AcDbEllipse
 62
7
  6
CONTINUOUS
 10
-21.7999923843
 20
22.3000000001
 30
0.0
 11
-0.2000076157
 21
-0.0
 31
0.0
 40
0.9999619231
 41
4.7123889804
 42
6.2831853072
  0
ELLIPSE
  5
4B7
100
AcDbEntity
  8
RACCORDO
100
AcDbEllipse
 62
7
  6
CONTINUOUS
 10
21.7999923843
 20
22.3000000001
 30
0.0
 11
-0.2000076157
 21
-0.0
 31
0.0
 40
0.9999619231
 41
9.4247779608
 42
10.9955742876
  0
ELLIPSE
  5
4B8
100
AcDbEntity
  8
RACCORDO
100
AcDbEllipse
 62
7
  6
CONTINUOUS
 10
-21.7999923843
 20
-22.3
 30
0.0
 11
0.2000076157
 21
0.0
 31
0.0
 40
0.9999619231
 41
9.4247779608
 42
10.9955742876
  0
ELLIPSE
  5
4B9
100
AcDbEntity
  8
RACCORDO
100
AcDbEllipse
 62
7
  6
CONTINUOUS
 10
21.7999923843
 20
-22.3
 30
0.0
 11
0.2000076157
 21
0.0
 31
0.0
 40
0.9999619231
 41
4.7123889804
 42
6.2831853072
  0
ENDSEC
  0
SECTION
  2
OBJECTS
  0
DICTIONARY
  5
C
100
AcDbDictionary
280
0
281
1
  3
ACAD_GROUP
350
D
  3
ACAD_MLINESTYLE
350
17
  3
ACAD_LAYOUT
350
1A
  3
ACAD_PLOTSETTINGS
350
19
  3
ACAD_PLOTSTYLENAME
350
E
  0
DICTIONARY
  5
D
102
{ACAD_REACTORS
330
C
102
}
100
AcDbDictionary
280
0
281
1
  0
ACDBDICTIONARYWDFLT
  5
E
102
{ACAD_REACTORS
330
C
102
}
100
AcDbDictionary
281
1
  3
Normal
350
F
100
AcDbDictionaryWithDefault
340
F
  0
DICTIONARY
  5
17
102
{ACAD_REACTORS
330
C
102
}
100
AcDbDictionary
280
0
281
1
  3
Standard
350
18
  0
DICTIONARY
  5
19
102
{ACAD_REACTORS
330
C
102
}
100
AcDbDictionary
281
1
  0
DICTIONARY
  5
1A
102
{ACAD_REACTORS
330
C
102
}
100
AcDbDictionary
281
1
  3
Model
350
4BA
  3
Layout1
350
4BB
  0
ACDBPLACEHOLDER
  5
F
102
{ACAD_REACTORS
330
E
102
}
  0
MLINESTYLE
  5
18
102
{ACAD_REACTORS
330
17
102
}
100
AcDbMlineStyle
  2
STANDARD
 70
0
  3

 62
256
 51
90.0
 52
90.0
 71
2
 49
0.5
 62
256
  6
BYLAYER
 49
-0.5
 62
256
  6
BYLAYER
  0
LAYOUT
  5
4BA
102
{ACAD_REACTORS
330
1A
102
}
100
AcDbPlotSettings
  1

  2
none_device
  4
ISO_A4_(297.00_x_210.00_MM)
  6

 40
0.0
 41
0.0
 42
0.0
 43
0.0
 44
297.0
 45
210.0
 46
0.0
 47
0.0
 48
0.0
 49
0.0
140
0.0
141
0.0
142
1.0
143
1.0
 70
1024
 72
1
 73
0
 74
0
  7

 75
0
147
1.0
148
0.0
149
0.0
100
AcDbLayout
  1
Model
 70
0
 71
0
 10
0.0
 20
0.0
 11
297.0
 21
210.0
 12
0.0
 22
0.0
 32
0.0
 14
0.0
 24
0.0
 34
0.0
 15
0.0
 25
0.0
 35
0.0
146
0.0
 13
0.0
 23
0.0
 33
0.0
 16
1.0
 26
0.0
 36
0.0
 17
0.0
 27
1.0
 37
0.0
 76
0
330
212
345
0
346
0
  0
LAYOUT
  5
4BB
102
{ACAD_REACTORS
330
1A
102
}
100
AcDbPlotSettings
  1

  2
none_device
  4
ISO_A4_(297.00_x_210.00_MM)
  6

 40
0.0
 41
0.0
 42
0.0
 43
0.0
 44
297.0
 45
210.0
 46
0.0
 47
0.0
 48
0.0
 49
0.0
140
0.0
141
0.0
142
1.0
143
1.0
 70
0
 72
1
 73
0
 74
0
  7

 75
0
147
1.0
148
0.0
149
0.0
100
AcDbLayout
  1
Layout1
 70
0
 71
1
 10
0.0
 20
0.0
 11
297.0
 21
210.0
 12
0.0
 22
0.0
 32
0.0
 14
0.0
 24
0.0
 34
0.0
 15
0.0
 25
0.0
 35
0.0
146
0.0
 13
0.0
 23
0.0
 33
0.0
 16
1.0
 26
0.0
 36
0.0
 17
0.0
 27
1.0
 37
0.0
 76
0
330
213
345
0
346
0
  0
ENDSEC
  0
EOF
