  0
SECTION
  2
HEADER
  9
$ACADVER
  1
AC1024
  9
$DWGCODEPAGE
  3
ANSI_1252
  9
$EXTMAX
 10
297.0
 20
210.0
 30
0.0
  9
$EXTMIN
 10
0.0
 20
0.0
 30
0.0
  9
$LIMMIN
 10
0.0
 20
0.0
  9
$LIMMAX
 10
297.0
 20
210.0
  9
$VIEWCTR
 10
148.5
 20
105.0
  9
$VIEWSIZE
 40
210.0
  9
$CLAYER
  8
0
  9
$LTSCALE
 40
16.335
  9
$CELTYPE
  6
BYLAYER
  9
$DIMSCALE
 40
1.0
  9
$DIMASZ
 40
3.0
  9
$DIMEXO
 40
0.5
  9
$DIMDLI
 40
11.286
  9
$DIMEXE
 40
1.5
  9
$DIMCEN
 40
2.673
  9
$DIMLFAC
 40
1.0
  9
$DIMBLK
  1
_FILLED
  9
$DIMALT
 70
0
  9
$DIMALTF
 40
0.0393700787
  9
$DIMTXT
 40
3.0
  9
$DIMTOL
 70
1
  9
$DIMLIM
 70
0
  9
$DIMTFAC
 40
1.0
  9
$DIMTP
 40
0.01
  9
$DIMTM
 40
0.01
  9
$DIMGAP
 40
0.625
  9
$DIMDSEP
 70
44
  9
$AUNITS
 70
0
  9
$PDMODE
 70
3
  9
$PDSIZE
 40
3.0
  9
$HANDSEED
  5
2D3
  9
$TILEMODE
 70
1
  9
$MEASUREMENT
 70
1
  9
$INSUNITS
 70
4
  0
ENDSEC
  0
SECTION
  2
CLASSES
  0
CLASS
  1
ACDBDICTIONARYWDFLT
  2
AcDbDictionaryWithDefault
  3
AutoCAD 2000
 90
0
 91
1
280
0
281
0
  0
CLASS
  1
ACDBPLACEHOLDER
  2
AcDbPlaceHolder
  3
AutoCAD 2000
 90
0
 91
1
280
0
281
0
  0
CLASS
  1
LAYOUT
  2
AcDbLayout
  3
AutoCAD 2000
 90
0
 91
0
280
0
281
0
  0
ENDSEC
  0
SECTION
  2
TABLES
  0
TABLE
  2
VPORT
  5
8
100
AcDbSymbolTable
 70
2
  0
VPORT
  5
1F4
100
AcDbSymbolTableRecord
100
AcDbViewportTableRecord
  2
*ACTIVE
 70
0
 10
0.0
 20
0.0
 11
1.0
 21
1.0
 12
148.5
 22
105.0
 13
0.0
 23
0.0
 14
1.0
 24
1.0
 15
0.0
 25
0.0
 16
0.0
 26
0.0
 36
1.0
 17
0.0
 27
0.0
 37
0.0
 40
210.0
 41
1.4142857143
 42
50.0
 43
0.0
 44
0.0
 50
0.0
 51
0.0
 71
0
 72
100
 73
1
 74
1
 75
0
 76
0
 77
0
 78
0
  0
ENDTAB
  0
TABLE
  2
LTYPE
  5
5
100
AcDbSymbolTable
 70
6
  0
LTYPE
  5
14
100
AcDbSymbolTableRecord
100
AcDbLinetypeTableRecord
  2
BYBLOCK
 70
0
  3

 72
65
 73
0
 40
0.0
  0
LTYPE
  5
15
100
AcDbSymbolTableRecord
100
AcDbLinetypeTableRecord
  2
BYLAYER
 70
0
  3

 72
65
 73
0
 40
0.0
  0
LTYPE
  5
16
100
AcDbSymbolTableRecord
100
AcDbLinetypeTableRecord
  2
CONTINUOUS
 70
64
  3
Solid line
 72
65
 73
0
 40
0.0
  0
LTYPE
  5
1F5
100
AcDbSymbolTableRecord
100
AcDbLinetypeTableRecord
  2
CENTER
 70
64
  3
____ _ ____ _ ____ _ ____ _ ____ _ ____ _ ____
 72
65
 73
4
 40
0.6
 49
0.375
 74
0
 49
-0.075
 74
0
 49
0.075
 74
0
 49
-0.075
 74
0
  0
LTYPE
  5
1F6
100
AcDbSymbolTableRecord
100
AcDbLinetypeTableRecord
  2
HIDDEN
 70
64
  3
- - - - - - - - - - - - - - - - - - - -
 72
65
 73
2
 40
0.2
 49
0.1
 74
0
 49
-0.1
 74
0
  0
LTYPE
  5
1F7
100
AcDbSymbolTableRecord
100
AcDbLinetypeTableRecord
  2
PHANTOM
 70
64
  3
_____ _ _ _____ _ _ _____ _ _ _____
 72
65
 73
6
 40
0.8
 49
0.45
 74
0
 49
-0.05
 74
0
 49
0.1
 74
0
 49
-0.05
 74
0
 49
0.1
 74
0
 49
-0.05
 74
0
  0
LTYPE
  5
1F8
100
AcDbSymbolTableRecord
100
AcDbLinetypeTableRecord
  2
DOT
 70
64
  3
. . . . . . . . . . . . . . . . . . . .
 72
65
 73
2
 40
0.2
 49
0.1
 74
0
 49
-0.1
 74
0
  0
LTYPE
  5
1F9
100
AcDbSymbolTableRecord
100
AcDbLinetypeTableRecord
  2
DASHED
 70
64
  3
- - - - - - - - - - - - - - - - - - - -
 72
65
 73
2
 40
0.2
 49
0.1
 74
0
 49
-0.1
 74
0
  0
ENDTAB
  0
TABLE
  2
LAYER
  5
2
100
AcDbSymbolTable
 70
36
  0
LAYER
  5
10
100
AcDbSymbolTableRecord
100
AcDbLayerTableRecord
  2
0
 70
0
 62
7
  6
CONTINUOUS
370
-3
390
F
  0
LAYER
  5
1FA
100
AcDbSymbolTableRecord
100
AcDbLayerTableRecord
  2
DEFAULT_1
 70
0
 62
7
  6
CENTER
370
-3
390
F
  0
LAYER
  5
1FB
100
AcDbSymbolTableRecord
100
AcDbLayerTableRecord
  2
DEFAULT_2
 70
0
 62
7
  6
HIDDEN
370
-3
390
F
  0
LAYER
  5
1FC
100
AcDbSymbolTableRecord
100
AcDbLayerTableRecord
  2
DEFAULT_3
 70
0
 62
7
  6
PHANTOM
370
-3
390
F
  0
LAYER
  5
1FD
100
AcDbSymbolTableRecord
100
AcDbLayerTableRecord
  2
ASSI
 70
0
 62
7
  6
CONTINUOUS
370
-3
390
F
  0
LAYER
  5
1FE
100
AcDbSymbolTableRecord
100
AcDbLayerTableRecord
  2
COORDINATE
 70
0
 62
7
  6
CONTINUOUS
370
-3
390
F
  0
LAYER
  5
1FF
100
AcDbSymbolTableRecord
100
AcDbLayerTableRecord
  2
COPY_PUBLISH
 70
0
 62
7
  6
CONTINUOUS
370
-3
390
F
  0
LAYER
  5
200
100
AcDbSymbolTableRecord
100
AcDbLayerTableRecord
  2
COSMETIC
 70
0
 62
7
  6
CONTINUOUS
370
-3
390
F
  0
LAYER
  5
201
100
AcDbSymbolTableRecord
100
AcDbLayerTableRecord
  2
COSMETICI
 70
0
 62
7
  6
CONTINUOUS
370
-3
390
F
  0
LAYER
  5
202
100
AcDbSymbolTableRecord
100
AcDbLayerTableRecord
  2
CURVE
 70
0
 62
7
  6
CONTINUOUS
370
-3
390
F
  0
LAYER
  5
203
100
AcDbSymbolTableRecord
100
AcDbLayerTableRecord
  2
DRAFT
 70
0
 62
7
  6
CONTINUOUS
370
-3
390
F
  0
LAYER
  5
204
100
AcDbSymbolTableRecord
100
AcDbLayerTableRecord
  2
IMPORT_IGES
 70
0
 62
7
  6
CONTINUOUS
370
-3
390
F
  0
LAYER
  5
205
100
AcDbSymbolTableRecord
100
AcDbLayerTableRecord
  2
INTFCLR_11
 70
0
 62
7
  6
CONTINUOUS
370
-3
390
F
  0
LAYER
  5
206
100
AcDbSymbolTableRecord
100
AcDbLayerTableRecord
  2
INTF_1
 70
0
 62
7
  6
CONTINUOUS
370
-3
390
F
  0
LAYER
  5
207
100
AcDbSymbolTableRecord
100
AcDbLayerTableRecord
  2
INTF_3
 70
0
 62
7
  6
CONTINUOUS
370
-3
390
F
  0
LAYER
  5
208
100
AcDbSymbolTableRecord
100
AcDbLayerTableRecord
  2
NOTE
 70
0
 62
7
  6
CONTINUOUS
370
-3
390
F
  0
LAYER
  5
209
100
AcDbSymbolTableRecord
100
AcDbLayerTableRecord
  2
PIANI
 70
0
 62
7
  6
CONTINUOUS
370
-3
390
F
  0
LAYER
  5
20A
100
AcDbSymbolTableRecord
100
AcDbLayerTableRecord
  2
PUNTI
 70
0
 62
7
  6
CONTINUOUS
370
-3
390
F
  0
LAYER
  5
20B
100
AcDbSymbolTableRecord
100
AcDbLayerTableRecord
  2
RACCORDO
 70
0
 62
7
  6
CONTINUOUS
370
-3
390
F
  0
LAYER
  5
20C
100
AcDbSymbolTableRecord
100
AcDbLayerTableRecord
  2
SIMBOLI
 70
0
 62
7
  6
CONTINUOUS
370
-3
390
F
  0
LAYER
  5
20D
100
AcDbSymbolTableRecord
100
AcDbLayerTableRecord
  2
SMUSSO
 70
0
 62
7
  6
CONTINUOUS
370
-3
390
F
  0
LAYER
  5
20E
100
AcDbSymbolTableRecord
100
AcDbLayerTableRecord
  2
SNAPLINE
 70
0
 62
7
  6
CONTINUOUS
370
-3
390
F
  0
LAYER
  5
20F
100
AcDbSymbolTableRecord
100
AcDbLayerTableRecord
  2
SUPERFICI
 70
0
 62
7
  6
CONTINUOUS
370
-3
390
F
  0
LAYER
  5
210
100
AcDbSymbolTableRecord
100
AcDbLayerTableRecord
  2
TRASH
 70
0
 62
7
  6
CONTINUOUS
370
-3
390
F
  0
LAYER
  5
211
100
AcDbSymbolTableRecord
100
AcDbLayerTableRecord
  2
XSEC_DATUMS
 70
0
 62
7
  6
CONTINUOUS
370
-3
390
F
  0
LAYER
  5
212
100
AcDbSymbolTableRecord
100
AcDbLayerTableRecord
  2
___SHELL
 70
0
 62
7
  6
CONTINUOUS
370
-3
390
F
  0
ENDTAB
  0
TABLE
  2
STYLE
  5
3
100
AcDbSymbolTable
 70
1
  0
STYLE
  5
11
100
AcDbSymbolTableRecord
100
AcDbTextStyleTableRecord
  2
STANDARD
 70
0
 40
0.0
 41
0.8
 50
0.0
 71
0
 42
0.2
  3
txt
  4

  0
STYLE
  5
213
100
AcDbSymbolTableRecord
100
AcDbTextStyleTableRecord
  2
TEXTSTYLE_1
 70
0
 40
0.0
 41
0.8
 50
0.0
 71
0
 42
0.2
  3
gdt
  4

  0
ENDTAB
  0
TABLE
  2
VIEW
  5
6
100
AcDbSymbolTable
 70
0
  0
ENDTAB
  0
TABLE
  2
UCS
  5
7
100
AcDbSymbolTable
 70
0
  0
ENDTAB
  0
TABLE
  2
APPID
  5
9
100
AcDbSymbolTable
 70
1
  0
APPID
  5
214
100
AcDbSymbolTableRecord
100
AcDbRegAppTableRecord
  2
ACAD
 70
0
  0
ENDTAB
  0
TABLE
  2
BLOCK_RECORD
  5
1
100
AcDbSymbolTable
 70
0
  0
BLOCK_RECORD
  5
215
100
AcDbSymbolTableRecord
100
AcDbBlockTableRecord
  2
*Model_Space
  0
BLOCK_RECORD
  5
216
100
AcDbSymbolTableRecord
100
AcDbBlockTableRecord
  2
*Paper_Space
  0
BLOCK_RECORD
  5
217
100
AcDbSymbolTableRecord
100
AcDbBlockTableRecord
  2
_FILLED
  0
BLOCK_RECORD
  5
218
100
AcDbSymbolTableRecord
100
AcDbBlockTableRecord
  2
*D0
  0
BLOCK_RECORD
  5
219
100
AcDbSymbolTableRecord
100
AcDbBlockTableRecord
  2
*D1
  0
BLOCK_RECORD
  5
21A
100
AcDbSymbolTableRecord
100
AcDbBlockTableRecord
  2
*D2
  0
ENDTAB
  0
TABLE
  2
DIMSTYLE
  5
A
100
AcDbSymbolTable
 70
1
100
AcDbDimStyleTable
 71
0
  0
DIMSTYLE
105
21B
100
AcDbSymbolTableRecord
100
AcDbDimStyleTableRecord
  2
STANDARD
 70
0
  3

  4

 40
1.0
 41
3.0
 42
0.5
 43
0.38
 44
1.5
 45
0.0
 46
0.0
 47
0.01
 48
0.01
140
3.0
141
0.09
142
0.0
143
25.4
144
1.0
145
0.0
146
1.0
147
0.625
 71
1
 72
0
 73
0
 74
0
 75
0
 76
0
 77
1
 78
8
 79
2
170
0
171
1
172
0
173
0
174
0
175
0
176
0
177
0
178
0
270
2
179
2
271
2
272
2
273
2
274
2
275
0
280
0
281
0
282
0
283
1
284
8
285
0
286
0
287
3
288
0
340
11
278
44
341
217
342
217
343
217
344
217
  0
DIMSTYLE
105
21C
100
AcDbSymbolTableRecord
100
AcDbDimStyleTableRecord
  2
DIMSTYLE_1
 70
0
  3

  4

 40
1.0
 41
3.0
 42
0.5
 43
0.38
 44
1.5
 45
0.0
 46
0.0
 47
0.0
 48
0.0
140
3.0
141
0.09
142
0.0
143
25.4
144
1.0
145
0.0
146
1.0
147
0.75
 71
0
 72
0
 73
0
 74
0
 75
0
 76
0
 77
1
 78
8
 79
2
170
0
171
1
172
0
173
0
174
0
175
0
176
0
177
0
178
0
270
2
179
2
271
2
272
2
273
2
274
2
275
0
280
0
281
0
282
0
283
1
284
8
285
0
286
0
287
3
288
0
340
11
278
44
341
217
342
217
343
217
344
217
  0
ENDTAB
  0
ENDSEC
  0
SECTION
  2
BLOCKS
  0
BLOCK
  5
20
100
AcDbEntity
  8
0
100
AcDbBlockBegin
  2
*Model_Space
 70
0
 10
0.0
 20
0.0
 30
0.0
  3
*Model_Space
  1

  0
ENDBLK
  5
21
100
AcDbEntity
  8
0
100
AcDbBlockEnd
  0
BLOCK
  5
1C
100
AcDbEntity
  8
0
100
AcDbBlockBegin
  2
*Paper_Space
 70
0
 10
0.0
 20
0.0
 30
0.0
  3
*Paper_Space
  1

  0
ENDBLK
  5
1D
100
AcDbEntity
  8
0
100
AcDbBlockEnd
  0
BLOCK
  5
21D
100
AcDbEntity
  8
0
100
AcDbBlockBegin
  2
_FILLED
 70
64
 10
0.0
 20
0.0
  3
_FILLED
  1

  0
SOLID
  5
21E
100
AcDbEntity
  8
0
  6
BYBLOCK
 62
0
100
AcDbTrace
 10
0.0
 20
0.0
 11
-1.0
 21
0.3166666667
 12
-1.0
 22
-0.3166666667
 13
-1.0
 23
-0.3166666667
  0
ENDBLK
  5
21F
100
AcDbEntity
  8
0
  6
BYBLOCK
 62
0
100
AcDbBlockEnd
  0
BLOCK
  5
220
100
AcDbEntity
  8
0
100
AcDbBlockBegin
 62
7
  6
CONTINUOUS
  2
*D0
 70
65
 10
0.0
 20
0.0
  3
*D0
  1

  0
MTEXT
  5
221
100
AcDbEntity
  8
0
100
AcDbMText
 62
7
  6
CONTINUOUS
  7
STANDARD
 71
2
 72
1
 10
63.9327880222
 20
94.1817811801
 30
0.0
 11
1.0
 21
0.0
 31
0.0
 73
2
 44
0.9
  1
{\ftxt;\W0.0001;\H0.0001;\~}{\ftxt;\W1.5714285714;\H3.0; }{\ftxt;\W0.0001;\H0.0001;\~}
 40
3.0
 41
7.0714285714
  0
LINE
  5
222
100
AcDbEntity
  8
0
100
AcDbLine
 62
7
  6
CONTINUOUS
 10
52.9327880222
 20
75.4929075483
 11
52.9327880222
 21
91.9317811801
  0
LINE
  5
223
100
AcDbEntity
  8
0
100
AcDbLine
 62
7
  6
CONTINUOUS
 10
74.9327880222
 20
75.4929075483
 11
74.9327880222
 21
91.9317811801
  0
LINE
  5
224
100
AcDbEntity
  8
0
100
AcDbLine
 62
7
  6
CONTINUOUS
 10
52.9327880222
 20
90.4317811801
 11
63.9327880222
 21
90.4317811801
  0
LINE
  5
225
100
AcDbEntity
  8
0
100
AcDbLine
 62
7
  6
CONTINUOUS
 10
74.9327880222
 20
90.4317811801
 11
63.9327880222
 21
90.4317811801
  0
INSERT
  5
226
100
AcDbEntity
  8
0
100
AcDbBlockReference
 62
7
  6
CONTINUOUS
  2
_FILLED
 10
52.9327880222
 20
90.4317811801
 41
3.0
 42
3.0
 43
3.0
 50
180.0
  0
INSERT
  5
227
100
AcDbEntity
  8
0
100
AcDbBlockReference
 62
7
  6
CONTINUOUS
  2
_FILLED
 10
74.9327880222
 20
90.4317811801
 41
3.0
 42
3.0
 43
3.0
  0
ENDBLK
  5
228
100
AcDbEntity
  8
0
  6
BYBLOCK
 62
0
100
AcDbBlockEnd
  0
BLOCK
  5
229
100
AcDbEntity
  8
0
100
AcDbBlockBegin
 62
7
  6
CONTINUOUS
  2
*D1
 70
65
 10
0.0
 20
0.0
  3
*D1
  1

  0
MTEXT
  5
22A
100
AcDbEntity
  8
0
100
AcDbMText
 62
7
  6
CONTINUOUS
  7
STANDARD
 71
2
 72
1
 10
86.0507129821
 20
53.3927362108
 30
0.0
 11
0.0
 21
1.0
 31
0.0
 73
2
 44
0.9
  1
{\ftxt;\W0.0001;\H0.0001;\~}{\ftxt;\W2.9285714286;\H3.0; }{\ftxt;\W0.0001;\H0.0001;\~}
 40
3.0
 41
13.1785714286
  0
LINE
  5
22B
100
AcDbEntity
  8
0
100
AcDbLine
 62
7
  6
CONTINUOUS
 10
74.9329593597
 20
75.4927362108
 11
91.3007129821
 21
75.4927362108
  0
LINE
  5
22C
100
AcDbEntity
  8
0
100
AcDbLine
 62
7
  6
CONTINUOUS
 10
74.9329593597
 20
31.2927362108
 11
91.3007129821
 21
31.2927362108
  0
LINE
  5
22D
100
AcDbEntity
  8
0
100
AcDbLine
 62
7
  6
CONTINUOUS
 10
89.8007129821
 20
75.4927362108
 11
89.8007129821
 21
53.3927362108
  0
LINE
  5
22E
100
AcDbEntity
  8
0
100
AcDbLine
 62
7
  6
CONTINUOUS
 10
89.8007129821
 20
31.2927362108
 11
89.8007129821
 21
53.3927362108
  0
INSERT
  5
22F
100
AcDbEntity
  8
0
100
AcDbBlockReference
 62
7
  6
CONTINUOUS
  2
_FILLED
 10
89.8007129821
 20
75.4927362108
 41
3.0
 42
3.0
 43
3.0
 50
90.0
  0
INSERT
  5
230
100
AcDbEntity
  8
0
100
AcDbBlockReference
 62
7
  6
CONTINUOUS
  2
_FILLED
 10
89.8007129821
 20
31.2927362108
 41
3.0
 42
3.0
 43
3.0
 50
270.0
  0
ENDBLK
  5
231
100
AcDbEntity
  8
0
  6
BYBLOCK
 62
0
100
AcDbBlockEnd
  0
BLOCK
  5
232
100
AcDbEntity
  8
0
100
AcDbBlockBegin
 62
7
  6
CONTINUOUS
  2
*D2
 70
65
 10
0.0
 20
0.0
  3
*D2
  1

  0
MTEXT
  5
233
100
AcDbEntity
  8
0
100
AcDbMText
 62
7
  6
CONTINUOUS
  7
STANDARD
 71
2
 72
1
 10
30.4753638815
 20
94.1817811801
 30
0.0
 11
1.0
 21
0.0
 31
0.0
 73
2
 44
0.9
  1
{\ftxt;\W0.0001;\H0.0001;\~}{\ftxt;\W2.1428571429;\H3.0; }{\ftxt;\W0.0001;\H0.0001;\~}
 40
3.0
 41
9.6428571429
  0
LINE
  5
234
100
AcDbEntity
  8
0
100
AcDbLine
 62
7
  6
CONTINUOUS
 10
33.8253725164
 20
75.4929075483
 11
33.8253725164
 21
91.9317811801
  0
LINE
  5
235
100
AcDbEntity
  8
0
100
AcDbLine
 62
7
  6
CONTINUOUS
 10
27.1253552465
 20
53.8927362108
 11
27.1253552465
 21
91.9317811801
  0
LINE
  5
236
100
AcDbEntity
  8
0
100
AcDbLine
 62
7
  6
CONTINUOUS
 10
33.8253725164
 20
90.4317811801
 11
37.8253725164
 21
90.4317811801
  0
LINE
  5
237
100
AcDbEntity
  8
0
100
AcDbLine
 62
7
  6
CONTINUOUS
 10
37.8253725164
 20
90.4317811801
 11
30.4753638815
 21
90.4317811801
  0
LINE
  5
238
100
AcDbEntity
  8
0
100
AcDbLine
 62
7
  6
CONTINUOUS
 10
27.1253552465
 20
90.4317811801
 11
23.1253552465
 21
90.4317811801
  0
LINE
  5
239
100
AcDbEntity
  8
0
100
AcDbLine
 62
7
  6
CONTINUOUS
 10
23.1253552465
 20
90.4317811801
 11
30.4753638815
 21
90.4317811801
  0
INSERT
  5
23A
100
AcDbEntity
  8
0
100
AcDbBlockReference
 62
7
  6
CONTINUOUS
  2
_FILLED
 10
33.8253725164
 20
90.4317811801
 41
3.0
 42
3.0
 43
3.0
 50
180.0
  0
INSERT
  5
23B
100
AcDbEntity
  8
0
100
AcDbBlockReference
 62
7
  6
CONTINUOUS
  2
_FILLED
 10
27.1253552465
 20
90.4317811801
 41
3.0
 42
3.0
 43
3.0
  0
ENDBLK
  5
23C
100
AcDbEntity
  8
0
  6
BYBLOCK
 62
0
100
AcDbBlockEnd
  0
ENDSEC
  0
SECTION
  2
ENTITIES
  0
DIMENSION
  5
23D
100
AcDbEntity
  8
0
100
AcDbDimension
 62
7
  6
CONTINUOUS
  2
*D0
 10
74.9327880222
 20
90.4317811801
 11
63.5042181473
 21
90.4317811801
 70
160
 71
2
 72
2
 41
0.9
 42
22.0
  1
{\ftxt;\W0.0001;\H0.0001;\~}{\ftxt;\W1.5714285714;\H3.0; }{\ftxt;\W0.0001;\H0.0001;\~}
  3
DIMSTYLE_1
100
AcDbAlignedDimension
 13
52.9327880222
 23
74.9929075483
 14
74.9327880222
 24
74.9929075483
100
AcDbRotatedDimension
  0
DIMENSION
  5
23E
100
AcDbEntity
  8
0
100
AcDbDimension
 62
7
  6
CONTINUOUS
  2
*D1
 10
89.8007129821
 20
31.2927362108
 11
89.8007129821
 21
52.964163202
 70
160
 71
2
 72
2
 41
0.9
 42
44.2
  1
{\ftxt;\W0.0001;\H0.0001;\~}{\ftxt;\W2.9285714286;\H3.0; }{\ftxt;\W0.0001;\H0.0001;\~}
  3
DIMSTYLE_1
100
AcDbAlignedDimension
 13
74.4329593597
 23
75.4927362108
 14
74.4329593597
 24
31.2927362108
 50
270.0
100
AcDbRotatedDimension
  0
DIMENSION
  5
23F
100
AcDbEntity
  8
0
100
AcDbDimension
 62
7
  6
CONTINUOUS
  2
*D2
 10
27.1253552465
 20
90.4317811801
 11
30.0467915497
 21
90.4317811801
 70
160
 71
2
 72
2
 41
0.9
 42
6.7000172699
  1
{\ftxt;\W0.0001;\H0.0001;\~}{\ftxt;\W2.1428571429;\H3.0; }{\ftxt;\W0.0001;\H0.0001;\~}
  3
DIMSTYLE_1
100
AcDbAlignedDimension
 13
33.8253725164
 23
74.9929075483
 14
27.1253552465
 24
53.3927362108
 50
180.0
100
AcDbRotatedDimension
  0
LWPOLYLINE
  5
240
100
AcDbEntity
  8
RACCORDO
100
AcDbPolyline
 62
250
  6
CONTINUOUS
 90
16
 70
0
 10
74.3115460057
 20
31.4141495648
 10
74.3637703178
 20
31.4169211503
 10
74.4154228653
 20
31.4251339801
 10
74.4659382153
 20
31.4386981277
 10
74.5147634026
 20
31.4574650938
 10
74.5613639356
 20
31.4812294151
 10
74.6052296549
 20
31.5097308987
 10
74.6458803843
 20
31.5426575065
 10
74.6828711635
 20
31.5796487759
 10
74.7157970811
 20
31.6202997333
 10
74.7442977375
 20
31.6641653511
 10
74.7680611918
 20
31.710765436
 10
74.7868273602
 20
31.7595898738
 10
74.8003908567
 20
31.8101042005
 10
74.8086032451
 20
31.8617554513
 10
74.8113746682
 20
31.9139782273
  0
LWPOLYLINE
  5
241
100
AcDbEntity
  8
RACCORDO
100
AcDbPolyline
 62
250
  6
CONTINUOUS
 90
14
 70
0
 10
74.424343873
 20
32.5634437428
 10
74.4711585434
 20
32.5641470924
 10
74.5162531828
 20
32.5650425939
 10
74.5591908598
 20
32.5661215706
 10
74.5995555423
 20
32.5673735681
 10
74.6369561287
 20
32.5687864554
 10
74.6710302368
 20
32.5703465429
 10
74.7014477156
 20
32.5720387145
 10
74.7279138438
 20
32.5738465745
 10
74.7501721857
 20
32.575752606
 10
74.7680070756
 20
32.5777383412
 10
74.7812457074
 20
32.5797845398
 10
74.7897598095
 20
32.5818713758
 10
74.7934668868
 20
32.5839786295
  0
LINE
  5
242
100
AcDbEntity
  8
RACCORDO
100
AcDbLine
 62
250
  6
CONTINUOUS
 10
74.3273810975
 20
32.562638831
 11
74.424343873
 21
32.5634437428
  0
LINE
  5
243
100
AcDbEntity
  8
RACCORDO
100
AcDbLine
 62
250
  6
CONTINUOUS
 10
53.5540300375
 20
31.4141495636
 11
60.2736091534
 21
31.4222590338
  0
LINE
  5
244
100
AcDbEntity
  8
RACCORDO
100
AcDbLine
 62
7
  6
CONTINUOUS
 10
53.4326166847
 20
31.2927362108
 11
74.4329593597
 21
31.2927362108
  0
LINE
  5
245
100
AcDbEntity
  8
RACCORDO
100
AcDbLine
 62
250
  6
CONTINUOUS
 10
53.5381949431
 20
32.5626388523
 11
74.3273810976
 21
32.5626388547
  0
LINE
  5
246
100
AcDbEntity
  8
RACCORDO
100
AcDbLine
 62
250
  6
CONTINUOUS
 10
60.2736091534
 20
31.4222590338
 11
69.037700114
 21
31.421173992
  0
LWPOLYLINE
  5
247
100
AcDbEntity
  8
RACCORDO
100
AcDbPolyline
 62
250
  6
CONTINUOUS
 90
3
 70
0
 10
69.037700114
 20
31.421173992
 10
73.4965247955
 20
31.4155337125
 10
74.3115460066
 20
31.4141495639
  0
LWPOLYLINE
  5
248
100
AcDbEntity
  8
RACCORDO
100
AcDbPolyline
 62
250
  6
CONTINUOUS
 90
15
 70
0
 10
53.5381958462
 20
32.5626394029
 10
53.4412340221
 20
32.5634442866
 10
53.3944197646
 20
32.5641476129
 10
53.3493254783
 20
32.5650430854
 10
53.306388082
 20
32.5661220278
 10
53.2660235964
 20
32.5673739866
 10
53.2286231132
 20
32.5687868317
 10
53.1945490059
 20
32.5703468739
 10
53.1641314187
 20
32.5720389979
 10
53.1376650678
 20
32.5738468088
 10
53.1154063858
 20
32.5757527907
 10
53.0975710373
 20
32.5777384765
 10
53.0843318289
 20
32.5797846269
 10
53.0758170355
 20
32.5818714167
 10
53.072109157
 20
32.583978627
  0
LWPOLYLINE
  5
249
100
AcDbEntity
  8
RACCORDO
100
AcDbPolyline
 62
250
  6
CONTINUOUS
 90
16
 70
0
 10
53.5540300375
 20
31.4141495636
 10
53.5018064113
 20
31.4169210764
 10
53.4501544596
 20
31.4251337054
 10
53.3996395986
 20
31.4386975498
 10
53.3508147975
 20
31.4574641307
 10
53.3042145248
 20
31.4812280168
 10
53.2603488978
 20
31.5097290727
 10
53.2196980988
 20
31.5426553071
 10
53.1827071182
 20
31.5796462877
 10
53.1497808839
 20
31.6202970868
 10
53.121279828
 20
31.6641627137
 10
53.097515942
 20
31.7107629865
 10
53.0787493612
 20
31.7595877876
 10
53.0651855168
 20
31.8101026485
 10
53.0569728878
 20
31.8617546001
 10
53.054201375
 20
31.9139782261
  0
LWPOLYLINE
  5
24A
100
AcDbEntity
  8
RACCORDO
100
AcDbPolyline
 62
250
  6
CONTINUOUS
 90
9
 70
0
 10
53.5540300386
 20
75.3713228569
 10
53.552950332
 20
75.3659973609
 10
53.5518288859
 20
75.3545525776
 10
53.5506952548
 20
75.3370503332
 10
53.5496009696
 20
75.3135843149
 10
53.548552314
 20
75.2842772905
 10
53.5475101098
 20
75.2492784028
 10
53.5464994886
 20
75.2087655278
 10
53.5446211893
 20
75.1120673187
  0
LWPOLYLINE
  5
24B
100
AcDbEntity
  8
RACCORDO
100
AcDbPolyline
 62
250
  6
CONTINUOUS
 90
7
 70
0
 10
53.5475101072
 20
31.5361940183
 10
53.5485523118
 20
31.5011951312
 10
53.5496009677
 20
31.4718881073
 10
53.5506952532
 20
31.4484220888
 10
53.5518288844
 20
31.4309198438
 10
53.5529503306
 20
31.4194750599
 10
53.5540300375
 20
31.4141495636
  0
LINE
  5
24C
100
AcDbEntity
  8
RACCORDO
100
AcDbLine
 62
250
  6
CONTINUOUS
 10
53.0651516746
 20
74.7202928795
 11
53.0670954728
 21
74.6524919379
  0
LINE
  5
24D
100
AcDbEntity
  8
RACCORDO
100
AcDbLine
 62
250
  6
CONTINUOUS
 10
53.5455485923
 20
31.6225235337
 11
53.5475101072
 21
31.5361940183
  0
LINE
  5
24E
100
AcDbEntity
  8
RACCORDO
100
AcDbLine
 62
250
  6
CONTINUOUS
 10
53.0670954728
 20
74.6524919379
 11
53.0687606422
 21
74.5750870595
  0
LINE
  5
24F
100
AcDbEntity
  8
RACCORDO
100
AcDbLine
 62
250
  6
CONTINUOUS
 10
53.5437375214
 20
31.7290880625
 11
53.5455485923
 21
31.6225235337
  0
LINE
  5
250
100
AcDbEntity
  8
RACCORDO
100
AcDbLine
 62
250
  6
CONTINUOUS
 10
53.0687606422
 20
74.5750870595
 11
53.0701219177
 21
74.4892698905
  0
LINE
  5
251
100
AcDbEntity
  8
RACCORDO
100
AcDbLine
 62
250
  6
CONTINUOUS
 10
53.5414315761
 20
31.9219753595
 11
53.5437375214
 21
31.7290880625
  0
LINE
  5
252
100
AcDbEntity
  8
RACCORDO
100
AcDbLine
 62
250
  6
CONTINUOUS
 10
53.0701219177
 20
74.4892698905
 11
53.0715245592
 21
74.349101754
  0
LINE
  5
253
100
AcDbEntity
  8
RACCORDO
100
AcDbLine
 62
250
  6
CONTINUOUS
 10
53.5388672938
 20
32.3086783685
 11
53.5414315761
 21
31.9219753595
  0
LINE
  5
254
100
AcDbEntity
  8
RACCORDO
100
AcDbLine
 62
250
  6
CONTINUOUS
 10
53.0715245592
 20
74.349101754
 11
53.0721091575
 21
74.2014937922
  0
LINE
  5
255
100
AcDbEntity
  8
RACCORDO
100
AcDbLine
 62
250
  6
CONTINUOUS
 10
53.0721091575
 20
74.2014937922
 11
53.0801864955
 21
64.956008758
  0
LINE
  5
256
100
AcDbEntity
  8
RACCORDO
100
AcDbLine
 62
250
  6
CONTINUOUS
 10
53.0801864955
 20
64.956008758
 11
53.0836482114
 21
55.7060871008
  0
LINE
  5
257
100
AcDbEntity
  8
RACCORDO
100
AcDbLine
 62
7
  6
CONTINUOUS
 10
52.9327880222
 20
31.7925648733
 11
52.9327880222
 21
74.9929075483
  0
LINE
  5
258
100
AcDbEntity
  8
RACCORDO
100
AcDbLine
 62
250
  6
CONTINUOUS
 10
53.5381949467
 20
74.2228335663
 11
53.5388672938
 21
32.3086783685
  0
LINE
  5
259
100
AcDbEntity
  8
RACCORDO
100
AcDbLine
 62
250
  6
CONTINUOUS
 10
53.0836482114
 20
55.7060871008
 11
53.0824943055
 21
46.453630403
  0
LINE
  5
25A
100
AcDbEntity
  8
RACCORDO
100
AcDbLine
 62
250
  6
CONTINUOUS
 10
53.0824943055
 20
46.453630403
 11
53.0767247784
 21
37.2062449939
  0
LINE
  5
25B
100
AcDbEntity
  8
RACCORDO
100
AcDbLine
 62
250
  6
CONTINUOUS
 10
53.0767247784
 20
37.2062449939
 11
53.0718103179
 21
32.4847466723
  0
LINE
  5
25C
100
AcDbEntity
  8
RACCORDO
100
AcDbLine
 62
250
  6
CONTINUOUS
 10
53.5396825599
 20
74.6389906266
 11
53.5381949428
 21
74.2228335677
  0
LINE
  5
25D
100
AcDbEntity
  8
RACCORDO
100
AcDbLine
 62
250
  6
CONTINUOUS
 10
53.0718103179
 20
32.4847466723
 11
53.0706756232
 21
32.3415753026
  0
LINE
  5
25E
100
AcDbEntity
  8
RACCORDO
100
AcDbLine
 62
250
  6
CONTINUOUS
 10
53.5421497369
 20
74.9317796205
 11
53.5396825599
 21
74.6389906266
  0
LINE
  5
25F
100
AcDbEntity
  8
RACCORDO
100
AcDbLine
 62
250
  6
CONTINUOUS
 10
53.0706756232
 20
32.3415753026
 11
53.069483175
 21
32.2524881523
  0
LINE
  5
260
100
AcDbEntity
  8
RACCORDO
100
AcDbLine
 62
250
  6
CONTINUOUS
 10
53.5446211893
 20
75.1120673187
 11
53.5421497369
 21
74.9317796205
  0
LINE
  5
261
100
AcDbEntity
  8
RACCORDO
100
AcDbLine
 62
250
  6
CONTINUOUS
 10
53.069483175
 20
32.2524881523
 11
53.0679651411
 21
32.1705386525
  0
LWPOLYLINE
  5
262
100
AcDbEntity
  8
RACCORDO
100
AcDbPolyline
 62
250
  6
CONTINUOUS
 90
12
 70
0
 10
53.0679651411
 20
32.1705386525
 10
53.0661528362
 20
32.0976783957
 10
53.0651516734
 20
32.0651795402
 10
53.0640910806
 20
32.0355290065
 10
53.0629719604
 20
32.0086817032
 10
53.0618114584
 20
31.9850495022
 10
53.0606083397
 20
31.9646815073
 10
53.0593638392
 20
31.9475286146
 10
53.0580988075
 20
31.9338553842
 10
53.0568201946
 20
31.9237500026
 10
53.0555210504
 20
31.9171242832
 10
53.054201375
 20
31.9139782261
  0
LINE
  5
263
100
AcDbEntity
  8
RACCORDO
100
AcDbLine
 62
250
  6
CONTINUOUS
 10
74.3115460069
 20
75.3713228581
 11
74.4329593597
 21
75.4927362108
  0
LINE
  5
264
100
AcDbEntity
  8
RACCORDO
100
AcDbLine
 62
250
  6
CONTINUOUS
 10
74.4329593597
 20
31.2927362108
 11
74.3115460066
 21
31.4141495639
  0
LINE
  5
265
100
AcDbEntity
  8
RACCORDO
100
AcDbLine
 62
250
  6
CONTINUOUS
 10
74.8113746694
 20
74.8714941956
 11
74.9327880222
 21
74.9929075483
  0
LINE
  5
266
100
AcDbEntity
  8
RACCORDO
100
AcDbLine
 62
250
  6
CONTINUOUS
 10
74.9327880222
 20
31.7925648733
 11
74.8113746682
 21
31.9139782273
  0
LWPOLYLINE
  5
267
100
AcDbEntity
  8
0
100
AcDbPolyline
 62
7
  6
CONTINUOUS
 90
2
 70
0
 43
0.3500000006
 10
89.0507114868
 20
49.9998789825
 10
87.5507110291
 20
49.9998789825
  0
LWPOLYLINE
  5
268
100
AcDbEntity
  8
0
100
AcDbPolyline
 62
7
  6
CONTINUOUS
 90
47
 70
0
 10
62.9543615672
 20
40.3928004853
 10
62.9564977915
 20
40.326473408
 10
62.9632273204
 20
40.2605809949
 10
62.9745501576
 20
40.1951232432
 10
62.9905938631
 20
40.1295743281
 10
63.0112308908
 20
40.06446008
 10
63.0360785876
 20
40.001357955
 10
63.065333043
 20
39.9404089046
 10
63.0987981902
 20
39.8814719347
 10
63.1355031399
 20
39.8257015404
 10
63.1754112124
 20
39.7733606882
 10
63.2185591061
 20
39.7241863434
 10
63.2640859914
 20
39.6785439765
 10
63.3118677173
 20
39.6365465316
 10
63.362028444
 20
39.5980810018
 10
63.414079803
 20
39.5631739266
 10
63.4681257738
 20
39.531774846
 10
63.5240623776
 20
39.5039341748
 10
63.5810893021
 20
39.4798297626
 10
63.6391881365
 20
39.4595073152
 10
63.6983772817
 20
39.4429210927
 10
63.7579116379
 20
39.4301117731
 10
63.817269603
 20
39.4210375046
 10
63.876972763
 20
39.4157401189
 10
63.9378407983
 20
39.4143858247
 10
64.0004981769
 20
39.4168571125
 10
64.0643204122
 20
39.423271506
 10
64.128253752
 20
39.4341477693
 10
64.1927612493
 20
39.449861512
 10
64.2573798295
 20
39.4700371596
 10
64.3196665557
 20
39.4940666889
 10
64.3789939439
 20
39.5220068372
 10
64.4359894745
 20
39.5538008965
 10
64.4900926667
 20
39.5886706585
 10
64.5411562507
 20
39.6264844331
 10
64.5893275051
 20
39.6673739433
 10
64.6344877758
 20
39.7109560913
 10
64.6766991061
 20
39.7572365579
 10
64.7158994678
 20
39.8062097031
 10
64.751784102
 20
39.85747544
 10
64.7843864225
 20
39.9111459831
 10
64.8136730342
 20
39.9671091603
 10
64.8392389666
 20
40.0246282908
 10
64.8610409513
 20
40.0837585753
 10
64.8791222746
 20
40.1444448425
 10
64.893207798
 20
40.2057848303
 10
64.9032058126
 20
40.2674777814
  0
LINE
  5
269
100
AcDbEntity
  8
DRAFT
100
AcDbLine
 62
7
  6
CONTINUOUS
 10
62.9543615261
 20
40.3928007447
 11
62.9543497126
 21
43.392785169
  0
LINE
  5
26A
100
AcDbEntity
  8
0
100
AcDbLine
 62
7
  6
CONTINUOUS
 10
62.9543497126
 20
43.3927854704
 11
62.9543615672
 21
40.3928004853
  0
LWPOLYLINE
  5
26B
100
AcDbEntity
  8
DRAFT
100
AcDbPolyline
 62
7
  6
CONTINUOUS
 90
37
 70
0
 10
62.9543497126
 20
43.392785169
 10
62.9582955704
 20
43.478829371
 10
62.9693316383
 20
43.5629440408
 10
62.9874579255
 20
43.6451291522
 10
63.0128786066
 20
43.7259214364
 10
63.0453895405
 20
43.8047841295
 10
63.0843782667
 20
43.8801069458
 10
63.1300948546
 20
43.9519467055
 10
63.182289284
 20
44.0202465318
 10
63.2395989527
 20
44.08322555
 10
63.3019905891
 20
44.1406154214
 10
63.3694974975
 20
44.1926844091
 10
63.4408569238
 20
44.2384565097
 10
63.5163286931
 20
44.2778956753
 10
63.5956529824
 20
44.3110378972
 10
63.6767875472
 20
44.3370152113
 10
63.7596164173
 20
44.3556095404
 10
63.8442555282
 20
44.3670389241
 10
63.92901048
 20
44.3710895616
 10
64.0139415975
 20
44.3676404876
 10
64.0989885078
 20
44.3568126682
 10
64.1822757645
 20
44.3387551926
 10
64.263848364
 20
44.3132543392
 10
64.3436612742
 20
44.2805238666
 10
64.4197040189
 20
44.2413540723
 10
64.4917781574
 20
44.1956586819
 10
64.5600821308
 20
44.143524029
 10
64.6232008062
 20
44.0859993043
 10
64.6811178581
 20
44.022834456
 10
64.7338496453
 20
43.9542796117
 10
64.7800300783
 20
43.8821341987
 10
64.8194103685
 20
43.8064304217
 10
64.8522393546
 20
43.7271361337
 10
64.8778973956
 20
43.6459541891
 10
64.8961779567
 20
43.5634522068
 10
64.907287607
 20
43.4790625989
 10
64.9112263555
 20
43.3927853908
  0
LWPOLYLINE
  5
26C
100
AcDbEntity
  8
0
100
AcDbPolyline
 62
7
  6
CONTINUOUS
 90
2
 70
0
 43
0.3500000006
 10
89.0507114868
 20
52.3570219116
 10
87.5507110291
 20
52.3570219116
  0
LWPOLYLINE
  5
26D
100
AcDbEntity
  8
RACCORDO
100
AcDbPolyline
 62
250
  6
CONTINUOUS
 90
10
 70
0
 10
53.0542013761
 20
74.8714941944
 10
53.0555210516
 20
74.8683481371
 10
53.0568201958
 20
74.8617224176
 10
53.0580988087
 20
74.851617036
 10
53.0593638405
 20
74.8379438055
 10
53.0606083409
 20
74.8207909128
 10
53.0618114596
 20
74.8004229179
 10
53.0629719616
 20
74.7767907168
 10
53.0640910819
 20
74.7499434134
 10
53.0651516746
 20
74.7202928795
  0
LWPOLYLINE
  5
26E
100
AcDbEntity
  8
0
100
AcDbPolyline
 62
7
  6
CONTINUOUS
 90
34
 70
0
 10
64.9112263318
 20
43.3927855924
 10
64.9074746588
 20
43.4782058645
 10
64.8965238785
 20
43.5620004259
 10
64.8783739817
 20
43.6441692555
 10
64.8527902071
 20
43.7253962981
 10
64.8200072817
 20
43.8049975872
 10
64.7807294247
 20
43.88092121
 10
64.734791495
 20
43.9530181192
 10
64.6823585844
 20
44.0214372996
 10
64.6246302677
 20
44.0845738402
 10
64.5614653384
 20
44.142298776
 10
64.493004968
 20
44.1947410003
 10
64.4208723157
 20
44.240682357
 10
64.3450045761
 20
44.2799493907
 10
64.2654645552
 20
44.312715494
 10
64.1840638487
 20
44.3382827624
 10
64.1007945279
 20
44.3564968818
 10
64.0156645563
 20
44.3675121305
 10
63.930509381
 20
44.3710934812
 10
63.8452877158
 20
44.3670823952
 10
63.7600408955
 20
44.3556374121
 10
63.6767282983
 20
44.3369991136
 10
63.5953940858
 20
44.3109938344
 10
63.5159941307
 20
44.2777952756
 10
63.4403553646
 20
44.2381650563
 10
63.3685738418
 20
44.1919542036
 10
63.3005535073
 20
44.1393117516
 10
63.2378331092
 20
44.08144631
 10
63.180528081
 20
44.0182064772
 10
63.1285229542
 20
43.9497437258
 10
63.0830101074
 20
43.8777209433
 10
63.0441760446
 20
43.8020022517
 10
63.0118342127
 20
43.7227235886
 10
62.9870962078
 20
43.6434891137
  0
LINE
  5
26F
100
AcDbEntity
  8
DRAFT
100
AcDbLine
 62
7
  6
CONTINUOUS
 10
64.9112263555
 20
43.3927853908
 11
64.9112144773
 21
40.392825481
  0
LINE
  5
270
100
AcDbEntity
  8
0
100
AcDbLine
 62
7
  6
CONTINUOUS
 10
64.9112144773
 20
40.3928248698
 11
64.9112263318
 21
43.3927855924
  0
LWPOLYLINE
  5
271
100
AcDbEntity
  8
DRAFT
100
AcDbPolyline
 62
7
  6
CONTINUOUS
 90
37
 70
0
 10
64.9112144773
 20
40.392825481
 10
64.9071544682
 20
40.3059528016
 10
64.8959228294
 20
40.2211147915
 10
64.8775195516
 20
40.1383114188
 10
64.8517217304
 20
40.0570001855
 10
64.8187522357
 20
39.9777235467
 10
64.779279716
 20
39.9021088726
 10
64.7331017364
 20
39.8301441921
 10
64.6804206823
 20
39.7618413891
 10
64.6225124392
 20
39.698863557
 10
64.5593452293
 20
39.6413929723
 10
64.4909507966
 20
39.5892472432
 10
64.4187003251
 20
39.543542417
 10
64.3423131175
 20
39.5043695612
 10
64.2620698701
 20
39.4716375105
 10
64.1801838766
 20
39.4461889374
 10
64.0967894096
 20
39.4282751176
 10
64.0117522333
 20
39.4176447112
 10
63.9268828932
 20
39.4143864555
 10
63.8422174911
 20
39.4186180029
 10
63.7577199731
 20
39.4302217007
 10
63.6750926503
 20
39.4489333261
 10
63.5942629975
 20
39.4749364318
 10
63.5153035738
 20
39.5080475267
 10
63.440134304
 20
39.5474518125
 10
63.3689621205
 20
39.5932010261
 10
63.3015800892
 20
39.6452435268
 10
63.2392873158
 20
39.7026094274
 10
63.182058066
 20
39.7655651121
 10
63.1299180416
 20
39.8338443146
 10
63.0842434861
 20
39.9056781277
 10
63.0452842658
 20
39.981032151
 10
63.0127904654
 20
40.0599408682
 10
62.9873886495
 20
40.1407386366
 10
62.9692876605
 20
40.2228702415
 10
62.9582786223
 20
40.3068909346
 10
62.9543615261
 20
40.3928007447
  0
LWPOLYLINE
  5
272
100
AcDbEntity
  8
0
100
AcDbPolyline
 62
7
  6
CONTINUOUS
 90
3
 70
0
 10
64.9032058126
 20
40.2674777814
 10
64.9092080381
 20
40.3298244591
 10
64.9112144773
 20
40.3928248698
  0
LWPOLYLINE
  5
273
100
AcDbEntity
  8
0
100
AcDbPolyline
 62
7
  6
CONTINUOUS
 90
4
 70
0
 10
62.9866173995
 20
43.6419555169
 10
62.9687365217
 20
43.560388219
 10
62.957980629
 20
43.4773315305
 10
62.9543497126
 20
43.3927854704
  0
LWPOLYLINE
  5
274
100
AcDbEntity
  8
RACCORDO
100
AcDbPolyline
 62
250
  6
CONTINUOUS
 90
10
 70
0
 10
74.8113746682
 20
31.9139782273
 10
74.8100549928
 20
31.9171242846
 10
74.8087558486
 20
31.9237500041
 10
74.8074772357
 20
31.9338553857
 10
74.8062122039
 20
31.9475286162
 10
74.8049677035
 20
31.9646815088
 10
74.8037645848
 20
31.9850495038
 10
74.8026040828
 20
32.0086817049
 10
74.8014849625
 20
32.0355290083
 10
74.8004243697
 20
32.0651795422
  0
LINE
  5
275
100
AcDbEntity
  8
RACCORDO
100
AcDbLine
 62
250
  6
CONTINUOUS
 10
53.054201375
 20
31.9139782261
 11
52.9327880222
 21
31.7925648733
  0
LINE
  5
276
100
AcDbEntity
  8
RACCORDO
100
AcDbLine
 62
250
  6
CONTINUOUS
 10
53.5540300375
 20
31.4141495636
 11
53.4326166847
 21
31.2927362108
  0
LINE
  5
277
100
AcDbEntity
  8
RACCORDO
100
AcDbLine
 62
250
  6
CONTINUOUS
 10
52.9327880222
 20
74.9929075483
 11
53.0542013761
 21
74.8714941944
  0
LINE
  5
278
100
AcDbEntity
  8
RACCORDO
100
AcDbLine
 62
250
  6
CONTINUOUS
 10
53.4326166847
 20
75.4927362108
 11
53.5540300377
 21
75.3713228578
  0
LINE
  5
279
100
AcDbEntity
  8
RACCORDO
100
AcDbLine
 62
250
  6
CONTINUOUS
 10
74.8004243697
 20
32.0651795422
 11
74.7984805715
 21
32.1329804838
  0
LINE
  5
27A
100
AcDbEntity
  8
RACCORDO
100
AcDbLine
 62
250
  6
CONTINUOUS
 10
74.7984805715
 20
32.1329804838
 11
74.7968154021
 21
32.2103853621
  0
LINE
  5
27B
100
AcDbEntity
  8
RACCORDO
100
AcDbLine
 62
250
  6
CONTINUOUS
 10
74.7968154021
 20
32.2103853621
 11
74.7954541267
 21
32.2962025312
  0
LINE
  5
27C
100
AcDbEntity
  8
RACCORDO
100
AcDbLine
 62
250
  6
CONTINUOUS
 10
74.3241444682
 20
74.8634970622
 11
74.321838523
 21
75.0563843592
  0
LINE
  5
27D
100
AcDbEntity
  8
RACCORDO
100
AcDbLine
 62
250
  6
CONTINUOUS
 10
74.7954541267
 20
32.2962025312
 11
74.7940514852
 21
32.4363706677
  0
LINE
  5
27E
100
AcDbEntity
  8
RACCORDO
100
AcDbLine
 62
250
  6
CONTINUOUS
 10
74.3267087505
 20
74.4767940532
 11
74.3241444682
 21
74.8634970622
  0
LINE
  5
27F
100
AcDbEntity
  8
RACCORDO
100
AcDbLine
 62
250
  6
CONTINUOUS
 10
74.3273810976
 20
32.5626388547
 11
74.3267087505
 21
74.4767940532
  0
LINE
  5
280
100
AcDbEntity
  8
RACCORDO
100
AcDbLine
 62
250
  6
CONTINUOUS
 10
74.3258934845
 20
32.1464817951
 11
74.3273811017
 21
32.5626388533
  0
LINE
  5
281
100
AcDbEntity
  8
RACCORDO
100
AcDbLine
 62
250
  6
CONTINUOUS
 10
74.3234263075
 20
31.8536928012
 11
74.3258934845
 21
32.1464817951
  0
LINE
  5
282
100
AcDbEntity
  8
RACCORDO
100
AcDbLine
 62
250
  6
CONTINUOUS
 10
74.7940514864
 20
74.3491017559
 11
74.795454128
 21
74.4892698926
  0
LINE
  5
283
100
AcDbEntity
  8
RACCORDO
100
AcDbLine
 62
250
  6
CONTINUOUS
 10
74.3218385196
 20
31.7290880651
 11
74.3234263075
 21
31.8536928012
  0
LINE
  5
284
100
AcDbEntity
  8
RACCORDO
100
AcDbLine
 62
250
  6
CONTINUOUS
 10
74.795454128
 20
74.4892698926
 11
74.7968154034
 21
74.5750870617
  0
LINE
  5
285
100
AcDbEntity
  8
RACCORDO
100
AcDbLine
 62
250
  6
CONTINUOUS
 10
74.7968154034
 20
74.5750870617
 11
74.7984805728
 21
74.65249194
  0
LWPOLYLINE
  5
286
100
AcDbEntity
  8
RACCORDO
100
AcDbPolyline
 62
250
  6
CONTINUOUS
 90
11
 70
0
 10
74.7984805728
 20
74.65249194
 10
74.800424371
 20
74.7202928815
 10
74.8014849638
 20
74.7499434152
 10
74.802604084
 20
74.7767907184
 10
74.803764586
 20
74.8004229195
 10
74.8049677047
 20
74.8207909144
 10
74.8062122052
 20
74.837943807
 10
74.8074772369
 20
74.8516170375
 10
74.8087558498
 20
74.8617224191
 10
74.8100549939
 20
74.8683481384
 10
74.8113746694
 20
74.8714941956
  0
LWPOLYLINE
  5
287
100
AcDbEntity
  8
0
100
AcDbPolyline
 62
7
  6
CONTINUOUS
 90
10
 70
0
 43
0.3500000006
 10
88.5507113342
 20
54.357022522
 10
88.6935737
 20
54.428449173
 10
88.7649958191
 20
54.428449173
 10
88.9078581848
 20
54.2855913391
 10
88.9078581848
 20
54.2141646881
 10
88.836427002
 20
54.1427380371
 10
88.7649958191
 20
54.1427380371
 10
88.6221425171
 20
54.2141646881
 10
88.5507113342
 20
54.2855913391
 10
88.5507113342
 20
54.357022522
  0
LWPOLYLINE
  5
288
100
AcDbEntity
  8
0
100
AcDbPolyline
 62
7
  6
CONTINUOUS
 90
3
 70
0
 43
0.3500000006
 10
88.7649958191
 20
54.428449173
 10
88.979280304
 20
54.357022522
 10
89.2649959717
 20
54.2141646881
  0
LWPOLYLINE
  5
289
100
AcDbEntity
  8
RACCORDO
100
AcDbPolyline
 62
250
  6
CONTINUOUS
 90
7
 70
0
 10
74.3180659371
 20
75.2492784034
 10
74.3170237326
 20
75.2842772904
 10
74.3159750767
 20
75.3135843144
 10
74.3148807912
 20
75.3370503329
 10
74.31374716
 20
75.3545525779
 10
74.3126257137
 20
75.3659973617
 10
74.3115460069
 20
75.3713228581
  0
LINE
  5
28A
100
AcDbEntity
  8
RACCORDO
100
AcDbLine
 62
250
  6
CONTINUOUS
 10
74.320027452
 20
75.162948888
 11
74.3180659371
 21
75.2492784034
  0
LINE
  5
28B
100
AcDbEntity
  8
RACCORDO
100
AcDbLine
 62
250
  6
CONTINUOUS
 10
74.321838523
 20
75.0563843592
 11
74.320027452
 21
75.162948888
  0
LINE
  5
28C
100
AcDbEntity
  8
RACCORDO
100
AcDbLine
 62
250
  6
CONTINUOUS
 10
74.7940514852
 20
32.4363706677
 11
74.7934668868
 21
32.5839786295
  0
LINE
  5
28D
100
AcDbEntity
  8
RACCORDO
100
AcDbLine
 62
250
  6
CONTINUOUS
 10
74.7934668868
 20
32.5839786295
 11
74.7853895496
 21
41.8294622558
  0
LINE
  5
28E
100
AcDbEntity
  8
RACCORDO
100
AcDbLine
 62
250
  6
CONTINUOUS
 10
74.7853895496
 20
41.8294622558
 11
74.7819278333
 21
51.0793833096
  0
LINE
  5
28F
100
AcDbEntity
  8
RACCORDO
100
AcDbLine
 62
7
  6
CONTINUOUS
 10
74.9327880222
 20
31.7925648733
 11
74.9327880222
 21
74.9929075483
  0
LINE
  5
290
100
AcDbEntity
  8
RACCORDO
100
AcDbLine
 62
250
  6
CONTINUOUS
 10
74.7819278333
 20
51.0793833096
 11
74.7830817382
 21
60.3318402086
  0
LINE
  5
291
100
AcDbEntity
  8
RACCORDO
100
AcDbLine
 62
250
  6
CONTINUOUS
 10
74.7830817382
 20
60.3318402086
 11
74.7888512655
 21
69.5792266233
  0
LWPOLYLINE
  5
292
100
AcDbEntity
  8
RACCORDO
100
AcDbPolyline
 62
250
  6
CONTINUOUS
 90
3
 70
0
 10
74.7888512655
 20
69.5792266233
 10
74.7937657265
 20
74.3007257493
 10
74.7940514864
 20
74.3491017559
  0
LINE
  5
293
100
AcDbEntity
  8
RACCORDO
100
AcDbLine
 62
250
  6
CONTINUOUS
 10
74.3200274491
 20
31.6225235351
 11
74.3218385196
 21
31.7290880651
  0
LWPOLYLINE
  5
294
100
AcDbEntity
  8
RACCORDO
100
AcDbPolyline
 62
250
  6
CONTINUOUS
 90
8
 70
0
 10
74.3115460057
 20
31.4141495648
 10
74.3126257124
 20
31.4194750608
 10
74.3137471585
 20
31.430919844
 10
74.3148807896
 20
31.4484220885
 10
74.3159750748
 20
31.4718881068
 10
74.3170237304
 20
31.5011951312
 10
74.3180659346
 20
31.5361940189
 10
74.3200274491
 20
31.6225235351
  0
LWPOLYLINE
  5
295
100
AcDbEntity
  8
RACCORDO
100
AcDbPolyline
 62
250
  6
CONTINUOUS
 90
14
 70
0
 10
53.4412321714
 20
74.2220286789
 10
53.3944175009
 20
74.2213253293
 10
53.3493228616
 20
74.2204298278
 10
53.3063851846
 20
74.2193508511
 10
53.266020502
 20
74.2180988536
 10
53.2286199157
 20
74.2166859662
 10
53.1945458076
 20
74.2151258788
 10
53.1641283288
 20
74.2134337072
 10
53.1376622006
 20
74.2116258472
 10
53.1154038587
 20
74.2097198157
 10
53.0975689688
 20
74.2077340805
 10
53.084330337
 20
74.2056878819
 10
53.0758162349
 20
74.2036010459
 10
53.0721091575
 20
74.2014937922
  0
LINE
  5
296
100
AcDbEntity
  8
RACCORDO
100
AcDbLine
 62
250
  6
CONTINUOUS
 10
53.5381949469
 20
74.2228335907
 11
53.4412321714
 21
74.2220286789
  0
LINE
  5
297
100
AcDbEntity
  8
RACCORDO
100
AcDbLine
 62
250
  6
CONTINUOUS
 10
74.3273811013
 20
74.2228335687
 11
53.5381949467
 21
74.2228335663
  0
LWPOLYLINE
  5
298
100
AcDbEntity
  8
RACCORDO
100
AcDbPolyline
 62
250
  6
CONTINUOUS
 90
15
 70
0
 10
74.3273801981
 20
74.2228330187
 10
74.4243420222
 20
74.2220281351
 10
74.4711562797
 20
74.2213248088
 10
74.516250566
 20
74.2204293363
 10
74.5591879623
 20
74.2193503939
 10
74.5995524479
 20
74.218098435
 10
74.6369529312
 20
74.21668559
 10
74.6710270385
 20
74.2151255478
 10
74.7014446257
 20
74.2134334237
 10
74.7279109766
 20
74.2116256128
 10
74.7501696586
 20
74.209719631
 10
74.7680050071
 20
74.2077339452
 10
74.7812442155
 20
74.2056877948
 10
74.7897590089
 20
74.203601005
 10
74.7934668874
 20
74.2014937947
  0
LWPOLYLINE
  5
299
100
AcDbEntity
  8
RACCORDO
100
AcDbPolyline
 62
250
  6
CONTINUOUS
 90
16
 70
0
 10
53.5540300386
 20
75.3713228569
 10
53.5018057266
 20
75.3685512714
 10
53.4501531791
 20
75.3603384416
 10
53.3996378291
 20
75.346774294
 10
53.3508126418
 20
75.3280073279
 10
53.3042121088
 20
75.3042430066
 10
53.2603463895
 20
75.275741523
 10
53.21969566
 20
75.2428149152
 10
53.1827048809
 20
75.2058236458
 10
53.1497789633
 20
75.1651726884
 10
53.1212783069
 20
75.1213070706
 10
53.0975148525
 20
75.0747069856
 10
53.0787486842
 20
75.0258825479
 10
53.0651851877
 20
74.9753682212
 10
53.0569727992
 20
74.9237169704
 10
53.0542013761
 20
74.8714941944
  0
LINE
  5
29A
100
AcDbEntity
  8
RACCORDO
100
AcDbLine
 62
250
  6
CONTINUOUS
 10
74.3115460069
 20
75.3713228581
 11
69.6093557792
 21
75.3648314862
  0
LINE
  5
29B
100
AcDbEntity
  8
RACCORDO
100
AcDbLine
 62
250
  6
CONTINUOUS
 10
69.6093557792
 20
75.3648314862
 11
64.9012413228
 21
75.3621440148
  0
LINE
  5
29C
100
AcDbEntity
  8
RACCORDO
100
AcDbLine
 62
7
  6
CONTINUOUS
 10
53.4326166847
 20
75.4927362108
 11
74.4329593597
 21
75.4927362108
  0
LINE
  5
29D
100
AcDbEntity
  8
RACCORDO
100
AcDbLine
 62
250
  6
CONTINUOUS
 10
64.9012413228
 20
75.3621440148
 11
59.5139504335
 21
75.363739439
  0
LINE
  5
29E
100
AcDbEntity
  8
RACCORDO
100
AcDbLine
 62
250
  6
CONTINUOUS
 10
59.5139504335
 20
75.363739439
 11
54.3689785446
 21
75.3699388246
  0
LINE
  5
29F
100
AcDbEntity
  8
RACCORDO
100
AcDbLine
 62
250
  6
CONTINUOUS
 10
54.3689785446
 20
75.3699388246
 11
53.5540300377
 21
75.3713228578
  0
LWPOLYLINE
  5
2A0
100
AcDbEntity
  8
RACCORDO
100
AcDbPolyline
 62
250
  6
CONTINUOUS
 90
16
 70
0
 10
74.3115460069
 20
75.3713228581
 10
74.363769633
 20
75.3685513453
 10
74.4154215848
 20
75.3603387162
 10
74.4659364458
 20
75.3467748719
 10
74.5147612469
 20
75.328008291
 10
74.5613615196
 20
75.3042444049
 10
74.6052271466
 20
75.275743349
 10
74.6458779456
 20
75.2428171145
 10
74.6828689261
 20
75.2058261339
 10
74.7157951605
 20
75.1651753349
 10
74.7442962164
 20
75.1213097079
 10
74.7680601024
 20
75.0747094352
 10
74.7868266832
 20
75.0258846341
 10
74.8003905276
 20
74.9753697732
 10
74.8086031566
 20
74.9237178216
 10
74.8113746694
 20
74.8714941956
  0
LWPOLYLINE
  5
2A1
100
AcDbEntity
  8
0
100
AcDbPolyline
 62
7
  6
CONTINUOUS
 90
3
 70
0
 43
0.3500000006
 10
88.4078580322
 20
52.8570220642
 10
88.4078580322
 20
51.3570216064
 10
86.0507105713
 20
51.9998795929
  0
LWPOLYLINE
  5
2A2
100
AcDbEntity
  8
0
100
AcDbPolyline
 62
7
  6
CONTINUOUS
 90
3
 70
0
 43
0.3500000006
 10
88.4078580322
 20
50.4998791351
 10
88.4078580322
 20
48.9998786774
 10
86.0507105713
 20
49.6427366638
  0
LWPOLYLINE
  5
2A3
100
AcDbEntity
  8
0
100
AcDbPolyline
 62
7
  6
CONTINUOUS
 90
7
 70
0
 43
0.3500000006
 10
89.0507114868
 20
56.9284544678
 10
89.0507114868
 20
55.4284494781
 10
86.9078575745
 20
56.9284544678
 10
86.4792886047
 20
56.9284544678
 10
86.0507105713
 20
56.4998764343
 10
86.0507105713
 20
55.8570229797
 10
86.6935730896
 20
55.4284494781
  0
LWPOLYLINE
  5
2A4
100
AcDbEntity
  8
0
100
AcDbPolyline
 62
7
  6
CONTINUOUS
 90
7
 70
0
 43
0.3500000006
 10
65.4327898407
 20
91.18177771
 10
63.9327893829
 20
91.18177771
 10
65.4327898407
 20
93.324640686
 10
65.4327898407
 20
93.7532096558
 10
65.0042163391
 20
94.1817786255
 10
64.3613583527
 20
94.1817786255
 10
63.9327893829
 20
93.5389251709
  0
LWPOLYLINE
  5
2A5
100
AcDbEntity
  8
0
100
AcDbPolyline
 62
7
  6
CONTINUOUS
 90
7
 70
0
 43
0.3500000006
 10
63.0756469116
 20
91.18177771
 10
61.5756464539
 20
91.18177771
 10
63.0756469116
 20
93.324640686
 10
63.0756469116
 20
93.7532096558
 10
62.64707341
 20
94.1817786255
 10
62.0042154236
 20
94.1817786255
 10
61.5756464539
 20
93.5389251709
  0
LWPOLYLINE
  5
2A6
100
AcDbEntity
  8
0
100
AcDbPolyline
 62
7
  6
CONTINUOUS
 90
10
 70
0
 43
0.3500000006
 10
28.3325066071
 20
94.1817786255
 10
27.6896486206
 20
93.5389251709
 10
27.2610773849
 20
92.6817781677
 10
27.2610773849
 20
91.6103557434
 10
27.6896486206
 20
91.18177771
 10
28.3325066071
 20
91.18177771
 10
28.7610778427
 20
91.6103557434
 10
28.7610778427
 20
92.4674936829
 10
28.3325066071
 20
92.8960626526
 10
27.4039352188
 20
92.8960626526
  0
LINE
  5
2A7
100
AcDbEntity
  8
RACCORDO
100
AcDbLine
 62
7
  6
CONTINUOUS
 10
33.8253725164
 20
31.2927362108
 11
28.8351775697
 21
31.4234090643
  0
LINE
  5
2A8
100
AcDbEntity
  8
RACCORDO
100
AcDbLine
 62
250
  6
CONTINUOUS
 10
28.0195980215
 20
32.562638831
 11
28.0253245979
 21
32.5629393599
  0
LINE
  5
2A9
100
AcDbEntity
  8
RACCORDO
100
AcDbLine
 62
250
  6
CONTINUOUS
 10
28.0253245979
 20
32.5629393599
 11
28.2289533114
 21
32.5720387145
  0
LINE
  5
2AA
100
AcDbEntity
  8
RACCORDO
100
AcDbLine
 62
250
  6
CONTINUOUS
 10
28.2289533114
 20
32.5720387145
 11
28.5049130095
 21
32.5839786295
  0
LINE
  5
2AB
100
AcDbEntity
  8
RACCORDO
100
AcDbLine
 62
250
  6
CONTINUOUS
 10
27.6682183676
 20
32.5605010552
 11
28.0195980185
 21
32.5626388547
  0
LINE
  5
2AC
100
AcDbEntity
  8
RACCORDO
100
AcDbLine
 62
250
  6
CONTINUOUS
 10
33.8253725164
 20
31.7925648733
 11
29.1887835905
 21
31.9139782273
  0
LWPOLYLINE
  5
2AD
100
AcDbEntity
  8
RACCORDO
100
AcDbPolyline
 62
250
  6
CONTINUOUS
 90
22
 70
0
 10
29.1887835905
 20
31.4141495648
 10
29.1029064658
 20
31.4194750608
 10
29.017648933
 20
31.430919844
 10
28.9334458144
 20
31.4484220885
 10
28.8507275448
 20
31.4718881068
 10
28.7699137345
 20
31.5011951312
 10
28.6914117637
 20
31.5361940189
 10
28.6156173755
 20
31.5767068939
 10
28.5429206914
 20
31.6225235351
 10
28.4736998569
 20
31.673405103
 10
28.4083079246
 20
31.7290880651
 10
28.347074637
 20
31.7892869686
 10
28.290313202
 20
31.8536928012
 10
28.2383108956
 20
31.9219753644
 10
28.1913308174
 20
31.9937839572
 10
28.1496133466
 20
32.0687494886
 10
28.1133714634
 20
32.1464817951
 10
28.0827835384
 20
32.2265886468
 10
28.0579997638
 20
32.3086783806
 10
28.0391470542
 20
32.3923385143
 10
28.0263242182
 20
32.4771362896
 10
28.0195979818
 20
32.5626388533
  0
LWPOLYLINE
  5
2AE
100
AcDbEntity
  8
RACCORDO
100
AcDbPolyline
 62
250
  6
CONTINUOUS
 90
22
 70
0
 10
29.1887835905
 20
31.9139782273
 10
29.1383872172
 20
31.9171242846
 10
29.0887749024
 20
31.9237500041
 10
29.0399466461
 20
31.9338553857
 10
28.9916370325
 20
31.9475286162
 10
28.9441114774
 20
31.9646815088
 10
28.8981662282
 20
31.9850495038
 10
28.8538484444
 20
32.0086817049
 10
28.8111109665
 20
32.0355290083
 10
28.7706085627
 20
32.0651795422
 10
28.7323756962
 20
32.0976783978
 10
28.6963779039
 20
32.1329804838
 10
28.6631665642
 20
32.1705386547
 10
28.6327876503
 20
32.2103853621
 10
28.6051951889
 20
32.2524881544
 10
28.5808026391
 20
32.2962025312
 10
28.5596574279
 20
32.3415753047
 10
28.5417121283
 20
32.3885596626
 10
28.5272379189
 20
32.4363706677
 10
28.5163251923
 20
32.4847466744
 10
28.5088835559
 20
32.5339493283
 10
28.5049130095
 20
32.5839786295
  0
LWPOLYLINE
  5
2AF
100
AcDbEntity
  8
0
100
AcDbPolyline
 62
7
  6
CONTINUOUS
 90
3
 70
0
 43
0.3500000006
 10
30.3325072174
 20
91.4674933777
 10
30.2610783005
 20
91.2532088928
 10
30.1182204666
 20
90.9674932251
  0
LWPOLYLINE
  5
2B0
100
AcDbEntity
  8
RACCORDO
100
AcDbPolyline
 62
250
  6
CONTINUOUS
 90
11
 70
0
 10
29.1887836359
 20
75.3713228581
 10
29.1874886881
 20
75.3685513453
 10
29.1863511903
 20
75.3603387162
 10
29.1853835944
 20
75.3467748719
 10
29.1845964922
 20
75.328008291
 10
29.1839985
 20
75.3042444049
 10
29.1835961641
 20
75.275743349
 10
29.1833938889
 20
75.2428171145
 10
29.1833938886
 20
75.2058261339
 10
29.1835961631
 20
75.1651753349
 10
29.1845964899
 20
75.0747094352
  0
LWPOLYLINE
  5
2B1
100
AcDbEntity
  8
RACCORDO
100
AcDbPolyline
 62
250
  6
CONTINUOUS
 90
9
 70
0
 10
29.1887835905
 20
31.4141495648
 10
29.1874886219
 20
31.4169211503
 10
29.1863511097
 20
31.4251339801
 10
29.1853835055
 20
31.4386981277
 10
29.1845964005
 20
31.4574650938
 10
29.1839984107
 20
31.4812294151
 10
29.1835960822
 20
31.5097308987
 10
29.183393818
 20
31.5426575065
 10
29.1833938306
 20
31.5796487759
  0
LWPOLYLINE
  5
2B2
100
AcDbEntity
  8
0
100
AcDbPolyline
 62
7
  6
CONTINUOUS
 90
3
 70
0
 10
27.3696856131
 20
39.4143707867
 10
27.505318759
 20
35.9624877107
 10
27.668218367
 20
32.5605010673
  0
LWPOLYLINE
  5
2B3
100
AcDbEntity
  8
RACCORDO
100
AcDbPolyline
 62
250
  6
CONTINUOUS
 90
10
 70
0
 10
28.0195980185
 20
32.5626388547
 10
27.8434726541
 20
37.1889570801
 10
27.7113382664
 20
41.8170619325
 10
27.6232261676
 20
46.4465332104
 10
27.5791609308
 20
51.0771592559
 10
27.5791609146
 20
55.708309779
 10
27.6232261241
 20
60.3389361637
 10
27.71133821
 20
64.9684081196
 10
27.8434726092
 20
69.5965139886
 10
28.0195980188
 20
74.2228335687
  0
LWPOLYLINE
  5
2B4
100
AcDbEntity
  8
RACCORDO
100
AcDbPolyline
 62
250
  6
CONTINUOUS
 90
10
 70
0
 10
28.5049130095
 20
32.5839786295
 10
28.3286495462
 20
37.2062449968
 10
28.1964519464
 20
41.8294622558
 10
28.1083202102
 20
46.4536304065
 10
28.0642543337
 20
51.0793833096
 10
28.0642543208
 20
55.7060871045
 10
28.1083201832
 20
60.3318402086
 10
28.1964519248
 20
64.9560087613
 10
28.3286495416
 20
69.5792266233
 10
28.5049130337
 20
74.2014937947
  0
LINE
  5
2B5
100
AcDbEntity
  8
0
100
AcDbLine
 62
7
  6
CONTINUOUS
 10
27.3674676901
 20
39.4940666889
 11
27.3091386691
 21
41.3911203559
  0
LINE
  5
2B6
100
AcDbEntity
  8
DRAFT
100
AcDbLine
 62
7
  6
CONTINUOUS
 10
27.3693003464
 20
39.4282751176
 11
27.3696855455
 21
39.4143727176
  0
LINE
  5
2B7
100
AcDbEntity
  8
0
100
AcDbLine
 62
7
  6
CONTINUOUS
 10
27.369686533
 20
39.4143444786
 11
27.3674676901
 21
39.4940666889
  0
LINE
  5
2B8
100
AcDbEntity
  8
0
100
AcDbLine
 62
7
  6
CONTINUOUS
 10
27.3091386691
 20
41.3911203559
 11
27.2756079509
 21
42.567565254
  0
LINE
  5
2B9
100
AcDbEntity
  8
DRAFT
100
AcDbLine
 62
7
  6
CONTINUOUS
 10
27.2271098037
 20
44.3710950006
 11
27.2498110846
 21
43.5634522068
  0
LINE
  5
2BA
100
AcDbEntity
  8
DRAFT
100
AcDbLine
 62
7
  6
CONTINUOUS
 10
27.2498110846
 20
43.5634522068
 11
27.3693003464
 21
39.4282751176
  0
LINE
  5
2BB
100
AcDbEntity
  8
0
100
AcDbLine
 62
7
  6
CONTINUOUS
 10
27.2756079509
 20
42.567565254
 11
27.2271097707
 21
44.3710964626
  0
LWPOLYLINE
  5
2BC
100
AcDbEntity
  8
0
100
AcDbPolyline
 62
7
  6
CONTINUOUS
 90
10
 70
0
 10
27.668218367
 20
74.2249713543
 10
27.5050283223
 20
70.8163247518
 10
27.368338635
 20
67.3325288505
 10
27.2620172398
 20
63.8476740202
 10
27.1860751105
 20
60.3620248969
 10
27.1405206952
 20
56.8758461703
 10
27.1253552604
 20
53.3894027383
 10
27.1405788055
 20
49.9029595859
 10
27.1861913298
 20
46.4167816979
 10
27.2271098033
 20
44.3710950178
  0
LWPOLYLINE
  5
2BD
100
AcDbEntity
  8
RACCORDO
100
AcDbPolyline
 62
250
  6
CONTINUOUS
 90
22
 70
0
 10
28.01959803
 20
74.2228335681
 10
28.0263242671
 20
74.3083361379
 10
28.0391471043
 20
74.3931339174
 10
28.057999815
 20
74.4767940532
 10
28.0827835901
 20
74.5588837862
 10
28.1133715148
 20
74.6389906353
 10
28.1496133974
 20
74.7167229396
 10
28.191330868
 20
74.79168847
 10
28.2383109461
 20
74.8634970622
 10
28.2903132522
 20
74.9317796247
 10
28.3470746867
 20
74.9961854565
 10
28.4083079735
 20
75.0563843592
 10
28.4736999051
 20
75.1120673207
 10
28.5429207388
 20
75.162948888
 10
28.6156174221
 20
75.2087655288
 10
28.6914118091
 20
75.2492784034
 10
28.7699137779
 20
75.2842772904
 10
28.8507275858
 20
75.3135843144
 10
28.9334458543
 20
75.3370503329
 10
29.0176489735
 20
75.3545525779
 10
29.1029065081
 20
75.3659973617
 10
29.1887836359
 20
75.3713228581
  0
LWPOLYLINE
  5
2BE
100
AcDbEntity
  8
RACCORDO
100
AcDbPolyline
 62
250
  6
CONTINUOUS
 90
22
 70
0
 10
28.5049130337
 20
74.2014937947
 10
28.5088835906
 20
74.2515230956
 10
28.516325235
 20
74.3007257493
 10
28.5272379669
 20
74.3491017559
 10
28.5417121783
 20
74.3969127611
 10
28.5596574772
 20
74.4438971191
 10
28.5808026876
 20
74.4892698926
 10
28.6051952373
 20
74.5329842694
 10
28.6327876987
 20
74.5750870617
 10
28.6631666126
 20
74.6149337691
 10
28.6963779522
 20
74.65249194
 10
28.7323757444
 20
74.687794026
 10
28.7706086107
 20
74.7202928815
 10
28.8111110144
 20
74.7499434152
 10
28.8538484921
 20
74.7767907184
 10
28.8981662757
 20
74.8004229195
 10
28.9441115246
 20
74.8207909144
 10
28.9916370793
 20
74.837943807
 10
29.0399466925
 20
74.8516170375
 10
29.0887749485
 20
74.8617224191
 10
29.1383872629
 20
74.8683481384
 10
29.1887836359
 20
74.8714941956
  0
LINE
  5
2BF
100
AcDbEntity
  8
RACCORDO
100
AcDbLine
 62
250
  6
CONTINUOUS
 10
29.1863511882
 20
74.9753697732
 11
29.1887836359
 21
74.8714941956
  0
LINE
  5
2C0
100
AcDbEntity
  8
RACCORDO
100
AcDbLine
 62
250
  6
CONTINUOUS
 10
29.1845964899
 20
75.0747094352
 11
29.1863511882
 21
74.9753697732
  0
LINE
  5
2C1
100
AcDbEntity
  8
RACCORDO
100
AcDbLine
 62
250
  6
CONTINUOUS
 10
29.1833938306
 20
31.5796487759
 11
29.1839984653
 21
31.6641653511
  0
LINE
  5
2C2
100
AcDbEntity
  8
RACCORDO
100
AcDbLine
 62
250
  6
CONTINUOUS
 10
29.1839984653
 20
31.6641653511
 11
29.1853835716
 21
31.7595898738
  0
LWPOLYLINE
  5
2C3
100
AcDbEntity
  8
RACCORDO
100
AcDbPolyline
 62
250
  6
CONTINUOUS
 90
3
 70
0
 10
29.1853835716
 20
31.7595898738
 10
29.1874886568
 20
31.8617554513
 10
29.1887835905
 20
31.9139782273
  0
LWPOLYLINE
  5
2C4
100
AcDbEntity
  8
0
100
AcDbPolyline
 62
7
  6
CONTINUOUS
 90
4
 70
0
 43
0.3500000006
 10
31.3325075226
 20
93.5389251709
 10
31.3325075226
 20
94.1817786255
 10
32.8325057144
 20
94.1817786255
 10
31.9753632431
 20
91.18177771
  0
LINE
  5
2C5
100
AcDbEntity
  8
RACCORDO
100
AcDbLine
 62
7
  6
CONTINUOUS
 10
33.8253725164
 20
31.2927362108
 11
33.8253725164
 21
75.4927362108
  0
LWPOLYLINE
  5
2C6
100
AcDbEntity
  8
0
100
AcDbPolyline
 62
7
  6
CONTINUOUS
 90
10
 70
0
 43
0.3500000006
 10
30.2610783005
 20
91.6817778625
 10
30.3325072174
 20
91.5389245605
 10
30.3325072174
 20
91.4674933777
 10
30.1896493835
 20
91.3246400757
 10
30.1182204666
 20
91.3246400757
 10
30.0467915497
 20
91.3960712585
 10
30.0467915497
 20
91.4674933777
 10
30.1182204666
 20
91.6103557434
 10
30.1896493835
 20
91.6817778625
 10
30.2610783005
 20
91.6817778625
  0
LINE
  5
2C7
100
AcDbEntity
  8
RACCORDO
100
AcDbLine
 62
250
  6
CONTINUOUS
 10
29.1887836359
 20
74.8714941956
 11
33.8253725164
 21
74.9929075483
  0
LINE
  5
2C8
100
AcDbEntity
  8
RACCORDO
100
AcDbLine
 62
7
  6
CONTINUOUS
 10
28.8351775689
 20
75.3620633573
 11
33.8253725164
 21
75.4927362108
  0
LINE
  5
2C9
100
AcDbEntity
  8
RACCORDO
100
AcDbLine
 62
250
  6
CONTINUOUS
 10
28.0195980188
 20
74.2228335687
 11
27.6682183676
 21
74.2249713663
  0
LWPOLYLINE
  5
2CA
100
AcDbEntity
  8
RACCORDO
100
AcDbPolyline
 62
250
  6
CONTINUOUS
 90
4
 70
0
 10
28.0196114045
 20
74.2228330187
 10
28.0253377101
 20
74.2225325007
 10
28.0358375248
 20
74.2220281351
 10
28.5049130337
 20
74.2014937947
  0
ARC
  5
2CB
100
AcDbEntity
  8
RACCORDO
100
AcDbCircle
 62
7
  6
CONTINUOUS
 10
28.8665899077
 20
32.6229978543
 40
1.2
100
AcDbArc
 50
182.9853521822
 51
268.5
  0
ARC
  5
2CC
100
AcDbEntity
  8
RACCORDO
100
AcDbCircle
 62
7
  6
CONTINUOUS
 10
28.8665899069
 20
74.1624745674
 40
1.2
100
AcDbArc
 50
91.5
 51
177.0146478179
  0
ELLIPSE
  5
2CD
100
AcDbEntity
  8
RACCORDO
100
AcDbEllipse
 62
7
  6
CONTINUOUS
 10
53.4329594184
 20
31.7929076071
 30
0.0
 11
0.35379574
 21
0.35379574
 31
0.0
 40
0.999315002
 41
-3.9266482006
 42
-2.3565371065
  0
ELLIPSE
  5
2CE
100
AcDbEntity
  8
RACCORDO
100
AcDbEllipse
 62
7
  6
CONTINUOUS
 10
74.4326166259
 20
31.7929076071
 30
0.0
 11
0.35379574
 21
-0.35379574
 31
0.0
 40
0.999315002
 41
-0.7850555471
 42
0.7850555471
  0
ELLIPSE
  5
2CF
100
AcDbEntity
  8
RACCORDO
100
AcDbEllipse
 62
7
  6
CONTINUOUS
 10
74.4326166259
 20
74.9925648146
 30
0.0
 11
0.35379574
 21
0.35379574
 31
0.0
 40
0.999315002
 41
-0.7850555471
 42
0.7850555471
  0
ELLIPSE
  5
2D0
100
AcDbEntity
  8
RACCORDO
100
AcDbEllipse
 62
7
  6
CONTINUOUS
 10
53.4329594184
 20
74.9925648146
 30
0.0
 11
0.35379574
 21
-0.35379574
 31
0.0
 40
0.999315002
 41
2.3565371065
 42
3.9266482006
  0
ENDSEC
  0
SECTION
  2
OBJECTS
  0
DICTIONARY
  5
C
100
AcDbDictionary
280
0
281
1
  3
ACAD_GROUP
350
D
  3
ACAD_MLINESTYLE
350
17
  3
ACAD_LAYOUT
350
1A
  3
ACAD_PLOTSETTINGS
350
19
  3
ACAD_PLOTSTYLENAME
350
E
  0
DICTIONARY
  5
D
102
{ACAD_REACTORS
330
C
102
}
100
AcDbDictionary
280
0
281
1
  0
ACDBDICTIONARYWDFLT
  5
E
102
{ACAD_REACTORS
330
C
102
}
100
AcDbDictionary
281
1
  3
Normal
350
F
100
AcDbDictionaryWithDefault
340
F
  0
DICTIONARY
  5
17
102
{ACAD_REACTORS
330
C
102
}
100
AcDbDictionary
280
0
281
1
  3
Standard
350
18
  0
DICTIONARY
  5
19
102
{ACAD_REACTORS
330
C
102
}
100
AcDbDictionary
281
1
  0
DICTIONARY
  5
1A
102
{ACAD_REACTORS
330
C
102
}
100
AcDbDictionary
281
1
  3
Model
350
2D1
  3
Layout1
350
2D2
  0
ACDBPLACEHOLDER
  5
F
102
{ACAD_REACTORS
330
E
102
}
  0
MLINESTYLE
  5
18
102
{ACAD_REACTORS
330
17
102
}
100
AcDbMlineStyle
  2
STANDARD
 70
0
  3

 62
256
 51
90.0
 52
90.0
 71
2
 49
0.5
 62
256
  6
BYLAYER
 49
-0.5
 62
256
  6
BYLAYER
  0
LAYOUT
  5
2D1
102
{ACAD_REACTORS
330
1A
102
}
100
AcDbPlotSettings
  1

  2
none_device
  4
ISO_A4_(297.00_x_210.00_MM)
  6

 40
0.0
 41
0.0
 42
0.0
 43
0.0
 44
297.0
 45
210.0
 46
0.0
 47
0.0
 48
0.0
 49
0.0
140
0.0
141
0.0
142
1.0
143
1.0
 70
1024
 72
1
 73
0
 74
0
  7

 75
0
147
1.0
148
0.0
149
0.0
100
AcDbLayout
  1
Model
 70
0
 71
0
 10
0.0
 20
0.0
 11
297.0
 21
210.0
 12
0.0
 22
0.0
 32
0.0
 14
0.0
 24
0.0
 34
0.0
 15
0.0
 25
0.0
 35
0.0
146
0.0
 13
0.0
 23
0.0
 33
0.0
 16
1.0
 26
0.0
 36
0.0
 17
0.0
 27
1.0
 37
0.0
 76
0
330
215
345
0
346
0
  0
LAYOUT
  5
2D2
102
{ACAD_REACTORS
330
1A
102
}
100
AcDbPlotSettings
  1

  2
none_device
  4
ISO_A4_(297.00_x_210.00_MM)
  6

 40
0.0
 41
0.0
 42
0.0
 43
0.0
 44
297.0
 45
210.0
 46
0.0
 47
0.0
 48
0.0
 49
0.0
140
0.0
141
0.0
142
1.0
143
1.0
 70
0
 72
1
 73
0
 74
0
  7

 75
0
147
1.0
148
0.0
149
0.0
100
AcDbLayout
  1
Layout1
 70
0
 71
1
 10
0.0
 20
0.0
 11
297.0
 21
210.0
 12
0.0
 22
0.0
 32
0.0
 14
0.0
 24
0.0
 34
0.0
 15
0.0
 25
0.0
 35
0.0
146
0.0
 13
0.0
 23
0.0
 33
0.0
 16
1.0
 26
0.0
 36
0.0
 17
0.0
 27
1.0
 37
0.0
 76
0
330
216
345
0
346
0
  0
ENDSEC
  0
EOF
