  0
SECTION
  2
HEADER
  9
$ACADVER
  1
AC1015
  9
$DWGCODEPAGE
  3
ANSI_1252
  9
$EXTMAX
 10
297.0
 20
210.0
 30
0.0
  9
$EXTMIN
 10
0.0
 20
0.0
 30
0.0
  9
$LIMMIN
 10
0.0
 20
0.0
  9
$LIMMAX
 10
297.0
 20
210.0
  9
$VIEWCTR
 10
148.5
 20
105.0
  9
$VIEWSIZE
 40
210.0
  9
$CLAYER
  8
0
  9
$LTSCALE
 40
16.335
  9
$CELTYPE
  6
BYLAYER
  9
$DIMSCALE
 40
1.0
  9
$DIMASZ
 40
3.0
  9
$DIMEXO
 40
1.85625
  9
$DIMDLI
 40
11.286
  9
$DIMEXE
 40
5.346
  9
$DIMCEN
 40
2.673
  9
$DIMLFAC
 40
1.0
  9
$DIMBLK
  1
_FILLED
  9
$DIMTXT
 40
3.0
  9
$DIMTOL
 70
1
  9
$DIMLIM
 70
0
  9
$DIMTFAC
 40
1.0
  9
$DIMTP
 40
0.01
  9
$DIMTM
 40
0.01
  9
$PDMODE
 70
3
  9
$PDSIZE
 40
3.0
  9
$HANDSEED
  5
2B5
  9
$TILEMODE
 70
1
  9
$MEASUREMENT
 70
1
  9
$INSUNITS
 70
4
  0
ENDSEC
  0
SECTION
  2
CLASSES
  0
CLASS
  1
ACDBDICTIONARYWDFLT
  2
AcDbDictionaryWithDefault
  3
AutoCAD 2000
 90
0
280
0
281
0
  0
CLASS
  1
ACDBPLACEHOLDER
  2
AcDbPlaceHolder
  3
AutoCAD 2000
 90
0
280
0
281
0
  0
CLASS
  1
LAYOUT
  2
AcDbLayout
  3
AutoCAD 2000
 90
0
280
0
281
0
  0
ENDSEC
  0
SECTION
  2
TABLES
  0
TABLE
  2
VPORT
  5
8
100
AcDbSymbolTable
 70
2
  0
VPORT
  5
1F4
100
AcDbSymbolTableRecord
100
AcDbViewportTableRecord
  2
*ACTIVE
 70
0
 10
0.0
 20
0.0
 11
1.0
 21
1.0
 12
148.5
 22
105.0
 13
0.0
 23
0.0
 14
1.0
 24
1.0
 15
0.0
 25
0.0
 16
0.0
 26
0.0
 36
1.0
 17
0.0
 27
0.0
 37
0.0
 40
210.0
 41
1.4142857143
 42
50.0
 43
0.0
 44
0.0
 50
0.0
 51
0.0
 71
0
 72
100
 73
1
 74
1
 75
0
 76
0
 77
0
 78
0
  0
ENDTAB
  0
TABLE
  2
LTYPE
  5
5
100
AcDbSymbolTable
 70
6
  0
LTYPE
  5
14
100
AcDbSymbolTableRecord
100
AcDbLinetypeTableRecord
  2
BYBLOCK
 70
0
  3

 72
65
 73
0
 40
0.0
  0
LTYPE
  5
15
100
AcDbSymbolTableRecord
100
AcDbLinetypeTableRecord
  2
BYLAYER
 70
0
  3

 72
65
 73
0
 40
0.0
  0
LTYPE
  5
16
100
AcDbSymbolTableRecord
100
AcDbLinetypeTableRecord
  2
CONTINUOUS
 70
64
  3
Solid line
 72
65
 73
0
 40
0.0
  0
LTYPE
  5
1F5
100
AcDbSymbolTableRecord
100
AcDbLinetypeTableRecord
  2
CENTER
 70
64
  3
____ _ ____ _ ____ _ ____ _ ____ _ ____ _ ____
 72
65
 73
4
 40
0.6
 49
0.375
 74
0
 49
-0.075
 74
0
 49
0.075
 74
0
 49
-0.075
 74
0
  0
LTYPE
  5
1F6
100
AcDbSymbolTableRecord
100
AcDbLinetypeTableRecord
  2
HIDDEN
 70
64
  3
- - - - - - - - - - - - - - - - - - - -
 72
65
 73
2
 40
0.2
 49
0.1
 74
0
 49
-0.1
 74
0
  0
LTYPE
  5
1F7
100
AcDbSymbolTableRecord
100
AcDbLinetypeTableRecord
  2
PHANTOM
 70
64
  3
_____ _ _ _____ _ _ _____ _ _ _____
 72
65
 73
6
 40
0.8
 49
0.45
 74
0
 49
-0.05
 74
0
 49
0.1
 74
0
 49
-0.05
 74
0
 49
0.1
 74
0
 49
-0.05
 74
0
  0
LTYPE
  5
1F8
100
AcDbSymbolTableRecord
100
AcDbLinetypeTableRecord
  2
DOT
 70
64
  3
. . . . . . . . . . . . . . . . . . . .
 72
65
 73
2
 40
0.2
 49
0.1
 74
0
 49
-0.1
 74
0
  0
LTYPE
  5
1F9
100
AcDbSymbolTableRecord
100
AcDbLinetypeTableRecord
  2
DASHED
 70
64
  3
- - - - - - - - - - - - - - - - - - - -
 72
65
 73
2
 40
0.2
 49
0.1
 74
0
 49
-0.1
 74
0
  0
ENDTAB
  0
TABLE
  2
LAYER
  5
2
100
AcDbSymbolTable
 70
36
  0
LAYER
  5
10
100
AcDbSymbolTableRecord
100
AcDbLayerTableRecord
  2
0
 70
0
 62
7
  6
CONTINUOUS
370
-3
390
F
  0
LAYER
  5
1FA
100
AcDbSymbolTableRecord
100
AcDbLayerTableRecord
  2
DEFAULT_1
 70
0
 62
7
  6
CENTER
370
-3
390
F
  0
LAYER
  5
1FB
100
AcDbSymbolTableRecord
100
AcDbLayerTableRecord
  2
DEFAULT_2
 70
0
 62
7
  6
HIDDEN
370
-3
390
F
  0
LAYER
  5
1FC
100
AcDbSymbolTableRecord
100
AcDbLayerTableRecord
  2
DEFAULT_3
 70
0
 62
7
  6
PHANTOM
370
-3
390
F
  0
LAYER
  5
1FD
100
AcDbSymbolTableRecord
100
AcDbLayerTableRecord
  2
ASSI
 70
0
 62
7
  6
CONTINUOUS
370
-3
390
F
  0
LAYER
  5
1FE
100
AcDbSymbolTableRecord
100
AcDbLayerTableRecord
  2
COORDINATE
 70
0
 62
7
  6
CONTINUOUS
370
-3
390
F
  0
LAYER
  5
1FF
100
AcDbSymbolTableRecord
100
AcDbLayerTableRecord
  2
COPY_PUBLISH
 70
0
 62
7
  6
CONTINUOUS
370
-3
390
F
  0
LAYER
  5
200
100
AcDbSymbolTableRecord
100
AcDbLayerTableRecord
  2
COSMETIC
 70
0
 62
7
  6
CONTINUOUS
370
-3
390
F
  0
LAYER
  5
201
100
AcDbSymbolTableRecord
100
AcDbLayerTableRecord
  2
COSMETICI
 70
0
 62
7
  6
CONTINUOUS
370
-3
390
F
  0
LAYER
  5
202
100
AcDbSymbolTableRecord
100
AcDbLayerTableRecord
  2
CURVE
 70
0
 62
7
  6
CONTINUOUS
370
-3
390
F
  0
LAYER
  5
203
100
AcDbSymbolTableRecord
100
AcDbLayerTableRecord
  2
DRAFT
 70
0
 62
7
  6
CONTINUOUS
370
-3
390
F
  0
LAYER
  5
204
100
AcDbSymbolTableRecord
100
AcDbLayerTableRecord
  2
IMPORT_IGES
 70
0
 62
7
  6
CONTINUOUS
370
-3
390
F
  0
LAYER
  5
205
100
AcDbSymbolTableRecord
100
AcDbLayerTableRecord
  2
INTFCLR_11
 70
0
 62
7
  6
CONTINUOUS
370
-3
390
F
  0
LAYER
  5
206
100
AcDbSymbolTableRecord
100
AcDbLayerTableRecord
  2
INTF_1
 70
0
 62
7
  6
CONTINUOUS
370
-3
390
F
  0
LAYER
  5
207
100
AcDbSymbolTableRecord
100
AcDbLayerTableRecord
  2
INTF_3
 70
0
 62
7
  6
CONTINUOUS
370
-3
390
F
  0
LAYER
  5
208
100
AcDbSymbolTableRecord
100
AcDbLayerTableRecord
  2
NOTE
 70
0
 62
7
  6
CONTINUOUS
370
-3
390
F
  0
LAYER
  5
209
100
AcDbSymbolTableRecord
100
AcDbLayerTableRecord
  2
PIANI
 70
0
 62
7
  6
CONTINUOUS
370
-3
390
F
  0
LAYER
  5
20A
100
AcDbSymbolTableRecord
100
AcDbLayerTableRecord
  2
PUNTI
 70
0
 62
7
  6
CONTINUOUS
370
-3
390
F
  0
LAYER
  5
20B
100
AcDbSymbolTableRecord
100
AcDbLayerTableRecord
  2
RACCORDO
 70
0
 62
7
  6
CONTINUOUS
370
-3
390
F
  0
LAYER
  5
20C
100
AcDbSymbolTableRecord
100
AcDbLayerTableRecord
  2
SIMBOLI
 70
0
 62
7
  6
CONTINUOUS
370
-3
390
F
  0
LAYER
  5
20D
100
AcDbSymbolTableRecord
100
AcDbLayerTableRecord
  2
SMUSSO
 70
0
 62
7
  6
CONTINUOUS
370
-3
390
F
  0
LAYER
  5
20E
100
AcDbSymbolTableRecord
100
AcDbLayerTableRecord
  2
SNAPLINE
 70
0
 62
7
  6
CONTINUOUS
370
-3
390
F
  0
LAYER
  5
20F
100
AcDbSymbolTableRecord
100
AcDbLayerTableRecord
  2
SUPERFICI
 70
0
 62
7
  6
CONTINUOUS
370
-3
390
F
  0
LAYER
  5
210
100
AcDbSymbolTableRecord
100
AcDbLayerTableRecord
  2
TRASH
 70
0
 62
7
  6
CONTINUOUS
370
-3
390
F
  0
LAYER
  5
211
100
AcDbSymbolTableRecord
100
AcDbLayerTableRecord
  2
XSEC_DATUMS
 70
0
 62
7
  6
CONTINUOUS
370
-3
390
F
  0
LAYER
  5
212
100
AcDbSymbolTableRecord
100
AcDbLayerTableRecord
  2
___SHELL
 70
0
 62
7
  6
CONTINUOUS
370
-3
390
F
  0
ENDTAB
  0
TABLE
  2
STYLE
  5
3
100
AcDbSymbolTable
 70
1
  0
STYLE
  5
11
100
AcDbSymbolTableRecord
100
AcDbTextStyleTableRecord
  2
STANDARD
 70
0
 40
0.0
 41
0.8
 50
0.0
 71
0
 42
0.2
  3
txt
  4

  0
STYLE
  5
213
100
AcDbSymbolTableRecord
100
AcDbTextStyleTableRecord
  2
TEXTSTYLE_1
 70
0
 40
0.0
 41
0.8
 50
0.0
 71
0
 42
0.2
  3
gdt
  4

  0
ENDTAB
  0
TABLE
  2
VIEW
  5
6
100
AcDbSymbolTable
 70
0
  0
ENDTAB
  0
TABLE
  2
UCS
  5
7
100
AcDbSymbolTable
 70
0
  0
ENDTAB
  0
TABLE
  2
APPID
  5
9
100
AcDbSymbolTable
 70
1
  0
APPID
  5
214
100
AcDbSymbolTableRecord
100
AcDbRegAppTableRecord
  2
ACAD
 70
0
  0
ENDTAB
  0
TABLE
  2
BLOCK_RECORD
  5
1
100
AcDbSymbolTable
 70
0
  0
BLOCK_RECORD
  5
215
100
AcDbSymbolTableRecord
100
AcDbBlockTableRecord
  2
*Model_Space
  0
BLOCK_RECORD
  5
216
100
AcDbSymbolTableRecord
100
AcDbBlockTableRecord
  2
*Paper_Space
  0
BLOCK_RECORD
  5
217
100
AcDbSymbolTableRecord
100
AcDbBlockTableRecord
  2
_FILLED
  0
BLOCK_RECORD
  5
218
100
AcDbSymbolTableRecord
100
AcDbBlockTableRecord
  2
*D0
  0
BLOCK_RECORD
  5
219
100
AcDbSymbolTableRecord
100
AcDbBlockTableRecord
  2
*D1
  0
BLOCK_RECORD
  5
21A
100
AcDbSymbolTableRecord
100
AcDbBlockTableRecord
  2
*D2
  0
ENDTAB
  0
TABLE
  2
DIMSTYLE
  5
A
100
AcDbSymbolTable
 70
1
100
AcDbDimStyleTable
 71
0
  0
DIMSTYLE
105
21B
100
AcDbSymbolTableRecord
100
AcDbDimStyleTableRecord
  2
STANDARD
 70
0
  3

  4

 40
1.0
 41
3.0
 42
0.0625
 43
0.38
 44
0.18
 45
0.0
 46
0.0
 47
0.01
 48
0.01
140
3.0
141
0.09
142
0.0
143
25.4
144
1.0
145
0.0
146
1.0
147
0.09
 71
1.0
 72
0.0
 73
0
 74
0
 75
0
 76
0
 77
1
 78
8
170
0
171
2
172
0
173
0
174
0
175
0
176
0
177
0
178
0
270
2
271
2
272
2
273
2
274
2
275
0
280
0
281
0
282
0
283
1
284
8
285
0
286
0
287
3
288
0
340
11
341
217
342
217
343
217
344
217
  0
DIMSTYLE
105
21C
100
AcDbSymbolTableRecord
100
AcDbDimStyleTableRecord
  2
DIMSTYLE_1
 70
0
  3

  4

 40
1.0
 41
3.0
 42
0.0625
 43
0.38
 44
0.18
 45
0.0
 46
0.0
 47
0.0
 48
0.0
140
3.0
141
0.09
142
0.0
143
25.4
144
1.0
145
0.0
146
1.0
147
0.09
 71
0.0
 72
0.0
 73
0
 74
0
 75
0
 76
0
 77
1
 78
8
170
0
171
2
172
0
173
0
174
0
175
0
176
0
177
0
178
0
270
2
271
2
272
2
273
2
274
2
275
0
280
0
281
0
282
0
283
1
284
8
285
0
286
0
287
3
288
0
340
11
341
217
342
217
343
217
344
217
  0
ENDTAB
  0
ENDSEC
  0
SECTION
  2
BLOCKS
  0
BLOCK
  5
20
100
AcDbEntity
  8
0
100
AcDbBlockBegin
  2
*Model_Space
 70
0
 10
0.0
 20
0.0
 30
0.0
  3
*Model_Space
  1

  0
ENDBLK
  5
21
100
AcDbEntity
  8
0
100
AcDbBlockEnd
  0
BLOCK
  5
1C
100
AcDbEntity
  8
0
100
AcDbBlockBegin
  2
*Paper_Space
 70
0
 10
0.0
 20
0.0
 30
0.0
  3
*Paper_Space
  1

  0
ENDBLK
  5
1D
100
AcDbEntity
  8
0
100
AcDbBlockEnd
  0
BLOCK
  5
21D
100
AcDbEntity
  8
0
100
AcDbBlockBegin
  2
_FILLED
 70
64
 10
0.0
 20
0.0
  3
_FILLED
  1

  0
SOLID
  5
21E
100
AcDbEntity
  8
0
  6
BYBLOCK
 62
0
100
AcDbTrace
 10
0.0
 20
0.0
 11
-1.0
 21
0.3166666667
 12
-1.0
 22
-0.3166666667
 13
-1.0
 23
-0.3166666667
  0
ENDBLK
  5
21F
100
AcDbEntity
  8
0
  6
BYBLOCK
 62
0
100
AcDbBlockEnd
  0
BLOCK
  5
220
100
AcDbEntity
  8
0
100
AcDbBlockBegin
 62
7
  6
CONTINUOUS
  2
*D0
 70
65
 10
0.0
 20
0.0
  3
*D0
  1

  0
LINE
  5
221
100
AcDbEntity
  8
0
100
AcDbLine
 62
7
  6
CONTINUOUS
 10
-27.663146294
 20
22.1001713375
 11
-27.663146294
 21
36.5935382224
  0
LINE
  5
222
100
AcDbEntity
  8
0
100
AcDbLine
 62
7
  6
CONTINUOUS
 10
-34.3631635639
 20
0.5
 11
-34.3631635639
 21
36.5935382224
  0
LINE
  5
223
100
AcDbEntity
  8
0
100
AcDbLine
 62
7
  6
CONTINUOUS
 10
-27.663146294
 20
35.0935382224
 11
-23.663146294
 21
35.0935382224
  0
LINE
  5
224
100
AcDbEntity
  8
0
100
AcDbLine
 62
7
  6
CONTINUOUS
 10
-23.663146294
 20
35.0935382224
 11
-31.013154929
 21
35.0935382224
  0
LINE
  5
225
100
AcDbEntity
  8
0
100
AcDbLine
 62
7
  6
CONTINUOUS
 10
-34.3631635639
 20
35.0935382224
 11
-38.3631635639
 21
35.0935382224
  0
LINE
  5
226
100
AcDbEntity
  8
0
100
AcDbLine
 62
7
  6
CONTINUOUS
 10
-38.3631635639
 20
35.0935382224
 11
-31.013154929
 21
35.0935382224
  0
INSERT
  5
227
100
AcDbEntity
  8
0
100
AcDbBlockReference
 62
7
  6
CONTINUOUS
  2
_FILLED
 10
-27.663146294
 20
35.0935382224
 41
3.0
 42
3.0
 43
3.0
 50
180.0
  0
INSERT
  5
228
100
AcDbEntity
  8
0
100
AcDbBlockReference
 62
7
  6
CONTINUOUS
  2
_FILLED
 10
-34.3631635639
 20
35.0935382224
 41
3.0
 42
3.0
 43
3.0
  0
ENDBLK
  5
229
100
AcDbEntity
  8
0
  6
BYBLOCK
 62
0
100
AcDbBlockEnd
  0
BLOCK
  5
22A
100
AcDbEntity
  8
0
100
AcDbBlockBegin
 62
7
  6
CONTINUOUS
  2
*D1
 70
65
 10
0.0
 20
0.0
  3
*D1
  1

  0
LINE
  5
22B
100
AcDbEntity
  8
0
100
AcDbLine
 62
7
  6
CONTINUOUS
 10
-11.0
 20
22.1001713375
 11
-11.0
 21
36.5935382224
  0
LINE
  5
22C
100
AcDbEntity
  8
0
100
AcDbLine
 62
7
  6
CONTINUOUS
 10
11.0
 20
22.1001713375
 11
11.0
 21
36.5935382224
  0
LINE
  5
22D
100
AcDbEntity
  8
0
100
AcDbLine
 62
7
  6
CONTINUOUS
 10
-11.0
 20
35.0935382224
 11
-0.0
 21
35.0935382224
  0
LINE
  5
22E
100
AcDbEntity
  8
0
100
AcDbLine
 62
7
  6
CONTINUOUS
 10
11.0
 20
35.0935382224
 11
-0.0
 21
35.0935382224
  0
INSERT
  5
22F
100
AcDbEntity
  8
0
100
AcDbBlockReference
 62
7
  6
CONTINUOUS
  2
_FILLED
 10
-11.0
 20
35.0935382224
 41
3.0
 42
3.0
 43
3.0
 50
180.0
  0
INSERT
  5
230
100
AcDbEntity
  8
0
100
AcDbBlockReference
 62
7
  6
CONTINUOUS
  2
_FILLED
 10
11.0
 20
35.0935382224
 41
3.0
 42
3.0
 43
3.0
  0
ENDBLK
  5
231
100
AcDbEntity
  8
0
  6
BYBLOCK
 62
0
100
AcDbBlockEnd
  0
BLOCK
  5
232
100
AcDbEntity
  8
0
100
AcDbBlockBegin
 62
7
  6
CONTINUOUS
  2
*D2
 70
65
 10
0.0
 20
0.0
  3
*D2
  1

  0
LINE
  5
233
100
AcDbEntity
  8
0
100
AcDbLine
 62
7
  6
CONTINUOUS
 10
11.0001713375
 20
22.1
 11
25.4856384999
 21
22.1
  0
LINE
  5
234
100
AcDbEntity
  8
0
100
AcDbLine
 62
7
  6
CONTINUOUS
 10
11.0001713375
 20
-22.1
 11
25.4856384999
 21
-22.1
  0
LINE
  5
235
100
AcDbEntity
  8
0
100
AcDbLine
 62
7
  6
CONTINUOUS
 10
23.9856384999
 20
22.1
 11
23.9856384999
 21
0.0
  0
LINE
  5
236
100
AcDbEntity
  8
0
100
AcDbLine
 62
7
  6
CONTINUOUS
 10
23.9856384999
 20
-22.1
 11
23.9856384999
 21
0.0
  0
INSERT
  5
237
100
AcDbEntity
  8
0
100
AcDbBlockReference
 62
7
  6
CONTINUOUS
  2
_FILLED
 10
23.9856384999
 20
22.1
 41
3.0
 42
3.0
 43
3.0
 50
90.0
  0
INSERT
  5
238
100
AcDbEntity
  8
0
100
AcDbBlockReference
 62
7
  6
CONTINUOUS
  2
_FILLED
 10
23.9856384999
 20
-22.1
 41
3.0
 42
3.0
 43
3.0
 50
270.0
  0
ENDBLK
  5
239
100
AcDbEntity
  8
0
  6
BYBLOCK
 62
0
100
AcDbBlockEnd
  0
ENDSEC
  0
SECTION
  2
ENTITIES
  0
DIMENSION
  5
23A
100
AcDbEntity
  8
0
100
AcDbDimension
 62
7
  6
CONTINUOUS
  2
*D0
 10
-34.3631635639
 20
35.0935382224
 11
-34.2274406433
 21
35.8435382224
 70
160
 71
2
 42
6.7000172699
  3
DIMSTYLE_1
100
AcDbAlignedDimension
 13
-27.663146294
 23
22.1001713375
 14
-34.3631635639
 24
0.5
 50
180.0
100
AcDbRotatedDimension
  0
DIMENSION
  5
23B
100
AcDbEntity
  8
0
100
AcDbDimension
 62
7
  6
CONTINUOUS
  2
*D1
 10
11.0
 20
35.0935382224
 11
-2.3571428571
 21
35.8435382224
 70
160
 71
2
 42
22.0
  3
DIMSTYLE_1
100
AcDbAlignedDimension
 13
-11.0
 23
22.1001713375
 14
11.0
 24
22.1001713375
100
AcDbRotatedDimension
  0
DIMENSION
  5
23C
100
AcDbEntity
  8
0
100
AcDbDimension
 62
7
  6
CONTINUOUS
  2
*D2
 10
23.9856384999
 20
-22.1
 11
23.2356384999
 21
-4.3928571429
 70
160
 71
2
 42
44.2
  3
DIMSTYLE_1
100
AcDbAlignedDimension
 13
11.0001713375
 23
22.1
 14
11.0001713375
 24
-22.1
 50
270.0
100
AcDbRotatedDimension
  0
LINE
  5
23D
100
AcDbEntity
  8
RACCORDO
100
AcDbLine
 62
7
  6
CONTINUOUS
 10
-10.5001713375
 20
-22.1
 11
10.5001713375
 21
-22.1
  0
LINE
  5
23E
100
AcDbEntity
  8
RACCORDO
100
AcDbLine
 62
7
  6
CONTINUOUS
 10
-11.0
 20
-21.6001713375
 11
-11.0
 21
21.6001713375
  0
LINE
  5
23F
100
AcDbEntity
  8
RACCORDO
100
AcDbLine
 62
253
  6
CONTINUOUS
 10
-10.3945930754
 20
20.8300973557
 11
-10.3945930794
 21
-20.8300973586
  0
LINE
  5
240
100
AcDbEntity
  8
RACCORDO
100
AcDbLine
 62
253
  6
CONTINUOUS
 10
10.3787579847
 20
21.9785866472
 11
10.5001713375
 21
22.1
  0
LINE
  5
241
100
AcDbEntity
  8
RACCORDO
100
AcDbLine
 62
253
  6
CONTINUOUS
 10
10.5001713375
 20
-22.1
 11
10.3787579846
 21
-21.9785866471
  0
LINE
  5
242
100
AcDbEntity
  8
RACCORDO
100
AcDbLine
 62
253
  6
CONTINUOUS
 10
10.8785866472
 20
21.4787579847
 11
11.0
 21
21.6001713375
  0
LINE
  5
243
100
AcDbEntity
  8
RACCORDO
100
AcDbLine
 62
253
  6
CONTINUOUS
 10
11.0
 20
-21.6001713375
 11
10.8785866462
 21
-21.4787579837
  0
LINE
  5
244
100
AcDbEntity
  8
0
100
AcDbLine
 62
7
  6
CONTINUOUS
 10
-2.2537767707
 20
-13.0156438241
 11
-2.2522323901
 21
-10.012016362
  0
LWPOLYLINE
  5
245
100
AcDbEntity
  8
0
100
AcDbPolyline
 62
7
  6
CONTINUOUS
 90
2
 70
0
 43
0.3500000006
 10
23.2356388321
 20
-3.3928568802
 10
21.7356383743
 20
-3.3928568802
  0
LWPOLYLINE
  5
246
100
AcDbEntity
  8
0
100
AcDbPolyline
 62
7
  6
CONTINUOUS
 90
2
 70
0
 43
0.3500000006
 10
23.2356388321
 20
-1.0357139511
 10
21.7356383743
 20
-1.0357139511
  0
LINE
  5
247
100
AcDbEntity
  8
0
100
AcDbLine
 62
7
  6
CONTINUOUS
 10
2.2522323901
 20
-10.012016362
 11
2.2537767707
 21
-13.0156438241
  0
LINE
  5
248
100
AcDbEntity
  8
RACCORDO
100
AcDbLine
 62
253
  6
CONTINUOUS
 10
-10.8785866472
 20
-21.4787579847
 11
-11.0
 21
-21.6001713375
  0
LINE
  5
249
100
AcDbEntity
  8
RACCORDO
100
AcDbLine
 62
253
  6
CONTINUOUS
 10
-10.3787579848
 20
-21.9785866472
 11
-10.5001713375
 21
-22.1
  0
LWPOLYLINE
  5
24A
100
AcDbEntity
  8
0
100
AcDbPolyline
 62
7
  6
CONTINUOUS
 90
3
 70
0
 43
0.3500000006
 10
22.9499231644
 20
1.0357133102
 10
23.1642099152
 20
0.9642866592
 10
23.449923317
 20
0.8214288254
  0
LINE
  5
24B
100
AcDbEntity
  8
RACCORDO
100
AcDbLine
 62
253
  6
CONTINUOUS
 10
-11.0
 20
21.6001713375
 11
-10.8785866462
 21
21.4787579837
  0
LINE
  5
24C
100
AcDbEntity
  8
RACCORDO
100
AcDbLine
 62
253
  6
CONTINUOUS
 10
-10.5001713375
 20
22.1
 11
-10.3787579846
 21
21.9785866471
  0
LINE
  5
24D
100
AcDbEntity
  8
RACCORDO
100
AcDbLine
 62
253
  6
CONTINUOUS
 10
10.3945930754
 20
-20.8300973565
 11
10.3945930793
 21
20.8300973579
  0
LWPOLYLINE
  5
24E
100
AcDbEntity
  8
0
100
AcDbPolyline
 62
7
  6
CONTINUOUS
 90
10
 70
0
 43
0.3500000006
 10
22.7356386795
 20
0.9642866592
 10
22.8784965134
 20
1.0357133102
 10
22.9499231644
 20
1.0357133102
 10
23.0927809982
 20
0.8928577423
 10
23.0927809982
 20
0.8214288254
 10
23.0213520813
 20
0.7499999084
 10
22.9499231644
 20
0.7499999084
 10
22.8070675964
 20
0.8214288254
 10
22.7356386795
 20
0.8928577423
 10
22.7356386795
 20
0.9642866592
  0
LINE
  5
24F
100
AcDbEntity
  8
RACCORDO
100
AcDbLine
 62
7
  6
CONTINUOUS
 10
11.0
 20
-21.6001713375
 11
11.0
 21
21.6001713375
  0
LWPOLYLINE
  5
250
100
AcDbEntity
  8
0
100
AcDbPolyline
 62
7
  6
CONTINUOUS
 90
3
 70
0
 43
0.3500000006
 10
22.5927808456
 20
-0.5357137985
 10
22.5927808456
 20
-2.0357142563
 10
20.2356379166
 20
-1.3928574028
  0
LWPOLYLINE
  5
251
100
AcDbEntity
  8
0
100
AcDbPolyline
 62
7
  6
CONTINUOUS
 90
3
 70
0
 43
0.3500000006
 10
22.5927808456
 20
-2.8928567276
 10
22.5927808456
 20
-4.3928571854
 10
20.2356379166
 20
-3.7500003319
  0
LWPOLYLINE
  5
252
100
AcDbEntity
  8
0
100
AcDbPolyline
 62
7
  6
CONTINUOUS
 90
7
 70
0
 43
0.3500000006
 10
23.2356388321
 20
3.5357140732
 10
23.2356388321
 20
2.0357136154
 10
21.0927803879
 20
3.5357140732
 10
20.6642091522
 20
3.5357140732
 10
20.2356379166
 20
3.1071428375
 10
20.2356379166
 20
2.4642848511
 10
20.878495903
 20
2.0357136154
  0
LINE
  5
253
100
AcDbEntity
  8
RACCORDO
100
AcDbLine
 62
7
  6
CONTINUOUS
 10
-10.5001713375
 20
22.1
 11
10.5001713375
 21
22.1
  0
LWPOLYLINE
  5
254
100
AcDbEntity
  8
0
100
AcDbPolyline
 62
7
  6
CONTINUOUS
 90
7
 70
0
 43
0.3500000006
 10
1.5000000329
 20
35.8435391235
 10
-0.0
 20
35.8435391235
 10
1.5000000329
 20
37.9863975677
 10
1.5000000329
 20
38.4149665375
 10
1.0714285848
 20
38.8435400391
 10
0.4285714127
 20
38.8435400391
 10
-0.0
 20
38.2006820526
  0
LWPOLYLINE
  5
255
100
AcDbEntity
  8
0
100
AcDbPolyline
 62
7
  6
CONTINUOUS
 90
7
 70
0
 43
0.3500000006
 10
-0.8571428254
 20
35.8435391235
 10
-2.3571427875
 20
35.8435391235
 10
-0.8571428254
 20
37.9863975677
 10
-0.8571428254
 20
38.4149665375
 10
-1.2857142735
 20
38.8435400391
 10
-1.9285714102
 20
38.8435400391
 10
-2.3571427875
 20
38.2006820526
  0
LWPOLYLINE
  5
256
100
AcDbEntity
  8
0
100
AcDbPolyline
 62
7
  6
CONTINUOUS
 90
10
 70
0
 43
0.3500000006
 10
-33.1560125656
 20
38.8435400391
 10
-33.7988682861
 20
38.2006820526
 10
-34.2274395218
 20
37.3435395813
 10
-34.2274395218
 20
36.2721080933
 10
-33.7988682861
 20
35.8435391235
 10
-33.1560125656
 20
35.8435391235
 10
-32.72744133
 20
36.2721080933
 10
-32.72744133
 20
37.1292505646
 10
-33.1560125656
 20
37.5578240662
 10
-34.0845839539
 20
37.5578240662
  0
LINE
  5
257
100
AcDbEntity
  8
RACCORDO
100
AcDbLine
 62
253
  6
CONTINUOUS
 10
-33.4689207889
 20
-20.8300973803
 11
-32.9836057979
 21
-20.8087575816
  0
LINE
  5
258
100
AcDbEntity
  8
RACCORDO
100
AcDbLine
 62
7
  6
CONTINUOUS
 10
-27.663146294
 20
-22.1
 11
-32.6533450243
 21
-21.9693270474
  0
LINE
  5
259
100
AcDbEntity
  8
RACCORDO
100
AcDbLine
 62
253
  6
CONTINUOUS
 10
-27.663146294
 20
-21.6001713375
 11
-32.2997352141
 21
-21.4787579837
  0
LWPOLYLINE
  5
25A
100
AcDbEntity
  8
0
100
AcDbPolyline
 62
7
  6
CONTINUOUS
 90
3
 70
0
 43
0.3500000006
 10
-31.1560119553
 20
36.1292502594
 10
-31.2274408722
 20
35.9149657745
 10
-31.3702987061
 20
35.6292546387
  0
LWPOLYLINE
  5
25B
100
AcDbEntity
  8
0
100
AcDbPolyline
 62
7
  6
CONTINUOUS
 90
3
 70
0
 10
-34.071654529
 20
-15.2679726397
 10
-33.9832000514
 20
-17.430248501
 10
-33.8203004435
 20
-20.832235143
  0
LWPOLYLINE
  5
25C
100
AcDbEntity
  8
0
100
AcDbPolyline
 62
7
  6
CONTINUOUS
 90
10
 70
0
 10
-33.8203004435
 20
20.8322351429
 10
-33.9834904881
 20
17.4235885418
 10
-34.1201801754
 20
13.9397926404
 10
-34.2265015706
 20
10.45493781
 10
-34.3024436999
 20
6.9692886865
 10
-34.3479981152
 20
3.4831099596
 10
-34.36316355
 20
-0.0033334725
 10
-34.3479400049
 20
-3.4897766251
 10
-34.3023274807
 20
-6.9759545133
 10
-34.2884280799
 20
-7.7318143272
  0
LWPOLYLINE
  5
25D
100
AcDbEntity
  8
0
100
AcDbPolyline
 62
7
  6
CONTINUOUS
 90
4
 70
0
 43
0.3500000006
 10
-30.1560116501
 20
38.2006820526
 10
-30.1560116501
 20
38.8435400391
 10
-28.6560111923
 20
38.8435400391
 10
-29.5131559296
 20
35.8435391235
  0
LINE
  5
25E
100
AcDbEntity
  8
RACCORDO
100
AcDbLine
 62
7
  6
CONTINUOUS
 10
-27.663146294
 20
-22.1
 11
-27.663146294
 21
22.1
  0
LWPOLYLINE
  5
25F
100
AcDbEntity
  8
0
100
AcDbPolyline
 62
7
  6
CONTINUOUS
 90
10
 70
0
 43
0.3500000006
 10
-31.2274408722
 20
36.3435392761
 10
-31.1560119553
 20
36.2006814423
 10
-31.1560119553
 20
36.1292502594
 10
-31.2988697891
 20
35.9863969574
 10
-31.3702987061
 20
35.9863969574
 10
-31.4417253571
 20
36.0578236084
 10
-31.4417253571
 20
36.1292502594
 10
-31.3702987061
 20
36.2721080933
 10
-31.2988697891
 20
36.3435392761
 10
-31.2274408722
 20
36.3435392761
  0
LINE
  5
260
100
AcDbEntity
  8
RACCORDO
100
AcDbLine
 62
253
  6
CONTINUOUS
 10
-32.2997351742
 20
21.4787579847
 11
-27.663146294
 21
21.6001713375
  0
LINE
  5
261
100
AcDbEntity
  8
RACCORDO
100
AcDbLine
 62
7
  6
CONTINUOUS
 10
-32.6533450086
 20
21.9693270478
 11
-27.663146294
 21
22.1
  0
LINE
  5
262
100
AcDbEntity
  8
RACCORDO
100
AcDbLine
 62
253
  6
CONTINUOUS
 10
-33.4689074056
 20
20.8300968079
 11
-32.9836057766
 21
20.8087575838
  0
ARC
  5
263
100
AcDbEntity
  8
RACCORDO
100
AcDbCircle
 62
253
  6
CONTINUOUS
 10
-18539.6607983172
 20
0.0000002463
 40
18528.8118040797
100
AcDbArc
 50
359.9356540363
 51
0.0643459621
  0
ARC
  5
264
100
AcDbEntity
  8
RACCORDO
100
AcDbCircle
 62
253
  6
CONTINUOUS
 10
18539.6607908718
 20
-0.0000002473
 40
18528.8117966343
100
AcDbArc
 50
179.9356540363
 51
180.0643459622
  0
ARC
  5
265
100
AcDbEntity
  8
RACCORDO
100
AcDbCircle
 62
253
  6
CONTINUOUS
 10
0.0000000426
 20
-5837.2304147629
 40
5815.2610898412
100
AcDbArc
 50
89.8977415918
 51
90.102258409
  0
ARC
  5
266
100
AcDbEntity
  8
RACCORDO
100
AcDbCircle
 62
253
  6
CONTINUOUS
 10
-0.0000000406
 20
5837.230407588
 40
5815.2610826663
100
AcDbArc
 50
269.8977415916
 51
270.1022584092
  0
ARC
  5
267
100
AcDbEntity
  8
0
100
AcDbCircle
 62
253
  6
CONTINUOUS
 10
-0.0
 20
-225.1874787504
 40
215.1876761121
100
AcDbArc
 50
89.7337400684
 51
90.2662599303
  0
ARC
  5
268
100
AcDbEntity
  8
DRAFT
100
AcDbCircle
 62
253
  6
CONTINUOUS
 10
-0.1149698085
 20
-201.3395518189
 40
191.3394724445
100
AcDbArc
 50
90.2650792605
 51
90.6400073684
  0
ARC
  5
269
100
AcDbEntity
  8
0
100
AcDbCircle
 62
253
  6
CONTINUOUS
 10
-0.0
 20
-198.621329598
 40
187.1215565606
100
AcDbArc
 50
89.6938030375
 51
90.3061969625
  0
ARC
  5
26A
100
AcDbEntity
  8
DRAFT
100
AcDbCircle
 62
253
  6
CONTINUOUS
 10
0.1716167142
 20
-194.1677633861
 40
184.1675001828
100
AcDbArc
 50
89.3526923432
 51
89.7422178687
  0
ARC
  5
26B
100
AcDbEntity
  8
DRAFT
100
AcDbCircle
 62
253
  6
CONTINUOUS
 10
0.1148876943
 20
-177.891832688
 40
166.391741743
100
AcDbArc
 50
89.2637523021
 51
89.6952166126
  0
ARC
  5
26C
100
AcDbEntity
  8
0
100
AcDbCircle
 62
253
  6
CONTINUOUS
 10
-0.0
 20
-178.5325871395
 40
165.5328437024
100
AcDbArc
 50
89.6538698376
 51
90.3461301616
  0
ARC
  5
26D
100
AcDbEntity
  8
DRAFT
100
AcDbCircle
 62
253
  6
CONTINUOUS
 10
-0.1716992764
 20
-171.638466429
 40
160.1381634837
100
AcDbArc
 50
90.2963587581
 51
90.7446723272
  0
ARC
  5
26E
100
AcDbEntity
  8
DRAFT
100
AcDbCircle
 62
253
  6
CONTINUOUS
 10
0.1147670433
 20
-160.2054614419
 40
147.2053591857
100
AcDbArc
 50
89.167417928
 51
89.6555501259
  0
ARC
  5
26F
100
AcDbEntity
  8
DRAFT
100
AcDbCircle
 62
253
  6
CONTINUOUS
 10
-0.1717925885
 20
-154.6538749771
 40
141.6535321914
100
AcDbArc
 50
90.3348869471
 51
90.8421477395
  0
ARC
  5
270
100
AcDbEntity
  8
0
100
AcDbCircle
 62
7
  6
CONTINUOUS
 10
0.0
 20
-13.0140148847
 40
2.2541574012
100
AcDbArc
 50
180.0414110818
 51
359.9585889182
  0
ARC
  5
271
100
AcDbEntity
  8
0
100
AcDbCircle
 62
7
  6
CONTINUOUS
 10
-0.0134028469
 20
-12.999996746
 40
1.0134028216
100
AcDbArc
 50
358.8356931179
 51
359.8435453241
  0
ARC
  5
272
100
AcDbEntity
  8
0
100
AcDbCircle
 62
7
  6
CONTINUOUS
 10
0.0129635366
 20
-12.9999862085
 40
1.0129635392
100
AcDbArc
 50
180.1571185517
 51
180.624064731
  0
ARC
  5
273
100
AcDbEntity
  8
0
100
AcDbCircle
 62
7
  6
CONTINUOUS
 10
0.0053948936
 20
-10.0005213743
 40
1.0053939037
100
AcDbArc
 50
171.9951535942
 51
180.0914560982
  0
ARC
  5
274
100
AcDbEntity
  8
0
100
AcDbCircle
 62
7
  6
CONTINUOUS
 10
0.0000010478
 20
-12.9999986487
 40
1.0000016922
100
AcDbArc
 50
180.6314412631
 51
358.8201969666
  0
ARC
  5
275
100
AcDbEntity
  8
DRAFT
100
AcDbCircle
 62
7
  6
CONTINUOUS
 10
0.0000000024
 20
-10.000000078
 40
0.9999999919
100
AcDbArc
 50
359.8782094014
 51
180.1217918508
  0
ARC
  5
276
100
AcDbEntity
  8
DRAFT
100
AcDbCircle
 62
7
  6
CONTINUOUS
 10
-0.0000016375
 20
-13.0000068732
 40
0.9999972397
100
AcDbArc
 50
180.1580139805
 51
359.8419854274
  0
ARC
  5
277
100
AcDbEntity
  8
0
100
AcDbCircle
 62
7
  6
CONTINUOUS
 10
0.0000044493
 20
-9.9999821908
 40
0.9999858195
100
AcDbArc
 50
359.8877258815
 51
171.9827358467
  0
ARC
  5
278
100
AcDbEntity
  8
RACCORDO
100
AcDbCircle
 62
253
  6
CONTINUOUS
 10
-10.3783243411
 20
21.4783243411
 40
0.5002656627
100
AcDbArc
 50
90.0496657163
 51
179.9503342837
  0
ARC
  5
279
100
AcDbEntity
  8
RACCORDO
100
AcDbCircle
 62
253
  6
CONTINUOUS
 10
10.378324341
 20
-21.478324341
 40
0.5002656628
100
AcDbArc
 50
270.0496657212
 51
359.9503342788
  0
ARC
  5
27A
100
AcDbEntity
  8
RACCORDO
100
AcDbCircle
 62
253
  6
CONTINUOUS
 10
-10.378324344
 20
-21.478324344
 40
0.5002656609
100
AcDbArc
 50
180.0496655047
 51
269.9503344953
  0
ARC
  5
27B
100
AcDbEntity
  8
RACCORDO
100
AcDbCircle
 62
253
  6
CONTINUOUS
 10
10.378324344
 20
21.478324344
 40
0.5002656608
100
AcDbArc
 50
0.0496654999
 51
89.9503345001
  0
ARC
  5
27C
100
AcDbEntity
  8
RACCORDO
100
AcDbCircle
 62
253
  6
CONTINUOUS
 10
452.7922616109
 20
-0.0000000031
 40
486.7071300767
100
AcDbArc
 50
177.5471053637
 51
182.4528946354
  0
ARC
  5
27D
100
AcDbEntity
  8
RACCORDO
100
AcDbCircle
 62
253
  6
CONTINUOUS
 10
452.0012353936
 20
-0.0000002472
 40
485.431046151
100
AcDbArc
 50
177.5431743634
 51
182.4568255779
  0
ARC
  5
27E
100
AcDbEntity
  8
0
100
AcDbCircle
 62
7
  6
CONTINUOUS
 10
369.051561037
 20
0.0011154491
 40
403.3936867605
100
AcDbArc
 50
181.6357402478
 51
181.8491485958
  0
ARC
  5
27F
100
AcDbEntity
  8
0
100
AcDbCircle
 62
7
  6
CONTINUOUS
 10
369.0303396507
 20
0.0005769781
 40
403.3724721217
100
AcDbArc
 50
181.4223535289
 51
181.635749838
  0
ARC
  5
280
100
AcDbEntity
  8
RACCORDO
100
AcDbCircle
 62
253
  6
CONTINUOUS
 10
-32.2691269631
 20
-20.7779450208
 40
1.2009812531
100
AcDbArc
 50
182.4889517007
 51
268.5396609658
  0
ARC
  5
281
100
AcDbEntity
  8
RACCORDO
100
AcDbCircle
 62
253
  6
CONTINUOUS
 10
-32.2691272729
 20
20.7779453809
 40
1.2009812519
100
AcDbArc
 50
91.4603227922
 51
177.5110647515
  0
ARC
  5
282
100
AcDbEntity
  8
RACCORDO
100
AcDbCircle
 62
7
  6
CONTINUOUS
 10
-32.6219289093
 20
-20.7697383564
 40
1.2
100
AcDbArc
 50
182.9853521812
 51
268.5
  0
ARC
  5
283
100
AcDbEntity
  8
RACCORDO
100
AcDbCircle
 62
7
  6
CONTINUOUS
 10
-32.6219289101
 20
20.7697383563
 40
1.2
100
AcDbArc
 50
91.5
 51
177.014647819
  0
LINE
  5
284
100
AcDbEntity
  8
0
100
AcDbLine
 62
7
  6
CONTINUOUS
 10
-1.0
 20
-10.0021262041
 11
-1.0000000229
 21
-10.1645725688
  0
LINE
  5
285
100
AcDbEntity
  8
0
100
AcDbLine
 62
7
  6
CONTINUOUS
 10
-1.0000000229
 20
-10.1645725688
 11
-1.0
 21
-11.5024451163
  0
LINE
  5
286
100
AcDbEntity
  8
0
100
AcDbLine
 62
7
  6
CONTINUOUS
 10
1.0
 20
-11.5024451163
 11
1.0000000006
 21
-11.331968637
  0
LINE
  5
287
100
AcDbEntity
  8
0
100
AcDbLine
 62
7
  6
CONTINUOUS
 10
1.0000000006
 20
-11.331968637
 11
1.0000000012
 21
-11.162399693
  0
LINE
  5
288
100
AcDbEntity
  8
0
100
AcDbLine
 62
7
  6
CONTINUOUS
 10
1.0000000012
 20
-11.162399693
 11
0.9999999998
 21
-10.9937388166
  0
LINE
  5
289
100
AcDbEntity
  8
0
100
AcDbLine
 62
7
  6
CONTINUOUS
 10
0.9999999998
 20
-10.9937388166
 11
0.9999999958
 21
-10.8259374496
  0
LINE
  5
28A
100
AcDbEntity
  8
0
100
AcDbLine
 62
7
  6
CONTINUOUS
 10
0.9999999958
 20
-10.8259374496
 11
0.9999999941
 21
-10.659043801
  0
LINE
  5
28B
100
AcDbEntity
  8
0
100
AcDbLine
 62
7
  6
CONTINUOUS
 10
0.9999999941
 20
-10.659043801
 11
1.0000000005
 21
-10.4932014383
  0
LINE
  5
28C
100
AcDbEntity
  8
0
100
AcDbLine
 62
7
  6
CONTINUOUS
 10
1.0000000005
 20
-10.4932014383
 11
1.000000016
 21
-10.3284582613
  0
LINE
  5
28D
100
AcDbEntity
  8
0
100
AcDbLine
 62
7
  6
CONTINUOUS
 10
1.000000016
 20
-10.3284582613
 11
1.000000023
 21
-10.1647664962
  0
LINE
  5
28E
100
AcDbEntity
  8
0
100
AcDbLine
 62
7
  6
CONTINUOUS
 10
1.000000023
 20
-10.1647664962
 11
1.0
 21
-10.0021262041
  0
LINE
  5
28F
100
AcDbEntity
  8
0
100
AcDbLine
 62
7
  6
CONTINUOUS
 10
-1.0
 20
-11.5024451163
 11
-0.9999999985
 21
-11.8429116371
  0
LINE
  5
290
100
AcDbEntity
  8
0
100
AcDbLine
 62
7
  6
CONTINUOUS
 10
-0.9999999985
 20
-11.8429116371
 11
-0.9999999695
 21
-12.8397462283
  0
LINE
  5
291
100
AcDbEntity
  8
0
100
AcDbLine
 62
7
  6
CONTINUOUS
 10
-0.9999999695
 20
-12.8397462283
 11
-1.0
 21
-13.0027640134
  0
LINE
  5
292
100
AcDbEntity
  8
0
100
AcDbLine
 62
7
  6
CONTINUOUS
 10
1.0
 20
-13.0027640134
 11
0.9999999694
 21
-12.8395437607
  0
LINE
  5
293
100
AcDbEntity
  8
0
100
AcDbLine
 62
7
  6
CONTINUOUS
 10
0.9999999694
 20
-12.8395437607
 11
1.0
 21
-11.5024451163
  0
LINE
  5
294
100
AcDbEntity
  8
DRAFT
100
AcDbLine
 62
7
  6
CONTINUOUS
 10
1.0
 20
-11.5024451163
 11
1.0
 21
-13.0027640134
  0
LINE
  5
295
100
AcDbEntity
  8
DRAFT
100
AcDbLine
 62
7
  6
CONTINUOUS
 10
-1.0
 20
-13.0027640134
 11
-1.0
 21
-11.5024451163
  0
LINE
  5
296
100
AcDbEntity
  8
DRAFT
100
AcDbLine
 62
7
  6
CONTINUOUS
 10
-1.0
 20
-11.5024451163
 11
-1.0
 21
-10.0021262041
  0
LINE
  5
297
100
AcDbEntity
  8
DRAFT
100
AcDbLine
 62
7
  6
CONTINUOUS
 10
1.0
 20
-10.0021262041
 11
1.0
 21
-11.5024451163
  0
SPLINE
  5
298
100
AcDbEntity
  8
RACCORDO
100
AcDbSpline
 62
253
  6
CONTINUOUS
 70
0
 71
3
 72
18
 73
14
 74
12
 42
0.0000001
 43
0.0000001
 44
0.0000000001
 12
-0.4674652267
 22
-0.0018790638
 32
0.0
 13
-0.2434637147
 23
-0.3990647675
 33
0.0
 40
0.0
 40
0.0
 40
0.0
 40
0.0
 40
0.1945509067
 40
0.3803826071
 40
0.5506495734
 40
0.69978781
 40
0.8228299002
 40
0.8731846833
 40
0.9155542647
 40
0.9495801285
 40
0.9749875825
 40
0.991704206
 40
1.0
 40
1.0
 40
1.0
 40
1.0
 10
-10.3945930753
 20
20.8300973803
 30
0.0
 10
-10.4249083365
 20
20.8299755225
 30
0.0
 10
-10.4841796677
 20
20.8295050739
 30
0.0
 10
-10.5699729671
 20
20.8281162944
 30
0.0
 10
-10.6486772912
 20
20.8261010639
 30
0.0
 10
-10.7175712806
 20
20.8235311473
 30
0.0
 10
-10.7677718566
 20
20.8208963831
 30
0.0
 10
-10.8012949015
 20
20.818466068
 30
0.0
 10
-10.8209937175
 20
20.8167059301
 30
0.0
 10
-10.8366853763
 20
20.8148791189
 30
0.0
 10
-10.8485854278
 20
20.8130957274
 30
0.0
 10
-10.8559100772
 20
20.8112486839
 30
0.0
 10
-10.8600056231
 20
20.8098611014
 30
0.0
 10
-10.8606788647
 20
20.8087575816
 30
0.0
 11
-10.3945930753
 21
20.8300973803
 31
0.0
 11
-10.485536656
 21
20.8293663963
 31
0.0
 11
-10.5723954191
 21
20.8279348114
 31
0.0
 11
-10.6519626822
 21
20.8258516202
 31
0.0
 11
-10.7216292327
 21
20.8231866725
 31
0.0
 11
-10.7790610419
 21
20.8200324052
 31
0.0
 11
-10.8025368304
 21
20.8183043973
 31
0.0
 11
-10.8222604488
 21
20.8164947084
 31
0.0
 11
-10.8380553616
 21
20.8146178145
 31
0.0
 11
-10.8497750105
 21
20.8126896957
 31
0.0
 11
-10.8573397202
 21
20.8107296881
 31
0.0
 11
-10.8606788647
 21
20.8087575816
 31
0.0
  0
SPLINE
  5
299
100
AcDbEntity
  8
RACCORDO
100
AcDbSpline
 62
253
  6
CONTINUOUS
 70
0
 71
3
 72
18
 73
14
 74
12
 42
0.0000001
 43
0.0000001
 44
0.0000000001
 12
-0.4674659251
 22
0.0018790128
 32
0.0
 13
-0.2435852513
 23
0.3989914123
 33
0.0
 40
0.0
 40
0.0
 40
0.0
 40
0.0
 40
0.1945478309
 40
0.3803770597
 40
0.5506424843
 40
0.6997802633
 40
0.82282299
 40
0.8731784767
 40
0.9155489906
 40
0.949575992
 40
0.9749847586
 40
0.9917028225
 40
1.0
 40
1.0
 40
1.0
 40
1.0
 10
-10.3945921765
 20
-20.8300968079
 30
0.0
 10
-10.4249070037
 20
-20.8299749553
 30
0.0
 10
-10.484177559
 20
-20.8295045256
 30
0.0
 10
-10.5699698828
 20
-20.8281157996
 30
0.0
 10
-10.6486736287
 20
-20.8261006413
 30
0.0
 10
-10.7175675138
 20
-20.8235308063
 30
0.0
 10
-10.7677683009
 20
-20.8208961192
 30
0.0
 10
-10.8012917643
 20
-20.8184658701
 30
0.0
 10
-10.8209910291
 20
-20.8167057756
 30
0.0
 10
-10.8366832939
 20
-20.814878987
 30
0.0
 10
-10.8485838683
 20
-20.8130956499
 30
0.0
 10
-10.8559093998
 20
-20.8112485531
 30
0.0
 10
-10.8600051752
 20
-20.8098610847
 30
0.0
 10
-10.8606788652
 20
-20.8087575838
 30
0.0
 11
-10.3945921765
 21
-20.8300968079
 31
0.0
 11
-10.4855344554
 21
-20.8293658546
 31
0.0
 11
-10.5723921936
 21
-20.8279343264
 31
0.0
 11
-10.6519588567
 21
-20.8258512116
 31
0.0
 11
-10.7216253006
 21
-20.8231863512
 31
0.0
 11
-10.7790574989
 21
-20.8200321744
 31
0.0
 11
-10.8025336557
 21
-20.8183042107
 31
0.0
 11
-10.8222577454
 21
-20.8164945646
 31
0.0
 11
-10.8380532225
 21
-20.8146177114
 31
0.0
 11
-10.8497735175
 21
-20.8126896307
 31
0.0
 11
-10.8573389439
 21
-20.8107296582
 31
0.0
 11
-10.8606788652
 21
-20.8087575838
 31
0.0
  0
SPLINE
  5
29A
100
AcDbEntity
  8
RACCORDO
100
AcDbSpline
 62
253
  6
CONTINUOUS
 70
0
 71
3
 72
21
 73
17
 74
15
 42
0.0000001
 43
0.0000001
 44
0.0000000001
 12
0.5092875708
 22
1.0297667776
 32
0.0
 13
0.0014442227
 23
1.1488217269
 33
0.0
 40
0.0
 40
0.0
 40
0.0
 40
0.0
 40
0.0025180144
 40
0.0072873235
 40
0.0143192941
 40
0.0236068494
 40
0.0488920216
 40
0.0829235471
 40
0.1254109572
 40
0.1759900656
 40
0.2342086345
 40
0.2995741332
 40
0.4493742282
 40
0.6201195446
 40
0.8058696727
 40
1.0
 40
1.0
 40
1.0
 40
1.0
 10
10.3787579837
 20
-21.9785866462
 30
0.0
 10
10.3791854482
 20
-21.9777223237
 30
0.0
 10
10.3796389558
 20
-21.974912013
 30
0.0
 10
10.3803760977
 20
-21.9695166422
 30
0.0
 10
10.3810384226
 20
-21.9614466464
 30
0.0
 10
10.3821066186
 20
-21.9455613289
 30
0.0
 10
10.383301741
 20
-21.9193068782
 30
0.0
 10
10.384654094
 20
-21.8803492469
 30
0.0
 10
10.3859576044
 20
-21.8316936919
 30
0.0
 10
10.3872146757
 20
-21.7737744948
 30
0.0
 10
10.3884054138
 20
-21.7070906055
 30
0.0
 10
10.3899621242
 20
-21.6024121697
 30
0.0
 10
10.3916088519
 20
-21.454639754
 30
0.0
 10
10.3931057715
 20
-21.2607640301
 30
0.0
 10
10.3941425461
 20
-21.0499092171
 30
0.0
 10
10.3944996229
 20
-20.9044377369
 30
0.0
 10
10.3945930787
 20
-20.8300973576
 30
0.0
 11
10.3787579837
 21
-21.9785866462
 31
0.0
 11
10.3794894962
 21
-21.9757879137
 31
0.0
 11
10.3802209297
 21
-21.9703578645
 31
0.0
 11
10.380950216
 21
-21.9623123631
 31
0.0
 11
10.381675287
 21
-21.9516672741
 31
0.0
 11
10.3831047883
 21
-21.9226542912
 31
0.0
 11
10.3844959382
 21
-21.8835828627
 31
0.0
 11
10.3858368578
 21
-21.8347907866
 31
0.0
 11
10.387116576
 21
-21.7766984558
 31
0.0
 11
10.3883252116
 21
-21.7098265677
 31
0.0
 11
10.389452996
 21
-21.6347416725
 31
0.0
 11
10.3914277329
 21
-21.4626592628
 31
0.0
 11
10.3929736008
 21
-21.26650927
 31
0.0
 11
10.3940411241
 21
-21.0531179887
 31
0.0
 11
10.3945930787
 21
-20.8300973576
 31
0.0
  0
SPLINE
  5
29B
100
AcDbEntity
  8
RACCORDO
100
AcDbSpline
 62
253
  6
CONTINUOUS
 70
0
 71
3
 72
21
 73
17
 74
15
 42
0.0000001
 43
0.0000001
 44
0.0000000001
 12
0.0014442222
 22
-1.1488217277
 32
0.0
 13
0.5092876121
 23
-1.0297667581
 33
0.0
 40
0.0
 40
0.0
 40
0.0
 40
0.0
 40
0.194130327
 40
0.3798804549
 40
0.5506257712
 40
0.7004258663
 40
0.7657913651
 40
0.824009934
 40
0.8745890424
 40
0.9170764527
 40
0.9511079782
 40
0.9763931504
 40
0.9856807057
 40
0.9927126763
 40
0.9974819854
 40
1.0
 40
1.0
 40
1.0
 40
1.0
 10
-10.3945930817
 20
-20.830097358
 30
0.0
 10
-10.3944996259
 20
-20.9044377372
 30
0.0
 10
-10.3941425535
 20
-21.0499092174
 30
0.0
 10
-10.393105778
 20
-21.2607640303
 30
0.0
 10
-10.3916088572
 20
-21.4546397543
 30
0.0
 10
-10.389962129
 20
-21.60241217
 30
0.0
 10
-10.3884054178
 20
-21.707090606
 30
0.0
 10
-10.3872146793
 20
-21.7737744954
 30
0.0
 10
-10.3859576077
 20
-21.8316936926
 30
0.0
 10
-10.3846540968
 20
-21.8803492477
 30
0.0
 10
-10.3833017432
 20
-21.9193068791
 30
0.0
 10
-10.3821066204
 20
-21.9455613299
 30
0.0
 10
-10.3810384241
 20
-21.9614466473
 30
0.0
 10
-10.3803760991
 20
-21.969516643
 30
0.0
 10
-10.379638957
 20
-21.974912014
 30
0.0
 10
-10.3791854493
 20
-21.9777223247
 30
0.0
 10
-10.3787579848
 20
-21.9785866472
 30
0.0
 11
-10.3945930817
 21
-20.830097358
 31
0.0
 11
-10.3940411303
 21
-21.0531179889
 31
0.0
 11
-10.3929736072
 21
-21.2665092701
 31
0.0
 11
-10.3914277383
 21
-21.462659263
 31
0.0
 11
-10.3894530006
 21
-21.6347416728
 31
0.0
 11
-10.3883252157
 21
-21.7098265681
 31
0.0
 11
-10.3871165796
 21
-21.7766984564
 31
0.0
 11
-10.385836861
 21
-21.8347907873
 31
0.0
 11
-10.3844959409
 21
-21.8835828636
 31
0.0
 11
-10.3831047904
 21
-21.9226542921
 31
0.0
 11
-10.3816752886
 21
-21.9516672751
 31
0.0
 11
-10.3809502175
 21
-21.962312364
 31
0.0
 11
-10.380220931
 21
-21.9703578653
 31
0.0
 11
-10.3794894974
 21
-21.9757879146
 31
0.0
 11
-10.3787579848
 21
-21.9785866472
 31
0.0
  0
SPLINE
  5
29C
100
AcDbEntity
  8
RACCORDO
100
AcDbSpline
 62
253
  6
CONTINUOUS
 70
0
 71
3
 72
21
 73
17
 74
15
 42
0.0000001
 43
0.0000001
 44
0.0000000001
 12
-0.0014442221
 22
1.1488217285
 32
0.0
 13
-0.5092876109
 23
1.0297667595
 33
0.0
 40
0.0
 40
0.0
 40
0.0
 40
0.0
 40
0.194130327
 40
0.3798804549
 40
0.5506257712
 40
0.7004258663
 40
0.765791365
 40
0.824009934
 40
0.8745890424
 40
0.9170764526
 40
0.9511079782
 40
0.9763931504
 40
0.9856807057
 40
0.9927126763
 40
0.9974819854
 40
1.0
 40
1.0
 40
1.0
 40
1.0
 10
10.3945930817
 20
20.8300973573
 30
0.0
 10
10.3944996259
 20
20.9044377365
 30
0.0
 10
10.3941425534
 20
21.0499092168
 30
0.0
 10
10.3931057779
 20
21.2607640298
 30
0.0
 10
10.3916088571
 20
21.4546397539
 30
0.0
 10
10.389962129
 20
21.6024121697
 30
0.0
 10
10.3884054178
 20
21.7070906058
 30
0.0
 10
10.3872146792
 20
21.7737744952
 30
0.0
 10
10.3859576077
 20
21.8316936925
 30
0.0
 10
10.3846540968
 20
21.8803492476
 30
0.0
 10
10.3833017431
 20
21.9193068791
 30
0.0
 10
10.3821066203
 20
21.9455613298
 30
0.0
 10
10.3810384241
 20
21.9614466473
 30
0.0
 10
10.3803760991
 20
21.969516643
 30
0.0
 10
10.379638957
 20
21.974912014
 30
0.0
 10
10.3791854493
 20
21.9777223247
 30
0.0
 10
10.3787579847
 20
21.9785866472
 30
0.0
 11
10.3945930817
 21
20.8300973573
 31
0.0
 11
10.3940411303
 21
21.0531179883
 31
0.0
 11
10.3929736071
 21
21.2665092696
 31
0.0
 11
10.3914277383
 21
21.4626592626
 31
0.0
 11
10.3894530006
 21
21.6347416726
 31
0.0
 11
10.3883252156
 21
21.7098265679
 31
0.0
 11
10.3871165796
 21
21.7766984562
 31
0.0
 11
10.385836861
 21
21.8347907872
 31
0.0
 11
10.3844959408
 21
21.8835828635
 31
0.0
 11
10.3831047904
 21
21.9226542921
 31
0.0
 11
10.3816752886
 21
21.951667275
 31
0.0
 11
10.3809502175
 21
21.962312364
 31
0.0
 11
10.380220931
 21
21.9703578653
 31
0.0
 11
10.3794894974
 21
21.9757879146
 31
0.0
 11
10.3787579847
 21
21.9785866472
 31
0.0
  0
SPLINE
  5
29D
100
AcDbEntity
  8
RACCORDO
100
AcDbSpline
 62
253
  6
CONTINUOUS
 70
0
 71
3
 72
21
 73
17
 74
15
 42
0.0000001
 43
0.0000001
 44
0.0000000001
 12
-0.509287571
 22
-1.0297667783
 32
0.0
 13
-0.0014442227
 23
-1.1488217276
 33
0.0
 40
0.0
 40
0.0
 40
0.0
 40
0.0
 40
0.0025180144
 40
0.0072873235
 40
0.0143192941
 40
0.0236068495
 40
0.0488920216
 40
0.0829235471
 40
0.1254109572
 40
0.1759900656
 40
0.2342086345
 40
0.2995741332
 40
0.4493742283
 40
0.6201195447
 40
0.8058696727
 40
1.0
 40
1.0
 40
1.0
 40
1.0
 10
-10.3787579837
 20
21.9785866462
 30
0.0
 10
-10.3791854482
 20
21.9777223237
 30
0.0
 10
-10.3796389558
 20
21.974912013
 30
0.0
 10
-10.3803760977
 20
21.9695166422
 30
0.0
 10
-10.3810384226
 20
21.9614466464
 30
0.0
 10
-10.3821066186
 20
21.9455613289
 30
0.0
 10
-10.383301741
 20
21.9193068782
 30
0.0
 10
-10.384654094
 20
21.8803492468
 30
0.0
 10
-10.3859576045
 20
21.8316936918
 30
0.0
 10
-10.3872146757
 20
21.7737744946
 30
0.0
 10
-10.3884054138
 20
21.7070906053
 30
0.0
 10
-10.3899621242
 20
21.6024121694
 30
0.0
 10
-10.3916088519
 20
21.4546397537
 30
0.0
 10
-10.3931057715
 20
21.2607640296
 30
0.0
 10
-10.3941425461
 20
21.0499092165
 30
0.0
 10
-10.3944996229
 20
20.9044377362
 30
0.0
 10
-10.3945930787
 20
20.8300973569
 30
0.0
 11
-10.3787579837
 21
21.9785866462
 31
0.0
 11
-10.3794894962
 21
21.9757879137
 31
0.0
 11
-10.3802209297
 21
21.9703578645
 31
0.0
 11
-10.380950216
 21
21.9623123631
 31
0.0
 11
-10.381675287
 21
21.9516672741
 31
0.0
 11
-10.3831047883
 21
21.9226542912
 31
0.0
 11
-10.3844959382
 21
21.8835828627
 31
0.0
 11
-10.3858368578
 21
21.8347907865
 31
0.0
 11
-10.387116576
 21
21.7766984557
 31
0.0
 11
-10.3883252116
 21
21.7098265675
 31
0.0
 11
-10.389452996
 21
21.6347416722
 31
0.0
 11
-10.3914277329
 21
21.4626592624
 31
0.0
 11
-10.3929736008
 21
21.2665092695
 31
0.0
 11
-10.3940411241
 21
21.0531179881
 31
0.0
 11
-10.3945930787
 21
20.8300973569
 31
0.0
  0
SPLINE
  5
29E
100
AcDbEntity
  8
RACCORDO
100
AcDbSpline
 62
253
  6
CONTINUOUS
 70
0
 71
3
 72
19
 73
15
 74
13
 42
0.0000001
 43
0.0000001
 44
0.0000000001
 12
0.0007567078
 22
0.6707313449
 32
0.0
 13
0.4724844617
 23
0.4760667422
 33
0.0
 40
0.0
 40
0.0
 40
0.0
 40
0.0
 40
0.1942382544
 40
0.380029374
 40
0.550724005
 40
0.7003850702
 40
0.7656594894
 40
0.8237826736
 40
0.8742740962
 40
0.9166951155
 40
0.9506932745
 40
0.9759919201
 40
0.9924056629
 40
1.0
 40
1.0
 40
1.0
 40
1.0
 10
10.8606788653
 20
20.8087575838
 30
0.0
 10
10.8607278591
 20
20.8521848124
 30
0.0
 10
10.8610298315
 20
20.9371505824
 30
0.0
 10
10.8620987374
 20
21.0602760204
 30
0.0
 10
10.8637385002
 20
21.1734273651
 30
0.0
 10
10.8655914487
 20
21.2596276442
 30
0.0
 10
10.8673694679
 20
21.3206502025
 30
0.0
 10
10.8687352664
 20
21.3595079131
 30
0.0
 10
10.8701962322
 20
21.3932334724
 30
0.0
 10
10.8716827346
 20
21.4216019945
 30
0.0
 10
10.8733207255
 20
21.4442004611
 30
0.0
 10
10.8746997423
 20
21.4612760293
 30
0.0
 10
10.8765836636
 20
21.4717717476
 30
0.0
 10
10.8773905785
 20
21.4775528476
 30
0.0
 10
10.8785866472
 20
21.4787579847
 30
0.0
 11
10.8606788653
 21
20.8087575838
 31
0.0
 11
10.8611503466
 21
20.9390384992
 31
0.0
 11
10.8622537993
 21
21.0636496205
 31
0.0
 11
10.8639490073
 21
21.178127382
 31
0.0
 11
10.8661747602
 21
21.2784851348
 31
0.0
 11
10.8674624028
 21
21.3222478225
 31
0.0
 11
10.8688517733
 21
21.3612081233
 31
0.0
 11
10.8703302718
 21
21.3950420358
 31
0.0
 11
10.8718847755
 21
21.4234526653
 31
0.0
 11
10.8735019669
 21
21.4461988943
 31
0.0
 11
10.8751683544
 21
21.4630854784
 31
0.0
 11
10.8768690393
 21
21.4739625446
 31
0.0
 11
10.8785866472
 21
21.4787579847
 31
0.0
  0
SPLINE
  5
29F
100
AcDbEntity
  8
RACCORDO
100
AcDbSpline
 62
253
  6
CONTINUOUS
 70
0
 71
3
 72
19
 73
15
 74
13
 42
0.0000001
 43
0.0000001
 44
0.0000000001
 12
-0.472484515
 22
0.4760666909
 32
0.0
 13
-0.0007567077
 23
0.670731346
 33
0.0
 40
0.0
 40
0.0
 40
0.0
 40
0.0
 40
0.0075943369
 40
0.02400808
 40
0.0493067254
 40
0.0833048838
 40
0.1257259027
 40
0.176217325
 40
0.2343405088
 40
0.2996149277
 40
0.4492759921
 40
0.6199706219
 40
0.8057617419
 40
1.0
 40
1.0
 40
1.0
 40
1.0
 10
10.8785866462
 20
-21.4787579837
 30
0.0
 10
10.8773905773
 20
-21.4775528467
 30
0.0
 10
10.8765836627
 20
-21.4717717464
 30
0.0
 10
10.8746997412
 20
-21.4612760284
 30
0.0
 10
10.8733207245
 20
-21.4442004601
 30
0.0
 10
10.8716827336
 20
-21.4216019938
 30
0.0
 10
10.8701962312
 20
-21.3932334719
 30
0.0
 10
10.8687352654
 20
-21.3595079128
 30
0.0
 10
10.8673694668
 20
-21.3206502023
 30
0.0
 10
10.8655914476
 20
-21.2596276443
 30
0.0
 10
10.8637384992
 20
-21.1734273656
 30
0.0
 10
10.8620987363
 20
-21.060276021
 30
0.0
 10
10.8610298303
 20
-20.9371505822
 30
0.0
 10
10.8607278586
 20
-20.8521848111
 30
0.0
 10
10.8606788647
 20
-20.8087575816
 30
0.0
 11
10.8785866462
 21
-21.4787579837
 31
0.0
 11
10.8768690382
 21
-21.4739625437
 31
0.0
 11
10.8751683533
 21
-21.4630854773
 31
0.0
 11
10.8735019659
 21
-21.4461988933
 31
0.0
 11
10.8718847745
 21
-21.4234526646
 31
0.0
 11
10.8703302708
 21
-21.3950420354
 31
0.0
 11
10.8688517723
 21
-21.361208123
 31
0.0
 11
10.8674624017
 21
-21.3222478223
 31
0.0
 11
10.8661747592
 21
-21.2784851349
 31
0.0
 11
10.8639490063
 21
-21.1781273824
 31
0.0
 11
10.8622537982
 21
-21.0636496215
 31
0.0
 11
10.8611503455
 21
-20.9390384997
 31
0.0
 11
10.8606788647
 21
-20.8087575816
 31
0.0
  0
SPLINE
  5
2A0
100
AcDbEntity
  8
RACCORDO
100
AcDbSpline
 62
253
  6
CONTINUOUS
 70
0
 71
3
 72
19
 73
15
 74
13
 42
0.0000001
 43
0.0000001
 44
0.0000000001
 12
-0.0007567078
 22
-0.6707313449
 32
0.0
 13
-0.4724844617
 23
-0.4760667422
 33
0.0
 40
0.0
 40
0.0
 40
0.0
 40
0.0
 40
0.1942382544
 40
0.380029374
 40
0.550724005
 40
0.7003850702
 40
0.7656594894
 40
0.8237826736
 40
0.8742740962
 40
0.9166951155
 40
0.9506932745
 40
0.9759919201
 40
0.9924056629
 40
1.0
 40
1.0
 40
1.0
 40
1.0
 10
-10.8606788653
 20
-20.8087575838
 30
0.0
 10
-10.8607278591
 20
-20.8521848124
 30
0.0
 10
-10.8610298315
 20
-20.9371505824
 30
0.0
 10
-10.8620987374
 20
-21.0602760204
 30
0.0
 10
-10.8637385002
 20
-21.1734273651
 30
0.0
 10
-10.8655914487
 20
-21.2596276442
 30
0.0
 10
-10.8673694679
 20
-21.3206502025
 30
0.0
 10
-10.8687352664
 20
-21.3595079131
 30
0.0
 10
-10.8701962322
 20
-21.3932334724
 30
0.0
 10
-10.8716827346
 20
-21.4216019945
 30
0.0
 10
-10.8733207255
 20
-21.4442004611
 30
0.0
 10
-10.8746997423
 20
-21.4612760293
 30
0.0
 10
-10.8765836636
 20
-21.4717717476
 30
0.0
 10
-10.8773905785
 20
-21.4775528476
 30
0.0
 10
-10.8785866472
 20
-21.4787579847
 30
0.0
 11
-10.8606788653
 21
-20.8087575838
 31
0.0
 11
-10.8611503466
 21
-20.9390384992
 31
0.0
 11
-10.8622537993
 21
-21.0636496205
 31
0.0
 11
-10.8639490074
 21
-21.178127382
 31
0.0
 11
-10.8661747602
 21
-21.2784851348
 31
0.0
 11
-10.8674624028
 21
-21.3222478225
 31
0.0
 11
-10.8688517733
 21
-21.3612081233
 31
0.0
 11
-10.8703302718
 21
-21.3950420358
 31
0.0
 11
-10.8718847755
 21
-21.4234526653
 31
0.0
 11
-10.8735019669
 21
-21.4461988943
 31
0.0
 11
-10.8751683544
 21
-21.4630854784
 31
0.0
 11
-10.8768690393
 21
-21.4739625446
 31
0.0
 11
-10.8785866472
 21
-21.4787579847
 31
0.0
  0
SPLINE
  5
2A1
100
AcDbEntity
  8
RACCORDO
100
AcDbSpline
 62
253
  6
CONTINUOUS
 70
0
 71
3
 72
19
 73
15
 74
13
 42
0.0000001
 43
0.0000001
 44
0.0000000001
 12
0.472484515
 22
-0.4760666909
 32
0.0
 13
0.0007567077
 23
-0.670731346
 33
0.0
 40
0.0
 40
0.0
 40
0.0
 40
0.0
 40
0.0075943369
 40
0.02400808
 40
0.0493067254
 40
0.0833048839
 40
0.1257259027
 40
0.176217325
 40
0.2343405088
 40
0.2996149277
 40
0.4492759921
 40
0.6199706219
 40
0.8057617419
 40
1.0
 40
1.0
 40
1.0
 40
1.0
 10
-10.8785866462
 20
21.4787579837
 30
0.0
 10
-10.8773905773
 20
21.4775528468
 30
0.0
 10
-10.8765836627
 20
21.4717717464
 30
0.0
 10
-10.8746997412
 20
21.4612760284
 30
0.0
 10
-10.8733207245
 20
21.4442004601
 30
0.0
 10
-10.8716827336
 20
21.4216019938
 30
0.0
 10
-10.8701962312
 20
21.3932334719
 30
0.0
 10
-10.8687352654
 20
21.3595079128
 30
0.0
 10
-10.8673694668
 20
21.3206502023
 30
0.0
 10
-10.8655914476
 20
21.2596276443
 30
0.0
 10
-10.8637384992
 20
21.1734273656
 30
0.0
 10
-10.8620987363
 20
21.060276021
 30
0.0
 10
-10.8610298303
 20
20.9371505822
 30
0.0
 10
-10.8607278586
 20
20.8521848111
 30
0.0
 10
-10.8606788647
 20
20.8087575816
 30
0.0
 11
-10.8785866462
 21
21.4787579837
 31
0.0
 11
-10.8768690382
 21
21.4739625437
 31
0.0
 11
-10.8751683533
 21
21.4630854773
 31
0.0
 11
-10.8735019659
 21
21.4461988933
 31
0.0
 11
-10.8718847745
 21
21.4234526646
 31
0.0
 11
-10.8703302708
 21
21.3950420354
 31
0.0
 11
-10.8688517723
 21
21.361208123
 31
0.0
 11
-10.8674624017
 21
21.3222478223
 31
0.0
 11
-10.8661747592
 21
21.2784851349
 31
0.0
 11
-10.8639490063
 21
21.1781273824
 31
0.0
 11
-10.8622537982
 21
21.0636496215
 31
0.0
 11
-10.8611503455
 21
20.9390384997
 31
0.0
 11
-10.8606788647
 21
20.8087575816
 31
0.0
  0
SPLINE
  5
2A2
100
AcDbEntity
  8
0
100
AcDbSpline
 62
7
  6
CONTINUOUS
 70
0
 71
3
 72
23
 73
19
 74
17
 42
0.0000001
 43
0.0000001
 44
0.0000000001
 12
0.0031745699
 22
7.1076109944
 32
0.0
 13
0.0031745699
 23
-7.1076109944
 33
0.0
 40
0.0
 40
0.0
 40
0.0
 40
0.0
 40
0.0624908187
 40
0.1249839325
 40
0.1874709235
 40
0.2499636326
 40
0.312460758
 40
0.3749686742
 40
0.4374845226
 40
0.4999999551
 40
0.5625154496
 40
0.6250315585
 40
0.6875399484
 40
0.7500371621
 40
0.8125293483
 40
0.875016294
 40
0.9375091462
 40
1.0
 40
1.0
 40
1.0
 40
1.0
 10
-2.2522323901
 20
-10.012016362
 30
0.0
 10
-2.2521662629
 20
-9.8639628854
 30
0.0
 10
-2.2233831356
 20
-9.5670742765
 30
0.0
 10
-2.0958035285
 20
-9.1388796184
 30
0.0
 10
-1.8881888297
 20
-8.7430306502
 30
0.0
 10
-1.607892197
 20
-8.3948325063
 30
0.0
 10
-1.265015977
 20
-8.1078864585
 30
0.0
 10
-0.8723673118
 20
-7.8938418053
 30
0.0
 10
-0.4450739299
 20
-7.7616388226
 30
0.0
 10
-0.0000001543
 20
-7.716920051
 30
0.0
 10
0.4450742346
 20
-7.7616388467
 30
0.0
 10
0.8723694474
 20
-7.8938425036
 30
0.0
 10
1.2650194003
 20
-8.1078888802
 30
0.0
 10
1.6078955572
 20
-8.3948352282
 30
0.0
 10
1.8881901728
 20
-8.7430334738
 30
0.0
 10
2.0958040581
 20
-9.1388805924
 30
0.0
 10
2.2233830655
 20
-9.5670747579
 30
0.0
 10
2.2521662629
 20
-9.8639628021
 30
0.0
 10
2.2522323901
 20
-10.012016362
 30
0.0
 11
-2.2522323901
 21
-10.012016362
 31
0.0
 11
-2.2093161305
 21
-9.5699341057
 31
0.0
 11
-2.0824592762
 21
-9.1442577531
 31
0.0
 11
-1.8760838254
 21
-8.7509849048
 31
0.0
 11
-1.5974755421
 21
-8.4050544386
 31
0.0
 11
-1.256749375
 21
-8.1200561449
 31
0.0
 11
-0.8666170313
 21
-7.9074926311
 31
0.0
 11
-0.442112439
 21
-7.77622023
 31
0.0
 11
-0.0000003022
 21
-7.7318262713
 31
0.0
 11
0.442112278
 21
-7.7762202232
 31
0.0
 11
0.8666185918
 21
-7.9074933247
 31
0.0
 11
1.2567535669
 21
-8.1200590454
 31
0.0
 11
1.59747976
 21
-8.4050582857
 31
0.0
 11
1.8760848361
 21
-8.7509865627
 31
0.0
 11
2.0824599454
 21
-9.1442592272
 31
0.0
 11
2.2093160504
 21
-9.5699338623
 31
0.0
 11
2.2522323901
 21
-10.012016362
 31
0.0
  0
LINE
  5
2A3
100
AcDbEntity
  8
RACCORDO
100
AcDbLine
 62
253
  6
CONTINUOUS
 10
10.3945894139
 20
20.8314006905
 11
-10.39458941
 21
20.8314006905
  0
LINE
  5
2A4
100
AcDbEntity
  8
RACCORDO
100
AcDbLine
 62
253
  6
CONTINUOUS
 10
-10.3945894139
 20
-20.8314007014
 11
10.39458941
 21
-20.8314007014
  0
SPLINE
  5
2A5
100
AcDbEntity
  8
RACCORDO
100
AcDbSpline
 62
253
  6
CONTINUOUS
 70
0
 71
3
 72
18
 73
14
 74
12
 42
0.0000001
 43
0.0000001
 44
0.0000000001
 12
0.4674652267
 22
0.0018790638
 32
0.0
 13
0.2434637147
 23
0.3990647675
 33
0.0
 40
0.0
 40
0.0
 40
0.0
 40
0.0
 40
0.1945509067
 40
0.3803826071
 40
0.5506495734
 40
0.69978781
 40
0.8228299002
 40
0.8731846833
 40
0.9155542647
 40
0.9495801285
 40
0.9749875825
 40
0.991704206
 40
1.0
 40
1.0
 40
1.0
 40
1.0
 10
10.3945930753
 20
-20.8300973803
 30
0.0
 10
10.4249083365
 20
-20.8299755225
 30
0.0
 10
10.4841796677
 20
-20.8295050738
 30
0.0
 10
10.5699729671
 20
-20.8281162943
 30
0.0
 10
10.6486772912
 20
-20.8261010639
 30
0.0
 10
10.7175712806
 20
-20.8235311473
 30
0.0
 10
10.7677718566
 20
-20.8208963831
 30
0.0
 10
10.8012949015
 20
-20.8184660679
 30
0.0
 10
10.8209937175
 20
-20.8167059301
 30
0.0
 10
10.8366853763
 20
-20.8148791188
 30
0.0
 10
10.8485854278
 20
-20.8130957274
 30
0.0
 10
10.8559100772
 20
-20.8112486839
 30
0.0
 10
10.8600056231
 20
-20.8098611013
 30
0.0
 10
10.8606788647
 20
-20.8087575816
 30
0.0
 11
10.3945930753
 21
-20.8300973803
 31
0.0
 11
10.485536656
 21
-20.8293663963
 31
0.0
 11
10.5723954191
 21
-20.8279348114
 31
0.0
 11
10.6519626822
 21
-20.8258516202
 31
0.0
 11
10.7216292327
 21
-20.8231866724
 31
0.0
 11
10.7790610419
 21
-20.8200324052
 31
0.0
 11
10.8025368304
 21
-20.8183043973
 31
0.0
 11
10.8222604488
 21
-20.8164947083
 31
0.0
 11
10.8380553616
 21
-20.8146178145
 31
0.0
 11
10.8497750105
 21
-20.8126896957
 31
0.0
 11
10.8573397202
 21
-20.8107296881
 31
0.0
 11
10.8606788647
 21
-20.8087575816
 31
0.0
  0
SPLINE
  5
2A6
100
AcDbEntity
  8
RACCORDO
100
AcDbSpline
 62
253
  6
CONTINUOUS
 70
0
 71
3
 72
18
 73
14
 74
12
 42
0.0000001
 43
0.0000001
 44
0.0000000001
 12
0.4674659251
 22
-0.0018790128
 32
0.0
 13
0.243585251
 23
-0.3989914126
 33
0.0
 40
0.0
 40
0.0
 40
0.0
 40
0.0
 40
0.1945478309
 40
0.3803770597
 40
0.5506424843
 40
0.6997802634
 40
0.82282299
 40
0.8731784767
 40
0.9155489906
 40
0.949575992
 40
0.9749847586
 40
0.9917028225
 40
1.0
 40
1.0
 40
1.0
 40
1.0
 10
10.3945921764
 20
20.8300968079
 30
0.0
 10
10.4249070037
 20
20.8299749553
 30
0.0
 10
10.484177559
 20
20.8295045256
 30
0.0
 10
10.5699698828
 20
20.8281157996
 30
0.0
 10
10.6486736286
 20
20.8261006413
 30
0.0
 10
10.7175675138
 20
20.8235308063
 30
0.0
 10
10.7677683009
 20
20.8208961192
 30
0.0
 10
10.8012917643
 20
20.8184658701
 30
0.0
 10
10.8209910291
 20
20.8167057756
 30
0.0
 10
10.8366832939
 20
20.814878987
 30
0.0
 10
10.8485838683
 20
20.8130956499
 30
0.0
 10
10.8559093998
 20
20.8112485531
 30
0.0
 10
10.8600051752
 20
20.8098610847
 30
0.0
 10
10.8606788652
 20
20.8087575838
 30
0.0
 11
10.3945921764
 21
20.8300968079
 31
0.0
 11
10.4855344553
 21
20.8293658546
 31
0.0
 11
10.5723921935
 21
20.8279343264
 31
0.0
 11
10.6519588567
 21
20.8258512116
 31
0.0
 11
10.7216253006
 21
20.8231863512
 31
0.0
 11
10.7790574989
 21
20.8200321744
 31
0.0
 11
10.8025336557
 21
20.8183042107
 31
0.0
 11
10.8222577454
 21
20.8164945646
 31
0.0
 11
10.8380532225
 21
20.8146177114
 31
0.0
 11
10.8497735175
 21
20.8126896307
 31
0.0
 11
10.8573389439
 21
20.8107296582
 31
0.0
 11
10.8606788652
 21
20.8087575838
 31
0.0
  0
SPLINE
  5
2A7
100
AcDbEntity
  8
0
100
AcDbSpline
 62
7
  6
CONTINUOUS
 70
0
 71
3
 72
17
 73
13
 74
11
 42
0.0000001
 43
0.0000001
 44
0.0000000001
 12
0.0727266953
 22
-2.2519639778
 32
0.0
 13
0.0166220744
 23
2.2530767045
 33
0.0
 40
0.0
 40
0.0
 40
0.0
 40
0.0
 40
0.1951224236
 40
0.3827539569
 40
0.5556387002
 40
0.7071595552
 40
0.8314962932
 40
0.9238899572
 40
0.9569500508
 40
0.9807877481
 40
0.9951904771
 40
1.0
 40
1.0
 40
1.0
 40
1.0
 10
-34.1320505619
 20
-13.0156438241
 30
0.0
 10
-34.1273203589
 20
-13.1621133805
 30
0.0
 10
-34.1183654906
 20
-13.4494236567
 30
0.0
 10
-34.1062608357
 20
-13.8666278547
 30
0.0
 10
-34.0958623019
 20
-14.2508274471
 30
0.0
 10
-34.0873185607
 20
-14.5884254262
 30
0.0
 10
-34.0807152078
 20
-14.8630416571
 30
0.0
 10
-34.076398905
 20
-15.0546869865
 30
0.0
 10
-34.0739471919
 20
-15.1611266587
 30
0.0
 10
-34.0727021745
 20
-15.2241572154
 30
0.0
 10
-34.0721203082
 20
-15.2395770479
 30
0.0
 10
-34.0716810663
 20
-15.2715739633
 30
0.0
 10
-34.0716544182
 20
-15.2679618886
 30
0.0
 11
-34.1320505619
 21
-13.0156438241
 31
0.0
 11
-34.1183504586
 21
-13.45506806
 31
0.0
 11
-34.1060838046
 21
-13.8776498011
 31
0.0
 11
-34.0955453471
 21
-14.2670404088
 31
0.0
 11
-34.0868931797
 21
-14.6083281526
 31
0.0
 11
-34.0801889207
 21
-14.8883957523
 31
0.0
 11
-34.0754319792
 21
-15.0965170727
 31
0.0
 11
-34.073775776
 21
-15.1709876119
 31
0.0
 11
-34.0725960533
 21
-15.2246842763
 31
0.0
 11
-34.0718897294
 21
-15.2571279248
 31
0.0
 11
-34.0716544182
 21
-15.2679618886
 31
0.0
  0
SPLINE
  5
2A8
100
AcDbEntity
  8
0
100
AcDbSpline
 62
7
  6
CONTINUOUS
 70
0
 71
3
 72
15
 73
11
 74
9
 42
0.0000001
 43
0.0000001
 44
0.0000000001
 12
-0.1266929817
 22
2.2777749669
 32
0.0
 13
0.0566449571
 23
-2.2805923047
 33
0.0
 40
0.0
 40
0.0
 40
0.0
 40
0.0
 40
0.0194733829
 40
0.043613179
 40
0.0770551588
 40
0.1702919664
 40
0.295293938
 40
0.4470108486
 40
0.619481058
 40
1.0
 40
1.0
 40
1.0
 40
1.0
 10
-34.2884271728
 20
-7.7318262713
 30
0.0
 10
-34.2892495531
 20
-7.7170409433
 30
0.0
 10
-34.2858601008
 20
-7.7967117525
 30
0.0
 10
-34.2848117028
 20
-7.8314197397
 30
0.0
 10
-34.2800168
 20
-7.9593114415
 30
0.0
 10
-34.2736445747
 20
-8.1410032679
 30
0.0
 10
-34.2638090242
 20
-8.4265395248
 30
0.0
 10
-34.2527809011
 20
-8.7663701975
 30
0.0
 10
-34.2364149797
 20
-9.3026587094
 30
0.0
 10
-34.2250370408
 20
-9.7227468384
 30
0.0
 10
-34.2178522144
 20
-10.012016362
 30
0.0
 11
-34.2884271728
 21
-7.7318262713
 31
0.0
 11
-34.2867801912
 21
-7.7762202749
 31
0.0
 11
-34.2847542164
 21
-7.8312530076
 31
0.0
 11
-34.2819749816
 21
-7.9074934114
 31
0.0
 11
-34.2743983556
 21
-8.12005915
 31
0.0
 11
-34.2646341471
 21
-8.4050583917
 31
0.0
 11
-34.2533846694
 21
-8.7509866559
 31
0.0
 11
-34.2413891143
 21
-9.144259296
 31
0.0
 11
-34.2178522144
 21
-10.012016362
 31
0.0
  0
LINE
  5
2A9
100
AcDbEntity
  8
RACCORDO
100
AcDbLine
 62
253
  6
CONTINUOUS
 10
-33.8203240994
 20
-20.8317815375
 11
-33.4688652339
 21
-20.8314007014
  0
LINE
  5
2AA
100
AcDbEntity
  8
RACCORDO
100
AcDbLine
 62
253
  6
CONTINUOUS
 10
-33.4688652341
 20
20.8314006905
 11
-33.8203240999
 21
20.8317815265
  0
SPLINE
  5
2AB
100
AcDbEntity
  8
RACCORDO
100
AcDbSpline
 62
253
  6
CONTINUOUS
 70
0
 71
3
 72
11
 73
7
 74
5
 42
0.0000001
 43
0.0000001
 44
0.0000000001
 12
-1.0470850098
 22
0.0276267642
 32
0.0
 13
-0.0450860354
 23
1.0464786215
 33
0.0
 40
0.0
 40
0.0
 40
0.0
 40
0.0
 40
0.2499800912
 40
0.4999662593
 40
0.7499719365
 40
1.0
 40
1.0
 40
1.0
 40
1.0
 10
-32.2997352141
 20
-21.4787579837
 30
0.0
 10
-32.3869853496
 20
-21.4764559367
 30
0.0
 10
-32.5623540486
 20
-21.4387651335
 30
0.0
 10
-32.7853175376
 20
-21.2903446708
 30
0.0
 10
-32.938772794
 20
-21.070725728
 30
0.0
 10
-32.9798482065
 20
-20.8959739227
 30
0.0
 10
-32.9836057979
 20
-20.8087575816
 30
0.0
 11
-32.2997352141
 21
-21.4787579837
 31
0.0
 11
-32.555669369
 21
-21.4234526646
 31
0.0
 11
-32.7737260559
 21
-21.2784851349
 31
0.0
 11
-32.9234615145
 21
-21.0636496215
 31
0.0
 11
-32.9836057979
 21
-20.8087575816
 31
0.0
  0
SPLINE
  5
2AC
100
AcDbEntity
  8
RACCORDO
100
AcDbSpline
 62
253
  6
CONTINUOUS
 70
0
 71
3
 72
11
 73
7
 74
5
 42
0.0000001
 43
0.0000001
 44
0.0000000001
 12
0.0450860438
 22
1.0464786224
 32
0.0
 13
1.0470850109
 23
0.0276267703
 33
0.0
 40
0.0
 40
0.0
 40
0.0
 40
0.0
 40
0.250028065
 40
0.5000337414
 40
0.7500199091
 40
1.0
 40
1.0
 40
1.0
 40
1.0
 10
-32.9836057766
 20
20.8087575838
 30
0.0
 10
-32.9798481845
 20
20.8959739255
 30
0.0
 10
-32.9387727414
 20
21.0707257236
 30
0.0
 10
-32.7853174999
 20
21.2903446716
 30
0.0
 10
-32.5623540077
 20
21.4387651343
 30
0.0
 10
-32.3869853096
 20
21.4764559372
 30
0.0
 10
-32.2997351742
 20
21.4787579847
 30
0.0
 11
-32.9836057766
 21
20.8087575838
 31
0.0
 11
-32.9234614717
 21
21.0636496205
 31
0.0
 11
-32.7737260152
 21
21.2784851348
 31
0.0
 11
-32.5556693289
 21
21.4234526653
 31
0.0
 11
-32.2997351742
 21
21.4787579847
 31
0.0
  0
SPLINE
  5
2AD
100
AcDbEntity
  8
RACCORDO
100
AcDbSpline
 62
253
  6
CONTINUOUS
 70
0
 71
3
 72
20
 73
16
 74
14
 42
0.0000001
 43
0.0000001
 44
0.0000000001
 12
-0.5002087974
 22
0.0130984283
 32
0.0
 13
0.0130895049
 23
0.500209031
 33
0.0
 40
0.0
 40
0.0
 40
0.0
 40
0.0
 40
0.0017601623
 40
0.0055960866
 40
0.020198778
 40
0.0441136351
 40
0.077217934
 40
0.1191811623
 40
0.169584885
 40
0.2279973577
 40
0.2938476078
 40
0.4451452725
 40
0.6177669269
 40
0.8053187392
 40
1.0
 40
1.0
 40
1.0
 40
1.0
 10
-32.2997352141
 20
-21.9785866462
 30
0.0
 10
-32.300028697
 20
-21.9785789611
 30
0.0
 10
-32.3006128239
 20
-21.9775779374
 30
0.0
 10
-32.3013619142
 20
-21.9745307454
 30
0.0
 10
-32.302297131
 20
-21.9672820826
 30
0.0
 10
-32.3031097517
 20
-21.9554973923
 30
0.0
 10
-32.3038527378
 20
-21.938944644
 30
0.0
 10
-32.3044269241
 20
-21.9180465243
 30
0.0
 10
-32.3048496438
 20
-21.8928928339
 30
0.0
 10
-32.3051000546
 20
-21.8637630634
 30
0.0
 10
-32.3052090104
 20
-21.8178002415
 30
0.0
 10
-32.3048602089
 20
-21.7527898799
 30
0.0
 10
-32.3037939359
 20
-21.6674857817
 30
0.0
 10
-32.3020900062
 20
-21.5749549524
 30
0.0
 10
-32.3005846412
 20
-21.5112184253
 30
0.0
 10
-32.2997352141
 20
-21.4787579837
 30
0.0
 11
-32.2997352141
 21
-21.9785866462
 31
0.0
 11
-32.3003588963
 21
-21.9779647603
 31
0.0
 11
-32.3009506447
 21
-21.9761388332
 31
0.0
 11
-32.3020320751
 21
-21.9689124042
 31
0.0
 11
-32.3029669746
 21
-21.9569824577
 31
0.0
 11
-32.303743466
 21
-21.9404359293
 31
0.0
 11
-32.3043545036
 21
-21.9194472505
 31
0.0
 11
-32.3047952074
 21
-21.8942300731
 31
0.0
 11
-32.3050608829
 21
-21.865002832
 31
0.0
 11
-32.3051494588
 21
-21.8320527854
 31
0.0
 11
-32.304795208
 21
-21.7563472487
 31
0.0
 11
-32.3037434673
 21
-21.6699771828
 31
0.0
 11
-32.3020320767
 21
-21.5761455629
 31
0.0
 11
-32.2997352141
 21
-21.4787579837
 31
0.0
  0
SPLINE
  5
2AE
100
AcDbEntity
  8
RACCORDO
100
AcDbSpline
 62
253
  6
CONTINUOUS
 70
0
 71
3
 72
20
 73
16
 74
14
 42
0.0000001
 43
0.0000001
 44
0.0000000001
 12
-0.5002087938
 22
-0.0130984283
 32
0.0
 13
0.0130894589
 23
-0.5002090286
 33
0.0
 40
0.0
 40
0.0
 40
0.0
 40
0.0
 40
0.0017601587
 40
0.0055960804
 40
0.0201987669
 40
0.0441136198
 40
0.0772179139
 40
0.1191811341
 40
0.1695848503
 40
0.2279973203
 40
0.2938475646
 40
0.4451452224
 40
0.6177668843
 40
0.8053187251
 40
1.0
 40
1.0
 40
1.0
 40
1.0
 10
-32.2997351742
 20
21.9785866472
 30
0.0
 10
-32.3000286565
 20
21.9785789621
 30
0.0
 10
-32.3006127808
 20
21.9775779377
 30
0.0
 10
-32.3013618684
 20
21.9745307483
 30
0.0
 10
-32.3022970818
 20
21.9672820858
 30
0.0
 10
-32.3031096995
 20
21.9554973986
 30
0.0
 10
-32.3038526827
 20
21.9389446528
 30
0.0
 10
-32.3044268671
 20
21.9180465365
 30
0.0
 10
-32.3048495854
 20
21.892892849
 30
0.0
 10
-32.3050999953
 20
21.8637630813
 30
0.0
 10
-32.3052089511
 20
21.8178002623
 30
0.0
 10
-32.3048601511
 20
21.7527899021
 30
0.0
 10
-32.3037938822
 20
21.6674857995
 30
0.0
 10
-32.3020899582
 20
21.5749549624
 30
0.0
 10
-32.3005845983
 20
21.5112184286
 30
0.0
 10
-32.2997351742
 20
21.4787579847
 30
0.0
 11
-32.2997351742
 21
21.9785866472
 31
0.0
 11
-32.300358854
 21
21.9779647617
 31
0.0
 11
-32.3009506003
 21
21.9761388352
 31
0.0
 11
-32.3020320268
 21
21.9689124082
 31
0.0
 11
-32.3029669228
 21
21.9569824636
 31
0.0
 11
-32.3037434113
 21
21.9404359375
 31
0.0
 11
-32.3043544468
 21
21.919447263
 31
0.0
 11
-32.3047951492
 21
21.8942300889
 31
0.0
 11
-32.3050608239
 21
21.8650028493
 31
0.0
 11
-32.3051493996
 21
21.8320528059
 31
0.0
 11
-32.3047951504
 21
21.7563472731
 31
0.0
 11
-32.3037434138
 21
21.6699772041
 31
0.0
 11
-32.3020320289
 21
21.5761455705
 31
0.0
 11
-32.2997351742
 21
21.4787579847
 31
0.0
  0
ELLIPSE
  5
2AF
100
AcDbEntity
  8
RACCORDO
100
AcDbEllipse
 62
7
  6
CONTINUOUS
 10
-10.4998286038
 20
-21.5998286038
 30
0.0
 11
0.35379574
 21
0.35379574
 31
0.0
 40
0.999315002
 41
-3.9266482007
 42
-2.3565371065
  0
ELLIPSE
  5
2B0
100
AcDbEntity
  8
RACCORDO
100
AcDbEllipse
 62
7
  6
CONTINUOUS
 10
10.4998286038
 20
-21.5998286038
 30
0.0
 11
0.35379574
 21
-0.35379574
 31
0.0
 40
0.999315002
 41
-0.7850555471
 42
0.7850555471
  0
ELLIPSE
  5
2B1
100
AcDbEntity
  8
RACCORDO
100
AcDbEllipse
 62
7
  6
CONTINUOUS
 10
10.4998286038
 20
21.5998286038
 30
0.0
 11
0.35379574
 21
0.35379574
 31
0.0
 40
0.999315002
 41
-0.7850555471
 42
0.7850555471
  0
ELLIPSE
  5
2B2
100
AcDbEntity
  8
RACCORDO
100
AcDbEllipse
 62
7
  6
CONTINUOUS
 10
-10.4998286038
 20
21.5998286038
 30
0.0
 11
-0.35379574
 21
0.35379574
 31
0.0
 40
0.999315002
 41
-0.7850555471
 42
0.7850555471
  0
ENDSEC
  0
SECTION
  2
OBJECTS
  0
DICTIONARY
  5
C
100
AcDbDictionary
280
0
281
1
  3
ACAD_GROUP
350
D
  3
ACAD_MLINESTYLE
350
17
  3
ACAD_LAYOUT
350
1A
  3
ACAD_PLOTSETTINGS
350
19
  3
ACAD_PLOTSTYLENAME
350
E
  0
DICTIONARY
  5
D
102
{ACAD_REACTORS
330
C
102
}
100
AcDbDictionary
280
0
281
1
  0
ACDBDICTIONARYWDFLT
  5
E
102
{ACAD_REACTORS
330
C
102
}
100
AcDbDictionary
281
1
  3
Normal
350
F
100
AcDbDictionaryWithDefault
340
F
  0
DICTIONARY
  5
17
102
{ACAD_REACTORS
330
C
102
}
100
AcDbDictionary
280
0
281
1
  3
Standard
350
18
  0
DICTIONARY
  5
19
102
{ACAD_REACTORS
330
C
102
}
100
AcDbDictionary
281
1
  0
DICTIONARY
  5
1A
102
{ACAD_REACTORS
330
C
102
}
100
AcDbDictionary
281
1
  3
Model
350
2B3
  3
Layout1
350
2B4
  0
ACDBPLACEHOLDER
  5
F
102
{ACAD_REACTORS
330
E
102
}
  0
MLINESTYLE
  5
18
102
{ACAD_REACTORS
330
17
102
}
100
AcDbMlineStyle
  2
STANDARD
 70
0
  3

 62
256
 51
90.0
 52
90.0
 71
2
 49
0.5
 62
256
  6
BYLAYER
 49
-0.5
 62
256
  6
BYLAYER
  0
LAYOUT
  5
2B3
102
{ACAD_REACTORS
330
1A
102
}
100
AcDbPlotSettings
  1

  2
none_device
  4
ISO_A4_(297.00_x_210.00_MM)
  6

 40
0.0
 41
0.0
 42
0.0
 43
0.0
 44
297.0
 45
210.0
 46
0.0
 47
0.0
 48
0.0
 49
0.0
140
0.0
141
0.0
142
1.0
143
1.0
 70
1024
 72
1
 73
0
 74
0
  7

 75
0
147
1.0
148
0.0
149
0.0
100
AcDbLayout
  1
Model
 70
0
 71
0
 10
0.0
 20
0.0
 11
297.0
 21
210.0
 12
0.0
 22
0.0
 32
0.0
 14
0.0
 24
0.0
 34
0.0
 15
0.0
 25
0.0
 35
0.0
146
0.0
 13
0.0
 23
0.0
 33
0.0
 16
1.0
 26
0.0
 36
0.0
 17
0.0
 27
1.0
 37
0.0
 76
0
330
215
345
0
346
0
  0
LAYOUT
  5
2B4
102
{ACAD_REACTORS
330
1A
102
}
100
AcDbPlotSettings
  1

  2
none_device
  4
ISO_A4_(297.00_x_210.00_MM)
  6

 40
0.0
 41
0.0
 42
0.0
 43
0.0
 44
297.0
 45
210.0
 46
0.0
 47
0.0
 48
0.0
 49
0.0
140
0.0
141
0.0
142
1.0
143
1.0
 70
0
 72
1
 73
0
 74
0
  7

 75
0
147
1.0
148
0.0
149
0.0
100
AcDbLayout
  1
Layout1
 70
0
 71
1
 10
0.0
 20
0.0
 11
297.0
 21
210.0
 12
0.0
 22
0.0
 32
0.0
 14
0.0
 24
0.0
 34
0.0
 15
0.0
 25
0.0
 35
0.0
146
0.0
 13
0.0
 23
0.0
 33
0.0
 16
1.0
 26
0.0
 36
0.0
 17
0.0
 27
1.0
 37
0.0
 76
0
330
216
345
0
346
0
  0
ENDSEC
  0
EOF
