  0
SECTION
  2
HEADER
  9
$ACADVER
  1
AC1015
  9
$DWGCODEPAGE
  3
ANSI_1252
  9
$EXTMAX
 10
297.0
 20
210.0
 30
0.0
  9
$EXTMIN
 10
0.0
 20
0.0
 30
0.0
  9
$LIMMIN
 10
0.0
 20
0.0
  9
$LIMMAX
 10
297.0
 20
210.0
  9
$VIEWCTR
 10
148.5
 20
105.0
  9
$VIEWSIZE
 40
210.0
  9
$CLAYER
  8
0
  9
$LTSCALE
 40
16.335
  9
$CELTYPE
  6
BYLAYER
  9
$DIMSCALE
 40
1.0
  9
$DIMASZ
 40
3.0
  9
$DIMEXO
 40
1.85625
  9
$DIMDLI
 40
11.286
  9
$DIMEXE
 40
5.346
  9
$DIMCEN
 40
2.673
  9
$DIMLFAC
 40
1.0
  9
$DIMBLK
  1
_FILLED
  9
$DIMTXT
 40
3.0
  9
$DIMTOL
 70
1
  9
$DIMLIM
 70
0
  9
$DIMTFAC
 40
1.0
  9
$DIMTP
 40
0.01
  9
$DIMTM
 40
0.01
  9
$PDMODE
 70
3
  9
$PDSIZE
 40
3.0
  9
$HANDSEED
  5
3D3
  9
$TILEMODE
 70
1
  9
$MEASUREMENT
 70
1
  9
$INSUNITS
 70
4
  0
ENDSEC
  0
SECTION
  2
CLASSES
  0
CLASS
  1
ACDBDICTIONARYWDFLT
  2
AcDbDictionaryWithDefault
  3
AutoCAD 2000
 90
0
280
0
281
0
  0
CLASS
  1
ACDBPLACEHOLDER
  2
AcDbPlaceHolder
  3
AutoCAD 2000
 90
0
280
0
281
0
  0
CLASS
  1
LAYOUT
  2
AcDbLayout
  3
AutoCAD 2000
 90
0
280
0
281
0
  0
ENDSEC
  0
SECTION
  2
TABLES
  0
TABLE
  2
VPORT
  5
8
100
AcDbSymbolTable
 70
2
  0
VPORT
  5
1F4
100
AcDbSymbolTableRecord
100
AcDbViewportTableRecord
  2
*ACTIVE
 70
0
 10
0.0
 20
0.0
 11
1.0
 21
1.0
 12
148.5
 22
105.0
 13
0.0
 23
0.0
 14
1.0
 24
1.0
 15
0.0
 25
0.0
 16
0.0
 26
0.0
 36
1.0
 17
0.0
 27
0.0
 37
0.0
 40
210.0
 41
1.4142857143
 42
50.0
 43
0.0
 44
0.0
 50
0.0
 51
0.0
 71
0
 72
100
 73
1
 74
1
 75
0
 76
0
 77
0
 78
0
  0
ENDTAB
  0
TABLE
  2
LTYPE
  5
5
100
AcDbSymbolTable
 70
6
  0
LTYPE
  5
14
100
AcDbSymbolTableRecord
100
AcDbLinetypeTableRecord
  2
BYBLOCK
 70
0
  3

 72
65
 73
0
 40
0.0
  0
LTYPE
  5
15
100
AcDbSymbolTableRecord
100
AcDbLinetypeTableRecord
  2
BYLAYER
 70
0
  3

 72
65
 73
0
 40
0.0
  0
LTYPE
  5
16
100
AcDbSymbolTableRecord
100
AcDbLinetypeTableRecord
  2
CONTINUOUS
 70
64
  3
Solid line
 72
65
 73
0
 40
0.0
  0
LTYPE
  5
1F5
100
AcDbSymbolTableRecord
100
AcDbLinetypeTableRecord
  2
CENTER
 70
64
  3
____ _ ____ _ ____ _ ____ _ ____ _ ____ _ ____
 72
65
 73
4
 40
0.6
 49
0.375
 74
0
 49
-0.075
 74
0
 49
0.075
 74
0
 49
-0.075
 74
0
  0
LTYPE
  5
1F6
100
AcDbSymbolTableRecord
100
AcDbLinetypeTableRecord
  2
HIDDEN
 70
64
  3
- - - - - - - - - - - - - - - - - - - -
 72
65
 73
2
 40
0.2
 49
0.1
 74
0
 49
-0.1
 74
0
  0
LTYPE
  5
1F7
100
AcDbSymbolTableRecord
100
AcDbLinetypeTableRecord
  2
PHANTOM
 70
64
  3
_____ _ _ _____ _ _ _____ _ _ _____
 72
65
 73
6
 40
0.8
 49
0.45
 74
0
 49
-0.05
 74
0
 49
0.1
 74
0
 49
-0.05
 74
0
 49
0.1
 74
0
 49
-0.05
 74
0
  0
LTYPE
  5
1F8
100
AcDbSymbolTableRecord
100
AcDbLinetypeTableRecord
  2
DOT
 70
64
  3
. . . . . . . . . . . . . . . . . . . .
 72
65
 73
2
 40
0.2
 49
0.1
 74
0
 49
-0.1
 74
0
  0
LTYPE
  5
1F9
100
AcDbSymbolTableRecord
100
AcDbLinetypeTableRecord
  2
DASHED
 70
64
  3
- - - - - - - - - - - - - - - - - - - -
 72
65
 73
2
 40
0.2
 49
0.1
 74
0
 49
-0.1
 74
0
  0
ENDTAB
  0
TABLE
  2
LAYER
  5
2
100
AcDbSymbolTable
 70
36
  0
LAYER
  5
10
100
AcDbSymbolTableRecord
100
AcDbLayerTableRecord
  2
0
 70
0
 62
7
  6
CONTINUOUS
370
-3
390
F
  0
LAYER
  5
1FA
100
AcDbSymbolTableRecord
100
AcDbLayerTableRecord
  2
DEFAULT_1
 70
0
 62
7
  6
CENTER
370
-3
390
F
  0
LAYER
  5
1FB
100
AcDbSymbolTableRecord
100
AcDbLayerTableRecord
  2
DEFAULT_2
 70
0
 62
7
  6
HIDDEN
370
-3
390
F
  0
LAYER
  5
1FC
100
AcDbSymbolTableRecord
100
AcDbLayerTableRecord
  2
DEFAULT_3
 70
0
 62
7
  6
PHANTOM
370
-3
390
F
  0
LAYER
  5
1FD
100
AcDbSymbolTableRecord
100
AcDbLayerTableRecord
  2
ASSI
 70
0
 62
7
  6
CONTINUOUS
370
-3
390
F
  0
LAYER
  5
1FE
100
AcDbSymbolTableRecord
100
AcDbLayerTableRecord
  2
COORDINATE
 70
0
 62
7
  6
CONTINUOUS
370
-3
390
F
  0
LAYER
  5
1FF
100
AcDbSymbolTableRecord
100
AcDbLayerTableRecord
  2
COPY_PUBLISH
 70
0
 62
7
  6
CONTINUOUS
370
-3
390
F
  0
LAYER
  5
200
100
AcDbSymbolTableRecord
100
AcDbLayerTableRecord
  2
COSMETIC
 70
0
 62
7
  6
CONTINUOUS
370
-3
390
F
  0
LAYER
  5
201
100
AcDbSymbolTableRecord
100
AcDbLayerTableRecord
  2
COSMETICI
 70
0
 62
7
  6
CONTINUOUS
370
-3
390
F
  0
LAYER
  5
202
100
AcDbSymbolTableRecord
100
AcDbLayerTableRecord
  2
CURVE
 70
0
 62
7
  6
CONTINUOUS
370
-3
390
F
  0
LAYER
  5
203
100
AcDbSymbolTableRecord
100
AcDbLayerTableRecord
  2
DRAFT
 70
0
 62
7
  6
CONTINUOUS
370
-3
390
F
  0
LAYER
  5
204
100
AcDbSymbolTableRecord
100
AcDbLayerTableRecord
  2
IMPORT_IGES
 70
0
 62
7
  6
CONTINUOUS
370
-3
390
F
  0
LAYER
  5
205
100
AcDbSymbolTableRecord
100
AcDbLayerTableRecord
  2
INTFCLR_11
 70
0
 62
7
  6
CONTINUOUS
370
-3
390
F
  0
LAYER
  5
206
100
AcDbSymbolTableRecord
100
AcDbLayerTableRecord
  2
INTF_1
 70
0
 62
7
  6
CONTINUOUS
370
-3
390
F
  0
LAYER
  5
207
100
AcDbSymbolTableRecord
100
AcDbLayerTableRecord
  2
INTF_3
 70
0
 62
7
  6
CONTINUOUS
370
-3
390
F
  0
LAYER
  5
208
100
AcDbSymbolTableRecord
100
AcDbLayerTableRecord
  2
INTF_6
 70
0
 62
7
  6
CONTINUOUS
370
-3
390
F
  0
LAYER
  5
209
100
AcDbSymbolTableRecord
100
AcDbLayerTableRecord
  2
NOTE
 70
0
 62
7
  6
CONTINUOUS
370
-3
390
F
  0
LAYER
  5
20A
100
AcDbSymbolTableRecord
100
AcDbLayerTableRecord
  2
PIANI
 70
0
 62
7
  6
CONTINUOUS
370
-3
390
F
  0
LAYER
  5
20B
100
AcDbSymbolTableRecord
100
AcDbLayerTableRecord
  2
PUNTI
 70
0
 62
7
  6
CONTINUOUS
370
-3
390
F
  0
LAYER
  5
20C
100
AcDbSymbolTableRecord
100
AcDbLayerTableRecord
  2
RACCORDO
 70
0
 62
7
  6
CONTINUOUS
370
-3
390
F
  0
LAYER
  5
20D
100
AcDbSymbolTableRecord
100
AcDbLayerTableRecord
  2
SIMBOLI
 70
0
 62
7
  6
CONTINUOUS
370
-3
390
F
  0
LAYER
  5
20E
100
AcDbSymbolTableRecord
100
AcDbLayerTableRecord
  2
SMUSSO
 70
0
 62
7
  6
CONTINUOUS
370
-3
390
F
  0
LAYER
  5
20F
100
AcDbSymbolTableRecord
100
AcDbLayerTableRecord
  2
SNAPLINE
 70
0
 62
7
  6
CONTINUOUS
370
-3
390
F
  0
LAYER
  5
210
100
AcDbSymbolTableRecord
100
AcDbLayerTableRecord
  2
SUPERFICI
 70
0
 62
7
  6
CONTINUOUS
370
-3
390
F
  0
LAYER
  5
211
100
AcDbSymbolTableRecord
100
AcDbLayerTableRecord
  2
TRASH
 70
0
 62
7
  6
CONTINUOUS
370
-3
390
F
  0
LAYER
  5
212
100
AcDbSymbolTableRecord
100
AcDbLayerTableRecord
  2
XSEC_DATUMS
 70
0
 62
7
  6
CONTINUOUS
370
-3
390
F
  0
LAYER
  5
213
100
AcDbSymbolTableRecord
100
AcDbLayerTableRecord
  2
___SHELL
 70
0
 62
7
  6
CONTINUOUS
370
-3
390
F
  0
ENDTAB
  0
TABLE
  2
STYLE
  5
3
100
AcDbSymbolTable
 70
1
  0
STYLE
  5
11
100
AcDbSymbolTableRecord
100
AcDbTextStyleTableRecord
  2
STANDARD
 70
0
 40
0.0
 41
0.8
 50
0.0
 71
0
 42
0.2
  3
txt
  4

  0
STYLE
  5
214
100
AcDbSymbolTableRecord
100
AcDbTextStyleTableRecord
  2
TEXTSTYLE_1
 70
0
 40
0.0
 41
0.8
 50
0.0
 71
0
 42
0.2
  3
gdt
  4

  0
ENDTAB
  0
TABLE
  2
VIEW
  5
6
100
AcDbSymbolTable
 70
0
  0
ENDTAB
  0
TABLE
  2
UCS
  5
7
100
AcDbSymbolTable
 70
0
  0
ENDTAB
  0
TABLE
  2
APPID
  5
9
100
AcDbSymbolTable
 70
1
  0
APPID
  5
215
100
AcDbSymbolTableRecord
100
AcDbRegAppTableRecord
  2
ACAD
 70
0
  0
ENDTAB
  0
TABLE
  2
BLOCK_RECORD
  5
1
100
AcDbSymbolTable
 70
0
  0
BLOCK_RECORD
  5
216
100
AcDbSymbolTableRecord
100
AcDbBlockTableRecord
  2
*Model_Space
  0
BLOCK_RECORD
  5
217
100
AcDbSymbolTableRecord
100
AcDbBlockTableRecord
  2
*Paper_Space
  0
BLOCK_RECORD
  5
218
100
AcDbSymbolTableRecord
100
AcDbBlockTableRecord
  2
_FILLED
  0
BLOCK_RECORD
  5
219
100
AcDbSymbolTableRecord
100
AcDbBlockTableRecord
  2
*D0
  0
BLOCK_RECORD
  5
21A
100
AcDbSymbolTableRecord
100
AcDbBlockTableRecord
  2
*D1
  0
BLOCK_RECORD
  5
21B
100
AcDbSymbolTableRecord
100
AcDbBlockTableRecord
  2
*D2
  0
ENDTAB
  0
TABLE
  2
DIMSTYLE
  5
A
100
AcDbSymbolTable
 70
1
100
AcDbDimStyleTable
 71
0
  0
DIMSTYLE
105
21C
100
AcDbSymbolTableRecord
100
AcDbDimStyleTableRecord
  2
STANDARD
 70
0
  3

  4

 40
1.0
 41
3.0
 42
0.0625
 43
0.38
 44
0.18
 45
0.0
 46
0.0
 47
0.01
 48
0.01
140
3.0
141
0.09
142
0.0
143
25.4
144
1.0
145
0.0
146
1.0
147
0.09
 71
1.0
 72
0.0
 73
0
 74
0
 75
0
 76
0
 77
1
 78
8
170
0
171
2
172
0
173
0
174
0
175
0
176
0
177
0
178
0
270
2
271
2
272
2
273
2
274
2
275
0
280
0
281
0
282
0
283
1
284
8
285
0
286
0
287
3
288
0
340
11
341
218
342
218
343
218
344
218
  0
DIMSTYLE
105
21D
100
AcDbSymbolTableRecord
100
AcDbDimStyleTableRecord
  2
DIMSTYLE_1
 70
0
  3

  4

 40
1.0
 41
3.0
 42
0.0625
 43
0.38
 44
0.18
 45
0.0
 46
0.0
 47
0.0
 48
0.0
140
3.0
141
0.09
142
0.0
143
25.4
144
1.0
145
0.0
146
1.0
147
0.09
 71
0.0
 72
0.0
 73
0
 74
0
 75
0
 76
0
 77
1
 78
8
170
0
171
2
172
0
173
0
174
0
175
0
176
0
177
0
178
0
270
2
271
2
272
2
273
2
274
2
275
0
280
0
281
0
282
0
283
1
284
8
285
0
286
0
287
3
288
0
340
11
341
218
342
218
343
218
344
218
  0
ENDTAB
  0
ENDSEC
  0
SECTION
  2
BLOCKS
  0
BLOCK
  5
20
100
AcDbEntity
  8
0
100
AcDbBlockBegin
  2
*Model_Space
 70
0
 10
0.0
 20
0.0
 30
0.0
  3
*Model_Space
  1

  0
ENDBLK
  5
21
100
AcDbEntity
  8
0
100
AcDbBlockEnd
  0
BLOCK
  5
1C
100
AcDbEntity
  8
0
100
AcDbBlockBegin
  2
*Paper_Space
 70
0
 10
0.0
 20
0.0
 30
0.0
  3
*Paper_Space
  1

  0
ENDBLK
  5
1D
100
AcDbEntity
  8
0
100
AcDbBlockEnd
  0
BLOCK
  5
21E
100
AcDbEntity
  8
0
100
AcDbBlockBegin
  2
_FILLED
 70
64
 10
0.0
 20
0.0
  3
_FILLED
  1

  0
SOLID
  5
21F
100
AcDbEntity
  8
0
  6
BYBLOCK
 62
0
100
AcDbTrace
 10
0.0
 20
0.0
 11
-1.0
 21
0.3166666667
 12
-1.0
 22
-0.3166666667
 13
-1.0
 23
-0.3166666667
  0
ENDBLK
  5
220
100
AcDbEntity
  8
0
  6
BYBLOCK
 62
0
100
AcDbBlockEnd
  0
BLOCK
  5
221
100
AcDbEntity
  8
0
100
AcDbBlockBegin
 62
7
  6
CONTINUOUS
  2
*D0
 70
65
 10
0.0
 20
0.0
  3
*D0
  1

  0
LINE
  5
222
100
AcDbEntity
  8
0
100
AcDbLine
 62
7
  6
CONTINUOUS
 10
-23.6730327068
 20
22.1001713375
 11
-23.6730327068
 21
31.6
  0
LINE
  5
223
100
AcDbEntity
  8
0
100
AcDbLine
 62
7
  6
CONTINUOUS
 10
-30.3730499767
 20
0.5
 11
-30.3730499767
 21
31.6
  0
LINE
  5
224
100
AcDbEntity
  8
0
100
AcDbLine
 62
7
  6
CONTINUOUS
 10
-23.6730327068
 20
30.1
 11
-19.6730327068
 21
30.1
  0
LINE
  5
225
100
AcDbEntity
  8
0
100
AcDbLine
 62
7
  6
CONTINUOUS
 10
-19.6730327068
 20
30.1
 11
-27.0230413418
 21
30.1
  0
LINE
  5
226
100
AcDbEntity
  8
0
100
AcDbLine
 62
7
  6
CONTINUOUS
 10
-30.3730499767
 20
30.1
 11
-34.3730499767
 21
30.1
  0
LINE
  5
227
100
AcDbEntity
  8
0
100
AcDbLine
 62
7
  6
CONTINUOUS
 10
-34.3730499767
 20
30.1
 11
-27.0230413418
 21
30.1
  0
INSERT
  5
228
100
AcDbEntity
  8
0
100
AcDbBlockReference
 62
7
  6
CONTINUOUS
  2
_FILLED
 10
-23.6730327068
 20
30.1
 41
3.0
 42
3.0
 43
3.0
 50
180.0
  0
INSERT
  5
229
100
AcDbEntity
  8
0
100
AcDbBlockReference
 62
7
  6
CONTINUOUS
  2
_FILLED
 10
-30.3730499767
 20
30.1
 41
3.0
 42
3.0
 43
3.0
  0
ENDBLK
  5
22A
100
AcDbEntity
  8
0
  6
BYBLOCK
 62
0
100
AcDbBlockEnd
  0
BLOCK
  5
22B
100
AcDbEntity
  8
0
100
AcDbBlockBegin
 62
7
  6
CONTINUOUS
  2
*D1
 70
65
 10
0.0
 20
0.0
  3
*D1
  1

  0
LINE
  5
22C
100
AcDbEntity
  8
0
100
AcDbLine
 62
7
  6
CONTINUOUS
 10
-11.0
 20
22.1001713375
 11
-11.0
 21
31.6
  0
LINE
  5
22D
100
AcDbEntity
  8
0
100
AcDbLine
 62
7
  6
CONTINUOUS
 10
11.0
 20
22.1001713375
 11
11.0
 21
31.6
  0
LINE
  5
22E
100
AcDbEntity
  8
0
100
AcDbLine
 62
7
  6
CONTINUOUS
 10
-11.0
 20
30.1
 11
0.0
 21
30.1
  0
LINE
  5
22F
100
AcDbEntity
  8
0
100
AcDbLine
 62
7
  6
CONTINUOUS
 10
11.0
 20
30.1
 11
0.0
 21
30.1
  0
INSERT
  5
230
100
AcDbEntity
  8
0
100
AcDbBlockReference
 62
7
  6
CONTINUOUS
  2
_FILLED
 10
-11.0
 20
30.1
 41
3.0
 42
3.0
 43
3.0
 50
180.0
  0
INSERT
  5
231
100
AcDbEntity
  8
0
100
AcDbBlockReference
 62
7
  6
CONTINUOUS
  2
_FILLED
 10
11.0
 20
30.1
 41
3.0
 42
3.0
 43
3.0
  0
ENDBLK
  5
232
100
AcDbEntity
  8
0
  6
BYBLOCK
 62
0
100
AcDbBlockEnd
  0
BLOCK
  5
233
100
AcDbEntity
  8
0
100
AcDbBlockBegin
 62
7
  6
CONTINUOUS
  2
*D2
 70
65
 10
0.0
 20
0.0
  3
*D2
  1

  0
LINE
  5
234
100
AcDbEntity
  8
0
100
AcDbLine
 62
7
  6
CONTINUOUS
 10
11.0001713375
 20
22.1
 11
20.5
 21
22.1
  0
LINE
  5
235
100
AcDbEntity
  8
0
100
AcDbLine
 62
7
  6
CONTINUOUS
 10
11.0001713375
 20
-22.1
 11
20.5
 21
-22.1
  0
LINE
  5
236
100
AcDbEntity
  8
0
100
AcDbLine
 62
7
  6
CONTINUOUS
 10
19.0
 20
22.1
 11
19.0
 21
0.0
  0
LINE
  5
237
100
AcDbEntity
  8
0
100
AcDbLine
 62
7
  6
CONTINUOUS
 10
19.0
 20
-22.1
 11
19.0
 21
0.0
  0
INSERT
  5
238
100
AcDbEntity
  8
0
100
AcDbBlockReference
 62
7
  6
CONTINUOUS
  2
_FILLED
 10
19.0
 20
22.1
 41
3.0
 42
3.0
 43
3.0
 50
90.0
  0
INSERT
  5
239
100
AcDbEntity
  8
0
100
AcDbBlockReference
 62
7
  6
CONTINUOUS
  2
_FILLED
 10
19.0
 20
-22.1
 41
3.0
 42
3.0
 43
3.0
 50
270.0
  0
ENDBLK
  5
23A
100
AcDbEntity
  8
0
  6
BYBLOCK
 62
0
100
AcDbBlockEnd
  0
ENDSEC
  0
SECTION
  2
ENTITIES
  0
DIMENSION
  5
23B
100
AcDbEntity
  8
0
100
AcDbDimension
 62
7
  6
CONTINUOUS
  2
*D0
 10
-30.3730499767
 20
30.1
 11
-30.2373270561
 21
30.85
 70
160
 71
2
 42
6.7000172699
  3
DIMSTYLE_1
100
AcDbAlignedDimension
 13
-23.6730327068
 23
22.1001713375
 14
-30.3730499767
 24
0.5
 50
180.0
100
AcDbRotatedDimension
  0
DIMENSION
  5
23C
100
AcDbEntity
  8
0
100
AcDbDimension
 62
7
  6
CONTINUOUS
  2
*D1
 10
11.0
 20
30.1
 11
-2.3571428571
 21
30.85
 70
160
 71
2
 42
22.0
  3
DIMSTYLE_1
100
AcDbAlignedDimension
 13
-11.0
 23
22.1001713375
 14
11.0
 24
22.1001713375
100
AcDbRotatedDimension
  0
DIMENSION
  5
23D
100
AcDbEntity
  8
0
100
AcDbDimension
 62
7
  6
CONTINUOUS
  2
*D2
 10
19.0
 20
-22.1
 11
18.25
 21
-4.3928571429
 70
160
 71
2
 42
44.2
  3
DIMSTYLE_1
100
AcDbAlignedDimension
 13
11.0001713375
 23
22.1
 14
11.0001713375
 24
-22.1
 50
270.0
100
AcDbRotatedDimension
  0
LINE
  5
23E
100
AcDbEntity
  8
RACCORDO
100
AcDbLine
 62
7
  6
CONTINUOUS
 10
-10.5001713375
 20
-22.1
 11
10.5001713375
 21
-22.1
  0
LINE
  5
23F
100
AcDbEntity
  8
0
100
AcDbLine
 62
7
  6
CONTINUOUS
 10
-0.0100004464
 20
-14.8249999988
 11
0.010000109
 21
-14.8249999988
  0
LINE
  5
240
100
AcDbEntity
  8
0
100
AcDbLine
 62
7
  6
CONTINUOUS
 10
0.0100003843
 20
-13.6249999987
 11
-0.0099999133
 21
-13.6249999987
  0
LINE
  5
241
100
AcDbEntity
  8
0
100
AcDbLine
 62
7
  6
CONTINUOUS
 10
-2.750645
 20
-13.689788
 11
-2.764788
 21
-13.675645
  0
LINE
  5
242
100
AcDbEntity
  8
RACCORDO
100
AcDbLine
 62
7
  6
CONTINUOUS
 10
-11.0
 20
-21.6001713375
 11
-11.0
 21
21.6001713375
  0
LINE
  5
243
100
AcDbEntity
  8
RACCORDO
100
AcDbLine
 62
253
  6
CONTINUOUS
 10
-10.3945930837
 20
20.8300973546
 11
-10.3945930842
 21
-20.8300973581
  0
LINE
  5
244
100
AcDbEntity
  8
0
100
AcDbLine
 62
7
  6
CONTINUOUS
 10
-1.916259
 20
-12.827117
 11
-1.902117
 21
-12.841259
  0
LINE
  5
245
100
AcDbEntity
  8
RACCORDO
100
AcDbLine
 62
253
  6
CONTINUOUS
 10
10.3787579845
 20
21.978586647
 11
10.5001713375
 21
22.1
  0
LINE
  5
246
100
AcDbEntity
  8
0
100
AcDbLine
 62
7
  6
CONTINUOUS
 10
-0.8099950354
 20
-8.174999828
 11
-0.7899951435
 21
-8.175
  0
LINE
  5
247
100
AcDbEntity
  8
0
100
AcDbLine
 62
7
  6
CONTINUOUS
 10
0.789995158
 20
-8.17500017
 11
0.8099950205
 21
-8.175
  0
LINE
  5
248
100
AcDbEntity
  8
RACCORDO
100
AcDbLine
 62
253
  6
CONTINUOUS
 10
10.5001713375
 20
-22.1
 11
10.3787579832
 21
-21.9785866456
  0
LINE
  5
249
100
AcDbEntity
  8
RACCORDO
100
AcDbLine
 62
253
  6
CONTINUOUS
 10
10.878586647
 20
21.4787579845
 11
11.0
 21
21.6001713375
  0
LINE
  5
24A
100
AcDbEntity
  8
RACCORDO
100
AcDbLine
 62
253
  6
CONTINUOUS
 10
11.0
 20
-21.6001713375
 11
10.8785866456
 21
-21.4787579832
  0
LINE
  5
24B
100
AcDbEntity
  8
0
100
AcDbLine
 62
7
  6
CONTINUOUS
 10
-3.9
 20
-10.9149998502
 11
-3.9
 21
-10.9349999866
  0
LWPOLYLINE
  5
24C
100
AcDbEntity
  8
0
100
AcDbPolyline
 62
7
  6
CONTINUOUS
 90
2
 70
0
 43
0.3500000006
 10
18.2499999046
 20
-3.3928568802
 10
16.7499994469
 20
-3.3928568802
  0
LINE
  5
24D
100
AcDbEntity
  8
0
100
AcDbLine
 62
7
  6
CONTINUOUS
 10
-2.7
 20
-10.9149979185
 11
-2.7
 21
-10.9349996901
  0
LINE
  5
24E
100
AcDbEntity
  8
0
100
AcDbLine
 62
7
  6
CONTINUOUS
 10
-1.1
 20
-8.4649998293
 11
-1.1
 21
-8.9125388236
  0
LINE
  5
24F
100
AcDbEntity
  8
0
100
AcDbLine
 62
7
  6
CONTINUOUS
 10
-0.5
 20
-8.465
 11
-0.4999996214
 21
-8.9125390043
  0
LINE
  5
250
100
AcDbEntity
  8
0
100
AcDbLine
 62
7
  6
CONTINUOUS
 10
-0.3
 20
-13.9149998467
 11
-0.3
 21
-14.5349999941
  0
LWPOLYLINE
  5
251
100
AcDbEntity
  8
0
100
AcDbPolyline
 62
7
  6
CONTINUOUS
 90
2
 70
0
 43
0.3500000006
 10
18.2499999046
 20
-1.0357139511
 10
16.7499994469
 20
-1.0357139511
  0
LINE
  5
252
100
AcDbEntity
  8
0
100
AcDbLine
 62
7
  6
CONTINUOUS
 10
0.3
 20
-13.9149984582
 11
0.3
 21
-14.5349989562
  0
LINE
  5
253
100
AcDbEntity
  8
0
100
AcDbLine
 62
7
  6
CONTINUOUS
 10
0.5
 20
-8.4649998282
 11
0.5
 21
-8.9125390042
  0
LINE
  5
254
100
AcDbEntity
  8
0
100
AcDbLine
 62
7
  6
CONTINUOUS
 10
1.1
 20
-8.465
 11
1.1
 21
-8.9125388203
  0
LINE
  5
255
100
AcDbEntity
  8
0
100
AcDbLine
 62
7
  6
CONTINUOUS
 10
2.7
 20
-10.9149998491
 11
2.7
 21
-10.9349999742
  0
LINE
  5
256
100
AcDbEntity
  8
0
100
AcDbLine
 62
7
  6
CONTINUOUS
 10
3.9
 20
-10.9149970035
 11
3.9
 21
-10.9349993468
  0
LWPOLYLINE
  5
257
100
AcDbEntity
  8
0
100
AcDbPolyline
 62
7
  6
CONTINUOUS
 90
3
 70
0
 43
0.3500000006
 10
17.9642853699
 20
1.0357133102
 10
18.1785709877
 20
0.9642866592
 10
18.4642855225
 20
0.8214288254
  0
LINE
  5
258
100
AcDbEntity
  8
RACCORDO
100
AcDbLine
 62
253
  6
CONTINUOUS
 10
-10.878586647
 20
-21.4787579845
 11
-11.0
 21
-21.6001713375
  0
LINE
  5
259
100
AcDbEntity
  8
RACCORDO
100
AcDbLine
 62
253
  6
CONTINUOUS
 10
-10.3787579845
 20
-21.978586647
 11
-10.5001713375
 21
-22.1
  0
LWPOLYLINE
  5
25A
100
AcDbEntity
  8
0
100
AcDbPolyline
 62
7
  6
CONTINUOUS
 90
10
 70
0
 43
0.3500000006
 10
17.749999752
 20
0.9642866592
 10
17.8928575859
 20
1.0357133102
 10
17.9642853699
 20
1.0357133102
 10
18.1071432037
 20
0.8928577423
 10
18.1071432037
 20
0.8214288254
 10
18.0357142868
 20
0.7499999084
 10
17.9642853699
 20
0.7499999084
 10
17.821428669
 20
0.8214288254
 10
17.749999752
 20
0.8928577423
 10
17.749999752
 20
0.9642866592
  0
LINE
  5
25B
100
AcDbEntity
  8
RACCORDO
100
AcDbLine
 62
253
  6
CONTINUOUS
 10
-11.0
 20
21.6001713375
 11
-10.8785866456
 21
21.4787579832
  0
LINE
  5
25C
100
AcDbEntity
  8
RACCORDO
100
AcDbLine
 62
253
  6
CONTINUOUS
 10
-10.5001713375
 20
22.1
 11
-10.3787579832
 21
21.9785866456
  0
LINE
  5
25D
100
AcDbEntity
  8
RACCORDO
100
AcDbLine
 62
253
  6
CONTINUOUS
 10
10.3945930837
 20
-20.8300973553
 11
10.3945930842
 21
20.8300973573
  0
LINE
  5
25E
100
AcDbEntity
  8
RACCORDO
100
AcDbLine
 62
7
  6
CONTINUOUS
 10
11.0
 20
-21.6001713375
 11
11.0
 21
21.6001713375
  0
LINE
  5
25F
100
AcDbEntity
  8
0
100
AcDbLine
 62
7
  6
CONTINUOUS
 10
1.902117
 20
-12.841259
 11
1.916259
 21
-12.827117
  0
LINE
  5
260
100
AcDbEntity
  8
0
100
AcDbLine
 62
7
  6
CONTINUOUS
 10
2.764788
 20
-13.675645
 11
2.750645
 21
-13.689788
  0
LWPOLYLINE
  5
261
100
AcDbEntity
  8
0
100
AcDbPolyline
 62
7
  6
CONTINUOUS
 90
3
 70
0
 43
0.3500000006
 10
17.6071430511
 20
-0.5357137985
 10
17.6071430511
 20
-2.0357142563
 10
15.2500001221
 20
-1.3928574028
  0
LWPOLYLINE
  5
262
100
AcDbEntity
  8
0
100
AcDbPolyline
 62
7
  6
CONTINUOUS
 90
3
 70
0
 43
0.3500000006
 10
17.6071430511
 20
-2.8928567276
 10
17.6071430511
 20
-4.3928571854
 10
15.2500001221
 20
-3.7500003319
  0
LWPOLYLINE
  5
263
100
AcDbEntity
  8
0
100
AcDbPolyline
 62
7
  6
CONTINUOUS
 90
7
 70
0
 43
0.3500000006
 10
18.2499999046
 20
3.5357140732
 10
18.2499999046
 20
2.0357136154
 10
16.1071425934
 20
3.5357140732
 10
15.6785713577
 20
3.5357140732
 10
15.2500001221
 20
3.1071428375
 10
15.2500001221
 20
2.4642848511
 10
15.8928569756
 20
2.0357136154
  0
LINE
  5
264
100
AcDbEntity
  8
RACCORDO
100
AcDbLine
 62
7
  6
CONTINUOUS
 10
-10.5001713375
 20
22.1
 11
10.5001713375
 21
22.1
  0
LWPOLYLINE
  5
265
100
AcDbEntity
  8
0
100
AcDbPolyline
 62
7
  6
CONTINUOUS
 90
7
 70
0
 43
0.3500000006
 10
1.5000000329
 20
30.8500000305
 10
0.0
 20
30.8500000305
 10
1.5000000329
 20
32.9928584747
 10
1.5000000329
 20
33.4214274445
 10
1.0714285848
 20
33.850000946
 10
0.4285714127
 20
33.850000946
 10
0.0
 20
33.2071429596
  0
LWPOLYLINE
  5
266
100
AcDbEntity
  8
0
100
AcDbPolyline
 62
7
  6
CONTINUOUS
 90
7
 70
0
 43
0.3500000006
 10
-0.8571428254
 20
30.8500000305
 10
-2.3571427875
 20
30.8500000305
 10
-0.8571428254
 20
32.9928584747
 10
-0.8571428254
 20
33.4214274445
 10
-1.2857142735
 20
33.850000946
 10
-1.9285714102
 20
33.850000946
 10
-2.3571427875
 20
33.2071429596
  0
LWPOLYLINE
  5
267
100
AcDbEntity
  8
0
100
AcDbPolyline
 62
7
  6
CONTINUOUS
 90
10
 70
0
 43
0.3500000006
 10
-29.1658975983
 20
33.850000946
 10
-29.8087555847
 20
33.2071429596
 10
-30.2373268204
 20
32.3500004883
 10
-30.2373268204
 20
31.2785735321
 10
-29.8087555847
 20
30.8500000305
 10
-29.1658975983
 20
30.8500000305
 10
-28.7373263626
 20
31.2785735321
 10
-28.7373263626
 20
32.1357160034
 10
-29.1658975983
 20
32.5642849731
 10
-30.0944689865
 20
32.5642849731
  0
LINE
  5
268
100
AcDbEntity
  8
RACCORDO
100
AcDbLine
 62
7
  6
CONTINUOUS
 10
-23.6730327068
 20
-22.1
 11
-28.6632310303
 21
-21.9693270581
  0
LINE
  5
269
100
AcDbEntity
  8
RACCORDO
100
AcDbLine
 62
253
  6
CONTINUOUS
 10
-23.6730327068
 20
-21.6001713375
 11
-28.3096216479
 21
-21.4787579832
  0
LINE
  5
26A
100
AcDbEntity
  8
RACCORDO
100
AcDbLine
 62
253
  6
CONTINUOUS
 10
-29.4788072012
 20
-20.8300973788
 11
-28.9934922218
 21
-20.8087575806
  0
LWPOLYLINE
  5
26B
100
AcDbEntity
  8
0
100
AcDbPolyline
 62
7
  6
CONTINUOUS
 90
3
 70
0
 43
0.3500000006
 10
-27.1658992538
 20
31.1357156982
 10
-27.2373281708
 20
30.9214266815
 10
-27.3801837387
 20
30.6357155457
  0
LINE
  5
26C
100
AcDbEntity
  8
0
100
AcDbLine
 62
7
  6
CONTINUOUS
 10
-30.2869981863
 20
-8.17500017
 11
-30.2868699084
 21
-8.175
  0
LWPOLYLINE
  5
26D
100
AcDbEntity
  8
0
100
AcDbPolyline
 62
7
  6
CONTINUOUS
 90
3
 70
0
 10
-30.0982162481
 20
-14.825
 10
-29.9930864637
 20
-17.4302485115
 10
-29.8301868555
 20
-20.8322351581
  0
LINE
  5
26E
100
AcDbEntity
  8
0
100
AcDbLine
 62
7
  6
CONTINUOUS
 10
-30.1641651668
 20
-12.9249997928
 11
-30.1409199951
 21
-13.625
  0
LINE
  5
26F
100
AcDbEntity
  8
0
100
AcDbLine
 62
7
  6
CONTINUOUS
 10
-30.236213666
 20
-10.4616022455
 11
-30.1831131231
 21
-12.3249993319
  0
LINE
  5
270
100
AcDbEntity
  8
0
100
AcDbLine
 62
7
  6
CONTINUOUS
 10
-30.258611129
 20
-9.4343728725
 11
-30.236213666
 21
-10.4616022455
  0
LINE
  5
271
100
AcDbEntity
  8
0
100
AcDbLine
 62
7
  6
CONTINUOUS
 10
-30.1530921562
 20
-12.841259
 11
-30.1533378688
 21
-12.827117
  0
LINE
  5
272
100
AcDbEntity
  8
0
100
AcDbLine
 62
7
  6
CONTINUOUS
 10
-30.1104434037
 20
-13.675645
 11
-30.1102587287
 21
-13.689788
  0
LWPOLYLINE
  5
273
100
AcDbEntity
  8
0
100
AcDbPolyline
 62
7
  6
CONTINUOUS
 90
10
 70
0
 10
-29.8301868555
 20
20.8322351581
 10
-29.9933769004
 20
17.4235885523
 10
-30.1300665879
 20
13.9397926488
 10
-30.2363879832
 20
10.4549378163
 10
-30.3123301126
 20
6.9692886907
 10
-30.357884528
 20
3.4831099617
 10
-30.3730499628
 20
-0.0033334725
 10
-30.3578264177
 20
-3.4897766272
 10
-30.3122138934
 20
-6.9759545175
 10
-30.2860705732
 20
-8.1749825715
  0
LWPOLYLINE
  5
274
100
AcDbEntity
  8
0
100
AcDbPolyline
 62
7
  6
CONTINUOUS
 90
4
 70
0
 43
0.3500000006
 10
-26.1658989487
 20
33.2071429596
 10
-26.1658989487
 20
33.850000946
 10
-24.6658984909
 20
33.850000946
 10
-25.5230409622
 20
30.8500000305
  0
LINE
  5
275
100
AcDbEntity
  8
RACCORDO
100
AcDbLine
 62
7
  6
CONTINUOUS
 10
-23.6730327068
 20
-22.1
 11
-23.6730327068
 21
22.1
  0
LWPOLYLINE
  5
276
100
AcDbEntity
  8
0
100
AcDbPolyline
 62
7
  6
CONTINUOUS
 90
10
 70
0
 43
0.3500000006
 10
-27.2373281708
 20
31.3500001831
 10
-27.1658992538
 20
31.2071423492
 10
-27.1658992538
 20
31.1357156982
 10
-27.3087548218
 20
30.9928578644
 10
-27.3801837387
 20
30.9928578644
 10
-27.4516126556
 20
31.0642845154
 10
-27.4516126556
 20
31.1357156982
 10
-27.3801837387
 20
31.2785735321
 10
-27.3087548218
 20
31.3500001831
 10
-27.2373281708
 20
31.3500001831
  0
LINE
  5
277
100
AcDbEntity
  8
RACCORDO
100
AcDbLine
 62
253
  6
CONTINUOUS
 10
-28.3096215953
 20
21.4787579845
 11
-23.6730327068
 21
21.6001713375
  0
LINE
  5
278
100
AcDbEntity
  8
RACCORDO
100
AcDbLine
 62
7
  6
CONTINUOUS
 10
-28.6632310151
 20
21.9693270585
 11
-23.6730327068
 21
22.1
  0
LINE
  5
279
100
AcDbEntity
  8
RACCORDO
100
AcDbLine
 62
253
  6
CONTINUOUS
 10
-29.478793827
 20
20.8300968077
 11
-28.9934921941
 21
20.8087575834
  0
ARC
  5
27A
100
AcDbEntity
  8
RACCORDO
100
AcDbCircle
 62
253
  6
CONTINUOUS
 10
-10.3783243438
 20
-21.4783243438
 40
0.5002656608
100
AcDbArc
 50
180.0496655042
 51
269.9503344958
  0
ARC
  5
27B
100
AcDbEntity
  8
0
100
AcDbCircle
 62
7
  6
CONTINUOUS
 10
-2.1209415674
 20
-13.0318605816
 40
0.2895080096
100
AcDbArc
 50
45.0085345018
 51
134.9945369991
  0
ARC
  5
27C
100
AcDbEntity
  8
0
100
AcDbCircle
 62
7
  6
CONTINUOUS
 10
-2.5602058092
 20
-13.4700578661
 40
0.2892894471
100
AcDbArc
 50
135.0065607305
 51
224.9945943798
  0
ARC
  5
27D
100
AcDbEntity
  8
0
100
AcDbCircle
 62
7
  6
CONTINUOUS
 10
-2.1066978188
 20
-13.0468475904
 40
0.2892874471
100
AcDbArc
 50
315.0067021856
 51
44.9946012356
  0
ARC
  5
27E
100
AcDbEntity
  8
0
100
AcDbCircle
 62
7
  6
CONTINUOUS
 10
-2.5461250026
 20
-13.4852202371
 40
0.2892687313
100
AcDbArc
 50
225.0066884556
 51
314.9946622818
  0
ARC
  5
27F
100
AcDbEntity
  8
0
100
AcDbCircle
 62
7
  6
CONTINUOUS
 10
-1.8580039675
 20
-8.8865576946
 40
0.7608989227
100
AcDbArc
 50
333.0105143605
 51
338.8013586182
  0
ARC
  5
280
100
AcDbEntity
  8
0
100
AcDbCircle
 62
7
  6
CONTINUOUS
 10
-2.9903216358
 20
-10.9329570941
 40
0.2920428854
100
AcDbArc
 50
270.0280729107
 51
287.8541220111
  0
ARC
  5
281
100
AcDbEntity
  8
0
100
AcDbCircle
 62
7
  6
CONTINUOUS
 10
-3.609678836
 20
-10.9170402623
 40
0.2920402256
100
AcDbArc
 50
90.0251614439
 51
107.8535292996
  0
ARC
  5
282
100
AcDbEntity
  8
0
100
AcDbCircle
 62
7
  6
CONTINUOUS
 10
-2.9902727872
 20
-10.9167565818
 40
0.2917568751
100
AcDbArc
 50
72.4510769475
 51
89.911434332
  0
ARC
  5
283
100
AcDbEntity
  8
0
100
AcDbCircle
 62
7
  6
CONTINUOUS
 10
-3.6097272909
 20
-10.9332446685
 40
0.291755645
100
AcDbArc
 50
252.4471895323
 51
269.9071474905
  0
ARC
  5
284
100
AcDbEntity
  8
0
100
AcDbCircle
 62
7
  6
CONTINUOUS
 10
-2.9896469847
 20
-10.9349627909
 40
0.289646987
100
AcDbArc
 50
269.9730463273
 51
359.992700895
  0
ARC
  5
285
100
AcDbEntity
  8
0
100
AcDbCircle
 62
7
  6
CONTINUOUS
 10
-3.6103534046
 20
-10.915037216
 40
0.2896465976
100
AcDbArc
 50
89.9705991317
 51
179.9928080052
  0
ARC
  5
286
100
AcDbEntity
  8
0
100
AcDbCircle
 62
7
  6
CONTINUOUS
 10
-2.9893247717
 20
-10.9150474639
 40
0.2893247755
100
AcDbArc
 50
0.0093955818
 51
89.9628886936
  0
ARC
  5
287
100
AcDbEntity
  8
0
100
AcDbCircle
 62
7
  6
CONTINUOUS
 10
-3.6106769914
 20
-10.9349525067
 40
0.2893230125
100
AcDbArc
 50
180.009402636
 51
269.9593418934
  0
ARC
  5
288
100
AcDbEntity
  8
0
100
AcDbCircle
 62
7
  6
CONTINUOUS
 10
-0.0082230305
 20
-13.9152738384
 40
0.2917770982
100
AcDbArc
 50
162.5574342354
 51
179.9461966902
  0
ARC
  5
289
100
AcDbEntity
  8
0
100
AcDbCircle
 62
7
  6
CONTINUOUS
 10
-0.0100113025
 20
-14.5350216747
 40
0.2899763151
100
AcDbArc
 50
180.0045874367
 51
270.0021450213
  0
ARC
  5
28A
100
AcDbEntity
  8
0
100
AcDbCircle
 62
7
  6
CONTINUOUS
 10
-0.0100005902
 20
-13.9150096371
 40
0.2900017086
100
AcDbArc
 50
89.9998918489
 51
179.9983386152
  0
ARC
  5
28B
100
AcDbEntity
  8
0
100
AcDbCircle
 62
7
  6
CONTINUOUS
 10
-0.0037479959
 20
-10.9210091089
 40
2.0054691497
100
AcDbArc
 50
312.016492102
 51
314.5421754164
  0
ARC
  5
28C
100
AcDbEntity
  8
0
100
AcDbCircle
 62
7
  6
CONTINUOUS
 10
-0.0006502867
 20
-10.925626937
 40
2.0009006056
100
AcDbArc
 50
43.8234437332
 51
48.1879204051
  0
ARC
  5
28D
100
AcDbEntity
  8
0
100
AcDbCircle
 62
7
  6
CONTINUOUS
 10
-0.0032195304
 20
-10.9277864861
 40
1.9957478529
100
AcDbArc
 50
221.6935232964
 51
223.7933217415
  0
ARC
  5
28E
100
AcDbEntity
  8
0
100
AcDbCircle
 62
7
  6
CONTINUOUS
 10
-0.0014716964
 20
-10.923756574
 40
1.4019126651
100
AcDbArc
 50
315.5886712467
 51
320.408737818
  0
ARC
  5
28F
100
AcDbEntity
  8
0
100
AcDbCircle
 62
7
  6
CONTINUOUS
 10
-0.0005017598
 20
-10.9243094294
 40
1.3991502627
100
AcDbArc
 50
131.8138519396
 51
136.5127638227
  0
ARC
  5
290
100
AcDbEntity
  8
0
100
AcDbCircle
 62
7
  6
CONTINUOUS
 10
-1.799620393
 20
-8.9125297572
 40
1.2996207717
100
AcDbArc
 50
311.8107025608
 51
359.9993145387
  0
ARC
  5
291
100
AcDbEntity
  8
0
100
AcDbCircle
 62
7
  6
CONTINUOUS
 10
-0.8099526002
 20
-8.4643226028
 40
0.2893226057
100
AcDbArc
 50
90.0081901203
 51
179.9978628964
  0
ARC
  5
292
100
AcDbEntity
  8
0
100
AcDbCircle
 62
7
  6
CONTINUOUS
 10
-0.7900156742
 20
-8.4639793042
 40
0.2889793049
100
AcDbArc
 50
0.0072667326
 51
89.9959293893
  0
ARC
  5
293
100
AcDbEntity
  8
RACCORDO
100
AcDbCircle
 62
253
  6
CONTINUOUS
 10
-18539.6611579524
 20
0.0000003223
 40
18528.8121637149
100
AcDbArc
 50
359.9356540373
 51
0.0643459607
  0
ARC
  5
294
100
AcDbEntity
  8
RACCORDO
100
AcDbCircle
 62
253
  6
CONTINUOUS
 10
-10.3783243405
 20
21.4783243405
 40
0.5002656627
100
AcDbArc
 50
90.0496657208
 51
179.9503342792
  0
ARC
  5
295
100
AcDbEntity
  8
RACCORDO
100
AcDbCircle
 62
253
  6
CONTINUOUS
 10
0.0000003849
 20
-5837.23169339
 40
5815.262368467
100
AcDbArc
 50
89.8977416177
 51
90.1022583899
  0
ARC
  5
296
100
AcDbEntity
  8
0
100
AcDbCircle
 62
7
  6
CONTINUOUS
 10
0.008239495
 20
-14.5347289775
 40
0.291760631
100
AcDbArc
 50
342.570081425
 51
359.9467428872
  0
ARC
  5
297
100
AcDbEntity
  8
0
100
AcDbCircle
 62
7
  6
CONTINUOUS
 10
0.010006311
 20
-13.9149843375
 40
0.289983307
100
AcDbArc
 50
0.0044235514
 51
90.0011710027
  0
ARC
  5
298
100
AcDbEntity
  8
0
100
AcDbCircle
 62
7
  6
CONTINUOUS
 10
0.0100034569
 20
-14.534992468
 40
0.2899988278
100
AcDbArc
 50
269.9993267821
 51
359.9987181145
  0
ARC
  5
299
100
AcDbEntity
  8
0
100
AcDbCircle
 62
7
  6
CONTINUOUS
 10
-0.0000065217
 20
-10.9249999612
 40
1.9999974779
100
AcDbArc
 50
131.8108478623
 51
48.1895445896
  0
ARC
  5
29A
100
AcDbEntity
  8
0
100
AcDbCircle
 62
7
  6
CONTINUOUS
 10
0.0028455207
 20
-10.9224667734
 40
1.4037952526
100
AcDbArc
 50
219.3306560255
 51
223.8925387905
  0
ARC
  5
29B
100
AcDbEntity
  8
0
100
AcDbCircle
 62
7
  6
CONTINUOUS
 10
0.0005100903
 20
-10.9242995563
 40
1.3991373496
100
AcDbArc
 50
131.8102965589
 51
48.1864073992
  0
ARC
  5
29C
100
AcDbEntity
  8
0
100
AcDbCircle
 62
7
  6
CONTINUOUS
 10
0.0009993627
 20
-10.9262233983
 40
1.3984212081
100
AcDbArc
 50
311.6499855006
 51
315.5900183452
  0
ARC
  5
29D
100
AcDbEntity
  8
0
100
AcDbCircle
 62
7
  6
CONTINUOUS
 10
1.7997193552
 20
-8.9125304253
 40
1.2997193552
100
AcDbArc
 50
180.0003781842
 51
228.1890203541
  0
ARC
  5
29E
100
AcDbEntity
  8
0
100
AcDbCircle
 62
7
  6
CONTINUOUS
 10
0.7900475407
 20
-8.4643221927
 40
0.2893221976
100
AcDbArc
 50
90.010589653
 51
179.9978759066
  0
ARC
  5
29F
100
AcDbEntity
  8
0
100
AcDbCircle
 62
7
  6
CONTINUOUS
 10
0.8099843807
 20
-8.4639803822
 40
0.2889803824
100
AcDbArc
 50
0.0072601272
 51
89.9978904497
  0
ARC
  5
2A0
100
AcDbEntity
  8
0
100
AcDbCircle
 62
7
  6
CONTINUOUS
 10
2.106855215
 20
-13.0466811636
 40
0.289516424
100
AcDbArc
 50
135.0084880755
 51
224.9945578861
  0
ARC
  5
2A1
100
AcDbEntity
  8
0
100
AcDbCircle
 62
7
  6
CONTINUOUS
 10
2.1218525031
 20
-13.0316931667
 40
0.2892806838
100
AcDbArc
 50
45.0067378819
 51
134.9945704474
  0
ARC
  5
2A2
100
AcDbEntity
  8
0
100
AcDbCircle
 62
7
  6
CONTINUOUS
 10
2.5450511518
 20
-13.4852122245
 40
0.2892801631
100
AcDbArc
 50
225.0066029474
 51
314.9945713006
  0
ARC
  5
2A3
100
AcDbEntity
  8
0
100
AcDbCircle
 62
7
  6
CONTINUOUS
 10
2.5602155288
 20
-13.4711200639
 40
0.2892755528
100
AcDbArc
 50
315.0066558024
 51
44.9946960508
  0
ARC
  5
2A4
100
AcDbEntity
  8
0
100
AcDbCircle
 62
7
  6
CONTINUOUS
 10
1.858090803
 20
-8.8865872338
 40
0.7609667191
100
AcDbArc
 50
201.1979301844
 51
206.9881518393
  0
ARC
  5
2A5
100
AcDbEntity
  8
0
100
AcDbCircle
 62
7
  6
CONTINUOUS
 10
2.9896441763
 20
-10.9150372967
 40
0.2896441787
100
AcDbArc
 50
90.0364432624
 51
179.9927119083
  0
ARC
  5
2A6
100
AcDbEntity
  8
0
100
AcDbCircle
 62
7
  6
CONTINUOUS
 10
3.610357066
 20
-10.9349626691
 40
0.2896429363
100
AcDbArc
 50
270.0400754099
 51
359.9927446052
  0
ARC
  5
2A7
100
AcDbEntity
  8
0
100
AcDbCircle
 62
7
  6
CONTINUOUS
 10
2.9893305692
 20
-10.9349526673
 40
0.2893305731
100
AcDbArc
 50
180.0093681136
 51
270.0276282963
  0
ARC
  5
2A8
100
AcDbEntity
  8
0
100
AcDbCircle
 62
7
  6
CONTINUOUS
 10
3.6106699533
 20
-10.9150473103
 40
0.2893300506
100
AcDbArc
 50
0.0093664432
 51
90.0298178534
  0
ARC
  5
2A9
100
AcDbEntity
  8
0
100
AcDbCircle
 62
7
  6
CONTINUOUS
 10
3.6099963873
 20
-10.9133317834
 40
0.2883317808
100
AcDbArc
 50
88.1113412591
 51
90.0382170633
  0
ARC
  5
2AA
100
AcDbEntity
  8
0
100
AcDbCircle
 62
7
  6
CONTINUOUS
 10
2.9900027557
 20
-10.9367611569
 40
0.2882388413
100
AcDbArc
 50
268.3502880143
 51
270.0355104701
  0
ARC
  5
2AB
100
AcDbEntity
  8
0
100
AcDbCircle
 62
7
  6
CONTINUOUS
 10
3.6099954371
 20
-10.9374008484
 40
0.2875991545
100
AcDbArc
 50
270.0400937695
 51
271.7635639439
  0
ARC
  5
2AC
100
AcDbEntity
  8
0
100
AcDbCircle
 62
7
  6
CONTINUOUS
 10
2.9900038621
 20
-10.9125284489
 40
0.2875284511
100
AcDbArc
 50
90.0356605183
 51
91.6214742472
  0
ARC
  5
2AD
100
AcDbEntity
  8
RACCORDO
100
AcDbCircle
 62
253
  6
CONTINUOUS
 10
10.3783243405
 20
-21.4783243405
 40
0.5002656627
100
AcDbArc
 50
270.0496657161
 51
359.9503342839
  0
ARC
  5
2AE
100
AcDbEntity
  8
RACCORDO
100
AcDbCircle
 62
253
  6
CONTINUOUS
 10
18539.6611454846
 20
-0.0000003223
 40
18528.8121512472
100
AcDbArc
 50
179.9356540373
 51
180.0643459607
  0
ARC
  5
2AF
100
AcDbEntity
  8
RACCORDO
100
AcDbCircle
 62
253
  6
CONTINUOUS
 10
-0.0000003861
 20
5837.2316941562
 40
5815.2623692333
100
AcDbArc
 50
269.8977416177
 51
270.1022583899
  0
ARC
  5
2B0
100
AcDbEntity
  8
RACCORDO
100
AcDbCircle
 62
253
  6
CONTINUOUS
 10
10.3783243438
 20
21.4783243438
 40
0.5002656608
100
AcDbArc
 50
0.0496655001
 51
89.9503344999
  0
ARC
  5
2B1
100
AcDbEntity
  8
0
100
AcDbCircle
 62
7
  6
CONTINUOUS
 10
-230.0930825286
 20
-16.3410932662
 40
199.950306234
100
AcDbArc
 50
1.1538045773
 51
1.4494461082
  0
ARC
  5
2B2
100
AcDbEntity
  8
0
100
AcDbCircle
 62
7
  6
CONTINUOUS
 10
-229.186435561
 20
-16.3006110554
 40
199.0508480532
100
AcDbArc
 50
1.1492116937
 51
1.4439996797
  0
ARC
  5
2B3
100
AcDbEntity
  8
0
100
AcDbCircle
 62
7
  6
CONTINUOUS
 10
-227.7152452058
 20
-16.2872266986
 40
197.5718665487
100
AcDbArc
 50
1.1491217331
 51
1.4621419291
  0
ARC
  5
2B4
100
AcDbEntity
  8
0
100
AcDbCircle
 62
7
  6
CONTINUOUS
 10
-226.800347787
 20
-16.2467801769
 40
196.6641606856
100
AcDbArc
 50
1.1474254357
 51
1.4629248511
  0
ARC
  5
2B5
100
AcDbEntity
  8
0
100
AcDbCircle
 62
7
  6
CONTINUOUS
 10
-213.276816048
 20
-15.9022996174
 40
183.12828413
100
AcDbArc
 50
1.6657089568
 51
1.8588155699
  0
ARC
  5
2B6
100
AcDbEntity
  8
0
100
AcDbCircle
 62
7
  6
CONTINUOUS
 10
-212.7481859128
 20
-15.8710058622
 40
182.6069537985
100
AcDbArc
 50
1.6672507169
 51
1.8797494529
  0
ARC
  5
2B7
100
AcDbEntity
  8
0
100
AcDbCircle
 62
7
  6
CONTINUOUS
 10
-212.3680209358
 20
-15.8745062203
 40
182.2190656053
100
AcDbArc
 50
1.6562295464
 51
1.8847426237
  0
ARC
  5
2B8
100
AcDbEntity
  8
0
100
AcDbCircle
 62
7
  6
CONTINUOUS
 10
-212.326443234
 20
-15.8580699968
 40
182.1850137358
100
AcDbArc
 50
1.6472489996
 51
1.8723398595
  0
ARC
  5
2B9
100
AcDbEntity
  8
0
100
AcDbCircle
 62
7
  6
CONTINUOUS
 10
-207.9036525174
 20
-15.7122830886
 40
177.7598209682
100
AcDbArc
 50
1.8799719334
 51
2.0239524809
  0
ARC
  5
2BA
100
AcDbEntity
  8
RACCORDO
100
AcDbCircle
 62
253
  6
CONTINUOUS
 10
-28.279013396
 20
-20.7779450196
 40
1.2009812539
100
AcDbArc
 50
182.4889517477
 51
268.5396609255
  0
ARC
  5
2BB
100
AcDbEntity
  8
RACCORDO
100
AcDbCircle
 62
7
  6
CONTINUOUS
 10
-28.6318151369
 20
-20.7697383612
 40
1.2
100
AcDbArc
 50
182.985352211
 51
268.5
  0
ARC
  5
2BC
100
AcDbEntity
  8
0
100
AcDbCircle
 62
7
  6
CONTINUOUS
 10
-10.9963162787
 20
-12.4236415497
 40
19.1614943156
100
AcDbArc
 50
181.6390172352
 51
182.2611502451
  0
ARC
  5
2BD
100
AcDbEntity
  8
0
100
AcDbCircle
 62
7
  6
CONTINUOUS
 10
-11.5409928571
 20
-12.4425300516
 40
18.6164986423
100
AcDbArc
 50
181.4637562856
 51
182.2534283809
  0
ARC
  5
2BE
100
AcDbEntity
  8
0
100
AcDbCircle
 62
7
  6
CONTINUOUS
 10
-14.6744495841
 20
-12.5277227189
 40
15.481888926
100
AcDbArc
 50
181.4307962965
 51
181.6433274199
  0
ARC
  5
2BF
100
AcDbEntity
  8
0
100
AcDbCircle
 62
7
  6
CONTINUOUS
 10
-18.4675052391
 20
-12.6226056838
 40
11.6876469423
100
AcDbArc
 50
181.1697476049
 51
181.4486477073
  0
ARC
  5
2C0
100
AcDbEntity
  8
0
100
AcDbCircle
 62
7
  6
CONTINUOUS
 10
-18.6987981648
 20
-12.7226801555
 40
11.4532132785
100
AcDbArc
 50
182.2609754222
 51
182.5024612409
  0
ARC
  5
2C1
100
AcDbEntity
  8
0
100
AcDbCircle
 62
7
  6
CONTINUOUS
 10
-19.3117642088
 20
-12.6416475347
 40
10.8431756749
100
AcDbArc
 50
181.1750734525
 51
181.4408475062
  0
ARC
  5
2C2
100
AcDbEntity
  8
0
100
AcDbCircle
 62
7
  6
CONTINUOUS
 10
-19.5432656765
 20
-12.7570702299
 40
10.6080453538
100
AcDbArc
 50
182.2829958633
 51
182.6708186836
  0
ARC
  5
2C3
100
AcDbEntity
  8
0
100
AcDbCircle
 62
7
  6
CONTINUOUS
 10
-39.8624023916
 20
-11.1935829526
 40
9.7016248493
100
AcDbArc
 50
1.3502308939
 51
1.5273218953
  0
ARC
  5
2C4
100
AcDbEntity
  8
0
100
AcDbCircle
 62
7
  6
CONTINUOUS
 10
-39.8399380817
 20
-11.172490901
 40
9.6786068516
100
AcDbArc
 50
1.5244840825
 51
1.7054120818
  0
ARC
  5
2C5
100
AcDbEntity
  8
0
100
AcDbCircle
 62
7
  6
CONTINUOUS
 10
-39.7520362571
 20
-11.1908620206
 40
9.5912254046
100
AcDbArc
 50
1.1749041331
 51
1.5286414093
  0
ARC
  5
2C6
100
AcDbEntity
  8
0
100
AcDbCircle
 62
7
  6
CONTINUOUS
 10
-39.6181647658
 20
-11.1657766561
 40
9.4567319497
100
AcDbArc
 50
1.7047386516
 51
1.8849679695
  0
ARC
  5
2C7
100
AcDbEntity
  8
0
100
AcDbCircle
 62
7
  6
CONTINUOUS
 10
-21.3533338638
 20
-10.7258517553
 40
8.844098878
100
AcDbArc
 50
181.9335652185
 51
182.619212937
  0
ARC
  5
2C8
100
AcDbEntity
  8
0
100
AcDbCircle
 62
7
  6
CONTINUOUS
 10
-22.4357747648
 20
-10.7688792154
 40
7.7608252618
100
AcDbArc
 50
181.8854900419
 51
182.6667854293
  0
ARC
  5
2C9
100
AcDbEntity
  8
0
100
AcDbCircle
 62
7
  6
CONTINUOUS
 10
-22.6686548591
 20
-12.7103515053
 40
7.4855820366
100
AcDbArc
 50
181.0020368073
 51
181.1762352657
  0
ARC
  5
2CA
100
AcDbEntity
  8
0
100
AcDbCircle
 62
7
  6
CONTINUOUS
 10
-37.5733723932
 20
-13.7781476724
 40
7.4636393207
100
AcDbArc
 50
0.9395196684
 51
1.1486298215
  0
ARC
  5
2CB
100
AcDbEntity
  8
0
100
AcDbCircle
 62
7
  6
CONTINUOUS
 10
-22.6910182665
 20
-12.8989338358
 40
7.4571031878
100
AcDbArc
 50
182.5603377748
 51
182.7089939405
  0
ARC
  5
2CC
100
AcDbEntity
  8
0
100
AcDbCircle
 62
7
  6
CONTINUOUS
 10
-36.0701027051
 20
-13.584116263
 40
5.954543014
100
AcDbArc
 50
2.88147375
 51
3.0670333359
  0
ARC
  5
2CD
100
AcDbEntity
  8
0
100
AcDbCircle
 62
7
  6
CONTINUOUS
 10
-35.8849664012
 20
-13.7508398576
 40
5.775012564
100
AcDbArc
 50
0.7460536816
 51
0.9432958262
  0
ARC
  5
2CE
100
AcDbEntity
  8
0
100
AcDbCircle
 62
7
  6
CONTINUOUS
 10
-24.3802427244
 20
-12.7270331479
 40
5.7739626188
100
AcDbArc
 50
180.8181523525
 51
180.9931947766
  0
ARC
  5
2CF
100
AcDbEntity
  8
0
100
AcDbCircle
 62
7
  6
CONTINUOUS
 10
-35.5801574246
 20
-13.0959372914
 40
5.4400899568
100
AcDbArc
 50
2.8324082917
 51
3.0240189449
  0
ARC
  5
2D0
100
AcDbEntity
  8
0
100
AcDbCircle
 62
7
  6
CONTINUOUS
 10
-25.3392160761
 20
-13.4437807233
 40
4.7852213524
100
AcDbArc
 50
182.9468608039
 51
183.1923057514
  0
ARC
  5
2D1
100
AcDbEntity
  8
0
100
AcDbCircle
 62
7
  6
CONTINUOUS
 10
-25.4961658112
 20
-13.4522448416
 40
4.6280440384
100
AcDbArc
 50
182.9421046785
 51
183.1674751518
  0
ARC
  5
2D2
100
AcDbEntity
  8
0
100
AcDbCircle
 62
7
  6
CONTINUOUS
 10
-34.5464333227
 20
-13.7486364678
 40
4.4365649066
100
AcDbArc
 50
0.5327899157
 51
0.7600173501
  0
ARC
  5
2D3
100
AcDbEntity
  8
0
100
AcDbCircle
 62
7
  6
CONTINUOUS
 10
-34.5090680996
 20
-13.7479746867
 40
4.3991941958
100
AcDbArc
 50
0.431234323
 51
0.757854424
  0
ARC
  5
2D4
100
AcDbEntity
  8
0
100
AcDbCircle
 62
7
  6
CONTINUOUS
 10
-33.8163536803
 20
-13.0023449386
 40
3.6738043146
100
AcDbArc
 50
3.0815431653
 51
3.3123405955
  0
ARC
  5
2D5
100
AcDbEntity
  8
0
100
AcDbCircle
 62
7
  6
CONTINUOUS
 10
-26.57515983
 20
-12.7570339958
 40
3.5788391837
100
AcDbArc
 50
180.5356514211
 51
180.7205727891
  0
ARC
  5
2D6
100
AcDbEntity
  8
0
100
AcDbCircle
 62
7
  6
CONTINUOUS
 10
-26.8565477994
 20
-13.5280620343
 40
3.2655507557
100
AcDbArc
 50
183.1983724173
 51
183.509276235
  0
ARC
  5
2D7
100
AcDbEntity
  8
0
100
AcDbCircle
 62
7
  6
CONTINUOUS
 10
-27.0822593569
 20
-13.5413916205
 40
3.0394466892
100
AcDbArc
 50
183.2182170537
 51
183.4982894315
  0
ARC
  5
2D8
100
AcDbEntity
  8
0
100
AcDbCircle
 62
7
  6
CONTINUOUS
 10
-33.0638584986
 20
-13.7362744907
 40
2.953937924
100
AcDbArc
 50
0.1920861607
 51
0.4702124396
  0
ARC
  5
2D9
100
AcDbEntity
  8
0
100
AcDbCircle
 62
7
  6
CONTINUOUS
 10
-32.3539595567
 20
-12.9169939166
 40
2.2089207326
100
AcDbArc
 50
3.386273198
 51
3.6678835103
  0
ARC
  5
2DA
100
AcDbEntity
  8
0
100
AcDbCircle
 62
7
  6
CONTINUOUS
 10
-28.2042392414
 20
-13.6109667353
 40
1.9153110325
100
AcDbArc
 50
183.5722548626
 51
183.8998637657
  0
ARC
  5
2DB
100
AcDbEntity
  8
0
100
AcDbCircle
 62
7
  6
CONTINUOUS
 10
-32.0183838304
 20
-13.7337011995
 40
1.9084594738
100
AcDbArc
 50
359.7998626519
 51
0.1129073115
  0
ARC
  5
2DC
100
AcDbEntity
  8
0
100
AcDbCircle
 62
7
  6
CONTINUOUS
 10
-31.4079001892
 20
-12.8556122293
 40
1.2608715272
100
AcDbArc
 50
3.7462772302
 51
4.2682250867
  0
ARC
  5
2DD
100
AcDbEntity
  8
0
100
AcDbCircle
 62
7
  6
CONTINUOUS
 10
-31.0730370641
 20
-13.7387385522
 40
0.9630983433
100
AcDbArc
 50
359.026618457
 51
359.7324259063
  0
ARC
  5
2DE
100
AcDbEntity
  8
0
100
AcDbCircle
 62
7
  6
CONTINUOUS
 10
-4.8651582728
 20
-8.5500625791
 40
25.4049612473
100
AcDbArc
 50
181.5366073804
 51
181.994587757
  0
ARC
  5
2DF
100
AcDbEntity
  8
0
100
AcDbCircle
 62
7
  6
CONTINUOUS
 10
-16.9759090886
 20
-10.5778256734
 40
13.224031013
100
AcDbArc
 50
181.5477178613
 51
181.6801767957
  0
ARC
  5
2E0
100
AcDbEntity
  8
0
100
AcDbCircle
 62
7
  6
CONTINUOUS
 10
-16.9771253358
 20
-10.5584606769
 40
13.2233377866
100
AcDbArc
 50
181.4151078016
 51
181.5450486699
  0
ARC
  5
2E1
100
AcDbEntity
  8
0
100
AcDbCircle
 62
7
  6
CONTINUOUS
 10
-17.1537425251
 20
-10.5828919215
 40
13.0461256199
100
AcDbArc
 50
181.5465777368
 51
181.8114977568
  0
ARC
  5
2E2
100
AcDbEntity
  8
0
100
AcDbCircle
 62
7
  6
CONTINUOUS
 10
-17.3795169196
 20
-10.5682989801
 40
12.820825963
100
AcDbArc
 50
181.284921415
 51
181.4155639537
  0
ARC
  5
2E3
100
AcDbEntity
  8
0
100
AcDbCircle
 62
7
  6
CONTINUOUS
 10
-17.6007858351
 20
-10.5964128889
 40
12.5988779411
100
AcDbArc
 50
181.6790054064
 51
181.9460789415
  0
ARC
  5
2E4
100
AcDbEntity
  8
0
100
AcDbCircle
 62
7
  6
CONTINUOUS
 10
-17.6412043917
 20
-10.5749758928
 40
12.5590549462
100
AcDbArc
 50
181.1512602481
 51
181.5514159742
  0
ARC
  5
2E5
100
AcDbEntity
  8
0
100
AcDbCircle
 62
7
  6
CONTINUOUS
 10
-18.2298997881
 20
-10.6169065908
 40
11.9694309316
100
AcDbArc
 50
181.8115987386
 51
181.9501524014
  0
ARC
  5
2E6
100
AcDbEntity
  8
0
100
AcDbCircle
 62
7
  6
CONTINUOUS
 10
-18.2805122207
 20
-10.5884020019
 40
11.9196064271
100
AcDbArc
 50
181.1483701847
 51
181.2854317039
  0
ARC
  5
2E7
100
AcDbEntity
  8
0
100
AcDbCircle
 62
7
  6
CONTINUOUS
 10
-21.3053065583
 20
-10.6465588684
 40
8.8942544164
100
AcDbArc
 50
180.4885979836
 51
181.1643217567
  0
ARC
  5
2E8
100
AcDbEntity
  8
0
100
AcDbCircle
 62
7
  6
CONTINUOUS
 10
-22.3834394656
 20
-10.6621121168
 40
7.8160306818
100
AcDbArc
 50
180.4422076788
 51
181.2110923291
  0
ARC
  5
2E9
100
AcDbEntity
  8
0
100
AcDbCircle
 62
7
  6
CONTINUOUS
 10
75.1814170294
 20
-7.61117458
 40
105.4572006295
100
AcDbArc
 50
182.8614118067
 51
183.0469170279
  0
ARC
  5
2EA
100
AcDbEntity
  8
0
100
AcDbCircle
 62
7
  6
CONTINUOUS
 10
75.1508693582
 20
-7.6128600727
 40
105.4266067074
100
AcDbArc
 50
182.8349279719
 51
183.0653737639
  0
ARC
  5
2EB
100
AcDbEntity
  8
0
100
AcDbCircle
 62
7
  6
CONTINUOUS
 10
74.7473795424
 20
-8.2844545314
 40
105.0047063297
100
AcDbArc
 50
182.7642387967
 51
182.8972992718
  0
ARC
  5
2EC
100
AcDbEntity
  8
0
100
AcDbCircle
 62
7
  6
CONTINUOUS
 10
34.0303811404
 20
-7.8279178927
 40
64.3107112343
100
AcDbArc
 50
181.5019264226
 51
181.8298885451
  0
ARC
  5
2ED
100
AcDbEntity
  8
0
100
AcDbCircle
 62
7
  6
CONTINUOUS
 10
30.0345049987
 20
-7.5719640485
 40
60.3183267605
100
AcDbArc
 50
181.2735036224
 51
181.5107880623
  0
ARC
  5
2EE
100
AcDbEntity
  8
0
100
AcDbCircle
 62
7
  6
CONTINUOUS
 10
26.4985345269
 20
-8.0503469751
 40
56.7756204875
100
AcDbArc
 50
181.4884132755
 51
181.8144551848
  0
ARC
  5
2EF
100
AcDbEntity
  8
RACCORDO
100
AcDbCircle
 62
253
  6
CONTINUOUS
 10
-28.2790136937
 20
20.7779453801
 40
1.2009812526
100
AcDbArc
 50
91.4603228061
 51
177.5110647193
  0
ARC
  5
2F0
100
AcDbEntity
  8
RACCORDO
100
AcDbCircle
 62
7
  6
CONTINUOUS
 10
-28.631815137
 20
20.7697383612
 40
1.2
100
AcDbArc
 50
91.5
 51
177.0146477891
  0
ARC
  5
2F1
100
AcDbEntity
  8
RACCORDO
100
AcDbCircle
 62
253
  6
CONTINUOUS
 10
456.7823745739
 20
-0.0000000004
 40
486.7071294526
100
AcDbArc
 50
177.547105361
 51
182.4528946387
  0
ARC
  5
2F2
100
AcDbEntity
  8
RACCORDO
100
AcDbCircle
 62
253
  6
CONTINUOUS
 10
455.9913597358
 20
-0.0000003222
 40
485.4310569041
100
AcDbArc
 50
177.5431744091
 51
182.4568255145
  0
LINE
  5
2F3
100
AcDbEntity
  8
0
100
AcDbLine
 62
7
  6
CONTINUOUS
 10
2.7506449753
 20
-13.6897880247
 11
2.764787994
 21
-13.675645006
  0
LINE
  5
2F4
100
AcDbEntity
  8
0
100
AcDbLine
 62
7
  6
CONTINUOUS
 10
1.9021167445
 20
-13.2513807445
 11
1.9682686052
 21
-13.3175327561
  0
LINE
  5
2F5
100
AcDbEntity
  8
0
100
AcDbLine
 62
7
  6
CONTINUOUS
 10
1.9682686052
 20
-13.3175327561
 11
2.2916158937
 21
-13.6408807822
  0
LINE
  5
2F6
100
AcDbEntity
  8
0
100
AcDbLine
 62
7
  6
CONTINUOUS
 10
2.2916158937
 20
-13.6408807822
 11
2.3405227614
 21
-13.6897877614
  0
LINE
  5
2F7
100
AcDbEntity
  8
0
100
AcDbLine
 62
7
  6
CONTINUOUS
 10
1.9162590223
 20
-12.8271169777
 11
1.9021170102
 21
-12.8412589898
  0
LINE
  5
2F8
100
AcDbEntity
  8
0
100
AcDbLine
 62
7
  6
CONTINUOUS
 10
2.7647877906
 20
-13.2655227906
 11
2.6980926096
 21
-13.1988277618
  0
LINE
  5
2F9
100
AcDbEntity
  8
0
100
AcDbLine
 62
7
  6
CONTINUOUS
 10
2.6980926096
 20
-13.1988277618
 11
2.3748978406
 21
-12.8756337299
  0
LINE
  5
2FA
100
AcDbEntity
  8
0
100
AcDbLine
 62
7
  6
CONTINUOUS
 10
2.3748978406
 20
-12.8756337299
 11
2.32638078
 21
-12.82711678
  0
LINE
  5
2FB
100
AcDbEntity
  8
0
100
AcDbLine
 62
7
  6
CONTINUOUS
 10
2.9901813985
 20
-11.2250247262
 11
3.0238470467
 21
-11.2250221715
  0
LINE
  5
2FC
100
AcDbEntity
  8
0
100
AcDbLine
 62
7
  6
CONTINUOUS
 10
3.0238470467
 20
-11.2250221715
 11
3.0927647644
 21
-11.2250168523
  0
LINE
  5
2FD
100
AcDbEntity
  8
0
100
AcDbLine
 62
7
  6
CONTINUOUS
 10
3.0927647644
 20
-11.2250168523
 11
3.1616911985
 21
-11.2250114126
  0
LINE
  5
2FE
100
AcDbEntity
  8
0
100
AcDbLine
 62
7
  6
CONTINUOUS
 10
3.1616911985
 20
-11.2250114126
 11
3.2305404498
 21
-11.2250058591
  0
LINE
  5
2FF
100
AcDbEntity
  8
0
100
AcDbLine
 62
7
  6
CONTINUOUS
 10
3.2305404498
 20
-11.2250058591
 11
3.2994931085
 21
-11.2250001774
  0
LINE
  5
300
100
AcDbEntity
  8
0
100
AcDbLine
 62
7
  6
CONTINUOUS
 10
3.2994931085
 20
-11.2250001774
 11
3.3687072866
 21
-11.2249943533
  0
LINE
  5
301
100
AcDbEntity
  8
0
100
AcDbLine
 62
7
  6
CONTINUOUS
 10
3.3687072866
 20
-11.2249943533
 11
3.4380145221
 21
-11.2249884002
  0
LINE
  5
302
100
AcDbEntity
  8
0
100
AcDbLine
 62
7
  6
CONTINUOUS
 10
3.4380145221
 20
-11.2249884002
 11
3.5072671188
 21
-11.2249823307
  0
LINE
  5
303
100
AcDbEntity
  8
0
100
AcDbLine
 62
7
  6
CONTINUOUS
 10
3.5072671188
 20
-11.2249823307
 11
3.5765679221
 21
-11.2249761356
  0
LINE
  5
304
100
AcDbEntity
  8
0
100
AcDbLine
 62
7
  6
CONTINUOUS
 10
3.5765679221
 20
-11.2249761356
 11
3.6101966921
 21
-11.2249730857
  0
LINE
  5
305
100
AcDbEntity
  8
0
100
AcDbLine
 62
7
  6
CONTINUOUS
 10
3.6098040675
 20
-10.6249736384
 11
3.5751101584
 21
-10.6249767236
  0
LINE
  5
306
100
AcDbEntity
  8
0
100
AcDbLine
 62
7
  6
CONTINUOUS
 10
3.5751101584
 20
-10.6249767236
 11
3.0227071723
 21
-10.6250218304
  0
LINE
  5
307
100
AcDbEntity
  8
0
100
AcDbLine
 62
7
  6
CONTINUOUS
 10
3.0227071723
 20
-10.6250218304
 11
2.9898249062
 21
-10.6250242771
  0
SPLINE
  5
308
100
AcDbEntity
  8
0
100
AcDbSpline
 62
7
  6
CONTINUOUS
 70
0
 71
3
 72
9
 73
5
 74
3
 42
0.0000001
 43
0.0000001
 44
0.0000000001
 12
-0.0000000014
 22
-0.254698397
 32
0.0
 13
-0.0920990808
 23
-0.2374637504
 33
0.0
 40
0.0
 40
0.0
 40
0.0
 40
0.0
 40
0.2510852499
 40
1.0
 40
1.0
 40
1.0
 40
1.0
 10
-1.1
 20
-8.9125388236
 30
0.0
 10
-1.1000000001
 20
-8.9338558272
 30
0.0
 10
-1.1045394699
 20
-9.0187327056
 30
0.0
 10
-1.1256018137
 20
-9.1024205835
 30
0.0
 10
-1.1485932671
 20
-9.1617006186
 30
0.0
 11
-1.1
 21
-8.9125388236
 31
0.0
 11
-1.1033212527
 21
-8.9764035325
 31
0.0
 11
-1.1485932671
 21
-9.1617006186
 31
0.0
  0
SPLINE
  5
309
100
AcDbEntity
  8
0
100
AcDbSpline
 62
7
  6
CONTINUOUS
 70
0
 71
3
 72
9
 73
5
 74
3
 42
0.0000001
 43
0.0000001
 44
0.0000000001
 12
-0.115589316
 22
-0.226958993
 32
0.0
 13
-0.1898396089
 23
-0.1698004633
 33
0.0
 40
0.0
 40
0.0
 40
0.0
 40
0.0
 40
0.7488895668
 40
1.0
 40
1.0
 40
1.0
 40
1.0
 10
-1.1800125443
 20
-9.2319567497
 30
0.0
 10
-1.2088670885
 20
-9.2886124903
 30
0.0
 10
-1.2572014637
 20
-9.3601046679
 30
0.0
 10
-1.3174394908
 20
-9.4200718995
 30
0.0
 10
-1.3333297263
 20
-9.4342847888
 30
0.0
 11
-1.1800125443
 21
-9.2319567497
 31
0.0
 11
-1.2879372987
 21
-9.3892283823
 31
0.0
 11
-1.3333297263
 21
-9.4342847888
 31
0.0
  0
LINE
  5
30A
100
AcDbEntity
  8
0
100
AcDbLine
 62
7
  6
CONTINUOUS
 10
-0.7899938763
 20
-8.17500017
 11
-0.8099939573
 21
-8.174999828
  0
LINE
  5
30B
100
AcDbEntity
  8
0
100
AcDbLine
 62
7
  6
CONTINUOUS
 10
0.8099940781
 20
-8.174999828
 11
0.7899940669
 21
-8.17500017
  0
SPLINE
  5
30C
100
AcDbEntity
  8
0
100
AcDbSpline
 62
7
  6
CONTINUOUS
 70
0
 71
3
 72
9
 73
5
 74
3
 42
0.0000001
 43
0.0000001
 44
0.0000000001
 12
-0.1898707738
 22
0.1698284939
 32
0.0
 13
-0.1156030913
 23
0.2269990161
 33
0.0
 40
0.0
 40
0.0
 40
0.0
 40
0.0
 40
0.2510378441
 40
1.0
 40
1.0
 40
1.0
 40
1.0
 10
1.3333295248
 20
-9.4342846085
 30
0.0
 10
1.3174412749
 20
-9.4200734822
 30
0.0
 10
1.2571943532
 20
-9.3600953251
 30
0.0
 10
1.2088538464
 20
-9.288589903
 30
0.0
 10
1.1799930662
 20
-9.2319186788
 30
0.0
 11
1.3333295248
 21
-9.4342846085
 31
0.0
 11
1.2879431025
 21
-9.3892334595
 31
0.0
 11
1.1799930662
 21
-9.2319186788
 31
0.0
  0
SPLINE
  5
30D
100
AcDbEntity
  8
0
100
AcDbSpline
 62
7
  6
CONTINUOUS
 70
0
 71
3
 72
9
 73
5
 74
3
 42
0.0000001
 43
0.0000001
 44
0.0000000001
 12
-0.0920934644
 22
0.2374574316
 32
0.0
 13
-0.0000000467
 23
0.2546904749
 33
0.0
 40
0.0
 40
0.0
 40
0.0
 40
0.0
 40
0.7489685514
 40
1.0
 40
1.0
 40
1.0
 40
1.0
 10
1.1485903896
 20
-9.1616932822
 30
0.0
 10
1.1255986867
 20
-9.102410566
 30
0.0
 10
1.1045365012
 20
-9.018725039
 30
0.0
 10
1.1000000039
 20
-8.9338507039
 30
0.0
 10
1.1
 20
-8.9125389309
 30
0.0
 11
1.1485903896
 21
-9.1616932822
 31
0.0
 11
1.1033190067
 21
-8.9763880436
 31
0.0
 11
1.1
 21
-8.9125389309
 31
0.0
  0
LINE
  5
30E
100
AcDbEntity
  8
0
100
AcDbLine
 62
7
  6
CONTINUOUS
 10
-2.9898218007
 20
-10.6250242773
 11
-3.0241139796
 21
-10.6250217251
  0
LINE
  5
30F
100
AcDbEntity
  8
0
100
AcDbLine
 62
7
  6
CONTINUOUS
 10
-3.0241139796
 20
-10.6250217251
 11
-3.5743638073
 21
-10.6249767897
  0
LINE
  5
310
100
AcDbEntity
  8
0
100
AcDbLine
 62
7
  6
CONTINUOUS
 10
-3.5743638073
 20
-10.6249767897
 11
-3.6098070871
 21
-10.6249736382
  0
LINE
  5
311
100
AcDbEntity
  8
0
100
AcDbLine
 62
7
  6
CONTINUOUS
 10
-3.6102001066
 20
-11.2249730854
 11
-3.5751766349
 21
-11.2249762612
  0
LINE
  5
312
100
AcDbEntity
  8
0
100
AcDbLine
 62
7
  6
CONTINUOUS
 10
-3.5751766349
 20
-11.2249762612
 11
-3.506241155
 21
-11.2249824215
  0
LINE
  5
313
100
AcDbEntity
  8
0
100
AcDbLine
 62
7
  6
CONTINUOUS
 10
-3.506241155
 20
-11.2249824215
 11
-3.4373267324
 21
-11.2249884599
  0
LINE
  5
314
100
AcDbEntity
  8
0
100
AcDbLine
 62
7
  6
CONTINUOUS
 10
-3.4373267324
 20
-11.2249884599
 11
-3.3683414973
 21
-11.2249943844
  0
LINE
  5
315
100
AcDbEntity
  8
0
100
AcDbLine
 62
7
  6
CONTINUOUS
 10
-3.3683414973
 20
-11.2249943844
 11
-3.2994647817
 21
-11.2250001797
  0
LINE
  5
316
100
AcDbEntity
  8
0
100
AcDbLine
 62
7
  6
CONTINUOUS
 10
-3.2994647817
 20
-11.2250001797
 11
-3.2309008826
 21
-11.2250058297
  0
LINE
  5
317
100
AcDbEntity
  8
0
100
AcDbLine
 62
7
  6
CONTINUOUS
 10
-3.2309008826
 20
-11.2250058297
 11
-3.1624614147
 21
-11.2250113511
  0
LINE
  5
318
100
AcDbEntity
  8
0
100
AcDbLine
 62
7
  6
CONTINUOUS
 10
-3.1624614147
 20
-11.2250113511
 11
-3.0939311782
 21
-11.2250167613
  0
LINE
  5
319
100
AcDbEntity
  8
0
100
AcDbLine
 62
7
  6
CONTINUOUS
 10
-3.0939311782
 20
-11.2250167613
 11
-3.0253898341
 21
-11.2250220537
  0
LINE
  5
31A
100
AcDbEntity
  8
0
100
AcDbLine
 62
7
  6
CONTINUOUS
 10
-3.0253898341
 20
-11.2250220537
 11
-2.9901785446
 21
-11.2250247265
  0
LINE
  5
31B
100
AcDbEntity
  8
0
100
AcDbLine
 62
7
  6
CONTINUOUS
 10
-2.7647880212
 20
-13.6756449788
 11
-2.7506450052
 21
-13.6897879948
  0
LINE
  5
31C
100
AcDbEntity
  8
0
100
AcDbLine
 62
7
  6
CONTINUOUS
 10
-2.3263807416
 20
-12.8271167416
 11
-2.374896827
 21
-12.8756327163
  0
LINE
  5
31D
100
AcDbEntity
  8
0
100
AcDbLine
 62
7
  6
CONTINUOUS
 10
-2.374896827
 20
-12.8756327163
 11
-2.7647877609
 21
-13.2655227609
  0
LINE
  5
31E
100
AcDbEntity
  8
0
100
AcDbLine
 62
7
  6
CONTINUOUS
 10
-1.9021169802
 20
-12.8412590198
 11
-1.9162589859
 21
-12.8271170141
  0
LINE
  5
31F
100
AcDbEntity
  8
0
100
AcDbLine
 62
7
  6
CONTINUOUS
 10
-2.3405227936
 20
-13.6897877936
 11
-2.2916168982
 21
-13.6408817866
  0
LINE
  5
320
100
AcDbEntity
  8
0
100
AcDbLine
 62
7
  6
CONTINUOUS
 10
-2.2916168982
 20
-13.6408817866
 11
-1.9021167765
 21
-13.2513807765
  0
SPLINE
  5
321
100
AcDbEntity
  8
0
100
AcDbSpline
 62
7
  6
CONTINUOUS
 70
0
 71
3
 72
10
 73
6
 74
4
 42
0.0000001
 43
0.0000001
 44
0.0000000001
 12
0.4364392757
 22
0.3903631648
 32
0.0
 13
0.0
 23
0.5855447394
 33
0.0
 40
0.0
 40
0.0
 40
0.0
 40
0.0
 40
0.2511935471
 40
0.6259883347
 40
1.0
 40
1.0
 40
1.0
 40
1.0
 10
-1.3333333491
 20
-9.4342880292
 30
0.0
 10
-1.2967897725
 20
-9.4016024599
 30
0.0
 10
-1.2156057415
 20
-9.3087521007
 30
0.0
 10
-1.1266413318
 20
-9.132238915
 30
0.0
 10
-1.1
 20
-8.985539008
 30
0.0
 10
-1.1
 20
-8.9125388203
 30
0.0
 11
-1.3333333491
 21
-9.4342880292
 31
0.0
 11
-1.2357404911
 21
-9.324244179
 31
0.0
 11
-1.1365865247
 21
-9.1284616603
 31
0.0
 11
-1.1
 21
-8.9125388203
 31
0.0
  0
SPLINE
  5
322
100
AcDbEntity
  8
0
100
AcDbSpline
 62
7
  6
CONTINUOUS
 70
0
 71
3
 72
10
 73
6
 74
4
 42
0.0000001
 43
0.0000001
 44
0.0000000001
 12
0.0
 22
-0.5855437586
 32
0.0
 13
0.4364385449
 23
-0.3903625107
 33
0.0
 40
0.0
 40
0.0
 40
0.0
 40
0.0
 40
0.2509062644
 40
0.6257115414
 40
1.0
 40
1.0
 40
1.0
 40
1.0
 10
1.1
 20
-8.9125388203
 30
0.0
 10
1.1
 20
-8.9615110193
 30
0.0
 10
1.1150589988
 20
-9.0838676856
 30
0.0
 10
1.1872770697
 20
-9.2678681435
 30
0.0
 10
1.2788820434
 20
-9.3855852996
 30
0.0
 10
1.3333333468
 20
-9.4342880271
 30
0.0
 11
1.1
 21
-8.9125388203
 31
0.0
 11
1.1169216867
 21
-9.0584776535
 31
0.0
 11
1.1967040535
 21
-9.2629271879
 31
0.0
 11
1.3333333468
 21
-9.4342880271
 31
0.0
  0
LINE
  5
323
100
AcDbEntity
  8
0
100
AcDbLine
 62
7
  6
CONTINUOUS
 10
2.3263807661
 20
-12.8271167661
 11
2.7647877661
 21
-13.2655227661
  0
LINE
  5
324
100
AcDbEntity
  8
0
100
AcDbLine
 62
7
  6
CONTINUOUS
 10
2.3405227661
 20
-13.6897877661
 11
1.9021167661
 21
-13.2513807661
  0
LINE
  5
325
100
AcDbEntity
  8
0
100
AcDbLine
 62
7
  6
CONTINUOUS
 10
-1.9021167661
 20
-13.2513807661
 11
-2.3405227661
 21
-13.6897877661
  0
LINE
  5
326
100
AcDbEntity
  8
0
100
AcDbLine
 62
7
  6
CONTINUOUS
 10
-2.7647877661
 20
-13.2655227661
 11
-2.3263807661
 21
-12.8271167661
  0
LINE
  5
327
100
AcDbEntity
  8
0
100
AcDbLine
 62
7
  6
CONTINUOUS
 10
-2.9901596345
 20
-11.2250247279
 11
-3.610179703
 21
-11.2249730873
  0
LINE
  5
328
100
AcDbEntity
  8
0
100
AcDbLine
 62
7
  6
CONTINUOUS
 10
-3.60982803
 20
-10.6249736363
 11
-2.9898383003
 21
-10.6250242761
  0
LINE
  5
329
100
AcDbEntity
  8
0
100
AcDbLine
 62
7
  6
CONTINUOUS
 10
2.9898387625
 20
-10.6250242761
 11
3.6098229836
 21
-10.6249736367
  0
LINE
  5
32A
100
AcDbEntity
  8
0
100
AcDbLine
 62
7
  6
CONTINUOUS
 10
3.610179662
 20
-11.2249730873
 11
2.9901659324
 21
-11.2250247274
  0
SPLINE
  5
32B
100
AcDbEntity
  8
RACCORDO
100
AcDbSpline
 62
253
  6
CONTINUOUS
 70
0
 71
3
 72
21
 73
17
 74
15
 42
0.0000001
 43
0.0000001
 44
0.0000000001
 12
0.5092882247
 22
1.029766455
 32
0.0
 13
0.0014442248
 23
1.1488217276
 33
0.0
 40
0.0
 40
0.0
 40
0.0
 40
0.0
 40
0.0025180147
 40
0.0072873239
 40
0.0143192945
 40
0.02360685
 40
0.0488920223
 40
0.0829235478
 40
0.1254109579
 40
0.1759900663
 40
0.2342086352
 40
0.2995741338
 40
0.4493742288
 40
0.6201195451
 40
0.8058696729
 40
1.0
 40
1.0
 40
1.0
 40
1.0
 10
10.3787579832
 20
-21.9785866456
 30
0.0
 10
10.3791854482
 20
-21.9777223233
 30
0.0
 10
10.3796389567
 20
-21.9749120125
 30
0.0
 10
10.3803760997
 20
-21.9695166417
 30
0.0
 10
10.3810384257
 20
-21.9614466459
 30
0.0
 10
10.3821066235
 20
-21.9455613284
 30
0.0
 10
10.3833017479
 20
-21.9193068777
 30
0.0
 10
10.3846541033
 20
-21.8803492463
 30
0.0
 10
10.385957616
 20
-21.8316936913
 30
0.0
 10
10.3872146894
 20
-21.7737744943
 30
0.0
 10
10.3884054297
 20
-21.707090605
 30
0.0
 10
10.3899621431
 20
-21.6024121692
 30
0.0
 10
10.3916088731
 20
-21.4546397536
 30
0.0
 10
10.3931057968
 20
-21.2607640297
 30
0.0
 10
10.3941425742
 20
-21.0499092168
 30
0.0
 10
10.3944996418
 20
-20.9044377367
 30
0.0
 10
10.3945930977
 20
-20.8300973574
 30
0.0
 11
10.3787579832
 21
-21.9785866456
 31
0.0
 11
10.3794894968
 21
-21.9757879132
 31
0.0
 11
10.3802209315
 21
-21.9703578639
 31
0.0
 11
10.380950219
 21
-21.9623123625
 31
0.0
 11
10.3816752912
 21
-21.9516672736
 31
0.0
 11
10.3831047949
 21
-21.9226542906
 31
0.0
 11
10.3844959472
 21
-21.8835828622
 31
0.0
 11
10.3858368691
 21
-21.8347907861
 31
0.0
 11
10.3871165896
 21
-21.7766984553
 31
0.0
 11
10.3883252274
 21
-21.7098265671
 31
0.0
 11
10.389453014
 21
-21.634741672
 31
0.0
 11
10.3914277542
 21
-21.4626592623
 31
0.0
 11
10.3929736258
 21
-21.2665092696
 31
0.0
 11
10.3940411495
 21
-21.0531179884
 31
0.0
 11
10.3945930977
 21
-20.8300973574
 31
0.0
  0
SPLINE
  5
32C
100
AcDbEntity
  8
RACCORDO
100
AcDbSpline
 62
253
  6
CONTINUOUS
 70
0
 71
3
 72
21
 73
17
 74
15
 42
0.0000001
 43
0.0000001
 44
0.0000000001
 12
0.0014442233
 22
-1.1488217283
 32
0.0
 13
0.5092880171
 23
-1.0297665584
 33
0.0
 40
0.0
 40
0.0
 40
0.0
 40
0.0
 40
0.1941303269
 40
0.3798804547
 40
0.5506257709
 40
0.700425866
 40
0.7657913647
 40
0.8240099336
 40
0.8745890421
 40
0.9170764523
 40
0.9511079779
 40
0.9763931501
 40
0.9856807055
 40
0.9927126761
 40
0.9974819853
 40
1.0
 40
1.0
 40
1.0
 40
1.0
 10
-10.3945930925
 20
-20.8300973579
 30
0.0
 10
-10.3944996367
 20
-20.9044377371
 30
0.0
 10
-10.3941425697
 20
-21.0499092173
 30
0.0
 10
-10.3931057927
 20
-21.2607640302
 30
0.0
 10
-10.3916088696
 20
-21.4546397541
 30
0.0
 10
-10.3899621402
 20
-21.6024121699
 30
0.0
 10
-10.3884054273
 20
-21.7070906058
 30
0.0
 10
-10.3872146875
 20
-21.7737744952
 30
0.0
 10
-10.3859576147
 20
-21.8316936924
 30
0.0
 10
-10.3846541025
 20
-21.8803492475
 30
0.0
 10
-10.3833017475
 20
-21.9193068789
 30
0.0
 10
-10.3821066235
 20
-21.9455613297
 30
0.0
 10
-10.3810384261
 20
-21.9614466471
 30
0.0
 10
-10.3803761004
 20
-21.9695166429
 30
0.0
 10
-10.3796389577
 20
-21.9749120138
 30
0.0
 10
-10.3791854494
 20
-21.9777223246
 30
0.0
 10
-10.3787579845
 20
-21.978586647
 30
0.0
 11
-10.3945930925
 21
-20.8300973579
 31
0.0
 11
-10.394041145
 21
-21.0531179888
 31
0.0
 11
-10.3929736217
 21
-21.26650927
 31
0.0
 11
-10.3914277508
 21
-21.4626592628
 31
0.0
 11
-10.3894530112
 21
-21.6347416727
 31
0.0
 11
-10.3883252251
 21
-21.7098265679
 31
0.0
 11
-10.3871165878
 21
-21.7766984562
 31
0.0
 11
-10.3858368679
 21
-21.8347907871
 31
0.0
 11
-10.3844959464
 21
-21.8835828634
 31
0.0
 11
-10.3831047945
 21
-21.9226542919
 31
0.0
 11
-10.3816752913
 21
-21.9516672748
 31
0.0
 11
-10.3809502195
 21
-21.9623123638
 31
0.0
 11
-10.3802209323
 21
-21.9703578651
 31
0.0
 11
-10.3794894979
 21
-21.9757879144
 31
0.0
 11
-10.3787579845
 21
-21.978586647
 31
0.0
  0
SPLINE
  5
32D
100
AcDbEntity
  8
RACCORDO
100
AcDbSpline
 62
253
  6
CONTINUOUS
 70
0
 71
3
 72
21
 73
17
 74
15
 42
0.0000001
 43
0.0000001
 44
0.0000000001
 12
-0.0014442232
 22
1.148821729
 32
0.0
 13
-0.5092880165
 23
1.0297665595
 33
0.0
 40
0.0
 40
0.0
 40
0.0
 40
0.0
 40
0.1941303269
 40
0.3798804546
 40
0.5506257709
 40
0.7004258659
 40
0.7657913647
 40
0.8240099336
 40
0.874589042
 40
0.9170764522
 40
0.9511079779
 40
0.9763931501
 40
0.9856807055
 40
0.9927126761
 40
0.9974819853
 40
1.0
 40
1.0
 40
1.0
 40
1.0
 10
10.3945930925
 20
20.8300973571
 30
0.0
 10
10.3944996367
 20
20.9044377364
 30
0.0
 10
10.3941425697
 20
21.0499092166
 30
0.0
 10
10.3931057927
 20
21.2607640297
 30
0.0
 10
10.3916088696
 20
21.4546397538
 30
0.0
 10
10.3899621402
 20
21.6024121696
 30
0.0
 10
10.3884054273
 20
21.7070906056
 30
0.0
 10
10.3872146875
 20
21.773774495
 30
0.0
 10
10.3859576147
 20
21.8316936923
 30
0.0
 10
10.3846541025
 20
21.8803492474
 30
0.0
 10
10.3833017475
 20
21.9193068789
 30
0.0
 10
10.3821066235
 20
21.9455613297
 30
0.0
 10
10.3810384261
 20
21.9614466471
 30
0.0
 10
10.3803761004
 20
21.9695166429
 30
0.0
 10
10.3796389577
 20
21.9749120138
 30
0.0
 10
10.3791854494
 20
21.9777223246
 30
0.0
 10
10.3787579845
 20
21.978586647
 30
0.0
 11
10.3945930925
 21
20.8300973571
 31
0.0
 11
10.394041145
 21
21.0531179882
 31
0.0
 11
10.3929736217
 21
21.2665092695
 31
0.0
 11
10.3914277507
 21
21.4626592625
 31
0.0
 11
10.3894530112
 21
21.6347416724
 31
0.0
 11
10.3883252251
 21
21.7098265677
 31
0.0
 11
10.3871165878
 21
21.7766984561
 31
0.0
 11
10.3858368679
 21
21.834790787
 31
0.0
 11
10.3844959464
 21
21.8835828633
 31
0.0
 11
10.3831047945
 21
21.9226542919
 31
0.0
 11
10.3816752913
 21
21.9516672748
 31
0.0
 11
10.3809502195
 21
21.9623123637
 31
0.0
 11
10.3802209323
 21
21.9703578651
 31
0.0
 11
10.3794894979
 21
21.9757879144
 31
0.0
 11
10.3787579845
 21
21.978586647
 31
0.0
  0
SPLINE
  5
32E
100
AcDbEntity
  8
RACCORDO
100
AcDbSpline
 62
253
  6
CONTINUOUS
 70
0
 71
3
 72
21
 73
17
 74
15
 42
0.0000001
 43
0.0000001
 44
0.0000000001
 12
-0.5092882244
 22
-1.0297664559
 32
0.0
 13
-0.0014442248
 23
-1.1488217284
 33
0.0
 40
0.0
 40
0.0
 40
0.0
 40
0.0
 40
0.0025180147
 40
0.0072873239
 40
0.0143192945
 40
0.02360685
 40
0.0488920223
 40
0.0829235478
 40
0.1254109579
 40
0.1759900663
 40
0.2342086352
 40
0.2995741339
 40
0.4493742288
 40
0.6201195451
 40
0.805869673
 40
1.0
 40
1.0
 40
1.0
 40
1.0
 10
-10.3787579832
 20
21.9785866456
 30
0.0
 10
-10.3791854482
 20
21.9777223233
 30
0.0
 10
-10.3796389567
 20
21.9749120125
 30
0.0
 10
-10.3803760997
 20
21.9695166417
 30
0.0
 10
-10.3810384257
 20
21.9614466459
 30
0.0
 10
-10.3821066235
 20
21.9455613284
 30
0.0
 10
-10.3833017479
 20
21.9193068777
 30
0.0
 10
-10.3846541033
 20
21.8803492463
 30
0.0
 10
-10.385957616
 20
21.8316936912
 30
0.0
 10
-10.3872146894
 20
21.7737744941
 30
0.0
 10
-10.3884054297
 20
21.7070906048
 30
0.0
 10
-10.3899621431
 20
21.6024121689
 30
0.0
 10
-10.3916088731
 20
21.4546397532
 30
0.0
 10
-10.3931057968
 20
21.2607640292
 30
0.0
 10
-10.3941425742
 20
21.0499092162
 30
0.0
 10
-10.3944996418
 20
20.904437736
 30
0.0
 10
-10.3945930977
 20
20.8300973567
 30
0.0
 11
-10.3787579832
 21
21.9785866456
 31
0.0
 11
-10.3794894968
 21
21.9757879132
 31
0.0
 11
-10.3802209315
 21
21.9703578639
 31
0.0
 11
-10.380950219
 21
21.9623123625
 31
0.0
 11
-10.3816752912
 21
21.9516672735
 31
0.0
 11
-10.3831047949
 21
21.9226542906
 31
0.0
 11
-10.3844959472
 21
21.8835828621
 31
0.0
 11
-10.3858368691
 21
21.834790786
 31
0.0
 11
-10.3871165896
 21
21.7766984551
 31
0.0
 11
-10.3883252274
 21
21.7098265669
 31
0.0
 11
-10.3894530139
 21
21.6347416717
 31
0.0
 11
-10.3914277542
 21
21.462659262
 31
0.0
 11
-10.3929736258
 21
21.2665092691
 31
0.0
 11
-10.3940411495
 21
21.0531179878
 31
0.0
 11
-10.3945930977
 21
20.8300973567
 31
0.0
  0
SPLINE
  5
32F
100
AcDbEntity
  8
RACCORDO
100
AcDbSpline
 62
253
  6
CONTINUOUS
 70
0
 71
3
 72
19
 73
15
 74
13
 42
0.0000001
 43
0.0000001
 44
0.0000000001
 12
0.0007567078
 22
0.6707313451
 32
0.0
 13
0.4724844619
 23
0.4760667424
 33
0.0
 40
0.0
 40
0.0
 40
0.0
 40
0.0
 40
0.1942382553
 40
0.380029375
 40
0.5507240058
 40
0.7003850708
 40
0.7656594899
 40
0.8237826739
 40
0.8742740964
 40
0.9166951157
 40
0.9506932746
 40
0.9759919201
 40
0.9924056629
 40
1.0
 40
1.0
 40
1.0
 40
1.0
 10
10.8606788652
 20
20.8087575834
 30
0.0
 10
10.860727859
 20
20.8521848121
 30
0.0
 10
10.8610298312
 20
20.9371505824
 30
0.0
 10
10.8620987372
 20
21.0602760206
 30
0.0
 10
10.8637385
 20
21.1734273653
 30
0.0
 10
10.8655914484
 20
21.2596276443
 30
0.0
 10
10.8673694676
 20
21.3206502025
 30
0.0
 10
10.8687352662
 20
21.3595079131
 30
0.0
 10
10.870196232
 20
21.3932334723
 30
0.0
 10
10.8716827344
 20
21.4216019944
 30
0.0
 10
10.8733207253
 20
21.444200461
 30
0.0
 10
10.8746997421
 20
21.4612760291
 30
0.0
 10
10.8765836634
 20
21.4717717474
 30
0.0
 10
10.8773905783
 20
21.4775528474
 30
0.0
 10
10.878586647
 20
21.4787579845
 30
0.0
 11
10.8606788652
 21
20.8087575834
 31
0.0
 11
10.8611503463
 21
20.9390384994
 31
0.0
 11
10.8622537991
 21
21.0636496208
 31
0.0
 11
10.8639490071
 21
21.1781273822
 31
0.0
 11
10.86617476
 21
21.278485135
 31
0.0
 11
10.8674624025
 21
21.3222478225
 31
0.0
 11
10.8688517731
 21
21.3612081233
 31
0.0
 11
10.8703302716
 21
21.3950420357
 31
0.0
 11
10.8718847753
 21
21.4234526652
 31
0.0
 11
10.8735019667
 21
21.4461988941
 31
0.0
 11
10.8751683542
 21
21.4630854782
 31
0.0
 11
10.876869039
 21
21.4739625444
 31
0.0
 11
10.878586647
 21
21.4787579845
 31
0.0
  0
SPLINE
  5
330
100
AcDbEntity
  8
RACCORDO
100
AcDbSpline
 62
253
  6
CONTINUOUS
 70
0
 71
3
 72
19
 73
15
 74
13
 42
0.0000001
 43
0.0000001
 44
0.0000000001
 12
-0.4724845154
 22
0.4760666913
 32
0.0
 13
-0.0007567077
 23
0.6707313465
 33
0.0
 40
0.0
 40
0.0
 40
0.0
 40
0.0
 40
0.0075943369
 40
0.0240080799
 40
0.0493067253
 40
0.0833048835
 40
0.1257259022
 40
0.1762173243
 40
0.234340508
 40
0.2996149266
 40
0.4492759906
 40
0.6199706198
 40
0.8057617399
 40
1.0
 40
1.0
 40
1.0
 40
1.0
 10
10.8785866456
 20
-21.4787579832
 30
0.0
 10
10.8773905768
 20
-21.4775528462
 30
0.0
 10
10.8765836621
 20
-21.4717717459
 30
0.0
 10
10.8746997406
 20
-21.4612760279
 30
0.0
 10
10.8733207239
 20
-21.4442004597
 30
0.0
 10
10.871682733
 20
-21.4216019934
 30
0.0
 10
10.8701962306
 20
-21.3932334716
 30
0.0
 10
10.8687352648
 20
-21.3595079126
 30
0.0
 10
10.8673694662
 20
-21.3206502023
 30
0.0
 10
10.865591447
 20
-21.2596276443
 30
0.0
 10
10.8637384987
 20
-21.1734273659
 30
0.0
 10
10.8620987357
 20
-21.0602760214
 30
0.0
 10
10.8610298296
 20
-20.9371505821
 30
0.0
 10
10.8607278583
 20
-20.8521848105
 30
0.0
 10
10.8606788644
 20
-20.8087575806
 30
0.0
 11
10.8785866456
 21
-21.4787579832
 31
0.0
 11
10.8768690377
 21
-21.4739625431
 31
0.0
 11
10.8751683528
 21
-21.4630854768
 31
0.0
 11
10.8735019653
 21
-21.4461988928
 31
0.0
 11
10.8718847739
 21
-21.4234526642
 31
0.0
 11
10.8703302702
 21
-21.3950420351
 31
0.0
 11
10.8688517717
 21
-21.3612081228
 31
0.0
 11
10.8674624012
 21
-21.3222478222
 31
0.0
 11
10.8661747586
 21
-21.2784851349
 31
0.0
 11
10.8639490057
 21
-21.1781273826
 31
0.0
 11
10.8622537976
 21
-21.063649622
 31
0.0
 11
10.861150345
 21
-20.9390385001
 31
0.0
 11
10.8606788644
 21
-20.8087575806
 31
0.0
  0
SPLINE
  5
331
100
AcDbEntity
  8
RACCORDO
100
AcDbSpline
 62
253
  6
CONTINUOUS
 70
0
 71
3
 72
19
 73
15
 74
13
 42
0.0000001
 43
0.0000001
 44
0.0000000001
 12
-0.0007567078
 22
-0.6707313451
 32
0.0
 13
-0.4724844619
 23
-0.4760667424
 33
0.0
 40
0.0
 40
0.0
 40
0.0
 40
0.0
 40
0.1942382553
 40
0.380029375
 40
0.5507240058
 40
0.7003850708
 40
0.7656594899
 40
0.823782674
 40
0.8742740964
 40
0.9166951157
 40
0.9506932746
 40
0.9759919201
 40
0.9924056629
 40
1.0
 40
1.0
 40
1.0
 40
1.0
 10
-10.8606788652
 20
-20.8087575834
 30
0.0
 10
-10.860727859
 20
-20.8521848121
 30
0.0
 10
-10.8610298312
 20
-20.9371505824
 30
0.0
 10
-10.8620987372
 20
-21.0602760206
 30
0.0
 10
-10.8637385
 20
-21.1734273653
 30
0.0
 10
-10.8655914484
 20
-21.2596276443
 30
0.0
 10
-10.8673694676
 20
-21.3206502025
 30
0.0
 10
-10.8687352662
 20
-21.3595079131
 30
0.0
 10
-10.870196232
 20
-21.3932334723
 30
0.0
 10
-10.8716827344
 20
-21.4216019944
 30
0.0
 10
-10.8733207253
 20
-21.444200461
 30
0.0
 10
-10.874699742
 20
-21.4612760291
 30
0.0
 10
-10.8765836634
 20
-21.4717717474
 30
0.0
 10
-10.8773905783
 20
-21.4775528474
 30
0.0
 10
-10.878586647
 20
-21.4787579845
 30
0.0
 11
-10.8606788652
 21
-20.8087575834
 31
0.0
 11
-10.8611503463
 21
-20.9390384994
 31
0.0
 11
-10.8622537991
 21
-21.0636496208
 31
0.0
 11
-10.8639490071
 21
-21.1781273822
 31
0.0
 11
-10.86617476
 21
-21.278485135
 31
0.0
 11
-10.8674624025
 21
-21.3222478225
 31
0.0
 11
-10.8688517731
 21
-21.3612081233
 31
0.0
 11
-10.8703302716
 21
-21.3950420357
 31
0.0
 11
-10.8718847753
 21
-21.4234526652
 31
0.0
 11
-10.8735019667
 21
-21.4461988941
 31
0.0
 11
-10.8751683542
 21
-21.4630854782
 31
0.0
 11
-10.876869039
 21
-21.4739625444
 31
0.0
 11
-10.878586647
 21
-21.4787579845
 31
0.0
  0
SPLINE
  5
332
100
AcDbEntity
  8
RACCORDO
100
AcDbSpline
 62
253
  6
CONTINUOUS
 70
0
 71
3
 72
19
 73
15
 74
13
 42
0.0000001
 43
0.0000001
 44
0.0000000001
 12
0.4724845154
 22
-0.4760666913
 32
0.0
 13
0.0007567077
 23
-0.6707313465
 33
0.0
 40
0.0
 40
0.0
 40
0.0
 40
0.0
 40
0.0075943369
 40
0.0240080799
 40
0.0493067253
 40
0.0833048835
 40
0.1257259022
 40
0.1762173243
 40
0.234340508
 40
0.2996149266
 40
0.4492759906
 40
0.6199706198
 40
0.8057617399
 40
1.0
 40
1.0
 40
1.0
 40
1.0
 10
-10.8785866456
 20
21.4787579832
 30
0.0
 10
-10.8773905768
 20
21.4775528462
 30
0.0
 10
-10.8765836621
 20
21.4717717459
 30
0.0
 10
-10.8746997406
 20
21.4612760279
 30
0.0
 10
-10.8733207239
 20
21.4442004597
 30
0.0
 10
-10.871682733
 20
21.4216019934
 30
0.0
 10
-10.8701962306
 20
21.3932334716
 30
0.0
 10
-10.8687352648
 20
21.3595079126
 30
0.0
 10
-10.8673694662
 20
21.3206502023
 30
0.0
 10
-10.865591447
 20
21.2596276443
 30
0.0
 10
-10.8637384987
 20
21.1734273659
 30
0.0
 10
-10.8620987357
 20
21.0602760214
 30
0.0
 10
-10.8610298296
 20
20.9371505821
 30
0.0
 10
-10.8607278583
 20
20.8521848105
 30
0.0
 10
-10.8606788644
 20
20.8087575806
 30
0.0
 11
-10.8785866456
 21
21.4787579832
 31
0.0
 11
-10.8768690377
 21
21.4739625431
 31
0.0
 11
-10.8751683528
 21
21.4630854768
 31
0.0
 11
-10.8735019653
 21
21.4461988928
 31
0.0
 11
-10.8718847739
 21
21.4234526642
 31
0.0
 11
-10.8703302702
 21
21.3950420351
 31
0.0
 11
-10.8688517717
 21
21.3612081228
 31
0.0
 11
-10.8674624012
 21
21.3222478222
 31
0.0
 11
-10.8661747586
 21
21.2784851349
 31
0.0
 11
-10.8639490057
 21
21.1781273826
 31
0.0
 11
-10.8622537976
 21
21.063649622
 31
0.0
 11
-10.861150345
 21
20.9390385001
 31
0.0
 11
-10.8606788644
 21
20.8087575806
 31
0.0
  0
SPLINE
  5
333
100
AcDbEntity
  8
RACCORDO
100
AcDbSpline
 62
253
  6
CONTINUOUS
 70
0
 71
3
 72
18
 73
14
 74
12
 42
0.0000001
 43
0.0000001
 44
0.0000000001
 12
0.4674632459
 22
0.0018790562
 32
0.0
 13
0.2434628339
 23
0.3990629846
 33
0.0
 40
0.0
 40
0.0
 40
0.0
 40
0.0
 40
0.1943378524
 40
0.3803447224
 40
0.5507037639
 40
0.6998188143
 40
0.8227640197
 40
0.8731658117
 40
0.9155681027
 40
0.9495660468
 40
0.9749705113
 40
0.9917011984
 40
1.0
 40
1.0
 40
1.0
 40
1.0
 10
10.3945930836
 20
-20.8300973788
 30
0.0
 10
10.424875018
 20
-20.8299756549
 30
0.0
 10
10.4841401635
 20
-20.829502808
 30
0.0
 10
10.5699416229
 20
-20.82811817
 30
0.0
 10
10.6486835347
 20
-20.8260987304
 30
0.0
 10
10.7175730689
 20
-20.8235339895
 30
0.0
 10
10.7677618446
 20
-20.8208949522
 30
0.0
 10
10.8012821104
 20
-20.8184668546
 30
0.0
 10
10.8209892629
 20
-20.8167077619
 30
0.0
 10
10.8366800825
 20
-20.8148746724
 30
0.0
 10
10.848578198
 20
-20.8130910365
 30
0.0
 10
10.855902829
 20
-20.8112430685
 30
0.0
 10
10.8600053812
 20
-20.8098614954
 30
0.0
 10
10.8606788644
 20
-20.8087575806
 30
0.0
 11
10.3945930836
 21
-20.8300973788
 31
0.0
 11
10.4854366786
 21
-20.829366234
 31
0.0
 11
10.5723769774
 21
-20.827935062
 31
0.0
 11
10.6519869152
 21
-20.8258501589
 31
0.0
 11
10.7216423993
 21
-20.8231871976
 31
0.0
 11
10.7790286391
 21
-20.820033537
 31
0.0
 11
10.8025263341
 21
-20.8183051498
 31
0.0
 11
10.8222650801
 21
-20.8164939026
 31
0.0
 11
10.8380464757
 21
-20.8146144382
 31
0.0
 11
10.8497645121
 21
-20.8126854367
 31
0.0
 11
10.8573362786
 21
-20.8107265877
 31
0.0
 11
10.8606788644
 21
-20.8087575806
 31
0.0
  0
SPLINE
  5
334
100
AcDbEntity
  8
RACCORDO
100
AcDbSpline
 62
253
  6
CONTINUOUS
 70
0
 71
3
 72
18
 73
14
 74
12
 42
0.0000001
 43
0.0000001
 44
0.0000000001
 12
0.4674639429
 22
-0.0018790028
 32
0.0
 13
0.2435841548
 23
-0.3989897594
 33
0.0
 40
0.0
 40
0.0
 40
0.0
 40
0.0
 40
0.1943347861
 40
0.3803391683
 40
0.5506966731
 40
0.6998112628
 40
0.8227571128
 40
0.8731596077
 40
0.9155628311
 40
0.9495619138
 40
0.9749676911
 40
0.9916998175
 40
1.0
 40
1.0
 40
1.0
 40
1.0
 10
10.3945921873
 20
20.8300968077
 30
0.0
 10
10.4248736891
 20
20.8299750891
 30
0.0
 10
10.4841380574
 20
20.8295022617
 30
0.0
 10
10.5699385408
 20
20.8281176766
 30
0.0
 10
10.6486798718
 20
20.8260983091
 30
0.0
 10
10.7175693031
 20
20.8235336495
 30
0.0
 10
10.7677582905
 20
20.8208946896
 30
0.0
 10
10.8012789759
 20
20.818466658
 30
0.0
 10
10.8209865771
 20
20.8167076084
 30
0.0
 10
10.836678003
 20
20.8148745417
 30
0.0
 10
10.848576641
 20
20.8130909598
 30
0.0
 10
10.8559021543
 20
20.8112429391
 30
0.0
 10
10.8600049341
 20
20.8098614793
 30
0.0
 10
10.8606788651
 20
20.8087575834
 30
0.0
 11
10.3945921873
 21
20.8300968077
 31
0.0
 11
10.4854344845
 21
20.8293656939
 31
0.0
 11
10.5723737507
 21
20.8279345784
 31
0.0
 11
10.6519830907
 21
20.8258497514
 31
0.0
 11
10.7216384666
 21
20.8231868776
 31
0.0
 11
10.7790250989
 21
20.8200333072
 31
0.0
 11
10.8025231619
 21
20.8183049643
 31
0.0
 11
10.8222623792
 21
20.8164937599
 31
0.0
 11
10.8380443395
 21
20.814614336
 31
0.0
 11
10.849763022
 21
20.8126853725
 31
0.0
 11
10.8573355046
 21
20.8107265586
 31
0.0
 11
10.8606788651
 21
20.8087575834
 31
0.0
  0
SPLINE
  5
335
100
AcDbEntity
  8
RACCORDO
100
AcDbSpline
 62
253
  6
CONTINUOUS
 70
0
 71
3
 72
18
 73
14
 74
12
 42
0.0000001
 43
0.0000001
 44
0.0000000001
 12
-0.4674632459
 22
-0.0018790562
 32
0.0
 13
-0.243462836
 23
-0.3990629833
 33
0.0
 40
0.0
 40
0.0
 40
0.0
 40
0.0
 40
0.1943378524
 40
0.3803447223
 40
0.5507037638
 40
0.6998188142
 40
0.8227640196
 40
0.8731658116
 40
0.9155681026
 40
0.9495660467
 40
0.9749705112
 40
0.9917011984
 40
1.0
 40
1.0
 40
1.0
 40
1.0
 10
-10.3945930836
 20
20.8300973788
 30
0.0
 10
-10.424875018
 20
20.8299756549
 30
0.0
 10
-10.4841401635
 20
20.829502808
 30
0.0
 10
-10.5699416229
 20
20.82811817
 30
0.0
 10
-10.6486835346
 20
20.8260987304
 30
0.0
 10
-10.7175730688
 20
20.8235339895
 30
0.0
 10
-10.7677618446
 20
20.8208949522
 30
0.0
 10
-10.8012821104
 20
20.8184668546
 30
0.0
 10
-10.8209892629
 20
20.8167077619
 30
0.0
 10
-10.8366800825
 20
20.8148746724
 30
0.0
 10
-10.848578198
 20
20.8130910365
 30
0.0
 10
-10.8559028289
 20
20.8112430685
 30
0.0
 10
-10.8600053812
 20
20.8098614954
 30
0.0
 10
-10.8606788644
 20
20.8087575806
 30
0.0
 11
-10.3945930836
 21
20.8300973788
 31
0.0
 11
-10.4854366786
 21
20.829366234
 31
0.0
 11
-10.5723769774
 21
20.827935062
 31
0.0
 11
-10.6519869152
 21
20.8258501589
 31
0.0
 11
-10.7216423993
 21
20.8231871976
 31
0.0
 11
-10.779028639
 21
20.820033537
 31
0.0
 11
-10.8025263341
 21
20.8183051498
 31
0.0
 11
-10.8222650801
 21
20.8164939026
 31
0.0
 11
-10.8380464757
 21
20.8146144382
 31
0.0
 11
-10.8497645121
 21
20.8126854367
 31
0.0
 11
-10.8573362786
 21
20.8107265877
 31
0.0
 11
-10.8606788644
 21
20.8087575806
 31
0.0
  0
LINE
  5
336
100
AcDbEntity
  8
RACCORDO
100
AcDbLine
 62
253
  6
CONTINUOUS
 10
10.3945894185
 20
20.8314008262
 11
-10.3945894179
 21
20.8314008262
  0
LINE
  5
337
100
AcDbEntity
  8
RACCORDO
100
AcDbLine
 62
253
  6
CONTINUOUS
 10
-10.3945894184
 20
-20.8314008366
 11
10.3945894179
 21
-20.8314008366
  0
SPLINE
  5
338
100
AcDbEntity
  8
RACCORDO
100
AcDbSpline
 62
253
  6
CONTINUOUS
 70
0
 71
3
 72
18
 73
14
 74
12
 42
0.0000001
 43
0.0000001
 44
0.0000000001
 12
-0.4674639429
 22
0.0018790028
 32
0.0
 13
-0.2435841541
 23
0.3989897598
 33
0.0
 40
0.0
 40
0.0
 40
0.0
 40
0.0
 40
0.1943347861
 40
0.3803391683
 40
0.5506966732
 40
0.6998112628
 40
0.8227571129
 40
0.8731596077
 40
0.9155628311
 40
0.9495619138
 40
0.9749676911
 40
0.9916998175
 40
1.0
 40
1.0
 40
1.0
 40
1.0
 10
-10.3945921873
 20
-20.8300968077
 30
0.0
 10
-10.4248736891
 20
-20.8299750891
 30
0.0
 10
-10.4841380575
 20
-20.8295022617
 30
0.0
 10
-10.5699385408
 20
-20.8281176766
 30
0.0
 10
-10.6486798719
 20
-20.8260983091
 30
0.0
 10
-10.7175693031
 20
-20.8235336495
 30
0.0
 10
-10.7677582905
 20
-20.8208946896
 30
0.0
 10
-10.8012789759
 20
-20.8184666579
 30
0.0
 10
-10.8209865771
 20
-20.8167076083
 30
0.0
 10
-10.836678003
 20
-20.8148745417
 30
0.0
 10
-10.848576641
 20
-20.8130909597
 30
0.0
 10
-10.8559021543
 20
-20.8112429391
 30
0.0
 10
-10.8600049341
 20
-20.8098614793
 30
0.0
 10
-10.8606788651
 20
-20.8087575834
 30
0.0
 11
-10.3945921873
 21
-20.8300968077
 31
0.0
 11
-10.4854344845
 21
-20.8293656939
 31
0.0
 11
-10.5723737508
 21
-20.8279345784
 31
0.0
 11
-10.6519830908
 21
-20.8258497514
 31
0.0
 11
-10.7216384666
 21
-20.8231868775
 31
0.0
 11
-10.7790250989
 21
-20.8200333072
 31
0.0
 11
-10.8025231619
 21
-20.8183049643
 31
0.0
 11
-10.8222623792
 21
-20.8164937599
 31
0.0
 11
-10.8380443395
 21
-20.814614336
 31
0.0
 11
-10.849763022
 21
-20.8126853725
 31
0.0
 11
-10.8573355046
 21
-20.8107265586
 31
0.0
 11
-10.8606788651
 21
-20.8087575834
 31
0.0
  0
LINE
  5
339
100
AcDbEntity
  8
0
100
AcDbLine
 62
7
  6
CONTINUOUS
 10
-30.2225726825
 20
-10.6952845261
 11
-30.2220693381
 21
-10.7129969476
  0
LINE
  5
33A
100
AcDbEntity
  8
0
100
AcDbLine
 62
7
  6
CONTINUOUS
 10
-30.2220693381
 20
-10.7129969476
 11
-30.2190779341
 21
-10.8195233231
  0
LINE
  5
33B
100
AcDbEntity
  8
0
100
AcDbLine
 62
7
  6
CONTINUOUS
 10
-30.2190779341
 20
-10.8195233231
 11
-30.2161111547
 21
-10.9273761872
  0
LINE
  5
33C
100
AcDbEntity
  8
0
100
AcDbLine
 62
7
  6
CONTINUOUS
 10
-30.2161111547
 20
-10.9273761872
 11
-30.2158658612
 21
-10.9363944636
  0
LINE
  5
33D
100
AcDbEntity
  8
0
100
AcDbLine
 62
7
  6
CONTINUOUS
 10
-30.2158658612
 20
-10.9363944636
 11
-30.2132265058
 21
-11.0344445458
  0
LINE
  5
33E
100
AcDbEntity
  8
0
100
AcDbLine
 62
7
  6
CONTINUOUS
 10
-30.2132265058
 20
-11.0344445458
 11
-30.210427278
 21
-11.140562541
  0
LINE
  5
33F
100
AcDbEntity
  8
0
100
AcDbLine
 62
7
  6
CONTINUOUS
 10
-30.210427278
 20
-11.140562541
 11
-30.2077074402
 21
-11.2458997585
  0
LINE
  5
340
100
AcDbEntity
  8
0
100
AcDbLine
 62
7
  6
CONTINUOUS
 10
-30.2619109404
 20
-9.3709792239
 11
-30.258235781
 21
-9.513537596
  0
LINE
  5
341
100
AcDbEntity
  8
0
100
AcDbLine
 62
7
  6
CONTINUOUS
 10
-30.1397879052
 20
-13.2513807445
 11
-30.1374794684
 21
-13.2998974971
  0
LINE
  5
342
100
AcDbEntity
  8
0
100
AcDbLine
 62
7
  6
CONTINUOUS
 10
-30.1374794684
 20
-13.2998974971
 11
-30.135146024
 21
-13.3484630441
  0
LINE
  5
343
100
AcDbEntity
  8
0
100
AcDbLine
 62
7
  6
CONTINUOUS
 10
-30.1231028297
 20
-13.5920225652
 11
-30.1188155115
 21
-13.6760744728
  0
LINE
  5
344
100
AcDbEntity
  8
0
100
AcDbLine
 62
7
  6
CONTINUOUS
 10
-30.1188155115
 20
-13.6760744728
 11
-30.1181096645
 21
-13.6897877614
  0
LINE
  5
345
100
AcDbEntity
  8
0
100
AcDbLine
 62
7
  6
CONTINUOUS
 10
-30.1533378692
 20
-12.8271169777
 11
-30.1530921564
 21
-12.8412589898
  0
SPLINE
  5
346
100
AcDbEntity
  8
0
100
AcDbSpline
 62
7
  6
CONTINUOUS
 70
0
 71
3
 72
14
 73
10
 74
8
 42
0.0000001
 43
0.0000001
 44
0.0000000001
 12
0.0044923734
 22
-0.0953320203
 32
0.0
 13
0.0954026511
 23
0.0025903049
 33
0.0
 40
0.0
 40
0.0
 40
0.0
 40
0.0
 40
0.4229958227
 40
0.5950144846
 40
0.7382005029
 40
0.8511194241
 40
0.9325475804
 40
0.982041795
 40
1.0
 40
1.0
 40
1.0
 40
1.0
 10
-30.1881933303
 20
-11.130009115
 30
0.0
 10
-30.1875599119
 20
-11.1434507971
 30
0.0
 10
-30.1866095951
 20
-11.1623747244
 30
0.0
 10
-30.185165631
 20
-11.1857735226
 30
0.0
 10
-30.1842295214
 20
-11.1994486653
 30
0.0
 10
-30.1832694135
 20
-11.2099154857
 30
0.0
 10
-30.1825766541
 20
-11.2181656318
 30
0.0
 10
-30.1816231817
 20
-11.221889326
 30
0.0
 10
-30.1813288124
 20
-11.2250154485
 30
0.0
 10
-30.1807577256
 20
-11.2249999428
 30
0.0
 11
-30.1881933303
 21
-11.130009115
 31
0.0
 11
-30.1861008192
 21
-11.1703246422
 31
0.0
 11
-30.1850875958
 21
-11.1867104298
 31
0.0
 11
-30.18411067
 21
-11.2003408252
 31
0.0
 11
-30.1831800654
 21
-11.2110773042
 31
0.0
 11
-30.1823054686
 21
-11.218799258
 31
0.0
 11
-30.1814953096
 21
-11.2234528827
 31
0.0
 11
-30.1807577256
 21
-11.2249999428
 31
0.0
  0
LINE
  5
347
100
AcDbEntity
  8
0
100
AcDbLine
 62
7
  6
CONTINUOUS
 10
-30.1956555884
 20
-10.9149998491
 11
-30.1951156741
 21
-10.9349999742
  0
SPLINE
  5
348
100
AcDbEntity
  8
0
100
AcDbSpline
 62
7
  6
CONTINUOUS
 70
0
 71
3
 72
9
 73
5
 74
3
 42
0.0000001
 43
0.0000001
 44
0.0000000001
 12
-0.0007035683
 22
-0.058306155
 32
0.0
 13
0.0004196946
 23
-0.0583088893
 33
0.0
 40
0.0
 40
0.0
 40
0.0
 40
0.0
 40
0.2119153701
 40
1.0
 40
1.0
 40
1.0
 40
1.0
 10
-30.1992092052
 20
-10.6641256128
 30
0.0
 10
-30.1992589042
 20
-10.6682442696
 30
0.0
 10
-30.1994172059
 20
-10.6876805687
 30
0.0
 10
-30.1993476106
 20
-10.7071180397
 30
0.0
 10
-30.1992373589
 20
-10.7224354862
 30
0.0
 11
-30.1992092052
 21
-10.6641256128
 31
0.0
 11
-30.1993157629
 21
-10.6764820233
 31
0.0
 11
-30.1992373589
 21
-10.7224354862
 31
0.0
  0
LINE
  5
349
100
AcDbEntity
  8
0
100
AcDbLine
 62
7
  6
CONTINUOUS
 10
-30.1305931495
 20
-13.9150000263
 11
-30.1329246899
 21
-13.8483477594
  0
LINE
  5
34A
100
AcDbEntity
  8
0
100
AcDbLine
 62
7
  6
CONTINUOUS
 10
-30.1329246899
 20
-13.8483477594
 11
-30.13413407
 21
-13.8140352165
  0
LINE
  5
34B
100
AcDbEntity
  8
0
100
AcDbLine
 62
7
  6
CONTINUOUS
 10
-30.13413407
 20
-13.8140352165
 11
-30.135632382
 21
-13.7717722311
  0
LINE
  5
34C
100
AcDbEntity
  8
0
100
AcDbLine
 62
7
  6
CONTINUOUS
 10
-30.135632382
 20
-13.7717722311
 11
-30.1360062176
 21
-13.7612694153
  0
LINE
  5
34D
100
AcDbEntity
  8
0
100
AcDbLine
 62
7
  6
CONTINUOUS
 10
-30.1360062176
 20
-13.7612694153
 11
-30.1369772539
 21
-13.734067891
  0
LINE
  5
34E
100
AcDbEntity
  8
0
100
AcDbLine
 62
7
  6
CONTINUOUS
 10
-30.1369772539
 20
-13.734067891
 11
-30.1377341339
 21
-13.7129458948
  0
LINE
  5
34F
100
AcDbEntity
  8
0
100
AcDbLine
 62
7
  6
CONTINUOUS
 10
-30.1377341339
 20
-13.7129458948
 11
-30.138481434
 21
-13.6921608271
  0
LINE
  5
350
100
AcDbEntity
  8
0
100
AcDbLine
 62
7
  6
CONTINUOUS
 10
-30.138481434
 20
-13.6921608271
 11
-30.1388782346
 21
-13.6811533736
  0
LINE
  5
351
100
AcDbEntity
  8
0
100
AcDbLine
 62
7
  6
CONTINUOUS
 10
-30.1388782346
 20
-13.6811533736
 11
-30.140400025
 21
-13.6391553404
  0
LINE
  5
352
100
AcDbEntity
  8
0
100
AcDbLine
 62
7
  6
CONTINUOUS
 10
-30.140400025
 20
-13.6391553404
 11
-30.1408586374
 21
-13.6266174873
  0
LINE
  5
353
100
AcDbEntity
  8
0
100
AcDbLine
 62
7
  6
CONTINUOUS
 10
-30.1085328387
 20
-14.5350001725
 11
-30.1110314673
 21
-14.4661127665
  0
LINE
  5
354
100
AcDbEntity
  8
0
100
AcDbLine
 62
7
  6
CONTINUOUS
 10
-30.1110314673
 20
-14.4661127665
 11
-30.1281894861
 21
-13.9838904451
  0
LINE
  5
355
100
AcDbEntity
  8
0
100
AcDbLine
 62
7
  6
CONTINUOUS
 10
-30.1281894861
 20
-13.9838904451
 11
-30.1305931495
 21
-13.9150000263
  0
SPLINE
  5
356
100
AcDbEntity
  8
0
100
AcDbSpline
 62
7
  6
CONTINUOUS
 70
0
 71
3
 72
9
 73
5
 74
3
 42
0.0000001
 43
0.0000001
 44
0.0000000001
 12
-0.0068579715
 22
0.3438919472
 32
0.0
 13
-0.0173018703
 23
0.3435248876
 33
0.0
 40
0.0
 40
0.0
 40
0.0
 40
0.0
 40
0.2436364015
 40
1.0
 40
1.0
 40
1.0
 40
1.0
 10
-30.1112328299
 20
-13.6285313387
 30
0.0
 10
-30.1117897804
 20
-13.6006031398
 30
0.0
 10
-30.1146436454
 20
-13.4859854324
 30
0.0
 10
-30.1187260665
 20
-13.3713912479
 30
0.0
 10
-30.1230882347
 20
-13.2847813412
 30
0.0
 11
-30.1112328299
 21
-13.6285313387
 31
0.0
 11
-30.1132533167
 21
-13.5447544445
 31
0.0
 11
-30.1230882347
 21
-13.2847813412
 31
0.0
  0
LINE
  5
357
100
AcDbEntity
  8
0
100
AcDbLine
 62
7
  6
CONTINUOUS
 10
-30.1102587284
 20
-13.6897880247
 11
-30.1104434037
 21
-13.675645006
  0
LINE
  5
358
100
AcDbEntity
  8
0
100
AcDbLine
 62
7
  6
CONTINUOUS
 10
-30.1476427534
 20
-12.8089475936
 11
-30.1478615432
 21
-12.8048516925
  0
LINE
  5
359
100
AcDbEntity
  8
0
100
AcDbLine
 62
7
  6
CONTINUOUS
 10
-30.1486868412
 20
-12.7900760062
 11
-30.1488955825
 21
-12.7865191192
  0
LINE
  5
35A
100
AcDbEntity
  8
0
100
AcDbLine
 62
7
  6
CONTINUOUS
 10
-30.1495635015
 20
-12.7756827895
 11
-30.1497229293
 21
-12.7732290353
  0
LINE
  5
35B
100
AcDbEntity
  8
0
100
AcDbLine
 62
7
  6
CONTINUOUS
 10
-30.1505256115
 20
-12.7617709839
 11
-30.1519778592
 21
-12.7461198184
  0
LINE
  5
35C
100
AcDbEntity
  8
0
100
AcDbLine
 62
7
  6
CONTINUOUS
 10
-30.1520940263
 20
-12.7452721528
 11
-30.1526250787
 21
-12.7425794313
  0
LINE
  5
35D
100
AcDbEntity
  8
0
100
AcDbLine
 62
7
  6
CONTINUOUS
 10
-30.124088855
 20
-13.2655227906
 11
-30.1267034286
 21
-13.216612138
  0
LINE
  5
35E
100
AcDbEntity
  8
0
100
AcDbLine
 62
7
  6
CONTINUOUS
 10
-30.1443000441
 20
-12.8756296862
 11
-30.1467133721
 21
-12.82711678
  0
SPLINE
  5
35F
100
AcDbEntity
  8
0
100
AcDbSpline
 62
7
  6
CONTINUOUS
 70
0
 71
3
 72
12
 73
8
 74
6
 42
0.0000001
 43
0.0000001
 44
0.0000000001
 12
-0.0029161841
 22
0.0379459576
 32
0.0
 13
-0.0252340385
 23
0.0284633393
 33
0.0
 40
0.0
 40
0.0
 40
0.0
 40
0.0
 40
0.4949763484
 40
0.6970480226
 40
0.8486217864
 40
0.9494053454
 40
1.0
 40
1.0
 40
1.0
 40
1.0
 10
-30.1757874403
 20
-10.6627921306
 30
0.0
 10
-30.1762685877
 20
-10.6565313468
 30
0.0
 10
-30.1770090207
 20
-10.6477174906
 30
0.0
 10
-30.1782010644
 20
-10.6370444391
 30
0.0
 10
-30.1789525548
 20
-10.6312901186
 30
0.0
 10
-30.1797372919
 20
-10.6276056148
 30
0.0
 10
-30.1801994463
 20
-10.6256363431
 30
0.0
 10
-30.1806250155
 20
-10.6251563121
 30
0.0
 11
-30.1757874403
 21
-10.6627921306
 31
0.0
 11
-30.1774405187
 21
-10.6440376122
 31
0.0
 11
-30.1783007506
 21
-10.6363994211
 31
0.0
 11
-30.1791218147
 21
-10.6306925626
 31
0.0
 11
-30.1798983414
 21
-10.6269383879
 31
0.0
 11
-30.1806250155
 21
-10.6251563121
 31
0.0
  0
LINE
  5
360
100
AcDbEntity
  8
0
100
AcDbLine
 62
7
  6
CONTINUOUS
 10
-30.16422423
 20
-10.9350001556
 11
-30.1644019292
 21
-10.9283333687
  0
LINE
  5
361
100
AcDbEntity
  8
0
100
AcDbLine
 62
7
  6
CONTINUOUS
 10
-30.1644019292
 20
-10.9283333687
 11
-30.1645795181
 21
-10.9216666542
  0
LINE
  5
362
100
AcDbEntity
  8
0
100
AcDbLine
 62
7
  6
CONTINUOUS
 10
-30.1645795181
 20
-10.9216666542
 11
-30.1647569965
 21
-10.915000012
  0
SPLINE
  5
363
100
AcDbEntity
  8
0
100
AcDbSpline
 62
7
  6
CONTINUOUS
 70
0
 71
3
 72
11
 73
7
 74
5
 42
0.0000001
 43
0.0000001
 44
0.0000000001
 12
0.0260158166
 22
0.0293054706
 32
0.0
 13
0.0009026429
 23
0.0391767604
 33
0.0
 40
0.0
 40
0.0
 40
0.0
 40
0.0
 40
0.0879292922
 40
0.2851534517
 40
0.5904890951
 40
1.0
 40
1.0
 40
1.0
 40
1.0
 10
-30.164611179
 20
-11.2248640829
 30
0.0
 10
-30.1638486615
 20
-11.2240051465
 30
0.0
 10
-30.1636385491
 20
-11.2199343454
 30
0.0
 10
-30.1626153247
 20
-11.2125631751
 30
0.0
 10
-30.1622111203
 20
-11.2004972757
 30
0.0
 10
-30.1618843646
 20
-11.1912150987
 30
0.0
 10
-30.1617611505
 20
-11.1858673285
 30
0.0
 11
-30.164611179
 21
-11.2248640829
 31
0.0
 11
-30.1636920766
 21
-11.2215432257
 31
0.0
 11
-30.1629024833
 21
-11.2138550114
 31
0.0
 11
-30.1622554715
 21
-11.2019072816
 31
0.0
 11
-30.1617611505
 21
-11.1858673285
 31
0.0
  0
SPLINE
  5
364
100
AcDbEntity
  8
0
100
AcDbSpline
 62
7
  6
CONTINUOUS
 70
0
 71
3
 72
9
 73
5
 74
3
 42
0.0000001
 43
0.0000001
 44
0.0000000001
 12
0.0044151905
 22
0.1916293334
 32
0.0
 13
-0.0039257782
 23
0.1916399843
 33
0.0
 40
0.0
 40
0.0
 40
0.0
 40
0.0
 40
0.4233294249
 40
1.0
 40
1.0
 40
1.0
 40
1.0
 10
-30.1617611505
 20
-11.1858673285
 30
0.0
 10
-30.1611381238
 20
-11.15882655
 30
0.0
 10
-30.1611629669
 20
-11.0949221787
 30
0.0
 10
-30.1620726804
 20
-11.0310363716
 30
0.0
 10
-30.1628273073
 20
-10.9941986583
 30
0.0
 11
-30.1617611505
 21
-11.1858673285
 31
0.0
 11
-30.1613177331
 21
-11.1047246753
 31
0.0
 11
-30.1628273073
 21
-10.9941986583
 31
0.0
  0
LINE
  5
365
100
AcDbEntity
  8
0
100
AcDbLine
 62
7
  6
CONTINUOUS
 10
-30.1799701215
 20
-11.2250221715
 11
-30.1657903777
 21
-11.2249761356
  0
LINE
  5
366
100
AcDbEntity
  8
0
100
AcDbLine
 62
7
  6
CONTINUOUS
 10
-30.0982158788
 20
-14.825
 11
-30.0989209665
 21
-14.8046272548
  0
LINE
  5
367
100
AcDbEntity
  8
0
100
AcDbLine
 62
7
  6
CONTINUOUS
 10
-30.0989209665
 20
-14.8046272548
 11
-30.0993557417
 21
-14.7921741333
  0
LINE
  5
368
100
AcDbEntity
  8
0
100
AcDbLine
 62
7
  6
CONTINUOUS
 10
-30.0993557417
 20
-14.7921741333
 11
-30.0998709416
 21
-14.7774602455
  0
LINE
  5
369
100
AcDbEntity
  8
0
100
AcDbLine
 62
7
  6
CONTINUOUS
 10
-30.0998709416
 20
-14.7774602455
 11
-30.1006176785
 21
-14.7562032608
  0
LINE
  5
36A
100
AcDbEntity
  8
0
100
AcDbLine
 62
7
  6
CONTINUOUS
 10
-30.1006176785
 20
-14.7562032608
 11
-30.1013473085
 21
-14.7355047933
  0
LINE
  5
36B
100
AcDbEntity
  8
0
100
AcDbLine
 62
7
  6
CONTINUOUS
 10
-30.1013473085
 20
-14.7355047933
 11
-30.1021130099
 21
-14.7138546285
  0
LINE
  5
36C
100
AcDbEntity
  8
0
100
AcDbLine
 62
7
  6
CONTINUOUS
 10
-30.1021130099
 20
-14.7138546285
 11
-30.1085328387
 21
-14.5350001725
  0
SPLINE
  5
36D
100
AcDbEntity
  8
0
100
AcDbSpline
 62
7
  6
CONTINUOUS
 70
0
 71
3
 72
11
 73
7
 74
5
 42
0.0000001
 43
0.0000001
 44
0.0000000001
 12
-0.0057363529
 22
0.2622334792
 32
0.0
 13
-0.024757338
 23
0.2611252143
 33
0.0
 40
0.0
 40
0.0
 40
0.0
 40
0.0
 40
0.3678522461
 40
0.6806629761
 40
0.9006008406
 40
1.0
 40
1.0
 40
1.0
 40
1.0
 10
-30.2792006636
 20
-8.4383531895
 30
0.0
 10
-30.2799040404
 20
-8.406198798
 30
0.0
 10
-30.2813352863
 20
-8.3467075241
 30
0.0
 10
-30.2832158856
 20
-8.2679766211
 30
0.0
 10
-30.2852909648
 20
-8.2127670207
 30
0.0
 10
-30.2858543507
 20
-8.1848214426
 30
0.0
 10
-30.2866746369
 20
-8.176169567
 30
0.0
 11
-30.2792006636
 21
-8.4383531895
 31
0.0
 11
-30.2814481284
 21
-8.3418931172
 31
0.0
 11
-30.2836292005
 21
-8.2598730416
 31
0.0
 11
-30.2854566462
 21
-8.2022131245
 31
0.0
 11
-30.2866746369
 21
-8.176169567
 31
0.0
  0
LINE
  5
36E
100
AcDbEntity
  8
0
100
AcDbLine
 62
7
  6
CONTINUOUS
 10
-30.2689227826
 20
-8.9125389309
 11
-30.2700258018
 21
-8.8628126423
  0
LINE
  5
36F
100
AcDbEntity
  8
0
100
AcDbLine
 62
7
  6
CONTINUOUS
 10
-30.2700258018
 20
-8.8628126423
 11
-30.2775740905
 21
-8.5147268178
  0
LINE
  5
370
100
AcDbEntity
  8
0
100
AcDbLine
 62
7
  6
CONTINUOUS
 10
-30.2775740905
 20
-8.5147268178
 11
-30.2786277259
 21
-8.464999987
  0
LINE
  5
371
100
AcDbEntity
  8
0
100
AcDbLine
 62
7
  6
CONTINUOUS
 10
-30.2609837938
 20
-9.2313129579
 11
-30.2612802748
 21
-9.2206011069
  0
LINE
  5
372
100
AcDbEntity
  8
0
100
AcDbLine
 62
7
  6
CONTINUOUS
 10
-30.2612802748
 20
-9.2206011069
 11
-30.2625545382
 21
-9.1735529372
  0
LINE
  5
373
100
AcDbEntity
  8
0
100
AcDbLine
 62
7
  6
CONTINUOUS
 10
-30.2625545382
 20
-9.1735529372
 11
-30.2628538129
 21
-9.1622670195
  0
SPLINE
  5
374
100
AcDbEntity
  8
0
100
AcDbSpline
 62
7
  6
CONTINUOUS
 70
0
 71
3
 72
9
 73
5
 74
3
 42
0.0000001
 43
0.0000001
 44
0.0000000001
 12
0.0035066509
 22
-0.000184155
 32
0.0
 13
0.0003208311
 23
0.0034967958
 33
0.0
 40
0.0
 40
0.0
 40
0.0
 40
0.0
 40
0.2644687082
 40
1.0
 40
1.0
 40
1.0
 40
1.0
 10
-30.1114615038
 20
-13.7747136147
 30
0.0
 10
-30.1111523706
 20
-13.7747298491
 30
0.0
 10
-30.11098004
 20
-13.7729948399
 30
0.0
 10
-30.1107953637
 20
-13.7721735386
 30
0.0
 10
-30.1107167032
 20
-13.7713162044
 30
0.0
 11
-30.1114615038
 21
-13.7747136147
 31
0.0
 11
-30.111060355
 21
-13.7738760459
 31
0.0
 11
-30.1107167032
 21
-13.7713162044
 31
0.0
  0
LINE
  5
375
100
AcDbEntity
  8
0
100
AcDbLine
 62
7
  6
CONTINUOUS
 10
-30.110636106
 20
-13.7703551298
 11
-30.1103186949
 21
-13.7643834975
  0
LINE
  5
376
100
AcDbEntity
  8
0
100
AcDbLine
 62
7
  6
CONTINUOUS
 10
-30.1103186949
 20
-13.7643834975
 11
-30.1100777004
 21
-13.7550995663
  0
LINE
  5
377
100
AcDbEntity
  8
0
100
AcDbLine
 62
7
  6
CONTINUOUS
 10
-30.109949223
 20
-13.7432362523
 11
-30.1099359995
 21
-13.7403675411
  0
LINE
  5
378
100
AcDbEntity
  8
0
100
AcDbLine
 62
7
  6
CONTINUOUS
 10
-30.1099280621
 20
-13.7299403834
 11
-30.1099371749
 21
-13.7263713261
  0
LINE
  5
379
100
AcDbEntity
  8
0
100
AcDbLine
 62
7
  6
CONTINUOUS
 10
-30.1100200491
 20
-13.7120325172
 11
-30.1100602301
 21
-13.7073817192
  0
LINE
  5
37A
100
AcDbEntity
  8
0
100
AcDbLine
 62
7
  6
CONTINUOUS
 10
-30.1641651668
 20
-12.9249997929
 11
-30.1644598773
 21
-12.907828195
  0
LINE
  5
37B
100
AcDbEntity
  8
0
100
AcDbLine
 62
7
  6
CONTINUOUS
 10
-30.1644598773
 20
-12.907828195
 11
-30.1656520341
 21
-12.8391727697
  0
LINE
  5
37C
100
AcDbEntity
  8
0
100
AcDbLine
 62
7
  6
CONTINUOUS
 10
-30.1656520341
 20
-12.8391727697
 11
-30.1664974424
 21
-12.7912434128
  0
LINE
  5
37D
100
AcDbEntity
  8
0
100
AcDbLine
 62
7
  6
CONTINUOUS
 10
-30.1664974424
 20
-12.7912434128
 11
-30.1675284599
 21
-12.7336062326
  0
LINE
  5
37E
100
AcDbEntity
  8
0
100
AcDbLine
 62
7
  6
CONTINUOUS
 10
-30.1735106142
 20
-12.415165316
 11
-30.173592555
 21
-12.4109768079
  0
LINE
  5
37F
100
AcDbEntity
  8
0
100
AcDbLine
 62
7
  6
CONTINUOUS
 10
-30.1987995728
 20
-11.2845533881
 11
-30.2002851161
 21
-11.2260773229
  0
LINE
  5
380
100
AcDbEntity
  8
0
100
AcDbLine
 62
7
  6
CONTINUOUS
 10
-30.2002851161
 20
-11.2260773229
 11
-30.2024875607
 21
-11.1406550253
  0
LINE
  5
381
100
AcDbEntity
  8
0
100
AcDbLine
 62
7
  6
CONTINUOUS
 10
-30.2024875607
 20
-11.1406550253
 11
-30.2063079574
 21
-10.9959132946
  0
LINE
  5
382
100
AcDbEntity
  8
0
100
AcDbLine
 62
7
  6
CONTINUOUS
 10
-30.2063079574
 20
-10.9959132946
 11
-30.2079165363
 21
-10.936193605
  0
LINE
  5
383
100
AcDbEntity
  8
0
100
AcDbLine
 62
7
  6
CONTINUOUS
 10
-30.2079165363
 20
-10.936193605
 11
-30.208459845
 21
-10.9161780954
  0
LINE
  5
384
100
AcDbEntity
  8
0
100
AcDbLine
 62
7
  6
CONTINUOUS
 10
-30.208459845
 20
-10.9161780954
 11
-30.2102775017
 21
-10.8497683886
  0
LINE
  5
385
100
AcDbEntity
  8
0
100
AcDbLine
 62
7
  6
CONTINUOUS
 10
-30.2102775017
 20
-10.8497683886
 11
-30.2143831397
 21
-10.7027755534
  0
LINE
  5
386
100
AcDbEntity
  8
0
100
AcDbLine
 62
7
  6
CONTINUOUS
 10
-30.2143831397
 20
-10.7027755534
 11
-30.2165912538
 21
-10.6253791966
  0
LINE
  5
387
100
AcDbEntity
  8
0
100
AcDbLine
 62
7
  6
CONTINUOUS
 10
-30.2165912538
 20
-10.6253791966
 11
-30.2185381195
 21
-10.5580733359
  0
LINE
  5
388
100
AcDbEntity
  8
0
100
AcDbLine
 62
7
  6
CONTINUOUS
 10
-30.2394980583
 20
-9.8811449958
 11
-30.2471588129
 21
-9.6522332576
  0
LINE
  5
389
100
AcDbEntity
  8
0
100
AcDbLine
 62
7
  6
CONTINUOUS
 10
-30.2471588129
 20
-9.6522332576
 11
-30.25472714
 21
-9.4342847658
  0
LINE
  5
38A
100
AcDbEntity
  8
0
100
AcDbLine
 62
7
  6
CONTINUOUS
 10
-30.2395117571
 20
-9.8807276706
 11
-30.2386970773
 21
-9.9055974453
  0
LINE
  5
38B
100
AcDbEntity
  8
0
100
AcDbLine
 62
7
  6
CONTINUOUS
 10
-30.2167175363
 20
-10.6209872021
 11
-30.2165746611
 21
-10.6259565507
  0
LINE
  5
38C
100
AcDbEntity
  8
0
100
AcDbLine
 62
7
  6
CONTINUOUS
 10
-30.2165746611
 20
-10.6259565507
 11
-30.2084592905
 21
-10.9161984862
  0
LINE
  5
38D
100
AcDbEntity
  8
0
100
AcDbLine
 62
7
  6
CONTINUOUS
 10
-30.2084592905
 20
-10.9161984862
 11
-30.2081721461
 21
-10.9267673157
  0
LINE
  5
38E
100
AcDbEntity
  8
0
100
AcDbLine
 62
7
  6
CONTINUOUS
 10
-30.2081721461
 20
-10.9267673157
 11
-30.2079171666
 21
-10.9361703414
  0
LINE
  5
38F
100
AcDbEntity
  8
0
100
AcDbLine
 62
7
  6
CONTINUOUS
 10
-30.2079171666
 20
-10.9361703414
 11
-30.2002889277
 21
-11.2259281867
  0
LINE
  5
390
100
AcDbEntity
  8
0
100
AcDbLine
 62
7
  6
CONTINUOUS
 10
-30.1756223328
 20
-12.3085777652
 11
-30.1735106141
 21
-12.415165316
  0
LINE
  5
391
100
AcDbEntity
  8
0
100
AcDbLine
 62
7
  6
CONTINUOUS
 10
-30.1735106141
 20
-12.415165316
 11
-30.1672578418
 21
-12.7486495042
  0
LINE
  5
392
100
AcDbEntity
  8
0
100
AcDbLine
 62
7
  6
CONTINUOUS
 10
-30.166498931
 20
-12.7912434394
 11
-30.1662363183
 21
-12.8059826021
  0
LINE
  5
393
100
AcDbEntity
  8
0
100
AcDbLine
 62
7
  6
CONTINUOUS
 10
-30.1656530933
 20
-12.8391727883
 11
-30.1654159199
 21
-12.8526698619
  0
LINE
  5
394
100
AcDbEntity
  8
0
100
AcDbLine
 62
7
  6
CONTINUOUS
 10
-30.1654159199
 20
-12.8526698619
 11
-30.164797961
 21
-12.888227308
  0
LINE
  5
395
100
AcDbEntity
  8
0
100
AcDbLine
 62
7
  6
CONTINUOUS
 10
-30.164797961
 20
-12.888227308
 11
-30.1641905608
 21
-12.9235158742
  0
SPLINE
  5
396
100
AcDbEntity
  8
0
100
AcDbSpline
 62
7
  6
CONTINUOUS
 70
0
 71
3
 72
9
 73
5
 74
3
 42
0.0000001
 43
0.0000001
 44
0.0000000001
 12
0.0116071916
 22
-0.5218146421
 32
0.0
 13
0.0184341166
 23
-0.5216180891
 33
0.0
 40
0.0
 40
0.0
 40
0.0
 40
0.0
 40
0.2796833124
 40
1.0
 40
1.0
 40
1.0
 40
1.0
 10
-30.268922785
 20
-8.9125388203
 30
0.0
 10
-30.2678406725
 20
-8.9611864361
 30
0.0
 10
-30.2637198235
 20
-9.1351182284
 30
0.0
 10
-30.2591531554
 20
-9.3090446223
 30
0.0
 10
-30.2547270214
 20
-9.4342880271
 30
0.0
 11
-30.268922785
 21
-8.9125388203
 31
0.0
 11
-30.2655007339
 21
-9.0584776535
 31
0.0
 11
-30.2547270214
 21
-9.4342880271
 31
0.0
  0
LINE
  5
397
100
AcDbEntity
  8
0
100
AcDbLine
 62
7
  6
CONTINUOUS
 10
-30.2786277256
 20
-8.465
 11
-30.268922785
 21
-8.9125388203
  0
SPLINE
  5
398
100
AcDbEntity
  8
0
100
AcDbSpline
 62
7
  6
CONTINUOUS
 70
0
 71
3
 72
21
 73
17
 74
15
 42
0.0000001
 43
0.0000001
 44
0.0000000001
 12
0.2901389779
 22
0.0007734842
 32
0.0
 13
0.0061282422
 23
-0.2900752824
 33
0.0
 40
0.0
 40
0.0
 40
0.0
 40
0.0
 40
0.0012498472
 40
0.004868477
 40
0.0108635229
 40
0.019224306
 40
0.0429913103
 40
0.0760376846
 40
0.1180463576
 40
0.168617726
 40
0.2273376324
 40
0.2935830701
 40
0.445511363
 40
0.6181541172
 40
0.8053172122
 40
1.0
 40
1.0
 40
1.0
 40
1.0
 10
-30.2868699084
 20
-8.175
 30
0.0
 10
-30.2867490319
 20
-8.1749996778
 30
0.0
 10
-30.2868110389
 20
-8.1757265631
 30
0.0
 10
-30.2865779156
 20
-8.1765249068
 30
0.0
 10
-30.2865264458
 20
-8.1783976797
 30
0.0
 10
-30.2862658624
 20
-8.1819945209
 30
0.0
 10
-30.2860052598
 20
-8.1883530707
 30
0.0
 10
-30.2856056108
 20
-8.1978731177
 30
0.0
 10
-30.2851750521
 20
-8.2100264431
 30
0.0
 10
-30.2846878451
 20
-8.224647101
 30
0.0
 10
-30.2841618707
 20
-8.241617025
 30
0.0
 10
-30.283375069
 20
-8.2683842385
 30
0.0
 10
-30.2823440861
 20
-8.3061676952
 30
0.0
 10
-30.2810945351
 20
-8.3556433424
 30
0.0
 10
-30.2798344635
 20
-8.4092550433
 30
0.0
 10
-30.2790254134
 20
-8.4461757785
 30
0.0
 10
-30.2786277256
 20
-8.465
 30
0.0
 11
-30.2868699084
 21
-8.175
 31
0.0
 11
-30.2867698969
 21
-8.1753485667
 31
0.0
 11
-30.2866542405
 21
-8.1763920863
 31
0.0
 11
-30.2865232763
 21
-8.1781265516
 31
0.0
 11
-30.2863773418
 21
-8.1805479557
 31
0.0
 11
-30.2860419108
 21
-8.1874355515
 31
0.0
 11
-30.2856508305
 21
-8.1970156478
 31
0.0
 11
-30.2852083477
 21
-8.20919601
 31
0.0
 11
-30.2847193207
 21
-8.2238606357
 31
0.0
 11
-30.2841886926
 21
-8.2408893644
 31
0.0
 11
-30.2836226329
 21
-8.2601014791
 31
0.0
 11
-30.2824126861
 21
-8.3041653465
 31
0.0
 11
-30.2811440156
 21
-8.354239848
 31
0.0
 11
-30.2798656528
 21
-8.408528301
 31
0.0
 11
-30.2786277256
 21
-8.465
 31
0.0
  0
SPLINE
  5
399
100
AcDbEntity
  8
0
100
AcDbSpline
 62
7
  6
CONTINUOUS
 70
0
 71
3
 72
9
 73
5
 74
3
 42
0.0000001
 43
0.0000001
 44
0.0000000001
 12
0.0219995385
 22
-0.4097739086
 32
0.0
 13
0.0053271444
 23
-0.4103294498
 33
0.0
 40
0.0
 40
0.0
 40
0.0
 40
0.0
 40
0.5003286777
 40
1.0
 40
1.0
 40
1.0
 40
1.0
 10
-30.1240888563
 20
-13.2655227661
 30
0.0
 10
-30.1204198563
 20
-13.3338633121
 30
0.0
 10
-30.1151644015
 20
-13.4705590179
 30
0.0
 10
-30.1113306775
 20
-13.6073017137
 30
0.0
 10
-30.1104434037
 20
-13.675645
 30
0.0
 11
-30.1240888563
 21
-13.2655227661
 31
0.0
 11
-30.1155168469
 21
-13.4706606385
 31
0.0
 11
-30.1104434037
 21
-13.675645
 31
0.0
  0
LINE
  5
39A
100
AcDbEntity
  8
0
100
AcDbLine
 62
7
  6
CONTINUOUS
 10
-30.1248898045
 20
-13.2505843091
 11
-30.1240888563
 21
-13.2655227661
  0
SPLINE
  5
39B
100
AcDbEntity
  8
0
100
AcDbSpline
 62
7
  6
CONTINUOUS
 70
0
 71
3
 72
11
 73
7
 74
5
 42
0.0000001
 43
0.0000001
 44
0.0000000001
 12
0.0004265292
 22
-0.0592748333
 32
0.0
 13
-0.0150455699
 23
-0.0573351429
 33
0.0
 40
0.0
 40
0.0
 40
0.0
 40
0.0
 40
0.3937812128
 40
0.6959180573
 40
0.8996678232
 40
1.0
 40
1.0
 40
1.0
 40
1.0
 10
-30.1099985051
 20
-13.7148646455
 30
0.0
 10
-30.1099425187
 20
-13.722645084
 30
0.0
 10
-30.1099152797
 20
-13.7363872448
 30
0.0
 10
-30.1099520527
 20
-13.7541913122
 30
0.0
 10
-30.1104471547
 20
-13.7661105714
 30
0.0
 10
-30.1106110374
 20
-13.7721836093
 30
0.0
 10
-30.1111142223
 20
-13.7741011292
 30
0.0
 11
-30.1099985051
 21
-13.7148646455
 31
0.0
 11
-30.1099295215
 21
-13.7382064636
 31
0.0
 11
-30.110096072
 21
-13.7561152639
 31
0.0
 11
-30.1104936956
 21
-13.7681862628
 31
0.0
 11
-30.1111142223
 21
-13.7741011292
 31
0.0
  0
LINE
  5
39C
100
AcDbEntity
  8
0
100
AcDbLine
 62
7
  6
CONTINUOUS
 10
-30.1085328829
 20
-14.5349989562
 11
-30.0982158788
 21
-14.825
  0
LINE
  5
39D
100
AcDbEntity
  8
0
100
AcDbLine
 62
7
  6
CONTINUOUS
 10
-30.130593204
 20
-13.9149984582
 11
-30.1085328829
 21
-14.5349989562
  0
LINE
  5
39E
100
AcDbEntity
  8
0
100
AcDbLine
 62
7
  6
CONTINUOUS
 10
-30.1409196187
 20
-13.625
 11
-30.1388772932
 21
-13.6811794636
  0
LINE
  5
39F
100
AcDbEntity
  8
0
100
AcDbLine
 62
7
  6
CONTINUOUS
 10
-30.1388772932
 20
-13.6811794636
 11
-30.1373903745
 21
-13.7225303513
  0
LINE
  5
3A0
100
AcDbEntity
  8
0
100
AcDbLine
 62
7
  6
CONTINUOUS
 10
-30.1373903745
 20
-13.7225303513
 11
-30.1356310232
 21
-13.7718104374
  0
LINE
  5
3A1
100
AcDbEntity
  8
0
100
AcDbLine
 62
7
  6
CONTINUOUS
 10
-30.1356310232
 20
-13.7718104374
 11
-30.130593204
 21
-13.9149984582
  0
SPLINE
  5
3A2
100
AcDbEntity
  8
0
100
AcDbSpline
 62
7
  6
CONTINUOUS
 70
0
 71
3
 72
9
 73
5
 74
3
 42
0.0000001
 43
0.0000001
 44
0.0000000001
 12
0.0195870618
 22
-0.2516992819
 32
0.0
 13
0.0067166112
 23
-0.252370895
 33
0.0
 40
0.0
 40
0.0
 40
0.0
 40
0.0
 40
0.4229380728
 40
1.0
 40
1.0
 40
1.0
 40
1.0
 10
-30.1757892781
 20
-10.6627922718
 30
0.0
 10
-30.1730279067
 20
-10.6982766749
 30
0.0
 10
-30.1689620848
 20
-10.7823529216
 30
0.0
 10
-30.1660490435
 20
-10.8664524585
 30
0.0
 10
-30.1647570766
 20
-10.9149970035
 30
0.0
 11
-30.1757892781
 21
-10.6627922718
 31
0.0
 11
-30.1697949304
 21
-10.7693989325
 31
0.0
 11
-30.1647570766
 21
-10.9149970035
 31
0.0
  0
LINE
  5
3A3
100
AcDbEntity
  8
0
100
AcDbLine
 62
7
  6
CONTINUOUS
 10
-30.196144286
 20
-10.6250218304
 11
-30.1818795017
 21
-10.6249767236
  0
LINE
  5
3A4
100
AcDbEntity
  8
0
100
AcDbLine
 62
7
  6
CONTINUOUS
 10
-30.1648514563
 20
-11.2249730873
 11
-30.1807573996
 21
-11.2250247274
  0
SPLINE
  5
3A5
100
AcDbEntity
  8
0
100
AcDbSpline
 62
7
  6
CONTINUOUS
 70
0
 71
3
 72
18
 73
14
 74
12
 42
0.0000001
 43
0.0000001
 44
0.0000000001
 12
0.0061346043
 22
-0.2602736259
 32
0.0
 13
-0.2602810121
 23
-0.0058127834
 33
0.0
 40
0.0
 40
0.0
 40
0.0
 40
0.0
 40
0.1997836157
 40
0.3894645096
 40
0.5625325363
 40
0.7128307994
 40
0.8349790577
 40
0.8841490717
 40
0.9249440413
 40
0.9570644389
 40
0.980288872
 40
0.9945195436
 40
1.0
 40
1.0
 40
1.0
 40
1.0
 10
-30.1634713413
 20
-10.9649758674
 30
0.0
 10
-30.1630628102
 20
-10.9823086694
 30
0.0
 10
-30.1623560544
 20
-11.0161001571
 30
0.0
 10
-30.1616184725
 20
-11.0649118296
 30
0.0
 10
-30.1612360599
 20
-11.1094361234
 30
0.0
 10
-30.1612229714
 20
-11.1480924112
 30
0.0
 10
-30.1615099111
 20
-11.1760188289
 30
0.0
 10
-30.1619657214
 20
-11.1943955853
 30
0.0
 10
-30.1623570282
 20
-11.2050385557
 30
0.0
 10
-30.1628351315
 20
-11.2132245447
 30
0.0
 10
-30.1633338202
 20
-11.2195748399
 30
0.0
 10
-30.163924367
 20
-11.2226578202
 30
0.0
 10
-30.1643752324
 20
-11.2249893248
 30
0.0
 10
-30.1648507186
 20
-11.2249999437
 30
0.0
 11
-30.1634713413
 21
-10.9649758674
 31
0.0
 11
-30.1623893218
 21
-11.0169774591
 31
0.0
 11
-30.1616528089
 21
-11.0663546117
 31
0.0
 11
-30.1612854087
 21
-11.111410667
 31
0.0
 11
-30.1612985542
 21
-11.1505402031
 31
0.0
 11
-30.1616844693
 21
-11.182338661
 31
0.0
 11
-30.1620121049
 21
-11.1951356797
 31
0.0
 11
-30.1624251806
 21
-11.2057484473
 31
0.0
 11
-30.162920282
 21
-11.2140961923
 31
0.0
 11
-30.1634931355
 21
-11.2201153803
 31
0.0
 11
-30.1641384123
 21
-11.2237636513
 31
0.0
 11
-30.1648507186
 21
-11.2249999437
 31
0.0
  0
LINE
  5
3A6
100
AcDbEntity
  8
0
100
AcDbLine
 62
7
  6
CONTINUOUS
 10
-30.1647570766
 20
-10.9149970035
 11
-30.1642242516
 21
-10.9349993468
  0
SPLINE
  5
3A7
100
AcDbEntity
  8
0
100
AcDbSpline
 62
7
  6
CONTINUOUS
 70
0
 71
3
 72
15
 73
11
 74
9
 42
0.0000001
 43
0.0000001
 44
0.0000000001
 12
0.0851311885
 22
0.0044684217
 32
0.0
 13
0.0042157638
 23
-0.0851440743
 33
0.0
 40
0.0
 40
0.0
 40
0.0
 40
0.0
 40
0.0048780412
 40
0.0174369689
 40
0.0668336663
 40
0.1484137864
 40
0.2612481621
 40
0.4043251191
 40
0.5763751132
 40
1.0
 40
1.0
 40
1.0
 40
1.0
 10
-30.1528855294
 20
-12.7421913652
 30
0.0
 10
-30.1527471049
 20
-12.7421840995
 30
0.0
 10
-30.1525475251
 20
-12.7428333873
 30
0.0
 10
-30.1521554895
 20
-12.744431693
 30
0.0
 10
-30.1516517368
 20
-12.7487473272
 30
0.0
 10
-30.1509985348
 20
-12.7554903601
 30
0.0
 10
-30.1502625457
 20
-12.7651199108
 30
0.0
 10
-30.1494485788
 20
-12.7772281292
 30
0.0
 10
-30.1481909081
 20
-12.7981950483
 30
0.0
 10
-30.1473086736
 20
-12.8150937165
 30
0.0
 10
-30.1467133728
 20
-12.8271167661
 30
0.0
 11
-30.1528855294
 21
-12.7421913652
 31
0.0
 11
-30.1526430535
 21
-12.7425292004
 31
0.0
 11
-30.1523775725
 21
-12.7435663912
 31
0.0
 11
-30.1517801589
 21
-12.7477347865
 31
0.0
 11
-30.1510993294
 21
-12.7546559538
 31
0.0
 11
-30.1503423679
 21
-12.7642450706
 31
0.0
 11
-30.1495166466
 21
-12.7764141672
 31
0.0
 11
-30.148630196
 21
-12.7910543378
 31
0.0
 11
-30.1467133728
 21
-12.8271167661
 31
0.0
  0
LINE
  5
3A8
100
AcDbEntity
  8
RACCORDO
100
AcDbLine
 62
253
  6
CONTINUOUS
 10
-29.8302105051
 20
-20.8317816726
 11
-29.4787516403
 21
-20.8314008366
  0
LINE
  5
3A9
100
AcDbEntity
  8
0
100
AcDbLine
 62
7
  6
CONTINUOUS
 10
-30.1831131214
 20
-12.3249993318
 11
-30.1833174995
 21
-12.3148283631
  0
LINE
  5
3AA
100
AcDbEntity
  8
0
100
AcDbLine
 62
7
  6
CONTINUOUS
 10
-30.2067538729
 20
-11.2833685206
 11
-30.2082077576
 21
-11.2263538348
  0
LINE
  5
3AB
100
AcDbEntity
  8
0
100
AcDbLine
 62
7
  6
CONTINUOUS
 10
-30.2082077576
 20
-11.2263538348
 11
-30.2097107587
 21
-11.1680960189
  0
LINE
  5
3AC
100
AcDbEntity
  8
0
100
AcDbLine
 62
7
  6
CONTINUOUS
 10
-30.2097107587
 20
-11.1680960189
 11
-30.2158659504
 21
-10.936391183
  0
LINE
  5
3AD
100
AcDbEntity
  8
0
100
AcDbLine
 62
7
  6
CONTINUOUS
 10
-30.2158659504
 20
-10.936391183
 11
-30.2160129829
 21
-10.9309836142
  0
LINE
  5
3AE
100
AcDbEntity
  8
0
100
AcDbLine
 62
7
  6
CONTINUOUS
 10
-30.2160129829
 20
-10.9309836142
 11
-30.216409918
 21
-10.9164132275
  0
LINE
  5
3AF
100
AcDbEntity
  8
0
100
AcDbLine
 62
7
  6
CONTINUOUS
 10
-30.216409918
 20
-10.9164132275
 11
-30.2225726831
 21
-10.6952845261
  0
LINE
  5
3B0
100
AcDbEntity
  8
0
100
AcDbLine
 62
7
  6
CONTINUOUS
 10
-30.2225726831
 20
-10.6952845261
 11
-30.2259153202
 21
-10.5791247096
  0
LINE
  5
3B1
100
AcDbEntity
  8
0
100
AcDbLine
 62
7
  6
CONTINUOUS
 10
-30.2448958865
 20
-9.9622112023
 11
-30.2475339751
 21
-9.8815020277
  0
LINE
  5
3B2
100
AcDbEntity
  8
0
100
AcDbLine
 62
7
  6
CONTINUOUS
 10
-30.2475339802
 20
-9.8815017456
 11
-30.248618887
 21
-9.8480291404
  0
LINE
  5
3B3
100
AcDbEntity
  8
0
100
AcDbLine
 62
7
  6
CONTINUOUS
 10
-30.2579297645
 20
-9.5250818273
 11
-30.2622160631
 21
-9.3588319252
  0
LINE
  5
3B4
100
AcDbEntity
  8
0
100
AcDbLine
 62
7
  6
CONTINUOUS
 10
-30.1149469418
 20
-13.7436656721
 11
-30.1151152573
 21
-13.7412326283
  0
LINE
  5
3B5
100
AcDbEntity
  8
0
100
AcDbLine
 62
7
  6
CONTINUOUS
 10
-30.1158288577
 20
-13.7303044483
 11
-30.1160424037
 21
-13.7268548282
  0
LINE
  5
3B6
100
AcDbEntity
  8
0
100
AcDbLine
 62
7
  6
CONTINUOUS
 10
-30.1169127335
 20
-13.7120229783
 11
-30.1171395463
 21
-13.7079660981
  0
SPLINE
  5
3B7
100
AcDbEntity
  8
RACCORDO
100
AcDbSpline
 62
253
  6
CONTINUOUS
 70
0
 71
3
 72
11
 73
7
 74
5
 42
0.0000001
 43
0.0000001
 44
0.0000000001
 12
-1.047085009
 22
0.0276267642
 32
0.0
 13
-0.0450860355
 23
1.0464786207
 33
0.0
 40
0.0
 40
0.0
 40
0.0
 40
0.0
 40
0.2499800914
 40
0.4999662597
 40
0.7499719373
 40
1.0
 40
1.0
 40
1.0
 40
1.0
 10
-28.3096216479
 20
-21.4787579832
 30
0.0
 10
-28.3968717833
 20
-21.4764559361
 30
0.0
 10
-28.5722404828
 20
-21.4387651332
 30
0.0
 10
-28.7952039701
 20
-21.2903446703
 30
0.0
 10
-28.9486592345
 20
-21.0707257303
 30
0.0
 10
-28.9897346305
 20
-20.8959739213
 30
0.0
 10
-28.9934922218
 20
-20.8087575806
 30
0.0
 11
-28.3096216479
 21
-21.4787579832
 31
0.0
 11
-28.5655558028
 21
-21.4234526642
 31
0.0
 11
-28.78361249
 21
-21.2784851349
 31
0.0
 11
-28.9333479497
 21
-21.063649622
 31
0.0
 11
-28.9934922218
 21
-20.8087575806
 31
0.0
  0
SPLINE
  5
3B8
100
AcDbEntity
  8
RACCORDO
100
AcDbSpline
 62
253
  6
CONTINUOUS
 70
0
 71
3
 72
11
 73
7
 74
5
 42
0.0000001
 43
0.0000001
 44
0.0000000001
 12
0.0450860439
 22
1.0464786225
 32
0.0
 13
1.047085011
 23
0.0276267704
 33
0.0
 40
0.0
 40
0.0
 40
0.0
 40
0.0
 40
0.2500280646
 40
0.5000337412
 40
0.750019909
 40
1.0
 40
1.0
 40
1.0
 40
1.0
 10
-28.9934921941
 20
20.8087575834
 30
0.0
 10
-28.989734602
 20
20.8959739249
 30
0.0
 10
-28.9486591658
 20
21.0707257247
 30
0.0
 10
-28.7952039207
 20
21.2903446715
 30
0.0
 10
-28.5722404291
 20
21.4387651342
 30
0.0
 10
-28.3968717307
 20
21.476455937
 30
0.0
 10
-28.3096215953
 20
21.4787579845
 30
0.0
 11
-28.9934921941
 21
20.8087575834
 31
0.0
 11
-28.9333478938
 21
21.0636496208
 31
0.0
 11
-28.7836124368
 21
21.278485135
 31
0.0
 11
-28.5655557502
 21
21.4234526652
 31
0.0
 11
-28.3096215953
 21
21.4787579845
 31
0.0
  0
SPLINE
  5
3B9
100
AcDbEntity
  8
0
100
AcDbSpline
 62
7
  6
CONTINUOUS
 70
0
 71
3
 72
14
 73
10
 74
8
 42
0.0000001
 43
0.0000001
 44
0.0000000001
 12
-0.0007006
 22
0.097412869
 32
0.0
 13
0.0607364922
 23
0.0761632221
 33
0.0
 40
0.0
 40
0.0
 40
0.0
 40
0.0
 40
0.4115020888
 40
0.5801955529
 40
0.72197105
 40
0.8356937691
 40
0.9202954733
 40
0.9751214627
 40
1.0
 40
1.0
 40
1.0
 40
1.0
 10
-30.1992375784
 20
-10.7224049803
 30
0.0
 10
-30.1993336779
 20
-10.7090431139
 30
0.0
 10
-30.1994095398
 20
-10.690199867
 30
0.0
 10
-30.1992565972
 20
-10.6667630191
 30
0.0
 10
-30.1990676193
 20
-10.6529757472
 30
0.0
 10
-30.1987186957
 20
-10.6419743811
 30
0.0
 10
-30.1984376928
 20
-10.6336700231
 30
0.0
 10
-30.1977715693
 20
-10.6285331773
 30
0.0
 10
-30.1976056111
 20
-10.625747082
 30
0.0
 10
-30.1971019327
 20
-10.6251154721
 30
0.0
 11
-30.1992375784
 21
-10.7224049803
 31
0.0
 11
-30.1993412996
 21
-10.6823184787
 31
0.0
 11
-30.1992294776
 21
-10.6658855198
 31
0.0
 11
-30.1990094577
 21
-10.6520761573
 31
0.0
 11
-30.1986833363
 21
-10.6410026157
 31
0.0
 11
-30.1982535054
 21
-10.6327723242
 31
0.0
 11
-30.1977245271
 21
-10.6274576895
 31
0.0
 11
-30.1971019327
 21
-10.6251154721
 31
0.0
  0
LINE
  5
3BA
100
AcDbEntity
  8
0
100
AcDbLine
 62
7
  6
CONTINUOUS
 10
-30.1951156308
 20
-10.9350015795
 11
-30.1952957454
 21
-10.9283336361
  0
LINE
  5
3BB
100
AcDbEntity
  8
0
100
AcDbLine
 62
7
  6
CONTINUOUS
 10
-30.1952957454
 20
-10.9283336361
 11
-30.1954757259
 21
-10.9216665942
  0
LINE
  5
3BC
100
AcDbEntity
  8
0
100
AcDbLine
 62
7
  6
CONTINUOUS
 10
-30.1954757259
 20
-10.9216665942
 11
-30.1956555721
 21
-10.9150004536
  0
SPLINE
  5
3BD
100
AcDbEntity
  8
0
100
AcDbSpline
 62
7
  6
CONTINUOUS
 70
0
 71
3
 72
14
 73
10
 74
8
 42
0.0000001
 43
0.0000001
 44
0.0000000001
 12
-0.0609219671
 22
0.0732630732
 32
0.0
 13
-0.0044844074
 23
0.0951780125
 33
0.0
 40
0.0
 40
0.0
 40
0.0
 40
0.0
 40
0.0252286337
 40
0.0801671885
 40
0.1648461785
 40
0.2787450694
 40
0.4206823196
 40
0.5893655697
 40
1.0
 40
1.0
 40
1.0
 40
1.0
 10
-30.1809580794
 20
-11.2248801816
 30
0.0
 10
-30.1814704054
 20
-11.2242640725
 30
0.0
 10
-30.1818005396
 20
-11.2215639502
 30
0.0
 10
-30.1827064118
 20
-11.2165422074
 30
0.0
 10
-30.1834298672
 20
-11.2084465125
 30
0.0
 10
-30.1843500164
 20
-11.1977020607
 30
0.0
 10
-30.1852673155
 20
-11.1842377716
 30
0.0
 10
-30.1866574185
 20
-11.1613774716
 30
0.0
 10
-30.1875813512
 20
-11.1429978925
 30
0.0
 10
-30.1881951685
 20
-11.1299701028
 30
0.0
 11
-30.1809580794
 21
-11.2248801816
 31
0.0
 11
-30.1816891262
 21
-11.2225901629
 31
0.0
 11
-30.182485875
 21
-11.2174164092
 31
0.0
 11
-30.1833410139
 21
-11.2093933342
 31
0.0
 11
-30.1842467954
 21
-11.198578503
 31
0.0
 11
-30.1851943815
 21
-11.1850874486
 31
0.0
 11
-30.1861747664
 21
-11.1690446297
 31
0.0
 11
-30.1881951685
 21
-11.1299701028
 31
0.0
  0
LINE
  5
3BE
100
AcDbEntity
  8
0
100
AcDbLine
 62
7
  6
CONTINUOUS
 10
-30.1536166898
 20
-12.80947937
 11
-30.1537159938
 21
-12.8020416068
  0
LINE
  5
3BF
100
AcDbEntity
  8
0
100
AcDbLine
 62
7
  6
CONTINUOUS
 10
-30.1538426167
 20
-12.7904916499
 11
-30.153872277
 21
-12.7870815931
  0
LINE
  5
3C0
100
AcDbEntity
  8
0
100
AcDbLine
 62
7
  6
CONTINUOUS
 10
-30.1406772694
 20
-13.2320534742
 11
-30.1410890511
 21
-13.2227538262
  0
LINE
  5
3C1
100
AcDbEntity
  8
0
100
AcDbLine
 62
7
  6
CONTINUOUS
 10
-30.1527164967
 20
-12.86120349
 11
-30.152834715
 21
-12.8552156427
  0
LINE
  5
3C2
100
AcDbEntity
  8
0
100
AcDbLine
 62
7
  6
CONTINUOUS
 10
-30.152834715
 20
-12.8552156427
 11
-30.1530921562
 21
-12.841259
  0
LINE
  5
3C3
100
AcDbEntity
  8
0
100
AcDbLine
 62
7
  6
CONTINUOUS
 10
-30.1181096642
 20
-13.6897877661
 11
-30.120619255
 21
-13.6408725195
  0
LINE
  5
3C4
100
AcDbEntity
  8
0
100
AcDbLine
 62
7
  6
CONTINUOUS
 10
-30.120619255
 20
-13.6408725195
 11
-30.1231035611
 21
-13.5920081144
  0
LINE
  5
3C5
100
AcDbEntity
  8
0
100
AcDbLine
 62
7
  6
CONTINUOUS
 10
-30.1374796633
 20
-13.2998934208
 11
-30.1390834904
 21
-13.2662361548
  0
LINE
  5
3C6
100
AcDbEntity
  8
0
100
AcDbLine
 62
7
  6
CONTINUOUS
 10
-30.1390834904
 20
-13.2662361548
 11
-30.1397879041
 21
-13.2513807661
  0
LINE
  5
3C7
100
AcDbEntity
  8
RACCORDO
100
AcDbLine
 62
253
  6
CONTINUOUS
 10
-29.4787516407
 20
20.8314008262
 11
-29.8302105057
 21
20.8317816622
  0
SPLINE
  5
3C8
100
AcDbEntity
  8
RACCORDO
100
AcDbSpline
 62
253
  6
CONTINUOUS
 70
0
 71
3
 72
20
 73
16
 74
14
 42
0.0000001
 43
0.0000001
 44
0.0000000001
 12
-0.5002087974
 22
0.0130984283
 32
0.0
 13
0.0130895049
 23
0.500209031
 33
0.0
 40
0.0
 40
0.0
 40
0.0
 40
0.0
 40
0.0017601623
 40
0.0055960866
 40
0.020198778
 40
0.0441136351
 40
0.077217934
 40
0.1191811623
 40
0.169584885
 40
0.2279973577
 40
0.2938476078
 40
0.4451452725
 40
0.6177669269
 40
0.8053187392
 40
1.0
 40
1.0
 40
1.0
 40
1.0
 10
-28.3096216479
 20
-21.9785866456
 30
0.0
 10
-28.3099151308
 20
-21.9785789605
 30
0.0
 10
-28.3104992577
 20
-21.9775779369
 30
0.0
 10
-28.3112483479
 20
-21.9745307448
 30
0.0
 10
-28.3121835648
 20
-21.967282082
 30
0.0
 10
-28.3129961855
 20
-21.9554973918
 30
0.0
 10
-28.3137391716
 20
-21.9389446435
 30
0.0
 10
-28.3143133579
 20
-21.9180465238
 30
0.0
 10
-28.3147360776
 20
-21.8928928333
 30
0.0
 10
-28.3149864884
 20
-21.8637630628
 30
0.0
 10
-28.3150954442
 20
-21.817800241
 30
0.0
 10
-28.3147466427
 20
-21.7527898794
 30
0.0
 10
-28.3136803697
 20
-21.6674857811
 30
0.0
 10
-28.31197644
 20
-21.5749549519
 30
0.0
 10
-28.310471075
 20
-21.5112184248
 30
0.0
 10
-28.3096216479
 20
-21.4787579832
 30
0.0
 11
-28.3096216479
 21
-21.9785866456
 31
0.0
 11
-28.31024533
 21
-21.9779647598
 31
0.0
 11
-28.3108370785
 21
-21.9761388326
 31
0.0
 11
-28.3119185089
 21
-21.9689124037
 31
0.0
 11
-28.3128534083
 21
-21.9569824571
 31
0.0
 11
-28.3136298997
 21
-21.9404359287
 31
0.0
 11
-28.3142409373
 21
-21.91944725
 31
0.0
 11
-28.3146816412
 21
-21.8942300725
 31
0.0
 11
-28.3149473167
 21
-21.8650028314
 31
0.0
 11
-28.3150358925
 21
-21.8320527848
 31
0.0
 11
-28.3146816418
 21
-21.7563472481
 31
0.0
 11
-28.3136299011
 21
-21.6699771823
 31
0.0
 11
-28.3119185105
 21
-21.5761455623
 31
0.0
 11
-28.3096216479
 21
-21.4787579832
 31
0.0
  0
SPLINE
  5
3C9
100
AcDbEntity
  8
RACCORDO
100
AcDbSpline
 62
253
  6
CONTINUOUS
 70
0
 71
3
 72
20
 73
16
 74
14
 42
0.0000001
 43
0.0000001
 44
0.0000000001
 12
-0.5002087938
 22
-0.0130984283
 32
0.0
 13
0.0130894589
 23
-0.5002090286
 33
0.0
 40
0.0
 40
0.0
 40
0.0
 40
0.0
 40
0.0017601587
 40
0.0055960804
 40
0.0201987669
 40
0.0441136198
 40
0.0772179139
 40
0.1191811341
 40
0.1695848503
 40
0.2279973203
 40
0.2938475646
 40
0.4451452224
 40
0.6177668843
 40
0.8053187251
 40
1.0
 40
1.0
 40
1.0
 40
1.0
 10
-28.3096215953
 20
21.978586647
 30
0.0
 10
-28.3099150775
 20
21.9785789619
 30
0.0
 10
-28.3104992019
 20
21.9775779375
 30
0.0
 10
-28.3112482895
 20
21.9745307481
 30
0.0
 10
-28.3121835028
 20
21.9672820855
 30
0.0
 10
-28.3129961206
 20
21.9554973983
 30
0.0
 10
-28.3137391038
 20
21.9389446525
 30
0.0
 10
-28.3143132882
 20
21.9180465363
 30
0.0
 10
-28.3147360065
 20
21.8928928488
 30
0.0
 10
-28.3149864164
 20
21.8637630811
 30
0.0
 10
-28.3150953722
 20
21.8178002621
 30
0.0
 10
-28.3147465722
 20
21.7527899018
 30
0.0
 10
-28.3136803033
 20
21.6674857993
 30
0.0
 10
-28.3119763793
 20
21.5749549622
 30
0.0
 10
-28.3104710194
 20
21.5112184283
 30
0.0
 10
-28.3096215953
 20
21.4787579845
 30
0.0
 11
-28.3096215953
 21
21.978586647
 31
0.0
 11
-28.3102452751
 21
21.9779647614
 31
0.0
 11
-28.3108370214
 21
21.976138835
 31
0.0
 11
-28.3119184479
 21
21.968912408
 31
0.0
 11
-28.3128533439
 21
21.9569824633
 31
0.0
 11
-28.3136298324
 21
21.9404359373
 31
0.0
 11
-28.3142408679
 21
21.9194472627
 31
0.0
 11
-28.3146815703
 21
21.8942300887
 31
0.0
 11
-28.3149472449
 21
21.8650028491
 31
0.0
 11
-28.3150358207
 21
21.8320528057
 31
0.0
 11
-28.3146815715
 21
21.7563472729
 31
0.0
 11
-28.3136298348
 21
21.6699772039
 31
0.0
 11
-28.31191845
 21
21.5761455703
 31
0.0
 11
-28.3096215953
 21
21.4787579845
 31
0.0
  0
SPLINE
  5
3CA
100
AcDbEntity
  8
0
100
AcDbSpline
 62
7
  6
CONTINUOUS
 70
0
 71
3
 72
12
 73
8
 74
6
 42
0.0000001
 43
0.0000001
 44
0.0000000001
 12
-0.0063229222
 22
0.1920533943
 32
0.0
 13
-0.0147316079
 23
0.1916905604
 33
0.0
 40
0.0
 40
0.0
 40
0.0
 40
0.0
 40
0.4633945537
 40
0.6668640171
 40
0.8439660951
 40
0.9890516824
 40
1.0
 40
1.0
 40
1.0
 40
1.0
 10
-30.166550042
 20
-10.8547167213
 30
0.0
 10
-30.1675267113
 20
-10.8250512223
 30
0.0
 10
-30.1691273004
 20
-10.7823651006
 30
0.0
 10
-30.1716907088
 20
-10.7283687024
 30
0.0
 10
-30.1735523562
 20
-10.6947470981
 30
0.0
 10
-30.1749754107
 20
-10.6734621308
 30
0.0
 10
-30.1757336782
 20
-10.6634916936
 30
0.0
 10
-30.1757874403
 20
-10.6627921306
 30
0.0
 11
-30.166550042
 21
-10.8547167213
 31
0.0
 11
-30.1699563361
 21
-10.7657371811
 31
0.0
 11
-30.1718256468
 21
-10.72668372
 31
0.0
 11
-30.1737368232
 21
-10.6927059436
 31
0.0
 11
-30.1756277202
 21
-10.6648908655
 31
0.0
 11
-30.1757874403
 21
-10.6627921306
 31
0.0
  0
LINE
  5
3CB
100
AcDbEntity
  8
0
100
AcDbLine
 62
7
  6
CONTINUOUS
 10
-30.1662363183
 20
-12.8059826021
 11
-30.1656530933
 21
-12.8391727883
  0
LINE
  5
3CC
100
AcDbEntity
  8
0
100
AcDbLine
 62
7
  6
CONTINUOUS
 10
-30.1672578418
 20
-12.7486495042
 11
-30.166498931
 21
-12.7912434394
  0
ELLIPSE
  5
3CD
100
AcDbEntity
  8
RACCORDO
100
AcDbEllipse
 62
7
  6
CONTINUOUS
 10
-10.4998286038
 20
-21.5998286038
 30
0.0
 11
0.35379574
 21
0.35379574
 31
0.0
 40
0.999315002
 41
-3.9266482006
 42
-2.3565371065
  0
ELLIPSE
  5
3CE
100
AcDbEntity
  8
RACCORDO
100
AcDbEllipse
 62
7
  6
CONTINUOUS
 10
10.4998286038
 20
-21.5998286038
 30
0.0
 11
0.35379574
 21
-0.35379574
 31
0.0
 40
0.999315002
 41
-0.7850555471
 42
0.7850555471
  0
ELLIPSE
  5
3CF
100
AcDbEntity
  8
RACCORDO
100
AcDbEllipse
 62
7
  6
CONTINUOUS
 10
10.4998286038
 20
21.5998286038
 30
0.0
 11
0.35379574
 21
0.35379574
 31
0.0
 40
0.999315002
 41
-0.7850555471
 42
0.7850555471
  0
ELLIPSE
  5
3D0
100
AcDbEntity
  8
RACCORDO
100
AcDbEllipse
 62
7
  6
CONTINUOUS
 10
-10.4998286038
 20
21.5998286038
 30
0.0
 11
-0.35379574
 21
0.35379574
 31
0.0
 40
0.999315002
 41
-0.7850555471
 42
0.7850555471
  0
ENDSEC
  0
SECTION
  2
OBJECTS
  0
DICTIONARY
  5
C
100
AcDbDictionary
280
0
281
1
  3
ACAD_GROUP
350
D
  3
ACAD_MLINESTYLE
350
17
  3
ACAD_LAYOUT
350
1A
  3
ACAD_PLOTSETTINGS
350
19
  3
ACAD_PLOTSTYLENAME
350
E
  0
DICTIONARY
  5
D
102
{ACAD_REACTORS
330
C
102
}
100
AcDbDictionary
280
0
281
1
  0
ACDBDICTIONARYWDFLT
  5
E
102
{ACAD_REACTORS
330
C
102
}
100
AcDbDictionary
281
1
  3
Normal
350
F
100
AcDbDictionaryWithDefault
340
F
  0
DICTIONARY
  5
17
102
{ACAD_REACTORS
330
C
102
}
100
AcDbDictionary
280
0
281
1
  3
Standard
350
18
  0
DICTIONARY
  5
19
102
{ACAD_REACTORS
330
C
102
}
100
AcDbDictionary
281
1
  0
DICTIONARY
  5
1A
102
{ACAD_REACTORS
330
C
102
}
100
AcDbDictionary
281
1
  3
Model
350
3D1
  3
Layout1
350
3D2
  0
ACDBPLACEHOLDER
  5
F
102
{ACAD_REACTORS
330
E
102
}
  0
MLINESTYLE
  5
18
102
{ACAD_REACTORS
330
17
102
}
100
AcDbMlineStyle
  2
STANDARD
 70
0
  3

 62
256
 51
90.0
 52
90.0
 71
2
 49
0.5
 62
256
  6
BYLAYER
 49
-0.5
 62
256
  6
BYLAYER
  0
LAYOUT
  5
3D1
102
{ACAD_REACTORS
330
1A
102
}
100
AcDbPlotSettings
  1

  2
none_device
  4
ISO_A4_(297.00_x_210.00_MM)
  6

 40
0.0
 41
0.0
 42
0.0
 43
0.0
 44
297.0
 45
210.0
 46
0.0
 47
0.0
 48
0.0
 49
0.0
140
0.0
141
0.0
142
1.0
143
1.0
 70
1024
 72
1
 73
0
 74
0
  7

 75
0
147
1.0
148
0.0
149
0.0
100
AcDbLayout
  1
Model
 70
0
 71
0
 10
0.0
 20
0.0
 11
297.0
 21
210.0
 12
0.0
 22
0.0
 32
0.0
 14
0.0
 24
0.0
 34
0.0
 15
0.0
 25
0.0
 35
0.0
146
0.0
 13
0.0
 23
0.0
 33
0.0
 16
1.0
 26
0.0
 36
0.0
 17
0.0
 27
1.0
 37
0.0
 76
0
330
216
345
0
346
0
  0
LAYOUT
  5
3D2
102
{ACAD_REACTORS
330
1A
102
}
100
AcDbPlotSettings
  1

  2
none_device
  4
ISO_A4_(297.00_x_210.00_MM)
  6

 40
0.0
 41
0.0
 42
0.0
 43
0.0
 44
297.0
 45
210.0
 46
0.0
 47
0.0
 48
0.0
 49
0.0
140
0.0
141
0.0
142
1.0
143
1.0
 70
0
 72
1
 73
0
 74
0
  7

 75
0
147
1.0
148
0.0
149
0.0
100
AcDbLayout
  1
Layout1
 70
0
 71
1
 10
0.0
 20
0.0
 11
297.0
 21
210.0
 12
0.0
 22
0.0
 32
0.0
 14
0.0
 24
0.0
 34
0.0
 15
0.0
 25
0.0
 35
0.0
146
0.0
 13
0.0
 23
0.0
 33
0.0
 16
1.0
 26
0.0
 36
0.0
 17
0.0
 27
1.0
 37
0.0
 76
0
330
217
345
0
346
0
  0
ENDSEC
  0
EOF
