  0
SECTION
  2
HEADER
  9
$ACADVER
  1
AC1015
  9
$DWGCODEPAGE
  3
ANSI_1252
  9
$EXTMAX
 10
297.0
 20
210.0
 30
0.0
  9
$EXTMIN
 10
0.0
 20
0.0
 30
0.0
  9
$LIMMIN
 10
0.0
 20
0.0
  9
$LIMMAX
 10
297.0
 20
210.0
  9
$VIEWCTR
 10
148.5
 20
105.0
  9
$VIEWSIZE
 40
210.0
  9
$CLAYER
  8
0
  9
$LTSCALE
 40
16.335
  9
$CELTYPE
  6
BYLAYER
  9
$DIMSCALE
 40
1.0
  9
$DIMASZ
 40
3.0
  9
$DIMEXO
 40
1.85625
  9
$DIMDLI
 40
11.286
  9
$DIMEXE
 40
5.346
  9
$DIMCEN
 40
2.673
  9
$DIMLFAC
 40
1.0
  9
$DIMBLK
  1
_FILLED
  9
$DIMTXT
 40
3.0
  9
$DIMTOL
 70
1
  9
$DIMLIM
 70
0
  9
$DIMTFAC
 40
1.0
  9
$DIMTP
 40
0.01
  9
$DIMTM
 40
0.01
  9
$PDMODE
 70
3
  9
$PDSIZE
 40
3.0
  9
$HANDSEED
  5
3C0
  9
$TILEMODE
 70
1
  9
$MEASUREMENT
 70
1
  9
$INSUNITS
 70
4
  0
ENDSEC
  0
SECTION
  2
CLASSES
  0
CLASS
  1
ACDBDICTIONARYWDFLT
  2
AcDbDictionaryWithDefault
  3
AutoCAD 2000
 90
0
280
0
281
0
  0
CLASS
  1
ACDBPLACEHOLDER
  2
AcDbPlaceHolder
  3
AutoCAD 2000
 90
0
280
0
281
0
  0
CLASS
  1
LAYOUT
  2
AcDbLayout
  3
AutoCAD 2000
 90
0
280
0
281
0
  0
ENDSEC
  0
SECTION
  2
TABLES
  0
TABLE
  2
VPORT
  5
8
100
AcDbSymbolTable
 70
2
  0
VPORT
  5
1F4
100
AcDbSymbolTableRecord
100
AcDbViewportTableRecord
  2
*ACTIVE
 70
0
 10
0.0
 20
0.0
 11
1.0
 21
1.0
 12
148.5
 22
105.0
 13
0.0
 23
0.0
 14
1.0
 24
1.0
 15
0.0
 25
0.0
 16
0.0
 26
0.0
 36
1.0
 17
0.0
 27
0.0
 37
0.0
 40
210.0
 41
1.4142857143
 42
50.0
 43
0.0
 44
0.0
 50
0.0
 51
0.0
 71
0
 72
100
 73
1
 74
1
 75
0
 76
0
 77
0
 78
0
  0
ENDTAB
  0
TABLE
  2
LTYPE
  5
5
100
AcDbSymbolTable
 70
6
  0
LTYPE
  5
14
100
AcDbSymbolTableRecord
100
AcDbLinetypeTableRecord
  2
BYBLOCK
 70
0
  3

 72
65
 73
0
 40
0.0
  0
LTYPE
  5
15
100
AcDbSymbolTableRecord
100
AcDbLinetypeTableRecord
  2
BYLAYER
 70
0
  3

 72
65
 73
0
 40
0.0
  0
LTYPE
  5
16
100
AcDbSymbolTableRecord
100
AcDbLinetypeTableRecord
  2
CONTINUOUS
 70
64
  3
Solid line
 72
65
 73
0
 40
0.0
  0
LTYPE
  5
1F5
100
AcDbSymbolTableRecord
100
AcDbLinetypeTableRecord
  2
CENTER
 70
64
  3
____ _ ____ _ ____ _ ____ _ ____ _ ____ _ ____
 72
65
 73
4
 40
0.6
 49
0.375
 74
0
 49
-0.075
 74
0
 49
0.075
 74
0
 49
-0.075
 74
0
  0
LTYPE
  5
1F6
100
AcDbSymbolTableRecord
100
AcDbLinetypeTableRecord
  2
HIDDEN
 70
64
  3
- - - - - - - - - - - - - - - - - - - -
 72
65
 73
2
 40
0.2
 49
0.1
 74
0
 49
-0.1
 74
0
  0
LTYPE
  5
1F7
100
AcDbSymbolTableRecord
100
AcDbLinetypeTableRecord
  2
PHANTOM
 70
64
  3
_____ _ _ _____ _ _ _____ _ _ _____
 72
65
 73
6
 40
0.8
 49
0.45
 74
0
 49
-0.05
 74
0
 49
0.1
 74
0
 49
-0.05
 74
0
 49
0.1
 74
0
 49
-0.05
 74
0
  0
LTYPE
  5
1F8
100
AcDbSymbolTableRecord
100
AcDbLinetypeTableRecord
  2
DOT
 70
64
  3
. . . . . . . . . . . . . . . . . . . .
 72
65
 73
2
 40
0.2
 49
0.1
 74
0
 49
-0.1
 74
0
  0
LTYPE
  5
1F9
100
AcDbSymbolTableRecord
100
AcDbLinetypeTableRecord
  2
DASHED
 70
64
  3
- - - - - - - - - - - - - - - - - - - -
 72
65
 73
2
 40
0.2
 49
0.1
 74
0
 49
-0.1
 74
0
  0
ENDTAB
  0
TABLE
  2
LAYER
  5
2
100
AcDbSymbolTable
 70
36
  0
LAYER
  5
10
100
AcDbSymbolTableRecord
100
AcDbLayerTableRecord
  2
0
 70
0
 62
7
  6
CONTINUOUS
370
-3
390
F
  0
LAYER
  5
1FA
100
AcDbSymbolTableRecord
100
AcDbLayerTableRecord
  2
DEFAULT_1
 70
0
 62
7
  6
CENTER
370
-3
390
F
  0
LAYER
  5
1FB
100
AcDbSymbolTableRecord
100
AcDbLayerTableRecord
  2
DEFAULT_2
 70
0
 62
7
  6
HIDDEN
370
-3
390
F
  0
LAYER
  5
1FC
100
AcDbSymbolTableRecord
100
AcDbLayerTableRecord
  2
DEFAULT_3
 70
0
 62
7
  6
PHANTOM
370
-3
390
F
  0
LAYER
  5
1FD
100
AcDbSymbolTableRecord
100
AcDbLayerTableRecord
  2
ASSI
 70
0
 62
7
  6
CONTINUOUS
370
-3
390
F
  0
LAYER
  5
1FE
100
AcDbSymbolTableRecord
100
AcDbLayerTableRecord
  2
COORDINATE
 70
0
 62
7
  6
CONTINUOUS
370
-3
390
F
  0
LAYER
  5
1FF
100
AcDbSymbolTableRecord
100
AcDbLayerTableRecord
  2
COPY_PUBLISH
 70
0
 62
7
  6
CONTINUOUS
370
-3
390
F
  0
LAYER
  5
200
100
AcDbSymbolTableRecord
100
AcDbLayerTableRecord
  2
COSMETIC
 70
0
 62
7
  6
CONTINUOUS
370
-3
390
F
  0
LAYER
  5
201
100
AcDbSymbolTableRecord
100
AcDbLayerTableRecord
  2
COSMETICI
 70
0
 62
7
  6
CONTINUOUS
370
-3
390
F
  0
LAYER
  5
202
100
AcDbSymbolTableRecord
100
AcDbLayerTableRecord
  2
CURVE
 70
0
 62
7
  6
CONTINUOUS
370
-3
390
F
  0
LAYER
  5
203
100
AcDbSymbolTableRecord
100
AcDbLayerTableRecord
  2
DRAFT
 70
0
 62
7
  6
CONTINUOUS
370
-3
390
F
  0
LAYER
  5
204
100
AcDbSymbolTableRecord
100
AcDbLayerTableRecord
  2
IMPORT_IGES
 70
0
 62
7
  6
CONTINUOUS
370
-3
390
F
  0
LAYER
  5
205
100
AcDbSymbolTableRecord
100
AcDbLayerTableRecord
  2
INTFCLR_11
 70
0
 62
7
  6
CONTINUOUS
370
-3
390
F
  0
LAYER
  5
206
100
AcDbSymbolTableRecord
100
AcDbLayerTableRecord
  2
INTF_1
 70
0
 62
7
  6
CONTINUOUS
370
-3
390
F
  0
LAYER
  5
207
100
AcDbSymbolTableRecord
100
AcDbLayerTableRecord
  2
INTF_3
 70
0
 62
7
  6
CONTINUOUS
370
-3
390
F
  0
LAYER
  5
208
100
AcDbSymbolTableRecord
100
AcDbLayerTableRecord
  2
INTF_6
 70
0
 62
7
  6
CONTINUOUS
370
-3
390
F
  0
LAYER
  5
209
100
AcDbSymbolTableRecord
100
AcDbLayerTableRecord
  2
NOTE
 70
0
 62
7
  6
CONTINUOUS
370
-3
390
F
  0
LAYER
  5
20A
100
AcDbSymbolTableRecord
100
AcDbLayerTableRecord
  2
PIANI
 70
0
 62
7
  6
CONTINUOUS
370
-3
390
F
  0
LAYER
  5
20B
100
AcDbSymbolTableRecord
100
AcDbLayerTableRecord
  2
PUNTI
 70
0
 62
7
  6
CONTINUOUS
370
-3
390
F
  0
LAYER
  5
20C
100
AcDbSymbolTableRecord
100
AcDbLayerTableRecord
  2
RACCORDO
 70
0
 62
7
  6
CONTINUOUS
370
-3
390
F
  0
LAYER
  5
20D
100
AcDbSymbolTableRecord
100
AcDbLayerTableRecord
  2
SIMBOLI
 70
0
 62
7
  6
CONTINUOUS
370
-3
390
F
  0
LAYER
  5
20E
100
AcDbSymbolTableRecord
100
AcDbLayerTableRecord
  2
SMUSSO
 70
0
 62
7
  6
CONTINUOUS
370
-3
390
F
  0
LAYER
  5
20F
100
AcDbSymbolTableRecord
100
AcDbLayerTableRecord
  2
SNAPLINE
 70
0
 62
7
  6
CONTINUOUS
370
-3
390
F
  0
LAYER
  5
210
100
AcDbSymbolTableRecord
100
AcDbLayerTableRecord
  2
SUPERFICI
 70
0
 62
7
  6
CONTINUOUS
370
-3
390
F
  0
LAYER
  5
211
100
AcDbSymbolTableRecord
100
AcDbLayerTableRecord
  2
TRASH
 70
0
 62
7
  6
CONTINUOUS
370
-3
390
F
  0
LAYER
  5
212
100
AcDbSymbolTableRecord
100
AcDbLayerTableRecord
  2
XSEC_DATUMS
 70
0
 62
7
  6
CONTINUOUS
370
-3
390
F
  0
LAYER
  5
213
100
AcDbSymbolTableRecord
100
AcDbLayerTableRecord
  2
___SHELL
 70
0
 62
7
  6
CONTINUOUS
370
-3
390
F
  0
ENDTAB
  0
TABLE
  2
STYLE
  5
3
100
AcDbSymbolTable
 70
1
  0
STYLE
  5
11
100
AcDbSymbolTableRecord
100
AcDbTextStyleTableRecord
  2
STANDARD
 70
0
 40
0.0
 41
0.8
 50
0.0
 71
0
 42
0.2
  3
txt
  4

  0
STYLE
  5
214
100
AcDbSymbolTableRecord
100
AcDbTextStyleTableRecord
  2
TEXTSTYLE_1
 70
0
 40
0.0
 41
0.8
 50
0.0
 71
0
 42
0.2
  3
gdt
  4

  0
ENDTAB
  0
TABLE
  2
VIEW
  5
6
100
AcDbSymbolTable
 70
0
  0
ENDTAB
  0
TABLE
  2
UCS
  5
7
100
AcDbSymbolTable
 70
0
  0
ENDTAB
  0
TABLE
  2
APPID
  5
9
100
AcDbSymbolTable
 70
1
  0
APPID
  5
215
100
AcDbSymbolTableRecord
100
AcDbRegAppTableRecord
  2
ACAD
 70
0
  0
ENDTAB
  0
TABLE
  2
BLOCK_RECORD
  5
1
100
AcDbSymbolTable
 70
0
  0
BLOCK_RECORD
  5
216
100
AcDbSymbolTableRecord
100
AcDbBlockTableRecord
  2
*Model_Space
  0
BLOCK_RECORD
  5
217
100
AcDbSymbolTableRecord
100
AcDbBlockTableRecord
  2
*Paper_Space
  0
BLOCK_RECORD
  5
218
100
AcDbSymbolTableRecord
100
AcDbBlockTableRecord
  2
_FILLED
  0
BLOCK_RECORD
  5
219
100
AcDbSymbolTableRecord
100
AcDbBlockTableRecord
  2
*D0
  0
BLOCK_RECORD
  5
21A
100
AcDbSymbolTableRecord
100
AcDbBlockTableRecord
  2
*D1
  0
BLOCK_RECORD
  5
21B
100
AcDbSymbolTableRecord
100
AcDbBlockTableRecord
  2
*D2
  0
ENDTAB
  0
TABLE
  2
DIMSTYLE
  5
A
100
AcDbSymbolTable
 70
1
100
AcDbDimStyleTable
 71
0
  0
DIMSTYLE
105
21C
100
AcDbSymbolTableRecord
100
AcDbDimStyleTableRecord
  2
STANDARD
 70
0
  3

  4

 40
1.0
 41
3.0
 42
0.0625
 43
0.38
 44
0.18
 45
0.0
 46
0.0
 47
0.01
 48
0.01
140
3.0
141
0.09
142
0.0
143
25.4
144
1.0
145
0.0
146
1.0
147
0.09
 71
1.0
 72
0.0
 73
0
 74
0
 75
0
 76
0
 77
1
 78
8
170
0
171
2
172
0
173
0
174
0
175
0
176
0
177
0
178
0
270
2
271
2
272
2
273
2
274
2
275
0
280
0
281
0
282
0
283
1
284
8
285
0
286
0
287
3
288
0
340
11
341
218
342
218
343
218
344
218
  0
DIMSTYLE
105
21D
100
AcDbSymbolTableRecord
100
AcDbDimStyleTableRecord
  2
DIMSTYLE_1
 70
0
  3

  4

 40
1.0
 41
3.0
 42
0.0625
 43
0.38
 44
0.18
 45
0.0
 46
0.0
 47
0.0
 48
0.0
140
3.0
141
0.09
142
0.0
143
25.4
144
1.0
145
0.0
146
1.0
147
0.09
 71
0.0
 72
0.0
 73
0
 74
0
 75
0
 76
0
 77
1
 78
8
170
0
171
2
172
0
173
0
174
0
175
0
176
0
177
0
178
0
270
2
271
2
272
2
273
2
274
2
275
0
280
0
281
0
282
0
283
1
284
8
285
0
286
0
287
3
288
0
340
11
341
218
342
218
343
218
344
218
  0
ENDTAB
  0
ENDSEC
  0
SECTION
  2
BLOCKS
  0
BLOCK
  5
20
100
AcDbEntity
  8
0
100
AcDbBlockBegin
  2
*Model_Space
 70
0
 10
0.0
 20
0.0
 30
0.0
  3
*Model_Space
  1

  0
ENDBLK
  5
21
100
AcDbEntity
  8
0
100
AcDbBlockEnd
  0
BLOCK
  5
1C
100
AcDbEntity
  8
0
100
AcDbBlockBegin
  2
*Paper_Space
 70
0
 10
0.0
 20
0.0
 30
0.0
  3
*Paper_Space
  1

  0
ENDBLK
  5
1D
100
AcDbEntity
  8
0
100
AcDbBlockEnd
  0
BLOCK
  5
21E
100
AcDbEntity
  8
0
100
AcDbBlockBegin
  2
_FILLED
 70
64
 10
0.0
 20
0.0
  3
_FILLED
  1

  0
SOLID
  5
21F
100
AcDbEntity
  8
0
  6
BYBLOCK
 62
0
100
AcDbTrace
 10
0.0
 20
0.0
 11
-1.0
 21
0.3166666667
 12
-1.0
 22
-0.3166666667
 13
-1.0
 23
-0.3166666667
  0
ENDBLK
  5
220
100
AcDbEntity
  8
0
  6
BYBLOCK
 62
0
100
AcDbBlockEnd
  0
BLOCK
  5
221
100
AcDbEntity
  8
0
100
AcDbBlockBegin
 62
7
  6
CONTINUOUS
  2
*D0
 70
65
 10
0.0
 20
0.0
  3
*D0
  1

  0
LINE
  5
222
100
AcDbEntity
  8
0
100
AcDbLine
 62
7
  6
CONTINUOUS
 10
-25.5275255406
 20
22.1001713375
 11
-25.5275255406
 21
31.6
  0
LINE
  5
223
100
AcDbEntity
  8
0
100
AcDbLine
 62
7
  6
CONTINUOUS
 10
-32.2275428105
 20
0.5
 11
-32.2275428105
 21
31.6
  0
LINE
  5
224
100
AcDbEntity
  8
0
100
AcDbLine
 62
7
  6
CONTINUOUS
 10
-25.5275255406
 20
30.1
 11
-21.5275255406
 21
30.1
  0
LINE
  5
225
100
AcDbEntity
  8
0
100
AcDbLine
 62
7
  6
CONTINUOUS
 10
-21.5275255406
 20
30.1
 11
-28.8775341756
 21
30.1
  0
LINE
  5
226
100
AcDbEntity
  8
0
100
AcDbLine
 62
7
  6
CONTINUOUS
 10
-32.2275428105
 20
30.1
 11
-36.2275428105
 21
30.1
  0
LINE
  5
227
100
AcDbEntity
  8
0
100
AcDbLine
 62
7
  6
CONTINUOUS
 10
-36.2275428105
 20
30.1
 11
-28.8775341756
 21
30.1
  0
INSERT
  5
228
100
AcDbEntity
  8
0
100
AcDbBlockReference
 62
7
  6
CONTINUOUS
  2
_FILLED
 10
-25.5275255406
 20
30.1
 41
3.0
 42
3.0
 43
3.0
 50
180.0
  0
INSERT
  5
229
100
AcDbEntity
  8
0
100
AcDbBlockReference
 62
7
  6
CONTINUOUS
  2
_FILLED
 10
-32.2275428105
 20
30.1
 41
3.0
 42
3.0
 43
3.0
  0
ENDBLK
  5
22A
100
AcDbEntity
  8
0
  6
BYBLOCK
 62
0
100
AcDbBlockEnd
  0
BLOCK
  5
22B
100
AcDbEntity
  8
0
100
AcDbBlockBegin
 62
7
  6
CONTINUOUS
  2
*D1
 70
65
 10
0.0
 20
0.0
  3
*D1
  1

  0
LINE
  5
22C
100
AcDbEntity
  8
0
100
AcDbLine
 62
7
  6
CONTINUOUS
 10
11.0
 20
22.1001713375
 11
11.0
 21
31.6
  0
LINE
  5
22D
100
AcDbEntity
  8
0
100
AcDbLine
 62
7
  6
CONTINUOUS
 10
-11.0
 20
22.1001713375
 11
-11.0
 21
31.6
  0
LINE
  5
22E
100
AcDbEntity
  8
0
100
AcDbLine
 62
7
  6
CONTINUOUS
 10
11.0
 20
30.1
 11
0.0
 21
30.1
  0
LINE
  5
22F
100
AcDbEntity
  8
0
100
AcDbLine
 62
7
  6
CONTINUOUS
 10
-11.0
 20
30.1
 11
0.0
 21
30.1
  0
INSERT
  5
230
100
AcDbEntity
  8
0
100
AcDbBlockReference
 62
7
  6
CONTINUOUS
  2
_FILLED
 10
11.0
 20
30.1
 41
3.0
 42
3.0
 43
3.0
  0
INSERT
  5
231
100
AcDbEntity
  8
0
100
AcDbBlockReference
 62
7
  6
CONTINUOUS
  2
_FILLED
 10
-11.0
 20
30.1
 41
3.0
 42
3.0
 43
3.0
 50
180.0
  0
ENDBLK
  5
232
100
AcDbEntity
  8
0
  6
BYBLOCK
 62
0
100
AcDbBlockEnd
  0
BLOCK
  5
233
100
AcDbEntity
  8
0
100
AcDbBlockBegin
 62
7
  6
CONTINUOUS
  2
*D2
 70
65
 10
0.0
 20
0.0
  3
*D2
  1

  0
LINE
  5
234
100
AcDbEntity
  8
0
100
AcDbLine
 62
7
  6
CONTINUOUS
 10
11.0001713375
 20
22.1
 11
20.5
 21
22.1
  0
LINE
  5
235
100
AcDbEntity
  8
0
100
AcDbLine
 62
7
  6
CONTINUOUS
 10
11.0001713375
 20
-22.1
 11
20.5
 21
-22.1
  0
LINE
  5
236
100
AcDbEntity
  8
0
100
AcDbLine
 62
7
  6
CONTINUOUS
 10
19.0
 20
22.1
 11
19.0
 21
0.0
  0
LINE
  5
237
100
AcDbEntity
  8
0
100
AcDbLine
 62
7
  6
CONTINUOUS
 10
19.0
 20
-22.1
 11
19.0
 21
0.0
  0
INSERT
  5
238
100
AcDbEntity
  8
0
100
AcDbBlockReference
 62
7
  6
CONTINUOUS
  2
_FILLED
 10
19.0
 20
22.1
 41
3.0
 42
3.0
 43
3.0
 50
90.0
  0
INSERT
  5
239
100
AcDbEntity
  8
0
100
AcDbBlockReference
 62
7
  6
CONTINUOUS
  2
_FILLED
 10
19.0
 20
-22.1
 41
3.0
 42
3.0
 43
3.0
 50
270.0
  0
ENDBLK
  5
23A
100
AcDbEntity
  8
0
  6
BYBLOCK
 62
0
100
AcDbBlockEnd
  0
ENDSEC
  0
SECTION
  2
ENTITIES
  0
DIMENSION
  5
23B
100
AcDbEntity
  8
0
100
AcDbDimension
 62
7
  6
CONTINUOUS
  2
*D0
 10
-32.2275428105
 20
30.1
 11
-32.0918198898
 21
30.85
 70
160
 71
2
 42
6.7000172699
  3
DIMSTYLE_1
100
AcDbAlignedDimension
 13
-25.5275255406
 23
22.1001713375
 14
-32.2275428105
 24
0.5
 50
180.0
100
AcDbRotatedDimension
  0
DIMENSION
  5
23C
100
AcDbEntity
  8
0
100
AcDbDimension
 62
7
  6
CONTINUOUS
  2
*D1
 10
-11.0
 20
30.1
 11
-2.3571428571
 21
30.85
 70
160
 71
2
 42
22.0
  3
DIMSTYLE_1
100
AcDbAlignedDimension
 13
11.0
 23
22.1001713375
 14
-11.0
 24
22.1001713375
 50
180.0
100
AcDbRotatedDimension
  0
DIMENSION
  5
23D
100
AcDbEntity
  8
0
100
AcDbDimension
 62
7
  6
CONTINUOUS
  2
*D2
 10
19.0
 20
-22.1
 11
18.25
 21
-1.1237109794
 70
160
 71
2
 42
44.2
  3
DIMSTYLE_1
100
AcDbAlignedDimension
 13
11.0001713375
 23
22.1
 14
11.0001713375
 24
-22.1
 50
270.0
100
AcDbRotatedDimension
  0
LINE
  5
23E
100
AcDbEntity
  8
RACCORDO
100
AcDbLine
 62
7
  6
CONTINUOUS
 10
-10.5001713375
 20
-22.1
 11
10.5001713375
 21
-22.1
  0
LINE
  5
23F
100
AcDbEntity
  8
RACCORDO
100
AcDbLine
 62
7
  6
CONTINUOUS
 10
-11.0
 20
-21.6001713375
 11
-11.0
 21
21.6001713375
  0
LINE
  5
240
100
AcDbEntity
  8
RACCORDO
100
AcDbLine
 62
253
  6
CONTINUOUS
 10
-10.3945930837
 20
20.8300973546
 11
-10.3945930842
 21
-20.8300973581
  0
LINE
  5
241
100
AcDbEntity
  8
RACCORDO
100
AcDbLine
 62
253
  6
CONTINUOUS
 10
10.3787579845
 20
21.978586647
 11
10.5001713375
 21
22.1
  0
LINE
  5
242
100
AcDbEntity
  8
RACCORDO
100
AcDbLine
 62
253
  6
CONTINUOUS
 10
10.5001713375
 20
-22.1
 11
10.3787579832
 21
-21.9785866456
  0
LINE
  5
243
100
AcDbEntity
  8
RACCORDO
100
AcDbLine
 62
253
  6
CONTINUOUS
 10
10.878586647
 20
21.4787579845
 11
11.0
 21
21.6001713375
  0
LINE
  5
244
100
AcDbEntity
  8
RACCORDO
100
AcDbLine
 62
253
  6
CONTINUOUS
 10
11.0
 20
-21.6001713375
 11
10.8785866456
 21
-21.4787579832
  0
LINE
  5
245
100
AcDbEntity
  8
0
100
AcDbLine
 62
7
  6
CONTINUOUS
 10
-5.119427
 20
-11.2999999815
 11
-5.119427
 21
-11.700000058
  0
LINE
  5
246
100
AcDbEntity
  8
0
100
AcDbLine
 62
7
  6
CONTINUOUS
 10
-4.519427
 20
-11.3
 11
-4.519427
 21
-11.7
  0
LINE
  5
247
100
AcDbEntity
  8
0
100
AcDbLine
 62
7
  6
CONTINUOUS
 10
-3.729427
 20
-12.39
 11
-3.729427
 21
-12.41
  0
LINE
  5
248
100
AcDbEntity
  8
0
100
AcDbLine
 62
7
  6
CONTINUOUS
 10
-3.029427
 20
-12.3899998553
 11
-3.029427
 21
-12.409999978
  0
LINE
  5
249
100
AcDbEntity
  8
0
100
AcDbLine
 62
7
  6
CONTINUOUS
 10
-1.929427
 20
-12.39
 11
-1.929427
 21
-12.41
  0
LINE
  5
24A
100
AcDbEntity
  8
0
100
AcDbLine
 62
7
  6
CONTINUOUS
 10
-1.229427
 20
-12.3899998564
 11
-1.229427
 21
-12.4099999763
  0
LINE
  5
24B
100
AcDbEntity
  8
0
100
AcDbLine
 62
7
  6
CONTINUOUS
 10
-0.5294270633
 20
-10.1500000014
 11
-0.529427
 21
-10.2900822285
  0
LINE
  5
24C
100
AcDbEntity
  8
0
100
AcDbLine
 62
7
  6
CONTINUOUS
 10
-0.529427
 20
-12.7000033983
 11
-0.529427
 21
-12.8499998279
  0
LINE
  5
24D
100
AcDbEntity
  8
0
100
AcDbLine
 62
7
  6
CONTINUOUS
 10
0.070573
 20
-10.1499999991
 11
0.070573
 21
-10.5
  0
LINE
  5
24E
100
AcDbEntity
  8
0
100
AcDbLine
 62
7
  6
CONTINUOUS
 10
0.070573
 20
-12.5
 11
0.070573
 21
-12.85
  0
LWPOLYLINE
  5
24F
100
AcDbEntity
  8
0
100
AcDbPolyline
 62
7
  6
CONTINUOUS
 90
2
 70
0
 43
0.3500000006
 10
18.2499999046
 20
-0.1237110443
 10
16.7499994469
 20
-0.1237110443
  0
LWPOLYLINE
  5
250
100
AcDbEntity
  8
0
100
AcDbPolyline
 62
7
  6
CONTINUOUS
 90
2
 70
0
 43
0.3500000006
 10
18.2499999046
 20
2.2334318848
 10
16.7499994469
 20
2.2334318848
  0
LWPOLYLINE
  5
251
100
AcDbEntity
  8
0
100
AcDbPolyline
 62
7
  6
CONTINUOUS
 90
10
 70
0
 43
0.3500000006
 10
17.749999752
 20
4.2334324951
 10
17.8928575859
 20
4.304861412
 10
17.9642853699
 20
4.304861412
 10
18.1071432037
 20
4.1620035782
 10
18.1071432037
 20
4.0905746613
 10
18.0357142868
 20
4.0191457443
 10
17.9642853699
 20
4.0191457443
 10
17.821428669
 20
4.0905746613
 10
17.749999752
 20
4.1620035782
 10
17.749999752
 20
4.2334324951
  0
LINE
  5
252
100
AcDbEntity
  8
RACCORDO
100
AcDbLine
 62
253
  6
CONTINUOUS
 10
-10.878586647
 20
-21.4787579845
 11
-11.0
 21
-21.6001713375
  0
LINE
  5
253
100
AcDbEntity
  8
RACCORDO
100
AcDbLine
 62
253
  6
CONTINUOUS
 10
-10.3787579845
 20
-21.978586647
 11
-10.5001713375
 21
-22.1
  0
LINE
  5
254
100
AcDbEntity
  8
RACCORDO
100
AcDbLine
 62
253
  6
CONTINUOUS
 10
-11.0
 20
21.6001713375
 11
-10.8785866456
 21
21.4787579832
  0
LINE
  5
255
100
AcDbEntity
  8
RACCORDO
100
AcDbLine
 62
253
  6
CONTINUOUS
 10
-10.5001713375
 20
22.1
 11
-10.3787579832
 21
21.9785866456
  0
LWPOLYLINE
  5
256
100
AcDbEntity
  8
0
100
AcDbPolyline
 62
7
  6
CONTINUOUS
 90
3
 70
0
 43
0.3500000006
 10
17.9642853699
 20
4.304861412
 10
18.1785709877
 20
4.2334324951
 10
18.4642855225
 20
4.0905746613
  0
LINE
  5
257
100
AcDbEntity
  8
RACCORDO
100
AcDbLine
 62
253
  6
CONTINUOUS
 10
10.3945930837
 20
-20.8300973553
 11
10.3945930842
 21
20.8300973573
  0
LINE
  5
258
100
AcDbEntity
  8
RACCORDO
100
AcDbLine
 62
7
  6
CONTINUOUS
 10
11.0
 20
-21.6001713375
 11
11.0
 21
21.6001713375
  0
LWPOLYLINE
  5
259
100
AcDbEntity
  8
0
100
AcDbPolyline
 62
7
  6
CONTINUOUS
 90
3
 70
0
 43
0.3500000006
 10
17.6071430511
 20
2.7334320374
 10
17.6071430511
 20
1.2334315796
 10
15.2500001221
 20
1.876289566
  0
LWPOLYLINE
  5
25A
100
AcDbEntity
  8
0
100
AcDbPolyline
 62
7
  6
CONTINUOUS
 90
3
 70
0
 43
0.3500000006
 10
17.6071430511
 20
0.3762891083
 10
17.6071430511
 20
-1.1237113495
 10
15.2500001221
 20
-0.480853363
  0
LWPOLYLINE
  5
25B
100
AcDbEntity
  8
0
100
AcDbPolyline
 62
7
  6
CONTINUOUS
 90
7
 70
0
 43
0.3500000006
 10
18.2499999046
 20
6.8048599091
 10
18.2499999046
 20
5.3048594513
 10
16.1071425934
 20
6.8048599091
 10
15.6785713577
 20
6.8048599091
 10
15.2500001221
 20
6.3762886734
 10
15.2500001221
 20
5.7334329529
 10
15.8928569756
 20
5.3048594513
  0
LINE
  5
25C
100
AcDbEntity
  8
RACCORDO
100
AcDbLine
 62
7
  6
CONTINUOUS
 10
-10.5001713375
 20
22.1
 11
10.5001713375
 21
22.1
  0
LWPOLYLINE
  5
25D
100
AcDbEntity
  8
0
100
AcDbPolyline
 62
7
  6
CONTINUOUS
 90
7
 70
0
 43
0.3500000006
 10
1.5000000329
 20
30.8500000305
 10
0.0
 20
30.8500000305
 10
1.5000000329
 20
32.9928584747
 10
1.5000000329
 20
33.4214274445
 10
1.0714285848
 20
33.850000946
 10
0.4285714127
 20
33.850000946
 10
0.0
 20
33.2071429596
  0
LWPOLYLINE
  5
25E
100
AcDbEntity
  8
0
100
AcDbPolyline
 62
7
  6
CONTINUOUS
 90
7
 70
0
 43
0.3500000006
 10
-0.8571428254
 20
30.8500000305
 10
-2.3571427875
 20
30.8500000305
 10
-0.8571428254
 20
32.9928584747
 10
-0.8571428254
 20
33.4214274445
 10
-1.2857142735
 20
33.850000946
 10
-1.9285714102
 20
33.850000946
 10
-2.3571427875
 20
33.2071429596
  0
LWPOLYLINE
  5
25F
100
AcDbEntity
  8
0
100
AcDbPolyline
 62
7
  6
CONTINUOUS
 90
10
 70
0
 43
0.3500000006
 10
-31.0203915024
 20
33.850000946
 10
-31.6632494888
 20
33.2071429596
 10
-32.0918207245
 20
32.3500004883
 10
-32.0918207245
 20
31.2785735321
 10
-31.6632494888
 20
30.8500000305
 10
-31.0203915024
 20
30.8500000305
 10
-30.5918202667
 20
31.2785735321
 10
-30.5918202667
 20
32.1357160034
 10
-31.0203915024
 20
32.5642849731
 10
-31.9489628906
 20
32.5642849731
  0
LINE
  5
260
100
AcDbEntity
  8
RACCORDO
100
AcDbLine
 62
7
  6
CONTINUOUS
 10
-25.5275255406
 20
-22.1
 11
-30.5177238641
 21
-21.9693270581
  0
LINE
  5
261
100
AcDbEntity
  8
RACCORDO
100
AcDbLine
 62
253
  6
CONTINUOUS
 10
-25.5275255406
 20
-21.6001713375
 11
-30.1641144817
 21
-21.4787579832
  0
LINE
  5
262
100
AcDbEntity
  8
RACCORDO
100
AcDbLine
 62
253
  6
CONTINUOUS
 10
-31.333300035
 20
-20.8300973788
 11
-30.8479850556
 21
-20.8087575806
  0
LWPOLYLINE
  5
263
100
AcDbEntity
  8
0
100
AcDbPolyline
 62
7
  6
CONTINUOUS
 90
3
 70
0
 43
0.3500000006
 10
-29.020390892
 20
31.1357156982
 10
-29.091819809
 20
30.9214266815
 10
-29.2346776428
 20
30.6357155457
  0
LWPOLYLINE
  5
264
100
AcDbEntity
  8
0
100
AcDbPolyline
 62
7
  6
CONTINUOUS
 90
3
 70
0
 10
-31.9762296055
 20
-14.1475664787
 10
-31.8475792975
 20
-17.4302485115
 10
-31.6846796893
 20
-20.8322351581
  0
LINE
  5
265
100
AcDbEntity
  8
0
100
AcDbLine
 62
7
  6
CONTINUOUS
 10
-31.9979606398
 20
-13.5478979261
 11
-31.9860489351
 21
-13.8970133531
  0
LINE
  5
266
100
AcDbEntity
  8
0
100
AcDbLine
 62
7
  6
CONTINUOUS
 10
-32.0836771523
 20
-10.7268940248
 11
-32.0392022473
 21
-12.2731108685
  0
LINE
  5
267
100
AcDbEntity
  8
0
100
AcDbLine
 62
7
  6
CONTINUOUS
 10
-32.1239449846
 20
-9.1029745028
 11
-32.1157727391
 21
-9.4522113037
  0
LINE
  5
268
100
AcDbEntity
  8
0
100
AcDbLine
 62
7
  6
CONTINUOUS
 10
-32.1667067272
 20
-6.9759545175
 11
-32.1289323085
 21
-8.8548990743
  0
LWPOLYLINE
  5
269
100
AcDbEntity
  8
0
100
AcDbPolyline
 62
7
  6
CONTINUOUS
 90
9
 70
0
 10
-31.6846796893
 20
20.8322351581
 10
-31.8478697342
 20
17.4235885523
 10
-31.9845594217
 20
13.9397926488
 10
-32.090880817
 20
10.4549378163
 10
-32.1668229464
 20
6.9692886907
 10
-32.2123773618
 20
3.4831099617
 10
-32.2275427966
 20
-0.0033334725
 10
-32.2123192515
 20
-3.4897766272
 10
-32.1667067272
 20
-6.9759545175
  0
LWPOLYLINE
  5
26A
100
AcDbEntity
  8
0
100
AcDbPolyline
 62
7
  6
CONTINUOUS
 90
4
 70
0
 43
0.3500000006
 10
-28.0203905869
 20
33.2071429596
 10
-28.0203905869
 20
33.850000946
 10
-26.520392395
 20
33.850000946
 10
-27.3775348663
 20
30.8500000305
  0
LINE
  5
26B
100
AcDbEntity
  8
RACCORDO
100
AcDbLine
 62
7
  6
CONTINUOUS
 10
-25.5275255406
 20
-22.1
 11
-25.5275255406
 21
22.1
  0
LWPOLYLINE
  5
26C
100
AcDbEntity
  8
0
100
AcDbPolyline
 62
7
  6
CONTINUOUS
 90
10
 70
0
 43
0.3500000006
 10
-29.091819809
 20
31.3500001831
 10
-29.020390892
 20
31.2071423492
 10
-29.020390892
 20
31.1357156982
 10
-29.1632487259
 20
30.9928578644
 10
-29.2346776428
 20
30.9928578644
 10
-29.3061065598
 20
31.0642845154
 10
-29.3061065598
 20
31.1357156982
 10
-29.2346776428
 20
31.2785735321
 10
-29.1632487259
 20
31.3500001831
 10
-29.091819809
 20
31.3500001831
  0
LINE
  5
26D
100
AcDbEntity
  8
RACCORDO
100
AcDbLine
 62
253
  6
CONTINUOUS
 10
-30.164114429
 20
21.4787579845
 11
-25.5275255406
 21
21.6001713375
  0
LINE
  5
26E
100
AcDbEntity
  8
RACCORDO
100
AcDbLine
 62
7
  6
CONTINUOUS
 10
-30.5177238489
 20
21.9693270585
 11
-25.5275255406
 21
22.1
  0
LINE
  5
26F
100
AcDbEntity
  8
RACCORDO
100
AcDbLine
 62
253
  6
CONTINUOUS
 10
-31.3332866608
 20
20.8300968077
 11
-30.8479850279
 21
20.8087575834
  0
ARC
  5
270
100
AcDbEntity
  8
RACCORDO
100
AcDbCircle
 62
253
  6
CONTINUOUS
 10
-10.3783243438
 20
-21.4783243438
 40
0.5002656608
100
AcDbArc
 50
180.0496655042
 51
269.9503344958
  0
ARC
  5
271
100
AcDbEntity
  8
0
100
AcDbCircle
 62
7
  6
CONTINUOUS
 10
-12.3766754281
 20
-11.4999995689
 40
16.968700903
100
AcDbArc
 50
355.0573500763
 51
4.9426781428
  0
ARC
  5
272
100
AcDbEntity
  8
0
100
AcDbCircle
 62
7
  6
CONTINUOUS
 10
-12.3721782703
 20
-11.5003828613
 40
16.9641875185
100
AcDbArc
 50
355.0572940606
 51
355.4648354555
  0
ARC
  5
273
100
AcDbEntity
  8
0
100
AcDbCircle
 62
7
  6
CONTINUOUS
 10
-12.3815407179
 20
-11.4997780354
 40
16.3735680418
100
AcDbArc
 50
355.058043151
 51
358.3524415071
  0
ARC
  5
274
100
AcDbEntity
  8
0
100
AcDbCircle
 62
7
  6
CONTINUOUS
 10
-12.3797667252
 20
-11.500122544
 40
16.3717920793
100
AcDbArc
 50
2.7455502464
 51
4.9421585061
  0
ARC
  5
275
100
AcDbEntity
  8
0
100
AcDbCircle
 62
7
  6
CONTINUOUS
 10
-12.3778726452
 20
-11.5
 40
16.3698944841
100
AcDbArc
 50
355.0576980623
 51
4.9423019639
  0
ARC
  5
276
100
AcDbEntity
  8
0
100
AcDbCircle
 62
7
  6
CONTINUOUS
 10
-12.3758247474
 20
-11.5000292662
 40
16.3678472114
100
AcDbArc
 50
358.3527452989
 51
359.0473043206
  0
ARC
  5
277
100
AcDbEntity
  8
0
100
AcDbCircle
 62
7
  6
CONTINUOUS
 10
-12.3753872853
 20
-11.4999600916
 40
16.3674096243
100
AcDbArc
 50
1.1629762427
 51
1.6479213138
  0
ARC
  5
278
100
AcDbEntity
  8
0
100
AcDbCircle
 62
7
  6
CONTINUOUS
 10
-4.1194254113
 20
-11.7000022155
 40
0.9999977847
100
AcDbArc
 50
180.0000000038
 51
269.9907583905
  0
ARC
  5
279
100
AcDbEntity
  8
0
100
AcDbCircle
 62
7
  6
CONTINUOUS
 10
-4.1193868346
 20
-11.7000322862
 40
0.3999677246
100
AcDbArc
 50
179.9998402314
 51
269.9815659107
  0
ARC
  5
27A
100
AcDbEntity
  8
0
100
AcDbCircle
 62
7
  6
CONTINUOUS
 10
-4.0187508001
 20
-12.390047474
 40
0.2893238039
100
AcDbArc
 50
0.0093973196
 51
89.9817659605
  0
ARC
  5
27B
100
AcDbEntity
  8
0
100
AcDbCircle
 62
7
  6
CONTINUOUS
 10
-2.7403801305
 20
-12.4099632245
 40
0.2890468718
100
AcDbArc
 50
180.0072854026
 51
269.9679338681
  0
ARC
  5
27C
100
AcDbEntity
  8
0
100
AcDbCircle
 62
7
  6
CONTINUOUS
 10
-4.0184204826
 20
-12.4099844596
 40
0.288993483
100
AcDbArc
 50
269.9947344856
 51
359.9969189574
  0
ARC
  5
27D
100
AcDbEntity
  8
0
100
AcDbCircle
 62
7
  6
CONTINUOUS
 10
-2.7404345855
 20
-12.3900155459
 40
0.2889924149
100
AcDbArc
 50
89.9813640353
 51
179.9969178615
  0
ARC
  5
27E
100
AcDbEntity
  8
0
100
AcDbCircle
 62
7
  6
CONTINUOUS
 10
-4.119427
 20
-11.3
 40
1.0
100
AcDbArc
 50
89.9942587691
 51
180.0000000015
  0
ARC
  5
27F
100
AcDbEntity
  8
0
100
AcDbCircle
 62
7
  6
CONTINUOUS
 10
-4.1194267881
 20
-11.2970670628
 40
0.9970670627
100
AcDbArc
 50
89.9942558462
 51
90.3070208994
  0
ARC
  5
280
100
AcDbEntity
  8
0
100
AcDbCircle
 62
7
  6
CONTINUOUS
 10
-4.1194777726
 20
-11.3000397644
 40
0.3999492294
100
AcDbArc
 50
89.9939307597
 51
179.9943032046
  0
ARC
  5
281
100
AcDbEntity
  8
0
100
AcDbCircle
 62
7
  6
CONTINUOUS
 10
-0.3294082621
 20
-12.5000002838
 40
0.3999885978
100
AcDbArc
 50
0.0000406497
 51
90.0022002425
  0
ARC
  5
282
100
AcDbEntity
  8
0
100
AcDbCircle
 62
7
  6
CONTINUOUS
 10
-0.327432913
 20
-12.5000665918
 40
0.3980059186
100
AcDbArc
 50
0.0095866672
 51
5.4955179065
  0
ARC
  5
283
100
AcDbEntity
  8
0
100
AcDbCircle
 62
7
  6
CONTINUOUS
 10
-0.9400979778
 20
-12.4099526302
 40
0.2893290261
100
AcDbArc
 50
180.009375944
 51
269.9873550374
  0
ARC
  5
284
100
AcDbEntity
  8
0
100
AcDbCircle
 62
7
  6
CONTINUOUS
 10
-2.2187546219
 20
-12.3900474038
 40
0.2893276258
100
AcDbArc
 50
0.0093817265
 51
89.9707829369
  0
ARC
  5
285
100
AcDbEntity
  8
0
100
AcDbCircle
 62
7
  6
CONTINUOUS
 10
-2.2184196976
 20
-12.4099844562
 40
0.288992698
100
AcDbArc
 50
269.9839876471
 51
359.9969182876
  0
ARC
  5
286
100
AcDbEntity
  8
0
100
AcDbCircle
 62
7
  6
CONTINUOUS
 10
-0.9404353996
 20
-12.3900155482
 40
0.2889916008
100
AcDbArc
 50
89.9982802493
 51
179.9969173926
  0
ARC
  5
287
100
AcDbEntity
  8
0
100
AcDbCircle
 62
7
  6
CONTINUOUS
 10
-0.3293883747
 20
-10.5000353743
 40
0.3999556266
100
AcDbArc
 50
269.9029190844
 51
359.9991039856
  0
ARC
  5
288
100
AcDbEntity
  8
0
100
AcDbCircle
 62
7
  6
CONTINUOUS
 10
-0.3267212618
 20
-10.4999442095
 40
0.3972942657
100
AcDbArc
 50
355.1397453601
 51
359.9919713023
  0
ARC
  5
289
100
AcDbEntity
  8
RACCORDO
100
AcDbCircle
 62
253
  6
CONTINUOUS
 10
-18539.6611579524
 20
0.0000003223
 40
18528.8121637149
100
AcDbArc
 50
359.9356540373
 51
0.0643459607
  0
ARC
  5
28A
100
AcDbEntity
  8
RACCORDO
100
AcDbCircle
 62
253
  6
CONTINUOUS
 10
-10.3783243405
 20
21.4783243405
 40
0.5002656627
100
AcDbArc
 50
90.0496657208
 51
179.9503342792
  0
ARC
  5
28B
100
AcDbEntity
  8
RACCORDO
100
AcDbCircle
 62
253
  6
CONTINUOUS
 10
0.0000003849
 20
-5837.23169339
 40
5815.262368467
100
AcDbArc
 50
89.8977416177
 51
90.1022583899
  0
ARC
  5
28C
100
AcDbEntity
  8
0
100
AcDbCircle
 62
7
  6
CONTINUOUS
 10
2.0020003237
 20
-25.7785529189
 40
16.9770182081
100
AcDbArc
 50
85.4935485168
 51
88.4980332131
  0
ARC
  5
28D
100
AcDbEntity
  8
0
100
AcDbCircle
 62
7
  6
CONTINUOUS
 10
2.0020043805
 20
-25.7794018283
 40
16.3778642451
100
AcDbArc
 50
85.4937979245
 51
88.4982074567
  0
ARC
  5
28E
100
AcDbEntity
  8
0
100
AcDbCircle
 62
7
  6
CONTINUOUS
 10
0.771045522
 20
-10.1562636292
 40
1.3062814551
100
AcDbArc
 50
94.5058591575
 51
97.178526604
  0
ARC
  5
28F
100
AcDbEntity
  8
0
100
AcDbCircle
 62
7
  6
CONTINUOUS
 10
0.7746758647
 20
-10.1499862102
 40
1.304102928
100
AcDbArc
 50
176.9746983716
 51
180.0006070219
  0
ARC
  5
290
100
AcDbEntity
  8
0
100
AcDbCircle
 62
7
  6
CONTINUOUS
 10
0.7742686254
 20
-12.8500141627
 40
1.3036956255
100
AcDbArc
 50
179.9993700068
 51
183.2849039799
  0
ARC
  5
291
100
AcDbEntity
  8
0
100
AcDbCircle
 62
7
  6
CONTINUOUS
 10
0.7705724839
 20
-10.1500050859
 40
1.3000014524
100
AcDbArc
 50
94.5067020125
 51
179.9997759043
  0
ARC
  5
292
100
AcDbEntity
  8
0
100
AcDbCircle
 62
7
  6
CONTINUOUS
 10
0.7705386576
 20
-12.8500263029
 40
1.299965039
100
AcDbArc
 50
179.9988407038
 51
265.4946791141
  0
ARC
  5
293
100
AcDbEntity
  8
0
100
AcDbCircle
 62
7
  6
CONTINUOUS
 10
0.7705768844
 20
-12.8500001198
 40
0.7000001858
100
AcDbArc
 50
180.0007930654
 51
265.4932344633
  0
ARC
  5
294
100
AcDbEntity
  8
0
100
AcDbCircle
 62
7
  6
CONTINUOUS
 10
0.7705783044
 20
-10.1500049028
 40
0.7000053549
100
AcDbArc
 50
94.5068777593
 51
179.999598625
  0
ARC
  5
295
100
AcDbEntity
  8
0
100
AcDbCircle
 62
7
  6
CONTINUOUS
 10
2.0021670231
 20
-25.7777651491
 40
16.9762263402
100
AcDbArc
 50
88.4985259505
 51
94.436090843
  0
ARC
  5
296
100
AcDbEntity
  8
0
100
AcDbCircle
 62
7
  6
CONTINUOUS
 10
2.002167
 20
-25.775508992
 40
16.9739705957
100
AcDbArc
 50
85.4932962413
 51
94.5067074016
  0
ARC
  5
297
100
AcDbEntity
  8
0
100
AcDbCircle
 62
7
  6
CONTINUOUS
 10
2.0021670264
 20
-25.7785478411
 40
16.3770062892
100
AcDbArc
 50
88.4986979833
 51
94.5061929963
  0
ARC
  5
298
100
AcDbEntity
  8
0
100
AcDbCircle
 62
7
  6
CONTINUOUS
 10
2.002167
 20
-25.7764391232
 40
16.3748979218
100
AcDbArc
 50
85.4935645868
 51
94.5064390311
  0
ARC
  5
299
100
AcDbEntity
  8
0
100
AcDbCircle
 62
7
  6
CONTINUOUS
 10
3.23376
 20
-12.85
 40
1.3000000633
100
AcDbArc
 50
274.5067350111
 51
355.0572919594
  0
ARC
  5
29A
100
AcDbEntity
  8
0
100
AcDbCircle
 62
7
  6
CONTINUOUS
 10
3.23376
 20
-10.15
 40
1.2999998551
100
AcDbArc
 50
4.9427079368
 51
85.4932613284
  0
ARC
  5
29B
100
AcDbEntity
  8
0
100
AcDbCircle
 62
7
  6
CONTINUOUS
 10
3.2337596179
 20
-10.1500034922
 40
0.7000013065
100
AcDbArc
 50
4.9426487807
 51
85.492855706
  0
ARC
  5
29C
100
AcDbEntity
  8
0
100
AcDbCircle
 62
7
  6
CONTINUOUS
 10
3.2337597465
 20
-12.8499965887
 40
0.7000006753
100
AcDbArc
 50
274.5071394381
 51
355.0576719581
  0
CIRCLE
  5
29D
100
AcDbEntity
  8
0
100
AcDbCircle
 62
7
  6
CONTINUOUS
 10
2.6405520731
 20
-11.4999933001
 40
0.6500051567
  0
ARC
  5
29E
100
AcDbEntity
  8
0
100
AcDbCircle
 62
7
  6
CONTINUOUS
 10
2.6386770491
 20
-11.5001141319
 40
0.6481284956
100
AcDbArc
 50
174.1649783753
 51
179.9899209692
  0
ARC
  5
29F
100
AcDbEntity
  8
0
100
AcDbCircle
 62
7
  6
CONTINUOUS
 10
2.6424204577
 20
-11.4998859334
 40
0.6481281158
100
AcDbArc
 50
354.1670183019
 51
359.989926733
  0
ARC
  5
2A0
100
AcDbEntity
  8
RACCORDO
100
AcDbCircle
 62
253
  6
CONTINUOUS
 10
10.3783243405
 20
-21.4783243405
 40
0.5002656627
100
AcDbArc
 50
270.0496657161
 51
359.9503342839
  0
ARC
  5
2A1
100
AcDbEntity
  8
RACCORDO
100
AcDbCircle
 62
253
  6
CONTINUOUS
 10
18539.6611454846
 20
-0.0000003223
 40
18528.8121512472
100
AcDbArc
 50
179.9356540373
 51
180.0643459607
  0
ARC
  5
2A2
100
AcDbEntity
  8
RACCORDO
100
AcDbCircle
 62
253
  6
CONTINUOUS
 10
-0.0000003861
 20
5837.2316941562
 40
5815.2623692333
100
AcDbArc
 50
269.8977416177
 51
270.1022583899
  0
ARC
  5
2A3
100
AcDbEntity
  8
0
100
AcDbCircle
 62
7
  6
CONTINUOUS
 10
2.0023393462
 20
2.7786735282
 40
16.9771389686
100
AcDbArc
 50
265.4935543864
 51
268.4972208433
  0
ARC
  5
2A4
100
AcDbEntity
  8
0
100
AcDbCircle
 62
7
  6
CONTINUOUS
 10
2.002167
 20
2.7755442104
 40
16.9740057838
100
AcDbArc
 50
265.4933022122
 51
274.5066941367
  0
ARC
  5
2A5
100
AcDbEntity
  8
0
100
AcDbCircle
 62
7
  6
CONTINUOUS
 10
2.0021427696
 20
2.7738430017
 40
16.9723049484
100
AcDbArc
 50
268.4974565659
 51
269.1696363252
  0
ARC
  5
2A6
100
AcDbEntity
  8
0
100
AcDbCircle
 62
7
  6
CONTINUOUS
 10
2.0022027178
 20
2.773331862
 40
16.9717936832
100
AcDbArc
 50
271.0835755827
 51
271.5021417835
  0
ARC
  5
2A7
100
AcDbEntity
  8
0
100
AcDbCircle
 62
7
  6
CONTINUOUS
 10
2.0020004292
 20
2.7794888325
 40
16.3779512908
100
AcDbArc
 50
271.5024075706
 51
274.5061781299
  0
ARC
  5
2A8
100
AcDbEntity
  8
0
100
AcDbCircle
 62
7
  6
CONTINUOUS
 10
2.002167
 20
2.7764650522
 40
16.3749237707
100
AcDbArc
 50
265.4935682472
 51
274.5064281113
  0
ARC
  5
2A9
100
AcDbEntity
  8
0
100
AcDbCircle
 62
7
  6
CONTINUOUS
 10
2.0021317756
 20
2.7742832935
 40
16.3727422507
100
AcDbArc
 50
268.4976577509
 51
268.8918138195
  0
ARC
  5
2AA
100
AcDbEntity
  8
RACCORDO
100
AcDbCircle
 62
253
  6
CONTINUOUS
 10
10.3783243438
 20
21.4783243438
 40
0.5002656608
100
AcDbArc
 50
0.0496655001
 51
89.9503344999
  0
ARC
  5
2AB
100
AcDbEntity
  8
RACCORDO
100
AcDbCircle
 62
253
  6
CONTINUOUS
 10
454.9278817401
 20
-0.0000000004
 40
486.7071294526
100
AcDbArc
 50
177.547105361
 51
182.4528946387
  0
ARC
  5
2AC
100
AcDbEntity
  8
RACCORDO
100
AcDbCircle
 62
253
  6
CONTINUOUS
 10
454.136866902
 20
-0.0000003222
 40
485.4310569041
100
AcDbArc
 50
177.5431744091
 51
182.4568255145
  0
ARC
  5
2AD
100
AcDbEntity
  8
0
100
AcDbCircle
 62
7
  6
CONTINUOUS
 10
-71.0542403827
 20
-11.1050536314
 40
39.0480560778
100
AcDbArc
 50
1.5659093717
 51
1.7027334584
  0
ARC
  5
2AE
100
AcDbEntity
  8
0
100
AcDbCircle
 62
7
  6
CONTINUOUS
 10
-69.7368918658
 20
-14.0392732665
 40
37.8127301846
100
AcDbArc
 50
0.7645744144
 51
1.6325490686
  0
ARC
  5
2AF
100
AcDbEntity
  8
0
100
AcDbCircle
 62
7
  6
CONTINUOUS
 10
-68.6699377461
 20
-14.0186914223
 40
36.7456240963
100
AcDbArc
 50
0.8576610318
 51
1.6478633911
  0
ARC
  5
2B0
100
AcDbEntity
  8
0
100
AcDbCircle
 62
7
  6
CONTINUOUS
 10
-67.2501875146
 20
-10.9880277704
 40
35.2422058352
100
AcDbArc
 50
1.6963265794
 51
2.3688820478
  0
ARC
  5
2B1
100
AcDbEntity
  8
0
100
AcDbCircle
 62
7
  6
CONTINUOUS
 10
1.2265839058
 20
-12.751540059
 40
33.2323802983
100
AcDbArc
 50
181.975295914
 51
182.2496935363
  0
ARC
  5
2B2
100
AcDbEntity
  8
0
100
AcDbCircle
 62
7
  6
CONTINUOUS
 10
-65.2393654865
 20
-10.9214831361
 40
33.230345437
100
AcDbArc
 50
1.5234944251
 51
2.5114381296
  0
ARC
  5
2B3
100
AcDbEntity
  8
0
100
AcDbCircle
 62
7
  6
CONTINUOUS
 10
-1.3693564623
 20
-8.3931843778
 40
30.762778367
100
AcDbArc
 50
181.0201360016
 51
181.3221039305
  0
ARC
  5
2B4
100
AcDbEntity
  8
0
100
AcDbCircle
 62
7
  6
CONTINUOUS
 10
-61.5827530629
 20
-13.9067802544
 40
29.6575588485
100
AcDbArc
 50
0.71872354
 51
0.8464280065
  0
ARC
  5
2B5
100
AcDbEntity
  8
0
100
AcDbCircle
 62
7
  6
CONTINUOUS
 10
-59.8541277677
 20
-10.6950469024
 40
27.8403598093
100
AcDbArc
 50
2.3955763949
 51
2.5316534284
  0
ARC
  5
2B6
100
AcDbEntity
  8
0
100
AcDbCircle
 62
7
  6
CONTINUOUS
 10
-58.9659514027
 20
-13.8741969326
 40
27.0405543528
100
AcDbArc
 50
0.5413247143
 51
0.7193684563
  0
ARC
  5
2B7
100
AcDbEntity
  8
0
100
AcDbCircle
 62
7
  6
CONTINUOUS
 10
-59.0426687941
 20
-12.2633127363
 40
27.0332055484
100
AcDbArc
 50
1.4720591516
 51
1.6180255965
  0
ARC
  5
2B8
100
AcDbEntity
  8
0
100
AcDbCircle
 62
7
  6
CONTINUOUS
 10
-59.0089255492
 20
-12.2624203428
 40
26.9994505599
100
AcDbArc
 50
1.6181544949
 51
1.7575858381
  0
ARC
  5
2B9
100
AcDbEntity
  8
0
100
AcDbCircle
 62
7
  6
CONTINUOUS
 10
-59.0047682315
 20
-12.2622974469
 40
26.9952914296
100
AcDbArc
 50
1.6181426746
 51
1.7643983131
  0
ARC
  5
2BA
100
AcDbEntity
  8
0
100
AcDbCircle
 62
7
  6
CONTINUOUS
 10
-58.8885762074
 20
-13.8735587181
 40
26.9631772435
100
AcDbArc
 50
0.5849595432
 51
0.7199479314
  0
ARC
  5
2BB
100
AcDbEntity
  8
0
100
AcDbCircle
 62
7
  6
CONTINUOUS
 10
-57.3511645363
 20
-10.5847822297
 40
25.3349690098
100
AcDbArc
 50
2.5325628282
 51
2.6762910907
  0
ARC
  5
2BC
100
AcDbEntity
  8
0
100
AcDbCircle
 62
7
  6
CONTINUOUS
 10
-7.5787973364
 20
-8.5196581322
 40
24.5520781924
100
AcDbArc
 50
180.9952868001
 51
181.3613802849
  0
ARC
  5
2BD
100
AcDbEntity
  8
0
100
AcDbCircle
 62
7
  6
CONTINUOUS
 10
-56.3995077848
 20
-10.5414962567
 40
24.3823291185
100
AcDbArc
 50
2.5296035229
 51
2.7272753167
  0
ARC
  5
2BE
100
AcDbEntity
  8
0
100
AcDbCircle
 62
7
  6
CONTINUOUS
 10
-56.3300831866
 20
-13.6142713608
 40
24.3798869015
100
AcDbArc
 50
1.5315921026
 51
1.6546331028
  0
ARC
  5
2BF
100
AcDbEntity
  8
0
100
AcDbCircle
 62
7
  6
CONTINUOUS
 10
-56.202707537
 20
-13.6106419154
 40
24.2524595636
100
AcDbArc
 50
1.4355103946
 51
1.6547600676
  0
ARC
  5
2C0
100
AcDbEntity
  8
0
100
AcDbCircle
 62
7
  6
CONTINUOUS
 10
-55.4416231554
 20
-10.727738775
 40
23.4108967963
100
AcDbArc
 50
1.561746735
 51
1.6761442727
  0
ARC
  5
2C1
100
AcDbEntity
  8
0
100
AcDbCircle
 62
7
  6
CONTINUOUS
 10
-55.2745092462
 20
-13.5865998688
 40
23.3239504751
100
AcDbArc
 50
1.3430261697
 51
1.5329479147
  0
ARC
  5
2C2
100
AcDbEntity
  8
0
100
AcDbCircle
 62
7
  6
CONTINUOUS
 10
-55.3359617437
 20
-10.7247651806
 40
23.3051935914
100
AcDbArc
 50
1.5615184222
 51
1.7236451561
  0
ARC
  5
2C3
100
AcDbEntity
  8
0
100
AcDbCircle
 62
7
  6
CONTINUOUS
 10
-54.2828459108
 20
-10.6928834562
 40
22.251595298
100
AcDbArc
 50
1.7231536179
 51
1.8871904968
  0
ARC
  5
2C4
100
AcDbEntity
  8
0
100
AcDbCircle
 62
7
  6
CONTINUOUS
 10
-54.2319455466
 20
-10.6914739604
 40
22.2006760466
100
AcDbArc
 50
1.6739089006
 51
1.9086360708
  0
ARC
  5
2C5
100
AcDbEntity
  8
0
100
AcDbCircle
 62
7
  6
CONTINUOUS
 10
-9.8302845988
 20
-13.165647662
 40
22.1677866883
100
AcDbArc
 50
181.9853479747
 51
182.3095101029
  0
ARC
  5
2C6
100
AcDbEntity
  8
0
100
AcDbCircle
 62
7
  6
CONTINUOUS
 10
-23.3884977152
 20
-13.126312464
 40
8.6182771759
100
AcDbArc
 50
182.2362272337
 51
182.514753279
  0
ARC
  5
2C7
100
AcDbEntity
  8
0
100
AcDbCircle
 62
7
  6
CONTINUOUS
 10
-24.1346571309
 20
-9.3906799996
 40
7.9797678516
100
AcDbArc
 50
180.7785304335
 51
180.9840029565
  0
ARC
  5
2C8
100
AcDbEntity
  8
0
100
AcDbCircle
 62
7
  6
CONTINUOUS
 10
-24.8995336344
 20
-8.819262641
 40
7.2287510585
100
AcDbArc
 50
180.6527932599
 51
181.0056273475
  0
ARC
  5
2C9
100
AcDbEntity
  8
0
100
AcDbCircle
 62
7
  6
CONTINUOUS
 10
-26.0068370796
 20
-13.8229184393
 40
5.9778896085
100
AcDbArc
 50
182.2629289858
 51
182.7590869084
  0
ARC
  5
2CA
100
AcDbEntity
  8
RACCORDO
100
AcDbCircle
 62
253
  6
CONTINUOUS
 10
-30.1335062298
 20
-20.7779450195
 40
1.2009812539
100
AcDbArc
 50
182.4889517485
 51
268.5396609248
  0
ARC
  5
2CB
100
AcDbEntity
  8
RACCORDO
100
AcDbCircle
 62
253
  6
CONTINUOUS
 10
-30.1335065274
 20
20.7779453801
 40
1.2009812526
100
AcDbArc
 50
91.4603228061
 51
177.5110647193
  0
ARC
  5
2CC
100
AcDbEntity
  8
RACCORDO
100
AcDbCircle
 62
7
  6
CONTINUOUS
 10
-30.4863079707
 20
-20.7697383612
 40
1.2
100
AcDbArc
 50
182.985352211
 51
268.5
  0
ARC
  5
2CD
100
AcDbEntity
  8
RACCORDO
100
AcDbCircle
 62
7
  6
CONTINUOUS
 10
-30.4863079708
 20
20.7697383612
 40
1.2
100
AcDbArc
 50
91.5
 51
177.0146477891
  0
ARC
  5
2CE
100
AcDbEntity
  8
0
100
AcDbCircle
 62
7
  6
CONTINUOUS
 10
-31.4591551385
 20
-14.0950780643
 40
0.5189949303
100
AcDbArc
 50
185.6285629411
 51
186.2138076405
  0
ARC
  5
2CF
100
AcDbEntity
  8
0
100
AcDbCircle
 62
7
  6
CONTINUOUS
 10
-31.5036795775
 20
-13.49754279
 40
0.4949881509
100
AcDbArc
 50
185.8315931381
 51
186.4465998134
  0
ARC
  5
2D0
100
AcDbEntity
  8
0
100
AcDbCircle
 62
7
  6
CONTINUOUS
 10
-31.9073963215
 20
-13.5616455931
 40
0.085868842
100
AcDbArc
 50
194.284596488
 51
196.4174700737
  0
LINE
  5
2D1
100
AcDbEntity
  8
0
100
AcDbLine
 62
7
  6
CONTINUOUS
 10
-4.0193636094
 20
-12.1000051991
 11
-4.0527420679
 21
-12.1000017399
  0
LINE
  5
2D2
100
AcDbEntity
  8
0
100
AcDbLine
 62
7
  6
CONTINUOUS
 10
-4.0527420679
 20
-12.1000017399
 11
-4.0861260394
 21
-12.0999982515
  0
LINE
  5
2D3
100
AcDbEntity
  8
0
100
AcDbLine
 62
7
  6
CONTINUOUS
 10
-4.0861260394
 20
-12.0999982515
 11
-4.102820092
 21
-12.0999964963
  0
LINE
  5
2D4
100
AcDbEntity
  8
0
100
AcDbLine
 62
7
  6
CONTINUOUS
 10
-4.102820092
 20
-12.0999964963
 11
-4.1195155222
 21
-12.0999947339
  0
LINE
  5
2D5
100
AcDbEntity
  8
0
100
AcDbLine
 62
7
  6
CONTINUOUS
 10
-4.1195867117
 20
-12.6999947055
 11
-4.0861825973
 21
-12.6999982386
  0
LINE
  5
2D6
100
AcDbEntity
  8
0
100
AcDbLine
 62
7
  6
CONTINUOUS
 10
-4.0861825973
 20
-12.6999982386
 11
-4.0528169569
 21
-12.7000017389
  0
LINE
  5
2D7
100
AcDbEntity
  8
0
100
AcDbLine
 62
7
  6
CONTINUOUS
 10
-4.0528169569
 20
-12.7000017389
 11
-4.0380002997
 21
-12.7000032841
  0
LINE
  5
2D8
100
AcDbEntity
  8
0
100
AcDbLine
 62
7
  6
CONTINUOUS
 10
-4.0380002997
 20
-12.7000032841
 11
-4.0194897925
 21
-12.7000052065
  0
LINE
  5
2D9
100
AcDbEntity
  8
0
100
AcDbLine
 62
7
  6
CONTINUOUS
 10
-0.5394263856
 20
-10.3000668058
 11
-0.6087551371
 21
-10.3000658337
  0
LINE
  5
2DA
100
AcDbEntity
  8
0
100
AcDbLine
 62
7
  6
CONTINUOUS
 10
-0.6087551371
 20
-10.3000658337
 11
-0.9372097775
 21
-10.300059633
  0
LINE
  5
2DB
100
AcDbEntity
  8
0
100
AcDbLine
 62
7
  6
CONTINUOUS
 10
-0.9372097775
 20
-10.300059633
 11
-1.1052524796
 21
-10.3000554418
  0
LINE
  5
2DC
100
AcDbEntity
  8
0
100
AcDbLine
 62
7
  6
CONTINUOUS
 10
-1.1052524796
 20
-10.3000554418
 11
-1.3349957076
 21
-10.3000485956
  0
LINE
  5
2DD
100
AcDbEntity
  8
0
100
AcDbLine
 62
7
  6
CONTINUOUS
 10
-1.3349957076
 20
-10.3000485956
 11
-1.5379363867
 21
-10.3000414756
  0
LINE
  5
2DE
100
AcDbEntity
  8
0
100
AcDbLine
 62
7
  6
CONTINUOUS
 10
-1.5379363867
 20
-10.3000414756
 11
-1.7327816984
 21
-10.3000336931
  0
LINE
  5
2DF
100
AcDbEntity
  8
0
100
AcDbLine
 62
7
  6
CONTINUOUS
 10
-1.7327816984
 20
-10.3000336931
 11
-2.9261152574
 21
-10.2999657932
  0
LINE
  5
2E0
100
AcDbEntity
  8
0
100
AcDbLine
 62
7
  6
CONTINUOUS
 10
-2.9261152574
 20
-10.2999657932
 11
-4.1193269248
 21
-10.299863103
  0
SPLINE
  5
2E1
100
AcDbEntity
  8
0
100
AcDbSpline
 62
7
  6
CONTINUOUS
 70
0
 71
3
 72
8
 73
4
 74
2
 42
0.0000001
 43
0.0000001
 44
0.0000000001
 12
0.0
 22
-0.0052462222
 32
0.0
 13
-0.0026499284
 23
-0.0045277728
 33
0.0
 40
0.0
 40
0.0
 40
0.0
 40
0.0
 40
1.0
 40
1.0
 40
1.0
 40
1.0
 10
-0.529427
 20
-10.2900822285
 30
0.0
 10
-0.529427
 20
-10.2918309692
 30
0.0
 10
-0.529922738
 20
-10.2936346974
 30
0.0
 10
-0.5308060475
 20
-10.2951439549
 30
0.0
 11
-0.529427
 21
-10.2900822285
 31
0.0
 11
-0.5308060475
 21
-10.2951439549
 31
0.0
  0
SPLINE
  5
2E2
100
AcDbEntity
  8
0
100
AcDbSpline
 62
7
  6
CONTINUOUS
 70
0
 71
3
 72
8
 73
4
 74
2
 42
0.0000001
 43
0.0000001
 44
0.0000000001
 12
-0.0026094575
 22
-0.0044586226
 32
0.0
 13
-0.0044993691
 23
-0.0025385549
 33
0.0
 40
0.0
 40
0.0
 40
0.0
 40
0.0
 40
1.0
 40
1.0
 40
1.0
 40
1.0
 10
-0.5308060475
 20
-10.2951439549
 30
0.0
 10
-0.5316758666
 20
-10.2966301625
 30
0.0
 10
-0.5329896172
 20
-10.2979201237
 30
0.0
 10
-0.5344894069
 20
-10.2987663087
 30
0.0
 11
-0.5308060475
 21
-10.2951439549
 31
0.0
 11
-0.5344894069
 21
-10.2987663087
 31
0.0
  0
SPLINE
  5
2E3
100
AcDbEntity
  8
0
100
AcDbSpline
 62
7
  6
CONTINUOUS
 70
0
 71
3
 72
8
 73
4
 74
2
 42
0.0000001
 43
0.0000001
 44
0.0000000001
 12
-0.0044464985
 22
-0.0025087252
 32
0.0
 13
-0.0051053943
 23
0.0000000673
 33
0.0
 40
0.0
 40
0.0
 40
0.0
 40
0.0
 40
1.0
 40
1.0
 40
1.0
 40
1.0
 10
-0.5344894069
 20
-10.2987663087
 30
0.0
 10
-0.535971573
 20
-10.2996025505
 30
0.0
 10
-0.5377245875
 20
-10.3000668282
 30
0.0
 10
-0.5394263856
 20
-10.3000668058
 30
0.0
 11
-0.5344894069
 21
-10.2987663087
 31
0.0
 11
-0.5394263856
 21
-10.3000668058
 31
0.0
  0
LINE
  5
2E4
100
AcDbEntity
  8
0
100
AcDbLine
 62
7
  6
CONTINUOUS
 10
-2.2193085209
 20
-12.1000157839
 11
-2.3927444162
 21
-12.1000055173
  0
LINE
  5
2E5
100
AcDbEntity
  8
0
100
AcDbLine
 62
7
  6
CONTINUOUS
 10
-2.3927444162
 20
-12.1000055173
 11
-2.5660766072
 21
-12.0999944851
  0
LINE
  5
2E6
100
AcDbEntity
  8
0
100
AcDbLine
 62
7
  6
CONTINUOUS
 10
-2.5660766072
 20
-12.0999944851
 11
-2.623829166
 21
-12.0999906379
  0
LINE
  5
2E7
100
AcDbEntity
  8
0
100
AcDbLine
 62
7
  6
CONTINUOUS
 10
-2.623829166
 20
-12.0999906379
 11
-2.6403380763
 21
-12.0999895224
  0
LINE
  5
2E8
100
AcDbEntity
  8
0
100
AcDbLine
 62
7
  6
CONTINUOUS
 10
-2.6403380763
 20
-12.0999895224
 11
-2.6815692935
 21
-12.0999867059
  0
LINE
  5
2E9
100
AcDbEntity
  8
0
100
AcDbLine
 62
7
  6
CONTINUOUS
 10
-2.6815692935
 20
-12.0999867059
 11
-2.7022234255
 21
-12.0999852786
  0
LINE
  5
2EA
100
AcDbEntity
  8
0
100
AcDbLine
 62
7
  6
CONTINUOUS
 10
-2.7022234255
 20
-12.0999852786
 11
-2.7392969822
 21
-12.0999826892
  0
LINE
  5
2EB
100
AcDbEntity
  8
0
100
AcDbLine
 62
7
  6
CONTINUOUS
 10
-2.739559807
 20
-12.6999826023
 11
-2.5661145379
 21
-12.6999944608
  0
LINE
  5
2EC
100
AcDbEntity
  8
0
100
AcDbLine
 62
7
  6
CONTINUOUS
 10
-2.5661145379
 20
-12.6999944608
 11
-2.3185126009
 21
-12.7000100455
  0
LINE
  5
2ED
100
AcDbEntity
  8
0
100
AcDbLine
 62
7
  6
CONTINUOUS
 10
-2.3185126009
 20
-12.7000100455
 11
-2.2566245596
 21
-12.700013694
  0
LINE
  5
2EE
100
AcDbEntity
  8
0
100
AcDbLine
 62
7
  6
CONTINUOUS
 10
-2.2566245596
 20
-12.700013694
 11
-2.2195439068
 21
-12.7000158327
  0
LINE
  5
2EF
100
AcDbEntity
  8
0
100
AcDbLine
 62
7
  6
CONTINUOUS
 10
0.6892097876
 20
-8.8523939876
 11
0.6684226971
 21
-8.8540195801
  0
LINE
  5
2F0
100
AcDbEntity
  8
0
100
AcDbLine
 62
7
  6
CONTINUOUS
 10
2.7106508391
 20
-14.183669231
 11
2.7434981547
 21
-14.1822650915
  0
LINE
  5
2F1
100
AcDbEntity
  8
0
100
AcDbLine
 62
7
  6
CONTINUOUS
 10
-0.9394622865
 20
-12.6999956383
 11
-0.8027645032
 21
-12.6999987067
  0
LINE
  5
2F2
100
AcDbEntity
  8
0
100
AcDbLine
 62
7
  6
CONTINUOUS
 10
-0.8027645032
 20
-12.6999987067
 11
-0.529427
 21
-12.7000033983
  0
LINE
  5
2F3
100
AcDbEntity
  8
0
100
AcDbLine
 62
7
  6
CONTINUOUS
 10
-0.3293988781
 20
-12.1000039055
 11
-0.5327543935
 21
-12.1000016556
  0
LINE
  5
2F4
100
AcDbEntity
  8
0
100
AcDbLine
 62
7
  6
CONTINUOUS
 10
-0.5327543935
 20
-12.1000016556
 11
-0.7360867226
 21
-12.0999983446
  0
LINE
  5
2F5
100
AcDbEntity
  8
0
100
AcDbLine
 62
7
  6
CONTINUOUS
 10
-0.7360867226
 20
-12.0999983446
 11
-0.8038559098
 21
-12.0999970053
  0
LINE
  5
2F6
100
AcDbEntity
  8
0
100
AcDbLine
 62
7
  6
CONTINUOUS
 10
-0.8038559098
 20
-12.0999970053
 11
-0.8231986524
 21
-12.0999966014
  0
LINE
  5
2F7
100
AcDbEntity
  8
0
100
AcDbLine
 62
7
  6
CONTINUOUS
 10
-0.8231986524
 20
-12.0999966014
 11
-0.8716209487
 21
-12.0999955482
  0
LINE
  5
2F8
100
AcDbEntity
  8
0
100
AcDbLine
 62
7
  6
CONTINUOUS
 10
-0.8716209487
 20
-12.0999955482
 11
-0.8958251126
 21
-12.0999949992
  0
LINE
  5
2F9
100
AcDbEntity
  8
0
100
AcDbLine
 62
7
  6
CONTINUOUS
 10
-0.8958251126
 20
-12.0999949992
 11
-0.9393818271
 21
-12.0999939734
  0
LINE
  5
2FA
100
AcDbEntity
  8
0
100
AcDbLine
 62
7
  6
CONTINUOUS
 10
3.973232331
 20
-10.7159046177
 11
3.9743629096
 21
-10.7398464247
  0
LINE
  5
2FB
100
AcDbEntity
  8
0
100
AcDbLine
 62
7
  6
CONTINUOUS
 10
-4.1193862306
 20
-10.8998547681
 11
-2.8561600404
 21
-10.8999648873
  0
LINE
  5
2FC
100
AcDbEntity
  8
0
100
AcDbLine
 62
7
  6
CONTINUOUS
 10
-2.8561600404
 20
-10.8999648873
 11
-1.1717481027
 21
-10.9000496574
  0
LINE
  5
2FD
100
AcDbEntity
  8
0
100
AcDbLine
 62
7
  6
CONTINUOUS
 10
-1.1717481027
 20
-10.9000496574
 11
-1.0529234969
 21
-10.90005296
  0
LINE
  5
2FE
100
AcDbEntity
  8
0
100
AcDbLine
 62
7
  6
CONTINUOUS
 10
-1.0529234969
 20
-10.90005296
 11
-0.7507285457
 21
-10.9000597694
  0
LINE
  5
2FF
100
AcDbEntity
  8
0
100
AcDbLine
 62
7
  6
CONTINUOUS
 10
-0.7507285457
 20
-10.9000597694
 11
-0.6009806335
 21
-10.9000622982
  0
LINE
  5
300
100
AcDbEntity
  8
0
100
AcDbLine
 62
7
  6
CONTINUOUS
 10
-0.6009806335
 20
-10.9000622982
 11
-0.3300661723
 21
-10.9000654493
  0
LINE
  5
301
100
AcDbEntity
  8
0
100
AcDbLine
 62
7
  6
CONTINUOUS
 10
-2.2194434174
 20
-12.7000158385
 11
-2.7394473179
 21
-12.6999826103
  0
LINE
  5
302
100
AcDbEntity
  8
0
100
AcDbLine
 62
7
  6
CONTINUOUS
 10
-2.7394068503
 20
-12.0999826815
 11
-2.2194106063
 21
-12.1000157781
  0
SPLINE
  5
303
100
AcDbEntity
  8
0
100
AcDbSpline
 62
7
  6
CONTINUOUS
 70
0
 71
3
 72
9
 73
5
 74
3
 42
0.0000001
 43
0.0000001
 44
0.0000000001
 12
-0.0
 22
-0.0152970884
 32
0.0
 13
-0.0152970884
 23
0.0000002015
 33
0.0
 40
0.0
 40
0.0
 40
0.0
 40
0.0
 40
0.4999123621
 40
1.0
 40
1.0
 40
1.0
 40
1.0
 10
-0.529427
 20
-10.2900827111
 30
0.0
 10
-0.529427
 20
-10.292631779
 30
0.0
 10
-0.5315619276
 20
-10.2979452567
 30
0.0
 10
-0.5368769262
 20
-10.3000668394
 30
0.0
 10
-0.5394268878
 20
-10.3000668058
 30
0.0
 11
-0.529427
 21
-10.2900827111
 31
0.0
 11
-0.5323562925
 21
-10.2971466313
 31
0.0
 11
-0.5394268878
 21
-10.3000668058
 31
0.0
  0
LINE
  5
304
100
AcDbEntity
  8
0
100
AcDbLine
 62
7
  6
CONTINUOUS
 10
-4.1193268937
 20
-10.299863103
 11
-0.5394268878
 21
-10.3000668058
  0
LINE
  5
305
100
AcDbEntity
  8
0
100
AcDbLine
 62
7
  6
CONTINUOUS
 10
-4.0194567245
 20
-12.7000052099
 11
-4.1195328641
 21
-12.6999947113
  0
LINE
  5
306
100
AcDbEntity
  8
0
100
AcDbLine
 62
7
  6
CONTINUOUS
 10
-4.1194690741
 20
-12.0999947388
 11
-4.0193973095
 21
-12.1000051956
  0
LINE
  5
307
100
AcDbEntity
  8
0
100
AcDbLine
 62
7
  6
CONTINUOUS
 10
-0.3294301763
 20
-10.9000654545
 11
-4.1193861451
 21
-10.8998547681
  0
LINE
  5
308
100
AcDbEntity
  8
0
100
AcDbLine
 62
7
  6
CONTINUOUS
 10
-0.9394200876
 20
-12.0999939724
 11
-0.3294236224
 21
-12.1000039053
  0
LINE
  5
309
100
AcDbEntity
  8
0
100
AcDbLine
 62
7
  6
CONTINUOUS
 10
-0.529427
 20
-12.7000033983
 11
-0.9394339636
 21
-12.6999956389
  0
SPLINE
  5
30A
100
AcDbEntity
  8
RACCORDO
100
AcDbSpline
 62
253
  6
CONTINUOUS
 70
0
 71
3
 72
19
 73
15
 74
13
 42
0.0000001
 43
0.0000001
 44
0.0000000001
 12
0.4724845154
 22
-0.4760666913
 32
0.0
 13
0.0007567077
 23
-0.6707313465
 33
0.0
 40
0.0
 40
0.0
 40
0.0
 40
0.0
 40
0.0075943369
 40
0.0240080799
 40
0.0493067253
 40
0.0833048835
 40
0.1257259022
 40
0.1762173243
 40
0.234340508
 40
0.2996149266
 40
0.4492759906
 40
0.6199706198
 40
0.8057617399
 40
1.0
 40
1.0
 40
1.0
 40
1.0
 10
-10.8785866456
 20
21.4787579832
 30
0.0
 10
-10.8773905768
 20
21.4775528462
 30
0.0
 10
-10.8765836621
 20
21.4717717459
 30
0.0
 10
-10.8746997406
 20
21.4612760279
 30
0.0
 10
-10.8733207239
 20
21.4442004597
 30
0.0
 10
-10.871682733
 20
21.4216019934
 30
0.0
 10
-10.8701962306
 20
21.3932334716
 30
0.0
 10
-10.8687352648
 20
21.3595079126
 30
0.0
 10
-10.8673694662
 20
21.3206502023
 30
0.0
 10
-10.865591447
 20
21.2596276443
 30
0.0
 10
-10.8637384987
 20
21.1734273659
 30
0.0
 10
-10.8620987357
 20
21.0602760214
 30
0.0
 10
-10.8610298296
 20
20.9371505821
 30
0.0
 10
-10.8607278583
 20
20.8521848105
 30
0.0
 10
-10.8606788644
 20
20.8087575806
 30
0.0
 11
-10.8785866456
 21
21.4787579832
 31
0.0
 11
-10.8768690377
 21
21.4739625431
 31
0.0
 11
-10.8751683528
 21
21.4630854768
 31
0.0
 11
-10.8735019653
 21
21.4461988928
 31
0.0
 11
-10.8718847739
 21
21.4234526642
 31
0.0
 11
-10.8703302702
 21
21.3950420351
 31
0.0
 11
-10.8688517717
 21
21.3612081228
 31
0.0
 11
-10.8674624012
 21
21.3222478222
 31
0.0
 11
-10.8661747586
 21
21.2784851349
 31
0.0
 11
-10.8639490057
 21
21.1781273826
 31
0.0
 11
-10.8622537976
 21
21.063649622
 31
0.0
 11
-10.861150345
 21
20.9390385001
 31
0.0
 11
-10.8606788644
 21
20.8087575806
 31
0.0
  0
LINE
  5
30B
100
AcDbEntity
  8
RACCORDO
100
AcDbLine
 62
253
  6
CONTINUOUS
 10
10.3945894185
 20
20.8314008262
 11
-10.3945894179
 21
20.8314008262
  0
LINE
  5
30C
100
AcDbEntity
  8
RACCORDO
100
AcDbLine
 62
253
  6
CONTINUOUS
 10
-10.3945894184
 20
-20.8314008366
 11
10.3945894179
 21
-20.8314008366
  0
SPLINE
  5
30D
100
AcDbEntity
  8
RACCORDO
100
AcDbSpline
 62
253
  6
CONTINUOUS
 70
0
 71
3
 72
18
 73
14
 74
12
 42
0.0000001
 43
0.0000001
 44
0.0000000001
 12
0.4674632459
 22
0.0018790562
 32
0.0
 13
0.2434628339
 23
0.3990629846
 33
0.0
 40
0.0
 40
0.0
 40
0.0
 40
0.0
 40
0.1943378524
 40
0.3803447224
 40
0.5507037639
 40
0.6998188143
 40
0.8227640197
 40
0.8731658117
 40
0.9155681027
 40
0.9495660468
 40
0.9749705113
 40
0.9917011984
 40
1.0
 40
1.0
 40
1.0
 40
1.0
 10
10.3945930836
 20
-20.8300973788
 30
0.0
 10
10.424875018
 20
-20.8299756549
 30
0.0
 10
10.4841401635
 20
-20.829502808
 30
0.0
 10
10.5699416229
 20
-20.82811817
 30
0.0
 10
10.6486835347
 20
-20.8260987304
 30
0.0
 10
10.7175730689
 20
-20.8235339895
 30
0.0
 10
10.7677618446
 20
-20.8208949522
 30
0.0
 10
10.8012821104
 20
-20.8184668546
 30
0.0
 10
10.8209892629
 20
-20.8167077619
 30
0.0
 10
10.8366800825
 20
-20.8148746724
 30
0.0
 10
10.848578198
 20
-20.8130910365
 30
0.0
 10
10.855902829
 20
-20.8112430685
 30
0.0
 10
10.8600053812
 20
-20.8098614954
 30
0.0
 10
10.8606788644
 20
-20.8087575806
 30
0.0
 11
10.3945930836
 21
-20.8300973788
 31
0.0
 11
10.4854366786
 21
-20.829366234
 31
0.0
 11
10.5723769774
 21
-20.827935062
 31
0.0
 11
10.6519869152
 21
-20.8258501589
 31
0.0
 11
10.7216423993
 21
-20.8231871976
 31
0.0
 11
10.7790286391
 21
-20.820033537
 31
0.0
 11
10.8025263341
 21
-20.8183051498
 31
0.0
 11
10.8222650801
 21
-20.8164939026
 31
0.0
 11
10.8380464757
 21
-20.8146144382
 31
0.0
 11
10.8497645121
 21
-20.8126854367
 31
0.0
 11
10.8573362786
 21
-20.8107265877
 31
0.0
 11
10.8606788644
 21
-20.8087575806
 31
0.0
  0
SPLINE
  5
30E
100
AcDbEntity
  8
RACCORDO
100
AcDbSpline
 62
253
  6
CONTINUOUS
 70
0
 71
3
 72
18
 73
14
 74
12
 42
0.0000001
 43
0.0000001
 44
0.0000000001
 12
0.4674639429
 22
-0.0018790028
 32
0.0
 13
0.2435841548
 23
-0.3989897594
 33
0.0
 40
0.0
 40
0.0
 40
0.0
 40
0.0
 40
0.1943347861
 40
0.3803391683
 40
0.5506966731
 40
0.6998112628
 40
0.8227571128
 40
0.8731596077
 40
0.9155628311
 40
0.9495619138
 40
0.9749676911
 40
0.9916998175
 40
1.0
 40
1.0
 40
1.0
 40
1.0
 10
10.3945921873
 20
20.8300968077
 30
0.0
 10
10.4248736891
 20
20.8299750891
 30
0.0
 10
10.4841380574
 20
20.8295022617
 30
0.0
 10
10.5699385408
 20
20.8281176766
 30
0.0
 10
10.6486798718
 20
20.8260983091
 30
0.0
 10
10.7175693031
 20
20.8235336495
 30
0.0
 10
10.7677582905
 20
20.8208946896
 30
0.0
 10
10.8012789759
 20
20.818466658
 30
0.0
 10
10.8209865771
 20
20.8167076084
 30
0.0
 10
10.836678003
 20
20.8148745417
 30
0.0
 10
10.848576641
 20
20.8130909598
 30
0.0
 10
10.8559021543
 20
20.8112429391
 30
0.0
 10
10.8600049341
 20
20.8098614793
 30
0.0
 10
10.8606788651
 20
20.8087575834
 30
0.0
 11
10.3945921873
 21
20.8300968077
 31
0.0
 11
10.4854344845
 21
20.8293656939
 31
0.0
 11
10.5723737507
 21
20.8279345784
 31
0.0
 11
10.6519830907
 21
20.8258497514
 31
0.0
 11
10.7216384666
 21
20.8231868776
 31
0.0
 11
10.7790250989
 21
20.8200333072
 31
0.0
 11
10.8025231619
 21
20.8183049643
 31
0.0
 11
10.8222623792
 21
20.8164937599
 31
0.0
 11
10.8380443395
 21
20.814614336
 31
0.0
 11
10.849763022
 21
20.8126853725
 31
0.0
 11
10.8573355046
 21
20.8107265586
 31
0.0
 11
10.8606788651
 21
20.8087575834
 31
0.0
  0
SPLINE
  5
30F
100
AcDbEntity
  8
RACCORDO
100
AcDbSpline
 62
253
  6
CONTINUOUS
 70
0
 71
3
 72
18
 73
14
 74
12
 42
0.0000001
 43
0.0000001
 44
0.0000000001
 12
-0.4674632459
 22
-0.0018790562
 32
0.0
 13
-0.243462836
 23
-0.3990629833
 33
0.0
 40
0.0
 40
0.0
 40
0.0
 40
0.0
 40
0.1943378524
 40
0.3803447223
 40
0.5507037638
 40
0.6998188142
 40
0.8227640196
 40
0.8731658116
 40
0.9155681026
 40
0.9495660467
 40
0.9749705112
 40
0.9917011984
 40
1.0
 40
1.0
 40
1.0
 40
1.0
 10
-10.3945930836
 20
20.8300973788
 30
0.0
 10
-10.424875018
 20
20.8299756549
 30
0.0
 10
-10.4841401635
 20
20.829502808
 30
0.0
 10
-10.5699416229
 20
20.82811817
 30
0.0
 10
-10.6486835346
 20
20.8260987304
 30
0.0
 10
-10.7175730688
 20
20.8235339895
 30
0.0
 10
-10.7677618446
 20
20.8208949522
 30
0.0
 10
-10.8012821104
 20
20.8184668546
 30
0.0
 10
-10.8209892629
 20
20.8167077619
 30
0.0
 10
-10.8366800825
 20
20.8148746724
 30
0.0
 10
-10.848578198
 20
20.8130910365
 30
0.0
 10
-10.8559028289
 20
20.8112430685
 30
0.0
 10
-10.8600053812
 20
20.8098614954
 30
0.0
 10
-10.8606788644
 20
20.8087575806
 30
0.0
 11
-10.3945930836
 21
20.8300973788
 31
0.0
 11
-10.4854366786
 21
20.829366234
 31
0.0
 11
-10.5723769774
 21
20.827935062
 31
0.0
 11
-10.6519869152
 21
20.8258501589
 31
0.0
 11
-10.7216423993
 21
20.8231871976
 31
0.0
 11
-10.779028639
 21
20.820033537
 31
0.0
 11
-10.8025263341
 21
20.8183051498
 31
0.0
 11
-10.8222650801
 21
20.8164939026
 31
0.0
 11
-10.8380464757
 21
20.8146144382
 31
0.0
 11
-10.8497645121
 21
20.8126854367
 31
0.0
 11
-10.8573362786
 21
20.8107265877
 31
0.0
 11
-10.8606788644
 21
20.8087575806
 31
0.0
  0
SPLINE
  5
310
100
AcDbEntity
  8
RACCORDO
100
AcDbSpline
 62
253
  6
CONTINUOUS
 70
0
 71
3
 72
18
 73
14
 74
12
 42
0.0000001
 43
0.0000001
 44
0.0000000001
 12
-0.4674639429
 22
0.0018790028
 32
0.0
 13
-0.2435841541
 23
0.3989897598
 33
0.0
 40
0.0
 40
0.0
 40
0.0
 40
0.0
 40
0.1943347861
 40
0.3803391683
 40
0.5506966732
 40
0.6998112628
 40
0.8227571129
 40
0.8731596077
 40
0.9155628311
 40
0.9495619138
 40
0.9749676911
 40
0.9916998175
 40
1.0
 40
1.0
 40
1.0
 40
1.0
 10
-10.3945921873
 20
-20.8300968077
 30
0.0
 10
-10.4248736891
 20
-20.8299750891
 30
0.0
 10
-10.4841380575
 20
-20.8295022617
 30
0.0
 10
-10.5699385408
 20
-20.8281176766
 30
0.0
 10
-10.6486798719
 20
-20.8260983091
 30
0.0
 10
-10.7175693031
 20
-20.8235336495
 30
0.0
 10
-10.7677582905
 20
-20.8208946896
 30
0.0
 10
-10.8012789759
 20
-20.8184666579
 30
0.0
 10
-10.8209865771
 20
-20.8167076083
 30
0.0
 10
-10.836678003
 20
-20.8148745417
 30
0.0
 10
-10.848576641
 20
-20.8130909597
 30
0.0
 10
-10.8559021543
 20
-20.8112429391
 30
0.0
 10
-10.8600049341
 20
-20.8098614793
 30
0.0
 10
-10.8606788651
 20
-20.8087575834
 30
0.0
 11
-10.3945921873
 21
-20.8300968077
 31
0.0
 11
-10.4854344845
 21
-20.8293656939
 31
0.0
 11
-10.5723737508
 21
-20.8279345784
 31
0.0
 11
-10.6519830908
 21
-20.8258497514
 31
0.0
 11
-10.7216384666
 21
-20.8231868775
 31
0.0
 11
-10.7790250989
 21
-20.8200333072
 31
0.0
 11
-10.8025231619
 21
-20.8183049643
 31
0.0
 11
-10.8222623792
 21
-20.8164937599
 31
0.0
 11
-10.8380443395
 21
-20.814614336
 31
0.0
 11
-10.849763022
 21
-20.8126853725
 31
0.0
 11
-10.8573355046
 21
-20.8107265586
 31
0.0
 11
-10.8606788651
 21
-20.8087575834
 31
0.0
  0
SPLINE
  5
311
100
AcDbEntity
  8
RACCORDO
100
AcDbSpline
 62
253
  6
CONTINUOUS
 70
0
 71
3
 72
21
 73
17
 74
15
 42
0.0000001
 43
0.0000001
 44
0.0000000001
 12
0.5092882247
 22
1.029766455
 32
0.0
 13
0.0014442248
 23
1.1488217276
 33
0.0
 40
0.0
 40
0.0
 40
0.0
 40
0.0
 40
0.0025180147
 40
0.0072873239
 40
0.0143192945
 40
0.02360685
 40
0.0488920223
 40
0.0829235478
 40
0.1254109579
 40
0.1759900663
 40
0.2342086352
 40
0.2995741338
 40
0.4493742288
 40
0.6201195451
 40
0.8058696729
 40
1.0
 40
1.0
 40
1.0
 40
1.0
 10
10.3787579832
 20
-21.9785866456
 30
0.0
 10
10.3791854482
 20
-21.9777223233
 30
0.0
 10
10.3796389567
 20
-21.9749120125
 30
0.0
 10
10.3803760997
 20
-21.9695166417
 30
0.0
 10
10.3810384257
 20
-21.9614466459
 30
0.0
 10
10.3821066235
 20
-21.9455613284
 30
0.0
 10
10.3833017479
 20
-21.9193068777
 30
0.0
 10
10.3846541033
 20
-21.8803492463
 30
0.0
 10
10.385957616
 20
-21.8316936913
 30
0.0
 10
10.3872146894
 20
-21.7737744943
 30
0.0
 10
10.3884054297
 20
-21.707090605
 30
0.0
 10
10.3899621431
 20
-21.6024121692
 30
0.0
 10
10.3916088731
 20
-21.4546397536
 30
0.0
 10
10.3931057968
 20
-21.2607640297
 30
0.0
 10
10.3941425742
 20
-21.0499092168
 30
0.0
 10
10.3944996418
 20
-20.9044377367
 30
0.0
 10
10.3945930977
 20
-20.8300973574
 30
0.0
 11
10.3787579832
 21
-21.9785866456
 31
0.0
 11
10.3794894968
 21
-21.9757879132
 31
0.0
 11
10.3802209315
 21
-21.9703578639
 31
0.0
 11
10.380950219
 21
-21.9623123625
 31
0.0
 11
10.3816752912
 21
-21.9516672736
 31
0.0
 11
10.3831047949
 21
-21.9226542906
 31
0.0
 11
10.3844959472
 21
-21.8835828622
 31
0.0
 11
10.3858368691
 21
-21.8347907861
 31
0.0
 11
10.3871165896
 21
-21.7766984553
 31
0.0
 11
10.3883252274
 21
-21.7098265671
 31
0.0
 11
10.389453014
 21
-21.634741672
 31
0.0
 11
10.3914277542
 21
-21.4626592623
 31
0.0
 11
10.3929736258
 21
-21.2665092696
 31
0.0
 11
10.3940411495
 21
-21.0531179884
 31
0.0
 11
10.3945930977
 21
-20.8300973574
 31
0.0
  0
SPLINE
  5
312
100
AcDbEntity
  8
RACCORDO
100
AcDbSpline
 62
253
  6
CONTINUOUS
 70
0
 71
3
 72
21
 73
17
 74
15
 42
0.0000001
 43
0.0000001
 44
0.0000000001
 12
0.0014442233
 22
-1.1488217283
 32
0.0
 13
0.5092880171
 23
-1.0297665584
 33
0.0
 40
0.0
 40
0.0
 40
0.0
 40
0.0
 40
0.1941303269
 40
0.3798804547
 40
0.5506257709
 40
0.700425866
 40
0.7657913647
 40
0.8240099336
 40
0.8745890421
 40
0.9170764523
 40
0.9511079779
 40
0.9763931501
 40
0.9856807055
 40
0.9927126761
 40
0.9974819853
 40
1.0
 40
1.0
 40
1.0
 40
1.0
 10
-10.3945930925
 20
-20.8300973579
 30
0.0
 10
-10.3944996367
 20
-20.9044377371
 30
0.0
 10
-10.3941425697
 20
-21.0499092173
 30
0.0
 10
-10.3931057927
 20
-21.2607640302
 30
0.0
 10
-10.3916088696
 20
-21.4546397541
 30
0.0
 10
-10.3899621402
 20
-21.6024121699
 30
0.0
 10
-10.3884054273
 20
-21.7070906058
 30
0.0
 10
-10.3872146875
 20
-21.7737744952
 30
0.0
 10
-10.3859576147
 20
-21.8316936924
 30
0.0
 10
-10.3846541025
 20
-21.8803492475
 30
0.0
 10
-10.3833017475
 20
-21.9193068789
 30
0.0
 10
-10.3821066235
 20
-21.9455613297
 30
0.0
 10
-10.3810384261
 20
-21.9614466471
 30
0.0
 10
-10.3803761004
 20
-21.9695166429
 30
0.0
 10
-10.3796389577
 20
-21.9749120138
 30
0.0
 10
-10.3791854494
 20
-21.9777223246
 30
0.0
 10
-10.3787579845
 20
-21.978586647
 30
0.0
 11
-10.3945930925
 21
-20.8300973579
 31
0.0
 11
-10.394041145
 21
-21.0531179888
 31
0.0
 11
-10.3929736217
 21
-21.26650927
 31
0.0
 11
-10.3914277508
 21
-21.4626592628
 31
0.0
 11
-10.3894530112
 21
-21.6347416727
 31
0.0
 11
-10.3883252251
 21
-21.7098265679
 31
0.0
 11
-10.3871165878
 21
-21.7766984562
 31
0.0
 11
-10.3858368679
 21
-21.8347907871
 31
0.0
 11
-10.3844959464
 21
-21.8835828634
 31
0.0
 11
-10.3831047945
 21
-21.9226542919
 31
0.0
 11
-10.3816752913
 21
-21.9516672748
 31
0.0
 11
-10.3809502195
 21
-21.9623123638
 31
0.0
 11
-10.3802209323
 21
-21.9703578651
 31
0.0
 11
-10.3794894979
 21
-21.9757879144
 31
0.0
 11
-10.3787579845
 21
-21.978586647
 31
0.0
  0
SPLINE
  5
313
100
AcDbEntity
  8
RACCORDO
100
AcDbSpline
 62
253
  6
CONTINUOUS
 70
0
 71
3
 72
21
 73
17
 74
15
 42
0.0000001
 43
0.0000001
 44
0.0000000001
 12
-0.0014442232
 22
1.148821729
 32
0.0
 13
-0.5092880165
 23
1.0297665595
 33
0.0
 40
0.0
 40
0.0
 40
0.0
 40
0.0
 40
0.1941303269
 40
0.3798804546
 40
0.5506257709
 40
0.7004258659
 40
0.7657913647
 40
0.8240099336
 40
0.874589042
 40
0.9170764522
 40
0.9511079779
 40
0.9763931501
 40
0.9856807055
 40
0.9927126761
 40
0.9974819853
 40
1.0
 40
1.0
 40
1.0
 40
1.0
 10
10.3945930925
 20
20.8300973571
 30
0.0
 10
10.3944996367
 20
20.9044377364
 30
0.0
 10
10.3941425697
 20
21.0499092166
 30
0.0
 10
10.3931057927
 20
21.2607640297
 30
0.0
 10
10.3916088696
 20
21.4546397538
 30
0.0
 10
10.3899621402
 20
21.6024121696
 30
0.0
 10
10.3884054273
 20
21.7070906056
 30
0.0
 10
10.3872146875
 20
21.773774495
 30
0.0
 10
10.3859576147
 20
21.8316936923
 30
0.0
 10
10.3846541025
 20
21.8803492474
 30
0.0
 10
10.3833017475
 20
21.9193068789
 30
0.0
 10
10.3821066235
 20
21.9455613297
 30
0.0
 10
10.3810384261
 20
21.9614466471
 30
0.0
 10
10.3803761004
 20
21.9695166429
 30
0.0
 10
10.3796389577
 20
21.9749120138
 30
0.0
 10
10.3791854494
 20
21.9777223246
 30
0.0
 10
10.3787579845
 20
21.978586647
 30
0.0
 11
10.3945930925
 21
20.8300973571
 31
0.0
 11
10.394041145
 21
21.0531179882
 31
0.0
 11
10.3929736217
 21
21.2665092695
 31
0.0
 11
10.3914277507
 21
21.4626592625
 31
0.0
 11
10.3894530112
 21
21.6347416724
 31
0.0
 11
10.3883252251
 21
21.7098265677
 31
0.0
 11
10.3871165878
 21
21.7766984561
 31
0.0
 11
10.3858368679
 21
21.834790787
 31
0.0
 11
10.3844959464
 21
21.8835828633
 31
0.0
 11
10.3831047945
 21
21.9226542919
 31
0.0
 11
10.3816752913
 21
21.9516672748
 31
0.0
 11
10.3809502195
 21
21.9623123637
 31
0.0
 11
10.3802209323
 21
21.9703578651
 31
0.0
 11
10.3794894979
 21
21.9757879144
 31
0.0
 11
10.3787579845
 21
21.978586647
 31
0.0
  0
SPLINE
  5
314
100
AcDbEntity
  8
RACCORDO
100
AcDbSpline
 62
253
  6
CONTINUOUS
 70
0
 71
3
 72
21
 73
17
 74
15
 42
0.0000001
 43
0.0000001
 44
0.0000000001
 12
-0.5092882244
 22
-1.0297664559
 32
0.0
 13
-0.0014442248
 23
-1.1488217284
 33
0.0
 40
0.0
 40
0.0
 40
0.0
 40
0.0
 40
0.0025180147
 40
0.0072873239
 40
0.0143192945
 40
0.02360685
 40
0.0488920223
 40
0.0829235478
 40
0.1254109579
 40
0.1759900663
 40
0.2342086352
 40
0.2995741339
 40
0.4493742288
 40
0.6201195451
 40
0.805869673
 40
1.0
 40
1.0
 40
1.0
 40
1.0
 10
-10.3787579832
 20
21.9785866456
 30
0.0
 10
-10.3791854482
 20
21.9777223233
 30
0.0
 10
-10.3796389567
 20
21.9749120125
 30
0.0
 10
-10.3803760997
 20
21.9695166417
 30
0.0
 10
-10.3810384257
 20
21.9614466459
 30
0.0
 10
-10.3821066235
 20
21.9455613284
 30
0.0
 10
-10.3833017479
 20
21.9193068777
 30
0.0
 10
-10.3846541033
 20
21.8803492463
 30
0.0
 10
-10.385957616
 20
21.8316936912
 30
0.0
 10
-10.3872146894
 20
21.7737744941
 30
0.0
 10
-10.3884054297
 20
21.7070906048
 30
0.0
 10
-10.3899621431
 20
21.6024121689
 30
0.0
 10
-10.3916088731
 20
21.4546397532
 30
0.0
 10
-10.3931057968
 20
21.2607640292
 30
0.0
 10
-10.3941425742
 20
21.0499092162
 30
0.0
 10
-10.3944996418
 20
20.904437736
 30
0.0
 10
-10.3945930977
 20
20.8300973567
 30
0.0
 11
-10.3787579832
 21
21.9785866456
 31
0.0
 11
-10.3794894968
 21
21.9757879132
 31
0.0
 11
-10.3802209315
 21
21.9703578639
 31
0.0
 11
-10.380950219
 21
21.9623123625
 31
0.0
 11
-10.3816752912
 21
21.9516672735
 31
0.0
 11
-10.3831047949
 21
21.9226542906
 31
0.0
 11
-10.3844959472
 21
21.8835828621
 31
0.0
 11
-10.3858368691
 21
21.834790786
 31
0.0
 11
-10.3871165896
 21
21.7766984551
 31
0.0
 11
-10.3883252274
 21
21.7098265669
 31
0.0
 11
-10.3894530139
 21
21.6347416717
 31
0.0
 11
-10.3914277542
 21
21.462659262
 31
0.0
 11
-10.3929736258
 21
21.2665092691
 31
0.0
 11
-10.3940411495
 21
21.0531179878
 31
0.0
 11
-10.3945930977
 21
20.8300973567
 31
0.0
  0
SPLINE
  5
315
100
AcDbEntity
  8
RACCORDO
100
AcDbSpline
 62
253
  6
CONTINUOUS
 70
0
 71
3
 72
19
 73
15
 74
13
 42
0.0000001
 43
0.0000001
 44
0.0000000001
 12
0.0007567078
 22
0.6707313451
 32
0.0
 13
0.4724844619
 23
0.4760667424
 33
0.0
 40
0.0
 40
0.0
 40
0.0
 40
0.0
 40
0.1942382553
 40
0.380029375
 40
0.5507240058
 40
0.7003850708
 40
0.7656594899
 40
0.8237826739
 40
0.8742740964
 40
0.9166951157
 40
0.9506932746
 40
0.9759919201
 40
0.9924056629
 40
1.0
 40
1.0
 40
1.0
 40
1.0
 10
10.8606788652
 20
20.8087575834
 30
0.0
 10
10.860727859
 20
20.8521848121
 30
0.0
 10
10.8610298312
 20
20.9371505824
 30
0.0
 10
10.8620987372
 20
21.0602760206
 30
0.0
 10
10.8637385
 20
21.1734273653
 30
0.0
 10
10.8655914484
 20
21.2596276443
 30
0.0
 10
10.8673694676
 20
21.3206502025
 30
0.0
 10
10.8687352662
 20
21.3595079131
 30
0.0
 10
10.870196232
 20
21.3932334723
 30
0.0
 10
10.8716827344
 20
21.4216019944
 30
0.0
 10
10.8733207253
 20
21.444200461
 30
0.0
 10
10.8746997421
 20
21.4612760291
 30
0.0
 10
10.8765836634
 20
21.4717717474
 30
0.0
 10
10.8773905783
 20
21.4775528474
 30
0.0
 10
10.878586647
 20
21.4787579845
 30
0.0
 11
10.8606788652
 21
20.8087575834
 31
0.0
 11
10.8611503463
 21
20.9390384994
 31
0.0
 11
10.8622537991
 21
21.0636496208
 31
0.0
 11
10.8639490071
 21
21.1781273822
 31
0.0
 11
10.86617476
 21
21.278485135
 31
0.0
 11
10.8674624025
 21
21.3222478225
 31
0.0
 11
10.8688517731
 21
21.3612081233
 31
0.0
 11
10.8703302716
 21
21.3950420357
 31
0.0
 11
10.8718847753
 21
21.4234526652
 31
0.0
 11
10.8735019667
 21
21.4461988941
 31
0.0
 11
10.8751683542
 21
21.4630854782
 31
0.0
 11
10.876869039
 21
21.4739625444
 31
0.0
 11
10.878586647
 21
21.4787579845
 31
0.0
  0
SPLINE
  5
316
100
AcDbEntity
  8
RACCORDO
100
AcDbSpline
 62
253
  6
CONTINUOUS
 70
0
 71
3
 72
19
 73
15
 74
13
 42
0.0000001
 43
0.0000001
 44
0.0000000001
 12
-0.4724845154
 22
0.4760666913
 32
0.0
 13
-0.0007567077
 23
0.6707313465
 33
0.0
 40
0.0
 40
0.0
 40
0.0
 40
0.0
 40
0.0075943369
 40
0.0240080799
 40
0.0493067253
 40
0.0833048835
 40
0.1257259022
 40
0.1762173243
 40
0.234340508
 40
0.2996149266
 40
0.4492759906
 40
0.6199706198
 40
0.8057617399
 40
1.0
 40
1.0
 40
1.0
 40
1.0
 10
10.8785866456
 20
-21.4787579832
 30
0.0
 10
10.8773905768
 20
-21.4775528462
 30
0.0
 10
10.8765836621
 20
-21.4717717459
 30
0.0
 10
10.8746997406
 20
-21.4612760279
 30
0.0
 10
10.8733207239
 20
-21.4442004597
 30
0.0
 10
10.871682733
 20
-21.4216019934
 30
0.0
 10
10.8701962306
 20
-21.3932334716
 30
0.0
 10
10.8687352648
 20
-21.3595079126
 30
0.0
 10
10.8673694662
 20
-21.3206502023
 30
0.0
 10
10.865591447
 20
-21.2596276443
 30
0.0
 10
10.8637384987
 20
-21.1734273659
 30
0.0
 10
10.8620987357
 20
-21.0602760214
 30
0.0
 10
10.8610298296
 20
-20.9371505821
 30
0.0
 10
10.8607278583
 20
-20.8521848105
 30
0.0
 10
10.8606788644
 20
-20.8087575806
 30
0.0
 11
10.8785866456
 21
-21.4787579832
 31
0.0
 11
10.8768690377
 21
-21.4739625431
 31
0.0
 11
10.8751683528
 21
-21.4630854768
 31
0.0
 11
10.8735019653
 21
-21.4461988928
 31
0.0
 11
10.8718847739
 21
-21.4234526642
 31
0.0
 11
10.8703302702
 21
-21.3950420351
 31
0.0
 11
10.8688517717
 21
-21.3612081228
 31
0.0
 11
10.8674624012
 21
-21.3222478222
 31
0.0
 11
10.8661747586
 21
-21.2784851349
 31
0.0
 11
10.8639490057
 21
-21.1781273826
 31
0.0
 11
10.8622537976
 21
-21.063649622
 31
0.0
 11
10.861150345
 21
-20.9390385001
 31
0.0
 11
10.8606788644
 21
-20.8087575806
 31
0.0
  0
SPLINE
  5
317
100
AcDbEntity
  8
RACCORDO
100
AcDbSpline
 62
253
  6
CONTINUOUS
 70
0
 71
3
 72
19
 73
15
 74
13
 42
0.0000001
 43
0.0000001
 44
0.0000000001
 12
-0.0007567078
 22
-0.6707313451
 32
0.0
 13
-0.4724844619
 23
-0.4760667424
 33
0.0
 40
0.0
 40
0.0
 40
0.0
 40
0.0
 40
0.1942382553
 40
0.380029375
 40
0.5507240058
 40
0.7003850708
 40
0.7656594899
 40
0.823782674
 40
0.8742740964
 40
0.9166951157
 40
0.9506932746
 40
0.9759919201
 40
0.9924056629
 40
1.0
 40
1.0
 40
1.0
 40
1.0
 10
-10.8606788652
 20
-20.8087575834
 30
0.0
 10
-10.860727859
 20
-20.8521848121
 30
0.0
 10
-10.8610298312
 20
-20.9371505824
 30
0.0
 10
-10.8620987372
 20
-21.0602760206
 30
0.0
 10
-10.8637385
 20
-21.1734273653
 30
0.0
 10
-10.8655914484
 20
-21.2596276443
 30
0.0
 10
-10.8673694676
 20
-21.3206502025
 30
0.0
 10
-10.8687352662
 20
-21.3595079131
 30
0.0
 10
-10.870196232
 20
-21.3932334723
 30
0.0
 10
-10.8716827344
 20
-21.4216019944
 30
0.0
 10
-10.8733207253
 20
-21.444200461
 30
0.0
 10
-10.874699742
 20
-21.4612760291
 30
0.0
 10
-10.8765836634
 20
-21.4717717474
 30
0.0
 10
-10.8773905783
 20
-21.4775528474
 30
0.0
 10
-10.878586647
 20
-21.4787579845
 30
0.0
 11
-10.8606788652
 21
-20.8087575834
 31
0.0
 11
-10.8611503463
 21
-20.9390384994
 31
0.0
 11
-10.8622537991
 21
-21.0636496208
 31
0.0
 11
-10.8639490071
 21
-21.1781273822
 31
0.0
 11
-10.86617476
 21
-21.278485135
 31
0.0
 11
-10.8674624025
 21
-21.3222478225
 31
0.0
 11
-10.8688517731
 21
-21.3612081233
 31
0.0
 11
-10.8703302716
 21
-21.3950420357
 31
0.0
 11
-10.8718847753
 21
-21.4234526652
 31
0.0
 11
-10.8735019667
 21
-21.4461988941
 31
0.0
 11
-10.8751683542
 21
-21.4630854782
 31
0.0
 11
-10.876869039
 21
-21.4739625444
 31
0.0
 11
-10.878586647
 21
-21.4787579845
 31
0.0
  0
SPLINE
  5
318
100
AcDbEntity
  8
0
100
AcDbSpline
 62
7
  6
CONTINUOUS
 70
0
 71
3
 72
9
 73
5
 74
3
 42
0.0000001
 43
0.0000001
 44
0.0000000001
 12
-0.0021619372
 22
-0.0475548128
 32
0.0
 13
0.0005290224
 23
-0.0476009908
 33
0.0
 40
0.0
 40
0.0
 40
0.0
 40
0.0
 40
0.1442567634
 40
1.0
 40
1.0
 40
1.0
 40
1.0
 10
-32.1277544191
 20
-8.8540194914
 30
0.0
 10
-32.1278583771
 20
-8.8563061925
 30
0.0
 10
-32.1281624216
 20
-8.8721739903
 30
0.0
 10
-32.1279664206
 20
-8.8880427763
 30
0.0
 10
-32.1278155182
 20
-8.9016208516
 30
0.0
 11
-32.1277544191
 21
-8.8540194914
 31
0.0
 11
-32.1279356921
 21
-8.8608842874
 31
0.0
 11
-32.1278155182
 21
-8.9016208516
 31
0.0
  0
SPLINE
  5
319
100
AcDbEntity
  8
0
100
AcDbSpline
 62
7
  6
CONTINUOUS
 70
0
 71
3
 72
9
 73
5
 74
3
 42
0.0000001
 43
0.0000001
 44
0.0000000001
 12
0.0046777337
 22
-0.0473992201
 32
0.0
 13
0.020550649
 23
-0.0429678727
 33
0.0
 40
0.0
 40
0.0
 40
0.0
 40
0.0
 40
0.6176404642
 40
1.0
 40
1.0
 40
1.0
 40
1.0
 10
-31.975647797
 20
-14.1459806322
 30
0.0
 10
-31.9746847444
 20
-14.155739191
 30
0.0
 10
-31.9726917107
 20
-14.1714195186
 30
0.0
 10
-31.9692361733
 20
-14.1871492629
 30
0.0
 10
-31.9666169278
 20
-14.1926256548
 30
0.0
 11
-31.975647797
 21
-14.1459806322
 31
0.0
 11
-31.9716648724
 21
-14.1751276521
 31
0.0
 11
-31.9666169278
 21
-14.1926256548
 31
0.0
  0
LINE
  5
31A
100
AcDbEntity
  8
0
100
AcDbLine
 62
7
  6
CONTINUOUS
 10
-32.0321535085
 20
-12.4999999979
 11
-32.0332871637
 21
-12.4637189745
  0
LINE
  5
31B
100
AcDbEntity
  8
0
100
AcDbLine
 62
7
  6
CONTINUOUS
 10
-32.0332871637
 20
-12.4637189745
 11
-32.0335816117
 21
-12.4542873003
  0
LINE
  5
31C
100
AcDbEntity
  8
0
100
AcDbLine
 62
7
  6
CONTINUOUS
 10
-32.0346590321
 20
-12.419742109
 11
-32.0348292194
 21
-12.4142801271
  0
LINE
  5
31D
100
AcDbEntity
  8
0
100
AcDbLine
 62
7
  6
CONTINUOUS
 10
-32.0348292194
 20
-12.4142801271
 11
-32.03578933
 21
-12.3834352557
  0
LINE
  5
31E
100
AcDbEntity
  8
0
100
AcDbLine
 62
7
  6
CONTINUOUS
 10
-32.03578933
 20
-12.3834352557
 11
-32.0360008931
 21
-12.376630709
  0
LINE
  5
31F
100
AcDbEntity
  8
0
100
AcDbLine
 62
7
  6
CONTINUOUS
 10
-32.0360008931
 20
-12.376630709
 11
-32.0370291684
 21
-12.3435092321
  0
LINE
  5
320
100
AcDbEntity
  8
0
100
AcDbLine
 62
7
  6
CONTINUOUS
 10
-32.0370291684
 20
-12.3435092321
 11
-32.0372538189
 21
-12.3362603242
  0
LINE
  5
321
100
AcDbEntity
  8
0
100
AcDbLine
 62
7
  6
CONTINUOUS
 10
-32.02105682
 20
-12.8500000472
 11
-32.0227201105
 21
-12.7981486881
  0
LINE
  5
322
100
AcDbEntity
  8
0
100
AcDbLine
 62
7
  6
CONTINUOUS
 10
-32.0231348819
 20
-12.7851858309
 11
-32.0247897649
 21
-12.7333342597
  0
LINE
  5
323
100
AcDbEntity
  8
0
100
AcDbLine
 62
7
  6
CONTINUOUS
 10
-32.0247897649
 20
-12.7333342597
 11
-32.0264379224
 21
-12.681482508
  0
LINE
  5
324
100
AcDbEntity
  8
0
100
AcDbLine
 62
7
  6
CONTINUOUS
 10
-32.0268489108
 20
-12.668519546
 11
-32.0284886612
 21
-12.6166675732
  0
LINE
  5
325
100
AcDbEntity
  8
0
100
AcDbLine
 62
7
  6
CONTINUOUS
 10
-32.0284886612
 20
-12.6166675732
 11
-32.0301216858
 21
-12.5648154285
  0
LINE
  5
326
100
AcDbEntity
  8
0
100
AcDbLine
 62
7
  6
CONTINUOUS
 10
-32.030528891
 20
-12.5518523641
 11
-32.0321535085
 21
-12.4999999979
  0
SPLINE
  5
327
100
AcDbEntity
  8
0
100
AcDbSpline
 62
7
  6
CONTINUOUS
 70
0
 71
3
 72
11
 73
7
 74
5
 42
0.0000001
 43
0.0000001
 44
0.0000000001
 12
-0.0153580605
 22
-0.0546173755
 32
0.0
 13
-0.0560033245
 23
-0.0090859983
 33
0.0
 40
0.0
 40
0.0
 40
0.0
 40
0.0
 40
0.3972146102
 40
0.6926227433
 40
0.889419108
 40
1.0
 40
1.0
 40
1.0
 40
1.0
 10
-31.9572810747
 20
-13.5478360456
 30
0.0
 10
-31.9593145567
 20
-13.5550676521
 30
0.0
 10
-31.9630421028
 20
-13.5675850729
 30
0.0
 10
-31.9690665875
 20
-13.5834685882
 30
0.0
 10
-31.9740659567
 20
-13.5934118052
 30
0.0
 10
-31.9785422128
 20
-13.5980738972
 30
0.0
 10
-31.980606512
 20
-13.5984088098
 30
0.0
 11
-31.9572810747
 21
-13.5478360456
 31
0.0
 11
-31.9639070373
 21
-13.5693761769
 31
0.0
 11
-31.9700040737
 21
-13.5849879987
 31
0.0
 11
-31.9755708835
 21
-13.5946666281
 31
0.0
 11
-31.980606512
 21
-13.5984088098
 31
0.0
  0
LINE
  5
328
100
AcDbEntity
  8
0
100
AcDbLine
 62
7
  6
CONTINUOUS
 10
-31.9578594777
 20
-13.0030750774
 11
-31.9567749198
 21
-13.0481530833
  0
SPLINE
  5
329
100
AcDbEntity
  8
0
100
AcDbSpline
 62
7
  6
CONTINUOUS
 70
0
 71
3
 72
14
 73
10
 74
8
 42
0.0000001
 43
0.0000001
 44
0.0000000001
 12
0.0115281831
 22
-0.4997711926
 32
0.0
 13
-0.135321546
 23
-0.4812402967
 33
0.0
 40
0.0
 40
0.0
 40
0.0
 40
0.0
 40
0.3807216693
 40
0.5467571968
 40
0.6914273297
 40
0.8114528453
 40
0.9041335622
 40
0.9674140084
 40
1.0
 40
1.0
 40
1.0
 40
1.0
 10
-31.9567749198
 20
-13.0481530833
 30
0.0
 10
-31.9553119101
 20
-13.1115776576
 30
0.0
 10
-31.9535740197
 20
-13.2026736292
 30
0.0
 10
-31.9523860375
 20
-13.317879871
 30
0.0
 10
-31.9521088175
 20
-13.3896640735
 30
0.0
 10
-31.9525126693
 20
-13.4491897116
 30
0.0
 10
-31.953204704
 20
-13.4952379184
 30
0.0
 10
-31.9548991677
 20
-13.5264953354
 30
0.0
 10
-31.9558112122
 20
-13.5426088202
 30
0.0
 10
-31.9572810745
 20
-13.547836051
 30
0.0
 11
-31.9567749198
 21
-13.0481530833
 31
0.0
 11
-31.953278788
 21
-13.2384453065
 31
0.0
 11
-31.9524446699
 21
-13.3214429619
 31
0.0
 11
-31.9522331984
 21
-13.3937638503
 31
0.0
 11
-31.9526368616
 21
-13.453763744
 31
0.0
 11
-31.9536352874
 21
-13.5000844585
 31
0.0
 11
-31.95519702
 21
-13.5316800414
 31
0.0
 11
-31.9572810745
 21
-13.547836051
 31
0.0
  0
SPLINE
  5
32A
100
AcDbEntity
  8
0
100
AcDbSpline
 62
7
  6
CONTINUOUS
 70
0
 71
3
 72
9
 73
5
 74
3
 42
0.0000001
 43
0.0000001
 44
0.0000000001
 12
0.0769114899
 22
-2.8206709434
 32
0.0
 13
0.0814683898
 23
-2.8205430062
 33
0.0
 40
0.0
 40
0.0
 40
0.0
 40
0.0
 40
0.2497564037
 40
1.0
 40
1.0
 40
1.0
 40
1.0
 10
-32.0394227114
 20
-10.089692402
 30
0.0
 10
-32.0330196657
 20
-10.3245192789
 30
0.0
 10
-32.0072058482
 20
-11.2647380875
 30
0.0
 10
-31.980735611
 20
-12.2049389866
 30
0.0
 10
-31.9603618984
 20
-12.9103037628
 30
0.0
 11
-32.0394227114
 21
-10.089692402
 31
0.0
 11
-32.020084387
 21
-10.7941694984
 31
0.0
 11
-31.9603618984
 21
-12.9103037628
 31
0.0
  0
SPLINE
  5
32B
100
AcDbEntity
  8
0
100
AcDbSpline
 62
7
  6
CONTINUOUS
 70
0
 71
3
 72
14
 73
10
 74
8
 42
0.0000001
 43
0.0000001
 44
0.0000000001
 12
0.1671517238
 22
-0.472300054
 32
0.0
 13
0.0166950815
 23
-0.5007277843
 33
0.0
 40
0.0
 40
0.0
 40
0.0
 40
0.0
 40
0.0328745471
 40
0.0963645422
 40
0.1891677961
 40
0.3092225521
 40
0.4538324199
 40
0.6197280396
 40
1.0
 40
1.0
 40
1.0
 40
1.0
 10
-32.0729845007
 20
-9.4521637647
 30
0.0
 10
-32.0711528217
 20
-9.4573393148
 30
0.0
 10
-32.0692283092
 20
-9.4734908203
 30
0.0
 10
-32.0656491689
 20
-9.5047579427
 30
0.0
 10
-32.06224122
 20
-9.5508500352
 30
0.0
 10
-32.0583766622
 20
-9.6103974306
 30
0.0
 10
-32.0545201351
 20
-9.682208802
 30
0.0
 10
-32.0491243263
 20
-9.7974402549
 30
0.0
 10
-32.0457024994
 20
-9.8885912612
 30
0.0
 10
-32.0435862757
 20
-9.9520621732
 30
0.0
 11
-32.0729845007
 21
-9.4521637647
 31
0.0
 11
-32.0698515193
 21
-9.4683333885
 31
0.0
 11
-32.0663737103
 21
-9.4999515648
 31
0.0
 11
-32.062638836
 21
-9.5462963031
 31
0.0
 11
-32.058743087
 21
-9.6063181646
 31
0.0
 11
-32.0547879583
 21
-9.6786605426
 31
0.0
 11
-32.0508767707
 21
-9.7616831712
 31
0.0
 11
-32.0435862757
 21
-9.9520621732
 31
0.0
  0
LINE
  5
32C
100
AcDbEntity
  8
0
100
AcDbLine
 62
7
  6
CONTINUOUS
 10
-32.0913772758
 20
-10.4351855994
 11
-32.0927271543
 21
-10.3833339865
  0
LINE
  5
32D
100
AcDbEntity
  8
0
100
AcDbLine
 62
7
  6
CONTINUOUS
 10
-32.0927271543
 20
-10.3833339865
 11
-32.0940703097
 21
-10.3314821676
  0
LINE
  5
32E
100
AcDbEntity
  8
0
100
AcDbLine
 62
7
  6
CONTINUOUS
 10
-32.0944050471
 20
-10.3185192208
 11
-32.0957397982
 21
-10.2666671622
  0
LINE
  5
32F
100
AcDbEntity
  8
0
100
AcDbLine
 62
7
  6
CONTINUOUS
 10
-32.0957397982
 20
-10.2666671622
 11
-32.0970678245
 21
-10.2148149671
  0
LINE
  5
330
100
AcDbEntity
  8
0
100
AcDbLine
 62
7
  6
CONTINUOUS
 10
-32.0973987779
 20
-10.2018519881
 11
-32.0987184033
 21
-10.1499994181
  0
LINE
  5
331
100
AcDbEntity
  8
0
100
AcDbLine
 62
7
  6
CONTINUOUS
 10
-32.0830296857
 20
-10.7509529062
 11
-32.0836771657
 21
-10.72689391
  0
LINE
  5
332
100
AcDbEntity
  8
0
100
AcDbLine
 62
7
  6
CONTINUOUS
 10
-32.0468386876
 20
-11.5000001181
 11
-32.0451981972
 21
-11.555965614
  0
SPLINE
  5
333
100
AcDbEntity
  8
0
100
AcDbSpline
 62
7
  6
CONTINUOUS
 70
0
 71
3
 72
21
 73
17
 74
15
 42
0.0000001
 43
0.0000001
 44
0.0000000001
 12
0.0178770245
 22
-0.5948935937
 32
0.0
 13
0.5943459099
 23
-0.0311595124
 33
0.0
 40
0.0
 40
0.0
 40
0.0
 40
0.0
 40
0.1989953409
 40
0.3877288413
 40
0.5604924162
 40
0.7111621868
 40
0.7760463185
 40
0.8332836541
 40
0.8827038512
 40
0.9240354139
 40
0.9567827572
 40
0.9803961482
 40
0.9887137037
 40
0.9946997707
 40
0.9983993747
 40
1.0
 40
1.0
 40
1.0
 40
1.0
 10
-32.0451981972
 20
-11.555965614
 30
0.0
 10
-32.0440123824
 20
-11.5954259652
 30
0.0
 10
-32.0415830352
 20
-11.6723082473
 30
0.0
 10
-32.0376955565
 20
-11.7834351804
 30
0.0
 10
-32.0337363828
 20
-11.8849656292
 30
0.0
 10
-32.0303420913
 20
-11.961928974
 30
0.0
 10
-32.0276404821
 20
-12.0159795337
 30
0.0
 10
-32.0257772124
 20
-12.0499614768
 30
0.0
 10
-32.0239867192
 20
-12.0792628756
 30
0.0
 10
-32.0222772954
 20
-12.1037139059
 30
0.0
 10
-32.0206751498
 20
-12.12300398
 30
0.0
 10
-32.0193325167
 20
-12.1358198646
 30
0.0
 10
-32.0182818144
 20
-12.143198804
 30
0.0
 10
-32.0175923052
 20
-12.1468247563
 30
0.0
 10
-32.0170612028
 20
-12.1487764787
 30
0.0
 10
-32.016505046
 20
-12.1499830151
 30
0.0
 10
-32.0161879376
 20
-12.14999964
 30
0.0
 11
-32.0451981972
 21
-11.555965614
 31
0.0
 11
-32.041450286
 21
-11.6743407905
 31
0.0
 11
-32.0375065137
 21
-11.7865985712
 31
0.0
 11
-32.033472315
 21
-11.8893417399
 31
0.0
 11
-32.0294698009
 21
-11.9789253136
 31
0.0
 11
-32.0275317145
 21
-12.0174932275
 31
0.0
 11
-32.0256543102
 21
-12.0515069501
 31
0.0
 11
-32.023841954
 21
-12.0808640909
 31
0.0
 11
-32.0220994798
 21
-12.1054012804
 31
0.0
 11
-32.0204424194
 21
-12.1248206891
 31
0.0
 11
-32.0188935982
 21
-12.1387888796
 31
0.0
 11
-32.018165994
 21
-12.1436854094
 31
0.0
 11
-32.0174723342
 21
-12.1471799091
 31
0.0
 11
-32.0168129809
 21
-12.1492807326
 31
0.0
 11
-32.0161879376
 21
-12.14999964
 31
0.0
  0
SPLINE
  5
334
100
AcDbEntity
  8
0
100
AcDbSpline
 62
7
  6
CONTINUOUS
 70
0
 71
3
 72
21
 73
17
 74
15
 42
0.0000001
 43
0.0000001
 44
0.0000000001
 12
-0.5938020047
 22
-0.0311310634
 32
0.0
 13
0.0161071709
 23
-0.5943992959
 33
0.0
 40
0.0
 40
0.0
 40
0.0
 40
0.0
 40
0.0015720686
 40
0.0052326844
 40
0.0111824184
 40
0.0194675511
 40
0.0430273808
 40
0.075743954
 40
0.117126509
 40
0.1666986773
 40
0.2241461791
 40
0.2892358632
 40
0.4402161146
 40
0.6127901867
 40
0.8010171505
 40
1.0
 40
1.0
 40
1.0
 40
1.0
 10
-32.0531501237
 20
-10.8500003696
 30
0.0
 10
-32.0534612895
 20
-10.850016683
 30
0.0
 10
-32.0539830517
 20
-10.8512356966
 30
0.0
 10
-32.0543896209
 20
-10.8531870934
 30
0.0
 10
-32.0548933861
 20
-10.8568223322
 30
0.0
 10
-32.0555305272
 20
-10.8642151643
 30
0.0
 10
-32.0561629734
 20
-10.8770523095
 30
0.0
 10
-32.0566793798
 20
-10.8963768841
 30
0.0
 10
-32.0570098751
 20
-10.9208973871
 30
0.0
 10
-32.057141209
 20
-10.95030807
 30
0.0
 10
-32.0570752325
 20
-10.9844224144
 30
0.0
 10
-32.0567022675
 20
-11.0386335714
 30
0.0
 10
-32.0557099385
 20
-11.1156595911
 30
0.0
 10
-32.053878073
 20
-11.217081263
 30
0.0
 10
-32.0514217967
 20
-11.3280067957
 30
0.0
 10
-32.0494616443
 20
-11.404729148
 30
0.0
 10
-32.0483932941
 20
-11.4441542365
 30
0.0
 11
-32.0531501237
 21
-10.8500003696
 31
0.0
 11
-32.0537448759
 21
-10.850721537
 31
0.0
 11
-32.0542949494
 21
-10.852827551
 31
0.0
 11
-32.0547995615
 21
-10.8563291946
 31
0.0
 11
-32.0552578048
 21
-10.8612343211
 31
0.0
 11
-32.0560288088
 21
-10.8752221755
 31
0.0
 11
-32.0565957742
 21
-10.8946677586
 31
0.0
 11
-32.0569543362
 21
-10.9192719372
 31
0.0
 11
-32.0571051159
 21
-10.94874803
 31
0.0
 11
-32.0570517617
 21
-10.9829072779
 31
0.0
 11
-32.0567960589
 21
-11.021609898
 31
0.0
 11
-32.0556927849
 21
-11.1113786173
 31
0.0
 11
-32.0538673635
 21
-11.2139779421
 31
0.0
 11
-32.0514072902
 21
-11.325873948
 31
0.0
 11
-32.0483932941
 21
-11.4441542365
 31
0.0
  0
SPLINE
  5
335
100
AcDbEntity
  8
0
100
AcDbSpline
 62
7
  6
CONTINUOUS
 70
0
 71
3
 72
10
 73
6
 74
4
 42
0.0000001
 43
0.0000001
 44
0.0000000001
 12
-0.0523993329
 22
-0.0027461343
 32
0.0
 13
-0.0027358151
 23
-0.0523998726
 33
0.0
 40
0.0
 40
0.0
 40
0.0
 40
0.0
 40
0.1073829986
 40
0.2974704083
 40
1.0
 40
1.0
 40
1.0
 40
1.0
 10
-32.1149351148
 20
-8.8015438818
 30
0.0
 10
-32.116810714
 20
-8.8016421778
 30
0.0
 10
-32.1211000026
 20
-8.8059120738
 30
0.0
 10
-32.1255677661
 20
-8.8226317784
 30
0.0
 10
-32.1269517517
 20
-8.8384277833
 30
0.0
 10
-32.1275924153
 20
-8.8506986037
 30
0.0
 11
-32.1149351148
 21
-8.8015438818
 31
0.0
 11
-32.1195217134
 21
-8.8048166362
 31
0.0
 11
-32.1231602037
 21
-8.8141034286
 31
0.0
 11
-32.1275924153
 21
-8.8506986037
 31
0.0
  0
LINE
  5
336
100
AcDbEntity
  8
0
100
AcDbLine
 62
7
  6
CONTINUOUS
 10
-32.1275924153
 20
-8.8506986037
 11
-32.1277544171
 21
-8.8540195801
  0
LINE
  5
337
100
AcDbEntity
  8
0
100
AcDbLine
 62
7
  6
CONTINUOUS
 10
-32.0836771657
 20
-10.72689391
 11
-32.0845642105
 21
-10.6937195192
  0
LINE
  5
338
100
AcDbEntity
  8
0
100
AcDbLine
 62
7
  6
CONTINUOUS
 10
-32.0845642105
 20
-10.6937195192
 11
-32.0847964793
 21
-10.6850003199
  0
LINE
  5
339
100
AcDbEntity
  8
0
100
AcDbLine
 62
7
  6
CONTINUOUS
 10
-32.0847964793
 20
-10.6850003199
 11
-32.0855001874
 21
-10.6585177279
  0
LINE
  5
33A
100
AcDbEntity
  8
0
100
AcDbLine
 62
7
  6
CONTINUOUS
 10
-32.0855001874
 20
-10.6585177279
 11
-32.0857241752
 21
-10.6500704308
  0
LINE
  5
33B
100
AcDbEntity
  8
0
100
AcDbLine
 62
7
  6
CONTINUOUS
 10
-32.0857241752
 20
-10.6500704308
 11
-32.0865232973
 21
-10.6198764202
  0
LINE
  5
33C
100
AcDbEntity
  8
0
100
AcDbLine
 62
7
  6
CONTINUOUS
 10
-32.0865232973
 20
-10.6198764202
 11
-32.0867388392
 21
-10.6117195282
  0
LINE
  5
33D
100
AcDbEntity
  8
0
100
AcDbLine
 62
7
  6
CONTINUOUS
 10
-32.0867388392
 20
-10.6117195282
 11
-32.0885836112
 21
-10.5417319406
  0
LINE
  5
33E
100
AcDbEntity
  8
0
100
AcDbLine
 62
7
  6
CONTINUOUS
 10
-32.039202247
 20
-12.2731108585
 11
-32.0393907298
 21
-12.2669672842
  0
SPLINE
  5
33F
100
AcDbEntity
  8
0
100
AcDbSpline
 62
7
  6
CONTINUOUS
 70
0
 71
3
 72
9
 73
5
 74
3
 42
0.0000001
 43
0.0000001
 44
0.0000000001
 12
0.0036398468
 22
-0.0899651288
 32
0.0
 13
0.0088428169
 23
-0.0896034457
 33
0.0
 40
0.0
 40
0.0
 40
0.0
 40
0.0
 40
0.6638457176
 40
1.0
 40
1.0
 40
1.0
 40
1.0
 10
-31.9801824097
 20
-14.0560595703
 30
0.0
 10
-31.9793769775
 20
-14.0759672255
 30
0.0
 10
-31.9779744246
 20
-14.1059381118
 30
0.0
 10
-31.9766386491
 20
-14.1359403855
 30
0.0
 10
-31.9756477988
 20
-14.1459805795
 30
0.0
 11
-31.9801824097
 21
-14.0560595703
 31
0.0
 11
-31.9775442482
 21
-14.1157731467
 31
0.0
 11
-31.9756477988
 21
-14.1459805795
 31
0.0
  0
SPLINE
  5
340
100
AcDbEntity
  8
0
100
AcDbSpline
 62
7
  6
CONTINUOUS
 70
0
 71
3
 72
10
 73
6
 74
4
 42
0.0000001
 43
0.0000001
 44
0.0000000001
 12
0.0439342586
 22
-0.0023024974
 32
0.0
 13
0.0159826509
 23
-0.0409887233
 33
0.0
 40
0.0
 40
0.0
 40
0.0
 40
0.0
 40
0.1197392021
 40
0.3182035881
 40
1.0
 40
1.0
 40
1.0
 40
1.0
 10
-32.1009257606
 20
-9.4015465583
 30
0.0
 10
-32.0991722096
 20
-9.401638458
 30
0.0
 10
-32.0950110124
 20
-9.4046159628
 30
0.0
 10
-32.086888772
 20
-9.4166378971
 30
0.0
 10
-32.0818375838
 20
-9.4287567116
 30
0.0
 10
-32.0782052791
 20
-9.4380720331
 30
0.0
 11
-32.1009257606
 21
-9.4015465583
 31
0.0
 11
-32.09626377
 21
-9.403999378
 31
0.0
 11
-32.0909211832
 21
-9.4109054093
 31
0.0
 11
-32.0782052791
 21
-9.4380720331
 31
0.0
  0
LINE
  5
341
100
AcDbEntity
  8
0
100
AcDbLine
 62
7
  6
CONTINUOUS
 10
-32.0782052791
 20
-9.4380720331
 11
-32.0729844902
 21
-9.4521642646
  0
SPLINE
  5
342
100
AcDbEntity
  8
0
100
AcDbSpline
 62
7
  6
CONTINUOUS
 70
0
 71
3
 72
14
 73
10
 74
8
 42
0.0000001
 43
0.0000001
 44
0.0000000001
 12
-0.0178540999
 22
0.5818513625
 32
0.0
 13
-0.1369197507
 23
0.565793919
 33
0.0
 40
0.0
 40
0.0
 40
0.0
 40
0.0
 40
0.3666130908
 40
0.5318206545
 40
0.6786217255
 40
0.8014967162
 40
0.8974467766
 40
0.96461226
 40
1.0
 40
1.0
 40
1.0
 40
1.0
 10
-32.0221771821
 20
-11.4343242705
 30
0.0
 10
-32.024359031
 20
-11.363219495
 30
0.0
 10
-32.0279134608
 20
-11.2600826926
 30
0.0
 10
-32.0334185586
 20
-11.128518368
 30
0.0
 10
-32.0374013174
 20
-11.0442216254
 30
0.0
 10
-32.0413259584
 20
-10.9733956341
 30
0.0
 10
-32.0447872992
 20
-10.917976056
 30
0.0
 10
-32.0482146792
 20
-10.8796713668
 30
0.0
 10
-32.050114068
 20
-10.8597733319
 30
0.0
 10
-32.0517291615
 20
-10.8530992758
 30
0.0
 11
-32.0221771821
 21
-11.4343242705
 31
0.0
 11
-32.0296206179
 21
-11.2210393876
 31
0.0
 11
-32.0336593799
 21
-11.1249527396
 31
0.0
 11
-32.037746365
 21
-11.0395939198
 31
0.0
 11
-32.0417094256
 21
-10.9681751598
 31
0.0
 11
-32.0454270907
 21
-10.9124440692
 31
0.0
 11
-32.0488185587
 21
-10.8734927147
 31
0.0
 11
-32.0517291615
 21
-10.8530992758
 31
0.0
  0
SPLINE
  5
343
100
AcDbEntity
  8
0
100
AcDbSpline
 62
7
  6
CONTINUOUS
 70
0
 71
3
 72
9
 73
5
 74
3
 42
0.0000001
 43
0.0000001
 44
0.0000000001
 12
-0.000817652
 22
0.003378786
 32
0.0
 13
-0.003471545
 23
-0.0001820016
 33
0.0
 40
0.0
 40
0.0
 40
0.0
 40
0.0
 40
0.706674958
 40
1.0
 40
1.0
 40
1.0
 40
1.0
 10
-32.0517291615
 20
-10.8530992758
 30
0.0
 10
-32.0519217662
 20
-10.8523033747
 30
0.0
 10
-32.0521606978
 20
-10.8513649906
 30
0.0
 10
-32.0528106933
 20
-10.8499825744
 30
0.0
 10
-32.0531501237
 20
-10.8500003696
 30
0.0
 11
-32.0517291615
 21
-10.8530992758
 31
0.0
 11
-32.0524647412
 21
-10.8507553647
 31
0.0
 11
-32.0531501237
 21
-10.8500003696
 31
0.0
  0
SPLINE
  5
344
100
AcDbEntity
  8
0
100
AcDbSpline
 62
7
  6
CONTINUOUS
 70
0
 71
3
 72
9
 73
5
 74
3
 42
0.0000001
 43
0.0000001
 44
0.0000000001
 12
-0.0173972925
 22
0.048448355
 32
0.0
 13
-0.0313049492
 23
0.0408645206
 33
0.0
 40
0.0
 40
0.0
 40
0.0
 40
0.0
 40
0.609980813
 40
1.0
 40
1.0
 40
1.0
 40
1.0
 10
-32.0851870385
 20
-8.8540192823
 30
0.0
 10
-32.0887243767
 20
-8.8441684266
 30
0.0
 10
-32.0949260417
 20
-8.8282204035
 30
0.0
 10
-32.1026237383
 20
-8.8126802248
 30
0.0
 10
-32.1066935819
 20
-8.8073675758
 30
0.0
 11
-32.0851870385
 21
-8.8540192823
 31
0.0
 11
-32.0968468084
 21
-8.8248641998
 31
0.0
 11
-32.1066935819
 21
-8.8073675758
 31
0.0
  0
SPLINE
  5
345
100
AcDbEntity
  8
0
100
AcDbSpline
 62
7
  6
CONTINUOUS
 70
0
 71
3
 72
9
 73
5
 74
3
 42
0.0000001
 43
0.0000001
 44
0.0000000001
 12
-0.0062328937
 22
0.0081362282
 32
0.0
 13
-0.0102352061
 23
-0.0005364047
 33
0.0
 40
0.0
 40
0.0
 40
0.0
 40
0.0
 40
0.3364596353
 40
1.0
 40
1.0
 40
1.0
 40
1.0
 10
-32.1066935819
 20
-8.8073675758
 30
0.0
 10
-32.107392621
 20
-8.8064550716
 30
0.0
 10
-32.1095120266
 20
-8.8039076253
 30
0.0
 10
-32.1126712907
 20
-8.8014252397
 30
0.0
 10
-32.1149351148
 20
-8.8015438818
 30
0.0
 11
-32.1066935819
 21
-8.8073675758
 31
0.0
 11
-32.1089365271
 21
-8.8047482111
 31
0.0
 11
-32.1149351148
 21
-8.8015438818
 31
0.0
  0
SPLINE
  5
346
100
AcDbEntity
  8
0
100
AcDbSpline
 62
7
  6
CONTINUOUS
 70
0
 71
3
 72
12
 73
8
 74
6
 42
0.0000001
 43
0.0000001
 44
0.0000000001
 12
-0.0251675007
 22
0.5380216648
 32
0.0
 13
-0.1063774287
 23
0.5280005279
 33
0.0
 40
0.0
 40
0.0
 40
0.0
 40
0.0
 40
0.3676656611
 40
0.664270944
 40
0.8778696441
 40
0.9507476442
 40
1.0
 40
1.0
 40
1.0
 40
1.0
 10
-32.0438288327
 20
-9.4018137976
 30
0.0
 10
-32.0469132413
 20
-9.3358764339
 30
0.0
 10
-32.0529445411
 20
-9.2167626669
 30
0.0
 10
-32.062791097
 20
-9.0594663927
 30
0.0
 10
-32.0709531503
 20
-8.955073451
 30
0.0
 10
-32.0775761999
 20
-8.8951687723
 30
0.0
 10
-32.080692075
 20
-8.8734432376
 30
0.0
 10
-32.0824385214
 20
-8.8647748143
 30
0.0
 11
-32.0438288327
 21
-9.4018137976
 31
0.0
 11
-32.0540245835
 21
-9.2040480467
 31
0.0
 11
-32.0642017838
 21
-9.04461798
 31
0.0
 11
-32.0738354175
 21
-8.9299756427
 31
0.0
 11
-32.0782938642
 21
-8.8909768477
 31
0.0
 11
-32.0824385214
 21
-8.8647748143
 31
0.0
  0
SPLINE
  5
347
100
AcDbEntity
  8
0
100
AcDbSpline
 62
7
  6
CONTINUOUS
 70
0
 71
3
 72
9
 73
5
 74
3
 42
0.0000001
 43
0.0000001
 44
0.0000000001
 12
-0.0021932886
 22
0.010886309
 32
0.0
 13
-0.0037531212
 23
0.010451618
 33
0.0
 40
0.0
 40
0.0
 40
0.0
 40
0.0
 40
0.3056287359
 40
1.0
 40
1.0
 40
1.0
 40
1.0
 10
-32.0824385214
 20
-8.8647748143
 30
0.0
 10
-32.0826619654
 20
-8.863665758
 30
0.0
 10
-32.0834325533
 20
-8.860047323
 30
0.0
 10
-32.0843183481
 20
-8.8564385805
 30
0.0
 10
-32.0851870346
 20
-8.8540194794
 30
0.0
 11
-32.0824385214
 21
-8.8647748143
 31
0.0
 11
-32.0831437544
 21
-8.8614548679
 31
0.0
 11
-32.0851870346
 21
-8.8540194794
 31
0.0
  0
LINE
  5
348
100
AcDbEntity
  8
0
100
AcDbLine
 62
7
  6
CONTINUOUS
 10
-31.9395101326
 20
-12.9620093615
 11
-31.9448793921
 21
-12.7722881523
  0
LINE
  5
349
100
AcDbEntity
  8
0
100
AcDbLine
 62
7
  6
CONTINUOUS
 10
-31.9448793921
 20
-12.7722881523
 11
-31.9646870869
 21
-12.0673847488
  0
LINE
  5
34A
100
AcDbEntity
  8
0
100
AcDbLine
 62
7
  6
CONTINUOUS
 10
-31.9646870869
 20
-12.0673847488
 11
-31.9669097902
 21
-11.9878388677
  0
LINE
  5
34B
100
AcDbEntity
  8
0
100
AcDbLine
 62
7
  6
CONTINUOUS
 10
-31.9669097902
 20
-11.9878388677
 11
-31.9926096599
 21
-11.0624763059
  0
LINE
  5
34C
100
AcDbEntity
  8
0
100
AcDbLine
 62
7
  6
CONTINUOUS
 10
-31.9926096599
 20
-11.0624763059
 11
-31.9940020645
 21
-11.0120661203
  0
LINE
  5
34D
100
AcDbEntity
  8
0
100
AcDbLine
 62
7
  6
CONTINUOUS
 10
-31.9940020645
 20
-11.0120661203
 11
-31.9948829793
 21
-10.9801602305
  0
LINE
  5
34E
100
AcDbEntity
  8
0
100
AcDbLine
 62
7
  6
CONTINUOUS
 10
-31.9948829793
 20
-10.9801602305
 11
-32.0207667514
 21
-10.0379923992
  0
SPLINE
  5
34F
100
AcDbEntity
  8
0
100
AcDbSpline
 62
7
  6
CONTINUOUS
 70
0
 71
3
 72
9
 73
5
 74
3
 42
0.0000001
 43
0.0000001
 44
0.0000000001
 12
0.0029659493
 22
0.0105423675
 32
0.0
 13
0.001451439
 23
0.0108550307
 33
0.0
 40
0.0
 40
0.0
 40
0.0
 40
0.0
 40
0.1936754068
 40
1.0
 40
1.0
 40
1.0
 40
1.0
 10
-31.9357655314
 20
-14.1459806438
 30
0.0
 10
-31.9355740543
 20
-14.1453000447
 30
0.0
 10
-31.9347111353
 20
-14.1417509087
 30
0.0
 10
-31.9341712214
 20
-14.1381330396
 30
0.0
 10
-31.933781111
 20
-14.1352154802
 30
0.0
 11
-31.9357655314
 21
-14.1459806438
 31
0.0
 11
-31.9352519179
 21
-14.1439227058
 31
0.0
 11
-31.933781111
 21
-14.1352154802
 31
0.0
  0
SPLINE
  5
350
100
AcDbEntity
  8
0
100
AcDbSpline
 62
7
  6
CONTINUOUS
 70
0
 71
3
 72
12
 73
8
 74
6
 42
0.0000001
 43
0.0000001
 44
0.0000000001
 12
0.0711877937
 22
0.5323996844
 32
0.0
 13
-0.0054781624
 23
0.5371099661
 33
0.0
 40
0.0
 40
0.0
 40
0.0
 40
0.0
 40
0.0489745451
 40
0.1216480713
 40
0.3350780499
 40
0.631850779
 40
1.0
 40
1.0
 40
1.0
 40
1.0
 10
-31.933781111
 20
-14.1352154802
 30
0.0
 10
-31.9326189811
 20
-14.126524136
 30
0.0
 10
-31.9308951882
 20
-14.104792965
 30
0.0
 10
-31.9279703873
 20
-14.0448755764
 30
0.0
 10
-31.9260222307
 20
-13.9405082421
 30
0.0
 10
-31.9253389528
 20
-13.78324962
 30
0.0
 10
-31.9261319215
 20
-13.6641959558
 30
0.0
 10
-31.9268041819
 20
-13.5982837506
 30
0.0
 11
-31.933781111
 21
-14.1352154802
 31
0.0
 11
-31.9313383014
 21
-14.1090230622
 31
0.0
 11
-31.9292984426
 21
-14.0700406909
 31
0.0
 11
-31.9265297461
 21
-13.9554327981
 31
0.0
 11
-31.9256554829
 21
-13.7960273145
 31
0.0
 11
-31.9268041819
 21
-13.5982837506
 31
0.0
  0
LINE
  5
351
100
AcDbEntity
  8
0
100
AcDbLine
 62
7
  6
CONTINUOUS
 10
-31.9961060844
 20
-13.5478359486
 11
-31.9967162579
 21
-13.5396669046
  0
LINE
  5
352
100
AcDbEntity
  8
0
100
AcDbLine
 62
7
  6
CONTINUOUS
 10
-31.9967162579
 20
-13.5396669046
 11
-31.9984751176
 21
-13.5044534585
  0
SPLINE
  5
353
100
AcDbEntity
  8
0
100
AcDbSpline
 62
7
  6
CONTINUOUS
 70
0
 71
3
 72
9
 73
5
 74
3
 42
0.0000001
 43
0.0000001
 44
0.0000000001
 12
-0.0180994873
 22
0.4575139544
 32
0.0
 13
-0.0149563949
 23
0.4576274862
 33
0.0
 40
0.0
 40
0.0
 40
0.0
 40
0.0
 40
0.1843508719
 40
1.0
 40
1.0
 40
1.0
 40
1.0
 10
-32.0002115961
 20
-13.462594363
 30
0.0
 10
-32.0013238148
 20
-13.4344799976
 30
0.0
 10
-32.0069614057
 20
-13.2819598883
 30
0.0
 10
-32.0119678502
 20
-13.1294176258
 30
0.0
 10
-32.0160342404
 20
-13.0049964725
 30
0.0
 11
-32.0002115961
 21
-13.462594363
 31
0.0
 11
-32.0033809547
 21
-13.3782448144
 31
0.0
 11
-32.0160342404
 21
-13.0049964725
 31
0.0
  0
LINE
  5
354
100
AcDbEntity
  8
0
100
AcDbLine
 62
7
  6
CONTINUOUS
 10
-32.0160342404
 20
-13.0049964725
 11
-32.0190044198
 21
-12.9136460798
  0
LINE
  5
355
100
AcDbEntity
  8
0
100
AcDbLine
 62
7
  6
CONTINUOUS
 10
-32.0190044198
 20
-12.9136460798
 11
-32.0194479302
 21
-12.8999277927
  0
LINE
  5
356
100
AcDbEntity
  8
0
100
AcDbLine
 62
7
  6
CONTINUOUS
 10
-32.0194479302
 20
-12.8999277927
 11
-32.02105682
 21
-12.8500000472
  0
SPLINE
  5
357
100
AcDbEntity
  8
0
100
AcDbSpline
 62
7
  6
CONTINUOUS
 70
0
 71
3
 72
9
 73
5
 74
3
 42
0.0000001
 43
0.0000001
 44
0.0000000001
 12
0.0022023518
 22
0.0455680172
 32
0.0
 13
0.01878438
 23
0.0415745308
 33
0.0
 40
0.0
 40
0.0
 40
0.0
 40
0.0
 40
0.6186123665
 40
1.0
 40
1.0
 40
1.0
 40
1.0
 10
-32.1138142347
 20
-9.4521640405
 30
0.0
 10
-32.1133601007
 20
-9.4427677276
 30
0.0
 10
-32.1121793251
 20
-9.4276862375
 30
0.0
 10
-32.1094871341
 20
-9.4124584772
 30
0.0
 10
-32.1070990907
 20
-9.4071731399
 30
0.0
 11
-32.1138142347
 21
-9.4521640405
 31
0.0
 11
-32.1113208256
 21
-9.4240525602
 31
0.0
 11
-32.1070990907
 21
-9.4071731399
 31
0.0
  0
SPLINE
  5
358
100
AcDbEntity
  8
0
100
AcDbSpline
 62
7
  6
CONTINUOUS
 70
0
 71
3
 72
9
 73
5
 74
3
 42
0.0000001
 43
0.0000001
 44
0.0000000001
 12
0.0035378341
 22
0.0078301118
 32
0.0
 13
0.008580484
 23
-0.0004496842
 33
0.0
 40
0.0
 40
0.0
 40
0.0
 40
0.0
 40
0.33501394
 40
1.0
 40
1.0
 40
1.0
 40
1.0
 10
-32.1070990907
 20
-9.4071731399
 30
0.0
 10
-32.1067040162
 20
-9.406298741
 30
0.0
 10
-32.1054908602
 20
-9.4038023233
 30
0.0
 10
-32.102827728
 20
-9.4014468804
 30
0.0
 10
-32.1009257606
 20
-9.4015465583
 30
0.0
 11
-32.1070990907
 21
-9.4071731399
 31
0.0
 11
-32.1057284307
 21
-9.4046418938
 31
0.0
 11
-32.1009257606
 21
-9.4015465583
 31
0.0
  0
LINE
  5
359
100
AcDbEntity
  8
0
100
AcDbLine
 62
7
  6
CONTINUOUS
 10
-32.0987184033
 20
-10.1499994181
 11
-32.1003263847
 21
-10.0863919658
  0
LINE
  5
35A
100
AcDbEntity
  8
0
100
AcDbLine
 62
7
  6
CONTINUOUS
 10
-32.1003263847
 20
-10.0863919658
 11
-32.1024508953
 21
-10.0014865166
  0
SPLINE
  5
35B
100
AcDbEntity
  8
0
100
AcDbSpline
 62
7
  6
CONTINUOUS
 70
0
 71
3
 72
9
 73
5
 74
3
 42
0.0000001
 43
0.0000001
 44
0.0000000001
 12
-0.0115396022
 22
0.4640913359
 32
0.0
 13
-0.0081958995
 23
0.464162426
 33
0.0
 40
0.0
 40
0.0
 40
0.0
 40
0.0
 40
0.304062853
 40
1.0
 40
1.0
 40
1.0
 40
1.0
 10
-32.1024508953
 20
-10.0014865166
 30
0.0
 10
-32.1036204835
 20
-9.9544488714
 30
0.0
 10
-32.1073908308
 20
-9.7997502378
 30
0.0
 10
-32.111179991
 20
-9.6450496959
 30
0.0
 10
-32.1130812679
 20
-9.5373737377
 30
0.0
 11
-32.1024508953
 21
-10.0014865166
 31
0.0
 11
-32.1059150679
 21
-9.8603724792
 31
0.0
 11
-32.1130812679
 21
-9.5373737377
 31
0.0
  0
SPLINE
  5
35C
100
AcDbEntity
  8
0
100
AcDbSpline
 62
7
  6
CONTINUOUS
 70
0
 71
3
 72
9
 73
5
 74
3
 42
0.0000001
 43
0.0000001
 44
0.0000000001
 12
-0.0013600252
 22
0.0770229812
 32
0.0
 13
0.0004633355
 23
0.0770335941
 33
0.0
 40
0.0
 40
0.0
 40
0.0
 40
0.0
 40
0.337917465
 40
1.0
 40
1.0
 40
1.0
 40
1.0
 10
-32.1130812679
 20
-9.5373737377
 30
0.0
 10
-32.11323446
 20
-9.5286979342
 30
0.0
 10
-32.1136404512
 20
-9.5030235328
 30
0.0
 10
-32.1140743184
 20
-9.477345255
 30
0.0
 10
-32.1139720629
 20
-9.4603443892
 30
0.0
 11
-32.1130812679
 21
-9.5373737377
 31
0.0
 11
-32.1135120261
 21
-9.5113458343
 31
0.0
 11
-32.1139720629
 21
-9.4603443892
 31
0.0
  0
LINE
  5
35D
100
AcDbEntity
  8
0
100
AcDbLine
 62
7
  6
CONTINUOUS
 10
-32.1139720629
 20
-9.4603443892
 11
-32.1138142349
 21
-9.4521640351
  0
SPLINE
  5
35E
100
AcDbEntity
  8
0
100
AcDbSpline
 62
7
  6
CONTINUOUS
 70
0
 71
3
 72
21
 73
17
 74
15
 42
0.0000001
 43
0.0000001
 44
0.0000000001
 12
0.5837253362
 22
-0.0306027123
 32
0.0
 13
-0.0150799485
 23
0.5843324305
 33
0.0
 40
0.0
 40
0.0
 40
0.0
 40
0.0
 40
0.001490774
 40
0.0050467764
 40
0.0108860496
 40
0.0190573426
 40
0.0423859499
 40
0.0748777283
 40
0.1160588952
 40
0.1654444704
 40
0.2227164201
 40
0.2876390912
 40
0.4384784089
 40
0.6113036327
 40
0.800056438
 40
1.0
 40
1.0
 40
1.0
 40
1.0
 10
-32.0161879376
 20
-12.14999964
 30
0.0
 10
-32.0158978701
 20
-12.1500148473
 30
0.0
 10
-32.015339351
 20
-12.1488530998
 30
0.0
 10
-32.0149663404
 20
-12.1470035434
 30
0.0
 10
-32.0144306669
 20
-12.1434918309
 30
0.0
 10
-32.0137703238
 20
-12.1363218087
 30
0.0
 10
-32.0130585461
 20
-12.1238146313
 30
0.0
 10
-32.0124324447
 20
-12.1049514881
 30
0.0
 10
-32.0119527861
 20
-12.0809683726
 30
0.0
 10
-32.0116458582
 20
-12.052168159
 30
0.0
 10
-32.0115122004
 20
-12.0187359311
 30
0.0
 10
-32.0115804101
 20
-11.9655377217
 30
0.0
 10
-32.0121767309
 20
-11.8898257618
 30
0.0
 10
-32.0135721553
 20
-11.789994597
 30
0.0
 10
-32.0156618074
 20
-11.6806059198
 30
0.0
 10
-32.0174545191
 20
-11.6048923567
 30
0.0
 10
-32.0184595653
 20
-11.5659478542
 30
0.0
 11
-32.0161879376
 21
-12.14999964
 31
0.0
 11
-32.0156015518
 21
-12.1493550583
 31
0.0
 11
-32.0150496522
 21
-12.1473510876
 31
0.0
 11
-32.014532952
 21
-12.1439772111
 31
0.0
 11
-32.0140522903
 21
-12.1392251168
 31
0.0
 11
-32.0132059829
 21
-12.1256152041
 31
0.0
 11
-32.0125251683
 21
-12.1066350893
 31
0.0
 11
-32.0120188773
 21
-12.082568911
 31
0.0
 11
-32.0116918923
 21
-12.0537035617
 31
0.0
 11
-32.0115457764
 21
-12.0202268806
 31
0.0
 11
-32.0115840445
 21
-11.9822778468
 31
0.0
 11
-32.0122265483
 21
-11.8941105365
 31
0.0
 11
-32.0136112377
 21
-11.7930990201
 31
0.0
 11
-32.0157018032
 21
-11.6827877202
 31
0.0
 11
-32.0184595653
 21
-11.5659478542
 31
0.0
  0
SPLINE
  5
35F
100
AcDbEntity
  8
0
100
AcDbSpline
 62
7
  6
CONTINUOUS
 70
0
 71
3
 72
8
 73
4
 74
2
 42
0.0000001
 43
0.0000001
 44
0.0000000001
 12
0.0032464728
 22
0.0018024334
 32
0.0
 13
0.002449688
 23
0.0027905879
 33
0.0
 40
0.0
 40
0.0
 40
0.0
 40
0.0
 40
1.0
 40
1.0
 40
1.0
 40
1.0
 10
-31.9582260217
 20
-14.1978142465
 30
0.0
 10
-31.9571438641
 20
-14.1972134354
 30
0.0
 10
-31.9562211398
 20
-14.1963303583
 30
0.0
 10
-31.9554045771
 20
-14.1954001623
 30
0.0
 11
-31.9582260217
 21
-14.1978142465
 31
0.0
 11
-31.9554045771
 21
-14.1954001623
 31
0.0
  0
LINE
  5
360
100
AcDbEntity
  8
0
100
AcDbLine
 62
7
  6
CONTINUOUS
 10
-31.9554045771
 20
-14.1954001623
 11
-31.9533203648
 21
-14.1926293921
  0
SPLINE
  5
361
100
AcDbEntity
  8
0
100
AcDbSpline
 62
7
  6
CONTINUOUS
 70
0
 71
3
 72
9
 73
5
 74
3
 42
0.0000001
 43
0.0000001
 44
0.0000000001
 12
0.0275461975
 22
0.0416613639
 32
0.0
 13
0.0135260429
 23
0.0480781489
 33
0.0
 40
0.0
 40
0.0
 40
0.0
 40
0.0
 40
0.3872920271
 40
1.0
 40
1.0
 40
1.0
 40
1.0
 10
-31.9533203648
 20
-14.1926293921
 30
0.0
 10
-31.9497642239
 20
-14.1872510207
 30
0.0
 10
-31.9434336131
 20
-14.1716554038
 30
0.0
 10
-31.9385280337
 20
-14.1558000002
 30
0.0
 10
-31.9357655289
 20
-14.1459807118
 30
0.0
 11
-31.9533203648
 21
-14.1926293921
 31
0.0
 11
-31.9450743815
 21
-14.1751319378
 31
0.0
 11
-31.9357655289
 21
-14.1459807118
 31
0.0
  0
SPLINE
  5
362
100
AcDbEntity
  8
0
100
AcDbSpline
 62
7
  6
CONTINUOUS
 70
0
 71
3
 72
8
 73
4
 74
2
 42
0.0000001
 43
0.0000001
 44
0.0000000001
 12
-0.0028790603
 22
0.0017607861
 32
0.0
 13
-0.0019255571
 23
0.0027715674
 33
0.0
 40
0.0
 40
0.0
 40
0.0
 40
0.0
 40
1.0
 40
1.0
 40
1.0
 40
1.0
 10
-31.9833259967
 20
-13.5978335458
 30
0.0
 10
-31.9842856835
 20
-13.5972466171
 30
0.0
 10
-31.9850569087
 20
-13.596357538
 30
0.0
 10
-31.9856987611
 20
-13.5954336822
 30
0.0
 11
-31.9833259967
 21
-13.5978335458
 31
0.0
 11
-31.9856987611
 21
-13.5954336822
 31
0.0
  0
LINE
  5
363
100
AcDbEntity
  8
0
100
AcDbLine
 62
7
  6
CONTINUOUS
 10
-31.9856987611
 20
-13.5954336822
 11
-31.987192794
 21
-13.592830893
  0
SPLINE
  5
364
100
AcDbEntity
  8
0
100
AcDbSpline
 62
7
  6
CONTINUOUS
 70
0
 71
3
 72
9
 73
5
 74
3
 42
0.0000001
 43
0.0000001
 44
0.0000000001
 12
-0.0032245487
 22
0.0066418995
 32
0.0
 13
-0.002093332
 23
0.0070802899
 33
0.0
 40
0.0
 40
0.0
 40
0.0
 40
0.0
 40
0.2188923826
 40
1.0
 40
1.0
 40
1.0
 40
1.0
 10
-31.987192794
 20
-13.592830893
 30
0.0
 10
-31.9874280703
 20
-13.5923462726
 30
0.0
 10
-31.9884360981
 20
-13.5900998223
 30
0.0
 10
-31.9892190662
 20
-13.5877585324
 30
0.0
 10
-31.9897641054
 20
-13.5859150429
 30
0.0
 11
-31.987192794
 21
-13.592830893
 31
0.0
 11
-31.987858586
 21
-13.5913582668
 31
0.0
 11
-31.9897641054
 21
-13.5859150429
 31
0.0
  0
LINE
  5
365
100
AcDbEntity
  8
0
100
AcDbLine
 62
7
  6
CONTINUOUS
 10
-32.0896804688
 20
-10.5
 11
-32.0885830965
 21
-10.5417515046
  0
LINE
  5
366
100
AcDbEntity
  8
0
100
AcDbLine
 62
7
  6
CONTINUOUS
 10
-32.0885830965
 20
-10.5417515046
 11
-32.0882572754
 21
-10.5541326186
  0
LINE
  5
367
100
AcDbEntity
  8
0
100
AcDbLine
 62
7
  6
CONTINUOUS
 10
-32.0882572754
 20
-10.5541326186
 11
-32.0867386831
 21
-10.6117254387
  0
LINE
  5
368
100
AcDbEntity
  8
0
100
AcDbLine
 62
7
  6
CONTINUOUS
 10
-32.0867386831
 20
-10.6117254387
 11
-32.086523403
 21
-10.6198724214
  0
LINE
  5
369
100
AcDbEntity
  8
0
100
AcDbLine
 62
7
  6
CONTINUOUS
 10
-32.086523403
 20
-10.6198724214
 11
-32.0857536932
 21
-10.6489566406
  0
LINE
  5
36A
100
AcDbEntity
  8
0
100
AcDbLine
 62
7
  6
CONTINUOUS
 10
-32.0857536932
 20
-10.6489566406
 11
-32.0855038718
 21
-10.6583788401
  0
LINE
  5
36B
100
AcDbEntity
  8
0
100
AcDbLine
 62
7
  6
CONTINUOUS
 10
-32.0848008219
 20
-10.6848371913
 11
-32.0845678834
 21
-10.6935817351
  0
LINE
  5
36C
100
AcDbEntity
  8
0
100
AcDbLine
 62
7
  6
CONTINUOUS
 10
-32.0845678834
 20
-10.6935817351
 11
-32.0836771626
 21
-10.7268940247
  0
LINE
  5
36D
100
AcDbEntity
  8
0
100
AcDbLine
 62
7
  6
CONTINUOUS
 10
-32.0973987779
 20
-10.2018519881
 11
-32.0970678245
 21
-10.2148149671
  0
LINE
  5
36E
100
AcDbEntity
  8
0
100
AcDbLine
 62
7
  6
CONTINUOUS
 10
-32.0970678245
 20
-10.2148149671
 11
-32.0944050471
 21
-10.3185192208
  0
LINE
  5
36F
100
AcDbEntity
  8
0
100
AcDbLine
 62
7
  6
CONTINUOUS
 10
-32.0944050471
 20
-10.3185192208
 11
-32.0940703097
 21
-10.3314821676
  0
LINE
  5
370
100
AcDbEntity
  8
0
100
AcDbLine
 62
7
  6
CONTINUOUS
 10
-32.0940703097
 20
-10.3314821676
 11
-32.0913772758
 21
-10.4351855994
  0
LINE
  5
371
100
AcDbEntity
  8
0
100
AcDbLine
 62
7
  6
CONTINUOUS
 10
-32.0913772758
 20
-10.4351855994
 11
-32.0910387546
 21
-10.4481485115
  0
LINE
  5
372
100
AcDbEntity
  8
0
100
AcDbLine
 62
7
  6
CONTINUOUS
 10
-32.0910387546
 20
-10.4481485115
 11
-32.0896804688
 21
-10.5
  0
SPLINE
  5
373
100
AcDbEntity
  8
0
100
AcDbSpline
 62
7
  6
CONTINUOUS
 70
0
 71
3
 72
9
 73
5
 74
3
 42
0.0000001
 43
0.0000001
 44
0.0000000001
 12
-0.0022661768
 22
-0.0468885836
 32
0.0
 13
0.0006326639
 23
-0.0469390516
 33
0.0
 40
0.0
 40
0.0
 40
0.0
 40
0.0
 40
0.3389292973
 40
1.0
 40
1.0
 40
1.0
 40
1.0
 10
-32.1138142346
 20
-9.4521640287
 30
0.0
 10
-32.1140702591
 20
-9.4574613336
 30
0.0
 10
-32.113931464
 20
-9.4731197199
 30
0.0
 10
-32.1138277473
 20
-9.4887617615
 30
0.0
 10
-32.1136883354
 20
-9.4991051055
 30
0.0
 11
-32.1138142346
 21
-9.4521640287
 31
0.0
 11
-32.1139802052
 21
-9.4680736278
 31
0.0
 11
-32.1136883354
 21
-9.4991051055
 31
0.0
  0
SPLINE
  5
374
100
AcDbEntity
  8
0
100
AcDbSpline
 62
7
  6
CONTINUOUS
 70
0
 71
3
 72
9
 73
5
 74
3
 42
0.0000001
 43
0.0000001
 44
0.0000000001
 12
0.0080252021
 22
-0.4748925351
 32
0.0
 13
0.0118081719
 23
-0.4748135327
 33
0.0
 40
0.0
 40
0.0
 40
0.0
 40
0.0
 40
0.1796630699
 40
1.0
 40
1.0
 40
1.0
 40
1.0
 10
-32.1132481976
 20
-9.5277185256
 30
0.0
 10
-32.1127675867
 20
-9.5561587425
 30
0.0
 10
-32.1095825262
 20
-9.7144473018
 30
0.0
 10
-32.1056532212
 20
-9.8727191999
 30
0.0
 10
-32.102424328
 20
-10.0025548918
 30
0.0
 11
-32.1132481976
 21
-9.5277185256
 31
0.0
 11
-32.1115990879
 21
-9.6130354217
 31
0.0
 11
-32.102424328
 21
-10.0025548918
 31
0.0
  0
LINE
  5
375
100
AcDbEntity
  8
0
100
AcDbLine
 62
7
  6
CONTINUOUS
 10
-32.102424328
 20
-10.0025548918
 11
-32.0987183885
 21
-10.1499999991
  0
SPLINE
  5
376
100
AcDbEntity
  8
0
100
AcDbSpline
 62
7
  6
CONTINUOUS
 70
0
 71
3
 72
12
 73
8
 74
6
 42
0.0000001
 43
0.0000001
 44
0.0000000001
 12
0.005553928
 22
-0.0543014404
 32
0.0
 13
0.0545099216
 23
0.0028567447
 33
0.0
 40
0.0
 40
0.0
 40
0.0
 40
0.0
 40
0.4125791167
 40
0.7104859306
 40
0.8178166092
 40
0.8991032219
 40
1.0
 40
1.0
 40
1.0
 40
1.0
 10
-31.9961060854
 20
-13.5478359692
 30
0.0
 10
-31.9953422738
 20
-13.5553038494
 30
0.0
 10
-31.993741217
 20
-13.5681459353
 30
0.0
 10
-31.9909450971
 20
-13.5827574102
 30
0.0
 10
-31.9880146247
 20
-13.591206994
 30
0.0
 10
-31.9858365285
 20
-13.5958358237
 30
0.0
 10
-31.9828606441
 20
-13.5985501696
 30
0.0
 10
-31.9810273523
 20
-13.5984540908
 30
0.0
 11
-31.9961060854
 21
-13.5478359692
 31
0.0
 11
-31.9932035615
 21
-13.5701686611
 31
0.0
 11
-31.9897231701
 21
-13.5860530019
 31
0.0
 11
-31.9877661409
 21
-13.5915750863
 31
0.0
 11
-31.98566449
 21
-13.5954827839
 31
0.0
 11
-31.9810273523
 21
-13.5984540908
 31
0.0
  0
LINE
  5
377
100
AcDbEntity
  8
0
100
AcDbLine
 62
7
  6
CONTINUOUS
 10
-32.0210568215
 20
-12.85
 11
-32.0187776445
 21
-12.9206528962
  0
LINE
  5
378
100
AcDbEntity
  8
0
100
AcDbLine
 62
7
  6
CONTINUOUS
 10
-32.0187776445
 20
-12.9206528962
 11
-32.0160699928
 21
-13.0039024688
  0
SPLINE
  5
379
100
AcDbEntity
  8
0
100
AcDbSpline
 62
7
  6
CONTINUOUS
 70
0
 71
3
 72
9
 73
5
 74
3
 42
0.0000001
 43
0.0000001
 44
0.0000000001
 12
0.0153063093
 22
-0.4683948748
 32
0.0
 13
0.0188626816
 23
-0.4682651397
 33
0.0
 40
0.0
 40
0.0
 40
0.0
 40
0.0
 40
0.3080034355
 40
1.0
 40
1.0
 40
1.0
 40
1.0
 10
-32.0160699928
 20
-13.0039024688
 30
0.0
 10
-32.0144985275
 20
-13.0519915457
 30
0.0
 10
-32.0093133002
 20
-13.2081200174
 30
0.0
 10
-32.0041765841
 20
-13.3642528316
 30
0.0
 10
-31.9998256138
 20
-13.4722654543
 30
0.0
 11
-32.0160699928
 21
-13.0039024688
 31
0.0
 11
-32.0113089939
 21
-13.148168169
 31
0.0
 11
-31.9998256138
 21
-13.4722654543
 31
0.0
  0
SPLINE
  5
37A
100
AcDbEntity
  8
0
100
AcDbSpline
 62
7
  6
CONTINUOUS
 70
0
 71
3
 72
9
 73
5
 74
3
 42
0.0000001
 43
0.0000001
 44
0.0000000001
 12
0.0030454496
 22
-0.0756031373
 32
0.0
 13
0.0076987635
 23
-0.0752717621
 33
0.0
 40
0.0
 40
0.0
 40
0.0
 40
0.0
 40
0.6748085675
 40
1.0
 40
1.0
 40
1.0
 40
1.0
 10
-31.9998256138
 20
-13.4722654543
 30
0.0
 10
-31.999140582
 20
-13.4892713359
 30
0.0
 10
-31.9979206299
 20
-13.5144530402
 30
0.0
 10
-31.9969406109
 20
-13.5396766804
 30
0.0
 10
-31.9961060869
 20
-13.5478359245
 30
0.0
 11
-31.9998256138
 21
-13.4722654543
 31
0.0
 11
-31.9976033712
 21
-13.5232760917
 31
0.0
 11
-31.9961060869
 21
-13.5478359245
 31
0.0
  0
LINE
  5
37B
100
AcDbEntity
  8
0
100
AcDbLine
 62
7
  6
CONTINUOUS
 10
-32.030528891
 20
-12.5518523641
 11
-32.0301216858
 21
-12.5648154285
  0
LINE
  5
37C
100
AcDbEntity
  8
0
100
AcDbLine
 62
7
  6
CONTINUOUS
 10
-32.0301216858
 20
-12.5648154285
 11
-32.0268489108
 21
-12.668519546
  0
LINE
  5
37D
100
AcDbEntity
  8
0
100
AcDbLine
 62
7
  6
CONTINUOUS
 10
-32.0268489108
 20
-12.668519546
 11
-32.0264379224
 21
-12.681482508
  0
LINE
  5
37E
100
AcDbEntity
  8
0
100
AcDbLine
 62
7
  6
CONTINUOUS
 10
-32.0264379224
 20
-12.681482508
 11
-32.0231348819
 21
-12.7851858309
  0
LINE
  5
37F
100
AcDbEntity
  8
0
100
AcDbLine
 62
7
  6
CONTINUOUS
 10
-32.0231348819
 20
-12.7851858309
 11
-32.0227201105
 21
-12.7981486881
  0
LINE
  5
380
100
AcDbEntity
  8
0
100
AcDbLine
 62
7
  6
CONTINUOUS
 10
-32.0419013449
 20
-12.1839794658
 11
-32.0393907908
 21
-12.2669652942
  0
LINE
  5
381
100
AcDbEntity
  8
0
100
AcDbLine
 62
7
  6
CONTINUOUS
 10
-32.0393907908
 20
-12.2669652942
 11
-32.0392022467
 21
-12.2731108686
  0
SPLINE
  5
382
100
AcDbEntity
  8
0
100
AcDbSpline
 62
7
  6
CONTINUOUS
 70
0
 71
3
 72
11
 73
7
 74
5
 42
0.0000001
 43
0.0000001
 44
0.0000000001
 12
-0.0161206736
 22
-0.0573007479
 32
0.0
 13
-0.0594436428
 23
0.0031153105
 33
0.0
 40
0.0
 40
0.0
 40
0.0
 40
0.0
 40
0.4070256149
 40
0.7046625492
 40
0.8967421899
 40
1.0
 40
1.0
 40
1.0
 40
1.0
 10
-31.9357655162
 20
-14.1459806664
 30
0.0
 10
-31.9379526919
 20
-14.1537549572
 30
0.0
 10
-31.9418953475
 20
-14.1671191875
 30
0.0
 10
-31.9484626444
 20
-14.1838847222
 30
0.0
 10
-31.9535164314
 20
-14.1941131668
 30
0.0
 10
-31.9586517578
 20
-14.1985641888
 30
0.0
 10
-31.9606977646
 20
-14.1984569621
 30
0.0
 11
-31.9357655162
 21
-14.1459806664
 31
0.0
 11
-31.9429137457
 21
-14.1691304573
 31
0.0
 11
-31.9494526366
 21
-14.1855965313
 31
0.0
 11
-31.9553809143
 21
-14.1953731535
 31
0.0
 11
-31.9606977646
 21
-14.1984569621
 31
0.0
  0
SPLINE
  5
383
100
AcDbEntity
  8
0
100
AcDbSpline
 62
7
  6
CONTINUOUS
 70
0
 71
3
 72
8
 73
4
 74
2
 42
0.0000001
 43
0.0000001
 44
0.0000000001
 12
-0.0013881023
 22
-0.0109009477
 32
0.0
 13
-0.0029688466
 23
-0.010552731
 33
0.0
 40
0.0
 40
0.0
 40
0.0
 40
0.0
 40
1.0
 40
1.0
 40
1.0
 40
1.0
 10
-31.9336872714
 20
-14.1352274295
 30
0.0
 10
-31.9341499722
 20
-14.1388610787
 30
0.0
 10
-31.9347759031
 20
-14.1424630214
 30
0.0
 10
-31.9357655187
 20
-14.1459805984
 30
0.0
 11
-31.9336872714
 21
-14.1352274295
 31
0.0
 11
-31.9357655187
 21
-14.1459805984
 31
0.0
  0
SPLINE
  5
384
100
AcDbEntity
  8
0
100
AcDbSpline
 62
7
  6
CONTINUOUS
 70
0
 71
3
 72
9
 73
5
 74
3
 42
0.0000001
 43
0.0000001
 44
0.0000000001
 12
0.0799452603
 22
-2.9240510589
 32
0.0
 13
0.0828875499
 23
-2.9239691335
 33
0.0
 40
0.0
 40
0.0
 40
0.0
 40
0.0
 40
0.2497575862
 40
1.0
 40
1.0
 40
1.0
 40
1.0
 10
-32.0207667466
 20
-10.037992574
 30
0.0
 10
-32.0141111015
 20
-10.2814272188
 30
0.0
 10
-31.9873594803
 20
-11.2561080704
 30
0.0
 10
-31.9602387726
 20
-12.230778875
 30
0.0
 10
-31.9395101874
 20
-12.9620074286
 30
0.0
 11
-32.0207667466
 21
-10.037992574
 31
0.0
 11
-32.0007252376
 21
-10.7682944657
 31
0.0
 11
-31.9395101874
 21
-12.9620074286
 31
0.0
  0
SPLINE
  5
385
100
AcDbEntity
  8
0
100
AcDbSpline
 62
7
  6
CONTINUOUS
 70
0
 71
3
 72
14
 73
10
 74
8
 42
0.0000001
 43
0.0000001
 44
0.0000000001
 12
0.1788506183
 22
-0.498067424
 32
0.0
 13
0.0251915542
 23
-0.5286057965
 33
0.0
 40
0.0
 40
0.0
 40
0.0
 40
0.0
 40
0.0357091733
 40
0.0989659974
 40
0.1892242422
 40
0.3054939767
 40
0.4464438505
 40
0.6104791385
 40
1.0
 40
1.0
 40
1.0
 40
1.0
 10
-32.0851869857
 20
-8.8540196156
 30
0.0
 10
-32.0830581165
 20
-8.8599481409
 30
0.0
 10
-32.0801433442
 20
-8.8772935938
 30
0.0
 10
-32.0756718933
 20
-8.9102931671
 30
0.0
 10
-32.0710543411
 20
-8.957705356
 30
0.0
 10
-32.0659822876
 20
-9.0187754404
 30
0.0
 10
-32.0607432631
 20
-9.0929082107
 30
0.0
 10
-32.0531204197
 20
-9.2151811698
 30
0.0
 10
-32.0480665062
 20
-9.3127028959
 30
0.0
 10
-32.0447956276
 20
-9.3813372243
 30
0.0
 11
-32.0851869857
 21
-8.8540196156
 31
0.0
 11
-32.0810296971
 21
-8.8724541598
 31
0.0
 11
-32.0764797578
 21
-8.9056193852
 31
0.0
 11
-32.071598905
 21
-8.9531345376
 31
0.0
 11
-32.0664560637
 21
-9.0144498463
 31
0.0
 11
-32.061125526
 21
-9.0888506147
 31
0.0
 11
-32.055685064
 21
-9.1754883785
 31
0.0
 11
-32.0447956276
 21
-9.3813372243
 31
0.0
  0
SPLINE
  5
386
100
AcDbEntity
  8
0
100
AcDbSpline
 62
7
  6
CONTINUOUS
 70
0
 71
3
 72
10
 73
6
 74
4
 42
0.0000001
 43
0.0000001
 44
0.0000000001
 12
0.0458677927
 22
0.0024038306
 32
0.0
 13
0.0169100814
 23
-0.0427045894
 33
0.0
 40
0.0
 40
0.0
 40
0.0
 40
0.0
 40
0.1169325941
 40
0.3130412963
 40
1.0
 40
1.0
 40
1.0
 40
1.0
 10
-32.1149351148
 20
-8.8015438818
 30
0.0
 10
-32.1131473015
 20
-8.8014501864
 30
0.0
 10
-32.1086252053
 20
-8.8042876615
 30
0.0
 10
-32.1000288644
 20
-8.8167619287
 30
0.0
 10
-32.0946340285
 20
-8.8294144276
 30
0.0
 10
-32.0907618526
 20
-8.8391931908
 30
0.0
 11
-32.1149351148
 21
-8.8015438818
 31
0.0
 11
-32.1100244501
 21
-8.8037189383
 31
0.0
 11
-32.1043566962
 21
-8.8107196624
 31
0.0
 11
-32.0907618526
 21
-8.8391931908
 31
0.0
  0
LINE
  5
387
100
AcDbEntity
  8
0
100
AcDbLine
 62
7
  6
CONTINUOUS
 10
-32.0907618526
 20
-8.8391931908
 11
-32.0851869896
 21
-8.8540194184
  0
SPLINE
  5
388
100
AcDbEntity
  8
0
100
AcDbSpline
 62
7
  6
CONTINUOUS
 70
0
 71
3
 72
12
 73
8
 74
6
 42
0.0000001
 43
0.0000001
 44
0.0000000001
 12
-0.0509031381
 22
0.0026677209
 32
0.0
 13
-0.0028128315
 23
-0.0508953258
 33
0.0
 40
0.0
 40
0.0
 40
0.0
 40
0.0
 40
0.1047983298
 40
0.1858511022
 40
0.2924759195
 40
0.5886863718
 40
1.0
 40
1.0
 40
1.0
 40
1.0
 10
-32.1009257606
 20
-9.4015465583
 30
0.0
 10
-32.1027039486
 20
-9.4014533674
 30
0.0
 10
-32.1056513798
 20
-9.4038720742
 30
0.0
 10
-32.1076716923
 20
-9.4083027057
 30
0.0
 10
-32.1102161036
 20
-9.4161928911
 30
0.0
 10
-32.1123035928
 20
-9.4298900886
 30
0.0
 10
-32.1132575576
 20
-9.44188062
 30
0.0
 10
-32.1136432095
 20
-9.4488586004
 30
0.0
 11
-32.1009257606
 21
-9.4015465583
 31
0.0
 11
-32.105498984
 21
-9.4043072395
 31
0.0
 11
-32.1074373156
 21
-9.4079558261
 31
0.0
 11
-32.1091431748
 21
-9.4131161671
 31
0.0
 11
-32.1118577067
 21
-9.4279688801
 31
0.0
 11
-32.1136432095
 21
-9.4488586004
 31
0.0
  0
LINE
  5
389
100
AcDbEntity
  8
0
100
AcDbLine
 62
7
  6
CONTINUOUS
 10
-32.1136432095
 20
-9.4488586004
 11
-32.1138142344
 21
-9.4521640341
  0
SPLINE
  5
38A
100
AcDbEntity
  8
0
100
AcDbSpline
 62
7
  6
CONTINUOUS
 70
0
 71
3
 72
21
 73
17
 74
15
 42
0.0000001
 43
0.0000001
 44
0.0000000001
 12
0.5816148035
 22
0.0304921287
 32
0.0
 13
0.0179322771
 23
-0.5821374262
 33
0.0
 40
0.0
 40
0.0
 40
0.0
 40
0.0
 40
0.0015397772
 40
0.00514107
 40
0.0110165065
 40
0.01921578
 40
0.0425791179
 40
0.0750759407
 40
0.1161808725
 40
0.1653828273
 40
0.2224032158
 40
0.2870674395
 40
0.4375161635
 40
0.6104879264
 40
0.7998323652
 40
1.0
 40
1.0
 40
1.0
 40
1.0
 10
-32.0531501237
 20
-10.8500003696
 30
0.0
 10
-32.0528516046
 20
-10.8499847192
 30
0.0
 10
-32.0522427462
 20
-10.8511167984
 30
0.0
 10
-32.051737494
 20
-10.8529687821
 30
0.0
 10
-32.05100646
 20
-10.8564451542
 30
0.0
 10
-32.0499227342
 20
-10.8635617295
 30
0.0
 10
-32.0484950853
 20
-10.8759715154
 30
0.0
 10
-32.0467862326
 20
-10.8946936926
 30
0.0
 10
-32.0449399888
 20
-10.9184731664
 30
0.0
 10
-32.0429964812
 20
-10.9470057378
 30
0.0
 10
-32.0409669256
 20
-10.9801204815
 30
0.0
 10
-32.0380196411
 20
-11.0328693168
 30
0.0
 10
-32.0343239955
 20
-11.108121643
 30
0.0
 10
-32.0300650021
 20
-11.2075779316
 30
0.0
 10
-32.0259621641
 20
-11.316700705
 30
0.0
 10
-32.0234721614
 20
-11.3922790206
 30
0.0
 10
-32.0222756742
 20
-11.4311207112
 30
0.0
 11
-32.0531501237
 21
-10.8500003696
 31
0.0
 11
-32.052520358
 21
-10.8506388226
 31
0.0
 11
-32.0518479598
 21
-10.8526255643
 31
0.0
 11
-32.0511330063
 21
-10.8559719762
 31
0.0
 11
-32.0503758786
 21
-10.8606869415
 31
0.0
 11
-32.0487442016
 21
-10.8741958819
 31
0.0
 11
-32.0469750877
 21
-10.893039609
 31
0.0
 11
-32.0450961898
 21
-10.9169058335
 31
0.0
 11
-32.0431295927
 21
-10.9454941574
 31
0.0
 11
-32.0410856657
 21
-10.9786406466
 31
0.0
 11
-32.0389741287
 21
-11.0162427272
 31
0.0
 11
-32.0346236391
 21
-11.1037580362
 31
0.0
 11
-32.0302845441
 21
-11.204405646
 31
0.0
 11
-32.0261240877
 21
-11.3146039043
 31
0.0
 11
-32.0222756742
 21
-11.4311207112
 31
0.0
  0
LINE
  5
38B
100
AcDbEntity
  8
0
100
AcDbLine
 62
7
  6
CONTINUOUS
 10
-32.0392022467
 20
-12.2731108686
 11
-32.0381847942
 21
-12.3061576968
  0
LINE
  5
38C
100
AcDbEntity
  8
0
100
AcDbLine
 62
7
  6
CONTINUOUS
 10
-32.0381847942
 20
-12.3061576968
 11
-32.0372531518
 21
-12.3362818558
  0
LINE
  5
38D
100
AcDbEntity
  8
0
100
AcDbLine
 62
7
  6
CONTINUOUS
 10
-32.0372531518
 20
-12.3362818558
 11
-32.0370281485
 21
-12.3435421278
  0
LINE
  5
38E
100
AcDbEntity
  8
0
100
AcDbLine
 62
7
  6
CONTINUOUS
 10
-32.0370281485
 20
-12.3435421278
 11
-32.0366217633
 21
-12.3566426825
  0
LINE
  5
38F
100
AcDbEntity
  8
0
100
AcDbLine
 62
7
  6
CONTINUOUS
 10
-32.0366217633
 20
-12.3566426825
 11
-32.0360010702
 21
-12.376625012
  0
LINE
  5
390
100
AcDbEntity
  8
0
100
AcDbLine
 62
7
  6
CONTINUOUS
 10
-32.0360010702
 20
-12.376625012
 11
-32.0357893455
 21
-12.3834347572
  0
LINE
  5
391
100
AcDbEntity
  8
0
100
AcDbLine
 62
7
  6
CONTINUOUS
 10
-32.0348292926
 20
-12.4142777769
 11
-32.0346589586
 21
-12.4197444659
  0
LINE
  5
392
100
AcDbEntity
  8
0
100
AcDbLine
 62
7
  6
CONTINUOUS
 10
-32.0346589586
 20
-12.4197444659
 11
-32.0335813534
 21
-12.4542955768
  0
LINE
  5
393
100
AcDbEntity
  8
0
100
AcDbLine
 62
7
  6
CONTINUOUS
 10
-32.0335813534
 20
-12.4542955768
 11
-32.033286942
 21
-12.4637260748
  0
LINE
  5
394
100
AcDbEntity
  8
0
100
AcDbLine
 62
7
  6
CONTINUOUS
 10
-32.0836771626
 20
-10.7268940247
 11
-32.0830303322
 21
-10.7509289635
  0
SPLINE
  5
395
100
AcDbEntity
  8
0
100
AcDbSpline
 62
7
  6
CONTINUOUS
 70
0
 71
3
 72
9
 73
5
 74
3
 42
0.0000001
 43
0.0000001
 44
0.0000000001
 12
0.0040005988
 22
-0.1481592701
 32
0.0
 13
0.0091645171
 23
-0.1479296648
 33
0.0
 40
0.0
 40
0.0
 40
0.0
 40
0.0
 40
0.6958165336
 40
1.0
 40
1.0
 40
1.0
 40
1.0
 10
-32.0830303322
 20
-10.7509289635
 30
0.0
 10
-32.082102438
 20
-10.7852928534
 30
0.0
 10
-32.0803990252
 20
-10.8346598318
 30
0.0
 10
-32.0795927645
 20
-10.8840781541
 30
0.0
 10
-32.0786635329
 20
-10.8990774068
 30
0.0
 11
-32.0830303322
 21
-10.7509289635
 31
0.0
 11
-32.0801662781
 21
-10.8540184317
 31
0.0
 11
-32.0786635329
 21
-10.8990774068
 31
0.0
  0
LINE
  5
396
100
AcDbEntity
  8
0
100
AcDbLine
 62
7
  6
CONTINUOUS
 10
-31.9626590584
 20
-14.1978129225
 11
-31.9641517099
 21
-14.196528137
  0
SPLINE
  5
397
100
AcDbEntity
  8
0
100
AcDbSpline
 62
7
  6
CONTINUOUS
 70
0
 71
3
 72
9
 73
5
 74
3
 42
0.0000001
 43
0.0000001
 44
0.0000000001
 12
-0.0030902994
 22
0.0034404153
 32
0.0
 13
-0.001995442
 23
0.0041718843
 33
0.0
 40
0.0
 40
0.0
 40
0.0
 40
0.0
 40
0.217128833
 40
1.0
 40
1.0
 40
1.0
 40
1.0
 10
-31.9641517099
 20
-14.196528137
 30
0.0
 10
-31.9643753742
 20
-14.1962791326
 30
0.0
 10
-31.9653444773
 20
-14.1950773647
 30
0.0
 10
-31.9660959315
 20
-14.1937149053
 30
0.0
 10
-31.9666166562
 20
-14.1926262226
 30
0.0
 11
-31.9641517099
 21
-14.196528137
 31
0.0
 11
-31.9647859536
 21
-14.1957496799
 31
0.0
 11
-31.9666166562
 21
-14.1926262226
 31
0.0
  0
SPLINE
  5
398
100
AcDbEntity
  8
0
100
AcDbSpline
 62
7
  6
CONTINUOUS
 70
0
 71
3
 72
9
 73
5
 74
3
 42
0.0000001
 43
0.0000001
 44
0.0000000001
 12
-0.0047226609
 22
0.0098736996
 32
0.0
 13
-0.0026603319
 23
0.0106167841
 33
0.0
 40
0.0
 40
0.0
 40
0.0
 40
0.0
 40
0.2097743507
 40
1.0
 40
1.0
 40
1.0
 40
1.0
 10
-31.9666166562
 20
-14.1926262226
 30
0.0
 10
-31.9669468872
 20
-14.1919358063
 30
0.0
 10
-31.9683852921
 20
-14.1885796302
 30
0.0
 10
-31.9693983859
 20
-14.1850578239
 30
0.0
 10
-31.97009914
 20
-14.1822612722
 30
0.0
 11
-31.9666166562
 21
-14.1926262226
 31
0.0
 11
-31.9675316522
 21
-14.1905204384
 31
0.0
 11
-31.97009914
 21
-14.1822612722
 31
0.0
  0
SPLINE
  5
399
100
AcDbEntity
  8
0
100
AcDbSpline
 62
7
  6
CONTINUOUS
 70
0
 71
3
 72
9
 73
5
 74
3
 42
0.0000001
 43
0.0000001
 44
0.0000000001
 12
-0.0076376945
 22
0.0304803149
 32
0.0
 13
-0.0034052944
 23
0.0312376047
 33
0.0
 40
0.0
 40
0.0
 40
0.0
 40
0.0
 40
0.2032755453
 40
1.0
 40
1.0
 40
1.0
 40
1.0
 10
-31.97009914
 20
-14.1822612722
 30
0.0
 10
-31.9706166589
 20
-14.1801959713
 30
0.0
 10
-31.9728510341
 20
-14.1699581272
 30
0.0
 10
-31.9741965656
 20
-14.1595494424
 30
0.0
 10
-31.9751009261
 20
-14.1512535212
 30
0.0
 11
-31.97009914
 21
-14.1822612722
 31
0.0
 11
-31.9714883187
 21
-14.1760267053
 31
0.0
 11
-31.9751009261
 21
-14.1512535212
 31
0.0
  0
SPLINE
  5
39A
100
AcDbEntity
  8
0
100
AcDbSpline
 62
7
  6
CONTINUOUS
 70
0
 71
3
 72
8
 73
4
 74
2
 42
0.0000001
 43
0.0000001
 44
0.0000000001
 12
0.0021076215
 22
0.0001104558
 32
0.0
 13
0.0018483899
 23
0.0010186873
 33
0.0
 40
0.0
 40
0.0
 40
0.0
 40
0.0
 40
1.0
 40
1.0
 40
1.0
 40
1.0
 10
-31.9810273523
 20
-13.5984540908
 30
0.0
 10
-31.9803248118
 20
-13.5984172722
 30
0.0
 10
-31.9796261794
 20
-13.5981733644
 30
0.0
 10
-31.9790100495
 20
-13.597833802
 30
0.0
 11
-31.9810273523
 21
-13.5984540908
 31
0.0
 11
-31.9790100495
 21
-13.597833802
 31
0.0
  0
SPLINE
  5
39B
100
AcDbEntity
  8
0
100
AcDbSpline
 62
7
  6
CONTINUOUS
 70
0
 71
3
 72
9
 73
5
 74
3
 42
0.0000001
 43
0.0000001
 44
0.0000000001
 12
0.0043414691
 22
0.0034975681
 32
0.0
 13
0.0030857709
 23
0.0046432052
 33
0.0
 40
0.0
 40
0.0
 40
0.0
 40
0.0
 40
0.2124387549
 40
1.0
 40
1.0
 40
1.0
 40
1.0
 10
-31.9778666317
 20
-13.5970563778
 30
0.0
 10
-31.9775591996
 20
-13.5968087048
 30
0.0
 10
-31.9761824527
 20
-13.5955552451
 30
0.0
 10
-31.9750580544
 20
-13.5940510501
 30
0.0
 10
-31.9742479766
 20
-13.5928321139
 30
0.0
 11
-31.9778666317
 21
-13.5970563778
 31
0.0
 11
-31.9769856393
 21
-13.5962648222
 31
0.0
 11
-31.9742479766
 21
-13.5928321139
 31
0.0
  0
SPLINE
  5
39C
100
AcDbEntity
  8
0
100
AcDbSpline
 62
7
  6
CONTINUOUS
 70
0
 71
3
 72
9
 73
5
 74
3
 42
0.0000001
 43
0.0000001
 44
0.0000000001
 12
0.0266723506
 22
0.0401342814
 32
0.0
 13
0.0130445239
 23
0.0463898182
 33
0.0
 40
0.0
 40
0.0
 40
0.0
 40
0.0
 40
0.3874345905
 40
1.0
 40
1.0
 40
1.0
 40
1.0
 10
-31.9742479766
 20
-13.5928321139
 30
0.0
 10
-31.9708033795
 20
-13.5876489776
 30
0.0
 10
-31.964678648
 20
-13.5726055882
 30
0.0
 10
-31.9599446175
 20
-13.557308317
 30
0.0
 10
-31.9572810762
 20
-13.547836051
 30
0.0
 11
-31.9742479766
 21
-13.5928321139
 31
0.0
 11
-31.9662662658
 21
-13.5759542097
 31
0.0
 11
-31.9572810762
 21
-13.547836051
 31
0.0
  0
LINE
  5
39D
100
AcDbEntity
  8
0
100
AcDbLine
 62
7
  6
CONTINUOUS
 10
-32.0449160342
 20
-11.565316561
 11
-32.0468386909
 21
-11.5
  0
LINE
  5
39E
100
AcDbEntity
  8
RACCORDO
100
AcDbLine
 62
253
  6
CONTINUOUS
 10
-31.6847033389
 20
-20.8317816726
 11
-31.3332444741
 21
-20.8314008366
  0
LINE
  5
39F
100
AcDbEntity
  8
RACCORDO
100
AcDbLine
 62
253
  6
CONTINUOUS
 10
-31.3332444745
 20
20.8314008262
 11
-31.6847033395
 21
20.8317816622
  0
LINE
  5
3A0
100
AcDbEntity
  8
0
100
AcDbLine
 62
7
  6
CONTINUOUS
 10
-31.9756478038
 20
-14.1459805287
 11
-31.9761476861
 21
-14.1398930488
  0
LINE
  5
3A1
100
AcDbEntity
  8
0
100
AcDbLine
 62
7
  6
CONTINUOUS
 10
-31.9761476861
 20
-14.1398930488
 11
-31.9777969079
 21
-14.110673372
  0
LINE
  5
3A2
100
AcDbEntity
  8
0
100
AcDbLine
 62
7
  6
CONTINUOUS
 10
-31.9847643871
 20
-13.9336268073
 11
-31.9860491019
 21
-13.8970133182
  0
SPLINE
  5
3A3
100
AcDbEntity
  8
0
100
AcDbSpline
 62
7
  6
CONTINUOUS
 70
0
 71
3
 72
9
 73
5
 74
3
 42
0.0000001
 43
0.0000001
 44
0.0000000001
 12
-0.016531692
 22
0.0467084516
 32
0.0
 13
-0.0299470914
 23
0.0394733836
 33
0.0
 40
0.0
 40
0.0
 40
0.0
 40
0.0
 40
0.6101833438
 40
1.0
 40
1.0
 40
1.0
 40
1.0
 10
-32.0729846005
 20
-9.4521639529
 30
0.0
 10
-32.0763470548
 20
-9.4426637132
 30
0.0
 10
-32.082245413
 20
-9.4272864281
 30
0.0
 10
-32.0895811757
 20
-9.4122924166
 30
0.0
 10
-32.0934724674
 20
-9.4071632891
 30
0.0
 11
-32.0729846005
 21
-9.4521639529
 31
0.0
 11
-32.0840803944
 21
-9.4240404886
 31
0.0
 11
-32.0934724674
 21
-9.4071632891
 31
0.0
  0
SPLINE
  5
3A4
100
AcDbEntity
  8
0
100
AcDbSpline
 62
7
  6
CONTINUOUS
 70
0
 71
3
 72
9
 73
5
 74
3
 42
0.0000001
 43
0.0000001
 44
0.0000000001
 12
-0.0057118196
 22
0.0075287727
 32
0.0
 13
-0.0094373028
 23
0.0004945882
 33
0.0
 40
0.0
 40
0.0
 40
0.0
 40
0.0
 40
0.3309156212
 40
1.0
 40
1.0
 40
1.0
 40
1.0
 10
-32.0934724674
 20
-9.4071632891
 30
0.0
 10
-32.0941025108
 20
-9.4063328263
 30
0.0
 10
-32.0960617853
 20
-9.4039626395
 30
0.0
 10
-32.0988209767
 20
-9.4016568654
 30
0.0
 10
-32.1009257606
 20
-9.4015465583
 30
0.0
 11
-32.0934724674
 21
-9.4071632891
 31
0.0
 11
-32.0954868149
 21
-9.4047712161
 31
0.0
 11
-32.1009257606
 21
-9.4015465583
 31
0.0
  0
SPLINE
  5
3A5
100
AcDbEntity
  8
0
100
AcDbSpline
 62
7
  6
CONTINUOUS
 70
0
 71
3
 72
9
 73
5
 74
3
 42
0.0000001
 43
0.0000001
 44
0.0000000001
 12
-0.0013273559
 22
0.0806571321
 32
0.0
 13
0.0013170101
 23
0.0806573017
 33
0.0
 40
0.0
 40
0.0
 40
0.0
 40
0.0
 40
0.3431727477
 40
1.0
 40
1.0
 40
1.0
 40
1.0
 10
-32.1272589273
 20
-8.9408784653
 30
0.0
 10
-32.1274107648
 20
-8.931652022
 30
0.0
 10
-32.1277848624
 20
-8.9047667742
 30
0.0
 10
-32.1282136231
 20
-8.8778734239
 30
0.0
 10
-32.1279252738
 20
-8.8602141192
 30
0.0
 11
-32.1272589273
 21
-8.9408784653
 31
0.0
 11
-32.1276739625
 21
-8.9131984991
 31
0.0
 11
-32.1279252738
 21
-8.8602141192
 31
0.0
  0
LINE
  5
3A6
100
AcDbEntity
  8
0
100
AcDbLine
 62
7
  6
CONTINUOUS
 10
-32.1279252738
 20
-8.8602141192
 11
-32.1277544156
 21
-8.8540194146
  0
SPLINE
  5
3A7
100
AcDbEntity
  8
0
100
AcDbSpline
 62
7
  6
CONTINUOUS
 70
0
 71
3
 72
12
 73
8
 74
6
 42
0.0000001
 43
0.0000001
 44
0.0000000001
 12
-0.0165168228
 22
0.5010426974
 32
0.0
 13
-0.0893128935
 23
0.4932948379
 33
0.0
 40
0.0
 40
0.0
 40
0.0
 40
0.0
 40
0.3597274023
 40
0.6610538332
 40
0.8802071633
 40
0.9532930002
 40
1.0
 40
1.0
 40
1.0
 40
1.0
 10
-32.0433198024
 20
-9.9600998728
 30
0.0
 10
-32.0453003203
 20
-9.9000202768
 30
0.0
 10
-32.0493700616
 20
-9.7896249323
 30
0.0
 10
-32.056401253
 20
-9.6427130857
 30
0.0
 10
-32.0624216401
 20
-9.5436829395
 30
0.0
 10
-32.0674843109
 20
-9.4872808978
 30
0.0
 10
-32.0698118604
 20
-9.467377086
 30
0.0
 10
-32.0712023728
 20
-9.4596969787
 30
0.0
 11
-32.0433198024
 21
-9.9600998728
 31
0.0
 11
-32.0500881594
 21
-9.7798902391
 31
0.0
 11
-32.0574335374
 21
-9.6290095141
 31
0.0
 11
-32.0646909979
 21
-9.5193846619
 31
0.0
 11
-32.0680786732
 21
-9.4829025956
 31
0.0
 11
-32.0712023728
 21
-9.4596969787
 31
0.0
  0
SPLINE
  5
3A8
100
AcDbEntity
  8
0
100
AcDbSpline
 62
7
  6
CONTINUOUS
 70
0
 71
3
 72
9
 73
5
 74
3
 42
0.0000001
 43
0.0000001
 44
0.0000000001
 12
-0.001379772
 22
0.0076207857
 32
0.0
 13
-0.0025840292
 23
0.0073008862
 33
0.0
 40
0.0
 40
0.0
 40
0.0
 40
0.0
 40
0.3137961687
 40
1.0
 40
1.0
 40
1.0
 40
1.0
 10
-32.0712023728
 20
-9.4596969787
 30
0.0
 10
-32.0713466952
 20
-9.4588998542
 30
0.0
 10
-32.0718362996
 20
-9.4563673241
 30
0.0
 10
-32.0723935542
 20
-9.4538334184
 30
0.0
 10
-32.0729846111
 20
-9.452163453
 30
0.0
 11
-32.0712023728
 21
-9.4596969787
 31
0.0
 11
-32.0716606285
 21
-9.4573103223
 31
0.0
 11
-32.0729846111
 21
-9.452163453
 31
0.0
  0
LINE
  5
3A9
100
AcDbEntity
  8
0
100
AcDbLine
 62
7
  6
CONTINUOUS
 10
-31.9603617907
 20
-12.9103074915
 11
-31.985468594
 21
-12.0320652786
  0
LINE
  5
3AA
100
AcDbEntity
  8
0
100
AcDbLine
 62
7
  6
CONTINUOUS
 10
-31.985468594
 20
-12.0320652786
 11
-31.987209233
 21
-11.9705398242
  0
LINE
  5
3AB
100
AcDbEntity
  8
0
100
AcDbLine
 62
7
  6
CONTINUOUS
 10
-31.987209233
 20
-11.9705398242
 11
-31.9897191063
 21
-11.8816867924
  0
LINE
  5
3AC
100
AcDbEntity
  8
0
100
AcDbLine
 62
7
  6
CONTINUOUS
 10
-31.9897191063
 20
-11.8816867924
 11
-32.0048412276
 21
-11.3429518331
  0
LINE
  5
3AD
100
AcDbEntity
  8
0
100
AcDbLine
 62
7
  6
CONTINUOUS
 10
-32.0048412276
 20
-11.3429518331
 11
-32.0090343762
 21
-11.1925563397
  0
LINE
  5
3AE
100
AcDbEntity
  8
0
100
AcDbLine
 62
7
  6
CONTINUOUS
 10
-32.0090343762
 20
-11.1925563397
 11
-32.0135733665
 21
-11.0292711511
  0
LINE
  5
3AF
100
AcDbEntity
  8
0
100
AcDbLine
 62
7
  6
CONTINUOUS
 10
-32.0135733665
 20
-11.0292711511
 11
-32.0156453307
 21
-10.9545681613
  0
LINE
  5
3B0
100
AcDbEntity
  8
0
100
AcDbLine
 62
7
  6
CONTINUOUS
 10
-32.0156453307
 20
-10.9545681613
 11
-32.0394227087
 21
-10.0896925011
  0
SPLINE
  5
3B1
100
AcDbEntity
  8
0
100
AcDbSpline
 62
7
  6
CONTINUOUS
 70
0
 71
3
 72
9
 73
5
 74
3
 42
0.0000001
 43
0.0000001
 44
0.0000000001
 12
0.0020804087
 22
0.00739849
 32
0.0
 13
0.0008898421
 23
0.0076337366
 33
0.0
 40
0.0
 40
0.0
 40
0.0
 40
0.0
 40
0.1854106268
 40
1.0
 40
1.0
 40
1.0
 40
1.0
 10
-31.957281076
 20
-13.5478360563
 30
0.0
 10
-31.9571524994
 20
-13.5473788035
 30
0.0
 10
-31.9565685862
 20
-13.5448824129
 30
0.0
 10
-31.9562401157
 20
-13.5423356026
 30
0.0
 10
-31.9559984971
 20
-13.5402628156
 30
0.0
 11
-31.957281076
 21
-13.5478360563
 31
0.0
 11
-31.9569447533
 21
-13.5464513555
 31
0.0
 11
-31.9559984971
 21
-13.5402628156
 31
0.0
  0
SPLINE
  5
3B2
100
AcDbEntity
  8
0
100
AcDbSpline
 62
7
  6
CONTINUOUS
 70
0
 71
3
 72
12
 73
8
 74
6
 42
0.0000001
 43
0.0000001
 44
0.0000000001
 12
0.0579441647
 22
0.4970887552
 32
0.0
 13
-0.0117242863
 23
0.5003171973
 33
0.0
 40
0.0
 40
0.0
 40
0.0
 40
0.0
 40
0.0465245952
 40
0.119478658
 40
0.3385457047
 40
0.6400039201
 40
1.0
 40
1.0
 40
1.0
 40
1.0
 10
-31.9559984971
 20
-13.5402628156
 30
0.0
 10
-31.9550998875
 20
-13.5325538646
 30
0.0
 10
-31.9539889395
 20
-13.5126338917
 30
0.0
 10
-31.9522852556
 20
-13.4561940979
 30
0.0
 10
-31.9520101183
 20
-13.3571683216
 30
0.0
 10
-31.9533828834
 20
-13.2102942743
 30
0.0
 10
-31.9555591847
 20
-13.0999686115
 30
0.0
 10
-31.9569660838
 20
-13.0399312016
 30
0.0
 11
-31.9559984971
 21
-13.5402628156
 31
0.0
 11
-31.9543119725
 21
-13.5170405319
 31
0.0
 11
-31.9531038177
 21
-13.4805503341
 31
0.0
 11
-31.952234794
 21
-13.3709206781
 31
0.0
 11
-31.9535294616
 21
-13.2200600977
 31
0.0
 11
-31.9569660838
 21
-13.0399312016
 31
0.0
  0
SPLINE
  5
3B3
100
AcDbEntity
  8
RACCORDO
100
AcDbSpline
 62
253
  6
CONTINUOUS
 70
0
 71
3
 72
11
 73
7
 74
5
 42
0.0000001
 43
0.0000001
 44
0.0000000001
 12
-1.047085009
 22
0.0276267642
 32
0.0
 13
-0.0450860355
 23
1.0464786207
 33
0.0
 40
0.0
 40
0.0
 40
0.0
 40
0.0
 40
0.2499800914
 40
0.4999662597
 40
0.7499719373
 40
1.0
 40
1.0
 40
1.0
 40
1.0
 10
-30.1641144817
 20
-21.4787579832
 30
0.0
 10
-30.2513646171
 20
-21.4764559361
 30
0.0
 10
-30.4267333166
 20
-21.4387651332
 30
0.0
 10
-30.6496968039
 20
-21.2903446704
 30
0.0
 10
-30.8031520683
 20
-21.0707257303
 30
0.0
 10
-30.8442274643
 20
-20.8959739213
 30
0.0
 10
-30.8479850556
 20
-20.8087575806
 30
0.0
 11
-30.1641144817
 21
-21.4787579832
 31
0.0
 11
-30.4200486366
 21
-21.4234526642
 31
0.0
 11
-30.6381053238
 21
-21.2784851349
 31
0.0
 11
-30.7878407835
 21
-21.063649622
 31
0.0
 11
-30.8479850556
 21
-20.8087575806
 31
0.0
  0
SPLINE
  5
3B4
100
AcDbEntity
  8
RACCORDO
100
AcDbSpline
 62
253
  6
CONTINUOUS
 70
0
 71
3
 72
11
 73
7
 74
5
 42
0.0000001
 43
0.0000001
 44
0.0000000001
 12
0.0450860439
 22
1.0464786225
 32
0.0
 13
1.047085011
 23
0.0276267704
 33
0.0
 40
0.0
 40
0.0
 40
0.0
 40
0.0
 40
0.2500280646
 40
0.5000337412
 40
0.750019909
 40
1.0
 40
1.0
 40
1.0
 40
1.0
 10
-30.8479850279
 20
20.8087575834
 30
0.0
 10
-30.8442274358
 20
20.8959739249
 30
0.0
 10
-30.8031519996
 20
21.0707257247
 30
0.0
 10
-30.6496967545
 20
21.2903446715
 30
0.0
 10
-30.4267332629
 20
21.4387651342
 30
0.0
 10
-30.2513645645
 20
21.476455937
 30
0.0
 10
-30.164114429
 20
21.4787579845
 30
0.0
 11
-30.8479850279
 21
20.8087575834
 31
0.0
 11
-30.7878407276
 21
21.0636496208
 31
0.0
 11
-30.6381052706
 21
21.278485135
 31
0.0
 11
-30.420048584
 21
21.4234526652
 31
0.0
 11
-30.164114429
 21
21.4787579845
 31
0.0
  0
LINE
  5
3B5
100
AcDbEntity
  8
0
100
AcDbLine
 62
7
  6
CONTINUOUS
 10
-32.1276780571
 20
-8.8523968761
 11
-32.1275922664
 21
-8.8506986115
  0
SPLINE
  5
3B6
100
AcDbEntity
  8
RACCORDO
100
AcDbSpline
 62
253
  6
CONTINUOUS
 70
0
 71
3
 72
20
 73
16
 74
14
 42
0.0000001
 43
0.0000001
 44
0.0000000001
 12
-0.5002087938
 22
-0.0130984282
 32
0.0
 13
0.0130894589
 23
-0.5002090286
 33
0.0
 40
0.0
 40
0.0
 40
0.0
 40
0.0
 40
0.0017601587
 40
0.0055960804
 40
0.0201987669
 40
0.0441136198
 40
0.0772179139
 40
0.1191811341
 40
0.1695848503
 40
0.2279973203
 40
0.2938475646
 40
0.4451452224
 40
0.6177668843
 40
0.8053187251
 40
1.0
 40
1.0
 40
1.0
 40
1.0
 10
-30.164114429
 20
21.978586647
 30
0.0
 10
-30.1644079113
 20
21.9785789619
 30
0.0
 10
-30.1649920357
 20
21.9775779375
 30
0.0
 10
-30.1657411233
 20
21.9745307481
 30
0.0
 10
-30.1666763366
 20
21.9672820855
 30
0.0
 10
-30.1674889544
 20
21.9554973983
 30
0.0
 10
-30.1682319376
 20
21.9389446525
 30
0.0
 10
-30.168806122
 20
21.9180465363
 30
0.0
 10
-30.1692288403
 20
21.8928928488
 30
0.0
 10
-30.1694792502
 20
21.8637630811
 30
0.0
 10
-30.169588206
 20
21.8178002621
 30
0.0
 10
-30.169239406
 20
21.7527899018
 30
0.0
 10
-30.1681731371
 20
21.6674857993
 30
0.0
 10
-30.1664692131
 20
21.5749549622
 30
0.0
 10
-30.1649638532
 20
21.5112184283
 30
0.0
 10
-30.164114429
 20
21.4787579845
 30
0.0
 11
-30.164114429
 21
21.978586647
 31
0.0
 11
-30.1647381089
 21
21.9779647614
 31
0.0
 11
-30.1653298552
 21
21.976138835
 31
0.0
 11
-30.1664112817
 21
21.968912408
 31
0.0
 11
-30.1673461777
 21
21.9569824633
 31
0.0
 11
-30.1681226662
 21
21.9404359373
 31
0.0
 11
-30.1687337017
 21
21.9194472627
 31
0.0
 11
-30.169174404
 21
21.8942300887
 31
0.0
 11
-30.1694400787
 21
21.8650028491
 31
0.0
 11
-30.1695286545
 21
21.8320528057
 31
0.0
 11
-30.1691744053
 21
21.7563472729
 31
0.0
 11
-30.1681226686
 21
21.6699772039
 31
0.0
 11
-30.1664112838
 21
21.5761455703
 31
0.0
 11
-30.164114429
 21
21.4787579845
 31
0.0
  0
SPLINE
  5
3B7
100
AcDbEntity
  8
RACCORDO
100
AcDbSpline
 62
253
  6
CONTINUOUS
 70
0
 71
3
 72
20
 73
16
 74
14
 42
0.0000001
 43
0.0000001
 44
0.0000000001
 12
-0.5002087974
 22
0.0130984283
 32
0.0
 13
0.0130895049
 23
0.500209031
 33
0.0
 40
0.0
 40
0.0
 40
0.0
 40
0.0
 40
0.0017601623
 40
0.0055960866
 40
0.020198778
 40
0.0441136351
 40
0.077217934
 40
0.1191811623
 40
0.169584885
 40
0.2279973577
 40
0.2938476078
 40
0.4451452725
 40
0.6177669269
 40
0.8053187392
 40
1.0
 40
1.0
 40
1.0
 40
1.0
 10
-30.1641144817
 20
-21.9785866456
 30
0.0
 10
-30.1644079646
 20
-21.9785789605
 30
0.0
 10
-30.1649920915
 20
-21.9775779369
 30
0.0
 10
-30.1657411817
 20
-21.9745307448
 30
0.0
 10
-30.1666763986
 20
-21.967282082
 30
0.0
 10
-30.1674890193
 20
-21.9554973918
 30
0.0
 10
-30.1682320054
 20
-21.9389446435
 30
0.0
 10
-30.1688061917
 20
-21.9180465238
 30
0.0
 10
-30.1692289114
 20
-21.8928928333
 30
0.0
 10
-30.1694793222
 20
-21.8637630628
 30
0.0
 10
-30.169588278
 20
-21.817800241
 30
0.0
 10
-30.1692394765
 20
-21.7527898794
 30
0.0
 10
-30.1681732035
 20
-21.6674857811
 30
0.0
 10
-30.1664692738
 20
-21.5749549519
 30
0.0
 10
-30.1649639088
 20
-21.5112184248
 30
0.0
 10
-30.1641144817
 20
-21.4787579832
 30
0.0
 11
-30.1641144817
 21
-21.9785866456
 31
0.0
 11
-30.1647381638
 21
-21.9779647598
 31
0.0
 11
-30.1653299123
 21
-21.9761388326
 31
0.0
 11
-30.1664113427
 21
-21.9689124037
 31
0.0
 11
-30.1673462421
 21
-21.9569824571
 31
0.0
 11
-30.1681227335
 21
-21.9404359287
 31
0.0
 11
-30.1687337711
 21
-21.91944725
 31
0.0
 11
-30.169174475
 21
-21.8942300725
 31
0.0
 11
-30.1694401505
 21
-21.8650028314
 31
0.0
 11
-30.1695287263
 21
-21.8320527848
 31
0.0
 11
-30.1691744756
 21
-21.7563472481
 31
0.0
 11
-30.1681227349
 21
-21.6699771823
 31
0.0
 11
-30.1664113443
 21
-21.5761455623
 31
0.0
 11
-30.1641144817
 21
-21.4787579832
 31
0.0
  0
LINE
  5
3B8
100
AcDbEntity
  8
0
100
AcDbLine
 62
7
  6
CONTINUOUS
 10
-32.0468386909
 20
-11.5
 11
-32.0486540087
 21
-11.4344872406
  0
SPLINE
  5
3B9
100
AcDbEntity
  8
0
100
AcDbSpline
 62
7
  6
CONTINUOUS
 70
0
 71
3
 72
14
 73
10
 74
8
 42
0.0000001
 43
0.0000001
 44
0.0000000001
 12
-0.0156034719
 22
0.581336042
 32
0.0
 13
0.1020174705
 23
0.5725272899
 33
0.0
 40
0.0
 40
0.0
 40
0.0
 40
0.0
 40
0.3661744988
 40
0.5311373341
 40
0.6781958337
 40
0.8014351363
 40
0.8976598483
 40
0.9647771993
 40
1.0
 40
1.0
 40
1.0
 40
1.0
 10
-32.0486540087
 20
-11.4344872406
 30
0.0
 10
-32.0505585399
 20
-11.3635304293
 30
0.0
 10
-32.0530501215
 20
-11.2605985824
 30
0.0
 10
-32.0554785316
 20
-11.1291554895
 30
0.0
 10
-32.0566674762
 20
-11.0447840661
 30
0.0
 10
-32.0571462377
 20
-10.9737485733
 30
0.0
 10
-32.0571740355
 20
-10.9181605771
 30
0.0
 10
-32.056163823
 20
-10.8797451019
 30
0.0
 10
-32.055543041
 20
-10.8598243298
 30
0.0
 10
-32.0543452607
 20
-10.8531023249
 30
0.0
 11
-32.0486540087
 21
-11.4344872406
 31
0.0
 11
-32.0537137104
 21
-11.2216002608
 31
0.0
 11
-32.0554685859
 21
-11.1256829334
 31
0.0
 11
-32.0566185001
 21
-11.0401694694
 31
0.0
 11
-32.0570978406
 21
-10.9685018218
 31
0.0
 11
-32.0568829669
 21
-10.9125431949
 31
0.0
 11
-32.0559584951
 21
-10.8735223573
 31
0.0
 11
-32.0543452607
 21
-10.8531023249
 31
0.0
  0
ELLIPSE
  5
3BA
100
AcDbEntity
  8
RACCORDO
100
AcDbEllipse
 62
7
  6
CONTINUOUS
 10
-10.4998286038
 20
-21.5998286038
 30
0.0
 11
0.35379574
 21
0.35379574
 31
0.0
 40
0.999315002
 41
-3.9266482006
 42
-2.3565371065
  0
ELLIPSE
  5
3BB
100
AcDbEntity
  8
RACCORDO
100
AcDbEllipse
 62
7
  6
CONTINUOUS
 10
10.4998286038
 20
-21.5998286038
 30
0.0
 11
0.35379574
 21
-0.35379574
 31
0.0
 40
0.999315002
 41
-0.7850555471
 42
0.7850555471
  0
ELLIPSE
  5
3BC
100
AcDbEntity
  8
RACCORDO
100
AcDbEllipse
 62
7
  6
CONTINUOUS
 10
10.4998286038
 20
21.5998286038
 30
0.0
 11
0.35379574
 21
0.35379574
 31
0.0
 40
0.999315002
 41
-0.7850555471
 42
0.7850555471
  0
ELLIPSE
  5
3BD
100
AcDbEntity
  8
RACCORDO
100
AcDbEllipse
 62
7
  6
CONTINUOUS
 10
-10.4998286038
 20
21.5998286038
 30
0.0
 11
-0.35379574
 21
0.35379574
 31
0.0
 40
0.999315002
 41
-0.7850555471
 42
0.7850555471
  0
ENDSEC
  0
SECTION
  2
OBJECTS
  0
DICTIONARY
  5
C
100
AcDbDictionary
280
0
281
1
  3
ACAD_GROUP
350
D
  3
ACAD_MLINESTYLE
350
17
  3
ACAD_LAYOUT
350
1A
  3
ACAD_PLOTSETTINGS
350
19
  3
ACAD_PLOTSTYLENAME
350
E
  0
DICTIONARY
  5
D
102
{ACAD_REACTORS
330
C
102
}
100
AcDbDictionary
280
0
281
1
  0
ACDBDICTIONARYWDFLT
  5
E
102
{ACAD_REACTORS
330
C
102
}
100
AcDbDictionary
281
1
  3
Normal
350
F
100
AcDbDictionaryWithDefault
340
F
  0
DICTIONARY
  5
17
102
{ACAD_REACTORS
330
C
102
}
100
AcDbDictionary
280
0
281
1
  3
Standard
350
18
  0
DICTIONARY
  5
19
102
{ACAD_REACTORS
330
C
102
}
100
AcDbDictionary
281
1
  0
DICTIONARY
  5
1A
102
{ACAD_REACTORS
330
C
102
}
100
AcDbDictionary
281
1
  3
Model
350
3BE
  3
Layout1
350
3BF
  0
ACDBPLACEHOLDER
  5
F
102
{ACAD_REACTORS
330
E
102
}
  0
MLINESTYLE
  5
18
102
{ACAD_REACTORS
330
17
102
}
100
AcDbMlineStyle
  2
STANDARD
 70
0
  3

 62
256
 51
90.0
 52
90.0
 71
2
 49
0.5
 62
256
  6
BYLAYER
 49
-0.5
 62
256
  6
BYLAYER
  0
LAYOUT
  5
3BE
102
{ACAD_REACTORS
330
1A
102
}
100
AcDbPlotSettings
  1

  2
none_device
  4
ISO_A4_(297.00_x_210.00_MM)
  6

 40
0.0
 41
0.0
 42
0.0
 43
0.0
 44
297.0
 45
210.0
 46
0.0
 47
0.0
 48
0.0
 49
0.0
140
0.0
141
0.0
142
1.0
143
1.0
 70
1024
 72
1
 73
0
 74
0
  7

 75
0
147
1.0
148
0.0
149
0.0
100
AcDbLayout
  1
Model
 70
0
 71
0
 10
0.0
 20
0.0
 11
297.0
 21
210.0
 12
0.0
 22
0.0
 32
0.0
 14
0.0
 24
0.0
 34
0.0
 15
0.0
 25
0.0
 35
0.0
146
0.0
 13
0.0
 23
0.0
 33
0.0
 16
1.0
 26
0.0
 36
0.0
 17
0.0
 27
1.0
 37
0.0
 76
0
330
216
345
0
346
0
  0
LAYOUT
  5
3BF
102
{ACAD_REACTORS
330
1A
102
}
100
AcDbPlotSettings
  1

  2
none_device
  4
ISO_A4_(297.00_x_210.00_MM)
  6

 40
0.0
 41
0.0
 42
0.0
 43
0.0
 44
297.0
 45
210.0
 46
0.0
 47
0.0
 48
0.0
 49
0.0
140
0.0
141
0.0
142
1.0
143
1.0
 70
0
 72
1
 73
0
 74
0
  7

 75
0
147
1.0
148
0.0
149
0.0
100
AcDbLayout
  1
Layout1
 70
0
 71
1
 10
0.0
 20
0.0
 11
297.0
 21
210.0
 12
0.0
 22
0.0
 32
0.0
 14
0.0
 24
0.0
 34
0.0
 15
0.0
 25
0.0
 35
0.0
146
0.0
 13
0.0
 23
0.0
 33
0.0
 16
1.0
 26
0.0
 36
0.0
 17
0.0
 27
1.0
 37
0.0
 76
0
330
217
345
0
346
0
  0
ENDSEC
  0
EOF
