  0
SECTION
  2
HEADER
  9
$ACADVER
  1
AC1021
  9
$DWGCODEPAGE
  3
ANSI_1252
  9
$EXTMAX
 10
297.0
 20
210.0
 30
0.0
  9
$EXTMIN
 10
0.0
 20
0.0
 30
0.0
  9
$LIMMIN
 10
0.0
 20
0.0
  9
$LIMMAX
 10
297.0
 20
210.0
  9
$VIEWCTR
 10
148.5
 20
105.0
  9
$VIEWSIZE
 40
210.0
  9
$CLAYER
  8
0
  9
$LTSCALE
 40
16.335
  9
$CELTYPE
  6
BYLAYER
  9
$DIMSCALE
 40
1.0
  9
$DIMASZ
 40
3.0
  9
$DIMEXO
 40
0.5
  9
$DIMDLI
 40
11.286
  9
$DIMEXE
 40
1.5
  9
$DIMCEN
 40
2.673
  9
$DIMLFAC
 40
1.0
  9
$DIMBLK
  1
_FILLED
  9
$DIMALT
 70
0
  9
$DIMALTF
 40
25.4
  9
$DIMTXT
 40
3.0
  9
$DIMTOL
 70
1
  9
$DIMLIM
 70
0
  9
$DIMTFAC
 40
1.0
  9
$DIMTP
 40
0.01
  9
$DIMTM
 40
0.01
  9
$DIMGAP
 40
0.625
  9
$DIMDSEP
 70
44
  9
$AUNITS
 70
0
  9
$PDMODE
 70
3
  9
$PDSIZE
 40
3.0
  9
$HANDSEED
  5
3DD
  9
$TILEMODE
 70
1
  9
$MEASUREMENT
 70
1
  9
$INSUNITS
 70
4
  0
ENDSEC
  0
SECTION
  2
CLASSES
  0
CLASS
  1
ACDBDICTIONARYWDFLT
  2
AcDbDictionaryWithDefault
  3
AutoCAD 2000
 90
0
 91
1
280
0
281
0
  0
CLASS
  1
ACDBPLACEHOLDER
  2
AcDbPlaceHolder
  3
AutoCAD 2000
 90
0
 91
1
280
0
281
0
  0
CLASS
  1
LAYOUT
  2
AcDbLayout
  3
AutoCAD 2000
 90
0
 91
0
280
0
281
0
  0
ENDSEC
  0
SECTION
  2
TABLES
  0
TABLE
  2
VPORT
  5
8
100
AcDbSymbolTable
 70
2
  0
VPORT
  5
1F4
100
AcDbSymbolTableRecord
100
AcDbViewportTableRecord
  2
*ACTIVE
 70
0
 10
0.0
 20
0.0
 11
1.0
 21
1.0
 12
148.5
 22
105.0
 13
0.0
 23
0.0
 14
1.0
 24
1.0
 15
0.0
 25
0.0
 16
0.0
 26
0.0
 36
1.0
 17
0.0
 27
0.0
 37
0.0
 40
210.0
 41
1.4142857143
 42
50.0
 43
0.0
 44
0.0
 50
0.0
 51
0.0
 71
0
 72
100
 73
1
 74
1
 75
0
 76
0
 77
0
 78
0
  0
ENDTAB
  0
TABLE
  2
LTYPE
  5
5
100
AcDbSymbolTable
 70
6
  0
LTYPE
  5
14
100
AcDbSymbolTableRecord
100
AcDbLinetypeTableRecord
  2
BYBLOCK
 70
0
  3

 72
65
 73
0
 40
0.0
  0
LTYPE
  5
15
100
AcDbSymbolTableRecord
100
AcDbLinetypeTableRecord
  2
BYLAYER
 70
0
  3

 72
65
 73
0
 40
0.0
  0
LTYPE
  5
16
100
AcDbSymbolTableRecord
100
AcDbLinetypeTableRecord
  2
CONTINUOUS
 70
64
  3
Solid line
 72
65
 73
0
 40
0.0
  0
LTYPE
  5
1F5
100
AcDbSymbolTableRecord
100
AcDbLinetypeTableRecord
  2
CENTER
 70
64
  3
____ _ ____ _ ____ _ ____ _ ____ _ ____ _ ____
 72
65
 73
4
 40
0.6
 49
0.375
 74
0
 49
-0.075
 74
0
 49
0.075
 74
0
 49
-0.075
 74
0
  0
LTYPE
  5
1F6
100
AcDbSymbolTableRecord
100
AcDbLinetypeTableRecord
  2
HIDDEN
 70
64
  3
- - - - - - - - - - - - - - - - - - - -
 72
65
 73
2
 40
0.2
 49
0.1
 74
0
 49
-0.1
 74
0
  0
LTYPE
  5
1F7
100
AcDbSymbolTableRecord
100
AcDbLinetypeTableRecord
  2
PHANTOM
 70
64
  3
_____ _ _ _____ _ _ _____ _ _ _____
 72
65
 73
6
 40
0.8
 49
0.45
 74
0
 49
-0.05
 74
0
 49
0.1
 74
0
 49
-0.05
 74
0
 49
0.1
 74
0
 49
-0.05
 74
0
  0
LTYPE
  5
1F8
100
AcDbSymbolTableRecord
100
AcDbLinetypeTableRecord
  2
DOT
 70
64
  3
. . . . . . . . . . . . . . . . . . . .
 72
65
 73
2
 40
0.2
 49
0.1
 74
0
 49
-0.1
 74
0
  0
LTYPE
  5
1F9
100
AcDbSymbolTableRecord
100
AcDbLinetypeTableRecord
  2
DASHED
 70
64
  3
- - - - - - - - - - - - - - - - - - - -
 72
65
 73
2
 40
0.2
 49
0.1
 74
0
 49
-0.1
 74
0
  0
ENDTAB
  0
TABLE
  2
LAYER
  5
2
100
AcDbSymbolTable
 70
36
  0
LAYER
  5
10
100
AcDbSymbolTableRecord
100
AcDbLayerTableRecord
  2
0
 70
0
 62
7
  6
CONTINUOUS
370
-3
390
F
  0
LAYER
  5
1FA
100
AcDbSymbolTableRecord
100
AcDbLayerTableRecord
  2
DEFAULT_1
 70
0
 62
7
  6
CENTER
370
-3
390
F
  0
LAYER
  5
1FB
100
AcDbSymbolTableRecord
100
AcDbLayerTableRecord
  2
DEFAULT_2
 70
0
 62
7
  6
HIDDEN
370
-3
390
F
  0
LAYER
  5
1FC
100
AcDbSymbolTableRecord
100
AcDbLayerTableRecord
  2
DEFAULT_3
 70
0
 62
7
  6
PHANTOM
370
-3
390
F
  0
LAYER
  5
1FD
100
AcDbSymbolTableRecord
100
AcDbLayerTableRecord
  2
ASSI
 70
0
 62
7
  6
CONTINUOUS
370
-3
390
F
  0
LAYER
  5
1FE
100
AcDbSymbolTableRecord
100
AcDbLayerTableRecord
  2
COORDINATE
 70
0
 62
7
  6
CONTINUOUS
370
-3
390
F
  0
LAYER
  5
1FF
100
AcDbSymbolTableRecord
100
AcDbLayerTableRecord
  2
COPY_PUBLISH
 70
0
 62
7
  6
CONTINUOUS
370
-3
390
F
  0
LAYER
  5
200
100
AcDbSymbolTableRecord
100
AcDbLayerTableRecord
  2
COSMETIC
 70
0
 62
7
  6
CONTINUOUS
370
-3
390
F
  0
LAYER
  5
201
100
AcDbSymbolTableRecord
100
AcDbLayerTableRecord
  2
COSMETICI
 70
0
 62
7
  6
CONTINUOUS
370
-3
390
F
  0
LAYER
  5
202
100
AcDbSymbolTableRecord
100
AcDbLayerTableRecord
  2
CURVE
 70
0
 62
7
  6
CONTINUOUS
370
-3
390
F
  0
LAYER
  5
203
100
AcDbSymbolTableRecord
100
AcDbLayerTableRecord
  2
DRAFT
 70
0
 62
7
  6
CONTINUOUS
370
-3
390
F
  0
LAYER
  5
204
100
AcDbSymbolTableRecord
100
AcDbLayerTableRecord
  2
IMPORT_IGES
 70
0
 62
7
  6
CONTINUOUS
370
-3
390
F
  0
LAYER
  5
205
100
AcDbSymbolTableRecord
100
AcDbLayerTableRecord
  2
INTFCLR_11
 70
0
 62
7
  6
CONTINUOUS
370
-3
390
F
  0
LAYER
  5
206
100
AcDbSymbolTableRecord
100
AcDbLayerTableRecord
  2
INTF_1
 70
0
 62
7
  6
CONTINUOUS
370
-3
390
F
  0
LAYER
  5
207
100
AcDbSymbolTableRecord
100
AcDbLayerTableRecord
  2
INTF_2
 70
0
 62
7
  6
CONTINUOUS
370
-3
390
F
  0
LAYER
  5
208
100
AcDbSymbolTableRecord
100
AcDbLayerTableRecord
  2
INTF_3
 70
0
 62
7
  6
CONTINUOUS
370
-3
390
F
  0
LAYER
  5
209
100
AcDbSymbolTableRecord
100
AcDbLayerTableRecord
  2
INTF_MAGENTA
 70
0
 62
7
  6
CONTINUOUS
370
-3
390
F
  0
LAYER
  5
20A
100
AcDbSymbolTableRecord
100
AcDbLayerTableRecord
  2
NOTE
 70
0
 62
7
  6
CONTINUOUS
370
-3
390
F
  0
LAYER
  5
20B
100
AcDbSymbolTableRecord
100
AcDbLayerTableRecord
  2
PIANI
 70
0
 62
7
  6
CONTINUOUS
370
-3
390
F
  0
LAYER
  5
20C
100
AcDbSymbolTableRecord
100
AcDbLayerTableRecord
  2
PUNTI
 70
0
 62
7
  6
CONTINUOUS
370
-3
390
F
  0
LAYER
  5
20D
100
AcDbSymbolTableRecord
100
AcDbLayerTableRecord
  2
RACCORDO
 70
0
 62
7
  6
CONTINUOUS
370
-3
390
F
  0
LAYER
  5
20E
100
AcDbSymbolTableRecord
100
AcDbLayerTableRecord
  2
SIMBOLI
 70
0
 62
7
  6
CONTINUOUS
370
-3
390
F
  0
LAYER
  5
20F
100
AcDbSymbolTableRecord
100
AcDbLayerTableRecord
  2
SMUSSO
 70
0
 62
7
  6
CONTINUOUS
370
-3
390
F
  0
LAYER
  5
210
100
AcDbSymbolTableRecord
100
AcDbLayerTableRecord
  2
SNAPLINE
 70
0
 62
7
  6
CONTINUOUS
370
-3
390
F
  0
LAYER
  5
211
100
AcDbSymbolTableRecord
100
AcDbLayerTableRecord
  2
STANDARD
 70
0
 62
7
  6
CONTINUOUS
370
-3
390
F
  0
LAYER
  5
212
100
AcDbSymbolTableRecord
100
AcDbLayerTableRecord
  2
SUPERFICI
 70
0
 62
7
  6
CONTINUOUS
370
-3
390
F
  0
LAYER
  5
213
100
AcDbSymbolTableRecord
100
AcDbLayerTableRecord
  2
TRASH
 70
0
 62
7
  6
CONTINUOUS
370
-3
390
F
  0
LAYER
  5
214
100
AcDbSymbolTableRecord
100
AcDbLayerTableRecord
  2
___SHELL
 70
0
 62
7
  6
CONTINUOUS
370
-3
390
F
  0
ENDTAB
  0
TABLE
  2
STYLE
  5
3
100
AcDbSymbolTable
 70
1
  0
STYLE
  5
11
100
AcDbSymbolTableRecord
100
AcDbTextStyleTableRecord
  2
STANDARD
 70
0
 40
0.0
 41
0.8
 50
0.0
 71
0
 42
0.2
  3
txt
  4

  0
STYLE
  5
215
100
AcDbSymbolTableRecord
100
AcDbTextStyleTableRecord
  2
TEXTSTYLE_1
 70
0
 40
0.0
 41
0.8
 50
0.0
 71
0
 42
0.2
  3
gdt
  4

  0
ENDTAB
  0
TABLE
  2
VIEW
  5
6
100
AcDbSymbolTable
 70
0
  0
ENDTAB
  0
TABLE
  2
UCS
  5
7
100
AcDbSymbolTable
 70
0
  0
ENDTAB
  0
TABLE
  2
APPID
  5
9
100
AcDbSymbolTable
 70
1
  0
APPID
  5
216
100
AcDbSymbolTableRecord
100
AcDbRegAppTableRecord
  2
ACAD
 70
0
  0
ENDTAB
  0
TABLE
  2
BLOCK_RECORD
  5
1
100
AcDbSymbolTable
 70
0
  0
BLOCK_RECORD
  5
217
100
AcDbSymbolTableRecord
100
AcDbBlockTableRecord
  2
*Model_Space
  0
BLOCK_RECORD
  5
218
100
AcDbSymbolTableRecord
100
AcDbBlockTableRecord
  2
*Paper_Space
  0
BLOCK_RECORD
  5
219
100
AcDbSymbolTableRecord
100
AcDbBlockTableRecord
  2
_FILLED
  0
BLOCK_RECORD
  5
21A
100
AcDbSymbolTableRecord
100
AcDbBlockTableRecord
  2
*D0
  0
BLOCK_RECORD
  5
21B
100
AcDbSymbolTableRecord
100
AcDbBlockTableRecord
  2
*D1
  0
BLOCK_RECORD
  5
21C
100
AcDbSymbolTableRecord
100
AcDbBlockTableRecord
  2
*D2
  0
ENDTAB
  0
TABLE
  2
DIMSTYLE
  5
A
100
AcDbSymbolTable
 70
1
100
AcDbDimStyleTable
 71
0
  0
DIMSTYLE
105
21D
100
AcDbSymbolTableRecord
100
AcDbDimStyleTableRecord
  2
STANDARD
 70
0
  3

  4

 40
1.0
 41
3.0
 42
0.5
 43
0.38
 44
1.5
 45
0.0
 46
0.0
 47
0.01
 48
0.01
140
3.0
141
0.09
142
0.0
143
25.4
144
1.0
145
0.0
146
1.0
147
0.625
 71
1.0
 72
0.0
 73
0
 74
0
 75
0
 76
0
 77
1
 78
8
170
0
171
1
172
0
173
0
174
0
175
0
176
0
177
0
178
0
270
2
271
2
272
2
273
2
274
2
275
0
280
0
281
0
282
0
283
1
284
8
285
0
286
0
287
3
288
0
340
11
278
44
341
219
342
219
343
219
344
219
  0
DIMSTYLE
105
21E
100
AcDbSymbolTableRecord
100
AcDbDimStyleTableRecord
  2
DIMSTYLE_1
 70
0
  3

  4

 40
1.0
 41
3.0
 42
0.5
 43
0.38
 44
1.5
 45
0.0
 46
0.0
 47
0.0
 48
0.0
140
3.0
141
0.09
142
0.0
143
25.4
144
1.0
145
0.0
146
1.0
147
0.75
 71
0.0
 72
0.0
 73
0
 74
0
 75
0
 76
0
 77
1
 78
8
170
0
171
1
172
0
173
0
174
0
175
0
176
0
177
0
178
0
270
2
271
2
272
2
273
2
274
2
275
0
280
0
281
0
282
0
283
1
284
8
285
0
286
0
287
3
288
0
340
11
278
44
341
219
342
219
343
219
344
219
  0
ENDTAB
  0
ENDSEC
  0
SECTION
  2
BLOCKS
  0
BLOCK
  5
20
100
AcDbEntity
  8
0
100
AcDbBlockBegin
  2
*Model_Space
 70
0
 10
0.0
 20
0.0
 30
0.0
  3
*Model_Space
  1

  0
ENDBLK
  5
21
100
AcDbEntity
  8
0
100
AcDbBlockEnd
  0
BLOCK
  5
1C
100
AcDbEntity
  8
0
100
AcDbBlockBegin
  2
*Paper_Space
 70
0
 10
0.0
 20
0.0
 30
0.0
  3
*Paper_Space
  1

  0
ENDBLK
  5
1D
100
AcDbEntity
  8
0
100
AcDbBlockEnd
  0
BLOCK
  5
21F
100
AcDbEntity
  8
0
100
AcDbBlockBegin
  2
_FILLED
 70
64
 10
0.0
 20
0.0
  3
_FILLED
  1

  0
SOLID
  5
220
100
AcDbEntity
  8
0
  6
BYBLOCK
 62
0
100
AcDbTrace
 10
0.0
 20
0.0
 11
-1.0
 21
0.3166666667
 12
-1.0
 22
-0.3166666667
 13
-1.0
 23
-0.3166666667
  0
ENDBLK
  5
221
100
AcDbEntity
  8
0
  6
BYBLOCK
 62
0
100
AcDbBlockEnd
  0
BLOCK
  5
222
100
AcDbEntity
  8
0
100
AcDbBlockBegin
 62
7
  6
CONTINUOUS
  2
*D0
 70
65
 10
0.0
 20
0.0
  3
*D0
  1

  0
MTEXT
  5
223
100
AcDbEntity
  8
0
100
AcDbMText
 62
7
  6
CONTINUOUS
  7
STANDARD
 71
1
 72
1
 10
-23.0560997777
 20
38.8435382224
 30
0.0
 11
1.0
 21
0.0
 31
0.0
 44
0.9
  1
6,7
 40
3.0
 41
9.6428571429
  0
LINE
  5
224
100
AcDbEntity
  8
0
100
AcDbLine
 62
7
  6
CONTINUOUS
 10
-27.663146294
 20
22.1001713375
 11
-27.663146294
 21
36.5935382224
  0
LINE
  5
225
100
AcDbEntity
  8
0
100
AcDbLine
 62
7
  6
CONTINUOUS
 10
-34.3631635639
 20
0.5
 11
-34.3631635639
 21
36.5935382224
  0
LINE
  5
226
100
AcDbEntity
  8
0
100
AcDbLine
 62
7
  6
CONTINUOUS
 10
-27.663146294
 20
35.0935382224
 11
-16.6275283491
 21
35.0935382224
  0
LINE
  5
227
100
AcDbEntity
  8
0
100
AcDbLine
 62
7
  6
CONTINUOUS
 10
-16.6275283491
 20
35.0935382224
 11
-31.013154929
 21
35.0935382224
  0
LINE
  5
228
100
AcDbEntity
  8
0
100
AcDbLine
 62
7
  6
CONTINUOUS
 10
-34.3631635639
 20
35.0935382224
 11
-38.3631635639
 21
35.0935382224
  0
LINE
  5
229
100
AcDbEntity
  8
0
100
AcDbLine
 62
7
  6
CONTINUOUS
 10
-38.3631635639
 20
35.0935382224
 11
-31.013154929
 21
35.0935382224
  0
INSERT
  5
22A
100
AcDbEntity
  8
0
100
AcDbBlockReference
 62
7
  6
CONTINUOUS
  2
_FILLED
 10
-27.663146294
 20
35.0935382224
 41
3.0
 42
3.0
 43
3.0
 50
180.0
  0
INSERT
  5
22B
100
AcDbEntity
  8
0
100
AcDbBlockReference
 62
7
  6
CONTINUOUS
  2
_FILLED
 10
-34.3631635639
 20
35.0935382224
 41
3.0
 42
3.0
 43
3.0
  0
ENDBLK
  5
22C
100
AcDbEntity
  8
0
  6
BYBLOCK
 62
0
100
AcDbBlockEnd
  0
BLOCK
  5
22D
100
AcDbEntity
  8
0
100
AcDbBlockBegin
 62
7
  6
CONTINUOUS
  2
*D1
 70
65
 10
0.0
 20
0.0
  3
*D1
  1

  0
MTEXT
  5
22E
100
AcDbEntity
  8
0
100
AcDbMText
 62
7
  6
CONTINUOUS
  7
STANDARD
 71
2
 72
1
 10
-0.0
 20
38.8435382224
 30
0.0
 11
1.0
 21
0.0
 31
0.0
 44
0.9
  1
22
 40
3.0
 41
7.0714285714
  0
LINE
  5
22F
100
AcDbEntity
  8
0
100
AcDbLine
 62
7
  6
CONTINUOUS
 10
-11.0
 20
22.1001713375
 11
-11.0
 21
36.5935382224
  0
LINE
  5
230
100
AcDbEntity
  8
0
100
AcDbLine
 62
7
  6
CONTINUOUS
 10
11.0
 20
22.1001713375
 11
11.0
 21
36.5935382224
  0
LINE
  5
231
100
AcDbEntity
  8
0
100
AcDbLine
 62
7
  6
CONTINUOUS
 10
-11.0
 20
35.0935382224
 11
-0.0
 21
35.0935382224
  0
LINE
  5
232
100
AcDbEntity
  8
0
100
AcDbLine
 62
7
  6
CONTINUOUS
 10
11.0
 20
35.0935382224
 11
-0.0
 21
35.0935382224
  0
INSERT
  5
233
100
AcDbEntity
  8
0
100
AcDbBlockReference
 62
7
  6
CONTINUOUS
  2
_FILLED
 10
-11.0
 20
35.0935382224
 41
3.0
 42
3.0
 43
3.0
 50
180.0
  0
INSERT
  5
234
100
AcDbEntity
  8
0
100
AcDbBlockReference
 62
7
  6
CONTINUOUS
  2
_FILLED
 10
11.0
 20
35.0935382224
 41
3.0
 42
3.0
 43
3.0
  0
ENDBLK
  5
235
100
AcDbEntity
  8
0
  6
BYBLOCK
 62
0
100
AcDbBlockEnd
  0
BLOCK
  5
236
100
AcDbEntity
  8
0
100
AcDbBlockBegin
 62
7
  6
CONTINUOUS
  2
*D2
 70
65
 10
0.0
 20
0.0
  3
*D2
  1

  0
MTEXT
  5
237
100
AcDbEntity
  8
0
100
AcDbMText
 62
7
  6
CONTINUOUS
  7
STANDARD
 71
2
 72
1
 10
20.2356384999
 20
0.0
 30
0.0
 11
0.0
 21
1.0
 31
0.0
 44
0.9
  1
44,2
 40
3.0
 41
13.1785714286
  0
LINE
  5
238
100
AcDbEntity
  8
0
100
AcDbLine
 62
7
  6
CONTINUOUS
 10
11.0001713375
 20
22.1
 11
25.4856384999
 21
22.1
  0
LINE
  5
239
100
AcDbEntity
  8
0
100
AcDbLine
 62
7
  6
CONTINUOUS
 10
11.0001713375
 20
-22.1
 11
25.4856384999
 21
-22.1
  0
LINE
  5
23A
100
AcDbEntity
  8
0
100
AcDbLine
 62
7
  6
CONTINUOUS
 10
23.9856384999
 20
22.1
 11
23.9856384999
 21
0.0
  0
LINE
  5
23B
100
AcDbEntity
  8
0
100
AcDbLine
 62
7
  6
CONTINUOUS
 10
23.9856384999
 20
-22.1
 11
23.9856384999
 21
0.0
  0
INSERT
  5
23C
100
AcDbEntity
  8
0
100
AcDbBlockReference
 62
7
  6
CONTINUOUS
  2
_FILLED
 10
23.9856384999
 20
22.1
 41
3.0
 42
3.0
 43
3.0
 50
90.0
  0
INSERT
  5
23D
100
AcDbEntity
  8
0
100
AcDbBlockReference
 62
7
  6
CONTINUOUS
  2
_FILLED
 10
23.9856384999
 20
-22.1
 41
3.0
 42
3.0
 43
3.0
 50
270.0
  0
ENDBLK
  5
23E
100
AcDbEntity
  8
0
  6
BYBLOCK
 62
0
100
AcDbBlockEnd
  0
ENDSEC
  0
SECTION
  2
ENTITIES
  0
DIMENSION
  5
23F
100
AcDbEntity
  8
0
100
AcDbDimension
 62
7
  6
CONTINUOUS
  2
*D0
 10
-34.3631635639
 20
35.0935382224
 11
-20.2703853893
 21
35.0935382224
 70
160
 71
1
 42
6.7000172699
  3
DIMSTYLE_1
100
AcDbAlignedDimension
 13
-27.663146294
 23
21.6001713375
 14
-34.3631635639
 24
0.0
 50
180.0
100
AcDbRotatedDimension
  0
DIMENSION
  5
240
100
AcDbEntity
  8
0
100
AcDbDimension
 62
7
  6
CONTINUOUS
  2
*D1
 10
11.0
 20
35.0935382224
 11
-0.4285713773
 21
35.0935382224
 70
160
 71
2
 42
22.0
  3
DIMSTYLE_1
100
AcDbAlignedDimension
 13
-11.0
 23
21.6001713375
 14
11.0
 24
21.6001713375
100
AcDbRotatedDimension
  0
DIMENSION
  5
241
100
AcDbEntity
  8
0
100
AcDbDimension
 62
7
  6
CONTINUOUS
  2
*D2
 10
23.9856384999
 20
-22.1
 11
23.9856384999
 21
-0.4285711814
 70
160
 71
2
 42
44.2
  3
DIMSTYLE_1
100
AcDbAlignedDimension
 13
10.5001713375
 23
22.1
 14
10.5001713375
 24
-22.1
 50
270.0
100
AcDbRotatedDimension
  0
LWPOLYLINE
  5
242
100
AcDbEntity
  8
ASSI
100
AcDbPolyline
 62
253
  6
CONTINUOUS
 90
16
 70
0
 10
10.3787579837
 20
-21.9785866462
 10
10.4309822958
 20
-21.9758150607
 10
10.4826348433
 20
-21.9676022309
 10
10.5331501933
 20
-21.9540380833
 10
10.5819753805
 20
-21.9352711172
 10
10.6285759135
 20
-21.9115067959
 10
10.6724416329
 20
-21.8830053123
 10
10.7130923623
 20
-21.8500787045
 10
10.7500831414
 20
-21.8130874351
 10
10.7830090591
 20
-21.7724364777
 10
10.8115097154
 20
-21.7285708599
 10
10.8352731698
 20
-21.681970775
 10
10.8540393382
 20
-21.6331463372
 10
10.8676028346
 20
-21.5826320105
 10
10.8758152231
 20
-21.5309807597
 10
10.8785866462
 20
-21.4787579837
  0
LWPOLYLINE
  5
243
100
AcDbEntity
  8
ASSI
100
AcDbPolyline
 62
253
  6
CONTINUOUS
 90
14
 70
0
 10
10.4915558511
 20
-20.8292924685
 10
10.5383705218
 20
-20.8285891188
 10
10.5834651613
 20
-20.8276936173
 10
10.6264028384
 20
-20.8266146406
 10
10.6667675211
 20
-20.8253626431
 10
10.7041681075
 20
-20.8239497558
 10
10.7382422156
 20
-20.8223896683
 10
10.7686596944
 20
-20.8206974967
 10
10.7951258226
 20
-20.8188896367
 10
10.8173841644
 20
-20.8169836052
 10
10.8352190541
 20
-20.81499787
 10
10.8484576858
 20
-20.8129516714
 10
10.8569717876
 20
-20.8108648353
 10
10.8606788647
 20
-20.8087575816
  0
LINE
  5
244
100
AcDbEntity
  8
ASSI
100
AcDbLine
 62
253
  6
CONTINUOUS
 10
10.3945930753
 20
-20.8300973803
 11
10.4915558511
 21
-20.8292924685
  0
LINE
  5
245
100
AcDbEntity
  8
ASSI
100
AcDbLine
 62
253
  6
CONTINUOUS
 10
-10.3787579848
 20
-21.9785866472
 11
-3.6593254419
 21
-21.9704772757
  0
LINE
  5
246
100
AcDbEntity
  8
ASSI
100
AcDbLine
 62
7
  6
CONTINUOUS
 10
-10.5001713375
 20
-22.1
 11
10.5001713375
 21
-22.1
  0
LINE
  5
247
100
AcDbEntity
  8
ASSI
100
AcDbLine
 62
253
  6
CONTINUOUS
 10
-10.3945930794
 20
-20.8300973586
 11
10.3945930754
 21
-20.8300973565
  0
LINE
  5
248
100
AcDbEntity
  8
ASSI
100
AcDbLine
 62
253
  6
CONTINUOUS
 10
-3.6593254419
 20
-21.9704772757
 11
5.1049967024
 21
-21.971562311
  0
LWPOLYLINE
  5
249
100
AcDbEntity
  8
ASSI
100
AcDbPolyline
 62
253
  6
CONTINUOUS
 90
3
 70
0
 10
5.1049967024
 20
-21.971562311
 10
9.5638669341
 20
-21.9772026861
 10
10.3787579846
 20
-21.9785866471
  0
LWPOLYLINE
  5
24A
100
AcDbEntity
  8
ASSI
100
AcDbPolyline
 62
253
  6
CONTINUOUS
 90
15
 70
0
 10
-10.3945921765
 20
-20.8300968079
 10
-10.4915540005
 20
-20.8292919243
 10
-10.5383682579
 20
-20.8285885979
 10
-10.5834625441
 20
-20.8276931255
 10
-10.6263999404
 20
-20.826614183
 10
-10.666764426
 20
-20.8253622242
 10
-10.7041649091
 20
-20.8239493791
 10
-10.7382390164
 20
-20.8223893369
 10
-10.7686566036
 20
-20.8206972129
 10
-10.7951229544
 20
-20.818889402
 10
-10.8173816364
 20
-20.8169834201
 10
-10.8352169849
 20
-20.8149977343
 10
-10.8484561933
 20
-20.812951584
 10
-10.8569709867
 20
-20.8108647941
 10
-10.8606788652
 20
-20.8087575838
  0
LWPOLYLINE
  5
24B
100
AcDbEntity
  8
ASSI
100
AcDbPolyline
 62
253
  6
CONTINUOUS
 90
16
 70
0
 10
-10.3787579848
 20
-21.9785866472
 10
-10.4309816109
 20
-21.9758151344
 10
-10.4826335626
 20
-21.9676025054
 10
-10.5331484236
 20
-21.954038661
 10
-10.5819732247
 20
-21.9352720801
 10
-10.6285734974
 20
-21.9115081941
 10
-10.6724391244
 20
-21.8830071381
 10
-10.7130899234
 20
-21.8500809037
 10
-10.750080904
 20
-21.8130899231
 10
-10.7830071383
 20
-21.7724391241
 10
-10.8115081942
 20
-21.7285734971
 10
-10.8352720802
 20
-21.6819732244
 10
-10.854038661
 20
-21.6331484233
 10
-10.8676025054
 20
-21.5826335624
 10
-10.8758151344
 20
-21.5309816107
 10
-10.8785866472
 20
-21.4787579847
  0
LWPOLYLINE
  5
24C
100
AcDbEntity
  8
ASSI
100
AcDbPolyline
 62
253
  6
CONTINUOUS
 90
9
 70
0
 10
-10.3787579837
 20
21.9785866462
 10
-10.3798376903
 20
21.9732611502
 10
-10.3809591364
 20
21.961816367
 10
-10.3820927674
 20
21.9443141225
 10
-10.3831870525
 20
21.9208481042
 10
-10.3842357081
 20
21.8915410798
 10
-10.3852779123
 20
21.8565421922
 10
-10.3862885334
 20
21.8160293172
 10
-10.3881668326
 20
21.7193311081
  0
LINE
  5
24D
100
AcDbEntity
  8
SIMBOLI
100
AcDbLine
 62
253
  6
CONTINUOUS
 10
-0.746785
 20
-12.3500932217
 11
-1.048315
 21
-12.3500862584
  0
LINE
  5
24E
100
AcDbEntity
  8
SIMBOLI
100
AcDbLine
 62
253
  6
CONTINUOUS
 10
0.663228
 20
-12.350084948
 11
-0.423633
 21
-12.350088298
  0
LINE
  5
24F
100
AcDbEntity
  8
SIMBOLI
100
AcDbLine
 62
253
  6
CONTINUOUS
 10
-3.228082
 20
-12.3501010957
 11
-3.489322
 21
-12.3500785139
  0
LINE
  5
250
100
AcDbEntity
  8
SIMBOLI
100
AcDbLine
 62
253
  6
CONTINUOUS
 10
-1.725598
 20
-12.3500960436
 11
-1.986838
 21
-12.3500835661
  0
LWPOLYLINE
  5
251
100
AcDbEntity
  8
ASSI
100
AcDbPolyline
 62
253
  6
CONTINUOUS
 90
7
 70
0
 10
-10.3852779153
 20
-21.8565421926
 10
-10.3842357107
 20
-21.8915410796
 10
-10.3831870547
 20
-21.9208481036
 10
-10.3820927692
 20
-21.944314122
 10
-10.380959138
 20
-21.9618163671
 10
-10.3798376916
 20
-21.9732611509
 10
-10.3787579848
 20
-21.9785866472
  0
LINE
  5
252
100
AcDbEntity
  8
ASSI
100
AcDbLine
 62
253
  6
CONTINUOUS
 10
-10.8676363477
 20
21.3275566689
 11
-10.8656925495
 21
21.2597557273
  0
LINE
  5
253
100
AcDbEntity
  8
ASSI
100
AcDbLine
 62
253
  6
CONTINUOUS
 10
-10.3872394303
 20
-21.7702126772
 11
-10.3852779153
 21
-21.8565421926
  0
LINE
  5
254
100
AcDbEntity
  8
ASSI
100
AcDbLine
 62
253
  6
CONTINUOUS
 10
-10.8656925495
 20
21.2597557273
 11
-10.8640273801
 21
21.1823508489
  0
LINE
  5
255
100
AcDbEntity
  8
ASSI
100
AcDbLine
 62
253
  6
CONTINUOUS
 10
-10.3890505013
 20
-21.6636481483
 11
-10.3872394303
 21
-21.7702126772
  0
LINE
  5
256
100
AcDbEntity
  8
ASSI
100
AcDbLine
 62
253
  6
CONTINUOUS
 10
-10.8640273801
 20
21.1823508489
 11
-10.8626661047
 21
21.0965336799
  0
LINE
  5
257
100
AcDbEntity
  8
ASSI
100
AcDbLine
 62
253
  6
CONTINUOUS
 10
-10.3913564467
 20
-21.4707608514
 11
-10.3890505013
 21
-21.6636481483
  0
LINE
  5
258
100
AcDbEntity
  8
ASSI
100
AcDbLine
 62
253
  6
CONTINUOUS
 10
-10.8626661047
 20
21.0965336799
 11
-10.8612634631
 21
20.9563655433
  0
LINE
  5
259
100
AcDbEntity
  8
ASSI
100
AcDbLine
 62
253
  6
CONTINUOUS
 10
-10.3939207291
 20
-21.0840578424
 11
-10.3913564467
 21
-21.4707608514
  0
LINE
  5
25A
100
AcDbEntity
  8
ASSI
100
AcDbLine
 62
253
  6
CONTINUOUS
 10
-10.8612634631
 20
20.9563655433
 11
-10.8606788647
 21
20.8087575816
  0
LINE
  5
25B
100
AcDbEntity
  8
ASSI
100
AcDbLine
 62
253
  6
CONTINUOUS
 10
-10.8606788647
 20
20.8087575816
 11
-10.8526015267
 21
11.5632725475
  0
LINE
  5
25C
100
AcDbEntity
  8
ASSI
100
AcDbLine
 62
253
  6
CONTINUOUS
 10
-10.8526015267
 20
11.5632725475
 11
-10.8491398108
 21
2.3133508902
  0
LINE
  5
25D
100
AcDbEntity
  8
ASSI
100
AcDbLine
 62
7
  6
CONTINUOUS
 10
-11.0
 20
-21.6001713375
 11
-11.0
 21
21.6001713375
  0
LINE
  5
25E
100
AcDbEntity
  8
ASSI
100
AcDbLine
 62
253
  6
CONTINUOUS
 10
-10.3945930754
 20
20.8300973557
 11
-10.3939207291
 21
-21.0840578424
  0
LINE
  5
25F
100
AcDbEntity
  8
ASSI
100
AcDbLine
 62
253
  6
CONTINUOUS
 10
-10.8491398108
 20
2.3133508902
 11
-10.8502937167
 21
-6.9391058077
  0
LINE
  5
260
100
AcDbEntity
  8
ASSI
100
AcDbLine
 62
253
  6
CONTINUOUS
 10
-10.8502937167
 20
-6.9391058077
 11
-10.8560632438
 21
-16.1864912169
  0
LINE
  5
261
100
AcDbEntity
  8
ASSI
100
AcDbLine
 62
253
  6
CONTINUOUS
 10
-10.8560632438
 20
-16.1864912169
 11
-10.8609777043
 21
-20.9079895385
  0
LINE
  5
262
100
AcDbEntity
  8
ASSI
100
AcDbLine
 62
253
  6
CONTINUOUS
 10
-10.3931054616
 20
21.246254416
 11
-10.3945930787
 21
20.8300973569
  0
LINE
  5
263
100
AcDbEntity
  8
ASSI
100
AcDbLine
 62
253
  6
CONTINUOUS
 10
-10.8609777043
 20
-20.9079895385
 11
-10.862112399
 21
-21.0511609082
  0
LINE
  5
264
100
AcDbEntity
  8
ASSI
100
AcDbLine
 62
253
  6
CONTINUOUS
 10
-10.3906382848
 20
21.5390434099
 11
-10.3931054616
 21
21.246254416
  0
LINE
  5
265
100
AcDbEntity
  8
ASSI
100
AcDbLine
 62
253
  6
CONTINUOUS
 10
-10.862112399
 20
-21.0511609082
 11
-10.8633048472
 21
-21.1402480586
  0
LINE
  5
266
100
AcDbEntity
  8
ASSI
100
AcDbLine
 62
253
  6
CONTINUOUS
 10
-10.3881668326
 20
21.7193311081
 11
-10.3906382848
 21
21.5390434099
  0
LINE
  5
267
100
AcDbEntity
  8
ASSI
100
AcDbLine
 62
253
  6
CONTINUOUS
 10
-10.8633048472
 20
-21.1402480586
 11
-10.8648228811
 21
-21.2221975583
  0
LWPOLYLINE
  5
268
100
AcDbEntity
  8
ASSI
100
AcDbPolyline
 62
253
  6
CONTINUOUS
 90
12
 70
0
 10
-10.8648228811
 20
-21.2221975583
 10
-10.866635186
 20
-21.2950578151
 10
-10.8676363488
 20
-21.3275566706
 10
-10.8686969416
 20
-21.3572072044
 10
-10.8698160618
 20
-21.3840545076
 10
-10.8709765638
 20
-21.4076867086
 10
-10.8721796825
 20
-21.4280547035
 10
-10.873424183
 20
-21.4452075962
 10
-10.8746892147
 20
-21.4588808266
 10
-10.8759678276
 20
-21.4689862082
 10
-10.8772669718
 20
-21.4756119276
 10
-10.8785866472
 20
-21.4787579847
  0
LINE
  5
269
100
AcDbEntity
  8
SIMBOLI
100
AcDbLine
 62
253
  6
CONTINUOUS
 10
-2.735071
 20
-11.429011
 11
-2.858021
 21
-11.447752
  0
LINE
  5
26A
100
AcDbEntity
  8
SIMBOLI
100
AcDbLine
 62
253
  6
CONTINUOUS
 10
-1.228425
 20
-11.396143
 11
-1.34574
 21
-11.413861
  0
LWPOLYLINE
  5
26B
100
AcDbEntity
  8
SIMBOLI
100
AcDbPolyline
 62
253
  6
CONTINUOUS
 90
28
 70
0
 10
-1.326544
 20
-10.64991
 10
-1.3156596181
 20
-10.6498346735
 10
-1.3048241141
 20
-10.6499500653
 10
-1.2940383032
 20
-10.6502552246
 10
-1.2833030001
 20
-10.6507492004
 10
-1.2726190199
 20
-10.6514310419
 10
-1.2619871773
 20
-10.6522997982
 10
-1.2514082873
 20
-10.6533545184
 10
-1.2408831649
 20
-10.6545942516
 10
-1.230412625
 20
-10.6560180469
 10
-1.2199969448
 20
-10.6576252221
 10
-1.2096342512
 20
-10.6594161698
 10
-1.1993221334
 20
-10.6613915514
 10
-1.1890581808
 20
-10.6635520281
 10
-1.1788399825
 20
-10.6658982611
 10
-1.1686651279
 20
-10.6684309119
 10
-1.1585312061
 20
-10.6711506417
 10
-1.1484358063
 20
-10.6740581118
 10
-1.138376518
 20
-10.6771539835
 10
-1.1283514979
 20
-10.6804388343
 10
-1.1183611738
 20
-10.6839129072
 10
-1.1084065409
 20
-10.6875763613
 10
-1.0984885947
 20
-10.6914293556
 10
-1.0886083304
 20
-10.6954720492
 10
-1.0787667435
 20
-10.6997046014
 10
-1.0689648292
 20
-10.7041271711
 10
-1.0592035829
 20
-10.7087399176
 10
-1.049484
 20
-10.713543
  0
LINE
  5
26C
100
AcDbEntity
  8
SIMBOLI
100
AcDbLine
 62
253
  6
CONTINUOUS
 10
-0.162393
 20
-12.1170917094
 11
0.663228
 21
-12.1170864018
  0
LINE
  5
26D
100
AcDbEntity
  8
SIMBOLI
100
AcDbLine
 62
253
  6
CONTINUOUS
 10
-1.404983
 20
-11.6355681021
 11
-1.725598
 21
-11.6355553159
  0
LINE
  5
26E
100
AcDbEntity
  8
SIMBOLI
100
AcDbLine
 62
253
  6
CONTINUOUS
 10
0.541941
 20
-11.6073168949
 11
-0.162393
 21
-11.6073202982
  0
LINE
  5
26F
100
AcDbEntity
  8
SIMBOLI
100
AcDbLine
 62
253
  6
CONTINUOUS
 10
-1.34574
 20
-11.4138679884
 11
-1.725598
 21
-11.4138531985
  0
LINE
  5
270
100
AcDbEntity
  8
SIMBOLI
100
AcDbLine
 62
253
  6
CONTINUOUS
 10
-0.162393
 20
-11.3771462966
 11
0.541941
 21
-11.3771429109
  0
LINE
  5
271
100
AcDbEntity
  8
SIMBOLI
100
AcDbLine
 62
253
  6
CONTINUOUS
 10
-1.725598
 20
-10.8829003157
 11
-1.34574
 21
-10.8829148834
  0
LINE
  5
272
100
AcDbEntity
  8
SIMBOLI
100
AcDbLine
 62
253
  6
CONTINUOUS
 10
0.663228
 20
-10.8829035272
 11
-0.162393
 21
-10.8829086901
  0
LINE
  5
273
100
AcDbEntity
  8
SIMBOLI
100
AcDbLine
 62
253
  6
CONTINUOUS
 10
-1.986838
 20
-10.649895252
 11
-1.326544
 21
-10.6499223479
  0
LINE
  5
274
100
AcDbEntity
  8
SIMBOLI
100
AcDbLine
 62
253
  6
CONTINUOUS
 10
-0.423633
 20
-10.6499083616
 11
0.663228
 21
-10.6499051367
  0
LINE
  5
275
100
AcDbEntity
  8
SIMBOLI
100
AcDbLine
 62
253
  6
CONTINUOUS
 10
-2.84326
 20
-11.6835884785
 11
-3.228082
 21
-11.683558682
  0
LINE
  5
276
100
AcDbEntity
  8
SIMBOLI
100
AcDbLine
 62
253
  6
CONTINUOUS
 10
-2.858021
 20
-11.4477659035
 11
-3.228082
 21
-11.447737324
  0
LINE
  5
277
100
AcDbEntity
  8
SIMBOLI
100
AcDbLine
 62
253
  6
CONTINUOUS
 10
-3.228082
 20
-10.882893556
 11
-2.858021
 21
-10.8829216837
  0
LINE
  5
278
100
AcDbEntity
  8
SIMBOLI
100
AcDbLine
 62
253
  6
CONTINUOUS
 10
-3.489322
 20
-10.6498835664
 11
-2.844694
 21
-10.6499341452
  0
LWPOLYLINE
  5
279
100
AcDbEntity
  8
SIMBOLI
100
AcDbPolyline
 62
253
  6
CONTINUOUS
 90
49
 70
0
 10
-2.844694
 20
-10.64991
 10
-2.8275444813
 20
-10.6500335206
 10
-2.810590664
 20
-10.6505988309
 10
-2.7938320969
 20
-10.6515956197
 10
-2.777268329
 20
-10.6530135755
 10
-2.7608989093
 20
-10.654842387
 10
-2.7447233868
 20
-10.6570717427
 10
-2.7287416317
 20
-10.6596920224
 10
-2.7129547996
 20
-10.6626963691
 10
-2.6973643672
 20
-10.6660786172
 10
-2.6819718116
 20
-10.6698326007
 10
-2.6667786096
 20
-10.673952154
 10
-2.651786238
 20
-10.6784311112
 10
-2.6369970849
 20
-10.68326463
 10
-2.6224171831
 20
-10.6884531624
 10
-2.6080534766
 20
-10.6939984839
 10
-2.5939129094
 20
-10.6999023699
 10
-2.5800024255
 20
-10.706166596
 10
-2.5663289689
 20
-10.7127929376
 10
-2.5529000487
 20
-10.7197828477
 10
-2.5397254342
 20
-10.7271364889
 10
-2.5268154597
 20
-10.7348537014
 10
-2.5141804598
 20
-10.7429343254
 10
-2.5018307687
 20
-10.7513782009
 10
-2.4897767209
 20
-10.7601851681
 10
-2.4780283041
 20
-10.7693539957
 10
-2.4665941199
 20
-10.778879166
 10
-2.4554824231
 20
-10.7887540901
 10
-2.4447014685
 20
-10.7989721789
 10
-2.4342595109
 20
-10.8095268432
 10
-2.4241648054
 20
-10.8204114941
 10
-2.414425672
 20
-10.8316182006
 10
-2.4050506924
 20
-10.8431336641
 10
-2.3960485137
 20
-10.8549432442
 10
-2.3874277829
 20
-10.8670323004
 10
-2.379197147
 20
-10.8793861924
 10
-2.3713652531
 20
-10.8919902797
 10
-2.3639396039
 20
-10.9048298082
 10
-2.3569231247
 20
-10.9178895693
 10
-2.3503175967
 20
-10.9311542409
 10
-2.344124801
 20
-10.9446085006
 10
-2.3383465186
 20
-10.9582370263
 10
-2.3329845307
 20
-10.9720244956
 10
-2.328040602
 20
-10.9859590583
 10
-2.3235164319
 20
-11.0000427512
 10
-2.3194137035
 20
-11.0142810831
 10
-2.3157341
 20
-11.0286795627
 10
-2.3124793045
 20
-11.0432436988
 10
-2.309651
 20
-11.057979
  0
LWPOLYLINE
  5
27A
100
AcDbEntity
  8
SIMBOLI
100
AcDbPolyline
 62
253
  6
CONTINUOUS
 90
19
 70
0
 10
1.571391
 20
-11.623184
 10
1.5494640049
 20
-11.621335787
 10
1.5275982093
 20
-11.6192029581
 10
1.5057944971
 20
-11.616786112
 10
1.484053752
 20
-11.6140858472
 10
1.462376858
 20
-11.6111027623
 10
1.4407646988
 20
-11.6078374561
 10
1.4192175541
 20
-11.6042903272
 10
1.3977332856
 20
-11.6004609749
 10
1.3763091509
 20
-11.5963487986
 10
1.3549424075
 20
-11.5919531977
 10
1.3336303129
 20
-11.5872735716
 10
1.3123701245
 20
-11.5823093197
 10
1.2911597229
 20
-11.5770599339
 10
1.2699994801
 20
-11.5715252756
 10
1.2488903913
 20
-11.5657052991
 10
1.2278334517
 20
-11.5595999582
 10
1.2068296562
 20
-11.5532092072
 10
1.18588
 20
-11.546533
  0
LWPOLYLINE
  5
27B
100
AcDbEntity
  8
SIMBOLI
100
AcDbPolyline
 62
253
  6
CONTINUOUS
 90
19
 70
0
 10
2.980676
 20
-11.623184
 10
2.9587486736
 20
-11.621335757
 10
2.936882585
 20
-11.6192028933
 10
2.9150786177
 20
-11.616786009
 10
2.8933376549
 20
-11.614085704
 10
2.8716605801
 20
-11.6111025782
 10
2.8500482766
 20
-11.6078372317
 10
2.8285010238
 20
-11.6042900645
 10
2.8070166848
 20
-11.6004606778
 10
2.7855925185
 20
-11.5963484731
 10
2.7642257841
 20
-11.5919528517
 10
2.7429137405
 20
-11.587273215
 10
2.7216536467
 20
-11.5823089643
 10
2.7004433843
 20
-11.5770595934
 10
2.6792833249
 20
-11.5715249657
 10
2.6581744627
 20
-11.5657050368
 10
2.6371177917
 20
-11.5595997624
 10
2.6161143061
 20
-11.5532090982
 10
2.595165
 20
-11.546533
  0
LWPOLYLINE
  5
27C
100
AcDbEntity
  8
SIMBOLI
100
AcDbPolyline
 62
253
  6
CONTINUOUS
 90
26
 70
0
 10
1.5070718955
 20
-11.3735317628
 10
1.5899376968
 20
-11.3854807358
 10
1.6181702881
 20
-11.3897701883
 10
1.6371205059
 20
-11.3927989622
 10
1.6561421626
 20
-11.3960142853
 10
1.6752025812
 20
-11.3994654408
 10
1.6942785205
 20
-11.4032053193
 10
1.7133844816
 20
-11.4073012416
 10
1.7325444016
 20
-11.4118241359
 10
1.7469544806
 20
-11.4155383468
 10
1.7613604486
 20
-11.4195575818
 10
1.7757143785
 20
-11.4239067962
 10
1.789968343
 20
-11.4286109451
 10
1.8040757321
 20
-11.4336914105
 10
1.817995205
 20
-11.4391552806
 10
1.8316867381
 20
-11.4450060702
 10
1.8451103079
 20
-11.4512472943
 10
1.8582319435
 20
-11.457883109
 10
1.871041885
 20
-11.4649202356
 10
1.8835364252
 20
-11.4723660369
 10
1.8957118567
 20
-11.4802278754
 10
1.9052200856
 20
-11.4868238898
 10
1.9145206135
 20
-11.4937069448
 10
1.9236123411
 20
-11.5008931051
 10
1.9324941696
 20
-11.5083984352
 10
1.941165
 20
-11.516239
  0
LWPOLYLINE
  5
27D
100
AcDbEntity
  8
SIMBOLI
100
AcDbPolyline
 62
253
  6
CONTINUOUS
 90
26
 70
0
 10
2.9163746513
 20
-11.3735343641
 10
2.9992457824
 20
-11.3854841613
 10
3.027479601
 20
-11.3897739885
 10
3.0464304253
 20
-11.3928030549
 10
3.0654525028
 20
-11.3960187114
 10
3.0845131445
 20
-11.3994702467
 10
3.1035890859
 20
-11.4032105507
 10
3.122694762
 20
-11.4073069173
 10
3.1418540327
 20
-11.4118302416
 10
3.1562633503
 20
-11.4155447463
 10
3.1706683404
 20
-11.4195642392
 10
3.1850211076
 20
-11.423913666
 10
3.1992737563
 20
-11.4286179728
 10
3.2133797058
 20
-11.4336985309
 10
3.227297636
 20
-11.4391624132
 10
3.2409875418
 20
-11.4450131181
 10
3.2544094178
 20
-11.4512541438
 10
3.267529311
 20
-11.4578896319
 10
3.2803374763
 20
-11.4649262957
 10
3.2928302207
 20
-11.4723714918
 10
3.305003851
 20
-11.4802325768
 10
3.3145106445
 20
-11.486827877
 10
3.3238097488
 20
-11.4937101118
 10
3.3329000713
 20
-11.5008953388
 10
3.3417805192
 20
-11.5083996157
 10
3.35045
 20
-11.516239
  0
LINE
  5
27E
100
AcDbEntity
  8
SIMBOLI
100
AcDbLine
 62
253
  6
CONTINUOUS
 10
-1.34574
 20
-10.882908
 11
-1.227694
 21
-10.900772
  0
LINE
  5
27F
100
AcDbEntity
  8
SIMBOLI
100
AcDbLine
 62
253
  6
CONTINUOUS
 10
-2.858021
 20
-10.882908
 11
-2.735788
 21
-10.901795
  0
LINE
  5
280
100
AcDbEntity
  8
SIMBOLI
100
AcDbLine
 62
253
  6
CONTINUOUS
 10
-2.735788
 20
-10.901795
 11
-2.640523
 21
-10.958456
  0
LINE
  5
281
100
AcDbEntity
  8
ASSI
100
AcDbLine
 62
253
  6
CONTINUOUS
 10
10.3787579847
 20
21.9785866472
 11
10.5001713375
 21
22.1
  0
LINE
  5
282
100
AcDbEntity
  8
SIMBOLI
100
AcDbLine
 62
253
  6
CONTINUOUS
 10
-1.227694
 20
-10.900772
 11
-1.136075
 21
-10.954363
  0
LINE
  5
283
100
AcDbEntity
  8
SIMBOLI
100
AcDbLine
 62
253
  6
CONTINUOUS
 10
1.18588
 20
-11.546533
 11
1.047256
 21
-11.458806
  0
LINE
  5
284
100
AcDbEntity
  8
SIMBOLI
100
AcDbLine
 62
253
  6
CONTINUOUS
 10
2.595165
 20
-11.546533
 11
2.456541
 21
-11.458806
  0
LINE
  5
285
100
AcDbEntity
  8
SIMBOLI
100
AcDbLine
 62
253
  6
CONTINUOUS
 10
-1.049484
 20
-10.713543
 11
-0.942746
 21
-10.789438
  0
LINE
  5
286
100
AcDbEntity
  8
ASSI
100
AcDbLine
 62
253
  6
CONTINUOUS
 10
10.5001713375
 20
-22.1
 11
10.3787579846
 21
-21.9785866471
  0
LINE
  5
287
100
AcDbEntity
  8
SIMBOLI
100
AcDbLine
 62
253
  6
CONTINUOUS
 10
-2.640523
 20
-10.958456
 11
-2.579187
 21
-11.048241
  0
LINE
  5
288
100
AcDbEntity
  8
ASSI
100
AcDbLine
 62
253
  6
CONTINUOUS
 10
10.8785866472
 20
21.4787579847
 11
11.0
 21
21.6001713375
  0
LWPOLYLINE
  5
289
100
AcDbEntity
  8
SIMBOLI
100
AcDbPolyline
 62
253
  6
CONTINUOUS
 90
23
 70
0
 10
1.239016
 20
-11.283726
 10
1.2467189844
 20
-11.2898985161
 10
1.2547447473
 20
-11.2958219633
 10
1.2631132243
 20
-11.3015174681
 10
1.2718443511
 20
-11.3070061571
 10
1.2809490511
 20
-11.3123030822
 10
1.2904021997
 20
-11.3173989972
 10
1.3001798265
 20
-11.3222868663
 10
1.3102986266
 20
-11.326992793
 10
1.320779966
 20
-11.3315432617
 10
1.3316232289
 20
-11.3359331397
 10
1.342818082
 20
-11.3401402662
 10
1.3543373049
 20
-11.3441059837
 10
1.3661450806
 20
-11.3477664869
 10
1.3781880959
 20
-11.3510738763
 10
1.3904149817
 20
-11.3540049546
 10
1.4027996433
 20
-11.356619428
 10
1.4153289978
 20
-11.3589989294
 10
1.4280167351
 20
-11.3612298941
 10
1.4408756303
 20
-11.3633868314
 10
1.4538880255
 20
-11.3654917432
 10
1.4802788577
 20
-11.369575012
 10
1.5070718955
 20
-11.3735317628
  0
LWPOLYLINE
  5
28A
100
AcDbEntity
  8
SIMBOLI
100
AcDbPolyline
 62
253
  6
CONTINUOUS
 90
23
 70
0
 10
2.648301
 20
-11.283726
 10
2.6560044596
 20
-11.2898985427
 10
2.6640306637
 20
-11.295822078
 10
2.6723995571
 20
-11.3015177235
 10
2.6811310848
 20
-11.3070065967
 10
2.6902361811
 20
-11.3123037409
 10
2.6996897385
 20
-11.3173999021
 10
2.7094678025
 20
-11.3222880337
 10
2.7195870728
 20
-11.326994216
 10
2.7300689187
 20
-11.3315449079
 10
2.7409127321
 20
-11.3359349548
 10
2.7521081887
 20
-11.3401421794
 10
2.763628076
 20
-11.3441079267
 10
2.7754365845
 20
-11.3477684036
 10
2.7874804058
 20
-11.3510757412
 10
2.7997081744
 20
-11.3540067753
 10
2.8120937957
 20
-11.3566212357
 10
2.8246241814
 20
-11.3590007718
 10
2.8373129984
 20
-11.3612318161
 10
2.8501729969
 20
-11.3633888672
 10
2.8631865067
 20
-11.3654939043
 10
2.8895795442
 20
-11.3695773978
 10
2.9163746513
 20
-11.3735343641
  0
LWPOLYLINE
  5
28B
100
AcDbEntity
  8
SIMBOLI
100
AcDbPolyline
 62
253
  6
CONTINUOUS
 90
55
 70
0
 10
1.854784
 20
-10.993472
 10
1.8455303844
 20
-10.9845368215
 10
1.8361165269
 20
-10.975985926
 10
1.8265374375
 20
-10.9678008757
 10
1.8167881264
 20
-10.9599632323
 10
1.8068636037
 20
-10.9524545577
 10
1.7967601129
 20
-10.9452598995
 10
1.7864788324
 20
-10.9383782473
 10
1.7760221738
 20
-10.9318120763
 10
1.7653925489
 20
-10.9255638619
 10
1.7545923694
 20
-10.9196360793
 10
1.7436270337
 20
-10.9140302223
 10
1.7325138865
 20
-10.9087438596
 10
1.7212732588
 20
-10.9037735783
 10
1.709925482
 20
-10.8991159659
 10
1.6984908872
 20
-10.8947676094
 10
1.6841055697
 20
-10.8897624707
 10
1.6696503186
 20
-10.8852322361
 10
1.655159086
 20
-10.8811739292
 10
1.6406658237
 20
-10.8775845742
 10
1.6261996571
 20
-10.8744553042
 10
1.6117704047
 20
-10.8717536907
 10
1.5973830582
 20
-10.8694414142
 10
1.5830426096
 20
-10.8674801556
 10
1.5687579212
 20
-10.8658352246
 10
1.5545533379
 20
-10.8644864481
 10
1.5404570752
 20
-10.8634172819
 10
1.5264973486
 20
-10.8626111822
 10
1.5126901085
 20
-10.8620558985
 10
1.499002244
 20
-10.8617563552
 10
1.4854058297
 20
-10.8617216414
 10
1.4719427425
 20
-10.8619603296
 10
1.4586603701
 20
-10.8624838533
 10
1.4455583415
 20
-10.8633156073
 10
1.4326243462
 20
-10.8644819763
 10
1.4198460737
 20
-10.8660093451
 10
1.4097317616
 20
-10.8675066551
 10
1.3997296802
 20
-10.8692519871
 10
1.3898602764
 20
-10.871245437
 10
1.3801439972
 20
-10.8734871007
 10
1.3706012894
 20
-10.8759770741
 10
1.3612522786
 20
-10.8787128016
 10
1.3521158049
 20
-10.8816811222
 10
1.343210387
 20
-10.8848662234
 10
1.3345545434
 20
-10.8882522928
 10
1.326166793
 20
-10.8918235179
 10
1.3180614951
 20
-10.8955650665
 10
1.3102363714
 20
-10.8994660269
 10
1.3026849843
 20
-10.9035164675
 10
1.2954008964
 20
-10.9077064568
 10
1.2883776701
 20
-10.9120260634
 10
1.2799511329
 20
-10.9176001103
 10
1.2718823586
 20
-10.9233861357
 10
1.2641315725
 20
-10.9294091091
 10
1.256659
 20
-10.935694
  0
LWPOLYLINE
  5
28C
100
AcDbEntity
  8
SIMBOLI
100
AcDbPolyline
 62
253
  6
CONTINUOUS
 90
31
 70
0
 10
1.756819
 20
-11.695268
 10
1.7532817509
 20
-11.6917598717
 10
1.7496572153
 20
-11.6883573416
 10
1.7459400009
 20
-11.6850543283
 10
1.7421247154
 20
-11.6818447506
 10
1.7382059664
 20
-11.6787225272
 10
1.7341783617
 20
-11.6756815769
 10
1.7300375848
 20
-11.672717414
 10
1.7257836236
 20
-11.6698319352
 10
1.7214175415
 20
-11.6670286327
 10
1.7169404022
 20
-11.6643109989
 10
1.7123532695
 20
-11.6616825258
 10
1.7076572069
 20
-11.6591467059
 10
1.7028536301
 20
-11.6567067134
 10
1.6979453628
 20
-11.6543644505
 10
1.6929355807
 20
-11.6521215016
 10
1.6878274595
 20
-11.6499794508
 10
1.682624175
 20
-11.6479398824
 10
1.6773289029
 20
-11.6460043806
 10
1.6719454161
 20
-11.6441733936
 10
1.666479877
 20
-11.6424428242
 10
1.6609390449
 20
-11.6408074391
 10
1.6553296794
 20
-11.6392620051
 10
1.6496585398
 20
-11.6378012889
 10
1.6439323858
 20
-11.6364200572
 10
1.6369959624
 20
-11.6348592721
 10
1.6299901118
 20
-11.6333912174
 10
1.622914894
 20
-11.6320017016
 10
1.6157703691
 20
-11.6306765333
 10
1.6085565971
 20
-11.6294015211
 10
1.571391
 20
-11.623184
  0
LWPOLYLINE
  5
28D
100
AcDbEntity
  8
SIMBOLI
100
AcDbPolyline
 62
253
  6
CONTINUOUS
 90
31
 70
0
 10
3.166104
 20
-11.695268
 10
3.1625667875
 20
-11.6917599079
 10
3.1589422823
 20
-11.6883574052
 10
3.1552250954
 20
-11.6850544134
 10
3.1514098378
 20
-11.6818448539
 10
3.1474911204
 20
-11.6787226485
 10
3.1434635542
 20
-11.6756817186
 10
3.1393228256
 20
-11.6727175807
 10
3.1350689221
 20
-11.6698321308
 10
3.1307029069
 20
-11.6670288596
 10
3.1262258429
 20
-11.6643112581
 10
3.121638793
 20
-11.6616828172
 10
3.1169428204
 20
-11.6591470276
 10
3.1121393397
 20
-11.6567070624
 10
3.1072311723
 20
-11.6543648232
 10
3.102221491
 20
-11.6521218936
 10
3.097113469
 20
-11.6499798574
 10
3.0919102793
 20
-11.6479402984
 10
3.0866150948
 20
-11.6460048001
 10
3.0812316859
 20
-11.6441738103
 10
3.0757662117
 20
-11.6424432323
 10
3.0702254288
 20
-11.6408078336
 10
3.0646160936
 20
-11.6392623814
 10
3.0589449628
 20
-11.637801643
 10
3.0532187928
 20
-11.6364203858
 10
3.0462823152
 20
-11.6348595668
 10
3.039276376
 20
-11.6333914755
 10
3.0322010407
 20
-11.632001922
 10
3.0250563747
 20
-11.6306767161
 10
3.0178424436
 20
-11.6294016677
 10
2.980676
 20
-11.623184
  0
LWPOLYLINE
  5
28E
100
AcDbEntity
  8
SIMBOLI
100
AcDbPolyline
 62
253
  6
CONTINUOUS
 90
44
 70
0
 10
1.038099
 20
-11.967982
 10
1.0491478849
 20
-11.9789947009
 10
1.060468829
 20
-11.9896563314
 10
1.0720681946
 20
-11.9999701882
 10
1.0839523438
 20
-12.0099395682
 10
1.0961276388
 20
-12.0195677681
 10
1.1085972522
 20
-12.0288548628
 10
1.1213515977
 20
-12.0377880404
 10
1.1343778994
 20
-12.046351267
 10
1.1476633813
 20
-12.0545285088
 10
1.1611952675
 20
-12.0623037318
 10
1.1726506616
 20
-12.0684648002
 10
1.1842597881
 20
-12.0743285616
 10
1.1960141372
 20
-12.0798880233
 10
1.2079051995
 20
-12.0851361927
 10
1.2199244652
 20
-12.090066077
 10
1.2320634249
 20
-12.0946706834
 10
1.2443128817
 20
-12.0989456667
 10
1.2566608897
 20
-12.1028972703
 10
1.2690948161
 20
-12.1065343852
 10
1.2816020277
 20
-12.1098659023
 10
1.2941698916
 20
-12.1129007124
 10
1.3067857748
 20
-12.1156477064
 10
1.3219737442
 20
-12.1185794566
 10
1.3372107089
 20
-12.1211414554
 10
1.3524947079
 20
-12.1233656035
 10
1.3678237801
 20
-12.1252838018
 10
1.3831959648
 20
-12.1269279509
 10
1.3986104722
 20
-12.1283223416
 10
1.414071199
 20
-12.1294608241
 10
1.4295832129
 20
-12.1303296381
 10
1.4451515818
 20
-12.1309150238
 10
1.4607813737
 20
-12.1312032211
 10
1.476476093
 20
-12.1311799571
 10
1.4922329911
 20
-12.1308289078
 10
1.5080477558
 20
-12.1301332363
 10
1.5239160751
 20
-12.1290761059
 10
1.5398336367
 20
-12.1276406798
 10
1.5531326737
 20
-12.1261427488
 10
1.5664598013
 20
-12.1243569594
 10
1.5798119086
 20
-12.1222698506
 10
1.5931858848
 20
-12.1198679617
 10
1.6065786189
 20
-12.1171378318
 10
1.619987
 20
-12.114066
  0
LWPOLYLINE
  5
28F
100
AcDbEntity
  8
SIMBOLI
100
AcDbPolyline
 62
253
  6
CONTINUOUS
 90
44
 70
0
 10
2.447384
 20
-11.967982
 10
2.4584327148
 20
-11.9789945349
 10
2.4697534574
 20
-11.9896559881
 10
2.4813525827
 20
-11.9999696556
 10
2.493236446
 20
-12.0099388337
 10
2.5054114023
 20
-12.0195668183
 10
2.5178806197
 20
-12.0288536857
 10
2.5306345178
 20
-12.0377866322
 10
2.543660329
 20
-12.0463496343
 10
2.5569452858
 20
-12.0545266682
 10
2.5704766207
 20
-12.0623017105
 10
2.581931542
 20
-12.0684626555
 10
2.5935401916
 20
-12.0743263208
 10
2.6052940682
 20
-12.0798857153
 10
2.6171846706
 20
-12.0851338476
 10
2.6292034975
 20
-12.0900637265
 10
2.6413420476
 20
-12.0946683608
 10
2.6535911319
 20
-12.0989434053
 10
2.6659388093
 20
-12.1028950992
 10
2.6783724513
 20
-12.1065323279
 10
2.6908794291
 20
-12.1098639769
 10
2.7034471138
 20
-12.1128989314
 10
2.7160628767
 20
-12.1156460768
 10
2.7312507825
 20
-12.1185780114
 10
2.7464877621
 20
-12.1211401939
 10
2.7617718423
 20
-12.1233645224
 10
2.7771010498
 20
-12.1252828953
 10
2.7924734112
 20
-12.1269272104
 10
2.8078881272
 20
-12.1283217565
 10
2.8233490941
 20
-12.1294603844
 10
2.8388613822
 20
-12.1303293355
 10
2.8544300618
 20
-12.130914851
 10
2.8700602032
 20
-12.1312031723
 10
2.8857553132
 20
-12.1311800269
 10
2.901512645
 20
-12.1308290867
 10
2.9173278879
 20
-12.1301335096
 10
2.9331967315
 20
-12.1290764538
 10
2.9491148654
 20
-12.1276410772
 10
2.9624144175
 20
-12.1261431643
 10
2.9757420993
 20
-12.1243573666
 10
2.9890948047
 20
-12.1222702177
 10
3.0024694274
 20
-12.1198682511
 10
3.0158628612
 20
-12.1171380007
 10
3.029272
 20
-12.114066
  0
LINE
  5
290
100
AcDbEntity
  8
ASSI
100
AcDbLine
 62
253
  6
CONTINUOUS
 10
11.0
 20
-21.6001713375
 11
10.8785866462
 21
-21.4787579837
  0
LINE
  5
291
100
AcDbEntity
  8
SIMBOLI
100
AcDbLine
 62
253
  6
CONTINUOUS
 10
-0.942746
 20
-10.789438
 11
-0.864001
 21
-10.889858
  0
LINE
  5
292
100
AcDbEntity
  8
SIMBOLI
100
AcDbLine
 62
253
  6
CONTINUOUS
 10
-1.136075
 20
-10.954363
 11
-1.077271
 21
-11.039031
  0
LINE
  5
293
100
AcDbEntity
  8
SIMBOLI
100
AcDbLine
 62
253
  6
CONTINUOUS
 10
-1.138116
 20
-11.5992
 11
-0.746785
 21
-12.35009
  0
LINE
  5
294
100
AcDbEntity
  8
SIMBOLI
100
AcDbLine
 62
253
  6
CONTINUOUS
 10
-1.048315
 20
-12.35009
 11
-1.404983
 21
-11.635562
  0
LWPOLYLINE
  5
295
100
AcDbEntity
  8
SIMBOLI
100
AcDbPolyline
 62
253
  6
CONTINUOUS
 90
55
 70
0
 10
3.264069
 20
-10.993472
 10
3.254815829
 20
-10.984536754
 10
3.2454023322
 20
-10.9759858766
 10
3.2358235518
 20
-10.9678009252
 10
3.22607453
 20
-10.9599634577
 10
3.2161503089
 20
-10.9524550318
 10
3.206047161
 20
-10.9452606864
 10
3.1957662792
 20
-10.9383793859
 10
3.1853100869
 20
-10.931813576
 10
3.1746810074
 20
-10.9255657024
 10
3.1638814638
 20
-10.9196382109
 10
3.1529168605
 20
-10.9140325733
 10
3.1418045258
 20
-10.9087463668
 10
3.1305647691
 20
-10.9037761948
 10
3.1192178996
 20
-10.8991186608
 10
3.1077842268
 20
-10.8947703681
 10
3.0934000537
 20
-10.8897653044
 10
3.0789459205
 20
-10.8852351251
 10
3.0644557641
 20
-10.8811768323
 10
3.0499635214
 20
-10.8775874278
 10
3.0354983063
 20
-10.8744580303
 10
3.021069941
 20
-10.8717562249
 10
3.0066834245
 20
-10.8694437135
 10
2.9923437562
 20
-10.8674821977
 10
2.978059802
 20
-10.865837004
 10
2.9638558958
 20
-10.8644879575
 10
2.9497602379
 20
-10.8634185077
 10
2.9358010291
 20
-10.8626121042
 10
2.9219942117
 20
-10.8620564916
 10
2.9083066959
 20
-10.8617565933
 10
2.8947105751
 20
-10.8617214956
 10
2.8812477078
 20
-10.8619597562
 10
2.8679654565
 20
-10.8624827969
 10
2.8548634343
 20
-10.863314024
 10
2.841929317
 20
-10.8644798398
 10
2.8291507803
 20
-10.866006647
 10
2.8190361471
 20
-10.8675035138
 10
2.809033648
 20
-10.8692484201
 10
2.7991637329
 20
-10.8712414733
 10
2.7894468518
 20
-10.8734827808
 10
2.7799034547
 20
-10.87597245
 10
2.7705536707
 20
-10.8787079356
 10
2.761416345
 20
-10.8816760808
 10
2.7525100021
 20
-10.8848610763
 10
2.7438531663
 20
-10.8882471124
 10
2.7354643622
 20
-10.8918183797
 10
2.7273579548
 20
-10.8955600488
 10
2.7195316727
 20
-10.8994612102
 10
2.7119790851
 20
-10.9035119344
 10
2.7046937613
 20
-10.9077022922
 10
2.6976692705
 20
-10.912022354
 10
2.6892411217
 20
-10.9175970961
 10
2.6811707069
 20
-10.9233839651
 10
2.6734182562
 20
-10.9294079401
 10
2.665944
 20
-10.935694
  0
LINE
  5
296
100
AcDbEntity
  8
SIMBOLI
100
AcDbLine
 62
253
  6
CONTINUOUS
 10
1.19091
 20
-11.215713
 11
1.239016
 21
-11.283726
  0
LINE
  5
297
100
AcDbEntity
  8
SIMBOLI
100
AcDbLine
 62
253
  6
CONTINUOUS
 10
2.600195
 20
-11.215713
 11
2.648301
 21
-11.283726
  0
LINE
  5
298
100
AcDbEntity
  8
SIMBOLI
100
AcDbLine
 62
253
  6
CONTINUOUS
 10
1.941165
 20
-11.516239
 11
2.045319
 21
-11.66408
  0
LINE
  5
299
100
AcDbEntity
  8
SIMBOLI
100
AcDbLine
 62
253
  6
CONTINUOUS
 10
1.807539
 20
-11.769382
 11
1.756819
 21
-11.695268
  0
LINE
  5
29A
100
AcDbEntity
  8
SIMBOLI
100
AcDbLine
 62
253
  6
CONTINUOUS
 10
3.216824
 20
-11.769382
 11
3.166104
 21
-11.695268
  0
LINE
  5
29B
100
AcDbEntity
  8
SIMBOLI
100
AcDbLine
 62
253
  6
CONTINUOUS
 10
1.047256
 20
-11.458806
 11
0.954454
 21
-11.320088
  0
LINE
  5
29C
100
AcDbEntity
  8
SIMBOLI
100
AcDbLine
 62
253
  6
CONTINUOUS
 10
2.456541
 20
-11.458806
 11
2.363739
 21
-11.320088
  0
LINE
  5
29D
100
AcDbEntity
  8
SIMBOLI
100
AcDbLine
 62
253
  6
CONTINUOUS
 10
-0.864001
 20
-10.889858
 11
-0.815441
 21
-11.010566
  0
LINE
  5
29E
100
AcDbEntity
  8
SIMBOLI
100
AcDbLine
 62
253
  6
CONTINUOUS
 10
-2.579187
 20
-11.048241
 11
-2.558742
 21
-11.166499
  0
LWPOLYLINE
  5
29F
100
AcDbEntity
  8
SIMBOLI
100
AcDbPolyline
 62
253
  6
CONTINUOUS
 90
36
 70
0
 10
-2.309651
 20
-11.057979
 10
-2.3076766747
 20
-11.0702918566
 10
-2.3059506802
 20
-11.0824912915
 10
-2.3044669386
 20
-11.0945836029
 10
-2.3032193722
 20
-11.1065750887
 10
-2.3022019029
 20
-11.118472047
 10
-2.3014084531
 20
-11.1302807759
 10
-2.3008335451
 20
-11.1420060353
 10
-2.3004741032
 20
-11.1536464325
 10
-2.3003276517
 20
-11.1651990367
 10
-2.3003917152
 20
-11.1766609171
 10
-2.3006638182
 20
-11.188029143
 10
-2.3011414851
 20
-11.1993007834
 10
-2.3018222668
 20
-11.2104727615
 10
-2.3027038198
 20
-11.221541416
 10
-2.3037838267
 20
-11.2325029395
 10
-2.3050599705
 20
-11.2433535247
 10
-2.3065299339
 20
-11.254089364
 10
-2.3081913997
 20
-11.2647066501
 10
-2.3100417653
 20
-11.2752015022
 10
-2.3120772865
 20
-11.2855697455
 10
-2.3142939336
 20
-11.2958071317
 10
-2.316687677
 20
-11.3059094128
 10
-2.319254487
 20
-11.3158723404
 10
-2.321990334
 20
-11.3256916664
 10
-2.3248910158
 20
-11.3353634898
 10
-2.3279516403
 20
-11.3448852985
 10
-2.3311671429
 20
-11.3542549276
 10
-2.3345324588
 20
-11.3634702124
 10
-2.3380425234
 20
-11.3725289878
 10
-2.3416922722
 20
-11.3814290891
 10
-2.3462520666
 20
-11.3919006223
 10
-2.3510140248
 20
-11.4021602636
 10
-2.3559864586
 20
-11.4122277294
 10
-2.3611776797
 20
-11.4221227361
 10
-2.366596
 20
-11.431865
  0
LINE
  5
2A0
100
AcDbEntity
  8
SIMBOLI
100
AcDbLine
 62
253
  6
CONTINUOUS
 10
-3.489322
 20
-12.35009
 11
-3.489322
 21
-10.64991
  0
LINE
  5
2A1
100
AcDbEntity
  8
SIMBOLI
100
AcDbLine
 62
253
  6
CONTINUOUS
 10
-3.228082
 20
-11.683574
 11
-3.228082
 21
-12.35009
  0
LINE
  5
2A2
100
AcDbEntity
  8
SIMBOLI
100
AcDbLine
 62
253
  6
CONTINUOUS
 10
-3.228082
 20
-11.447752
 11
-3.228082
 21
-10.882908
  0
LINE
  5
2A3
100
AcDbEntity
  8
SIMBOLI
100
AcDbLine
 62
253
  6
CONTINUOUS
 10
-1.986838
 20
-12.35009
 11
-1.986838
 21
-10.64991
  0
LINE
  5
2A4
100
AcDbEntity
  8
SIMBOLI
100
AcDbLine
 62
253
  6
CONTINUOUS
 10
3.35045
 20
-11.516239
 11
3.454604
 21
-11.66408
  0
LINE
  5
2A5
100
AcDbEntity
  8
SIMBOLI
100
AcDbLine
 62
253
  6
CONTINUOUS
 10
-1.077271
 20
-11.039031
 11
-1.05767
 21
-11.150128
  0
LINE
  5
2A6
100
AcDbEntity
  8
SIMBOLI
100
AcDbLine
 62
253
  6
CONTINUOUS
 10
-0.815441
 20
-11.010566
 11
-0.799254
 21
-11.147325
  0
LINE
  5
2A7
100
AcDbEntity
  8
SIMBOLI
100
AcDbLine
 62
253
  6
CONTINUOUS
 10
-1.725598
 20
-11.635562
 11
-1.725598
 21
-12.35009
  0
LINE
  5
2A8
100
AcDbEntity
  8
SIMBOLI
100
AcDbLine
 62
253
  6
CONTINUOUS
 10
-1.725598
 20
-11.413861
 11
-1.725598
 21
-10.882908
  0
LINE
  5
2A9
100
AcDbEntity
  8
SIMBOLI
100
AcDbLine
 62
253
  6
CONTINUOUS
 10
-0.423633
 20
-12.35009
 11
-0.423633
 21
-10.64991
  0
LINE
  5
2AA
100
AcDbEntity
  8
SIMBOLI
100
AcDbLine
 62
253
  6
CONTINUOUS
 10
-0.162393
 20
-10.882908
 11
-0.162393
 21
-11.377146
  0
LINE
  5
2AB
100
AcDbEntity
  8
SIMBOLI
100
AcDbLine
 62
253
  6
CONTINUOUS
 10
-0.162393
 20
-11.60732
 11
-0.162393
 21
-12.117091
  0
LINE
  5
2AC
100
AcDbEntity
  8
SIMBOLI
100
AcDbLine
 62
253
  6
CONTINUOUS
 10
-2.558742
 20
-11.166499
 11
-2.579044
 21
-11.283735
  0
LWPOLYLINE
  5
2AD
100
AcDbEntity
  8
ASSI
100
AcDbPolyline
 62
253
  6
CONTINUOUS
 90
10
 70
0
 10
-10.8785866462
 20
21.4787579837
 10
-10.8772669707
 20
21.4756119264
 10
-10.8759678265
 20
21.4689862069
 10
-10.8746892136
 20
21.4588808253
 10
-10.8734241819
 20
21.4452075948
 10
-10.8721796814
 20
21.4280547022
 10
-10.8709765627
 20
21.4076867073
 10
-10.8698160607
 20
21.3840545061
 10
-10.8686969405
 20
21.3572072027
 10
-10.8676363477
 20
21.3275566689
  0
LINE
  5
2AE
100
AcDbEntity
  8
SIMBOLI
100
AcDbLine
 62
253
  6
CONTINUOUS
 10
1.174875
 20
-11.125614
 11
1.19091
 21
-11.215713
  0
LINE
  5
2AF
100
AcDbEntity
  8
SIMBOLI
100
AcDbLine
 62
253
  6
CONTINUOUS
 10
2.045319
 20
-11.66408
 11
2.080037
 21
-11.864986
  0
LINE
  5
2B0
100
AcDbEntity
  8
SIMBOLI
100
AcDbLine
 62
253
  6
CONTINUOUS
 10
0.954454
 20
-11.320088
 11
0.92352
 21
-11.134727
  0
LINE
  5
2B1
100
AcDbEntity
  8
SIMBOLI
100
AcDbLine
 62
253
  6
CONTINUOUS
 10
1.824445
 20
-11.870811
 11
1.807539
 21
-11.769382
  0
LINE
  5
2B2
100
AcDbEntity
  8
SIMBOLI
100
AcDbLine
 62
253
  6
CONTINUOUS
 10
0.541941
 20
-11.377146
 11
0.541941
 21
-11.60732
  0
LINE
  5
2B3
100
AcDbEntity
  8
SIMBOLI
100
AcDbLine
 62
253
  6
CONTINUOUS
 10
0.663228
 20
-10.64991
 11
0.663228
 21
-10.882908
  0
LINE
  5
2B4
100
AcDbEntity
  8
SIMBOLI
100
AcDbLine
 62
253
  6
CONTINUOUS
 10
0.663228
 20
-12.117091
 11
0.663228
 21
-12.35009
  0
LWPOLYLINE
  5
2B5
100
AcDbEntity
  8
SIMBOLI
100
AcDbPolyline
 62
253
  6
CONTINUOUS
 90
75
 70
0
 10
2.080037
 20
-11.864986
 10
2.0797603633
 20
-11.8863836349
 10
2.0785674076
 20
-11.9076960865
 10
2.076444386
 20
-11.9289533026
 10
2.0733775518
 20
-11.9501852315
 10
2.0702354535
 20
-11.9671625176
 10
2.0664743912
 20
-11.9840970691
 10
2.0620882391
 20
-12.0009431686
 10
2.0570708713
 20
-12.0176550987
 10
2.0514161619
 20
-12.0341871419
 10
2.0451228488
 20
-12.0504933467
 10
2.0382091256
 20
-12.0665268244
 10
2.0306980495
 20
-12.0822404524
 10
2.022612678
 20
-12.097587108
 10
2.0139760682
 20
-12.1125196684
 10
2.0048107551
 20
-12.1269988666
 10
1.9951371829
 20
-12.1410168586
 10
1.9849752733
 20
-12.1545736564
 10
1.9743449479
 20
-12.1676692716
 10
1.9632661287
 20
-12.1803037161
 10
1.9488066203
 20
-12.1954565195
 10
1.933652543
 20
-12.209938292
 10
1.9177789719
 20
-12.2237985635
 10
1.9011609822
 20
-12.2370868638
 10
1.8873137003
 20
-12.2473334271
 10
1.8729603215
 20
-12.2572377369
 10
1.8580871287
 20
-12.2667919017
 10
1.842680405
 20
-12.2759880306
 10
1.8267264332
 20
-12.2848182321
 10
1.8102091821
 20
-12.2932740598
 10
1.7931033638
 20
-12.3013448446
 10
1.7753813762
 20
-12.3090193625
 10
1.7570156173
 20
-12.316286389
 10
1.737978485
 20
-12.3231346999
 10
1.7215912831
 20
-12.3285105982
 10
1.704761768
 20
-12.3335629666
 10
1.687533026
 20
-12.3382668446
 10
1.6699333501
 20
-12.3426009025
 10
1.65193186
 20
-12.3465583349
 10
1.6334828818
 20
-12.3501359672
 10
1.6145651289
 20
-12.3533277371
 10
1.5952548632
 20
-12.3561160307
 10
1.5756527341
 20
-12.3584803464
 10
1.5558591481
 20
-12.3604076312
 10
1.5359735412
 20
-12.3619146266
 10
1.5160951069
 20
-12.3630255227
 10
1.4864280072
 20
-12.3640011563
 10
1.4568557143
 20
-12.3642159958
 10
1.4272906159
 20
-12.3637318029
 10
1.3978727169
 20
-12.3625533794
 10
1.3687485467
 20
-12.3606679711
 10
1.3398631156
 20
-12.3580495591
 10
1.311111054
 20
-12.3546688086
 10
1.2823869926
 20
-12.3504963846
 10
1.2536267076
 20
-12.3454948859
 10
1.2249305581
 20
-12.3395946459
 10
1.2058968127
 20
-12.335121317
 10
1.1869454565
 20
-12.3301780767
 10
1.1680674833
 20
-12.3247290021
 10
1.1492629534
 20
-12.3187426815
 10
1.1305681952
 20
-12.3122057477
 10
1.1120286039
 20
-12.3051093445
 10
1.0936838888
 20
-12.2974484471
 10
1.075551015
 20
-12.2892333558
 10
1.0576412615
 20
-12.280478202
 10
1.0364617531
 20
-12.2692796951
 10
1.0156500458
 20
-12.2573522441
 10
0.9952364056
 20
-12.2447242458
 10
0.9752510982
 20
-12.2314240967
 10
0.9557243898
 20
-12.2174801935
 10
0.936680121
 20
-12.2029143309
 10
0.9181164323
 20
-12.1877218954
 10
0.900025039
 20
-12.171891672
 10
0.8823976565
 20
-12.1554124453
 10
0.865226
 20
-12.138273
  0
LINE
  5
2B6
100
AcDbEntity
  8
SIMBOLI
100
AcDbLine
 62
253
  6
CONTINUOUS
 10
0.92352
 20
-11.134727
 11
0.940732
 21
-10.995419
  0
LINE
  5
2B7
100
AcDbEntity
  8
SIMBOLI
100
AcDbLine
 62
253
  6
CONTINUOUS
 10
-0.799254
 20
-11.147325
 11
-0.822769
 21
-11.308022
  0
LINE
  5
2B8
100
AcDbEntity
  8
SIMBOLI
100
AcDbLine
 62
253
  6
CONTINUOUS
 10
-1.05767
 20
-11.150128
 11
-1.077417
 21
-11.25934
  0
LWPOLYLINE
  5
2B9
100
AcDbEntity
  8
ASSI
100
AcDbPolyline
 62
253
  6
CONTINUOUS
 90
10
 70
0
 10
10.8785866462
 20
-21.4787579837
 10
10.8772669707
 20
-21.4756119264
 10
10.8759678265
 20
-21.4689862069
 10
10.8746892136
 20
-21.4588808253
 10
10.8734241819
 20
-21.4452075948
 10
10.8721796814
 20
-21.4280547022
 10
10.8709765627
 20
-21.4076867072
 10
10.8698160607
 20
-21.3840545061
 10
10.8686969405
 20
-21.3572072027
 10
10.8676363477
 20
-21.3275566688
  0
LINE
  5
2BA
100
AcDbEntity
  8
SIMBOLI
100
AcDbLine
 62
253
  6
CONTINUOUS
 10
2.58416
 20
-11.125614
 11
2.600195
 21
-11.215713
  0
LINE
  5
2BB
100
AcDbEntity
  8
SIMBOLI
100
AcDbLine
 62
253
  6
CONTINUOUS
 10
3.454604
 20
-11.66408
 11
3.489322
 21
-11.864986
  0
LINE
  5
2BC
100
AcDbEntity
  8
SIMBOLI
100
AcDbLine
 62
253
  6
CONTINUOUS
 10
2.363739
 20
-11.320088
 11
2.332805
 21
-11.134727
  0
LINE
  5
2BD
100
AcDbEntity
  8
SIMBOLI
100
AcDbLine
 62
253
  6
CONTINUOUS
 10
3.23373
 20
-11.870811
 11
3.216824
 21
-11.769382
  0
LWPOLYLINE
  5
2BE
100
AcDbEntity
  8
SIMBOLI
100
AcDbPolyline
 62
253
  6
CONTINUOUS
 90
75
 70
0
 10
3.489322
 20
-11.864986
 10
3.4890453905
 20
-11.8863828726
 10
3.4878525153
 20
-11.907694722
 10
3.485729605
 20
-11.9289515092
 10
3.4826628905
 20
-11.9501831952
 10
3.4795208789
 20
-11.9671604269
 10
3.475759883
 20
-11.9840950407
 10
3.4713737655
 20
-12.0009413083
 10
3.466356389
 20
-12.0176535013
 10
3.4607016162
 20
-12.0341858915
 10
3.4544081779
 20
-12.0504925131
 10
3.4474942762
 20
-12.06652645
 10
3.4399829815
 20
-12.0822405487
 10
3.4318973638
 20
-12.0975876557
 10
3.4232604935
 20
-12.1125206174
 10
3.4140949172
 20
-12.1270001425
 10
3.4044210872
 20
-12.1410183886
 10
3.3942589324
 20
-12.1545753753
 10
3.3836283816
 20
-12.1676711224
 10
3.3725493635
 20
-12.1803056496
 10
3.3580896467
 20
-12.1954585015
 10
3.3429353774
 20
-12.2099402868
 10
3.3270615946
 20
-12.2238005643
 10
3.310443337
 20
-12.2370888925
 10
3.2965957783
 20
-12.2473355099
 10
3.2822420593
 20
-12.2572399003
 10
3.2673684585
 20
-12.2667941665
 10
3.2519612544
 20
-12.2759904114
 10
3.2360067258
 20
-12.2848207379
 10
3.219488835
 20
-12.2932766936
 10
3.2023822803
 20
-12.3013476054
 10
3.1846594441
 20
-12.3090222451
 10
3.1662927084
 20
-12.3162893843
 10
3.1472544554
 20
-12.3231377947
 10
3.130866209
 20
-12.3285137601
 10
3.1140355924
 20
-12.3335661646
 10
3.0968057458
 20
-12.3382700287
 10
3.0792050158
 20
-12.3426040068
 10
3.0612025738
 20
-12.3465612908
 10
3.0427527978
 20
-12.3501387065
 10
3.0238344416
 20
-12.3533301955
 10
3.0045237634
 20
-12.3561181609
 10
2.9849213976
 20
-12.3584821219
 10
2.9651277506
 20
-12.3604090446
 10
2.9452423178
 20
-12.3619156854
 10
2.9253643663
 20
-12.3630262481
 10
2.8956986374
 20
-12.3640014463
 10
2.8661282593
 20
-12.3642159435
 10
2.836565338
 20
-12.3637315131
 10
2.8071497404
 20
-12.3625529588
 10
2.778027913
 20
-12.3606675279
 10
2.7491448617
 20
-12.3580492134
 10
2.7203952322
 20
-12.3546686946
 10
2.6916736699
 20
-12.3504966509
 10
2.6629159447
 20
-12.3454956926
 10
2.6342223233
 20
-12.3395961553
 10
2.6151902008
 20
-12.3351233884
 10
2.5962404388
 20
-12.3301808059
 10
2.5773640667
 20
-12.3247325087
 10
2.5585611606
 20
-12.3187470982
 10
2.5398679827
 20
-12.3122111774
 10
2.5213298419
 20
-12.3051158498
 10
2.5029863705
 20
-12.2974560511
 10
2.4848544959
 20
-12.2892420459
 10
2.466945469
 20
-12.2804879312
 10
2.4457664341
 20
-12.2692905528
 10
2.4249547238
 20
-12.2573640088
 10
2.4045405605
 20
-12.2447365917
 10
2.3845541666
 20
-12.231436594
 10
2.3650257646
 20
-12.2174923081
 10
2.3459791734
 20
-12.2029254364
 10
2.327412599
 20
-12.1877313194
 10
2.3093178436
 20
-12.1718987075
 10
2.2916867098
 20
-12.1554163509
 10
2.274511
 20
-12.138273
  0
LINE
  5
2BF
100
AcDbEntity
  8
SIMBOLI
100
AcDbLine
 62
253
  6
CONTINUOUS
 10
2.332805
 20
-11.134727
 11
2.350018
 21
-10.995419
  0
LINE
  5
2C0
100
AcDbEntity
  8
SIMBOLI
100
AcDbLine
 62
253
  6
CONTINUOUS
 10
1.184059
 20
-11.053108
 11
1.174875
 21
-11.125614
  0
LINE
  5
2C1
100
AcDbEntity
  8
SIMBOLI
100
AcDbLine
 62
253
  6
CONTINUOUS
 10
2.593344
 20
-11.053108
 11
2.58416
 21
-11.125614
  0
LINE
  5
2C2
100
AcDbEntity
  8
SIMBOLI
100
AcDbLine
 62
253
  6
CONTINUOUS
 10
1.801112
 20
-11.980379
 11
1.824445
 21
-11.870811
  0
LINE
  5
2C3
100
AcDbEntity
  8
SIMBOLI
100
AcDbLine
 62
253
  6
CONTINUOUS
 10
-2.579044
 20
-11.283735
 11
-2.63995
 21
-11.372788
  0
LINE
  5
2C4
100
AcDbEntity
  8
SIMBOLI
100
AcDbLine
 62
253
  6
CONTINUOUS
 10
3.210398
 20
-11.980379
 11
3.23373
 21
-11.870811
  0
LINE
  5
2C5
100
AcDbEntity
  8
SIMBOLI
100
AcDbLine
 62
253
  6
CONTINUOUS
 10
0.940732
 20
-10.995419
 11
0.992371
 21
-10.873597
  0
LINE
  5
2C6
100
AcDbEntity
  8
SIMBOLI
100
AcDbLine
 62
253
  6
CONTINUOUS
 10
2.350018
 20
-10.995419
 11
2.401656
 21
-10.873597
  0
LINE
  5
2C7
100
AcDbEntity
  8
SIMBOLI
100
AcDbLine
 62
253
  6
CONTINUOUS
 10
1.211612
 20
-10.989026
 11
1.184059
 21
-11.053108
  0
LINE
  5
2C8
100
AcDbEntity
  8
SIMBOLI
100
AcDbLine
 62
253
  6
CONTINUOUS
 10
-0.822769
 20
-11.308022
 11
-0.893314
 21
-11.43982
  0
LINE
  5
2C9
100
AcDbEntity
  8
SIMBOLI
100
AcDbLine
 62
253
  6
CONTINUOUS
 10
-1.077417
 20
-11.25934
 11
-1.13666
 21
-11.342991
  0
LINE
  5
2CA
100
AcDbEntity
  8
SIMBOLI
100
AcDbLine
 62
253
  6
CONTINUOUS
 10
-2.366596
 20
-11.431865
 11
-2.447398
 21
-11.536692
  0
LINE
  5
2CB
100
AcDbEntity
  8
SIMBOLI
100
AcDbLine
 62
253
  6
CONTINUOUS
 10
2.620897
 20
-10.989026
 11
2.593344
 21
-11.053108
  0
LINE
  5
2CC
100
AcDbEntity
  8
SIMBOLI
100
AcDbLine
 62
253
  6
CONTINUOUS
 10
0.992371
 20
-10.873597
 11
1.076102
 21
-10.773196
  0
LINE
  5
2CD
100
AcDbEntity
  8
SIMBOLI
100
AcDbLine
 62
253
  6
CONTINUOUS
 10
1.256659
 20
-10.935694
 11
1.211612
 21
-10.989026
  0
LINE
  5
2CE
100
AcDbEntity
  8
ASSI
100
AcDbLine
 62
253
  6
CONTINUOUS
 10
-10.8785866472
 20
-21.4787579847
 11
-11.0
 21
-21.6001713375
  0
LINE
  5
2CF
100
AcDbEntity
  8
ASSI
100
AcDbLine
 62
253
  6
CONTINUOUS
 10
-10.3787579848
 20
-21.9785866472
 11
-10.5001713375
 21
-22.1
  0
LINE
  5
2D0
100
AcDbEntity
  8
SIMBOLI
100
AcDbLine
 62
253
  6
CONTINUOUS
 10
-0.893314
 20
-11.43982
 11
-1.001544
 21
-11.538339
  0
LINE
  5
2D1
100
AcDbEntity
  8
SIMBOLI
100
AcDbLine
 62
253
  6
CONTINUOUS
 10
-2.447398
 20
-11.536692
 11
-2.557264
 21
-11.61641
  0
LINE
  5
2D2
100
AcDbEntity
  8
SIMBOLI
100
AcDbLine
 62
253
  6
CONTINUOUS
 10
-2.63995
 20
-11.372788
 11
-2.735071
 21
-11.429011
  0
LINE
  5
2D3
100
AcDbEntity
  8
ASSI
100
AcDbLine
 62
253
  6
CONTINUOUS
 10
-11.0
 20
21.6001713375
 11
-10.8785866462
 21
21.4787579837
  0
LINE
  5
2D4
100
AcDbEntity
  8
ASSI
100
AcDbLine
 62
253
  6
CONTINUOUS
 10
-10.5001713375
 20
22.1
 11
-10.3787579846
 21
21.9785866471
  0
LINE
  5
2D5
100
AcDbEntity
  8
ASSI
100
AcDbLine
 62
253
  6
CONTINUOUS
 10
10.8676363477
 20
-21.3275566688
 11
10.8656925495
 21
-21.2597557272
  0
LINE
  5
2D6
100
AcDbEntity
  8
ASSI
100
AcDbLine
 62
253
  6
CONTINUOUS
 10
10.8656925495
 20
-21.2597557272
 11
10.8640273801
 21
-21.1823508489
  0
LINE
  5
2D7
100
AcDbEntity
  8
ASSI
100
AcDbLine
 62
253
  6
CONTINUOUS
 10
10.8640273801
 20
-21.1823508489
 11
10.8626661047
 21
-21.0965336799
  0
LINE
  5
2D8
100
AcDbEntity
  8
ASSI
100
AcDbLine
 62
253
  6
CONTINUOUS
 10
10.3906382899
 20
21.5390434139
 11
10.3881668365
 21
21.7193311098
  0
LWPOLYLINE
  5
2D9
100
AcDbEntity
  8
ASSI
100
AcDbPolyline
 62
253
  6
CONTINUOUS
 90
3
 70
0
 10
10.8626661047
 20
-21.0965336799
 10
10.8612634631
 20
-20.9563655433
 10
10.8609777033
 20
-20.9079895367
  0
LINE
  5
2DA
100
AcDbEntity
  8
ASSI
100
AcDbLine
 62
253
  6
CONTINUOUS
 10
10.3931054678
 20
21.2462544244
 11
10.3906382899
 21
21.5390434139
  0
LINE
  5
2DB
100
AcDbEntity
  8
ASSI
100
AcDbLine
 62
253
  6
CONTINUOUS
 10
10.3945930817
 20
20.8300973573
 11
10.3931054678
 21
21.2462544244
  0
LINE
  5
2DC
100
AcDbEntity
  8
ASSI
100
AcDbLine
 62
253
  6
CONTINUOUS
 10
10.3939207226
 20
-21.0840578305
 11
10.3945930793
 21
20.8300973579
  0
LINE
  5
2DD
100
AcDbEntity
  8
ASSI
100
AcDbLine
 62
253
  6
CONTINUOUS
 10
10.3913564413
 20
-21.4707608467
 11
10.3939207226
 21
-21.0840578305
  0
LINE
  5
2DE
100
AcDbEntity
  8
ASSI
100
AcDbLine
 62
253
  6
CONTINUOUS
 10
10.8609777043
 20
20.9079895385
 11
10.862112399
 21
21.0511609082
  0
LINE
  5
2DF
100
AcDbEntity
  8
ASSI
100
AcDbLine
 62
253
  6
CONTINUOUS
 10
10.862112399
 20
21.0511609082
 11
10.8633048472
 21
21.1402480586
  0
LWPOLYLINE
  5
2E0
100
AcDbEntity
  8
ASSI
100
AcDbPolyline
 62
253
  6
CONTINUOUS
 90
3
 70
0
 10
10.3881668326
 20
-21.7193311081
 10
10.389050497
 20
-21.6636481459
 10
10.3913564413
 20
-21.4707608467
  0
LINE
  5
2E1
100
AcDbEntity
  8
ASSI
100
AcDbLine
 62
253
  6
CONTINUOUS
 10
10.8633048472
 20
21.1402480586
 11
10.8648228811
 21
21.2221975583
  0
LWPOLYLINE
  5
2E2
100
AcDbEntity
  8
ASSI
100
AcDbPolyline
 62
253
  6
CONTINUOUS
 90
12
 70
0
 10
10.8648228811
 20
21.2221975583
 10
10.866635186
 20
21.2950578151
 10
10.8676363488
 20
21.3275566706
 10
10.8686969416
 20
21.3572072044
 10
10.8698160618
 20
21.3840545076
 10
10.8709765638
 20
21.4076867086
 10
10.8721796825
 20
21.4280547035
 10
10.873424183
 20
21.4452075962
 10
10.8746892147
 20
21.4588808266
 10
10.8759678276
 20
21.4689862082
 10
10.8772669718
 20
21.4756119276
 10
10.8785866472
 20
21.4787579847
  0
LINE
  5
2E3
100
AcDbEntity
  8
SIMBOLI
100
AcDbLine
 62
253
  6
CONTINUOUS
 10
2.401656
 20
-10.873597
 11
2.485387
 21
-10.773196
  0
LINE
  5
2E4
100
AcDbEntity
  8
SIMBOLI
100
AcDbLine
 62
253
  6
CONTINUOUS
 10
2.665944
 20
-10.935694
 11
2.620897
 21
-10.989026
  0
LINE
  5
2E5
100
AcDbEntity
  8
SIMBOLI
100
AcDbLine
 62
253
  6
CONTINUOUS
 10
1.731114
 20
-12.062626
 11
1.801112
 21
-11.980379
  0
LINE
  5
2E6
100
AcDbEntity
  8
SIMBOLI
100
AcDbLine
 62
253
  6
CONTINUOUS
 10
3.140399
 20
-12.062626
 11
3.210398
 21
-11.980379
  0
LINE
  5
2E7
100
AcDbEntity
  8
SIMBOLI
100
AcDbLine
 62
253
  6
CONTINUOUS
 10
2.020508
 20
-10.829954
 11
1.854784
 21
-10.993472
  0
LINE
  5
2E8
100
AcDbEntity
  8
SIMBOLI
100
AcDbLine
 62
253
  6
CONTINUOUS
 10
3.429793
 20
-10.829954
 11
3.264069
 21
-10.993472
  0
LINE
  5
2E9
100
AcDbEntity
  8
SIMBOLI
100
AcDbLine
 62
253
  6
CONTINUOUS
 10
0.865226
 20
-12.138273
 11
1.038099
 21
-11.967982
  0
LINE
  5
2EA
100
AcDbEntity
  8
SIMBOLI
100
AcDbLine
 62
253
  6
CONTINUOUS
 10
2.274511
 20
-12.138273
 11
2.447384
 21
-11.967982
  0
LWPOLYLINE
  5
2EB
100
AcDbEntity
  8
SIMBOLI
100
AcDbPolyline
 62
253
  6
CONTINUOUS
 90
53
 70
0
 10
1.076102
 20
-10.773196
 10
1.0884413505
 20
-10.7626275666
 10
1.1012001027
 20
-10.7524571712
 10
1.1144279669
 20
-10.7426500584
 10
1.128174653
 20
-10.7331714729
 10
1.1424834532
 20
-10.7239964325
 10
1.1573719867
 20
-10.7151390477
 10
1.1728514546
 20
-10.7066232022
 10
1.1889330578
 20
-10.6984727795
 10
1.2056189455
 20
-10.6907136104
 10
1.2228750586
 20
-10.6833793142
 10
1.2406582858
 20
-10.6765054574
 10
1.2589255161
 20
-10.6701276064
 10
1.2776346985
 20
-10.6642774267
 10
1.2967480232
 20
-10.6589709791
 10
1.3162287405
 20
-10.6542204234
 10
1.3360401007
 20
-10.6500379193
 10
1.3561500187
 20
-10.6464302884
 10
1.3765450683
 20
-10.6433829984
 10
1.3972164876
 20
-10.6408761789
 10
1.4181555151
 20
-10.6388899594
 10
1.4393523806
 20
-10.6374050018
 10
1.4607932807
 20
-10.6364040979
 10
1.4824634035
 20
-10.6358705721
 10
1.5043479372
 20
-10.6357877485
 10
1.5264298169
 20
-10.6361464342
 10
1.5486829662
 20
-10.6369673665
 10
1.5710790557
 20
-10.6382787655
 10
1.5935897559
 20
-10.6401088514
 10
1.6161895969
 20
-10.6424869034
 10
1.6388645459
 20
-10.6454464374
 10
1.6616034296
 20
-10.6490220287
 10
1.6843950749
 20
-10.6532482524
 10
1.7026543872
 20
-10.6571230974
 10
1.720907692
 20
-10.6614672358
 10
1.7391223657
 20
-10.6663114279
 10
1.7572657844
 20
-10.6716864343
 10
1.7753053243
 20
-10.6776230154
 10
1.7932097926
 20
-10.6841440441
 10
1.8109537212
 20
-10.6912408429
 10
1.828513073
 20
-10.6988968469
 10
1.845863811
 20
-10.7070954909
 10
1.8629818982
 20
-10.71582021
 10
1.8798472118
 20
-10.7250551884
 10
1.896455286
 20
-10.7347876078
 10
1.9128055693
 20
-10.7450053992
 10
1.9288975102
 20
-10.7556964934
 10
1.9447305572
 20
-10.7668488213
 10
1.9603082782
 20
-10.7784570937
 10
1.9756507183
 20
-10.7905431393
 10
1.9907820423
 20
-10.8031355665
 10
2.0057264147
 20
-10.816262984
 10
2.020508
 20
-10.829954
  0
LWPOLYLINE
  5
2EC
100
AcDbEntity
  8
SIMBOLI
100
AcDbPolyline
 62
253
  6
CONTINUOUS
 90
53
 70
0
 10
2.485387
 20
-10.773196
 10
2.4977215907
 20
-10.7626315048
 10
2.5104756107
 20
-10.7524644825
 10
2.5236987996
 20
-10.7426602087
 10
2.5374408972
 20
-10.7331839587
 10
2.5517452264
 20
-10.7240107793
 10
2.5666294424
 20
-10.7151548027
 10
2.5821047834
 20
-10.7066399327
 10
2.5981824878
 20
-10.6984900728
 10
2.6148647331
 20
-10.6907310783
 10
2.6321174534
 20
-10.6833966104
 10
2.6498975222
 20
-10.676522282
 10
2.6681618127
 20
-10.6701437058
 10
2.6868682599
 20
-10.6642925908
 10
2.7059790449
 20
-10.6589850304
 10
2.7254574101
 20
-10.6542332139
 10
2.7452665984
 20
-10.650049331
 10
2.7653745218
 20
-10.6464402338
 10
2.7857677709
 20
-10.6433914254
 10
2.8064376058
 20
-10.6408830716
 10
2.8273752868
 20
-10.6388953382
 10
2.8485710627
 20
-10.6374089134
 10
2.8700111367
 20
-10.6364065757
 10
2.891680701
 20
-10.635871626
 10
2.9135649475
 20
-10.6357873652
 10
2.9356468136
 20
-10.6361445828
 10
2.9579002187
 20
-10.6369640227
 10
2.9802968276
 20
-10.6382739174
 10
3.002808305
 20
-10.6401024992
 10
3.0254091767
 20
-10.6424790579
 10
3.0480854136
 20
-10.645437112
 10
3.0708258475
 20
-10.6490112371
 10
3.0936193102
 20
-10.653236009
 10
3.1118802716
 20
-10.6571097062
 10
3.1301353984
 20
-10.661452724
 10
3.1483520651
 20
-10.6662958405
 10
3.1664976462
 20
-10.6716698339
 10
3.1845395165
 20
-10.6776054825
 10
3.2024464811
 20
-10.6841256814
 10
3.2201930691
 20
-10.6912217941
 10
3.2377552401
 20
-10.6988773014
 10
3.255108954
 20
-10.7070756836
 10
3.2722301705
 20
-10.7158004214
 10
3.2890987616
 20
-10.7250357388
 10
3.3057102488
 20
-10.734768834
 10
3.3220640657
 20
-10.7449876484
 10
3.338159646
 20
-10.7556801237
 10
3.3539964234
 20
-10.7668342013
 10
3.369577948
 20
-10.7784446022
 10
3.3849242357
 20
-10.7905331648
 10
3.4000594187
 20
-10.8031285068
 10
3.4150076294
 20
-10.8162592459
 10
3.429793
 20
-10.829954
  0
LINE
  5
2ED
100
AcDbEntity
  8
SIMBOLI
100
AcDbLine
 62
253
  6
CONTINUOUS
 10
-1.13666
 20
-11.342991
 11
-1.228425
 21
-11.396143
  0
LWPOLYLINE
  5
2EE
100
AcDbEntity
  8
SIMBOLI
100
AcDbPolyline
 62
253
  6
CONTINUOUS
 90
28
 70
0
 10
-2.557264
 20
-11.61641
 10
-2.567272495
 20
-11.6214779885
 10
-2.5773259456
 20
-11.6263451051
 10
-2.5874232734
 20
-11.6310115253
 10
-2.5975634003
 20
-11.6354774248
 10
-2.6077452478
 20
-11.6397429791
 10
-2.6179677377
 20
-11.643808364
 10
-2.6282297917
 20
-11.6476737549
 10
-2.6385303315
 20
-11.6513393276
 10
-2.6488682787
 20
-11.6548052576
 10
-2.6592431659
 20
-11.6580718122
 10
-2.669656968
 20
-11.6611396258
 10
-2.6801122712
 20
-11.6640094244
 10
-2.6906116612
 20
-11.6666819338
 10
-2.7011577241
 20
-11.6691578801
 10
-2.7117530456
 20
-11.6714379893
 10
-2.7224002117
 20
-11.6735229874
 10
-2.7331018083
 20
-11.6754136003
 10
-2.7438604214
 20
-11.677110554
 10
-2.7546780601
 20
-11.6786142806
 10
-2.7655544274
 20
-11.6799240366
 10
-2.7764886494
 20
-11.6810387844
 10
-2.7874798524
 20
-11.6819574865
 10
-2.7985271626
 20
-11.6826791055
 10
-2.8096297062
 20
-11.6832026038
 10
-2.8207866095
 20
-11.683526944
 10
-2.8319969987
 20
-11.6836510886
 10
-2.84326
 20
-11.683574
  0
LINE
  5
2EF
100
AcDbEntity
  8
SIMBOLI
100
AcDbLine
 62
253
  6
CONTINUOUS
 10
-1.001544
 20
-11.538339
 11
-1.138116
 21
-11.5992
  0
LWPOLYLINE
  5
2F0
100
AcDbEntity
  8
ASSI
100
AcDbPolyline
 62
253
  6
CONTINUOUS
 90
7
 70
0
 10
10.3852779153
 20
21.8565421926
 10
10.3842357107
 20
21.8915410796
 10
10.3831870547
 20
21.9208481036
 10
10.3820927692
 20
21.944314122
 10
10.3809591379
 20
21.9618163671
 10
10.3798376916
 20
21.9732611509
 10
10.3787579847
 20
21.9785866472
  0
LWPOLYLINE
  5
2F1
100
AcDbEntity
  8
ASSI
100
AcDbPolyline
 62
253
  6
CONTINUOUS
 90
3
 70
0
 10
10.3881668365
 20
21.7193311098
 10
10.3872394303
 20
21.7702126772
 10
10.3852779153
 20
21.8565421926
  0
LINE
  5
2F2
100
AcDbEntity
  8
ASSI
100
AcDbLine
 62
253
  6
CONTINUOUS
 10
10.8609777033
 20
-20.9079895367
 11
10.8526015275
 21
-11.5632739553
  0
LINE
  5
2F3
100
AcDbEntity
  8
ASSI
100
AcDbLine
 62
253
  6
CONTINUOUS
 10
10.8526015275
 20
-11.5632739553
 11
10.8491398111
 21
-2.3133529014
  0
LINE
  5
2F4
100
AcDbEntity
  8
ASSI
100
AcDbLine
 62
7
  6
CONTINUOUS
 10
11.0
 20
-21.6001713375
 11
11.0
 21
21.6001713375
  0
LINE
  5
2F5
100
AcDbEntity
  8
ASSI
100
AcDbLine
 62
253
  6
CONTINUOUS
 10
10.8491398111
 20
-2.3133529014
 11
10.850293716
 21
6.9391039977
  0
LINE
  5
2F6
100
AcDbEntity
  8
ASSI
100
AcDbLine
 62
253
  6
CONTINUOUS
 10
10.850293716
 20
6.9391039977
 11
10.8560632433
 21
16.1864904124
  0
LINE
  5
2F7
100
AcDbEntity
  8
ASSI
100
AcDbLine
 62
253
  6
CONTINUOUS
 10
10.8560632433
 20
16.1864904124
 11
10.8609777043
 21
20.9079895385
  0
LINE
  5
2F8
100
AcDbEntity
  8
SIMBOLI
100
AcDbLine
 62
253
  6
CONTINUOUS
 10
1.619987
 20
-12.114066
 11
1.731114
 21
-12.062626
  0
LINE
  5
2F9
100
AcDbEntity
  8
SIMBOLI
100
AcDbLine
 62
253
  6
CONTINUOUS
 10
3.029272
 20
-12.114066
 11
3.140399
 21
-12.062626
  0
LWPOLYLINE
  5
2FA
100
AcDbEntity
  8
ASSI
100
AcDbPolyline
 62
253
  6
CONTINUOUS
 90
9
 70
0
 10
10.3787579837
 20
-21.9785866462
 10
10.3798376903
 20
-21.9732611502
 10
10.3809591364
 20
-21.961816367
 10
10.3820927674
 20
-21.9443141225
 10
10.3831870525
 20
-21.9208481042
 10
10.3842357081
 20
-21.8915410798
 10
10.3852779123
 20
-21.8565421922
 10
10.3862885334
 20
-21.8160293172
 10
10.3881668326
 20
-21.7193311081
  0
LWPOLYLINE
  5
2FB
100
AcDbEntity
  8
ASSI
100
AcDbPolyline
 62
253
  6
CONTINUOUS
 90
14
 70
0
 10
-10.4915558511
 20
20.8292924685
 10
-10.5383705218
 20
20.8285891189
 10
-10.5834651613
 20
20.8276936173
 10
-10.6264028384
 20
20.8266146406
 10
-10.6667675211
 20
20.8253626432
 10
-10.7041681075
 20
20.8239497558
 10
-10.7382422156
 20
20.8223896683
 10
-10.7686596944
 20
20.8206974967
 10
-10.7951258226
 20
20.8188896367
 10
-10.8173841644
 20
20.8169836052
 10
-10.8352190541
 20
20.81499787
 10
-10.8484576858
 20
20.8129516714
 10
-10.8569717877
 20
20.8108648353
 10
-10.8606788647
 20
20.8087575816
  0
LINE
  5
2FC
100
AcDbEntity
  8
ASSI
100
AcDbLine
 62
253
  6
CONTINUOUS
 10
-10.3945930753
 20
20.8300973803
 11
-10.4915558511
 21
20.8292924685
  0
LINE
  5
2FD
100
AcDbEntity
  8
ASSI
100
AcDbLine
 62
253
  6
CONTINUOUS
 10
10.3945930793
 20
20.8300973579
 11
-10.3945930754
 21
20.8300973557
  0
LWPOLYLINE
  5
2FE
100
AcDbEntity
  8
ASSI
100
AcDbPolyline
 62
253
  6
CONTINUOUS
 90
15
 70
0
 10
10.3945921764
 20
20.8300968079
 10
10.4915540004
 20
20.8292919243
 10
10.5383682579
 20
20.8285885979
 10
10.5834625441
 20
20.8276931255
 10
10.6263999404
 20
20.826614183
 10
10.6667644259
 20
20.8253622242
 10
10.7041649091
 20
20.8239493791
 10
10.7382390164
 20
20.8223893369
 10
10.7686566035
 20
20.8206972129
 10
10.7951229544
 20
20.818889402
 10
10.8173816364
 20
20.8169834201
 10
10.8352169849
 20
20.8149977343
 10
10.8484561933
 20
20.812951584
 10
10.8569709867
 20
20.8108647941
 10
10.8606788652
 20
20.8087575838
  0
LWPOLYLINE
  5
2FF
100
AcDbEntity
  8
ASSI
100
AcDbPolyline
 62
253
  6
CONTINUOUS
 90
16
 70
0
 10
-10.3787579837
 20
21.9785866462
 10
-10.4309822958
 20
21.9758150607
 10
-10.4826348433
 20
21.9676022309
 10
-10.5331501933
 20
21.9540380833
 10
-10.5819753805
 20
21.9352711172
 10
-10.6285759135
 20
21.9115067959
 10
-10.6724416329
 20
21.8830053123
 10
-10.7130923623
 20
21.8500787045
 10
-10.7500831414
 20
21.8130874351
 10
-10.7830090591
 20
21.7724364777
 10
-10.8115097155
 20
21.7285708599
 10
-10.8352731698
 20
21.681970775
 10
-10.8540393382
 20
21.6331463372
 10
-10.8676028346
 20
21.5826320105
 10
-10.8758152231
 20
21.5309807597
 10
-10.8785866462
 20
21.4787579837
  0
LINE
  5
300
100
AcDbEntity
  8
ASSI
100
AcDbLine
 62
253
  6
CONTINUOUS
 10
10.3787579847
 20
21.9785866472
 11
5.6765937904
 21
21.972095294
  0
LINE
  5
301
100
AcDbEntity
  8
ASSI
100
AcDbLine
 62
253
  6
CONTINUOUS
 10
5.6765937904
 20
21.972095294
 11
0.968674342
 21
21.9694078407
  0
LINE
  5
302
100
AcDbEntity
  8
ASSI
100
AcDbLine
 62
7
  6
CONTINUOUS
 10
-10.5001713375
 20
22.1
 11
10.5001713375
 21
22.1
  0
LINE
  5
303
100
AcDbEntity
  8
ASSI
100
AcDbLine
 62
253
  6
CONTINUOUS
 10
0.968674342
 20
21.9694078407
 11
-4.4187544824
 21
21.971003181
  0
LINE
  5
304
100
AcDbEntity
  8
ASSI
100
AcDbLine
 62
253
  6
CONTINUOUS
 10
-4.4187544824
 20
21.971003181
 11
-9.5639392195
 21
21.9772028009
  0
LINE
  5
305
100
AcDbEntity
  8
ASSI
100
AcDbLine
 62
253
  6
CONTINUOUS
 10
-9.5639392195
 20
21.9772028009
 11
-10.3787579846
 21
21.9785866471
  0
LWPOLYLINE
  5
306
100
AcDbEntity
  8
ASSI
100
AcDbPolyline
 62
253
  6
CONTINUOUS
 90
16
 70
0
 10
10.3787579847
 20
21.9785866472
 10
10.4309816109
 20
21.9758151344
 10
10.4826335626
 20
21.9676025054
 10
10.5331484236
 20
21.954038661
 10
10.5819732247
 20
21.9352720801
 10
10.6285734974
 20
21.9115081941
 10
10.6724391244
 20
21.8830071381
 10
10.7130899234
 20
21.8500809037
 10
10.750080904
 20
21.8130899231
 10
10.7830071383
 20
21.7724391241
 10
10.8115081942
 20
21.7285734971
 10
10.8352720802
 20
21.6819732244
 10
10.854038661
 20
21.6331484233
 10
10.8676025054
 20
21.5826335624
 10
10.8758151344
 20
21.5309816107
 10
10.8785866472
 20
21.4787579847
  0
LINE
  5
307
100
AcDbEntity
  8
ASSI
100
AcDbLine
 62
253
  6
CONTINUOUS
 10
-33.4689207889
 20
-20.8300973803
 11
-33.4631942125
 21
-20.8297968513
  0
LINE
  5
308
100
AcDbEntity
  8
ASSI
100
AcDbLine
 62
253
  6
CONTINUOUS
 10
-33.4631942125
 20
-20.8297968513
 11
-33.2595654975
 21
-20.8206974967
  0
LINE
  5
309
100
AcDbEntity
  8
ASSI
100
AcDbLine
 62
253
  6
CONTINUOUS
 10
-33.2595654975
 20
-20.8206974967
 11
-32.9836057979
 21
-20.8087575816
  0
LINE
  5
30A
100
AcDbEntity
  8
ASSI
100
AcDbLine
 62
253
  6
CONTINUOUS
 10
-33.8203004428
 20
-20.8322351558
 11
-33.4689207919
 21
-20.8300973565
  0
LINE
  5
30B
100
AcDbEntity
  8
ASSI
100
AcDbLine
 62
7
  6
CONTINUOUS
 10
-27.663146294
 20
-22.1
 11
-32.6533450243
 21
-21.9693270474
  0
LINE
  5
30C
100
AcDbEntity
  8
ASSI
100
AcDbLine
 62
253
  6
CONTINUOUS
 10
-27.663146294
 20
-21.6001713375
 11
-32.2997352141
 21
-21.4787579837
  0
LWPOLYLINE
  5
30D
100
AcDbEntity
  8
ASSI
100
AcDbPolyline
 62
253
  6
CONTINUOUS
 90
22
 70
0
 10
-32.2997352141
 20
-21.9785866462
 10
-32.3856123388
 20
-21.9732611502
 10
-32.4708698716
 20
-21.961816367
 10
-32.5550729902
 20
-21.9443141225
 10
-32.6377912598
 20
-21.9208481042
 10
-32.71860507
 20
-21.8915410798
 10
-32.7971070408
 20
-21.8565421922
 10
-32.872901429
 20
-21.8160293172
 10
-32.9455981131
 20
-21.7702126759
 10
-33.0148189475
 20
-21.7193311081
 10
-33.0802108799
 20
-21.6636481459
 10
-33.1414441675
 20
-21.6034492424
 10
-33.1982056025
 20
-21.5390434099
 10
-33.2502079088
 20
-21.4707608467
 10
-33.2971879871
 20
-21.3989522539
 10
-33.3389054579
 20
-21.3239867225
 10
-33.375147341
 20
-21.246254416
 10
-33.405735266
 20
-21.1661475642
 10
-33.4305190407
 20
-21.0840578305
 10
-33.4493717502
 20
-21.0003976967
 10
-33.4621945862
 20
-20.9155999213
 10
-33.4689208226
 20
-20.8300973576
  0
LWPOLYLINE
  5
30E
100
AcDbEntity
  8
ASSI
100
AcDbPolyline
 62
253
  6
CONTINUOUS
 90
22
 70
0
 10
-32.2997352141
 20
-21.4787579837
 10
-32.3501315874
 20
-21.4756119264
 10
-32.3997439022
 20
-21.4689862069
 10
-32.4485721585
 20
-21.4588808253
 10
-32.4968817721
 20
-21.4452075948
 10
-32.5444073271
 20
-21.4280547022
 10
-32.5903525763
 20
-21.4076867072
 10
-32.6346703601
 20
-21.3840545061
 10
-32.677407838
 20
-21.3572072027
 10
-32.7179102418
 20
-21.3275566688
 10
-32.7561431082
 20
-21.2950578133
 10
-32.7921409005
 20
-21.2597557272
 10
-32.8253522402
 20
-21.2221975563
 10
-32.8557311541
 20
-21.1823508489
 10
-32.8833236155
 20
-21.1402480566
 10
-32.9077161652
 20
-21.0965336799
 10
-32.9288613763
 20
-21.0511609064
 10
-32.9468066758
 20
-21.0041765485
 10
-32.9612808855
 20
-20.9563655433
 10
-32.9721936127
 20
-20.9079895367
 10
-32.9796352502
 20
-20.8587868828
 10
-32.9836057979
 20
-20.8087575816
  0
LINE
  5
30F
100
AcDbEntity
  8
SIMBOLI
100
AcDbLine
 62
253
  6
CONTINUOUS
 10
-34.1707669868
 20
-12.350084948
 11
-34.1724523875
 21
-12.3500906067
  0
LINE
  5
310
100
AcDbEntity
  8
SIMBOLI
100
AcDbLine
 62
253
  6
CONTINUOUS
 10
-34.1795821427
 20
-12.1170920479
 11
-34.1778915596
 21
-12.1170864018
  0
LINE
  5
311
100
AcDbEntity
  8
SIMBOLI
100
AcDbLine
 62
253
  6
CONTINUOUS
 10
-34.1935710761
 20
-11.6073168949
 11
-34.1947072147
 21
-11.6073206339
  0
LINE
  5
312
100
AcDbEntity
  8
SIMBOLI
100
AcDbLine
 62
253
  6
CONTINUOUS
 10
-34.2013233826
 20
-11.3771466306
 11
-34.2001840328
 21
-11.3771429109
  0
LINE
  5
313
100
AcDbEntity
  8
SIMBOLI
100
AcDbLine
 62
253
  6
CONTINUOUS
 10
-34.2133653891
 20
-10.8829035272
 11
-34.2150817767
 21
-10.8829090194
  0
LINE
  5
314
100
AcDbEntity
  8
SIMBOLI
100
AcDbLine
 62
253
  6
CONTINUOUS
 10
-34.2213558504
 20
-10.6499105841
 11
-34.2196349021
 21
-10.6499051367
  0
LWPOLYLINE
  5
315
100
AcDbEntity
  8
ASSI
100
AcDbPolyline
 62
253
  6
CONTINUOUS
 90
11
 70
0
 10
-32.2997351742
 20
21.9785866472
 10
-32.301030122
 20
21.9758151344
 10
-32.3021676198
 20
21.9676025054
 10
-32.3031352157
 20
21.954038661
 10
-32.3039223179
 20
21.9352720801
 10
-32.3045203101
 20
21.9115081941
 10
-32.304922646
 20
21.8830071381
 10
-32.3051249212
 20
21.8500809037
 10
-32.3051249215
 20
21.8130899231
 10
-32.304922647
 20
21.7724391241
 10
-32.3039223202
 20
21.6819732244
  0
LWPOLYLINE
  5
316
100
AcDbEntity
  8
ASSI
100
AcDbPolyline
 62
253
  6
CONTINUOUS
 90
9
 70
0
 10
-32.2997352141
 20
-21.9785866462
 10
-32.3010301828
 20
-21.9758150607
 10
-32.3021676949
 20
-21.9676022309
 10
-32.3031352991
 20
-21.9540380833
 10
-32.3039224041
 20
-21.9352711172
 10
-32.3045203939
 20
-21.9115067959
 10
-32.3049227224
 20
-21.8830053123
 10
-32.3051249866
 20
-21.8500787045
 10
-32.3051249741
 20
-21.8130874351
  0
LWPOLYLINE
  5
317
100
AcDbEntity
  8
SIMBOLI
100
AcDbPolyline
 62
253
  6
CONTINUOUS
 90
15
 70
0
 10
-34.1598812731
 20
-11.623184
 10
-34.160438003
 20
-11.621335757
 10
-34.1609977881
 20
-11.6192028933
 10
-34.1615606236
 20
-11.616786009
 10
-34.162126505
 20
-11.614085704
 10
-34.1626954274
 20
-11.6111025782
 10
-34.1632673861
 20
-11.6078372317
 10
-34.1638423939
 20
-11.6042900645
 10
-34.1644205331
 20
-11.6004606778
 10
-34.1650019038
 20
-11.5963484731
 10
-34.1655866059
 20
-11.5919528517
 10
-34.1661747392
 20
-11.587273215
 10
-34.1667664036
 20
-11.5823089643
 10
-34.1673616819
 20
-11.5770595934
 10
-34.1679605872
 20
-11.5715249657
  0
LINE
  5
318
100
AcDbEntity
  8
SIMBOLI
100
AcDbLine
 62
253
  6
CONTINUOUS
 10
-34.1930369071
 20
-11.369575012
 11
-34.1926142387
 21
-11.3735317628
  0
LWPOLYLINE
  5
319
100
AcDbEntity
  8
SIMBOLI
100
AcDbPolyline
 62
253
  6
CONTINUOUS
 90
5
 70
0
 10
-34.1908068791
 20
-11.3897701883
 10
-34.1901474575
 20
-11.3960142853
 10
-34.1898032566
 20
-11.3994654408
 10
-34.189447833
 20
-11.4032053193
 10
-34.1890790504
 20
-11.4073012416
  0
LINE
  5
31A
100
AcDbEntity
  8
SIMBOLI
100
AcDbLine
 62
253
  6
CONTINUOUS
 10
-34.1679605872
 20
-11.5715249657
 11
-34.1691692636
 21
-11.5595997624
  0
LINE
  5
31B
100
AcDbEntity
  8
SIMBOLI
100
AcDbLine
 62
253
  6
CONTINUOUS
 10
-34.193658823
 20
-11.3633868314
 11
-34.1930369071
 21
-11.369575012
  0
LWPOLYLINE
  5
31C
100
AcDbEntity
  8
SIMBOLI
100
AcDbPolyline
 62
253
  6
CONTINUOUS
 90
3
 70
0
 10
-34.1838035005
 20
-11.6320017016
 10
-34.1839313746
 20
-11.6306765333
 10
-34.1846954219
 20
-11.623184
  0
LWPOLYLINE
  5
31D
100
AcDbEntity
  8
SIMBOLI
100
AcDbPolyline
 62
253
  6
CONTINUOUS
 90
13
 70
0
 10
-34.1565592504
 20
-11.6479402984
 10
-34.1567412625
 20
-11.6460048001
 10
-34.1569221595
 20
-11.6441738103
 10
-34.1571019041
 20
-11.6424432323
 10
-34.1572804778
 20
-11.6408078336
 10
-34.157457862
 20
-11.6392623814
 10
-34.1576340382
 20
-11.637801643
 10
-34.157808988
 20
-11.6364203858
 10
-34.1580173539
 20
-11.6348595668
 10
-34.158224322
 20
-11.6333914755
 10
-34.1584302872
 20
-11.632001922
 10
-34.1586356443
 20
-11.6306767161
 10
-34.1588407881
 20
-11.6294016677
  0
LINE
  5
31E
100
AcDbEntity
  8
SIMBOLI
100
AcDbLine
 62
253
  6
CONTINUOUS
 10
-34.1691692636
 20
-11.5595997624
 11
-34.1703924015
 21
-11.546533
  0
LWPOLYLINE
  5
31F
100
AcDbEntity
  8
SIMBOLI
100
AcDbPolyline
 62
253
  6
CONTINUOUS
 90
28
 70
0
 10
-34.1534366393
 20
-12.0946683608
 10
-34.153059401
 20
-12.0989434053
 10
-34.1526886437
 20
-12.1028950992
 10
-34.1523243464
 20
-12.1065323279
 10
-34.1519664881
 20
-12.1098639769
 10
-34.1516150477
 20
-12.1128989314
 10
-34.1512700042
 20
-12.1156460768
 10
-34.1508642184
 20
-12.1185780114
 10
-34.1504666895
 20
-12.1211401939
 10
-34.1500764932
 20
-12.1233645224
 10
-34.149692705
 20
-12.1252828953
 10
-34.1493144006
 20
-12.1269272104
 10
-34.1489408563
 20
-12.1283217565
 10
-34.1485721509
 20
-12.1294603844
 10
-34.1482085641
 20
-12.1303293355
 10
-34.1478503755
 20
-12.130914851
 10
-34.1474978645
 20
-12.1312031723
 10
-34.1471513596
 20
-12.1311800269
 10
-34.1468113841
 20
-12.1308290867
 10
-34.14647851
 20
-12.1301335096
 10
-34.1461533093
 20
-12.1290764538
 10
-34.1458363541
 20
-12.1276410772
 10
-34.1455789573
 20
-12.1261431643
 10
-34.1453281417
 20
-12.1243573666
 10
-34.1450843653
 20
-12.1222702177
 10
-34.1448480861
 20
-12.1198682511
 10
-34.1446197619
 20
-12.1171380007
 10
-34.1443998509
 20
-12.114066
  0
LWPOLYLINE
  5
320
100
AcDbEntity
  8
SIMBOLI
100
AcDbPolyline
 62
253
  6
CONTINUOUS
 90
15
 70
0
 10
-34.1661898198
 20
-11.3854841613
 10
-34.1654093489
 20
-11.3897739885
 10
-34.1648778239
 20
-11.3928030549
 10
-34.1643366015
 20
-11.3960187114
 10
-34.1637850547
 20
-11.3994702467
 10
-34.163222228
 20
-11.4032105507
 10
-34.1626458534
 20
-11.4073069173
 10
-34.1620533351
 20
-11.4118302416
 10
-34.1615970532
 20
-11.4155447463
 10
-34.1611307129
 20
-11.4195642392
 10
-34.1606547969
 20
-11.423913666
 10
-34.1601697879
 20
-11.4286179728
 10
-34.1596762499
 20
-11.4336985309
 10
-34.1591750711
 20
-11.4391624132
 10
-34.1586672213
 20
-11.4450131181
  0
LWPOLYLINE
  5
321
100
AcDbEntity
  8
SIMBOLI
100
AcDbPolyline
 62
253
  6
CONTINUOUS
 90
10
 70
0
 10
-34.1846954219
 20
-11.623184
 10
-34.18501362
 20
-11.621335787
 10
-34.1853356177
 20
-11.6192029581
 10
-34.1856614169
 20
-11.616786112
 10
-34.1859910201
 20
-11.6140858472
 10
-34.1863244295
 20
-11.6111027623
 10
-34.1866616472
 20
-11.6078374561
 10
-34.1870026866
 20
-11.6042903272
 10
-34.1873476043
 20
-11.6004609749
 10
-34.1876964682
 20
-11.5963487986
  0
LINE
  5
322
100
AcDbEntity
  8
SIMBOLI
100
AcDbLine
 62
253
  6
CONTINUOUS
 10
-34.1590975845
 20
-11.6278552402
 11
-34.1598812731
 21
-11.623184
  0
LINE
  5
323
100
AcDbEntity
  8
SIMBOLI
100
AcDbLine
 62
253
  6
CONTINUOUS
 10
-34.1926142387
 20
-11.3735317628
 11
-34.1908068791
 21
-11.3897701883
  0
LWPOLYLINE
  5
324
100
AcDbEntity
  8
SIMBOLI
100
AcDbPolyline
 62
253
  6
CONTINUOUS
 90
32
 70
0
 10
-34.1766784808
 20
-10.8991186608
 10
-34.1770729143
 20
-10.8947703681
 10
-34.1775551698
 20
-10.8897653044
 10
-34.1780247431
 20
-10.8852351251
 10
-34.1784809006
 20
-10.8811768323
 10
-34.1789229085
 20
-10.8775874278
 10
-34.1793503094
 20
-10.8744580303
 10
-34.179763751
 20
-10.8717562249
 10
-34.180164157
 20
-10.8694437135
 10
-34.1805524515
 20
-10.8674821977
 10
-34.1809293752
 20
-10.865837004
 10
-34.1812949368
 20
-10.8644879575
 10
-34.1816489617
 20
-10.8634185077
 10
-34.1819912755
 20
-10.8626121042
 10
-34.182321871
 20
-10.8620564916
 10
-34.1826414095
 20
-10.8617565933
 10
-34.1829503275
 20
-10.8617214956
 10
-34.1832474936
 20
-10.8619597562
 10
-34.183531573
 20
-10.8624827969
 10
-34.1838019872
 20
-10.863314024
 10
-34.1840583466
 20
-10.8644798398
 10
-34.1843002617
 20
-10.866006647
 10
-34.1844830943
 20
-10.8675035138
 10
-34.1846560076
 20
-10.8692484201
 10
-34.184818576
 20
-10.8712414733
 10
-34.1849703738
 20
-10.8734827808
 10
-34.1851109756
 20
-10.87597245
 10
-34.1852400387
 20
-10.8787079356
 10
-34.1853575533
 20
-10.8816760808
 10
-34.1854635926
 20
-10.8848610763
 10
-34.1855582296
 20
-10.8882471124
 10
-34.1857136526
 20
-10.8955600488
  0
LWPOLYLINE
  5
325
100
AcDbEntity
  8
SIMBOLI
100
AcDbPolyline
 62
253
  6
CONTINUOUS
 90
13
 70
0
 10
-34.1729765251
 20
-11.3401421794
 10
-34.1726188046
 20
-11.3441079267
 10
-34.1722623734
 20
-11.3477684036
 10
-34.171909658
 20
-11.3510757412
 10
-34.1715623596
 20
-11.3540067753
 10
-34.1712193282
 20
-11.3566212357
 10
-34.1708785199
 20
-11.3590007718
 10
-34.1705371668
 20
-11.3612318161
 10
-34.1701928554
 20
-11.3633888672
 10
-34.1698453128
 20
-11.3654939043
 10
-34.1691416361
 20
-11.3695773978
 10
-34.1684270196
 20
-11.3735343641
 10
-34.1661898198
 20
-11.3854841613
  0
LINE
  5
326
100
AcDbEntity
  8
SIMBOLI
100
AcDbLine
 62
253
  6
CONTINUOUS
 10
-34.1561923526
 20
-11.6521218936
 11
-34.1565592504
 21
-11.6479402984
  0
LWPOLYLINE
  5
327
100
AcDbEntity
  8
SIMBOLI
100
AcDbPolyline
 62
253
  6
CONTINUOUS
 90
3
 70
0
 10
-34.1834099538
 20
-11.6364200572
 10
-34.1835431905
 20
-11.6348592721
 10
-34.1836742392
 20
-11.6333912174
  0
LINE
  5
328
100
AcDbEntity
  8
SIMBOLI
100
AcDbLine
 62
253
  6
CONTINUOUS
 10
-34.175868391
 20
-10.9087463668
 11
-34.1766784808
 21
-10.8991186608
  0
LINE
  5
329
100
AcDbEntity
  8
SIMBOLI
100
AcDbLine
 62
253
  6
CONTINUOUS
 10
-34.1890790504
 20
-11.4073012416
 11
-34.188394586
 21
-11.4155383468
  0
LINE
  5
32A
100
AcDbEntity
  8
SIMBOLI
100
AcDbLine
 62
253
  6
CONTINUOUS
 10
-34.1736862638
 20
-11.3315449079
 11
-34.1729765251
 21
-11.3401421794
  0
LINE
  5
32B
100
AcDbEntity
  8
SIMBOLI
100
AcDbLine
 62
253
  6
CONTINUOUS
 10
-34.1796977341
 20
-10.6912217941
 11
-34.1783966189
 21
-10.7070756836
  0
LINE
  5
32C
100
AcDbEntity
  8
SIMBOLI
100
AcDbLine
 62
253
  6
CONTINUOUS
 10
-34.154210146
 20
-12.0851338476
 11
-34.1534366393
 21
-12.0946683608
  0
LINE
  5
32D
100
AcDbEntity
  8
SIMBOLI
100
AcDbLine
 62
253
  6
CONTINUOUS
 10
-34.1558225036
 20
-11.6567070624
 11
-34.1561923526
 21
-11.6521218936
  0
LINE
  5
32E
100
AcDbEntity
  8
SIMBOLI
100
AcDbLine
 62
253
  6
CONTINUOUS
 10
-34.1831821764
 20
-11.6392620051
 11
-34.1832969923
 21
-11.6378012889
  0
LINE
  5
32F
100
AcDbEntity
  8
SIMBOLI
100
AcDbLine
 62
253
  6
CONTINUOUS
 10
-34.1586672213
 20
-11.4450131181
 11
-34.1576352193
 21
-11.4578896319
  0
LINE
  5
330
100
AcDbEntity
  8
SIMBOLI
100
AcDbLine
 62
253
  6
CONTINUOUS
 10
-34.1876964682
 20
-11.5963487986
 11
-34.1884063058
 21
-11.5872735716
  0
LWPOLYLINE
  5
331
100
AcDbEntity
  8
SIMBOLI
100
AcDbPolyline
 62
253
  6
CONTINUOUS
 90
23
 70
0
 10
-34.1732710587
 20
-12.1129007124
 10
-34.1730619368
 20
-12.1156477064
 10
-34.1728198804
 20
-12.1185794566
 10
-34.1725867075
 20
-12.1211414554
 10
-34.1723614651
 20
-12.1233656035
 10
-34.1721432
 20
-12.1252838018
 10
-34.171930959
 20
-12.1269279509
 10
-34.1717240046
 20
-12.1283223416
 10
-34.1715224616
 20
-12.1294608241
 10
-34.1713266705
 20
-12.1303296381
 10
-34.1711369717
 20
-12.1309150238
 10
-34.1709537055
 20
-12.1312032211
 10
-34.1707772446
 20
-12.1311799571
 10
-34.1706080897
 20
-12.1308289078
 10
-34.1704467736
 20
-12.1301332363
 10
-34.1702938293
 20
-12.1290761059
 10
-34.1701497896
 20
-12.1276406798
 10
-34.1700369634
 20
-12.1261427488
 10
-34.1699311213
 20
-12.1243569594
 10
-34.1698326935
 20
-12.1222698506
 10
-34.1697421103
 20
-12.1198679617
 10
-34.1696598021
 20
-12.1171378318
 10
-34.1695861991
 20
-12.114066
  0
LINE
  5
332
100
AcDbEntity
  8
SIMBOLI
100
AcDbLine
 62
253
  6
CONTINUOUS
 10
-34.1750328674
 20
-10.9196382109
 11
-34.175868391
 21
-10.9087463668
  0
LINE
  5
333
100
AcDbEntity
  8
SIMBOLI
100
AcDbLine
 62
253
  6
CONTINUOUS
 10
-34.188394586
 20
-11.4155383468
 11
-34.1877639437
 21
-11.4239067962
  0
LWPOLYLINE
  5
334
100
AcDbEntity
  8
SIMBOLI
100
AcDbPolyline
 62
253
  6
CONTINUOUS
 90
25
 70
0
 10
-34.2041401912
 20
-10.8852322361
 10
-34.2044381725
 20
-10.8811739292
 10
-34.2047218247
 20
-10.8775845742
 10
-34.2049910155
 20
-10.8744553042
 10
-34.2052465129
 20
-10.8717536907
 10
-34.20548931
 20
-10.8694414142
 10
-34.2057203998
 20
-10.8674801556
 10
-34.2059406336
 20
-10.8658352246
 10
-34.206150295
 20
-10.8644864481
 10
-34.2063495256
 20
-10.8634172819
 10
-34.2065384672
 20
-10.8626111822
 10
-34.2067172927
 20
-10.8620558985
 10
-34.2068862997
 20
-10.8617563552
 10
-34.2070456164
 20
-10.8617216414
 10
-34.2071945703
 20
-10.8619603296
 10
-34.2073323455
 20
-10.8624838533
 10
-34.2074583545
 20
-10.8633156073
 10
-34.2075720669
 20
-10.8644819763
 10
-34.2076729522
 20
-10.8660093451
 10
-34.2077440806
 20
-10.8675066551
 10
-34.2078064606
 20
-10.8692519871
 10
-34.207859893
 20
-10.871245437
 10
-34.2079041783
 20
-10.8734871007
 10
-34.2079391171
 20
-10.8759770741
 10
-34.2079807985
 20
-10.8816811222
  0
LINE
  5
335
100
AcDbEntity
  8
SIMBOLI
100
AcDbLine
 62
253
  6
CONTINUOUS
 10
-34.1554507604
 20
-11.6616828172
 11
-34.1558225036
 21
-11.6567070624
  0
LINE
  5
336
100
AcDbEntity
  8
SIMBOLI
100
AcDbLine
 62
253
  6
CONTINUOUS
 10
-34.1743803523
 20
-11.3222880337
 11
-34.1736862638
 21
-11.3315449079
  0
LINE
  5
337
100
AcDbEntity
  8
SIMBOLI
100
AcDbLine
 62
253
  6
CONTINUOUS
 10
-34.1783966189
 20
-10.7070756836
 11
-34.1770540223
 21
-10.7250357388
  0
LINE
  5
338
100
AcDbEntity
  8
SIMBOLI
100
AcDbLine
 62
253
  6
CONTINUOUS
 10
-34.1494644158
 20
-12.3051158498
 11
-34.1506478782
 21
-12.2892420459
  0
LINE
  5
339
100
AcDbEntity
  8
SIMBOLI
100
AcDbLine
 62
253
  6
CONTINUOUS
 10
-34.1550068462
 20
-12.0743263208
 11
-34.154210146
 21
-12.0851338476
  0
LINE
  5
33A
100
AcDbEntity
  8
SIMBOLI
100
AcDbLine
 62
253
  6
CONTINUOUS
 10
-34.1576352193
 20
-11.4578896319
 11
-34.1565839788
 21
-11.4723714918
  0
LINE
  5
33B
100
AcDbEntity
  8
SIMBOLI
100
AcDbLine
 62
253
  6
CONTINUOUS
 10
-34.1884063058
 20
-11.5872735716
 11
-34.1891327311
 21
-11.5770599339
  0
LINE
  5
33C
100
AcDbEntity
  8
SIMBOLI
100
AcDbLine
 62
253
  6
CONTINUOUS
 10
-34.1741749842
 20
-10.931813576
 11
-34.1750328674
 21
-10.9196382109
  0
LINE
  5
33D
100
AcDbEntity
  8
SIMBOLI
100
AcDbLine
 62
253
  6
CONTINUOUS
 10
-34.1550781953
 20
-11.6670288596
 11
-34.1554507604
 21
-11.6616828172
  0
LINE
  5
33E
100
AcDbEntity
  8
SIMBOLI
100
AcDbLine
 62
253
  6
CONTINUOUS
 10
-34.2090867268
 20
-10.6663114279
 11
-34.2082889632
 21
-10.6776230154
  0
LINE
  5
33F
100
AcDbEntity
  8
SIMBOLI
100
AcDbLine
 62
253
  6
CONTINUOUS
 10
-34.1770540223
 20
-10.7250357388
 11
-34.1756759886
 21
-10.7449876484
  0
LWPOLYLINE
  5
340
100
AcDbEntity
  8
SIMBOLI
100
AcDbPolyline
 62
253
  6
CONTINUOUS
 90
6
 70
0
 10
-34.1949150645
 20
-11.3477664869
 10
-34.1946932082
 20
-11.3510738763
 10
-34.1944788761
 20
-11.3540049546
 10
-34.1942706184
 20
-11.356619428
 10
-34.1940662272
 20
-11.3589989294
 10
-34.193658823
 20
-11.3633868314
  0
LINE
  5
341
100
AcDbEntity
  8
SIMBOLI
100
AcDbLine
 62
253
  6
CONTINUOUS
 10
-34.1877639437
 20
-11.4239067962
 11
-34.1870920952
 21
-11.4336914105
  0
LINE
  5
342
100
AcDbEntity
  8
SIMBOLI
100
AcDbLine
 62
253
  6
CONTINUOUS
 10
-34.1737104309
 20
-12.1065343852
 11
-34.1732710587
 21
-12.1129007124
  0
LINE
  5
343
100
AcDbEntity
  8
SIMBOLI
100
AcDbLine
 62
253
  6
CONTINUOUS
 10
-34.1827032287
 20
-11.6460043806
 11
-34.1829467534
 21
-11.6424428242
  0
LINE
  5
344
100
AcDbEntity
  8
SIMBOLI
100
AcDbLine
 62
253
  6
CONTINUOUS
 10
-34.1750627553
 20
-11.3123037409
 11
-34.1743803523
 21
-11.3222880337
  0
LINE
  5
345
100
AcDbEntity
  8
SIMBOLI
100
AcDbLine
 62
253
  6
CONTINUOUS
 10
-34.1558239256
 20
-12.0623017105
 11
-34.1550068462
 21
-12.0743263208
  0
LINE
  5
346
100
AcDbEntity
  8
SIMBOLI
100
AcDbLine
 62
253
  6
CONTINUOUS
 10
-34.1506478782
 20
-12.2892420459
 11
-34.1519937244
 21
-12.2692905528
  0
LINE
  5
347
100
AcDbEntity
  8
SIMBOLI
100
AcDbLine
 62
253
  6
CONTINUOUS
 10
-34.1565839788
 20
-11.4723714918
 11
-34.1556212568
 21
-11.486827877
  0
LINE
  5
348
100
AcDbEntity
  8
SIMBOLI
100
AcDbLine
 62
253
  6
CONTINUOUS
 10
-34.2035026714
 20
-10.8947676094
 11
-34.2041401912
 21
-10.8852322361
  0
LINE
  5
349
100
AcDbEntity
  8
SIMBOLI
100
AcDbLine
 62
253
  6
CONTINUOUS
 10
-34.1891327311
 20
-11.5770599339
 11
-34.1898760331
 21
-11.5657052991
  0
LINE
  5
34A
100
AcDbEntity
  8
SIMBOLI
100
AcDbLine
 62
253
  6
CONTINUOUS
 10
-34.1732963671
 20
-10.9452606864
 11
-34.1741749842
 21
-10.931813576
  0
LINE
  5
34B
100
AcDbEntity
  8
SIMBOLI
100
AcDbLine
 62
253
  6
CONTINUOUS
 10
-34.154520185
 20
-11.6756817186
 11
-34.1550781953
 21
-11.6670288596
  0
LINE
  5
34C
100
AcDbEntity
  8
SIMBOLI
100
AcDbLine
 62
253
  6
CONTINUOUS
 10
-34.1673410888
 20
-12.335121317
 11
-34.1680050546
 21
-12.3247290021
  0
LINE
  5
34D
100
AcDbEntity
  8
SIMBOLI
100
AcDbLine
 62
253
  6
CONTINUOUS
 10
-34.2082889632
 20
-10.6776230154
 11
-34.2074269574
 21
-10.6912408429
  0
LINE
  5
34E
100
AcDbEntity
  8
SIMBOLI
100
AcDbLine
 62
253
  6
CONTINUOUS
 10
-34.1568272791
 20
-12.0463496343
 11
-34.1558239256
 21
-12.0623017105
  0
LINE
  5
34F
100
AcDbEntity
  8
SIMBOLI
100
AcDbLine
 62
253
  6
CONTINUOUS
 10
-34.1756759886
 20
-10.7449876484
 11
-34.1735495487
 21
-10.7784446022
  0
LINE
  5
350
100
AcDbEntity
  8
SIMBOLI
100
AcDbLine
 62
253
  6
CONTINUOUS
 10
-34.1870920952
 20
-11.4336914105
 11
-34.186380953
 21
-11.4450060702
  0
LINE
  5
351
100
AcDbEntity
  8
SIMBOLI
100
AcDbLine
 62
253
  6
CONTINUOUS
 10
-34.1757355994
 20
-11.3015177235
 11
-34.1750627553
 21
-11.3123037409
  0
LINE
  5
352
100
AcDbEntity
  8
SIMBOLI
100
AcDbLine
 62
253
  6
CONTINUOUS
 10
-34.1519937244
 20
-12.2692905528
 11
-34.1535063692
 21
-12.2447365917
  0
LINE
  5
353
100
AcDbEntity
  8
SIMBOLI
100
AcDbLine
 62
253
  6
CONTINUOUS
 10
-34.1741790327
 20
-12.0989456667
 11
-34.1737104309
 21
-12.1065343852
  0
LINE
  5
354
100
AcDbEntity
  8
SIMBOLI
100
AcDbLine
 62
253
  6
CONTINUOUS
 10
-34.1823224507
 20
-11.6521215016
 11
-34.1827032287
 21
-11.6460043806
  0
LINE
  5
355
100
AcDbEntity
  8
SIMBOLI
100
AcDbLine
 62
253
  6
CONTINUOUS
 10
-34.2029543665
 20
-10.9037735783
 11
-34.2035026714
 21
-10.8947676094
  0
LINE
  5
356
100
AcDbEntity
  8
SIMBOLI
100
AcDbLine
 62
253
  6
CONTINUOUS
 10
-34.1703924015
 20
-11.546533
 11
-34.1756025204
 21
-11.458806
  0
LWPOLYLINE
  5
357
100
AcDbEntity
  8
SIMBOLI
100
AcDbPolyline
 62
253
  6
CONTINUOUS
 90
3
 70
0
 10
-34.1556212568
 20
-11.486827877
 10
-34.154308994
 20
-11.5083996157
 10
-34.1538626925
 20
-11.516239
  0
LINE
  5
358
100
AcDbEntity
  8
SIMBOLI
100
AcDbLine
 62
253
  6
CONTINUOUS
 10
-34.1953760466
 20
-11.3401402662
 11
-34.1949150645
 21
-11.3477664869
  0
LINE
  5
359
100
AcDbEntity
  8
SIMBOLI
100
AcDbLine
 62
253
  6
CONTINUOUS
 10
-34.1719413133
 20
-10.9678009252
 11
-34.1732963671
 21
-10.9452606864
  0
LINE
  5
35A
100
AcDbEntity
  8
SIMBOLI
100
AcDbLine
 62
253
  6
CONTINUOUS
 10
-34.1898760331
 20
-11.5657052991
 11
-34.1910227292
 21
-11.546533
  0
LINE
  5
35B
100
AcDbEntity
  8
SIMBOLI
100
AcDbLine
 62
253
  6
CONTINUOUS
 10
-34.1539644837
 20
-11.6850544134
 11
-34.154520185
 21
-11.6756817186
  0
LWPOLYLINE
  5
35C
100
AcDbEntity
  8
SIMBOLI
100
AcDbPolyline
 62
253
  6
CONTINUOUS
 90
3
 70
0
 10
-34.1735495487
 20
-10.7784446022
 10
-34.1713436564
 20
-10.8162592459
 10
-34.1705848561
 20
-10.829954
  0
LINE
  5
35D
100
AcDbEntity
  8
SIMBOLI
100
AcDbLine
 62
253
  6
CONTINUOUS
 10
-34.1680050546
 20
-12.3247290021
 11
-34.1687205093
 21
-12.3122057477
  0
LINE
  5
35E
100
AcDbEntity
  8
SIMBOLI
100
AcDbLine
 62
253
  6
CONTINUOUS
 10
-34.1583680527
 20
-12.0195668183
 11
-34.1568272791
 21
-12.0463496343
  0
LINE
  5
35F
100
AcDbEntity
  8
SIMBOLI
100
AcDbLine
 62
253
  6
CONTINUOUS
 10
-34.1746780643
 20
-12.090066077
 11
-34.1741790327
 21
-12.0989456667
  0
LINE
  5
360
100
AcDbEntity
  8
SIMBOLI
100
AcDbLine
 62
253
  6
CONTINUOUS
 10
-34.2074269574
 20
-10.6912408429
 11
-34.2060251911
 21
-10.71582021
  0
LINE
  5
361
100
AcDbEntity
  8
SIMBOLI
100
AcDbLine
 62
253
  6
CONTINUOUS
 10
-34.1819250608
 20
-11.6591467059
 11
-34.1823224507
 21
-11.6521215016
  0
LINE
  5
362
100
AcDbEntity
  8
SIMBOLI
100
AcDbLine
 62
253
  6
CONTINUOUS
 10
-34.186380953
 20
-11.4450060702
 11
-34.1852488295
 21
-11.4649202356
  0
LINE
  5
363
100
AcDbEntity
  8
SIMBOLI
100
AcDbLine
 62
253
  6
CONTINUOUS
 10
-34.1535063692
 20
-12.2447365917
 11
-34.1558408013
 21
-12.2029254364
  0
LINE
  5
364
100
AcDbEntity
  8
SIMBOLI
100
AcDbLine
 62
253
  6
CONTINUOUS
 10
-34.2020718417
 20
-10.9196360793
 11
-34.2029543665
 21
-10.9037735783
  0
LWPOLYLINE
  5
365
100
AcDbEntity
  8
SIMBOLI
100
AcDbPolyline
 62
253
  6
CONTINUOUS
 90
3
 70
0
 10
-34.1767302193
 20
-11.283726
 10
-34.1763992895
 20
-11.2898985427
 10
-34.1757355994
 20
-11.3015177235
  0
LINE
  5
366
100
AcDbEntity
  8
SIMBOLI
100
AcDbLine
 62
253
  6
CONTINUOUS
 10
-34.1534049667
 20
-11.695268
 11
-34.1539644837
 21
-11.6850544134
  0
LINE
  5
367
100
AcDbEntity
  8
SIMBOLI
100
AcDbLine
 62
253
  6
CONTINUOUS
 10
-34.1705328766
 20
-10.993472
 11
-34.1719413133
 21
-10.9678009252
  0
LINE
  5
368
100
AcDbEntity
  8
SIMBOLI
100
AcDbLine
 62
253
  6
CONTINUOUS
 10
-34.1960825549
 20
-11.326992793
 11
-34.1953760466
 21
-11.3401402662
  0
LINE
  5
369
100
AcDbEntity
  8
SIMBOLI
100
AcDbLine
 62
253
  6
CONTINUOUS
 10
-34.1813742298
 20
-11.6698319352
 11
-34.1819250608
 21
-11.6591467059
  0
LINE
  5
36A
100
AcDbEntity
  8
SIMBOLI
100
AcDbLine
 62
253
  6
CONTINUOUS
 10
-34.1754822542
 20
-12.0743285616
 11
-34.1746780643
 21
-12.090066077
  0
LINE
  5
36B
100
AcDbEntity
  8
SIMBOLI
100
AcDbLine
 62
253
  6
CONTINUOUS
 10
-34.2060251911
 20
-10.71582021
 11
-34.2039838166
 21
-10.7556964934
  0
LINE
  5
36C
100
AcDbEntity
  8
SIMBOLI
100
AcDbLine
 62
253
  6
CONTINUOUS
 10
-34.1687205093
 20
-12.3122057477
 11
-34.169891332
 21
-12.2892333558
  0
LWPOLYLINE
  5
36D
100
AcDbEntity
  8
SIMBOLI
100
AcDbPolyline
 62
253
  6
CONTINUOUS
 90
3
 70
0
 10
-34.1558408013
 20
-12.2029254364
 10
-34.1582422822
 20
-12.1554163509
 10
-34.1590599892
 20
-12.138273
  0
LWPOLYLINE
  5
36E
100
AcDbEntity
  8
SIMBOLI
100
AcDbPolyline
 62
253
  6
CONTINUOUS
 90
3
 70
0
 10
-34.1610063825
 20
-11.967982
 10
-34.1604711173
 20
-11.9789945349
 10
-34.1583680527
 20
-12.0195668183
  0
LINE
  5
36F
100
AcDbEntity
  8
SIMBOLI
100
AcDbLine
 62
253
  6
CONTINUOUS
 10
-34.1852488295
 20
-11.4649202356
 11
-34.1837894356
 21
-11.4937069448
  0
LINE
  5
370
100
AcDbEntity
  8
SIMBOLI
100
AcDbLine
 62
253
  6
CONTINUOUS
 10
-34.2007908041
 20
-10.9452598995
 11
-34.2020718417
 21
-10.9196360793
  0
LINE
  5
371
100
AcDbEntity
  8
SIMBOLI
100
AcDbLine
 62
253
  6
CONTINUOUS
 10
-34.1538626925
 20
-11.516239
 11
-34.1469159165
 21
-11.66408
  0
LINE
  5
372
100
AcDbEntity
  8
SIMBOLI
100
AcDbLine
 62
253
  6
CONTINUOUS
 10
-34.1967925528
 20
-11.3123030822
 11
-34.1960825549
 21
-11.326992793
  0
LINE
  5
373
100
AcDbEntity
  8
SIMBOLI
100
AcDbLine
 62
253
  6
CONTINUOUS
 10
-34.1500160375
 20
-11.769382
 11
-34.1534049667
 21
-11.695268
  0
LINE
  5
374
100
AcDbEntity
  8
SIMBOLI
100
AcDbLine
 62
253
  6
CONTINUOUS
 10
-34.1837894356
 20
-11.4937069448
 11
-34.1827470827
 21
-11.516239
  0
LINE
  5
375
100
AcDbEntity
  8
SIMBOLI
100
AcDbLine
 62
253
  6
CONTINUOUS
 10
-34.1806613521
 20
-11.6850543283
 11
-34.1813742298
 21
-11.6698319352
  0
LWPOLYLINE
  5
376
100
AcDbEntity
  8
SIMBOLI
100
AcDbPolyline
 62
253
  6
CONTINUOUS
 90
3
 70
0
 10
-34.2039838166
 20
-10.7556964934
 10
-34.2011794444
 20
-10.816262984
 10
-34.2005788958
 20
-10.829954
  0
LINE
  5
377
100
AcDbEntity
  8
SIMBOLI
100
AcDbLine
 62
253
  6
CONTINUOUS
 10
-34.1767692178
 20
-12.046351267
 11
-34.1754822542
 21
-12.0743285616
  0
LINE
  5
378
100
AcDbEntity
  8
SIMBOLI
100
AcDbLine
 62
253
  6
CONTINUOUS
 10
-34.169891332
 20
-12.2892333558
 11
-34.1718925386
 21
-12.2447242458
  0
LINE
  5
379
100
AcDbEntity
  8
SIMBOLI
100
AcDbLine
 62
253
  6
CONTINUOUS
 10
-34.1802169447
 20
-11.695268
 11
-34.1806613521
 21
-11.6850543283
  0
LINE
  5
37A
100
AcDbEntity
  8
SIMBOLI
100
AcDbLine
 62
253
  6
CONTINUOUS
 10
-34.1910227292
 20
-11.546533
 11
-34.1947405996
 21
-11.458806
  0
LWPOLYLINE
  5
37B
100
AcDbEntity
  8
SIMBOLI
100
AcDbPolyline
 62
253
  6
CONTINUOUS
 90
3
 70
0
 10
-34.1986493746
 20
-10.993472
 10
-34.1990270277
 20
-10.9845368215
 10
-34.2007908041
 20
-10.9452598995
  0
LINE
  5
37C
100
AcDbEntity
  8
SIMBOLI
100
AcDbLine
 62
253
  6
CONTINUOUS
 10
-34.1796032389
 20
-11.215713
 11
-34.1767302193
 21
-11.283726
  0
LINE
  5
37D
100
AcDbEntity
  8
SIMBOLI
100
AcDbLine
 62
253
  6
CONTINUOUS
 10
-34.1756025204
 20
-11.458806
 11
-34.1812515169
 21
-11.320088
  0
LWPOLYLINE
  5
37E
100
AcDbEntity
  8
SIMBOLI
100
AcDbPolyline
 62
253
  6
CONTINUOUS
 90
3
 70
0
 10
-34.198008318
 20
-11.283726
 10
-34.1977601511
 20
-11.2898985161
 10
-34.1967925528
 20
-11.3123030822
  0
LINE
  5
37F
100
AcDbEntity
  8
SIMBOLI
100
AcDbLine
 62
253
  6
CONTINUOUS
 10
-34.1827470827
 20
-11.516239
 11
-34.1768827457
 21
-11.66408
  0
LINE
  5
380
100
AcDbEntity
  8
SIMBOLI
100
AcDbLine
 62
253
  6
CONTINUOUS
 10
-34.1790944402
 20
-11.9896563314
 11
-34.1767692178
 21
-12.046351267
  0
LINE
  5
381
100
AcDbEntity
  8
SIMBOLI
100
AcDbLine
 62
253
  6
CONTINUOUS
 10
-34.1773551557
 20
-11.769382
 11
-34.1802169447
 21
-11.695268
  0
LWPOLYLINE
  5
382
100
AcDbEntity
  8
ASSI
100
AcDbPolyline
 62
253
  6
CONTINUOUS
 90
10
 70
0
 10
-33.4689207919
 20
-20.8300973565
 10
-33.6450461563
 20
-16.203779131
 10
-33.7771805441
 20
-11.5756742786
 10
-33.8652926428
 20
-6.9462030007
 10
-33.9093578796
 20
-2.3155769551
 10
-33.9093578958
 20
2.315573568
 10
-33.8652926863
 20
6.9461999527
 10
-33.7771806004
 20
11.5756719087
 10
-33.6450462013
 20
16.2037777778
 10
-33.4689207916
 20
20.8300973579
  0
LWPOLYLINE
  5
383
100
AcDbEntity
  8
ASSI
100
AcDbPolyline
 62
253
  6
CONTINUOUS
 90
10
 70
0
 10
-32.9836057979
 20
-20.8087575816
 10
-33.1598692626
 20
-16.1864912143
 10
-33.2920668634
 20
-11.5632739553
 10
-33.3801986002
 20
-6.9391058046
 10
-33.4242644769
 20
-2.3133529014
 10
-33.4242644897
 20
2.3133508934
 10
-33.3801986272
 20
6.9391039977
 10
-33.2920668856
 20
11.5632725504
 10
-33.1598692687
 20
16.1864904124
 10
-32.9836057766
 20
20.8087575838
  0
LINE
  5
384
100
AcDbEntity
  8
SIMBOLI
100
AcDbLine
 62
253
  6
CONTINUOUS
 10
-34.1799234197
 20
-11.967982
 11
-34.1790944402
 21
-11.9896563314
  0
LWPOLYLINE
  5
385
100
AcDbEntity
  8
SIMBOLI
100
AcDbPolyline
 62
253
  6
CONTINUOUS
 90
3
 70
0
 10
-34.1718925386
 20
-12.2447242458
 10
-34.1754275635
 20
-12.1554124453
 10
-34.1760629381
 20
-12.138273
  0
LINE
  5
386
100
AcDbEntity
  8
SIMBOLI
100
AcDbLine
 62
253
  6
CONTINUOUS
 10
-34.2003715425
 20
-11.215713
 11
-34.198008318
 21
-11.283726
  0
LINE
  5
387
100
AcDbEntity
  8
SIMBOLI
100
AcDbLine
 62
253
  6
CONTINUOUS
 10
-34.1947405996
 20
-11.458806
 11
-34.1994062723
 21
-11.320088
  0
LINE
  5
388
100
AcDbEntity
  8
SIMBOLI
100
AcDbLine
 62
253
  6
CONTINUOUS
 10
-34.1469159165
 20
-11.66408
 11
-34.1401908456
 21
-11.864986
  0
LINE
  5
389
100
AcDbEntity
  8
SIMBOLI
100
AcDbLine
 62
253
  6
CONTINUOUS
 10
-34.1466480051
 20
-11.870811
 11
-34.1500160375
 21
-11.769382
  0
LINE
  5
38A
100
AcDbEntity
  8
SIMBOLI
100
AcDbLine
 62
253
  6
CONTINUOUS
 10
-34.1741358343
 20
-11.870811
 11
-34.1773551557
 21
-11.769382
  0
LINE
  5
38B
100
AcDbEntity
  8
SIMBOLI
100
AcDbLine
 62
253
  6
CONTINUOUS
 10
-34.1824159427
 20
-11.125614
 11
-34.1796032389
 21
-11.215713
  0
LINE
  5
38C
100
AcDbEntity
  8
SIMBOLI
100
AcDbLine
 62
253
  6
CONTINUOUS
 10
-34.1812515169
 20
-11.320088
 11
-34.1869739752
 21
-11.134727
  0
LINE
  5
38D
100
AcDbEntity
  8
SIMBOLI
100
AcDbLine
 62
253
  6
CONTINUOUS
 10
-34.1778914203
 20
-12.117091
 11
-34.1707668309
 21
-12.35009
  0
LWPOLYLINE
  5
38E
100
AcDbEntity
  8
ASSI
100
AcDbPolyline
 62
7
  6
CONTINUOUS
 90
4
 70
0
 10
-34.2263272534
 20
-10.4616022392
 10
-34.1199477852
 20
-13.9464551137
 10
-33.9832000514
 20
-17.430248501
 10
-33.8203004435
 20
-20.832235143
  0
LINE
  5
38F
100
AcDbEntity
  8
SIMBOLI
100
AcDbLine
 62
253
  6
CONTINUOUS
 10
-34.200183945
 20
-11.377146
 11
-34.193570986
 21
-11.60732
  0
LINE
  5
390
100
AcDbEntity
  8
SIMBOLI
100
AcDbLine
 62
253
  6
CONTINUOUS
 10
-34.1768827457
 20
-11.66408
 11
-34.1686271149
 21
-11.9289533026
  0
LINE
  5
391
100
AcDbEntity
  8
SIMBOLI
100
AcDbLine
 62
253
  6
CONTINUOUS
 10
-34.2196347727
 20
-10.64991
 11
-34.2133652675
 21
-10.882908
  0
LINE
  5
392
100
AcDbEntity
  8
SIMBOLI
100
AcDbLine
 62
253
  6
CONTINUOUS
 10
-34.1994062723
 20
-11.320088
 11
-34.2085545333
 21
-10.995419
  0
LINE
  5
393
100
AcDbEntity
  8
SIMBOLI
100
AcDbLine
 62
253
  6
CONTINUOUS
 10
-34.1712112329
 20
-11.980379
 11
-34.1741358343
 21
-11.870811
  0
LINE
  5
394
100
AcDbEntity
  8
SIMBOLI
100
AcDbLine
 62
253
  6
CONTINUOUS
 10
-34.204952625
 20
-11.053108
 11
-34.2003715425
 21
-11.215713
  0
LINE
  5
395
100
AcDbEntity
  8
SIMBOLI
100
AcDbLine
 62
253
  6
CONTINUOUS
 10
-34.1401908456
 20
-11.864986
 11
-34.1378832255
 21
-11.9501831952
  0
LINE
  5
396
100
AcDbEntity
  8
SIMBOLI
100
AcDbLine
 62
253
  6
CONTINUOUS
 10
-34.1869739752
 20
-11.134727
 11
-34.1904805382
 21
-10.995419
  0
LINE
  5
397
100
AcDbEntity
  8
SIMBOLI
100
AcDbLine
 62
253
  6
CONTINUOUS
 10
-34.1842195837
 20
-11.053108
 11
-34.1824159427
 21
-11.125614
  0
LINE
  5
398
100
AcDbEntity
  8
SIMBOLI
100
AcDbLine
 62
253
  6
CONTINUOUS
 10
-34.1440151441
 20
-11.980379
 11
-34.1466480051
 21
-11.870811
  0
LINE
  5
399
100
AcDbEntity
  8
SIMBOLI
100
AcDbLine
 62
253
  6
CONTINUOUS
 10
-34.1686271149
 20
-11.9289533026
 11
-34.1651330709
 21
-12.0665268244
  0
LINE
  5
39A
100
AcDbEntity
  8
SIMBOLI
100
AcDbLine
 62
253
  6
CONTINUOUS
 10
-34.1760629381
 20
-12.138273
 11
-34.1799234197
 21
-11.967982
  0
LINE
  5
39B
100
AcDbEntity
  8
SIMBOLI
100
AcDbLine
 62
253
  6
CONTINUOUS
 10
-34.2085545333
 20
-10.995419
 11
-34.2135284415
 21
-10.773196
  0
LINE
  5
39C
100
AcDbEntity
  8
SIMBOLI
100
AcDbLine
 62
253
  6
CONTINUOUS
 10
-34.1378832255
 20
-11.9501831952
 11
-34.1360007945
 21
-12.0341858915
  0
LINE
  5
39D
100
AcDbEntity
  8
SIMBOLI
100
AcDbLine
 62
253
  6
CONTINUOUS
 10
-34.2074827676
 20
-10.935694
 11
-34.204952625
 21
-11.053108
  0
LINE
  5
39E
100
AcDbEntity
  8
SIMBOLI
100
AcDbLine
 62
253
  6
CONTINUOUS
 10
-34.1904805382
 20
-10.995419
 11
-34.1928241434
 21
-10.873597
  0
LINE
  5
39F
100
AcDbEntity
  8
SIMBOLI
100
AcDbLine
 62
253
  6
CONTINUOUS
 10
-34.1651330709
 20
-12.0665268244
 11
-34.1633070679
 21
-12.1545736564
  0
LINE
  5
3A0
100
AcDbEntity
  8
SIMBOLI
100
AcDbLine
 62
253
  6
CONTINUOUS
 10
-34.1854064046
 20
-10.989026
 11
-34.1842195837
 21
-11.053108
  0
LINE
  5
3A1
100
AcDbEntity
  8
SIMBOLI
100
AcDbLine
 62
253
  6
CONTINUOUS
 10
-34.1697024176
 20
-12.062626
 11
-34.1712112329
 21
-11.980379
  0
LINE
  5
3A2
100
AcDbEntity
  8
SIMBOLI
100
AcDbLine
 62
253
  6
CONTINUOUS
 10
-34.1360007945
 20
-12.0341858915
 11
-34.1348885619
 21
-12.0975876557
  0
LINE
  5
3A3
100
AcDbEntity
  8
SIMBOLI
100
AcDbLine
 62
253
  6
CONTINUOUS
 10
-34.1633070679
 20
-12.1545736564
 11
-34.1624031553
 21
-12.209938292
  0
LINE
  5
3A4
100
AcDbEntity
  8
SIMBOLI
100
AcDbLine
 62
253
  6
CONTINUOUS
 10
-34.2135284415
 20
-10.773196
 11
-34.2142727984
 21
-10.7239964325
  0
LINE
  5
3A5
100
AcDbEntity
  8
SIMBOLI
100
AcDbLine
 62
253
  6
CONTINUOUS
 10
-34.2078128192
 20
-10.9120260634
 11
-34.2074827676
 21
-10.935694
  0
LINE
  5
3A6
100
AcDbEntity
  8
SIMBOLI
100
AcDbLine
 62
253
  6
CONTINUOUS
 10
-34.2005788958
 20
-10.829954
 11
-34.1986493746
 21
-10.993472
  0
LINE
  5
3A7
100
AcDbEntity
  8
SIMBOLI
100
AcDbLine
 62
253
  6
CONTINUOUS
 10
-34.1928241434
 20
-10.873597
 11
-34.1939172473
 21
-10.773196
  0
LINE
  5
3A8
100
AcDbEntity
  8
SIMBOLI
100
AcDbLine
 62
253
  6
CONTINUOUS
 10
-34.1590599892
 20
-12.138273
 11
-34.1610063825
 21
-11.967982
  0
LINE
  5
3A9
100
AcDbEntity
  8
SIMBOLI
100
AcDbLine
 62
253
  6
CONTINUOUS
 10
-34.1348885619
 20
-12.0975876557
 11
-34.1341808741
 21
-12.1545753753
  0
LINE
  5
3AA
100
AcDbEntity
  8
SIMBOLI
100
AcDbLine
 62
253
  6
CONTINUOUS
 10
-34.1859232315
 20
-10.935694
 11
-34.1854064046
 21
-10.989026
  0
LINE
  5
3AB
100
AcDbEntity
  8
SIMBOLI
100
AcDbLine
 62
253
  6
CONTINUOUS
 10
-34.1624031553
 20
-12.209938292
 11
-34.1618510732
 21
-12.2572377369
  0
LINE
  5
3AC
100
AcDbEntity
  8
SIMBOLI
100
AcDbLine
 62
253
  6
CONTINUOUS
 10
-34.143294238
 20
-12.062626
 11
-34.1440151441
 21
-11.980379
  0
LINE
  5
3AD
100
AcDbEntity
  8
SIMBOLI
100
AcDbLine
 62
253
  6
CONTINUOUS
 10
-34.2142727984
 20
-10.7239964325
 11
-34.2145316024
 21
-10.6984727795
  0
LINE
  5
3AE
100
AcDbEntity
  8
SIMBOLI
100
AcDbLine
 62
253
  6
CONTINUOUS
 10
-34.207958636
 20
-10.8955650665
 11
-34.2078128192
 21
-10.9120260634
  0
LINE
  5
3AF
100
AcDbEntity
  8
SIMBOLI
100
AcDbLine
 62
253
  6
CONTINUOUS
 10
-34.1341808741
 20
-12.1545753753
 11
-34.1338974681
 21
-12.1954585015
  0
LINE
  5
3B0
100
AcDbEntity
  8
SIMBOLI
100
AcDbLine
 62
253
  6
CONTINUOUS
 10
-34.1618510732
 20
-12.2572377369
 11
-34.1616654623
 21
-12.2848182321
  0
LINE
  5
3B1
100
AcDbEntity
  8
SIMBOLI
100
AcDbLine
 62
253
  6
CONTINUOUS
 10
-34.2145316024
 20
-10.6984727795
 11
-34.2146140395
 21
-10.6833793142
  0
LINE
  5
3B2
100
AcDbEntity
  8
SIMBOLI
100
AcDbLine
 62
253
  6
CONTINUOUS
 10
-34.2079865484
 20
-10.8882522928
 11
-34.207958636
 21
-10.8955650665
  0
LINE
  5
3B3
100
AcDbEntity
  8
SIMBOLI
100
AcDbLine
 62
253
  6
CONTINUOUS
 10
-34.1695861991
 20
-12.114066
 11
-34.1697024176
 21
-12.062626
  0
LINE
  5
3B4
100
AcDbEntity
  8
SIMBOLI
100
AcDbLine
 62
253
  6
CONTINUOUS
 10
-34.1338974681
 20
-12.1954585015
 11
-34.1338442847
 21
-12.2238005643
  0
LINE
  5
3B5
100
AcDbEntity
  8
SIMBOLI
100
AcDbLine
 62
253
  6
CONTINUOUS
 10
-34.1939172473
 20
-10.773196
 11
-34.1939803741
 21
-10.7426602087
  0
LINE
  5
3B6
100
AcDbEntity
  8
SIMBOLI
100
AcDbLine
 62
253
  6
CONTINUOUS
 10
-34.1859382072
 20
-10.9233839651
 11
-34.1859232315
 21
-10.935694
  0
LINE
  5
3B7
100
AcDbEntity
  8
SIMBOLI
100
AcDbLine
 62
253
  6
CONTINUOUS
 10
-34.1705848561
 20
-10.829954
 11
-34.1705328766
 21
-10.993472
  0
LINE
  5
3B8
100
AcDbEntity
  8
SIMBOLI
100
AcDbLine
 62
253
  6
CONTINUOUS
 10
-34.1616654623
 20
-12.2848182321
 11
-34.1616343651
 21
-12.3090193625
  0
LWPOLYLINE
  5
3B9
100
AcDbEntity
  8
SIMBOLI
100
AcDbPolyline
 62
253
  6
CONTINUOUS
 90
25
 70
0
 10
-34.2146140395
 20
-10.6833793142
 10
-34.2146170653
 20
-10.6701276064
 10
-34.2145870752
 20
-10.6642774267
 10
-34.2145356797
 20
-10.6589709791
 10
-34.2144627915
 20
-10.6542204234
 10
-34.2143683229
 20
-10.6500379193
 10
-34.2142522855
 20
-10.6464302884
 10
-34.2141150864
 20
-10.6433829984
 10
-34.2139572317
 20
-10.6408761789
 10
-34.2137792278
 20
-10.6388899594
 10
-34.213581579
 20
-10.6374050018
 10
-34.2133647835
 20
-10.6364040979
 10
-34.2131293378
 20
-10.6358705721
 10
-34.2128757381
 20
-10.6357877485
 10
-34.212604319
 20
-10.6361464342
 10
-34.2123147668
 20
-10.6369673665
 10
-34.2120066061
 20
-10.6382787655
 10
-34.2116793612
 20
-10.6401088514
 10
-34.2113324992
 20
-10.6424869034
 10
-34.2109652575
 20
-10.6454464374
 10
-34.210576816
 20
-10.6490220287
 10
-34.2101663546
 20
-10.6532482524
 10
-34.2098215886
 20
-10.6571230974
 10
-34.2094618358
 20
-10.6614672358
 10
-34.2090867268
 20
-10.6663114279
  0
LINE
  5
3BA
100
AcDbEntity
  8
SIMBOLI
100
AcDbLine
 62
253
  6
CONTINUOUS
 10
-34.2079807985
 20
-10.8816811222
 11
-34.2079865484
 21
-10.8882522928
  0
LINE
  5
3BB
100
AcDbEntity
  8
SIMBOLI
100
AcDbLine
 62
253
  6
CONTINUOUS
 10
-34.1338442847
 20
-12.2238005643
 11
-34.1339115349
 21
-12.2473355099
  0
LINE
  5
3BC
100
AcDbEntity
  8
SIMBOLI
100
AcDbLine
 62
253
  6
CONTINUOUS
 10
-34.1939803741
 20
-10.7426602087
 11
-34.1939192154
 21
-10.7240107793
  0
LINE
  5
3BD
100
AcDbEntity
  8
SIMBOLI
100
AcDbLine
 62
253
  6
CONTINUOUS
 10
-34.1858985495
 20
-10.912022354
 11
-34.1859382072
 21
-10.9233839651
  0
LINE
  5
3BE
100
AcDbEntity
  8
SIMBOLI
100
AcDbLine
 62
253
  6
CONTINUOUS
 10
-34.1616343651
 20
-12.3090193625
 11
-34.1617054346
 21
-12.3231346999
  0
LINE
  5
3BF
100
AcDbEntity
  8
SIMBOLI
100
AcDbLine
 62
253
  6
CONTINUOUS
 10
-34.1339115349
 20
-12.2473355099
 11
-34.1340616959
 21
-12.2667941665
  0
LINE
  5
3C0
100
AcDbEntity
  8
SIMBOLI
100
AcDbLine
 62
253
  6
CONTINUOUS
 10
-34.185825914
 20
-10.9035119344
 11
-34.1858985495
 21
-10.912022354
  0
LINE
  5
3C1
100
AcDbEntity
  8
SIMBOLI
100
AcDbLine
 62
253
  6
CONTINUOUS
 10
-34.1939192154
 20
-10.7240107793
 11
-34.1937702808
 21
-10.7066399327
  0
LWPOLYLINE
  5
3C2
100
AcDbEntity
  8
SIMBOLI
100
AcDbPolyline
 62
253
  6
CONTINUOUS
 90
23
 70
0
 10
-34.1617054346
 20
-12.3231346999
 10
-34.1618237372
 20
-12.3335629666
 10
-34.161903309
 20
-12.3382668446
 10
-34.1619966357
 20
-12.3426009025
 10
-34.1621041562
 20
-12.3465583349
 10
-34.1622263874
 20
-12.3501359672
 10
-34.162363632
 20
-12.3533277371
 10
-34.1625153362
 20
-12.3561160307
 10
-34.1626807318
 20
-12.3584803464
 10
-34.1628588608
 20
-12.3604076312
 10
-34.163048005
 20
-12.3619146266
 10
-34.1632462565
 20
-12.3630255227
 10
-34.1635575037
 20
-12.3640011563
 10
-34.1638843149
 20
-12.3642159958
 10
-34.1642258773
 20
-12.3637318029
 10
-34.1645806636
 20
-12.3625533794
 10
-34.1649475976
 20
-12.3606679711
 10
-34.1653281197
 20
-12.3580495591
 10
-34.1657242999
 20
-12.3546688086
 10
-34.1661382083
 20
-12.3504963846
 10
-34.1665717332
 20
-12.3454948859
 10
-34.1670260373
 20
-12.3395946459
 10
-34.1673410888
 20
-12.335121317
  0
LINE
  5
3C3
100
AcDbEntity
  8
SIMBOLI
100
AcDbLine
 62
253
  6
CONTINUOUS
 10
-34.1340616959
 20
-12.2667941665
 11
-34.1343002542
 21
-12.2848207379
  0
LINE
  5
3C4
100
AcDbEntity
  8
SIMBOLI
100
AcDbLine
 62
253
  6
CONTINUOUS
 10
-34.1857136526
 20
-10.8955600488
 11
-34.185825914
 21
-10.9035119344
  0
LWPOLYLINE
  5
3C5
100
AcDbEntity
  8
SIMBOLI
100
AcDbPolyline
 62
253
  6
CONTINUOUS
 90
32
 70
0
 10
-34.1937702808
 20
-10.7066399327
 10
-34.1935253836
 20
-10.6907310783
 10
-34.1933651295
 20
-10.6833966104
 10
-34.1931792957
 20
-10.676522282
 10
-34.1929676338
 20
-10.6701437058
 10
-34.1927299908
 20
-10.6642925908
 10
-34.1924665947
 20
-10.6589850304
 10
-34.1921777689
 20
-10.6542332139
 10
-34.1918638366
 20
-10.650049331
 10
-34.1915251673
 20
-10.6464402338
 10
-34.1911623148
 20
-10.6433914254
 10
-34.1907758791
 20
-10.6408830716
 10
-34.1903664601
 20
-10.6388953382
 10
-34.1899346676
 20
-10.6374089134
 10
-34.189481151
 20
-10.6364065757
 10
-34.1890065695
 20
-10.635871626
 10
-34.1885115822
 20
-10.6357873652
 10
-34.1879967134
 20
-10.6361445828
 10
-34.1874619466
 20
-10.6369640227
 10
-34.1869071303
 20
-10.6382739174
 10
-34.1863321132
 20
-10.6401024992
 10
-34.1857366552
 20
-10.6424790579
 10
-34.1851201632
 20
-10.645437112
 10
-34.1844819555
 20
-10.6490112371
 10
-34.1838213503
 20
-10.653236009
 10
-34.1832763405
 20
-10.6571097062
 10
-34.1827165631
 20
-10.661452724
 10
-34.1821420211
 20
-10.6662958405
 10
-34.1815527174
 20
-10.6716698339
 10
-34.1809486551
 20
-10.6776054825
 10
-34.1803300206
 20
-10.6841256814
 10
-34.1796977341
 20
-10.6912217941
  0
LINE
  5
3C6
100
AcDbEntity
  8
SIMBOLI
100
AcDbLine
 62
253
  6
CONTINUOUS
 10
-34.1443998509
 20
-12.114066
 11
-34.143294238
 21
-12.062626
  0
LWPOLYLINE
  5
3C7
100
AcDbEntity
  8
SIMBOLI
100
AcDbPolyline
 62
253
  6
CONTINUOUS
 90
33
 70
0
 10
-34.1343002542
 20
-12.2848207379
 10
-34.1346311235
 20
-12.3013476054
 10
-34.1348329496
 20
-12.3090222451
 10
-34.1350600761
 20
-12.3162893843
 10
-34.1353132826
 20
-12.3231377947
 10
-34.1355446265
 20
-12.3285137601
 10
-34.1357941967
 20
-12.3335661646
 10
-34.1360615669
 20
-12.3382700287
 10
-34.1363465503
 20
-12.3426040068
 10
-34.1366499176
 20
-12.3465612908
 10
-34.1369726789
 20
-12.3501387065
 10
-34.1373153663
 20
-12.3533301955
 10
-34.1376765984
 20
-12.3561181609
 10
-34.1380545159
 20
-12.3584821219
 10
-34.1384470744
 20
-12.3604090446
 10
-34.1388514889
 20
-12.3619156854
 10
-34.1392647895
 20
-12.3630262481
 10
-34.1398967371
 20
-12.3640014463
 10
-34.1405429633
 20
-12.3642159435
 10
-34.1412036368
 20
-12.3637315131
 10
-34.1418757316
 20
-12.3625529588
 10
-34.1425565952
 20
-12.3606675279
 10
-34.1432482638
 20
-12.3580492134
 10
-34.1439539454
 20
-12.3546686946
 10
-34.1446768485
 20
-12.3504966509
 10
-34.1454195539
 20
-12.3454956926
 10
-34.1461821334
 20
-12.3395961553
 10
-34.1467015309
 20
-12.3351233884
 10
-34.1472308168
 20
-12.3301808059
 10
-34.1477712934
 20
-12.3247325087
 10
-34.1483239491
 20
-12.3187470982
 10
-34.1488885169
 20
-12.3122111774
 10
-34.1494644158
 20
-12.3051158498
  0
LWPOLYLINE
  5
3C8
100
AcDbEntity
  8
ASSI
100
AcDbPolyline
 62
7
  6
CONTINUOUS
 90
10
 70
0
 10
-33.8203004435
 20
20.8322351429
 10
-33.9834904881
 20
17.4235885418
 10
-34.1201801754
 20
13.9397926404
 10
-34.2265015706
 20
10.45493781
 10
-34.3024436999
 20
6.9692886865
 10
-34.3479981152
 20
3.4831099596
 10
-34.36316355
 20
-0.0033334725
 10
-34.3479400049
 20
-3.4897766251
 10
-34.3023274807
 20
-6.9759545133
 10
-34.2263272534
 20
-10.4616022392
  0
LWPOLYLINE
  5
3C9
100
AcDbEntity
  8
ASSI
100
AcDbPolyline
 62
253
  6
CONTINUOUS
 90
22
 70
0
 10
-33.46892078
 20
20.8300973573
 10
-33.462194543
 20
20.9155999271
 10
-33.4493717058
 20
21.0003977066
 10
-33.4305189951
 20
21.0840578424
 10
-33.4057352199
 20
21.1661475754
 10
-33.3751472952
 20
21.2462544244
 10
-33.3389054127
 20
21.3239867288
 10
-33.2971879421
 20
21.3989522592
 10
-33.250207864
 20
21.4707608514
 10
-33.1982055579
 20
21.5390434139
 10
-33.1414441234
 20
21.6034492456
 10
-33.0802108366
 20
21.6636481483
 10
-33.014818905
 20
21.7193311098
 10
-32.9455980713
 20
21.7702126772
 10
-32.872901388
 20
21.816029318
 10
-32.7971070009
 20
21.8565421926
 10
-32.7186050322
 20
21.8915410796
 10
-32.6377912243
 20
21.9208481036
 10
-32.5550729558
 20
21.944314122
 10
-32.4708698366
 20
21.9618163671
 10
-32.385612302
 20
21.9732611509
 10
-32.2997351742
 20
21.9785866472
  0
LWPOLYLINE
  5
3CA
100
AcDbEntity
  8
ASSI
100
AcDbPolyline
 62
253
  6
CONTINUOUS
 90
22
 70
0
 10
-32.9836057766
 20
20.8087575838
 10
-32.9796352196
 20
20.8587868848
 10
-32.9721935751
 20
20.9079895385
 10
-32.9612808432
 20
20.9563655451
 10
-32.9468066318
 20
21.0041765503
 10
-32.928861333
 20
21.0511609082
 10
-32.9077161225
 20
21.0965336818
 10
-32.8833235728
 20
21.1402480586
 10
-32.8557311114
 20
21.1823508509
 10
-32.8253521976
 20
21.2221975583
 10
-32.7921408579
 20
21.2597557292
 10
-32.7561430657
 20
21.2950578151
 10
-32.7179101994
 20
21.3275566706
 10
-32.6774077957
 20
21.3572072044
 10
-32.634670318
 20
21.3840545076
 10
-32.5903525345
 20
21.4076867086
 10
-32.5444072855
 20
21.4280547035
 10
-32.4968817308
 20
21.4452075962
 10
-32.4485721176
 20
21.4588808266
 10
-32.3997438616
 20
21.4689862082
 10
-32.3501315471
 20
21.4756119276
 10
-32.2997351742
 20
21.4787579847
  0
LINE
  5
3CB
100
AcDbEntity
  8
ASSI
100
AcDbLine
 62
253
  6
CONTINUOUS
 10
-32.3021676219
 20
21.5826335624
 11
-32.2997351742
 21
21.4787579847
  0
LINE
  5
3CC
100
AcDbEntity
  8
ASSI
100
AcDbLine
 62
253
  6
CONTINUOUS
 10
-32.3039223202
 20
21.6819732244
 11
-32.3021676219
 21
21.5826335624
  0
LINE
  5
3CD
100
AcDbEntity
  8
ASSI
100
AcDbLine
 62
253
  6
CONTINUOUS
 10
-32.3051249741
 20
-21.8130874351
 11
-32.3045203394
 21
-21.7285708599
  0
LINE
  5
3CE
100
AcDbEntity
  8
ASSI
100
AcDbLine
 62
253
  6
CONTINUOUS
 10
-32.3045203394
 20
-21.7285708599
 11
-32.3031352331
 21
-21.6331463372
  0
LWPOLYLINE
  5
3CF
100
AcDbEntity
  8
ASSI
100
AcDbPolyline
 62
253
  6
CONTINUOUS
 90
3
 70
0
 10
-32.3031352331
 20
-21.6331463372
 10
-32.3010301479
 20
-21.5309807597
 10
-32.2997352141
 20
-21.4787579837
  0
LINE
  5
3D0
100
AcDbEntity
  8
ASSI
100
AcDbLine
 62
7
  6
CONTINUOUS
 10
-27.663146294
 20
-22.1
 11
-27.663146294
 21
22.1
  0
LINE
  5
3D1
100
AcDbEntity
  8
ASSI
100
AcDbLine
 62
253
  6
CONTINUOUS
 10
-32.2997351742
 20
21.4787579847
 11
-27.663146294
 21
21.6001713375
  0
LINE
  5
3D2
100
AcDbEntity
  8
ASSI
100
AcDbLine
 62
7
  6
CONTINUOUS
 10
-32.6533450086
 20
21.9693270478
 11
-27.663146294
 21
22.1
  0
LINE
  5
3D3
100
AcDbEntity
  8
ASSI
100
AcDbLine
 62
253
  6
CONTINUOUS
 10
-33.4689207916
 20
20.8300973579
 11
-33.8203004428
 21
20.8322351557
  0
LWPOLYLINE
  5
3D4
100
AcDbEntity
  8
ASSI
100
AcDbPolyline
 62
253
  6
CONTINUOUS
 90
4
 70
0
 10
-33.4689074056
 20
20.8300968079
 10
-33.4631810999
 20
20.8297962898
 10
-33.4526812852
 20
20.8292919243
 10
-32.9836057766
 20
20.8087575838
  0
ARC
  5
3D5
100
AcDbEntity
  8
ASSI
100
AcDbCircle
 62
7
  6
CONTINUOUS
 10
-32.6219289093
 20
-20.7697383564
 40
1.2
100
AcDbArc
 50
182.9853521812
 51
268.5
  0
ARC
  5
3D6
100
AcDbEntity
  8
ASSI
100
AcDbCircle
 62
7
  6
CONTINUOUS
 10
-32.6219289101
 20
20.7697383563
 40
1.2
100
AcDbArc
 50
91.5
 51
177.014647819
  0
ELLIPSE
  5
3D7
100
AcDbEntity
  8
ASSI
100
AcDbEllipse
 62
7
  6
CONTINUOUS
 10
-10.4998286038
 20
-21.5998286038
 30
0.0
 11
0.35379574
 21
0.35379574
 31
0.0
 40
0.999315002
 41
-3.9266482006
 42
-2.3565371065
  0
ELLIPSE
  5
3D8
100
AcDbEntity
  8
ASSI
100
AcDbEllipse
 62
7
  6
CONTINUOUS
 10
10.4998286038
 20
-21.5998286038
 30
0.0
 11
0.35379574
 21
-0.35379574
 31
0.0
 40
0.999315002
 41
-0.7850555471
 42
0.7850555471
  0
ELLIPSE
  5
3D9
100
AcDbEntity
  8
ASSI
100
AcDbEllipse
 62
7
  6
CONTINUOUS
 10
10.4998286038
 20
21.5998286038
 30
0.0
 11
0.35379574
 21
0.35379574
 31
0.0
 40
0.999315002
 41
-0.7850555471
 42
0.7850555471
  0
ELLIPSE
  5
3DA
100
AcDbEntity
  8
ASSI
100
AcDbEllipse
 62
7
  6
CONTINUOUS
 10
-10.4998286038
 20
21.5998286038
 30
0.0
 11
-0.35379574
 21
0.35379574
 31
0.0
 40
0.999315002
 41
-0.7850555471
 42
0.7850555471
  0
ENDSEC
  0
SECTION
  2
OBJECTS
  0
DICTIONARY
  5
C
100
AcDbDictionary
280
0
281
1
  3
ACAD_GROUP
350
D
  3
ACAD_MLINESTYLE
350
17
  3
ACAD_LAYOUT
350
1A
  3
ACAD_PLOTSETTINGS
350
19
  3
ACAD_PLOTSTYLENAME
350
E
  0
DICTIONARY
  5
D
102
{ACAD_REACTORS
330
C
102
}
100
AcDbDictionary
280
0
281
1
  0
ACDBDICTIONARYWDFLT
  5
E
102
{ACAD_REACTORS
330
C
102
}
100
AcDbDictionary
281
1
  3
Normal
350
F
100
AcDbDictionaryWithDefault
340
F
  0
DICTIONARY
  5
17
102
{ACAD_REACTORS
330
C
102
}
100
AcDbDictionary
280
0
281
1
  3
Standard
350
18
  0
DICTIONARY
  5
19
102
{ACAD_REACTORS
330
C
102
}
100
AcDbDictionary
281
1
  0
DICTIONARY
  5
1A
102
{ACAD_REACTORS
330
C
102
}
100
AcDbDictionary
281
1
  3
Model
350
3DB
  3
Layout1
350
3DC
  0
ACDBPLACEHOLDER
  5
F
102
{ACAD_REACTORS
330
E
102
}
  0
MLINESTYLE
  5
18
102
{ACAD_REACTORS
330
17
102
}
100
AcDbMlineStyle
  2
STANDARD
 70
0
  3

 62
256
 51
90.0
 52
90.0
 71
2
 49
0.5
 62
256
  6
BYLAYER
 49
-0.5
 62
256
  6
BYLAYER
  0
LAYOUT
  5
3DB
102
{ACAD_REACTORS
330
1A
102
}
100
AcDbPlotSettings
  1

  2
none_device
  4
ISO_A4_(297.00_x_210.00_MM)
  6

 40
0.0
 41
0.0
 42
0.0
 43
0.0
 44
297.0
 45
210.0
 46
0.0
 47
0.0
 48
0.0
 49
0.0
140
0.0
141
0.0
142
1.0
143
1.0
 70
1024
 72
1
 73
0
 74
0
  7

 75
0
147
1.0
148
0.0
149
0.0
100
AcDbLayout
  1
Model
 70
0
 71
0
 10
0.0
 20
0.0
 11
297.0
 21
210.0
 12
0.0
 22
0.0
 32
0.0
 14
0.0
 24
0.0
 34
0.0
 15
0.0
 25
0.0
 35
0.0
146
0.0
 13
0.0
 23
0.0
 33
0.0
 16
1.0
 26
0.0
 36
0.0
 17
0.0
 27
1.0
 37
0.0
 76
0
330
217
345
0
346
0
  0
LAYOUT
  5
3DC
102
{ACAD_REACTORS
330
1A
102
}
100
AcDbPlotSettings
  1

  2
none_device
  4
ISO_A4_(297.00_x_210.00_MM)
  6

 40
0.0
 41
0.0
 42
0.0
 43
0.0
 44
297.0
 45
210.0
 46
0.0
 47
0.0
 48
0.0
 49
0.0
140
0.0
141
0.0
142
1.0
143
1.0
 70
0
 72
1
 73
0
 74
0
  7

 75
0
147
1.0
148
0.0
149
0.0
100
AcDbLayout
  1
Layout1
 70
0
 71
1
 10
0.0
 20
0.0
 11
297.0
 21
210.0
 12
0.0
 22
0.0
 32
0.0
 14
0.0
 24
0.0
 34
0.0
 15
0.0
 25
0.0
 35
0.0
146
0.0
 13
0.0
 23
0.0
 33
0.0
 16
1.0
 26
0.0
 36
0.0
 17
0.0
 27
1.0
 37
0.0
 76
0
330
218
345
0
346
0
  0
ENDSEC
  0
EOF
