  0
SECTION
  2
HEADER
  9
$ACADVER
  1
AC1024
  9
$DWGCODEPAGE
  3
ANSI_1252
  9
$EXTMAX
 10
297.0
 20
210.0
 30
0.0
  9
$EXTMIN
 10
0.0
 20
0.0
 30
0.0
  9
$LIMMIN
 10
0.0
 20
0.0
  9
$LIMMAX
 10
297.0
 20
210.0
  9
$VIEWCTR
 10
148.5
 20
105.0
  9
$VIEWSIZE
 40
210.0
  9
$CLAYER
  8
0
  9
$LTSCALE
 40
16.335
  9
$CELTYPE
  6
BYLAYER
  9
$DIMSCALE
 40
1.0
  9
$DIMASZ
 40
3.0
  9
$DIMEXO
 40
0.5
  9
$DIMDLI
 40
11.286
  9
$DIMEXE
 40
1.5
  9
$DIMCEN
 40
2.673
  9
$DIMLFAC
 40
1.0
  9
$DIMBLK
  1
_FILLED
  9
$DIMALT
 70
0
  9
$DIMALTF
 40
0.0393700787
  9
$DIMTXT
 40
3.0
  9
$DIMTOL
 70
1
  9
$DIMLIM
 70
0
  9
$DIMTFAC
 40
1.0
  9
$DIMTP
 40
0.01
  9
$DIMTM
 40
0.01
  9
$DIMGAP
 40
0.625
  9
$DIMDSEP
 70
44
  9
$AUNITS
 70
0
  9
$PDMODE
 70
3
  9
$PDSIZE
 40
3.0
  9
$HANDSEED
  5
4A5
  9
$TILEMODE
 70
1
  9
$MEASUREMENT
 70
1
  9
$INSUNITS
 70
4
  0
ENDSEC
  0
SECTION
  2
CLASSES
  0
CLASS
  1
ACDBDICTIONARYWDFLT
  2
AcDbDictionaryWithDefault
  3
AutoCAD 2000
 90
0
 91
1
280
0
281
0
  0
CLASS
  1
ACDBPLACEHOLDER
  2
AcDbPlaceHolder
  3
AutoCAD 2000
 90
0
 91
1
280
0
281
0
  0
CLASS
  1
LAYOUT
  2
AcDbLayout
  3
AutoCAD 2000
 90
0
 91
0
280
0
281
0
  0
ENDSEC
  0
SECTION
  2
TABLES
  0
TABLE
  2
VPORT
  5
8
100
AcDbSymbolTable
 70
2
  0
VPORT
  5
1F4
100
AcDbSymbolTableRecord
100
AcDbViewportTableRecord
  2
*ACTIVE
 70
0
 10
0.0
 20
0.0
 11
1.0
 21
1.0
 12
148.5
 22
105.0
 13
0.0
 23
0.0
 14
1.0
 24
1.0
 15
0.0
 25
0.0
 16
0.0
 26
0.0
 36
1.0
 17
0.0
 27
0.0
 37
0.0
 40
210.0
 41
1.4142857143
 42
50.0
 43
0.0
 44
0.0
 50
0.0
 51
0.0
 71
0
 72
100
 73
1
 74
1
 75
0
 76
0
 77
0
 78
0
  0
ENDTAB
  0
TABLE
  2
LTYPE
  5
5
100
AcDbSymbolTable
 70
6
  0
LTYPE
  5
14
100
AcDbSymbolTableRecord
100
AcDbLinetypeTableRecord
  2
BYBLOCK
 70
0
  3

 72
65
 73
0
 40
0.0
  0
LTYPE
  5
15
100
AcDbSymbolTableRecord
100
AcDbLinetypeTableRecord
  2
BYLAYER
 70
0
  3

 72
65
 73
0
 40
0.0
  0
LTYPE
  5
16
100
AcDbSymbolTableRecord
100
AcDbLinetypeTableRecord
  2
CONTINUOUS
 70
64
  3
Solid line
 72
65
 73
0
 40
0.0
  0
LTYPE
  5
1F5
100
AcDbSymbolTableRecord
100
AcDbLinetypeTableRecord
  2
CENTER
 70
64
  3
____ _ ____ _ ____ _ ____ _ ____ _ ____ _ ____
 72
65
 73
4
 40
0.6
 49
0.375
 74
0
 49
-0.075
 74
0
 49
0.075
 74
0
 49
-0.075
 74
0
  0
LTYPE
  5
1F6
100
AcDbSymbolTableRecord
100
AcDbLinetypeTableRecord
  2
HIDDEN
 70
64
  3
- - - - - - - - - - - - - - - - - - - -
 72
65
 73
2
 40
0.2
 49
0.1
 74
0
 49
-0.1
 74
0
  0
LTYPE
  5
1F7
100
AcDbSymbolTableRecord
100
AcDbLinetypeTableRecord
  2
PHANTOM
 70
64
  3
_____ _ _ _____ _ _ _____ _ _ _____
 72
65
 73
6
 40
0.8
 49
0.45
 74
0
 49
-0.05
 74
0
 49
0.1
 74
0
 49
-0.05
 74
0
 49
0.1
 74
0
 49
-0.05
 74
0
  0
LTYPE
  5
1F8
100
AcDbSymbolTableRecord
100
AcDbLinetypeTableRecord
  2
DOT
 70
64
  3
. . . . . . . . . . . . . . . . . . . .
 72
65
 73
2
 40
0.2
 49
0.1
 74
0
 49
-0.1
 74
0
  0
LTYPE
  5
1F9
100
AcDbSymbolTableRecord
100
AcDbLinetypeTableRecord
  2
DASHED
 70
64
  3
- - - - - - - - - - - - - - - - - - - -
 72
65
 73
2
 40
0.2
 49
0.1
 74
0
 49
-0.1
 74
0
  0
ENDTAB
  0
TABLE
  2
LAYER
  5
2
100
AcDbSymbolTable
 70
36
  0
LAYER
  5
10
100
AcDbSymbolTableRecord
100
AcDbLayerTableRecord
  2
0
 70
0
 62
7
  6
CONTINUOUS
370
-3
390
F
  0
LAYER
  5
1FA
100
AcDbSymbolTableRecord
100
AcDbLayerTableRecord
  2
DEFAULT_1
 70
0
 62
7
  6
CENTER
370
-3
390
F
  0
LAYER
  5
1FB
100
AcDbSymbolTableRecord
100
AcDbLayerTableRecord
  2
DEFAULT_2
 70
0
 62
7
  6
HIDDEN
370
-3
390
F
  0
LAYER
  5
1FC
100
AcDbSymbolTableRecord
100
AcDbLayerTableRecord
  2
DEFAULT_3
 70
0
 62
7
  6
PHANTOM
370
-3
390
F
  0
LAYER
  5
1FD
100
AcDbSymbolTableRecord
100
AcDbLayerTableRecord
  2
ASSI
 70
0
 62
7
  6
CONTINUOUS
370
-3
390
F
  0
LAYER
  5
1FE
100
AcDbSymbolTableRecord
100
AcDbLayerTableRecord
  2
COORDINATE
 70
0
 62
7
  6
CONTINUOUS
370
-3
390
F
  0
LAYER
  5
1FF
100
AcDbSymbolTableRecord
100
AcDbLayerTableRecord
  2
COORD_ORIGINE
 70
0
 62
7
  6
CONTINUOUS
370
-3
390
F
  0
LAYER
  5
200
100
AcDbSymbolTableRecord
100
AcDbLayerTableRecord
  2
COPY_PUBLISH
 70
0
 62
7
  6
CONTINUOUS
370
-3
390
F
  0
LAYER
  5
201
100
AcDbSymbolTableRecord
100
AcDbLayerTableRecord
  2
COSMETIC
 70
0
 62
7
  6
CONTINUOUS
370
-3
390
F
  0
LAYER
  5
202
100
AcDbSymbolTableRecord
100
AcDbLayerTableRecord
  2
COSMETICI
 70
0
 62
7
  6
CONTINUOUS
370
-3
390
F
  0
LAYER
  5
203
100
AcDbSymbolTableRecord
100
AcDbLayerTableRecord
  2
CURVE
 70
0
 62
7
  6
CONTINUOUS
370
-3
390
F
  0
LAYER
  5
204
100
AcDbSymbolTableRecord
100
AcDbLayerTableRecord
  2
DRAFT
 70
0
 62
7
  6
CONTINUOUS
370
-3
390
F
  0
LAYER
  5
205
100
AcDbSymbolTableRecord
100
AcDbLayerTableRecord
  2
IMPORT
 70
0
 62
7
  6
CONTINUOUS
370
-3
390
F
  0
LAYER
  5
206
100
AcDbSymbolTableRecord
100
AcDbLayerTableRecord
  2
IMPORT_IGES
 70
0
 62
7
  6
CONTINUOUS
370
-3
390
F
  0
LAYER
  5
207
100
AcDbSymbolTableRecord
100
AcDbLayerTableRecord
  2
INTFCLR_11
 70
0
 62
7
  6
CONTINUOUS
370
-3
390
F
  0
LAYER
  5
208
100
AcDbSymbolTableRecord
100
AcDbLayerTableRecord
  2
INTF_1
 70
0
 62
7
  6
CONTINUOUS
370
-3
390
F
  0
LAYER
  5
209
100
AcDbSymbolTableRecord
100
AcDbLayerTableRecord
  2
INTF_3
 70
0
 62
7
  6
CONTINUOUS
370
-3
390
F
  0
LAYER
  5
20A
100
AcDbSymbolTableRecord
100
AcDbLayerTableRecord
  2
NOTE
 70
0
 62
7
  6
CONTINUOUS
370
-3
390
F
  0
LAYER
  5
20B
100
AcDbSymbolTableRecord
100
AcDbLayerTableRecord
  2
PIANI
 70
0
 62
7
  6
CONTINUOUS
370
-3
390
F
  0
LAYER
  5
20C
100
AcDbSymbolTableRecord
100
AcDbLayerTableRecord
  2
PIANI_ORIGINE
 70
0
 62
7
  6
CONTINUOUS
370
-3
390
F
  0
LAYER
  5
20D
100
AcDbSymbolTableRecord
100
AcDbLayerTableRecord
  2
PIANI_RIFERIMENTO
 70
0
 62
7
  6
CONTINUOUS
370
-3
390
F
  0
LAYER
  5
20E
100
AcDbSymbolTableRecord
100
AcDbLayerTableRecord
  2
PUNTI
 70
0
 62
7
  6
CONTINUOUS
370
-3
390
F
  0
LAYER
  5
20F
100
AcDbSymbolTableRecord
100
AcDbLayerTableRecord
  2
RACCORDO
 70
0
 62
7
  6
CONTINUOUS
370
-3
390
F
  0
LAYER
  5
210
100
AcDbSymbolTableRecord
100
AcDbLayerTableRecord
  2
SIMBOLI
 70
0
 62
7
  6
CONTINUOUS
370
-3
390
F
  0
LAYER
  5
211
100
AcDbSymbolTableRecord
100
AcDbLayerTableRecord
  2
SMUSSO
 70
0
 62
7
  6
CONTINUOUS
370
-3
390
F
  0
LAYER
  5
212
100
AcDbSymbolTableRecord
100
AcDbLayerTableRecord
  2
SNAPLINE
 70
0
 62
7
  6
CONTINUOUS
370
-3
390
F
  0
LAYER
  5
213
100
AcDbSymbolTableRecord
100
AcDbLayerTableRecord
  2
SUPERFICI
 70
0
 62
7
  6
CONTINUOUS
370
-3
390
F
  0
LAYER
  5
214
100
AcDbSymbolTableRecord
100
AcDbLayerTableRecord
  2
TRASH
 70
0
 62
7
  6
CONTINUOUS
370
-3
390
F
  0
LAYER
  5
215
100
AcDbSymbolTableRecord
100
AcDbLayerTableRecord
  2
XSEC_DATUMS
 70
0
 62
7
  6
CONTINUOUS
370
-3
390
F
  0
LAYER
  5
216
100
AcDbSymbolTableRecord
100
AcDbLayerTableRecord
  2
___SHELL
 70
0
 62
7
  6
CONTINUOUS
370
-3
390
F
  0
ENDTAB
  0
TABLE
  2
STYLE
  5
3
100
AcDbSymbolTable
 70
1
  0
STYLE
  5
11
100
AcDbSymbolTableRecord
100
AcDbTextStyleTableRecord
  2
STANDARD
 70
0
 40
0.0
 41
0.8
 50
0.0
 71
0
 42
0.2
  3
txt
  4

  0
STYLE
  5
217
100
AcDbSymbolTableRecord
100
AcDbTextStyleTableRecord
  2
TEXTSTYLE_1
 70
0
 40
0.0
 41
0.8
 50
0.0
 71
0
 42
0.2
  3
gdt
  4

  0
ENDTAB
  0
TABLE
  2
VIEW
  5
6
100
AcDbSymbolTable
 70
0
  0
ENDTAB
  0
TABLE
  2
UCS
  5
7
100
AcDbSymbolTable
 70
0
  0
ENDTAB
  0
TABLE
  2
APPID
  5
9
100
AcDbSymbolTable
 70
1
  0
APPID
  5
218
100
AcDbSymbolTableRecord
100
AcDbRegAppTableRecord
  2
ACAD
 70
0
  0
ENDTAB
  0
TABLE
  2
BLOCK_RECORD
  5
1
100
AcDbSymbolTable
 70
0
  0
BLOCK_RECORD
  5
219
100
AcDbSymbolTableRecord
100
AcDbBlockTableRecord
  2
*Model_Space
  0
BLOCK_RECORD
  5
21A
100
AcDbSymbolTableRecord
100
AcDbBlockTableRecord
  2
*Paper_Space
  0
BLOCK_RECORD
  5
21B
100
AcDbSymbolTableRecord
100
AcDbBlockTableRecord
  2
_FILLED
  0
BLOCK_RECORD
  5
21C
100
AcDbSymbolTableRecord
100
AcDbBlockTableRecord
  2
*D0
  0
BLOCK_RECORD
  5
21D
100
AcDbSymbolTableRecord
100
AcDbBlockTableRecord
  2
*D1
  0
BLOCK_RECORD
  5
21E
100
AcDbSymbolTableRecord
100
AcDbBlockTableRecord
  2
*D2
  0
ENDTAB
  0
TABLE
  2
DIMSTYLE
  5
A
100
AcDbSymbolTable
 70
1
100
AcDbDimStyleTable
 71
0
  0
DIMSTYLE
105
21F
100
AcDbSymbolTableRecord
100
AcDbDimStyleTableRecord
  2
STANDARD
 70
0
  3

  4

 40
1.0
 41
3.0
 42
0.5
 43
0.38
 44
1.5
 45
0.0
 46
0.0
 47
0.01
 48
0.01
140
3.0
141
0.0
142
0.0
143
25.4
144
1.0
145
0.0
146
1.0
147
0.625
 71
1
 72
0
 73
0
 74
0
 75
0
 76
0
 77
1
 78
8
 79
2
170
0
171
1
172
0
173
0
174
0
175
0
176
0
177
0
178
0
270
2
179
2
271
2
272
2
273
2
274
2
275
0
280
0
281
0
282
0
283
1
284
8
285
0
286
0
287
3
288
0
340
11
278
44
341
21B
342
21B
343
21B
344
21B
  0
DIMSTYLE
105
220
100
AcDbSymbolTableRecord
100
AcDbDimStyleTableRecord
  2
DIMSTYLE_1
 70
0
  3

  4

 40
1.0
 41
3.0
 42
0.5
 43
0.38
 44
1.5
 45
0.0
 46
0.0
 47
0.0
 48
0.0
140
3.0
141
0.0
142
0.0
143
25.4
144
1.0
145
0.0
146
1.0
147
0.75
 71
0
 72
0
 73
0
 74
0
 75
0
 76
0
 77
1
 78
8
 79
2
170
0
171
1
172
0
173
0
174
0
175
0
176
0
177
0
178
0
270
2
179
2
271
2
272
2
273
2
274
2
275
0
280
0
281
0
282
0
283
1
284
8
285
0
286
0
287
3
288
0
340
11
278
44
341
21B
342
21B
343
21B
344
21B
  0
ENDTAB
  0
ENDSEC
  0
SECTION
  2
BLOCKS
  0
BLOCK
  5
20
100
AcDbEntity
  8
0
100
AcDbBlockBegin
  2
*Model_Space
 70
0
 10
0.0
 20
0.0
 30
0.0
  3
*Model_Space
  1

  0
ENDBLK
  5
21
100
AcDbEntity
  8
0
100
AcDbBlockEnd
  0
BLOCK
  5
1C
100
AcDbEntity
  8
0
100
AcDbBlockBegin
  2
*Paper_Space
 70
0
 10
0.0
 20
0.0
 30
0.0
  3
*Paper_Space
  1

  0
ENDBLK
  5
1D
100
AcDbEntity
  8
0
100
AcDbBlockEnd
  0
BLOCK
  5
221
100
AcDbEntity
  8
0
100
AcDbBlockBegin
  2
_FILLED
 70
64
 10
0.0
 20
0.0
 30
0.0
  3
_FILLED
  1

  0
SOLID
  5
222
100
AcDbEntity
  8
0
  6
BYBLOCK
 62
0
100
AcDbTrace
 10
0.0
 20
0.0
 30
0.0
 11
-1.0
 21
0.3166666667
 31
0.0
 12
-1.0
 22
-0.3166666667
 32
0.0
 13
-1.0
 23
-0.3166666667
 33
0.0
  0
ENDBLK
  5
223
100
AcDbEntity
  8
0
  6
BYBLOCK
 62
0
100
AcDbBlockEnd
  0
BLOCK
  5
224
100
AcDbEntity
  8
0
100
AcDbBlockBegin
 62
7
  6
CONTINUOUS
  2
*D0
 70
65
 10
0.0
 20
0.0
 30
0.0
  3
*D0
  1

  0
MTEXT
  5
225
100
AcDbEntity
  8
0
100
AcDbMText
 62
7
  6
CONTINUOUS
  7
STANDARD
 71
2
 72
1
 10
58.5348808747
 20
115.4199505643
 30
0.0
 11
1.0
 21
0.0
 31
0.0
 73
2
 44
0.9
  1
{\ftxt;\W0.0001;\H0.0001;\~}{\ftxt;\W2.8571428571;\H3.0; }{\ftxt;\W0.0001;\H0.0001;\~}
 40
3.0
 41
12.8571428571
  0
LINE
  5
226
100
AcDbEntity
  8
0
100
AcDbLine
 62
7
  6
CONTINUOUS
 10
36.3848808747
 20
96.6756037788
 30
0.0
 11
36.3848808747
 21
113.1699505643
 31
0.0
  0
LINE
  5
227
100
AcDbEntity
  8
0
100
AcDbLine
 62
7
  6
CONTINUOUS
 10
80.6848808747
 20
96.6756037788
 30
0.0
 11
80.6848808747
 21
113.1699505643
 31
0.0
  0
LINE
  5
228
100
AcDbEntity
  8
0
100
AcDbLine
 62
7
  6
CONTINUOUS
 10
36.3848808747
 20
111.6699505643
 30
0.0
 11
58.5348808747
 21
111.6699505643
 31
0.0
  0
LINE
  5
229
100
AcDbEntity
  8
0
100
AcDbLine
 62
7
  6
CONTINUOUS
 10
80.6848808747
 20
111.6699505643
 30
0.0
 11
58.5348808747
 21
111.6699505643
 31
0.0
  0
INSERT
  5
22A
100
AcDbEntity
  8
0
100
AcDbBlockReference
 62
7
  6
CONTINUOUS
  2
_FILLED
 10
36.3848808747
 20
111.6699505643
 30
0.0
 41
3.0
 42
3.0
 43
3.0
 50
180.0
  0
INSERT
  5
22B
100
AcDbEntity
  8
0
100
AcDbBlockReference
 62
7
  6
CONTINUOUS
  2
_FILLED
 10
80.6848808747
 20
111.6699505643
 30
0.0
 41
3.0
 42
3.0
 43
3.0
  0
ENDBLK
  5
22C
100
AcDbEntity
  8
0
  6
BYBLOCK
 62
0
100
AcDbBlockEnd
  0
BLOCK
  5
22D
100
AcDbEntity
  8
0
100
AcDbBlockBegin
 62
7
  6
CONTINUOUS
  2
*D1
 70
65
 10
0.0
 20
0.0
 30
0.0
  3
*D1
  1

  0
MTEXT
  5
22E
100
AcDbEntity
  8
0
100
AcDbMText
 62
7
  6
CONTINUOUS
  7
STANDARD
 71
2
 72
1
 10
91.9314759451
 20
74.5754324413
 30
0.0
 11
0.0
 21
1.0
 31
0.0
 73
2
 44
0.9
  1
{\ftxt;\W0.0001;\H0.0001;\~}{\ftxt;\W2.9285714286;\H3.0; }{\ftxt;\W0.0001;\H0.0001;\~}
 40
3.0
 41
13.1785714286
  0
LINE
  5
22F
100
AcDbEntity
  8
0
100
AcDbLine
 62
7
  6
CONTINUOUS
 10
80.6850522122
 20
96.6754324413
 30
0.0
 11
97.1814759451
 21
96.6754324413
 31
0.0
  0
LINE
  5
230
100
AcDbEntity
  8
0
100
AcDbLine
 62
7
  6
CONTINUOUS
 10
80.6850522122
 20
52.4754324413
 30
0.0
 11
97.1814759451
 21
52.4754324413
 31
0.0
  0
LINE
  5
231
100
AcDbEntity
  8
0
100
AcDbLine
 62
7
  6
CONTINUOUS
 10
95.6814759451
 20
96.6754324413
 30
0.0
 11
95.6814759451
 21
74.5754324413
 31
0.0
  0
LINE
  5
232
100
AcDbEntity
  8
0
100
AcDbLine
 62
7
  6
CONTINUOUS
 10
95.6814759451
 20
52.4754324413
 30
0.0
 11
95.6814759451
 21
74.5754324413
 31
0.0
  0
INSERT
  5
233
100
AcDbEntity
  8
0
100
AcDbBlockReference
 62
7
  6
CONTINUOUS
  2
_FILLED
 10
95.6814759451
 20
96.6754324413
 30
0.0
 41
3.0
 42
3.0
 43
3.0
 50
90.0
  0
INSERT
  5
234
100
AcDbEntity
  8
0
100
AcDbBlockReference
 62
7
  6
CONTINUOUS
  2
_FILLED
 10
95.6814759451
 20
52.4754324413
 30
0.0
 41
3.0
 42
3.0
 43
3.0
 50
270.0
  0
ENDBLK
  5
235
100
AcDbEntity
  8
0
  6
BYBLOCK
 62
0
100
AcDbBlockEnd
  0
BLOCK
  5
236
100
AcDbEntity
  8
0
100
AcDbBlockBegin
 62
7
  6
CONTINUOUS
  2
*D2
 70
65
 10
0.0
 20
0.0
 30
0.0
  3
*D2
  1

  0
MTEXT
  5
237
100
AcDbEntity
  8
0
100
AcDbMText
 62
7
  6
CONTINUOUS
  7
STANDARD
 71
2
 72
1
 10
8.6162046628
 20
115.4199505643
 30
0.0
 11
1.0
 21
0.0
 31
0.0
 73
2
 44
0.9
  1
{\ftxt;\W0.0001;\H0.0001;\~}{\ftxt;\W2.1428571429;\H3.0; }{\ftxt;\W0.0001;\H0.0001;\~}
 40
3.0
 41
9.6428571429
  0
LINE
  5
238
100
AcDbEntity
  8
0
100
AcDbLine
 62
7
  6
CONTINUOUS
 10
11.9662132978
 20
96.6756037788
 30
0.0
 11
11.9662132978
 21
113.1699505643
 31
0.0
  0
LINE
  5
239
100
AcDbEntity
  8
0
100
AcDbLine
 62
7
  6
CONTINUOUS
 10
5.2661960279
 20
75.0754324413
 30
0.0
 11
5.2661960279
 21
113.1699505643
 31
0.0
  0
LINE
  5
23A
100
AcDbEntity
  8
0
100
AcDbLine
 62
7
  6
CONTINUOUS
 10
11.9662132978
 20
111.6699505643
 30
0.0
 11
15.9662132978
 21
111.6699505643
 31
0.0
  0
LINE
  5
23B
100
AcDbEntity
  8
0
100
AcDbLine
 62
7
  6
CONTINUOUS
 10
15.9662132978
 20
111.6699505643
 30
0.0
 11
8.6162046628
 21
111.6699505643
 31
0.0
  0
LINE
  5
23C
100
AcDbEntity
  8
0
100
AcDbLine
 62
7
  6
CONTINUOUS
 10
5.2661960279
 20
111.6699505643
 30
0.0
 11
1.2661960279
 21
111.6699505643
 31
0.0
  0
LINE
  5
23D
100
AcDbEntity
  8
0
100
AcDbLine
 62
7
  6
CONTINUOUS
 10
1.2661960279
 20
111.6699505643
 30
0.0
 11
8.6162046628
 21
111.6699505643
 31
0.0
  0
INSERT
  5
23E
100
AcDbEntity
  8
0
100
AcDbBlockReference
 62
7
  6
CONTINUOUS
  2
_FILLED
 10
11.9662132978
 20
111.6699505643
 30
0.0
 41
3.0
 42
3.0
 43
3.0
 50
180.0
  0
INSERT
  5
23F
100
AcDbEntity
  8
0
100
AcDbBlockReference
 62
7
  6
CONTINUOUS
  2
_FILLED
 10
5.2661960279
 20
111.6699505643
 30
0.0
 41
3.0
 42
3.0
 43
3.0
  0
ENDBLK
  5
240
100
AcDbEntity
  8
0
  6
BYBLOCK
 62
0
100
AcDbBlockEnd
  0
ENDSEC
  0
SECTION
  2
ENTITIES
  0
DIMENSION
  5
241
100
AcDbEntity
  8
0
100
AcDbDimension
 62
7
  6
CONTINUOUS
  2
*D0
 10
80.6848808747
 20
111.6699505643
 30
0.0
 11
58.1063079529
 21
111.6699505643
 31
0.0
 70
160
 71
2
 72
2
 41
0.9
 42
44.3
  1
{\ftxt;\W0.0001;\H0.0001;\~}{\ftxt;\W2.8571428571;\H3.0; }{\ftxt;\W0.0001;\H0.0001;\~}
  3
DIMSTYLE_1
100
AcDbAlignedDimension
 13
36.3848808747
 23
96.1756037788
 33
0.0
 14
80.6848808747
 24
96.1756037788
 34
0.0
100
AcDbRotatedDimension
  0
DIMENSION
  5
242
100
AcDbEntity
  8
0
100
AcDbDimension
 62
7
  6
CONTINUOUS
  2
*D1
 10
95.6814759451
 20
52.4754324413
 30
0.0
 11
95.6814759451
 21
74.1468650546
 31
0.0
 70
160
 71
2
 72
2
 41
0.9
 42
44.2
  1
{\ftxt;\W0.0001;\H0.0001;\~}{\ftxt;\W2.9285714286;\H3.0; }{\ftxt;\W0.0001;\H0.0001;\~}
  3
DIMSTYLE_1
100
AcDbAlignedDimension
 13
80.1850522122
 23
96.6754324413
 33
0.0
 14
80.1850522122
 24
52.4754324413
 34
0.0
 50
270.0
100
AcDbRotatedDimension
  0
DIMENSION
  5
243
100
AcDbEntity
  8
0
100
AcDbDimension
 62
7
  6
CONTINUOUS
  2
*D2
 10
5.2661960279
 20
111.6699505643
 30
0.0
 11
8.1876330729
 21
111.6699505643
 31
0.0
 70
160
 71
2
 72
2
 41
0.9
 42
6.7000172699
  1
{\ftxt;\W0.0001;\H0.0001;\~}{\ftxt;\W2.1428571429;\H3.0; }{\ftxt;\W0.0001;\H0.0001;\~}
  3
DIMSTYLE_1
100
AcDbAlignedDimension
 13
11.9662132978
 23
96.1756037788
 33
0.0
 14
5.2661960279
 24
74.5754324413
 34
0.0
 50
180.0
100
AcDbRotatedDimension
  0
LWPOLYLINE
  5
244
100
AcDbEntity
  8
0
100
AcDbPolyline
 62
7
  6
CONTINUOUS
 90
5
 70
0
 43
0.3500000006
 10
61.53488237
 20
114.1342364502
 10
61.8920246887
 20
114.3485209351
 10
61.8920246887
 20
114.9913834534
 10
61.53488237
 20
115.4199524231
 10
60.6777398987
 20
115.4199524231
  0
LINE
  5
245
100
AcDbEntity
  8
0
100
AcDbLine
 62
7
  6
CONTINUOUS
 10
79.6805132715
 20
49.9872961402
 30
0.0
 11
77.2892484779
 21
49.9872961402
 31
0.0
  0
LINE
  5
246
100
AcDbEntity
  8
0
100
AcDbLine
 62
7
  6
CONTINUOUS
 10
62.2805132715
 20
49.9872961402
 30
0.0
 11
59.8892484779
 21
49.9872961402
 31
0.0
  0
LINE
  5
247
100
AcDbEntity
  8
0
100
AcDbLine
 62
7
  6
CONTINUOUS
 10
59.8848766439
 20
49.9934981518
 30
0.0
 11
62.2848851055
 21
49.9934981518
 31
0.0
  0
LINE
  5
248
100
AcDbEntity
  8
0
100
AcDbLine
 62
7
  6
CONTINUOUS
 10
77.2848766439
 20
49.9934981518
 30
0.0
 11
79.6848851055
 21
49.9934981518
 31
0.0
  0
LINE
  5
249
100
AcDbEntity
  8
0
100
AcDbLine
 62
250
  6
CONTINUOUS
 10
59.8979752226
 20
50.0382493061
 30
0.0
 11
62.2717865267
 21
50.0382493061
 31
0.0
  0
LINE
  5
24A
100
AcDbEntity
  8
0
100
AcDbLine
 62
250
  6
CONTINUOUS
 10
77.2979752226
 20
50.0382493061
 30
0.0
 11
79.6717865267
 21
50.0382493061
 31
0.0
  0
LINE
  5
24B
100
AcDbEntity
  8
0
100
AcDbLine
 62
250
  6
CONTINUOUS
 10
59.8979752226
 20
50.2917147428
 30
0.0
 11
62.2717865267
 21
50.2917147428
 31
0.0
  0
LINE
  5
24C
100
AcDbEntity
  8
0
100
AcDbLine
 62
250
  6
CONTINUOUS
 10
77.2979752226
 20
50.2917147428
 30
0.0
 11
79.6717865267
 21
50.2917147428
 31
0.0
  0
LINE
  5
24D
100
AcDbEntity
  8
0
100
AcDbLine
 62
7
  6
CONTINUOUS
 10
65.3669198359
 20
50.448076535
 30
0.0
 11
66.2848808747
 21
50.448076535
 31
0.0
  0
LINE
  5
24E
100
AcDbEntity
  8
0
100
AcDbLine
 62
7
  6
CONTINUOUS
 10
73.2848808747
 20
50.448076535
 30
0.0
 11
74.2028419134
 21
50.448076535
 31
0.0
  0
LINE
  5
24F
100
AcDbEntity
  8
0
100
AcDbLine
 62
7
  6
CONTINUOUS
 10
66.2848808747
 20
50.4852066896
 30
0.0
 11
68.5848808747
 21
50.4852066896
 31
0.0
  0
LINE
  5
250
100
AcDbEntity
  8
0
100
AcDbLine
 62
7
  6
CONTINUOUS
 10
70.9848808747
 20
50.4852066896
 30
0.0
 11
73.2848808747
 21
50.4852066896
 31
0.0
  0
LINE
  5
251
100
AcDbEntity
  8
0
100
AcDbLine
 62
7
  6
CONTINUOUS
 10
74.2348808747
 20
50.4934487334
 30
0.0
 11
70.9848808747
 21
50.4934487334
 31
0.0
  0
LINE
  5
252
100
AcDbEntity
  8
0
100
AcDbLine
 62
7
  6
CONTINUOUS
 10
68.5848808747
 20
50.4934487334
 30
0.0
 11
65.3348808747
 21
50.4934487334
 31
0.0
  0
LINE
  5
253
100
AcDbEntity
  8
0
100
AcDbLine
 62
250
  6
CONTINUOUS
 10
66.2848808747
 20
50.4994348267
 30
0.0
 11
68.5848808747
 21
50.4994348267
 31
0.0
  0
LINE
  5
254
100
AcDbEntity
  8
0
100
AcDbLine
 62
250
  6
CONTINUOUS
 10
70.9848808747
 20
50.4994348267
 30
0.0
 11
73.2848808747
 21
50.4994348267
 31
0.0
  0
LINE
  5
255
100
AcDbEntity
  8
0
100
AcDbLine
 62
7
  6
CONTINUOUS
 10
74.22615413
 20
50.5232635635
 30
0.0
 11
73.2848808747
 21
50.5232635635
 31
0.0
  0
LINE
  5
256
100
AcDbEntity
  8
0
100
AcDbLine
 62
7
  6
CONTINUOUS
 10
66.2848808747
 20
50.5232635635
 30
0.0
 11
65.3436076194
 21
50.5232635635
 31
0.0
  0
LINE
  5
257
100
AcDbEntity
  8
0
100
AcDbLine
 62
250
  6
CONTINUOUS
 10
79.6717865267
 20
50.6842440274
 30
0.0
 11
77.2979752226
 21
50.6842440274
 31
0.0
  0
LINE
  5
258
100
AcDbEntity
  8
0
100
AcDbLine
 62
250
  6
CONTINUOUS
 10
62.2717865267
 20
50.6842440274
 30
0.0
 11
59.8979752226
 21
50.6842440274
 31
0.0
  0
LINE
  5
259
100
AcDbEntity
  8
0
100
AcDbLine
 62
250
  6
CONTINUOUS
 10
66.2848808747
 20
50.7022071761
 30
0.0
 11
68.5848808747
 21
50.7022071761
 31
0.0
  0
LINE
  5
25A
100
AcDbEntity
  8
0
100
AcDbLine
 62
250
  6
CONTINUOUS
 10
70.9848808747
 20
50.7022071761
 30
0.0
 11
73.2848808747
 21
50.7022071761
 31
0.0
  0
LINE
  5
25B
100
AcDbEntity
  8
0
100
AcDbLine
 62
250
  6
CONTINUOUS
 10
79.6717865267
 20
50.8989715673
 30
0.0
 11
77.2979752226
 21
50.8989715673
 31
0.0
  0
LINE
  5
25C
100
AcDbEntity
  8
0
100
AcDbLine
 62
250
  6
CONTINUOUS
 10
62.2717865267
 20
50.8989715673
 30
0.0
 11
59.8979752226
 21
50.8989715673
 31
0.0
  0
LINE
  5
25D
100
AcDbEntity
  8
0
100
AcDbLine
 62
7
  6
CONTINUOUS
 10
79.6776043566
 20
51.391801236
 30
0.0
 11
77.2921573928
 21
51.391801236
 31
0.0
  0
LINE
  5
25E
100
AcDbEntity
  8
0
100
AcDbLine
 62
7
  6
CONTINUOUS
 10
59.8921573928
 20
51.391801236
 30
0.0
 11
62.2776043566
 21
51.391801236
 31
0.0
  0
LINE
  5
25F
100
AcDbEntity
  8
RACCORDO
100
AcDbLine
 62
250
  6
CONTINUOUS
 10
37.005612864
 20
96.5545291145
 30
0.0
 11
37.0057104663
 21
96.5492072761
 31
0.0
  0
LINE
  5
260
100
AcDbEntity
  8
RACCORDO
100
AcDbLine
 62
250
  6
CONTINUOUS
 10
37.0057104663
 20
96.5492072761
 30
0.0
 11
37.0059999934
 21
96.4325306905
 31
0.0
  0
LINE
  5
261
100
AcDbEntity
  8
RACCORDO
100
AcDbLine
 62
250
  6
CONTINUOUS
 10
37.005612864
 20
96.5545291145
 30
0.0
 11
37.0062206666
 21
95.4055562331
 31
0.0
  0
LINE
  5
262
100
AcDbEntity
  8
RACCORDO
100
AcDbLine
 62
250
  6
CONTINUOUS
 10
37.0059999934
 20
96.4325306905
 30
0.0
 11
37.0062583438
 21
96.0466914874
 31
0.0
  0
LINE
  5
263
100
AcDbEntity
  8
RACCORDO
100
AcDbLine
 62
7
  6
CONTINUOUS
 10
36.3848808747
 20
52.9752611037
 30
0.0
 11
36.3848808747
 21
96.1756037788
 31
0.0
  0
LINE
  5
264
100
AcDbEntity
  8
RACCORDO
100
AcDbLine
 62
250
  6
CONTINUOUS
 10
37.0062583438
 20
96.0466914874
 30
0.0
 11
37.0062883508
 21
95.8998347697
 31
0.0
  0
LINE
  5
265
100
AcDbEntity
  8
RACCORDO
100
AcDbLine
 62
250
  6
CONTINUOUS
 10
37.0062206505
 20
53.74530865
 30
0.0
 11
37.0056128686
 21
52.5963357727
 31
0.0
  0
LINE
  5
266
100
AcDbEntity
  8
RACCORDO
100
AcDbLine
 62
250
  6
CONTINUOUS
 10
37.006143767
 20
52.8555342915
 30
0.0
 11
37.0058789827
 21
52.6540478846
 31
0.0
  0
LWPOLYLINE
  5
267
100
AcDbEntity
  8
RACCORDO
100
AcDbPolyline
 62
250
  6
CONTINUOUS
 90
3
 70
0
 10
37.0058789827
 20
52.6540478846
 10
37.0057104693
 20
52.6016576112
 10
37.0056128686
 20
52.5963357727
  0
LINE
  5
268
100
AcDbEntity
  8
0
100
AcDbLine
 62
7
  6
CONTINUOUS
 10
77.0348808747
 20
52.0025461976
 30
0.0
 11
74.2348808747
 21
52.0025461976
 31
0.0
  0
LINE
  5
269
100
AcDbEntity
  8
0
100
AcDbLine
 62
7
  6
CONTINUOUS
 10
65.3348808747
 20
52.0025461976
 30
0.0
 11
62.5348808747
 21
52.0025461976
 31
0.0
  0
LINE
  5
26A
100
AcDbEntity
  8
0
100
AcDbLine
 62
7
  6
CONTINUOUS
 10
68.7848808747
 20
52.084466814
 30
0.0
 11
70.7848808747
 21
52.084466814
 31
0.0
  0
LINE
  5
26B
100
AcDbEntity
  8
0
100
AcDbLine
 62
7
  6
CONTINUOUS
 10
59.143165053
 20
52.0850485507
 30
0.0
 11
59.6348808747
 21
52.0850485507
 31
0.0
  0
LINE
  5
26C
100
AcDbEntity
  8
0
100
AcDbLine
 62
7
  6
CONTINUOUS
 10
79.9348808747
 20
52.0850485507
 30
0.0
 11
80.4265966964
 21
52.0850485507
 31
0.0
  0
LINE
  5
26D
100
AcDbEntity
  8
0
100
AcDbLine
 62
7
  6
CONTINUOUS
 10
70.7848808747
 20
52.0932905945
 30
0.0
 11
68.7848808747
 21
52.0932905945
 31
0.0
  0
LINE
  5
26E
100
AcDbEntity
  8
0
100
AcDbLine
 62
7
  6
CONTINUOUS
 10
59.1344381852
 20
52.0932905945
 30
0.0
 11
59.6348808747
 21
52.0932905945
 31
0.0
  0
LINE
  5
26F
100
AcDbEntity
  8
0
100
AcDbLine
 62
7
  6
CONTINUOUS
 10
62.5348808747
 20
52.0932905945
 30
0.0
 11
65.3348808747
 21
52.0932905945
 31
0.0
  0
LINE
  5
270
100
AcDbEntity
  8
0
100
AcDbLine
 62
7
  6
CONTINUOUS
 10
74.2348808747
 20
52.0932905945
 30
0.0
 11
77.0348808747
 21
52.0932905945
 31
0.0
  0
LINE
  5
271
100
AcDbEntity
  8
0
100
AcDbLine
 62
7
  6
CONTINUOUS
 10
79.9348808747
 20
52.0932905945
 30
0.0
 11
80.4353235642
 21
52.0932905945
 31
0.0
  0
LINE
  5
272
100
AcDbEntity
  8
0
100
AcDbLine
 62
7
  6
CONTINUOUS
 10
66.2848808747
 20
52.1265215435
 30
0.0
 11
68.5848808747
 21
52.1265215435
 31
0.0
  0
LINE
  5
273
100
AcDbEntity
  8
0
100
AcDbLine
 62
7
  6
CONTINUOUS
 10
70.9848808747
 20
52.1265215435
 30
0.0
 11
73.2848808747
 21
52.1265215435
 31
0.0
  0
LINE
  5
274
100
AcDbEntity
  8
0
100
AcDbLine
 62
7
  6
CONTINUOUS
 10
59.1615556256
 20
52.1929834416
 30
0.0
 11
59.8921573928
 21
52.1929834416
 31
0.0
  0
LINE
  5
275
100
AcDbEntity
  8
0
100
AcDbLine
 62
7
  6
CONTINUOUS
 10
62.2776043566
 20
52.1929834416
 30
0.0
 11
65.3436076194
 21
52.1929834416
 31
0.0
  0
LINE
  5
276
100
AcDbEntity
  8
0
100
AcDbLine
 62
7
  6
CONTINUOUS
 10
66.2848808747
 20
52.1929834416
 30
0.0
 11
73.2848808747
 21
52.1929834416
 31
0.0
  0
LINE
  5
277
100
AcDbEntity
  8
0
100
AcDbLine
 62
7
  6
CONTINUOUS
 10
74.22615413
 20
52.1929834416
 30
0.0
 11
77.2921573928
 21
52.1929834416
 31
0.0
  0
LINE
  5
278
100
AcDbEntity
  8
0
100
AcDbLine
 62
7
  6
CONTINUOUS
 10
79.6776043566
 20
52.1929834416
 30
0.0
 11
80.4082061238
 21
52.1929834416
 31
0.0
  0
LINE
  5
279
100
AcDbEntity
  8
RACCORDO
100
AcDbLine
 62
7
  6
CONTINUOUS
 10
36.8847095372
 20
52.4754324413
 30
0.0
 11
80.1850522122
 21
52.4754324413
 31
0.0
  0
LINE
  5
27A
100
AcDbEntity
  8
RACCORDO
100
AcDbLine
 62
250
  6
CONTINUOUS
 10
61.7945456668
 20
53.7432436852
 30
0.0
 11
80.0635410929
 21
53.7453086434
 31
0.0
  0
LINE
  5
27B
100
AcDbEntity
  8
RACCORDO
100
AcDbLine
 62
250
  6
CONTINUOUS
 10
37.0062225663
 20
53.7439639752
 30
0.0
 11
80.0635391811
 21
53.7439639752
 31
0.0
  0
LINE
  5
27C
100
AcDbEntity
  8
RACCORDO
100
AcDbLine
 62
250
  6
CONTINUOUS
 10
37.0062206545
 20
53.7453086521
 30
0.0
 11
43.7216503481
 21
53.7441969619
 31
0.0
  0
LINE
  5
27D
100
AcDbEntity
  8
RACCORDO
100
AcDbLine
 62
250
  6
CONTINUOUS
 10
48.1791532
 20
53.7436854827
 30
0.0
 11
61.7945456668
 21
53.7432436852
 31
0.0
  0
LINE
  5
27E
100
AcDbEntity
  8
RACCORDO
100
AcDbLine
 62
7
  6
CONTINUOUS
 10
80.907825524
 20
57.9138062888
 30
0.0
 11
80.6848808747
 21
57.9138062888
 31
0.0
  0
LINE
  5
27F
100
AcDbEntity
  8
0
100
AcDbLine
 62
7
  6
CONTINUOUS
 10
80.907825524
 20
57.9138062888
 30
0.0
 11
80.6848808747
 21
57.9138062888
 31
0.0
  0
LINE
  5
280
100
AcDbEntity
  8
0
100
AcDbLine
 62
250
  6
CONTINUOUS
 10
59.143165053
 20
52.0850485507
 30
0.0
 11
59.1344381852
 21
52.0932905945
 31
0.0
  0
LINE
  5
281
100
AcDbEntity
  8
0
100
AcDbLine
 62
250
  6
CONTINUOUS
 10
59.6479794534
 20
98.7572406731
 30
0.0
 11
59.6348808747
 21
98.7386840871
 31
0.0
  0
LINE
  5
282
100
AcDbEntity
  8
0
100
AcDbLine
 62
7
  6
CONTINUOUS
 10
59.680630373
 20
98.8828283393
 30
0.0
 11
59.6941717369
 21
98.9020102078
 31
0.0
  0
LINE
  5
283
100
AcDbEntity
  8
0
100
AcDbLine
 62
7
  6
CONTINUOUS
 10
59.680630373
 20
50.09932496
 30
0.0
 11
59.6854449922
 21
50.0925061573
 31
0.0
  0
LINE
  5
284
100
AcDbEntity
  8
0
100
AcDbLine
 62
250
  6
CONTINUOUS
 10
59.8848766439
 20
49.9934981518
 30
0.0
 11
59.8892484779
 21
49.9873046315
 31
0.0
  0
LINE
  5
285
100
AcDbEntity
  8
DRAFT
100
AcDbLine
 62
7
  6
CONTINUOUS
 10
46.3017265018
 20
61.5755376058
 30
0.0
 11
46.3016804889
 21
64.5754594322
 31
0.0
  0
LINE
  5
286
100
AcDbEntity
  8
0
100
AcDbLine
 62
7
  6
CONTINUOUS
 10
46.3017266603
 20
61.5755376061
 30
0.0
 11
46.3016805302
 21
64.5754594323
 31
0.0
  0
LINE
  5
287
100
AcDbEntity
  8
DRAFT
100
AcDbLine
 62
7
  6
CONTINUOUS
 10
48.2658280608
 20
64.5754616537
 30
0.0
 11
48.2658635405
 21
61.5755110569
 31
0.0
  0
LINE
  5
288
100
AcDbEntity
  8
0
100
AcDbLine
 62
7
  6
CONTINUOUS
 10
48.2658280201
 20
64.5754616537
 30
0.0
 11
48.265863421
 21
61.5755110571
 31
0.0
  0
LWPOLYLINE
  5
289
100
AcDbEntity
  8
0
100
AcDbPolyline
 62
7
  6
CONTINUOUS
 90
3
 70
0
 43
0.3500000006
 10
59.6777395935
 20
112.7056671753
 10
59.6063084106
 20
112.4913826904
 10
59.4634505768
 20
112.2056670227
  0
LINE
  5
28A
100
AcDbEntity
  8
0
100
AcDbLine
 62
7
  6
CONTINUOUS
 10
65.3348808747
 20
98.4887045659
 30
0.0
 11
65.3436076194
 21
98.5010676316
 31
0.0
  0
LINE
  5
28B
100
AcDbEntity
  8
0
100
AcDbLine
 62
7
  6
CONTINUOUS
 10
65.3668958619
 20
50.4480935175
 30
0.0
 11
65.3348808747
 21
50.4934487334
 31
0.0
  0
LWPOLYLINE
  5
28C
100
AcDbEntity
  8
0
100
AcDbPolyline
 62
7
  6
CONTINUOUS
 90
2
 70
0
 43
0.3500000006
 10
55.2491648712
 20
112.4199515076
 10
55.2491648712
 20
113.9199519653
  0
LWPOLYLINE
  5
28D
100
AcDbEntity
  8
0
100
AcDbPolyline
 62
7
  6
CONTINUOUS
 90
2
 70
0
 43
0.3500000006
 10
94.931480072
 20
71.1825782776
 10
93.4314796143
 20
71.1825782776
  0
LINE
  5
28E
100
AcDbEntity
  8
0
100
AcDbLine
 62
250
  6
CONTINUOUS
 10
62.2717865267
 20
50.0382493061
 30
0.0
 11
62.2848851055
 21
49.9934981518
 31
0.0
  0
LINE
  5
28F
100
AcDbEntity
  8
0
100
AcDbLine
 62
250
  6
CONTINUOUS
 10
62.521782296
 20
50.2882203665
 30
0.0
 11
62.5348808747
 21
50.2434692123
 31
0.0
  0
LWPOLYLINE
  5
290
100
AcDbEntity
  8
0
100
AcDbPolyline
 62
7
  6
CONTINUOUS
 90
2
 70
0
 43
0.3500000006
 10
57.6063078003
 20
112.4199515076
 10
57.6063078003
 20
113.9199519653
  0
LINE
  5
291
100
AcDbEntity
  8
RACCORDO
100
AcDbLine
 62
250
  6
CONTINUOUS
 10
36.5057842061
 20
53.0961644352
 30
0.0
 11
36.3848808747
 21
52.9752611037
 31
0.0
  0
LINE
  5
292
100
AcDbEntity
  8
RACCORDO
100
AcDbLine
 62
250
  6
CONTINUOUS
 10
80.0641488811
 20
96.5545291102
 30
0.0
 11
80.1850522122
 21
96.6754324413
 31
0.0
  0
LINE
  5
293
100
AcDbEntity
  8
RACCORDO
100
AcDbLine
 62
250
  6
CONTINUOUS
 10
37.0056128682
 20
52.5963357723
 30
0.0
 11
36.8847095372
 21
52.4754324413
 31
0.0
  0
LWPOLYLINE
  5
294
100
AcDbEntity
  8
0
100
AcDbPolyline
 62
7
  6
CONTINUOUS
 90
2
 70
0
 43
0.3500000006
 10
94.931480072
 20
73.5397166748
 10
93.4314796143
 20
73.5397166748
  0
LINE
  5
295
100
AcDbEntity
  8
DRAFT
100
AcDbLine
 62
7
  6
CONTINUOUS
 10
80.6848808747
 20
74.5346379551
 30
0.0
 11
80.8799253797
 21
74.5346379551
 31
0.0
  0
LINE
  5
296
100
AcDbEntity
  8
0
100
AcDbLine
 62
7
  6
CONTINUOUS
 10
80.6848808747
 20
74.5346379551
 30
0.0
 11
80.8799253797
 21
74.5346379551
 31
0.0
  0
LINE
  5
297
100
AcDbEntity
  8
RACCORDO
100
AcDbLine
 62
250
  6
CONTINUOUS
 10
36.3848808747
 20
96.1756037788
 30
0.0
 11
36.5057842015
 21
96.054700452
 31
0.0
  0
LINE
  5
298
100
AcDbEntity
  8
RACCORDO
100
AcDbLine
 62
250
  6
CONTINUOUS
 10
80.1850522122
 20
52.4754324413
 30
0.0
 11
80.0641488853
 21
52.5963357681
 31
0.0
  0
LINE
  5
299
100
AcDbEntity
  8
RACCORDO
100
AcDbLine
 62
250
  6
CONTINUOUS
 10
36.8847095372
 20
96.6754324413
 30
0.0
 11
37.005612864
 21
96.5545291145
 31
0.0
  0
LINE
  5
29A
100
AcDbEntity
  8
0
100
AcDbLine
 62
7
  6
CONTINUOUS
 10
62.5348808747
 20
52.0932905945
 30
0.0
 11
62.5276001258
 21
52.1764646314
 31
0.0
  0
LINE
  5
29B
100
AcDbEntity
  8
0
100
AcDbLine
 62
250
  6
CONTINUOUS
 10
59.6479794534
 20
50.6807496511
 30
0.0
 11
59.6421616236
 21
51.2439835582
 31
0.0
  0
LINE
  5
29C
100
AcDbEntity
  8
0
100
AcDbLine
 62
250
  6
CONTINUOUS
 10
59.8979752226
 20
50.8989715673
 30
0.0
 11
59.8928846215
 21
51.391801236
 31
0.0
  0
LINE
  5
29D
100
AcDbEntity
  8
0
100
AcDbLine
 62
7
  6
CONTINUOUS
 10
59.6348808747
 20
50.2434692123
 30
0.0
 11
59.6348808747
 21
52.0932905945
 31
0.0
  0
LINE
  5
29E
100
AcDbEntity
  8
0
100
AcDbLine
 62
7
  6
CONTINUOUS
 10
59.6348808747
 20
96.8888627048
 30
0.0
 11
59.6348808747
 21
98.7386840871
 31
0.0
  0
LINE
  5
29F
100
AcDbEntity
  8
0
100
AcDbLine
 62
250
  6
CONTINUOUS
 10
59.6421616236
 20
97.7733588842
 30
0.0
 11
59.6421616236
 21
96.840877811
 31
0.0
  0
LINE
  5
2A0
100
AcDbEntity
  8
0
100
AcDbLine
 62
250
  6
CONTINUOUS
 10
59.6421616236
 20
52.1764646314
 30
0.0
 11
59.6421616236
 21
51.2439835582
 31
0.0
  0
LINE
  5
2A1
100
AcDbEntity
  8
0
100
AcDbLine
 62
250
  6
CONTINUOUS
 10
59.6479794534
 20
98.7572406731
 30
0.0
 11
59.6479794534
 21
98.3647113885
 31
0.0
  0
LINE
  5
2A2
100
AcDbEntity
  8
0
100
AcDbLine
 62
250
  6
CONTINUOUS
 10
59.6479794534
 20
50.6807496511
 30
0.0
 11
59.6479794534
 21
50.2882203665
 31
0.0
  0
LINE
  5
2A3
100
AcDbEntity
  8
0
100
AcDbLine
 62
250
  6
CONTINUOUS
 10
59.8921573928
 20
97.6325299591
 30
0.0
 11
59.8921573928
 21
96.8313477535
 31
0.0
  0
LINE
  5
2A4
100
AcDbEntity
  8
0
100
AcDbLine
 62
250
  6
CONTINUOUS
 10
59.8921573928
 20
52.1929834416
 30
0.0
 11
59.8921573928
 21
51.391801236
 31
0.0
  0
LINE
  5
2A5
100
AcDbEntity
  8
0
100
AcDbLine
 62
250
  6
CONTINUOUS
 10
59.8979752226
 20
50.0382493061
 30
0.0
 11
59.8979752226
 21
50.8989715673
 31
0.0
  0
LINE
  5
2A6
100
AcDbEntity
  8
0
100
AcDbLine
 62
250
  6
CONTINUOUS
 10
59.8979752226
 20
98.1499634004
 30
0.0
 11
59.8979752226
 21
99.0072202248
 31
0.0
  0
LINE
  5
2A7
100
AcDbEntity
  8
0
100
AcDbLine
 62
250
  6
CONTINUOUS
 10
59.6421616236
 20
97.7733588842
 30
0.0
 11
59.6479794534
 21
98.3647113885
 31
0.0
  0
LINE
  5
2A8
100
AcDbEntity
  8
0
100
AcDbLine
 62
250
  6
CONTINUOUS
 10
59.8928846215
 20
97.6325299591
 30
0.0
 11
59.8979752226
 21
98.1499634004
 31
0.0
  0
LINE
  5
2A9
100
AcDbEntity
  8
0
100
AcDbLine
 62
7
  6
CONTINUOUS
 10
62.5348808747
 20
96.8888627048
 30
0.0
 11
62.5276001258
 21
96.840877811
 31
0.0
  0
LINE
  5
2AA
100
AcDbEntity
  8
0
100
AcDbLine
 62
7
  6
CONTINUOUS
 10
77.0937322824
 20
98.9013896438
 30
0.0
 11
77.080630373
 21
98.8828283393
 31
0.0
  0
LINE
  5
2AB
100
AcDbEntity
  8
0
100
AcDbLine
 62
250
  6
CONTINUOUS
 10
77.0479794534
 20
98.7572406731
 30
0.0
 11
77.0348808747
 21
98.7386840871
 31
0.0
  0
LINE
  5
2AC
100
AcDbEntity
  8
RACCORDO
100
AcDbLine
 62
250
  6
CONTINUOUS
 10
80.5639775432
 20
96.0547004473
 30
0.0
 11
80.6848808747
 21
96.1756037788
 31
0.0
  0
LINE
  5
2AD
100
AcDbEntity
  8
RACCORDO
100
AcDbLine
 62
250
  6
CONTINUOUS
 10
80.6848808747
 20
52.9752611037
 30
0.0
 11
80.5639775478
 21
53.0961644306
 31
0.0
  0
LINE
  5
2AE
100
AcDbEntity
  8
0
100
AcDbLine
 62
7
  6
CONTINUOUS
 10
77.080630373
 20
50.09932496
 30
0.0
 11
77.0854449922
 21
50.0925061573
 31
0.0
  0
LINE
  5
2AF
100
AcDbEntity
  8
0
100
AcDbLine
 62
250
  6
CONTINUOUS
 10
77.2848766439
 20
49.9934981518
 30
0.0
 11
77.2892484779
 21
49.9873046315
 31
0.0
  0
LINE
  5
2B0
100
AcDbEntity
  8
0
100
AcDbLine
 62
250
  6
CONTINUOUS
 10
62.2717865267
 20
98.1499634004
 30
0.0
 11
62.2768771278
 21
97.6325299591
 31
0.0
  0
LINE
  5
2B1
100
AcDbEntity
  8
0
100
AcDbLine
 62
250
  6
CONTINUOUS
 10
62.521782296
 20
98.3647113885
 30
0.0
 11
62.5276001258
 21
97.7733588842
 31
0.0
  0
LINE
  5
2B2
100
AcDbEntity
  8
0
100
AcDbLine
 62
250
  6
CONTINUOUS
 10
62.2717865267
 20
50.0382493061
 30
0.0
 11
62.2717865267
 21
50.8989715673
 31
0.0
  0
LINE
  5
2B3
100
AcDbEntity
  8
0
100
AcDbLine
 62
250
  6
CONTINUOUS
 10
62.2717865267
 20
98.1499634004
 30
0.0
 11
62.2717865267
 21
99.0072202248
 31
0.0
  0
LINE
  5
2B4
100
AcDbEntity
  8
0
100
AcDbLine
 62
250
  6
CONTINUOUS
 10
62.2776043566
 20
51.391801236
 30
0.0
 11
62.2776043566
 21
52.1929834416
 31
0.0
  0
LINE
  5
2B5
100
AcDbEntity
  8
0
100
AcDbLine
 62
250
  6
CONTINUOUS
 10
62.2776043566
 20
96.8313477535
 30
0.0
 11
62.2776043566
 21
97.6325299591
 31
0.0
  0
LINE
  5
2B6
100
AcDbEntity
  8
0
100
AcDbLine
 62
250
  6
CONTINUOUS
 10
62.521782296
 20
50.2882203665
 30
0.0
 11
62.521782296
 21
50.6807496511
 31
0.0
  0
LINE
  5
2B7
100
AcDbEntity
  8
0
100
AcDbLine
 62
250
  6
CONTINUOUS
 10
62.521782296
 20
98.3647113885
 30
0.0
 11
62.521782296
 21
98.7572406731
 31
0.0
  0
LINE
  5
2B8
100
AcDbEntity
  8
0
100
AcDbLine
 62
250
  6
CONTINUOUS
 10
62.5276001258
 20
51.2439835582
 30
0.0
 11
62.5276001258
 21
52.1764646314
 31
0.0
  0
LINE
  5
2B9
100
AcDbEntity
  8
0
100
AcDbLine
 62
250
  6
CONTINUOUS
 10
62.5276001258
 20
96.840877811
 30
0.0
 11
62.5276001258
 21
97.7733588842
 31
0.0
  0
LINE
  5
2BA
100
AcDbEntity
  8
0
100
AcDbLine
 62
7
  6
CONTINUOUS
 10
62.5348808747
 20
50.2434692123
 30
0.0
 11
62.5348808747
 21
52.0932905945
 31
0.0
  0
LINE
  5
2BB
100
AcDbEntity
  8
0
100
AcDbLine
 62
7
  6
CONTINUOUS
 10
62.5348808747
 20
96.8888627048
 30
0.0
 11
62.5348808747
 21
98.7386840871
 31
0.0
  0
LINE
  5
2BC
100
AcDbEntity
  8
0
100
AcDbLine
 62
250
  6
CONTINUOUS
 10
62.2768771278
 20
51.391801236
 30
0.0
 11
62.2717865267
 21
50.8989715673
 31
0.0
  0
LINE
  5
2BD
100
AcDbEntity
  8
0
100
AcDbLine
 62
250
  6
CONTINUOUS
 10
62.5276001258
 20
51.2439835582
 30
0.0
 11
62.521782296
 21
50.6807496511
 31
0.0
  0
LINE
  5
2BE
100
AcDbEntity
  8
0
100
AcDbLine
 62
7
  6
CONTINUOUS
 10
59.6348808747
 20
52.0932905945
 30
0.0
 11
59.6421616236
 21
52.1764646314
 31
0.0
  0
LINE
  5
2BF
100
AcDbEntity
  8
0
100
AcDbLine
 62
7
  6
CONTINUOUS
 10
59.6348808747
 20
96.8888627048
 30
0.0
 11
59.6421616236
 21
96.840877811
 31
0.0
  0
LINE
  5
2C0
100
AcDbEntity
  8
0
100
AcDbLine
 62
7
  6
CONTINUOUS
 10
65.2848808747
 20
51.2660385798
 30
0.0
 11
65.2848808747
 21
51.3433647221
 31
0.0
  0
LINE
  5
2C1
100
AcDbEntity
  8
0
100
AcDbLine
 62
7
  6
CONTINUOUS
 10
65.2848808747
 20
97.5614624349
 30
0.0
 11
65.2848808747
 21
97.6387885772
 31
0.0
  0
LINE
  5
2C2
100
AcDbEntity
  8
0
100
AcDbLine
 62
7
  6
CONTINUOUS
 10
65.3348808747
 20
50.4934487334
 30
0.0
 11
65.3348808747
 21
52.0932905945
 31
0.0
  0
LINE
  5
2C3
100
AcDbEntity
  8
0
100
AcDbLine
 62
7
  6
CONTINUOUS
 10
65.3348808747
 20
96.8888627048
 30
0.0
 11
65.3348808747
 21
98.4887045659
 31
0.0
  0
LINE
  5
2C4
100
AcDbEntity
  8
0
100
AcDbLine
 62
7
  6
CONTINUOUS
 10
65.3436076194
 20
98.5010676316
 30
0.0
 11
65.3436076194
 21
96.8313477535
 31
0.0
  0
LINE
  5
2C5
100
AcDbEntity
  8
0
100
AcDbLine
 62
7
  6
CONTINUOUS
 10
65.3436076194
 20
52.1929834416
 30
0.0
 11
65.3436076194
 21
50.5232635635
 31
0.0
  0
LINE
  5
2C6
100
AcDbEntity
  8
0
100
AcDbLine
 62
7
  6
CONTINUOUS
 10
66.2848808747
 20
50.4480935175
 30
0.0
 11
66.2848808747
 21
50.4852066896
 31
0.0
  0
LINE
  5
2C7
100
AcDbEntity
  8
0
100
AcDbLine
 62
7
  6
CONTINUOUS
 10
66.2848808747
 20
50.4994348267
 30
0.0
 11
66.2848808747
 21
52.1929834416
 31
0.0
  0
LINE
  5
2C8
100
AcDbEntity
  8
0
100
AcDbLine
 62
7
  6
CONTINUOUS
 10
66.2848808747
 20
96.8313477535
 30
0.0
 11
66.2848808747
 21
98.5010676316
 31
0.0
  0
LINE
  5
2C9
100
AcDbEntity
  8
0
100
AcDbLine
 62
250
  6
CONTINUOUS
 10
59.1353730282
 20
52.0932905945
 30
0.0
 11
59.1615556256
 21
52.1929834416
 31
0.0
  0
LINE
  5
2CA
100
AcDbEntity
  8
0
100
AcDbLine
 62
250
  6
CONTINUOUS
 10
59.6479794534
 20
50.2882203665
 30
0.0
 11
59.6348808747
 21
50.2434692123
 31
0.0
  0
LINE
  5
2CB
100
AcDbEntity
  8
0
100
AcDbLine
 62
250
  6
CONTINUOUS
 10
68.5848808747
 20
50.4852066896
 30
0.0
 11
68.5848808747
 21
52.1265215435
 31
0.0
  0
LINE
  5
2CC
100
AcDbEntity
  8
0
100
AcDbLine
 62
250
  6
CONTINUOUS
 10
68.5848808747
 20
96.8696910544
 30
0.0
 11
68.5848808747
 21
98.4911935621
 31
0.0
  0
LINE
  5
2CD
100
AcDbEntity
  8
0
100
AcDbLine
 62
7
  6
CONTINUOUS
 10
68.7848808747
 20
50.6851903066
 30
0.0
 11
68.7848808747
 21
52.1132291639
 31
0.0
  0
LINE
  5
2CE
100
AcDbEntity
  8
0
100
AcDbLine
 62
7
  6
CONTINUOUS
 10
68.7848808747
 20
96.8773597146
 30
0.0
 11
68.7848808747
 21
98.2911935621
 31
0.0
  0
LINE
  5
2CF
100
AcDbEntity
  8
0
100
AcDbLine
 62
7
  6
CONTINUOUS
 10
65.3348808747
 20
52.0932905945
 30
0.0
 11
65.3436076194
 21
52.1929834416
 31
0.0
  0
LINE
  5
2D0
100
AcDbEntity
  8
0
100
AcDbLine
 62
250
  6
CONTINUOUS
 10
59.8979752226
 20
50.0382493061
 30
0.0
 11
59.8848766439
 21
49.9934981518
 31
0.0
  0
LINE
  5
2D1
100
AcDbEntity
  8
0
100
AcDbLine
 62
250
  6
CONTINUOUS
 10
59.1615556256
 20
96.8313477535
 30
0.0
 11
59.1353730282
 21
96.8888627048
 31
0.0
  0
LINE
  5
2D2
100
AcDbEntity
  8
0
100
AcDbLine
 62
7
  6
CONTINUOUS
 10
74.2348808747
 20
50.4934487334
 30
0.0
 11
74.22615413
 21
50.5232635635
 31
0.0
  0
LINE
  5
2D3
100
AcDbEntity
  8
0
100
AcDbLine
 62
7
  6
CONTINUOUS
 10
65.3436076194
 20
96.8313477535
 30
0.0
 11
65.3348808747
 21
96.8888627048
 31
0.0
  0
LINE
  5
2D4
100
AcDbEntity
  8
0
100
AcDbLine
 62
7
  6
CONTINUOUS
 10
70.7848808747
 20
98.2911935621
 30
0.0
 11
70.7848808747
 21
96.8773597146
 31
0.0
  0
LINE
  5
2D5
100
AcDbEntity
  8
0
100
AcDbLine
 62
7
  6
CONTINUOUS
 10
70.7848808747
 20
52.1132291639
 30
0.0
 11
70.7848808747
 21
50.6851903066
 31
0.0
  0
LINE
  5
2D6
100
AcDbEntity
  8
0
100
AcDbLine
 62
250
  6
CONTINUOUS
 10
70.9848808747
 20
52.1265215435
 30
0.0
 11
70.9848808747
 21
50.4852066896
 31
0.0
  0
LINE
  5
2D7
100
AcDbEntity
  8
0
100
AcDbLine
 62
250
  6
CONTINUOUS
 10
70.9848808747
 20
96.8696910544
 30
0.0
 11
70.9848808747
 21
98.4911935621
 31
0.0
  0
LINE
  5
2D8
100
AcDbEntity
  8
0
100
AcDbLine
 62
7
  6
CONTINUOUS
 10
74.2348808747
 20
96.8888627048
 30
0.0
 11
74.22615413
 21
96.8313477535
 31
0.0
  0
LINE
  5
2D9
100
AcDbEntity
  8
0
100
AcDbLine
 62
250
  6
CONTINUOUS
 10
80.4343887212
 20
96.8888627048
 30
0.0
 11
80.4082061238
 21
96.8313477535
 31
0.0
  0
LINE
  5
2DA
100
AcDbEntity
  8
0
100
AcDbLine
 62
250
  6
CONTINUOUS
 10
80.9340081214
 20
96.3886832938
 30
0.0
 11
80.907825524
 21
96.3311683425
 31
0.0
  0
LWPOLYLINE
  5
2DB
100
AcDbEntity
  8
0
100
AcDbPolyline
 62
7
  6
CONTINUOUS
 90
3
 70
0
 43
0.3500000006
 10
94.6457644043
 20
75.611148468
 10
94.8600488892
 20
75.5397172852
 10
95.1457645569
 20
75.3968639832
  0
LINE
  5
2DC
100
AcDbEntity
  8
0
100
AcDbLine
 62
7
  6
CONTINUOUS
 10
74.22615413
 20
52.1929834416
 30
0.0
 11
74.2348808747
 21
52.0932905945
 31
0.0
  0
LINE
  5
2DD
100
AcDbEntity
  8
0
100
AcDbLine
 62
7
  6
CONTINUOUS
 10
73.2848808747
 20
98.5010676316
 30
0.0
 11
73.2848808747
 21
96.8313477535
 31
0.0
  0
LINE
  5
2DE
100
AcDbEntity
  8
0
100
AcDbLine
 62
7
  6
CONTINUOUS
 10
73.2848808747
 20
52.1929834416
 30
0.0
 11
73.2848808747
 21
50.4994348267
 31
0.0
  0
LINE
  5
2DF
100
AcDbEntity
  8
0
100
AcDbLine
 62
7
  6
CONTINUOUS
 10
73.2848808747
 20
50.4480935175
 30
0.0
 11
73.2848808747
 21
50.4852066896
 31
0.0
  0
LINE
  5
2E0
100
AcDbEntity
  8
0
100
AcDbLine
 62
7
  6
CONTINUOUS
 10
65.3348808747
 20
50.4934487334
 30
0.0
 11
65.3436076194
 21
50.5232635635
 31
0.0
  0
LWPOLYLINE
  5
2E1
100
AcDbEntity
  8
0
100
AcDbPolyline
 62
7
  6
CONTINUOUS
 90
10
 70
0
 43
0.3500000006
 10
94.4314799194
 20
75.5397172852
 10
94.5743332214
 20
75.611148468
 10
94.6457644043
 20
75.611148468
 10
94.7886177063
 20
75.4682861023
 10
94.7886177063
 20
75.3968639832
 10
94.7171865234
 20
75.3254328003
 10
94.6457644043
 20
75.3254328003
 10
94.5029020386
 20
75.3968639832
 10
94.4314799194
 20
75.4682861023
 10
94.4314799194
 20
75.5397172852
  0
LINE
  5
2E2
100
AcDbEntity
  8
0
100
AcDbLine
 62
250
  6
CONTINUOUS
 10
79.6717865267
 20
50.0382493061
 30
0.0
 11
79.6848851055
 21
49.9934981518
 31
0.0
  0
LINE
  5
2E3
100
AcDbEntity
  8
0
100
AcDbLine
 62
250
  6
CONTINUOUS
 10
79.921782296
 20
50.2882203665
 30
0.0
 11
79.9348808747
 21
50.2434692123
 31
0.0
  0
LINE
  5
2E4
100
AcDbEntity
  8
0
100
AcDbLine
 62
250
  6
CONTINUOUS
 10
80.4082061238
 20
52.1929834416
 30
0.0
 11
80.4343887212
 21
52.0932905945
 31
0.0
  0
LINE
  5
2E5
100
AcDbEntity
  8
0
100
AcDbLine
 62
7
  6
CONTINUOUS
 10
74.22615413
 20
50.5232635635
 30
0.0
 11
74.22615413
 21
52.1929834416
 31
0.0
  0
LINE
  5
2E6
100
AcDbEntity
  8
0
100
AcDbLine
 62
7
  6
CONTINUOUS
 10
74.22615413
 20
96.8313477535
 30
0.0
 11
74.22615413
 21
98.5010676316
 31
0.0
  0
LINE
  5
2E7
100
AcDbEntity
  8
0
100
AcDbLine
 62
7
  6
CONTINUOUS
 10
74.2348808747
 20
52.0932905945
 30
0.0
 11
74.2348808747
 21
50.4934487334
 31
0.0
  0
LINE
  5
2E8
100
AcDbEntity
  8
0
100
AcDbLine
 62
7
  6
CONTINUOUS
 10
74.2348808747
 20
96.8888627048
 30
0.0
 11
74.2348808747
 21
98.4887045659
 31
0.0
  0
LINE
  5
2E9
100
AcDbEntity
  8
0
100
AcDbLine
 62
7
  6
CONTINUOUS
 10
74.2848808747
 20
51.2660385798
 30
0.0
 11
74.2848808747
 21
51.3433647221
 31
0.0
  0
LINE
  5
2EA
100
AcDbEntity
  8
0
100
AcDbLine
 62
7
  6
CONTINUOUS
 10
74.2848808747
 20
97.5614624349
 30
0.0
 11
74.2848808747
 21
97.6387885772
 31
0.0
  0
LINE
  5
2EB
100
AcDbEntity
  8
0
100
AcDbLine
 62
7
  6
CONTINUOUS
 10
79.9348808747
 20
96.8888627048
 30
0.0
 11
79.9276001258
 21
96.840877811
 31
0.0
  0
LINE
  5
2EC
100
AcDbEntity
  8
0
100
AcDbLine
 62
250
  6
CONTINUOUS
 10
62.2848851055
 20
49.9934981518
 30
0.0
 11
62.2805132715
 21
49.9873046315
 31
0.0
  0
LINE
  5
2ED
100
AcDbEntity
  8
0
100
AcDbLine
 62
7
  6
CONTINUOUS
 10
62.4891313763
 20
50.09932496
 30
0.0
 11
62.4847562117
 21
50.0931267212
 31
0.0
  0
LINE
  5
2EE
100
AcDbEntity
  8
RACCORDO
100
AcDbLine
 62
7
  6
CONTINUOUS
 10
80.6848808747
 20
91.1105249063
 30
0.0
 11
80.907825524
 21
91.1105249063
 31
0.0
  0
LINE
  5
2EF
100
AcDbEntity
  8
0
100
AcDbLine
 62
7
  6
CONTINUOUS
 10
80.6848808747
 20
91.1105249063
 30
0.0
 11
80.907825524
 21
91.1105249063
 31
0.0
  0
LINE
  5
2F0
100
AcDbEntity
  8
0
100
AcDbLine
 62
250
  6
CONTINUOUS
 10
62.521782296
 20
98.7572406731
 30
0.0
 11
62.5348808747
 21
98.7386840871
 31
0.0
  0
LINE
  5
2F1
100
AcDbEntity
  8
0
100
AcDbLine
 62
7
  6
CONTINUOUS
 10
62.4755900124
 20
98.9020102078
 30
0.0
 11
62.4891313763
 21
98.8828283393
 31
0.0
  0
LWPOLYLINE
  5
2F2
100
AcDbEntity
  8
0
100
AcDbPolyline
 62
7
  6
CONTINUOUS
 90
10
 70
0
 43
0.3500000006
 10
59.6063084106
 20
112.9199516602
 10
59.6777395935
 20
112.7770892944
 10
59.6777395935
 20
112.7056671753
 10
59.5348817596
 20
112.5628048096
 10
59.4634505768
 20
112.5628048096
 10
59.3920239258
 20
112.6342359924
 10
59.3920239258
 20
112.7056671753
 10
59.4634505768
 20
112.8485204773
 10
59.5348817596
 20
112.9199516602
 10
59.6063084106
 20
112.9199516602
  0
LINE
  5
2F3
100
AcDbEntity
  8
0
100
AcDbLine
 62
250
  6
CONTINUOUS
 10
80.907825524
 20
52.6931628526
 30
0.0
 11
80.9340081214
 21
52.5934700055
 31
0.0
  0
LINE
  5
2F4
100
AcDbEntity
  8
0
100
AcDbLine
 62
7
  6
CONTINUOUS
 10
79.9348808747
 20
52.0932905945
 30
0.0
 11
79.9276001258
 21
52.1764646314
 31
0.0
  0
LINE
  5
2F5
100
AcDbEntity
  8
0
100
AcDbLine
 62
250
  6
CONTINUOUS
 10
77.0479794534
 20
50.6807496511
 30
0.0
 11
77.0421616236
 21
51.2439835582
 31
0.0
  0
LINE
  5
2F6
100
AcDbEntity
  8
0
100
AcDbLine
 62
250
  6
CONTINUOUS
 10
77.2979752226
 20
50.8989715673
 30
0.0
 11
77.2928846215
 21
51.391801236
 31
0.0
  0
LINE
  5
2F7
100
AcDbEntity
  8
0
100
AcDbLine
 62
7
  6
CONTINUOUS
 10
77.0348808747
 20
50.2434692123
 30
0.0
 11
77.0348808747
 21
52.0932905945
 31
0.0
  0
LINE
  5
2F8
100
AcDbEntity
  8
0
100
AcDbLine
 62
7
  6
CONTINUOUS
 10
77.0348808747
 20
96.8888627048
 30
0.0
 11
77.0348808747
 21
98.7386840871
 31
0.0
  0
LINE
  5
2F9
100
AcDbEntity
  8
0
100
AcDbLine
 62
250
  6
CONTINUOUS
 10
77.0421616236
 20
97.7733588842
 30
0.0
 11
77.0421616236
 21
96.840877811
 31
0.0
  0
LINE
  5
2FA
100
AcDbEntity
  8
0
100
AcDbLine
 62
250
  6
CONTINUOUS
 10
77.0421616236
 20
52.1764646314
 30
0.0
 11
77.0421616236
 21
51.2439835582
 31
0.0
  0
LINE
  5
2FB
100
AcDbEntity
  8
0
100
AcDbLine
 62
250
  6
CONTINUOUS
 10
77.0479794534
 20
98.7572406731
 30
0.0
 11
77.0479794534
 21
98.3647113885
 31
0.0
  0
LINE
  5
2FC
100
AcDbEntity
  8
0
100
AcDbLine
 62
250
  6
CONTINUOUS
 10
77.0479794534
 20
50.6807496511
 30
0.0
 11
77.0479794534
 21
50.2882203665
 31
0.0
  0
LINE
  5
2FD
100
AcDbEntity
  8
0
100
AcDbLine
 62
250
  6
CONTINUOUS
 10
77.2921573928
 20
97.6325299591
 30
0.0
 11
77.2921573928
 21
96.8313477535
 31
0.0
  0
LINE
  5
2FE
100
AcDbEntity
  8
0
100
AcDbLine
 62
250
  6
CONTINUOUS
 10
77.2921573928
 20
52.1929834416
 30
0.0
 11
77.2921573928
 21
51.391801236
 31
0.0
  0
LINE
  5
2FF
100
AcDbEntity
  8
0
100
AcDbLine
 62
250
  6
CONTINUOUS
 10
77.2979752226
 20
50.0382493061
 30
0.0
 11
77.2979752226
 21
50.8989715673
 31
0.0
  0
LINE
  5
300
100
AcDbEntity
  8
0
100
AcDbLine
 62
250
  6
CONTINUOUS
 10
77.2979752226
 20
98.1499634004
 30
0.0
 11
77.2979752226
 21
99.0072202248
 31
0.0
  0
LINE
  5
301
100
AcDbEntity
  8
0
100
AcDbLine
 62
250
  6
CONTINUOUS
 10
77.0421616236
 20
97.7733588842
 30
0.0
 11
77.0479794534
 21
98.3647113885
 31
0.0
  0
LINE
  5
302
100
AcDbEntity
  8
0
100
AcDbLine
 62
250
  6
CONTINUOUS
 10
77.2928846215
 20
97.6325299591
 30
0.0
 11
77.2979752226
 21
98.1499634004
 31
0.0
  0
LINE
  5
303
100
AcDbEntity
  8
0
100
AcDbLine
 62
7
  6
CONTINUOUS
 10
77.0348808747
 20
52.0932905945
 30
0.0
 11
77.0421616236
 21
52.1764646314
 31
0.0
  0
LINE
  5
304
100
AcDbEntity
  8
RACCORDO
100
AcDbLine
 62
250
  6
CONTINUOUS
 10
80.0641488853
 20
52.5963357681
 30
0.0
 11
80.0640512831
 21
52.6016576065
 31
0.0
  0
LINE
  5
305
100
AcDbEntity
  8
0
100
AcDbLine
 62
250
  6
CONTINUOUS
 10
79.6717865267
 20
98.1499634004
 30
0.0
 11
79.6768771278
 21
97.6325299591
 31
0.0
  0
LINE
  5
306
100
AcDbEntity
  8
0
100
AcDbLine
 62
250
  6
CONTINUOUS
 10
79.921782296
 20
98.3647113885
 30
0.0
 11
79.9276001258
 21
97.7733588842
 31
0.0
  0
LINE
  5
307
100
AcDbEntity
  8
DRAFT
100
AcDbLine
 62
7
  6
CONTINUOUS
 10
80.8799253797
 20
74.5346379551
 30
0.0
 11
80.907825524
 21
57.9138062888
 31
0.0
  0
LINE
  5
308
100
AcDbEntity
  8
0
100
AcDbLine
 62
7
  6
CONTINUOUS
 10
80.8799253797
 20
74.5346379551
 30
0.0
 11
80.907825524
 21
57.9138062888
 31
0.0
  0
LINE
  5
309
100
AcDbEntity
  8
RACCORDO
100
AcDbLine
 62
250
  6
CONTINUOUS
 10
80.0640512831
 20
52.6016576065
 30
0.0
 11
80.0637617563
 21
52.718334192
 31
0.0
  0
LINE
  5
30A
100
AcDbEntity
  8
RACCORDO
100
AcDbLine
 62
250
  6
CONTINUOUS
 10
80.0641488853
 20
52.5963357681
 30
0.0
 11
80.0635410833
 21
53.7453086489
 31
0.0
  0
LINE
  5
30B
100
AcDbEntity
  8
0
100
AcDbLine
 62
250
  6
CONTINUOUS
 10
79.6717865267
 20
50.0382493061
 30
0.0
 11
79.6717865267
 21
50.8989715673
 31
0.0
  0
LINE
  5
30C
100
AcDbEntity
  8
0
100
AcDbLine
 62
250
  6
CONTINUOUS
 10
79.6717865267
 20
98.1499634004
 30
0.0
 11
79.6717865267
 21
99.0072202248
 31
0.0
  0
LINE
  5
30D
100
AcDbEntity
  8
0
100
AcDbLine
 62
250
  6
CONTINUOUS
 10
79.6776043566
 20
51.391801236
 30
0.0
 11
79.6776043566
 21
52.1929834416
 31
0.0
  0
LINE
  5
30E
100
AcDbEntity
  8
0
100
AcDbLine
 62
250
  6
CONTINUOUS
 10
79.6776043566
 20
96.8313477535
 30
0.0
 11
79.6776043566
 21
97.6325299591
 31
0.0
  0
LINE
  5
30F
100
AcDbEntity
  8
0
100
AcDbLine
 62
250
  6
CONTINUOUS
 10
79.921782296
 20
50.2882203665
 30
0.0
 11
79.921782296
 21
50.6807496511
 31
0.0
  0
LINE
  5
310
100
AcDbEntity
  8
0
100
AcDbLine
 62
250
  6
CONTINUOUS
 10
79.921782296
 20
98.3647113885
 30
0.0
 11
79.921782296
 21
98.7572406731
 31
0.0
  0
LINE
  5
311
100
AcDbEntity
  8
0
100
AcDbLine
 62
250
  6
CONTINUOUS
 10
79.9276001258
 20
51.2439835582
 30
0.0
 11
79.9276001258
 21
52.1764646314
 31
0.0
  0
LINE
  5
312
100
AcDbEntity
  8
0
100
AcDbLine
 62
250
  6
CONTINUOUS
 10
79.9276001258
 20
96.840877811
 30
0.0
 11
79.9276001258
 21
97.7733588842
 31
0.0
  0
LINE
  5
313
100
AcDbEntity
  8
0
100
AcDbLine
 62
7
  6
CONTINUOUS
 10
79.9348808747
 20
50.2434692123
 30
0.0
 11
79.9348808747
 21
52.0932905945
 31
0.0
  0
LINE
  5
314
100
AcDbEntity
  8
0
100
AcDbLine
 62
7
  6
CONTINUOUS
 10
79.9348808747
 20
96.8888627048
 30
0.0
 11
79.9348808747
 21
98.7386840871
 31
0.0
  0
LINE
  5
315
100
AcDbEntity
  8
RACCORDO
100
AcDbLine
 62
250
  6
CONTINUOUS
 10
80.0637617563
 20
52.718334192
 30
0.0
 11
80.0634733993
 21
53.2510301129
 31
0.0
  0
LINE
  5
316
100
AcDbEntity
  8
RACCORDO
100
AcDbLine
 62
7
  6
CONTINUOUS
 10
80.6848808747
 20
52.9752611037
 30
0.0
 11
80.6848808747
 21
96.1756037788
 31
0.0
  0
LINE
  5
317
100
AcDbEntity
  8
DRAFT
100
AcDbLine
 62
7
  6
CONTINUOUS
 10
80.907825524
 20
52.6931628526
 30
0.0
 11
80.907825524
 21
57.9138062888
 31
0.0
  0
LINE
  5
318
100
AcDbEntity
  8
0
100
AcDbLine
 62
7
  6
CONTINUOUS
 10
80.907825524
 20
52.6931628526
 30
0.0
 11
80.907825524
 21
57.9138062888
 31
0.0
  0
LINE
  5
319
100
AcDbEntity
  8
DRAFT
100
AcDbLine
 62
7
  6
CONTINUOUS
 10
80.907825524
 20
91.1105249063
 30
0.0
 11
80.907825524
 21
96.3311683425
 31
0.0
  0
LINE
  5
31A
100
AcDbEntity
  8
0
100
AcDbLine
 62
7
  6
CONTINUOUS
 10
80.907825524
 20
91.1105249063
 30
0.0
 11
80.907825524
 21
96.3311683425
 31
0.0
  0
LINE
  5
31B
100
AcDbEntity
  8
0
100
AcDbLine
 62
7
  6
CONTINUOUS
 10
80.9340081214
 20
52.5934700055
 30
0.0
 11
80.9340081214
 21
96.3886832938
 31
0.0
  0
LINE
  5
31C
100
AcDbEntity
  8
0
100
AcDbLine
 62
7
  6
CONTINUOUS
 10
80.9353172181
 20
52.5932242547
 30
0.0
 11
80.9353172181
 21
96.3889290446
 31
0.0
  0
LINE
  5
31D
100
AcDbEntity
  8
RACCORDO
100
AcDbLine
 62
250
  6
CONTINUOUS
 10
80.0635410988
 20
95.4055562319
 30
0.0
 11
80.0635034194
 21
96.0466914829
 31
0.0
  0
LINE
  5
31E
100
AcDbEntity
  8
RACCORDO
100
AcDbLine
 62
250
  6
CONTINUOUS
 10
80.0635410988
 20
95.4055562319
 30
0.0
 11
80.0641488807
 21
96.5545291098
 31
0.0
  0
LINE
  5
31F
100
AcDbEntity
  8
RACCORDO
100
AcDbLine
 62
250
  6
CONTINUOUS
 10
80.0635034194
 20
96.0466914829
 30
0.0
 11
80.0635850845
 21
96.2396412399
 31
0.0
  0
LWPOLYLINE
  5
320
100
AcDbEntity
  8
RACCORDO
100
AcDbPolyline
 62
250
  6
CONTINUOUS
 90
3
 70
0
 10
80.0635850845
 20
96.2396412399
 10
80.063714776
 20
96.3920249891
 10
80.063761761
 20
96.432530685
  0
LINE
  5
321
100
AcDbEntity
  8
DRAFT
100
AcDbLine
 62
7
  6
CONTINUOUS
 10
80.907825524
 20
91.1105249063
 30
0.0
 11
80.8799253797
 21
74.5346379551
 31
0.0
  0
LINE
  5
322
100
AcDbEntity
  8
0
100
AcDbLine
 62
7
  6
CONTINUOUS
 10
80.907825524
 20
91.1105249063
 30
0.0
 11
80.8799253797
 21
74.5346379551
 31
0.0
  0
LWPOLYLINE
  5
323
100
AcDbEntity
  8
RACCORDO
100
AcDbPolyline
 62
250
  6
CONTINUOUS
 90
3
 70
0
 10
80.063986856
 20
96.537768358
 10
80.06405128
 20
96.5492072713
 10
80.0641488807
 20
96.5545291098
  0
LINE
  5
324
100
AcDbEntity
  8
0
100
AcDbLine
 62
250
  6
CONTINUOUS
 10
79.6768771278
 20
51.391801236
 30
0.0
 11
79.6717865267
 21
50.8989715673
 31
0.0
  0
LINE
  5
325
100
AcDbEntity
  8
0
100
AcDbLine
 62
250
  6
CONTINUOUS
 10
79.9276001258
 20
51.2439835582
 30
0.0
 11
79.921782296
 21
50.6807496511
 31
0.0
  0
LINE
  5
326
100
AcDbEntity
  8
RACCORDO
100
AcDbLine
 62
250
  6
CONTINUOUS
 10
80.063539183
 20
95.4069009215
 30
0.0
 11
37.0062225685
 21
95.4069009215
 31
0.0
  0
LINE
  5
327
100
AcDbEntity
  8
RACCORDO
100
AcDbLine
 62
250
  6
CONTINUOUS
 10
50.4395015357
 20
95.4073689169
 30
0.0
 11
37.0062206567
 21
95.4055562387
 31
0.0
  0
LINE
  5
328
100
AcDbEntity
  8
RACCORDO
100
AcDbLine
 62
7
  6
CONTINUOUS
 10
36.8847095372
 20
96.6754324413
 30
0.0
 11
80.1850522122
 21
96.6754324413
 31
0.0
  0
LINE
  5
329
100
AcDbEntity
  8
0
100
AcDbLine
 62
7
  6
CONTINUOUS
 10
59.1615556256
 20
96.8313477535
 30
0.0
 11
59.8921573928
 21
96.8313477535
 31
0.0
  0
LINE
  5
32A
100
AcDbEntity
  8
0
100
AcDbLine
 62
7
  6
CONTINUOUS
 10
62.2776043566
 20
96.8313477535
 30
0.0
 11
65.3436076194
 21
96.8313477535
 31
0.0
  0
LINE
  5
32B
100
AcDbEntity
  8
0
100
AcDbLine
 62
7
  6
CONTINUOUS
 10
66.2848808747
 20
96.8313477535
 30
0.0
 11
73.2848808747
 21
96.8313477535
 31
0.0
  0
LINE
  5
32C
100
AcDbEntity
  8
0
100
AcDbLine
 62
7
  6
CONTINUOUS
 10
74.22615413
 20
96.8313477535
 30
0.0
 11
77.2921573928
 21
96.8313477535
 31
0.0
  0
LINE
  5
32D
100
AcDbEntity
  8
0
100
AcDbLine
 62
7
  6
CONTINUOUS
 10
79.6776043566
 20
96.8313477535
 30
0.0
 11
80.4082061238
 21
96.8313477535
 31
0.0
  0
LINE
  5
32E
100
AcDbEntity
  8
0
100
AcDbLine
 62
7
  6
CONTINUOUS
 10
66.2848808747
 20
96.8696910544
 30
0.0
 11
68.5848808747
 21
96.8696910544
 31
0.0
  0
LINE
  5
32F
100
AcDbEntity
  8
0
100
AcDbLine
 62
7
  6
CONTINUOUS
 10
70.9848808747
 20
96.8696910544
 30
0.0
 11
73.2848808747
 21
96.8696910544
 31
0.0
  0
LINE
  5
330
100
AcDbEntity
  8
0
100
AcDbLine
 62
7
  6
CONTINUOUS
 10
70.7848808747
 20
96.8888627048
 30
0.0
 11
68.7848808747
 21
96.8888627048
 31
0.0
  0
LINE
  5
331
100
AcDbEntity
  8
0
100
AcDbLine
 62
7
  6
CONTINUOUS
 10
59.1353730282
 20
96.8888627048
 30
0.0
 11
59.6348808747
 21
96.8888627048
 31
0.0
  0
LINE
  5
332
100
AcDbEntity
  8
0
100
AcDbLine
 62
7
  6
CONTINUOUS
 10
62.5348808747
 20
96.8888627048
 30
0.0
 11
65.3348808747
 21
96.8888627048
 31
0.0
  0
LINE
  5
333
100
AcDbEntity
  8
0
100
AcDbLine
 62
7
  6
CONTINUOUS
 10
74.2348808747
 20
96.8888627048
 30
0.0
 11
77.0348808747
 21
96.8888627048
 31
0.0
  0
LINE
  5
334
100
AcDbEntity
  8
0
100
AcDbLine
 62
7
  6
CONTINUOUS
 10
79.9348808747
 20
96.8888627048
 30
0.0
 11
80.4343887212
 21
96.8888627048
 31
0.0
  0
LINE
  5
335
100
AcDbEntity
  8
0
100
AcDbLine
 62
7
  6
CONTINUOUS
 10
79.6776043566
 20
97.6325299591
 30
0.0
 11
77.2921573928
 21
97.6325299591
 31
0.0
  0
LINE
  5
336
100
AcDbEntity
  8
0
100
AcDbLine
 62
7
  6
CONTINUOUS
 10
59.8921573928
 20
97.6325299591
 30
0.0
 11
62.2776043566
 21
97.6325299591
 31
0.0
  0
LINE
  5
337
100
AcDbEntity
  8
RACCORDO
100
AcDbLine
 62
250
  6
CONTINUOUS
 10
68.8906514257
 20
95.4071793966
 30
0.0
 11
50.4395015357
 21
95.4073689169
 31
0.0
  0
LINE
  5
338
100
AcDbEntity
  8
RACCORDO
100
AcDbLine
 62
250
  6
CONTINUOUS
 10
80.0635410948
 20
95.4055562298
 30
0.0
 11
73.3480277356
 21
95.4066679321
 31
0.0
  0
LINE
  5
339
100
AcDbEntity
  8
0
100
AcDbLine
 62
7
  6
CONTINUOUS
 10
77.0348808747
 20
96.8888627048
 30
0.0
 11
77.0421616236
 21
96.840877811
 31
0.0
  0
LINE
  5
33A
100
AcDbEntity
  8
0
100
AcDbLine
 62
250
  6
CONTINUOUS
 10
77.0479794534
 20
50.2882203665
 30
0.0
 11
77.0348808747
 21
50.2434692123
 31
0.0
  0
LINE
  5
33B
100
AcDbEntity
  8
0
100
AcDbLine
 62
250
  6
CONTINUOUS
 10
77.2979752226
 20
50.0382493061
 30
0.0
 11
77.2848766439
 21
49.9934981518
 31
0.0
  0
LINE
  5
33C
100
AcDbEntity
  8
0
100
AcDbLine
 62
250
  6
CONTINUOUS
 10
59.8979752226
 20
98.1499634004
 30
0.0
 11
62.2717865267
 21
98.1499634004
 31
0.0
  0
LINE
  5
33D
100
AcDbEntity
  8
0
100
AcDbLine
 62
250
  6
CONTINUOUS
 10
77.2979752226
 20
98.1499634004
 30
0.0
 11
79.6717865267
 21
98.1499634004
 31
0.0
  0
LINE
  5
33E
100
AcDbEntity
  8
0
100
AcDbLine
 62
250
  6
CONTINUOUS
 10
73.2848808747
 20
98.2940054218
 30
0.0
 11
70.9848808747
 21
98.2940054218
 31
0.0
  0
LINE
  5
33F
100
AcDbEntity
  8
0
100
AcDbLine
 62
250
  6
CONTINUOUS
 10
68.5848808747
 20
98.2940054218
 30
0.0
 11
66.2848808747
 21
98.2940054218
 31
0.0
  0
LINE
  5
340
100
AcDbEntity
  8
0
100
AcDbLine
 62
250
  6
CONTINUOUS
 10
59.8979752226
 20
98.3682057649
 30
0.0
 11
62.2717865267
 21
98.3682057649
 31
0.0
  0
LINE
  5
341
100
AcDbEntity
  8
0
100
AcDbLine
 62
250
  6
CONTINUOUS
 10
77.2979752226
 20
98.3682057649
 30
0.0
 11
79.6717865267
 21
98.3682057649
 31
0.0
  0
LINE
  5
342
100
AcDbEntity
  8
0
100
AcDbLine
 62
7
  6
CONTINUOUS
 10
73.2848808747
 20
98.4911935621
 30
0.0
 11
70.9848808747
 21
98.4911935621
 31
0.0
  0
LINE
  5
343
100
AcDbEntity
  8
0
100
AcDbLine
 62
7
  6
CONTINUOUS
 10
68.5848808747
 20
98.4911935621
 30
0.0
 11
66.2848808747
 21
98.4911935621
 31
0.0
  0
LINE
  5
344
100
AcDbEntity
  8
0
100
AcDbLine
 62
7
  6
CONTINUOUS
 10
65.3436076194
 20
98.5010676316
 30
0.0
 11
66.2848808747
 21
98.5010676316
 31
0.0
  0
LINE
  5
345
100
AcDbEntity
  8
0
100
AcDbLine
 62
7
  6
CONTINUOUS
 10
73.2848808747
 20
98.5010676316
 30
0.0
 11
74.22615413
 21
98.5010676316
 31
0.0
  0
LINE
  5
346
100
AcDbEntity
  8
0
100
AcDbLine
 62
250
  6
CONTINUOUS
 10
79.6717865267
 20
98.7607350495
 30
0.0
 11
77.2979752226
 21
98.7607350495
 31
0.0
  0
LINE
  5
347
100
AcDbEntity
  8
0
100
AcDbLine
 62
250
  6
CONTINUOUS
 10
62.2717865267
 20
98.7607350495
 30
0.0
 11
59.8979752226
 21
98.7607350495
 31
0.0
  0
LINE
  5
348
100
AcDbEntity
  8
0
100
AcDbLine
 62
7
  6
CONTINUOUS
 10
79.6717865267
 20
99.0072202248
 30
0.0
 11
77.2979752226
 21
99.0072202248
 31
0.0
  0
LINE
  5
349
100
AcDbEntity
  8
0
100
AcDbLine
 62
7
  6
CONTINUOUS
 10
62.2717865267
 20
99.0072202248
 30
0.0
 11
59.8979752226
 21
99.0072202248
 31
0.0
  0
LINE
  5
34A
100
AcDbEntity
  8
0
100
AcDbLine
 62
7
  6
CONTINUOUS
 10
74.2028658874
 20
50.4480935175
 30
0.0
 11
74.2348808747
 21
50.4934487334
 31
0.0
  0
LINE
  5
34B
100
AcDbEntity
  8
0
100
AcDbLine
 62
7
  6
CONTINUOUS
 10
74.22615413
 20
98.5010676316
 30
0.0
 11
74.2348808747
 21
98.4887045659
 31
0.0
  0
LINE
  5
34C
100
AcDbEntity
  8
0
100
AcDbLine
 62
250
  6
CONTINUOUS
 10
79.6848851055
 20
49.9934981518
 30
0.0
 11
79.6805132715
 21
49.9873046315
 31
0.0
  0
LINE
  5
34D
100
AcDbEntity
  8
0
100
AcDbLine
 62
7
  6
CONTINUOUS
 10
79.8891313763
 20
50.09932496
 30
0.0
 11
79.8843167572
 21
50.0925061573
 31
0.0
  0
LINE
  5
34E
100
AcDbEntity
  8
0
100
AcDbLine
 62
250
  6
CONTINUOUS
 10
80.4353235642
 20
52.0932905945
 30
0.0
 11
80.4265966964
 21
52.0850485507
 31
0.0
  0
LINE
  5
34F
100
AcDbEntity
  8
0
100
AcDbLine
 62
250
  6
CONTINUOUS
 10
79.921782296
 20
98.7572406731
 30
0.0
 11
79.9348808747
 21
98.7386840871
 31
0.0
  0
LINE
  5
350
100
AcDbEntity
  8
0
100
AcDbLine
 62
7
  6
CONTINUOUS
 10
79.876029467
 20
98.9013896438
 30
0.0
 11
79.8891313763
 21
98.8828283393
 31
0.0
  0
LWPOLYLINE
  5
351
100
AcDbEntity
  8
0
100
AcDbPolyline
 62
7
  6
CONTINUOUS
 90
3
 70
0
 43
0.3500000006
 10
94.2886175537
 20
74.0397168274
 10
94.2886175537
 20
72.5397163696
 10
91.9314791565
 20
73.1825788879
  0
LWPOLYLINE
  5
352
100
AcDbEntity
  8
0
100
AcDbPolyline
 62
7
  6
CONTINUOUS
 90
3
 70
0
 43
0.3500000006
 10
94.2886175537
 20
71.6825784302
 10
94.2886175537
 20
70.1825779724
 10
91.9314791565
 20
70.825431427
  0
LWPOLYLINE
  5
353
100
AcDbEntity
  8
0
100
AcDbPolyline
 62
7
  6
CONTINUOUS
 90
7
 70
0
 43
0.3500000006
 10
94.931480072
 20
78.111149231
 10
94.931480072
 20
76.6111487732
 10
92.7886170959
 20
78.111149231
 10
92.3600481262
 20
78.111149231
 10
91.9314791565
 20
77.6825711975
 10
91.9314791565
 20
77.0397177429
 10
92.5743326111
 20
76.6111487732
  0
LWPOLYLINE
  5
354
100
AcDbEntity
  8
0
100
AcDbPolyline
 62
7
  6
CONTINUOUS
 90
6
 70
0
 43
0.3500000006
 10
60.6777398987
 20
112.4199515076
 10
61.7491668549
 20
112.4199515076
 10
61.9634513397
 20
112.6342359924
 10
61.9634513397
 20
113.7056674805
 10
61.53488237
 20
114.1342364502
 10
61.1063088684
 20
114.1342364502
  0
LWPOLYLINE
  5
355
100
AcDbEntity
  8
0
100
AcDbPolyline
 62
7
  6
CONTINUOUS
 90
3
 70
0
 43
0.3500000006
 10
58.1063079529
 20
113.0628049622
 10
56.6063074951
 20
113.0628049622
 10
57.2491654816
 20
115.4199524231
  0
LWPOLYLINE
  5
356
100
AcDbEntity
  8
0
100
AcDbPolyline
 62
7
  6
CONTINUOUS
 90
3
 70
0
 43
0.3500000006
 10
55.7491650238
 20
113.0628049622
 10
54.249164566
 20
113.0628049622
 10
54.8920225525
 20
115.4199524231
  0
LWPOLYLINE
  5
357
100
AcDbEntity
  8
0
100
AcDbPolyline
 62
7
  6
CONTINUOUS
 90
10
 70
0
 43
0.3500000006
 10
6.4733472805
 20
115.4199524231
 10
5.830490427
 20
114.7770899048
 10
5.4019191914
 20
113.9199519653
 10
5.4019191914
 20
112.8485204773
 10
5.830490427
 20
112.4199515076
 10
6.4733472805
 20
112.4199515076
 10
6.9019190826
 20
112.8485204773
 10
6.9019190826
 20
113.7056674805
 10
6.4733472805
 20
114.1342364502
 10
5.5447758923
 20
114.1342364502
  0
LINE
  5
358
100
AcDbEntity
  8
0
100
AcDbLine
 62
7
  6
CONTINUOUS
 10
15.2211674612
 20
49.9934981518
 30
0.0
 11
15.9726090876
 21
49.9873046315
 31
0.0
  0
LINE
  5
359
100
AcDbEntity
  8
0
100
AcDbLine
 62
250
  6
CONTINUOUS
 10
15.2246822264
 20
50.2434692123
 30
0.0
 11
15.9761238528
 21
50.2372756919
 31
0.0
  0
LINE
  5
35A
100
AcDbEntity
  8
0
100
AcDbLine
 62
7
  6
CONTINUOUS
 10
20.7310121944
 20
50.4480935175
 30
0.0
 11
16.2281800683
 21
50.4852066896
 31
0.0
  0
LINE
  5
35B
100
AcDbEntity
  8
0
100
AcDbLine
 62
250
  6
CONTINUOUS
 10
16.2246448545
 20
50.2337813156
 30
0.0
 11
15.9761238528
 21
50.2372756919
 31
0.0
  0
LINE
  5
35C
100
AcDbEntity
  8
0
100
AcDbLine
 62
250
  6
CONTINUOUS
 10
12.7251134752
 20
50.2917147428
 30
0.0
 11
12.973634477
 21
50.2882203665
 31
0.0
  0
LINE
  5
35D
100
AcDbEntity
  8
0
100
AcDbLine
 62
7
  6
CONTINUOUS
 10
12.9701197118
 20
50.0382493061
 30
0.0
 11
15.2211674612
 21
49.9934981518
 31
0.0
  0
LINE
  5
35E
100
AcDbEntity
  8
0
100
AcDbLine
 62
250
  6
CONTINUOUS
 10
12.973634477
 20
50.2882203665
 30
0.0
 11
15.2246822264
 21
50.2434692123
 31
0.0
  0
LINE
  5
35F
100
AcDbEntity
  8
0
100
AcDbLine
 62
7
  6
CONTINUOUS
 10
15.2506919882
 20
52.0932905945
 30
0.0
 11
26.2563221561
 21
52.0025801627
 31
0.0
  0
LINE
  5
360
100
AcDbEntity
  8
0
100
AcDbLine
 62
250
  6
CONTINUOUS
 10
16.2302867783
 20
50.6350364823
 30
0.0
 11
15.9817657766
 21
50.6385308587
 31
0.0
  0
LINE
  5
361
100
AcDbEntity
  8
0
100
AcDbLine
 62
250
  6
CONTINUOUS
 10
12.7306327072
 20
50.6842440274
 30
0.0
 11
12.9791537089
 21
50.6807496511
 31
0.0
  0
LINE
  5
362
100
AcDbEntity
  8
RACCORDO
100
AcDbLine
 62
7
  6
CONTINUOUS
 10
11.9662132978
 20
52.4754324413
 30
0.0
 11
6.9760185505
 21
52.6061052895
 31
0.0
  0
LINE
  5
363
100
AcDbEntity
  8
0
100
AcDbLine
 62
7
  6
CONTINUOUS
 10
13.7519454684
 20
52.1929834416
 30
0.0
 11
15.2506919882
 21
52.0932905945
 31
0.0
  0
LINE
  5
364
100
AcDbEntity
  8
RACCORDO
100
AcDbLine
 62
250
  6
CONTINUOUS
 10
6.1808435666
 20
53.7453086214
 30
0.0
 11
6.6670114665
 21
53.7664144708
 31
0.0
  0
LINE
  5
365
100
AcDbEntity
  8
RACCORDO
100
AcDbLine
 62
250
  6
CONTINUOUS
 10
5.8090591381
 20
53.7431974951
 30
0.0
 11
6.1808435641
 21
53.7453086434
 31
0.0
  0
LINE
  5
366
100
AcDbEntity
  8
RACCORDO
100
AcDbLine
 62
250
  6
CONTINUOUS
 10
5.8090401787
 20
53.7435610431
 30
0.0
 11
6.1809003452
 21
53.7439639752
 31
0.0
  0
LINE
  5
367
100
AcDbEntity
  8
0
100
AcDbLine
 62
250
  6
CONTINUOUS
 10
15.2577213996
 20
52.5932242547
 30
0.0
 11
16.2577043574
 21
52.5849822109
 31
0.0
  0
LINE
  5
368
100
AcDbEntity
  8
0
100
AcDbLine
 62
7
  6
CONTINUOUS
 10
17.2715832625
 20
53.5650237421
 30
0.0
 11
27.2705948943
 21
53.4244307561
 31
0.0
  0
LINE
  5
369
100
AcDbEntity
  8
RACCORDO
100
AcDbLine
 62
250
  6
CONTINUOUS
 10
11.9662132978
 20
52.9752611037
 30
0.0
 11
7.3491015211
 21
53.0961644306
 31
0.0
  0
LINE
  5
36A
100
AcDbEntity
  8
0
100
AcDbLine
 62
7
  6
CONTINUOUS
 10
26.7697611
 20
52.747974771
 30
0.0
 11
17.2643082072
 21
53.0476198208
 31
0.0
  0
LINE
  5
36B
100
AcDbEntity
  8
0
100
AcDbLine
 62
250
  6
CONTINUOUS
 10
13.7589783352
 20
52.6931628526
 30
0.0
 11
15.257724855
 21
52.5934700055
 31
0.0
  0
LINE
  5
36C
100
AcDbEntity
  8
0
100
AcDbLine
 62
250
  6
CONTINUOUS
 10
15.8947552778
 20
97.8992479799
 30
0.0
 11
16.6522351
 21
98.3224925961
 31
0.0
  0
LINE
  5
36D
100
AcDbEntity
  8
0
100
AcDbLine
 62
7
  6
CONTINUOUS
 10
15.8907085138
 20
97.6114410112
 30
0.0
 11
16.7727245289
 21
98.10427068
 31
0.0
  0
LINE
  5
36E
100
AcDbEntity
  8
RACCORDO
100
AcDbLine
 62
250
  6
CONTINUOUS
 10
27.1005832759
 20
55.310350141
 30
0.0
 11
27.2970733722
 21
55.307587355
 31
0.0
  0
LINE
  5
36F
100
AcDbEntity
  8
0
100
AcDbLine
 62
250
  6
CONTINUOUS
 10
27.1005832759
 20
55.310350141
 30
0.0
 11
27.2970733722
 21
55.307587355
 31
0.0
  0
LINE
  5
370
100
AcDbEntity
  8
RACCORDO
100
AcDbLine
 62
7
  6
CONTINUOUS
 10
27.0879056491
 20
54.5328433875
 30
0.0
 11
17.2883317272
 21
54.7561791326
 31
0.0
  0
LINE
  5
371
100
AcDbEntity
  8
0
100
AcDbLine
 62
7
  6
CONTINUOUS
 10
27.0879056491
 20
54.5328433875
 30
0.0
 11
17.2883317272
 21
54.7561791326
 31
0.0
  0
LINE
  5
372
100
AcDbEntity
  8
0
100
AcDbLine
 62
7
  6
CONTINUOUS
 10
16.305307857
 20
55.9705561273
 30
0.0
 11
17.3050863265
 21
55.9477708235
 31
0.0
  0
LINE
  5
373
100
AcDbEntity
  8
0
100
AcDbLine
 62
250
  6
CONTINUOUS
 10
15.9817657766
 20
50.6385308587
 30
0.0
 11
15.2364852758
 21
51.0829053194
 31
0.0
  0
LINE
  5
374
100
AcDbEntity
  8
0
100
AcDbLine
 62
7
  6
CONTINUOUS
 10
16.1083430603
 20
50.8532788468
 30
0.0
 11
15.2405320399
 21
51.3707122881
 31
0.0
  0
LWPOLYLINE
  5
375
100
AcDbEntity
  8
0
100
AcDbPolyline
 62
7
  6
CONTINUOUS
 90
3
 70
0
 43
0.3500000006
 10
8.4733473244
 20
112.7056671753
 10
8.4019189739
 20
112.4913826904
 10
8.2590617065
 20
112.2056670227
  0
LINE
  5
376
100
AcDbEntity
  8
RACCORDO
100
AcDbLine
 62
7
  6
CONTINUOUS
 10
13.8211367365
 20
57.1138853583
 30
0.0
 11
11.9662132978
 21
57.1723590189
 31
0.0
  0
LINE
  5
377
100
AcDbEntity
  8
0
100
AcDbLine
 62
7
  6
CONTINUOUS
 10
13.8211367365
 20
57.1138853583
 30
0.0
 11
11.9662132978
 21
57.1723590189
 31
0.0
  0
LINE
  5
378
100
AcDbEntity
  8
RACCORDO
100
AcDbLine
 62
250
  6
CONTINUOUS
 10
13.8159249879
 20
58.1142416548
 30
0.0
 11
11.9662132978
 21
58.1725510229
 31
0.0
  0
LINE
  5
379
100
AcDbEntity
  8
0
100
AcDbLine
 62
250
  6
CONTINUOUS
 10
13.8159249879
 20
58.1142416548
 30
0.0
 11
11.9662132978
 21
58.1725510229
 31
0.0
  0
LINE
  5
37A
100
AcDbEntity
  8
RACCORDO
100
AcDbLine
 62
7
  6
CONTINUOUS
 10
17.775753895
 20
89.4217770815
 30
0.0
 11
27.6936808261
 21
92.8744845663
 31
0.0
  0
LINE
  5
37B
100
AcDbEntity
  8
0
100
AcDbLine
 62
7
  6
CONTINUOUS
 10
17.775753895
 20
89.4217770815
 30
0.0
 11
27.6936808261
 21
92.8744845663
 31
0.0
  0
LINE
  5
37C
100
AcDbEntity
  8
RACCORDO
100
AcDbLine
 62
250
  6
CONTINUOUS
 10
17.7851627174
 20
90.0909350992
 30
0.0
 11
27.6353050013
 21
93.339905564
 31
0.0
  0
LINE
  5
37D
100
AcDbEntity
  8
0
100
AcDbLine
 62
250
  6
CONTINUOUS
 10
17.7851627174
 20
90.0909350992
 30
0.0
 11
27.6353050013
 21
93.339905564
 31
0.0
  0
LINE
  5
37E
100
AcDbEntity
  8
RACCORDO
100
AcDbLine
 62
250
  6
CONTINUOUS
 10
27.1005832759
 20
55.310350141
 30
0.0
 11
17.345682489
 21
58.8349810057
 31
0.0
  0
LINE
  5
37F
100
AcDbEntity
  8
0
100
AcDbLine
 62
250
  6
CONTINUOUS
 10
27.1005832759
 20
55.310350141
 30
0.0
 11
17.345682489
 21
58.8349810057
 31
0.0
  0
LINE
  5
380
100
AcDbEntity
  8
RACCORDO
100
AcDbLine
 62
7
  6
CONTINUOUS
 10
27.1720217152
 20
55.7739458608
 30
0.0
 11
17.3550913113
 21
59.5041390234
 31
0.0
  0
LINE
  5
381
100
AcDbEntity
  8
0
100
AcDbLine
 62
7
  6
CONTINUOUS
 10
27.1720217152
 20
55.7739458608
 30
0.0
 11
17.3550913113
 21
59.5041390234
 31
0.0
  0
LWPOLYLINE
  5
382
100
AcDbEntity
  8
0
100
AcDbPolyline
 62
7
  6
CONTINUOUS
 90
13
 70
0
 10
5.8090591492
 20
95.407667601
 10
5.6458691544
 20
91.9990221456
 10
5.5091794488
 20
88.5152260122
 10
5.4028580395
 20
85.0303709497
 10
5.3269159
 20
81.5447215938
 10
5.2813614786
 20
78.0585426346
 10
5.2661960418
 20
74.5720989699
 10
5.2814195889
 20
71.0856555849
 10
5.3270321192
 20
67.5994774643
 10
5.4030323566
 20
64.113829506
 10
5.5094118389
 20
60.6289763994
 10
5.646159591
 20
57.1451827802
 10
5.8090591492
 20
53.7431972822
  0
LWPOLYLINE
  5
383
100
AcDbEntity
  8
0
100
AcDbPolyline
 62
7
  6
CONTINUOUS
 90
4
 70
0
 43
0.3500000006
 10
9.4733476295
 20
114.7770899048
 10
9.4733476295
 20
115.4199524231
 10
10.9733469543
 20
115.4199524231
 10
10.116204483
 20
112.4199515076
  0
LINE
  5
384
100
AcDbEntity
  8
RACCORDO
100
AcDbLine
 62
7
  6
CONTINUOUS
 10
11.9662132978
 20
52.4754324413
 30
0.0
 11
11.9662132978
 21
96.6754324413
 31
0.0
  0
LINE
  5
385
100
AcDbEntity
  8
DRAFT
100
AcDbLine
 62
7
  6
CONTINUOUS
 10
12.4675283126
 20
74.5346379551
 30
0.0
 11
13.8323841753
 21
57.9138062888
 31
0.0
  0
LINE
  5
386
100
AcDbEntity
  8
0
100
AcDbLine
 62
7
  6
CONTINUOUS
 10
12.4675283126
 20
74.5346379551
 30
0.0
 11
13.8323841753
 21
57.9138062888
 31
0.0
  0
LINE
  5
387
100
AcDbEntity
  8
0
100
AcDbLine
 62
7
  6
CONTINUOUS
 10
12.7251134752
 20
50.2917147428
 30
0.0
 11
12.7306327072
 21
50.6842440274
 31
0.0
  0
LINE
  5
388
100
AcDbEntity
  8
0
100
AcDbLine
 62
7
  6
CONTINUOUS
 10
13.4011020306
 20
98.3682057649
 30
0.0
 11
13.4066212625
 21
98.7607350495
 31
0.0
  0
LINE
  5
389
100
AcDbEntity
  8
0
100
AcDbLine
 62
250
  6
CONTINUOUS
 10
12.973634477
 20
50.2882203665
 30
0.0
 11
12.9791537089
 21
50.6807496511
 31
0.0
  0
LINE
  5
38A
100
AcDbEntity
  8
0
100
AcDbLine
 62
250
  6
CONTINUOUS
 10
13.6496230323
 20
98.3647113885
 30
0.0
 11
13.6551422642
 21
98.7572406731
 31
0.0
  0
LINE
  5
38B
100
AcDbEntity
  8
0
100
AcDbLine
 62
7
  6
CONTINUOUS
 10
13.7406802951
 20
51.391801236
 30
0.0
 11
13.7589783352
 21
52.6931628526
 31
0.0
  0
LINE
  5
38C
100
AcDbEntity
  8
DRAFT
100
AcDbLine
 62
7
  6
CONTINUOUS
 10
13.7589783352
 20
52.6931628526
 30
0.0
 11
13.8323841753
 21
57.9138062888
 31
0.0
  0
LINE
  5
38D
100
AcDbEntity
  8
0
100
AcDbLine
 62
7
  6
CONTINUOUS
 10
13.7589783352
 20
52.6931628526
 30
0.0
 11
13.8323841753
 21
57.9138062888
 31
0.0
  0
LINE
  5
38E
100
AcDbEntity
  8
DRAFT
100
AcDbLine
 62
7
  6
CONTINUOUS
 10
14.2991528888
 20
91.1105249063
 30
0.0
 11
14.3725587289
 21
96.3311683425
 31
0.0
  0
LINE
  5
38F
100
AcDbEntity
  8
0
100
AcDbLine
 62
7
  6
CONTINUOUS
 10
14.2991528888
 20
91.1105249063
 30
0.0
 11
14.3725587289
 21
96.3311683425
 31
0.0
  0
LINE
  5
390
100
AcDbEntity
  8
0
100
AcDbLine
 62
7
  6
CONTINUOUS
 10
14.3725587289
 20
96.3311683425
 30
0.0
 11
14.390856769
 21
97.6325299591
 31
0.0
  0
LINE
  5
391
100
AcDbEntity
  8
DRAFT
100
AcDbLine
 62
7
  6
CONTINUOUS
 10
14.2991528888
 20
91.1105249063
 30
0.0
 11
12.4675283126
 21
74.5346379551
 31
0.0
  0
LINE
  5
392
100
AcDbEntity
  8
0
100
AcDbLine
 62
7
  6
CONTINUOUS
 10
14.2991528888
 20
91.1105249063
 30
0.0
 11
12.4675283126
 21
74.5346379551
 31
0.0
  0
LINE
  5
393
100
AcDbEntity
  8
0
100
AcDbLine
 62
250
  6
CONTINUOUS
 10
13.9871720119
 20
51.2439835582
 30
0.0
 11
14.0002833376
 21
52.1764646314
 31
0.0
  0
LINE
  5
394
100
AcDbEntity
  8
0
100
AcDbLine
 62
250
  6
CONTINUOUS
 10
14.6282957299
 20
96.840877811
 30
0.0
 11
14.6414070556
 21
97.7733588842
 31
0.0
  0
LINE
  5
395
100
AcDbEntity
  8
0
100
AcDbLine
 62
7
  6
CONTINUOUS
 10
15.2211674612
 20
49.9934981518
 30
0.0
 11
15.9100730925
 21
98.9886551475
 31
0.0
  0
LINE
  5
396
100
AcDbEntity
  8
0
100
AcDbLine
 62
250
  6
CONTINUOUS
 10
16.6578770238
 20
98.7237477629
 30
0.0
 11
16.6522351
 21
98.3224925961
 31
0.0
  0
LINE
  5
397
100
AcDbEntity
  8
0
100
AcDbLine
 62
250
  6
CONTINUOUS
 10
15.9817657766
 20
50.6385308587
 30
0.0
 11
15.9761238528
 21
50.2372756919
 31
0.0
  0
LINE
  5
398
100
AcDbEntity
  8
0
100
AcDbLine
 62
7
  6
CONTINUOUS
 10
16.9063980255
 20
98.7202533866
 30
0.0
 11
16.9007561017
 21
98.3189982198
 31
0.0
  0
LINE
  5
399
100
AcDbEntity
  8
0
100
AcDbLine
 62
7
  6
CONTINUOUS
 10
16.2302867783
 20
50.6350364823
 30
0.0
 11
16.2246448545
 21
50.2337813156
 31
0.0
  0
LINE
  5
39A
100
AcDbEntity
  8
0
100
AcDbLine
 62
7
  6
CONTINUOUS
 10
16.250674946
 20
52.0850485507
 30
0.0
 11
16.305307857
 21
55.9705561273
 31
0.0
  0
LINE
  5
39B
100
AcDbEntity
  8
0
100
AcDbLine
 62
7
  6
CONTINUOUS
 10
16.825735023
 20
92.9834785748
 30
0.0
 11
16.880367934
 21
96.8689861514
 31
0.0
  0
LINE
  5
39C
100
AcDbEntity
  8
0
100
AcDbLine
 62
7
  6
CONTINUOUS
 10
17.8665369991
 20
95.8782962842
 30
0.0
 11
17.2643082072
 21
53.0476198208
 31
0.0
  0
LINE
  5
39D
100
AcDbEntity
  8
0
100
AcDbLine
 62
7
  6
CONTINUOUS
 10
20.7357465777
 20
50.9917039257
 30
0.0
 11
20.7434612458
 21
51.5403732339
 31
0.0
  0
LINE
  5
39E
100
AcDbEntity
  8
0
100
AcDbLine
 62
7
  6
CONTINUOUS
 10
21.3866921028
 20
97.2871277808
 30
0.0
 11
21.3944067709
 21
97.835797089
 31
0.0
  0
LINE
  5
39F
100
AcDbEntity
  8
0
100
AcDbLine
 62
250
  6
CONTINUOUS
 10
20.7719183458
 20
50.4494315218
 30
0.0
 11
20.7943896724
 21
52.0475984167
 31
0.0
  0
LINE
  5
3A0
100
AcDbEntity
  8
0
100
AcDbLine
 62
250
  6
CONTINUOUS
 10
21.4233393449
 20
96.7786712239
 30
0.0
 11
21.4458106715
 21
98.3768381187
 31
0.0
  0
LINE
  5
3A1
100
AcDbEntity
  8
0
100
AcDbLine
 62
7
  6
CONTINUOUS
 10
21.2350837282
 20
50.9410468857
 30
0.0
 11
21.250589735
 21
52.0438383317
 31
0.0
  0
LINE
  5
3A2
100
AcDbEntity
  8
0
100
AcDbLine
 62
7
  6
CONTINUOUS
 10
21.8794647768
 20
96.7696033845
 30
0.0
 11
21.8949707836
 21
97.8723948305
 31
0.0
  0
LWPOLYLINE
  5
3A3
100
AcDbEntity
  8
0
100
AcDbPolyline
 62
7
  6
CONTINUOUS
 90
10
 70
0
 43
0.3500000006
 10
8.4019189739
 20
112.9199516602
 10
8.4733473244
 20
112.7770892944
 10
8.4733473244
 20
112.7056671753
 10
8.3304906235
 20
112.5628048096
 10
8.2590617065
 20
112.5628048096
 10
8.1876333561
 20
112.6342359924
 10
8.1876333561
 20
112.7056671753
 10
8.2590617065
 20
112.8485204773
 10
8.3304906235
 20
112.9199516602
 10
8.4019189739
 20
112.9199516602
  0
LINE
  5
3A4
100
AcDbEntity
  8
0
100
AcDbLine
 62
250
  6
CONTINUOUS
 10
26.7697611
 20
52.747974771
 30
0.0
 11
26.7793696534
 21
53.4313377211
 31
0.0
  0
LINE
  5
3A5
100
AcDbEntity
  8
0
100
AcDbLine
 62
250
  6
CONTINUOUS
 10
27.3670483348
 20
95.2272063419
 30
0.0
 11
27.3766568882
 21
95.910569292
 31
0.0
  0
LINE
  5
3A6
100
AcDbEntity
  8
RACCORDO
100
AcDbLine
 62
250
  6
CONTINUOUS
 10
27.6600384776
 20
95.2230866988
 30
0.0
 11
27.6444926247
 21
94.1174613893
 31
0.0
  0
LINE
  5
3A7
100
AcDbEntity
  8
0
100
AcDbLine
 62
250
  6
CONTINUOUS
 10
27.6600384776
 20
95.2230866988
 30
0.0
 11
27.6444926247
 21
94.1174613893
 31
0.0
  0
LINE
  5
3A8
100
AcDbEntity
  8
RACCORDO
100
AcDbLine
 62
250
  6
CONTINUOUS
 10
27.0879056491
 20
54.5328433875
 30
0.0
 11
27.0723597962
 21
53.427218078
 31
0.0
  0
LINE
  5
3A9
100
AcDbEntity
  8
0
100
AcDbLine
 62
250
  6
CONTINUOUS
 10
27.0879056491
 20
54.5328433875
 30
0.0
 11
27.0723597962
 21
53.427218078
 31
0.0
  0
LINE
  5
3AA
100
AcDbEntity
  8
RACCORDO
100
AcDbLine
 62
250
  6
CONTINUOUS
 10
27.0896506508
 20
54.5328188516
 30
0.0
 11
27.1005832759
 21
55.310350141
 31
0.0
  0
LINE
  5
3AB
100
AcDbEntity
  8
0
100
AcDbLine
 62
250
  6
CONTINUOUS
 10
27.0896506508
 20
54.5328188516
 30
0.0
 11
27.1005832759
 21
55.310350141
 31
0.0
  0
LINE
  5
3AC
100
AcDbEntity
  8
RACCORDO
100
AcDbLine
 62
250
  6
CONTINUOUS
 10
27.6353050013
 20
93.339905564
 30
0.0
 11
27.6462376264
 21
94.1174368534
 31
0.0
  0
LINE
  5
3AD
100
AcDbEntity
  8
0
100
AcDbLine
 62
250
  6
CONTINUOUS
 10
27.6353050013
 20
93.339905564
 30
0.0
 11
27.6462376264
 21
94.1174368534
 31
0.0
  0
LINE
  5
3AE
100
AcDbEntity
  8
0
100
AcDbLine
 62
7
  6
CONTINUOUS
 10
27.2644652236
 20
52.988486899
 30
0.0
 11
27.2705948943
 21
53.4244307561
 31
0.0
  0
LINE
  5
3AF
100
AcDbEntity
  8
RACCORDO
100
AcDbLine
 62
7
  6
CONTINUOUS
 10
27.2705948943
 20
53.4244307561
 30
0.0
 11
27.3009623957
 21
55.5841757646
 31
0.0
  0
LINE
  5
3B0
100
AcDbEntity
  8
0
100
AcDbLine
 62
7
  6
CONTINUOUS
 10
27.2705948943
 20
53.4244307561
 30
0.0
 11
27.3009623957
 21
55.5841757646
 31
0.0
  0
LINE
  5
3B1
100
AcDbEntity
  8
RACCORDO
100
AcDbLine
 62
7
  6
CONTINUOUS
 10
27.8279060742
 20
93.0605543684
 30
0.0
 11
27.8582735756
 21
95.2202993769
 31
0.0
  0
LINE
  5
3B2
100
AcDbEntity
  8
0
100
AcDbLine
 62
7
  6
CONTINUOUS
 10
27.8582735756
 20
95.2202993769
 30
0.0
 11
27.8644032463
 21
95.656243234
 31
0.0
  0
LINE
  5
3B3
100
AcDbEntity
  8
0
100
AcDbLine
 62
7
  6
CONTINUOUS
 10
27.8279060742
 20
93.0605543684
 30
0.0
 11
27.8582735756
 21
95.2202993769
 31
0.0
  0
LINE
  5
3B4
100
AcDbEntity
  8
RACCORDO
100
AcDbLine
 62
250
  6
CONTINUOUS
 10
27.1005832705
 20
55.310350141
 30
0.0
 11
27.1720217149
 21
55.7739458599
 31
0.0
  0
LINE
  5
3B5
100
AcDbEntity
  8
0
100
AcDbLine
 62
250
  6
CONTINUOUS
 10
27.1005832705
 20
55.310350141
 30
0.0
 11
27.1720217149
 21
55.7739458599
 31
0.0
  0
LINE
  5
3B6
100
AcDbEntity
  8
RACCORDO
100
AcDbLine
 62
250
  6
CONTINUOUS
 10
14.2770648038
 20
90.9106315415
 30
0.0
 11
11.9662132978
 21
90.9027895658
 31
0.0
  0
LINE
  5
3B7
100
AcDbEntity
  8
0
100
AcDbLine
 62
250
  6
CONTINUOUS
 10
14.2770648038
 20
90.9106315415
 30
0.0
 11
11.9662132978
 21
90.9027895658
 31
0.0
  0
LINE
  5
3B8
100
AcDbEntity
  8
RACCORDO
100
AcDbLine
 62
250
  6
CONTINUOUS
 10
27.6936808258
 20
92.8744845672
 30
0.0
 11
27.6353049959
 21
93.3399055641
 31
0.0
  0
LINE
  5
3B9
100
AcDbEntity
  8
0
100
AcDbLine
 62
250
  6
CONTINUOUS
 10
27.6936808258
 20
92.8744845672
 30
0.0
 11
27.6353049959
 21
93.3399055641
 31
0.0
  0
LINE
  5
3BA
100
AcDbEntity
  8
RACCORDO
100
AcDbLine
 62
250
  6
CONTINUOUS
 10
27.6717013534
 20
93.0501508431
 30
0.0
 11
27.6694774596
 21
93.0678659123
 31
0.0
  0
LINE
  5
3BB
100
AcDbEntity
  8
0
100
AcDbLine
 62
250
  6
CONTINUOUS
 10
27.6717013534
 20
93.0501508431
 30
0.0
 11
27.6694774596
 21
93.0678659123
 31
0.0
  0
LINE
  5
3BC
100
AcDbEntity
  8
RACCORDO
100
AcDbLine
 62
250
  6
CONTINUOUS
 10
27.6546439783
 20
93.186093573
 30
0.0
 11
27.6492627483
 21
93.2289579626
 31
0.0
  0
LINE
  5
3BD
100
AcDbEntity
  8
0
100
AcDbLine
 62
250
  6
CONTINUOUS
 10
27.6546439783
 20
93.186093573
 30
0.0
 11
27.6492627483
 21
93.2289579626
 31
0.0
  0
LINE
  5
3BE
100
AcDbEntity
  8
RACCORDO
100
AcDbLine
 62
7
  6
CONTINUOUS
 10
14.3104003277
 20
91.9104458368
 30
0.0
 11
11.9662132978
 21
91.9024907356
 31
0.0
  0
LINE
  5
3BF
100
AcDbEntity
  8
0
100
AcDbLine
 62
7
  6
CONTINUOUS
 10
14.3104003277
 20
91.9104458368
 30
0.0
 11
11.9662132978
 21
91.9024907356
 31
0.0
  0
LINE
  5
3C0
100
AcDbEntity
  8
0
100
AcDbLine
 62
7
  6
CONTINUOUS
 10
16.825735023
 20
92.9834785748
 30
0.0
 11
17.8257588798
 21
92.9781452815
 31
0.0
  0
LINE
  5
3C1
100
AcDbEntity
  8
0
100
AcDbLine
 62
7
  6
CONTINUOUS
 10
13.7406802951
 20
51.391801236
 30
0.0
 11
12.85866428
 21
50.8989715673
 31
0.0
  0
LINE
  5
3C2
100
AcDbEntity
  8
0
100
AcDbLine
 62
250
  6
CONTINUOUS
 10
13.9871720119
 20
51.2439835582
 30
0.0
 11
12.9791537089
 21
50.6807496511
 31
0.0
  0
LINE
  5
3C3
100
AcDbEntity
  8
RACCORDO
100
AcDbLine
 62
7
  6
CONTINUOUS
 10
27.6444926247
 20
94.1174613893
 30
0.0
 11
17.8425134792
 21
94.1697369723
 31
0.0
  0
LINE
  5
3C4
100
AcDbEntity
  8
0
100
AcDbLine
 62
7
  6
CONTINUOUS
 10
27.6444926247
 20
94.1174613893
 30
0.0
 11
17.8425134792
 21
94.1697369723
 31
0.0
  0
LINE
  5
3C5
100
AcDbEntity
  8
RACCORDO
100
AcDbLine
 62
250
  6
CONTINUOUS
 10
27.6353050013
 20
93.339905564
 30
0.0
 11
27.8317950977
 21
93.337142778
 31
0.0
  0
LINE
  5
3C6
100
AcDbEntity
  8
0
100
AcDbLine
 62
250
  6
CONTINUOUS
 10
27.6353050013
 20
93.339905564
 30
0.0
 11
27.8317950977
 21
93.337142778
 31
0.0
  0
LINE
  5
3C7
100
AcDbEntity
  8
RACCORDO
100
AcDbLine
 62
250
  6
CONTINUOUS
 10
6.1808566187
 20
95.4055556944
 30
0.0
 11
6.6670113764
 21
95.384450403
 31
0.0
  0
LINE
  5
3C8
100
AcDbEntity
  8
0
100
AcDbLine
 62
7
  6
CONTINUOUS
 10
13.5230457486
 20
98.1499634004
 30
0.0
 11
14.390856769
 21
97.6325299591
 31
0.0
  0
LINE
  5
3C9
100
AcDbEntity
  8
0
100
AcDbLine
 62
250
  6
CONTINUOUS
 10
13.6496230323
 20
98.3647113885
 30
0.0
 11
14.6414070556
 21
97.7733588842
 31
0.0
  0
LINE
  5
3CA
100
AcDbEntity
  8
0
100
AcDbLine
 62
250
  6
CONTINUOUS
 10
15.8735156986
 20
96.3886832938
 30
0.0
 11
14.3725587289
 21
96.3311683425
 31
0.0
  0
LINE
  5
3CB
100
AcDbEntity
  8
0
100
AcDbLine
 62
7
  6
CONTINUOUS
 10
15.8805485654
 20
96.8888627048
 30
0.0
 11
14.3795915957
 21
96.8313477535
 31
0.0
  0
LINE
  5
3CC
100
AcDbEntity
  8
RACCORDO
100
AcDbLine
 62
250
  6
CONTINUOUS
 10
7.3491013455
 20
96.0547004473
 30
0.0
 11
11.9662132978
 21
96.1756037788
 31
0.0
  0
LINE
  5
3CD
100
AcDbEntity
  8
RACCORDO
100
AcDbLine
 62
7
  6
CONTINUOUS
 10
6.9760185584
 20
96.5447595932
 30
0.0
 11
11.9662132978
 21
96.6754324413
 31
0.0
  0
LINE
  5
3CE
100
AcDbEntity
  8
0
100
AcDbLine
 62
7
  6
CONTINUOUS
 10
27.3766568882
 20
95.910569292
 30
0.0
 11
17.8665369991
 21
95.8782962842
 31
0.0
  0
LINE
  5
3CF
100
AcDbEntity
  8
RACCORDO
100
AcDbLine
 62
250
  6
CONTINUOUS
 10
6.1809003458
 20
95.4069009215
 30
0.0
 11
5.8090401794
 21
95.4073038535
 31
0.0
  0
LINE
  5
3D0
100
AcDbEntity
  8
RACCORDO
100
AcDbLine
 62
250
  6
CONTINUOUS
 10
6.1808435638
 20
95.4055562298
 30
0.0
 11
5.8090591381
 21
95.4076673878
 31
0.0
  0
LINE
  5
3D1
100
AcDbEntity
  8
0
100
AcDbLine
 62
7
  6
CONTINUOUS
 10
17.8592619439
 20
95.3608923629
 30
0.0
 11
27.8582735756
 21
95.2202993769
 31
0.0
  0
LINE
  5
3D2
100
AcDbEntity
  8
0
100
AcDbLine
 62
250
  6
CONTINUOUS
 10
16.8733385226
 20
96.3690524912
 30
0.0
 11
15.873519154
 21
96.3889290446
 31
0.0
  0
LINE
  5
3D3
100
AcDbEntity
  8
0
100
AcDbLine
 62
7
  6
CONTINUOUS
 10
26.8843783002
 20
96.6701049811
 30
0.0
 11
15.8805485654
 21
96.8888627048
 31
0.0
  0
LINE
  5
3D4
100
AcDbEntity
  8
0
100
AcDbLine
 62
250
  6
CONTINUOUS
 10
13.6551422642
 20
98.7572406731
 30
0.0
 11
15.9065583273
 21
98.7386840871
 31
0.0
  0
LINE
  5
3D5
100
AcDbEntity
  8
0
100
AcDbLine
 62
7
  6
CONTINUOUS
 10
13.6586570294
 20
99.0072117336
 30
0.0
 11
15.9100730925
 21
98.9886551475
 31
0.0
  0
LINE
  5
3D6
100
AcDbEntity
  8
0
100
AcDbLine
 62
250
  6
CONTINUOUS
 10
16.9007561017
 20
98.3189982198
 30
0.0
 11
16.6522351
 21
98.3224925961
 31
0.0
  0
LINE
  5
3D7
100
AcDbEntity
  8
0
100
AcDbLine
 62
250
  6
CONTINUOUS
 10
13.4011020306
 20
98.3682057649
 30
0.0
 11
13.6496230323
 21
98.3647113885
 31
0.0
  0
LINE
  5
3D8
100
AcDbEntity
  8
0
100
AcDbLine
 62
250
  6
CONTINUOUS
 10
13.4066212625
 20
98.7607350495
 30
0.0
 11
13.6551422642
 21
98.7572406731
 31
0.0
  0
LINE
  5
3D9
100
AcDbEntity
  8
0
100
AcDbLine
 62
250
  6
CONTINUOUS
 10
16.9063980255
 20
98.7202533866
 30
0.0
 11
16.6578770238
 21
98.7237477629
 31
0.0
  0
LINE
  5
3DA
100
AcDbEntity
  8
0
100
AcDbLine
 62
7
  6
CONTINUOUS
 10
16.9028628117
 20
98.4688280125
 30
0.0
 11
21.4049583105
 21
98.379325704
 31
0.0
  0
LINE
  5
3DB
100
AcDbEntity
  8
0
100
AcDbLine
 62
250
  6
CONTINUOUS
 10
15.9065583273
 20
98.7386840871
 30
0.0
 11
16.6578770238
 21
98.7237477629
 31
0.0
  0
LINE
  5
3DC
100
AcDbEntity
  8
0
100
AcDbLine
 62
7
  6
CONTINUOUS
 10
15.9100730925
 20
98.9886551475
 30
0.0
 11
16.661391789
 21
98.9737188234
 31
0.0
  0
ARC
  5
3DD
100
AcDbEntity
  8
DRAFT
100
AcDbCircle
 62
7
  6
CONTINUOUS
 10
47.2837510051
 20
64.5756228335
 30
0.0
 40
0.9820611428
100
AcDbArc
 50
359.99059654
 51
180.0095331265
  0
ARC
  5
3DE
100
AcDbEntity
  8
0
100
AcDbCircle
 62
7
  6
CONTINUOUS
 10
47.2837527952
 20
64.5756346322
 30
0.0
 40
0.9820492551
100
AcDbArc
 50
359.9899081686
 51
180.0102214655
  0
ARC
  5
3DF
100
AcDbEntity
  8
DRAFT
100
AcDbCircle
 62
7
  6
CONTINUOUS
 10
47.2838004215
 20
61.5752645438
 30
0.0
 40
0.9820422223
100
AcDbArc
 50
179.9840691198
 51
0.0143821305
  0
ARC
  5
3E0
100
AcDbEntity
  8
0
100
AcDbCircle
 62
7
  6
CONTINUOUS
 10
47.2837926894
 20
61.5752578091
 30
0.0
 40
0.9820371966
100
AcDbArc
 50
179.9836760804
 51
0.0147749293
  0
ARC
  5
3E1
100
AcDbEntity
  8
RACCORDO
100
AcDbCircle
 62
250
  6
CONTINUOUS
 10
37.0060465094
 20
53.0965980759
 30
0.0
 40
0.5002656608
100
AcDbArc
 50
180.0496655031
 51
269.9503344969
  0
ARC
  5
3E2
100
AcDbEntity
  8
RACCORDO
100
AcDbCircle
 62
250
  6
CONTINUOUS
 10
-18747.4537815851
 20
74.5754313689
 30
0.0
 40
18783.9889531267
100
AcDbArc
 50
359.936527375
 51
0.0634726316
  0
ARC
  5
3E3
100
AcDbEntity
  8
RACCORDO
100
AcDbCircle
 62
250
  6
CONTINUOUS
 10
37.0060465062
 20
96.0542668097
 30
0.0
 40
0.5002656623
100
AcDbArc
 50
90.0496656763
 51
179.9503343237
  0
ARC
  5
3E4
100
AcDbEntity
  8
0
100
AcDbCircle
 62
250
  6
CONTINUOUS
 10
59.8979855257
 20
50.2882601075
 30
0.0
 40
0.2500087261
100
AcDbArc
 50
180.0091077343
 51
269.9976388079
  0
ARC
  5
3E5
100
AcDbEntity
  8
0
100
AcDbCircle
 62
250
  6
CONTINUOUS
 10
62.2717762122
 20
50.288260068
 30
0.0
 40
0.2500087257
100
AcDbArc
 50
270.0023638198
 51
359.9909013027
  0
ARC
  5
3E6
100
AcDbEntity
  8
0
100
AcDbCircle
 62
7
  6
CONTINUOUS
 10
62.2805132715
 20
50.2372961402
 30
0.0
 40
0.25
100
AcDbArc
 50
270.0
 51
324.782794275
  0
ARC
  5
3E7
100
AcDbEntity
  8
0
100
AcDbCircle
 62
7
  6
CONTINUOUS
 10
59.8892484779
 20
50.2372961402
 30
0.0
 40
0.25
100
AcDbArc
 50
215.3914783977
 51
270.0
  0
ARC
  5
3E8
100
AcDbEntity
  8
0
100
AcDbCircle
 62
7
  6
CONTINUOUS
 10
59.8847798009
 20
50.243436343
 30
0.0
 40
0.2498899244
100
AcDbArc
 50
180.0000472179
 51
270.0010175686
  0
ARC
  5
3E9
100
AcDbEntity
  8
0
100
AcDbCircle
 62
7
  6
CONTINUOUS
 10
62.2849819484
 20
50.243436343
 30
0.0
 40
0.2498899244
100
AcDbArc
 50
269.9990011141
 51
359.9999527821
  0
ARC
  5
3EA
100
AcDbEntity
  8
0
100
AcDbCircle
 62
250
  6
CONTINUOUS
 10
62.2805248701
 20
50.2366411197
 30
0.0
 40
0.2493364885
100
AcDbArc
 50
269.9973347182
 51
270.663529147
  0
ARC
  5
3EB
100
AcDbEntity
  8
0
100
AcDbCircle
 62
250
  6
CONTINUOUS
 10
59.8892367488
 20
50.2366065411
 30
0.0
 40
0.2493019099
100
AcDbArc
 50
269.4757525735
 51
270.0026956362
  0
ARC
  5
3EC
100
AcDbEntity
  8
0
100
AcDbCircle
 62
250
  6
CONTINUOUS
 10
68.5849008633
 20
50.6994180061
 30
0.0
 40
0.199981824
100
AcDbArc
 50
269.994273186
 51
358.2853273211
  0
ARC
  5
3ED
100
AcDbEntity
  8
0
100
AcDbCircle
 62
7
  6
CONTINUOUS
 10
68.5850378958
 20
50.693435549
 30
0.0
 40
0.1998429789
100
AcDbArc
 50
269.9977772514
 51
359.9990829403
  0
ARC
  5
3EE
100
AcDbEntity
  8
0
100
AcDbCircle
 62
250
  6
CONTINUOUS
 10
68.585280429
 20
50.6993970706
 30
0.0
 40
0.1996004457
100
AcDbArc
 50
358.2880740371
 51
359.9994964691
  0
ARC
  5
3EF
100
AcDbEntity
  8
0
100
AcDbCircle
 62
7
  6
CONTINUOUS
 10
65.7854475683
 20
51.3434163679
 30
0.0
 40
0.5005666963
100
AcDbArc
 50
180.0059114755
 51
188.6074809058
  0
ARC
  5
3F0
100
AcDbEntity
  8
0
100
AcDbCircle
 62
7
  6
CONTINUOUS
 10
65.7847945795
 20
51.2660393757
 30
0.0
 40
0.4999133017
100
AcDbArc
 50
180.0000912125
 51
205.84201457
  0
ARC
  5
3F1
100
AcDbEntity
  8
0
100
AcDbCircle
 62
7
  6
CONTINUOUS
 10
65.7847905785
 20
51.3433638975
 30
0.0
 40
0.4999097038
100
AcDbArc
 50
154.1556931032
 51
179.9999054867
  0
ARC
  5
3F2
100
AcDbEntity
  8
0
100
AcDbCircle
 62
7
  6
CONTINUOUS
 10
65.7847827489
 20
51.3433624151
 30
0.0
 40
0.4999012921
100
AcDbArc
 50
188.6127708869
 51
205.8443750603
  0
ARC
  5
3F3
100
AcDbEntity
  8
0
100
AcDbCircle
 62
7
  6
CONTINUOUS
 10
59.136002776
 20
52.5932331471
 30
0.0
 40
0.5002164685
100
AcDbArc
 50
193.6233425151
 51
224.9799253966
  0
ARC
  5
3F4
100
AcDbEntity
  8
0
100
AcDbCircle
 62
7
  6
CONTINUOUS
 10
59.1343580444
 20
52.5932322503
 30
0.0
 40
0.4999147838
100
AcDbArc
 50
193.6316072855
 51
270.0542180955
  0
ARC
  5
3F5
100
AcDbEntity
  8
0
100
AcDbCircle
 62
7
  6
CONTINUOUS
 10
59.1356943809
 20
52.5930137283
 30
0.0
 40
0.4998432296
100
AcDbArc
 50
224.9871222747
 51
229.263756355
  0
ARC
  5
3F6
100
AcDbEntity
  8
0
100
AcDbCircle
 62
7
  6
CONTINUOUS
 10
59.1353605066
 20
52.5926121233
 30
0.0
 40
0.4993208275
100
AcDbArc
 50
229.2627127646
 51
269.9478014406
  0
ARC
  5
3F7
100
AcDbEntity
  8
0
100
AcDbCircle
 62
250
  6
CONTINUOUS
 10
70.9848608858
 20
50.6994180046
 30
0.0
 40
0.1999818227
100
AcDbArc
 50
181.7146709821
 51
270.0057268587
  0
ARC
  5
3F8
100
AcDbEntity
  8
0
100
AcDbCircle
 62
7
  6
CONTINUOUS
 10
70.9847238535
 20
50.693435549
 30
0.0
 40
0.1998429789
100
AcDbArc
 50
180.0009170597
 51
270.0023857462
  0
ARC
  5
3F9
100
AcDbEntity
  8
0
100
AcDbCircle
 62
250
  6
CONTINUOUS
 10
70.9844795399
 20
50.699397075
 30
0.0
 40
0.1995986652
100
AcDbArc
 50
180.0005048157
 51
181.7119412444
  0
ARC
  5
3FA
100
AcDbEntity
  8
0
100
AcDbCircle
 62
7
  6
CONTINUOUS
 10
73.784314181
 20
51.3434163679
 30
0.0
 40
0.5005666963
100
AcDbArc
 50
351.3925190942
 51
359.9940885244
  0
ARC
  5
3FB
100
AcDbEntity
  8
0
100
AcDbCircle
 62
7
  6
CONTINUOUS
 10
73.7849671698
 20
51.2660393757
 30
0.0
 40
0.4999133017
100
AcDbArc
 50
334.15798543
 51
359.9999087875
  0
ARC
  5
3FC
100
AcDbEntity
  8
0
100
AcDbCircle
 62
7
  6
CONTINUOUS
 10
73.7849711709
 20
51.3433638975
 30
0.0
 40
0.4999097038
100
AcDbArc
 50
0.0000945133
 51
25.8443068968
  0
ARC
  5
3FD
100
AcDbEntity
  8
0
100
AcDbCircle
 62
7
  6
CONTINUOUS
 10
73.7849790005
 20
51.3433624151
 30
0.0
 40
0.4999012921
100
AcDbArc
 50
334.1556249398
 51
351.3872291131
  0
ARC
  5
3FE
100
AcDbEntity
  8
0
100
AcDbCircle
 62
250
  6
CONTINUOUS
 10
77.2979855254
 20
50.2882601068
 30
0.0
 40
0.2500087257
100
AcDbArc
 50
180.0091075798
 51
269.9976388686
  0
ARC
  5
3FF
100
AcDbEntity
  8
0
100
AcDbCircle
 62
250
  6
CONTINUOUS
 10
79.6717762122
 20
50.288260068
 30
0.0
 40
0.2500087257
100
AcDbArc
 50
270.0023638198
 51
359.9909013027
  0
ARC
  5
400
100
AcDbEntity
  8
0
100
AcDbCircle
 62
7
  6
CONTINUOUS
 10
79.6805132715
 20
50.2372961402
 30
0.0
 40
0.25
100
AcDbArc
 50
270.0
 51
324.6085216027
  0
ARC
  5
401
100
AcDbEntity
  8
0
100
AcDbCircle
 62
7
  6
CONTINUOUS
 10
77.2892484779
 20
50.2372961402
 30
0.0
 40
0.25
100
AcDbArc
 50
215.391478392
 51
270.0
  0
ARC
  5
402
100
AcDbEntity
  8
0
100
AcDbCircle
 62
7
  6
CONTINUOUS
 10
77.284779801
 20
50.243436343
 30
0.0
 40
0.2498899245
100
AcDbArc
 50
180.0000472179
 51
270.0010175686
  0
ARC
  5
403
100
AcDbEntity
  8
0
100
AcDbCircle
 62
7
  6
CONTINUOUS
 10
79.6849819484
 20
50.243436343
 30
0.0
 40
0.2498899245
100
AcDbArc
 50
269.9990011141
 51
359.9999527821
  0
ARC
  5
404
100
AcDbEntity
  8
0
100
AcDbCircle
 62
250
  6
CONTINUOUS
 10
77.2892367488
 20
50.2366065411
 30
0.0
 40
0.2493019099
100
AcDbArc
 50
269.4757525735
 51
270.0026956362
  0
ARC
  5
405
100
AcDbEntity
  8
0
100
AcDbCircle
 62
250
  6
CONTINUOUS
 10
79.6805250005
 20
50.2366065411
 30
0.0
 40
0.2493019099
100
AcDbArc
 50
269.9973043638
 51
270.5242474265
  0
ARC
  5
406
100
AcDbEntity
  8
0
100
AcDbCircle
 62
7
  6
CONTINUOUS
 10
80.433060863
 20
52.5934747949
 30
0.0
 40
0.5009472585
100
AcDbArc
 50
357.8629799545
 51
359.9994522202
  0
ARC
  5
407
100
AcDbEntity
  8
0
100
AcDbCircle
 62
7
  6
CONTINUOUS
 10
80.4335789601
 20
52.59333956
 30
0.0
 40
0.5004217578
100
AcDbArc
 50
315.0260252216
 51
357.8762408395
  0
ARC
  5
408
100
AcDbEntity
  8
RACCORDO
100
AcDbCircle
 62
250
  6
CONTINUOUS
 10
80.0637152431
 20
53.0965980729
 30
0.0
 40
0.5002656623
100
AcDbArc
 50
270.0496656765
 51
359.9503343235
  0
ARC
  5
409
100
AcDbEntity
  8
0
100
AcDbCircle
 62
7
  6
CONTINUOUS
 10
80.4354118835
 20
52.5932269771
 30
0.0
 40
0.4999053345
100
AcDbArc
 50
269.9457819186
 51
359.9996879807
  0
ARC
  5
40A
100
AcDbEntity
  8
0
100
AcDbCircle
 62
7
  6
CONTINUOUS
 10
80.4340673684
 20
52.5930137283
 30
0.0
 40
0.4998432296
100
AcDbArc
 50
310.7362436585
 51
315.0128777376
  0
ARC
  5
40B
100
AcDbEntity
  8
0
100
AcDbCircle
 62
7
  6
CONTINUOUS
 10
80.4344012425
 20
52.5926121271
 30
0.0
 40
0.4993208275
100
AcDbArc
 50
270.0521985978
 51
310.7372869841
  0
ARC
  5
40C
100
AcDbEntity
  8
0
100
AcDbCircle
 62
7
  6
CONTINUOUS
 10
59.1344253992
 20
96.3888527194
 30
0.0
 40
0.5000095128
100
AcDbArc
 50
89.9449734568
 51
145.023349898
  0
ARC
  5
40D
100
AcDbEntity
  8
0
100
AcDbCircle
 62
7
  6
CONTINUOUS
 10
59.135383354
 20
96.3894706031
 30
0.0
 40
0.4993933937
100
AcDbArc
 50
90.0548125013
 51
145.0606854337
  0
ARC
  5
40E
100
AcDbEntity
  8
0
100
AcDbCircle
 62
7
  6
CONTINUOUS
 10
65.7854475683
 20
97.638840223
 30
0.0
 40
0.5005666963
100
AcDbArc
 50
180.0059114755
 51
188.6074809058
  0
ARC
  5
40F
100
AcDbEntity
  8
0
100
AcDbCircle
 62
7
  6
CONTINUOUS
 10
65.7847945795
 20
97.5614632308
 30
0.0
 40
0.4999133017
100
AcDbArc
 50
180.0000912125
 51
205.84201457
  0
ARC
  5
410
100
AcDbEntity
  8
0
100
AcDbCircle
 62
7
  6
CONTINUOUS
 10
65.7847905785
 20
97.6387877526
 30
0.0
 40
0.4999097038
100
AcDbArc
 50
154.1556931032
 51
179.9999054867
  0
ARC
  5
411
100
AcDbEntity
  8
0
100
AcDbCircle
 62
7
  6
CONTINUOUS
 10
65.7847827489
 20
97.6387862702
 30
0.0
 40
0.4999012921
100
AcDbArc
 50
188.612770887
 51
205.8443750602
  0
ARC
  5
412
100
AcDbEntity
  8
0
100
AcDbCircle
 62
7
  6
CONTINUOUS
 10
62.2717865267
 20
98.7572202248
 30
0.0
 40
0.25
100
AcDbArc
 50
35.3914783989
 51
90.0
  0
ARC
  5
413
100
AcDbEntity
  8
0
100
AcDbCircle
 62
7
  6
CONTINUOUS
 10
59.8979752226
 20
98.7572202248
 30
0.0
 40
0.25
100
AcDbArc
 50
90.0
 51
144.6085216016
  0
ARC
  5
414
100
AcDbEntity
  8
0
100
AcDbCircle
 62
7
  6
CONTINUOUS
 10
59.8848370816
 20
98.7386831664
 30
0.0
 40
0.249956207
100
AcDbArc
 50
144.7825454313
 51
179.9997889606
  0
ARC
  5
415
100
AcDbEntity
  8
0
100
AcDbCircle
 62
7
  6
CONTINUOUS
 10
62.2849246677
 20
98.7386831664
 30
0.0
 40
0.249956207
100
AcDbArc
 50
0.0002110395
 51
35.2174545687
  0
ARC
  5
416
100
AcDbEntity
  8
0
100
AcDbCircle
 62
250
  6
CONTINUOUS
 10
59.8978880793
 20
98.7572737657
 30
0.0
 40
0.2498977204
100
AcDbArc
 50
144.781301172
 51
179.99822863
  0
ARC
  5
417
100
AcDbEntity
  8
0
100
AcDbCircle
 62
250
  6
CONTINUOUS
 10
62.2718736701
 20
98.7572737657
 30
0.0
 40
0.2498977204
100
AcDbArc
 50
0.0016609188
 51
35.218698828
  0
ARC
  5
418
100
AcDbEntity
  8
0
100
AcDbCircle
 62
7
  6
CONTINUOUS
 10
68.5848808747
 20
98.2911935621
 30
0.0
 40
0.2
100
AcDbArc
 50
0.0
 51
90.0
  0
ARC
  5
419
100
AcDbEntity
  8
0
100
AcDbCircle
 62
7
  6
CONTINUOUS
 10
80.433060863
 20
96.3886785045
 30
0.0
 40
0.5009472585
100
AcDbArc
 50
0.0005477798
 51
2.1370200462
  0
ARC
  5
41A
100
AcDbEntity
  8
RACCORDO
100
AcDbCircle
 62
250
  6
CONTINUOUS
 10
80.06371524
 20
96.0542668066
 30
0.0
 40
0.5002656608
100
AcDbArc
 50
0.049665499
 51
89.950334501
  0
ARC
  5
41B
100
AcDbEntity
  8
0
100
AcDbCircle
 62
7
  6
CONTINUOUS
 10
80.4353614646
 20
96.3889007128
 30
0.0
 40
0.4999588521
100
AcDbArc
 50
0.0032468732
 51
90.0579099563
  0
ARC
  5
41C
100
AcDbEntity
  8
0
100
AcDbCircle
 62
7
  6
CONTINUOUS
 10
80.4341861153
 20
96.3891137616
 30
0.0
 40
0.4997745756
100
AcDbArc
 50
2.0919687749
 51
89.9231819489
  0
ARC
  5
41D
100
AcDbEntity
  8
0
100
AcDbCircle
 62
7
  6
CONTINUOUS
 10
73.7843141811
 20
97.638840223
 30
0.0
 40
0.5005666963
100
AcDbArc
 50
351.3925190942
 51
359.9940885245
  0
ARC
  5
41E
100
AcDbEntity
  8
0
100
AcDbCircle
 62
7
  6
CONTINUOUS
 10
73.7849671698
 20
97.5614632308
 30
0.0
 40
0.4999133017
100
AcDbArc
 50
334.15798543
 51
359.9999087874
  0
ARC
  5
41F
100
AcDbEntity
  8
0
100
AcDbCircle
 62
7
  6
CONTINUOUS
 10
73.7849711709
 20
97.6387877526
 30
0.0
 40
0.4999097038
100
AcDbArc
 50
0.0000945133
 51
25.8443068968
  0
ARC
  5
420
100
AcDbEntity
  8
0
100
AcDbCircle
 62
7
  6
CONTINUOUS
 10
73.7849790005
 20
97.6387862702
 30
0.0
 40
0.4999012921
100
AcDbArc
 50
334.1556249397
 51
351.3872291131
  0
ARC
  5
421
100
AcDbEntity
  8
0
100
AcDbCircle
 62
7
  6
CONTINUOUS
 10
79.6717865267
 20
98.7572202248
 30
0.0
 40
0.25
100
AcDbArc
 50
35.2172057292
 51
90.0
  0
ARC
  5
422
100
AcDbEntity
  8
0
100
AcDbCircle
 62
7
  6
CONTINUOUS
 10
77.2979752226
 20
98.7572202248
 30
0.0
 40
0.25
100
AcDbArc
 50
90.0
 51
144.7827942686
  0
ARC
  5
423
100
AcDbEntity
  8
0
100
AcDbCircle
 62
250
  6
CONTINUOUS
 10
79.6718063561
 20
98.7572334263
 30
0.0
 40
0.24997594
100
AcDbArc
 50
0.0016610045
 51
35.2172057292
  0
ARC
  5
424
100
AcDbEntity
  8
0
100
AcDbCircle
 62
7
  6
CONTINUOUS
 10
79.6849246677
 20
98.7386831664
 30
0.0
 40
0.249956207
100
AcDbArc
 50
0.0002110394
 51
35.2174545687
  0
ARC
  5
425
100
AcDbEntity
  8
0
100
AcDbCircle
 62
7
  6
CONTINUOUS
 10
77.2848370816
 20
98.7386831664
 30
0.0
 40
0.249956207
100
AcDbArc
 50
144.7825454313
 51
179.9997889606
  0
ARC
  5
426
100
AcDbEntity
  8
0
100
AcDbCircle
 62
250
  6
CONTINUOUS
 10
77.2978885722
 20
98.7572734309
 30
0.0
 40
0.2498983158
100
AcDbArc
 50
144.7827942686
 51
179.9982285929
  0
ARC
  5
427
100
AcDbEntity
  8
0
100
AcDbCircle
 62
7
  6
CONTINUOUS
 10
70.9848808747
 20
98.2911935621
 30
0.0
 40
0.2
100
AcDbArc
 50
90.0
 51
180.0
  0
ARC
  5
428
100
AcDbEntity
  8
RACCORDO
100
AcDbCircle
 62
250
  6
CONTINUOUS
 10
18864.5235816702
 20
74.5754335023
 30
0.0
 40
18783.9889914625
100
AcDbArc
 50
179.9365273751
 51
180.0634726314
  0
ARC
  5
429
100
AcDbEntity
  8
0
100
AcDbCircle
 62
7
  6
CONTINUOUS
 10
12.975088766
 20
50.2881999182
 30
0.0
 40
0.25
100
AcDbArc
 50
179.1944349875
 51
268.8611016541
  0
ARC
  5
42A
100
AcDbEntity
  8
0
100
AcDbCircle
 62
7
  6
CONTINUOUS
 10
15.9746695637
 20
50.2372961402
 30
0.0
 40
0.25
100
AcDbArc
 50
269.5277683208
 51
359.1944349875
  0
ARC
  5
42B
100
AcDbEntity
  8
0
100
AcDbCircle
 62
7
  6
CONTINUOUS
 10
15.9803114875
 20
50.638551307
 30
0.0
 40
0.25
100
AcDbArc
 50
359.1944349875
 51
59.1944349875
  0
ARC
  5
42C
100
AcDbEntity
  8
0
100
AcDbCircle
 62
7
  6
CONTINUOUS
 10
12.980607998
 20
50.6807292028
 30
0.0
 40
0.25
100
AcDbArc
 50
119.1944349875
 51
179.1944349875
  0
ARC
  5
42D
100
AcDbEntity
  8
RACCORDO
100
AcDbCircle
 62
7
  6
CONTINUOUS
 10
7.3811042718
 20
53.8017861889
 30
0.0
 40
1.2058751565
100
AcDbArc
 50
258.4197362132
 51
268.479247333
  0
ARC
  5
42E
100
AcDbEntity
  8
RACCORDO
100
AcDbCircle
 62
250
  6
CONTINUOUS
 10
7.3799117414
 20
53.7962393859
 30
0.0
 40
1.200162601
100
AcDbArc
 50
182.4321916269
 51
252.1174073651
  0
ARC
  5
42F
100
AcDbEntity
  8
RACCORDO
100
AcDbCircle
 62
7
  6
CONTINUOUS
 10
7.0074308885
 20
53.8056940795
 30
0.0
 40
1.2
100
AcDbArc
 50
182.985352181
 51
268.5
  0
ARC
  5
430
100
AcDbEntity
  8
RACCORDO
100
AcDbCircle
 62
250
  6
CONTINUOUS
 10
7.3800046338
 20
53.795696443
 30
0.0
 40
1.1996886376
100
AcDbArc
 50
252.1052228964
 51
258.4128014214
  0
ARC
  5
431
100
AcDbEntity
  8
RACCORDO
100
AcDbCircle
 62
250
  6
CONTINUOUS
 10
7.3669317164
 20
53.7965711711
 30
0.0
 40
0.7006022527
100
AcDbArc
 50
182.4671148564
 51
268.5417411289
  0
ARC
  5
432
100
AcDbEntity
  8
0
100
AcDbCircle
 62
7
  6
CONTINUOUS
 10
20.7351331466
 20
50.948076535
 30
0.0
 40
0.5
100
AcDbArc
 50
269.5277683208
 51
359.1944349875
  0
ARC
  5
433
100
AcDbEntity
  8
0
100
AcDbCircle
 62
7
  6
CONTINUOUS
 10
26.2645640604
 20
53.0025461976
 30
0.0
 40
1.0
100
AcDbArc
 50
269.5277683208
 51
359.1944349875
  0
ARC
  5
434
100
AcDbEntity
  8
RACCORDO
100
AcDbCircle
 62
7
  6
CONTINUOUS
 10
27.100982163
 20
55.5869876243
 30
0.0
 40
0.2
100
AcDbArc
 50
359.1944349875
 51
69.194434867
  0
ARC
  5
435
100
AcDbEntity
  8
RACCORDO
100
AcDbCircle
 62
7
  6
CONTINUOUS
 10
27.0833487618
 20
54.3328953073
 30
0.0
 40
0.2
100
AcDbArc
 50
359.1944349875
 51
88.6944349875
  0
ARC
  5
436
100
AcDbEntity
  8
0
100
AcDbCircle
 62
7
  6
CONTINUOUS
 10
27.100982163
 20
55.5869876243
 30
0.0
 40
0.2
100
AcDbArc
 50
359.1944349875
 51
69.194434867
  0
ARC
  5
437
100
AcDbEntity
  8
0
100
AcDbCircle
 62
7
  6
CONTINUOUS
 10
27.0833487618
 20
54.3328953073
 30
0.0
 40
0.2
100
AcDbArc
 50
359.1944349875
 51
88.6944349875
  0
ARC
  5
438
100
AcDbEntity
  8
RACCORDO
100
AcDbCircle
 62
7
  6
CONTINUOUS
 10
7.3811040645
 20
95.3490789058
 30
0.0
 40
1.2058749389
100
AcDbArc
 50
91.5207514341
 51
101.5795253083
  0
ARC
  5
439
100
AcDbEntity
  8
RACCORDO
100
AcDbCircle
 62
250
  6
CONTINUOUS
 10
7.3799115631
 20
95.3546254905
 30
0.0
 40
1.200162602
100
AcDbArc
 50
107.8825926872
 51
177.5678081654
  0
ARC
  5
43A
100
AcDbEntity
  8
RACCORDO
100
AcDbCircle
 62
7
  6
CONTINUOUS
 10
7.0074308964
 20
95.3451708032
 30
0.0
 40
1.2
100
AcDbArc
 50
91.5
 51
177.0146478186
  0
ARC
  5
43B
100
AcDbEntity
  8
RACCORDO
100
AcDbCircle
 62
250
  6
CONTINUOUS
 10
7.3800046054
 20
95.3551678402
 30
0.0
 40
1.1996892491
100
AcDbArc
 50
101.5864568801
 51
107.8947752624
  0
ARC
  5
43C
100
AcDbEntity
  8
RACCORDO
100
AcDbCircle
 62
250
  6
CONTINUOUS
 10
7.3669314505
 20
95.3542938643
 30
0.0
 40
0.7006020866
100
AcDbArc
 50
91.4582518165
 51
177.5328977298
  0
ARC
  5
43D
100
AcDbEntity
  8
0
100
AcDbCircle
 62
7
  6
CONTINUOUS
 10
13.6565965533
 20
98.7572202248
 30
0.0
 40
0.25
100
AcDbArc
 50
89.5277683208
 51
179.1944349875
  0
ARC
  5
43E
100
AcDbEntity
  8
0
100
AcDbCircle
 62
7
  6
CONTINUOUS
 10
16.6564227348
 20
98.7237682112
 30
0.0
 40
0.25
100
AcDbArc
 50
359.1944349875
 51
88.8611016541
  0
ARC
  5
43F
100
AcDbEntity
  8
0
100
AcDbCircle
 62
7
  6
CONTINUOUS
 10
16.6507808109
 20
98.3225130445
 30
0.0
 40
0.25
100
AcDbArc
 50
299.1944349875
 51
359.1944349875
  0
ARC
  5
440
100
AcDbEntity
  8
0
100
AcDbCircle
 62
7
  6
CONTINUOUS
 10
13.6510773214
 20
98.3646909402
 30
0.0
 40
0.25
100
AcDbArc
 50
179.1944349875
 51
239.1944349875
  0
ARC
  5
441
100
AcDbEntity
  8
0
100
AcDbCircle
 62
7
  6
CONTINUOUS
 10
26.8645020832
 20
95.6703025326
 30
0.0
 40
1.0
100
AcDbArc
 50
359.1944349875
 51
88.8611016541
  0
ARC
  5
442
100
AcDbEntity
  8
RACCORDO
100
AcDbCircle
 62
7
  6
CONTINUOUS
 10
27.6279258416
 20
93.0633662281
 30
0.0
 40
0.2
100
AcDbArc
 50
289.1944351079
 51
359.1944349874
  0
ARC
  5
443
100
AcDbEntity
  8
RACCORDO
100
AcDbCircle
 62
7
  6
CONTINUOUS
 10
27.6455592428
 20
94.3174585451
 30
0.0
 40
0.2
100
AcDbArc
 50
269.6944349875
 51
359.1944349875
  0
ARC
  5
444
100
AcDbEntity
  8
0
100
AcDbCircle
 62
7
  6
CONTINUOUS
 10
27.6279258416
 20
93.0633662281
 30
0.0
 40
0.2
100
AcDbArc
 50
289.1944351079
 51
359.1944349874
  0
ARC
  5
445
100
AcDbEntity
  8
0
100
AcDbCircle
 62
7
  6
CONTINUOUS
 10
27.6455592428
 20
94.3174585451
 30
0.0
 40
0.2
100
AcDbArc
 50
269.6944349875
 51
359.1944349875
  0
ARC
  5
446
100
AcDbEntity
  8
0
100
AcDbCircle
 62
7
  6
CONTINUOUS
 10
21.395020202
 20
97.8794244798
 30
0.0
 40
0.5
100
AcDbArc
 50
359.1944349875
 51
88.8611016541
  0
ARC
  5
447
100
AcDbEntity
  8
RACCORDO
100
AcDbCircle
 62
250
  6
CONTINUOUS
 10
498.5700303737
 20
74.5754324405
 30
0.0
 40
492.829590573
100
AcDbArc
 50
177.5775930742
 51
182.4224069267
  0
ARC
  5
448
100
AcDbEntity
  8
RACCORDO
100
AcDbCircle
 62
250
  6
CONTINUOUS
 10
498.3475931096
 20
74.5754335019
 30
0.0
 40
492.12072669
100
AcDbArc
 50
177.5765612876
 51
182.4234389606
  0
SPLINE
  5
449
100
AcDbEntity
  8
0
100
AcDbSpline
 62
7
  6
CONTINUOUS
 70
0
 71
3
 72
15
 73
11
 74
0
 42
0.0000001
 43
0.0000001
 44
0.0000000001
 40
0.0
 40
0.0
 40
0.0
 40
0.0
 40
0.1654098792
 40
0.3239884591
 40
0.4705709523
 40
0.6023875016
 40
0.7189614539
 40
0.8217416326
 40
0.913864819
 40
1.0
 40
1.0
 40
1.0
 40
1.0
 10
77.2921573928
 20
51.391801236
 30
0.0
 10
77.2747006973
 20
51.391801236
 30
0.0
 10
77.2404759648
 20
51.3894895168
 30
0.0
 10
77.1915822353
 20
51.3800954308
 30
0.0
 10
77.1477253505
 20
51.3653385932
 30
0.0
 10
77.1104716984
 20
51.3462486483
 30
0.0
 10
77.0807175975
 20
51.3237893039
 30
0.0
 10
77.0589361432
 20
51.2987853656
 30
0.0
 10
77.0454653568
 20
51.2719636999
 30
0.0
 10
77.0422510496
 20
51.25307348
 30
0.0
 10
77.0421616236
 20
51.2439835582
 30
0.0
  0
SPLINE
  5
44A
100
AcDbEntity
  8
0
100
AcDbSpline
 62
7
  6
CONTINUOUS
 70
0
 71
3
 72
15
 73
11
 74
0
 42
0.0000001
 43
0.0000001
 44
0.0000000001
 40
0.0
 40
0.0
 40
0.0
 40
0.0
 40
0.0860884915
 40
0.1781809884
 40
0.280956123
 40
0.3975526229
 40
0.5294125874
 40
0.6760413455
 40
0.8346375901
 40
1.0
 40
1.0
 40
1.0
 40
1.0
 10
79.9276001258
 20
51.2439835582
 30
0.0
 10
79.9275105435
 20
51.2530893591
 30
0.0
 10
79.9242846416
 20
51.2720148567
 30
0.0
 10
79.9107662747
 20
51.2988807122
 30
0.0
 10
79.8889098885
 20
51.3239189046
 30
0.0
 10
79.8590559653
 20
51.3463986258
 30
0.0
 10
79.8216821459
 20
51.3654917662
 30
0.0
 10
79.777693955
 20
51.3802225718
 30
0.0
 10
79.7286729501
 20
51.3895864383
 30
0.0
 10
79.694368781
 20
51.391801236
 30
0.0
 10
79.6768771278
 20
51.391801236
 30
0.0
  0
SPLINE
  5
44B
100
AcDbEntity
  8
0
100
AcDbSpline
 62
7
  6
CONTINUOUS
 70
0
 71
3
 72
15
 73
11
 74
0
 42
0.0000001
 43
0.0000001
 44
0.0000000001
 40
0.0
 40
0.0
 40
0.0
 40
0.0
 40
0.0860884915
 40
0.1781809884
 40
0.280956123
 40
0.3975526229
 40
0.5294125874
 40
0.6760413455
 40
0.8346375901
 40
1.0
 40
1.0
 40
1.0
 40
1.0
 10
62.5276001258
 20
51.2439835582
 30
0.0
 10
62.5275105435
 20
51.2530893591
 30
0.0
 10
62.5242846416
 20
51.2720148567
 30
0.0
 10
62.5107662747
 20
51.2988807122
 30
0.0
 10
62.4889098885
 20
51.3239189046
 30
0.0
 10
62.4590559653
 20
51.3463986258
 30
0.0
 10
62.4216821459
 20
51.3654917662
 30
0.0
 10
62.377693955
 20
51.3802225718
 30
0.0
 10
62.3286729501
 20
51.3895864383
 30
0.0
 10
62.294368781
 20
51.391801236
 30
0.0
 10
62.2768771278
 20
51.391801236
 30
0.0
  0
SPLINE
  5
44C
100
AcDbEntity
  8
0
100
AcDbSpline
 62
7
  6
CONTINUOUS
 70
0
 71
3
 72
15
 73
11
 74
0
 42
0.0000001
 43
0.0000001
 44
0.0000000001
 40
0.0
 40
0.0
 40
0.0
 40
0.0
 40
0.0860884915
 40
0.1781809884
 40
0.280956123
 40
0.3975526229
 40
0.5294125874
 40
0.6760413455
 40
0.8346375901
 40
1.0
 40
1.0
 40
1.0
 40
1.0
 10
59.6421616236
 20
51.2439835582
 30
0.0
 10
59.6422512058
 20
51.2530893591
 30
0.0
 10
59.6454771078
 20
51.2720148567
 30
0.0
 10
59.6589954747
 20
51.2988807122
 30
0.0
 10
59.6808518608
 20
51.3239189046
 30
0.0
 10
59.7107057841
 20
51.3463986258
 30
0.0
 10
59.7480796035
 20
51.3654917662
 30
0.0
 10
59.7920677943
 20
51.3802225718
 30
0.0
 10
59.8410887992
 20
51.3895864383
 30
0.0
 10
59.8753929683
 20
51.391801236
 30
0.0
 10
59.8928846215
 20
51.391801236
 30
0.0
  0
SPLINE
  5
44D
100
AcDbEntity
  8
0
100
AcDbSpline
 62
7
  6
CONTINUOUS
 70
0
 71
3
 72
15
 73
11
 74
0
 42
0.0000001
 43
0.0000001
 44
0.0000000001
 40
0.0
 40
0.0
 40
0.0
 40
0.0
 40
0.0833251798
 40
0.1732169311
 40
0.2746794653
 40
0.3909550866
 40
0.5234488375
 40
0.6715390807
 40
0.8322180278
 40
1.0
 40
1.0
 40
1.0
 40
1.0
 10
59.6421616236
 20
97.7733588842
 30
0.0
 10
59.6422513295
 20
97.7646740797
 30
0.0
 10
59.645512399
 20
97.7465411188
 30
0.0
 10
59.6590981548
 20
97.7209269019
 30
0.0
 10
59.680983752
 20
97.697105428
 30
0.0
 10
59.7108327224
 20
97.6757301402
 30
0.0
 10
59.7481836042
 20
97.6575719229
 30
0.0
 10
59.7921403858
 20
97.6435570569
 30
0.0
 10
59.8411266508
 20
97.6346455211
 30
0.0
 10
59.8753961341
 20
97.6325299591
 30
0.0
 10
59.8928846215
 20
97.6325299591
 30
0.0
  0
SPLINE
  5
44E
100
AcDbEntity
  8
0
100
AcDbSpline
 62
7
  6
CONTINUOUS
 70
0
 71
3
 72
15
 73
11
 74
0
 42
0.0000001
 43
0.0000001
 44
0.0000000001
 40
0.0
 40
0.0
 40
0.0
 40
0.0
 40
0.0833251798
 40
0.1732169311
 40
0.2746794653
 40
0.3909550866
 40
0.5234488375
 40
0.6715390807
 40
0.8322180278
 40
1.0
 40
1.0
 40
1.0
 40
1.0
 10
62.5276001258
 20
97.7733588842
 30
0.0
 10
62.5275104199
 20
97.7646740797
 30
0.0
 10
62.5242493503
 20
97.7465411188
 30
0.0
 10
62.5106635945
 20
97.7209269019
 30
0.0
 10
62.4887779973
 20
97.697105428
 30
0.0
 10
62.458929027
 20
97.6757301402
 30
0.0
 10
62.4215781451
 20
97.6575719229
 30
0.0
 10
62.3776213635
 20
97.6435570569
 30
0.0
 10
62.3286350985
 20
97.6346455211
 30
0.0
 10
62.2943656153
 20
97.6325299591
 30
0.0
 10
62.2768771278
 20
97.6325299591
 30
0.0
  0
SPLINE
  5
44F
100
AcDbEntity
  8
0
100
AcDbSpline
 62
7
  6
CONTINUOUS
 70
0
 71
3
 72
15
 73
11
 74
0
 42
0.0000001
 43
0.0000001
 44
0.0000000001
 40
0.0
 40
0.0
 40
0.0
 40
0.0
 40
0.0833251798
 40
0.1732169311
 40
0.2746794653
 40
0.3909550866
 40
0.5234488375
 40
0.6715390807
 40
0.8322180278
 40
1.0
 40
1.0
 40
1.0
 40
1.0
 10
77.0421616236
 20
97.7733588842
 30
0.0
 10
77.0422513295
 20
97.7646740797
 30
0.0
 10
77.045512399
 20
97.7465411188
 30
0.0
 10
77.0590981548
 20
97.7209269019
 30
0.0
 10
77.080983752
 20
97.697105428
 30
0.0
 10
77.1108327224
 20
97.6757301402
 30
0.0
 10
77.1481836042
 20
97.6575719229
 30
0.0
 10
77.1921403858
 20
97.6435570569
 30
0.0
 10
77.2411266508
 20
97.6346455211
 30
0.0
 10
77.2753961341
 20
97.6325299591
 30
0.0
 10
77.2928846215
 20
97.6325299591
 30
0.0
  0
SPLINE
  5
450
100
AcDbEntity
  8
0
100
AcDbSpline
 62
7
  6
CONTINUOUS
 70
0
 71
3
 72
15
 73
11
 74
0
 42
0.0000001
 43
0.0000001
 44
0.0000000001
 40
0.0
 40
0.0
 40
0.0
 40
0.0
 40
0.1678342541
 40
0.328496751
 40
0.4765396419
 40
0.6089878593
 40
0.7252387528
 40
0.8267048729
 40
0.916627143
 40
1.0
 40
1.0
 40
1.0
 40
1.0
 10
79.6776043566
 20
97.6325299591
 30
0.0
 10
79.6950577247
 20
97.6325299591
 30
0.0
 10
79.7292476375
 20
97.6347378566
 30
0.0
 10
79.7781068163
 20
97.6436781051
 30
0.0
 10
79.8219325134
 20
97.6577177493
 30
0.0
 10
79.8591634414
 20
97.6758730065
 30
0.0
 10
79.8889127732
 20
97.697229059
 30
0.0
 10
79.9107234734
 20
97.7210181805
 30
0.0
 10
79.9242613355
 20
97.7465903994
 30
0.0
 10
79.9275105767
 20
97.7646892622
 30
0.0
 10
79.9276001258
 20
97.7733588842
 30
0.0
  0
SPLINE
  5
451
100
AcDbEntity
  8
RACCORDO
100
AcDbSpline
 62
250
  6
CONTINUOUS
 70
0
 71
3
 72
18
 73
14
 74
0
 42
0.0000001
 43
0.0000001
 44
0.0000000001
 40
0.0
 40
0.0
 40
0.0
 40
0.0
 40
0.1929855483
 40
0.3782038868
 40
0.5485297732
 40
0.698141618
 40
0.8218281703
 40
0.872498673
 40
0.9151501778
 40
0.9494032317
 40
0.9749646405
 40
0.9917482692
 40
1.0
 40
1.0
 40
1.0
 40
1.0
 10
80.0635410928
 20
53.7453086214
 30
0.0
 10
80.094670852
 20
53.7453884899
 30
0.0
 10
80.155677243
 20
53.7457859287
 30
0.0
 10
80.2441498523
 20
53.7470879225
 30
0.0
 10
80.3256140957
 20
53.7490436142
 30
0.0
 10
80.3971268966
 20
53.7515804791
 30
0.0
 10
80.4493311137
 20
53.7542047602
 30
0.0
 10
80.484239971
 20
53.7566393735
 30
0.0
 10
80.50477157
 20
53.7584052355
 30
0.0
 10
80.5211257153
 20
53.7602463949
 30
0.0
 10
80.5335330445
 20
53.7620323945
 30
0.0
 10
80.5411413369
 20
53.7639097871
 30
0.0
 10
80.5454162814
 20
53.7652824082
 30
0.0
 10
80.5461163911
 20
53.7664144708
 30
0.0
  0
SPLINE
  5
452
100
AcDbEntity
  8
RACCORDO
100
AcDbSpline
 62
250
  6
CONTINUOUS
 70
0
 71
3
 72
18
 73
14
 74
0
 42
0.0000001
 43
0.0000001
 44
0.0000000001
 40
0.0
 40
0.0
 40
0.0
 40
0.0
 40
0.1929826284
 40
0.3781985689
 40
0.5485229246
 40
0.6981342821
 40
0.8218214193
 40
0.8724925962
 40
0.915145003
 40
0.9493991642
 40
0.9749618564
 40
0.9917468992
 40
1.0
 40
1.0
 40
1.0
 40
1.0
 10
80.063540646
 20
95.4055556944
 30
0.0
 10
80.0946699506
 20
95.40547583
 30
0.0
 10
80.1556755157
 20
95.4050784083
 30
0.0
 10
80.2441470673
 20
95.4037764653
 30
0.0
 10
80.3256106415
 20
95.4018208438
 30
0.0
 10
80.3971232538
 20
95.3992840588
 30
0.0
 10
80.4493276204
 20
95.3966598535
 30
0.0
 10
80.4842368592
 20
95.3942253056
 30
0.0
 10
80.5047688868
 20
95.3924594856
 30
0.0
 10
80.5211236312
 20
95.3906183497
 30
0.0
 10
80.5335314681
 20
95.3888324
 30
0.0
 10
80.5411406651
 20
95.3869549592
 30
0.0
 10
80.5454158198
 20
95.3855824422
 30
0.0
 10
80.5461163887
 20
95.384450403
 30
0.0
  0
SPLINE
  5
453
100
AcDbEntity
  8
RACCORDO
100
AcDbSpline
 62
250
  6
CONTINUOUS
 70
0
 71
3
 72
18
 73
14
 74
0
 42
0.0000001
 43
0.0000001
 44
0.0000000001
 40
0.0
 40
0.0
 40
0.0
 40
0.0
 40
0.1929855485
 40
0.3782038873
 40
0.5485297738
 40
0.6981416186
 40
0.821828171
 40
0.8724986736
 40
0.9151501783
 40
0.9494032321
 40
0.9749646408
 40
0.9917482694
 40
1.0
 40
1.0
 40
1.0
 40
1.0
 10
37.0062206568
 20
95.4055562612
 30
0.0
 10
36.9750908975
 20
95.4054763927
 30
0.0
 10
36.9140845064
 20
95.405078954
 30
0.0
 10
36.8256118969
 20
95.4037769602
 30
0.0
 10
36.7441476535
 20
95.4018212685
 30
0.0
 10
36.6726348524
 20
95.3992844035
 30
0.0
 10
36.6204306353
 20
95.3966601225
 30
0.0
 10
36.5855217781
 20
95.3942255092
 30
0.0
 10
36.564990179
 20
95.3924596471
 30
0.0
 10
36.5486360338
 20
95.3906184877
 30
0.0
 10
36.5362287046
 20
95.3888324882
 30
0.0
 10
36.5286204123
 20
95.3869550956
 30
0.0
 10
36.5243454678
 20
95.3855824744
 30
0.0
 10
36.5236453582
 20
95.3844504118
 30
0.0
  0
SPLINE
  5
454
100
AcDbEntity
  8
RACCORDO
100
AcDbSpline
 62
250
  6
CONTINUOUS
 70
0
 71
3
 72
18
 73
14
 74
0
 42
0.0000001
 43
0.0000001
 44
0.0000000001
 40
0.0
 40
0.0
 40
0.0
 40
0.0
 40
0.1929826284
 40
0.3781985688
 40
0.5485229245
 40
0.698134282
 40
0.8218214192
 40
0.872492596
 40
0.9151450029
 40
0.9493991641
 40
0.9749618563
 40
0.9917468992
 40
1.0
 40
1.0
 40
1.0
 40
1.0
 10
37.0062211033
 20
53.7453091881
 30
0.0
 10
36.9750917987
 20
53.7453890525
 30
0.0
 10
36.9140862337
 20
53.7457864742
 30
0.0
 10
36.825614682
 20
53.7470884172
 30
0.0
 10
36.7441511079
 20
53.7490440387
 30
0.0
 10
36.6726384956
 20
53.7515808237
 30
0.0
 10
36.620434129
 20
53.7542050289
 30
0.0
 10
36.5855248902
 20
53.7566395769
 30
0.0
 10
36.5649928626
 20
53.7584053968
 30
0.0
 10
36.5486381182
 20
53.7602465328
 30
0.0
 10
36.5362302813
 20
53.7620324824
 30
0.0
 10
36.5286210842
 20
53.7639099232
 30
0.0
 10
36.5243459295
 20
53.7652824403
 30
0.0
 10
36.5236453606
 20
53.7664144795
 30
0.0
  0
SPLINE
  5
455
100
AcDbEntity
  8
RACCORDO
100
AcDbSpline
 62
250
  6
CONTINUOUS
 70
0
 71
3
 72
20
 73
16
 74
0
 42
0.0000001
 43
0.0000001
 44
0.0000000001
 40
0.0
 40
0.0
 40
0.0
 40
0.0
 40
0.1939765982
 40
0.3795882719
 40
0.5502152287
 40
0.6999197971
 40
0.765248467
 40
0.8234397475
 40
0.8740056134
 40
0.9165001291
 40
0.9505634192
 40
0.9759125254
 40
0.9923565239
 40
0.9972475728
 40
1.0
 40
1.0
 40
1.0
 40
1.0
 10
80.5461163888
 20
95.384450403
 30
0.0
 10
80.5461646776
 20
95.4278368866
 30
0.0
 10
80.5464643827
 20
95.512738815
 30
0.0
 10
80.5475276166
 20
95.6358007759
 30
0.0
 10
80.5491597801
 20
95.748953424
 30
0.0
 10
80.5510068132
 20
95.8351947685
 30
0.0
 10
80.5527776291
 20
95.8962815186
 30
0.0
 10
80.5541440785
 20
95.9351945994
 30
0.0
 10
80.5555894053
 20
95.9689968308
 30
0.0
 10
80.5571090211
 20
95.9973836457
 30
0.0
 10
80.5586483024
 20
96.0201443751
 30
0.0
 10
80.5602560193
 20
96.0369949773
 30
0.0
 10
80.5616046585
 20
96.0474312039
 30
0.0
 10
80.5629150931
 20
96.0525944706
 30
0.0
 10
80.5635438875
 20
96.0542634741
 30
0.0
 10
80.5639775432
 20
96.0547004473
 30
0.0
  0
SPLINE
  5
456
100
AcDbEntity
  8
RACCORDO
100
AcDbSpline
 62
250
  6
CONTINUOUS
 70
0
 71
3
 72
20
 73
16
 74
0
 42
0.0000001
 43
0.0000001
 44
0.0000000001
 40
0.0
 40
0.0
 40
0.0
 40
0.0
 40
0.0027524272
 40
0.0076434763
 40
0.0240874753
 40
0.0494365822
 40
0.0834998731
 40
0.1259943899
 40
0.1765602571
 40
0.2347515391
 40
0.3000802107
 40
0.4497847817
 40
0.6204117436
 40
0.8060234169
 40
1.0
 40
1.0
 40
1.0
 40
1.0
 10
80.5639775478
 20
53.0961644306
 30
0.0
 10
80.5635438921
 20
53.0966014038
 30
0.0
 10
80.5629150976
 20
53.0982704073
 30
0.0
 10
80.5616046631
 20
53.1034336742
 30
0.0
 10
80.5602560239
 20
53.113869901
 30
0.0
 10
80.558648307
 20
53.1307205035
 30
0.0
 10
80.5571090257
 20
53.1534812334
 30
0.0
 10
80.5555894098
 20
53.1818680488
 30
0.0
 10
80.5541440831
 20
53.2156702809
 30
0.0
 10
80.5527776336
 20
53.2545833625
 30
0.0
 10
80.5510068178
 20
53.3156701135
 30
0.0
 10
80.5491597845
 20
53.4019114596
 30
0.0
 10
80.5475276214
 20
53.5150641086
 30
0.0
 10
80.5464643879
 20
53.6381260664
 30
0.0
 10
80.5461646799
 20
53.7230279908
 30
0.0
 10
80.5461163911
 20
53.7664144708
 30
0.0
  0
SPLINE
  5
457
100
AcDbEntity
  8
RACCORDO
100
AcDbSpline
 62
250
  6
CONTINUOUS
 70
0
 71
3
 72
20
 73
16
 74
0
 42
0.0000001
 43
0.0000001
 44
0.0000000001
 40
0.0
 40
0.0
 40
0.0
 40
0.0
 40
0.1939765981
 40
0.3795882718
 40
0.5502152287
 40
0.6999197971
 40
0.765248467
 40
0.8234397475
 40
0.8740056134
 40
0.9165001291
 40
0.9505634192
 40
0.9759125254
 40
0.9923565239
 40
0.9972475728
 40
1.0
 40
1.0
 40
1.0
 40
1.0
 10
36.5236453606
 20
53.7664144795
 30
0.0
 10
36.5235970718
 20
53.7230279959
 30
0.0
 10
36.5232973666
 20
53.6381260675
 30
0.0
 10
36.5222341327
 20
53.5150641066
 30
0.0
 10
36.5206019693
 20
53.4019114585
 30
0.0
 10
36.5187549362
 20
53.315670114
 30
0.0
 10
36.5169841203
 20
53.2545833639
 30
0.0
 10
36.5156176708
 20
53.2156702831
 30
0.0
 10
36.5141723441
 20
53.1818680517
 30
0.0
 10
36.5126527282
 20
53.1534812368
 30
0.0
 10
36.5111134469
 20
53.1307205074
 30
0.0
 10
36.50950573
 20
53.1138699052
 30
0.0
 10
36.5081570908
 20
53.1034336786
 30
0.0
 10
36.5068466563
 20
53.0982704119
 30
0.0
 10
36.5062178618
 20
53.0966014084
 30
0.0
 10
36.5057842061
 20
53.0961644352
 30
0.0
  0
SPLINE
  5
458
100
AcDbEntity
  8
RACCORDO
100
AcDbSpline
 62
250
  6
CONTINUOUS
 70
0
 71
3
 72
20
 73
16
 74
0
 42
0.0000001
 43
0.0000001
 44
0.0000000001
 40
0.0
 40
0.0
 40
0.0
 40
0.0
 40
0.0027524272
 40
0.0076434763
 40
0.0240874753
 40
0.0494365822
 40
0.0834998731
 40
0.1259943899
 40
0.1765602571
 40
0.2347515392
 40
0.3000802108
 40
0.4497847818
 40
0.6204117438
 40
0.8060234171
 40
1.0
 40
1.0
 40
1.0
 40
1.0
 10
36.5057842015
 20
96.054700452
 30
0.0
 10
36.5062178572
 20
96.0542634788
 30
0.0
 10
36.5068466516
 20
96.0525944752
 30
0.0
 10
36.5081570862
 20
96.0474312084
 30
0.0
 10
36.5095057254
 20
96.0369949816
 30
0.0
 10
36.5111134423
 20
96.020144379
 30
0.0
 10
36.5126527236
 20
95.9973836492
 30
0.0
 10
36.5141723395
 20
95.9689968337
 30
0.0
 10
36.5156176662
 20
95.9351946016
 30
0.0
 10
36.5169841156
 20
95.89628152
 30
0.0
 10
36.5187549315
 20
95.835194769
 30
0.0
 10
36.5206019648
 20
95.7489534229
 30
0.0
 10
36.5222341279
 20
95.6358007739
 30
0.0
 10
36.5232973614
 20
95.5127388161
 30
0.0
 10
36.5235970694
 20
95.4278368917
 30
0.0
 10
36.5236453582
 20
95.3844504118
 30
0.0
  0
SPLINE
  5
459
100
AcDbEntity
  8
RACCORDO
100
AcDbSpline
 62
250
  6
CONTINUOUS
 70
0
 71
3
 72
9
 73
5
 74
0
 42
0.0000001
 43
0.0000001
 44
0.0000000001
 40
0.0
 40
0.0
 40
0.0
 40
0.0
 40
0.2499623056
 40
1.0
 40
1.0
 40
1.0
 40
1.0
 10
37.0056128682
 20
52.5963357723
 30
0.0
 10
40.5932819804
 20
52.5995923445
 30
0.0
 10
54.9461252875
 20
52.6093614897
 30
0.0
 10
69.2989774631
 20
52.6061074363
 30
0.0
 10
80.0641488853
 20
52.5963357681
 30
0.0
  0
SPLINE
  5
45A
100
AcDbEntity
  8
RACCORDO
100
AcDbSpline
 62
250
  6
CONTINUOUS
 70
0
 71
3
 72
9
 73
5
 74
0
 42
0.0000001
 43
0.0000001
 44
0.0000000001
 40
0.0
 40
0.0
 40
0.0
 40
0.0
 40
0.2499623056
 40
1.0
 40
1.0
 40
1.0
 40
1.0
 10
80.0641488811
 20
96.5545291102
 30
0.0
 10
76.4764797693
 20
96.551272538
 30
0.0
 10
62.1236364622
 20
96.5415033926
 30
0.0
 10
47.7707842865
 20
96.5447574468
 30
0.0
 10
37.005612864
 20
96.5545291145
 30
0.0
  0
SPLINE
  5
45B
100
AcDbEntity
  8
RACCORDO
100
AcDbSpline
 62
250
  6
CONTINUOUS
 70
0
 71
3
 72
9
 73
5
 74
0
 42
0.0000001
 43
0.0000001
 44
0.0000000001
 40
0.0
 40
0.0
 40
0.0
 40
0.0
 40
0.2499433183
 40
1.0
 40
1.0
 40
1.0
 40
1.0
 10
37.0062206567
 20
95.4055562387
 30
0.0
 10
37.0084717722
 20
91.9346566578
 30
0.0
 10
37.0152319695
 20
78.0479084685
 30
0.0
 10
37.0129760434
 20
64.161155894
 30
0.0
 10
37.0062206545
 20
53.7453086521
 30
0.0
  0
SPLINE
  5
45C
100
AcDbEntity
  8
RACCORDO
100
AcDbSpline
 62
250
  6
CONTINUOUS
 70
0
 71
3
 72
9
 73
5
 74
0
 42
0.0000001
 43
0.0000001
 44
0.0000000001
 40
0.0
 40
0.0
 40
0.0
 40
0.0
 40
0.2499433183
 40
1.0
 40
1.0
 40
1.0
 40
1.0
 10
80.0635410929
 20
53.7453086434
 30
0.0
 10
80.0612899772
 20
57.2162082242
 30
0.0
 10
80.0545297799
 20
71.1029564135
 30
0.0
 10
80.0567857063
 20
84.9897089879
 30
0.0
 10
80.0635410948
 20
95.4055562298
 30
0.0
  0
SPLINE
  5
45D
100
AcDbEntity
  8
0
100
AcDbSpline
 62
250
  6
CONTINUOUS
 70
0
 71
3
 72
23
 73
19
 74
0
 42
0.0000001
 43
0.0000001
 44
0.0000000001
 40
0.0
 40
0.0
 40
0.0
 40
0.0
 40
0.1950088256
 40
0.3825137966
 40
0.5553291176
 40
0.6341212599
 40
0.7068077573
 40
0.7726903695
 40
0.8311341572
 40
0.881576424
 40
0.9235348477
 40
0.9566069451
 40
0.9697082507
 40
0.9804782991
 40
0.9888941943
 40
0.9949378612
 40
0.9986118934
 40
1.0
 40
1.0
 40
1.0
 40
1.0
 10
68.5848808747
 20
50.7022071761
 30
0.0
 10
68.5978872614
 20
50.7022071761
 30
0.0
 10
68.6233995705
 20
50.7021725418
 30
0.0
 10
68.6604377485
 20
50.7020177044
 30
0.0
 10
68.6897242472
 20
50.7018031311
 30
0.0
 10
68.7113523519
 20
50.7015793815
 30
0.0
 10
68.7258484043
 20
50.7013962295
 30
0.0
 10
68.7389869883
 20
50.7011945852
 30
0.0
 10
68.7506412278
 20
50.700976507
 30
0.0
 10
68.7606999504
 20
50.7007449015
 30
0.0
 10
68.7690634805
 20
50.7005018657
 30
0.0
 10
68.7749412207
 20
50.70028125
 30
0.0
 10
68.7787288476
 20
50.7000913418
 30
0.0
 10
68.7808902495
 20
50.6999611391
 30
0.0
 10
68.782537049
 20
50.6998270652
 30
0.0
 10
68.7838105722
 20
50.6997064366
 30
0.0
 10
68.784415224
 20
50.6995741062
 30
0.0
 10
68.7848808747
 20
50.6994878981
 30
0.0
 10
68.7848808747
 20
50.6993953164
 30
0.0
  0
SPLINE
  5
45E
100
AcDbEntity
  8
0
100
AcDbSpline
 62
250
  6
CONTINUOUS
 70
0
 71
3
 72
23
 73
19
 74
0
 42
0.0000001
 43
0.0000001
 44
0.0000000001
 40
0.0
 40
0.0
 40
0.0
 40
0.0
 40
0.195008876
 40
0.382513886
 40
0.5553292421
 40
0.634121391
 40
0.7068078948
 40
0.7726905095
 40
0.831134287
 40
0.8815765448
 40
0.9235349579
 40
0.9566070273
 40
0.9697083258
 40
0.9804783549
 40
0.9888942379
 40
0.9949378947
 40
0.9986119046
 40
1.0
 40
1.0
 40
1.0
 40
1.0
 10
70.9848808747
 20
50.7022071761
 30
0.0
 10
70.9718744845
 20
50.7022071761
 30
0.0
 10
70.9463621694
 20
50.7021725418
 30
0.0
 10
70.9093239831
 20
50.7020177043
 30
0.0
 10
70.880037479
 20
50.701803131
 30
0.0
 10
70.8584093711
 20
50.7015793812
 30
0.0
 10
70.8439133176
 20
50.7013962291
 30
0.0
 10
70.8307747337
 20
50.7011945848
 30
0.0
 10
70.8191204952
 20
50.7009765065
 30
0.0
 10
70.8090617746
 20
50.7007449008
 30
0.0
 10
70.8006982477
 20
50.7005018652
 30
0.0
 10
70.7948205106
 20
50.7002812492
 30
0.0
 10
70.7910328873
 20
50.7000913411
 30
0.0
 10
70.788871488
 20
50.699961138
 30
0.0
 10
70.7872246911
 20
50.6998270645
 30
0.0
 10
70.7859511714
 20
50.6997064359
 30
0.0
 10
70.785346521
 20
50.6995741071
 30
0.0
 10
70.7848808747
 20
50.6994878974
 30
0.0
 10
70.7848808747
 20
50.6993953164
 30
0.0
  0
SPLINE
  5
45F
100
AcDbEntity
  8
0
100
AcDbSpline
 62
250
  6
CONTINUOUS
 70
0
 71
3
 72
23
 73
19
 74
0
 42
0.0000001
 43
0.0000001
 44
0.0000000001
 40
0.0
 40
0.0
 40
0.0
 40
0.0
 40
0.195008876
 40
0.382513886
 40
0.5553292421
 40
0.634121391
 40
0.7068078948
 40
0.7726905095
 40
0.831134287
 40
0.8815765448
 40
0.9235349579
 40
0.9566070273
 40
0.9697083258
 40
0.9804783549
 40
0.9888942379
 40
0.9949378947
 40
0.9986119046
 40
1.0
 40
1.0
 40
1.0
 40
1.0
 10
68.5848808747
 20
98.2940054218
 30
0.0
 10
68.5978872648
 20
98.2940054218
 30
0.0
 10
68.6233995799
 20
98.2939707875
 30
0.0
 10
68.6604377663
 20
98.2938159499
 30
0.0
 10
68.6897242704
 20
98.2936013766
 30
0.0
 10
68.7113523783
 20
98.2933776269
 30
0.0
 10
68.7258484317
 20
98.2931944747
 30
0.0
 10
68.7389870157
 20
98.2929928305
 30
0.0
 10
68.7506412541
 20
98.2927747521
 30
0.0
 10
68.7606999747
 20
98.2925431464
 30
0.0
 10
68.7690635017
 20
98.2923001108
 30
0.0
 10
68.7749412388
 20
98.2920794948
 30
0.0
 10
68.7787288621
 20
98.2918895867
 30
0.0
 10
68.7808902613
 20
98.2917593836
 30
0.0
 10
68.7825370582
 20
98.2916253102
 30
0.0
 10
68.7838105779
 20
98.2915046815
 30
0.0
 10
68.7844152284
 20
98.2913723527
 30
0.0
 10
68.7848808747
 20
98.291286143
 30
0.0
 10
68.7848808747
 20
98.2911935621
 30
0.0
  0
SPLINE
  5
460
100
AcDbEntity
  8
0
100
AcDbSpline
 62
250
  6
CONTINUOUS
 70
0
 71
3
 72
23
 73
19
 74
0
 42
0.0000001
 43
0.0000001
 44
0.0000000001
 40
0.0
 40
0.0
 40
0.0
 40
0.0
 40
0.1950088256
 40
0.3825137966
 40
0.5553291176
 40
0.6341212599
 40
0.7068077573
 40
0.7726903695
 40
0.8311341572
 40
0.881576424
 40
0.9235348477
 40
0.9566069451
 40
0.9697082507
 40
0.9804782991
 40
0.9888941943
 40
0.9949378612
 40
0.9986118934
 40
1.0
 40
1.0
 40
1.0
 40
1.0
 10
70.9848808747
 20
98.2940054218
 30
0.0
 10
70.9718744879
 20
98.2940054218
 30
0.0
 10
70.9463621788
 20
98.2939707875
 30
0.0
 10
70.9093240008
 20
98.2938159501
 30
0.0
 10
70.8800375021
 20
98.2936013768
 30
0.0
 10
70.8584093975
 20
98.2933776272
 30
0.0
 10
70.8439133451
 20
98.2931944751
 30
0.0
 10
70.8307747611
 20
98.2929928309
 30
0.0
 10
70.8191205215
 20
98.2927747527
 30
0.0
 10
70.809061799
 20
98.2925431471
 30
0.0
 10
70.8006982688
 20
98.2923001114
 30
0.0
 10
70.7948205286
 20
98.2920794957
 30
0.0
 10
70.7910329018
 20
98.2918895875
 30
0.0
 10
70.7888714998
 20
98.2917593847
 30
0.0
 10
70.7872247004
 20
98.2916253109
 30
0.0
 10
70.7859511772
 20
98.2915046823
 30
0.0
 10
70.7853465254
 20
98.2913723519
 30
0.0
 10
70.7848808747
 20
98.2912861438
 30
0.0
 10
70.7848808747
 20
98.2911935621
 30
0.0
  0
SPLINE
  5
461
100
AcDbEntity
  8
0
100
AcDbSpline
 62
250
  6
CONTINUOUS
 70
0
 71
3
 72
23
 73
19
 74
0
 42
0.0000001
 43
0.0000001
 44
0.0000000001
 40
0.0
 40
0.0
 40
0.0
 40
0.0
 40
0.1943071837
 40
0.3811926108
 40
0.553547013
 40
0.6321895141
 40
0.7047899385
 40
0.7706560067
 40
0.8291576263
 40
0.8797357003
 40
0.921910129
 40
0.9552792455
 40
0.9685592742
 40
0.9795278648
 40
0.9881616917
 40
0.9944418646
 40
0.9983682941
 40
1.0
 40
1.0
 40
1.0
 40
1.0
 10
62.2717865267
 20
50.6842440274
 30
0.0
 10
62.2879850657
 20
50.6842440274
 30
0.0
 10
62.3197634439
 20
50.6842010408
 30
0.0
 10
62.3659098931
 20
50.6840088548
 30
0.0
 10
62.4024133369
 20
50.6837425094
 30
0.0
 10
62.4293888229
 20
50.6834647928
 30
0.0
 10
62.447486825
 20
50.6832373552
 30
0.0
 10
62.4639053507
 20
50.6829869041
 30
0.0
 10
62.4784871946
 20
50.6827159187
 30
0.0
 10
62.4910937542
 20
50.6824281287
 30
0.0
 10
62.5016025604
 20
50.6821256223
 30
0.0
 10
62.5090050923
 20
50.6818519066
 30
0.0
 10
62.5137987023
 20
50.6816149414
 30
0.0
 10
62.5165437497
 20
50.6814550019
 30
0.0
 10
62.5186728377
 20
50.6812819739
 30
0.0
 10
62.5202881067
 20
50.6811447965
 30
0.0
 10
62.5211660529
 20
50.6809516359
 30
0.0
 10
62.5217302839
 20
50.6808753428
 30
0.0
 10
62.521782296
 20
50.6807496511
 30
0.0
  0
SPLINE
  5
462
100
AcDbEntity
  8
0
100
AcDbSpline
 62
250
  6
CONTINUOUS
 70
0
 71
3
 72
23
 73
19
 74
0
 42
0.0000001
 43
0.0000001
 44
0.0000000001
 40
0.0
 40
0.0
 40
0.0
 40
0.0
 40
0.1943072071
 40
0.3811926509
 40
0.5535470663
 40
0.6321895693
 40
0.7047899954
 40
0.7706560636
 40
0.8291576784
 40
0.8797357485
 40
0.9219101735
 40
0.9552792803
 40
0.9685593068
 40
0.9795278896
 40
0.9881617114
 40
0.9944418797
 40
0.9983682993
 40
1.0
 40
1.0
 40
1.0
 40
1.0
 10
62.2717865267
 20
50.2917147428
 30
0.0
 10
62.2879850677
 20
50.2917147428
 30
0.0
 10
62.3197634492
 20
50.2916717562
 30
0.0
 10
62.3659099028
 20
50.2914795701
 30
0.0
 10
62.4024133493
 20
50.2912132248
 30
0.0
 10
62.4293888367
 20
50.290935508
 30
0.0
 10
62.4474868392
 20
50.2907080704
 30
0.0
 10
62.4639053646
 20
50.2904576193
 30
0.0
 10
62.4784872078
 20
50.2901866339
 30
0.0
 10
62.4910937664
 20
50.2898988437
 30
0.0
 10
62.5016025712
 20
50.2895963374
 30
0.0
 10
62.5090051017
 20
50.2893226216
 30
0.0
 10
62.51379871
 20
50.2890856564
 30
0.0
 10
62.5165437562
 20
50.2889257167
 30
0.0
 10
62.5186728428
 20
50.2887526889
 30
0.0
 10
62.52028811
 20
50.2886155116
 30
0.0
 10
62.5211660551
 20
50.2884223517
 30
0.0
 10
62.5217302841
 20
50.2883460578
 30
0.0
 10
62.521782296
 20
50.2882203665
 30
0.0
  0
SPLINE
  5
463
100
AcDbEntity
  8
0
100
AcDbSpline
 62
250
  6
CONTINUOUS
 70
0
 71
3
 72
23
 73
19
 74
0
 42
0.0000001
 43
0.0000001
 44
0.0000000001
 40
0.0
 40
0.0
 40
0.0
 40
0.0
 40
0.194306851
 40
0.3811923409
 40
0.5535467677
 40
0.6321892948
 40
0.7047897393
 40
0.7706558302
 40
0.8291574818
 40
0.8797355805
 40
0.9219100326
 40
0.9552791824
 40
0.9685592197
 40
0.9795278265
 40
0.9881616642
 40
0.9944418446
 40
0.9983682874
 40
1.0
 40
1.0
 40
1.0
 40
1.0
 10
59.8979752226
 20
50.2917147428
 30
0.0
 10
59.8817767113
 20
50.2917147428
 30
0.0
 10
59.8499983557
 20
50.2916717562
 30
0.0
 10
59.803851927
 20
50.2914795707
 30
0.0
 10
59.7673484737
 20
50.2912132253
 30
0.0
 10
59.7403729819
 20
50.2909355088
 30
0.0
 10
59.7222749741
 20
50.2907080713
 30
0.0
 10
59.7058564421
 20
50.2904576202
 30
0.0
 10
59.6912745916
 20
50.2901866349
 30
0.0
 10
59.6786680253
 20
50.2898988449
 30
0.0
 10
59.6681592123
 20
50.2895963383
 30
0.0
 10
59.660756675
 20
50.2893226229
 30
0.0
 10
59.6559630602
 20
50.2890856575
 30
0.0
 10
59.6532180098
 20
50.2889257182
 30
0.0
 10
59.651088919
 20
50.2887526899
 30
0.0
 10
59.6494736472
 20
50.2886155123
 30
0.0
 10
59.6485956993
 20
50.2884223508
 30
0.0
 10
59.6480314657
 20
50.2883460587
 30
0.0
 10
59.6479794534
 20
50.2882203665
 30
0.0
  0
SPLINE
  5
464
100
AcDbEntity
  8
0
100
AcDbSpline
 62
250
  6
CONTINUOUS
 70
0
 71
3
 72
23
 73
19
 74
0
 42
0.0000001
 43
0.0000001
 44
0.0000000001
 40
0.0
 40
0.0
 40
0.0
 40
0.0
 40
0.1943071597
 40
0.3811925668
 40
0.5535469493
 40
0.6321894458
 40
0.7047898659
 40
0.7706559317
 40
0.8291575559
 40
0.8797356341
 40
0.9219100689
 40
0.9552792019
 40
0.9685592347
 40
0.9795278355
 40
0.988161669
 40
0.9944418474
 40
0.9983682883
 40
1.0
 40
1.0
 40
1.0
 40
1.0
 10
59.8979752226
 20
50.6842440274
 30
0.0
 10
59.8817766856
 20
50.6842440274
 30
0.0
 10
59.8499983112
 20
50.6842010408
 30
0.0
 10
59.8038518673
 20
50.6840088549
 30
0.0
 10
59.7673484272
 20
50.6837425095
 30
0.0
 10
59.7403729436
 20
50.683464793
 30
0.0
 10
59.7222749424
 20
50.6832373555
 30
0.0
 10
59.7058564169
 20
50.6829869044
 30
0.0
 10
59.6912745725
 20
50.6827159191
 30
0.0
 10
59.6786680116
 20
50.6824281291
 30
0.0
 10
59.6681592032
 20
50.6821256227
 30
0.0
 10
59.6607566691
 20
50.6818519072
 30
0.0
 10
59.6559630566
 20
50.6816149419
 30
0.0
 10
59.6532180074
 20
50.6814550026
 30
0.0
 10
59.6510889175
 20
50.6812819744
 30
0.0
 10
59.6494736465
 20
50.6811447968
 30
0.0
 10
59.6485956989
 20
50.6809516355
 30
0.0
 10
59.6480314656
 20
50.6808753433
 30
0.0
 10
59.6479794534
 20
50.6807496511
 30
0.0
  0
SPLINE
  5
465
100
AcDbEntity
  8
0
100
AcDbSpline
 62
250
  6
CONTINUOUS
 70
0
 71
3
 72
23
 73
19
 74
0
 42
0.0000001
 43
0.0000001
 44
0.0000000001
 40
0.0
 40
0.0
 40
0.0
 40
0.0
 40
0.1943072071
 40
0.3811926509
 40
0.5535470663
 40
0.6321895693
 40
0.7047899954
 40
0.7706560636
 40
0.8291576784
 40
0.8797357485
 40
0.9219101735
 40
0.9552792803
 40
0.9685593068
 40
0.9795278896
 40
0.9881617114
 40
0.9944418797
 40
0.9983682993
 40
1.0
 40
1.0
 40
1.0
 40
1.0
 10
77.2979752226
 20
50.2917147428
 30
0.0
 10
77.2817766817
 20
50.2917147428
 30
0.0
 10
77.2499983002
 20
50.2916717562
 30
0.0
 10
77.2038518465
 20
50.2914795701
 30
0.0
 10
77.1673484
 20
50.2912132248
 30
0.0
 10
77.1403729126
 20
50.290935508
 30
0.0
 10
77.1222749102
 20
50.2907080704
 30
0.0
 10
77.1058563847
 20
50.2904576193
 30
0.0
 10
77.0912745415
 20
50.2901866339
 30
0.0
 10
77.078667983
 20
50.2898988437
 30
0.0
 10
77.0681591782
 20
50.2895963374
 30
0.0
 10
77.0607566477
 20
50.2893226216
 30
0.0
 10
77.0559630393
 20
50.2890856564
 30
0.0
 10
77.0532179932
 20
50.2889257167
 30
0.0
 10
77.0510889065
 20
50.2887526889
 30
0.0
 10
77.0494736394
 20
50.2886155116
 30
0.0
 10
77.0485956942
 20
50.2884223517
 30
0.0
 10
77.0480314653
 20
50.2883460578
 30
0.0
 10
77.0479794534
 20
50.2882203665
 30
0.0
  0
SPLINE
  5
466
100
AcDbEntity
  8
0
100
AcDbSpline
 62
250
  6
CONTINUOUS
 70
0
 71
3
 72
23
 73
19
 74
0
 42
0.0000001
 43
0.0000001
 44
0.0000000001
 40
0.0
 40
0.0
 40
0.0
 40
0.0
 40
0.1943071837
 40
0.3811926108
 40
0.553547013
 40
0.6321895141
 40
0.7047899385
 40
0.7706560067
 40
0.8291576263
 40
0.8797357003
 40
0.921910129
 40
0.9552792455
 40
0.9685592742
 40
0.9795278648
 40
0.9881616917
 40
0.9944418646
 40
0.9983682941
 40
1.0
 40
1.0
 40
1.0
 40
1.0
 10
77.2979752226
 20
50.6842440274
 30
0.0
 10
77.2817766836
 20
50.6842440274
 30
0.0
 10
77.2499983055
 20
50.6842010408
 30
0.0
 10
77.2038518563
 20
50.6840088548
 30
0.0
 10
77.1673484124
 20
50.6837425094
 30
0.0
 10
77.1403729264
 20
50.6834647928
 30
0.0
 10
77.1222749244
 20
50.6832373552
 30
0.0
 10
77.1058563986
 20
50.6829869041
 30
0.0
 10
77.0912745547
 20
50.6827159187
 30
0.0
 10
77.0786679951
 20
50.6824281287
 30
0.0
 10
77.0681591889
 20
50.6821256223
 30
0.0
 10
77.0607566571
 20
50.6818519066
 30
0.0
 10
77.0559630471
 20
50.6816149414
 30
0.0
 10
77.0532179996
 20
50.6814550019
 30
0.0
 10
77.0510889116
 20
50.6812819739
 30
0.0
 10
77.0494736427
 20
50.6811447965
 30
0.0
 10
77.0485956964
 20
50.6809516359
 30
0.0
 10
77.0480314655
 20
50.6808753428
 30
0.0
 10
77.0479794534
 20
50.6807496511
 30
0.0
  0
SPLINE
  5
467
100
AcDbEntity
  8
0
100
AcDbSpline
 62
250
  6
CONTINUOUS
 70
0
 71
3
 72
23
 73
19
 74
0
 42
0.0000001
 43
0.0000001
 44
0.0000000001
 40
0.0
 40
0.0
 40
0.0
 40
0.0
 40
0.1943071089
 40
0.381192531
 40
0.5535469214
 40
0.6321894231
 40
0.7047898471
 40
0.7706559168
 40
0.8291575452
 40
0.8797356265
 40
0.9219100639
 40
0.9552791994
 40
0.9685592329
 40
0.9795278344
 40
0.9881616684
 40
0.994441847
 40
0.9983682881
 40
1.0
 40
1.0
 40
1.0
 40
1.0
 10
79.6717865267
 20
50.6842440274
 30
0.0
 10
79.6879850595
 20
50.6842440274
 30
0.0
 10
79.719763431
 20
50.6842010408
 30
0.0
 10
79.7659098725
 20
50.6840088549
 30
0.0
 10
79.802413315
 20
50.6837425096
 30
0.0
 10
79.8293888
 20
50.683464793
 30
0.0
 10
79.8474868022
 20
50.6832373555
 30
0.0
 10
79.8639053287
 20
50.6829869045
 30
0.0
 10
79.8784871741
 20
50.6827159192
 30
0.0
 10
79.8910937358
 20
50.6824281292
 30
0.0
 10
79.9016025449
 20
50.6821256227
 30
0.0
 10
79.9090050794
 20
50.6818519072
 30
0.0
 10
79.9137986923
 20
50.6816149419
 30
0.0
 10
79.9165437417
 20
50.6814550026
 30
0.0
 10
79.9186728316
 20
50.6812819744
 30
0.0
 10
79.9202881028
 20
50.6811447968
 30
0.0
 10
79.9211660504
 20
50.6809516354
 30
0.0
 10
79.9217302837
 20
50.6808753433
 30
0.0
 10
79.921782296
 20
50.6807496511
 30
0.0
  0
SPLINE
  5
468
100
AcDbEntity
  8
0
100
AcDbSpline
 62
250
  6
CONTINUOUS
 70
0
 71
3
 72
23
 73
19
 74
0
 42
0.0000001
 43
0.0000001
 44
0.0000000001
 40
0.0
 40
0.0
 40
0.0
 40
0.0
 40
0.1943072071
 40
0.3811926509
 40
0.5535470663
 40
0.6321895693
 40
0.7047899954
 40
0.7706560636
 40
0.8291576784
 40
0.8797357485
 40
0.9219101735
 40
0.9552792803
 40
0.9685593068
 40
0.9795278896
 40
0.9881617114
 40
0.9944418797
 40
0.9983682993
 40
1.0
 40
1.0
 40
1.0
 40
1.0
 10
79.6717865267
 20
50.2917147428
 30
0.0
 10
79.6879850677
 20
50.2917147428
 30
0.0
 10
79.7197634492
 20
50.2916717562
 30
0.0
 10
79.7659099028
 20
50.2914795701
 30
0.0
 10
79.8024133493
 20
50.2912132248
 30
0.0
 10
79.8293888367
 20
50.290935508
 30
0.0
 10
79.8474868392
 20
50.2907080704
 30
0.0
 10
79.8639053646
 20
50.2904576193
 30
0.0
 10
79.8784872078
 20
50.2901866339
 30
0.0
 10
79.8910937664
 20
50.2898988437
 30
0.0
 10
79.9016025712
 20
50.2895963374
 30
0.0
 10
79.9090051017
 20
50.2893226216
 30
0.0
 10
79.91379871
 20
50.2890856564
 30
0.0
 10
79.9165437562
 20
50.2889257167
 30
0.0
 10
79.9186728428
 20
50.2887526889
 30
0.0
 10
79.92028811
 20
50.2886155116
 30
0.0
 10
79.9211660551
 20
50.2884223517
 30
0.0
 10
79.9217302841
 20
50.2883460578
 30
0.0
 10
79.921782296
 20
50.2882203665
 30
0.0
  0
SPLINE
  5
469
100
AcDbEntity
  8
0
100
AcDbSpline
 62
250
  6
CONTINUOUS
 70
0
 71
3
 72
13
 73
9
 74
0
 42
0.0000001
 43
0.0000001
 44
0.0000000001
 40
0.0
 40
0.0
 40
0.0
 40
0.0
 40
0.1167450303
 40
0.2349029745
 40
0.3555631683
 40
0.4793704119
 40
0.7354142234
 40
1.0
 40
1.0
 40
1.0
 40
1.0
 10
79.921782296
 20
50.6807496511
 30
0.0
 10
79.9217347752
 20
50.6950111684
 30
0.0
 10
79.9183794455
 20
50.7237972853
 30
0.0
 10
79.9038322815
 20
50.7650751622
 30
0.0
 10
79.880370388
 20
50.8030457365
 30
0.0
 10
79.8381070099
 20
50.8477340229
 30
0.0
 10
79.768205698
 20
50.887912462
 30
0.0
 10
79.7041082811
 20
50.8988921333
 30
0.0
 10
79.6717865267
 20
50.8989715673
 30
0.0
  0
SPLINE
  5
46A
100
AcDbEntity
  8
0
100
AcDbSpline
 62
250
  6
CONTINUOUS
 70
0
 71
3
 72
13
 73
9
 74
0
 42
0.0000001
 43
0.0000001
 44
0.0000000001
 40
0.0
 40
0.0
 40
0.0
 40
0.0
 40
0.1167450265
 40
0.2349029666
 40
0.3555631555
 40
0.4793703942
 40
0.7354141962
 40
1.0
 40
1.0
 40
1.0
 40
1.0
 10
77.0479794534
 20
50.6807496511
 30
0.0
 10
77.0480269741
 20
50.695011168
 30
0.0
 10
77.0513823037
 20
50.7237972838
 30
0.0
 10
77.0659294665
 20
50.7650751595
 30
0.0
 10
77.0893913586
 20
50.8030457325
 30
0.0
 10
77.1316547337
 20
50.8477340185
 30
0.0
 10
77.2015560459
 20
50.88791246
 30
0.0
 10
77.2656534649
 20
50.8988921333
 30
0.0
 10
77.2979752226
 20
50.8989715673
 30
0.0
  0
SPLINE
  5
46B
100
AcDbEntity
  8
0
100
AcDbSpline
 62
250
  6
CONTINUOUS
 70
0
 71
3
 72
13
 73
9
 74
0
 42
0.0000001
 43
0.0000001
 44
0.0000000001
 40
0.0
 40
0.0
 40
0.0
 40
0.0
 40
0.1167450265
 40
0.2349029666
 40
0.3555631555
 40
0.4793703942
 40
0.7354141962
 40
1.0
 40
1.0
 40
1.0
 40
1.0
 10
62.521782296
 20
50.6807496511
 30
0.0
 10
62.5217347752
 20
50.695011168
 30
0.0
 10
62.5183794457
 20
50.7237972838
 30
0.0
 10
62.5038322828
 20
50.7650751595
 30
0.0
 10
62.4803703907
 20
50.8030457325
 30
0.0
 10
62.4381070157
 20
50.8477340185
 30
0.0
 10
62.3682057035
 20
50.88791246
 30
0.0
 10
62.3041082845
 20
50.8988921333
 30
0.0
 10
62.2717865267
 20
50.8989715673
 30
0.0
  0
SPLINE
  5
46C
100
AcDbEntity
  8
0
100
AcDbSpline
 62
250
  6
CONTINUOUS
 70
0
 71
3
 72
13
 73
9
 74
0
 42
0.0000001
 43
0.0000001
 44
0.0000000001
 40
0.0
 40
0.0
 40
0.0
 40
0.0
 40
0.1167449222
 40
0.2349028767
 40
0.3555630755
 40
0.4793703283
 40
0.7354141639
 40
1.0
 40
1.0
 40
1.0
 40
1.0
 10
59.6479794534
 20
50.6807496511
 30
0.0
 10
59.6480269741
 20
50.6950111552
 30
0.0
 10
59.6513823022
 20
50.7237972592
 30
0.0
 10
59.6659294492
 20
50.7650751301
 30
0.0
 10
59.6893913415
 20
50.8030457089
 30
0.0
 10
59.7316547147
 20
50.847734006
 30
0.0
 10
59.8015560342
 20
50.8879124567
 30
0.0
 10
59.865653461
 20
50.8988921333
 30
0.0
 10
59.8979752226
 20
50.8989715673
 30
0.0
  0
SPLINE
  5
46D
100
AcDbEntity
  8
0
100
AcDbSpline
 62
250
  6
CONTINUOUS
 70
0
 71
3
 72
23
 73
19
 74
0
 42
0.0000001
 43
0.0000001
 44
0.0000000001
 40
0.0
 40
0.0
 40
0.0
 40
0.0
 40
0.1943071837
 40
0.3811926108
 40
0.553547013
 40
0.6321895141
 40
0.7047899385
 40
0.7706560067
 40
0.8291576263
 40
0.8797357003
 40
0.921910129
 40
0.9552792455
 40
0.9685592742
 40
0.9795278648
 40
0.9881616917
 40
0.9944418646
 40
0.9983682941
 40
1.0
 40
1.0
 40
1.0
 40
1.0
 10
59.8979752226
 20
98.3682057649
 30
0.0
 10
59.8817766836
 20
98.3682057649
 30
0.0
 10
59.8499983055
 20
98.3681627783
 30
0.0
 10
59.8038518563
 20
98.3679705923
 30
0.0
 10
59.7673484124
 20
98.3677042469
 30
0.0
 10
59.7403729264
 20
98.3674265302
 30
0.0
 10
59.7222749244
 20
98.3671990927
 30
0.0
 10
59.7058563986
 20
98.3669486416
 30
0.0
 10
59.6912745547
 20
98.3666776562
 30
0.0
 10
59.6786679951
 20
98.3663898661
 30
0.0
 10
59.6681591889
 20
98.3660873598
 30
0.0
 10
59.6607566571
 20
98.3658136441
 30
0.0
 10
59.6559630471
 20
98.3655766789
 30
0.0
 10
59.6532179996
 20
98.3654167394
 30
0.0
 10
59.6510889116
 20
98.3652437114
 30
0.0
 10
59.6494736427
 20
98.3651065339
 30
0.0
 10
59.6485956964
 20
98.3649133733
 30
0.0
 10
59.6480314655
 20
98.3648370803
 30
0.0
 10
59.6479794534
 20
98.3647113885
 30
0.0
  0
SPLINE
  5
46E
100
AcDbEntity
  8
0
100
AcDbSpline
 62
250
  6
CONTINUOUS
 70
0
 71
3
 72
23
 73
19
 74
0
 42
0.0000001
 43
0.0000001
 44
0.0000000001
 40
0.0
 40
0.0
 40
0.0
 40
0.0
 40
0.194306851
 40
0.3811923409
 40
0.5535467677
 40
0.6321892948
 40
0.7047897393
 40
0.7706558302
 40
0.8291574818
 40
0.8797355805
 40
0.9219100326
 40
0.9552791824
 40
0.9685592197
 40
0.9795278265
 40
0.9881616642
 40
0.9944418446
 40
0.9983682874
 40
1.0
 40
1.0
 40
1.0
 40
1.0
 10
59.8979752226
 20
98.7607350495
 30
0.0
 10
59.8817767113
 20
98.7607350495
 30
0.0
 10
59.8499983557
 20
98.7606920629
 30
0.0
 10
59.803851927
 20
98.7604998773
 30
0.0
 10
59.7673484737
 20
98.7602335319
 30
0.0
 10
59.7403729819
 20
98.7599558155
 30
0.0
 10
59.7222749741
 20
98.759728378
 30
0.0
 10
59.7058564421
 20
98.7594779269
 30
0.0
 10
59.6912745916
 20
98.7592069416
 30
0.0
 10
59.6786680253
 20
98.7589191515
 30
0.0
 10
59.6681592123
 20
98.758616645
 30
0.0
 10
59.660756675
 20
98.7583429295
 30
0.0
 10
59.6559630602
 20
98.7581059641
 30
0.0
 10
59.6532180098
 20
98.7579460248
 30
0.0
 10
59.651088919
 20
98.7577729965
 30
0.0
 10
59.6494736472
 20
98.7576358189
 30
0.0
 10
59.6485956993
 20
98.7574426574
 30
0.0
 10
59.6480314657
 20
98.7573663654
 30
0.0
 10
59.6479794534
 20
98.7572406731
 30
0.0
  0
SPLINE
  5
46F
100
AcDbEntity
  8
0
100
AcDbSpline
 62
250
  6
CONTINUOUS
 70
0
 71
3
 72
13
 73
9
 74
0
 42
0.0000001
 43
0.0000001
 44
0.0000000001
 40
0.0
 40
0.0
 40
0.0
 40
0.0
 40
0.115716978
 40
0.2330234477
 40
0.3531408333
 40
0.4767859444
 40
0.7336350364
 40
1.0
 40
1.0
 40
1.0
 40
1.0
 10
59.6479794534
 20
98.3647113885
 30
0.0
 10
59.6480269854
 20
98.3506762219
 30
0.0
 10
59.6513888838
 20
98.3223214588
 30
0.0
 10
59.665955293
 20
98.2816865853
 30
0.0
 10
59.6894354043
 20
98.244321182
 30
0.0
 10
59.7317785046
 20
98.2002946744
 30
0.0
 10
59.8017295399
 20
98.1608133321
 30
0.0
 10
59.8656680736
 20
98.1500467623
 30
0.0
 10
59.8979752226
 20
98.1499634004
 30
0.0
  0
SPLINE
  5
470
100
AcDbEntity
  8
0
100
AcDbSpline
 62
250
  6
CONTINUOUS
 70
0
 71
3
 72
23
 73
19
 74
0
 42
0.0000001
 43
0.0000001
 44
0.0000000001
 40
0.0
 40
0.0
 40
0.0
 40
0.0
 40
0.194306851
 40
0.3811923409
 40
0.5535467677
 40
0.6321892948
 40
0.7047897393
 40
0.7706558302
 40
0.8291574818
 40
0.8797355805
 40
0.9219100326
 40
0.9552791824
 40
0.9685592197
 40
0.9795278265
 40
0.9881616642
 40
0.9944418446
 40
0.9983682874
 40
1.0
 40
1.0
 40
1.0
 40
1.0
 10
62.2717865267
 20
98.7607350495
 30
0.0
 10
62.287985038
 20
98.7607350495
 30
0.0
 10
62.3197633936
 20
98.7606920629
 30
0.0
 10
62.3659098223
 20
98.7604998773
 30
0.0
 10
62.4024132756
 20
98.7602335319
 30
0.0
 10
62.4293887675
 20
98.7599558155
 30
0.0
 10
62.4474867753
 20
98.759728378
 30
0.0
 10
62.4639053072
 20
98.7594779269
 30
0.0
 10
62.4784871578
 20
98.7592069416
 30
0.0
 10
62.491093724
 20
98.7589191515
 30
0.0
 10
62.501602537
 20
98.758616645
 30
0.0
 10
62.5090050743
 20
98.7583429295
 30
0.0
 10
62.5137986891
 20
98.7581059641
 30
0.0
 10
62.5165437396
 20
98.7579460248
 30
0.0
 10
62.5186728304
 20
98.7577729965
 30
0.0
 10
62.5202881022
 20
98.7576358189
 30
0.0
 10
62.5211660501
 20
98.7574426574
 30
0.0
 10
62.5217302837
 20
98.7573663654
 30
0.0
 10
62.521782296
 20
98.7572406731
 30
0.0
  0
SPLINE
  5
471
100
AcDbEntity
  8
0
100
AcDbSpline
 62
250
  6
CONTINUOUS
 70
0
 71
3
 72
23
 73
19
 74
0
 42
0.0000001
 43
0.0000001
 44
0.0000000001
 40
0.0
 40
0.0
 40
0.0
 40
0.0
 40
0.1943071597
 40
0.3811925668
 40
0.5535469493
 40
0.6321894458
 40
0.7047898659
 40
0.7706559317
 40
0.8291575559
 40
0.8797356341
 40
0.9219100689
 40
0.9552792019
 40
0.9685592347
 40
0.9795278355
 40
0.988161669
 40
0.9944418474
 40
0.9983682883
 40
1.0
 40
1.0
 40
1.0
 40
1.0
 10
62.2717865267
 20
98.3682057649
 30
0.0
 10
62.2879850637
 20
98.3682057649
 30
0.0
 10
62.3197634382
 20
98.3681627783
 30
0.0
 10
62.365909882
 20
98.3679705923
 30
0.0
 10
62.4024133222
 20
98.367704247
 30
0.0
 10
62.4293888058
 20
98.3674265304
 30
0.0
 10
62.4474868069
 20
98.3671990929
 30
0.0
 10
62.4639053324
 20
98.3669486419
 30
0.0
 10
62.4784871769
 20
98.3666776566
 30
0.0
 10
62.4910937377
 20
98.3663898666
 30
0.0
 10
62.5016025462
 20
98.3660873601
 30
0.0
 10
62.5090050802
 20
98.3658136446
 30
0.0
 10
62.5137986928
 20
98.3655766794
 30
0.0
 10
62.516543742
 20
98.36541674
 30
0.0
 10
62.5186728318
 20
98.3652437118
 30
0.0
 10
62.5202881029
 20
98.3651065343
 30
0.0
 10
62.5211660505
 20
98.3649133729
 30
0.0
 10
62.5217302837
 20
98.3648370807
 30
0.0
 10
62.521782296
 20
98.3647113885
 30
0.0
  0
SPLINE
  5
472
100
AcDbEntity
  8
0
100
AcDbSpline
 62
250
  6
CONTINUOUS
 70
0
 71
3
 72
13
 73
9
 74
0
 42
0.0000001
 43
0.0000001
 44
0.0000000001
 40
0.0
 40
0.0
 40
0.0
 40
0.0
 40
0.1157168746
 40
0.2330233582
 40
0.3531407535
 40
0.4767858785
 40
0.733635004
 40
1.0
 40
1.0
 40
1.0
 40
1.0
 10
62.521782296
 20
98.3647113885
 30
0.0
 10
62.521734764
 20
98.3506762345
 30
0.0
 10
62.518372867
 20
98.3223214831
 30
0.0
 10
62.5038064736
 20
98.2816866142
 30
0.0
 10
62.4803263622
 20
98.2443212052
 30
0.0
 10
62.4379832637
 20
98.2002946866
 30
0.0
 10
62.3680322211
 20
98.1608133353
 30
0.0
 10
62.3040936796
 20
98.1500467623
 30
0.0
 10
62.2717865267
 20
98.1499634004
 30
0.0
  0
SPLINE
  5
473
100
AcDbEntity
  8
0
100
AcDbSpline
 62
250
  6
CONTINUOUS
 70
0
 71
3
 72
23
 73
19
 74
0
 42
0.0000001
 43
0.0000001
 44
0.0000000001
 40
0.0
 40
0.0
 40
0.0
 40
0.0
 40
0.1943071837
 40
0.3811926108
 40
0.553547013
 40
0.6321895141
 40
0.7047899385
 40
0.7706560067
 40
0.8291576263
 40
0.8797357003
 40
0.921910129
 40
0.9552792455
 40
0.9685592742
 40
0.9795278648
 40
0.9881616917
 40
0.9944418646
 40
0.9983682941
 40
1.0
 40
1.0
 40
1.0
 40
1.0
 10
77.2979752226
 20
98.3682057649
 30
0.0
 10
77.2817766836
 20
98.3682057649
 30
0.0
 10
77.2499983055
 20
98.3681627783
 30
0.0
 10
77.2038518563
 20
98.3679705923
 30
0.0
 10
77.1673484124
 20
98.3677042469
 30
0.0
 10
77.1403729264
 20
98.3674265302
 30
0.0
 10
77.1222749244
 20
98.3671990927
 30
0.0
 10
77.1058563986
 20
98.3669486416
 30
0.0
 10
77.0912745547
 20
98.3666776562
 30
0.0
 10
77.0786679951
 20
98.3663898661
 30
0.0
 10
77.0681591889
 20
98.3660873598
 30
0.0
 10
77.0607566571
 20
98.3658136441
 30
0.0
 10
77.0559630471
 20
98.3655766789
 30
0.0
 10
77.0532179996
 20
98.3654167394
 30
0.0
 10
77.0510889116
 20
98.3652437114
 30
0.0
 10
77.0494736427
 20
98.3651065339
 30
0.0
 10
77.0485956964
 20
98.3649133733
 30
0.0
 10
77.0480314655
 20
98.3648370803
 30
0.0
 10
77.0479794534
 20
98.3647113885
 30
0.0
  0
SPLINE
  5
474
100
AcDbEntity
  8
0
100
AcDbSpline
 62
250
  6
CONTINUOUS
 70
0
 71
3
 72
23
 73
19
 74
0
 42
0.0000001
 43
0.0000001
 44
0.0000000001
 40
0.0
 40
0.0
 40
0.0
 40
0.0
 40
0.1943072071
 40
0.3811926509
 40
0.5535470663
 40
0.6321895693
 40
0.7047899954
 40
0.7706560636
 40
0.8291576784
 40
0.8797357485
 40
0.9219101735
 40
0.9552792803
 40
0.9685593068
 40
0.9795278896
 40
0.9881617114
 40
0.9944418797
 40
0.9983682993
 40
1.0
 40
1.0
 40
1.0
 40
1.0
 10
77.2979752226
 20
98.7607350495
 30
0.0
 10
77.2817766817
 20
98.7607350495
 30
0.0
 10
77.2499983002
 20
98.7606920628
 30
0.0
 10
77.2038518465
 20
98.7604998768
 30
0.0
 10
77.1673484
 20
98.7602335314
 30
0.0
 10
77.1403729126
 20
98.7599558146
 30
0.0
 10
77.1222749102
 20
98.7597283771
 30
0.0
 10
77.1058563847
 20
98.7594779259
 30
0.0
 10
77.0912745415
 20
98.7592069405
 30
0.0
 10
77.078667983
 20
98.7589191504
 30
0.0
 10
77.0681591782
 20
98.7586166441
 30
0.0
 10
77.0607566477
 20
98.7583429282
 30
0.0
 10
77.0559630393
 20
98.758105963
 30
0.0
 10
77.0532179932
 20
98.7579460234
 30
0.0
 10
77.0510889065
 20
98.7577729955
 30
0.0
 10
77.0494736394
 20
98.7576358182
 30
0.0
 10
77.0485956942
 20
98.7574426583
 30
0.0
 10
77.0480314653
 20
98.7573663645
 30
0.0
 10
77.0479794534
 20
98.7572406731
 30
0.0
  0
SPLINE
  5
475
100
AcDbEntity
  8
0
100
AcDbSpline
 62
250
  6
CONTINUOUS
 70
0
 71
3
 72
13
 73
9
 74
0
 42
0.0000001
 43
0.0000001
 44
0.0000000001
 40
0.0
 40
0.0
 40
0.0
 40
0.0
 40
0.115716978
 40
0.2330234477
 40
0.3531408333
 40
0.4767859444
 40
0.7336350364
 40
1.0
 40
1.0
 40
1.0
 40
1.0
 10
77.0479794534
 20
98.3647113885
 30
0.0
 10
77.0480269854
 20
98.3506762219
 30
0.0
 10
77.0513888838
 20
98.3223214588
 30
0.0
 10
77.065955293
 20
98.2816865853
 30
0.0
 10
77.0894354043
 20
98.244321182
 30
0.0
 10
77.1317785046
 20
98.2002946744
 30
0.0
 10
77.2017295399
 20
98.1608133321
 30
0.0
 10
77.2656680736
 20
98.1500467623
 30
0.0
 10
77.2979752226
 20
98.1499634004
 30
0.0
  0
SPLINE
  5
476
100
AcDbEntity
  8
0
100
AcDbSpline
 62
250
  6
CONTINUOUS
 70
0
 71
3
 72
13
 73
9
 74
0
 42
0.0000001
 43
0.0000001
 44
0.0000000001
 40
0.0
 40
0.0
 40
0.0
 40
0.0
 40
0.115716978
 40
0.2330234477
 40
0.3531408333
 40
0.4767859444
 40
0.7336350364
 40
1.0
 40
1.0
 40
1.0
 40
1.0
 10
79.921782296
 20
98.3647113885
 30
0.0
 10
79.921734764
 20
98.3506762219
 30
0.0
 10
79.9183728655
 20
98.3223214588
 30
0.0
 10
79.9038064563
 20
98.2816865853
 30
0.0
 10
79.8803263451
 20
98.244321182
 30
0.0
 10
79.8379832448
 20
98.2002946744
 30
0.0
 10
79.7680322094
 20
98.1608133321
 30
0.0
 10
79.7040936757
 20
98.1500467623
 30
0.0
 10
79.6717865267
 20
98.1499634004
 30
0.0
  0
SPLINE
  5
477
100
AcDbEntity
  8
0
100
AcDbSpline
 62
250
  6
CONTINUOUS
 70
0
 71
3
 72
23
 73
19
 74
0
 42
0.0000001
 43
0.0000001
 44
0.0000000001
 40
0.0
 40
0.0
 40
0.0
 40
0.0
 40
0.1943072071
 40
0.3811926509
 40
0.5535470663
 40
0.6321895693
 40
0.7047899954
 40
0.7706560636
 40
0.8291576784
 40
0.8797357485
 40
0.9219101735
 40
0.9552792803
 40
0.9685593068
 40
0.9795278896
 40
0.9881617114
 40
0.9944418797
 40
0.9983682993
 40
1.0
 40
1.0
 40
1.0
 40
1.0
 10
79.6717865267
 20
98.7607350495
 30
0.0
 10
79.6879850677
 20
98.7607350495
 30
0.0
 10
79.7197634492
 20
98.7606920628
 30
0.0
 10
79.7659099028
 20
98.7604998768
 30
0.0
 10
79.8024133493
 20
98.7602335314
 30
0.0
 10
79.8293888367
 20
98.7599558146
 30
0.0
 10
79.8474868392
 20
98.7597283771
 30
0.0
 10
79.8639053646
 20
98.7594779259
 30
0.0
 10
79.8784872078
 20
98.7592069405
 30
0.0
 10
79.8910937664
 20
98.7589191504
 30
0.0
 10
79.9016025712
 20
98.7586166441
 30
0.0
 10
79.9090051017
 20
98.7583429282
 30
0.0
 10
79.91379871
 20
98.758105963
 30
0.0
 10
79.9165437562
 20
98.7579460234
 30
0.0
 10
79.9186728428
 20
98.7577729955
 30
0.0
 10
79.92028811
 20
98.7576358182
 30
0.0
 10
79.9211660551
 20
98.7574426583
 30
0.0
 10
79.9217302841
 20
98.7573663645
 30
0.0
 10
79.921782296
 20
98.7572406731
 30
0.0
  0
SPLINE
  5
478
100
AcDbEntity
  8
0
100
AcDbSpline
 62
250
  6
CONTINUOUS
 70
0
 71
3
 72
23
 73
19
 74
0
 42
0.0000001
 43
0.0000001
 44
0.0000000001
 40
0.0
 40
0.0
 40
0.0
 40
0.0
 40
0.1943071837
 40
0.3811926108
 40
0.553547013
 40
0.6321895141
 40
0.7047899385
 40
0.7706560067
 40
0.8291576263
 40
0.8797357003
 40
0.921910129
 40
0.9552792455
 40
0.9685592742
 40
0.9795278648
 40
0.9881616917
 40
0.9944418646
 40
0.9983682941
 40
1.0
 40
1.0
 40
1.0
 40
1.0
 10
79.6717865267
 20
98.3682057649
 30
0.0
 10
79.6879850657
 20
98.3682057649
 30
0.0
 10
79.7197634439
 20
98.3681627783
 30
0.0
 10
79.7659098931
 20
98.3679705923
 30
0.0
 10
79.8024133369
 20
98.3677042469
 30
0.0
 10
79.8293888229
 20
98.3674265302
 30
0.0
 10
79.847486825
 20
98.3671990927
 30
0.0
 10
79.8639053507
 20
98.3669486416
 30
0.0
 10
79.8784871946
 20
98.3666776562
 30
0.0
 10
79.8910937542
 20
98.3663898661
 30
0.0
 10
79.9016025604
 20
98.3660873598
 30
0.0
 10
79.9090050923
 20
98.3658136441
 30
0.0
 10
79.9137987023
 20
98.3655766789
 30
0.0
 10
79.9165437497
 20
98.3654167394
 30
0.0
 10
79.9186728377
 20
98.3652437114
 30
0.0
 10
79.9202881067
 20
98.3651065339
 30
0.0
 10
79.9211660529
 20
98.3649133733
 30
0.0
 10
79.9217302839
 20
98.3648370803
 30
0.0
 10
79.921782296
 20
98.3647113885
 30
0.0
  0
SPLINE
  5
479
100
AcDbEntity
  8
RACCORDO
100
AcDbSpline
 62
250
  6
CONTINUOUS
 70
0
 71
3
 72
20
 73
16
 74
0
 42
0.0000001
 43
0.0000001
 44
0.0000000001
 40
0.0
 40
0.0
 40
0.0
 40
0.0
 40
0.0017601587
 40
0.0055960803
 40
0.0201987668
 40
0.0441136197
 40
0.0772179138
 40
0.1191811341
 40
0.1695848502
 40
0.2279973203
 40
0.2938475646
 40
0.4451452223
 40
0.6177668842
 40
0.8053187251
 40
1.0
 40
1.0
 40
1.0
 40
1.0
 10
7.3491013455
 20
96.5545291098
 30
0.0
 10
7.3488078632
 20
96.5545214247
 30
0.0
 10
7.3482237389
 20
96.5535204002
 30
0.0
 10
7.3474746513
 20
96.5504732109
 30
0.0
 10
7.346539438
 20
96.5432245483
 30
0.0
 10
7.3457268203
 20
96.5314398611
 30
0.0
 10
7.344983837
 20
96.5148871153
 30
0.0
 10
7.3444096526
 20
96.4939889991
 30
0.0
 10
7.3439869343
 20
96.4688353116
 30
0.0
 10
7.3437365244
 20
96.4397055439
 30
0.0
 10
7.3436275686
 20
96.3937427249
 30
0.0
 10
7.3439763686
 20
96.3287323646
 30
0.0
 10
7.3450426374
 20
96.2434282621
 30
0.0
 10
7.3467465615
 20
96.150897425
 30
0.0
 10
7.3482519213
 20
96.0871608911
 30
0.0
 10
7.3491013455
 20
96.0547004473
 30
0.0
  0
SPLINE
  5
47A
100
AcDbEntity
  8
RACCORDO
100
AcDbSpline
 62
250
  6
CONTINUOUS
 70
0
 71
3
 72
20
 73
16
 74
0
 42
0.0000001
 43
0.0000001
 44
0.0000000001
 40
0.0
 40
0.0
 40
0.0
 40
0.0
 40
0.0017601617
 40
0.0055960857
 40
0.0201987771
 40
0.0441136341
 40
0.0772179332
 40
0.1191811617
 40
0.1695848846
 40
0.2279973575
 40
0.2938476078
 40
0.4451452729
 40
0.6177669273
 40
0.8053187393
 40
1.0
 40
1.0
 40
1.0
 40
1.0
 10
7.3491015211
 20
52.5963357681
 30
0.0
 10
7.3488080383
 20
52.5963434532
 30
0.0
 10
7.3482239119
 20
52.5973444771
 30
0.0
 10
7.3474748222
 20
52.6003916688
 30
0.0
 10
7.3465396059
 20
52.6076403319
 30
0.0
 10
7.3457269857
 20
52.619425022
 30
0.0
 10
7.3449840002
 20
52.6359777704
 30
0.0
 10
7.3444098142
 20
52.6568758902
 30
0.0
 10
7.3439870947
 20
52.6820295807
 30
0.0
 10
7.3437366841
 20
52.7111593513
 30
0.0
 10
7.3436277284
 20
52.7571221732
 30
0.0
 10
7.3439765296
 20
52.8221325348
 30
0.0
 10
7.3450428019
 20
52.907436633
 30
0.0
 10
7.3467467305
 20
52.9999674621
 30
0.0
 10
7.3482520945
 20
53.063703989
 30
0.0
 10
7.3491015211
 20
53.0961644306
 30
0.0
  0
SPLINE
  5
47B
100
AcDbEntity
  8
0
100
AcDbSpline
 62
7
  6
CONTINUOUS
 70
0
 71
3
 72
13
 73
9
 74
0
 42
0.0000001
 43
0.0000001
 44
0.0000000001
 40
0.0
 40
0.0
 40
0.0
 40
0.0
 40
0.3612210663
 40
0.682170423
 40
0.812667465
 40
0.9137049675
 40
0.9780318448
 40
1.0
 40
1.0
 40
1.0
 40
1.0
 10
13.9871720119
 20
51.2439835582
 30
0.0
 10
13.9574477247
 20
51.2617071457
 30
0.0
 10
13.9013256845
 20
51.2951997296
 30
0.0
 10
13.8345168994
 20
51.3351810314
 30
0.0
 10
13.789116036
 20
51.3623937806
 30
0.0
 10
13.7648531822
 20
51.3770476809
 30
0.0
 10
13.749453709
 20
51.3862683335
 30
0.0
 10
13.7424538794
 20
51.390667758
 30
0.0
 10
13.7406802951
 20
51.391801236
 30
0.0
  0
SPLINE
  5
47C
100
AcDbEntity
  8
0
100
AcDbSpline
 62
7
  6
CONTINUOUS
 70
0
 71
3
 72
13
 73
9
 74
0
 42
0.0000001
 43
0.0000001
 44
0.0000000001
 40
0.0
 40
0.0
 40
0.0
 40
0.0
 40
0.0225028512
 40
0.0871612167
 40
0.1883383507
 40
0.3188104058
 40
0.6393765232
 40
1.0
 40
1.0
 40
1.0
 40
1.0
 10
14.390856769
 20
97.6325299591
 30
0.0
 10
14.3927057881
 20
97.6336389157
 30
0.0
 10
14.3998993421
 20
97.6378797163
 30
0.0
 10
14.4156352332
 20
97.646712202
 30
0.0
 10
14.4403385321
 20
97.6606977672
 30
0.0
 10
14.4864639854
 20
97.6866108772
 30
0.0
 10
14.5542867188
 20
97.7246503321
 30
0.0
 10
14.611246187
 20
97.7565059537
 30
0.0
 10
14.6414070556
 20
97.7733588842
 30
0.0
  0
SPLINE
  5
47D
100
AcDbEntity
  8
0
100
AcDbSpline
 62
250
  6
CONTINUOUS
 70
0
 71
3
 72
26
 73
22
 74
0
 42
0.0000001
 43
0.0000001
 44
0.0000000001
 40
0.0
 40
0.0
 40
0.0
 40
0.0
 40
0.0003335531
 40
0.0012485377
 40
0.002760312
 40
0.0048703484
 40
0.0108838626
 40
0.0192798932
 40
0.0300362305
 40
0.0431281083
 40
0.0585261522
 40
0.0761906048
 40
0.118148324
 40
0.168596747
 40
0.2270523391
 40
0.2929515808
 40
0.3656588731
 40
0.4444754185
 40
0.6173484607
 40
0.804919804
 40
1.0
 40
1.0
 40
1.0
 40
1.0
 10
16.661391789
 20
98.9737188234
 30
0.0
 10
16.6614195811
 20
98.9737182708
 30
0.0
 10
16.6614307069
 20
98.9735679743
 30
0.0
 10
16.6614685678
 20
98.9733838931
 30
0.0
 10
16.661487875
 20
98.9729818178
 30
0.0
 10
16.661527862
 20
98.9721946135
 30
0.0
 10
16.6615573285
 20
98.9708070462
 30
0.0
 10
16.6615850748
 20
98.9687152983
 30
0.0
 10
16.661598929
 20
98.966026065
 30
0.0
 10
16.6616017921
 20
98.962756109
 30
0.0
 10
16.6615921758
 20
98.9589094518
 30
0.0
 10
16.6615613118
 20
98.9526576042
 30
0.0
 10
16.6614887835
 20
98.9434847554
 30
0.0
 10
16.6613588556
 20
98.9309129458
 30
0.0
 10
16.6611820235
 20
98.9163462667
 30
0.0
 10
16.6609599044
 20
98.8999250234
 30
0.0
 10
16.6606944686
 20
98.8818073799
 30
0.0
 10
16.6602728418
 20
98.8547761093
 30
0.0
 10
16.6596561994
 20
98.8181742032
 30
0.0
 10
16.6588160841
 20
98.7718855626
 30
0.0
 10
16.6582001597
 20
98.7400021258
 30
0.0
 10
16.6578770238
 20
98.7237477629
 30
0.0
  0
SPLINE
  5
47E
100
AcDbEntity
  8
0
100
AcDbSpline
 62
250
  6
CONTINUOUS
 70
0
 71
3
 72
26
 73
22
 74
0
 42
0.0000001
 43
0.0000001
 44
0.0000000001
 40
0.0
 40
0.0
 40
0.0
 40
0.0
 40
0.0003335562
 40
0.0012485491
 40
0.002760334
 40
0.0048703807
 40
0.0108839043
 40
0.0192799462
 40
0.0300363018
 40
0.0431281863
 40
0.0585262415
 40
0.0761907094
 40
0.1181484384
 40
0.1685968697
 40
0.2270524715
 40
0.2929517109
 40
0.3656589972
 40
0.4444755363
 40
0.6173485454
 40
0.8049198518
 40
1.0
 40
1.0
 40
1.0
 40
1.0
 10
13.6586570294
 20
99.0072117336
 30
0.0
 10
13.6586292325
 20
99.0072119627
 30
0.0
 10
13.658613886
 20
99.0070620367
 30
0.0
 10
13.6585708638
 20
99.0068790915
 30
0.0
 10
13.6585402598
 20
99.0064777152
 30
0.0
 10
13.6584781555
 20
99.005691944
 30
0.0
 10
13.6584096878
 20
99.0043057511
 30
0.0
 10
13.6583231412
 20
99.002215607
 30
0.0
 10
13.6582336826
 20
98.9995278233
 30
0.0
 10
13.6581388831
 20
98.9962592375
 30
0.0
 10
13.6580403436
 20
98.9924138279
 30
0.0
 10
13.6578954197
 20
98.986163581
 30
0.0
 10
13.6577100171
 20
98.9769923165
 30
0.0
 10
13.657486427
 20
98.9644218215
 30
0.0
 10
13.6572536351
 20
98.949855928
 30
0.0
 10
13.6570139697
 20
98.9334349312
 30
0.0
 10
13.6567699083
 20
98.9153169885
 30
0.0
 10
13.6564313622
 20
98.8882845535
 30
0.0
 10
13.6560186684
 20
98.8516797861
 30
0.0
 10
13.6555570087
 20
98.805385834
 30
0.0
 10
13.6552762608
 20
98.7734976914
 30
0.0
 10
13.6551422642
 20
98.7572406731
 30
0.0
  0
SPLINE
  5
47F
100
AcDbEntity
  8
0
100
AcDbSpline
 62
250
  6
CONTINUOUS
 70
0
 71
3
 72
26
 73
22
 74
0
 42
0.0000001
 43
0.0000001
 44
0.0000000001
 40
0.0
 40
0.0
 40
0.0
 40
0.0
 40
0.195080196
 40
0.3826515393
 40
0.5555245815
 40
0.6343411269
 40
0.7070484192
 40
0.7729476609
 40
0.831403253
 40
0.881851676
 40
0.9238093952
 40
0.9414738478
 40
0.9568718917
 40
0.9699637695
 40
0.9807201068
 40
0.9891161374
 40
0.9951296516
 40
0.997239688
 40
0.9987514623
 40
0.9996664469
 40
1.0
 40
1.0
 40
1.0
 40
1.0
 10
15.9761238528
 20
50.2372756919
 30
0.0
 10
15.9759898562
 20
50.2210186696
 30
0.0
 10
15.9757091082
 20
50.18913052
 30
0.0
 10
15.9752474483
 20
50.1428365581
 30
0.0
 10
15.9748347545
 20
50.1062317843
 30
0.0
 10
15.9744962082
 20
50.0791993455
 30
0.0
 10
15.9742521468
 20
50.0610814015
 30
0.0
 10
15.9740124814
 20
50.0446604049
 30
0.0
 10
15.9737796894
 20
50.0300945126
 30
0.0
 10
15.9735560993
 20
50.01752402
 30
0.0
 10
15.9733706968
 20
50.0083527582
 30
0.0
 10
15.9732257728
 20
50.0021025144
 30
0.0
 10
15.9731272333
 20
49.9982571076
 30
0.0
 10
15.9730324339
 20
49.9949885248
 30
0.0
 10
15.9729429752
 20
49.9923007441
 30
0.0
 10
15.9728564287
 20
49.9902106033
 30
0.0
 10
15.9727879612
 20
49.988824413
 30
0.0
 10
15.9727258571
 20
49.9880386442
 30
0.0
 10
15.9726952529
 20
49.9876372706
 30
0.0
 10
15.9726522313
 20
49.9874543267
 30
0.0
 10
15.9726368843
 20
49.9873044024
 30
0.0
 10
15.9726090876
 20
49.9873046315
 30
0.0
  0
SPLINE
  5
480
100
AcDbEntity
  8
0
100
AcDbSpline
 62
250
  6
CONTINUOUS
 70
0
 71
3
 72
26
 73
22
 74
0
 42
0.0000001
 43
0.0000001
 44
0.0000000001
 40
0.0
 40
0.0
 40
0.0
 40
0.0
 40
0.1950801482
 40
0.3826514546
 40
0.5555244637
 40
0.6343410028
 40
0.7070482891
 40
0.7729475285
 40
0.8314031303
 40
0.8818515616
 40
0.9238092906
 40
0.9414737585
 40
0.9568718137
 40
0.9699636982
 40
0.9807200538
 40
0.9891160957
 40
0.9951296193
 40
0.997239666
 40
0.9987514509
 40
0.9996664438
 40
1.0
 40
1.0
 40
1.0
 40
1.0
 10
12.973634477
 20
50.2882203665
 30
0.0
 10
12.9733113412
 20
50.2719660076
 30
0.0
 10
12.9726954169
 20
50.2400825779
 30
0.0
 10
12.9718553018
 20
50.1937939471
 30
0.0
 10
12.9712386594
 20
50.1571920474
 30
0.0
 10
12.9708170327
 20
50.1301607806
 30
0.0
 10
12.9705515968
 20
50.1120431384
 30
0.0
 10
12.9703294777
 20
50.0956218949
 30
0.0
 10
12.9701526456
 20
50.0810552145
 30
0.0
 10
12.9700227175
 20
50.0684834026
 30
0.0
 10
12.9699501892
 20
50.059310551
 30
0.0
 10
12.9699193251
 20
50.0530587004
 30
0.0
 10
12.9699097087
 20
50.0492120404
 30
0.0
 10
12.9699125718
 20
50.0459420814
 30
0.0
 10
12.9699264258
 20
50.0432528451
 30
0.0
 10
12.969954172
 20
50.0411610939
 30
0.0
 10
12.9699836387
 20
50.039773524
 30
0.0
 10
12.9700236259
 20
50.0389863173
 30
0.0
 10
12.9700429328
 20
50.0385842392
 30
0.0
 10
12.9700807943
 20
50.0384001568
 30
0.0
 10
12.9700919194
 20
50.0382498586
 30
0.0
 10
12.9701197118
 20
50.0382493061
 30
0.0
  0
SPLINE
  5
481
100
AcDbEntity
  8
0
100
AcDbSpline
 62
250
  6
CONTINUOUS
 70
0
 71
3
 72
26
 73
22
 74
0
 42
0.0000001
 43
0.0000001
 44
0.0000000001
 40
0.0
 40
0.0
 40
0.0
 40
0.0
 40
0.1952373367
 40
0.3828767197
 40
0.5557522426
 40
0.6345529999
 40
0.7072370592
 40
0.7731083831
 40
0.8315339428
 40
0.8819525183
 40
0.923882571
 40
0.941534545
 40
0.956921227
 40
0.9700030008
 40
0.9807505828
 40
0.9891392048
 40
0.9951465495
 40
0.9972538103
 40
0.9987627829
 40
0.9996743245
 40
1.0
 40
1.0
 40
1.0
 40
1.0
 10
12.9791537089
 20
50.6807496511
 30
0.0
 10
12.9712404817
 20
50.6949124212
 30
0.0
 10
12.9557354651
 20
50.7226943321
 30
0.0
 10
12.9332704373
 20
50.7630429879
 30
0.0
 10
12.9155480609
 20
50.7949581341
 30
0.0
 10
12.9024886022
 20
50.8185362193
 30
0.0
 10
12.8937503358
 20
50.834343238
 30
0.0
 10
12.8858451705
 20
50.8486761983
 30
0.0
 10
12.8788488371
 20
50.8613974842
 30
0.0
 10
12.8728284199
 20
50.8723849773
 30
0.0
 10
12.8684529251
 20
50.8804104566
 30
0.0
 10
12.8654850959
 20
50.8858875883
 30
0.0
 10
12.8636662228
 20
50.8892612308
 30
0.0
 10
12.8621286592
 20
50.892133501
 30
0.0
 10
12.860872534
 20
50.8945002589
 30
0.0
 10
12.8599096047
 20
50.8963480435
 30
0.0
 10
12.8592769298
 20
50.8975781403
 30
0.0
 10
12.8589391983
 20
50.8982855861
 30
0.0
 10
12.8587606797
 20
50.8986461354
 30
0.0
 10
12.85871013
 20
50.8988230085
 30
0.0
 10
12.8586406553
 20
50.8989583669
 30
0.0
 10
12.85866428
 20
50.8989715673
 30
0.0
  0
SPLINE
  5
482
100
AcDbEntity
  8
0
100
AcDbSpline
 62
250
  6
CONTINUOUS
 70
0
 71
3
 72
26
 73
22
 74
0
 42
0.0000001
 43
0.0000001
 44
0.0000000001
 40
0.0
 40
0.0
 40
0.0
 40
0.0
 40
0.1952373303
 40
0.3828767077
 40
0.5557522251
 40
0.6345529812
 40
0.7072370395
 40
0.7731083627
 40
0.8315339236
 40
0.8819525002
 40
0.9238825542
 40
0.9415345305
 40
0.9569212142
 40
0.9700029891
 40
0.9807505739
 40
0.9891391978
 40
0.995146544
 40
0.9972538066
 40
0.998762781
 40
0.999674324
 40
1.0
 40
1.0
 40
1.0
 40
1.0
 10
15.9817657766
 20
50.6385308587
 30
0.0
 10
15.990074073
 20
50.6524655426
 30
0.0
 10
16.0063540707
 20
50.6798005334
 30
0.0
 10
16.0299446522
 20
50.7195016144
 30
0.0
 10
16.0485573424
 20
50.7509058637
 30
0.0
 10
16.0622745551
 20
50.7741074498
 30
0.0
 10
16.0714537942
 20
50.7896625359
 30
0.0
 10
16.0797588173
 20
50.8037675697
 30
0.0
 10
16.0871100543
 20
50.816287119
 30
0.0
 10
16.0934370139
 20
50.8271009998
 30
0.0
 10
16.0980364221
 20
50.8350002861
 30
0.0
 10
16.1011570723
 20
50.84039181
 30
0.0
 10
16.1030700793
 20
50.84371298
 30
0.0
 10
16.1046877915
 20
50.8465408853
 30
0.0
 10
16.1060099637
 20
50.8488713909
 30
0.0
 10
16.1070244646
 20
50.8506913719
 30
0.0
 10
16.1076914748
 20
50.8519031947
 30
0.0
 10
16.1080489633
 20
50.8526008656
 30
0.0
 10
16.1082375487
 20
50.8529562535
 30
0.0
 10
16.1082930514
 20
50.8531316357
 30
0.0
 10
16.1083663046
 20
50.8532649874
 30
0.0
 10
16.1083430603
 20
50.8532788468
 30
0.0
  0
SPLINE
  5
483
100
AcDbEntity
  8
0
100
AcDbSpline
 62
250
  6
CONTINUOUS
 70
0
 71
3
 72
26
 73
22
 74
0
 42
0.0000001
 43
0.0000001
 44
0.0000000001
 40
0.0
 40
0.0
 40
0.0
 40
0.0
 40
0.1952373367
 40
0.3828767197
 40
0.5557522426
 40
0.6345529999
 40
0.7072370592
 40
0.7731083831
 40
0.8315339428
 40
0.8819525183
 40
0.923882571
 40
0.941534545
 40
0.956921227
 40
0.9700030008
 40
0.9807505828
 40
0.9891392048
 40
0.9951465495
 40
0.9972538103
 40
0.9987627829
 40
0.9996743245
 40
1.0
 40
1.0
 40
1.0
 40
1.0
 10
16.6522351
 20
98.3224925961
 30
0.0
 10
16.6601483271
 20
98.308329826
 30
0.0
 10
16.6756533438
 20
98.2805479152
 30
0.0
 10
16.6981183716
 20
98.2401992593
 30
0.0
 10
16.715840748
 20
98.2082841131
 30
0.0
 10
16.7289002067
 20
98.184706028
 30
0.0
 10
16.7376384731
 20
98.1688990092
 30
0.0
 10
16.7455436384
 20
98.154566049
 30
0.0
 10
16.7525399718
 20
98.141844763
 30
0.0
 10
16.7585603889
 20
98.1308572699
 30
0.0
 10
16.7629358838
 20
98.1228317906
 30
0.0
 10
16.765903713
 20
98.1173546589
 30
0.0
 10
16.7677225861
 20
98.1139810164
 30
0.0
 10
16.7692601497
 20
98.1111087463
 30
0.0
 10
16.7705162749
 20
98.1087419884
 30
0.0
 10
16.7714792042
 20
98.1068942038
 30
0.0
 10
16.7721118791
 20
98.1056641069
 30
0.0
 10
16.7724496106
 20
98.1049566612
 30
0.0
 10
16.7726281292
 20
98.1045961119
 30
0.0
 10
16.7726786789
 20
98.1044192387
 30
0.0
 10
16.7727481536
 20
98.1042838804
 30
0.0
 10
16.7727245289
 20
98.10427068
 30
0.0
  0
SPLINE
  5
484
100
AcDbEntity
  8
0
100
AcDbSpline
 62
250
  6
CONTINUOUS
 70
0
 71
3
 72
26
 73
22
 74
0
 42
0.0000001
 43
0.0000001
 44
0.0000000001
 40
0.0
 40
0.0
 40
0.0
 40
0.0
 40
0.1952373303
 40
0.3828767077
 40
0.5557522251
 40
0.6345529812
 40
0.7072370395
 40
0.7731083627
 40
0.8315339236
 40
0.8819525002
 40
0.9238825542
 40
0.9415345305
 40
0.9569212142
 40
0.9700029891
 40
0.9807505739
 40
0.9891391978
 40
0.995146544
 40
0.9972538066
 40
0.998762781
 40
0.999674324
 40
1.0
 40
1.0
 40
1.0
 40
1.0
 10
13.6496230323
 20
98.3647113885
 30
0.0
 10
13.6413147359
 20
98.3507767047
 30
0.0
 10
13.6250347381
 20
98.3234417138
 30
0.0
 10
13.6014441567
 20
98.2837406329
 30
0.0
 10
13.5828314665
 20
98.2523363836
 30
0.0
 10
13.5691142538
 20
98.2291347974
 30
0.0
 10
13.5599350147
 20
98.2135797113
 30
0.0
 10
13.5516299916
 20
98.1994746775
 30
0.0
 10
13.5442787546
 20
98.1869551282
 30
0.0
 10
13.537951795
 20
98.1761412474
 30
0.0
 10
13.5333523868
 20
98.1682419611
 30
0.0
 10
13.5302317366
 20
98.1628504373
 30
0.0
 10
13.5283187296
 20
98.1595292672
 30
0.0
 10
13.5267010174
 20
98.156701362
 30
0.0
 10
13.5253788452
 20
98.1543708563
 30
0.0
 10
13.5243643443
 20
98.1525508753
 30
0.0
 10
13.5236973341
 20
98.1513390526
 30
0.0
 10
13.5233398456
 20
98.1506413817
 30
0.0
 10
13.5231512601
 20
98.1502859937
 30
0.0
 10
13.5230957574
 20
98.1501106115
 30
0.0
 10
13.5230225043
 20
98.1499772599
 30
0.0
 10
13.5230457486
 20
98.1499634004
 30
0.0
  0
ELLIPSE
  5
485
100
AcDbEntity
  8
0
100
AcDbEllipse
 62
7
  6
CONTINUOUS
 10
80.4265713111
 20
52.5850075932
 30
0.0
 11
0.4900421404
 21
-0.0993997715
 31
0.0
 40
0.9998697145
 41
-1.3706468466
 42
-0.622549758
  0
ELLIPSE
  5
486
100
AcDbEntity
  8
0
100
AcDbEllipse
 62
7
  6
CONTINUOUS
 10
68.5848808747
 20
50.6851903066
 30
0.0
 11
0.2
 21
-0.0
 31
0.0
 40
0.9999180849
 41
-1.5707963268
 42
-0.0
  0
ELLIPSE
  5
487
100
AcDbEntity
  8
0
100
AcDbEllipse
 62
7
  6
CONTINUOUS
 10
70.9848808747
 20
50.6851903066
 30
0.0
 11
0.2
 21
0.0
 31
0.0
 40
0.9999180849
 41
3.1415926536
 42
4.7123889804
  0
ELLIPSE
  5
488
100
AcDbEntity
  8
0
100
AcDbEllipse
 62
7
  6
CONTINUOUS
 10
59.1431904383
 20
52.5850075932
 30
0.0
 11
0.4900421404
 21
0.0993997716
 31
0.0
 40
0.9998697145
 41
-2.5190428956
 42
-1.770945807
  0
ELLIPSE
  5
489
100
AcDbEntity
  8
0
100
AcDbEllipse
 62
7
  6
CONTINUOUS
 10
59.8921573928
 20
52.1763679671
 30
0.0
 11
0.25
 21
0.0
 31
0.0
 40
0.0664618981
 41
1.5707963268
 42
3.1357748894
  0
ELLIPSE
  5
48A
100
AcDbEntity
  8
0
100
AcDbEllipse
 62
7
  6
CONTINUOUS
 10
62.2776043566
 20
52.1763679671
 30
0.0
 11
0.25
 21
-0.0
 31
0.0
 40
0.0664618981
 41
0.0058177642
 42
1.5707963268
  0
ELLIPSE
  5
48B
100
AcDbEntity
  8
0
100
AcDbEllipse
 62
7
  6
CONTINUOUS
 10
79.6776043566
 20
52.1763679671
 30
0.0
 11
0.25
 21
-0.0
 31
0.0
 40
0.0664618981
 41
0.0058177642
 42
1.5707963268
  0
ELLIPSE
  5
48C
100
AcDbEntity
  8
0
100
AcDbEllipse
 62
7
  6
CONTINUOUS
 10
77.2921573928
 20
52.1763679671
 30
0.0
 11
0.25
 21
0.0
 31
0.0
 40
0.0664618981
 41
1.5707963268
 42
3.1357748894
  0
ELLIPSE
  5
48D
100
AcDbEntity
  8
0
100
AcDbEllipse
 62
7
  6
CONTINUOUS
 10
68.5848808747
 20
52.1132291639
 30
0.0
 11
0.2
 21
0.0
 31
0.0
 40
0.0664618981
 41
-0.0
 42
1.5707963268
  0
ELLIPSE
  5
48E
100
AcDbEntity
  8
0
100
AcDbEllipse
 62
7
  6
CONTINUOUS
 10
70.9848808747
 20
52.1132291639
 30
0.0
 11
0.2
 21
0.0
 31
0.0
 40
0.0664618981
 41
1.5707963268
 42
3.1415926536
  0
ELLIPSE
  5
48F
100
AcDbEntity
  8
0
100
AcDbEllipse
 62
7
  6
CONTINUOUS
 10
59.8921573928
 20
96.8409335788
 30
0.0
 11
0.25
 21
-0.0
 31
0.0
 40
0.0383433009
 41
-3.1357748894
 42
-1.5707963268
  0
ELLIPSE
  5
490
100
AcDbEntity
  8
0
100
AcDbEllipse
 62
7
  6
CONTINUOUS
 10
62.2776043566
 20
96.8409335788
 30
0.0
 11
0.25
 21
0.0
 31
0.0
 40
0.0383433009
 41
-1.5707963268
 42
-0.0058177642
  0
ELLIPSE
  5
491
100
AcDbEntity
  8
0
100
AcDbEllipse
 62
7
  6
CONTINUOUS
 10
77.2921573928
 20
96.8409335788
 30
0.0
 11
0.25
 21
-0.0
 31
0.0
 40
0.0383433009
 41
-3.1357748894
 42
-1.5707963268
  0
ELLIPSE
  5
492
100
AcDbEntity
  8
0
100
AcDbEllipse
 62
7
  6
CONTINUOUS
 10
79.6776043566
 20
96.8409335788
 30
0.0
 11
0.25
 21
-0.0
 31
0.0
 40
0.0383433009
 41
-1.5707963268
 42
-0.0058177642
  0
ELLIPSE
  5
493
100
AcDbEntity
  8
0
100
AcDbEllipse
 62
7
  6
CONTINUOUS
 10
68.5848808747
 20
96.8773597146
 30
0.0
 11
0.2
 21
0.0
 31
0.0
 40
0.0383433009
 41
-1.5707963268
 42
0.0
  0
ELLIPSE
  5
494
100
AcDbEntity
  8
0
100
AcDbEllipse
 62
7
  6
CONTINUOUS
 10
70.9848808747
 20
96.8773597146
 30
0.0
 11
0.2
 21
0.0
 31
0.0
 40
0.0383433009
 41
-3.1415926536
 42
-1.5707963268
  0
ELLIPSE
  5
495
100
AcDbEntity
  8
0
100
AcDbEllipse
 62
7
  6
CONTINUOUS
 10
59.1620123893
 20
96.3307110668
 30
0.0
 11
-0.1679333769
 21
0.4717169507
 31
0.0
 40
0.9985556263
 41
-0.3415575907
 42
0.4696224718
  0
ELLIPSE
  5
496
100
AcDbEntity
  8
0
100
AcDbEllipse
 62
7
  6
CONTINUOUS
 10
80.40774936
 20
96.3307110668
 30
0.0
 11
0.1679333769
 21
0.4717169507
 31
0.0
 40
0.9985556263
 41
-1.2283253466
 42
0.3415575907
  0
ELLIPSE
  5
497
100
AcDbEntity
  8
0
100
AcDbEllipse
 62
7
  6
CONTINUOUS
 10
80.40774936
 20
52.6936201284
 30
0.0
 11
-0.1679333769
 21
0.4717169507
 31
0.0
 40
0.9985556263
 41
-3.4831502443
 42
-1.913267307
  0
ELLIPSE
  5
498
100
AcDbEntity
  8
0
100
AcDbEllipse
 62
7
  6
CONTINUOUS
 10
59.1620123893
 20
52.6936201284
 30
0.0
 11
0.1679333769
 21
0.4717169507
 31
0.0
 40
0.9985556263
 41
-3.9198243758
 42
-2.8000350629
  0
ELLIPSE
  5
499
100
AcDbEntity
  8
RACCORDO
100
AcDbEllipse
 62
7
  6
CONTINUOUS
 10
36.8850522709
 20
52.9756038375
 30
0.0
 11
0.35379574
 21
0.35379574
 31
0.0
 40
0.999315002
 41
-3.9266482006
 42
-2.3565371065
  0
ELLIPSE
  5
49A
100
AcDbEntity
  8
RACCORDO
100
AcDbEllipse
 62
7
  6
CONTINUOUS
 10
80.1847094784
 20
52.9756038375
 30
0.0
 11
0.35379574
 21
-0.35379574
 31
0.0
 40
0.999315002
 41
-0.7850555471
 42
0.7850555471
  0
ELLIPSE
  5
49B
100
AcDbEntity
  8
RACCORDO
100
AcDbEllipse
 62
7
  6
CONTINUOUS
 10
80.1847094784
 20
96.175261045
 30
0.0
 11
0.35379574
 21
0.35379574
 31
0.0
 40
0.999315002
 41
-0.7850555471
 42
0.7850555471
  0
ELLIPSE
  5
49C
100
AcDbEntity
  8
RACCORDO
100
AcDbEllipse
 62
7
  6
CONTINUOUS
 10
36.8850522709
 20
96.175261045
 30
0.0
 11
-0.35379574
 21
0.35379574
 31
0.0
 40
0.999315002
 41
-0.7850555471
 42
0.7850555471
  0
ELLIPSE
  5
49D
100
AcDbEntity
  8
0
100
AcDbEllipse
 62
7
  6
CONTINUOUS
 10
26.7540071806
 20
52.2482230186
 30
0.0
 11
0.0070296493
 21
0.4999505816
 31
0.0
 40
1.0
 41
-0.9160011313
 42
-0.0174532925
  0
ELLIPSE
  5
49E
100
AcDbEntity
  8
0
100
AcDbEllipse
 62
7
  6
CONTINUOUS
 10
92.5809323173
 20
50.2559000533
 30
0.0
 11
85.9342053367
 21
-1.2082940765
 31
0.0
 40
0.0058178298
 41
-2.6791240519
 42
-2.5607560384
  0
ELLIPSE
  5
49F
100
AcDbEntity
  8
0
100
AcDbEllipse
 62
7
  6
CONTINUOUS
 10
92.5809323173
 20
50.2559000533
 30
0.0
 11
85.9342053367
 21
-1.2082940765
 31
0.0
 40
0.0058178298
 41
2.5607560384
 42
2.6905658418
  0
ELLIPSE
  5
4A0
100
AcDbEntity
  8
0
100
AcDbEllipse
 62
7
  6
CONTINUOUS
 10
27.3749601261
 20
96.410566413
 30
0.0
 11
0.0070296493
 21
0.4999505816
 31
0.0
 40
1.0
 41
-3.1241393611
 42
-2.2255915223
  0
ELLIPSE
  5
4A1
100
AcDbEntity
  8
0
100
AcDbEllipse
 62
7
  6
CONTINUOUS
 10
93.2318778424
 20
96.5513239084
 30
0.0
 11
85.9342053367
 21
-1.2082940765
 31
0.0
 40
0.0058178298
 41
-2.6905658418
 42
-2.5607560384
  0
ELLIPSE
  5
4A2
100
AcDbEntity
  8
0
100
AcDbEllipse
 62
7
  6
CONTINUOUS
 10
93.2318778424
 20
96.5513239084
 30
0.0
 11
85.9342053367
 21
-1.2082940765
 31
0.0
 40
0.0058178298
 41
2.5607560384
 42
2.6791240518
  0
ENDSEC
  0
SECTION
  2
OBJECTS
  0
DICTIONARY
  5
C
100
AcDbDictionary
280
0
281
1
  3
ACAD_GROUP
350
D
  3
ACAD_MLINESTYLE
350
17
  3
ACAD_LAYOUT
350
1A
  3
ACAD_PLOTSETTINGS
350
19
  3
ACAD_PLOTSTYLENAME
350
E
  0
DICTIONARY
  5
D
102
{ACAD_REACTORS
330
C
102
}
100
AcDbDictionary
280
0
281
1
  0
ACDBDICTIONARYWDFLT
  5
E
102
{ACAD_REACTORS
330
C
102
}
100
AcDbDictionary
281
1
  3
Normal
350
F
100
AcDbDictionaryWithDefault
340
F
  0
DICTIONARY
  5
17
102
{ACAD_REACTORS
330
C
102
}
100
AcDbDictionary
280
0
281
1
  3
Standard
350
18
  0
DICTIONARY
  5
19
102
{ACAD_REACTORS
330
C
102
}
100
AcDbDictionary
281
1
  0
DICTIONARY
  5
1A
102
{ACAD_REACTORS
330
C
102
}
100
AcDbDictionary
281
1
  3
Model
350
4A3
  3
Layout1
350
4A4
  0
ACDBPLACEHOLDER
  5
F
102
{ACAD_REACTORS
330
E
102
}
  0
MLINESTYLE
  5
18
102
{ACAD_REACTORS
330
17
102
}
100
AcDbMlineStyle
  2
STANDARD
 70
0
  3

 62
256
 51
90.0
 52
90.0
 71
2
 49
0.5
 62
256
  6
BYLAYER
 49
-0.5
 62
256
  6
BYLAYER
  0
LAYOUT
  5
4A3
102
{ACAD_REACTORS
330
1A
102
}
100
AcDbPlotSettings
  1

  2
none_device
  4
ISO_A4_(297.00_x_210.00_MM)
  6

 40
0.0
 41
0.0
 42
0.0
 43
0.0
 44
297.0
 45
210.0
 46
0.0
 47
0.0
 48
0.0
 49
0.0
140
0.0
141
0.0
142
1.0
143
1.0
 70
1024
 72
1
 73
0
 74
0
  7

 75
0
147
1.0
148
0.0
149
0.0
100
AcDbLayout
  1
Model
 70
0
 71
0
 10
0.0
 20
0.0
 11
297.0
 21
210.0
 12
0.0
 22
0.0
 32
0.0
 14
0.0
 24
0.0
 34
0.0
 15
0.0
 25
0.0
 35
0.0
146
0.0
 13
0.0
 23
0.0
 33
0.0
 16
1.0
 26
0.0
 36
0.0
 17
0.0
 27
1.0
 37
0.0
 76
0
330
219
345
0
346
0
  0
LAYOUT
  5
4A4
102
{ACAD_REACTORS
330
1A
102
}
100
AcDbPlotSettings
  1

  2
none_device
  4
ISO_A4_(297.00_x_210.00_MM)
  6

 40
0.0
 41
0.0
 42
0.0
 43
0.0
 44
297.0
 45
210.0
 46
0.0
 47
0.0
 48
0.0
 49
0.0
140
0.0
141
0.0
142
1.0
143
1.0
 70
0
 72
1
 73
0
 74
0
  7

 75
0
147
1.0
148
0.0
149
0.0
100
AcDbLayout
  1
Layout1
 70
0
 71
1
 10
0.0
 20
0.0
 11
297.0
 21
210.0
 12
0.0
 22
0.0
 32
0.0
 14
0.0
 24
0.0
 34
0.0
 15
0.0
 25
0.0
 35
0.0
146
0.0
 13
0.0
 23
0.0
 33
0.0
 16
1.0
 26
0.0
 36
0.0
 17
0.0
 27
1.0
 37
0.0
 76
0
330
21A
345
0
346
0
  0
ENDSEC
  0
EOF
