  0
SECTION
  2
HEADER
  9
$ACADVER
  1
AC1015
  9
$DWGCODEPAGE
  3
ANSI_1252
  9
$EXTMAX
 10
297.0
 20
210.0
 30
0.0
  9
$EXTMIN
 10
0.0
 20
0.0
 30
0.0
  9
$LIMMIN
 10
0.0
 20
0.0
  9
$LIMMAX
 10
297.0
 20
210.0
  9
$VIEWCTR
 10
148.5
 20
105.0
  9
$VIEWSIZE
 40
210.0
  9
$CLAYER
  8
0
  9
$LTSCALE
 40
16.335
  9
$CELTYPE
  6
BYLAYER
  9
$DIMSCALE
 40
1.0
  9
$DIMASZ
 40
3.0
  9
$DIMEXO
 40
1.85625
  9
$DIMDLI
 40
11.286
  9
$DIMEXE
 40
5.346
  9
$DIMCEN
 40
2.673
  9
$DIMLFAC
 40
1.0
  9
$DIMBLK
  1
_FILLED
  9
$DIMTXT
 40
3.0
  9
$DIMTOL
 70
1
  9
$DIMLIM
 70
0
  9
$DIMTFAC
 40
1.0
  9
$DIMTP
 40
0.01
  9
$DIMTM
 40
0.01
  9
$PDMODE
 70
3
  9
$PDSIZE
 40
3.0
  9
$HANDSEED
  5
441
  9
$TILEMODE
 70
1
  9
$MEASUREMENT
 70
1
  9
$INSUNITS
 70
4
  0
ENDSEC
  0
SECTION
  2
CLASSES
  0
CLASS
  1
ACDBDICTIONARYWDFLT
  2
AcDbDictionaryWithDefault
  3
AutoCAD 2000
 90
0
280
0
281
0
  0
CLASS
  1
ACDBPLACEHOLDER
  2
AcDbPlaceHolder
  3
AutoCAD 2000
 90
0
280
0
281
0
  0
CLASS
  1
LAYOUT
  2
AcDbLayout
  3
AutoCAD 2000
 90
0
280
0
281
0
  0
ENDSEC
  0
SECTION
  2
TABLES
  0
TABLE
  2
VPORT
  5
8
100
AcDbSymbolTable
 70
2
  0
VPORT
  5
1F4
100
AcDbSymbolTableRecord
100
AcDbViewportTableRecord
  2
*ACTIVE
 70
0
 10
0.0
 20
0.0
 11
1.0
 21
1.0
 12
148.5
 22
105.0
 13
0.0
 23
0.0
 14
1.0
 24
1.0
 15
0.0
 25
0.0
 16
0.0
 26
0.0
 36
1.0
 17
0.0
 27
0.0
 37
0.0
 40
210.0
 41
1.4142857143
 42
50.0
 43
0.0
 44
0.0
 50
0.0
 51
0.0
 71
0
 72
100
 73
1
 74
1
 75
0
 76
0
 77
0
 78
0
  0
ENDTAB
  0
TABLE
  2
LTYPE
  5
5
100
AcDbSymbolTable
 70
6
  0
LTYPE
  5
14
100
AcDbSymbolTableRecord
100
AcDbLinetypeTableRecord
  2
BYBLOCK
 70
0
  3

 72
65
 73
0
 40
0.0
  0
LTYPE
  5
15
100
AcDbSymbolTableRecord
100
AcDbLinetypeTableRecord
  2
BYLAYER
 70
0
  3

 72
65
 73
0
 40
0.0
  0
LTYPE
  5
16
100
AcDbSymbolTableRecord
100
AcDbLinetypeTableRecord
  2
CONTINUOUS
 70
64
  3
Solid line
 72
65
 73
0
 40
0.0
  0
LTYPE
  5
1F5
100
AcDbSymbolTableRecord
100
AcDbLinetypeTableRecord
  2
CENTER
 70
64
  3
____ _ ____ _ ____ _ ____ _ ____ _ ____ _ ____
 72
65
 73
4
 40
0.6
 49
0.375
 74
0
 49
-0.075
 74
0
 49
0.075
 74
0
 49
-0.075
 74
0
  0
LTYPE
  5
1F6
100
AcDbSymbolTableRecord
100
AcDbLinetypeTableRecord
  2
HIDDEN
 70
64
  3
- - - - - - - - - - - - - - - - - - - -
 72
65
 73
2
 40
0.2
 49
0.1
 74
0
 49
-0.1
 74
0
  0
LTYPE
  5
1F7
100
AcDbSymbolTableRecord
100
AcDbLinetypeTableRecord
  2
PHANTOM
 70
64
  3
_____ _ _ _____ _ _ _____ _ _ _____
 72
65
 73
6
 40
0.8
 49
0.45
 74
0
 49
-0.05
 74
0
 49
0.1
 74
0
 49
-0.05
 74
0
 49
0.1
 74
0
 49
-0.05
 74
0
  0
LTYPE
  5
1F8
100
AcDbSymbolTableRecord
100
AcDbLinetypeTableRecord
  2
DOT
 70
64
  3
. . . . . . . . . . . . . . . . . . . .
 72
65
 73
2
 40
0.2
 49
0.1
 74
0
 49
-0.1
 74
0
  0
LTYPE
  5
1F9
100
AcDbSymbolTableRecord
100
AcDbLinetypeTableRecord
  2
DASHED
 70
64
  3
- - - - - - - - - - - - - - - - - - - -
 72
65
 73
2
 40
0.2
 49
0.1
 74
0
 49
-0.1
 74
0
  0
ENDTAB
  0
TABLE
  2
LAYER
  5
2
100
AcDbSymbolTable
 70
36
  0
LAYER
  5
10
100
AcDbSymbolTableRecord
100
AcDbLayerTableRecord
  2
0
 70
0
 62
7
  6
CONTINUOUS
370
-3
390
F
  0
LAYER
  5
1FA
100
AcDbSymbolTableRecord
100
AcDbLayerTableRecord
  2
DEFAULT_1
 70
0
 62
7
  6
CENTER
370
-3
390
F
  0
LAYER
  5
1FB
100
AcDbSymbolTableRecord
100
AcDbLayerTableRecord
  2
DEFAULT_2
 70
0
 62
7
  6
HIDDEN
370
-3
390
F
  0
LAYER
  5
1FC
100
AcDbSymbolTableRecord
100
AcDbLayerTableRecord
  2
DEFAULT_3
 70
0
 62
7
  6
PHANTOM
370
-3
390
F
  0
LAYER
  5
1FD
100
AcDbSymbolTableRecord
100
AcDbLayerTableRecord
  2
ASSI
 70
0
 62
7
  6
CONTINUOUS
370
-3
390
F
  0
LAYER
  5
1FE
100
AcDbSymbolTableRecord
100
AcDbLayerTableRecord
  2
COORDINATE
 70
0
 62
7
  6
CONTINUOUS
370
-3
390
F
  0
LAYER
  5
1FF
100
AcDbSymbolTableRecord
100
AcDbLayerTableRecord
  2
COORD_ORIGINE
 70
0
 62
7
  6
CONTINUOUS
370
-3
390
F
  0
LAYER
  5
200
100
AcDbSymbolTableRecord
100
AcDbLayerTableRecord
  2
COPY_PUBLISH
 70
0
 62
7
  6
CONTINUOUS
370
-3
390
F
  0
LAYER
  5
201
100
AcDbSymbolTableRecord
100
AcDbLayerTableRecord
  2
COSMETIC
 70
0
 62
7
  6
CONTINUOUS
370
-3
390
F
  0
LAYER
  5
202
100
AcDbSymbolTableRecord
100
AcDbLayerTableRecord
  2
COSMETICI
 70
0
 62
7
  6
CONTINUOUS
370
-3
390
F
  0
LAYER
  5
203
100
AcDbSymbolTableRecord
100
AcDbLayerTableRecord
  2
CURVE
 70
0
 62
7
  6
CONTINUOUS
370
-3
390
F
  0
LAYER
  5
204
100
AcDbSymbolTableRecord
100
AcDbLayerTableRecord
  2
DRAFT
 70
0
 62
7
  6
CONTINUOUS
370
-3
390
F
  0
LAYER
  5
205
100
AcDbSymbolTableRecord
100
AcDbLayerTableRecord
  2
IMPORT
 70
0
 62
7
  6
CONTINUOUS
370
-3
390
F
  0
LAYER
  5
206
100
AcDbSymbolTableRecord
100
AcDbLayerTableRecord
  2
IMPORT_IGES
 70
0
 62
7
  6
CONTINUOUS
370
-3
390
F
  0
LAYER
  5
207
100
AcDbSymbolTableRecord
100
AcDbLayerTableRecord
  2
INTFCLR_11
 70
0
 62
7
  6
CONTINUOUS
370
-3
390
F
  0
LAYER
  5
208
100
AcDbSymbolTableRecord
100
AcDbLayerTableRecord
  2
INTF_1
 70
0
 62
7
  6
CONTINUOUS
370
-3
390
F
  0
LAYER
  5
209
100
AcDbSymbolTableRecord
100
AcDbLayerTableRecord
  2
INTF_3
 70
0
 62
7
  6
CONTINUOUS
370
-3
390
F
  0
LAYER
  5
20A
100
AcDbSymbolTableRecord
100
AcDbLayerTableRecord
  2
NOTE
 70
0
 62
7
  6
CONTINUOUS
370
-3
390
F
  0
LAYER
  5
20B
100
AcDbSymbolTableRecord
100
AcDbLayerTableRecord
  2
PIANI
 70
0
 62
7
  6
CONTINUOUS
370
-3
390
F
  0
LAYER
  5
20C
100
AcDbSymbolTableRecord
100
AcDbLayerTableRecord
  2
PIANI_ORIGINE
 70
0
 62
7
  6
CONTINUOUS
370
-3
390
F
  0
LAYER
  5
20D
100
AcDbSymbolTableRecord
100
AcDbLayerTableRecord
  2
PIANI_RIFERIMENTO
 70
0
 62
7
  6
CONTINUOUS
370
-3
390
F
  0
LAYER
  5
20E
100
AcDbSymbolTableRecord
100
AcDbLayerTableRecord
  2
PUNTI
 70
0
 62
7
  6
CONTINUOUS
370
-3
390
F
  0
LAYER
  5
20F
100
AcDbSymbolTableRecord
100
AcDbLayerTableRecord
  2
RACCORDO
 70
0
 62
7
  6
CONTINUOUS
370
-3
390
F
  0
LAYER
  5
210
100
AcDbSymbolTableRecord
100
AcDbLayerTableRecord
  2
SIMBOLI
 70
0
 62
7
  6
CONTINUOUS
370
-3
390
F
  0
LAYER
  5
211
100
AcDbSymbolTableRecord
100
AcDbLayerTableRecord
  2
SMUSSO
 70
0
 62
7
  6
CONTINUOUS
370
-3
390
F
  0
LAYER
  5
212
100
AcDbSymbolTableRecord
100
AcDbLayerTableRecord
  2
SNAPLINE
 70
0
 62
7
  6
CONTINUOUS
370
-3
390
F
  0
LAYER
  5
213
100
AcDbSymbolTableRecord
100
AcDbLayerTableRecord
  2
SUPERFICI
 70
0
 62
7
  6
CONTINUOUS
370
-3
390
F
  0
LAYER
  5
214
100
AcDbSymbolTableRecord
100
AcDbLayerTableRecord
  2
TRASH
 70
0
 62
7
  6
CONTINUOUS
370
-3
390
F
  0
LAYER
  5
215
100
AcDbSymbolTableRecord
100
AcDbLayerTableRecord
  2
XSEC_DATUMS
 70
0
 62
7
  6
CONTINUOUS
370
-3
390
F
  0
LAYER
  5
216
100
AcDbSymbolTableRecord
100
AcDbLayerTableRecord
  2
___SHELL
 70
0
 62
7
  6
CONTINUOUS
370
-3
390
F
  0
ENDTAB
  0
TABLE
  2
STYLE
  5
3
100
AcDbSymbolTable
 70
1
  0
STYLE
  5
11
100
AcDbSymbolTableRecord
100
AcDbTextStyleTableRecord
  2
STANDARD
 70
0
 40
0.0
 41
0.8
 50
0.0
 71
0
 42
0.2
  3
txt
  4

  0
STYLE
  5
217
100
AcDbSymbolTableRecord
100
AcDbTextStyleTableRecord
  2
TEXTSTYLE_1
 70
0
 40
0.0
 41
0.8
 50
0.0
 71
0
 42
0.2
  3
gdt
  4

  0
ENDTAB
  0
TABLE
  2
VIEW
  5
6
100
AcDbSymbolTable
 70
0
  0
ENDTAB
  0
TABLE
  2
UCS
  5
7
100
AcDbSymbolTable
 70
0
  0
ENDTAB
  0
TABLE
  2
APPID
  5
9
100
AcDbSymbolTable
 70
1
  0
APPID
  5
218
100
AcDbSymbolTableRecord
100
AcDbRegAppTableRecord
  2
ACAD
 70
0
  0
ENDTAB
  0
TABLE
  2
BLOCK_RECORD
  5
1
100
AcDbSymbolTable
 70
0
  0
BLOCK_RECORD
  5
219
100
AcDbSymbolTableRecord
100
AcDbBlockTableRecord
  2
*Model_Space
  0
BLOCK_RECORD
  5
21A
100
AcDbSymbolTableRecord
100
AcDbBlockTableRecord
  2
*Paper_Space
  0
BLOCK_RECORD
  5
21B
100
AcDbSymbolTableRecord
100
AcDbBlockTableRecord
  2
_FILLED
  0
BLOCK_RECORD
  5
21C
100
AcDbSymbolTableRecord
100
AcDbBlockTableRecord
  2
*D0
  0
BLOCK_RECORD
  5
21D
100
AcDbSymbolTableRecord
100
AcDbBlockTableRecord
  2
*D1
  0
BLOCK_RECORD
  5
21E
100
AcDbSymbolTableRecord
100
AcDbBlockTableRecord
  2
*D2
  0
BLOCK_RECORD
  5
21F
100
AcDbSymbolTableRecord
100
AcDbBlockTableRecord
  2
*D3
  0
ENDTAB
  0
TABLE
  2
DIMSTYLE
  5
A
100
AcDbSymbolTable
 70
1
100
AcDbDimStyleTable
 71
0
  0
DIMSTYLE
105
220
100
AcDbSymbolTableRecord
100
AcDbDimStyleTableRecord
  2
STANDARD
 70
0
  3

  4

 40
1.0
 41
3.0
 42
0.0625
 43
0.38
 44
0.18
 45
0.0
 46
0.0
 47
0.01
 48
0.01
140
3.0
141
0.09
142
0.0
143
25.4
144
1.0
145
0.0
146
1.0
147
0.09
 71
1.0
 72
0.0
 73
0
 74
0
 75
0
 76
0
 77
1
 78
8
170
0
171
2
172
0
173
0
174
0
175
0
176
0
177
0
178
0
270
2
271
2
272
2
273
2
274
2
275
0
280
0
281
0
282
0
283
1
284
8
285
0
286
0
287
3
288
0
340
11
341
21B
342
21B
343
21B
344
21B
  0
DIMSTYLE
105
221
100
AcDbSymbolTableRecord
100
AcDbDimStyleTableRecord
  2
DIMSTYLE_1
 70
0
  3

  4

 40
1.0
 41
3.0
 42
0.0625
 43
0.38
 44
0.18
 45
0.0
 46
0.0
 47
0.0
 48
0.0
140
3.0
141
0.09
142
0.0
143
25.4
144
1.0
145
0.0
146
1.0
147
0.09
 71
0.0
 72
0.0
 73
0
 74
0
 75
0
 76
0
 77
1
 78
8
170
0
171
2
172
0
173
0
174
0
175
0
176
0
177
0
178
0
270
2
271
2
272
2
273
2
274
2
275
0
280
0
281
0
282
0
283
1
284
8
285
0
286
0
287
3
288
0
340
11
341
21B
342
21B
343
21B
344
21B
  0
ENDTAB
  0
ENDSEC
  0
SECTION
  2
BLOCKS
  0
BLOCK
  5
20
100
AcDbEntity
  8
0
100
AcDbBlockBegin
  2
*Model_Space
 70
0
 10
0.0
 20
0.0
 30
0.0
  3
*Model_Space
  1

  0
ENDBLK
  5
21
100
AcDbEntity
  8
0
100
AcDbBlockEnd
  0
BLOCK
  5
1C
100
AcDbEntity
  8
0
100
AcDbBlockBegin
  2
*Paper_Space
 70
0
 10
0.0
 20
0.0
 30
0.0
  3
*Paper_Space
  1

  0
ENDBLK
  5
1D
100
AcDbEntity
  8
0
100
AcDbBlockEnd
  0
BLOCK
  5
222
100
AcDbEntity
  8
0
100
AcDbBlockBegin
  2
_FILLED
 70
64
 10
0.0
 20
0.0
  3
_FILLED
  1

  0
SOLID
  5
223
100
AcDbEntity
  8
0
  6
BYBLOCK
 62
0
100
AcDbTrace
 10
0.0
 20
0.0
 11
-1.0
 21
0.3166666667
 12
-1.0
 22
-0.3166666667
 13
-1.0
 23
-0.3166666667
  0
ENDBLK
  5
224
100
AcDbEntity
  8
0
  6
BYBLOCK
 62
0
100
AcDbBlockEnd
  0
BLOCK
  5
225
100
AcDbEntity
  8
0
100
AcDbBlockBegin
 62
7
  6
CONTINUOUS
  2
*D0
 70
65
 10
0.0
 20
0.0
  3
*D0
  1

  0
LINE
  5
226
100
AcDbEntity
  8
0
100
AcDbLine
 62
7
  6
CONTINUOUS
 10
-46.7374244729
 20
22.3941990932
 11
-46.7374244729
 21
36.5945181231
  0
LINE
  5
227
100
AcDbEntity
  8
0
100
AcDbLine
 62
7
  6
CONTINUOUS
 10
-35.7374244729
 20
20.4942577878
 11
-35.7374244729
 21
36.5945181231
  0
LINE
  5
228
100
AcDbEntity
  8
0
100
AcDbLine
 62
7
  6
CONTINUOUS
 10
-46.7374244729
 20
35.0945181231
 11
-50.7374244729
 21
35.0945181231
  0
LINE
  5
229
100
AcDbEntity
  8
0
100
AcDbLine
 62
7
  6
CONTINUOUS
 10
-50.7374244729
 20
35.0945181231
 11
-41.2374244729
 21
35.0945181231
  0
LINE
  5
22A
100
AcDbEntity
  8
0
100
AcDbLine
 62
7
  6
CONTINUOUS
 10
-35.7374244729
 20
35.0945181231
 11
-31.7374244729
 21
35.0945181231
  0
LINE
  5
22B
100
AcDbEntity
  8
0
100
AcDbLine
 62
7
  6
CONTINUOUS
 10
-31.7374244729
 20
35.0945181231
 11
-41.2374244729
 21
35.0945181231
  0
INSERT
  5
22C
100
AcDbEntity
  8
0
100
AcDbBlockReference
 62
7
  6
CONTINUOUS
  2
_FILLED
 10
-46.7374244729
 20
35.0945181231
 41
3.0
 42
3.0
 43
3.0
  0
INSERT
  5
22D
100
AcDbEntity
  8
0
100
AcDbBlockReference
 62
7
  6
CONTINUOUS
  2
_FILLED
 10
-35.7374244729
 20
35.0945181231
 41
3.0
 42
3.0
 43
3.0
 50
180.0
  0
ENDBLK
  5
22E
100
AcDbEntity
  8
0
  6
BYBLOCK
 62
0
100
AcDbBlockEnd
  0
BLOCK
  5
22F
100
AcDbEntity
  8
0
100
AcDbBlockBegin
 62
7
  6
CONTINUOUS
  2
*D1
 70
65
 10
0.0
 20
0.0
  3
*D1
  1

  0
LINE
  5
230
100
AcDbEntity
  8
0
100
AcDbLine
 62
7
  6
CONTINUOUS
 10
-35.7374244729
 20
21.4
 11
-35.7374244729
 21
46.6444097461
  0
LINE
  5
231
100
AcDbEntity
  8
0
100
AcDbLine
 62
7
  6
CONTINUOUS
 10
-58.0374417428
 20
0.5
 11
-58.0374417428
 21
46.6444097461
  0
LINE
  5
232
100
AcDbEntity
  8
0
100
AcDbLine
 62
7
  6
CONTINUOUS
 10
-35.7374244729
 20
45.1444097461
 11
-46.8874331078
 21
45.1444097461
  0
LINE
  5
233
100
AcDbEntity
  8
0
100
AcDbLine
 62
7
  6
CONTINUOUS
 10
-58.0374417428
 20
45.1444097461
 11
-46.8874331078
 21
45.1444097461
  0
INSERT
  5
234
100
AcDbEntity
  8
0
100
AcDbBlockReference
 62
7
  6
CONTINUOUS
  2
_FILLED
 10
-35.7374244729
 20
45.1444097461
 41
3.0
 42
3.0
 43
3.0
  0
INSERT
  5
235
100
AcDbEntity
  8
0
100
AcDbBlockReference
 62
7
  6
CONTINUOUS
  2
_FILLED
 10
-58.0374417428
 20
45.1444097461
 41
3.0
 42
3.0
 43
3.0
 50
180.0
  0
ENDBLK
  5
236
100
AcDbEntity
  8
0
  6
BYBLOCK
 62
0
100
AcDbBlockEnd
  0
BLOCK
  5
237
100
AcDbEntity
  8
0
100
AcDbBlockBegin
 62
7
  6
CONTINUOUS
  2
*D2
 70
65
 10
0.0
 20
0.0
  3
*D2
  1

  0
LINE
  5
238
100
AcDbEntity
  8
0
100
AcDbLine
 62
7
  6
CONTINUOUS
 10
-22.15
 20
22.1001713375
 11
-22.15
 21
36.5945181231
  0
LINE
  5
239
100
AcDbEntity
  8
0
100
AcDbLine
 62
7
  6
CONTINUOUS
 10
22.4004363434
 20
22.400016923
 11
22.4004363434
 21
36.5945181231
  0
LINE
  5
23A
100
AcDbEntity
  8
0
100
AcDbLine
 62
7
  6
CONTINUOUS
 10
-22.15
 20
35.0945181231
 11
0.1252181717
 21
35.0945181231
  0
LINE
  5
23B
100
AcDbEntity
  8
0
100
AcDbLine
 62
7
  6
CONTINUOUS
 10
22.4004363434
 20
35.0945181231
 11
0.1252181717
 21
35.0945181231
  0
INSERT
  5
23C
100
AcDbEntity
  8
0
100
AcDbBlockReference
 62
7
  6
CONTINUOUS
  2
_FILLED
 10
-22.15
 20
35.0945181231
 41
3.0
 42
3.0
 43
3.0
 50
180.0
  0
INSERT
  5
23D
100
AcDbEntity
  8
0
100
AcDbBlockReference
 62
7
  6
CONTINUOUS
  2
_FILLED
 10
22.4004363434
 20
35.0945181231
 41
3.0
 42
3.0
 43
3.0
  0
ENDBLK
  5
23E
100
AcDbEntity
  8
0
  6
BYBLOCK
 62
0
100
AcDbBlockEnd
  0
BLOCK
  5
23F
100
AcDbEntity
  8
0
100
AcDbBlockBegin
 62
7
  6
CONTINUOUS
  2
*D3
 70
65
 10
0.0
 20
0.0
  3
*D3
  1

  0
LINE
  5
240
100
AcDbEntity
  8
0
100
AcDbLine
 62
7
  6
CONTINUOUS
 10
21.6500042308
 20
-24.5
 11
36.6465950704
 21
-24.5
  0
LINE
  5
241
100
AcDbEntity
  8
0
100
AcDbLine
 62
7
  6
CONTINUOUS
 10
21.6500042308
 20
24.5
 11
36.6465950704
 21
24.5
  0
LINE
  5
242
100
AcDbEntity
  8
0
100
AcDbLine
 62
7
  6
CONTINUOUS
 10
35.1465950704
 20
-24.5
 11
35.1465950704
 21
-0.0
  0
LINE
  5
243
100
AcDbEntity
  8
0
100
AcDbLine
 62
7
  6
CONTINUOUS
 10
35.1465950704
 20
24.5
 11
35.1465950704
 21
-0.0
  0
INSERT
  5
244
100
AcDbEntity
  8
0
100
AcDbBlockReference
 62
7
  6
CONTINUOUS
  2
_FILLED
 10
35.1465950704
 20
-24.5
 41
3.0
 42
3.0
 43
3.0
 50
270.0
  0
INSERT
  5
245
100
AcDbEntity
  8
0
100
AcDbBlockReference
 62
7
  6
CONTINUOUS
  2
_FILLED
 10
35.1465950704
 20
24.5
 41
3.0
 42
3.0
 43
3.0
 50
90.0
  0
ENDBLK
  5
246
100
AcDbEntity
  8
0
  6
BYBLOCK
 62
0
100
AcDbBlockEnd
  0
ENDSEC
  0
SECTION
  2
ENTITIES
  0
DIMENSION
  5
247
100
AcDbEntity
  8
0
100
AcDbDimension
 62
7
  6
CONTINUOUS
  2
*D0
 10
-35.7374244729
 20
35.0945181231
 11
-42.9517101872
 21
35.8445181231
 70
160
 71
2
 42
11.0
  3
DIMSTYLE_1
100
AcDbAlignedDimension
 13
-46.7374244729
 23
22.3941990932
 14
-35.7374244729
 24
20.4942577878
100
AcDbRotatedDimension
  0
DIMENSION
  5
248
100
AcDbEntity
  8
0
100
AcDbDimension
 62
7
  6
CONTINUOUS
  2
*D1
 10
-58.0374417428
 20
45.1444097461
 11
-51.1731473936
 21
45.8944097461
 70
160
 71
2
 42
22.3000172699
  3
DIMSTYLE_1
100
AcDbAlignedDimension
 13
-35.7374244729
 23
21.4
 14
-58.0374417428
 24
0.5
 50
180.0
100
AcDbRotatedDimension
  0
DIMENSION
  5
249
100
AcDbEntity
  8
0
100
AcDbDimension
 62
7
  6
CONTINUOUS
  2
*D2
 10
22.4004363434
 20
35.0945181231
 11
-5.2319246854
 21
35.8445181231
 70
160
 71
2
 42
44.5504363434
  3
DIMSTYLE_1
100
AcDbAlignedDimension
 13
-22.15
 23
22.1001713375
 14
22.4004363434
 24
22.400016923
100
AcDbRotatedDimension
  0
DIMENSION
  5
24A
100
AcDbEntity
  8
0
100
AcDbDimension
 62
7
  6
CONTINUOUS
  2
*D3
 10
35.1465950704
 20
24.5
 11
34.3965950704
 21
-2.3571428571
 70
160
 71
2
 42
49.0
  3
DIMSTYLE_1
100
AcDbAlignedDimension
 13
21.6500042308
 23
-24.5
 14
21.6500042308
 24
24.5
 50
90.0
100
AcDbRotatedDimension
  0
LINE
  5
24B
100
AcDbEntity
  8
0
100
AcDbLine
 62
7
  6
CONTINUOUS
 10
1.3499957692
 20
-24.5
 11
3.7500042308
 21
-24.5
  0
LINE
  5
24C
100
AcDbEntity
  8
0
100
AcDbLine
 62
7
  6
CONTINUOUS
 10
18.7499957692
 20
-24.5
 11
21.1500042308
 21
-24.5
  0
LINE
  5
24D
100
AcDbEntity
  8
0
100
AcDbLine
 62
253
  6
CONTINUOUS
 10
1.3630943479
 20
-24.4869014213
 11
3.7369056521
 21
-24.4869014213
  0
LINE
  5
24E
100
AcDbEntity
  8
0
100
AcDbLine
 62
253
  6
CONTINUOUS
 10
18.7630943479
 20
-24.4869014213
 11
21.1369056521
 21
-24.4869014213
  0
LINE
  5
24F
100
AcDbEntity
  8
0
100
AcDbLine
 62
253
  6
CONTINUOUS
 10
1.1130985787
 20
-24.2369056521
 11
3.9869014213
 21
-24.2369056521
  0
LINE
  5
250
100
AcDbEntity
  8
0
100
AcDbLine
 62
253
  6
CONTINUOUS
 10
18.5130985787
 20
-24.2369056521
 11
21.3869014213
 21
-24.2369056521
  0
LINE
  5
251
100
AcDbEntity
  8
0
100
AcDbLine
 62
7
  6
CONTINUOUS
 10
15.7
 20
-24.0
 11
12.45
 21
-24.0
  0
LINE
  5
252
100
AcDbEntity
  8
0
100
AcDbLine
 62
7
  6
CONTINUOUS
 10
10.05
 20
-24.0
 11
6.8
 21
-24.0
  0
LINE
  5
253
100
AcDbEntity
  8
0
100
AcDbLine
 62
253
  6
CONTINUOUS
 10
7.75
 20
-23.9982478817
 11
10.05
 21
-23.9982478817
  0
LINE
  5
254
100
AcDbEntity
  8
0
100
AcDbLine
 62
253
  6
CONTINUOUS
 10
12.45
 20
-23.9982478817
 11
14.75
 21
-23.9982478817
  0
LINE
  5
255
100
AcDbEntity
  8
0
100
AcDbLine
 62
7
  6
CONTINUOUS
 10
15.6912732553
 20
-23.9912732553
 11
14.75
 21
-23.9912732553
  0
LINE
  5
256
100
AcDbEntity
  8
0
100
AcDbLine
 62
7
  6
CONTINUOUS
 10
7.75
 20
-23.9912732553
 11
6.8087267447
 21
-23.9912732553
  0
LINE
  5
257
100
AcDbEntity
  8
0
100
AcDbLine
 62
253
  6
CONTINUOUS
 10
1.1130985787
 20
-23.8443375673
 11
3.9869014213
 21
-23.8443375673
  0
LINE
  5
258
100
AcDbEntity
  8
0
100
AcDbLine
 62
253
  6
CONTINUOUS
 10
18.5130985787
 20
-23.8443375673
 11
21.3869014213
 21
-23.8443375673
  0
LINE
  5
259
100
AcDbEntity
  8
0
100
AcDbLine
 62
253
  6
CONTINUOUS
 10
7.75
 20
-23.7982512664
 11
10.25
 21
-23.7982512664
  0
LINE
  5
25A
100
AcDbEntity
  8
0
100
AcDbLine
 62
253
  6
CONTINUOUS
 10
12.25
 20
-23.7982512664
 11
14.75
 21
-23.7982512664
  0
LINE
  5
25B
100
AcDbEntity
  8
0
100
AcDbLine
 62
253
  6
CONTINUOUS
 10
21.1369056521
 20
-23.6278312164
 11
18.7630943479
 21
-23.6278312164
  0
LINE
  5
25C
100
AcDbEntity
  8
0
100
AcDbLine
 62
253
  6
CONTINUOUS
 10
3.7369056521
 20
-23.6278312164
 11
1.3630943479
 21
-23.6278312164
  0
LINE
  5
25D
100
AcDbEntity
  8
0
100
AcDbLine
 62
7
  6
CONTINUOUS
 10
21.1427234819
 20
-23.1226497308
 11
18.7572765181
 21
-23.1226497308
  0
LINE
  5
25E
100
AcDbEntity
  8
0
100
AcDbLine
 62
7
  6
CONTINUOUS
 10
1.3572765181
 20
-23.1226497308
 11
3.7427234819
 21
-23.1226497308
  0
LINE
  5
25F
100
AcDbEntity
  8
RACCORDO
100
AcDbLine
 62
7
  6
CONTINUOUS
 10
-22.15
 20
-21.6001713375
 11
-22.15
 21
21.6001713375
  0
LINE
  5
260
100
AcDbEntity
  8
0
100
AcDbLine
 62
7
  6
CONTINUOUS
 10
12.25
 20
-22.4
 11
10.25
 21
-22.4
  0
LINE
  5
261
100
AcDbEntity
  8
0
100
AcDbLine
 62
7
  6
CONTINUOUS
 10
0.5995573105
 20
-22.4
 11
1.1
 21
-22.4
  0
LINE
  5
262
100
AcDbEntity
  8
0
100
AcDbLine
 62
7
  6
CONTINUOUS
 10
4.0
 20
-22.4
 11
6.8
 21
-22.4
  0
LINE
  5
263
100
AcDbEntity
  8
0
100
AcDbLine
 62
7
  6
CONTINUOUS
 10
15.7
 20
-22.4
 11
18.5
 21
-22.4
  0
LINE
  5
264
100
AcDbEntity
  8
0
100
AcDbLine
 62
7
  6
CONTINUOUS
 10
21.4
 20
-22.4
 11
21.9004426895
 21
-22.4
  0
LINE
  5
265
100
AcDbEntity
  8
0
100
AcDbLine
 62
7
  6
CONTINUOUS
 10
7.75
 20
-22.3737961104
 11
10.05
 21
-22.3737961104
  0
LINE
  5
266
100
AcDbEntity
  8
0
100
AcDbLine
 62
7
  6
CONTINUOUS
 10
12.45
 20
-22.3737961104
 11
14.75
 21
-22.3737961104
  0
LINE
  5
267
100
AcDbEntity
  8
0
100
AcDbLine
 62
7
  6
CONTINUOUS
 10
0.6266747509
 20
-22.3213883311
 11
1.3572765181
 21
-22.3213883311
  0
LINE
  5
268
100
AcDbEntity
  8
0
100
AcDbLine
 62
7
  6
CONTINUOUS
 10
3.7427234819
 20
-22.3213883311
 11
6.8087267447
 21
-22.3213883311
  0
LINE
  5
269
100
AcDbEntity
  8
0
100
AcDbLine
 62
7
  6
CONTINUOUS
 10
7.75
 20
-22.3213883311
 11
14.75
 21
-22.3213883311
  0
LINE
  5
26A
100
AcDbEntity
  8
0
100
AcDbLine
 62
7
  6
CONTINUOUS
 10
15.6912732553
 20
-22.3213883311
 11
18.7572765181
 21
-22.3213883311
  0
LINE
  5
26B
100
AcDbEntity
  8
0
100
AcDbLine
 62
7
  6
CONTINUOUS
 10
21.1427234819
 20
-22.3213883311
 11
21.8733252491
 21
-22.3213883311
  0
LINE
  5
26C
100
AcDbEntity
  8
RACCORDO
100
AcDbLine
 62
7
  6
CONTINUOUS
 10
-21.6501713375
 20
-22.1
 11
21.6501713375
 21
-22.1
  0
LINE
  5
26D
100
AcDbEntity
  8
RACCORDO
100
AcDbLine
 62
7
  6
CONTINUOUS
 10
22.3729446494
 20
-16.6
 11
22.15
 21
-16.6
  0
LINE
  5
26E
100
AcDbEntity
  8
0
100
AcDbLine
 62
7
  6
CONTINUOUS
 10
-13.2791395686
 20
-13.0139918455
 11
-13.2749616635
 21
-10.0107238193
  0
LINE
  5
26F
100
AcDbEntity
  8
0
100
AcDbLine
 62
253
  6
CONTINUOUS
 10
3.7369056521
 20
24.4869014213
 11
3.7500042308
 21
24.5
  0
LINE
  5
270
100
AcDbEntity
  8
0
100
AcDbLine
 62
253
  6
CONTINUOUS
 10
3.9869014213
 20
24.2369056521
 11
4.0
 21
24.2500042308
  0
LINE
  5
271
100
AcDbEntity
  8
0
100
AcDbLine
 62
253
  6
CONTINUOUS
 10
3.7369056521
 20
-24.4869014213
 11
3.7500042308
 21
-24.5
  0
LINE
  5
272
100
AcDbEntity
  8
0
100
AcDbLine
 62
253
  6
CONTINUOUS
 10
3.9869014213
 20
-24.2369056521
 11
4.0
 21
-24.2500042308
  0
LWPOLYLINE
  5
273
100
AcDbEntity
  8
0
100
AcDbPolyline
 62
7
  6
CONTINUOUS
 90
3
 70
0
 43
0.3500000006
 10
0.1966467499
 20
36.1302336731
 10
0.1252181693
 20
35.9159446564
 10
-0.0176389708
 20
35.6302335205
  0
LINE
  5
274
100
AcDbEntity
  8
0
100
AcDbLine
 62
7
  6
CONTINUOUS
 10
-9.0054414399
 20
-10.0129197648
 11
-9.0091930347
 21
-13.0167437159
  0
LINE
  5
275
100
AcDbEntity
  8
0
100
AcDbLine
 62
7
  6
CONTINUOUS
 10
15.6912732553
 20
23.9912732553
 11
15.7
 21
24.0
  0
LINE
  5
276
100
AcDbEntity
  8
0
100
AcDbLine
 62
7
  6
CONTINUOUS
 10
15.7
 20
-24.0
 11
15.6912732553
 21
-23.9912732553
  0
LWPOLYLINE
  5
277
100
AcDbEntity
  8
0
100
AcDbPolyline
 62
7
  6
CONTINUOUS
 90
2
 70
0
 43
0.3500000006
 10
-4.2319245558
 20
35.8445180054
 10
-4.2319245558
 20
37.3445184631
  0
LINE
  5
278
100
AcDbEntity
  8
0
100
AcDbLine
 62
253
  6
CONTINUOUS
 10
21.1369056521
 20
24.4869014213
 11
21.1500042308
 21
24.5
  0
LINE
  5
279
100
AcDbEntity
  8
0
100
AcDbLine
 62
253
  6
CONTINUOUS
 10
21.1369056521
 20
-24.4869014213
 11
21.1500042308
 21
-24.5
  0
LWPOLYLINE
  5
27A
100
AcDbEntity
  8
0
100
AcDbPolyline
 62
7
  6
CONTINUOUS
 90
2
 70
0
 43
0.3500000006
 10
-1.8747817683
 20
35.8445180054
 10
-1.8747817683
 20
37.3445184631
  0
LINE
  5
27B
100
AcDbEntity
  8
0
100
AcDbLine
 62
253
  6
CONTINUOUS
 10
21.3869014213
 20
24.2369056521
 11
21.4
 21
24.2500042308
  0
LINE
  5
27C
100
AcDbEntity
  8
RACCORDO
100
AcDbLine
 62
253
  6
CONTINUOUS
 10
-22.0290966686
 20
-21.4792680061
 11
-22.15
 21
-21.6001713375
  0
LINE
  5
27D
100
AcDbEntity
  8
RACCORDO
100
AcDbLine
 62
253
  6
CONTINUOUS
 10
21.5292680065
 20
21.9790966689
 11
21.6501713375
 21
22.1
  0
LINE
  5
27E
100
AcDbEntity
  8
RACCORDO
100
AcDbLine
 62
253
  6
CONTINUOUS
 10
-21.5292680065
 20
-21.979096669
 11
-21.6501713375
 21
-22.1
  0
LWPOLYLINE
  5
27F
100
AcDbEntity
  8
0
100
AcDbPolyline
 62
7
  6
CONTINUOUS
 90
2
 70
0
 43
0.3500000006
 10
34.3965957413
 20
-1.3571429443
 10
32.8965952835
 20
-1.3571429443
  0
LINE
  5
280
100
AcDbEntity
  8
DRAFT
100
AcDbLine
 62
7
  6
CONTINUOUS
 10
22.15
 20
-0.0
 11
22.345044505
 21
-0.0
  0
LINE
  5
281
100
AcDbEntity
  8
0
100
AcDbLine
 62
253
  6
CONTINUOUS
 10
21.3869014213
 20
-24.2369056521
 11
21.4
 21
-24.2500042308
  0
LINE
  5
282
100
AcDbEntity
  8
RACCORDO
100
AcDbLine
 62
253
  6
CONTINUOUS
 10
-22.15
 20
21.6001713375
 11
-22.0290966732
 21
21.4792680107
  0
LINE
  5
283
100
AcDbEntity
  8
RACCORDO
100
AcDbLine
 62
253
  6
CONTINUOUS
 10
21.6501713375
 20
-22.1
 11
21.5292680107
 21
-21.9790966731
  0
LINE
  5
284
100
AcDbEntity
  8
RACCORDO
100
AcDbLine
 62
253
  6
CONTINUOUS
 10
-21.6501713375
 20
22.1
 11
-21.5292680107
 21
21.9790966732
  0
LINE
  5
285
100
AcDbEntity
  8
0
100
AcDbLine
 62
253
  6
CONTINUOUS
 10
1.1130985787
 20
-23.8443375673
 11
1.1072807489
 21
-23.2669872981
  0
LINE
  5
286
100
AcDbEntity
  8
0
100
AcDbLine
 62
253
  6
CONTINUOUS
 10
1.3630943479
 20
-23.6278312164
 11
1.3580037468
 21
-23.1226497308
  0
LINE
  5
287
100
AcDbEntity
  8
0
100
AcDbLine
 62
7
  6
CONTINUOUS
 10
1.1
 20
-22.4
 11
1.1
 21
-24.2500042308
  0
LINE
  5
288
100
AcDbEntity
  8
0
100
AcDbLine
 62
7
  6
CONTINUOUS
 10
1.1
 20
22.4
 11
1.1
 21
24.2500042308
  0
LINE
  5
289
100
AcDbEntity
  8
0
100
AcDbLine
 62
253
  6
CONTINUOUS
 10
1.1072807489
 20
23.2669872981
 11
1.1072807489
 21
22.3344140523
  0
LINE
  5
28A
100
AcDbEntity
  8
0
100
AcDbLine
 62
253
  6
CONTINUOUS
 10
1.1072807489
 20
-22.3344140523
 11
1.1072807489
 21
-23.2669872981
  0
LINE
  5
28B
100
AcDbEntity
  8
0
100
AcDbLine
 62
253
  6
CONTINUOUS
 10
1.1130985787
 20
24.2369056521
 11
1.1130985787
 21
23.8443375673
  0
LINE
  5
28C
100
AcDbEntity
  8
0
100
AcDbLine
 62
253
  6
CONTINUOUS
 10
1.1130985787
 20
-23.8443375673
 11
1.1130985787
 21
-24.2369056521
  0
LINE
  5
28D
100
AcDbEntity
  8
0
100
AcDbLine
 62
253
  6
CONTINUOUS
 10
1.3572765181
 20
23.1226497308
 11
1.3572765181
 21
22.3213883311
  0
LINE
  5
28E
100
AcDbEntity
  8
0
100
AcDbLine
 62
253
  6
CONTINUOUS
 10
1.3572765181
 20
-22.3213883311
 11
1.3572765181
 21
-23.1226497308
  0
LINE
  5
28F
100
AcDbEntity
  8
0
100
AcDbLine
 62
253
  6
CONTINUOUS
 10
1.3630943479
 20
-23.6278312164
 11
1.3630943479
 21
-24.4869014213
  0
LINE
  5
290
100
AcDbEntity
  8
0
100
AcDbLine
 62
253
  6
CONTINUOUS
 10
1.3630943479
 20
23.6278312164
 11
1.3630943479
 21
24.4869014213
  0
LINE
  5
291
100
AcDbEntity
  8
0
100
AcDbLine
 62
253
  6
CONTINUOUS
 10
1.1072807489
 20
23.2669872981
 11
1.1130985787
 21
23.8443375673
  0
LINE
  5
292
100
AcDbEntity
  8
0
100
AcDbLine
 62
253
  6
CONTINUOUS
 10
1.3580037468
 20
23.1226497308
 11
1.3630943479
 21
23.6278312164
  0
LINE
  5
293
100
AcDbEntity
  8
0
100
AcDbLine
 62
7
  6
CONTINUOUS
 10
4.0
 20
22.4
 11
3.9927192511
 21
22.3344140523
  0
LINE
  5
294
100
AcDbEntity
  8
RACCORDO
100
AcDbLine
 62
253
  6
CONTINUOUS
 10
22.0290966685
 20
21.4792680061
 11
22.15
 21
21.6001713375
  0
LINE
  5
295
100
AcDbEntity
  8
RACCORDO
100
AcDbLine
 62
253
  6
CONTINUOUS
 10
22.15
 20
-21.6001713375
 11
22.0290966731
 21
-21.4792680107
  0
LINE
  5
296
100
AcDbEntity
  8
0
100
AcDbLine
 62
7
  6
CONTINUOUS
 10
4.0
 20
-22.4
 11
3.9927192511
 21
-22.3344140523
  0
LINE
  5
297
100
AcDbEntity
  8
0
100
AcDbLine
 62
253
  6
CONTINUOUS
 10
3.7369056521
 20
23.6278312164
 11
3.7419962532
 21
23.1226497308
  0
LINE
  5
298
100
AcDbEntity
  8
0
100
AcDbLine
 62
253
  6
CONTINUOUS
 10
3.9869014213
 20
23.8443375673
 11
3.9927192511
 21
23.2669872981
  0
LINE
  5
299
100
AcDbEntity
  8
0
100
AcDbLine
 62
253
  6
CONTINUOUS
 10
3.7369056521
 20
-23.6278312164
 11
3.7369056521
 21
-24.4869014213
  0
LINE
  5
29A
100
AcDbEntity
  8
0
100
AcDbLine
 62
253
  6
CONTINUOUS
 10
3.7369056521
 20
23.6278312164
 11
3.7369056521
 21
24.4869014213
  0
LINE
  5
29B
100
AcDbEntity
  8
0
100
AcDbLine
 62
253
  6
CONTINUOUS
 10
3.7427234819
 20
-23.1226497308
 11
3.7427234819
 21
-22.3213883311
  0
LINE
  5
29C
100
AcDbEntity
  8
0
100
AcDbLine
 62
253
  6
CONTINUOUS
 10
3.7427234819
 20
22.3213883311
 11
3.7427234819
 21
23.1226497308
  0
LINE
  5
29D
100
AcDbEntity
  8
0
100
AcDbLine
 62
253
  6
CONTINUOUS
 10
3.9869014213
 20
-24.2369056521
 11
3.9869014213
 21
-23.8443375673
  0
LINE
  5
29E
100
AcDbEntity
  8
0
100
AcDbLine
 62
253
  6
CONTINUOUS
 10
3.9869014213
 20
23.8443375673
 11
3.9869014213
 21
24.2369056521
  0
LINE
  5
29F
100
AcDbEntity
  8
0
100
AcDbLine
 62
253
  6
CONTINUOUS
 10
3.9927192511
 20
-23.2669872981
 11
3.9927192511
 21
-22.3344140523
  0
LINE
  5
2A0
100
AcDbEntity
  8
0
100
AcDbLine
 62
253
  6
CONTINUOUS
 10
3.9927192511
 20
22.3344140523
 11
3.9927192511
 21
23.2669872981
  0
LINE
  5
2A1
100
AcDbEntity
  8
0
100
AcDbLine
 62
7
  6
CONTINUOUS
 10
4.0
 20
-22.4
 11
4.0
 21
-24.2500042308
  0
LINE
  5
2A2
100
AcDbEntity
  8
0
100
AcDbLine
 62
7
  6
CONTINUOUS
 10
4.0
 20
22.4
 11
4.0
 21
24.2500042308
  0
LINE
  5
2A3
100
AcDbEntity
  8
0
100
AcDbLine
 62
253
  6
CONTINUOUS
 10
3.7419962532
 20
-23.1226497308
 11
3.7369056521
 21
-23.6278312164
  0
LINE
  5
2A4
100
AcDbEntity
  8
0
100
AcDbLine
 62
253
  6
CONTINUOUS
 10
3.9927192511
 20
-23.2669872981
 11
3.9869014213
 21
-23.8443375673
  0
LINE
  5
2A5
100
AcDbEntity
  8
0
100
AcDbLine
 62
7
  6
CONTINUOUS
 10
1.1
 20
-22.4
 11
1.1072807489
 21
-22.3344140523
  0
LINE
  5
2A6
100
AcDbEntity
  8
0
100
AcDbLine
 62
7
  6
CONTINUOUS
 10
1.1
 20
22.4
 11
1.1072807489
 21
22.3344140523
  0
LINE
  5
2A7
100
AcDbEntity
  8
0
100
AcDbLine
 62
7
  6
CONTINUOUS
 10
6.8
 20
-22.4
 11
6.8
 21
-24.0
  0
LINE
  5
2A8
100
AcDbEntity
  8
0
100
AcDbLine
 62
7
  6
CONTINUOUS
 10
6.8
 20
22.4
 11
6.8
 21
24.0
  0
LINE
  5
2A9
100
AcDbEntity
  8
0
100
AcDbLine
 62
7
  6
CONTINUOUS
 10
6.8087267447
 20
23.9912732553
 11
6.8087267447
 21
22.3213883311
  0
LINE
  5
2AA
100
AcDbEntity
  8
0
100
AcDbLine
 62
7
  6
CONTINUOUS
 10
6.8087267447
 20
-22.3213883311
 11
6.8087267447
 21
-23.9912732553
  0
LINE
  5
2AB
100
AcDbEntity
  8
0
100
AcDbLine
 62
7
  6
CONTINUOUS
 10
7.75
 20
-23.9982478817
 11
7.75
 21
-22.3213883311
  0
LINE
  5
2AC
100
AcDbEntity
  8
0
100
AcDbLine
 62
7
  6
CONTINUOUS
 10
7.75
 20
22.3213883311
 11
7.75
 21
23.9982478817
  0
LINE
  5
2AD
100
AcDbEntity
  8
0
100
AcDbLine
 62
253
  6
CONTINUOUS
 10
0.6004921535
 20
-22.4
 11
0.6266747509
 21
-22.3213883311
  0
LINE
  5
2AE
100
AcDbEntity
  8
0
100
AcDbLine
 62
253
  6
CONTINUOUS
 10
0.6266747509
 20
22.3213883311
 11
0.6004921535
 21
22.4
  0
LINE
  5
2AF
100
AcDbEntity
  8
0
100
AcDbLine
 62
253
  6
CONTINUOUS
 10
10.05
 20
-22.3737961104
 11
10.05
 21
-24.0
  0
LINE
  5
2B0
100
AcDbEntity
  8
0
100
AcDbLine
 62
253
  6
CONTINUOUS
 10
10.05
 20
22.3737961104
 11
10.05
 21
24.0
  0
LINE
  5
2B1
100
AcDbEntity
  8
0
100
AcDbLine
 62
7
  6
CONTINUOUS
 10
10.25
 20
-23.7999966153
 11
10.25
 21
-22.3842776662
  0
LINE
  5
2B2
100
AcDbEntity
  8
0
100
AcDbLine
 62
7
  6
CONTINUOUS
 10
10.25
 20
22.3842776662
 11
10.25
 21
23.7999966153
  0
LINE
  5
2B3
100
AcDbEntity
  8
0
100
AcDbLine
 62
7
  6
CONTINUOUS
 10
6.8
 20
-22.4
 11
6.8087267447
 21
-22.3213883311
  0
LINE
  5
2B4
100
AcDbEntity
  8
0
100
AcDbLine
 62
7
  6
CONTINUOUS
 10
6.8087267447
 20
22.3213883311
 11
6.8
 21
22.4
  0
LINE
  5
2B5
100
AcDbEntity
  8
0
100
AcDbLine
 62
7
  6
CONTINUOUS
 10
12.25
 20
23.7999966153
 11
12.25
 21
22.3842776662
  0
LINE
  5
2B6
100
AcDbEntity
  8
0
100
AcDbLine
 62
7
  6
CONTINUOUS
 10
12.25
 20
-22.3842776662
 11
12.25
 21
-23.7999966153
  0
LINE
  5
2B7
100
AcDbEntity
  8
0
100
AcDbLine
 62
253
  6
CONTINUOUS
 10
12.45
 20
-22.3737961104
 11
12.45
 21
-24.0
  0
LINE
  5
2B8
100
AcDbEntity
  8
0
100
AcDbLine
 62
253
  6
CONTINUOUS
 10
12.45
 20
22.3737961104
 11
12.45
 21
24.0
  0
LINE
  5
2B9
100
AcDbEntity
  8
0
100
AcDbLine
 62
7
  6
CONTINUOUS
 10
14.75
 20
23.9982478817
 11
14.75
 21
22.3213883311
  0
LINE
  5
2BA
100
AcDbEntity
  8
0
100
AcDbLine
 62
7
  6
CONTINUOUS
 10
14.75
 20
-22.3213883311
 11
14.75
 21
-23.9982478817
  0
LINE
  5
2BB
100
AcDbEntity
  8
0
100
AcDbLine
 62
7
  6
CONTINUOUS
 10
15.7
 20
22.4
 11
15.6912732553
 21
22.3213883311
  0
LINE
  5
2BC
100
AcDbEntity
  8
0
100
AcDbLine
 62
253
  6
CONTINUOUS
 10
21.8995078465
 20
22.4
 11
21.8733252491
 21
22.3213883311
  0
LINE
  5
2BD
100
AcDbEntity
  8
0
100
AcDbLine
 62
253
  6
CONTINUOUS
 10
22.3991272468
 20
21.8997711479
 11
22.3729446494
 21
21.821159479
  0
LINE
  5
2BE
100
AcDbEntity
  8
0
100
AcDbLine
 62
253
  6
CONTINUOUS
 10
21.8733252491
 20
-22.3213883311
 11
21.8995078465
 21
-22.4
  0
LINE
  5
2BF
100
AcDbEntity
  8
0
100
AcDbLine
 62
253
  6
CONTINUOUS
 10
22.3729446494
 20
-21.821159479
 11
22.3991272468
 21
-21.8997711479
  0
LINE
  5
2C0
100
AcDbEntity
  8
0
100
AcDbLine
 62
7
  6
CONTINUOUS
 10
15.6912732553
 20
-22.3213883311
 11
15.7
 21
-22.4
  0
LINE
  5
2C1
100
AcDbEntity
  8
0
100
AcDbLine
 62
7
  6
CONTINUOUS
 10
15.6912732553
 20
-23.9912732553
 11
15.6912732553
 21
-22.3213883311
  0
LINE
  5
2C2
100
AcDbEntity
  8
0
100
AcDbLine
 62
7
  6
CONTINUOUS
 10
15.6912732553
 20
22.3213883311
 11
15.6912732553
 21
23.9912732553
  0
LINE
  5
2C3
100
AcDbEntity
  8
0
100
AcDbLine
 62
7
  6
CONTINUOUS
 10
15.7
 20
-22.4
 11
15.7
 21
-24.0
  0
LINE
  5
2C4
100
AcDbEntity
  8
0
100
AcDbLine
 62
7
  6
CONTINUOUS
 10
15.7
 20
22.4
 11
15.7
 21
24.0
  0
LINE
  5
2C5
100
AcDbEntity
  8
0
100
AcDbLine
 62
253
  6
CONTINUOUS
 10
1.1130985787
 20
-24.2369056521
 11
1.1
 21
-24.2500042308
  0
LINE
  5
2C6
100
AcDbEntity
  8
RACCORDO
100
AcDbLine
 62
7
  6
CONTINUOUS
 10
22.15
 20
16.6
 11
22.3729446494
 21
16.6
  0
LINE
  5
2C7
100
AcDbEntity
  8
0
100
AcDbLine
 62
253
  6
CONTINUOUS
 10
1.1130985787
 20
24.2369056521
 11
1.1
 21
24.2500042308
  0
LWPOLYLINE
  5
2C8
100
AcDbEntity
  8
0
100
AcDbPolyline
 62
7
  6
CONTINUOUS
 90
10
 70
0
 43
0.3500000006
 10
0.1252181693
 20
36.344518158
 10
0.1966467499
 20
36.2016603241
 10
0.1966467499
 20
36.1302336731
 10
0.053789602
 20
35.9873758392
 10
-0.0176389708
 20
35.9873758392
 10
-0.0890675459
 20
36.0588024902
 10
-0.0890675459
 20
36.1302336731
 10
-0.0176389708
 20
36.273091507
 10
0.053789602
 20
36.344518158
 10
0.1252181693
 20
36.344518158
  0
LINE
  5
2C9
100
AcDbEntity
  8
0
100
AcDbLine
 62
253
  6
CONTINUOUS
 10
18.5130985787
 20
-23.8443375673
 11
18.5072807489
 21
-23.2669872981
  0
LINE
  5
2CA
100
AcDbEntity
  8
0
100
AcDbLine
 62
253
  6
CONTINUOUS
 10
18.7630943479
 20
-23.6278312164
 11
18.7580037468
 21
-23.1226497308
  0
LINE
  5
2CB
100
AcDbEntity
  8
0
100
AcDbLine
 62
7
  6
CONTINUOUS
 10
18.5
 20
-22.4
 11
18.5
 21
-24.2500042308
  0
LINE
  5
2CC
100
AcDbEntity
  8
0
100
AcDbLine
 62
7
  6
CONTINUOUS
 10
18.5
 20
22.4
 11
18.5
 21
24.2500042308
  0
LINE
  5
2CD
100
AcDbEntity
  8
0
100
AcDbLine
 62
253
  6
CONTINUOUS
 10
18.5072807489
 20
23.2669872981
 11
18.5072807489
 21
22.3344140523
  0
LINE
  5
2CE
100
AcDbEntity
  8
0
100
AcDbLine
 62
253
  6
CONTINUOUS
 10
18.5072807489
 20
-22.3344140523
 11
18.5072807489
 21
-23.2669872981
  0
LINE
  5
2CF
100
AcDbEntity
  8
0
100
AcDbLine
 62
253
  6
CONTINUOUS
 10
18.5130985787
 20
24.2369056521
 11
18.5130985787
 21
23.8443375673
  0
LINE
  5
2D0
100
AcDbEntity
  8
0
100
AcDbLine
 62
253
  6
CONTINUOUS
 10
18.5130985787
 20
-23.8443375673
 11
18.5130985787
 21
-24.2369056521
  0
LINE
  5
2D1
100
AcDbEntity
  8
0
100
AcDbLine
 62
253
  6
CONTINUOUS
 10
18.7572765181
 20
23.1226497308
 11
18.7572765181
 21
22.3213883311
  0
LINE
  5
2D2
100
AcDbEntity
  8
0
100
AcDbLine
 62
253
  6
CONTINUOUS
 10
18.7572765181
 20
-22.3213883311
 11
18.7572765181
 21
-23.1226497308
  0
LINE
  5
2D3
100
AcDbEntity
  8
0
100
AcDbLine
 62
253
  6
CONTINUOUS
 10
18.7630943479
 20
-23.6278312164
 11
18.7630943479
 21
-24.4869014213
  0
LINE
  5
2D4
100
AcDbEntity
  8
0
100
AcDbLine
 62
253
  6
CONTINUOUS
 10
18.7630943479
 20
23.6278312164
 11
18.7630943479
 21
24.4869014213
  0
LINE
  5
2D5
100
AcDbEntity
  8
0
100
AcDbLine
 62
253
  6
CONTINUOUS
 10
18.5072807489
 20
23.2669872981
 11
18.5130985787
 21
23.8443375673
  0
LINE
  5
2D6
100
AcDbEntity
  8
0
100
AcDbLine
 62
253
  6
CONTINUOUS
 10
18.7580037468
 20
23.1226497308
 11
18.7630943479
 21
23.6278312164
  0
LINE
  5
2D7
100
AcDbEntity
  8
0
100
AcDbLine
 62
7
  6
CONTINUOUS
 10
21.4
 20
22.4
 11
21.3927192511
 21
22.3344140523
  0
LINE
  5
2D8
100
AcDbEntity
  8
0
100
AcDbLine
 62
253
  6
CONTINUOUS
 10
1.3630943479
 20
-24.4869014213
 11
1.3499957692
 21
-24.5
  0
LINE
  5
2D9
100
AcDbEntity
  8
0
100
AcDbLine
 62
253
  6
CONTINUOUS
 10
1.3630943479
 20
24.4869014213
 11
1.3499957692
 21
24.5
  0
LINE
  5
2DA
100
AcDbEntity
  8
0
100
AcDbLine
 62
7
  6
CONTINUOUS
 10
21.4
 20
-22.4
 11
21.3927192511
 21
-22.3344140523
  0
LINE
  5
2DB
100
AcDbEntity
  8
0
100
AcDbLine
 62
253
  6
CONTINUOUS
 10
21.1369056521
 20
23.6278312164
 11
21.1419962532
 21
23.1226497308
  0
LINE
  5
2DC
100
AcDbEntity
  8
0
100
AcDbLine
 62
253
  6
CONTINUOUS
 10
21.3869014213
 20
23.8443375673
 11
21.3927192511
 21
23.2669872981
  0
LINE
  5
2DD
100
AcDbEntity
  8
DRAFT
100
AcDbLine
 62
7
  6
CONTINUOUS
 10
22.345044505
 20
-0.0
 11
22.3729446494
 21
-16.6
  0
LINE
  5
2DE
100
AcDbEntity
  8
0
100
AcDbLine
 62
253
  6
CONTINUOUS
 10
21.1369056521
 20
-23.6278312164
 11
21.1369056521
 21
-24.4869014213
  0
LINE
  5
2DF
100
AcDbEntity
  8
0
100
AcDbLine
 62
253
  6
CONTINUOUS
 10
21.1369056521
 20
23.6278312164
 11
21.1369056521
 21
24.4869014213
  0
LINE
  5
2E0
100
AcDbEntity
  8
0
100
AcDbLine
 62
253
  6
CONTINUOUS
 10
21.1427234819
 20
-23.1226497308
 11
21.1427234819
 21
-22.3213883311
  0
LINE
  5
2E1
100
AcDbEntity
  8
0
100
AcDbLine
 62
253
  6
CONTINUOUS
 10
21.1427234819
 20
22.3213883311
 11
21.1427234819
 21
23.1226497308
  0
LINE
  5
2E2
100
AcDbEntity
  8
0
100
AcDbLine
 62
253
  6
CONTINUOUS
 10
21.3869014213
 20
-24.2369056521
 11
21.3869014213
 21
-23.8443375673
  0
LINE
  5
2E3
100
AcDbEntity
  8
0
100
AcDbLine
 62
253
  6
CONTINUOUS
 10
21.3869014213
 20
23.8443375673
 11
21.3869014213
 21
24.2369056521
  0
LINE
  5
2E4
100
AcDbEntity
  8
0
100
AcDbLine
 62
253
  6
CONTINUOUS
 10
21.3927192511
 20
-23.2669872981
 11
21.3927192511
 21
-22.3344140523
  0
LINE
  5
2E5
100
AcDbEntity
  8
0
100
AcDbLine
 62
253
  6
CONTINUOUS
 10
21.3927192511
 20
22.3344140523
 11
21.3927192511
 21
23.2669872981
  0
LINE
  5
2E6
100
AcDbEntity
  8
0
100
AcDbLine
 62
7
  6
CONTINUOUS
 10
21.4
 20
-22.4
 11
21.4
 21
-24.2500042308
  0
LINE
  5
2E7
100
AcDbEntity
  8
0
100
AcDbLine
 62
7
  6
CONTINUOUS
 10
21.4
 20
22.4
 11
21.4
 21
24.2500042308
  0
LINE
  5
2E8
100
AcDbEntity
  8
RACCORDO
100
AcDbLine
 62
7
  6
CONTINUOUS
 10
22.15
 20
-21.6001713375
 11
22.15
 21
21.6001713375
  0
LINE
  5
2E9
100
AcDbEntity
  8
DRAFT
100
AcDbLine
 62
7
  6
CONTINUOUS
 10
22.3729446494
 20
-21.821159479
 11
22.3729446494
 21
-16.6
  0
LINE
  5
2EA
100
AcDbEntity
  8
DRAFT
100
AcDbLine
 62
7
  6
CONTINUOUS
 10
22.3729446494
 20
16.6
 11
22.3729446494
 21
21.821159479
  0
LINE
  5
2EB
100
AcDbEntity
  8
0
100
AcDbLine
 62
7
  6
CONTINUOUS
 10
22.3991272468
 20
-21.8997711479
 11
22.3991272468
 21
21.8997711479
  0
LINE
  5
2EC
100
AcDbEntity
  8
0
100
AcDbLine
 62
7
  6
CONTINUOUS
 10
22.4004363434
 20
-21.900016923
 11
22.4004363434
 21
21.900016923
  0
LINE
  5
2ED
100
AcDbEntity
  8
DRAFT
100
AcDbLine
 62
7
  6
CONTINUOUS
 10
22.3729446494
 20
16.6
 11
22.345044505
 21
-0.0
  0
LINE
  5
2EE
100
AcDbEntity
  8
0
100
AcDbLine
 62
253
  6
CONTINUOUS
 10
21.1419962532
 20
-23.1226497308
 11
21.1369056521
 21
-23.6278312164
  0
LINE
  5
2EF
100
AcDbEntity
  8
0
100
AcDbLine
 62
253
  6
CONTINUOUS
 10
21.3927192511
 20
-23.2669872981
 11
21.3869014213
 21
-23.8443375673
  0
LINE
  5
2F0
100
AcDbEntity
  8
0
100
AcDbLine
 62
7
  6
CONTINUOUS
 10
18.5
 20
-22.4
 11
18.5072807489
 21
-22.3344140523
  0
LINE
  5
2F1
100
AcDbEntity
  8
0
100
AcDbLine
 62
7
  6
CONTINUOUS
 10
6.8
 20
-24.0
 11
6.8087267447
 21
-23.9912732553
  0
LINE
  5
2F2
100
AcDbEntity
  8
RACCORDO
100
AcDbLine
 62
7
  6
CONTINUOUS
 10
-21.6501713375
 20
22.1
 11
21.6501713375
 21
22.1
  0
LINE
  5
2F3
100
AcDbEntity
  8
0
100
AcDbLine
 62
7
  6
CONTINUOUS
 10
0.6266747509
 20
22.3213883311
 11
1.3572765181
 21
22.3213883311
  0
LINE
  5
2F4
100
AcDbEntity
  8
0
100
AcDbLine
 62
7
  6
CONTINUOUS
 10
3.7427234819
 20
22.3213883311
 11
6.8087267447
 21
22.3213883311
  0
LINE
  5
2F5
100
AcDbEntity
  8
0
100
AcDbLine
 62
7
  6
CONTINUOUS
 10
7.75
 20
22.3213883311
 11
14.75
 21
22.3213883311
  0
LINE
  5
2F6
100
AcDbEntity
  8
0
100
AcDbLine
 62
7
  6
CONTINUOUS
 10
15.6912732553
 20
22.3213883311
 11
18.7572765181
 21
22.3213883311
  0
LINE
  5
2F7
100
AcDbEntity
  8
0
100
AcDbLine
 62
7
  6
CONTINUOUS
 10
21.1427234819
 20
22.3213883311
 11
21.8733252491
 21
22.3213883311
  0
LINE
  5
2F8
100
AcDbEntity
  8
0
100
AcDbLine
 62
7
  6
CONTINUOUS
 10
7.75
 20
22.3737961104
 11
10.05
 21
22.3737961104
  0
LINE
  5
2F9
100
AcDbEntity
  8
0
100
AcDbLine
 62
7
  6
CONTINUOUS
 10
12.45
 20
22.3737961104
 11
14.75
 21
22.3737961104
  0
LINE
  5
2FA
100
AcDbEntity
  8
0
100
AcDbLine
 62
7
  6
CONTINUOUS
 10
12.25
 20
22.4
 11
10.25
 21
22.4
  0
LINE
  5
2FB
100
AcDbEntity
  8
0
100
AcDbLine
 62
7
  6
CONTINUOUS
 10
0.6004921535
 20
22.4
 11
1.1
 21
22.4
  0
LINE
  5
2FC
100
AcDbEntity
  8
0
100
AcDbLine
 62
7
  6
CONTINUOUS
 10
4.0
 20
22.4
 11
6.8
 21
22.4
  0
LINE
  5
2FD
100
AcDbEntity
  8
0
100
AcDbLine
 62
7
  6
CONTINUOUS
 10
15.7
 20
22.4
 11
18.5
 21
22.4
  0
LINE
  5
2FE
100
AcDbEntity
  8
0
100
AcDbLine
 62
7
  6
CONTINUOUS
 10
21.4
 20
22.4
 11
21.8995078465
 21
22.4
  0
LINE
  5
2FF
100
AcDbEntity
  8
0
100
AcDbLine
 62
7
  6
CONTINUOUS
 10
21.1427234819
 20
23.1226497308
 11
18.7572765181
 21
23.1226497308
  0
LINE
  5
300
100
AcDbEntity
  8
0
100
AcDbLine
 62
7
  6
CONTINUOUS
 10
1.3572765181
 20
23.1226497308
 11
3.7427234819
 21
23.1226497308
  0
LINE
  5
301
100
AcDbEntity
  8
0
100
AcDbLine
 62
7
  6
CONTINUOUS
 10
6.8
 20
24.0
 11
6.8087267447
 21
23.9912732553
  0
LINE
  5
302
100
AcDbEntity
  8
0
100
AcDbLine
 62
7
  6
CONTINUOUS
 10
18.5
 20
22.4
 11
18.5072807489
 21
22.3344140523
  0
LINE
  5
303
100
AcDbEntity
  8
0
100
AcDbLine
 62
253
  6
CONTINUOUS
 10
1.3630943479
 20
23.6278312164
 11
3.7369056521
 21
23.6278312164
  0
LINE
  5
304
100
AcDbEntity
  8
0
100
AcDbLine
 62
253
  6
CONTINUOUS
 10
18.7630943479
 20
23.6278312164
 11
21.1369056521
 21
23.6278312164
  0
LINE
  5
305
100
AcDbEntity
  8
0
100
AcDbLine
 62
253
  6
CONTINUOUS
 10
14.75
 20
23.7982512664
 11
12.25
 21
23.7982512664
  0
LINE
  5
306
100
AcDbEntity
  8
0
100
AcDbLine
 62
253
  6
CONTINUOUS
 10
7.75
 20
23.7982512664
 11
10.25
 21
23.7982512664
  0
LINE
  5
307
100
AcDbEntity
  8
0
100
AcDbLine
 62
253
  6
CONTINUOUS
 10
1.1130985787
 20
23.8443375673
 11
3.9869014213
 21
23.8443375673
  0
LINE
  5
308
100
AcDbEntity
  8
0
100
AcDbLine
 62
253
  6
CONTINUOUS
 10
18.5130985787
 20
23.8443375673
 11
21.3869014213
 21
23.8443375673
  0
LINE
  5
309
100
AcDbEntity
  8
0
100
AcDbLine
 62
7
  6
CONTINUOUS
 10
6.8087267447
 20
23.9912732553
 11
7.75
 21
23.9912732553
  0
LINE
  5
30A
100
AcDbEntity
  8
0
100
AcDbLine
 62
7
  6
CONTINUOUS
 10
14.75
 20
23.9912732553
 11
15.6912732553
 21
23.9912732553
  0
LINE
  5
30B
100
AcDbEntity
  8
0
100
AcDbLine
 62
253
  6
CONTINUOUS
 10
14.75
 20
23.9982478817
 11
12.45
 21
23.9982478817
  0
LINE
  5
30C
100
AcDbEntity
  8
0
100
AcDbLine
 62
253
  6
CONTINUOUS
 10
10.05
 20
23.9982478817
 11
7.75
 21
23.9982478817
  0
LINE
  5
30D
100
AcDbEntity
  8
0
100
AcDbLine
 62
7
  6
CONTINUOUS
 10
6.8
 20
24.0
 11
10.05
 21
24.0
  0
LINE
  5
30E
100
AcDbEntity
  8
0
100
AcDbLine
 62
7
  6
CONTINUOUS
 10
12.45
 20
24.0
 11
15.7
 21
24.0
  0
LINE
  5
30F
100
AcDbEntity
  8
0
100
AcDbLine
 62
253
  6
CONTINUOUS
 10
1.1130985787
 20
24.2369056521
 11
3.9869014213
 21
24.2369056521
  0
LINE
  5
310
100
AcDbEntity
  8
0
100
AcDbLine
 62
253
  6
CONTINUOUS
 10
18.5130985787
 20
24.2369056521
 11
21.3869014213
 21
24.2369056521
  0
LINE
  5
311
100
AcDbEntity
  8
0
100
AcDbLine
 62
253
  6
CONTINUOUS
 10
21.1369056521
 20
24.4869014213
 11
18.7630943479
 21
24.4869014213
  0
LINE
  5
312
100
AcDbEntity
  8
0
100
AcDbLine
 62
253
  6
CONTINUOUS
 10
3.7369056521
 20
24.4869014213
 11
1.3630943479
 21
24.4869014213
  0
LINE
  5
313
100
AcDbEntity
  8
0
100
AcDbLine
 62
7
  6
CONTINUOUS
 10
21.1500042308
 20
24.5
 11
18.7499957692
 21
24.5
  0
LINE
  5
314
100
AcDbEntity
  8
0
100
AcDbLine
 62
7
  6
CONTINUOUS
 10
3.7500042308
 20
24.5
 11
1.3499957692
 21
24.5
  0
LWPOLYLINE
  5
315
100
AcDbEntity
  8
0
100
AcDbPolyline
 62
7
  6
CONTINUOUS
 90
10
 70
0
 43
0.3500000006
 10
34.3965957413
 20
0.4285709152
 10
33.53945327
 20
1.2857133865
 10
32.6823085327
 20
1.5000001373
 10
31.8251660614
 20
1.5000001373
 10
31.3965948257
 20
1.0714289017
 10
31.3965948257
 20
0.4285709152
 10
31.8251660614
 20
-0.0000003204
 10
32.6823085327
 20
-0.0000003204
 10
33.1108797684
 20
0.4285709152
 10
33.1108797684
 20
1.3571423035
  0
LINE
  5
316
100
AcDbEntity
  8
0
100
AcDbLine
 62
253
  6
CONTINUOUS
 10
18.5130985787
 20
-24.2369056521
 11
18.5
 21
-24.2500042308
  0
LINE
  5
317
100
AcDbEntity
  8
0
100
AcDbLine
 62
253
  6
CONTINUOUS
 10
18.7630943479
 20
-24.4869014213
 11
18.7499957692
 21
-24.5
  0
LINE
  5
318
100
AcDbEntity
  8
0
100
AcDbLine
 62
253
  6
CONTINUOUS
 10
18.5130985787
 20
24.2369056521
 11
18.5
 21
24.2500042308
  0
LINE
  5
319
100
AcDbEntity
  8
0
100
AcDbLine
 62
253
  6
CONTINUOUS
 10
18.7630943479
 20
24.4869014213
 11
18.7499957692
 21
24.5
  0
LWPOLYLINE
  5
31A
100
AcDbEntity
  8
0
100
AcDbPolyline
 62
7
  6
CONTINUOUS
 90
3
 70
0
 43
0.3500000006
 10
33.7537377548
 20
-0.8571427917
 10
33.7537377548
 20
-2.3571432495
 10
31.3965948257
 20
-1.7142852631
  0
LWPOLYLINE
  5
31B
100
AcDbEntity
  8
0
100
AcDbPolyline
 62
7
  6
CONTINUOUS
 90
8
 70
0
 43
0.3500000006
 10
1.1966467896
 20
35.8445180054
 10
2.0537895441
 20
35.8445180054
 10
2.482361063
 20
36.273091507
 10
2.482361063
 20
37.1302339783
 10
2.0537895441
 20
37.558802948
 10
1.1966467896
 20
37.558802948
 10
1.1966467896
 20
38.8445189209
 10
2.482361063
 20
38.8445189209
  0
LWPOLYLINE
  5
31C
100
AcDbEntity
  8
0
100
AcDbPolyline
 62
7
  6
CONTINUOUS
 90
8
 70
0
 43
0.3500000006
 10
3.3395038176
 20
35.8445180054
 10
4.1966468554
 20
35.8445180054
 10
4.625218091
 20
36.273091507
 10
4.625218091
 20
37.1302339783
 10
4.1966468554
 20
37.558802948
 10
3.3395038176
 20
37.558802948
 10
3.3395038176
 20
38.8445189209
 10
4.625218091
 20
38.8445189209
  0
LWPOLYLINE
  5
31D
100
AcDbEntity
  8
0
100
AcDbPolyline
 62
7
  6
CONTINUOUS
 90
3
 70
0
 43
0.3500000006
 10
-1.374781899
 20
36.4873759918
 10
-2.8747819319
 20
36.4873759918
 10
-2.2319246535
 20
38.8445189209
  0
LWPOLYLINE
  5
31E
100
AcDbEntity
  8
0
100
AcDbPolyline
 62
7
  6
CONTINUOUS
 90
3
 70
0
 43
0.3500000006
 10
-3.7319246864
 20
36.4873759918
 10
-5.2319245777
 20
36.4873759918
 10
-4.589067441
 20
38.8445189209
  0
LWPOLYLINE
  5
31F
100
AcDbEntity
  8
0
100
AcDbPolyline
 62
7
  6
CONTINUOUS
 90
5
 70
0
 43
0.3500000006
 10
-43.8874329529
 20
47.6086972504
 10
-43.5302906342
 20
47.8229817352
 10
-43.5302906342
 20
48.4658397217
 10
-43.8874329529
 20
48.8944086914
 10
-44.7445754242
 20
48.8944086914
  0
LINE
  5
320
100
AcDbEntity
  8
0
100
AcDbLine
 62
7
  6
CONTINUOUS
 10
-47.7374244729
 20
-24.5
 11
-46.9859700401
 21
-24.495628166
  0
LINE
  5
321
100
AcDbEntity
  8
0
100
AcDbLine
 62
253
  6
CONTINUOUS
 10
-47.7374244729
 20
-24.2500042308
 11
-46.9859700401
 21
-24.2456323968
  0
LINE
  5
322
100
AcDbEntity
  8
0
100
AcDbLine
 62
7
  6
CONTINUOUS
 10
-42.2345156072
 20
-23.9679850128
 11
-46.7374244729
 21
-23.9941821702
  0
LINE
  5
323
100
AcDbEntity
  8
0
100
AcDbLine
 62
253
  6
CONTINUOUS
 10
-46.7374244729
 20
-24.2456323968
 11
-46.9859700401
 21
-24.2456323968
  0
LINE
  5
324
100
AcDbEntity
  8
0
100
AcDbLine
 62
253
  6
CONTINUOUS
 10
-50.2374244729
 20
-24.2369056521
 11
-49.9888789057
 21
-24.2369056521
  0
LINE
  5
325
100
AcDbEntity
  8
0
100
AcDbLine
 62
7
  6
CONTINUOUS
 10
-49.9888789057
 20
-24.4869014213
 11
-47.7374244729
 21
-24.5
  0
LINE
  5
326
100
AcDbEntity
  8
0
100
AcDbLine
 62
253
  6
CONTINUOUS
 10
-49.9888789057
 20
-24.2369056521
 11
-47.7374244729
 21
-24.2500042308
  0
LWPOLYLINE
  5
327
100
AcDbEntity
  8
0
100
AcDbPolyline
 62
7
  6
CONTINUOUS
 90
3
 70
0
 43
0.3500000006
 10
-42.9517080231
 20
37.9873764496
 10
-42.0945655518
 20
38.8445189209
 10
-42.0945655518
 20
35.8445180054
  0
LINE
  5
328
100
AcDbEntity
  8
0
100
AcDbLine
 62
7
  6
CONTINUOUS
 10
-36.7316067416
 20
-22.3359700255
 11
-47.7374244729
 21
-22.4
  0
LINE
  5
329
100
AcDbEntity
  8
0
100
AcDbLine
 62
253
  6
CONTINUOUS
 10
-50.2374244729
 20
-23.8443375673
 11
-49.9888789057
 21
-23.8443375673
  0
LINE
  5
32A
100
AcDbEntity
  8
0
100
AcDbLine
 62
253
  6
CONTINUOUS
 10
-46.7374244729
 20
-23.8443375673
 11
-46.9859700401
 21
-23.8443375673
  0
LINE
  5
32B
100
AcDbEntity
  8
RACCORDO
100
AcDbLine
 62
7
  6
CONTINUOUS
 10
-51.3374244729
 20
-22.1
 11
-56.3275765522
 21
-21.969328269
  0
LINE
  5
32C
100
AcDbEntity
  8
0
100
AcDbLine
 62
7
  6
CONTINUOUS
 10
-49.2374244729
 20
-22.3213883311
 11
-47.7374244729
 21
-22.4
  0
LWPOLYLINE
  5
32D
100
AcDbEntity
  8
0
100
AcDbPolyline
 62
7
  6
CONTINUOUS
 90
3
 70
0
 43
0.3500000006
 10
-41.2374230804
 20
37.9873764496
 10
-40.3802806091
 20
38.8445189209
 10
-40.3802806091
 20
35.8445180054
  0
LINE
  5
32E
100
AcDbEntity
  8
RACCORDO
100
AcDbLine
 62
253
  6
CONTINUOUS
 10
-57.1227942041
 20
-20.8301238198
 11
-56.6366263041
 21
-20.8090179705
  0
LINE
  5
32F
100
AcDbEntity
  8
0
100
AcDbLine
 62
253
  6
CONTINUOUS
 10
-47.7374244729
 20
-21.900016923
 11
-46.7374244729
 21
-21.8941990932
  0
LINE
  5
330
100
AcDbEntity
  8
0
100
AcDbLine
 62
7
  6
CONTINUOUS
 10
-35.7374244729
 20
-20.9
 11
-45.7374244729
 21
-20.9
  0
LINE
  5
331
100
AcDbEntity
  8
0
100
AcDbLine
 62
7
  6
CONTINUOUS
 10
-36.2286982697
 20
-21.5834304982
 11
-45.7374244729
 21
-21.4174550649
  0
LINE
  5
332
100
AcDbEntity
  8
RACCORDO
100
AcDbLine
 62
253
  6
CONTINUOUS
 10
-51.3374244729
 20
-21.6001713375
 11
-55.9545362496
 21
-21.4792680107
  0
LINE
  5
333
100
AcDbEntity
  8
0
100
AcDbLine
 62
253
  6
CONTINUOUS
 10
-49.2374244729
 20
-21.821159479
 11
-47.7374244729
 21
-21.8997711479
  0
LINE
  5
334
100
AcDbEntity
  8
0
100
AcDbLine
 62
253
  6
CONTINUOUS
 10
-47.7374244729
 20
23.4104851482
 11
-46.9859700401
 21
23.8443375673
  0
LINE
  5
335
100
AcDbEntity
  8
0
100
AcDbLine
 62
7
  6
CONTINUOUS
 10
-47.7374244729
 20
23.1226497308
 11
-46.8624244729
 21
23.6278312164
  0
LINE
  5
336
100
AcDbEntity
  8
RACCORDO
100
AcDbLine
 62
253
  6
CONTINUOUS
 10
-35.9339339916
 20
-19.0166572575
 11
-35.7374244729
 21
-19.0166572575
  0
LINE
  5
337
100
AcDbEntity
  8
RACCORDO
100
AcDbLine
 62
7
  6
CONTINUOUS
 10
-35.9356791658
 20
-19.7942654032
 11
-45.7374244729
 21
-19.7087268678
  0
LINE
  5
338
100
AcDbEntity
  8
0
100
AcDbLine
 62
7
  6
CONTINUOUS
 10
-46.7374244729
 20
-18.5082905244
 11
-45.7374244729
 21
-18.5170173922
  0
LINE
  5
339
100
AcDbEntity
  8
0
100
AcDbLine
 62
253
  6
CONTINUOUS
 10
-46.9859700401
 20
-23.8443375673
 11
-47.7374244729
 21
-23.4104851482
  0
LINE
  5
33A
100
AcDbEntity
  8
0
100
AcDbLine
 62
7
  6
CONTINUOUS
 10
-46.8624244729
 20
-23.6278312164
 11
-47.7374244729
 21
-23.1226497308
  0
LINE
  5
33B
100
AcDbEntity
  8
RACCORDO
100
AcDbLine
 62
7
  6
CONTINUOUS
 10
-49.2374244729
 20
-17.4
 11
-51.3374244729
 21
-17.3633443637
  0
LINE
  5
33C
100
AcDbEntity
  8
RACCORDO
100
AcDbLine
 62
253
  6
CONTINUOUS
 10
-49.2567000143
 20
-16.399815849
 11
-51.3374244729
 21
-16.3634966685
  0
LINE
  5
33D
100
AcDbEntity
  8
RACCORDO
100
AcDbLine
 62
7
  6
CONTINUOUS
 10
-45.7374244729
 20
14.9602976573
 11
-35.8690204437
 21
18.5521029837
  0
LINE
  5
33E
100
AcDbEntity
  8
RACCORDO
100
AcDbLine
 62
7
  6
CONTINUOUS
 10
-35.8690204437
 20
-18.5521029837
 11
-45.7374244729
 21
-14.9602976573
  0
LWPOLYLINE
  5
33F
100
AcDbEntity
  8
0
100
AcDbPolyline
 62
7
  6
CONTINUOUS
 90
3
 70
0
 43
0.3500000006
 10
-45.7445757294
 20
46.1801234436
 10
-45.8160023804
 20
45.9658389587
 10
-45.9588602142
 20
45.680123291
  0
LWPOLYLINE
  5
340
100
AcDbEntity
  8
0
100
AcDbPolyline
 62
7
  6
CONTINUOUS
 90
13
 70
0
 10
-57.4945786215
 20
20.8322351597
 10
-57.6577686162
 20
17.4235897044
 10
-57.7944583218
 20
13.939793571
 10
-57.9007797312
 20
10.4549385084
 10
-57.9767218706
 20
6.9692891526
 10
-58.0222762921
 20
3.4831101933
 10
-58.0374417289
 20
-0.0033334713
 10
-58.0222181818
 20
-3.4897768564
 10
-57.9766056514
 20
-6.975954977
 10
-57.9006054141
 20
-10.4616029352
 10
-57.7942259317
 20
-13.9464560419
 10
-57.6574781796
 20
-17.4302496611
 10
-57.4945786215
 20
-20.8322351591
  0
LINE
  5
341
100
AcDbEntity
  8
RACCORDO
100
AcDbLine
 62
7
  6
CONTINUOUS
 10
-51.3374244729
 20
-22.1
 11
-51.3374244729
 21
22.1
  0
LINE
  5
342
100
AcDbEntity
  8
DRAFT
100
AcDbLine
 62
7
  6
CONTINUOUS
 10
-50.835822673
 20
-0.0
 11
-49.2374244729
 21
-16.6
  0
LINE
  5
343
100
AcDbEntity
  8
0
100
AcDbLine
 62
7
  6
CONTINUOUS
 10
-50.2374244729
 20
-24.2369056521
 11
-50.2374244729
 21
-23.8443375673
  0
LINE
  5
344
100
AcDbEntity
  8
0
100
AcDbLine
 62
7
  6
CONTINUOUS
 10
-50.2374244729
 20
23.8443375673
 11
-50.2374244729
 21
24.2369056521
  0
LINE
  5
345
100
AcDbEntity
  8
0
100
AcDbLine
 62
253
  6
CONTINUOUS
 10
-49.9888789057
 20
-24.2369056521
 11
-49.9888789057
 21
-23.8443375673
  0
LINE
  5
346
100
AcDbEntity
  8
0
100
AcDbLine
 62
253
  6
CONTINUOUS
 10
-49.9888789057
 20
23.8443375673
 11
-49.9888789057
 21
24.2369056521
  0
LINE
  5
347
100
AcDbEntity
  8
0
100
AcDbLine
 62
7
  6
CONTINUOUS
 10
-49.2374244729
 20
-21.821159479
 11
-49.2374244729
 21
-23.1226497308
  0
LINE
  5
348
100
AcDbEntity
  8
DRAFT
100
AcDbLine
 62
7
  6
CONTINUOUS
 10
-49.2374244729
 20
-21.821159479
 11
-49.2374244729
 21
-16.6
  0
LINE
  5
349
100
AcDbEntity
  8
DRAFT
100
AcDbLine
 62
7
  6
CONTINUOUS
 10
-49.2374244729
 20
16.6
 11
-49.2374244729
 21
21.821159479
  0
LINE
  5
34A
100
AcDbEntity
  8
0
100
AcDbLine
 62
7
  6
CONTINUOUS
 10
-49.2374244729
 20
21.821159479
 11
-49.2374244729
 21
23.1226497308
  0
LINE
  5
34B
100
AcDbEntity
  8
DRAFT
100
AcDbLine
 62
7
  6
CONTINUOUS
 10
-49.2374244729
 20
16.6
 11
-50.835822673
 21
-0.0
  0
LINE
  5
34C
100
AcDbEntity
  8
0
100
AcDbLine
 62
253
  6
CONTINUOUS
 10
-48.9888789057
 20
-23.2669872981
 11
-48.9888789057
 21
-22.3344140523
  0
LINE
  5
34D
100
AcDbEntity
  8
0
100
AcDbLine
 62
253
  6
CONTINUOUS
 10
-48.9888789057
 20
22.3344140523
 11
-48.9888789057
 21
23.2669872981
  0
LINE
  5
34E
100
AcDbEntity
  8
0
100
AcDbLine
 62
7
  6
CONTINUOUS
 10
-47.7374244729
 20
-24.2500042308
 11
-47.7374244729
 21
24.2500042308
  0
LINE
  5
34F
100
AcDbEntity
  8
0
100
AcDbLine
 62
253
  6
CONTINUOUS
 10
-46.9859700401
 20
24.2456323968
 11
-46.9859700401
 21
23.8443375673
  0
LINE
  5
350
100
AcDbEntity
  8
0
100
AcDbLine
 62
253
  6
CONTINUOUS
 10
-46.9859700401
 20
-23.8443375673
 11
-46.9859700401
 21
-24.2456323968
  0
LINE
  5
351
100
AcDbEntity
  8
0
100
AcDbLine
 62
7
  6
CONTINUOUS
 10
-46.7374244729
 20
24.2456323968
 11
-46.7374244729
 21
23.8443375673
  0
LINE
  5
352
100
AcDbEntity
  8
0
100
AcDbLine
 62
7
  6
CONTINUOUS
 10
-46.7374244729
 20
-22.3941821702
 11
-46.7374244729
 21
-18.5082905244
  0
LINE
  5
353
100
AcDbEntity
  8
0
100
AcDbLine
 62
7
  6
CONTINUOUS
 10
-46.7374244729
 20
-23.8443375673
 11
-46.7374244729
 21
-24.2456323968
  0
LINE
  5
354
100
AcDbEntity
  8
0
100
AcDbLine
 62
7
  6
CONTINUOUS
 10
-46.7374244729
 20
18.5082905244
 11
-46.7374244729
 21
22.3941821702
  0
LINE
  5
355
100
AcDbEntity
  8
0
100
AcDbLine
 62
7
  6
CONTINUOUS
 10
-45.7374244729
 20
21.4174550649
 11
-45.7374244729
 21
-21.4174550649
  0
LINE
  5
356
100
AcDbEntity
  8
0
100
AcDbLine
 62
7
  6
CONTINUOUS
 10
-42.2374244729
 20
-23.4243617711
 11
-42.2374244729
 21
-22.8756382289
  0
LINE
  5
357
100
AcDbEntity
  8
0
100
AcDbLine
 62
7
  6
CONTINUOUS
 10
-42.2374244729
 20
22.8756382289
 11
-42.2374244729
 21
23.4243617711
  0
LINE
  5
358
100
AcDbEntity
  8
0
100
AcDbLine
 62
253
  6
CONTINUOUS
 10
-42.1936323103
 20
-23.9660720289
 11
-42.1936323103
 21
-22.3677471607
  0
LINE
  5
359
100
AcDbEntity
  8
0
100
AcDbLine
 62
253
  6
CONTINUOUS
 10
-42.1936323103
 20
22.3677471607
 11
-42.1936323103
 21
23.9660720289
  0
LINE
  5
35A
100
AcDbEntity
  8
0
100
AcDbLine
 62
7
  6
CONTINUOUS
 10
-41.7374244729
 20
-23.4679934743
 11
-41.7374244729
 21
-22.3650935624
  0
LINE
  5
35B
100
AcDbEntity
  8
0
100
AcDbLine
 62
7
  6
CONTINUOUS
 10
-41.7374244729
 20
22.3650935624
 11
-41.7374244729
 21
23.4679934743
  0
LINE
  5
35C
100
AcDbEntity
  8
0
100
AcDbLine
 62
253
  6
CONTINUOUS
 10
-36.2286982697
 20
-21.5834304982
 11
-36.2286982697
 21
-20.9
  0
LINE
  5
35D
100
AcDbEntity
  8
0
100
AcDbLine
 62
253
  6
CONTINUOUS
 10
-36.2286982697
 20
20.9
 11
-36.2286982697
 21
21.5834304982
  0
LINE
  5
35E
100
AcDbEntity
  8
RACCORDO
100
AcDbLine
 62
253
  6
CONTINUOUS
 10
-35.9356791658
 20
20.9
 11
-35.9356791658
 21
19.7942654032
  0
LINE
  5
35F
100
AcDbEntity
  8
RACCORDO
100
AcDbLine
 62
253
  6
CONTINUOUS
 10
-35.9356791658
 20
-19.7942654032
 11
-35.9356791658
 21
-20.9
  0
LINE
  5
360
100
AcDbEntity
  8
RACCORDO
100
AcDbLine
 62
253
  6
CONTINUOUS
 10
-35.9339339916
 20
-19.7942654032
 11
-35.9339339916
 21
-19.0166572575
  0
LINE
  5
361
100
AcDbEntity
  8
RACCORDO
100
AcDbLine
 62
253
  6
CONTINUOUS
 10
-35.9339339916
 20
19.0166572575
 11
-35.9339339916
 21
19.7942654032
  0
LINE
  5
362
100
AcDbEntity
  8
0
100
AcDbLine
 62
7
  6
CONTINUOUS
 10
-35.7374244729
 20
-21.3359869487
 11
-35.7374244729
 21
-20.9
  0
LINE
  5
363
100
AcDbEntity
  8
RACCORDO
100
AcDbLine
 62
7
  6
CONTINUOUS
 10
-35.7374244729
 20
-20.9
 11
-35.7374244729
 21
-18.7400415081
  0
LINE
  5
364
100
AcDbEntity
  8
RACCORDO
100
AcDbLine
 62
7
  6
CONTINUOUS
 10
-35.7374244729
 20
18.7400415081
 11
-35.7374244729
 21
20.9
  0
LINE
  5
365
100
AcDbEntity
  8
0
100
AcDbLine
 62
7
  6
CONTINUOUS
 10
-35.7374244729
 20
20.9
 11
-35.7374244729
 21
21.3359869487
  0
LINE
  5
366
100
AcDbEntity
  8
RACCORDO
100
AcDbLine
 62
253
  6
CONTINUOUS
 10
-49.2567000143
 20
16.399815849
 11
-51.3374244729
 21
16.3634966685
  0
LINE
  5
367
100
AcDbEntity
  8
RACCORDO
100
AcDbLine
 62
7
  6
CONTINUOUS
 10
-49.2374244729
 20
17.4
 11
-51.3374244729
 21
17.3633443637
  0
LINE
  5
368
100
AcDbEntity
  8
0
100
AcDbLine
 62
7
  6
CONTINUOUS
 10
-49.2374244729
 20
-23.1226497308
 11
-50.1124244729
 21
-23.6278312164
  0
LINE
  5
369
100
AcDbEntity
  8
0
100
AcDbLine
 62
253
  6
CONTINUOUS
 10
-48.9888789057
 20
-23.2669872981
 11
-49.9888789057
 21
-23.8443375673
  0
LINE
  5
36A
100
AcDbEntity
  8
0
100
AcDbLine
 62
7
  6
CONTINUOUS
 10
-46.7374244729
 20
18.5082905244
 11
-45.7374244729
 21
18.5170173922
  0
LINE
  5
36B
100
AcDbEntity
  8
RACCORDO
100
AcDbLine
 62
7
  6
CONTINUOUS
 10
-35.9356791658
 20
19.7942654032
 11
-45.7374244729
 21
19.7087268678
  0
LINE
  5
36C
100
AcDbEntity
  8
RACCORDO
100
AcDbLine
 62
253
  6
CONTINUOUS
 10
-35.9339339916
 20
19.0166572575
 11
-35.7374244729
 21
19.0166572575
  0
LINE
  5
36D
100
AcDbEntity
  8
RACCORDO
100
AcDbLine
 62
253
  6
CONTINUOUS
 10
-57.122781152
 20
20.8301232531
 11
-56.6366263943
 21
20.8090179618
  0
LINE
  5
36E
100
AcDbEntity
  8
0
100
AcDbLine
 62
7
  6
CONTINUOUS
 10
-50.1124244729
 20
23.6278312164
 11
-49.2374244729
 21
23.1226497308
  0
LINE
  5
36F
100
AcDbEntity
  8
0
100
AcDbLine
 62
253
  6
CONTINUOUS
 10
-49.9888789057
 20
23.8443375673
 11
-48.9888789057
 21
23.2669872981
  0
LINE
  5
370
100
AcDbEntity
  8
0
100
AcDbLine
 62
253
  6
CONTINUOUS
 10
-47.7374244729
 20
21.8997711479
 11
-49.2374244729
 21
21.821159479
  0
LINE
  5
371
100
AcDbEntity
  8
0
100
AcDbLine
 62
7
  6
CONTINUOUS
 10
-47.7374244729
 20
22.4
 11
-49.2374244729
 21
22.3213883311
  0
LINE
  5
372
100
AcDbEntity
  8
RACCORDO
100
AcDbLine
 62
253
  6
CONTINUOUS
 10
-55.9545364252
 20
21.4792680061
 11
-51.3374244729
 21
21.6001713375
  0
LINE
  5
373
100
AcDbEntity
  8
RACCORDO
100
AcDbLine
 62
7
  6
CONTINUOUS
 10
-56.327576537
 20
21.9693282694
 11
-51.3374244729
 21
22.1
  0
LINE
  5
374
100
AcDbEntity
  8
0
100
AcDbLine
 62
7
  6
CONTINUOUS
 10
-36.2286982697
 20
21.5834304982
 11
-45.7374244729
 21
21.4174550649
  0
LINE
  5
375
100
AcDbEntity
  8
0
100
AcDbLine
 62
7
  6
CONTINUOUS
 10
-35.7374244729
 20
20.9
 11
-45.7374244729
 21
20.9
  0
LINE
  5
376
100
AcDbEntity
  8
0
100
AcDbLine
 62
253
  6
CONTINUOUS
 10
-46.7374244729
 20
21.8941990932
 11
-47.7374244729
 21
21.900016923
  0
LINE
  5
377
100
AcDbEntity
  8
0
100
AcDbLine
 62
7
  6
CONTINUOUS
 10
-36.7316067416
 20
22.3359700255
 11
-47.7374244729
 21
22.4
  0
LINE
  5
378
100
AcDbEntity
  8
0
100
AcDbLine
 62
253
  6
CONTINUOUS
 10
-49.9888789057
 20
24.2369056521
 11
-47.7374244729
 21
24.2500042308
  0
LINE
  5
379
100
AcDbEntity
  8
0
100
AcDbLine
 62
7
  6
CONTINUOUS
 10
-49.9888789057
 20
24.4869014213
 11
-47.7374244729
 21
24.5
  0
LINE
  5
37A
100
AcDbEntity
  8
0
100
AcDbLine
 62
253
  6
CONTINUOUS
 10
-50.2374244729
 20
23.8443375673
 11
-49.9888789057
 21
23.8443375673
  0
LINE
  5
37B
100
AcDbEntity
  8
0
100
AcDbLine
 62
253
  6
CONTINUOUS
 10
-46.7374244729
 20
23.8443375673
 11
-46.9859700401
 21
23.8443375673
  0
LINE
  5
37C
100
AcDbEntity
  8
0
100
AcDbLine
 62
253
  6
CONTINUOUS
 10
-50.2374244729
 20
24.2369056521
 11
-49.9888789057
 21
24.2369056521
  0
LINE
  5
37D
100
AcDbEntity
  8
0
100
AcDbLine
 62
253
  6
CONTINUOUS
 10
-46.7374244729
 20
24.2456323968
 11
-46.9859700401
 21
24.2456323968
  0
LINE
  5
37E
100
AcDbEntity
  8
0
100
AcDbLine
 62
7
  6
CONTINUOUS
 10
-46.7374244729
 20
23.9941821702
 11
-42.2345156072
 21
23.9679850128
  0
LINE
  5
37F
100
AcDbEntity
  8
0
100
AcDbLine
 62
253
  6
CONTINUOUS
 10
-47.7374244729
 20
24.2500042308
 11
-46.9859700401
 21
24.2456323968
  0
LINE
  5
380
100
AcDbEntity
  8
0
100
AcDbLine
 62
7
  6
CONTINUOUS
 10
-47.7374244729
 20
24.5
 11
-46.9859700401
 21
24.495628166
  0
LWPOLYLINE
  5
381
100
AcDbEntity
  8
0
100
AcDbPolyline
 62
7
  6
CONTINUOUS
 90
10
 70
0
 43
0.3500000006
 10
-45.8160023804
 20
46.3944079285
 10
-45.7445757294
 20
46.2515546265
 10
-45.7445757294
 20
46.1801234436
 10
-45.8874335632
 20
46.0372656097
 10
-45.9588602142
 20
46.0372656097
 10
-46.0302913971
 20
46.1086967926
 10
-46.0302913971
 20
46.1801234436
 10
-45.9588602142
 20
46.3229812775
 10
-45.8874335632
 20
46.3944079285
 10
-45.8160023804
 20
46.3944079285
  0
LWPOLYLINE
  5
382
100
AcDbEntity
  8
0
100
AcDbPolyline
 62
7
  6
CONTINUOUS
 90
6
 70
0
 43
0.3500000006
 10
-44.7445754242
 20
45.8944077759
 10
-43.673148468
 20
45.8944077759
 10
-43.4588594513
 20
46.1086967926
 10
-43.4588594513
 20
47.1801237488
 10
-43.8874329529
 20
47.6086972504
 10
-44.3160064545
 20
47.6086972504
  0
LWPOLYLINE
  5
383
100
AcDbEntity
  8
0
100
AcDbPolyline
 62
7
  6
CONTINUOUS
 90
7
 70
0
 43
0.3500000006
 10
-47.3160028381
 20
45.8944077759
 10
-48.8160032959
 20
45.8944077759
 10
-47.3160028381
 20
48.0372662201
 10
-47.3160028381
 20
48.4658397217
 10
-47.7445763397
 20
48.8944086914
 10
-48.3874343262
 20
48.8944086914
 10
-48.8160032959
 20
48.251550705
  0
LWPOLYLINE
  5
384
100
AcDbEntity
  8
0
100
AcDbPolyline
 62
7
  6
CONTINUOUS
 90
7
 70
0
 43
0.3500000006
 10
-49.6731457672
 20
45.8944077759
 10
-51.173146225
 20
45.8944077759
 10
-49.6731457672
 20
48.0372662201
 10
-49.6731457672
 20
48.4658397217
 10
-50.1017192688
 20
48.8944086914
 10
-50.7445772552
 20
48.8944086914
 10
-51.173146225
 20
48.251550705
  0
ARC
  5
385
100
AcDbEntity
  8
0
100
AcDbCircle
 62
253
  6
CONTINUOUS
 10
-11.25
 20
-239.3065306522
 40
229.3049819944
100
AcDbArc
 50
89.750133819
 51
90.2498661785
  0
ARC
  5
386
100
AcDbEntity
  8
0
100
AcDbCircle
 62
253
  6
CONTINUOUS
 10
-11.25
 20
-210.8992102603
 40
199.3974293133
100
AcDbArc
 50
89.7126541707
 51
90.2873458293
  0
ARC
  5
387
100
AcDbEntity
  8
DRAFT
100
AcDbCircle
 62
253
  6
CONTINUOUS
 10
-11.138228532
 20
-189.3845967338
 40
177.882525845
100
AcDbArc
 50
89.3135799396
 51
89.71390131
  0
ARC
  5
388
100
AcDbEntity
  8
0
100
AcDbCircle
 62
253
  6
CONTINUOUS
 10
-11.2500000001
 20
-189.3942329555
 40
176.39221973
100
AcDbArc
 50
89.6751817072
 51
90.3248182856
  0
ARC
  5
389
100
AcDbEntity
  8
DRAFT
100
AcDbCircle
 62
253
  6
CONTINUOUS
 10
-11.3828908483
 20
-187.297381166
 40
175.7952311672
100
AcDbArc
 50
90.2826123092
 51
90.6173181354
  0
ARC
  5
38A
100
AcDbEntity
  8
DRAFT
100
AcDbCircle
 62
253
  6
CONTINUOUS
 10
-11.1384311902
 20
-170.3907659608
 40
157.388425663
100
AcDbArc
 50
89.2248471829
 51
89.6765774805
  0
ARC
  5
38B
100
AcDbEntity
  8
RACCORDO
100
AcDbCircle
 62
253
  6
CONTINUOUS
 10
-18805.9886624735
 20
-0.0000010723
 40
18783.9889531405
100
AcDbArc
 50
359.936527375
 51
0.0634726316
  0
ARC
  5
38C
100
AcDbEntity
  8
DRAFT
100
AcDbCircle
 62
7
  6
CONTINUOUS
 10
-11.2916342124
 20
-12.9998980188
 40
1.0416343372
100
AcDbArc
 50
359.727734458
 51
0.0029826527
  0
ARC
  5
38D
100
AcDbEntity
  8
0
100
AcDbCircle
 62
7
  6
CONTINUOUS
 10
-11.2916342119
 20
-12.9998980188
 40
1.0416343367
100
AcDbArc
 50
359.7277344585
 51
0.0029826527
  0
ARC
  5
38E
100
AcDbEntity
  8
0
100
AcDbCircle
 62
7
  6
CONTINUOUS
 10
-11.2500122546
 20
-12.9999624605
 40
1.000021876
100
AcDbArc
 50
189.1494484713
 51
359.7200945688
  0
ARC
  5
38F
100
AcDbEntity
  8
DRAFT
100
AcDbCircle
 62
7
  6
CONTINUOUS
 10
-11.2500057672
 20
-9.9999957486
 40
1.0000003588
100
AcDbArc
 50
359.999213247
 51
180.0013454941
  0
ARC
  5
390
100
AcDbEntity
  8
DRAFT
100
AcDbCircle
 62
7
  6
CONTINUOUS
 10
-11.2500003575
 20
-12.9999999559
 40
1.0000001167
100
AcDbArc
 50
179.9922798336
 51
359.7222395383
  0
ARC
  5
391
100
AcDbEntity
  8
0
100
AcDbCircle
 62
7
  6
CONTINUOUS
 10
-11.2500011506
 20
-9.9999935589
 40
0.9999970104
100
AcDbArc
 50
0.8722470592
 51
179.0061487947
  0
ARC
  5
392
100
AcDbEntity
  8
0
100
AcDbCircle
 62
7
  6
CONTINUOUS
 10
-11.2611877575
 20
-13.0011803843
 40
0.9888073855
100
AcDbArc
 50
180.2125049028
 51
189.1827427423
  0
ARC
  5
393
100
AcDbEntity
  8
0
100
AcDbCircle
 62
7
  6
CONTINUOUS
 10
-11.2294288552
 20
-10.0000470816
 40
0.9794287771
100
AcDbArc
 50
359.7846020938
 51
0.8936980278
  0
ARC
  5
394
100
AcDbEntity
  8
0
100
AcDbCircle
 62
7
  6
CONTINUOUS
 10
-11.2742260359
 20
-10.0000591011
 40
0.9757738569
100
AcDbArc
 50
178.9776284079
 51
180.2154989475
  0
ARC
  5
395
100
AcDbEntity
  8
RACCORDO
100
AcDbCircle
 62
253
  6
CONTINUOUS
 10
-21.5288343684
 20
21.4788343684
 40
0.5002656624
100
AcDbArc
 50
90.0496656811
 51
179.9503343189
  0
ARC
  5
396
100
AcDbEntity
  8
RACCORDO
100
AcDbCircle
 62
253
  6
CONTINUOUS
 10
-21.5288343653
 20
-21.4788343653
 40
0.5002656608
100
AcDbArc
 50
180.0496655041
 51
269.9503344959
  0
ARC
  5
397
100
AcDbEntity
  8
RACCORDO
100
AcDbCircle
 62
253
  6
CONTINUOUS
 10
21.5288343683
 20
-21.4788343683
 40
0.5002656624
100
AcDbArc
 50
270.0496656851
 51
359.9503343149
  0
ARC
  5
398
100
AcDbEntity
  8
0
100
AcDbCircle
 62
7
  6
CONTINUOUS
 10
0.5995569311
 20
-21.9000011659
 40
0.5000001395
100
AcDbArc
 50
203.5781171788
 51
270.0536060974
  0
ARC
  5
399
100
AcDbEntity
  8
0
100
AcDbCircle
 62
7
  6
CONTINUOUS
 10
7.25
 20
-23.15
 40
0.5
100
AcDbArc
 50
154.1580672368
 51
205.8419327632
  0
ARC
  5
39A
100
AcDbEntity
  8
0
100
AcDbCircle
 62
7
  6
CONTINUOUS
 10
15.25
 20
-23.15
 40
0.5
100
AcDbArc
 50
334.1580672368
 51
25.8419327632
  0
ARC
  5
39B
100
AcDbEntity
  8
0
100
AcDbCircle
 62
7
  6
CONTINUOUS
 10
21.9004528417
 20
-21.9000167264
 40
0.4999835017
100
AcDbArc
 50
269.9452723311
 51
359.9999774666
  0
ARC
  5
39C
100
AcDbEntity
  8
0
100
AcDbCircle
 62
7
  6
CONTINUOUS
 10
0.6005556525
 20
-21.900507654
 40
0.4994968435
100
AcDbArc
 50
203.5395254781
 51
269.939099136
  0
ARC
  5
39D
100
AcDbEntity
  8
0
100
AcDbCircle
 62
253
  6
CONTINUOUS
 10
1.3631051967
 20
-24.2368948033
 40
0.2500066182
100
AcDbArc
 50
180.0024862874
 51
269.9975137126
  0
ARC
  5
39E
100
AcDbEntity
  8
0
100
AcDbCircle
 62
253
  6
CONTINUOUS
 10
3.7368948038
 20
-24.2368948038
 40
0.2500066177
100
AcDbArc
 50
270.0024861811
 51
359.9975138189
  0
ARC
  5
39F
100
AcDbEntity
  8
0
100
AcDbCircle
 62
253
  6
CONTINUOUS
 10
18.7631051962
 20
-24.2368948038
 40
0.2500066177
100
AcDbArc
 50
180.0024861811
 51
269.9975138189
  0
ARC
  5
3A0
100
AcDbEntity
  8
0
100
AcDbCircle
 62
253
  6
CONTINUOUS
 10
21.1368948038
 20
-24.2368948038
 40
0.2500066177
100
AcDbArc
 50
270.0024861811
 51
359.9975138189
  0
ARC
  5
3A1
100
AcDbEntity
  8
0
100
AcDbCircle
 62
7
  6
CONTINUOUS
 10
1.3499946513
 20
-24.2500053487
 40
0.2499946513
100
AcDbArc
 50
179.9997437926
 51
270.0002562074
  0
ARC
  5
3A2
100
AcDbEntity
  8
0
100
AcDbCircle
 62
7
  6
CONTINUOUS
 10
3.7500053487
 20
-24.2500053487
 40
0.2499946513
100
AcDbArc
 50
269.9997437926
 51
0.0002562074
  0
ARC
  5
3A3
100
AcDbEntity
  8
0
100
AcDbCircle
 62
7
  6
CONTINUOUS
 10
18.7499946513
 20
-24.2500053487
 40
0.2499946513
100
AcDbArc
 50
179.9997437926
 51
270.0002562074
  0
ARC
  5
3A4
100
AcDbEntity
  8
0
100
AcDbCircle
 62
7
  6
CONTINUOUS
 10
21.1500053487
 20
-24.2500053487
 40
0.2499946513
100
AcDbArc
 50
269.9997437926
 51
0.0002562074
  0
ARC
  5
3A5
100
AcDbEntity
  8
0
100
AcDbCircle
 62
7
  6
CONTINUOUS
 10
10.0500011808
 20
-23.7982490665
 40
0.1999988152
100
AcDbArc
 50
269.9996617127
 51
359.4995522505
  0
ARC
  5
3A6
100
AcDbEntity
  8
0
100
AcDbCircle
 62
253
  6
CONTINUOUS
 10
12.4499988189
 20
-23.7982490669
 40
0.1999988149
100
AcDbArc
 50
180.5004468359
 51
270.0003383609
  0
ARC
  5
3A7
100
AcDbEntity
  8
0
100
AcDbCircle
 62
7
  6
CONTINUOUS
 10
10.050117554
 20
-23.7999934169
 40
0.1998824461
100
AcDbArc
 50
270.002881872
 51
359.9990831779
  0
ARC
  5
3A8
100
AcDbEntity
  8
0
100
AcDbCircle
 62
7
  6
CONTINUOUS
 10
12.449882446
 20
-23.7999934169
 40
0.1998824461
100
AcDbArc
 50
180.0009168221
 51
269.999564761
  0
ARC
  5
3A9
100
AcDbEntity
  8
0
100
AcDbCircle
 62
7
  6
CONTINUOUS
 10
10.0505705535
 20
-23.7982511033
 40
0.1994294465
100
AcDbArc
 50
359.4987086161
 51
359.9999531425
  0
ARC
  5
3AA
100
AcDbEntity
  8
0
100
AcDbCircle
 62
253
  6
CONTINUOUS
 10
12.4494270287
 20
-23.7982511029
 40
0.1994270287
100
AcDbArc
 50
180.0000469726
 51
180.5012967614
  0
ARC
  5
3AB
100
AcDbEntity
  8
RACCORDO
100
AcDbCircle
 62
253
  6
CONTINUOUS
 10
21.5288343653
 20
21.4788343653
 40
0.5002656608
100
AcDbArc
 50
0.0496655037
 51
89.9503344963
  0
ARC
  5
3AC
100
AcDbEntity
  8
0
100
AcDbCircle
 62
7
  6
CONTINUOUS
 10
15.25
 20
23.15
 40
0.5
100
AcDbArc
 50
334.1580672368
 51
25.8419327632
  0
ARC
  5
3AD
100
AcDbEntity
  8
0
100
AcDbCircle
 62
7
  6
CONTINUOUS
 10
7.25
 20
23.15
 40
0.5
100
AcDbArc
 50
154.1580672368
 51
205.8419327632
  0
ARC
  5
3AE
100
AcDbEntity
  8
0
100
AcDbCircle
 62
7
  6
CONTINUOUS
 10
0.5995502697
 20
21.9000113415
 40
0.4999888836
100
AcDbArc
 50
89.9456294642
 51
156.4226461915
  0
ARC
  5
3AF
100
AcDbEntity
  8
0
100
AcDbCircle
 62
7
  6
CONTINUOUS
 10
21.9004528417
 20
21.9000167264
 40
0.4999835017
100
AcDbArc
 50
0.0000225334
 51
90.0547276814
  0
ARC
  5
3B0
100
AcDbEntity
  8
0
100
AcDbCircle
 62
7
  6
CONTINUOUS
 10
0.600555721
 20
21.9005075496
 40
0.4994968435
100
AcDbArc
 50
90.0609087188
 51
156.4604666798
  0
ARC
  5
3B1
100
AcDbEntity
  8
0
100
AcDbCircle
 62
253
  6
CONTINUOUS
 10
1.3631051967
 20
24.2368948033
 40
0.2500066182
100
AcDbArc
 50
90.0024862874
 51
179.9975137126
  0
ARC
  5
3B2
100
AcDbEntity
  8
0
100
AcDbCircle
 62
253
  6
CONTINUOUS
 10
3.7368948033
 20
24.2368948033
 40
0.2500066182
100
AcDbArc
 50
0.0024862874
 51
89.9975137126
  0
ARC
  5
3B3
100
AcDbEntity
  8
0
100
AcDbCircle
 62
253
  6
CONTINUOUS
 10
21.1368948038
 20
24.2368948038
 40
0.2500066177
100
AcDbArc
 50
0.0024861811
 51
89.9975138189
  0
ARC
  5
3B4
100
AcDbEntity
  8
0
100
AcDbCircle
 62
253
  6
CONTINUOUS
 10
18.7631051962
 20
24.2368948038
 40
0.2500066177
100
AcDbArc
 50
90.0024861811
 51
179.9975138189
  0
ARC
  5
3B5
100
AcDbEntity
  8
0
100
AcDbCircle
 62
7
  6
CONTINUOUS
 10
1.3499946513
 20
24.2500053487
 40
0.2499946513
100
AcDbArc
 50
89.9997437926
 51
180.0002562074
  0
ARC
  5
3B6
100
AcDbEntity
  8
0
100
AcDbCircle
 62
7
  6
CONTINUOUS
 10
3.7500053487
 20
24.2500053487
 40
0.2499946513
100
AcDbArc
 50
359.9997437926
 51
90.0002562074
  0
ARC
  5
3B7
100
AcDbEntity
  8
0
100
AcDbCircle
 62
7
  6
CONTINUOUS
 10
21.1500053487
 20
24.2500053487
 40
0.2499946513
100
AcDbArc
 50
359.9997437926
 51
90.0002562074
  0
ARC
  5
3B8
100
AcDbEntity
  8
0
100
AcDbCircle
 62
7
  6
CONTINUOUS
 10
18.7499946513
 20
24.2500053487
 40
0.2499946513
100
AcDbArc
 50
89.9997437926
 51
180.0002562074
  0
ARC
  5
3B9
100
AcDbEntity
  8
0
100
AcDbCircle
 62
7
  6
CONTINUOUS
 10
12.4499988192
 20
23.7982490665
 40
0.1999988152
100
AcDbArc
 50
89.9996617127
 51
179.4995522505
  0
ARC
  5
3BA
100
AcDbEntity
  8
0
100
AcDbCircle
 62
253
  6
CONTINUOUS
 10
10.0500011811
 20
23.7982490669
 40
0.1999988149
100
AcDbArc
 50
0.5004468359
 51
90.0003383609
  0
ARC
  5
3BB
100
AcDbEntity
  8
0
100
AcDbCircle
 62
7
  6
CONTINUOUS
 10
10.050117554
 20
23.7999934169
 40
0.1998824461
100
AcDbArc
 50
0.0009168221
 51
89.999564761
  0
ARC
  5
3BC
100
AcDbEntity
  8
0
100
AcDbCircle
 62
7
  6
CONTINUOUS
 10
12.449882446
 20
23.7999934169
 40
0.1998824461
100
AcDbArc
 50
90.0028818721
 51
179.9990831779
  0
ARC
  5
3BD
100
AcDbEntity
  8
0
100
AcDbCircle
 62
7
  6
CONTINUOUS
 10
12.4494294465
 20
23.7982511033
 40
0.1994294465
100
AcDbArc
 50
179.4987086161
 51
179.9999531425
  0
ARC
  5
3BE
100
AcDbEntity
  8
0
100
AcDbCircle
 62
253
  6
CONTINUOUS
 10
10.0505729713
 20
23.7982511029
 40
0.1994270287
100
AcDbArc
 50
0.0000469726
 51
0.5012967614
  0
ARC
  5
3BF
100
AcDbEntity
  8
RACCORDO
100
AcDbCircle
 62
253
  6
CONTINUOUS
 10
18805.988700768
 20
0.000001061
 40
18783.988991435
100
AcDbArc
 50
179.9365273751
 51
180.0634726314
  0
ARC
  5
3C0
100
AcDbEntity
  8
RACCORDO
100
AcDbCircle
 62
7
  6
CONTINUOUS
 10
-55.9234720873
 20
-20.7790432879
 40
1.2004339324
100
AcDbArc
 50
182.4388192563
 51
268.5171926235
  0
ARC
  5
3C1
100
AcDbEntity
  8
RACCORDO
100
AcDbCircle
 62
7
  6
CONTINUOUS
 10
-56.2962068822
 20
-20.7697383618
 40
1.2
100
AcDbArc
 50
182.985352181
 51
268.5
  0
ARC
  5
3C2
100
AcDbEntity
  8
0
100
AcDbCircle
 62
7
  6
CONTINUOUS
 10
-36.7374244729
 20
-21.3359869487
 40
1.0
100
AcDbArc
 50
270.3333333333
 51
360.0
  0
ARC
  5
3C3
100
AcDbEntity
  8
RACCORDO
100
AcDbCircle
 62
253
  6
CONTINUOUS
 10
-55.9367060543
 20
-20.7788612702
 40
0.7006022527
100
AcDbArc
 50
182.4671148564
 51
268.5417411289
  0
ARC
  5
3C4
100
AcDbEntity
  8
0
100
AcDbCircle
 62
7
  6
CONTINUOUS
 10
-42.2374244729
 20
-23.4679934743
 40
0.5
100
AcDbArc
 50
270.3333333333
 51
360.0
  0
ARC
  5
3C5
100
AcDbEntity
  8
0
100
AcDbCircle
 62
7
  6
CONTINUOUS
 10
-49.9874244729
 20
-24.2369056521
 40
0.25
100
AcDbArc
 50
180.0
 51
269.6666666667
  0
ARC
  5
3C6
100
AcDbEntity
  8
0
100
AcDbCircle
 62
7
  6
CONTINUOUS
 10
-46.9874244729
 20
-24.2456323968
 40
0.25
100
AcDbArc
 50
270.3333333333
 51
360.0
  0
ARC
  5
3C7
100
AcDbEntity
  8
0
100
AcDbCircle
 62
7
  6
CONTINUOUS
 10
-49.9874244729
 20
-23.8443375673
 40
0.25
100
AcDbArc
 50
120.0
 51
180.0
  0
ARC
  5
3C8
100
AcDbEntity
  8
0
100
AcDbCircle
 62
7
  6
CONTINUOUS
 10
-46.9874244729
 20
-23.8443375673
 40
0.25
100
AcDbArc
 50
0.0
 51
60.0
  0
ARC
  5
3C9
100
AcDbEntity
  8
RACCORDO
100
AcDbCircle
 62
7
  6
CONTINUOUS
 10
-35.9374244729
 20
-19.9942577878
 40
0.2
100
AcDbArc
 50
0.0
 51
89.5
  0
ARC
  5
3CA
100
AcDbEntity
  8
RACCORDO
100
AcDbCircle
 62
7
  6
CONTINUOUS
 10
-35.9374244729
 20
-18.7400415081
 40
0.2
100
AcDbArc
 50
0.0
 51
69.9999998795
  0
ARC
  5
3CB
100
AcDbEntity
  8
RACCORDO
100
AcDbCircle
 62
7
  6
CONTINUOUS
 10
-55.9234723921
 20
20.7790434108
 40
1.2004339345
100
AcDbArc
 50
91.4828013703
 51
177.5611864362
  0
ARC
  5
3CC
100
AcDbEntity
  8
RACCORDO
100
AcDbCircle
 62
7
  6
CONTINUOUS
 10
-56.2962068743
 20
20.769738362
 40
1.2
100
AcDbArc
 50
91.5
 51
177.0146478186
  0
ARC
  5
3CD
100
AcDbEntity
  8
0
100
AcDbCircle
 62
7
  6
CONTINUOUS
 10
-36.7374244729
 20
21.3359869487
 40
1.0
100
AcDbArc
 50
0.0
 51
89.6666666667
  0
ARC
  5
3CE
100
AcDbEntity
  8
RACCORDO
100
AcDbCircle
 62
253
  6
CONTINUOUS
 10
-55.9367063202
 20
20.7788614231
 40
0.7006020866
100
AcDbArc
 50
91.4582518153
 51
177.5328977311
  0
ARC
  5
3CF
100
AcDbEntity
  8
0
100
AcDbCircle
 62
7
  6
CONTINUOUS
 10
-42.2374244729
 20
23.4679934743
 40
0.5
100
AcDbArc
 50
0.0
 51
89.6666666667
  0
ARC
  5
3D0
100
AcDbEntity
  8
0
100
AcDbCircle
 62
7
  6
CONTINUOUS
 10
-49.9874244729
 20
24.2369056521
 40
0.25
100
AcDbArc
 50
90.3333333333
 51
180.0
  0
ARC
  5
3D1
100
AcDbEntity
  8
0
100
AcDbCircle
 62
7
  6
CONTINUOUS
 10
-46.9874244729
 20
24.2456323968
 40
0.25
100
AcDbArc
 50
0.0
 51
89.6666666667
  0
ARC
  5
3D2
100
AcDbEntity
  8
0
100
AcDbCircle
 62
7
  6
CONTINUOUS
 10
-46.9874244729
 20
23.8443375673
 40
0.25
100
AcDbArc
 50
300.0
 51
360.0
  0
ARC
  5
3D3
100
AcDbEntity
  8
0
100
AcDbCircle
 62
7
  6
CONTINUOUS
 10
-49.9874244729
 20
23.8443375673
 40
0.25
100
AcDbArc
 50
180.0
 51
240.0
  0
ARC
  5
3D4
100
AcDbEntity
  8
RACCORDO
100
AcDbCircle
 62
7
  6
CONTINUOUS
 10
-35.9374244729
 20
18.7400415081
 40
0.2
100
AcDbArc
 50
290.0000001205
 51
360.0
  0
ARC
  5
3D5
100
AcDbEntity
  8
RACCORDO
100
AcDbCircle
 62
7
  6
CONTINUOUS
 10
-35.9374244729
 20
19.9942577878
 40
0.2
100
AcDbArc
 50
270.5
 51
360.0
  0
ARC
  5
3D6
100
AcDbEntity
  8
RACCORDO
100
AcDbCircle
 62
253
  6
CONTINUOUS
 10
435.266392603
 20
-0.0000000008
 40
492.829590573
100
AcDbArc
 50
177.5775930742
 51
182.4224069267
  0
ARC
  5
3D7
100
AcDbEntity
  8
RACCORDO
100
AcDbCircle
 62
253
  6
CONTINUOUS
 10
435.0439553389
 20
0.0000010606
 40
492.12072669
100
AcDbArc
 50
177.5765612876
 51
182.4234389606
  0
LINE
  5
3D8
100
AcDbEntity
  8
0
100
AcDbLine
 62
7
  6
CONTINUOUS
 10
-12.25
 20
-11.5042885177
 11
-12.2499999995
 21
-10.9925357906
  0
LINE
  5
3D9
100
AcDbEntity
  8
0
100
AcDbLine
 62
7
  6
CONTINUOUS
 10
-12.2499999995
 20
-10.9925357906
 11
-12.2500000011
 21
-10.4914071978
  0
LINE
  5
3DA
100
AcDbEntity
  8
0
100
AcDbLine
 62
7
  6
CONTINUOUS
 10
-12.2500000011
 20
-10.4914071978
 11
-12.249999913
 21
-10.0000192315
  0
LINE
  5
3DB
100
AcDbEntity
  8
0
100
AcDbLine
 62
7
  6
CONTINUOUS
 10
-12.2500000928
 20
-12.9998652122
 11
-12.2499999986
 21
-12.5145885968
  0
LINE
  5
3DC
100
AcDbEntity
  8
0
100
AcDbLine
 62
7
  6
CONTINUOUS
 10
-12.2499999986
 20
-12.5145885968
 11
-12.2500000008
 21
-12.0159963866
  0
LINE
  5
3DD
100
AcDbEntity
  8
0
100
AcDbLine
 62
7
  6
CONTINUOUS
 10
-12.2500000008
 20
-12.0159963866
 11
-12.25
 21
-11.5042885177
  0
LINE
  5
3DE
100
AcDbEntity
  8
0
100
AcDbLine
 62
7
  6
CONTINUOUS
 10
-10.25
 20
-11.5042885177
 11
-10.2499999993
 21
-12.0150421208
  0
LINE
  5
3DF
100
AcDbEntity
  8
0
100
AcDbLine
 62
7
  6
CONTINUOUS
 10
-10.2499999993
 20
-12.0150421208
 11
-10.2500000012
 21
-12.5131400144
  0
LINE
  5
3E0
100
AcDbEntity
  8
0
100
AcDbLine
 62
7
  6
CONTINUOUS
 10
-10.2500000012
 20
-12.5131400144
 11
-10.25
 21
-12.9998437171
  0
LINE
  5
3E1
100
AcDbEntity
  8
0
100
AcDbLine
 62
7
  6
CONTINUOUS
 10
-10.2500000872
 20
-10.0000094798
 11
-10.2499999989
 21
-10.4913056735
  0
LINE
  5
3E2
100
AcDbEntity
  8
0
100
AcDbLine
 62
7
  6
CONTINUOUS
 10
-10.2499999989
 20
-10.4913056735
 11
-10.2500000005
 21
-10.9924582001
  0
LINE
  5
3E3
100
AcDbEntity
  8
0
100
AcDbLine
 62
7
  6
CONTINUOUS
 10
-10.2500000005
 20
-10.9924582001
 11
-10.25
 21
-11.5042885177
  0
SPLINE
  5
3E4
100
AcDbEntity
  8
0
100
AcDbSpline
 62
7
  6
CONTINUOUS
 70
0
 71
3
 72
15
 73
11
 74
9
 42
0.0000001
 43
0.0000001
 44
0.0000000001
 12
-0.3142908459
 22
0.0
 32
0.0
 13
-0.0031667975
 23
-0.3142748912
 33
0.0
 40
0.0
 40
0.0
 40
0.0
 40
0.0
 40
0.1666133779
 40
0.3262255844
 40
0.4735308137
 40
0.6056575217
 40
0.7220676483
 40
0.8241942131
 40
0.9152281509
 40
1.0
 40
1.0
 40
1.0
 40
1.0
 10
18.7572765181
 20
-23.1226497308
 30
0.0
 10
18.7398214983
 20
-23.1226497308
 30
0.0
 10
18.7056143071
 20
-23.124909705
 30
0.0
 10
18.6567379054
 20
-23.1340775763
 30
0.0
 10
18.6128964939
 20
-23.1484769636
 30
0.0
 10
18.5756538233
 20
-23.1671011817
 30
0.0
 10
18.5459014951
 20
-23.1890111222
 30
0.0
 10
18.5241049702
 20
-23.2134107396
 30
0.0
 10
18.5106013159
 20
-23.239611024
 30
0.0
 10
18.507370234
 20
-23.2581067436
 30
0.0
 10
18.5072807489
 20
-23.2669872981
 30
0.0
 11
18.7572765181
 21
-23.1226497308
 31
0.0
 11
18.7050197825
 21
-23.126016189
 31
0.0
 11
18.6557465543
 21
-23.1354311576
 31
0.0
 11
18.6118290218
 21
-23.1500815293
 31
0.0
 11
18.5748240789
 21
-23.1689245842
 31
0.0
 11
18.5455848197
 21
-23.1909165769
 31
0.0
 11
18.5245022864
 21
-23.215119319
 31
0.0
 11
18.5117209903
 21
-23.2407168857
 31
0.0
 11
18.5072807489
 21
-23.2669872981
 31
0.0
  0
SPLINE
  5
3E5
100
AcDbEntity
  8
0
100
AcDbSpline
 62
253
  6
CONTINUOUS
 70
0
 71
3
 72
13
 73
9
 74
7
 42
0.0000001
 43
0.0000001
 44
0.0000000001
 12
-0.0012265944
 22
0.3651869709
 32
0.0
 13
-0.3651878721
 23
0.0009199792
 33
0.0
 40
0.0
 40
0.0
 40
0.0
 40
0.0
 40
0.1162394899
 40
0.2339784923
 40
0.3543712679
 40
0.4780982409
 40
0.7345378657
 40
1.0
 40
1.0
 40
1.0
 40
1.0
 10
21.3869014213
 20
-23.8443375673
 30
0.0
 10
21.386853895
 20
-23.8301878516
 30
0.0
 10
21.3834953604
 20
-23.8016148337
 30
0.0
 10
21.3689387735
 20
-23.7606544968
 30
0.0
 10
21.3454679002
 20
-23.7229827139
 30
0.0
 10
21.3031651734
 20
-23.6786209789
 30
0.0
 10
21.2332389055
 20
-23.6387867994
 30
0.0
 10
21.1692201694
 20
-23.6279126229
 30
0.0
 10
21.1369056521
 20
-23.6278312164
 30
0.0
 11
21.3869014213
 21
-23.8443375673
 31
0.0
 11
21.3819736932
 21
-23.8021751679
 31
0.0
 11
21.3676631905
 21
-23.7616295042
 31
0.0
 11
21.3445175227
 21
-23.7242490565
 31
0.0
 11
21.3134226207
 21
-23.6914667926
 31
0.0
 11
21.2324070684
 21
-23.6444922901
 31
0.0
 11
21.1369056521
 21
-23.6278312164
 31
0.0
  0
SPLINE
  5
3E6
100
AcDbEntity
  8
0
100
AcDbSpline
 62
7
  6
CONTINUOUS
 70
0
 71
3
 72
15
 73
11
 74
9
 42
0.0000001
 43
0.0000001
 44
0.0000000001
 12
-0.0031741039
 22
0.3149999784
 32
0.0
 13
-0.3150159699
 23
0.0
 33
0.0
 40
0.0
 40
0.0
 40
0.0
 40
0.0
 40
0.0847246382
 40
0.1757279367
 40
0.2778501555
 40
0.3942839058
 40
0.5264550939
 40
0.6738071548
 40
0.8334364544
 40
1.0
 40
1.0
 40
1.0
 40
1.0
 10
21.3927192511
 20
-23.2669872981
 30
0.0
 10
21.3926296095
 20
-23.2580912117
 30
0.0
 10
21.3893868205
 20
-23.2395608029
 30
0.0
 10
21.3758354299
 20
-23.2133174142
 30
0.0
 10
21.353963985
 20
-23.1888844894
 30
0.0
 10
21.324111924
 20
-23.1669547435
 30
0.0
 10
21.286749193
 20
-23.1483274499
 30
0.0
 10
21.2427765878
 20
-23.133953471
 30
0.0
 10
21.1937730071
 20
-23.1248150691
 30
0.0
 10
21.1594863121
 20
-23.1226497308
 30
0.0
 10
21.1419962532
 20
-23.1226497308
 30
0.0
 11
21.3927192511
 21
-23.2669872981
 31
0.0
 11
21.3882641974
 21
-23.2406721314
 31
0.0
 11
21.3754394165
 21
-23.2150332915
 31
0.0
 11
21.3542850888
 21
-23.1907967144
 31
0.0
 11
21.3249472239
 21
-23.1687830511
 31
0.0
 11
21.2878210631
 21
-23.1499360992
 31
0.0
 11
21.2437688409
 21
-23.1353054509
 31
0.0
 11
21.1943633026
 21
-23.1259378303
 31
0.0
 11
21.1419962532
 21
-23.1226497308
 31
0.0
  0
SPLINE
  5
3E7
100
AcDbEntity
  8
0
100
AcDbSpline
 62
253
  6
CONTINUOUS
 70
0
 71
3
 72
13
 73
9
 74
7
 42
0.0000001
 43
0.0000001
 44
0.0000000001
 12
0.0012265944
 22
0.3651869708
 32
0.0
 13
0.3651878719
 23
0.0009199792
 33
0.0
 40
0.0
 40
0.0
 40
0.0
 40
0.0
 40
0.1162394861
 40
0.2339784844
 40
0.3543712552
 40
0.4780982232
 40
0.7345378384
 40
1.0
 40
1.0
 40
1.0
 40
1.0
 10
18.5130985787
 20
-23.8443375673
 30
0.0
 10
18.5131461049
 20
-23.830187852
 30
0.0
 10
18.5165046394
 20
-23.8016148352
 30
0.0
 10
18.5310612251
 20
-23.7606544996
 30
0.0
 10
18.5545320971
 20
-23.7229827179
 30
0.0
 10
18.5968348209
 20
-23.6786209833
 30
0.0
 10
18.666761089
 20
-23.6387868014
 30
0.0
 10
18.7307798273
 20
-23.6279126229
 30
0.0
 10
18.7630943479
 20
-23.6278312164
 30
0.0
 11
18.5130985787
 21
-23.8443375673
 31
0.0
 11
18.5180263065
 21
-23.8021751692
 31
0.0
 11
18.5323368081
 21
-23.7616295068
 31
0.0
 11
18.5554824744
 21
-23.7242490603
 31
0.0
 11
18.5865773743
 21
-23.6914667969
 31
0.0
 11
18.6675929221
 21
-23.6444922937
 31
0.0
 11
18.7630943479
 21
-23.6278312164
 31
0.0
  0
SPLINE
  5
3E8
100
AcDbEntity
  8
0
100
AcDbSpline
 62
253
  6
CONTINUOUS
 70
0
 71
3
 72
13
 73
9
 74
7
 42
0.0000001
 43
0.0000001
 44
0.0000000001
 12
-0.0012265944
 22
0.3651869708
 32
0.0
 13
-0.3651878719
 23
0.0009199792
 33
0.0
 40
0.0
 40
0.0
 40
0.0
 40
0.0
 40
0.1162394861
 40
0.2339784844
 40
0.3543712552
 40
0.4780982232
 40
0.7345378384
 40
1.0
 40
1.0
 40
1.0
 40
1.0
 10
3.9869014213
 20
-23.8443375673
 30
0.0
 10
3.9868538951
 20
-23.830187852
 30
0.0
 10
3.9834953606
 20
-23.8016148352
 30
0.0
 10
3.9689387749
 20
-23.7606544996
 30
0.0
 10
3.9454679029
 20
-23.7229827179
 30
0.0
 10
3.9031651791
 20
-23.6786209833
 30
0.0
 10
3.833238911
 20
-23.6387868014
 30
0.0
 10
3.7692201727
 20
-23.6279126229
 30
0.0
 10
3.7369056521
 20
-23.6278312164
 30
0.0
 11
3.9869014213
 21
-23.8443375673
 31
0.0
 11
3.9819736935
 21
-23.8021751692
 31
0.0
 11
3.9676631919
 21
-23.7616295068
 31
0.0
 11
3.9445175256
 21
-23.7242490603
 31
0.0
 11
3.9134226257
 21
-23.6914667969
 31
0.0
 11
3.8324070779
 21
-23.6444922937
 31
0.0
 11
3.7369056521
 21
-23.6278312164
 31
0.0
  0
SPLINE
  5
3E9
100
AcDbEntity
  8
0
100
AcDbSpline
 62
7
  6
CONTINUOUS
 70
0
 71
3
 72
15
 73
11
 74
9
 42
0.0000001
 43
0.0000001
 44
0.0000000001
 12
-0.0031741039
 22
0.3149999784
 32
0.0
 13
-0.3150159699
 23
-0.0
 33
0.0
 40
0.0
 40
0.0
 40
0.0
 40
0.0
 40
0.0847246382
 40
0.1757279367
 40
0.2778501555
 40
0.3942839058
 40
0.5264550939
 40
0.6738071548
 40
0.8334364544
 40
1.0
 40
1.0
 40
1.0
 40
1.0
 10
3.9927192511
 20
-23.2669872981
 30
0.0
 10
3.9926296095
 20
-23.2580912117
 30
0.0
 10
3.9893868205
 20
-23.2395608029
 30
0.0
 10
3.9758354299
 20
-23.2133174142
 30
0.0
 10
3.953963985
 20
-23.1888844894
 30
0.0
 10
3.924111924
 20
-23.1669547435
 30
0.0
 10
3.886749193
 20
-23.1483274499
 30
0.0
 10
3.8427765878
 20
-23.133953471
 30
0.0
 10
3.7937730071
 20
-23.1248150691
 30
0.0
 10
3.7594863121
 20
-23.1226497308
 30
0.0
 10
3.7419962532
 20
-23.1226497308
 30
0.0
 11
3.9927192511
 21
-23.2669872981
 31
0.0
 11
3.9882641974
 21
-23.2406721314
 31
0.0
 11
3.9754394165
 21
-23.2150332915
 31
0.0
 11
3.9542850888
 21
-23.1907967144
 31
0.0
 11
3.9249472239
 21
-23.1687830511
 31
0.0
 11
3.8878210631
 21
-23.1499360992
 31
0.0
 11
3.8437688409
 21
-23.1353054509
 31
0.0
 11
3.7943633026
 21
-23.1259378303
 31
0.0
 11
3.7419962532
 21
-23.1226497308
 31
0.0
  0
SPLINE
  5
3EA
100
AcDbEntity
  8
0
100
AcDbSpline
 62
7
  6
CONTINUOUS
 70
0
 71
3
 72
15
 73
11
 74
9
 42
0.0000001
 43
0.0000001
 44
0.0000000001
 12
0.0031741039
 22
0.3149999784
 32
0.0
 13
0.3150159699
 23
0.0
 33
0.0
 40
0.0
 40
0.0
 40
0.0
 40
0.0
 40
0.0847246382
 40
0.1757279367
 40
0.2778501555
 40
0.3942839058
 40
0.5264550939
 40
0.6738071548
 40
0.8334364544
 40
1.0
 40
1.0
 40
1.0
 40
1.0
 10
1.1072807489
 20
-23.2669872981
 30
0.0
 10
1.1073703905
 20
-23.2580912117
 30
0.0
 10
1.1106131795
 20
-23.2395608029
 30
0.0
 10
1.1241645701
 20
-23.2133174142
 30
0.0
 10
1.146036015
 20
-23.1888844894
 30
0.0
 10
1.175888076
 20
-23.1669547435
 30
0.0
 10
1.213250807
 20
-23.1483274499
 30
0.0
 10
1.2572234122
 20
-23.133953471
 30
0.0
 10
1.3062269929
 20
-23.1248150691
 30
0.0
 10
1.3405136879
 20
-23.1226497308
 30
0.0
 10
1.3580037468
 20
-23.1226497308
 30
0.0
 11
1.1072807489
 21
-23.2669872981
 31
0.0
 11
1.1117358026
 21
-23.2406721314
 31
0.0
 11
1.1245605835
 21
-23.2150332915
 31
0.0
 11
1.1457149112
 21
-23.1907967144
 31
0.0
 11
1.1750527761
 21
-23.1687830511
 31
0.0
 11
1.2121789369
 21
-23.1499360992
 31
0.0
 11
1.2562311591
 21
-23.1353054509
 31
0.0
 11
1.3056366974
 21
-23.1259378303
 31
0.0
 11
1.3580037468
 21
-23.1226497308
 31
0.0
  0
SPLINE
  5
3EB
100
AcDbEntity
  8
0
100
AcDbSpline
 62
253
  6
CONTINUOUS
 70
0
 71
3
 72
13
 73
9
 74
7
 42
0.0000001
 43
0.0000001
 44
0.0000000001
 12
0.0012265943
 22
0.3651869702
 32
0.0
 13
0.3651878714
 23
0.0009199792
 33
0.0
 40
0.0
 40
0.0
 40
0.0
 40
0.0
 40
0.1162393822
 40
0.2339783947
 40
0.3543711753
 40
0.4780981573
 40
0.7345378061
 40
1.0
 40
1.0
 40
1.0
 40
1.0
 10
1.1130985787
 20
-23.8443375673
 30
0.0
 10
1.1131461049
 20
-23.8301878647
 30
0.0
 10
1.1165046379
 20
-23.8016148597
 30
0.0
 10
1.1310612078
 20
-23.7606545287
 30
0.0
 10
1.15453208
 20
-23.7229827412
 30
0.0
 10
1.1968348019
 20
-23.6786209956
 30
0.0
 10
1.2667610773
 20
-23.6387868046
 30
0.0
 10
1.3307798234
 20
-23.6279126229
 30
0.0
 10
1.3630943479
 20
-23.6278312164
 30
0.0
 11
1.1130985787
 21
-23.8443375673
 31
0.0
 11
1.1180262991
 21
-23.8021752067
 31
0.0
 11
1.132336793
 21
-23.761629536
 31
0.0
 11
1.1554824567
 21
-23.7242490838
 31
0.0
 11
1.186577356
 21
-23.6914668129
 31
0.0
 11
1.267592911
 21
-23.644492298
 31
0.0
 11
1.3630943479
 21
-23.6278312164
 31
0.0
  0
SPLINE
  5
3EC
100
AcDbEntity
  8
0
100
AcDbSpline
 62
253
  6
CONTINUOUS
 70
0
 71
3
 72
13
 73
9
 74
7
 42
0.0000001
 43
0.0000001
 44
0.0000000001
 12
0.0012265944
 22
-0.3651869708
 32
0.0
 13
0.3651878719
 23
-0.0009199792
 33
0.0
 40
0.0
 40
0.0
 40
0.0
 40
0.0
 40
0.1162394861
 40
0.2339784844
 40
0.3543712552
 40
0.4780982232
 40
0.7345378384
 40
1.0
 40
1.0
 40
1.0
 40
1.0
 10
1.1130985787
 20
23.8443375673
 30
0.0
 10
1.1131461049
 20
23.830187852
 30
0.0
 10
1.1165046394
 20
23.8016148352
 30
0.0
 10
1.1310612251
 20
23.7606544996
 30
0.0
 10
1.1545320971
 20
23.7229827179
 30
0.0
 10
1.1968348209
 20
23.6786209833
 30
0.0
 10
1.266761089
 20
23.6387868014
 30
0.0
 10
1.3307798273
 20
23.6279126229
 30
0.0
 10
1.3630943479
 20
23.6278312164
 30
0.0
 11
1.1130985787
 21
23.8443375673
 31
0.0
 11
1.1180263065
 21
23.8021751692
 31
0.0
 11
1.1323368081
 21
23.7616295068
 31
0.0
 11
1.1554824744
 21
23.7242490603
 31
0.0
 11
1.1865773743
 21
23.6914667969
 31
0.0
 11
1.2675929221
 21
23.6444922937
 31
0.0
 11
1.3630943479
 21
23.6278312164
 31
0.0
  0
SPLINE
  5
3ED
100
AcDbEntity
  8
0
100
AcDbSpline
 62
7
  6
CONTINUOUS
 70
0
 71
3
 72
15
 73
11
 74
9
 42
0.0000001
 43
0.0000001
 44
0.0000000001
 12
0.0031741039
 22
-0.3149999784
 32
0.0
 13
0.3150159699
 23
0.0
 33
0.0
 40
0.0
 40
0.0
 40
0.0
 40
0.0
 40
0.0847246382
 40
0.1757279367
 40
0.2778501555
 40
0.3942839058
 40
0.5264550939
 40
0.6738071548
 40
0.8334364544
 40
1.0
 40
1.0
 40
1.0
 40
1.0
 10
1.1072807489
 20
23.2669872981
 30
0.0
 10
1.1073703905
 20
23.2580912117
 30
0.0
 10
1.1106131795
 20
23.2395608029
 30
0.0
 10
1.1241645701
 20
23.2133174142
 30
0.0
 10
1.146036015
 20
23.1888844894
 30
0.0
 10
1.175888076
 20
23.1669547435
 30
0.0
 10
1.213250807
 20
23.1483274499
 30
0.0
 10
1.2572234122
 20
23.133953471
 30
0.0
 10
1.3062269929
 20
23.1248150691
 30
0.0
 10
1.3405136879
 20
23.1226497308
 30
0.0
 10
1.3580037468
 20
23.1226497308
 30
0.0
 11
1.1072807489
 21
23.2669872981
 31
0.0
 11
1.1117358026
 21
23.2406721314
 31
0.0
 11
1.1245605835
 21
23.2150332915
 31
0.0
 11
1.1457149112
 21
23.1907967144
 31
0.0
 11
1.1750527761
 21
23.1687830511
 31
0.0
 11
1.2121789369
 21
23.1499360992
 31
0.0
 11
1.2562311591
 21
23.1353054509
 31
0.0
 11
1.3056366974
 21
23.1259378303
 31
0.0
 11
1.3580037468
 21
23.1226497308
 31
0.0
  0
SPLINE
  5
3EE
100
AcDbEntity
  8
0
100
AcDbSpline
 62
7
  6
CONTINUOUS
 70
0
 71
3
 72
15
 73
11
 74
9
 42
0.0000001
 43
0.0000001
 44
0.0000000001
 12
-0.0031741039
 22
-0.3149999784
 32
0.0
 13
-0.3150159699
 23
0.0
 33
0.0
 40
0.0
 40
0.0
 40
0.0
 40
0.0
 40
0.0847246382
 40
0.1757279367
 40
0.2778501555
 40
0.3942839058
 40
0.5264550939
 40
0.6738071548
 40
0.8334364544
 40
1.0
 40
1.0
 40
1.0
 40
1.0
 10
3.9927192511
 20
23.2669872981
 30
0.0
 10
3.9926296095
 20
23.2580912117
 30
0.0
 10
3.9893868205
 20
23.2395608029
 30
0.0
 10
3.9758354299
 20
23.2133174142
 30
0.0
 10
3.953963985
 20
23.1888844894
 30
0.0
 10
3.924111924
 20
23.1669547435
 30
0.0
 10
3.886749193
 20
23.1483274499
 30
0.0
 10
3.8427765878
 20
23.133953471
 30
0.0
 10
3.7937730071
 20
23.1248150691
 30
0.0
 10
3.7594863121
 20
23.1226497308
 30
0.0
 10
3.7419962532
 20
23.1226497308
 30
0.0
 11
3.9927192511
 21
23.2669872981
 31
0.0
 11
3.9882641974
 21
23.2406721314
 31
0.0
 11
3.9754394165
 21
23.2150332915
 31
0.0
 11
3.9542850888
 21
23.1907967144
 31
0.0
 11
3.9249472239
 21
23.1687830511
 31
0.0
 11
3.8878210631
 21
23.1499360992
 31
0.0
 11
3.8437688409
 21
23.1353054509
 31
0.0
 11
3.7943633026
 21
23.1259378303
 31
0.0
 11
3.7419962532
 21
23.1226497308
 31
0.0
  0
SPLINE
  5
3EF
100
AcDbEntity
  8
0
100
AcDbSpline
 62
253
  6
CONTINUOUS
 70
0
 71
3
 72
13
 73
9
 74
7
 42
0.0000001
 43
0.0000001
 44
0.0000000001
 12
-0.0012265943
 22
-0.3651869702
 32
0.0
 13
-0.3651878714
 23
-0.0009199792
 33
0.0
 40
0.0
 40
0.0
 40
0.0
 40
0.0
 40
0.1162393822
 40
0.2339783947
 40
0.3543711753
 40
0.4780981573
 40
0.7345378061
 40
1.0
 40
1.0
 40
1.0
 40
1.0
 10
3.9869014213
 20
23.8443375673
 30
0.0
 10
3.9868538951
 20
23.8301878647
 30
0.0
 10
3.9834953621
 20
23.8016148597
 30
0.0
 10
3.9689387922
 20
23.7606545287
 30
0.0
 10
3.94546792
 20
23.7229827412
 30
0.0
 10
3.9031651981
 20
23.6786209956
 30
0.0
 10
3.8332389227
 20
23.6387868046
 30
0.0
 10
3.7692201766
 20
23.6279126229
 30
0.0
 10
3.7369056521
 20
23.6278312164
 30
0.0
 11
3.9869014213
 21
23.8443375673
 31
0.0
 11
3.9819737009
 21
23.8021752067
 31
0.0
 11
3.967663207
 21
23.761629536
 31
0.0
 11
3.9445175433
 21
23.7242490838
 31
0.0
 11
3.913422644
 21
23.6914668129
 31
0.0
 11
3.832407089
 21
23.644492298
 31
0.0
 11
3.7369056521
 21
23.6278312164
 31
0.0
  0
SPLINE
  5
3F0
100
AcDbEntity
  8
0
100
AcDbSpline
 62
253
  6
CONTINUOUS
 70
0
 71
3
 72
13
 73
9
 74
7
 42
0.0000001
 43
0.0000001
 44
0.0000000001
 12
0.0012265944
 22
-0.3651869708
 32
0.0
 13
0.3651878719
 23
-0.0009199792
 33
0.0
 40
0.0
 40
0.0
 40
0.0
 40
0.0
 40
0.1162394861
 40
0.2339784844
 40
0.3543712552
 40
0.4780982232
 40
0.7345378384
 40
1.0
 40
1.0
 40
1.0
 40
1.0
 10
18.5130985787
 20
23.8443375673
 30
0.0
 10
18.5131461049
 20
23.830187852
 30
0.0
 10
18.5165046394
 20
23.8016148352
 30
0.0
 10
18.5310612251
 20
23.7606544996
 30
0.0
 10
18.5545320971
 20
23.7229827179
 30
0.0
 10
18.5968348209
 20
23.6786209833
 30
0.0
 10
18.666761089
 20
23.6387868014
 30
0.0
 10
18.7307798273
 20
23.6279126229
 30
0.0
 10
18.7630943479
 20
23.6278312164
 30
0.0
 11
18.5130985787
 21
23.8443375673
 31
0.0
 11
18.5180263065
 21
23.8021751692
 31
0.0
 11
18.5323368081
 21
23.7616295068
 31
0.0
 11
18.5554824744
 21
23.7242490603
 31
0.0
 11
18.5865773743
 21
23.6914667969
 31
0.0
 11
18.6675929221
 21
23.6444922937
 31
0.0
 11
18.7630943479
 21
23.6278312164
 31
0.0
  0
SPLINE
  5
3F1
100
AcDbEntity
  8
0
100
AcDbSpline
 62
7
  6
CONTINUOUS
 70
0
 71
3
 72
15
 73
11
 74
9
 42
0.0000001
 43
0.0000001
 44
0.0000000001
 12
0.0031741039
 22
-0.3149999784
 32
0.0
 13
0.3150159699
 23
0.0
 33
0.0
 40
0.0
 40
0.0
 40
0.0
 40
0.0
 40
0.0847246382
 40
0.1757279367
 40
0.2778501555
 40
0.3942839058
 40
0.5264550939
 40
0.6738071548
 40
0.8334364544
 40
1.0
 40
1.0
 40
1.0
 40
1.0
 10
18.5072807489
 20
23.2669872981
 30
0.0
 10
18.5073703905
 20
23.2580912117
 30
0.0
 10
18.5106131795
 20
23.2395608029
 30
0.0
 10
18.5241645701
 20
23.2133174142
 30
0.0
 10
18.546036015
 20
23.1888844894
 30
0.0
 10
18.575888076
 20
23.1669547435
 30
0.0
 10
18.613250807
 20
23.1483274499
 30
0.0
 10
18.6572234122
 20
23.133953471
 30
0.0
 10
18.7062269929
 20
23.1248150691
 30
0.0
 10
18.7405136879
 20
23.1226497308
 30
0.0
 10
18.7580037468
 20
23.1226497308
 30
0.0
 11
18.5072807489
 21
23.2669872981
 31
0.0
 11
18.5117358026
 21
23.2406721314
 31
0.0
 11
18.5245605835
 21
23.2150332915
 31
0.0
 11
18.5457149112
 21
23.1907967144
 31
0.0
 11
18.5750527761
 21
23.1687830511
 31
0.0
 11
18.6121789369
 21
23.1499360992
 31
0.0
 11
18.6562311591
 21
23.1353054509
 31
0.0
 11
18.7056366974
 21
23.1259378303
 31
0.0
 11
18.7580037468
 21
23.1226497308
 31
0.0
  0
SPLINE
  5
3F2
100
AcDbEntity
  8
0
100
AcDbSpline
 62
7
  6
CONTINUOUS
 70
0
 71
3
 72
15
 73
11
 74
9
 42
0.0000001
 43
0.0000001
 44
0.0000000001
 12
0.3142908459
 22
0.0
 32
0.0
 13
0.0031667975
 23
0.3142748912
 33
0.0
 40
0.0
 40
0.0
 40
0.0
 40
0.0
 40
0.1666133779
 40
0.3262255844
 40
0.4735308137
 40
0.6056575217
 40
0.7220676483
 40
0.8241942131
 40
0.9152281509
 40
1.0
 40
1.0
 40
1.0
 40
1.0
 10
21.1427234819
 20
23.1226497308
 30
0.0
 10
21.1601785017
 20
23.1226497308
 30
0.0
 10
21.1943856929
 20
23.124909705
 30
0.0
 10
21.2432620946
 20
23.1340775763
 30
0.0
 10
21.2871035061
 20
23.1484769636
 30
0.0
 10
21.3243461767
 20
23.1671011817
 30
0.0
 10
21.3540985049
 20
23.1890111222
 30
0.0
 10
21.3758950298
 20
23.2134107396
 30
0.0
 10
21.3893986841
 20
23.239611024
 30
0.0
 10
21.392629766
 20
23.2581067436
 30
0.0
 10
21.3927192511
 20
23.2669872981
 30
0.0
 11
21.1427234819
 21
23.1226497308
 31
0.0
 11
21.1949802175
 21
23.126016189
 31
0.0
 11
21.2442534457
 21
23.1354311576
 31
0.0
 11
21.2881709782
 21
23.1500815293
 31
0.0
 11
21.3251759211
 21
23.1689245842
 31
0.0
 11
21.3544151803
 21
23.1909165769
 31
0.0
 11
21.3754977136
 21
23.215119319
 31
0.0
 11
21.3882790097
 21
23.2407168857
 31
0.0
 11
21.3927192511
 21
23.2669872981
 31
0.0
  0
SPLINE
  5
3F3
100
AcDbEntity
  8
0
100
AcDbSpline
 62
253
  6
CONTINUOUS
 70
0
 71
3
 72
13
 73
9
 74
7
 42
0.0000001
 43
0.0000001
 44
0.0000000001
 12
-0.0012265944
 22
-0.3651869708
 32
0.0
 13
-0.3651878719
 23
-0.0009199792
 33
0.0
 40
0.0
 40
0.0
 40
0.0
 40
0.0
 40
0.1162394861
 40
0.2339784844
 40
0.3543712552
 40
0.4780982232
 40
0.7345378384
 40
1.0
 40
1.0
 40
1.0
 40
1.0
 10
21.3869014213
 20
23.8443375673
 30
0.0
 10
21.3868538951
 20
23.830187852
 30
0.0
 10
21.3834953606
 20
23.8016148352
 30
0.0
 10
21.3689387749
 20
23.7606544996
 30
0.0
 10
21.3454679029
 20
23.7229827179
 30
0.0
 10
21.3031651791
 20
23.6786209833
 30
0.0
 10
21.233238911
 20
23.6387868014
 30
0.0
 10
21.1692201727
 20
23.6279126229
 30
0.0
 10
21.1369056521
 20
23.6278312164
 30
0.0
 11
21.3869014213
 21
23.8443375673
 31
0.0
 11
21.3819736935
 21
23.8021751692
 31
0.0
 11
21.3676631919
 21
23.7616295068
 31
0.0
 11
21.3445175256
 21
23.7242490603
 31
0.0
 11
21.3134226257
 21
23.6914667969
 31
0.0
 11
21.2324070779
 21
23.6444922937
 31
0.0
 11
21.1369056521
 21
23.6278312164
 31
0.0
  0
SPLINE
  5
3F4
100
AcDbEntity
  8
0
100
AcDbSpline
 62
7
  6
CONTINUOUS
 70
0
 71
3
 72
15
 73
11
 74
9
 42
0.0000001
 43
0.0000001
 44
0.0000000001
 12
0.783584949
 22
0.0
 32
0.0
 13
0.0
 23
-0.783584949
 33
0.0
 40
0.0
 40
0.0
 40
0.0
 40
0.0
 40
0.1249998755
 40
0.2499983858
 40
0.3749979685
 40
0.4999978562
 40
0.6249980066
 40
0.7499984071
 40
0.8749983005
 40
1.0
 40
1.0
 40
1.0
 40
1.0
 10
21.8999752684
 20
22.4
 30
0.0
 10
21.9326246088
 20
22.4
 30
0.0
 10
21.9980978538
 20
22.3934475677
 30
0.0
 10
22.0923705112
 20
22.3647451103
 30
0.0
 10
22.1792585201
 20
22.3181579234
 30
0.0
 10
22.255372633
 20
22.2555146988
 30
0.0
 10
22.3178061812
 20
22.1792278759
 30
0.0
 10
22.3641710301
 20
22.0922261856
 30
0.0
 10
22.3927071378
 20
21.9979001651
 30
0.0
 10
22.3991272468
 20
21.9324209647
 30
0.0
 10
22.3991272468
 20
21.8997711479
 30
0.0
 11
21.8999752684
 21
22.4
 31
0.0
 11
21.9974419861
 21
22.3903018677
 31
0.0
 11
22.0911394797
 21
22.3617644365
 31
0.0
 11
22.1774627432
 21
22.3154819985
 31
0.0
 11
22.253092465
 21
22.2532408395
 31
0.0
 11
22.3151280255
 21
22.1774421175
 31
0.0
 11
22.3611996043
 21
22.0910054062
 31
0.0
 11
22.3895560502
 21
21.9972518487
 31
0.0
 11
22.3991272468
 21
21.8997711479
 31
0.0
  0
SPLINE
  5
3F5
100
AcDbEntity
  8
0
100
AcDbSpline
 62
7
  6
CONTINUOUS
 70
0
 71
3
 72
15
 73
11
 74
9
 42
0.0000001
 43
0.0000001
 44
0.0000000001
 12
0.0
 22
-0.7835849489
 32
0.0
 13
-0.7835849489
 23
0.0
 33
0.0
 40
0.0
 40
0.0
 40
0.0
 40
0.0
 40
0.1250016995
 40
0.2500015929
 40
0.3750019934
 40
0.5000021438
 40
0.6250020315
 40
0.7500016142
 40
0.8750001245
 40
1.0
 40
1.0
 40
1.0
 40
1.0
 10
22.3991272468
 20
-21.8997711479
 30
0.0
 10
22.3991272468
 20
-21.9324209647
 30
0.0
 10
22.3927071378
 20
-21.9979001651
 30
0.0
 10
22.3641710301
 20
-22.0922261856
 30
0.0
 10
22.3178061813
 20
-22.1792278759
 30
0.0
 10
22.255372633
 20
-22.2555146988
 30
0.0
 10
22.1792585201
 20
-22.3181579234
 30
0.0
 10
22.0923705113
 20
-22.3647451103
 30
0.0
 10
21.9980978538
 20
-22.3934475677
 30
0.0
 10
21.9326246089
 20
-22.4
 30
0.0
 10
21.8999752685
 20
-22.4
 30
0.0
 11
22.3991272468
 21
-21.8997711479
 31
0.0
 11
22.3895560502
 21
-21.9972518487
 31
0.0
 11
22.3611996043
 21
-22.0910054062
 31
0.0
 11
22.3151280255
 21
-22.1774421175
 31
0.0
 11
22.253092465
 21
-22.2532408395
 31
0.0
 11
22.1774627432
 21
-22.3154819984
 31
0.0
 11
22.0911394798
 21
-22.3617644365
 31
0.0
 11
21.9974419862
 21
-22.3903018677
 31
0.0
 11
21.8999752685
 21
-22.4
 31
0.0
  0
LINE
  5
3F6
100
AcDbEntity
  8
DRAFT
100
AcDbLine
 62
7
  6
CONTINUOUS
 10
-10.25
 20
-11.5042885177
 11
-10.24999975
 21
-12.9998437175
  0
LINE
  5
3F7
100
AcDbEntity
  8
DRAFT
100
AcDbLine
 62
7
  6
CONTINUOUS
 10
-12.2500003098
 20
-12.99986514
 11
-12.25
 21
-11.5042885177
  0
LINE
  5
3F8
100
AcDbEntity
  8
DRAFT
100
AcDbLine
 62
7
  6
CONTINUOUS
 10
-10.2499998313
 20
-10.0000094493
 11
-10.25
 21
-11.5042885177
  0
LINE
  5
3F9
100
AcDbEntity
  8
DRAFT
100
AcDbLine
 62
7
  6
CONTINUOUS
 10
-12.25
 20
-11.5042885177
 11
-12.2500001678
 21
-10.0000192011
  0
SPLINE
  5
3FA
100
AcDbEntity
  8
RACCORDO
100
AcDbSpline
 62
253
  6
CONTINUOUS
 70
0
 71
3
 72
18
 73
14
 74
12
 42
0.0000001
 43
0.0000001
 44
0.0000000001
 12
0.4839185033
 22
0.0012415723
 32
0.0
 13
0.2545319531
 23
0.411572769
 33
0.0
 40
0.0
 40
0.0
 40
0.0
 40
0.0
 40
0.1929855483
 40
0.3782038868
 40
0.5485297732
 40
0.698141618
 40
0.8218281703
 40
0.872498673
 40
0.9151501778
 40
0.9494032317
 40
0.9749646405
 40
0.9917482692
 40
1.0
 40
1.0
 40
1.0
 40
1.0
 10
21.5286602181
 20
-20.8301238198
 30
0.0
 10
21.5597899774
 20
-20.8300439513
 30
0.0
 10
21.6207963684
 20
-20.8296465126
 30
0.0
 10
21.7092689777
 20
-20.8283445187
 30
0.0
 10
21.790733221
 20
-20.8263888271
 30
0.0
 10
21.862246022
 20
-20.8238519621
 30
0.0
 10
21.914450239
 20
-20.8212276811
 30
0.0
 10
21.9493590963
 20
-20.8187930678
 30
0.0
 10
21.9698906954
 20
-20.8170272058
 30
0.0
 10
21.9862448406
 20
-20.8151860463
 30
0.0
 10
21.9986521699
 20
-20.8134000468
 30
0.0
 10
22.0062604623
 20
-20.8115226542
 30
0.0
 10
22.0105354068
 20
-20.810150033
 30
0.0
 10
22.0112355165
 20
-20.8090179705
 30
0.0
 11
21.5286602181
 21
-20.8301238198
 31
0.0
 11
21.6220477734
 21
-20.8295080934
 31
0.0
 11
21.7116685807
 21
-20.8281646447
 31
0.0
 11
21.7940678581
 21
-20.8261411501
 31
0.0
 11
21.8664201603
 21
-20.8235086249
 31
0.0
 11
21.9261918315
 21
-20.8203625934
 31
0.0
 11
21.9506510846
 21
-20.8186309443
 31
0.0
 11
21.9712108176
 21
-20.8168133397
 31
0.0
 11
21.9876786422
 21
-20.8149249684
 31
0.0
 11
21.9998948717
 21
-20.8129826227
 31
0.0
 11
22.0077727807
 21
-20.8110066722
 31
0.0
 11
22.0112355165
 21
-20.8090179705
 31
0.0
  0
SPLINE
  5
3FB
100
AcDbEntity
  8
RACCORDO
100
AcDbSpline
 62
253
  6
CONTINUOUS
 70
0
 71
3
 72
18
 73
14
 74
12
 42
0.0000001
 43
0.0000001
 44
0.0000000001
 12
0.4839187565
 22
-0.0012415268
 32
0.0
 13
0.2546566065
 23
-0.4114959502
 33
0.0
 40
0.0
 40
0.0
 40
0.0
 40
0.0
 40
0.1929826284
 40
0.3781985689
 40
0.5485229246
 40
0.6981342821
 40
0.8218214193
 40
0.8724925962
 40
0.915145003
 40
0.9493991642
 40
0.9749618564
 40
0.9917468992
 40
1.0
 40
1.0
 40
1.0
 40
1.0
 10
21.5286597714
 20
20.8301232531
 30
0.0
 10
21.5597890759
 20
20.8300433888
 30
0.0
 10
21.620794641
 20
20.829645967
 30
0.0
 10
21.7092661926
 20
20.8283440241
 30
0.0
 10
21.7907297668
 20
20.8263884025
 30
0.0
 10
21.8622423791
 20
20.8238516176
 30
0.0
 10
21.9144467458
 20
20.8212274123
 30
0.0
 10
21.9493559846
 20
20.8187928643
 30
0.0
 10
21.9698880122
 20
20.8170270444
 30
0.0
 10
21.9862427565
 20
20.8151859085
 30
0.0
 10
21.9986505934
 20
20.8133999588
 30
0.0
 10
22.0062597904
 20
20.811522518
 30
0.0
 10
22.0105349452
 20
20.8101500009
 30
0.0
 10
22.011235514
 20
20.8090179618
 30
0.0
 11
21.5286597714
 21
20.8301232531
 31
0.0
 11
21.6220459627
 21
20.829507554
 31
0.0
 11
21.7116656571
 21
20.8281641592
 31
0.0
 11
21.7940642384
 21
20.8261407388
 31
0.0
 11
21.8664163457
 21
20.8235082995
 31
0.0
 11
21.9261883363
 21
20.8203623573
 31
0.0
 11
21.9506479324
 21
20.8186307518
 31
0.0
 11
21.9712081182
 21
20.8168131892
 31
0.0
 11
21.9876764955
 21
20.8149248578
 31
0.0
 11
21.9998933662
 21
20.8129825493
 31
0.0
 11
22.0077719938
 21
20.8110066328
 31
0.0
 11
22.011235514
 21
20.8090179618
 31
0.0
  0
SPLINE
  5
3FC
100
AcDbEntity
  8
RACCORDO
100
AcDbSpline
 62
253
  6
CONTINUOUS
 70
0
 71
3
 72
18
 73
14
 74
12
 42
0.0000001
 43
0.0000001
 44
0.0000000001
 12
-0.4839185036
 22
-0.0012415722
 32
0.0
 13
-0.2545319379
 23
-0.4115727787
 33
0.0
 40
0.0
 40
0.0
 40
0.0
 40
0.0
 40
0.1929855485
 40
0.3782038873
 40
0.5485297738
 40
0.6981416186
 40
0.821828171
 40
0.8724986736
 40
0.9151501783
 40
0.9494032321
 40
0.9749646408
 40
0.9917482694
 40
1.0
 40
1.0
 40
1.0
 40
1.0
 10
-21.5286602179
 20
20.83012382
 30
0.0
 10
-21.5597899772
 20
20.8300439515
 30
0.0
 10
-21.6207963683
 20
20.8296465127
 30
0.0
 10
-21.7092689777
 20
20.8283445189
 30
0.0
 10
-21.7907332212
 20
20.8263888273
 30
0.0
 10
-21.8622460222
 20
20.8238519623
 30
0.0
 10
-21.9144502393
 20
20.8212276812
 30
0.0
 10
-21.9493590966
 20
20.8187930679
 30
0.0
 10
-21.9698906957
 20
20.8170272059
 30
0.0
 10
-21.9862448408
 20
20.8151860465
 30
0.0
 10
-21.9986521701
 20
20.8134000469
 30
0.0
 10
-22.0062604624
 20
20.8115226543
 30
0.0
 10
-22.0105354068
 20
20.8101500331
 30
0.0
 10
-22.0112355165
 20
20.8090179706
 30
0.0
 11
-21.5286602179
 21
20.83012382
 31
0.0
 11
-21.6220477733
 21
20.8295080936
 31
0.0
 11
-21.7116685808
 21
20.8281646448
 31
0.0
 11
-21.7940678583
 21
20.8261411502
 31
0.0
 11
-21.8664201606
 21
20.823508625
 31
0.0
 11
-21.9261918318
 21
20.8203625936
 31
0.0
 11
-21.9506510849
 21
20.8186309445
 31
0.0
 11
-21.9712108179
 21
20.8168133398
 31
0.0
 11
-21.9876786425
 21
20.8149249686
 31
0.0
 11
-21.9998948719
 21
20.8129826229
 31
0.0
 11
-22.0077727809
 21
20.8110066723
 31
0.0
 11
-22.0112355165
 21
20.8090179706
 31
0.0
  0
SPLINE
  5
3FD
100
AcDbEntity
  8
RACCORDO
100
AcDbSpline
 62
253
  6
CONTINUOUS
 70
0
 71
3
 72
18
 73
14
 74
12
 42
0.0000001
 43
0.0000001
 44
0.0000000001
 12
-0.4839187564
 22
0.0012415268
 32
0.0
 13
-0.2546566097
 23
0.4114959482
 33
0.0
 40
0.0
 40
0.0
 40
0.0
 40
0.0
 40
0.1929826284
 40
0.3781985688
 40
0.5485229245
 40
0.698134282
 40
0.8218214192
 40
0.872492596
 40
0.9151450029
 40
0.9493991641
 40
0.9749618563
 40
0.9917468992
 40
1.0
 40
1.0
 40
1.0
 40
1.0
 10
-21.5286597714
 20
-20.8301232531
 30
0.0
 10
-21.5597890759
 20
-20.8300433888
 30
0.0
 10
-21.620794641
 20
-20.829645967
 30
0.0
 10
-21.7092661926
 20
-20.8283440241
 30
0.0
 10
-21.7907297668
 20
-20.8263884025
 30
0.0
 10
-21.862242379
 20
-20.8238516176
 30
0.0
 10
-21.9144467457
 20
-20.8212274123
 30
0.0
 10
-21.9493559845
 20
-20.8187928643
 30
0.0
 10
-21.9698880121
 20
-20.8170270444
 30
0.0
 10
-21.9862427565
 20
-20.8151859085
 30
0.0
 10
-21.9986505934
 20
-20.8133999588
 30
0.0
 10
-22.0062597904
 20
-20.811522518
 30
0.0
 10
-22.0105349451
 20
-20.810150001
 30
0.0
 10
-22.011235514
 20
-20.8090179618
 30
0.0
 11
-21.5286597714
 21
-20.8301232531
 31
0.0
 11
-21.6220459627
 21
-20.829507554
 31
0.0
 11
-21.7116656571
 21
-20.8281641592
 31
0.0
 11
-21.7940642384
 21
-20.8261407389
 31
0.0
 11
-21.8664163456
 21
-20.8235082995
 31
0.0
 11
-21.9261883363
 21
-20.8203623573
 31
0.0
 11
-21.9506479323
 21
-20.8186307518
 31
0.0
 11
-21.9712081182
 21
-20.8168131892
 31
0.0
 11
-21.9876764955
 21
-20.8149248578
 31
0.0
 11
-21.9998933662
 21
-20.8129825493
 31
0.0
 11
-22.0077719938
 21
-20.8110066328
 31
0.0
 11
-22.011235514
 21
-20.8090179618
 31
0.0
  0
LINE
  5
3FE
100
AcDbEntity
  8
RACCORDO
100
AcDbLine
 62
253
  6
CONTINUOUS
 10
21.5292680107
 20
-21.9790966731
 11
21.5286602087
 21
-20.8301237924
  0
LINE
  5
3FF
100
AcDbEntity
  8
RACCORDO
100
AcDbLine
 62
253
  6
CONTINUOUS
 10
-21.5286602242
 20
-20.8301237912
 11
-21.5292680061
 21
-21.9790966686
  0
LINE
  5
400
100
AcDbEntity
  8
RACCORDO
100
AcDbLine
 62
253
  6
CONTINUOUS
 10
21.5286602242
 20
20.8301237906
 11
21.5292680061
 21
21.9790966685
  0
LINE
  5
401
100
AcDbEntity
  8
RACCORDO
100
AcDbLine
 62
253
  6
CONTINUOUS
 10
-21.5292680107
 20
21.9790966732
 11
-21.528660208
 21
20.8301237918
  0
SPLINE
  5
402
100
AcDbEntity
  8
RACCORDO
100
AcDbSpline
 62
253
  6
CONTINUOUS
 70
0
 71
3
 72
20
 73
16
 74
14
 42
0.0000001
 43
0.0000001
 44
0.0000000001
 12
0.0007468239
 22
0.6710059459
 32
0.0
 13
0.4726617595
 23
0.4762776482
 33
0.0
 40
0.0
 40
0.0
 40
0.0
 40
0.0
 40
0.1939765982
 40
0.3795882719
 40
0.5502152287
 40
0.6999197971
 40
0.765248467
 40
0.8234397475
 40
0.8740056134
 40
0.9165001291
 40
0.9505634192
 40
0.9759125254
 40
0.9923565239
 40
0.9972475728
 40
1.0
 40
1.0
 40
1.0
 40
1.0
 10
22.0112355141
 20
20.8090179618
 30
0.0
 10
22.0112838029
 20
20.8524044453
 30
0.0
 10
22.0115835081
 20
20.9373063737
 30
0.0
 10
22.0126467419
 20
21.0603683347
 30
0.0
 10
22.0142789054
 20
21.1735209828
 30
0.0
 10
22.0161259385
 20
21.2597623272
 30
0.0
 10
22.0178967544
 20
21.3208490773
 30
0.0
 10
22.0192632038
 20
21.3597621581
 30
0.0
 10
22.0207085306
 20
21.3935643896
 30
0.0
 10
22.0222281465
 20
21.4219512045
 30
0.0
 10
22.0237674277
 20
21.4447119339
 30
0.0
 10
22.0253751446
 20
21.4615625361
 30
0.0
 10
22.0267237839
 20
21.4719987626
 30
0.0
 10
22.0280342184
 20
21.4771620293
 30
0.0
 10
22.0286630129
 20
21.4788310329
 30
0.0
 10
22.0290966685
 20
21.4792680061
 30
0.0
 11
22.0112355141
 21
20.8090179618
 31
0.0
 11
22.0117033976
 21
20.9391766521
 31
0.0
 11
22.0128008004
 21
21.0637184312
 31
0.0
 11
22.0144884817
 21
21.1781977652
 31
0.0
 11
22.0167063731
 21
21.2786259956
 31
0.0
 11
22.0179902838
 21
21.3224431424
 31
0.0
 11
22.0193761905
 21
21.3614652587
 31
0.0
 11
22.0208515473
 21
21.3953631852
 31
0.0
 11
22.0224032538
 21
21.4238350232
 31
0.0
 11
22.0240179786
 21
21.4466345996
 31
0.0
 11
22.0256821839
 21
21.4635624022
 31
0.0
 11
22.0273809094
 21
21.4744648834
 31
0.0
 11
22.0282377691
 21
21.4776329779
 31
0.0
 11
22.0290966685
 21
21.4792680061
 31
0.0
  0
SPLINE
  5
403
100
AcDbEntity
  8
RACCORDO
100
AcDbSpline
 62
253
  6
CONTINUOUS
 70
0
 71
3
 72
20
 73
16
 74
14
 42
0.0000001
 43
0.0000001
 44
0.0000000001
 12
-0.4726617783
 22
0.4762776239
 32
0.0
 13
-0.0007468238
 23
0.6710059418
 33
0.0
 40
0.0
 40
0.0
 40
0.0
 40
0.0
 40
0.0027524272
 40
0.0076434763
 40
0.0240874753
 40
0.0494365822
 40
0.0834998731
 40
0.1259943899
 40
0.1765602571
 40
0.2347515391
 40
0.3000802107
 40
0.4497847817
 40
0.6204117436
 40
0.8060234169
 40
1.0
 40
1.0
 40
1.0
 40
1.0
 10
22.0290966731
 20
-21.4792680107
 30
0.0
 10
22.0286630174
 20
-21.4788310375
 30
0.0
 10
22.028034223
 20
-21.4771620339
 30
0.0
 10
22.0267237884
 20
-21.4719987671
 30
0.0
 10
22.0253751492
 20
-21.4615625403
 30
0.0
 10
22.0237674323
 20
-21.4447119377
 30
0.0
 10
22.022228151
 20
-21.4219512079
 30
0.0
 10
22.0207085352
 20
-21.3935643924
 30
0.0
 10
22.0192632084
 20
-21.3597621604
 30
0.0
 10
22.017896759
 20
-21.3208490787
 30
0.0
 10
22.0161259431
 20
-21.2597623277
 30
0.0
 10
22.0142789098
 20
-21.1735209817
 30
0.0
 10
22.0126467467
 20
-21.0603683327
 30
0.0
 10
22.0115835132
 20
-20.9373063748
 30
0.0
 10
22.0112838052
 20
-20.8524044504
 30
0.0
 10
22.0112355165
 20
-20.8090179705
 30
0.0
 11
22.0290966731
 21
-21.4792680107
 31
0.0
 11
22.0282377737
 21
-21.4776329825
 31
0.0
 11
22.027380914
 21
-21.4744648879
 31
0.0
 11
22.0256821884
 21
-21.4635624064
 31
0.0
 11
22.0240179832
 21
-21.4466346034
 31
0.0
 11
22.0224032584
 21
-21.4238350266
 31
0.0
 11
22.0208515519
 21
-21.3953631882
 31
0.0
 11
22.0193761951
 21
-21.361465261
 31
0.0
 11
22.0179902883
 21
-21.3224431439
 31
0.0
 11
22.0167063777
 21
-21.2786259962
 31
0.0
 11
22.0144884863
 21
-21.1781977647
 31
0.0
 11
22.0128008052
 21
-21.0637184279
 31
0.0
 11
22.011703402
 21
-20.93917665
 31
0.0
 11
22.0112355165
 21
-20.8090179705
 31
0.0
  0
SPLINE
  5
404
100
AcDbEntity
  8
RACCORDO
100
AcDbSpline
 62
253
  6
CONTINUOUS
 70
0
 71
3
 72
20
 73
16
 74
14
 42
0.0000001
 43
0.0000001
 44
0.0000000001
 12
-0.0007468239
 22
-0.6710059459
 32
0.0
 13
-0.4726617595
 23
-0.4762776482
 33
0.0
 40
0.0
 40
0.0
 40
0.0
 40
0.0
 40
0.1939765981
 40
0.3795882718
 40
0.5502152287
 40
0.6999197971
 40
0.765248467
 40
0.8234397475
 40
0.8740056134
 40
0.9165001291
 40
0.9505634192
 40
0.9759125254
 40
0.9923565239
 40
0.9972475728
 40
1.0
 40
1.0
 40
1.0
 40
1.0
 10
-22.0112355141
 20
-20.8090179618
 30
0.0
 10
-22.0112838029
 20
-20.8524044453
 30
0.0
 10
-22.0115835081
 20
-20.9373063737
 30
0.0
 10
-22.0126467419
 20
-21.0603683347
 30
0.0
 10
-22.0142789054
 20
-21.1735209828
 30
0.0
 10
-22.0161259385
 20
-21.2597623273
 30
0.0
 10
-22.0178967544
 20
-21.3208490773
 30
0.0
 10
-22.0192632039
 20
-21.3597621582
 30
0.0
 10
-22.0207085306
 20
-21.3935643896
 30
0.0
 10
-22.0222281465
 20
-21.4219512045
 30
0.0
 10
-22.0237674278
 20
-21.4447119339
 30
0.0
 10
-22.0253751446
 20
-21.4615625361
 30
0.0
 10
-22.0267237839
 20
-21.4719987626
 30
0.0
 10
-22.0280342184
 20
-21.4771620293
 30
0.0
 10
-22.0286630129
 20
-21.4788310329
 30
0.0
 10
-22.0290966686
 20
-21.4792680061
 30
0.0
 11
-22.0112355141
 21
-20.8090179618
 31
0.0
 11
-22.0117033976
 21
-20.9391766521
 31
0.0
 11
-22.0128008005
 21
-21.0637184312
 31
0.0
 11
-22.0144884818
 21
-21.1781977652
 31
0.0
 11
-22.0167063731
 21
-21.2786259956
 31
0.0
 11
-22.0179902838
 21
-21.3224431424
 31
0.0
 11
-22.0193761905
 21
-21.3614652587
 31
0.0
 11
-22.0208515473
 21
-21.3953631852
 31
0.0
 11
-22.0224032538
 21
-21.4238350232
 31
0.0
 11
-22.0240179786
 21
-21.4466345996
 31
0.0
 11
-22.0256821839
 21
-21.4635624022
 31
0.0
 11
-22.0273809095
 21
-21.4744648834
 31
0.0
 11
-22.0282377691
 21
-21.4776329779
 31
0.0
 11
-22.0290966686
 21
-21.4792680061
 31
0.0
  0
SPLINE
  5
405
100
AcDbEntity
  8
RACCORDO
100
AcDbSpline
 62
253
  6
CONTINUOUS
 70
0
 71
3
 72
20
 73
16
 74
14
 42
0.0000001
 43
0.0000001
 44
0.0000000001
 12
0.4726617782
 22
-0.4762776238
 32
0.0
 13
0.0007468238
 23
-0.6710059417
 33
0.0
 40
0.0
 40
0.0
 40
0.0
 40
0.0
 40
0.0027524272
 40
0.0076434763
 40
0.0240874753
 40
0.0494365822
 40
0.0834998731
 40
0.1259943899
 40
0.1765602571
 40
0.2347515392
 40
0.3000802108
 40
0.4497847818
 40
0.6204117438
 40
0.8060234171
 40
1.0
 40
1.0
 40
1.0
 40
1.0
 10
-22.0290966732
 20
21.4792680107
 30
0.0
 10
-22.0286630175
 20
21.4788310376
 30
0.0
 10
-22.028034223
 20
21.477162034
 30
0.0
 10
-22.0267237885
 20
21.4719987672
 30
0.0
 10
-22.0253751493
 20
21.4615625403
 30
0.0
 10
-22.0237674324
 20
21.4447119378
 30
0.0
 10
-22.0222281511
 20
21.4219512079
 30
0.0
 10
-22.0207085352
 20
21.3935643925
 30
0.0
 10
-22.0192632085
 20
21.3597621604
 30
0.0
 10
-22.017896759
 20
21.3208490787
 30
0.0
 10
-22.0161259432
 20
21.2597623277
 30
0.0
 10
-22.0142789099
 20
21.1735209817
 30
0.0
 10
-22.0126467468
 20
21.0603683327
 30
0.0
 10
-22.0115835133
 20
20.9373063748
 30
0.0
 10
-22.0112838053
 20
20.8524044505
 30
0.0
 10
-22.0112355165
 20
20.8090179706
 30
0.0
 11
-22.0290966732
 21
21.4792680107
 31
0.0
 11
-22.0282377737
 21
21.4776329826
 31
0.0
 11
-22.0273809141
 21
21.474464888
 31
0.0
 11
-22.0256821885
 21
21.4635624065
 31
0.0
 11
-22.0240179833
 21
21.4466346035
 31
0.0
 11
-22.0224032584
 21
21.4238350267
 31
0.0
 11
-22.0208515519
 21
21.3953631882
 31
0.0
 11
-22.0193761951
 21
21.361465261
 31
0.0
 11
-22.0179902884
 21
21.3224431439
 31
0.0
 11
-22.0167063778
 21
21.2786259962
 31
0.0
 11
-22.0144884863
 21
21.1781977647
 31
0.0
 11
-22.0128008053
 21
21.0637184279
 31
0.0
 11
-22.0117034021
 21
20.9391766499
 31
0.0
 11
-22.0112355165
 21
20.8090179706
 31
0.0
  0
SPLINE
  5
406
100
AcDbEntity
  8
RACCORDO
100
AcDbSpline
 62
253
  6
CONTINUOUS
 70
0
 71
3
 72
9
 73
5
 74
3
 42
0.0000001
 43
0.0000001
 44
0.0000000001
 12
43.0585216031
 22
0.0390847594
 32
0.0
 13
43.0585216032
 23
-0.0390847084
 33
0.0
 40
0.0
 40
0.0
 40
0.0
 40
0.0
 40
0.2499623056
 40
1.0
 40
1.0
 40
1.0
 40
1.0
 10
-21.5292680065
 20
-21.979096669
 30
0.0
 10
-17.9415988943
 20
-21.9758400968
 30
0.0
 10
-3.5887555871
 20
-21.9660709515
 30
0.0
 10
10.7640965885
 20
-21.9693250049
 30
0.0
 10
21.5292680107
 20
-21.9790966731
 30
0.0
 11
-21.5292680065
 21
-21.979096669
 31
0.0
 11
-10.7662587296
 21
-21.9717699651
 31
0.0
 11
21.5292680107
 21
-21.9790966731
 31
0.0
  0
SPLINE
  5
407
100
AcDbEntity
  8
RACCORDO
100
AcDbSpline
 62
253
  6
CONTINUOUS
 70
0
 71
3
 72
9
 73
5
 74
3
 42
0.0000001
 43
0.0000001
 44
0.0000000001
 12
-43.0585216032
 22
-0.0390847593
 32
0.0
 13
-43.0585216032
 23
0.0390847063
 33
0.0
 40
0.0
 40
0.0
 40
0.0
 40
0.0
 40
0.2499623056
 40
1.0
 40
1.0
 40
1.0
 40
1.0
 10
21.5292680065
 20
21.9790966689
 30
0.0
 10
17.9415988946
 20
21.9758400968
 30
0.0
 10
3.5887555875
 20
21.9660709513
 30
0.0
 10
-10.7640965881
 20
21.9693250055
 30
0.0
 10
-21.5292680107
 20
21.9790966732
 30
0.0
 11
21.5292680065
 21
21.9790966689
 31
0.0
 11
10.7662587307
 21
21.9717699651
 31
0.0
 11
-21.5292680107
 21
21.9790966732
 31
0.0
  0
SPLINE
  5
408
100
AcDbEntity
  8
0
100
AcDbSpline
 62
7
  6
CONTINUOUS
 70
0
 71
3
 72
23
 73
19
 74
17
 42
0.0000001
 43
0.0000001
 44
0.0000000001
 12
0.0080328824
 22
6.6483438737
 32
0.0
 13
-0.0072229163
 23
-6.648344803
 33
0.0
 40
0.0
 40
0.0
 40
0.0
 40
0.0
 40
0.0624938149
 40
0.1249857596
 40
0.1874743041
 40
0.2499579729
 40
0.3124431906
 40
0.3749345236
 40
0.4374320284
 40
0.4999369574
 40
0.5624466198
 40
0.6249597057
 40
0.6874756556
 40
0.7499890014
 40
0.8124998041
 40
0.8750053979
 40
0.9375047974
 40
1.0
 40
1.0
 40
1.0
 40
1.0
 10
-13.2749616635
 20
-10.0107238193
 30
0.0
 10
-13.2747943284
 20
-9.8722303621
 30
0.0
 10
-13.2465164778
 20
-9.5944822867
 30
0.0
 10
-13.1221826686
 20
-9.1952893604
 30
0.0
 10
-12.9213568829
 20
-8.8284564537
 30
0.0
 10
-12.6524910867
 20
-8.5082611315
 30
0.0
 10
-12.3264705296
 20
-8.2465338437
 30
0.0
 10
-11.9560283691
 20
-8.0527355365
 30
0.0
 10
-11.5552361723
 20
-7.9337091152
 30
0.0
 10
-11.139041568
 20
-7.8936118782
 30
0.0
 10
-10.7228248767
 20
-7.9338501846
 30
0.0
 10
-10.3219812235
 20
-8.0530656433
 30
0.0
 10
-9.951506554
 20
-8.2471418249
 30
0.0
 10
-9.6255464856
 20
-8.5092405775
 30
0.0
 10
-9.3569219204
 20
-8.8298617864
 30
0.0
 10
-9.1565785763
 20
-9.1971016284
 30
0.0
 10
-9.0329617282
 20
-9.5965880854
 30
0.0
 10
-9.005290974
 20
-9.8744232129
 30
0.0
 10
-9.0054414399
 20
-10.0129197648
 30
0.0
 11
-13.2749616635
 21
-10.0107238193
 31
0.0
 11
-13.2328623279
 21
-9.5973815434
 31
0.0
 11
-13.1094294884
 21
-9.2006723386
 31
0.0
 11
-12.9100095182
 21
-8.836218293
 31
0.0
 11
-12.6429687675
 21
-8.5180086436
 31
0.0
 11
-12.3190826632
 21
-8.2578654324
 31
0.0
 11
-11.9509894985
 21
-8.0652053639
 31
0.0
 11
-11.5526919243
 21
-7.9468684764
 31
0.0
 11
-11.1390541565
 21
-7.9070012756
 31
0.0
 11
-10.7253985219
 21
-7.9470108726
 31
0.0
 11
-10.327049954
 21
-8.065539726
 31
0.0
 11
-9.9589202195
 21
-8.2584827133
 31
0.0
 11
-9.6350957014
 21
-8.5190010207
 31
0.0
 11
-9.3682928149
 21
-8.837645451
 31
0.0
 11
-9.1693586942
 21
-9.2024940298
 31
0.0
 11
-9.0466440885
 21
-9.5994778712
 31
0.0
 11
-9.0054414399
 21
-10.0129197648
 31
0.0
  0
SPLINE
  5
409
100
AcDbEntity
  8
0
100
AcDbSpline
 62
7
  6
CONTINUOUS
 70
0
 71
3
 72
23
 73
19
 74
17
 42
0.0000001
 43
0.0000001
 44
0.0000000001
 12
-0.0093265075
 22
-6.6082995946
 32
0.0
 13
0.0104041334
 23
6.6082979858
 33
0.0
 40
0.0
 40
0.0
 40
0.0
 40
0.0
 40
0.0624839516
 40
0.1249603543
 40
0.1874343212
 40
0.2499133135
 40
0.3123997484
 40
0.3748974741
 40
0.4374072559
 40
0.4999284224
 40
0.5624574403
 40
0.6249836415
 40
0.6875043069
 40
0.7500180767
 40
0.812524466
 40
0.8750251233
 40
0.9375151069
 40
1.0
 40
1.0
 40
1.0
 40
1.0
 10
-9.0091930347
 20
-13.0167437159
 30
0.0
 10
-9.009387287
 20
-13.1543812731
 30
0.0
 10
-9.0381393174
 20
-13.4304256008
 30
0.0
 10
-9.1641712708
 20
-13.8264433847
 30
0.0
 10
-9.3669828536
 20
-14.1892721592
 30
0.0
 10
-9.6373512409
 20
-14.504848251
 30
0.0
 10
-9.963821419
 20
-14.7619207667
 30
0.0
 10
-10.3334583699
 20
-14.9517565708
 30
0.0
 10
-10.7323841659
 20
-15.0681825546
 30
0.0
 10
-11.1461404639
 20
-15.1074771316
 30
0.0
 10
-11.5599518269
 20
-15.0683323496
 30
0.0
 10
-11.9589962035
 20
-14.9518937204
 30
0.0
 10
-12.3286733762
 20
-14.7617706807
 30
0.0
 10
-12.6549498714
 20
-14.5041396512
 30
0.0
 10
-12.9247756257
 20
-14.1878347075
 30
0.0
 10
-13.1266499932
 20
-13.8242954538
 30
0.0
 10
-13.2514707625
 20
-13.4277930035
 30
0.0
 10
-13.279356269
 20
-13.1516314432
 30
0.0
 10
-13.2791395686
 20
-13.0139918455
 30
0.0
 11
-9.0091930347
 21
-13.0167437159
 31
0.0
 11
-9.0519607378
 21
-13.4274359823
 31
0.0
 11
-9.1769703083
 21
-13.8209186728
 31
0.0
 11
-9.3782335706
 21
-14.1813847993
 31
0.0
 11
-9.6466832309
 21
-14.4950804011
 31
0.0
 11
-9.9709853047
 21
-14.7506952119
 31
0.0
 11
-10.3383032725
 21
-14.9395070305
 31
0.0
 11
-10.7348199777
 21
-15.0553202841
 31
0.0
 11
-11.146126284
 21
-15.0944034059
 31
0.0
 11
-11.5574968585
 21
-15.0554483793
 31
0.0
 11
-11.9541181678
 21
-14.939606251
 31
0.0
 11
-12.3214588149
 21
-14.7505071207
 31
0.0
 11
-12.6455584736
 21
-14.4943442991
 31
0.0
 11
-12.9134624912
 21
-14.1799446753
 31
0.0
 11
-13.1138201695
 21
-13.8187727002
 31
0.0
 11
-13.2376424069
 21
-13.4248206883
 31
0.0
 11
-13.2791395686
 21
-13.0139918455
 31
0.0
  0
SPLINE
  5
40A
100
AcDbEntity
  8
RACCORDO
100
AcDbSpline
 62
253
  6
CONTINUOUS
 70
0
 71
3
 72
9
 73
5
 74
3
 42
0.0000001
 43
0.0000001
 44
0.0000000001
 12
0.027019512
 22
-41.6602404684
 32
0.0
 13
-0.0270195137
 23
-41.6602404683
 33
0.0
 40
0.0
 40
0.0
 40
0.0
 40
0.0
 40
0.2499433183
 40
1.0
 40
1.0
 40
1.0
 40
1.0
 10
-21.528660218
 20
20.8301237974
 30
0.0
 10
-21.5264091025
 20
17.3592242165
 30
0.0
 10
-21.5196489052
 20
3.4724760272
 30
0.0
 10
-21.5219048312
 20
-10.4142765472
 30
0.0
 10
-21.5286602202
 20
-20.8301237891
 30
0.0
 11
-21.528660218
 21
20.8301237974
 31
0.0
 11
-21.5235930224
 21
10.4174240977
 31
0.0
 11
-21.5286602202
 21
-20.8301237891
 31
0.0
  0
LINE
  5
40B
100
AcDbEntity
  8
RACCORDO
100
AcDbLine
 62
253
  6
CONTINUOUS
 10
21.5286583084
 20
20.8314684802
 11
-21.5286583062
 21
20.8314684802
  0
SPLINE
  5
40C
100
AcDbEntity
  8
RACCORDO
100
AcDbSpline
 62
253
  6
CONTINUOUS
 70
0
 71
3
 72
9
 73
5
 74
3
 42
0.0000001
 43
0.0000001
 44
0.0000000001
 12
-0.0270195137
 22
41.6602404682
 32
0.0
 13
0.0270195119
 23
41.6602404682
 33
0.0
 40
0.0
 40
0.0
 40
0.0
 40
0.0
 40
0.2499433183
 40
1.0
 40
1.0
 40
1.0
 40
1.0
 10
21.5286602182
 20
-20.8301237979
 30
0.0
 10
21.5264091026
 20
-17.359224217
 30
0.0
 10
21.5196489052
 20
-3.4724760278
 30
0.0
 10
21.5219048316
 20
10.4142765466
 30
0.0
 10
21.5286602201
 20
20.8301237885
 30
0.0
 11
21.5286602182
 21
-20.8301237979
 31
0.0
 11
21.5235930225
 21
-10.4174240983
 31
0.0
 11
21.5286602201
 21
20.8301237885
 31
0.0
  0
SPLINE
  5
40D
100
AcDbEntity
  8
DRAFT
100
AcDbSpline
 62
253
  6
CONTINUOUS
 70
0
 71
3
 72
12
 73
8
 74
6
 42
0.0000001
 43
0.0000001
 44
0.0000000001
 12
1.0291761564
 22
0.0126060641
 32
0.0
 13
1.0292370816
 23
0.0057882282
 33
0.0
 40
0.0
 40
0.0
 40
0.0
 40
0.0
 40
0.2444295519
 40
0.4929654828
 40
0.6185850539
 40
0.7450264832
 40
1.0
 40
1.0
 40
1.0
 40
1.0
 10
-13.2791395686
 20
-13.0139918455
 30
0.0
 10
-13.1952858797
 20
-13.0129647473
 30
0.0
 10
-13.0261723035
 20
-13.0105367251
 30
0.0
 10
-12.8139469442
 20
-13.0096857266
 30
0.0
 10
-12.6422022211
 20
-13.0082457613
 30
0.0
 10
-12.4682905156
 20
-13.0043275287
 30
0.0
 10
-12.3374759393
 20
-13.0003571612
 30
0.0
 10
-12.2499998731
 20
-12.9998652129
 30
0.0
 11
-13.2791395686
 21
-13.0139918455
 31
0.0
 11
-13.0275775752
 21
-13.0109871529
 31
0.0
 11
-12.771776905
 21
-13.0092688617
 31
0.0
 11
-12.6424893235
 21
-13.0079444131
 31
0.0
 11
-12.5123778219
 21
-13.0052083797
 31
0.0
 11
-12.2499998731
 21
-12.9998652129
 31
0.0
  0
LINE
  5
40E
100
AcDbEntity
  8
RACCORDO
100
AcDbLine
 62
253
  6
CONTINUOUS
 10
-21.5286583084
 20
-20.8314684661
 11
21.5286583065
 21
-20.8314684661
  0
SPLINE
  5
40F
100
AcDbEntity
  8
DRAFT
100
AcDbSpline
 62
253
  6
CONTINUOUS
 70
0
 71
3
 72
12
 73
8
 74
6
 42
0.0000001
 43
0.0000001
 44
0.0000000001
 12
-1.025017236
 22
-0.0044347897
 32
0.0
 13
-1.024981549
 23
-0.009634606
 33
0.0
 40
0.0
 40
0.0
 40
0.0
 40
0.0
 40
0.2549419399
 40
0.3813719286
 40
0.5069894254
 40
0.7555365624
 40
1.0
 40
1.0
 40
1.0
 40
1.0
 10
-12.2499999313
 20
-10.0000192315
 30
0.0
 10
-12.3371065589
 20
-10.0003961028
 30
0.0
 10
-12.467387742
 20
-10.003370417
 30
0.0
 10
-12.640588713
 20
-10.0063154859
 30
0.0
 10
-12.8116282109
 20
-10.0074173268
 30
0.0
 10
-13.0229973475
 20
-10.00809252
 30
0.0
 10
-13.1914381592
 20
-10.0099387163
 30
0.0
 10
-13.2749616635
 20
-10.0107238193
 30
0.0
 11
-12.2499999313
 21
-10.0000192315
 31
0.0
 11
-12.5112914252
 21
-10.0040335252
 31
0.0
 11
-12.6408692158
 21
-10.0060913989
 31
0.0
 11
-12.7696265703
 21
-10.0070999541
 31
0.0
 11
-13.0243905853
 21
-10.0084294438
 31
0.0
 11
-13.2749616635
 21
-10.0107238193
 31
0.0
  0
SPLINE
  5
410
100
AcDbEntity
  8
DRAFT
100
AcDbSpline
 62
253
  6
CONTINUOUS
 70
0
 71
3
 72
12
 73
8
 74
6
 42
0.0000001
 43
0.0000001
 44
0.0000000001
 12
-1.2445615
 22
0.0132061102
 32
0.0
 13
-1.2446199153
 23
0.0053847073
 33
0.0
 40
0.0
 40
0.0
 40
0.0
 40
0.0
 40
0.2426211777
 40
0.4907503876
 40
0.6166011291
 40
0.7435130357
 40
1.0
 40
1.0
 40
1.0
 40
1.0
 10
-9.0054414399
 20
-10.0129197648
 30
0.0
 10
-9.1060937655
 20
-10.0118517374
 30
0.0
 10
-9.3096823837
 20
-10.0094892089
 30
0.0
 10
-9.5654936323
 20
-10.0083054617
 30
0.0
 10
-9.7732988246
 20
-10.0068616956
 30
0.0
 10
-9.9845497232
 20
-10.0036112951
 30
0.0
 10
-10.1435904744
 20
-10.0004698489
 30
0.0
 10
-10.250000069
 20
-10.0000094798
 30
0.0
 11
-9.0054414399
 21
-10.0129197648
 31
0.0
 11
-9.3073999429
 21
-10.0098628961
 31
0.0
 11
-9.6162232289
 21
-10.0079122405
 31
0.0
 11
-9.7728559112
 21
-10.0066454192
 31
0.0
 11
-9.9307979745
 21
-10.0043622589
 31
0.0
 11
-10.250000069
 21
-10.0000094798
 31
0.0
  0
LINE
  5
411
100
AcDbEntity
  8
RACCORDO
100
AcDbLine
 62
253
  6
CONTINUOUS
 10
-57.1227374248
 20
20.8314684802
 11
-57.4945975912
 21
20.8318714123
  0
LINE
  5
412
100
AcDbEntity
  8
RACCORDO
100
AcDbLine
 62
253
  6
CONTINUOUS
 10
-57.494597592
 20
-20.8318713981
 11
-57.1227374255
 21
-20.8314684661
  0
SPLINE
  5
413
100
AcDbEntity
  8
RACCORDO
100
AcDbSpline
 62
253
  6
CONTINUOUS
 70
0
 71
3
 72
20
 73
16
 74
14
 42
0.0000001
 43
0.0000001
 44
0.0000000001
 12
-0.5002087967
 22
0.0130984283
 32
0.0
 13
0.0130894964
 23
0.5002090305
 33
0.0
 40
0.0
 40
0.0
 40
0.0
 40
0.0
 40
0.0017601617
 40
0.0055960857
 40
0.0201987771
 40
0.0441136341
 40
0.0772179332
 40
0.1191811617
 40
0.1695848846
 40
0.2279973575
 40
0.2938476078
 40
0.4451452729
 40
0.6177669273
 40
0.8053187393
 40
1.0
 40
1.0
 40
1.0
 40
1.0
 10
-55.9545362496
 20
-21.9790966731
 30
0.0
 10
-55.9548297324
 20
-21.979088988
 30
0.0
 10
-55.9554138587
 20
-21.9780879641
 30
0.0
 10
-55.9561629485
 20
-21.9750407725
 30
0.0
 10
-55.9570981647
 20
-21.9677921093
 30
0.0
 10
-55.9579107849
 20
-21.9560074192
 30
0.0
 10
-55.9586537705
 20
-21.9394546708
 30
0.0
 10
-55.9592279564
 20
-21.9185565511
 30
0.0
 10
-55.9596506759
 20
-21.8934028605
 30
0.0
 10
-55.9599010865
 20
-21.86427309
 30
0.0
 10
-55.9600100423
 20
-21.8183102681
 30
0.0
 10
-55.959661241
 20
-21.7532999064
 30
0.0
 10
-55.9585949688
 20
-21.6679958083
 30
0.0
 10
-55.9568910401
 20
-21.5754649792
 30
0.0
 10
-55.9553856761
 20
-21.5117284522
 30
0.0
 10
-55.9545362496
 20
-21.4792680107
 30
0.0
 11
-55.9545362496
 21
-21.9790966731
 31
0.0
 11
-55.9551599313
 21
-21.9784747873
 31
0.0
 11
-55.9557516793
 21
-21.9766488601
 31
0.0
 11
-55.956833109
 21
-21.9694224311
 31
0.0
 11
-55.9577680079
 21
-21.9574924845
 31
0.0
 11
-55.9585444987
 21
-21.9409459561
 31
0.0
 11
-55.959155536
 21
-21.9199572773
 31
0.0
 11
-55.9595962395
 21
-21.8947400997
 31
0.0
 11
-55.9598619149
 21
-21.8655128586
 31
0.0
 11
-55.9599504907
 21
-21.8325628119
 31
0.0
 11
-55.9595962402
 21
-21.7568572751
 31
0.0
 11
-55.9585445002
 21
-21.6704872093
 31
0.0
 11
-55.9568331107
 21
-21.5766555897
 31
0.0
 11
-55.9545362496
 21
-21.4792680107
 31
0.0
  0
SPLINE
  5
414
100
AcDbEntity
  8
RACCORDO
100
AcDbSpline
 62
253
  6
CONTINUOUS
 70
0
 71
3
 72
20
 73
16
 74
14
 42
0.0000001
 43
0.0000001
 44
0.0000000001
 12
-0.5002087938
 22
-0.0130984282
 32
0.0
 13
0.0130894589
 23
-0.5002090286
 33
0.0
 40
0.0
 40
0.0
 40
0.0
 40
0.0
 40
0.0017601587
 40
0.0055960803
 40
0.0201987668
 40
0.0441136197
 40
0.0772179138
 40
0.1191811341
 40
0.1695848502
 40
0.2279973203
 40
0.2938475646
 40
0.4451452223
 40
0.6177668842
 40
0.8053187251
 40
1.0
 40
1.0
 40
1.0
 40
1.0
 10
-55.9545364252
 20
21.9790966685
 30
0.0
 10
-55.9548299074
 20
21.9790889834
 30
0.0
 10
-55.9554140318
 20
21.978087959
 30
0.0
 10
-55.9561631193
 20
21.9750407697
 30
0.0
 10
-55.9570983327
 20
21.9677921071
 30
0.0
 10
-55.9579109504
 20
21.9560074199
 30
0.0
 10
-55.9586539336
 20
21.9394546741
 30
0.0
 10
-55.959228118
 20
21.9185565578
 30
0.0
 10
-55.9596508364
 20
21.8934028704
 30
0.0
 10
-55.9599012463
 20
21.8642731026
 30
0.0
 10
-55.9600102021
 20
21.8183102836
 30
0.0
 10
-55.959661402
 20
21.7532999234
 30
0.0
 10
-55.9585951332
 20
21.6679958208
 30
0.0
 10
-55.9568912092
 20
21.5754649837
 30
0.0
 10
-55.9553858493
 20
21.5117284499
 30
0.0
 10
-55.9545364252
 20
21.4792680061
 30
0.0
 11
-55.9545364252
 21
21.9790966685
 31
0.0
 11
-55.955160105
 21
21.978474783
 31
0.0
 11
-55.9557518512
 21
21.9766488565
 31
0.0
 11
-55.9568332777
 21
21.9694224295
 31
0.0
 11
-55.9577681737
 21
21.9574924849
 31
0.0
 11
-55.9585446622
 21
21.9409459588
 31
0.0
 11
-55.9591556977
 21
21.9199572843
 31
0.0
 11
-55.9595964001
 21
21.8947401102
 31
0.0
 11
-55.9598620748
 21
21.8655128706
 31
0.0
 11
-55.9599506505
 21
21.8325628272
 31
0.0
 11
-55.9595964014
 21
21.7568572945
 31
0.0
 11
-55.9585446647
 21
21.6704872254
 31
0.0
 11
-55.9568332799
 21
21.5766555918
 31
0.0
 11
-55.9545364252
 21
21.4792680061
 31
0.0
  0
SPLINE
  5
415
100
AcDbEntity
  8
0
100
AcDbSpline
 62
253
  6
CONTINUOUS
 70
0
 71
3
 72
26
 73
22
 74
20
 42
0.0000001
 43
0.0000001
 44
0.0000000001
 12
-0.124641584
 22
0.2158928634
 32
0.0
 13
0.2158910366
 23
0.1246447481
 33
0.0
 40
0.0
 40
0.0
 40
0.0
 40
0.0
 40
0.1952373367
 40
0.3828767197
 40
0.5557522426
 40
0.6345529999
 40
0.7072370592
 40
0.7731083831
 40
0.8315339428
 40
0.8819525183
 40
0.923882571
 40
0.941534545
 40
0.956921227
 40
0.9700030008
 40
0.9807505828
 40
0.9891392048
 40
0.9951465495
 40
0.9972538103
 40
0.9987627829
 40
0.9996743245
 40
1.0
 40
1.0
 40
1.0
 40
1.0
 10
-49.9888789057
 20
-23.8443375673
 30
0.0
 10
-49.9969904694
 20
-23.8302874514
 30
0.0
 10
-50.0128845478
 20
-23.8027262761
 30
0.0
 10
-50.035914629
 20
-23.7626974507
 30
0.0
 10
-50.0540839583
 20
-23.7310346231
 30
0.0
 10
-50.0674736176
 20
-23.7076424751
 30
0.0
 10
-50.076433256
 20
-23.6919598726
 30
0.0
 10
-50.0845391513
 20
-23.67773947
 30
0.0
 10
-50.0917136456
 20
-23.665117805
 30
0.0
 10
-50.0978879441
 20
-23.6542160407
 30
0.0
 10
-50.1023758391
 20
-23.646252871
 30
0.0
 10
-50.1054203796
 20
-23.6408180062
 30
0.0
 10
-50.1072865039
 20
-23.6374702693
 30
0.0
 10
-50.1088642977
 20
-23.6346199
 30
0.0
 10
-50.1101535737
 20
-23.6322710363
 30
0.0
 10
-50.1111423864
 20
-23.6304369725
 30
0.0
 10
-50.1117922931
 20
-23.6292158922
 30
0.0
 10
-50.1121399374
 20
-23.6285132646
 30
0.0
 10
-50.1123235074
 20
-23.6281552608
 30
0.0
 10
-50.1123765388
 20
-23.6279791158
 30
0.0
 10
-50.1124479097
 20
-23.6278447476
 30
0.0
 10
-50.1124244729
 20
-23.6278312164
 30
0.0
 11
-49.9888789057
 21
-23.8443375673
 31
0.0
 11
-50.0131927097
 21
-23.8021751679
 31
0.0
 11
-50.0365185035
 21
-23.7616295042
 31
0.0
 11
-50.0579654575
 21
-23.7242490565
 31
0.0
 11
-50.0677236896
 21
-23.7071999644
 31
0.0
 11
-50.0767114015
 21
-23.6914667926
 31
0.0
 11
-50.08484252
 21
-23.6772002194
 31
0.0
 11
-50.0920388919
 21
-23.6645373638
 31
0.0
 11
-50.0982313757
 21
-23.6535998863
 31
0.0
 11
-50.1033608085
 21
-23.6444922901
 31
0.0
 11
-50.1055109713
 21
-23.6406529184
 31
0.0
 11
-50.107377864
 21
-23.6373021573
 31
0.0
 11
-50.1089566582
 21
-23.6344486507
 31
0.0
 11
-50.1102438043
 21
-23.632098824
 31
0.0
 11
-50.1112362976
 21
-23.630258157
 31
0.0
 11
-50.1119313986
 21
-23.6289316788
 31
0.0
 11
-50.1121669762
 21
-23.6284621448
 31
0.0
 11
-50.1123277558
 21
-23.6281220646
 31
0.0
 11
-50.1124136254
 21
-23.6279116759
 31
0.0
 11
-50.1124244729
 21
-23.6278312164
 31
0.0
  0
SPLINE
  5
416
100
AcDbEntity
  8
0
100
AcDbSpline
 62
7
  6
CONTINUOUS
 70
0
 71
3
 72
13
 73
9
 74
7
 42
0.0000001
 43
0.0000001
 44
0.0000000001
 12
-0.2489101548
 22
0.143711993
 32
0.0
 13
-0.244355276
 23
0.1513687366
 33
0.0
 40
0.0
 40
0.0
 40
0.0
 40
0.0
 40
0.3612210663
 40
0.682170423
 40
0.812667465
 40
0.9137049675
 40
0.9780318448
 40
1.0
 40
1.0
 40
1.0
 40
1.0
 10
-48.9888789057
 20
-23.2669872981
 30
0.0
 10
-49.0188494363
 20
-23.249683365
 30
0.0
 10
-49.0754368118
 20
-23.2169831279
 30
0.0
 10
-49.1428011027
 20
-23.1779450624
 30
0.0
 10
-49.1885800711
 20
-23.1513733071
 30
0.0
 10
-49.2130465504
 20
-23.1370619739
 30
0.0
 10
-49.2285741375
 20
-23.1280587384
 30
0.0
 10
-49.235635128
 20
-23.1237581614
 30
0.0
 10
-49.2374244729
 20
-23.1226497308
 30
0.0
 11
-48.9888789057
 21
-23.2669872981
 31
0.0
 11
-49.0787661151
 21
-23.2150332915
 31
0.0
 11
-49.1585808067
 21
-23.1687830511
 31
0.0
 11
-49.191008995
 21
-23.1499360992
 31
0.0
 11
-49.2160942211
 21
-23.1353054509
 31
0.0
 11
-49.2320341403
 21
-23.1259378303
 31
0.0
 11
-49.2374244729
 21
-23.1226497308
 31
0.0
  0
SPLINE
  5
417
100
AcDbEntity
  8
0
100
AcDbSpline
 62
253
  6
CONTINUOUS
 70
0
 71
3
 72
26
 73
22
 74
20
 42
0.0000001
 43
0.0000001
 44
0.0000000001
 12
0.124641584
 22
0.2158928633
 32
0.0
 13
-0.2158910366
 23
0.1246447481
 33
0.0
 40
0.0
 40
0.0
 40
0.0
 40
0.0
 40
0.1952373303
 40
0.3828767077
 40
0.5557522251
 40
0.6345529812
 40
0.7072370395
 40
0.7731083627
 40
0.8315339236
 40
0.8819525002
 40
0.9238825542
 40
0.9415345305
 40
0.9569212142
 40
0.9700029891
 40
0.9807505739
 40
0.9891391978
 40
0.995146544
 40
0.9972538066
 40
0.998762781
 40
0.999674324
 40
1.0
 40
1.0
 40
1.0
 40
1.0
 10
-46.9859700401
 20
-23.8443375673
 30
0.0
 10
-46.9778584767
 20
-23.8302874519
 30
0.0
 10
-46.9619643988
 20
-23.8027262774
 30
0.0
 10
-46.9389343183
 20
-23.7626974533
 30
0.0
 10
-46.9207649895
 20
-23.7310346265
 30
0.0
 10
-46.9073753306
 20
-23.7076424792
 30
0.0
 10
-46.8984156923
 20
-23.6919598769
 30
0.0
 10
-46.8903097969
 20
-23.6777394743
 30
0.0
 10
-46.8831353026
 20
-23.6651178092
 30
0.0
 10
-46.8769610039
 20
-23.6542160446
 30
0.0
 10
-46.8724731087
 20
-23.6462528745
 30
0.0
 10
-46.869428568
 20
-23.6408180094
 30
0.0
 10
-46.8675624434
 20
-23.6374702721
 30
0.0
 10
-46.8659846495
 20
-23.6346199025
 30
0.0
 10
-46.8646953732
 20
-23.6322710383
 30
0.0
 10
-46.8637065603
 20
-23.630436974
 30
0.0
 10
-46.8630566534
 20
-23.6292158934
 30
0.0
 10
-46.8627090089
 20
-23.6285132654
 30
0.0
 10
-46.8625254386
 20
-23.6281552612
 30
0.0
 10
-46.8624724072
 20
-23.627979116
 30
0.0
 10
-46.8624010361
 20
-23.6278447476
 30
0.0
 10
-46.8624244729
 20
-23.6278312164
 30
0.0
 11
-46.9859700401
 21
-23.8443375673
 31
0.0
 11
-46.9616562369
 21
-23.8021751692
 31
0.0
 11
-46.9383304438
 21
-23.7616295068
 31
0.0
 11
-46.9168834905
 21
-23.7242490603
 31
0.0
 11
-46.9071252585
 21
-23.7071999685
 31
0.0
 11
-46.8981375467
 21
-23.6914667969
 31
0.0
 11
-46.8900064283
 21
-23.6772002239
 31
0.0
 11
-46.8828100563
 21
-23.6645373679
 31
0.0
 11
-46.8766175724
 21
-23.6535998903
 31
0.0
 11
-46.8714881394
 21
-23.6444922937
 31
0.0
 11
-46.8693379762
 21
-23.6406529215
 31
0.0
 11
-46.8674710834
 21
-23.6373021601
 31
0.0
 11
-46.865892289
 21
-23.6344486533
 31
0.0
 11
-46.8646051425
 21
-23.632098826
 31
0.0
 11
-46.8636126491
 21
-23.6302581585
 31
0.0
 11
-46.8629175478
 21
-23.6289316801
 31
0.0
 11
-46.86268197
 21
-23.6284621457
 31
0.0
 11
-46.8625211903
 21
-23.628122065
 31
0.0
 11
-46.8624353205
 21
-23.627911676
 31
0.0
 11
-46.8624244729
 21
-23.6278312164
 31
0.0
  0
SPLINE
  5
418
100
AcDbEntity
  8
0
100
AcDbSpline
 62
253
  6
CONTINUOUS
 70
0
 71
3
 72
26
 73
22
 74
20
 42
0.0000001
 43
0.0000001
 44
0.0000000001
 12
0.2500094789
 22
-0.0014545126
 32
0.0
 13
-0.0014544634
 23
-0.2500094792
 33
0.0
 40
0.0
 40
0.0
 40
0.0
 40
0.0
 40
0.0003335531
 40
0.0012485377
 40
0.002760312
 40
0.0048703484
 40
0.0108838626
 40
0.0192798932
 40
0.0300362305
 40
0.0431281083
 40
0.0585261522
 40
0.0761906048
 40
0.118148324
 40
0.168596747
 40
0.2270523391
 40
0.2929515808
 40
0.3656588731
 40
0.4444754185
 40
0.6173484607
 40
0.804919804
 40
1.0
 40
1.0
 40
1.0
 40
1.0
 10
-46.9859700401
 20
24.495628166
 30
0.0
 10
-46.9859422429
 20
24.4956280043
 30
0.0
 10
-46.9859290052
 20
24.495477879
 30
0.0
 10
-46.98588856
 20
24.4952943483
 30
0.0
 10
-46.9858636018
 20
24.4948925842
 30
0.0
 10
-46.9858125512
 20
24.4941060198
 30
0.0
 10
-46.9857635794
 20
24.492719004
 30
0.0
 10
-46.9857064273
 20
24.4906278529
 30
0.0
 10
-46.9856547658
 20
24.4879390802
 30
0.0
 10
-46.9856059297
 20
24.4846694877
 30
0.0
 10
-46.9855614637
 20
24.4808230755
 30
0.0
 10
-46.9855044281
 20
24.4745714119
 30
0.0
 10
-46.9854479854
 20
24.46539845
 30
0.0
 10
-46.9854011496
 20
24.4528260562
 30
0.0
 10
-46.9853731669
 20
24.4382583307
 30
0.0
 10
-46.9853643929
 20
24.4218355876
 30
0.0
 10
-46.9853750812
 20
24.403716003
 30
0.0
 10
-46.9854166255
 20
24.3766814763
 30
0.0
 10
-46.9855186099
 20
24.3400745182
 30
0.0
 10
-46.9857078563
 20
24.2937786412
 30
0.0
 10
-46.9858754611
 20
24.2618896962
 30
0.0
 10
-46.9859700401
 20
24.2456323968
 30
0.0
 11
-46.9859700401
 21
24.495628166
 31
0.0
 11
-46.985934809
 21
24.4955525807
 31
0.0
 11
-46.9859004614
 21
24.4953264153
 31
0.0
 11
-46.9858670211
 21
24.4949499332
 31
0.0
 11
-46.985834512
 21
24.4944233978
 31
0.0
 11
-46.9857723826
 21
24.4929212211
 31
0.0
 11
-46.9857142493
 21
24.4908229035
 31
0.0
 11
-46.9856602438
 21
24.488134214
 31
0.0
 11
-46.9856104894
 21
24.4848614432
 31
0.0
 11
-46.985565104
 21
24.4810119887
 31
0.0
 11
-46.9855241927
 21
24.4765958229
 31
0.0
 11
-46.985456194
 21
24.4661060382
 31
0.0
 11
-46.9854071497
 21
24.4534933362
 31
0.0
 11
-46.9853775338
 21
24.4388786668
 31
0.0
 11
-46.9853676312
 21
24.4224029558
 31
0.0
 11
-46.9853775338
 21
24.4042251386
 31
0.0
 11
-46.9854071495
 21
24.384519944
 31
0.0
 11
-46.9855241924
 21
24.3412994718
 31
0.0
 11
-46.9857142489
 21
24.2944044496
 31
0.0
 11
-46.9859700401
 21
24.2456323968
 31
0.0
  0
LINE
  5
419
100
AcDbEntity
  8
0
100
AcDbLine
 62
7
  6
CONTINUOUS
 10
-47.7374244729
 20
24.5
 11
-47.7374244729
 21
24.2500042308
  0
SPLINE
  5
41A
100
AcDbEntity
  8
0
100
AcDbSpline
 62
253
  6
CONTINUOUS
 70
0
 71
3
 72
26
 73
22
 74
20
 42
0.0000001
 43
0.0000001
 44
0.0000000001
 12
-0.2500094788
 22
-0.0014545126
 32
0.0
 13
0.0014544634
 23
-0.2500094791
 33
0.0
 40
0.0
 40
0.0
 40
0.0
 40
0.0
 40
0.0003335562
 40
0.0012485491
 40
0.002760334
 40
0.0048703807
 40
0.0108839043
 40
0.0192799462
 40
0.0300363018
 40
0.0431281863
 40
0.0585262415
 40
0.0761907094
 40
0.1181484384
 40
0.1685968697
 40
0.2270524715
 40
0.2929517109
 40
0.3656589972
 40
0.4444755363
 40
0.6173485454
 40
0.8049198518
 40
1.0
 40
1.0
 40
1.0
 40
1.0
 10
-49.9888789057
 20
24.4869014213
 30
0.0
 10
-49.9889067032
 20
24.4869012596
 30
0.0
 10
-49.9889199403
 20
24.4867511326
 30
0.0
 10
-49.9889603861
 20
24.4865676007
 30
0.0
 10
-49.988985344
 20
24.4861658338
 30
0.0
 10
-49.9890363948
 20
24.4853792671
 30
0.0
 10
-49.9890853668
 20
24.4839922486
 30
0.0
 10
-49.9891425189
 20
24.4819010943
 30
0.0
 10
-49.9891941803
 20
24.4792123186
 30
0.0
 10
-49.9892430164
 20
24.475942723
 30
0.0
 10
-49.9892874824
 20
24.472096308
 30
0.0
 10
-49.9893445179
 20
24.4658446414
 30
0.0
 10
-49.9894009606
 20
24.4566716767
 30
0.0
 10
-49.9894477963
 20
24.4440992806
 30
0.0
 10
-49.9894757789
 20
24.4295315538
 30
0.0
 10
-49.9894845529
 20
24.4131088105
 30
0.0
 10
-49.9894738646
 20
24.3949892272
 30
0.0
 10
-49.9894323202
 20
24.3679547043
 30
0.0
 10
-49.9893303358
 20
24.3313477526
 30
0.0
 10
-49.9891410895
 20
24.2850518854
 30
0.0
 10
-49.9889734847
 20
24.2531629475
 30
0.0
 10
-49.9888789057
 20
24.2369056521
 30
0.0
 11
-49.9888789057
 21
24.4869014213
 31
0.0
 11
-49.9889141368
 21
24.4868258351
 31
0.0
 11
-49.9889484845
 21
24.4865996677
 31
0.0
 11
-49.9889819248
 21
24.4862231829
 31
0.0
 11
-49.989014434
 21
24.4856966449
 31
0.0
 11
-49.9890765636
 21
24.4841944659
 31
0.0
 11
-49.9891346969
 21
24.4820961454
 31
0.0
 11
-49.9891887023
 21
24.4794074514
 31
0.0
 11
-49.9892384566
 21
24.4761346789
 31
0.0
 11
-49.989283842
 21
24.4722852216
 31
0.0
 11
-49.9893247533
 21
24.4678690519
 31
0.0
 11
-49.989392752
 21
24.4573792648
 31
0.0
 11
-49.9894417962
 21
24.4447665607
 31
0.0
 11
-49.989471412
 21
24.4301518888
 31
0.0
 11
-49.9894813146
 21
24.4136761785
 31
0.0
 11
-49.989471412
 21
24.3954983628
 31
0.0
 11
-49.9894417962
 21
24.3757931698
 31
0.0
 11
-49.9893247533
 21
24.3325727059
 31
0.0
 11
-49.9891346969
 21
24.2856776929
 31
0.0
 11
-49.9888789057
 21
24.2369056521
 31
0.0
  0
SPLINE
  5
41B
100
AcDbEntity
  8
0
100
AcDbSpline
 62
253
  6
CONTINUOUS
 70
0
 71
3
 72
26
 73
22
 74
20
 42
0.0000001
 43
0.0000001
 44
0.0000000001
 12
0.124641584
 22
-0.2158928634
 32
0.0
 13
-0.2158910366
 23
-0.1246447481
 33
0.0
 40
0.0
 40
0.0
 40
0.0
 40
0.0
 40
0.1952373367
 40
0.3828767197
 40
0.5557522426
 40
0.6345529999
 40
0.7072370592
 40
0.7731083831
 40
0.8315339428
 40
0.8819525183
 40
0.923882571
 40
0.941534545
 40
0.956921227
 40
0.9700030008
 40
0.9807505828
 40
0.9891392048
 40
0.9951465495
 40
0.9972538103
 40
0.9987627829
 40
0.9996743245
 40
1.0
 40
1.0
 40
1.0
 40
1.0
 10
-46.9859700401
 20
23.8443375673
 30
0.0
 10
-46.9778584764
 20
23.8302874514
 30
0.0
 10
-46.9619643981
 20
23.8027262761
 30
0.0
 10
-46.9389343168
 20
23.7626974507
 30
0.0
 10
-46.9207649875
 20
23.7310346231
 30
0.0
 10
-46.9073753282
 20
23.7076424751
 30
0.0
 10
-46.8984156899
 20
23.6919598726
 30
0.0
 10
-46.8903097945
 20
23.67773947
 30
0.0
 10
-46.8831353003
 20
23.665117805
 30
0.0
 10
-46.8769610017
 20
23.6542160407
 30
0.0
 10
-46.8724731067
 20
23.646252871
 30
0.0
 10
-46.8694285662
 20
23.6408180062
 30
0.0
 10
-46.8675624419
 20
23.6374702693
 30
0.0
 10
-46.8659846481
 20
23.6346199
 30
0.0
 10
-46.8646953721
 20
23.6322710363
 30
0.0
 10
-46.8637065594
 20
23.6304369725
 30
0.0
 10
-46.8630566527
 20
23.6292158922
 30
0.0
 10
-46.8627090084
 20
23.6285132646
 30
0.0
 10
-46.8625254384
 20
23.6281552608
 30
0.0
 10
-46.862472407
 20
23.6279791158
 30
0.0
 10
-46.8624010361
 20
23.6278447476
 30
0.0
 10
-46.8624244729
 20
23.6278312164
 30
0.0
 11
-46.9859700401
 21
23.8443375673
 31
0.0
 11
-46.9616562361
 21
23.8021751679
 31
0.0
 11
-46.9383304423
 21
23.7616295041
 31
0.0
 11
-46.9168834884
 21
23.7242490565
 31
0.0
 11
-46.9071252562
 21
23.7071999644
 31
0.0
 11
-46.8981375443
 21
23.6914667926
 31
0.0
 11
-46.8900064258
 21
23.6772002194
 31
0.0
 11
-46.882810054
 21
23.6645373638
 31
0.0
 11
-46.8766175702
 21
23.6535998863
 31
0.0
 11
-46.8714881373
 21
23.6444922901
 31
0.0
 11
-46.8693379745
 21
23.6406529184
 31
0.0
 11
-46.8674710819
 21
23.6373021573
 31
0.0
 11
-46.8658922876
 21
23.6344486507
 31
0.0
 11
-46.8646051415
 21
23.632098824
 31
0.0
 11
-46.8636126482
 21
23.630258157
 31
0.0
 11
-46.8629175472
 21
23.6289316788
 31
0.0
 11
-46.8626819696
 21
23.6284621448
 31
0.0
 11
-46.86252119
 21
23.6281220646
 31
0.0
 11
-46.8624353205
 21
23.6279116759
 31
0.0
 11
-46.8624244729
 21
23.6278312164
 31
0.0
  0
SPLINE
  5
41C
100
AcDbEntity
  8
0
100
AcDbSpline
 62
7
  6
CONTINUOUS
 70
0
 71
3
 72
13
 73
9
 74
7
 42
0.0000001
 43
0.0000001
 44
0.0000000001
 12
0.2444017232
 22
0.1512932121
 32
0.0
 13
0.2489101449
 23
0.1437119873
 33
0.0
 40
0.0
 40
0.0
 40
0.0
 40
0.0
 40
0.0225028512
 40
0.0871612167
 40
0.1883383507
 40
0.3188104058
 40
0.6393765232
 40
1.0
 40
1.0
 40
1.0
 40
1.0
 10
-49.2374244729
 20
23.1226497308
 30
0.0
 10
-49.2355912277
 20
23.1237845737
 30
0.0
 10
-49.2284580074
 20
23.1281260914
 30
0.0
 10
-49.2128478501
 20
23.1371789398
 30
0.0
 10
-49.18834362
 20
23.1515104338
 30
0.0
 10
-49.1425870458
 20
23.1780694741
 30
0.0
 10
-49.0753058238
 20
23.2170587094
 30
0.0
 10
-49.018799853
 20
23.2497119926
 30
0.0
 10
-48.9888789057
 20
23.2669872981
 30
0.0
 11
-49.2374244729
 21
23.1226497308
 31
0.0
 11
-49.2319019223
 21
23.126016189
 31
0.0
 11
-49.215879319
 21
23.1354311576
 31
0.0
 11
-49.190759138
 21
23.1500815293
 31
0.0
 11
-49.158336993
 21
23.1689245842
 31
0.0
 11
-49.078617449
 21
23.215119319
 31
0.0
 11
-48.9888789057
 21
23.2669872981
 31
0.0
  0
LINE
  5
41D
100
AcDbEntity
  8
RACCORDO
100
AcDbLine
 62
253
  6
CONTINUOUS
 10
-35.9339339971
 20
-19.0166572575
 11
-35.869020444
 21
-18.5521029846
  0
SPLINE
  5
41E
100
AcDbEntity
  8
0
100
AcDbSpline
 62
253
  6
CONTINUOUS
 70
0
 71
3
 72
26
 73
22
 74
20
 42
0.0000001
 43
0.0000001
 44
0.0000000001
 12
-0.124641584
 22
-0.2158928633
 32
0.0
 13
0.2158910365
 23
-0.1246447481
 33
0.0
 40
0.0
 40
0.0
 40
0.0
 40
0.0
 40
0.1952373303
 40
0.3828767077
 40
0.5557522251
 40
0.6345529812
 40
0.7072370395
 40
0.7731083627
 40
0.8315339236
 40
0.8819525002
 40
0.9238825542
 40
0.9415345305
 40
0.9569212142
 40
0.9700029891
 40
0.9807505739
 40
0.9891391978
 40
0.995146544
 40
0.9972538066
 40
0.998762781
 40
0.999674324
 40
1.0
 40
1.0
 40
1.0
 40
1.0
 10
-49.9888789057
 20
23.8443375673
 30
0.0
 10
-49.9969904691
 20
23.8302874519
 30
0.0
 10
-50.012884547
 20
23.8027262774
 30
0.0
 10
-50.0359146275
 20
23.7626974533
 30
0.0
 10
-50.0540839563
 20
23.7310346265
 30
0.0
 10
-50.0674736153
 20
23.7076424792
 30
0.0
 10
-50.0764332535
 20
23.6919598769
 30
0.0
 10
-50.0845391489
 20
23.6777394743
 30
0.0
 10
-50.0917136432
 20
23.6651178092
 30
0.0
 10
-50.0978879419
 20
23.6542160446
 30
0.0
 10
-50.1023758371
 20
23.6462528745
 30
0.0
 10
-50.1054203778
 20
23.6408180094
 30
0.0
 10
-50.1072865024
 20
23.6374702721
 30
0.0
 10
-50.1088642964
 20
23.6346199025
 30
0.0
 10
-50.1101535726
 20
23.6322710383
 30
0.0
 10
-50.1111423856
 20
23.630436974
 30
0.0
 10
-50.1117922925
 20
23.6292158934
 30
0.0
 10
-50.1121399369
 20
23.6285132654
 30
0.0
 10
-50.1123235072
 20
23.6281552612
 30
0.0
 10
-50.1123765386
 20
23.627979116
 30
0.0
 10
-50.1124479098
 20
23.6278447476
 30
0.0
 10
-50.1124244729
 20
23.6278312164
 30
0.0
 11
-49.9888789057
 21
23.8443375673
 31
0.0
 11
-50.0131927089
 21
23.8021751692
 31
0.0
 11
-50.036518502
 21
23.7616295068
 31
0.0
 11
-50.0579654553
 21
23.7242490603
 31
0.0
 11
-50.0677236873
 21
23.7071999685
 31
0.0
 11
-50.0767113991
 21
23.6914667969
 31
0.0
 11
-50.0848425175
 21
23.6772002239
 31
0.0
 11
-50.0920388895
 21
23.6645373679
 31
0.0
 11
-50.0982313734
 21
23.6535998903
 31
0.0
 11
-50.1033608064
 21
23.6444922937
 31
0.0
 11
-50.1055109696
 21
23.6406529215
 31
0.0
 11
-50.1073778624
 21
23.6373021601
 31
0.0
 11
-50.1089566568
 21
23.6344486533
 31
0.0
 11
-50.1102438033
 21
23.632098826
 31
0.0
 11
-50.1112362967
 21
23.6302581585
 31
0.0
 11
-50.111931398
 21
23.6289316801
 31
0.0
 11
-50.1121669758
 21
23.6284621457
 31
0.0
 11
-50.1123277556
 21
23.628122065
 31
0.0
 11
-50.1124136253
 21
23.627911676
 31
0.0
 11
-50.1124244729
 21
23.6278312164
 31
0.0
  0
LINE
  5
41F
100
AcDbEntity
  8
RACCORDO
100
AcDbLine
 62
253
  6
CONTINUOUS
 10
-35.9339339916
 20
-19.0166572575
 11
-45.7374244729
 21
-15.629521819
  0
LINE
  5
420
100
AcDbEntity
  8
RACCORDO
100
AcDbLine
 62
253
  6
CONTINUOUS
 10
-45.7374244729
 20
15.629521819
 11
-35.9339339916
 21
19.0166572575
  0
LINE
  5
421
100
AcDbEntity
  8
RACCORDO
100
AcDbLine
 62
253
  6
CONTINUOUS
 10
-35.869020444
 20
18.5521029846
 11
-35.9339339971
 21
19.0166572575
  0
SPLINE
  5
422
100
AcDbEntity
  8
0
100
AcDbSpline
 62
253
  6
CONTINUOUS
 70
0
 71
3
 72
26
 73
22
 74
20
 42
0.0000001
 43
0.0000001
 44
0.0000000001
 12
0.0014544634
 22
-0.2500094792
 32
0.0
 13
-0.2500094789
 23
-0.0014545126
 33
0.0
 40
0.0
 40
0.0
 40
0.0
 40
0.0
 40
0.195080196
 40
0.3826515393
 40
0.5555245815
 40
0.6343411269
 40
0.7070484192
 40
0.7729476609
 40
0.831403253
 40
0.881851676
 40
0.9238093952
 40
0.9414738478
 40
0.9568718917
 40
0.9699637695
 40
0.9807201068
 40
0.9891161374
 40
0.9951296516
 40
0.997239688
 40
0.9987514623
 40
0.9996664469
 40
1.0
 40
1.0
 40
1.0
 40
1.0
 10
-46.9859700401
 20
-24.2456323968
 30
0.0
 10
-46.9858754611
 20
-24.2618896962
 30
0.0
 10
-46.9857078563
 20
-24.2937786412
 30
0.0
 10
-46.9855186099
 20
-24.3400745182
 30
0.0
 10
-46.9854166255
 20
-24.3766814763
 30
0.0
 10
-46.9853750812
 20
-24.403716003
 30
0.0
 10
-46.9853643929
 20
-24.4218355876
 30
0.0
 10
-46.9853731669
 20
-24.4382583307
 30
0.0
 10
-46.9854011496
 20
-24.4528260562
 30
0.0
 10
-46.9854479854
 20
-24.46539845
 30
0.0
 10
-46.9855044281
 20
-24.4745714119
 30
0.0
 10
-46.9855614637
 20
-24.4808230755
 30
0.0
 10
-46.9856059297
 20
-24.4846694877
 30
0.0
 10
-46.9856547658
 20
-24.4879390802
 30
0.0
 10
-46.9857064273
 20
-24.4906278529
 30
0.0
 10
-46.9857635794
 20
-24.492719004
 30
0.0
 10
-46.9858125512
 20
-24.4941060199
 30
0.0
 10
-46.9858636018
 20
-24.4948925842
 30
0.0
 10
-46.98588856
 20
-24.4952943483
 30
0.0
 10
-46.9859290052
 20
-24.495477879
 30
0.0
 10
-46.9859422429
 20
-24.4956280043
 30
0.0
 10
-46.9859700401
 20
-24.495628166
 30
0.0
 11
-46.9859700401
 21
-24.2456323968
 31
0.0
 11
-46.9857142489
 21
-24.2944044496
 31
0.0
 11
-46.9855241924
 21
-24.3412994718
 31
0.0
 11
-46.9854071495
 21
-24.384519944
 31
0.0
 11
-46.9853775338
 21
-24.4042251386
 31
0.0
 11
-46.9853676312
 21
-24.4224029558
 31
0.0
 11
-46.9853775338
 21
-24.4388786668
 31
0.0
 11
-46.9854071497
 21
-24.4534933362
 31
0.0
 11
-46.985456194
 21
-24.4661060382
 31
0.0
 11
-46.9855241927
 21
-24.4765958229
 31
0.0
 11
-46.985565104
 21
-24.4810119887
 31
0.0
 11
-46.9856104894
 21
-24.4848614432
 31
0.0
 11
-46.9856602438
 21
-24.488134214
 31
0.0
 11
-46.9857142493
 21
-24.4908229035
 31
0.0
 11
-46.9857723826
 21
-24.4929212211
 31
0.0
 11
-46.985834512
 21
-24.4944233978
 31
0.0
 11
-46.9858670211
 21
-24.4949499332
 31
0.0
 11
-46.9859004614
 21
-24.4953264153
 31
0.0
 11
-46.985934809
 21
-24.4955525807
 31
0.0
 11
-46.9859700401
 21
-24.495628166
 31
0.0
  0
LINE
  5
423
100
AcDbEntity
  8
0
100
AcDbLine
 62
7
  6
CONTINUOUS
 10
-47.7374244729
 20
-24.2500042308
 11
-47.7374244729
 21
-24.5
  0
SPLINE
  5
424
100
AcDbEntity
  8
0
100
AcDbSpline
 62
253
  6
CONTINUOUS
 70
0
 71
3
 72
26
 73
22
 74
20
 42
0.0000001
 43
0.0000001
 44
0.0000000001
 12
-0.0014544634
 22
-0.2500094791
 32
0.0
 13
0.2500094788
 23
-0.0014545126
 33
0.0
 40
0.0
 40
0.0
 40
0.0
 40
0.0
 40
0.1950801482
 40
0.3826514546
 40
0.5555244637
 40
0.6343410028
 40
0.7070482891
 40
0.7729475285
 40
0.8314031303
 40
0.8818515616
 40
0.9238092906
 40
0.9414737585
 40
0.9568718137
 40
0.9699636982
 40
0.9807200538
 40
0.9891160957
 40
0.9951296193
 40
0.997239666
 40
0.9987514509
 40
0.9996664438
 40
1.0
 40
1.0
 40
1.0
 40
1.0
 10
-49.9888789057
 20
-24.2369056521
 30
0.0
 10
-49.9889734847
 20
-24.2531629475
 30
0.0
 10
-49.9891410895
 20
-24.2850518854
 30
0.0
 10
-49.9893303358
 20
-24.3313477526
 30
0.0
 10
-49.9894323202
 20
-24.3679547043
 30
0.0
 10
-49.9894738646
 20
-24.3949892272
 30
0.0
 10
-49.9894845529
 20
-24.4131088105
 30
0.0
 10
-49.9894757789
 20
-24.4295315538
 30
0.0
 10
-49.9894477963
 20
-24.4440992806
 30
0.0
 10
-49.9894009606
 20
-24.4566716767
 30
0.0
 10
-49.9893445179
 20
-24.4658446414
 30
0.0
 10
-49.9892874824
 20
-24.472096308
 30
0.0
 10
-49.9892430164
 20
-24.475942723
 30
0.0
 10
-49.9891941803
 20
-24.4792123186
 30
0.0
 10
-49.9891425189
 20
-24.4819010943
 30
0.0
 10
-49.9890853668
 20
-24.4839922486
 30
0.0
 10
-49.9890363948
 20
-24.4853792671
 30
0.0
 10
-49.988985344
 20
-24.4861658338
 30
0.0
 10
-49.9889603861
 20
-24.4865676007
 30
0.0
 10
-49.9889199403
 20
-24.4867511326
 30
0.0
 10
-49.9889067032
 20
-24.4869012596
 30
0.0
 10
-49.9888789057
 20
-24.4869014213
 30
0.0
 11
-49.9888789057
 21
-24.2369056521
 31
0.0
 11
-49.9891346969
 21
-24.2856776929
 31
0.0
 11
-49.9893247533
 21
-24.3325727059
 31
0.0
 11
-49.9894417962
 21
-24.3757931698
 31
0.0
 11
-49.989471412
 21
-24.3954983628
 31
0.0
 11
-49.9894813146
 21
-24.4136761785
 31
0.0
 11
-49.989471412
 21
-24.4301518888
 31
0.0
 11
-49.9894417962
 21
-24.4447665607
 31
0.0
 11
-49.989392752
 21
-24.4573792648
 31
0.0
 11
-49.9893247533
 21
-24.4678690519
 31
0.0
 11
-49.989283842
 21
-24.4722852216
 31
0.0
 11
-49.9892384566
 21
-24.4761346789
 31
0.0
 11
-49.9891887023
 21
-24.4794074514
 31
0.0
 11
-49.9891346969
 21
-24.4820961454
 31
0.0
 11
-49.9890765636
 21
-24.4841944659
 31
0.0
 11
-49.989014434
 21
-24.4856966449
 31
0.0
 11
-49.9889819248
 21
-24.4862231829
 31
0.0
 11
-49.9889484845
 21
-24.4865996677
 31
0.0
 11
-49.9889141368
 21
-24.4868258351
 31
0.0
 11
-49.9888789057
 21
-24.4869014213
 31
0.0
  0
ELLIPSE
  5
425
100
AcDbEntity
  8
0
100
AcDbEllipse
 62
7
  6
CONTINUOUS
 10
10.05
 20
-22.3842776662
 30
0.0
 11
0.2
 21
0.0
 31
0.0
 40
0.0524077793
 41
-0.0
 42
1.5707963268
  0
ELLIPSE
  5
426
100
AcDbEntity
  8
0
100
AcDbEllipse
 62
7
  6
CONTINUOUS
 10
12.45
 20
-22.3842776662
 30
0.0
 11
0.2
 21
-0.0
 31
0.0
 40
0.0524077793
 41
1.5707963268
 42
3.1415926536
  0
ELLIPSE
  5
427
100
AcDbEntity
  8
0
100
AcDbEllipse
 62
7
  6
CONTINUOUS
 10
10.05
 20
22.3842776662
 30
0.0
 11
0.2
 21
-0.0
 31
0.0
 40
0.0524077793
 41
-1.5707963268
 42
0.0
  0
ELLIPSE
  5
428
100
AcDbEntity
  8
0
100
AcDbEllipse
 62
7
  6
CONTINUOUS
 10
12.45
 20
22.3842776662
 30
0.0
 11
0.2
 21
0.0
 31
0.0
 40
0.0524077793
 41
-3.1415926536
 42
-1.5707963268
  0
ELLIPSE
  5
429
100
AcDbEntity
  8
0
100
AcDbEllipse
 62
7
  6
CONTINUOUS
 10
1.3572765181
 20
-22.3344902759
 30
0.0
 11
0.25
 21
-0.0
 31
0.0
 40
0.0524077793
 41
1.5707963268
 42
3.1357748894
  0
ELLIPSE
  5
42A
100
AcDbEntity
  8
0
100
AcDbEllipse
 62
7
  6
CONTINUOUS
 10
3.7427234819
 20
-22.3344902759
 30
0.0
 11
0.25
 21
0.0
 31
0.0
 40
0.0524077793
 41
0.0058177642
 42
1.5707963268
  0
ELLIPSE
  5
42B
100
AcDbEntity
  8
0
100
AcDbEllipse
 62
7
  6
CONTINUOUS
 10
21.1427234819
 20
-22.3344902759
 30
0.0
 11
0.25
 21
0.0
 31
0.0
 40
0.0524077793
 41
0.0058177642
 42
1.5707963268
  0
ELLIPSE
  5
42C
100
AcDbEntity
  8
0
100
AcDbEllipse
 62
7
  6
CONTINUOUS
 10
18.7572765181
 20
-22.3344902759
 30
0.0
 11
0.25
 21
0.0
 31
0.0
 40
0.0524077793
 41
1.5707963268
 42
3.1357748894
  0
ELLIPSE
  5
42D
100
AcDbEntity
  8
0
100
AcDbEllipse
 62
7
  6
CONTINUOUS
 10
1.3572765181
 20
22.3344902759
 30
0.0
 11
0.25
 21
0.0
 31
0.0
 40
0.0524077793
 41
-3.1357748894
 42
-1.5707963268
  0
ELLIPSE
  5
42E
100
AcDbEntity
  8
0
100
AcDbEllipse
 62
7
  6
CONTINUOUS
 10
3.7427234819
 20
22.3344902759
 30
0.0
 11
0.25
 21
0.0
 31
0.0
 40
0.0524077793
 41
-1.5707963268
 42
-0.0058177642
  0
ELLIPSE
  5
42F
100
AcDbEntity
  8
0
100
AcDbEllipse
 62
7
  6
CONTINUOUS
 10
18.7572765181
 20
22.3344902759
 30
0.0
 11
0.25
 21
0.0
 31
0.0
 40
0.0524077793
 41
-3.1357748894
 42
-1.5707963268
  0
ELLIPSE
  5
430
100
AcDbEntity
  8
0
100
AcDbEllipse
 62
7
  6
CONTINUOUS
 10
21.1427234819
 20
22.3344902759
 30
0.0
 11
0.25
 21
0.0
 31
0.0
 40
0.0524077793
 41
-1.5707963268
 42
-0.0058177642
  0
ELLIPSE
  5
431
100
AcDbEntity
  8
0
100
AcDbEllipse
 62
7
  6
CONTINUOUS
 10
0.6271315147
 20
21.8207021581
 30
0.0
 11
-0.1582391023
 21
0.4751033573
 31
0.0
 40
0.9984778551
 41
-0.3210503496
 42
0.6578562559
  0
ELLIPSE
  5
432
100
AcDbEntity
  8
0
100
AcDbEllipse
 62
7
  6
CONTINUOUS
 10
21.8728684853
 20
21.8207021581
 30
0.0
 11
0.1582391023
 21
0.4751033573
 31
0.0
 40
0.9984778551
 41
-1.2488325878
 42
0.3210503496
  0
ELLIPSE
  5
433
100
AcDbEntity
  8
0
100
AcDbEllipse
 62
7
  6
CONTINUOUS
 10
21.8728684853
 20
-21.8207021581
 30
0.0
 11
-0.1582391023
 21
0.4751033573
 31
0.0
 40
0.9984778551
 41
-3.4626430032
 42
-1.8927600658
  0
ELLIPSE
  5
434
100
AcDbEntity
  8
0
100
AcDbEllipse
 62
7
  6
CONTINUOUS
 10
0.6271315147
 20
-21.8207021581
 30
0.0
 11
-0.1582391023
 21
-0.4751033573
 31
0.0
 40
0.9984778551
 41
-0.6578562559
 42
0.3210503496
  0
ELLIPSE
  5
435
100
AcDbEntity
  8
RACCORDO
100
AcDbEllipse
 62
7
  6
CONTINUOUS
 10
-21.6498286038
 20
-21.5998286038
 30
0.0
 11
0.35379574
 21
0.35379574
 31
0.0
 40
0.999315002
 41
-3.9266482007
 42
-2.3565371065
  0
ELLIPSE
  5
436
100
AcDbEntity
  8
RACCORDO
100
AcDbEllipse
 62
7
  6
CONTINUOUS
 10
21.6498286038
 20
-21.5998286038
 30
0.0
 11
-0.35379574
 21
0.35379574
 31
0.0
 40
0.999315002
 41
-3.9266482006
 42
-2.3565371065
  0
ELLIPSE
  5
437
100
AcDbEntity
  8
RACCORDO
100
AcDbEllipse
 62
7
  6
CONTINUOUS
 10
21.6498286038
 20
21.5998286038
 30
0.0
 11
0.35379574
 21
0.35379574
 31
0.0
 40
0.999315002
 41
-0.7850555471
 42
0.7850555471
  0
ELLIPSE
  5
438
100
AcDbEntity
  8
RACCORDO
100
AcDbEllipse
 62
7
  6
CONTINUOUS
 10
-21.6498286038
 20
21.5998286038
 30
0.0
 11
0.35379574
 21
-0.35379574
 31
0.0
 40
0.999315002
 41
2.3565371065
 42
3.9266482006
  0
ELLIPSE
  5
439
100
AcDbEntity
  8
0
100
AcDbEllipse
 62
7
  6
CONTINUOUS
 10
-36.2374244729
 20
22.0833543458
 30
0.0
 11
0.0
 21
0.5
 31
0.0
 40
1.0
 41
-3.1241393611
 42
-2.2255915223
  0
ELLIPSE
  5
43A
100
AcDbEntity
  8
0
100
AcDbEllipse
 62
7
  6
CONTINUOUS
 10
-36.2374244729
 20
-22.0833543458
 30
0.0
 11
-0.0399356972
 21
0.4984025884
 31
0.0
 40
1.0
 41
-0.9959576929
 42
-0.0974098541
  0
ELLIPSE
  5
43B
100
AcDbEntity
  8
0
100
AcDbEllipse
 62
7
  6
CONTINUOUS
 10
29.6110052032
 20
-23.15
 30
0.0
 11
85.9426996401
 21
0.0
 31
0.0
 40
0.0058178298
 41
-2.6791240519
 42
-2.5607560384
  0
ELLIPSE
  5
43C
100
AcDbEntity
  8
0
100
AcDbEllipse
 62
7
  6
CONTINUOUS
 10
29.6110052032
 20
-23.15
 30
0.0
 11
85.9426996401
 21
-0.0
 31
0.0
 40
0.0058178298
 41
2.5607560384
 42
2.6905658418
  0
ELLIPSE
  5
43D
100
AcDbEntity
  8
0
100
AcDbEllipse
 62
7
  6
CONTINUOUS
 10
29.6110052032
 20
23.15
 30
0.0
 11
85.9426996401
 21
-0.0
 31
0.0
 40
0.0058178298
 41
-2.6905658418
 42
-2.5607560384
  0
ELLIPSE
  5
43E
100
AcDbEntity
  8
0
100
AcDbEllipse
 62
7
  6
CONTINUOUS
 10
29.6110052032
 20
23.15
 30
0.0
 11
85.9426996401
 21
-0.0
 31
0.0
 40
0.0058178298
 41
2.5607560384
 42
2.6791240518
  0
ENDSEC
  0
SECTION
  2
OBJECTS
  0
DICTIONARY
  5
C
100
AcDbDictionary
280
0
281
1
  3
ACAD_GROUP
350
D
  3
ACAD_MLINESTYLE
350
17
  3
ACAD_LAYOUT
350
1A
  3
ACAD_PLOTSETTINGS
350
19
  3
ACAD_PLOTSTYLENAME
350
E
  0
DICTIONARY
  5
D
102
{ACAD_REACTORS
330
C
102
}
100
AcDbDictionary
280
0
281
1
  0
ACDBDICTIONARYWDFLT
  5
E
102
{ACAD_REACTORS
330
C
102
}
100
AcDbDictionary
281
1
  3
Normal
350
F
100
AcDbDictionaryWithDefault
340
F
  0
DICTIONARY
  5
17
102
{ACAD_REACTORS
330
C
102
}
100
AcDbDictionary
280
0
281
1
  3
Standard
350
18
  0
DICTIONARY
  5
19
102
{ACAD_REACTORS
330
C
102
}
100
AcDbDictionary
281
1
  0
DICTIONARY
  5
1A
102
{ACAD_REACTORS
330
C
102
}
100
AcDbDictionary
281
1
  3
Model
350
43F
  3
Layout1
350
440
  0
ACDBPLACEHOLDER
  5
F
102
{ACAD_REACTORS
330
E
102
}
  0
MLINESTYLE
  5
18
102
{ACAD_REACTORS
330
17
102
}
100
AcDbMlineStyle
  2
STANDARD
 70
0
  3

 62
256
 51
90.0
 52
90.0
 71
2
 49
0.5
 62
256
  6
BYLAYER
 49
-0.5
 62
256
  6
BYLAYER
  0
LAYOUT
  5
43F
102
{ACAD_REACTORS
330
1A
102
}
100
AcDbPlotSettings
  1

  2
none_device
  4
ISO_A4_(297.00_x_210.00_MM)
  6

 40
0.0
 41
0.0
 42
0.0
 43
0.0
 44
297.0
 45
210.0
 46
0.0
 47
0.0
 48
0.0
 49
0.0
140
0.0
141
0.0
142
1.0
143
1.0
 70
1024
 72
1
 73
0
 74
0
  7

 75
0
147
1.0
148
0.0
149
0.0
100
AcDbLayout
  1
Model
 70
0
 71
0
 10
0.0
 20
0.0
 11
297.0
 21
210.0
 12
0.0
 22
0.0
 32
0.0
 14
0.0
 24
0.0
 34
0.0
 15
0.0
 25
0.0
 35
0.0
146
0.0
 13
0.0
 23
0.0
 33
0.0
 16
1.0
 26
0.0
 36
0.0
 17
0.0
 27
1.0
 37
0.0
 76
0
330
219
345
0
346
0
  0
LAYOUT
  5
440
102
{ACAD_REACTORS
330
1A
102
}
100
AcDbPlotSettings
  1

  2
none_device
  4
ISO_A4_(297.00_x_210.00_MM)
  6

 40
0.0
 41
0.0
 42
0.0
 43
0.0
 44
297.0
 45
210.0
 46
0.0
 47
0.0
 48
0.0
 49
0.0
140
0.0
141
0.0
142
1.0
143
1.0
 70
0
 72
1
 73
0
 74
0
  7

 75
0
147
1.0
148
0.0
149
0.0
100
AcDbLayout
  1
Layout1
 70
0
 71
1
 10
0.0
 20
0.0
 11
297.0
 21
210.0
 12
0.0
 22
0.0
 32
0.0
 14
0.0
 24
0.0
 34
0.0
 15
0.0
 25
0.0
 35
0.0
146
0.0
 13
0.0
 23
0.0
 33
0.0
 16
1.0
 26
0.0
 36
0.0
 17
0.0
 27
1.0
 37
0.0
 76
0
330
21A
345
0
346
0
  0
ENDSEC
  0
EOF
