  0
SECTION
  2
HEADER
  9
$ACADVER
  1
AC1015
  9
$DWGCODEPAGE
  3
ANSI_1252
  9
$EXTMAX
 10
297.0
 20
210.0
 30
0.0
  9
$EXTMIN
 10
0.0
 20
0.0
 30
0.0
  9
$LIMMIN
 10
0.0
 20
0.0
  9
$LIMMAX
 10
297.0
 20
210.0
  9
$VIEWCTR
 10
148.5
 20
105.0
  9
$VIEWSIZE
 40
210.0
  9
$CLAYER
  8
0
  9
$LTSCALE
 40
16.335
  9
$CELTYPE
  6
BYLAYER
  9
$DIMSCALE
 40
1.0
  9
$DIMASZ
 40
3.0
  9
$DIMEXO
 40
1.85625
  9
$DIMDLI
 40
11.286
  9
$DIMEXE
 40
5.346
  9
$DIMCEN
 40
2.673
  9
$DIMLFAC
 40
1.0
  9
$DIMBLK
  1
_FILLED
  9
$DIMTXT
 40
3.0
  9
$DIMTOL
 70
1
  9
$DIMLIM
 70
0
  9
$DIMTFAC
 40
1.0
  9
$DIMTP
 40
0.01
  9
$DIMTM
 40
0.01
  9
$PDMODE
 70
3
  9
$PDSIZE
 40
3.0
  9
$HANDSEED
  5
4BE
  9
$TILEMODE
 70
1
  9
$MEASUREMENT
 70
1
  9
$INSUNITS
 70
4
  0
ENDSEC
  0
SECTION
  2
CLASSES
  0
CLASS
  1
ACDBDICTIONARYWDFLT
  2
AcDbDictionaryWithDefault
  3
AutoCAD 2000
 90
0
280
0
281
0
  0
CLASS
  1
ACDBPLACEHOLDER
  2
AcDbPlaceHolder
  3
AutoCAD 2000
 90
0
280
0
281
0
  0
CLASS
  1
LAYOUT
  2
AcDbLayout
  3
AutoCAD 2000
 90
0
280
0
281
0
  0
ENDSEC
  0
SECTION
  2
TABLES
  0
TABLE
  2
VPORT
  5
8
100
AcDbSymbolTable
 70
2
  0
VPORT
  5
1F4
100
AcDbSymbolTableRecord
100
AcDbViewportTableRecord
  2
*ACTIVE
 70
0
 10
0.0
 20
0.0
 11
1.0
 21
1.0
 12
148.5
 22
105.0
 13
0.0
 23
0.0
 14
1.0
 24
1.0
 15
0.0
 25
0.0
 16
0.0
 26
0.0
 36
1.0
 17
0.0
 27
0.0
 37
0.0
 40
210.0
 41
1.4142857143
 42
50.0
 43
0.0
 44
0.0
 50
0.0
 51
0.0
 71
0
 72
100
 73
1
 74
1
 75
0
 76
0
 77
0
 78
0
  0
ENDTAB
  0
TABLE
  2
LTYPE
  5
5
100
AcDbSymbolTable
 70
6
  0
LTYPE
  5
14
100
AcDbSymbolTableRecord
100
AcDbLinetypeTableRecord
  2
BYBLOCK
 70
0
  3

 72
65
 73
0
 40
0.0
  0
LTYPE
  5
15
100
AcDbSymbolTableRecord
100
AcDbLinetypeTableRecord
  2
BYLAYER
 70
0
  3

 72
65
 73
0
 40
0.0
  0
LTYPE
  5
16
100
AcDbSymbolTableRecord
100
AcDbLinetypeTableRecord
  2
CONTINUOUS
 70
64
  3
Solid line
 72
65
 73
0
 40
0.0
  0
LTYPE
  5
1F5
100
AcDbSymbolTableRecord
100
AcDbLinetypeTableRecord
  2
CENTER
 70
64
  3
____ _ ____ _ ____ _ ____ _ ____ _ ____ _ ____
 72
65
 73
4
 40
0.6
 49
0.375
 74
0
 49
-0.075
 74
0
 49
0.075
 74
0
 49
-0.075
 74
0
  0
LTYPE
  5
1F6
100
AcDbSymbolTableRecord
100
AcDbLinetypeTableRecord
  2
HIDDEN
 70
64
  3
- - - - - - - - - - - - - - - - - - - -
 72
65
 73
2
 40
0.2
 49
0.1
 74
0
 49
-0.1
 74
0
  0
LTYPE
  5
1F7
100
AcDbSymbolTableRecord
100
AcDbLinetypeTableRecord
  2
PHANTOM
 70
64
  3
_____ _ _ _____ _ _ _____ _ _ _____
 72
65
 73
6
 40
0.8
 49
0.45
 74
0
 49
-0.05
 74
0
 49
0.1
 74
0
 49
-0.05
 74
0
 49
0.1
 74
0
 49
-0.05
 74
0
  0
LTYPE
  5
1F8
100
AcDbSymbolTableRecord
100
AcDbLinetypeTableRecord
  2
DOT
 70
64
  3
. . . . . . . . . . . . . . . . . . . .
 72
65
 73
2
 40
0.2
 49
0.1
 74
0
 49
-0.1
 74
0
  0
LTYPE
  5
1F9
100
AcDbSymbolTableRecord
100
AcDbLinetypeTableRecord
  2
DASHED
 70
64
  3
- - - - - - - - - - - - - - - - - - - -
 72
65
 73
2
 40
0.2
 49
0.1
 74
0
 49
-0.1
 74
0
  0
ENDTAB
  0
TABLE
  2
LAYER
  5
2
100
AcDbSymbolTable
 70
36
  0
LAYER
  5
10
100
AcDbSymbolTableRecord
100
AcDbLayerTableRecord
  2
0
 70
0
 62
7
  6
CONTINUOUS
370
-3
390
F
  0
LAYER
  5
1FA
100
AcDbSymbolTableRecord
100
AcDbLayerTableRecord
  2
DEFAULT_1
 70
0
 62
7
  6
CENTER
370
-3
390
F
  0
LAYER
  5
1FB
100
AcDbSymbolTableRecord
100
AcDbLayerTableRecord
  2
DEFAULT_2
 70
0
 62
7
  6
HIDDEN
370
-3
390
F
  0
LAYER
  5
1FC
100
AcDbSymbolTableRecord
100
AcDbLayerTableRecord
  2
DEFAULT_3
 70
0
 62
7
  6
PHANTOM
370
-3
390
F
  0
LAYER
  5
1FD
100
AcDbSymbolTableRecord
100
AcDbLayerTableRecord
  2
ASSI
 70
0
 62
7
  6
CONTINUOUS
370
-3
390
F
  0
LAYER
  5
1FE
100
AcDbSymbolTableRecord
100
AcDbLayerTableRecord
  2
COORDINATE
 70
0
 62
7
  6
CONTINUOUS
370
-3
390
F
  0
LAYER
  5
1FF
100
AcDbSymbolTableRecord
100
AcDbLayerTableRecord
  2
COORD_ORIGINE
 70
0
 62
7
  6
CONTINUOUS
370
-3
390
F
  0
LAYER
  5
200
100
AcDbSymbolTableRecord
100
AcDbLayerTableRecord
  2
COPY_PUBLISH
 70
0
 62
7
  6
CONTINUOUS
370
-3
390
F
  0
LAYER
  5
201
100
AcDbSymbolTableRecord
100
AcDbLayerTableRecord
  2
COSMETIC
 70
0
 62
7
  6
CONTINUOUS
370
-3
390
F
  0
LAYER
  5
202
100
AcDbSymbolTableRecord
100
AcDbLayerTableRecord
  2
COSMETICI
 70
0
 62
7
  6
CONTINUOUS
370
-3
390
F
  0
LAYER
  5
203
100
AcDbSymbolTableRecord
100
AcDbLayerTableRecord
  2
CURVE
 70
0
 62
7
  6
CONTINUOUS
370
-3
390
F
  0
LAYER
  5
204
100
AcDbSymbolTableRecord
100
AcDbLayerTableRecord
  2
DRAFT
 70
0
 62
7
  6
CONTINUOUS
370
-3
390
F
  0
LAYER
  5
205
100
AcDbSymbolTableRecord
100
AcDbLayerTableRecord
  2
IMPORT
 70
0
 62
7
  6
CONTINUOUS
370
-3
390
F
  0
LAYER
  5
206
100
AcDbSymbolTableRecord
100
AcDbLayerTableRecord
  2
IMPORT_IGES
 70
0
 62
7
  6
CONTINUOUS
370
-3
390
F
  0
LAYER
  5
207
100
AcDbSymbolTableRecord
100
AcDbLayerTableRecord
  2
INTFCLR_11
 70
0
 62
7
  6
CONTINUOUS
370
-3
390
F
  0
LAYER
  5
208
100
AcDbSymbolTableRecord
100
AcDbLayerTableRecord
  2
INTFCLR_2
 70
0
 62
7
  6
CONTINUOUS
370
-3
390
F
  0
LAYER
  5
209
100
AcDbSymbolTableRecord
100
AcDbLayerTableRecord
  2
INTF_1
 70
0
 62
7
  6
CONTINUOUS
370
-3
390
F
  0
LAYER
  5
20A
100
AcDbSymbolTableRecord
100
AcDbLayerTableRecord
  2
INTF_3
 70
0
 62
7
  6
CONTINUOUS
370
-3
390
F
  0
LAYER
  5
20B
100
AcDbSymbolTableRecord
100
AcDbLayerTableRecord
  2
NOTE
 70
0
 62
7
  6
CONTINUOUS
370
-3
390
F
  0
LAYER
  5
20C
100
AcDbSymbolTableRecord
100
AcDbLayerTableRecord
  2
PIANI
 70
0
 62
7
  6
CONTINUOUS
370
-3
390
F
  0
LAYER
  5
20D
100
AcDbSymbolTableRecord
100
AcDbLayerTableRecord
  2
PIANI_ORIGINE
 70
0
 62
7
  6
CONTINUOUS
370
-3
390
F
  0
LAYER
  5
20E
100
AcDbSymbolTableRecord
100
AcDbLayerTableRecord
  2
PIANI_RIFERIMENTO
 70
0
 62
7
  6
CONTINUOUS
370
-3
390
F
  0
LAYER
  5
20F
100
AcDbSymbolTableRecord
100
AcDbLayerTableRecord
  2
PUNTI
 70
0
 62
7
  6
CONTINUOUS
370
-3
390
F
  0
LAYER
  5
210
100
AcDbSymbolTableRecord
100
AcDbLayerTableRecord
  2
RACCORDO
 70
0
 62
7
  6
CONTINUOUS
370
-3
390
F
  0
LAYER
  5
211
100
AcDbSymbolTableRecord
100
AcDbLayerTableRecord
  2
SIMBOLI
 70
0
 62
7
  6
CONTINUOUS
370
-3
390
F
  0
LAYER
  5
212
100
AcDbSymbolTableRecord
100
AcDbLayerTableRecord
  2
SMUSSO
 70
0
 62
7
  6
CONTINUOUS
370
-3
390
F
  0
LAYER
  5
213
100
AcDbSymbolTableRecord
100
AcDbLayerTableRecord
  2
SNAPLINE
 70
0
 62
7
  6
CONTINUOUS
370
-3
390
F
  0
LAYER
  5
214
100
AcDbSymbolTableRecord
100
AcDbLayerTableRecord
  2
SUPERFICI
 70
0
 62
7
  6
CONTINUOUS
370
-3
390
F
  0
LAYER
  5
215
100
AcDbSymbolTableRecord
100
AcDbLayerTableRecord
  2
TRASH
 70
0
 62
7
  6
CONTINUOUS
370
-3
390
F
  0
LAYER
  5
216
100
AcDbSymbolTableRecord
100
AcDbLayerTableRecord
  2
XSEC_DATUMS
 70
0
 62
7
  6
CONTINUOUS
370
-3
390
F
  0
LAYER
  5
217
100
AcDbSymbolTableRecord
100
AcDbLayerTableRecord
  2
___SHELL
 70
0
 62
7
  6
CONTINUOUS
370
-3
390
F
  0
ENDTAB
  0
TABLE
  2
STYLE
  5
3
100
AcDbSymbolTable
 70
1
  0
STYLE
  5
11
100
AcDbSymbolTableRecord
100
AcDbTextStyleTableRecord
  2
STANDARD
 70
0
 40
0.0
 41
0.8
 50
0.0
 71
0
 42
0.2
  3
txt
  4

  0
STYLE
  5
218
100
AcDbSymbolTableRecord
100
AcDbTextStyleTableRecord
  2
TEXTSTYLE_1
 70
0
 40
0.0
 41
0.8
 50
0.0
 71
0
 42
0.2
  3
gdt
  4

  0
ENDTAB
  0
TABLE
  2
VIEW
  5
6
100
AcDbSymbolTable
 70
0
  0
ENDTAB
  0
TABLE
  2
UCS
  5
7
100
AcDbSymbolTable
 70
0
  0
ENDTAB
  0
TABLE
  2
APPID
  5
9
100
AcDbSymbolTable
 70
1
  0
APPID
  5
219
100
AcDbSymbolTableRecord
100
AcDbRegAppTableRecord
  2
ACAD
 70
0
  0
ENDTAB
  0
TABLE
  2
BLOCK_RECORD
  5
1
100
AcDbSymbolTable
 70
0
  0
BLOCK_RECORD
  5
21A
100
AcDbSymbolTableRecord
100
AcDbBlockTableRecord
  2
*Model_Space
  0
BLOCK_RECORD
  5
21B
100
AcDbSymbolTableRecord
100
AcDbBlockTableRecord
  2
*Paper_Space
  0
BLOCK_RECORD
  5
21C
100
AcDbSymbolTableRecord
100
AcDbBlockTableRecord
  2
_FILLED
  0
BLOCK_RECORD
  5
21D
100
AcDbSymbolTableRecord
100
AcDbBlockTableRecord
  2
*D0
  0
BLOCK_RECORD
  5
21E
100
AcDbSymbolTableRecord
100
AcDbBlockTableRecord
  2
*D1
  0
BLOCK_RECORD
  5
21F
100
AcDbSymbolTableRecord
100
AcDbBlockTableRecord
  2
*D2
  0
BLOCK_RECORD
  5
220
100
AcDbSymbolTableRecord
100
AcDbBlockTableRecord
  2
*D3
  0
ENDTAB
  0
TABLE
  2
DIMSTYLE
  5
A
100
AcDbSymbolTable
 70
1
100
AcDbDimStyleTable
 71
0
  0
DIMSTYLE
105
221
100
AcDbSymbolTableRecord
100
AcDbDimStyleTableRecord
  2
STANDARD
 70
0
  3

  4

 40
1.0
 41
3.0
 42
0.0625
 43
0.38
 44
0.18
 45
0.0
 46
0.0
 47
0.01
 48
0.01
140
3.0
141
0.09
142
0.0
143
25.4
144
1.0
145
0.0
146
1.0
147
0.09
 71
1.0
 72
0.0
 73
0
 74
0
 75
0
 76
0
 77
1
 78
8
170
0
171
2
172
0
173
0
174
0
175
0
176
0
177
0
178
0
270
2
271
2
272
2
273
2
274
2
275
0
280
0
281
0
282
0
283
1
284
8
285
0
286
0
287
3
288
0
340
11
341
21C
342
21C
343
21C
344
21C
  0
DIMSTYLE
105
222
100
AcDbSymbolTableRecord
100
AcDbDimStyleTableRecord
  2
DIMSTYLE_1
 70
0
  3

  4

 40
1.0
 41
3.0
 42
0.0625
 43
0.38
 44
0.18
 45
0.0
 46
0.0
 47
0.0
 48
0.0
140
3.0
141
0.09
142
0.0
143
25.4
144
1.0
145
0.0
146
1.0
147
0.09
 71
0.0
 72
0.0
 73
0
 74
0
 75
0
 76
0
 77
1
 78
8
170
0
171
2
172
0
173
0
174
0
175
0
176
0
177
0
178
0
270
2
271
2
272
2
273
2
274
2
275
0
280
0
281
0
282
0
283
1
284
8
285
0
286
0
287
3
288
0
340
11
341
21C
342
21C
343
21C
344
21C
  0
DIMSTYLE
105
223
100
AcDbSymbolTableRecord
100
AcDbDimStyleTableRecord
  2
DIMSTYLE_2
 70
0
  3

  4

 40
1.0
 41
3.0
 42
0.0625
 43
0.38
 44
0.18
 45
0.0
 46
0.0
 47
0.0
 48
0.0
140
3.0
141
0.09
142
0.0
143
25.4
144
1.0
145
0.0
146
1.0
147
0.09
 71
0.0
 72
0.0
 73
0
 74
0
 75
0
 76
0
 77
1
 78
8
170
0
171
2
172
0
173
0
174
0
175
0
176
0
177
0
178
0
270
2
271
1
272
1
273
2
274
2
275
0
280
0
281
0
282
0
283
1
284
8
285
0
286
0
287
3
288
0
340
11
341
21C
342
21C
343
21C
344
21C
  0
ENDTAB
  0
ENDSEC
  0
SECTION
  2
BLOCKS
  0
BLOCK
  5
20
100
AcDbEntity
  8
0
100
AcDbBlockBegin
  2
*Model_Space
 70
0
 10
0.0
 20
0.0
 30
0.0
  3
*Model_Space
  1

  0
ENDBLK
  5
21
100
AcDbEntity
  8
0
100
AcDbBlockEnd
  0
BLOCK
  5
1C
100
AcDbEntity
  8
0
100
AcDbBlockBegin
  2
*Paper_Space
 70
0
 10
0.0
 20
0.0
 30
0.0
  3
*Paper_Space
  1

  0
ENDBLK
  5
1D
100
AcDbEntity
  8
0
100
AcDbBlockEnd
  0
BLOCK
  5
224
100
AcDbEntity
  8
0
100
AcDbBlockBegin
  2
_FILLED
 70
64
 10
0.0
 20
0.0
  3
_FILLED
  1

  0
SOLID
  5
225
100
AcDbEntity
  8
0
  6
BYBLOCK
 62
0
100
AcDbTrace
 10
0.0
 20
0.0
 11
-1.0
 21
0.3166666667
 12
-1.0
 22
-0.3166666667
 13
-1.0
 23
-0.3166666667
  0
ENDBLK
  5
226
100
AcDbEntity
  8
0
  6
BYBLOCK
 62
0
100
AcDbBlockEnd
  0
BLOCK
  5
227
100
AcDbEntity
  8
0
100
AcDbBlockBegin
 62
7
  6
CONTINUOUS
  2
*D0
 70
65
 10
0.0
 20
0.0
  3
*D0
  1

  0
LINE
  5
228
100
AcDbEntity
  8
0
100
AcDbLine
 62
7
  6
CONTINUOUS
 10
-32.9375152591
 20
20.4942577878
 11
-32.9375152591
 21
36.5945181231
  0
LINE
  5
229
100
AcDbEntity
  8
0
100
AcDbLine
 62
7
  6
CONTINUOUS
 10
-43.9375152591
 20
24.7456323968
 11
-43.9375152591
 21
36.5945181231
  0
LINE
  5
22A
100
AcDbEntity
  8
0
100
AcDbLine
 62
7
  6
CONTINUOUS
 10
-32.9375152591
 20
35.0945181231
 11
-28.9375152591
 21
35.0945181231
  0
LINE
  5
22B
100
AcDbEntity
  8
0
100
AcDbLine
 62
7
  6
CONTINUOUS
 10
-28.9375152591
 20
35.0945181231
 11
-38.4375152591
 21
35.0945181231
  0
LINE
  5
22C
100
AcDbEntity
  8
0
100
AcDbLine
 62
7
  6
CONTINUOUS
 10
-43.9375152591
 20
35.0945181231
 11
-47.9375152591
 21
35.0945181231
  0
LINE
  5
22D
100
AcDbEntity
  8
0
100
AcDbLine
 62
7
  6
CONTINUOUS
 10
-47.9375152591
 20
35.0945181231
 11
-38.4375152591
 21
35.0945181231
  0
INSERT
  5
22E
100
AcDbEntity
  8
0
100
AcDbBlockReference
 62
7
  6
CONTINUOUS
  2
_FILLED
 10
-32.9375152591
 20
35.0945181231
 41
3.0
 42
3.0
 43
3.0
 50
180.0
  0
INSERT
  5
22F
100
AcDbEntity
  8
0
100
AcDbBlockReference
 62
7
  6
CONTINUOUS
  2
_FILLED
 10
-43.9375152591
 20
35.0945181231
 41
3.0
 42
3.0
 43
3.0
  0
ENDBLK
  5
230
100
AcDbEntity
  8
0
  6
BYBLOCK
 62
0
100
AcDbBlockEnd
  0
BLOCK
  5
231
100
AcDbEntity
  8
0
100
AcDbBlockBegin
 62
7
  6
CONTINUOUS
  2
*D1
 70
65
 10
0.0
 20
0.0
  3
*D1
  1

  0
LINE
  5
232
100
AcDbEntity
  8
0
100
AcDbLine
 62
7
  6
CONTINUOUS
 10
-32.9375152591
 20
21.4
 11
-32.9375152591
 21
46.5945181231
  0
LINE
  5
233
100
AcDbEntity
  8
0
100
AcDbLine
 62
7
  6
CONTINUOUS
 10
-55.2375325289
 20
0.5
 11
-55.2375325289
 21
46.5945181231
  0
LINE
  5
234
100
AcDbEntity
  8
0
100
AcDbLine
 62
7
  6
CONTINUOUS
 10
-32.9375152591
 20
45.0945181231
 11
-44.087523894
 21
45.0945181231
  0
LINE
  5
235
100
AcDbEntity
  8
0
100
AcDbLine
 62
7
  6
CONTINUOUS
 10
-55.2375325289
 20
45.0945181231
 11
-44.087523894
 21
45.0945181231
  0
INSERT
  5
236
100
AcDbEntity
  8
0
100
AcDbBlockReference
 62
7
  6
CONTINUOUS
  2
_FILLED
 10
-32.9375152591
 20
45.0945181231
 41
3.0
 42
3.0
 43
3.0
 50
0.0
  0
INSERT
  5
237
100
AcDbEntity
  8
0
100
AcDbBlockReference
 62
7
  6
CONTINUOUS
  2
_FILLED
 10
-55.2375325289
 20
45.0945181231
 41
3.0
 42
3.0
 43
3.0
 50
180.0
  0
ENDBLK
  5
238
100
AcDbEntity
  8
0
  6
BYBLOCK
 62
0
100
AcDbBlockEnd
  0
BLOCK
  5
239
100
AcDbEntity
  8
0
100
AcDbBlockBegin
 62
7
  6
CONTINUOUS
  2
*D2
 70
65
 10
0.0
 20
0.0
  3
*D2
  1

  0
LINE
  5
23A
100
AcDbEntity
  8
0
100
AcDbLine
 62
7
  6
CONTINUOUS
 10
-22.15
 20
22.1001713375
 11
-22.15
 21
36.5945181231
  0
LINE
  5
23B
100
AcDbEntity
  8
0
100
AcDbLine
 62
7
  6
CONTINUOUS
 10
22.4004363434
 20
22.400016923
 11
22.4004363434
 21
36.5945181231
  0
LINE
  5
23C
100
AcDbEntity
  8
0
100
AcDbLine
 62
7
  6
CONTINUOUS
 10
-22.15
 20
35.0945181231
 11
0.1252181717
 21
35.0945181231
  0
LINE
  5
23D
100
AcDbEntity
  8
0
100
AcDbLine
 62
7
  6
CONTINUOUS
 10
22.4004363434
 20
35.0945181231
 11
0.1252181717
 21
35.0945181231
  0
INSERT
  5
23E
100
AcDbEntity
  8
0
100
AcDbBlockReference
 62
7
  6
CONTINUOUS
  2
_FILLED
 10
-22.15
 20
35.0945181231
 41
3.0
 42
3.0
 43
3.0
 50
180.0
  0
INSERT
  5
23F
100
AcDbEntity
  8
0
100
AcDbBlockReference
 62
7
  6
CONTINUOUS
  2
_FILLED
 10
22.4004363434
 20
35.0945181231
 41
3.0
 42
3.0
 43
3.0
  0
ENDBLK
  5
240
100
AcDbEntity
  8
0
  6
BYBLOCK
 62
0
100
AcDbBlockEnd
  0
BLOCK
  5
241
100
AcDbEntity
  8
0
100
AcDbBlockBegin
 62
7
  6
CONTINUOUS
  2
*D3
 70
65
 10
0.0
 20
0.0
  3
*D3
  1

  0
LINE
  5
242
100
AcDbEntity
  8
0
100
AcDbLine
 62
7
  6
CONTINUOUS
 10
21.6500042308
 20
-24.5
 11
36.6465950704
 21
-24.5
  0
LINE
  5
243
100
AcDbEntity
  8
0
100
AcDbLine
 62
7
  6
CONTINUOUS
 10
21.6500042308
 20
24.5
 11
36.6465950704
 21
24.5
  0
LINE
  5
244
100
AcDbEntity
  8
0
100
AcDbLine
 62
7
  6
CONTINUOUS
 10
35.1465950704
 20
-24.5
 11
35.1465950704
 21
-0.0
  0
LINE
  5
245
100
AcDbEntity
  8
0
100
AcDbLine
 62
7
  6
CONTINUOUS
 10
35.1465950704
 20
24.5
 11
35.1465950704
 21
-0.0
  0
INSERT
  5
246
100
AcDbEntity
  8
0
100
AcDbBlockReference
 62
7
  6
CONTINUOUS
  2
_FILLED
 10
35.1465950704
 20
-24.5
 41
3.0
 42
3.0
 43
3.0
 50
270.0
  0
INSERT
  5
247
100
AcDbEntity
  8
0
100
AcDbBlockReference
 62
7
  6
CONTINUOUS
  2
_FILLED
 10
35.1465950704
 20
24.5
 41
3.0
 42
3.0
 43
3.0
 50
90.0
  0
ENDBLK
  5
248
100
AcDbEntity
  8
0
  6
BYBLOCK
 62
0
100
AcDbBlockEnd
  0
ENDSEC
  0
SECTION
  2
ENTITIES
  0
DIMENSION
  5
249
100
AcDbEntity
  8
0
100
AcDbDimension
 62
7
  6
CONTINUOUS
  2
*D0
 10
-43.9375152591
 20
35.0945181231
 11
-40.1518009734
 21
35.8445181231
 70
160
 71
2
 42
11.0
  3
DIMSTYLE_1
100
AcDbAlignedDimension
 13
-32.9375152591
 23
20.4942577878
 14
-43.9375152591
 24
24.7456323968
 50
180.0
100
AcDbRotatedDimension
  0
DIMENSION
  5
24A
100
AcDbEntity
  8
0
100
AcDbDimension
 62
7
  6
CONTINUOUS
  2
*D1
 10
-55.2375325289
 20
45.0945181231
 11
-48.3732381797
 21
45.8445181231
 70
160
 71
2
 42
22.3000172699
  3
DIMSTYLE_1
100
AcDbAlignedDimension
 13
-32.9375152591
 23
21.4
 14
-55.2375325289
 24
0.5
 50
180.0
100
AcDbRotatedDimension
  0
DIMENSION
  5
24B
100
AcDbEntity
  8
0
100
AcDbDimension
 62
7
  6
CONTINUOUS
  2
*D2
 10
22.4004363434
 20
35.0945181231
 11
-4.2676389712
 21
35.8445181231
 70
160
 71
2
 42
44.5504363434
  3
DIMSTYLE_2
100
AcDbAlignedDimension
 13
-22.15
 23
22.1001713375
 14
22.4004363434
 24
22.400016923
100
AcDbRotatedDimension
  0
DIMENSION
  5
24C
100
AcDbEntity
  8
0
100
AcDbDimension
 62
7
  6
CONTINUOUS
  2
*D3
 10
35.1465950704
 20
24.5
 11
34.3965950704
 21
-2.3571428571
 70
160
 71
2
 42
49.0
  3
DIMSTYLE_1
100
AcDbAlignedDimension
 13
21.6500042308
 23
-24.5
 14
21.6500042308
 24
24.5
 50
90.0
100
AcDbRotatedDimension
  0
LWPOLYLINE
  5
24D
100
AcDbEntity
  8
0
100
AcDbPolyline
 62
7
  6
CONTINUOUS
 90
10
 70
0
 43
0.3500000006
 10
3.2323610086
 20
38.8445189209
 10
2.5895038719
 20
38.2016609344
 10
2.1609324946
 20
37.3445184631
 10
2.1609324946
 20
36.273091507
 10
2.5895038719
 20
35.8445180054
 10
3.2323610086
 20
35.8445180054
 10
3.6609325275
 20
36.273091507
 10
3.6609325275
 20
37.1302339783
 10
3.2323610086
 20
37.558802948
 10
2.3037896204
 20
37.558802948
  0
LINE
  5
24E
100
AcDbEntity
  8
0
100
AcDbLine
 62
7
  6
CONTINUOUS
 10
1.3499957692
 20
-24.5
 11
3.7500042308
 21
-24.5
  0
LINE
  5
24F
100
AcDbEntity
  8
0
100
AcDbLine
 62
7
  6
CONTINUOUS
 10
18.7499957692
 20
-24.5
 11
21.1500042308
 21
-24.5
  0
LINE
  5
250
100
AcDbEntity
  8
0
100
AcDbLine
 62
253
  6
CONTINUOUS
 10
1.3630943479
 20
-24.4869014213
 11
3.7369056521
 21
-24.4869014213
  0
LINE
  5
251
100
AcDbEntity
  8
0
100
AcDbLine
 62
253
  6
CONTINUOUS
 10
18.7630943479
 20
-24.4869014213
 11
21.1369056521
 21
-24.4869014213
  0
LINE
  5
252
100
AcDbEntity
  8
0
100
AcDbLine
 62
253
  6
CONTINUOUS
 10
1.1130985787
 20
-24.2369056521
 11
3.9869014213
 21
-24.2369056521
  0
LINE
  5
253
100
AcDbEntity
  8
0
100
AcDbLine
 62
253
  6
CONTINUOUS
 10
18.5130985787
 20
-24.2369056521
 11
21.3869014213
 21
-24.2369056521
  0
LINE
  5
254
100
AcDbEntity
  8
0
100
AcDbLine
 62
7
  6
CONTINUOUS
 10
15.7
 20
-24.0
 11
12.45
 21
-24.0
  0
LINE
  5
255
100
AcDbEntity
  8
0
100
AcDbLine
 62
7
  6
CONTINUOUS
 10
10.05
 20
-24.0
 11
6.8
 21
-24.0
  0
LINE
  5
256
100
AcDbEntity
  8
0
100
AcDbLine
 62
253
  6
CONTINUOUS
 10
7.75
 20
-23.9982478817
 11
10.05
 21
-23.9982478817
  0
LINE
  5
257
100
AcDbEntity
  8
0
100
AcDbLine
 62
253
  6
CONTINUOUS
 10
12.45
 20
-23.9982478817
 11
14.75
 21
-23.9982478817
  0
LINE
  5
258
100
AcDbEntity
  8
0
100
AcDbLine
 62
7
  6
CONTINUOUS
 10
15.6912732553
 20
-23.9912732553
 11
14.75
 21
-23.9912732553
  0
LINE
  5
259
100
AcDbEntity
  8
0
100
AcDbLine
 62
7
  6
CONTINUOUS
 10
7.75
 20
-23.9912732553
 11
6.8087267447
 21
-23.9912732553
  0
LINE
  5
25A
100
AcDbEntity
  8
0
100
AcDbLine
 62
253
  6
CONTINUOUS
 10
1.1130985787
 20
-23.8443375673
 11
3.9869014213
 21
-23.8443375673
  0
LINE
  5
25B
100
AcDbEntity
  8
0
100
AcDbLine
 62
253
  6
CONTINUOUS
 10
18.5130985787
 20
-23.8443375673
 11
21.3869014213
 21
-23.8443375673
  0
LINE
  5
25C
100
AcDbEntity
  8
0
100
AcDbLine
 62
253
  6
CONTINUOUS
 10
7.75
 20
-23.7982512664
 11
10.25
 21
-23.7982512664
  0
LINE
  5
25D
100
AcDbEntity
  8
0
100
AcDbLine
 62
253
  6
CONTINUOUS
 10
12.25
 20
-23.7982512664
 11
14.75
 21
-23.7982512664
  0
LINE
  5
25E
100
AcDbEntity
  8
0
100
AcDbLine
 62
253
  6
CONTINUOUS
 10
21.1369056521
 20
-23.6278312164
 11
18.7630943479
 21
-23.6278312164
  0
LINE
  5
25F
100
AcDbEntity
  8
0
100
AcDbLine
 62
253
  6
CONTINUOUS
 10
3.7369056521
 20
-23.6278312164
 11
1.3630943479
 21
-23.6278312164
  0
LINE
  5
260
100
AcDbEntity
  8
0
100
AcDbLine
 62
7
  6
CONTINUOUS
 10
21.1427234819
 20
-23.1226497308
 11
18.7572765181
 21
-23.1226497308
  0
LINE
  5
261
100
AcDbEntity
  8
0
100
AcDbLine
 62
7
  6
CONTINUOUS
 10
1.3572765181
 20
-23.1226497308
 11
3.7427234819
 21
-23.1226497308
  0
LINE
  5
262
100
AcDbEntity
  8
RACCORDO
100
AcDbLine
 62
7
  6
CONTINUOUS
 10
-22.15
 20
-21.6001713375
 11
-22.15
 21
21.6001713375
  0
LINE
  5
263
100
AcDbEntity
  8
0
100
AcDbLine
 62
7
  6
CONTINUOUS
 10
21.8995078465
 20
-22.4
 11
21.4
 21
-22.4
  0
LINE
  5
264
100
AcDbEntity
  8
0
100
AcDbLine
 62
7
  6
CONTINUOUS
 10
18.5
 20
-22.4
 11
15.7
 21
-22.4
  0
LINE
  5
265
100
AcDbEntity
  8
0
100
AcDbLine
 62
7
  6
CONTINUOUS
 10
6.8
 20
-22.4
 11
4.0
 21
-22.4
  0
LINE
  5
266
100
AcDbEntity
  8
0
100
AcDbLine
 62
7
  6
CONTINUOUS
 10
1.1
 20
-22.4
 11
0.6004921535
 21
-22.4
  0
LINE
  5
267
100
AcDbEntity
  8
0
100
AcDbLine
 62
7
  6
CONTINUOUS
 10
10.25
 20
-22.4
 11
12.25
 21
-22.4
  0
LINE
  5
268
100
AcDbEntity
  8
0
100
AcDbLine
 62
7
  6
CONTINUOUS
 10
14.75
 20
-22.3737961104
 11
12.45
 21
-22.3737961104
  0
LINE
  5
269
100
AcDbEntity
  8
0
100
AcDbLine
 62
7
  6
CONTINUOUS
 10
10.05
 20
-22.3737961104
 11
7.75
 21
-22.3737961104
  0
LINE
  5
26A
100
AcDbEntity
  8
0
100
AcDbLine
 62
7
  6
CONTINUOUS
 10
21.8733252491
 20
-22.3213883311
 11
21.1427234819
 21
-22.3213883311
  0
LINE
  5
26B
100
AcDbEntity
  8
0
100
AcDbLine
 62
7
  6
CONTINUOUS
 10
18.7572765181
 20
-22.3213883311
 11
15.6912732553
 21
-22.3213883311
  0
LINE
  5
26C
100
AcDbEntity
  8
0
100
AcDbLine
 62
7
  6
CONTINUOUS
 10
14.75
 20
-22.3213883311
 11
7.75
 21
-22.3213883311
  0
LINE
  5
26D
100
AcDbEntity
  8
0
100
AcDbLine
 62
7
  6
CONTINUOUS
 10
6.8087267447
 20
-22.3213883311
 11
3.7427234819
 21
-22.3213883311
  0
LINE
  5
26E
100
AcDbEntity
  8
0
100
AcDbLine
 62
7
  6
CONTINUOUS
 10
1.3572765181
 20
-22.3213883311
 11
0.6266747509
 21
-22.3213883311
  0
LINE
  5
26F
100
AcDbEntity
  8
RACCORDO
100
AcDbLine
 62
7
  6
CONTINUOUS
 10
-21.6501713375
 20
-22.1
 11
21.6501713375
 21
-22.1
  0
LINE
  5
270
100
AcDbEntity
  8
0
100
AcDbLine
 62
7
  6
CONTINUOUS
 10
-14.000645
 20
-13.689788
 11
-14.014788
 21
-13.675645
  0
LINE
  5
271
100
AcDbEntity
  8
0
100
AcDbLine
 62
7
  6
CONTINUOUS
 10
-13.166259
 20
-12.827117
 11
-13.152117
 21
-12.841259
  0
LINE
  5
272
100
AcDbEntity
  8
0
100
AcDbLine
 62
7
  6
CONTINUOUS
 10
-15.15
 20
-10.935
 11
-15.15
 21
-10.915
  0
LINE
  5
273
100
AcDbEntity
  8
RACCORDO
100
AcDbLine
 62
7
  6
CONTINUOUS
 10
22.3729446494
 20
-16.6
 11
22.15
 21
-16.6
  0
LINE
  5
274
100
AcDbEntity
  8
0
100
AcDbLine
 62
7
  6
CONTINUOUS
 10
-13.95
 20
-10.915
 11
-13.95
 21
-10.935
  0
LINE
  5
275
100
AcDbEntity
  8
0
100
AcDbLine
 62
253
  6
CONTINUOUS
 10
3.7369056521
 20
24.4869014213
 11
3.7500042308
 21
24.5
  0
LINE
  5
276
100
AcDbEntity
  8
0
100
AcDbLine
 62
253
  6
CONTINUOUS
 10
3.9869014213
 20
24.2369056521
 11
4.0
 21
24.2500042308
  0
LINE
  5
277
100
AcDbEntity
  8
0
100
AcDbLine
 62
7
  6
CONTINUOUS
 10
-11.2400197637
 20
-14.8249999993
 11
-11.2600198855
 21
-14.8249999993
  0
LINE
  5
278
100
AcDbEntity
  8
0
100
AcDbLine
 62
7
  6
CONTINUOUS
 10
-11.2599794931
 20
-13.6249992902
 11
-11.2399794393
 21
-13.6250000007
  0
LINE
  5
279
100
AcDbEntity
  8
0
100
AcDbLine
 62
253
  6
CONTINUOUS
 10
3.7369056521
 20
-24.4869014213
 11
3.7500042308
 21
-24.5
  0
LINE
  5
27A
100
AcDbEntity
  8
0
100
AcDbLine
 62
253
  6
CONTINUOUS
 10
3.9869014213
 20
-24.2369056521
 11
4.0
 21
-24.2500042308
  0
LINE
  5
27B
100
AcDbEntity
  8
0
100
AcDbLine
 62
7
  6
CONTINUOUS
 10
-12.35
 20
-8.9125388203
 11
-12.35
 21
-8.465
  0
LINE
  5
27C
100
AcDbEntity
  8
0
100
AcDbLine
 62
7
  6
CONTINUOUS
 10
-11.75
 20
-8.465
 11
-11.7499996214
 21
-8.9125390043
  0
LINE
  5
27D
100
AcDbEntity
  8
0
100
AcDbLine
 62
7
  6
CONTINUOUS
 10
-11.55
 20
-14.535
 11
-11.55
 21
-13.915
  0
LINE
  5
27E
100
AcDbEntity
  8
0
100
AcDbLine
 62
7
  6
CONTINUOUS
 10
-10.95
 20
-13.915
 11
-10.95
 21
-14.535
  0
LINE
  5
27F
100
AcDbEntity
  8
0
100
AcDbLine
 62
7
  6
CONTINUOUS
 10
-10.75
 20
-8.912539
 11
-10.75
 21
-8.465
  0
LINE
  5
280
100
AcDbEntity
  8
0
100
AcDbLine
 62
7
  6
CONTINUOUS
 10
-10.15
 20
-8.465
 11
-10.15
 21
-8.9125388203
  0
LWPOLYLINE
  5
281
100
AcDbEntity
  8
0
100
AcDbPolyline
 62
7
  6
CONTINUOUS
 90
3
 70
0
 43
0.3500000006
 10
1.1609324727
 20
36.1302336731
 10
1.0895039098
 20
35.9159446564
 10
0.9466467133
 20
35.6302335205
  0
LINE
  5
282
100
AcDbEntity
  8
0
100
AcDbLine
 62
7
  6
CONTINUOUS
 10
-8.55
 20
-10.935
 11
-8.55
 21
-10.915
  0
LINE
  5
283
100
AcDbEntity
  8
0
100
AcDbLine
 62
7
  6
CONTINUOUS
 10
-7.35
 20
-10.915
 11
-7.35
 21
-10.935
  0
LINE
  5
284
100
AcDbEntity
  8
0
100
AcDbLine
 62
7
  6
CONTINUOUS
 10
-12.0599816528
 20
-8.1749993648
 11
-12.0399816018
 21
-8.1750000006
  0
LINE
  5
285
100
AcDbEntity
  8
0
100
AcDbLine
 62
7
  6
CONTINUOUS
 10
-10.459984088
 20
-8.174999449
 11
-10.439984048
 21
-8.1750000004
  0
LINE
  5
286
100
AcDbEntity
  8
0
100
AcDbLine
 62
7
  6
CONTINUOUS
 10
15.7
 20
24.0
 11
15.6912732553
 21
23.9912732553
  0
LINE
  5
287
100
AcDbEntity
  8
0
100
AcDbLine
 62
7
  6
CONTINUOUS
 10
15.7
 20
-24.0
 11
15.6912732553
 21
-23.9912732553
  0
LWPOLYLINE
  5
288
100
AcDbEntity
  8
0
100
AcDbPolyline
 62
7
  6
CONTINUOUS
 90
2
 70
0
 43
0.3500000006
 10
-3.2676389923
 20
35.8445180054
 10
-3.2676389923
 20
37.3445184631
  0
LINE
  5
289
100
AcDbEntity
  8
0
100
AcDbLine
 62
253
  6
CONTINUOUS
 10
21.1369056521
 20
24.4869014213
 11
21.1500042308
 21
24.5
  0
LINE
  5
28A
100
AcDbEntity
  8
0
100
AcDbLine
 62
253
  6
CONTINUOUS
 10
21.1369056521
 20
-24.4869014213
 11
21.1500042308
 21
-24.5
  0
LWPOLYLINE
  5
28B
100
AcDbEntity
  8
0
100
AcDbPolyline
 62
7
  6
CONTINUOUS
 90
2
 70
0
 43
0.3500000006
 10
-0.910496134
 20
35.8445180054
 10
-0.910496134
 20
37.3445184631
  0
LINE
  5
28C
100
AcDbEntity
  8
0
100
AcDbLine
 62
253
  6
CONTINUOUS
 10
21.3869014213
 20
24.2369056521
 11
21.4
 21
24.2500042308
  0
LINE
  5
28D
100
AcDbEntity
  8
RACCORDO
100
AcDbLine
 62
253
  6
CONTINUOUS
 10
-22.0290966686
 20
-21.4792680061
 11
-22.15
 21
-21.6001713375
  0
LINE
  5
28E
100
AcDbEntity
  8
RACCORDO
100
AcDbLine
 62
253
  6
CONTINUOUS
 10
21.5292680065
 20
21.9790966689
 11
21.6501713375
 21
22.1
  0
LINE
  5
28F
100
AcDbEntity
  8
RACCORDO
100
AcDbLine
 62
253
  6
CONTINUOUS
 10
-21.5292680065
 20
-21.979096669
 11
-21.6501713375
 21
-22.1
  0
LWPOLYLINE
  5
290
100
AcDbEntity
  8
0
100
AcDbPolyline
 62
7
  6
CONTINUOUS
 90
2
 70
0
 43
0.3500000006
 10
34.3965957413
 20
-1.3571429443
 10
32.8965952835
 20
-1.3571429443
  0
LINE
  5
291
100
AcDbEntity
  8
DRAFT
100
AcDbLine
 62
7
  6
CONTINUOUS
 10
22.345044505
 20
-0.0
 11
22.15
 21
-0.0
  0
LINE
  5
292
100
AcDbEntity
  8
0
100
AcDbLine
 62
253
  6
CONTINUOUS
 10
21.3869014213
 20
-24.2369056521
 11
21.4
 21
-24.2500042308
  0
LINE
  5
293
100
AcDbEntity
  8
RACCORDO
100
AcDbLine
 62
253
  6
CONTINUOUS
 10
-22.15
 20
21.6001713375
 11
-22.0290966732
 21
21.4792680107
  0
LINE
  5
294
100
AcDbEntity
  8
RACCORDO
100
AcDbLine
 62
253
  6
CONTINUOUS
 10
21.6501713375
 20
-22.1
 11
21.5292680107
 21
-21.9790966731
  0
LINE
  5
295
100
AcDbEntity
  8
RACCORDO
100
AcDbLine
 62
253
  6
CONTINUOUS
 10
-21.6501713375
 20
22.1
 11
-21.5292680107
 21
21.9790966732
  0
LINE
  5
296
100
AcDbEntity
  8
0
100
AcDbLine
 62
253
  6
CONTINUOUS
 10
1.1130985787
 20
-23.8443375673
 11
1.1072807489
 21
-23.2669872981
  0
LINE
  5
297
100
AcDbEntity
  8
0
100
AcDbLine
 62
253
  6
CONTINUOUS
 10
1.3630943479
 20
-23.6278312164
 11
1.3580037468
 21
-23.1226497308
  0
LINE
  5
298
100
AcDbEntity
  8
0
100
AcDbLine
 62
7
  6
CONTINUOUS
 10
1.1
 20
-22.4
 11
1.1
 21
-24.2500042308
  0
LINE
  5
299
100
AcDbEntity
  8
0
100
AcDbLine
 62
7
  6
CONTINUOUS
 10
1.1
 20
22.4
 11
1.1
 21
24.2500042308
  0
LINE
  5
29A
100
AcDbEntity
  8
0
100
AcDbLine
 62
253
  6
CONTINUOUS
 10
1.1072807489
 20
23.2669872981
 11
1.1072807489
 21
22.3344140523
  0
LINE
  5
29B
100
AcDbEntity
  8
0
100
AcDbLine
 62
253
  6
CONTINUOUS
 10
1.1072807489
 20
-22.3344140523
 11
1.1072807489
 21
-23.2669872981
  0
LINE
  5
29C
100
AcDbEntity
  8
0
100
AcDbLine
 62
253
  6
CONTINUOUS
 10
1.1130985787
 20
24.2369056521
 11
1.1130985787
 21
23.8443375673
  0
LINE
  5
29D
100
AcDbEntity
  8
0
100
AcDbLine
 62
253
  6
CONTINUOUS
 10
1.1130985787
 20
-23.8443375673
 11
1.1130985787
 21
-24.2369056521
  0
LINE
  5
29E
100
AcDbEntity
  8
0
100
AcDbLine
 62
253
  6
CONTINUOUS
 10
1.3572765181
 20
23.1226497308
 11
1.3572765181
 21
22.3213883311
  0
LINE
  5
29F
100
AcDbEntity
  8
0
100
AcDbLine
 62
253
  6
CONTINUOUS
 10
1.3572765181
 20
-22.3213883311
 11
1.3572765181
 21
-23.1226497308
  0
LINE
  5
2A0
100
AcDbEntity
  8
0
100
AcDbLine
 62
253
  6
CONTINUOUS
 10
1.3630943479
 20
-23.6278312164
 11
1.3630943479
 21
-24.4869014213
  0
LINE
  5
2A1
100
AcDbEntity
  8
0
100
AcDbLine
 62
253
  6
CONTINUOUS
 10
1.3630943479
 20
23.6278312164
 11
1.3630943479
 21
24.4869014213
  0
LINE
  5
2A2
100
AcDbEntity
  8
0
100
AcDbLine
 62
253
  6
CONTINUOUS
 10
1.1072807489
 20
23.2669872981
 11
1.1130985787
 21
23.8443375673
  0
LINE
  5
2A3
100
AcDbEntity
  8
0
100
AcDbLine
 62
253
  6
CONTINUOUS
 10
1.3580037468
 20
23.1226497308
 11
1.3630943479
 21
23.6278312164
  0
LINE
  5
2A4
100
AcDbEntity
  8
0
100
AcDbLine
 62
7
  6
CONTINUOUS
 10
4.0
 20
22.4
 11
3.9927192511
 21
22.3344140523
  0
LINE
  5
2A5
100
AcDbEntity
  8
RACCORDO
100
AcDbLine
 62
253
  6
CONTINUOUS
 10
22.0290966685
 20
21.4792680061
 11
22.15
 21
21.6001713375
  0
LINE
  5
2A6
100
AcDbEntity
  8
0
100
AcDbLine
 62
7
  6
CONTINUOUS
 10
-9.347883
 20
-12.841259
 11
-9.333741
 21
-12.827117
  0
LINE
  5
2A7
100
AcDbEntity
  8
RACCORDO
100
AcDbLine
 62
253
  6
CONTINUOUS
 10
22.15
 20
-21.6001713375
 11
22.0290966731
 21
-21.4792680107
  0
LINE
  5
2A8
100
AcDbEntity
  8
0
100
AcDbLine
 62
7
  6
CONTINUOUS
 10
4.0
 20
-22.4
 11
3.9927192511
 21
-22.3344140523
  0
LINE
  5
2A9
100
AcDbEntity
  8
0
100
AcDbLine
 62
253
  6
CONTINUOUS
 10
3.7369056521
 20
23.6278312164
 11
3.7419962532
 21
23.1226497308
  0
LINE
  5
2AA
100
AcDbEntity
  8
0
100
AcDbLine
 62
253
  6
CONTINUOUS
 10
3.9869014213
 20
23.8443375673
 11
3.9927192511
 21
23.2669872981
  0
LINE
  5
2AB
100
AcDbEntity
  8
0
100
AcDbLine
 62
253
  6
CONTINUOUS
 10
3.7369056521
 20
-23.6278312164
 11
3.7369056521
 21
-24.4869014213
  0
LINE
  5
2AC
100
AcDbEntity
  8
0
100
AcDbLine
 62
253
  6
CONTINUOUS
 10
3.7369056521
 20
23.6278312164
 11
3.7369056521
 21
24.4869014213
  0
LINE
  5
2AD
100
AcDbEntity
  8
0
100
AcDbLine
 62
253
  6
CONTINUOUS
 10
3.7427234819
 20
-23.1226497308
 11
3.7427234819
 21
-22.3213883311
  0
LINE
  5
2AE
100
AcDbEntity
  8
0
100
AcDbLine
 62
253
  6
CONTINUOUS
 10
3.7427234819
 20
22.3213883311
 11
3.7427234819
 21
23.1226497308
  0
LINE
  5
2AF
100
AcDbEntity
  8
0
100
AcDbLine
 62
253
  6
CONTINUOUS
 10
3.9869014213
 20
-24.2369056521
 11
3.9869014213
 21
-23.8443375673
  0
LINE
  5
2B0
100
AcDbEntity
  8
0
100
AcDbLine
 62
253
  6
CONTINUOUS
 10
3.9869014213
 20
23.8443375673
 11
3.9869014213
 21
24.2369056521
  0
LINE
  5
2B1
100
AcDbEntity
  8
0
100
AcDbLine
 62
253
  6
CONTINUOUS
 10
3.9927192511
 20
-23.2669872981
 11
3.9927192511
 21
-22.3344140523
  0
LINE
  5
2B2
100
AcDbEntity
  8
0
100
AcDbLine
 62
253
  6
CONTINUOUS
 10
3.9927192511
 20
22.3344140523
 11
3.9927192511
 21
23.2669872981
  0
LINE
  5
2B3
100
AcDbEntity
  8
0
100
AcDbLine
 62
7
  6
CONTINUOUS
 10
4.0
 20
-22.4
 11
4.0
 21
-24.2500042308
  0
LINE
  5
2B4
100
AcDbEntity
  8
0
100
AcDbLine
 62
7
  6
CONTINUOUS
 10
4.0
 20
22.4
 11
4.0
 21
24.2500042308
  0
LINE
  5
2B5
100
AcDbEntity
  8
0
100
AcDbLine
 62
253
  6
CONTINUOUS
 10
3.7419962532
 20
-23.1226497308
 11
3.7369056521
 21
-23.6278312164
  0
LINE
  5
2B6
100
AcDbEntity
  8
0
100
AcDbLine
 62
253
  6
CONTINUOUS
 10
3.9927192511
 20
-23.2669872981
 11
3.9869014213
 21
-23.8443375673
  0
LINE
  5
2B7
100
AcDbEntity
  8
0
100
AcDbLine
 62
7
  6
CONTINUOUS
 10
1.1
 20
-22.4
 11
1.1072807489
 21
-22.3344140523
  0
LINE
  5
2B8
100
AcDbEntity
  8
0
100
AcDbLine
 62
7
  6
CONTINUOUS
 10
-8.485212
 20
-13.675645
 11
-8.499355
 21
-13.689788
  0
LINE
  5
2B9
100
AcDbEntity
  8
0
100
AcDbLine
 62
7
  6
CONTINUOUS
 10
1.1
 20
22.4
 11
1.1072807489
 21
22.3344140523
  0
LINE
  5
2BA
100
AcDbEntity
  8
0
100
AcDbLine
 62
7
  6
CONTINUOUS
 10
6.8
 20
-22.4
 11
6.8
 21
-24.0
  0
LINE
  5
2BB
100
AcDbEntity
  8
0
100
AcDbLine
 62
7
  6
CONTINUOUS
 10
6.8
 20
22.4
 11
6.8
 21
24.0
  0
LINE
  5
2BC
100
AcDbEntity
  8
0
100
AcDbLine
 62
7
  6
CONTINUOUS
 10
6.8087267447
 20
23.9912732553
 11
6.8087267447
 21
22.3213883311
  0
LINE
  5
2BD
100
AcDbEntity
  8
0
100
AcDbLine
 62
7
  6
CONTINUOUS
 10
6.8087267447
 20
-22.3213883311
 11
6.8087267447
 21
-23.9912732553
  0
LINE
  5
2BE
100
AcDbEntity
  8
0
100
AcDbLine
 62
7
  6
CONTINUOUS
 10
7.75
 20
-23.9982478817
 11
7.75
 21
-22.3213883311
  0
LINE
  5
2BF
100
AcDbEntity
  8
0
100
AcDbLine
 62
7
  6
CONTINUOUS
 10
7.75
 20
22.3213883311
 11
7.75
 21
23.9982478817
  0
LINE
  5
2C0
100
AcDbEntity
  8
0
100
AcDbLine
 62
253
  6
CONTINUOUS
 10
0.6004921535
 20
-22.4
 11
0.6266747509
 21
-22.3213883311
  0
LINE
  5
2C1
100
AcDbEntity
  8
0
100
AcDbLine
 62
253
  6
CONTINUOUS
 10
0.6266747509
 20
22.3213883311
 11
0.6004921535
 21
22.4
  0
LINE
  5
2C2
100
AcDbEntity
  8
0
100
AcDbLine
 62
253
  6
CONTINUOUS
 10
10.05
 20
-22.3737961104
 11
10.05
 21
-24.0
  0
LINE
  5
2C3
100
AcDbEntity
  8
0
100
AcDbLine
 62
253
  6
CONTINUOUS
 10
10.05
 20
22.3737961104
 11
10.05
 21
24.0
  0
LINE
  5
2C4
100
AcDbEntity
  8
0
100
AcDbLine
 62
7
  6
CONTINUOUS
 10
10.25
 20
-23.7999966153
 11
10.25
 21
-22.3842776662
  0
LINE
  5
2C5
100
AcDbEntity
  8
0
100
AcDbLine
 62
7
  6
CONTINUOUS
 10
10.25
 20
22.3842776662
 11
10.25
 21
23.7999966153
  0
LINE
  5
2C6
100
AcDbEntity
  8
0
100
AcDbLine
 62
7
  6
CONTINUOUS
 10
6.8
 20
-22.4
 11
6.8087267447
 21
-22.3213883311
  0
LINE
  5
2C7
100
AcDbEntity
  8
0
100
AcDbLine
 62
7
  6
CONTINUOUS
 10
6.8087267447
 20
22.3213883311
 11
6.8
 21
22.4
  0
LINE
  5
2C8
100
AcDbEntity
  8
0
100
AcDbLine
 62
7
  6
CONTINUOUS
 10
12.25
 20
23.7999966153
 11
12.25
 21
22.3842776662
  0
LINE
  5
2C9
100
AcDbEntity
  8
0
100
AcDbLine
 62
7
  6
CONTINUOUS
 10
12.25
 20
-22.3842776662
 11
12.25
 21
-23.7999966153
  0
LINE
  5
2CA
100
AcDbEntity
  8
0
100
AcDbLine
 62
253
  6
CONTINUOUS
 10
12.45
 20
-22.3737961104
 11
12.45
 21
-24.0
  0
LINE
  5
2CB
100
AcDbEntity
  8
0
100
AcDbLine
 62
253
  6
CONTINUOUS
 10
12.45
 20
22.3737961104
 11
12.45
 21
24.0
  0
LINE
  5
2CC
100
AcDbEntity
  8
0
100
AcDbLine
 62
7
  6
CONTINUOUS
 10
14.75
 20
23.9982478817
 11
14.75
 21
22.3213883311
  0
LINE
  5
2CD
100
AcDbEntity
  8
0
100
AcDbLine
 62
7
  6
CONTINUOUS
 10
14.75
 20
-22.3213883311
 11
14.75
 21
-23.9982478817
  0
LINE
  5
2CE
100
AcDbEntity
  8
0
100
AcDbLine
 62
7
  6
CONTINUOUS
 10
15.7
 20
22.4
 11
15.6912732553
 21
22.3213883311
  0
LINE
  5
2CF
100
AcDbEntity
  8
0
100
AcDbLine
 62
253
  6
CONTINUOUS
 10
21.8995078465
 20
22.4
 11
21.8733252491
 21
22.3213883311
  0
LINE
  5
2D0
100
AcDbEntity
  8
0
100
AcDbLine
 62
253
  6
CONTINUOUS
 10
22.3991272468
 20
21.8997711479
 11
22.3729446494
 21
21.821159479
  0
LINE
  5
2D1
100
AcDbEntity
  8
0
100
AcDbLine
 62
253
  6
CONTINUOUS
 10
21.8733252491
 20
-22.3213883311
 11
21.8995078465
 21
-22.4
  0
LINE
  5
2D2
100
AcDbEntity
  8
0
100
AcDbLine
 62
253
  6
CONTINUOUS
 10
22.3729446494
 20
-21.821159479
 11
22.3991272468
 21
-21.8997711479
  0
LINE
  5
2D3
100
AcDbEntity
  8
0
100
AcDbLine
 62
7
  6
CONTINUOUS
 10
15.6912732553
 20
-22.3213883311
 11
15.7
 21
-22.4
  0
LINE
  5
2D4
100
AcDbEntity
  8
0
100
AcDbLine
 62
7
  6
CONTINUOUS
 10
15.6912732553
 20
-23.9912732553
 11
15.6912732553
 21
-22.3213883311
  0
LINE
  5
2D5
100
AcDbEntity
  8
0
100
AcDbLine
 62
7
  6
CONTINUOUS
 10
15.6912732553
 20
22.3213883311
 11
15.6912732553
 21
23.9912732553
  0
LINE
  5
2D6
100
AcDbEntity
  8
0
100
AcDbLine
 62
7
  6
CONTINUOUS
 10
15.7
 20
-22.4
 11
15.7
 21
-24.0
  0
LINE
  5
2D7
100
AcDbEntity
  8
0
100
AcDbLine
 62
7
  6
CONTINUOUS
 10
15.7
 20
22.4
 11
15.7
 21
24.0
  0
LINE
  5
2D8
100
AcDbEntity
  8
0
100
AcDbLine
 62
253
  6
CONTINUOUS
 10
1.1130985787
 20
-24.2369056521
 11
1.1
 21
-24.2500042308
  0
LINE
  5
2D9
100
AcDbEntity
  8
RACCORDO
100
AcDbLine
 62
7
  6
CONTINUOUS
 10
22.15
 20
16.6
 11
22.3729446494
 21
16.6
  0
LINE
  5
2DA
100
AcDbEntity
  8
0
100
AcDbLine
 62
253
  6
CONTINUOUS
 10
1.1130985787
 20
24.2369056521
 11
1.1
 21
24.2500042308
  0
LWPOLYLINE
  5
2DB
100
AcDbEntity
  8
0
100
AcDbPolyline
 62
7
  6
CONTINUOUS
 90
10
 70
0
 43
0.3500000006
 10
1.0895039098
 20
36.344518158
 10
1.1609324727
 20
36.2016603241
 10
1.1609324727
 20
36.1302336731
 10
1.0180753469
 20
35.9873758392
 10
0.9466467133
 20
35.9873758392
 10
0.8752181504
 20
36.0588024902
 10
0.8752181504
 20
36.1302336731
 10
0.9466467133
 20
36.273091507
 10
1.0180753469
 20
36.344518158
 10
1.0895039098
 20
36.344518158
  0
LINE
  5
2DC
100
AcDbEntity
  8
0
100
AcDbLine
 62
253
  6
CONTINUOUS
 10
18.5130985787
 20
-23.8443375673
 11
18.5072807489
 21
-23.2669872981
  0
LINE
  5
2DD
100
AcDbEntity
  8
0
100
AcDbLine
 62
253
  6
CONTINUOUS
 10
18.7630943479
 20
-23.6278312164
 11
18.7580037468
 21
-23.1226497308
  0
LINE
  5
2DE
100
AcDbEntity
  8
0
100
AcDbLine
 62
7
  6
CONTINUOUS
 10
18.5
 20
-22.4
 11
18.5
 21
-24.2500042308
  0
LINE
  5
2DF
100
AcDbEntity
  8
0
100
AcDbLine
 62
7
  6
CONTINUOUS
 10
18.5
 20
22.4
 11
18.5
 21
24.2500042308
  0
LINE
  5
2E0
100
AcDbEntity
  8
0
100
AcDbLine
 62
253
  6
CONTINUOUS
 10
18.5072807489
 20
23.2669872981
 11
18.5072807489
 21
22.3344140523
  0
LINE
  5
2E1
100
AcDbEntity
  8
0
100
AcDbLine
 62
253
  6
CONTINUOUS
 10
18.5072807489
 20
-22.3344140523
 11
18.5072807489
 21
-23.2669872981
  0
LINE
  5
2E2
100
AcDbEntity
  8
0
100
AcDbLine
 62
253
  6
CONTINUOUS
 10
18.5130985787
 20
24.2369056521
 11
18.5130985787
 21
23.8443375673
  0
LINE
  5
2E3
100
AcDbEntity
  8
0
100
AcDbLine
 62
253
  6
CONTINUOUS
 10
18.5130985787
 20
-23.8443375673
 11
18.5130985787
 21
-24.2369056521
  0
LINE
  5
2E4
100
AcDbEntity
  8
0
100
AcDbLine
 62
253
  6
CONTINUOUS
 10
18.7572765181
 20
23.1226497308
 11
18.7572765181
 21
22.3213883311
  0
LINE
  5
2E5
100
AcDbEntity
  8
0
100
AcDbLine
 62
253
  6
CONTINUOUS
 10
18.7572765181
 20
-22.3213883311
 11
18.7572765181
 21
-23.1226497308
  0
LINE
  5
2E6
100
AcDbEntity
  8
0
100
AcDbLine
 62
253
  6
CONTINUOUS
 10
18.7630943479
 20
-23.6278312164
 11
18.7630943479
 21
-24.4869014213
  0
LINE
  5
2E7
100
AcDbEntity
  8
0
100
AcDbLine
 62
253
  6
CONTINUOUS
 10
18.7630943479
 20
23.6278312164
 11
18.7630943479
 21
24.4869014213
  0
LINE
  5
2E8
100
AcDbEntity
  8
0
100
AcDbLine
 62
253
  6
CONTINUOUS
 10
18.5072807489
 20
23.2669872981
 11
18.5130985787
 21
23.8443375673
  0
LINE
  5
2E9
100
AcDbEntity
  8
0
100
AcDbLine
 62
253
  6
CONTINUOUS
 10
18.7580037468
 20
23.1226497308
 11
18.7630943479
 21
23.6278312164
  0
LINE
  5
2EA
100
AcDbEntity
  8
0
100
AcDbLine
 62
7
  6
CONTINUOUS
 10
21.4
 20
22.4
 11
21.3927192511
 21
22.3344140523
  0
LINE
  5
2EB
100
AcDbEntity
  8
0
100
AcDbLine
 62
253
  6
CONTINUOUS
 10
1.3630943479
 20
-24.4869014213
 11
1.3499957692
 21
-24.5
  0
LINE
  5
2EC
100
AcDbEntity
  8
0
100
AcDbLine
 62
253
  6
CONTINUOUS
 10
1.3630943479
 20
24.4869014213
 11
1.3499957692
 21
24.5
  0
LINE
  5
2ED
100
AcDbEntity
  8
0
100
AcDbLine
 62
7
  6
CONTINUOUS
 10
21.4
 20
-22.4
 11
21.3927192511
 21
-22.3344140523
  0
LINE
  5
2EE
100
AcDbEntity
  8
0
100
AcDbLine
 62
253
  6
CONTINUOUS
 10
21.1369056521
 20
23.6278312164
 11
21.1419962532
 21
23.1226497308
  0
LINE
  5
2EF
100
AcDbEntity
  8
0
100
AcDbLine
 62
253
  6
CONTINUOUS
 10
21.3869014213
 20
23.8443375673
 11
21.3927192511
 21
23.2669872981
  0
LINE
  5
2F0
100
AcDbEntity
  8
DRAFT
100
AcDbLine
 62
7
  6
CONTINUOUS
 10
22.3729446494
 20
-16.6
 11
22.345044505
 21
-0.0
  0
LINE
  5
2F1
100
AcDbEntity
  8
0
100
AcDbLine
 62
253
  6
CONTINUOUS
 10
21.1369056521
 20
-23.6278312164
 11
21.1369056521
 21
-24.4869014213
  0
LINE
  5
2F2
100
AcDbEntity
  8
0
100
AcDbLine
 62
253
  6
CONTINUOUS
 10
21.1369056521
 20
23.6278312164
 11
21.1369056521
 21
24.4869014213
  0
LINE
  5
2F3
100
AcDbEntity
  8
0
100
AcDbLine
 62
253
  6
CONTINUOUS
 10
21.1427234819
 20
-23.1226497308
 11
21.1427234819
 21
-22.3213883311
  0
LINE
  5
2F4
100
AcDbEntity
  8
0
100
AcDbLine
 62
253
  6
CONTINUOUS
 10
21.1427234819
 20
22.3213883311
 11
21.1427234819
 21
23.1226497308
  0
LINE
  5
2F5
100
AcDbEntity
  8
0
100
AcDbLine
 62
253
  6
CONTINUOUS
 10
21.3869014213
 20
-24.2369056521
 11
21.3869014213
 21
-23.8443375673
  0
LINE
  5
2F6
100
AcDbEntity
  8
0
100
AcDbLine
 62
253
  6
CONTINUOUS
 10
21.3869014213
 20
23.8443375673
 11
21.3869014213
 21
24.2369056521
  0
LINE
  5
2F7
100
AcDbEntity
  8
0
100
AcDbLine
 62
253
  6
CONTINUOUS
 10
21.3927192511
 20
-23.2669872981
 11
21.3927192511
 21
-22.3344140523
  0
LINE
  5
2F8
100
AcDbEntity
  8
0
100
AcDbLine
 62
253
  6
CONTINUOUS
 10
21.3927192511
 20
22.3344140523
 11
21.3927192511
 21
23.2669872981
  0
LINE
  5
2F9
100
AcDbEntity
  8
0
100
AcDbLine
 62
7
  6
CONTINUOUS
 10
21.4
 20
-22.4
 11
21.4
 21
-24.2500042308
  0
LINE
  5
2FA
100
AcDbEntity
  8
0
100
AcDbLine
 62
7
  6
CONTINUOUS
 10
21.4
 20
22.4
 11
21.4
 21
24.2500042308
  0
LINE
  5
2FB
100
AcDbEntity
  8
RACCORDO
100
AcDbLine
 62
7
  6
CONTINUOUS
 10
22.15
 20
-21.6001713375
 11
22.15
 21
21.6001713375
  0
LINE
  5
2FC
100
AcDbEntity
  8
DRAFT
100
AcDbLine
 62
7
  6
CONTINUOUS
 10
22.3729446494
 20
21.821159479
 11
22.3729446494
 21
16.6
  0
LINE
  5
2FD
100
AcDbEntity
  8
DRAFT
100
AcDbLine
 62
7
  6
CONTINUOUS
 10
22.3729446494
 20
-16.6
 11
22.3729446494
 21
-21.821159479
  0
LINE
  5
2FE
100
AcDbEntity
  8
0
100
AcDbLine
 62
7
  6
CONTINUOUS
 10
22.3991272468
 20
21.8997711479
 11
22.3991272468
 21
-21.8997711479
  0
LINE
  5
2FF
100
AcDbEntity
  8
0
100
AcDbLine
 62
7
  6
CONTINUOUS
 10
22.4004363434
 20
21.900016923
 11
22.4004363434
 21
-21.900016923
  0
LINE
  5
300
100
AcDbEntity
  8
DRAFT
100
AcDbLine
 62
7
  6
CONTINUOUS
 10
22.345044505
 20
-0.0
 11
22.3729446494
 21
16.6
  0
LINE
  5
301
100
AcDbEntity
  8
0
100
AcDbLine
 62
253
  6
CONTINUOUS
 10
21.1419962532
 20
-23.1226497308
 11
21.1369056521
 21
-23.6278312164
  0
LINE
  5
302
100
AcDbEntity
  8
0
100
AcDbLine
 62
253
  6
CONTINUOUS
 10
21.3927192511
 20
-23.2669872981
 11
21.3869014213
 21
-23.8443375673
  0
LINE
  5
303
100
AcDbEntity
  8
0
100
AcDbLine
 62
7
  6
CONTINUOUS
 10
18.5
 20
-22.4
 11
18.5072807489
 21
-22.3344140523
  0
LINE
  5
304
100
AcDbEntity
  8
0
100
AcDbLine
 62
7
  6
CONTINUOUS
 10
6.8087267447
 20
-23.9912732553
 11
6.8
 21
-24.0
  0
LINE
  5
305
100
AcDbEntity
  8
RACCORDO
100
AcDbLine
 62
7
  6
CONTINUOUS
 10
-21.6501713375
 20
22.1
 11
21.6501713375
 21
22.1
  0
LINE
  5
306
100
AcDbEntity
  8
0
100
AcDbLine
 62
7
  6
CONTINUOUS
 10
21.8733252491
 20
22.3213883311
 11
21.1427234819
 21
22.3213883311
  0
LINE
  5
307
100
AcDbEntity
  8
0
100
AcDbLine
 62
7
  6
CONTINUOUS
 10
18.7572765181
 20
22.3213883311
 11
15.6912732553
 21
22.3213883311
  0
LINE
  5
308
100
AcDbEntity
  8
0
100
AcDbLine
 62
7
  6
CONTINUOUS
 10
14.75
 20
22.3213883311
 11
7.75
 21
22.3213883311
  0
LINE
  5
309
100
AcDbEntity
  8
0
100
AcDbLine
 62
7
  6
CONTINUOUS
 10
6.8087267447
 20
22.3213883311
 11
3.7427234819
 21
22.3213883311
  0
LINE
  5
30A
100
AcDbEntity
  8
0
100
AcDbLine
 62
7
  6
CONTINUOUS
 10
1.3572765181
 20
22.3213883311
 11
0.6266747509
 21
22.3213883311
  0
LINE
  5
30B
100
AcDbEntity
  8
0
100
AcDbLine
 62
7
  6
CONTINUOUS
 10
14.75
 20
22.3737961104
 11
12.45
 21
22.3737961104
  0
LINE
  5
30C
100
AcDbEntity
  8
0
100
AcDbLine
 62
7
  6
CONTINUOUS
 10
10.05
 20
22.3737961104
 11
7.75
 21
22.3737961104
  0
LINE
  5
30D
100
AcDbEntity
  8
0
100
AcDbLine
 62
7
  6
CONTINUOUS
 10
21.9004426895
 20
22.4
 11
21.4
 21
22.4
  0
LINE
  5
30E
100
AcDbEntity
  8
0
100
AcDbLine
 62
7
  6
CONTINUOUS
 10
18.5
 20
22.4
 11
15.7
 21
22.4
  0
LINE
  5
30F
100
AcDbEntity
  8
0
100
AcDbLine
 62
7
  6
CONTINUOUS
 10
6.8
 20
22.4
 11
4.0
 21
22.4
  0
LINE
  5
310
100
AcDbEntity
  8
0
100
AcDbLine
 62
7
  6
CONTINUOUS
 10
1.1
 20
22.4
 11
0.5995573105
 21
22.4
  0
LINE
  5
311
100
AcDbEntity
  8
0
100
AcDbLine
 62
7
  6
CONTINUOUS
 10
10.25
 20
22.4
 11
12.25
 21
22.4
  0
LINE
  5
312
100
AcDbEntity
  8
0
100
AcDbLine
 62
7
  6
CONTINUOUS
 10
21.1427234819
 20
23.1226497308
 11
18.7572765181
 21
23.1226497308
  0
LINE
  5
313
100
AcDbEntity
  8
0
100
AcDbLine
 62
7
  6
CONTINUOUS
 10
1.3572765181
 20
23.1226497308
 11
3.7427234819
 21
23.1226497308
  0
LINE
  5
314
100
AcDbEntity
  8
0
100
AcDbLine
 62
7
  6
CONTINUOUS
 10
6.8
 20
24.0
 11
6.8087267447
 21
23.9912732553
  0
LINE
  5
315
100
AcDbEntity
  8
0
100
AcDbLine
 62
7
  6
CONTINUOUS
 10
18.5
 20
22.4
 11
18.5072807489
 21
22.3344140523
  0
LINE
  5
316
100
AcDbEntity
  8
0
100
AcDbLine
 62
253
  6
CONTINUOUS
 10
1.3630943479
 20
23.6278312164
 11
3.7369056521
 21
23.6278312164
  0
LINE
  5
317
100
AcDbEntity
  8
0
100
AcDbLine
 62
253
  6
CONTINUOUS
 10
18.7630943479
 20
23.6278312164
 11
21.1369056521
 21
23.6278312164
  0
LINE
  5
318
100
AcDbEntity
  8
0
100
AcDbLine
 62
253
  6
CONTINUOUS
 10
14.75
 20
23.7982512664
 11
12.25
 21
23.7982512664
  0
LINE
  5
319
100
AcDbEntity
  8
0
100
AcDbLine
 62
253
  6
CONTINUOUS
 10
7.75
 20
23.7982512664
 11
10.25
 21
23.7982512664
  0
LINE
  5
31A
100
AcDbEntity
  8
0
100
AcDbLine
 62
253
  6
CONTINUOUS
 10
1.1130985787
 20
23.8443375673
 11
3.9869014213
 21
23.8443375673
  0
LINE
  5
31B
100
AcDbEntity
  8
0
100
AcDbLine
 62
253
  6
CONTINUOUS
 10
18.5130985787
 20
23.8443375673
 11
21.3869014213
 21
23.8443375673
  0
LINE
  5
31C
100
AcDbEntity
  8
0
100
AcDbLine
 62
7
  6
CONTINUOUS
 10
6.8087267447
 20
23.9912732553
 11
7.75
 21
23.9912732553
  0
LINE
  5
31D
100
AcDbEntity
  8
0
100
AcDbLine
 62
7
  6
CONTINUOUS
 10
14.75
 20
23.9912732553
 11
15.6912732553
 21
23.9912732553
  0
LINE
  5
31E
100
AcDbEntity
  8
0
100
AcDbLine
 62
253
  6
CONTINUOUS
 10
14.75
 20
23.9982478817
 11
12.45
 21
23.9982478817
  0
LINE
  5
31F
100
AcDbEntity
  8
0
100
AcDbLine
 62
253
  6
CONTINUOUS
 10
10.05
 20
23.9982478817
 11
7.75
 21
23.9982478817
  0
LINE
  5
320
100
AcDbEntity
  8
0
100
AcDbLine
 62
7
  6
CONTINUOUS
 10
6.8
 20
24.0
 11
10.05
 21
24.0
  0
LINE
  5
321
100
AcDbEntity
  8
0
100
AcDbLine
 62
7
  6
CONTINUOUS
 10
12.45
 20
24.0
 11
15.7
 21
24.0
  0
LINE
  5
322
100
AcDbEntity
  8
0
100
AcDbLine
 62
253
  6
CONTINUOUS
 10
1.1130985787
 20
24.2369056521
 11
3.9869014213
 21
24.2369056521
  0
LINE
  5
323
100
AcDbEntity
  8
0
100
AcDbLine
 62
253
  6
CONTINUOUS
 10
18.5130985787
 20
24.2369056521
 11
21.3869014213
 21
24.2369056521
  0
LINE
  5
324
100
AcDbEntity
  8
0
100
AcDbLine
 62
253
  6
CONTINUOUS
 10
21.1369056521
 20
24.4869014213
 11
18.7630943479
 21
24.4869014213
  0
LINE
  5
325
100
AcDbEntity
  8
0
100
AcDbLine
 62
253
  6
CONTINUOUS
 10
3.7369056521
 20
24.4869014213
 11
1.3630943479
 21
24.4869014213
  0
LINE
  5
326
100
AcDbEntity
  8
0
100
AcDbLine
 62
7
  6
CONTINUOUS
 10
21.1500042308
 20
24.5
 11
18.7499957692
 21
24.5
  0
LINE
  5
327
100
AcDbEntity
  8
0
100
AcDbLine
 62
7
  6
CONTINUOUS
 10
3.7500042308
 20
24.5
 11
1.3499957692
 21
24.5
  0
LWPOLYLINE
  5
328
100
AcDbEntity
  8
0
100
AcDbPolyline
 62
7
  6
CONTINUOUS
 90
10
 70
0
 43
0.3500000006
 10
34.3965957413
 20
0.4285709152
 10
33.53945327
 20
1.2857133865
 10
32.6823085327
 20
1.5000001373
 10
31.8251660614
 20
1.5000001373
 10
31.3965948257
 20
1.0714289017
 10
31.3965948257
 20
0.4285709152
 10
31.8251660614
 20
-0.0000003204
 10
32.6823085327
 20
-0.0000003204
 10
33.1108797684
 20
0.4285709152
 10
33.1108797684
 20
1.3571423035
  0
LINE
  5
329
100
AcDbEntity
  8
0
100
AcDbLine
 62
253
  6
CONTINUOUS
 10
18.5130985787
 20
-24.2369056521
 11
18.5
 21
-24.2500042308
  0
LINE
  5
32A
100
AcDbEntity
  8
0
100
AcDbLine
 62
253
  6
CONTINUOUS
 10
18.7630943479
 20
-24.4869014213
 11
18.7499957692
 21
-24.5
  0
LINE
  5
32B
100
AcDbEntity
  8
0
100
AcDbLine
 62
253
  6
CONTINUOUS
 10
18.5130985787
 20
24.2369056521
 11
18.5
 21
24.2500042308
  0
LINE
  5
32C
100
AcDbEntity
  8
0
100
AcDbLine
 62
253
  6
CONTINUOUS
 10
18.7630943479
 20
24.4869014213
 11
18.7499957692
 21
24.5
  0
LWPOLYLINE
  5
32D
100
AcDbEntity
  8
0
100
AcDbPolyline
 62
7
  6
CONTINUOUS
 90
3
 70
0
 43
0.3500000006
 10
33.7537377548
 20
-0.8571427917
 10
33.7537377548
 20
-2.3571432495
 10
31.3965948257
 20
-1.7142852631
  0
LWPOLYLINE
  5
32E
100
AcDbEntity
  8
0
100
AcDbPolyline
 62
7
  6
CONTINUOUS
 90
3
 70
0
 43
0.3500000006
 10
-0.4104961231
 20
36.4873759918
 10
-1.9104960852
 20
36.4873759918
 10
-1.2676389484
 20
38.8445189209
  0
LWPOLYLINE
  5
32F
100
AcDbEntity
  8
0
100
AcDbPolyline
 62
7
  6
CONTINUOUS
 90
3
 70
0
 43
0.3500000006
 10
-2.7676388397
 20
36.4873759918
 10
-4.2676390142
 20
36.4873759918
 10
-3.6247818775
 20
38.8445189209
  0
LWPOLYLINE
  5
330
100
AcDbEntity
  8
0
100
AcDbPolyline
 62
7
  6
CONTINUOUS
 90
5
 70
0
 43
0.3500000006
 10
-41.0875227356
 20
47.5588059998
 10
-40.7303804169
 20
47.7730904846
 10
-40.7303804169
 20
48.4159484711
 10
-41.0875227356
 20
48.8445174408
 10
-41.9446652069
 20
48.8445174408
  0
LINE
  5
331
100
AcDbEntity
  8
0
100
AcDbLine
 62
7
  6
CONTINUOUS
 10
-44.9375152591
 20
-24.5
 11
-44.1860608262
 21
-24.495628166
  0
LINE
  5
332
100
AcDbEntity
  8
0
100
AcDbLine
 62
253
  6
CONTINUOUS
 10
-44.9375152591
 20
-24.2500042308
 11
-44.1860608262
 21
-24.2456323968
  0
LINE
  5
333
100
AcDbEntity
  8
0
100
AcDbLine
 62
7
  6
CONTINUOUS
 10
-39.4346063934
 20
-23.9679850128
 11
-43.9375152591
 21
-23.9941821702
  0
LINE
  5
334
100
AcDbEntity
  8
0
100
AcDbLine
 62
253
  6
CONTINUOUS
 10
-43.9375152591
 20
-24.2456323968
 11
-44.1860608262
 21
-24.2456323968
  0
LINE
  5
335
100
AcDbEntity
  8
0
100
AcDbLine
 62
253
  6
CONTINUOUS
 10
-47.4375152591
 20
-24.2369056521
 11
-47.1889696919
 21
-24.2369056521
  0
LINE
  5
336
100
AcDbEntity
  8
0
100
AcDbLine
 62
253
  6
CONTINUOUS
 10
-47.4375152591
 20
-23.8443375673
 11
-47.1889696919
 21
-23.8443375673
  0
LINE
  5
337
100
AcDbEntity
  8
0
100
AcDbLine
 62
253
  6
CONTINUOUS
 10
-43.9375152591
 20
-23.8443375673
 11
-44.1860608262
 21
-23.8443375673
  0
LINE
  5
338
100
AcDbEntity
  8
0
100
AcDbLine
 62
7
  6
CONTINUOUS
 10
-47.1889696919
 20
-24.4869014213
 11
-44.9375152591
 21
-24.5
  0
LINE
  5
339
100
AcDbEntity
  8
0
100
AcDbLine
 62
253
  6
CONTINUOUS
 10
-47.1889696919
 20
-24.2369056521
 11
-44.9375152591
 21
-24.2500042308
  0
LWPOLYLINE
  5
33A
100
AcDbEntity
  8
0
100
AcDbPolyline
 62
7
  6
CONTINUOUS
 90
3
 70
0
 43
0.3500000006
 10
-40.1518023376
 20
37.9873764496
 10
-39.2946598663
 20
38.8445189209
 10
-39.2946598663
 20
35.8445180054
  0
LINE
  5
33B
100
AcDbEntity
  8
0
100
AcDbLine
 62
7
  6
CONTINUOUS
 10
-33.9316975277
 20
-22.3359700255
 11
-44.9375152591
 21
-22.4
  0
LINE
  5
33C
100
AcDbEntity
  8
0
100
AcDbLine
 62
253
  6
CONTINUOUS
 10
-44.9375152591
 20
-21.900016923
 11
-43.9375152591
 21
-21.8941990932
  0
LINE
  5
33D
100
AcDbEntity
  8
RACCORDO
100
AcDbLine
 62
7
  6
CONTINUOUS
 10
-48.5375152591
 20
-22.1
 11
-53.5276673384
 21
-21.969328269
  0
LINE
  5
33E
100
AcDbEntity
  8
0
100
AcDbLine
 62
7
  6
CONTINUOUS
 10
-46.4375152591
 20
-22.3213883311
 11
-44.9375152591
 21
-22.4
  0
LINE
  5
33F
100
AcDbEntity
  8
0
100
AcDbLine
 62
253
  6
CONTINUOUS
 10
-46.4375152591
 20
-21.821159479
 11
-44.9375152591
 21
-21.8997711479
  0
LWPOLYLINE
  5
340
100
AcDbEntity
  8
0
100
AcDbPolyline
 62
7
  6
CONTINUOUS
 90
3
 70
0
 43
0.3500000006
 10
-38.437517395
 20
37.9873764496
 10
-37.5803726578
 20
38.8445189209
 10
-37.5803726578
 20
35.8445180054
  0
LINE
  5
341
100
AcDbEntity
  8
0
100
AcDbLine
 62
253
  6
CONTINUOUS
 10
-44.9375152591
 20
23.4104851482
 11
-44.1860608262
 21
23.8443375673
  0
LINE
  5
342
100
AcDbEntity
  8
RACCORDO
100
AcDbLine
 62
253
  6
CONTINUOUS
 10
-54.3228849902
 20
-20.8301238198
 11
-53.8367170903
 21
-20.8090179705
  0
LINE
  5
343
100
AcDbEntity
  8
0
100
AcDbLine
 62
7
  6
CONTINUOUS
 10
-32.9375152591
 20
-20.9
 11
-42.9375152591
 21
-20.9
  0
LINE
  5
344
100
AcDbEntity
  8
0
100
AcDbLine
 62
7
  6
CONTINUOUS
 10
-33.4287890558
 20
-21.5834304982
 11
-42.9375152591
 21
-21.4174550649
  0
LINE
  5
345
100
AcDbEntity
  8
RACCORDO
100
AcDbLine
 62
253
  6
CONTINUOUS
 10
-48.5375152591
 20
-21.6001713375
 11
-53.1546270357
 21
-21.4792680107
  0
LINE
  5
346
100
AcDbEntity
  8
0
100
AcDbLine
 62
253
  6
CONTINUOUS
 10
-44.1860608262
 20
-23.8443375673
 11
-44.9375152591
 21
-23.4104851482
  0
LINE
  5
347
100
AcDbEntity
  8
0
100
AcDbLine
 62
7
  6
CONTINUOUS
 10
-44.9375152591
 20
23.1226497308
 11
-44.0625152591
 21
23.6278312164
  0
LINE
  5
348
100
AcDbEntity
  8
RACCORDO
100
AcDbLine
 62
253
  6
CONTINUOUS
 10
-33.1340247778
 20
-19.0166572575
 11
-32.9375152591
 21
-19.0166572575
  0
LINE
  5
349
100
AcDbEntity
  8
RACCORDO
100
AcDbLine
 62
7
  6
CONTINUOUS
 10
-33.135769952
 20
-19.7942654032
 11
-42.9375152591
 21
-19.7087268678
  0
LINE
  5
34A
100
AcDbEntity
  8
0
100
AcDbLine
 62
7
  6
CONTINUOUS
 10
-43.9375152591
 20
-18.5082905244
 11
-42.9375152591
 21
-18.5170173922
  0
LINE
  5
34B
100
AcDbEntity
  8
0
100
AcDbLine
 62
7
  6
CONTINUOUS
 10
-44.0625152591
 20
-23.6278312164
 11
-44.9375152591
 21
-23.1226497308
  0
LINE
  5
34C
100
AcDbEntity
  8
RACCORDO
100
AcDbLine
 62
7
  6
CONTINUOUS
 10
-46.4375152591
 20
-17.4
 11
-48.5375152591
 21
-17.3633443637
  0
LINE
  5
34D
100
AcDbEntity
  8
RACCORDO
100
AcDbLine
 62
253
  6
CONTINUOUS
 10
-46.4567908004
 20
-16.399815849
 11
-48.5375152591
 21
-16.3634966685
  0
LWPOLYLINE
  5
34E
100
AcDbEntity
  8
0
100
AcDbPolyline
 62
7
  6
CONTINUOUS
 90
3
 70
0
 43
0.3500000006
 10
-42.9446655121
 20
46.130232193
 10
-43.0160966949
 20
45.9159477081
 10
-43.1589545288
 20
45.6302320404
  0
LINE
  5
34F
100
AcDbEntity
  8
RACCORDO
100
AcDbLine
 62
7
  6
CONTINUOUS
 10
-42.9375152591
 20
14.9602976573
 11
-33.0691112299
 21
18.5521029837
  0
LINE
  5
350
100
AcDbEntity
  8
RACCORDO
100
AcDbLine
 62
7
  6
CONTINUOUS
 10
-33.0691112299
 20
-18.5521029837
 11
-42.9375152591
 21
-14.9602976573
  0
LWPOLYLINE
  5
351
100
AcDbEntity
  8
0
100
AcDbPolyline
 62
7
  6
CONTINUOUS
 90
13
 70
0
 10
-54.6946694076
 20
20.8322351597
 10
-54.8578594024
 20
17.4235897044
 10
-54.994549108
 20
13.939793571
 10
-55.1008705174
 20
10.4549385084
 10
-55.1768126568
 20
6.9692891526
 10
-55.2223670782
 20
3.4831101933
 10
-55.237532515
 20
-0.0033334713
 10
-55.2223089679
 20
-3.4897768564
 10
-55.1766964376
 20
-6.975954977
 10
-55.1006962002
 20
-10.4616029352
 10
-54.9943167179
 20
-13.9464560419
 10
-54.8575689658
 20
-17.4302496611
 10
-54.6946694076
 20
-20.8322351591
  0
LINE
  5
352
100
AcDbEntity
  8
DRAFT
100
AcDbLine
 62
7
  6
CONTINUOUS
 10
-46.4375152591
 20
-16.6
 11
-48.0359134591
 21
-0.0
  0
LINE
  5
353
100
AcDbEntity
  8
RACCORDO
100
AcDbLine
 62
7
  6
CONTINUOUS
 10
-48.5375152591
 20
-22.1
 11
-48.5375152591
 21
22.1
  0
LINE
  5
354
100
AcDbEntity
  8
DRAFT
100
AcDbLine
 62
7
  6
CONTINUOUS
 10
-48.0359134591
 20
-0.0
 11
-46.4375152591
 21
16.6
  0
LINE
  5
355
100
AcDbEntity
  8
0
100
AcDbLine
 62
7
  6
CONTINUOUS
 10
-47.4375152591
 20
-24.2369056521
 11
-47.4375152591
 21
-23.8443375673
  0
LINE
  5
356
100
AcDbEntity
  8
0
100
AcDbLine
 62
7
  6
CONTINUOUS
 10
-47.4375152591
 20
23.8443375673
 11
-47.4375152591
 21
24.2369056521
  0
LINE
  5
357
100
AcDbEntity
  8
0
100
AcDbLine
 62
253
  6
CONTINUOUS
 10
-47.1889696919
 20
-24.2369056521
 11
-47.1889696919
 21
-23.8443375673
  0
LINE
  5
358
100
AcDbEntity
  8
0
100
AcDbLine
 62
253
  6
CONTINUOUS
 10
-47.1889696919
 20
23.8443375673
 11
-47.1889696919
 21
24.2369056521
  0
LINE
  5
359
100
AcDbEntity
  8
DRAFT
100
AcDbLine
 62
7
  6
CONTINUOUS
 10
-46.4375152591
 20
21.821159479
 11
-46.4375152591
 21
16.6
  0
LINE
  5
35A
100
AcDbEntity
  8
DRAFT
100
AcDbLine
 62
7
  6
CONTINUOUS
 10
-46.4375152591
 20
-16.6
 11
-46.4375152591
 21
-21.821159479
  0
LINE
  5
35B
100
AcDbEntity
  8
0
100
AcDbLine
 62
7
  6
CONTINUOUS
 10
-46.4375152591
 20
-21.821159479
 11
-46.4375152591
 21
-23.1226497308
  0
LINE
  5
35C
100
AcDbEntity
  8
0
100
AcDbLine
 62
7
  6
CONTINUOUS
 10
-46.4375152591
 20
21.821159479
 11
-46.4375152591
 21
23.1226497308
  0
LINE
  5
35D
100
AcDbEntity
  8
0
100
AcDbLine
 62
253
  6
CONTINUOUS
 10
-46.1889696919
 20
-23.2669872981
 11
-46.1889696919
 21
-22.3344140523
  0
LINE
  5
35E
100
AcDbEntity
  8
0
100
AcDbLine
 62
253
  6
CONTINUOUS
 10
-46.1889696919
 20
22.3344140523
 11
-46.1889696919
 21
23.2669872981
  0
LINE
  5
35F
100
AcDbEntity
  8
0
100
AcDbLine
 62
7
  6
CONTINUOUS
 10
-44.9375152591
 20
-24.2500042308
 11
-44.9375152591
 21
24.2500042308
  0
LINE
  5
360
100
AcDbEntity
  8
0
100
AcDbLine
 62
253
  6
CONTINUOUS
 10
-44.1860608262
 20
24.2456323968
 11
-44.1860608262
 21
23.8443375673
  0
LINE
  5
361
100
AcDbEntity
  8
0
100
AcDbLine
 62
253
  6
CONTINUOUS
 10
-44.1860608262
 20
-23.8443375673
 11
-44.1860608262
 21
-24.2456323968
  0
LINE
  5
362
100
AcDbEntity
  8
0
100
AcDbLine
 62
7
  6
CONTINUOUS
 10
-43.9375152591
 20
24.2456323968
 11
-43.9375152591
 21
23.8443375673
  0
LINE
  5
363
100
AcDbEntity
  8
0
100
AcDbLine
 62
7
  6
CONTINUOUS
 10
-43.9375152591
 20
22.3941821702
 11
-43.9375152591
 21
18.5082905244
  0
LINE
  5
364
100
AcDbEntity
  8
0
100
AcDbLine
 62
7
  6
CONTINUOUS
 10
-43.9375152591
 20
-18.5082905244
 11
-43.9375152591
 21
-22.3941821702
  0
LINE
  5
365
100
AcDbEntity
  8
0
100
AcDbLine
 62
7
  6
CONTINUOUS
 10
-43.9375152591
 20
-23.8443375673
 11
-43.9375152591
 21
-24.2456323968
  0
LINE
  5
366
100
AcDbEntity
  8
0
100
AcDbLine
 62
7
  6
CONTINUOUS
 10
-42.9375152591
 20
21.4174550649
 11
-42.9375152591
 21
-21.4174550649
  0
LINE
  5
367
100
AcDbEntity
  8
0
100
AcDbLine
 62
7
  6
CONTINUOUS
 10
-39.4375152591
 20
-23.4243617711
 11
-39.4375152591
 21
-22.8756382289
  0
LINE
  5
368
100
AcDbEntity
  8
0
100
AcDbLine
 62
7
  6
CONTINUOUS
 10
-39.4375152591
 20
22.8756382289
 11
-39.4375152591
 21
23.4243617711
  0
LINE
  5
369
100
AcDbEntity
  8
0
100
AcDbLine
 62
253
  6
CONTINUOUS
 10
-39.3937230964
 20
23.9660720289
 11
-39.3937230964
 21
22.3677471607
  0
LINE
  5
36A
100
AcDbEntity
  8
0
100
AcDbLine
 62
253
  6
CONTINUOUS
 10
-39.3937230964
 20
-22.3677471607
 11
-39.3937230964
 21
-23.9660720289
  0
LINE
  5
36B
100
AcDbEntity
  8
0
100
AcDbLine
 62
7
  6
CONTINUOUS
 10
-38.9375152591
 20
23.4679934743
 11
-38.9375152591
 21
22.3650935624
  0
LINE
  5
36C
100
AcDbEntity
  8
0
100
AcDbLine
 62
7
  6
CONTINUOUS
 10
-38.9375152591
 20
-22.3650935624
 11
-38.9375152591
 21
-23.4679934743
  0
LINE
  5
36D
100
AcDbEntity
  8
0
100
AcDbLine
 62
253
  6
CONTINUOUS
 10
-33.4287890558
 20
21.5834304982
 11
-33.4287890558
 21
20.9
  0
LINE
  5
36E
100
AcDbEntity
  8
0
100
AcDbLine
 62
253
  6
CONTINUOUS
 10
-33.4287890558
 20
-20.9
 11
-33.4287890558
 21
-21.5834304982
  0
LINE
  5
36F
100
AcDbEntity
  8
RACCORDO
100
AcDbLine
 62
253
  6
CONTINUOUS
 10
-33.135769952
 20
20.9
 11
-33.135769952
 21
19.7942654032
  0
LINE
  5
370
100
AcDbEntity
  8
RACCORDO
100
AcDbLine
 62
253
  6
CONTINUOUS
 10
-33.135769952
 20
-19.7942654032
 11
-33.135769952
 21
-20.9
  0
LINE
  5
371
100
AcDbEntity
  8
RACCORDO
100
AcDbLine
 62
253
  6
CONTINUOUS
 10
-33.1340247778
 20
-19.7942654032
 11
-33.1340247778
 21
-19.0166572575
  0
LINE
  5
372
100
AcDbEntity
  8
RACCORDO
100
AcDbLine
 62
253
  6
CONTINUOUS
 10
-33.1340247778
 20
19.0166572575
 11
-33.1340247778
 21
19.7942654032
  0
LINE
  5
373
100
AcDbEntity
  8
0
100
AcDbLine
 62
7
  6
CONTINUOUS
 10
-32.9375152591
 20
21.3359869487
 11
-32.9375152591
 21
20.9
  0
LINE
  5
374
100
AcDbEntity
  8
0
100
AcDbLine
 62
7
  6
CONTINUOUS
 10
-32.9375152591
 20
-20.9
 11
-32.9375152591
 21
-21.3359869487
  0
LINE
  5
375
100
AcDbEntity
  8
RACCORDO
100
AcDbLine
 62
7
  6
CONTINUOUS
 10
-32.9375152591
 20
-20.9
 11
-32.9375152591
 21
-18.7400415081
  0
LINE
  5
376
100
AcDbEntity
  8
RACCORDO
100
AcDbLine
 62
7
  6
CONTINUOUS
 10
-32.9375152591
 20
18.7400415081
 11
-32.9375152591
 21
20.9
  0
LINE
  5
377
100
AcDbEntity
  8
RACCORDO
100
AcDbLine
 62
253
  6
CONTINUOUS
 10
-46.4567908004
 20
16.399815849
 11
-48.5375152591
 21
16.3634966685
  0
LINE
  5
378
100
AcDbEntity
  8
RACCORDO
100
AcDbLine
 62
7
  6
CONTINUOUS
 10
-46.4375152591
 20
17.4
 11
-48.5375152591
 21
17.3633443637
  0
LINE
  5
379
100
AcDbEntity
  8
0
100
AcDbLine
 62
7
  6
CONTINUOUS
 10
-46.4375152591
 20
-23.1226497308
 11
-47.3125152591
 21
-23.6278312164
  0
LINE
  5
37A
100
AcDbEntity
  8
0
100
AcDbLine
 62
253
  6
CONTINUOUS
 10
-46.1889696919
 20
-23.2669872981
 11
-47.1889696919
 21
-23.8443375673
  0
LINE
  5
37B
100
AcDbEntity
  8
0
100
AcDbLine
 62
7
  6
CONTINUOUS
 10
-43.9375152591
 20
18.5082905244
 11
-42.9375152591
 21
18.5170173922
  0
LINE
  5
37C
100
AcDbEntity
  8
RACCORDO
100
AcDbLine
 62
7
  6
CONTINUOUS
 10
-33.135769952
 20
19.7942654032
 11
-42.9375152591
 21
19.7087268678
  0
LINE
  5
37D
100
AcDbEntity
  8
RACCORDO
100
AcDbLine
 62
253
  6
CONTINUOUS
 10
-33.1340247778
 20
19.0166572575
 11
-32.9375152591
 21
19.0166572575
  0
LINE
  5
37E
100
AcDbEntity
  8
0
100
AcDbLine
 62
7
  6
CONTINUOUS
 10
-47.3125152591
 20
23.6278312164
 11
-46.4375152591
 21
23.1226497308
  0
LINE
  5
37F
100
AcDbEntity
  8
0
100
AcDbLine
 62
253
  6
CONTINUOUS
 10
-47.1889696919
 20
23.8443375673
 11
-46.1889696919
 21
23.2669872981
  0
LINE
  5
380
100
AcDbEntity
  8
0
100
AcDbLine
 62
253
  6
CONTINUOUS
 10
-44.9375152591
 20
21.8997711479
 11
-46.4375152591
 21
21.821159479
  0
LINE
  5
381
100
AcDbEntity
  8
RACCORDO
100
AcDbLine
 62
253
  6
CONTINUOUS
 10
-53.1546272113
 20
21.4792680061
 11
-48.5375152591
 21
21.6001713375
  0
LINE
  5
382
100
AcDbEntity
  8
RACCORDO
100
AcDbLine
 62
7
  6
CONTINUOUS
 10
-53.5276673231
 20
21.9693282694
 11
-48.5375152591
 21
22.1
  0
LINE
  5
383
100
AcDbEntity
  8
0
100
AcDbLine
 62
7
  6
CONTINUOUS
 10
-33.4287890558
 20
21.5834304982
 11
-42.9375152591
 21
21.4174550649
  0
LINE
  5
384
100
AcDbEntity
  8
0
100
AcDbLine
 62
7
  6
CONTINUOUS
 10
-32.9375152591
 20
20.9
 11
-42.9375152591
 21
20.9
  0
LINE
  5
385
100
AcDbEntity
  8
0
100
AcDbLine
 62
253
  6
CONTINUOUS
 10
-43.9375152591
 20
21.8941990932
 11
-44.9375152591
 21
21.900016923
  0
LINE
  5
386
100
AcDbEntity
  8
RACCORDO
100
AcDbLine
 62
253
  6
CONTINUOUS
 10
-54.3228719381
 20
20.8301232531
 11
-53.8367171804
 21
20.8090179618
  0
LINE
  5
387
100
AcDbEntity
  8
0
100
AcDbLine
 62
7
  6
CONTINUOUS
 10
-44.9375152591
 20
22.4
 11
-46.4375152591
 21
22.3213883311
  0
LINE
  5
388
100
AcDbEntity
  8
0
100
AcDbLine
 62
253
  6
CONTINUOUS
 10
-47.4375152591
 20
23.8443375673
 11
-47.1889696919
 21
23.8443375673
  0
LINE
  5
389
100
AcDbEntity
  8
0
100
AcDbLine
 62
253
  6
CONTINUOUS
 10
-43.9375152591
 20
23.8443375673
 11
-44.1860608262
 21
23.8443375673
  0
LINE
  5
38A
100
AcDbEntity
  8
0
100
AcDbLine
 62
253
  6
CONTINUOUS
 10
-47.4375152591
 20
24.2369056521
 11
-47.1889696919
 21
24.2369056521
  0
LINE
  5
38B
100
AcDbEntity
  8
0
100
AcDbLine
 62
7
  6
CONTINUOUS
 10
-33.9316975277
 20
22.3359700255
 11
-44.9375152591
 21
22.4
  0
LINE
  5
38C
100
AcDbEntity
  8
0
100
AcDbLine
 62
7
  6
CONTINUOUS
 10
-39.4346063934
 20
23.9679850128
 11
-43.9375152591
 21
23.9941821702
  0
LWPOLYLINE
  5
38D
100
AcDbEntity
  8
0
100
AcDbPolyline
 62
7
  6
CONTINUOUS
 90
10
 70
0
 43
0.3500000006
 10
-43.0160966949
 20
46.3445166779
 10
-42.9446655121
 20
46.201658844
 10
-42.9446655121
 20
46.130232193
 10
-43.0875233459
 20
45.9873743591
 10
-43.1589545288
 20
45.9873743591
 10
-43.2303811798
 20
46.058805542
 10
-43.2303811798
 20
46.130232193
 10
-43.1589545288
 20
46.2730900269
 10
-43.0875233459
 20
46.3445166779
 10
-43.0160966949
 20
46.3445166779
  0
LINE
  5
38E
100
AcDbEntity
  8
0
100
AcDbLine
 62
253
  6
CONTINUOUS
 10
-47.1889696919
 20
24.2369056521
 11
-44.9375152591
 21
24.2500042308
  0
LINE
  5
38F
100
AcDbEntity
  8
0
100
AcDbLine
 62
7
  6
CONTINUOUS
 10
-47.1889696919
 20
24.4869014213
 11
-44.9375152591
 21
24.5
  0
LINE
  5
390
100
AcDbEntity
  8
0
100
AcDbLine
 62
253
  6
CONTINUOUS
 10
-43.9375152591
 20
24.2456323968
 11
-44.1860608262
 21
24.2456323968
  0
LINE
  5
391
100
AcDbEntity
  8
0
100
AcDbLine
 62
253
  6
CONTINUOUS
 10
-44.9375152591
 20
24.2500042308
 11
-44.1860608262
 21
24.2456323968
  0
LINE
  5
392
100
AcDbEntity
  8
0
100
AcDbLine
 62
7
  6
CONTINUOUS
 10
-44.9375152591
 20
24.5
 11
-44.1860608262
 21
24.495628166
  0
LWPOLYLINE
  5
393
100
AcDbEntity
  8
0
100
AcDbPolyline
 62
7
  6
CONTINUOUS
 90
6
 70
0
 43
0.3500000006
 10
-41.9446652069
 20
45.8445165253
 10
-40.8732382507
 20
45.8445165253
 10
-40.6589537659
 20
46.058805542
 10
-40.6589537659
 20
47.1302324982
 10
-41.0875227356
 20
47.5588059998
 10
-41.5160962372
 20
47.5588059998
  0
LWPOLYLINE
  5
394
100
AcDbEntity
  8
0
100
AcDbPolyline
 62
7
  6
CONTINUOUS
 90
7
 70
0
 43
0.3500000006
 10
-44.5160971527
 20
45.8445165253
 10
-46.0160930786
 20
45.8445165253
 10
-44.5160971527
 20
47.9873749695
 10
-44.5160971527
 20
48.4159484711
 10
-44.9446661224
 20
48.8445174408
 10
-45.5875241089
 20
48.8445174408
 10
-46.0160930786
 20
48.2016594543
  0
LWPOLYLINE
  5
395
100
AcDbEntity
  8
0
100
AcDbPolyline
 62
7
  6
CONTINUOUS
 90
7
 70
0
 43
0.3500000006
 10
-46.8732400818
 20
45.8445165253
 10
-48.3732360077
 20
45.8445165253
 10
-46.8732400818
 20
47.9873749695
 10
-46.8732400818
 20
48.4159484711
 10
-47.3018090515
 20
48.8445174408
 10
-47.944667038
 20
48.8445174408
 10
-48.3732360077
 20
48.2016594543
  0
ARC
  5
396
100
AcDbEntity
  8
RACCORDO
100
AcDbCircle
 62
253
  6
CONTINUOUS
 10
-18805.9886624712
 20
-0.0000010723
 40
18783.9889531382
100
AcDbArc
 50
359.936527375
 51
0.0634726316
  0
ARC
  5
397
100
AcDbEntity
  8
RACCORDO
100
AcDbCircle
 62
253
  6
CONTINUOUS
 10
-21.5288343653
 20
-21.4788343653
 40
0.5002656608
100
AcDbArc
 50
180.0496655041
 51
269.9503344959
  0
ARC
  5
398
100
AcDbEntity
  8
0
100
AcDbCircle
 62
7
  6
CONTINUOUS
 10
-14.8593899304
 20
-10.915042031
 40
0.2906112642
100
AcDbArc
 50
171.4220107418
 51
175.7048345765
  0
ARC
  5
399
100
AcDbEntity
  8
0
100
AcDbCircle
 62
7
  6
CONTINUOUS
 10
-14.8599736374
 20
-10.9150153191
 40
0.290019518
100
AcDbArc
 50
90.0000408954
 51
179.9984335196
  0
ARC
  5
39A
100
AcDbEntity
  8
0
100
AcDbCircle
 62
7
  6
CONTINUOUS
 10
-14.8599909027
 20
-10.934982702
 40
0.2900120359
100
AcDbArc
 50
180.0034174783
 51
269.9929063212
  0
ARC
  5
39B
100
AcDbEntity
  8
0
100
AcDbCircle
 62
7
  6
CONTINUOUS
 10
-14.8604134421
 20
-10.9349763346
 40
0.2895865589
100
AcDbArc
 50
180.0046822786
 51
185.235867544
  0
ARC
  5
39C
100
AcDbEntity
  8
0
100
AcDbCircle
 62
7
  6
CONTINUOUS
 10
-14.8599859851
 20
-10.9143063149
 40
0.289306314
100
AcDbArc
 50
89.9975911292
 51
94.0612348625
  0
ARC
  5
39D
100
AcDbEntity
  8
0
100
AcDbCircle
 62
7
  6
CONTINUOUS
 10
-13.3576251016
 20
-13.0458909656
 40
0.2906195693
100
AcDbArc
 50
315.0025838882
 51
320.4630810989
  0
ARC
  5
39E
100
AcDbEntity
  8
0
100
AcDbCircle
 62
7
  6
CONTINUOUS
 10
-11.2599574244
 20
-14.5343875166
 40
0.2906136952
100
AcDbArc
 50
261.4233559479
 51
265.7038236592
  0
ARC
  5
39F
100
AcDbEntity
  8
0
100
AcDbCircle
 62
7
  6
CONTINUOUS
 10
-13.3717381142
 20
-13.0326146994
 40
0.2906044921
100
AcDbArc
 50
45.0025910297
 51
50.46174376
  0
ARC
  5
3A0
100
AcDbEntity
  8
0
100
AcDbCircle
 62
7
  6
CONTINUOUS
 10
-13.370971818
 20
-13.0325443221
 40
0.2905052783
100
AcDbArc
 50
129.8283577477
 51
134.9974049192
  0
ARC
  5
3A1
100
AcDbEntity
  8
0
100
AcDbCircle
 62
7
  6
CONTINUOUS
 10
-13.8093802987
 20
-13.4709209074
 40
0.2904834317
100
AcDbArc
 50
135.0013007281
 51
139.025655563
  0
ARC
  5
3A2
100
AcDbEntity
  8
0
100
AcDbCircle
 62
7
  6
CONTINUOUS
 10
-13.7952620505
 20
-13.4843949366
 40
0.2904625044
100
AcDbArc
 50
225.0014107123
 51
229.026555752
  0
ARC
  5
3A3
100
AcDbEntity
  8
0
100
AcDbCircle
 62
7
  6
CONTINUOUS
 10
-13.7958441072
 20
-13.484455883
 40
0.2903756797
100
AcDbArc
 50
310.9722176559
 51
314.998529139
  0
ARC
  5
3A4
100
AcDbEntity
  8
0
100
AcDbCircle
 62
7
  6
CONTINUOUS
 10
-13.8094702045
 20
-13.4703385262
 40
0.2903552055
100
AcDbArc
 50
216.4361733266
 51
224.998420247
  0
ARC
  5
3A5
100
AcDbEntity
  8
0
100
AcDbCircle
 62
7
  6
CONTINUOUS
 10
-11.2599847709
 20
-14.534973707
 40
0.2900194324
100
AcDbArc
 50
180.0051944697
 51
269.9944914867
  0
ARC
  5
3A6
100
AcDbEntity
  8
0
100
AcDbCircle
 62
7
  6
CONTINUOUS
 10
-11.2400152456
 20
-13.9150263112
 40
0.290019451
100
AcDbArc
 50
0.0051980746
 51
89.9943592567
  0
ARC
  5
3A7
100
AcDbEntity
  8
0
100
AcDbCircle
 62
7
  6
CONTINUOUS
 10
-11.2400173481
 20
-14.5349908525
 40
0.2900120812
100
AcDbArc
 50
269.9995227563
 51
359.9981928138
  0
ARC
  5
3A8
100
AcDbEntity
  8
0
100
AcDbCircle
 62
7
  6
CONTINUOUS
 10
-11.259982681
 20
-13.915009129
 40
0.2900120594
100
AcDbArc
 50
89.9993701071
 51
179.9981964742
  0
ARC
  5
3A9
100
AcDbEntity
  8
0
100
AcDbCircle
 62
7
  6
CONTINUOUS
 10
-13.8097228589
 20
-13.4705777916
 40
0.2899983629
100
AcDbArc
 50
135.0013805295
 51
217.4768180422
  0
ARC
  5
3AA
100
AcDbEntity
  8
0
100
AcDbCircle
 62
7
  6
CONTINUOUS
 10
-13.3571821249
 20
-13.0463262074
 40
0.2899983495
100
AcDbArc
 50
315.001508824
 51
44.9974063783
  0
ARC
  5
3AB
100
AcDbEntity
  8
0
100
AcDbCircle
 62
7
  6
CONTINUOUS
 10
-13.371320351
 20
-13.0321599912
 40
0.2899811983
100
AcDbArc
 50
44.9974349407
 51
135.0024016253
  0
ARC
  5
3AC
100
AcDbEntity
  8
0
100
AcDbCircle
 62
7
  6
CONTINUOUS
 10
-13.7955836551
 20
-13.4847450208
 40
0.289981189
100
AcDbArc
 50
224.9974341144
 51
315.0025348582
  0
ARC
  5
3AD
100
AcDbEntity
  8
0
100
AcDbCircle
 62
7
  6
CONTINUOUS
 10
-11.2396167002
 20
-13.9150246091
 40
0.2896167013
100
AcDbArc
 50
0.0048684893
 51
5.3489068197
  0
ARC
  5
3AE
100
AcDbEntity
  8
0
100
AcDbCircle
 62
7
  6
CONTINUOUS
 10
-11.2599771992
 20
-13.9145716843
 40
0.2895716835
100
AcDbArc
 50
90.0004537312
 51
95.1559614545
  0
ARC
  5
3AF
100
AcDbEntity
  8
0
100
AcDbCircle
 62
7
  6
CONTINUOUS
 10
-11.2607084321
 20
-14.5349861919
 40
0.2892915682
100
AcDbArc
 50
180.0027347695
 51
184.0179853404
  0
ARC
  5
3B0
100
AcDbEntity
  8
0
100
AcDbCircle
 62
7
  6
CONTINUOUS
 10
-11.2400137564
 20
-14.535709811
 40
0.2892901884
100
AcDbArc
 50
269.9988102066
 51
274.0133298963
  0
ARC
  5
3B1
100
AcDbEntity
  8
0
100
AcDbCircle
 62
7
  6
CONTINUOUS
 10
-11.2479910667
 20
-10.9226270538
 40
2.0031002805
100
AcDbArc
 50
227.9898916569
 51
231.6249697072
  0
ARC
  5
3B2
100
AcDbEntity
  8
0
100
AcDbCircle
 62
7
  6
CONTINUOUS
 10
-11.2484566951
 20
-10.9231475832
 40
2.002401886
100
AcDbArc
 50
227.7936719828
 51
227.9898230984
  0
ARC
  5
3B3
100
AcDbEntity
  8
0
100
AcDbCircle
 62
7
  6
CONTINUOUS
 10
-11.2493502229
 20
-10.9243769968
 40
2.0008909545
100
AcDbArc
 50
219.9622687625
 51
227.788974109
  0
ARC
  5
3B4
100
AcDbEntity
  8
0
100
AcDbCircle
 62
7
  6
CONTINUOUS
 10
-11.2500022579
 20
-10.924994785
 40
1.9999943967
100
AcDbArc
 50
131.8103670048
 51
48.1897031026
  0
ARC
  5
3B5
100
AcDbEntity
  8
0
100
AcDbCircle
 62
7
  6
CONTINUOUS
 10
-11.2673881068
 20
-10.9071367718
 40
1.424794387
100
AcDbArc
 50
311.9029496139
 51
312.7625292162
  0
ARC
  5
3B6
100
AcDbEntity
  8
0
100
AcDbCircle
 62
7
  6
CONTINUOUS
 10
-11.2574897078
 20
-10.9184296919
 40
1.4097784829
100
AcDbArc
 50
307.777006817
 51
311.9100643496
  0
ARC
  5
3B7
100
AcDbEntity
  8
0
100
AcDbCircle
 62
7
  6
CONTINUOUS
 10
-11.2482609094
 20
-10.9265136192
 40
1.4022870958
100
AcDbArc
 50
131.8220505369
 51
144.9757060294
  0
ARC
  5
3B8
100
AcDbEntity
  8
0
100
AcDbCircle
 62
7
  6
CONTINUOUS
 10
-11.2500135372
 20
-10.9249849602
 40
1.3999921809
100
AcDbArc
 50
144.9857721661
 51
307.6995160676
  0
ARC
  5
3B9
100
AcDbEntity
  8
0
100
AcDbCircle
 62
7
  6
CONTINUOUS
 10
-14.240026405
 20
-10.9349846442
 40
0.2900195598
100
AcDbArc
 50
270.0001518665
 51
359.9984363668
  0
ARC
  5
3BA
100
AcDbEntity
  8
0
100
AcDbCircle
 62
7
  6
CONTINUOUS
 10
-14.2400090933
 20
-10.9150172878
 40
0.2900120296
100
AcDbArc
 50
0.0034154809
 51
89.9932258752
  0
ARC
  5
3BB
100
AcDbEntity
  8
0
100
AcDbCircle
 62
7
  6
CONTINUOUS
 10
-14.2400238368
 20
-10.9353971792
 40
0.2896028197
100
AcDbArc
 50
269.9996557548
 51
275.2786788365
  0
ARC
  5
3BC
100
AcDbEntity
  8
0
100
AcDbCircle
 62
7
  6
CONTINUOUS
 10
-14.2395865572
 20
-10.9150236611
 40
0.2895865582
100
AcDbArc
 50
0.0046814424
 51
5.2357079101
  0
ARC
  5
3BD
100
AcDbEntity
  8
0
100
AcDbCircle
 62
7
  6
CONTINUOUS
 10
-8.6906183111
 20
-13.4702485256
 40
0.2904814354
100
AcDbArc
 50
315.0013719431
 51
319.0261889501
  0
ARC
  5
3BE
100
AcDbEntity
  8
0
100
AcDbCircle
 62
7
  6
CONTINUOUS
 10
-9.1424777082
 20
-13.0466544363
 40
0.2904799806
100
AcDbArc
 50
135.001374582
 51
139.0262466641
  0
ARC
  5
3BF
100
AcDbEntity
  8
0
100
AcDbCircle
 62
7
  6
CONTINUOUS
 10
-9.1290012974
 20
-13.0325094187
 40
0.2904615874
100
AcDbArc
 50
45.00147699
 51
49.0267275198
  0
ARC
  5
3C0
100
AcDbEntity
  8
0
100
AcDbCircle
 62
7
  6
CONTINUOUS
 10
-8.7040949391
 20
-13.4843958178
 40
0.290461253
100
AcDbArc
 50
225.0013465022
 51
229.0265606477
  0
ARC
  5
3C1
100
AcDbEntity
  8
0
100
AcDbCircle
 62
7
  6
CONTINUOUS
 10
-9.128424064
 20
-13.0324450336
 40
0.2903698428
100
AcDbArc
 50
126.436921181
 51
134.9984515807
  0
ARC
  5
3C2
100
AcDbEntity
  8
0
100
AcDbCircle
 62
7
  6
CONTINUOUS
 10
-8.7046715556
 20
-13.4844603423
 40
0.290369308
100
AcDbArc
 50
306.4372948773
 51
314.9984509683
  0
ARC
  5
3C3
100
AcDbEntity
  8
0
100
AcDbCircle
 62
7
  6
CONTINUOUS
 10
-8.6905315725
 20
-13.4708312899
 40
0.2903577461
100
AcDbArc
 50
40.9718520893
 51
44.9984909819
  0
ARC
  5
3C4
100
AcDbEntity
  8
0
100
AcDbCircle
 62
7
  6
CONTINUOUS
 10
-9.1425634797
 20
-13.0460727656
 40
0.29035767
100
AcDbArc
 50
220.9716860026
 51
224.9983599907
  0
ARC
  5
3C5
100
AcDbEntity
  8
0
100
AcDbCircle
 62
7
  6
CONTINUOUS
 10
-9.1286737771
 20
-13.0321824609
 40
0.2899986466
100
AcDbArc
 50
45.0015579265
 51
127.4776877208
  0
ARC
  5
3C6
100
AcDbEntity
  8
0
100
AcDbCircle
 62
7
  6
CONTINUOUS
 10
-8.7044222646
 20
-13.4847225756
 40
0.2899986151
100
AcDbArc
 50
225.0014279661
 51
307.4778816277
  0
ARC
  5
3C7
100
AcDbEntity
  8
0
100
AcDbCircle
 62
7
  6
CONTINUOUS
 10
-8.6902551547
 20
-13.470583553
 40
0.2899813217
100
AcDbArc
 50
314.9974443701
 51
45.0024960716
  0
ARC
  5
3C8
100
AcDbEntity
  8
0
100
AcDbCircle
 62
7
  6
CONTINUOUS
 10
-9.1428398619
 20
-13.0463204359
 40
0.28998131
100
AcDbArc
 50
134.9974436094
 51
225.0023692454
  0
ARC
  5
3C9
100
AcDbEntity
  8
0
100
AcDbCircle
 62
7
  6
CONTINUOUS
 10
-8.2593797188
 20
-10.9150426847
 40
0.2906214969
100
AcDbArc
 50
171.4218460724
 51
175.9703265042
  0
ARC
  5
3CA
100
AcDbEntity
  8
0
100
AcDbCircle
 62
7
  6
CONTINUOUS
 10
-7.64060813
 20
-10.9349585731
 40
0.2906093051
100
AcDbArc
 50
351.4215966868
 51
355.7046868424
  0
ARC
  5
3CB
100
AcDbEntity
  8
0
100
AcDbCircle
 62
7
  6
CONTINUOUS
 10
-7.6400265088
 20
-10.9349845672
 40
0.2900196557
100
AcDbArc
 50
270.0025233828
 51
359.9984424479
  0
ARC
  5
3CC
100
AcDbEntity
  8
0
100
AcDbCircle
 62
7
  6
CONTINUOUS
 10
-8.2599735208
 20
-10.9150154062
 40
0.2900196259
100
AcDbArc
 50
90.0023586478
 51
179.998440431
  0
ARC
  5
3CD
100
AcDbEntity
  8
0
100
AcDbCircle
 62
7
  6
CONTINUOUS
 10
-8.2599909497
 20
-10.9349827929
 40
0.2900119717
100
AcDbArc
 50
180.0033995276
 51
269.9952689353
  0
ARC
  5
3CE
100
AcDbEntity
  8
0
100
AcDbCircle
 62
7
  6
CONTINUOUS
 10
-7.6400090483
 20
-10.9150172003
 40
0.2900119678
100
AcDbArc
 50
0.0033981798
 51
89.995542651
  0
ARC
  5
3CF
100
AcDbEntity
  8
0
100
AcDbCircle
 62
7
  6
CONTINUOUS
 10
-8.2603845899
 20
-10.9349753724
 40
0.2896154111
100
AcDbArc
 50
180.0048721779
 51
185.3470576099
  0
ARC
  5
3D0
100
AcDbEntity
  8
0
100
AcDbCircle
 62
7
  6
CONTINUOUS
 10
-8.2599860145
 20
-10.9142952247
 40
0.2892952244
100
AcDbArc
 50
89.9998888226
 51
94.041514088
  0
ARC
  5
3D1
100
AcDbEntity
  8
0
100
AcDbCircle
 62
7
  6
CONTINUOUS
 10
-7.6400139923
 20
-10.9357055293
 40
0.2892944703
100
AcDbArc
 50
270.0000542294
 51
274.0410073718
  0
ARC
  5
3D2
100
AcDbEntity
  8
0
100
AcDbCircle
 62
7
  6
CONTINUOUS
 10
-7.6392893503
 20
-10.9150138415
 40
0.2892893506
100
AcDbArc
 50
0.0027413964
 51
4.0180046963
  0
ARC
  5
3D3
100
AcDbEntity
  8
0
100
AcDbCircle
 62
7
  6
CONTINUOUS
 10
-9.4472637674
 20
-8.9100637581
 40
1.3036691496
100
AcDbArc
 50
216.1598798802
 51
228.1725725198
  0
ARC
  5
3D4
100
AcDbEntity
  8
0
100
AcDbCircle
 62
7
  6
CONTINUOUS
 10
-9.4463356889
 20
-8.9121502946
 40
1.303664369
100
AcDbArc
 50
180.0170835223
 51
192.0354731072
  0
ARC
  5
3D5
100
AcDbEntity
  8
0
100
AcDbCircle
 62
7
  6
CONTINUOUS
 10
-13.0527259673
 20
-8.9100723274
 40
1.3036562968
100
AcDbArc
 50
311.8273422646
 51
323.8417998812
  0
ARC
  5
3D6
100
AcDbEntity
  8
0
100
AcDbCircle
 62
7
  6
CONTINUOUS
 10
-13.0536136402
 20
-8.9121579955
 40
1.3036140744
100
AcDbArc
 50
347.9717113567
 51
359.9832540945
  0
ARC
  5
3D7
100
AcDbEntity
  8
0
100
AcDbCircle
 62
7
  6
CONTINUOUS
 10
-13.0533773812
 20
-8.9114355423
 40
1.303533777
100
AcDbArc
 50
335.9227237193
 51
347.9384896025
  0
ARC
  5
3D8
100
AcDbEntity
  8
0
100
AcDbCircle
 62
7
  6
CONTINUOUS
 10
-13.0530553011
 20
-8.9107663037
 40
1.3035129587
100
AcDbArc
 50
323.8749692454
 51
335.8900911282
  0
ARC
  5
3D9
100
AcDbEntity
  8
0
100
AcDbCircle
 62
7
  6
CONTINUOUS
 10
-9.4466589222
 20
-8.9114469014
 40
1.3034951293
100
AcDbArc
 50
192.0686740798
 51
204.0824613843
  0
ARC
  5
3DA
100
AcDbEntity
  8
0
100
AcDbCircle
 62
7
  6
CONTINUOUS
 10
-9.4469669956
 20
-8.9107808492
 40
1.3034858607
100
AcDbArc
 50
204.1147156387
 51
216.1267342168
  0
ARC
  5
3DB
100
AcDbEntity
  8
0
100
AcDbCircle
 62
7
  6
CONTINUOUS
 10
-9.4499924719
 20
-8.9125356333
 40
1.3000075282
100
AcDbArc
 50
180.0001483815
 51
228.189533992
  0
ARC
  5
3DC
100
AcDbEntity
  8
0
100
AcDbCircle
 62
7
  6
CONTINUOUS
 10
-13.0500027272
 20
-8.9125377804
 40
1.3000031058
100
AcDbArc
 50
311.810371193
 51
359.9999460572
  0
ARC
  5
3DD
100
AcDbEntity
  8
0
100
AcDbCircle
 62
7
  6
CONTINUOUS
 10
-10.4400432006
 20
-8.4656224161
 40
0.2906236475
100
AcDbArc
 50
81.4235053136
 51
85.9680405343
  0
ARC
  5
3DE
100
AcDbEntity
  8
0
100
AcDbCircle
 62
7
  6
CONTINUOUS
 10
-12.0400429649
 20
-8.4656214844
 40
0.2906227086
100
AcDbArc
 50
81.4225617935
 51
85.9674545006
  0
ARC
  5
3DF
100
AcDbEntity
  8
0
100
AcDbCircle
 62
7
  6
CONTINUOUS
 10
-12.0400153589
 20
-8.4650264513
 40
0.2900195853
100
AcDbArc
 50
0.0052257479
 51
89.9947960983
  0
ARC
  5
3E0
100
AcDbEntity
  8
0
100
AcDbCircle
 62
7
  6
CONTINUOUS
 10
-10.4400153251
 20
-8.4650264117
 40
0.2900195457
100
AcDbArc
 50
0.0052179271
 51
89.995276178
  0
ARC
  5
3E1
100
AcDbEntity
  8
0
100
AcDbCircle
 62
7
  6
CONTINUOUS
 10
-10.4599827671
 20
-8.4650090768
 40
0.2900119955
100
AcDbArc
 50
90.0002609395
 51
179.99820678
  0
ARC
  5
3E2
100
AcDbEntity
  8
0
100
AcDbCircle
 62
7
  6
CONTINUOUS
 10
-12.0599827802
 20
-8.4650090712
 40
0.2900119867
100
AcDbArc
 50
89.9997772169
 51
179.998207885
  0
ARC
  5
3E3
100
AcDbEntity
  8
0
100
AcDbCircle
 62
7
  6
CONTINUOUS
 10
-12.0599862504
 20
-8.4642916962
 40
0.2892916957
100
AcDbArc
 50
89.9990892677
 51
94.015056898
  0
ARC
  5
3E4
100
AcDbEntity
  8
0
100
AcDbCircle
 62
7
  6
CONTINUOUS
 10
-10.4599862243
 20
-8.4642902596
 40
0.2892902592
100
AcDbArc
 50
89.9995767816
 51
94.0152470042
  0
ARC
  5
3E5
100
AcDbEntity
  8
0
100
AcDbCircle
 62
7
  6
CONTINUOUS
 10
-10.4392861285
 20
-8.4650138764
 40
0.2892861288
100
AcDbArc
 50
0.0027483573
 51
4.0172640715
  0
ARC
  5
3E6
100
AcDbEntity
  8
0
100
AcDbCircle
 62
7
  6
CONTINUOUS
 10
-12.0392855425
 20
-8.4650138834
 40
0.2892855429
100
AcDbArc
 50
0.0027497319
 51
4.0172216452
  0
ARC
  5
3E7
100
AcDbEntity
  8
RACCORDO
100
AcDbCircle
 62
253
  6
CONTINUOUS
 10
-21.5288343684
 20
21.4788343684
 40
0.5002656624
100
AcDbArc
 50
90.0496656811
 51
179.9503343189
  0
ARC
  5
3E8
100
AcDbEntity
  8
RACCORDO
100
AcDbCircle
 62
253
  6
CONTINUOUS
 10
21.5288343683
 20
-21.4788343683
 40
0.5002656624
100
AcDbArc
 50
270.0496656855
 51
359.9503343145
  0
ARC
  5
3E9
100
AcDbEntity
  8
0
100
AcDbCircle
 62
7
  6
CONTINUOUS
 10
0.5995569311
 20
-21.9000011659
 40
0.5000001395
100
AcDbArc
 50
203.5781171788
 51
270.0536060974
  0
ARC
  5
3EA
100
AcDbEntity
  8
0
100
AcDbCircle
 62
7
  6
CONTINUOUS
 10
7.25
 20
-23.15
 40
0.5
100
AcDbArc
 50
154.1580672368
 51
205.8419327632
  0
ARC
  5
3EB
100
AcDbEntity
  8
0
100
AcDbCircle
 62
7
  6
CONTINUOUS
 10
15.25
 20
-23.15
 40
0.5
100
AcDbArc
 50
334.1580672368
 51
25.8419327632
  0
ARC
  5
3EC
100
AcDbEntity
  8
0
100
AcDbCircle
 62
7
  6
CONTINUOUS
 10
21.9004528417
 20
-21.9000167264
 40
0.4999835017
100
AcDbArc
 50
269.9452723311
 51
359.9999774666
  0
ARC
  5
3ED
100
AcDbEntity
  8
0
100
AcDbCircle
 62
7
  6
CONTINUOUS
 10
0.6005556525
 20
-21.900507654
 40
0.4994968435
100
AcDbArc
 50
203.5395254781
 51
269.939099136
  0
ARC
  5
3EE
100
AcDbEntity
  8
0
100
AcDbCircle
 62
253
  6
CONTINUOUS
 10
21.1368948033
 20
-24.2368948033
 40
0.2500066182
100
AcDbArc
 50
270.0024862874
 51
359.9975137126
  0
ARC
  5
3EF
100
AcDbEntity
  8
0
100
AcDbCircle
 62
253
  6
CONTINUOUS
 10
18.7631051967
 20
-24.2368948033
 40
0.2500066182
100
AcDbArc
 50
180.0024862874
 51
269.9975137126
  0
ARC
  5
3F0
100
AcDbEntity
  8
0
100
AcDbCircle
 62
253
  6
CONTINUOUS
 10
1.3631051962
 20
-24.2368948038
 40
0.2500066177
100
AcDbArc
 50
180.0024861811
 51
269.9975138189
  0
ARC
  5
3F1
100
AcDbEntity
  8
0
100
AcDbCircle
 62
253
  6
CONTINUOUS
 10
3.7368948038
 20
-24.2368948038
 40
0.2500066177
100
AcDbArc
 50
270.0024861811
 51
359.9975138189
  0
ARC
  5
3F2
100
AcDbEntity
  8
0
100
AcDbCircle
 62
7
  6
CONTINUOUS
 10
21.1500053487
 20
-24.2500053487
 40
0.2499946513
100
AcDbArc
 50
269.9997437926
 51
0.0002562074
  0
ARC
  5
3F3
100
AcDbEntity
  8
0
100
AcDbCircle
 62
7
  6
CONTINUOUS
 10
18.7499946513
 20
-24.2500053487
 40
0.2499946513
100
AcDbArc
 50
179.9997437926
 51
270.0002562074
  0
ARC
  5
3F4
100
AcDbEntity
  8
0
100
AcDbCircle
 62
7
  6
CONTINUOUS
 10
1.3499946513
 20
-24.2500053487
 40
0.2499946513
100
AcDbArc
 50
179.9997437926
 51
270.0002562074
  0
ARC
  5
3F5
100
AcDbEntity
  8
0
100
AcDbCircle
 62
7
  6
CONTINUOUS
 10
3.7500053487
 20
-24.2500053487
 40
0.2499946513
100
AcDbArc
 50
269.9997437926
 51
0.0002562074
  0
ARC
  5
3F6
100
AcDbEntity
  8
0
100
AcDbCircle
 62
7
  6
CONTINUOUS
 10
10.0500011808
 20
-23.7982490665
 40
0.1999988152
100
AcDbArc
 50
269.9996617127
 51
359.4995522505
  0
ARC
  5
3F7
100
AcDbEntity
  8
0
100
AcDbCircle
 62
253
  6
CONTINUOUS
 10
12.4499988189
 20
-23.7982490669
 40
0.1999988149
100
AcDbArc
 50
180.5004468359
 51
270.0003383609
  0
ARC
  5
3F8
100
AcDbEntity
  8
0
100
AcDbCircle
 62
7
  6
CONTINUOUS
 10
12.449882446
 20
-23.7999934169
 40
0.1998824461
100
AcDbArc
 50
180.0009168221
 51
269.999564761
  0
ARC
  5
3F9
100
AcDbEntity
  8
0
100
AcDbCircle
 62
7
  6
CONTINUOUS
 10
10.050117554
 20
-23.7999934169
 40
0.1998824461
100
AcDbArc
 50
270.002881872
 51
359.9990831779
  0
ARC
  5
3FA
100
AcDbEntity
  8
0
100
AcDbCircle
 62
7
  6
CONTINUOUS
 10
10.0505705535
 20
-23.7982511033
 40
0.1994294465
100
AcDbArc
 50
359.4987086161
 51
359.9999531425
  0
ARC
  5
3FB
100
AcDbEntity
  8
0
100
AcDbCircle
 62
253
  6
CONTINUOUS
 10
12.4494270287
 20
-23.7982511029
 40
0.1994270287
100
AcDbArc
 50
180.0000469726
 51
180.5012967614
  0
ARC
  5
3FC
100
AcDbEntity
  8
RACCORDO
100
AcDbCircle
 62
253
  6
CONTINUOUS
 10
18805.988700768
 20
0.000001061
 40
18783.988991435
100
AcDbArc
 50
179.9365273751
 51
180.0634726314
  0
ARC
  5
3FD
100
AcDbEntity
  8
RACCORDO
100
AcDbCircle
 62
253
  6
CONTINUOUS
 10
21.5288343653
 20
21.4788343653
 40
0.5002656608
100
AcDbArc
 50
0.0496654993
 51
89.9503345007
  0
ARC
  5
3FE
100
AcDbEntity
  8
0
100
AcDbCircle
 62
7
  6
CONTINUOUS
 10
15.25
 20
23.15
 40
0.5
100
AcDbArc
 50
334.1580672368
 51
25.8419327632
  0
ARC
  5
3FF
100
AcDbEntity
  8
0
100
AcDbCircle
 62
7
  6
CONTINUOUS
 10
7.25
 20
23.15
 40
0.5
100
AcDbArc
 50
154.1580672368
 51
205.8419327632
  0
ARC
  5
400
100
AcDbEntity
  8
0
100
AcDbCircle
 62
7
  6
CONTINUOUS
 10
0.5995502697
 20
21.9000113415
 40
0.4999888836
100
AcDbArc
 50
89.9456294642
 51
156.4226461915
  0
ARC
  5
401
100
AcDbEntity
  8
0
100
AcDbCircle
 62
7
  6
CONTINUOUS
 10
21.9004528417
 20
21.9000167264
 40
0.4999835017
100
AcDbArc
 50
0.0000225334
 51
90.0547276814
  0
ARC
  5
402
100
AcDbEntity
  8
0
100
AcDbCircle
 62
7
  6
CONTINUOUS
 10
0.600555721
 20
21.9005075496
 40
0.4994968435
100
AcDbArc
 50
90.0609087188
 51
156.4604666798
  0
ARC
  5
403
100
AcDbEntity
  8
0
100
AcDbCircle
 62
253
  6
CONTINUOUS
 10
21.1368948033
 20
24.2368948033
 40
0.2500066182
100
AcDbArc
 50
0.0024862874
 51
89.9975137126
  0
ARC
  5
404
100
AcDbEntity
  8
0
100
AcDbCircle
 62
253
  6
CONTINUOUS
 10
18.7631051962
 20
24.2368948038
 40
0.2500066177
100
AcDbArc
 50
90.0024861811
 51
179.9975138189
  0
ARC
  5
405
100
AcDbEntity
  8
0
100
AcDbCircle
 62
253
  6
CONTINUOUS
 10
3.7368948038
 20
24.2368948038
 40
0.2500066177
100
AcDbArc
 50
0.0024861811
 51
89.9975138189
  0
ARC
  5
406
100
AcDbEntity
  8
0
100
AcDbCircle
 62
253
  6
CONTINUOUS
 10
1.3631051962
 20
24.2368948038
 40
0.2500066177
100
AcDbArc
 50
90.0024861811
 51
179.9975138189
  0
ARC
  5
407
100
AcDbEntity
  8
0
100
AcDbCircle
 62
7
  6
CONTINUOUS
 10
21.1500053487
 20
24.2500053487
 40
0.2499946513
100
AcDbArc
 50
359.9997437926
 51
90.0002562074
  0
ARC
  5
408
100
AcDbEntity
  8
0
100
AcDbCircle
 62
7
  6
CONTINUOUS
 10
18.7499946513
 20
24.2500053487
 40
0.2499946513
100
AcDbArc
 50
89.9997437926
 51
180.0002562074
  0
ARC
  5
409
100
AcDbEntity
  8
0
100
AcDbCircle
 62
7
  6
CONTINUOUS
 10
3.7500053487
 20
24.2500053487
 40
0.2499946513
100
AcDbArc
 50
359.9997437926
 51
90.0002562074
  0
ARC
  5
40A
100
AcDbEntity
  8
0
100
AcDbCircle
 62
7
  6
CONTINUOUS
 10
1.3499946513
 20
24.2500053487
 40
0.2499946513
100
AcDbArc
 50
89.9997437926
 51
180.0002562074
  0
ARC
  5
40B
100
AcDbEntity
  8
0
100
AcDbCircle
 62
7
  6
CONTINUOUS
 10
12.4499988192
 20
23.7982490665
 40
0.1999988152
100
AcDbArc
 50
89.9996617127
 51
179.4995522505
  0
ARC
  5
40C
100
AcDbEntity
  8
0
100
AcDbCircle
 62
253
  6
CONTINUOUS
 10
10.0500011811
 20
23.7982490669
 40
0.1999988149
100
AcDbArc
 50
0.5004468359
 51
90.0003383609
  0
ARC
  5
40D
100
AcDbEntity
  8
0
100
AcDbCircle
 62
7
  6
CONTINUOUS
 10
12.449882446
 20
23.7999934169
 40
0.1998824461
100
AcDbArc
 50
90.0028818721
 51
179.9990831779
  0
ARC
  5
40E
100
AcDbEntity
  8
0
100
AcDbCircle
 62
7
  6
CONTINUOUS
 10
10.050117554
 20
23.7999934169
 40
0.1998824461
100
AcDbArc
 50
0.0009168221
 51
89.999564761
  0
ARC
  5
40F
100
AcDbEntity
  8
0
100
AcDbCircle
 62
7
  6
CONTINUOUS
 10
12.4494294465
 20
23.7982511033
 40
0.1994294465
100
AcDbArc
 50
179.4987086161
 51
179.9999531425
  0
ARC
  5
410
100
AcDbEntity
  8
0
100
AcDbCircle
 62
253
  6
CONTINUOUS
 10
10.0505729713
 20
23.7982511029
 40
0.1994270287
100
AcDbArc
 50
0.0000469726
 51
0.5012967614
  0
ARC
  5
411
100
AcDbEntity
  8
RACCORDO
100
AcDbCircle
 62
7
  6
CONTINUOUS
 10
-53.1235628735
 20
-20.7790432879
 40
1.2004339324
100
AcDbArc
 50
182.4388192562
 51
268.5171926235
  0
ARC
  5
412
100
AcDbEntity
  8
RACCORDO
100
AcDbCircle
 62
7
  6
CONTINUOUS
 10
-53.4962976684
 20
-20.7697383618
 40
1.2
100
AcDbArc
 50
182.985352181
 51
268.5
  0
ARC
  5
413
100
AcDbEntity
  8
0
100
AcDbCircle
 62
7
  6
CONTINUOUS
 10
-33.9375152591
 20
-21.3359869487
 40
1.0
100
AcDbArc
 50
270.3333333333
 51
360.0
  0
ARC
  5
414
100
AcDbEntity
  8
RACCORDO
100
AcDbCircle
 62
253
  6
CONTINUOUS
 10
-53.1367968404
 20
-20.7788612702
 40
0.7006022527
100
AcDbArc
 50
182.4671148564
 51
268.5417411289
  0
ARC
  5
415
100
AcDbEntity
  8
0
100
AcDbCircle
 62
7
  6
CONTINUOUS
 10
-39.4375152591
 20
-23.4679934743
 40
0.5
100
AcDbArc
 50
270.3333333333
 51
360.0
  0
ARC
  5
416
100
AcDbEntity
  8
0
100
AcDbCircle
 62
7
  6
CONTINUOUS
 10
-47.1875152591
 20
-24.2369056521
 40
0.25
100
AcDbArc
 50
180.0
 51
269.6666666667
  0
ARC
  5
417
100
AcDbEntity
  8
0
100
AcDbCircle
 62
7
  6
CONTINUOUS
 10
-44.1875152591
 20
-24.2456323968
 40
0.25
100
AcDbArc
 50
270.3333333333
 51
360.0
  0
ARC
  5
418
100
AcDbEntity
  8
0
100
AcDbCircle
 62
7
  6
CONTINUOUS
 10
-44.1875152591
 20
-23.8443375673
 40
0.25
100
AcDbArc
 50
0.0
 51
60.0
  0
ARC
  5
419
100
AcDbEntity
  8
0
100
AcDbCircle
 62
7
  6
CONTINUOUS
 10
-47.1875152591
 20
-23.8443375673
 40
0.25
100
AcDbArc
 50
120.0
 51
180.0
  0
ARC
  5
41A
100
AcDbEntity
  8
RACCORDO
100
AcDbCircle
 62
7
  6
CONTINUOUS
 10
-33.1375152591
 20
-19.9942577878
 40
0.2
100
AcDbArc
 50
0.0
 51
89.5
  0
ARC
  5
41B
100
AcDbEntity
  8
RACCORDO
100
AcDbCircle
 62
7
  6
CONTINUOUS
 10
-33.1375152591
 20
-18.7400415081
 40
0.2
100
AcDbArc
 50
0.0
 51
69.9999998795
  0
ARC
  5
41C
100
AcDbEntity
  8
RACCORDO
100
AcDbCircle
 62
7
  6
CONTINUOUS
 10
-53.1235631783
 20
20.7790434108
 40
1.2004339345
100
AcDbArc
 50
91.4828013703
 51
177.5611864363
  0
ARC
  5
41D
100
AcDbEntity
  8
RACCORDO
100
AcDbCircle
 62
7
  6
CONTINUOUS
 10
-53.4962976605
 20
20.769738362
 40
1.2
100
AcDbArc
 50
91.5
 51
177.0146478186
  0
ARC
  5
41E
100
AcDbEntity
  8
0
100
AcDbCircle
 62
7
  6
CONTINUOUS
 10
-33.9375152591
 20
21.3359869487
 40
1.0
100
AcDbArc
 50
0.0
 51
89.6666666667
  0
ARC
  5
41F
100
AcDbEntity
  8
RACCORDO
100
AcDbCircle
 62
253
  6
CONTINUOUS
 10
-53.1367971063
 20
20.7788614231
 40
0.7006020866
100
AcDbArc
 50
91.4582518176
 51
177.5328977291
  0
ARC
  5
420
100
AcDbEntity
  8
0
100
AcDbCircle
 62
7
  6
CONTINUOUS
 10
-39.4375152591
 20
23.4679934743
 40
0.5
100
AcDbArc
 50
0.0
 51
89.6666666667
  0
ARC
  5
421
100
AcDbEntity
  8
0
100
AcDbCircle
 62
7
  6
CONTINUOUS
 10
-47.1875152591
 20
24.2369056521
 40
0.25
100
AcDbArc
 50
90.3333333333
 51
180.0
  0
ARC
  5
422
100
AcDbEntity
  8
0
100
AcDbCircle
 62
7
  6
CONTINUOUS
 10
-44.1875152591
 20
24.2456323968
 40
0.25
100
AcDbArc
 50
0.0
 51
89.6666666667
  0
ARC
  5
423
100
AcDbEntity
  8
0
100
AcDbCircle
 62
7
  6
CONTINUOUS
 10
-47.1875152591
 20
23.8443375673
 40
0.25
100
AcDbArc
 50
180.0
 51
240.0
  0
ARC
  5
424
100
AcDbEntity
  8
0
100
AcDbCircle
 62
7
  6
CONTINUOUS
 10
-44.1875152591
 20
23.8443375673
 40
0.25
100
AcDbArc
 50
300.0
 51
360.0
  0
ARC
  5
425
100
AcDbEntity
  8
RACCORDO
100
AcDbCircle
 62
7
  6
CONTINUOUS
 10
-33.1375152591
 20
18.7400415081
 40
0.2
100
AcDbArc
 50
290.0000001205
 51
360.0
  0
ARC
  5
426
100
AcDbEntity
  8
RACCORDO
100
AcDbCircle
 62
7
  6
CONTINUOUS
 10
-33.1375152591
 20
19.9942577878
 40
0.2
100
AcDbArc
 50
270.5
 51
360.0
  0
ARC
  5
427
100
AcDbEntity
  8
RACCORDO
100
AcDbCircle
 62
253
  6
CONTINUOUS
 10
438.0663018168
 20
-0.0000000008
 40
492.829590573
100
AcDbArc
 50
177.5775930742
 51
182.4224069267
  0
ARC
  5
428
100
AcDbEntity
  8
RACCORDO
100
AcDbCircle
 62
253
  6
CONTINUOUS
 10
437.8438645528
 20
0.0000010606
 40
492.12072669
100
AcDbArc
 50
177.5765612876
 51
182.4234389606
  0
SPLINE
  5
429
100
AcDbEntity
  8
0
100
AcDbSpline
 62
7
  6
CONTINUOUS
 70
0
 71
3
 72
9
 73
5
 74
3
 42
0.0000001
 43
0.0000001
 44
0.0000000001
 12
0.0
 22
-0.1445393502
 32
0.0
 13
0.0315989519
 23
-0.1410430076
 33
0.0
 40
0.0
 40
0.0
 40
0.0
 40
0.0
 40
0.2511147779
 40
1.0
 40
1.0
 40
1.0
 40
1.0
 10
-10.15
 20
-8.9125388203
 30
0.0
 10
-10.15
 20
-8.9246374759
 30
0.0
 10
-10.1485467325
 20
-8.9728124768
 30
0.0
 10
-10.1415315652
 20
-9.0207704191
 30
0.0
 10
-10.1336435692
 20
-9.0559787604
 30
0.0
 11
-10.15
 21
-8.9125388203
 31
0.0
 11
-10.1489194003
 21
-8.9488186978
 31
0.0
 11
-10.1336435692
 21
-9.0559787604
 31
0.0
  0
LINE
  5
42A
100
AcDbEntity
  8
0
100
AcDbLine
 62
7
  6
CONTINUOUS
 10
-10.459984088
 20
-8.174999449
 11
-10.4399840475
 21
-8.1750005522
  0
LINE
  5
42B
100
AcDbEntity
  8
0
100
AcDbLine
 62
7
  6
CONTINUOUS
 10
-12.0599816528
 20
-8.1749993648
 11
-12.0399816011
 21
-8.175000637
  0
SPLINE
  5
42C
100
AcDbEntity
  8
0
100
AcDbSpline
 62
7
  6
CONTINUOUS
 70
0
 71
3
 72
9
 73
5
 74
3
 42
0.0000001
 43
0.0000001
 44
0.0000000001
 12
0.0316118709
 22
0.1410785707
 32
0.0
 13
0.0
 23
0.1445768775
 33
0.0
 40
0.0
 40
0.0
 40
0.0
 40
0.0
 40
0.7490102709
 40
1.0
 40
1.0
 40
1.0
 40
1.0
 10
-12.3663652581
 20
-9.0560154026
 30
0.0
 10
-12.3584727194
 20
-9.0207923031
 30
0.0
 10
-12.351452327
 20
-8.9728221559
 30
0.0
 10
-12.35
 20
-8.9246345907
 30
0.0
 10
-12.35
 20
-8.9125388203
 30
0.0
 11
-12.3663652581
 21
-9.0560154026
 31
0.0
 11
-12.3510798033
 21
-8.9488100622
 31
0.0
 11
-12.35
 21
-8.9125388203
 31
0.0
  0
LINE
  5
42D
100
AcDbEntity
  8
0
100
AcDbLine
 62
7
  6
CONTINUOUS
 10
-14.2400256192
 20
-11.2250278414
 11
-14.4466940863
 21
-11.2250093676
  0
LINE
  5
42E
100
AcDbEntity
  8
0
100
AcDbLine
 62
7
  6
CONTINUOUS
 10
-14.4466940863
 20
-11.2250093676
 11
-14.6533611669
 21
-11.2249906276
  0
LINE
  5
42F
100
AcDbEntity
  8
0
100
AcDbLine
 62
7
  6
CONTINUOUS
 10
-14.6533611669
 20
-11.2249906276
 11
-14.8600267642
 21
-11.2249716213
  0
LINE
  5
430
100
AcDbEntity
  8
0
100
AcDbLine
 62
7
  6
CONTINUOUS
 10
-14.8599738611
 20
-10.6249721718
 11
-14.6533088952
 21
-10.6249908125
  0
LINE
  5
431
100
AcDbEntity
  8
0
100
AcDbLine
 62
7
  6
CONTINUOUS
 10
-14.6533088952
 20
-10.6249908125
 11
-14.4466425261
 21
-10.6250091921
  0
LINE
  5
432
100
AcDbEntity
  8
0
100
AcDbLine
 62
7
  6
CONTINUOUS
 10
-14.4466425261
 20
-10.6250091921
 11
-14.2399747673
 21
-10.6250273106
  0
LINE
  5
433
100
AcDbEntity
  8
0
100
AcDbLine
 62
7
  6
CONTINUOUS
 10
-13.1521167661
 20
-13.2513807661
 11
-13.2979564166
 21
-13.3972207493
  0
LINE
  5
434
100
AcDbEntity
  8
0
100
AcDbLine
 62
7
  6
CONTINUOUS
 10
-13.2979564166
 20
-13.3972207493
 11
-13.3466300272
 21
-13.4458944709
  0
LINE
  5
435
100
AcDbEntity
  8
0
100
AcDbLine
 62
7
  6
CONTINUOUS
 10
-13.3466300272
 20
-13.4458944709
 11
-13.3953471253
 21
-13.4946116801
  0
LINE
  5
436
100
AcDbEntity
  8
0
100
AcDbLine
 62
7
  6
CONTINUOUS
 10
-13.3953471253
 20
-13.4946116801
 11
-13.4440900669
 21
-13.5433547328
  0
LINE
  5
437
100
AcDbEntity
  8
0
100
AcDbLine
 62
7
  6
CONTINUOUS
 10
-13.4440900669
 20
-13.5433547328
 11
-13.5905227661
 21
-13.6897877661
  0
LINE
  5
438
100
AcDbEntity
  8
0
100
AcDbLine
 62
7
  6
CONTINUOUS
 10
-13.166259
 20
-12.827117
 11
-13.152117
 21
-12.841259
  0
LINE
  5
439
100
AcDbEntity
  8
0
100
AcDbLine
 62
7
  6
CONTINUOUS
 10
-14.0147877661
 20
-13.2655227661
 11
-13.8683563804
 21
-13.1190917144
  0
LINE
  5
43A
100
AcDbEntity
  8
0
100
AcDbLine
 62
7
  6
CONTINUOUS
 10
-13.8683563804
 20
-13.1190917144
 11
-13.5763807661
 21
-12.8271167661
  0
LINE
  5
43B
100
AcDbEntity
  8
0
100
AcDbLine
 62
7
  6
CONTINUOUS
 10
-14.000645
 20
-13.689788
 11
-14.014788
 21
-13.675645
  0
LINE
  5
43C
100
AcDbEntity
  8
0
100
AcDbLine
 62
7
  6
CONTINUOUS
 10
-11.2599794931
 20
-13.6249992902
 11
-11.2399794386
 21
-13.6250007121
  0
LINE
  5
43D
100
AcDbEntity
  8
0
100
AcDbLine
 62
7
  6
CONTINUOUS
 10
-11.2400197645
 20
-14.8250006847
 11
-11.250019826
 21
-14.8249999986
  0
LINE
  5
43E
100
AcDbEntity
  8
0
100
AcDbLine
 62
7
  6
CONTINUOUS
 10
-11.250019826
 20
-14.8249999986
 11
-11.2600198847
 21
-14.824999312
  0
LINE
  5
43F
100
AcDbEntity
  8
0
100
AcDbLine
 62
7
  6
CONTINUOUS
 10
-8.9236192339
 20
-12.8271167661
 11
-8.8310192406
 21
-12.9197165482
  0
LINE
  5
440
100
AcDbEntity
  8
0
100
AcDbLine
 62
7
  6
CONTINUOUS
 10
-8.8310192406
 20
-12.9197165482
 11
-8.7976860566
 21
-12.9530496561
  0
LINE
  5
441
100
AcDbEntity
  8
0
100
AcDbLine
 62
7
  6
CONTINUOUS
 10
-8.7976860566
 20
-12.9530496561
 11
-8.7775614421
 21
-12.9731742248
  0
LINE
  5
442
100
AcDbEntity
  8
0
100
AcDbLine
 62
7
  6
CONTINUOUS
 10
-8.7775614421
 20
-12.9731742248
 11
-8.7563068845
 21
-12.9944287338
  0
LINE
  5
443
100
AcDbEntity
  8
0
100
AcDbLine
 62
7
  6
CONTINUOUS
 10
-8.7563068845
 20
-12.9944287338
 11
-8.7288552521
 21
-13.0218803036
  0
LINE
  5
444
100
AcDbEntity
  8
0
100
AcDbLine
 62
7
  6
CONTINUOUS
 10
-8.7288552521
 20
-13.0218803036
 11
-8.7053062877
 21
-13.0454292144
  0
LINE
  5
445
100
AcDbEntity
  8
0
100
AcDbLine
 62
7
  6
CONTINUOUS
 10
-8.7053062877
 20
-13.0454292144
 11
-8.6801482339
 21
-13.0705872107
  0
LINE
  5
446
100
AcDbEntity
  8
0
100
AcDbLine
 62
7
  6
CONTINUOUS
 10
-8.6801482339
 20
-13.0705872107
 11
-8.6532926677
 21
-13.0974427157
  0
LINE
  5
447
100
AcDbEntity
  8
0
100
AcDbLine
 62
7
  6
CONTINUOUS
 10
-8.6532926677
 20
-13.0974427157
 11
-8.6314257755
 21
-13.119309558
  0
LINE
  5
448
100
AcDbEntity
  8
0
100
AcDbLine
 62
7
  6
CONTINUOUS
 10
-8.6314257755
 20
-13.119309558
 11
-8.6105180771
 21
-13.1402172087
  0
LINE
  5
449
100
AcDbEntity
  8
0
100
AcDbLine
 62
7
  6
CONTINUOUS
 10
-8.6105180771
 20
-13.1402172087
 11
-8.4852122339
 21
-13.2655227661
  0
LINE
  5
44A
100
AcDbEntity
  8
0
100
AcDbLine
 62
7
  6
CONTINUOUS
 10
-9.347883
 20
-12.841259
 11
-9.333741
 21
-12.827117
  0
LINE
  5
44B
100
AcDbEntity
  8
0
100
AcDbLine
 62
7
  6
CONTINUOUS
 10
-8.9094772339
 20
-13.6897877661
 11
-8.9995188022
 21
-13.5997459924
  0
LINE
  5
44C
100
AcDbEntity
  8
0
100
AcDbLine
 62
7
  6
CONTINUOUS
 10
-8.9995188022
 20
-13.5997459924
 11
-9.0069523588
 21
-13.5923124189
  0
LINE
  5
44D
100
AcDbEntity
  8
0
100
AcDbLine
 62
7
  6
CONTINUOUS
 10
-9.0069523588
 20
-13.5923124189
 11
-9.0349346064
 21
-13.5643301075
  0
LINE
  5
44E
100
AcDbEntity
  8
0
100
AcDbLine
 62
7
  6
CONTINUOUS
 10
-9.0349346064
 20
-13.5643301075
 11
-9.0556909065
 21
-13.54357376
  0
LINE
  5
44F
100
AcDbEntity
  8
0
100
AcDbLine
 62
7
  6
CONTINUOUS
 10
-9.0556909065
 20
-13.54357376
 11
-9.0775154526
 21
-13.5217491641
  0
LINE
  5
450
100
AcDbEntity
  8
0
100
AcDbLine
 62
7
  6
CONTINUOUS
 10
-9.0775154526
 20
-13.5217491641
 11
-9.1044133785
 21
-13.4948511769
  0
LINE
  5
451
100
AcDbEntity
  8
0
100
AcDbLine
 62
7
  6
CONTINUOUS
 10
-9.1044133785
 20
-13.4948511769
 11
-9.1295718169
 21
-13.4696926811
  0
LINE
  5
452
100
AcDbEntity
  8
0
100
AcDbLine
 62
7
  6
CONTINUOUS
 10
-9.1295718169
 20
-13.4696926811
 11
-9.153120142
 21
-13.4461443023
  0
LINE
  5
453
100
AcDbEntity
  8
0
100
AcDbLine
 62
7
  6
CONTINUOUS
 10
-9.153120142
 20
-13.4461443023
 11
-9.1806094888
 21
-13.4186548927
  0
LINE
  5
454
100
AcDbEntity
  8
0
100
AcDbLine
 62
7
  6
CONTINUOUS
 10
-9.1806094888
 20
-13.4186548927
 11
-9.2018262396
 21
-13.3974380935
  0
LINE
  5
455
100
AcDbEntity
  8
0
100
AcDbLine
 62
7
  6
CONTINUOUS
 10
-9.2018262396
 20
-13.3974380935
 11
-9.2218129732
 21
-13.3774513144
  0
LINE
  5
456
100
AcDbEntity
  8
0
100
AcDbLine
 62
7
  6
CONTINUOUS
 10
-9.2218129732
 20
-13.3774513144
 11
-9.3478832339
 21
-13.2513807661
  0
LINE
  5
457
100
AcDbEntity
  8
0
100
AcDbLine
 62
7
  6
CONTINUOUS
 10
-8.485212
 20
-13.675645
 11
-8.499355
 21
-13.689788
  0
LINE
  5
458
100
AcDbEntity
  8
0
100
AcDbLine
 62
7
  6
CONTINUOUS
 10
-8.2599854652
 20
-10.6249846798
 11
-8.0533198159
 21
-10.6249949807
  0
LINE
  5
459
100
AcDbEntity
  8
0
100
AcDbLine
 62
7
  6
CONTINUOUS
 10
-8.0533198159
 20
-10.6249949807
 11
-7.8466534764
 21
-10.6250050206
  0
LINE
  5
45A
100
AcDbEntity
  8
0
100
AcDbLine
 62
7
  6
CONTINUOUS
 10
-7.8466534764
 20
-10.6250050206
 11
-7.6399864755
 21
-10.6250147995
  0
LINE
  5
45B
100
AcDbEntity
  8
0
100
AcDbLine
 62
7
  6
CONTINUOUS
 10
-7.6400137308
 20
-11.2250150884
 11
-7.8466814621
 21
-11.2250051177
  0
LINE
  5
45C
100
AcDbEntity
  8
0
100
AcDbLine
 62
7
  6
CONTINUOUS
 10
-7.8466814621
 20
-11.2250051177
 11
-8.0533485309
 21
-11.2249948809
  0
LINE
  5
45D
100
AcDbEntity
  8
0
100
AcDbLine
 62
7
  6
CONTINUOUS
 10
-8.0533485309
 20
-11.2249948809
 11
-8.2600148834
 21
-11.2249843779
  0
SPLINE
  5
45E
100
AcDbEntity
  8
0
100
AcDbSpline
 62
7
  6
CONTINUOUS
 70
0
 71
3
 72
15
 73
11
 74
9
 42
0.0000001
 43
0.0000001
 44
0.0000000001
 12
0.3142908459
 22
0.0
 32
0.0
 13
0.0031667975
 23
0.3142748912
 33
0.0
 40
0.0
 40
0.0
 40
0.0
 40
0.0
 40
0.1666133779
 40
0.3262255844
 40
0.4735308137
 40
0.6056575217
 40
0.7220676483
 40
0.8241942131
 40
0.9152281509
 40
1.0
 40
1.0
 40
1.0
 40
1.0
 10
3.7427234819
 20
23.1226497308
 30
0.0
 10
3.7601785017
 20
23.1226497308
 30
0.0
 10
3.7943856929
 20
23.124909705
 30
0.0
 10
3.8432620946
 20
23.1340775763
 30
0.0
 10
3.8871035061
 20
23.1484769636
 30
0.0
 10
3.9243461767
 20
23.1671011817
 30
0.0
 10
3.9540985049
 20
23.1890111222
 30
0.0
 10
3.9758950298
 20
23.2134107396
 30
0.0
 10
3.9893986841
 20
23.239611024
 30
0.0
 10
3.992629766
 20
23.2581067436
 30
0.0
 10
3.9927192511
 20
23.2669872981
 30
0.0
 11
3.7427234819
 21
23.1226497308
 31
0.0
 11
3.7949802175
 21
23.126016189
 31
0.0
 11
3.8442534457
 21
23.1354311576
 31
0.0
 11
3.8881709782
 21
23.1500815293
 31
0.0
 11
3.9251759211
 21
23.1689245842
 31
0.0
 11
3.9544151803
 21
23.1909165769
 31
0.0
 11
3.9754977136
 21
23.215119319
 31
0.0
 11
3.9882790097
 21
23.2407168857
 31
0.0
 11
3.9927192511
 21
23.2669872981
 31
0.0
  0
SPLINE
  5
45F
100
AcDbEntity
  8
0
100
AcDbSpline
 62
253
  6
CONTINUOUS
 70
0
 71
3
 72
13
 73
9
 74
7
 42
0.0000001
 43
0.0000001
 44
0.0000000001
 12
0.0012265944
 22
-0.3651869709
 32
0.0
 13
0.3651878721
 23
-0.0009199792
 33
0.0
 40
0.0
 40
0.0
 40
0.0
 40
0.0
 40
0.1162394899
 40
0.2339784923
 40
0.3543712679
 40
0.4780982409
 40
0.7345378657
 40
1.0
 40
1.0
 40
1.0
 40
1.0
 10
1.1130985787
 20
23.8443375673
 30
0.0
 10
1.113146105
 20
23.8301878516
 30
0.0
 10
1.1165046396
 20
23.8016148337
 30
0.0
 10
1.1310612265
 20
23.7606544968
 30
0.0
 10
1.1545320998
 20
23.7229827139
 30
0.0
 10
1.1968348266
 20
23.6786209789
 30
0.0
 10
1.2667610945
 20
23.6387867994
 30
0.0
 10
1.3307798306
 20
23.6279126229
 30
0.0
 10
1.3630943479
 20
23.6278312164
 30
0.0
 11
1.1130985787
 21
23.8443375673
 31
0.0
 11
1.1180263068
 21
23.8021751679
 31
0.0
 11
1.1323368095
 21
23.7616295041
 31
0.0
 11
1.1554824773
 21
23.7242490565
 31
0.0
 11
1.1865773793
 21
23.6914667926
 31
0.0
 11
1.2675929316
 21
23.6444922901
 31
0.0
 11
1.3630943479
 21
23.6278312164
 31
0.0
  0
SPLINE
  5
460
100
AcDbEntity
  8
0
100
AcDbSpline
 62
7
  6
CONTINUOUS
 70
0
 71
3
 72
15
 73
11
 74
9
 42
0.0000001
 43
0.0000001
 44
0.0000000001
 12
0.0031741039
 22
-0.3149999784
 32
0.0
 13
0.3150159699
 23
0.0
 33
0.0
 40
0.0
 40
0.0
 40
0.0
 40
0.0
 40
0.0847246382
 40
0.1757279367
 40
0.2778501555
 40
0.3942839058
 40
0.5264550939
 40
0.6738071548
 40
0.8334364544
 40
1.0
 40
1.0
 40
1.0
 40
1.0
 10
1.1072807489
 20
23.2669872981
 30
0.0
 10
1.1073703905
 20
23.2580912117
 30
0.0
 10
1.1106131795
 20
23.2395608029
 30
0.0
 10
1.1241645701
 20
23.2133174142
 30
0.0
 10
1.146036015
 20
23.1888844894
 30
0.0
 10
1.175888076
 20
23.1669547435
 30
0.0
 10
1.213250807
 20
23.1483274499
 30
0.0
 10
1.2572234122
 20
23.133953471
 30
0.0
 10
1.3062269929
 20
23.1248150691
 30
0.0
 10
1.3405136879
 20
23.1226497308
 30
0.0
 10
1.3580037468
 20
23.1226497308
 30
0.0
 11
1.1072807489
 21
23.2669872981
 31
0.0
 11
1.1117358026
 21
23.2406721314
 31
0.0
 11
1.1245605835
 21
23.2150332915
 31
0.0
 11
1.1457149112
 21
23.1907967144
 31
0.0
 11
1.1750527761
 21
23.1687830511
 31
0.0
 11
1.2121789369
 21
23.1499360992
 31
0.0
 11
1.2562311591
 21
23.1353054509
 31
0.0
 11
1.3056366974
 21
23.1259378303
 31
0.0
 11
1.3580037468
 21
23.1226497308
 31
0.0
  0
SPLINE
  5
461
100
AcDbEntity
  8
0
100
AcDbSpline
 62
253
  6
CONTINUOUS
 70
0
 71
3
 72
13
 73
9
 74
7
 42
0.0000001
 43
0.0000001
 44
0.0000000001
 12
-0.0012265944
 22
-0.3651869708
 32
0.0
 13
-0.3651878719
 23
-0.0009199792
 33
0.0
 40
0.0
 40
0.0
 40
0.0
 40
0.0
 40
0.1162394861
 40
0.2339784844
 40
0.3543712552
 40
0.4780982232
 40
0.7345378384
 40
1.0
 40
1.0
 40
1.0
 40
1.0
 10
3.9869014213
 20
23.8443375673
 30
0.0
 10
3.9868538951
 20
23.830187852
 30
0.0
 10
3.9834953606
 20
23.8016148352
 30
0.0
 10
3.9689387749
 20
23.7606544996
 30
0.0
 10
3.9454679029
 20
23.7229827179
 30
0.0
 10
3.9031651791
 20
23.6786209833
 30
0.0
 10
3.833238911
 20
23.6387868014
 30
0.0
 10
3.7692201727
 20
23.6279126229
 30
0.0
 10
3.7369056521
 20
23.6278312164
 30
0.0
 11
3.9869014213
 21
23.8443375673
 31
0.0
 11
3.9819736935
 21
23.8021751692
 31
0.0
 11
3.9676631919
 21
23.7616295068
 31
0.0
 11
3.9445175256
 21
23.7242490603
 31
0.0
 11
3.9134226257
 21
23.6914667969
 31
0.0
 11
3.8324070779
 21
23.6444922937
 31
0.0
 11
3.7369056521
 21
23.6278312164
 31
0.0
  0
SPLINE
  5
462
100
AcDbEntity
  8
0
100
AcDbSpline
 62
253
  6
CONTINUOUS
 70
0
 71
3
 72
13
 73
9
 74
7
 42
0.0000001
 43
0.0000001
 44
0.0000000001
 12
0.0012265944
 22
-0.3651869708
 32
0.0
 13
0.3651878719
 23
-0.0009199792
 33
0.0
 40
0.0
 40
0.0
 40
0.0
 40
0.0
 40
0.1162394861
 40
0.2339784844
 40
0.3543712552
 40
0.4780982232
 40
0.7345378384
 40
1.0
 40
1.0
 40
1.0
 40
1.0
 10
18.5130985787
 20
23.8443375673
 30
0.0
 10
18.5131461049
 20
23.830187852
 30
0.0
 10
18.5165046394
 20
23.8016148352
 30
0.0
 10
18.5310612251
 20
23.7606544996
 30
0.0
 10
18.5545320971
 20
23.7229827179
 30
0.0
 10
18.5968348209
 20
23.6786209833
 30
0.0
 10
18.666761089
 20
23.6387868014
 30
0.0
 10
18.7307798273
 20
23.6279126229
 30
0.0
 10
18.7630943479
 20
23.6278312164
 30
0.0
 11
18.5130985787
 21
23.8443375673
 31
0.0
 11
18.5180263065
 21
23.8021751692
 31
0.0
 11
18.5323368081
 21
23.7616295068
 31
0.0
 11
18.5554824744
 21
23.7242490603
 31
0.0
 11
18.5865773743
 21
23.6914667969
 31
0.0
 11
18.6675929221
 21
23.6444922937
 31
0.0
 11
18.7630943479
 21
23.6278312164
 31
0.0
  0
SPLINE
  5
463
100
AcDbEntity
  8
0
100
AcDbSpline
 62
7
  6
CONTINUOUS
 70
0
 71
3
 72
15
 73
11
 74
9
 42
0.0000001
 43
0.0000001
 44
0.0000000001
 12
0.0031741039
 22
-0.3149999784
 32
0.0
 13
0.3150159699
 23
-0.0
 33
0.0
 40
0.0
 40
0.0
 40
0.0
 40
0.0
 40
0.0847246382
 40
0.1757279367
 40
0.2778501555
 40
0.3942839058
 40
0.5264550939
 40
0.6738071548
 40
0.8334364544
 40
1.0
 40
1.0
 40
1.0
 40
1.0
 10
18.5072807489
 20
23.2669872981
 30
0.0
 10
18.5073703905
 20
23.2580912117
 30
0.0
 10
18.5106131795
 20
23.2395608029
 30
0.0
 10
18.5241645701
 20
23.2133174142
 30
0.0
 10
18.546036015
 20
23.1888844894
 30
0.0
 10
18.575888076
 20
23.1669547435
 30
0.0
 10
18.613250807
 20
23.1483274499
 30
0.0
 10
18.6572234122
 20
23.133953471
 30
0.0
 10
18.7062269929
 20
23.1248150691
 30
0.0
 10
18.7405136879
 20
23.1226497308
 30
0.0
 10
18.7580037468
 20
23.1226497308
 30
0.0
 11
18.5072807489
 21
23.2669872981
 31
0.0
 11
18.5117358026
 21
23.2406721314
 31
0.0
 11
18.5245605835
 21
23.2150332915
 31
0.0
 11
18.5457149112
 21
23.1907967144
 31
0.0
 11
18.5750527761
 21
23.1687830511
 31
0.0
 11
18.6121789369
 21
23.1499360992
 31
0.0
 11
18.6562311591
 21
23.1353054509
 31
0.0
 11
18.7056366974
 21
23.1259378303
 31
0.0
 11
18.7580037468
 21
23.1226497308
 31
0.0
  0
SPLINE
  5
464
100
AcDbEntity
  8
0
100
AcDbSpline
 62
7
  6
CONTINUOUS
 70
0
 71
3
 72
15
 73
11
 74
9
 42
0.0000001
 43
0.0000001
 44
0.0000000001
 12
-0.0031741039
 22
-0.3149999784
 32
0.0
 13
-0.3150159699
 23
-0.0
 33
0.0
 40
0.0
 40
0.0
 40
0.0
 40
0.0
 40
0.0847246382
 40
0.1757279367
 40
0.2778501555
 40
0.3942839058
 40
0.5264550939
 40
0.6738071548
 40
0.8334364544
 40
1.0
 40
1.0
 40
1.0
 40
1.0
 10
21.3927192511
 20
23.2669872981
 30
0.0
 10
21.3926296095
 20
23.2580912117
 30
0.0
 10
21.3893868205
 20
23.2395608029
 30
0.0
 10
21.3758354299
 20
23.2133174142
 30
0.0
 10
21.353963985
 20
23.1888844894
 30
0.0
 10
21.324111924
 20
23.1669547435
 30
0.0
 10
21.286749193
 20
23.1483274499
 30
0.0
 10
21.2427765878
 20
23.133953471
 30
0.0
 10
21.1937730071
 20
23.1248150691
 30
0.0
 10
21.1594863121
 20
23.1226497308
 30
0.0
 10
21.1419962532
 20
23.1226497308
 30
0.0
 11
21.3927192511
 21
23.2669872981
 31
0.0
 11
21.3882641974
 21
23.2406721314
 31
0.0
 11
21.3754394165
 21
23.2150332915
 31
0.0
 11
21.3542850888
 21
23.1907967144
 31
0.0
 11
21.3249472239
 21
23.1687830511
 31
0.0
 11
21.2878210631
 21
23.1499360992
 31
0.0
 11
21.2437688409
 21
23.1353054509
 31
0.0
 11
21.1943633026
 21
23.1259378303
 31
0.0
 11
21.1419962532
 21
23.1226497308
 31
0.0
  0
SPLINE
  5
465
100
AcDbEntity
  8
0
100
AcDbSpline
 62
253
  6
CONTINUOUS
 70
0
 71
3
 72
13
 73
9
 74
7
 42
0.0000001
 43
0.0000001
 44
0.0000000001
 12
-0.0012265943
 22
-0.3651869702
 32
0.0
 13
-0.3651878714
 23
-0.0009199792
 33
0.0
 40
0.0
 40
0.0
 40
0.0
 40
0.0
 40
0.1162393822
 40
0.2339783947
 40
0.3543711753
 40
0.4780981573
 40
0.7345378061
 40
1.0
 40
1.0
 40
1.0
 40
1.0
 10
21.3869014213
 20
23.8443375673
 30
0.0
 10
21.3868538951
 20
23.8301878647
 30
0.0
 10
21.3834953621
 20
23.8016148597
 30
0.0
 10
21.3689387922
 20
23.7606545287
 30
0.0
 10
21.34546792
 20
23.7229827412
 30
0.0
 10
21.3031651981
 20
23.6786209956
 30
0.0
 10
21.2332389227
 20
23.6387868046
 30
0.0
 10
21.1692201766
 20
23.6279126229
 30
0.0
 10
21.1369056521
 20
23.6278312164
 30
0.0
 11
21.3869014213
 21
23.8443375673
 31
0.0
 11
21.3819737009
 21
23.8021752067
 31
0.0
 11
21.367663207
 21
23.761629536
 31
0.0
 11
21.3445175433
 21
23.7242490838
 31
0.0
 11
21.313422644
 21
23.6914668129
 31
0.0
 11
21.232407089
 21
23.644492298
 31
0.0
 11
21.1369056521
 21
23.6278312164
 31
0.0
  0
SPLINE
  5
466
100
AcDbEntity
  8
0
100
AcDbSpline
 62
253
  6
CONTINUOUS
 70
0
 71
3
 72
13
 73
9
 74
7
 42
0.0000001
 43
0.0000001
 44
0.0000000001
 12
-0.0012265944
 22
0.3651869708
 32
0.0
 13
-0.3651878719
 23
0.0009199792
 33
0.0
 40
0.0
 40
0.0
 40
0.0
 40
0.0
 40
0.1162394861
 40
0.2339784844
 40
0.3543712552
 40
0.4780982232
 40
0.7345378384
 40
1.0
 40
1.0
 40
1.0
 40
1.0
 10
21.3869014213
 20
-23.8443375673
 30
0.0
 10
21.3868538951
 20
-23.830187852
 30
0.0
 10
21.3834953606
 20
-23.8016148352
 30
0.0
 10
21.3689387749
 20
-23.7606544996
 30
0.0
 10
21.3454679029
 20
-23.7229827179
 30
0.0
 10
21.3031651791
 20
-23.6786209833
 30
0.0
 10
21.233238911
 20
-23.6387868014
 30
0.0
 10
21.1692201727
 20
-23.6279126229
 30
0.0
 10
21.1369056521
 20
-23.6278312164
 30
0.0
 11
21.3869014213
 21
-23.8443375673
 31
0.0
 11
21.3819736935
 21
-23.8021751692
 31
0.0
 11
21.3676631919
 21
-23.7616295068
 31
0.0
 11
21.3445175256
 21
-23.7242490603
 31
0.0
 11
21.3134226257
 21
-23.6914667969
 31
0.0
 11
21.2324070779
 21
-23.6444922937
 31
0.0
 11
21.1369056521
 21
-23.6278312164
 31
0.0
  0
SPLINE
  5
467
100
AcDbEntity
  8
0
100
AcDbSpline
 62
7
  6
CONTINUOUS
 70
0
 71
3
 72
15
 73
11
 74
9
 42
0.0000001
 43
0.0000001
 44
0.0000000001
 12
-0.0031741039
 22
0.3149999784
 32
0.0
 13
-0.3150159699
 23
-0.0
 33
0.0
 40
0.0
 40
0.0
 40
0.0
 40
0.0
 40
0.0847246382
 40
0.1757279367
 40
0.2778501555
 40
0.3942839058
 40
0.5264550939
 40
0.6738071548
 40
0.8334364544
 40
1.0
 40
1.0
 40
1.0
 40
1.0
 10
21.3927192511
 20
-23.2669872981
 30
0.0
 10
21.3926296095
 20
-23.2580912117
 30
0.0
 10
21.3893868205
 20
-23.2395608029
 30
0.0
 10
21.3758354299
 20
-23.2133174142
 30
0.0
 10
21.353963985
 20
-23.1888844894
 30
0.0
 10
21.324111924
 20
-23.1669547435
 30
0.0
 10
21.286749193
 20
-23.1483274499
 30
0.0
 10
21.2427765878
 20
-23.133953471
 30
0.0
 10
21.1937730071
 20
-23.1248150691
 30
0.0
 10
21.1594863121
 20
-23.1226497308
 30
0.0
 10
21.1419962532
 20
-23.1226497308
 30
0.0
 11
21.3927192511
 21
-23.2669872981
 31
0.0
 11
21.3882641974
 21
-23.2406721314
 31
0.0
 11
21.3754394165
 21
-23.2150332915
 31
0.0
 11
21.3542850888
 21
-23.1907967144
 31
0.0
 11
21.3249472239
 21
-23.1687830511
 31
0.0
 11
21.2878210631
 21
-23.1499360992
 31
0.0
 11
21.2437688409
 21
-23.1353054509
 31
0.0
 11
21.1943633026
 21
-23.1259378303
 31
0.0
 11
21.1419962532
 21
-23.1226497308
 31
0.0
  0
SPLINE
  5
468
100
AcDbEntity
  8
0
100
AcDbSpline
 62
7
  6
CONTINUOUS
 70
0
 71
3
 72
15
 73
11
 74
9
 42
0.0000001
 43
0.0000001
 44
0.0000000001
 12
0.0031741039
 22
0.3149999784
 32
0.0
 13
0.3150159699
 23
0.0
 33
0.0
 40
0.0
 40
0.0
 40
0.0
 40
0.0
 40
0.0847246382
 40
0.1757279367
 40
0.2778501555
 40
0.3942839058
 40
0.5264550939
 40
0.6738071548
 40
0.8334364544
 40
1.0
 40
1.0
 40
1.0
 40
1.0
 10
18.5072807489
 20
-23.2669872981
 30
0.0
 10
18.5073703905
 20
-23.2580912117
 30
0.0
 10
18.5106131795
 20
-23.2395608029
 30
0.0
 10
18.5241645701
 20
-23.2133174142
 30
0.0
 10
18.546036015
 20
-23.1888844894
 30
0.0
 10
18.575888076
 20
-23.1669547435
 30
0.0
 10
18.613250807
 20
-23.1483274499
 30
0.0
 10
18.6572234122
 20
-23.133953471
 30
0.0
 10
18.7062269929
 20
-23.1248150691
 30
0.0
 10
18.7405136879
 20
-23.1226497308
 30
0.0
 10
18.7580037468
 20
-23.1226497308
 30
0.0
 11
18.5072807489
 21
-23.2669872981
 31
0.0
 11
18.5117358026
 21
-23.2406721314
 31
0.0
 11
18.5245605835
 21
-23.2150332915
 31
0.0
 11
18.5457149112
 21
-23.1907967144
 31
0.0
 11
18.5750527761
 21
-23.1687830511
 31
0.0
 11
18.6121789369
 21
-23.1499360992
 31
0.0
 11
18.6562311591
 21
-23.1353054509
 31
0.0
 11
18.7056366974
 21
-23.1259378303
 31
0.0
 11
18.7580037468
 21
-23.1226497308
 31
0.0
  0
SPLINE
  5
469
100
AcDbEntity
  8
0
100
AcDbSpline
 62
253
  6
CONTINUOUS
 70
0
 71
3
 72
13
 73
9
 74
7
 42
0.0000001
 43
0.0000001
 44
0.0000000001
 12
0.0012265943
 22
0.3651869702
 32
0.0
 13
0.3651878714
 23
0.0009199792
 33
0.0
 40
0.0
 40
0.0
 40
0.0
 40
0.0
 40
0.1162393822
 40
0.2339783947
 40
0.3543711753
 40
0.4780981573
 40
0.7345378061
 40
1.0
 40
1.0
 40
1.0
 40
1.0
 10
18.5130985787
 20
-23.8443375673
 30
0.0
 10
18.5131461049
 20
-23.8301878647
 30
0.0
 10
18.5165046379
 20
-23.8016148597
 30
0.0
 10
18.5310612078
 20
-23.7606545287
 30
0.0
 10
18.55453208
 20
-23.7229827412
 30
0.0
 10
18.5968348019
 20
-23.6786209956
 30
0.0
 10
18.6667610773
 20
-23.6387868046
 30
0.0
 10
18.7307798234
 20
-23.6279126229
 30
0.0
 10
18.7630943479
 20
-23.6278312164
 30
0.0
 11
18.5130985787
 21
-23.8443375673
 31
0.0
 11
18.5180262991
 21
-23.8021752067
 31
0.0
 11
18.532336793
 21
-23.761629536
 31
0.0
 11
18.5554824567
 21
-23.7242490838
 31
0.0
 11
18.586577356
 21
-23.6914668129
 31
0.0
 11
18.667592911
 21
-23.644492298
 31
0.0
 11
18.7630943479
 21
-23.6278312164
 31
0.0
  0
SPLINE
  5
46A
100
AcDbEntity
  8
0
100
AcDbSpline
 62
253
  6
CONTINUOUS
 70
0
 71
3
 72
13
 73
9
 74
7
 42
0.0000001
 43
0.0000001
 44
0.0000000001
 12
-0.0012265944
 22
0.3651869708
 32
0.0
 13
-0.3651878719
 23
0.0009199792
 33
0.0
 40
0.0
 40
0.0
 40
0.0
 40
0.0
 40
0.1162394861
 40
0.2339784844
 40
0.3543712552
 40
0.4780982232
 40
0.7345378384
 40
1.0
 40
1.0
 40
1.0
 40
1.0
 10
3.9869014213
 20
-23.8443375673
 30
0.0
 10
3.9868538951
 20
-23.830187852
 30
0.0
 10
3.9834953606
 20
-23.8016148352
 30
0.0
 10
3.9689387749
 20
-23.7606544996
 30
0.0
 10
3.9454679029
 20
-23.7229827179
 30
0.0
 10
3.9031651791
 20
-23.6786209833
 30
0.0
 10
3.833238911
 20
-23.6387868014
 30
0.0
 10
3.7692201727
 20
-23.6279126229
 30
0.0
 10
3.7369056521
 20
-23.6278312164
 30
0.0
 11
3.9869014213
 21
-23.8443375673
 31
0.0
 11
3.9819736935
 21
-23.8021751692
 31
0.0
 11
3.9676631919
 21
-23.7616295068
 31
0.0
 11
3.9445175256
 21
-23.7242490603
 31
0.0
 11
3.9134226257
 21
-23.6914667969
 31
0.0
 11
3.8324070779
 21
-23.6444922937
 31
0.0
 11
3.7369056521
 21
-23.6278312164
 31
0.0
  0
SPLINE
  5
46B
100
AcDbEntity
  8
0
100
AcDbSpline
 62
7
  6
CONTINUOUS
 70
0
 71
3
 72
15
 73
11
 74
9
 42
0.0000001
 43
0.0000001
 44
0.0000000001
 12
-0.0031741039
 22
0.3149999784
 32
0.0
 13
-0.3150159699
 23
-0.0
 33
0.0
 40
0.0
 40
0.0
 40
0.0
 40
0.0
 40
0.0847246382
 40
0.1757279367
 40
0.2778501555
 40
0.3942839058
 40
0.5264550939
 40
0.6738071548
 40
0.8334364544
 40
1.0
 40
1.0
 40
1.0
 40
1.0
 10
3.9927192511
 20
-23.2669872981
 30
0.0
 10
3.9926296095
 20
-23.2580912117
 30
0.0
 10
3.9893868205
 20
-23.2395608029
 30
0.0
 10
3.9758354299
 20
-23.2133174142
 30
0.0
 10
3.953963985
 20
-23.1888844894
 30
0.0
 10
3.924111924
 20
-23.1669547435
 30
0.0
 10
3.886749193
 20
-23.1483274499
 30
0.0
 10
3.8427765878
 20
-23.133953471
 30
0.0
 10
3.7937730071
 20
-23.1248150691
 30
0.0
 10
3.7594863121
 20
-23.1226497308
 30
0.0
 10
3.7419962532
 20
-23.1226497308
 30
0.0
 11
3.9927192511
 21
-23.2669872981
 31
0.0
 11
3.9882641974
 21
-23.2406721314
 31
0.0
 11
3.9754394165
 21
-23.2150332915
 31
0.0
 11
3.9542850888
 21
-23.1907967144
 31
0.0
 11
3.9249472239
 21
-23.1687830511
 31
0.0
 11
3.8878210631
 21
-23.1499360992
 31
0.0
 11
3.8437688409
 21
-23.1353054509
 31
0.0
 11
3.7943633026
 21
-23.1259378303
 31
0.0
 11
3.7419962532
 21
-23.1226497308
 31
0.0
  0
SPLINE
  5
46C
100
AcDbEntity
  8
0
100
AcDbSpline
 62
7
  6
CONTINUOUS
 70
0
 71
3
 72
15
 73
11
 74
9
 42
0.0000001
 43
0.0000001
 44
0.0000000001
 12
-0.3142908459
 22
0.0
 32
0.0
 13
-0.0031667975
 23
-0.3142748912
 33
0.0
 40
0.0
 40
0.0
 40
0.0
 40
0.0
 40
0.1666133779
 40
0.3262255844
 40
0.4735308137
 40
0.6056575217
 40
0.7220676483
 40
0.8241942131
 40
0.9152281509
 40
1.0
 40
1.0
 40
1.0
 40
1.0
 10
1.3572765181
 20
-23.1226497308
 30
0.0
 10
1.3398214983
 20
-23.1226497308
 30
0.0
 10
1.3056143071
 20
-23.124909705
 30
0.0
 10
1.2567379054
 20
-23.1340775763
 30
0.0
 10
1.2128964939
 20
-23.1484769636
 30
0.0
 10
1.1756538233
 20
-23.1671011817
 30
0.0
 10
1.1459014951
 20
-23.1890111222
 30
0.0
 10
1.1241049702
 20
-23.2134107396
 30
0.0
 10
1.1106013159
 20
-23.239611024
 30
0.0
 10
1.107370234
 20
-23.2581067436
 30
0.0
 10
1.1072807489
 20
-23.2669872981
 30
0.0
 11
1.3572765181
 21
-23.1226497308
 31
0.0
 11
1.3050197825
 21
-23.126016189
 31
0.0
 11
1.2557465543
 21
-23.1354311576
 31
0.0
 11
1.2118290218
 21
-23.1500815293
 31
0.0
 11
1.1748240789
 21
-23.1689245842
 31
0.0
 11
1.1455848197
 21
-23.1909165769
 31
0.0
 11
1.1245022864
 21
-23.215119319
 31
0.0
 11
1.1117209903
 21
-23.2407168857
 31
0.0
 11
1.1072807489
 21
-23.2669872981
 31
0.0
  0
SPLINE
  5
46D
100
AcDbEntity
  8
0
100
AcDbSpline
 62
253
  6
CONTINUOUS
 70
0
 71
3
 72
13
 73
9
 74
7
 42
0.0000001
 43
0.0000001
 44
0.0000000001
 12
0.0012265944
 22
0.3651869708
 32
0.0
 13
0.3651878719
 23
0.0009199792
 33
0.0
 40
0.0
 40
0.0
 40
0.0
 40
0.0
 40
0.1162394861
 40
0.2339784844
 40
0.3543712552
 40
0.4780982232
 40
0.7345378384
 40
1.0
 40
1.0
 40
1.0
 40
1.0
 10
1.1130985787
 20
-23.8443375673
 30
0.0
 10
1.1131461049
 20
-23.830187852
 30
0.0
 10
1.1165046394
 20
-23.8016148352
 30
0.0
 10
1.1310612251
 20
-23.7606544996
 30
0.0
 10
1.1545320971
 20
-23.7229827179
 30
0.0
 10
1.1968348209
 20
-23.6786209833
 30
0.0
 10
1.266761089
 20
-23.6387868014
 30
0.0
 10
1.3307798273
 20
-23.6279126229
 30
0.0
 10
1.3630943479
 20
-23.6278312164
 30
0.0
 11
1.1130985787
 21
-23.8443375673
 31
0.0
 11
1.1180263065
 21
-23.8021751692
 31
0.0
 11
1.1323368081
 21
-23.7616295068
 31
0.0
 11
1.1554824744
 21
-23.7242490603
 31
0.0
 11
1.1865773743
 21
-23.6914667969
 31
0.0
 11
1.2675929221
 21
-23.6444922937
 31
0.0
 11
1.3630943479
 21
-23.6278312164
 31
0.0
  0
SPLINE
  5
46E
100
AcDbEntity
  8
0
100
AcDbSpline
 62
7
  6
CONTINUOUS
 70
0
 71
3
 72
15
 73
11
 74
9
 42
0.0000001
 43
0.0000001
 44
0.0000000001
 12
0.0
 22
-0.7835849489
 32
0.0
 13
-0.7835849489
 23
-0.0
 33
0.0
 40
0.0
 40
0.0
 40
0.0
 40
0.0
 40
0.1250016995
 40
0.2500015929
 40
0.3750019934
 40
0.5000021438
 40
0.6250020315
 40
0.7500016142
 40
0.8750001245
 40
1.0
 40
1.0
 40
1.0
 40
1.0
 10
22.3991272468
 20
-21.8997711479
 30
0.0
 10
22.3991272468
 20
-21.9324209647
 30
0.0
 10
22.3927071378
 20
-21.9979001651
 30
0.0
 10
22.3641710301
 20
-22.0922261856
 30
0.0
 10
22.3178061813
 20
-22.1792278759
 30
0.0
 10
22.255372633
 20
-22.2555146988
 30
0.0
 10
22.1792585201
 20
-22.3181579234
 30
0.0
 10
22.0923705113
 20
-22.3647451103
 30
0.0
 10
21.9980978538
 20
-22.3934475677
 30
0.0
 10
21.9326246089
 20
-22.4
 30
0.0
 10
21.8999752685
 20
-22.4
 30
0.0
 11
22.3991272468
 21
-21.8997711479
 31
0.0
 11
22.3895560502
 21
-21.9972518487
 31
0.0
 11
22.3611996043
 21
-22.0910054062
 31
0.0
 11
22.3151280255
 21
-22.1774421175
 31
0.0
 11
22.253092465
 21
-22.2532408395
 31
0.0
 11
22.1774627432
 21
-22.3154819984
 31
0.0
 11
22.0911394798
 21
-22.3617644365
 31
0.0
 11
21.9974419862
 21
-22.3903018677
 31
0.0
 11
21.8999752685
 21
-22.4
 31
0.0
  0
SPLINE
  5
46F
100
AcDbEntity
  8
0
100
AcDbSpline
 62
7
  6
CONTINUOUS
 70
0
 71
3
 72
15
 73
11
 74
9
 42
0.0000001
 43
0.0000001
 44
0.0000000001
 12
0.783584949
 22
0.0
 32
0.0
 13
0.0
 23
-0.783584949
 33
0.0
 40
0.0
 40
0.0
 40
0.0
 40
0.0
 40
0.1249998755
 40
0.2499983858
 40
0.3749979685
 40
0.4999978562
 40
0.6249980066
 40
0.7499984071
 40
0.8749983005
 40
1.0
 40
1.0
 40
1.0
 40
1.0
 10
21.8999752684
 20
22.4
 30
0.0
 10
21.9326246088
 20
22.4
 30
0.0
 10
21.9980978538
 20
22.3934475677
 30
0.0
 10
22.0923705112
 20
22.3647451103
 30
0.0
 10
22.1792585201
 20
22.3181579234
 30
0.0
 10
22.255372633
 20
22.2555146988
 30
0.0
 10
22.3178061812
 20
22.1792278759
 30
0.0
 10
22.3641710301
 20
22.0922261856
 30
0.0
 10
22.3927071378
 20
21.9979001651
 30
0.0
 10
22.3991272468
 20
21.9324209647
 30
0.0
 10
22.3991272468
 20
21.8997711479
 30
0.0
 11
21.8999752684
 21
22.4
 31
0.0
 11
21.9974419861
 21
22.3903018677
 31
0.0
 11
22.0911394797
 21
22.3617644365
 31
0.0
 11
22.1774627432
 21
22.3154819985
 31
0.0
 11
22.253092465
 21
22.2532408395
 31
0.0
 11
22.3151280255
 21
22.1774421175
 31
0.0
 11
22.3611996043
 21
22.0910054062
 31
0.0
 11
22.3895560502
 21
21.9972518487
 31
0.0
 11
22.3991272468
 21
21.8997711479
 31
0.0
  0
LINE
  5
470
100
AcDbEntity
  8
0
100
AcDbLine
 62
7
  6
CONTINUOUS
 10
-8.2599854652
 20
-10.6249846798
 11
-7.6399864813
 21
-10.6250147995
  0
LINE
  5
471
100
AcDbEntity
  8
0
100
AcDbLine
 62
7
  6
CONTINUOUS
 10
-7.6400137308
 20
-11.2250150884
 11
-8.2600149032
 21
-11.2249843779
  0
SPLINE
  5
472
100
AcDbEntity
  8
0
100
AcDbSpline
 62
7
  6
CONTINUOUS
 70
0
 71
3
 72
10
 73
6
 74
4
 42
0.0000001
 43
0.0000001
 44
0.0000000001
 12
0.0
 22
-0.5855428648
 32
0.0
 13
0.4364378755
 23
-0.3903619184
 33
0.0
 40
0.0
 40
0.0
 40
0.0
 40
0.0
 40
0.2505971063
 40
0.6251349356
 40
1.0
 40
1.0
 40
1.0
 40
1.0
 10
-10.15
 20
-8.9125388203
 30
0.0
 10
-10.15
 20
-8.9614506028
 30
0.0
 10
-10.1349740632
 20
-9.0836943243
 30
0.0
 10
-10.0628207154
 20
-9.2677143279
 30
0.0
 10
-9.97120175
 20
-9.3855103517
 30
0.0
 10
-9.9166666459
 20
-9.4342880336
 30
0.0
 11
-10.15
 21
-8.9125388203
 31
0.0
 11
-10.1331194683
 21
-9.05829996
 31
0.0
 11
-10.053465763
 21
-9.2626312247
 31
0.0
 11
-9.9166666459
 21
-9.4342880336
 31
0.0
  0
SPLINE
  5
473
100
AcDbEntity
  8
0
100
AcDbSpline
 62
7
  6
CONTINUOUS
 70
0
 71
3
 72
23
 73
19
 74
17
 42
0.0000001
 43
0.0000001
 44
0.0000000001
 12
-3.2764671679
 22
-2.9305615872
 32
0.0
 13
3.2646049846
 23
2.943770136
 33
0.0
 40
0.0
 40
0.0
 40
0.0
 40
0.0
 40
0.0625092696
 40
0.1251289932
 40
0.1874859042
 40
0.2501155142
 40
0.3125620722
 40
0.3750134229
 40
0.4376446508
 40
0.4999138314
 40
0.5626440438
 40
0.624924254
 40
0.687533994
 40
0.7500457728
 40
0.8124602801
 40
0.8750839085
 40
0.9375247577
 40
1.0
 40
1.0
 40
1.0
 40
1.0
 10
-12.183333038
 20
-9.8815020339
 30
0.0
 10
-12.2516028945
 20
-9.9425644554
 30
0.0
 10
-12.3765975162
 20
-10.0786162072
 30
0.0
 10
-12.520022838
 20
-10.3149086015
 30
0.0
 10
-12.6149020314
 20
-10.574811499
 30
0.0
 10
-12.6569310823
 20
-10.8480263848
 30
0.0
 10
-12.6448672373
 20
-11.1243100089
 30
0.0
 10
-12.579083118
 20
-11.3929276515
 30
0.0
 10
-12.4622044218
 20
-11.6432973124
 30
0.0
 10
-12.2984588732
 20
-11.866332497
 30
0.0
 10
-12.0946936844
 20
-12.0527985063
 30
0.0
 10
-11.8580217705
 20
-12.1961081026
 30
0.0
 10
-11.5981967595
 20
-12.2903250921
 30
0.0
 10
-11.3248040668
 20
-12.332037366
 30
0.0
 10
-11.0484802395
 20
-12.3196498683
 30
0.0
 10
-10.7800999808
 20
-12.2531755889
 30
0.0
 10
-10.5295656717
 20
-12.1362166861
 30
0.0
 10
-10.3812291108
 20
-12.0265747718
 30
0.0
 10
-10.3132434483
 20
-11.9652705209
 30
0.0
 11
-12.183333038
 21
-9.8815020339
 31
0.0
 11
-12.3691821264
 21
-10.0838992917
 31
0.0
 11
-12.5120895244
 21
-10.3191631397
 31
0.0
 11
-12.6060065062
 21
-10.5766830744
 31
0.0
 11
-12.6479225149
 21
-10.8487833838
 31
0.0
 11
-12.6359235728
 21
-11.1230262273
 31
0.0
 11
-12.5706322416
 21
-11.3896752863
 31
0.0
 11
-12.4541629119
 21
-11.6391434036
 31
0.0
 11
-12.2921818882
 21
-11.8597965058
 31
0.0
 11
-12.0887453044
 21
-12.0459490882
 31
0.0
 11
-11.8545546435
 21
-12.1877479708
 31
0.0
 11
-11.5958254572
 21
-12.2815917341
 31
0.0
 11
-11.3241767749
 21
-12.3230355384
 31
0.0
 11
-11.0500910326
 21
-12.3106748175
 31
0.0
 11
-10.7828367974
 21
-12.2446731011
 31
0.0
 11
-10.5342437767
 21
-12.128307965
 31
0.0
 11
-10.3132434483
 21
-11.9652705209
 31
0.0
  0
SPLINE
  5
474
100
AcDbEntity
  8
0
100
AcDbSpline
 62
7
  6
CONTINUOUS
 70
0
 71
3
 72
10
 73
6
 74
4
 42
0.0000001
 43
0.0000001
 44
0.0000000001
 12
0.4364374826
 22
0.3903615663
 32
0.0
 13
0.0
 23
0.5855423372
 33
0.0
 40
0.0
 40
0.0
 40
0.0
 40
0.0
 40
0.2504997524
 40
0.6251077813
 40
1.0
 40
1.0
 40
1.0
 40
1.0
 10
-12.5833333521
 20
-9.4342880319
 30
0.0
 10
-12.5468908583
 20
-9.4016928733
 30
0.0
 10
-12.4657927602
 20
-9.3090060734
 30
0.0
 10
-12.3767271914
 20
-9.132548506
 30
0.0
 10
-12.35
 20
-8.9857105756
 30
0.0
 10
-12.35
 20
-8.9125388203
 30
0.0
 11
-12.5833333521
 21
-9.4342880319
 31
0.0
 11
-12.4859763692
 21
-9.3245788012
 31
0.0
 11
-12.3867517843
 21
-9.1289556827
 31
0.0
 11
-12.35
 21
-8.9125388203
 31
0.0
  0
LINE
  5
475
100
AcDbEntity
  8
0
100
AcDbLine
 62
7
  6
CONTINUOUS
 10
-8.9236192339
 20
-12.8271167661
 11
-8.4852122339
 21
-13.2655227661
  0
LINE
  5
476
100
AcDbEntity
  8
0
100
AcDbLine
 62
7
  6
CONTINUOUS
 10
-8.9094772339
 20
-13.6897877661
 11
-9.3478832339
 21
-13.2513807661
  0
LINE
  5
477
100
AcDbEntity
  8
0
100
AcDbLine
 62
7
  6
CONTINUOUS
 10
-13.1521167661
 20
-13.2513807661
 11
-13.5905227661
 21
-13.6897877661
  0
LINE
  5
478
100
AcDbEntity
  8
0
100
AcDbLine
 62
7
  6
CONTINUOUS
 10
-14.0147877661
 20
-13.2655227661
 11
-13.5763807661
 21
-12.8271167661
  0
LINE
  5
479
100
AcDbEntity
  8
0
100
AcDbLine
 62
7
  6
CONTINUOUS
 10
-14.2400256192
 20
-11.2250278414
 11
-14.8600268272
 21
-11.2249716213
  0
LINE
  5
47A
100
AcDbEntity
  8
0
100
AcDbLine
 62
7
  6
CONTINUOUS
 10
-14.8599738611
 20
-10.6249721718
 11
-14.2399747884
 21
-10.6250273106
  0
SPLINE
  5
47B
100
AcDbEntity
  8
0
100
AcDbSpline
 62
7
  6
CONTINUOUS
 70
0
 71
3
 72
15
 73
11
 74
9
 42
0.0000001
 43
0.0000001
 44
0.0000000001
 12
1.7422543282
 22
1.5710311922
 32
0.0
 13
-1.748584938
 23
1.5639820541
 33
0.0
 40
0.0
 40
0.0
 40
0.0
 40
0.0
 40
0.1251893274
 40
0.2498812766
 40
0.3752184233
 40
0.4998496183
 40
0.6251374523
 40
0.7498907695
 40
0.8749690671
 40
1.0
 40
1.0
 40
1.0
 40
1.0
 10
-10.3132434483
 20
-11.9652705209
 30
0.0
 10
-10.2405395658
 20
-11.8997117415
 30
0.0
 10
-10.108297995
 20
-11.7535213136
 30
0.0
 10
-9.9613010034
 20
-11.4972030653
 30
0.0
 10
-9.8699311956
 20
-11.2165426789
 30
0.0
 10
-9.8398544425
 20
-10.9224665155
 30
0.0
 10
-9.8710051631
 20
-10.6289785318
 30
0.0
 10
-9.9631222194
 20
-10.3481707068
 30
0.0
 10
-10.1112948408
 20
-10.0928620137
 30
0.0
 10
-10.2437912299
 20
-9.9466840762
 30
0.0
 10
-10.3166669652
 20
-9.8815020311
 30
0.0
 11
-10.3132434483
 21
-11.9652705209
 31
0.0
 11
-10.1166557747
 21
-11.7470789551
 31
0.0
 11
-9.9707503244
 21
-11.4935402873
 31
0.0
 11
-9.8800483477
 21
-11.2138418125
 31
0.0
 11
-9.8500559225
 21
-10.9230027753
 31
0.0
 11
-9.8812463575
 21
-10.6307405244
 31
0.0
 11
-9.9723683413
 21
-10.3526195269
 31
0.0
 11
-10.1197255592
 21
-10.0988732087
 31
0.0
 11
-10.3166669652
 21
-9.8815020311
 31
0.0
  0
SPLINE
  5
47C
100
AcDbEntity
  8
RACCORDO
100
AcDbSpline
 62
253
  6
CONTINUOUS
 70
0
 71
3
 72
18
 73
14
 74
12
 42
0.0000001
 43
0.0000001
 44
0.0000000001
 12
0.4839185033
 22
0.0012415723
 32
0.0
 13
0.2545319531
 23
0.411572769
 33
0.0
 40
0.0
 40
0.0
 40
0.0
 40
0.0
 40
0.1929855483
 40
0.3782038868
 40
0.5485297732
 40
0.698141618
 40
0.8218281703
 40
0.872498673
 40
0.9151501778
 40
0.9494032317
 40
0.9749646405
 40
0.9917482692
 40
1.0
 40
1.0
 40
1.0
 40
1.0
 10
21.5286602181
 20
-20.8301238198
 30
0.0
 10
21.5597899774
 20
-20.8300439513
 30
0.0
 10
21.6207963684
 20
-20.8296465126
 30
0.0
 10
21.7092689777
 20
-20.8283445187
 30
0.0
 10
21.790733221
 20
-20.8263888271
 30
0.0
 10
21.862246022
 20
-20.8238519621
 30
0.0
 10
21.914450239
 20
-20.8212276811
 30
0.0
 10
21.9493590963
 20
-20.8187930678
 30
0.0
 10
21.9698906954
 20
-20.8170272058
 30
0.0
 10
21.9862448406
 20
-20.8151860463
 30
0.0
 10
21.9986521699
 20
-20.8134000468
 30
0.0
 10
22.0062604623
 20
-20.8115226542
 30
0.0
 10
22.0105354068
 20
-20.810150033
 30
0.0
 10
22.0112355165
 20
-20.8090179705
 30
0.0
 11
21.5286602181
 21
-20.8301238198
 31
0.0
 11
21.6220477734
 21
-20.8295080934
 31
0.0
 11
21.7116685807
 21
-20.8281646447
 31
0.0
 11
21.7940678581
 21
-20.8261411501
 31
0.0
 11
21.8664201603
 21
-20.8235086249
 31
0.0
 11
21.9261918315
 21
-20.8203625934
 31
0.0
 11
21.9506510846
 21
-20.8186309443
 31
0.0
 11
21.9712108176
 21
-20.8168133397
 31
0.0
 11
21.9876786422
 21
-20.8149249684
 31
0.0
 11
21.9998948717
 21
-20.8129826227
 31
0.0
 11
22.0077727807
 21
-20.8110066722
 31
0.0
 11
22.0112355165
 21
-20.8090179705
 31
0.0
  0
SPLINE
  5
47D
100
AcDbEntity
  8
RACCORDO
100
AcDbSpline
 62
253
  6
CONTINUOUS
 70
0
 71
3
 72
18
 73
14
 74
12
 42
0.0000001
 43
0.0000001
 44
0.0000000001
 12
0.4839187565
 22
-0.0012415268
 32
0.0
 13
0.2546566065
 23
-0.4114959502
 33
0.0
 40
0.0
 40
0.0
 40
0.0
 40
0.0
 40
0.1929826284
 40
0.3781985689
 40
0.5485229246
 40
0.6981342821
 40
0.8218214193
 40
0.8724925962
 40
0.915145003
 40
0.9493991642
 40
0.9749618564
 40
0.9917468992
 40
1.0
 40
1.0
 40
1.0
 40
1.0
 10
21.5286597714
 20
20.8301232531
 30
0.0
 10
21.5597890759
 20
20.8300433888
 30
0.0
 10
21.620794641
 20
20.829645967
 30
0.0
 10
21.7092661926
 20
20.8283440241
 30
0.0
 10
21.7907297668
 20
20.8263884025
 30
0.0
 10
21.8622423791
 20
20.8238516176
 30
0.0
 10
21.9144467458
 20
20.8212274123
 30
0.0
 10
21.9493559846
 20
20.8187928643
 30
0.0
 10
21.9698880122
 20
20.8170270444
 30
0.0
 10
21.9862427565
 20
20.8151859085
 30
0.0
 10
21.9986505934
 20
20.8133999588
 30
0.0
 10
22.0062597904
 20
20.811522518
 30
0.0
 10
22.0105349452
 20
20.8101500009
 30
0.0
 10
22.011235514
 20
20.8090179618
 30
0.0
 11
21.5286597714
 21
20.8301232531
 31
0.0
 11
21.6220459627
 21
20.829507554
 31
0.0
 11
21.7116656571
 21
20.8281641592
 31
0.0
 11
21.7940642384
 21
20.8261407388
 31
0.0
 11
21.8664163457
 21
20.8235082995
 31
0.0
 11
21.9261883363
 21
20.8203623573
 31
0.0
 11
21.9506479324
 21
20.8186307518
 31
0.0
 11
21.9712081182
 21
20.8168131892
 31
0.0
 11
21.9876764955
 21
20.8149248578
 31
0.0
 11
21.9998933662
 21
20.8129825493
 31
0.0
 11
22.0077719938
 21
20.8110066328
 31
0.0
 11
22.011235514
 21
20.8090179618
 31
0.0
  0
SPLINE
  5
47E
100
AcDbEntity
  8
RACCORDO
100
AcDbSpline
 62
253
  6
CONTINUOUS
 70
0
 71
3
 72
18
 73
14
 74
12
 42
0.0000001
 43
0.0000001
 44
0.0000000001
 12
-0.4839185036
 22
-0.0012415722
 32
0.0
 13
-0.2545319379
 23
-0.4115727787
 33
0.0
 40
0.0
 40
0.0
 40
0.0
 40
0.0
 40
0.1929855485
 40
0.3782038873
 40
0.5485297738
 40
0.6981416186
 40
0.821828171
 40
0.8724986736
 40
0.9151501783
 40
0.9494032321
 40
0.9749646408
 40
0.9917482694
 40
1.0
 40
1.0
 40
1.0
 40
1.0
 10
-21.5286602179
 20
20.83012382
 30
0.0
 10
-21.5597899772
 20
20.8300439515
 30
0.0
 10
-21.6207963683
 20
20.8296465127
 30
0.0
 10
-21.7092689777
 20
20.8283445189
 30
0.0
 10
-21.7907332212
 20
20.8263888273
 30
0.0
 10
-21.8622460222
 20
20.8238519623
 30
0.0
 10
-21.9144502393
 20
20.8212276812
 30
0.0
 10
-21.9493590966
 20
20.8187930679
 30
0.0
 10
-21.9698906957
 20
20.8170272059
 30
0.0
 10
-21.9862448408
 20
20.8151860465
 30
0.0
 10
-21.9986521701
 20
20.8134000469
 30
0.0
 10
-22.0062604624
 20
20.8115226543
 30
0.0
 10
-22.0105354068
 20
20.8101500331
 30
0.0
 10
-22.0112355165
 20
20.8090179706
 30
0.0
 11
-21.5286602179
 21
20.83012382
 31
0.0
 11
-21.6220477733
 21
20.8295080936
 31
0.0
 11
-21.7116685808
 21
20.8281646448
 31
0.0
 11
-21.7940678583
 21
20.8261411502
 31
0.0
 11
-21.8664201606
 21
20.823508625
 31
0.0
 11
-21.9261918318
 21
20.8203625936
 31
0.0
 11
-21.9506510849
 21
20.8186309445
 31
0.0
 11
-21.9712108179
 21
20.8168133398
 31
0.0
 11
-21.9876786425
 21
20.8149249686
 31
0.0
 11
-21.9998948719
 21
20.8129826229
 31
0.0
 11
-22.0077727809
 21
20.8110066723
 31
0.0
 11
-22.0112355165
 21
20.8090179706
 31
0.0
  0
SPLINE
  5
47F
100
AcDbEntity
  8
RACCORDO
100
AcDbSpline
 62
253
  6
CONTINUOUS
 70
0
 71
3
 72
18
 73
14
 74
12
 42
0.0000001
 43
0.0000001
 44
0.0000000001
 12
-0.4839187564
 22
0.0012415268
 32
0.0
 13
-0.2546566097
 23
0.4114959482
 33
0.0
 40
0.0
 40
0.0
 40
0.0
 40
0.0
 40
0.1929826284
 40
0.3781985688
 40
0.5485229245
 40
0.698134282
 40
0.8218214192
 40
0.872492596
 40
0.9151450029
 40
0.9493991641
 40
0.9749618563
 40
0.9917468992
 40
1.0
 40
1.0
 40
1.0
 40
1.0
 10
-21.5286597714
 20
-20.8301232531
 30
0.0
 10
-21.5597890759
 20
-20.8300433888
 30
0.0
 10
-21.620794641
 20
-20.829645967
 30
0.0
 10
-21.7092661926
 20
-20.8283440241
 30
0.0
 10
-21.7907297668
 20
-20.8263884025
 30
0.0
 10
-21.862242379
 20
-20.8238516176
 30
0.0
 10
-21.9144467457
 20
-20.8212274123
 30
0.0
 10
-21.9493559845
 20
-20.8187928643
 30
0.0
 10
-21.9698880121
 20
-20.8170270444
 30
0.0
 10
-21.9862427565
 20
-20.8151859085
 30
0.0
 10
-21.9986505934
 20
-20.8133999588
 30
0.0
 10
-22.0062597904
 20
-20.811522518
 30
0.0
 10
-22.0105349451
 20
-20.810150001
 30
0.0
 10
-22.011235514
 20
-20.8090179618
 30
0.0
 11
-21.5286597714
 21
-20.8301232531
 31
0.0
 11
-21.6220459627
 21
-20.829507554
 31
0.0
 11
-21.7116656571
 21
-20.8281641592
 31
0.0
 11
-21.7940642384
 21
-20.8261407389
 31
0.0
 11
-21.8664163456
 21
-20.8235082995
 31
0.0
 11
-21.9261883363
 21
-20.8203623573
 31
0.0
 11
-21.9506479323
 21
-20.8186307518
 31
0.0
 11
-21.9712081182
 21
-20.8168131892
 31
0.0
 11
-21.9876764955
 21
-20.8149248578
 31
0.0
 11
-21.9998933662
 21
-20.8129825493
 31
0.0
 11
-22.0077719938
 21
-20.8110066328
 31
0.0
 11
-22.011235514
 21
-20.8090179618
 31
0.0
  0
LINE
  5
480
100
AcDbEntity
  8
RACCORDO
100
AcDbLine
 62
253
  6
CONTINUOUS
 10
21.5292680107
 20
-21.9790966731
 11
21.5286602087
 21
-20.8301237924
  0
LINE
  5
481
100
AcDbEntity
  8
RACCORDO
100
AcDbLine
 62
253
  6
CONTINUOUS
 10
-21.5286602242
 20
-20.8301237912
 11
-21.5292680061
 21
-21.9790966686
  0
LINE
  5
482
100
AcDbEntity
  8
RACCORDO
100
AcDbLine
 62
253
  6
CONTINUOUS
 10
21.5286602242
 20
20.8301237906
 11
21.5292680061
 21
21.9790966685
  0
LINE
  5
483
100
AcDbEntity
  8
RACCORDO
100
AcDbLine
 62
253
  6
CONTINUOUS
 10
-21.5292680107
 20
21.9790966732
 11
-21.528660208
 21
20.8301237918
  0
SPLINE
  5
484
100
AcDbEntity
  8
RACCORDO
100
AcDbSpline
 62
253
  6
CONTINUOUS
 70
0
 71
3
 72
20
 73
16
 74
14
 42
0.0000001
 43
0.0000001
 44
0.0000000001
 12
0.0007468239
 22
0.6710059459
 32
0.0
 13
0.4726617595
 23
0.4762776482
 33
0.0
 40
0.0
 40
0.0
 40
0.0
 40
0.0
 40
0.1939765982
 40
0.3795882719
 40
0.5502152287
 40
0.6999197971
 40
0.765248467
 40
0.8234397475
 40
0.8740056134
 40
0.9165001291
 40
0.9505634192
 40
0.9759125254
 40
0.9923565239
 40
0.9972475728
 40
1.0
 40
1.0
 40
1.0
 40
1.0
 10
22.0112355141
 20
20.8090179618
 30
0.0
 10
22.0112838029
 20
20.8524044453
 30
0.0
 10
22.0115835081
 20
20.9373063737
 30
0.0
 10
22.0126467419
 20
21.0603683347
 30
0.0
 10
22.0142789054
 20
21.1735209828
 30
0.0
 10
22.0161259385
 20
21.2597623272
 30
0.0
 10
22.0178967544
 20
21.3208490773
 30
0.0
 10
22.0192632038
 20
21.3597621581
 30
0.0
 10
22.0207085306
 20
21.3935643896
 30
0.0
 10
22.0222281465
 20
21.4219512045
 30
0.0
 10
22.0237674277
 20
21.4447119339
 30
0.0
 10
22.0253751446
 20
21.4615625361
 30
0.0
 10
22.0267237839
 20
21.4719987626
 30
0.0
 10
22.0280342184
 20
21.4771620293
 30
0.0
 10
22.0286630129
 20
21.4788310329
 30
0.0
 10
22.0290966685
 20
21.4792680061
 30
0.0
 11
22.0112355141
 21
20.8090179618
 31
0.0
 11
22.0117033976
 21
20.9391766521
 31
0.0
 11
22.0128008004
 21
21.0637184312
 31
0.0
 11
22.0144884817
 21
21.1781977652
 31
0.0
 11
22.0167063731
 21
21.2786259956
 31
0.0
 11
22.0179902838
 21
21.3224431424
 31
0.0
 11
22.0193761905
 21
21.3614652587
 31
0.0
 11
22.0208515473
 21
21.3953631852
 31
0.0
 11
22.0224032538
 21
21.4238350232
 31
0.0
 11
22.0240179786
 21
21.4466345996
 31
0.0
 11
22.0256821839
 21
21.4635624022
 31
0.0
 11
22.0273809094
 21
21.4744648834
 31
0.0
 11
22.0282377691
 21
21.4776329779
 31
0.0
 11
22.0290966685
 21
21.4792680061
 31
0.0
  0
SPLINE
  5
485
100
AcDbEntity
  8
RACCORDO
100
AcDbSpline
 62
253
  6
CONTINUOUS
 70
0
 71
3
 72
20
 73
16
 74
14
 42
0.0000001
 43
0.0000001
 44
0.0000000001
 12
-0.4726617783
 22
0.4762776239
 32
0.0
 13
-0.0007468238
 23
0.6710059418
 33
0.0
 40
0.0
 40
0.0
 40
0.0
 40
0.0
 40
0.0027524272
 40
0.0076434763
 40
0.0240874753
 40
0.0494365822
 40
0.0834998731
 40
0.1259943899
 40
0.1765602571
 40
0.2347515391
 40
0.3000802107
 40
0.4497847817
 40
0.6204117436
 40
0.8060234169
 40
1.0
 40
1.0
 40
1.0
 40
1.0
 10
22.0290966731
 20
-21.4792680107
 30
0.0
 10
22.0286630174
 20
-21.4788310375
 30
0.0
 10
22.028034223
 20
-21.4771620339
 30
0.0
 10
22.0267237884
 20
-21.4719987671
 30
0.0
 10
22.0253751492
 20
-21.4615625403
 30
0.0
 10
22.0237674323
 20
-21.4447119377
 30
0.0
 10
22.022228151
 20
-21.4219512079
 30
0.0
 10
22.0207085352
 20
-21.3935643924
 30
0.0
 10
22.0192632084
 20
-21.3597621604
 30
0.0
 10
22.017896759
 20
-21.3208490787
 30
0.0
 10
22.0161259431
 20
-21.2597623277
 30
0.0
 10
22.0142789098
 20
-21.1735209817
 30
0.0
 10
22.0126467467
 20
-21.0603683327
 30
0.0
 10
22.0115835132
 20
-20.9373063748
 30
0.0
 10
22.0112838052
 20
-20.8524044504
 30
0.0
 10
22.0112355165
 20
-20.8090179705
 30
0.0
 11
22.0290966731
 21
-21.4792680107
 31
0.0
 11
22.0282377737
 21
-21.4776329825
 31
0.0
 11
22.027380914
 21
-21.4744648879
 31
0.0
 11
22.0256821884
 21
-21.4635624064
 31
0.0
 11
22.0240179832
 21
-21.4466346034
 31
0.0
 11
22.0224032584
 21
-21.4238350266
 31
0.0
 11
22.0208515519
 21
-21.3953631882
 31
0.0
 11
22.0193761951
 21
-21.361465261
 31
0.0
 11
22.0179902883
 21
-21.3224431439
 31
0.0
 11
22.0167063777
 21
-21.2786259962
 31
0.0
 11
22.0144884863
 21
-21.1781977647
 31
0.0
 11
22.0128008052
 21
-21.0637184279
 31
0.0
 11
22.011703402
 21
-20.93917665
 31
0.0
 11
22.0112355165
 21
-20.8090179705
 31
0.0
  0
SPLINE
  5
486
100
AcDbEntity
  8
RACCORDO
100
AcDbSpline
 62
253
  6
CONTINUOUS
 70
0
 71
3
 72
20
 73
16
 74
14
 42
0.0000001
 43
0.0000001
 44
0.0000000001
 12
-0.0007468239
 22
-0.6710059459
 32
0.0
 13
-0.4726617595
 23
-0.4762776482
 33
0.0
 40
0.0
 40
0.0
 40
0.0
 40
0.0
 40
0.1939765981
 40
0.3795882718
 40
0.5502152287
 40
0.6999197971
 40
0.765248467
 40
0.8234397475
 40
0.8740056134
 40
0.9165001291
 40
0.9505634192
 40
0.9759125254
 40
0.9923565239
 40
0.9972475728
 40
1.0
 40
1.0
 40
1.0
 40
1.0
 10
-22.0112355141
 20
-20.8090179618
 30
0.0
 10
-22.0112838029
 20
-20.8524044453
 30
0.0
 10
-22.0115835081
 20
-20.9373063737
 30
0.0
 10
-22.0126467419
 20
-21.0603683347
 30
0.0
 10
-22.0142789054
 20
-21.1735209828
 30
0.0
 10
-22.0161259385
 20
-21.2597623273
 30
0.0
 10
-22.0178967544
 20
-21.3208490773
 30
0.0
 10
-22.0192632039
 20
-21.3597621582
 30
0.0
 10
-22.0207085306
 20
-21.3935643896
 30
0.0
 10
-22.0222281465
 20
-21.4219512045
 30
0.0
 10
-22.0237674278
 20
-21.4447119339
 30
0.0
 10
-22.0253751446
 20
-21.4615625361
 30
0.0
 10
-22.0267237839
 20
-21.4719987626
 30
0.0
 10
-22.0280342184
 20
-21.4771620293
 30
0.0
 10
-22.0286630129
 20
-21.4788310329
 30
0.0
 10
-22.0290966686
 20
-21.4792680061
 30
0.0
 11
-22.0112355141
 21
-20.8090179618
 31
0.0
 11
-22.0117033976
 21
-20.9391766521
 31
0.0
 11
-22.0128008005
 21
-21.0637184312
 31
0.0
 11
-22.0144884818
 21
-21.1781977652
 31
0.0
 11
-22.0167063731
 21
-21.2786259956
 31
0.0
 11
-22.0179902838
 21
-21.3224431424
 31
0.0
 11
-22.0193761905
 21
-21.3614652587
 31
0.0
 11
-22.0208515473
 21
-21.3953631852
 31
0.0
 11
-22.0224032538
 21
-21.4238350232
 31
0.0
 11
-22.0240179786
 21
-21.4466345996
 31
0.0
 11
-22.0256821839
 21
-21.4635624022
 31
0.0
 11
-22.0273809095
 21
-21.4744648834
 31
0.0
 11
-22.0282377691
 21
-21.4776329779
 31
0.0
 11
-22.0290966686
 21
-21.4792680061
 31
0.0
  0
SPLINE
  5
487
100
AcDbEntity
  8
RACCORDO
100
AcDbSpline
 62
253
  6
CONTINUOUS
 70
0
 71
3
 72
20
 73
16
 74
14
 42
0.0000001
 43
0.0000001
 44
0.0000000001
 12
0.4726617782
 22
-0.4762776238
 32
0.0
 13
0.0007468238
 23
-0.6710059417
 33
0.0
 40
0.0
 40
0.0
 40
0.0
 40
0.0
 40
0.0027524272
 40
0.0076434763
 40
0.0240874753
 40
0.0494365822
 40
0.0834998731
 40
0.1259943899
 40
0.1765602571
 40
0.2347515392
 40
0.3000802108
 40
0.4497847818
 40
0.6204117438
 40
0.8060234171
 40
1.0
 40
1.0
 40
1.0
 40
1.0
 10
-22.0290966732
 20
21.4792680107
 30
0.0
 10
-22.0286630175
 20
21.4788310376
 30
0.0
 10
-22.028034223
 20
21.477162034
 30
0.0
 10
-22.0267237885
 20
21.4719987672
 30
0.0
 10
-22.0253751493
 20
21.4615625403
 30
0.0
 10
-22.0237674324
 20
21.4447119378
 30
0.0
 10
-22.0222281511
 20
21.4219512079
 30
0.0
 10
-22.0207085352
 20
21.3935643925
 30
0.0
 10
-22.0192632085
 20
21.3597621604
 30
0.0
 10
-22.017896759
 20
21.3208490787
 30
0.0
 10
-22.0161259432
 20
21.2597623277
 30
0.0
 10
-22.0142789099
 20
21.1735209817
 30
0.0
 10
-22.0126467468
 20
21.0603683327
 30
0.0
 10
-22.0115835133
 20
20.9373063748
 30
0.0
 10
-22.0112838053
 20
20.8524044505
 30
0.0
 10
-22.0112355165
 20
20.8090179706
 30
0.0
 11
-22.0290966732
 21
21.4792680107
 31
0.0
 11
-22.0282377737
 21
21.4776329826
 31
0.0
 11
-22.0273809141
 21
21.474464888
 31
0.0
 11
-22.0256821885
 21
21.4635624065
 31
0.0
 11
-22.0240179833
 21
21.4466346035
 31
0.0
 11
-22.0224032584
 21
21.4238350267
 31
0.0
 11
-22.0208515519
 21
21.3953631882
 31
0.0
 11
-22.0193761951
 21
21.361465261
 31
0.0
 11
-22.0179902884
 21
21.3224431439
 31
0.0
 11
-22.0167063778
 21
21.2786259962
 31
0.0
 11
-22.0144884863
 21
21.1781977647
 31
0.0
 11
-22.0128008053
 21
21.0637184279
 31
0.0
 11
-22.0117034021
 21
20.9391766499
 31
0.0
 11
-22.0112355165
 21
20.8090179706
 31
0.0
  0
SPLINE
  5
488
100
AcDbEntity
  8
RACCORDO
100
AcDbSpline
 62
253
  6
CONTINUOUS
 70
0
 71
3
 72
9
 73
5
 74
3
 42
0.0000001
 43
0.0000001
 44
0.0000000001
 12
43.0585216031
 22
0.0390847594
 32
0.0
 13
43.0585216032
 23
-0.0390847084
 33
0.0
 40
0.0
 40
0.0
 40
0.0
 40
0.0
 40
0.2499623056
 40
1.0
 40
1.0
 40
1.0
 40
1.0
 10
-21.5292680065
 20
-21.979096669
 30
0.0
 10
-17.9415988943
 20
-21.9758400968
 30
0.0
 10
-3.5887555871
 20
-21.9660709515
 30
0.0
 10
10.7640965885
 20
-21.9693250049
 30
0.0
 10
21.5292680107
 20
-21.9790966731
 30
0.0
 11
-21.5292680065
 21
-21.979096669
 31
0.0
 11
-10.7662587296
 21
-21.9717699651
 31
0.0
 11
21.5292680107
 21
-21.9790966731
 31
0.0
  0
SPLINE
  5
489
100
AcDbEntity
  8
RACCORDO
100
AcDbSpline
 62
253
  6
CONTINUOUS
 70
0
 71
3
 72
9
 73
5
 74
3
 42
0.0000001
 43
0.0000001
 44
0.0000000001
 12
-43.0585216032
 22
-0.0390847593
 32
0.0
 13
-43.0585216032
 23
0.0390847063
 33
0.0
 40
0.0
 40
0.0
 40
0.0
 40
0.0
 40
0.2499623056
 40
1.0
 40
1.0
 40
1.0
 40
1.0
 10
21.5292680065
 20
21.9790966689
 30
0.0
 10
17.9415988946
 20
21.9758400968
 30
0.0
 10
3.5887555875
 20
21.9660709513
 30
0.0
 10
-10.7640965881
 20
21.9693250055
 30
0.0
 10
-21.5292680107
 20
21.9790966732
 30
0.0
 11
21.5292680065
 21
21.9790966689
 31
0.0
 11
10.7662587307
 21
21.9717699651
 31
0.0
 11
-21.5292680107
 21
21.9790966732
 31
0.0
  0
SPLINE
  5
48A
100
AcDbEntity
  8
RACCORDO
100
AcDbSpline
 62
253
  6
CONTINUOUS
 70
0
 71
3
 72
9
 73
5
 74
3
 42
0.0000001
 43
0.0000001
 44
0.0000000001
 12
0.027019512
 22
-41.6602404684
 32
0.0
 13
-0.0270195137
 23
-41.6602404684
 33
0.0
 40
0.0
 40
0.0
 40
0.0
 40
0.0
 40
0.2499433183
 40
1.0
 40
1.0
 40
1.0
 40
1.0
 10
-21.528660218
 20
20.8301237974
 30
0.0
 10
-21.5264091025
 20
17.3592242165
 30
0.0
 10
-21.5196489052
 20
3.4724760272
 30
0.0
 10
-21.5219048312
 20
-10.4142765472
 30
0.0
 10
-21.5286602202
 20
-20.8301237891
 30
0.0
 11
-21.528660218
 21
20.8301237974
 31
0.0
 11
-21.5235930224
 21
10.4174240977
 31
0.0
 11
-21.5286602202
 21
-20.8301237891
 31
0.0
  0
LINE
  5
48B
100
AcDbEntity
  8
RACCORDO
100
AcDbLine
 62
253
  6
CONTINUOUS
 10
21.5286583084
 20
20.8314684802
 11
-21.5286583062
 21
20.8314684802
  0
SPLINE
  5
48C
100
AcDbEntity
  8
RACCORDO
100
AcDbSpline
 62
253
  6
CONTINUOUS
 70
0
 71
3
 72
9
 73
5
 74
3
 42
0.0000001
 43
0.0000001
 44
0.0000000001
 12
-0.0270195137
 22
41.6602404682
 32
0.0
 13
0.0270195119
 23
41.6602404682
 33
0.0
 40
0.0
 40
0.0
 40
0.0
 40
0.0
 40
0.2499433183
 40
1.0
 40
1.0
 40
1.0
 40
1.0
 10
21.5286602182
 20
-20.8301237979
 30
0.0
 10
21.5264091026
 20
-17.359224217
 30
0.0
 10
21.5196489052
 20
-3.4724760278
 30
0.0
 10
21.5219048316
 20
10.4142765466
 30
0.0
 10
21.5286602201
 20
20.8301237885
 30
0.0
 11
21.5286602182
 21
-20.8301237979
 31
0.0
 11
21.5235930225
 21
-10.4174240983
 31
0.0
 11
21.5286602201
 21
20.8301237885
 31
0.0
  0
LINE
  5
48D
100
AcDbEntity
  8
RACCORDO
100
AcDbLine
 62
253
  6
CONTINUOUS
 10
-21.5286583084
 20
-20.8314684661
 11
21.5286583065
 21
-20.8314684661
  0
LINE
  5
48E
100
AcDbEntity
  8
RACCORDO
100
AcDbLine
 62
253
  6
CONTINUOUS
 10
-54.322828211
 20
20.8314684802
 11
-54.6946883774
 21
20.8318714123
  0
LINE
  5
48F
100
AcDbEntity
  8
RACCORDO
100
AcDbLine
 62
253
  6
CONTINUOUS
 10
-54.6946883781
 20
-20.8318713981
 11
-54.3228282116
 21
-20.8314684661
  0
SPLINE
  5
490
100
AcDbEntity
  8
RACCORDO
100
AcDbSpline
 62
253
  6
CONTINUOUS
 70
0
 71
3
 72
20
 73
16
 74
14
 42
0.0000001
 43
0.0000001
 44
0.0000000001
 12
-0.5002087967
 22
0.0130984283
 32
0.0
 13
0.0130894964
 23
0.5002090305
 33
0.0
 40
0.0
 40
0.0
 40
0.0
 40
0.0
 40
0.0017601617
 40
0.0055960857
 40
0.0201987771
 40
0.0441136341
 40
0.0772179332
 40
0.1191811617
 40
0.1695848846
 40
0.2279973575
 40
0.2938476078
 40
0.4451452729
 40
0.6177669273
 40
0.8053187393
 40
1.0
 40
1.0
 40
1.0
 40
1.0
 10
-53.1546270357
 20
-21.9790966731
 30
0.0
 10
-53.1549205185
 20
-21.979088988
 30
0.0
 10
-53.1555046449
 20
-21.9780879641
 30
0.0
 10
-53.1562537347
 20
-21.9750407725
 30
0.0
 10
-53.1571889509
 20
-21.9677921093
 30
0.0
 10
-53.1580015711
 20
-21.9560074192
 30
0.0
 10
-53.1587445567
 20
-21.9394546708
 30
0.0
 10
-53.1593187426
 20
-21.9185565511
 30
0.0
 10
-53.1597414621
 20
-21.8934028605
 30
0.0
 10
-53.1599918727
 20
-21.86427309
 30
0.0
 10
-53.1601008284
 20
-21.8183102681
 30
0.0
 10
-53.1597520272
 20
-21.7532999064
 30
0.0
 10
-53.1586857549
 20
-21.6679958083
 30
0.0
 10
-53.1569818263
 20
-21.5754649792
 30
0.0
 10
-53.1554764623
 20
-21.5117284522
 30
0.0
 10
-53.1546270357
 20
-21.4792680107
 30
0.0
 11
-53.1546270357
 21
-21.9790966731
 31
0.0
 11
-53.1552507174
 21
-21.9784747873
 31
0.0
 11
-53.1558424655
 21
-21.9766488601
 31
0.0
 11
-53.1569238952
 21
-21.9694224311
 31
0.0
 11
-53.157858794
 21
-21.9574924845
 31
0.0
 11
-53.1586352849
 21
-21.9409459561
 31
0.0
 11
-53.1592463221
 21
-21.9199572773
 31
0.0
 11
-53.1596870257
 21
-21.8947400997
 31
0.0
 11
-53.1599527011
 21
-21.8655128586
 31
0.0
 11
-53.1600412769
 21
-21.8325628119
 31
0.0
 11
-53.1596870263
 21
-21.7568572751
 31
0.0
 11
-53.1586352864
 21
-21.6704872093
 31
0.0
 11
-53.1569238969
 21
-21.5766555897
 31
0.0
 11
-53.1546270357
 21
-21.4792680107
 31
0.0
  0
SPLINE
  5
491
100
AcDbEntity
  8
RACCORDO
100
AcDbSpline
 62
253
  6
CONTINUOUS
 70
0
 71
3
 72
20
 73
16
 74
14
 42
0.0000001
 43
0.0000001
 44
0.0000000001
 12
-0.5002087938
 22
-0.0130984282
 32
0.0
 13
0.0130894589
 23
-0.5002090286
 33
0.0
 40
0.0
 40
0.0
 40
0.0
 40
0.0
 40
0.0017601587
 40
0.0055960803
 40
0.0201987668
 40
0.0441136197
 40
0.0772179138
 40
0.1191811341
 40
0.1695848502
 40
0.2279973203
 40
0.2938475646
 40
0.4451452223
 40
0.6177668842
 40
0.8053187251
 40
1.0
 40
1.0
 40
1.0
 40
1.0
 10
-53.1546272113
 20
21.9790966685
 30
0.0
 10
-53.1549206936
 20
21.9790889834
 30
0.0
 10
-53.155504818
 20
21.978087959
 30
0.0
 10
-53.1562539055
 20
21.9750407697
 30
0.0
 10
-53.1571891188
 20
21.9677921071
 30
0.0
 10
-53.1580017365
 20
21.9560074199
 30
0.0
 10
-53.1587447198
 20
21.9394546741
 30
0.0
 10
-53.1593189042
 20
21.9185565578
 30
0.0
 10
-53.1597416225
 20
21.8934028704
 30
0.0
 10
-53.1599920324
 20
21.8642731026
 30
0.0
 10
-53.1601009882
 20
21.8183102836
 30
0.0
 10
-53.1597521882
 20
21.7532999234
 30
0.0
 10
-53.1586859194
 20
21.6679958208
 30
0.0
 10
-53.1569819953
 20
21.5754649837
 30
0.0
 10
-53.1554766355
 20
21.5117284499
 30
0.0
 10
-53.1546272113
 20
21.4792680061
 30
0.0
 11
-53.1546272113
 21
21.9790966685
 31
0.0
 11
-53.1552508911
 21
21.978474783
 31
0.0
 11
-53.1558426374
 21
21.9766488565
 31
0.0
 11
-53.1569240638
 21
21.9694224295
 31
0.0
 11
-53.1578589599
 21
21.9574924849
 31
0.0
 11
-53.1586354484
 21
21.9409459588
 31
0.0
 11
-53.1592464839
 21
21.9199572843
 31
0.0
 11
-53.1596871862
 21
21.8947401102
 31
0.0
 11
-53.1599528609
 21
21.8655128706
 31
0.0
 11
-53.1600414367
 21
21.8325628272
 31
0.0
 11
-53.1596871875
 21
21.7568572945
 31
0.0
 11
-53.1586354509
 21
21.6704872254
 31
0.0
 11
-53.156924066
 21
21.5766555918
 31
0.0
 11
-53.1546272113
 21
21.4792680061
 31
0.0
  0
SPLINE
  5
492
100
AcDbEntity
  8
0
100
AcDbSpline
 62
7
  6
CONTINUOUS
 70
0
 71
3
 72
13
 73
9
 74
7
 42
0.0000001
 43
0.0000001
 44
0.0000000001
 12
-0.2489101548
 22
-0.143711993
 32
0.0
 13
-0.244355276
 23
-0.1513687366
 33
0.0
 40
0.0
 40
0.0
 40
0.0
 40
0.0
 40
0.3612210663
 40
0.682170423
 40
0.812667465
 40
0.9137049675
 40
0.9780318448
 40
1.0
 40
1.0
 40
1.0
 40
1.0
 10
-46.1889696919
 20
23.2669872981
 30
0.0
 10
-46.2189402224
 20
23.249683365
 30
0.0
 10
-46.2755275979
 20
23.2169831279
 30
0.0
 10
-46.3428918889
 20
23.1779450624
 30
0.0
 10
-46.3886708573
 20
23.1513733071
 30
0.0
 10
-46.4131373365
 20
23.1370619739
 30
0.0
 10
-46.4286649236
 20
23.1280587384
 30
0.0
 10
-46.4357259142
 20
23.1237581614
 30
0.0
 10
-46.4375152591
 20
23.1226497308
 30
0.0
 11
-46.1889696919
 21
23.2669872981
 31
0.0
 11
-46.2788569013
 21
23.2150332915
 31
0.0
 11
-46.3586715929
 21
23.1687830511
 31
0.0
 11
-46.3910997812
 21
23.1499360992
 31
0.0
 11
-46.4161850072
 21
23.1353054509
 31
0.0
 11
-46.4321249264
 21
23.1259378303
 31
0.0
 11
-46.4375152591
 21
23.1226497308
 31
0.0
  0
SPLINE
  5
493
100
AcDbEntity
  8
0
100
AcDbSpline
 62
253
  6
CONTINUOUS
 70
0
 71
3
 72
26
 73
22
 74
20
 42
0.0000001
 43
0.0000001
 44
0.0000000001
 12
-0.124641584
 22
-0.2158928633
 32
0.0
 13
0.2158910366
 23
-0.124644748
 33
0.0
 40
0.0
 40
0.0
 40
0.0
 40
0.0
 40
0.1952371571
 40
0.3828765725
 40
0.5557521165
 40
0.6345528919
 40
0.7072369656
 40
0.7731083045
 40
0.8315338818
 40
0.8819524705
 40
0.9238825345
 40
0.9415345162
 40
0.9569212041
 40
0.9700029814
 40
0.9807505693
 40
0.9891391953
 40
0.9951465425
 40
0.9972538056
 40
0.9987627805
 40
0.9996743239
 40
1.0
 40
1.0
 40
1.0
 40
1.0
 10
-47.1889696919
 20
23.8443375673
 30
0.0
 10
-47.1970812481
 20
23.8302874643
 30
0.0
 10
-47.2129753203
 20
23.8027262996
 30
0.0
 10
-47.2360053964
 20
23.7626974834
 30
0.0
 10
-47.2541747287
 20
23.7310346506
 30
0.0
 10
-47.2675643902
 20
23.7076424988
 30
0.0
 10
-47.2765240306
 20
23.6919598928
 30
0.0
 10
-47.2846299279
 20
23.6777394869
 30
0.0
 10
-47.291804424
 20
23.6651178186
 30
0.0
 10
-47.2979787243
 20
23.6542160512
 30
0.0
 10
-47.3024666206
 20
23.6462528792
 30
0.0
 10
-47.3055111622
 20
23.6408180126
 30
0.0
 10
-47.3073772872
 20
23.6374702745
 30
0.0
 10
-47.3089550816
 20
23.6346199041
 30
0.0
 10
-47.3102443582
 20
23.6322710394
 30
0.0
 10
-47.3112331714
 20
23.6304369747
 30
0.0
 10
-47.3118830784
 20
23.6292158937
 30
0.0
 10
-47.3122307229
 20
23.6285132656
 30
0.0
 10
-47.3124142933
 20
23.6281552613
 30
0.0
 10
-47.3124673248
 20
23.627979116
 30
0.0
 10
-47.3125386959
 20
23.6278447476
 30
0.0
 10
-47.3125152591
 20
23.6278312164
 30
0.0
 11
-47.1889696919
 21
23.8443375673
 31
0.0
 11
-47.2132834735
 21
23.8021752067
 31
0.0
 11
-47.2366092714
 21
23.761629536
 31
0.0
 11
-47.258056228
 21
23.7242490838
 31
0.0
 11
-47.2678144624
 21
23.7071999878
 31
0.0
 11
-47.2768021761
 21
23.6914668129
 31
0.0
 11
-47.2849332965
 21
23.6772002365
 31
0.0
 11
-47.2921296705
 21
23.664537377
 31
0.0
 11
-47.2983221559
 21
23.6535998967
 31
0.0
 11
-47.3034515902
 21
23.644492298
 31
0.0
 11
-47.305601754
 21
23.6406529246
 31
0.0
 11
-47.3074686473
 21
23.6373021623
 31
0.0
 11
-47.309047442
 21
23.6344486549
 31
0.0
 11
-47.3103345889
 21
23.632098827
 31
0.0
 11
-47.3113270826
 21
23.6302581591
 31
0.0
 11
-47.3120221839
 21
23.6289316804
 31
0.0
 11
-47.3122577618
 21
23.6284621459
 31
0.0
 11
-47.3124185417
 21
23.6281220652
 31
0.0
 11
-47.3125044114
 21
23.627911676
 31
0.0
 11
-47.3125152591
 21
23.6278312164
 31
0.0
  0
SPLINE
  5
494
100
AcDbEntity
  8
0
100
AcDbSpline
 62
253
  6
CONTINUOUS
 70
0
 71
3
 72
26
 73
22
 74
20
 42
0.0000001
 43
0.0000001
 44
0.0000000001
 12
0.124641584
 22
-0.2158928633
 32
0.0
 13
-0.2158910366
 23
-0.1246447481
 33
0.0
 40
0.0
 40
0.0
 40
0.0
 40
0.0
 40
0.1952373303
 40
0.3828767077
 40
0.5557522251
 40
0.6345529812
 40
0.7072370395
 40
0.7731083627
 40
0.8315339236
 40
0.8819525002
 40
0.9238825542
 40
0.9415345305
 40
0.9569212142
 40
0.9700029891
 40
0.9807505739
 40
0.9891391978
 40
0.995146544
 40
0.9972538066
 40
0.998762781
 40
0.999674324
 40
1.0
 40
1.0
 40
1.0
 40
1.0
 10
-44.1860608262
 20
23.8443375673
 30
0.0
 10
-44.1779492629
 20
23.8302874519
 30
0.0
 10
-44.162055185
 20
23.8027262774
 30
0.0
 10
-44.1390251045
 20
23.7626974533
 30
0.0
 10
-44.1208557756
 20
23.7310346265
 30
0.0
 10
-44.1074661167
 20
23.7076424792
 30
0.0
 10
-44.0985064784
 20
23.6919598769
 30
0.0
 10
-44.0904005831
 20
23.6777394743
 30
0.0
 10
-44.0832260888
 20
23.6651178092
 30
0.0
 10
-44.0770517901
 20
23.6542160446
 30
0.0
 10
-44.0725638949
 20
23.6462528745
 30
0.0
 10
-44.0695193542
 20
23.6408180094
 30
0.0
 10
-44.0676532296
 20
23.6374702721
 30
0.0
 10
-44.0660754356
 20
23.6346199025
 30
0.0
 10
-44.0647861594
 20
23.6322710383
 30
0.0
 10
-44.0637973464
 20
23.630436974
 30
0.0
 10
-44.0631474395
 20
23.6292158934
 30
0.0
 10
-44.0627997951
 20
23.6285132654
 30
0.0
 10
-44.0626162248
 20
23.6281552612
 30
0.0
 10
-44.0625631933
 20
23.627979116
 30
0.0
 10
-44.0624918222
 20
23.6278447476
 30
0.0
 10
-44.0625152591
 20
23.6278312164
 30
0.0
 11
-44.1860608262
 21
23.8443375673
 31
0.0
 11
-44.161747023
 21
23.8021751692
 31
0.0
 11
-44.13842123
 21
23.7616295068
 31
0.0
 11
-44.1169742767
 21
23.7242490603
 31
0.0
 11
-44.1072160447
 21
23.7071999685
 31
0.0
 11
-44.0982283329
 21
23.6914667969
 31
0.0
 11
-44.0900972145
 21
23.6772002239
 31
0.0
 11
-44.0829008425
 21
23.6645373679
 31
0.0
 11
-44.0767083585
 21
23.6535998903
 31
0.0
 11
-44.0715789255
 21
23.6444922937
 31
0.0
 11
-44.0694287624
 21
23.6406529215
 31
0.0
 11
-44.0675618696
 21
23.6373021601
 31
0.0
 11
-44.0659830752
 21
23.6344486533
 31
0.0
 11
-44.0646959287
 21
23.632098826
 31
0.0
 11
-44.0637034352
 21
23.6302581585
 31
0.0
 11
-44.063008334
 21
23.6289316801
 31
0.0
 11
-44.0627727562
 21
23.6284621457
 31
0.0
 11
-44.0626119764
 21
23.628122065
 31
0.0
 11
-44.0625261067
 21
23.627911676
 31
0.0
 11
-44.0625152591
 21
23.6278312164
 31
0.0
  0
SPLINE
  5
495
100
AcDbEntity
  8
0
100
AcDbSpline
 62
253
  6
CONTINUOUS
 70
0
 71
3
 72
26
 73
22
 74
20
 42
0.0000001
 43
0.0000001
 44
0.0000000001
 12
0.124641584
 22
0.2158928634
 32
0.0
 13
-0.2158910366
 23
0.1246447481
 33
0.0
 40
0.0
 40
0.0
 40
0.0
 40
0.0
 40
0.1952373367
 40
0.3828767197
 40
0.5557522426
 40
0.6345529999
 40
0.7072370592
 40
0.7731083831
 40
0.8315339428
 40
0.8819525183
 40
0.923882571
 40
0.941534545
 40
0.956921227
 40
0.9700030008
 40
0.9807505828
 40
0.9891392048
 40
0.9951465495
 40
0.9972538103
 40
0.9987627829
 40
0.9996743245
 40
1.0
 40
1.0
 40
1.0
 40
1.0
 10
-44.1860608262
 20
-23.8443375673
 30
0.0
 10
-44.1779492626
 20
-23.8302874514
 30
0.0
 10
-44.1620551842
 20
-23.8027262761
 30
0.0
 10
-44.139025103
 20
-23.7626974507
 30
0.0
 10
-44.1208557737
 20
-23.7310346231
 30
0.0
 10
-44.1074661144
 20
-23.7076424751
 30
0.0
 10
-44.098506476
 20
-23.6919598726
 30
0.0
 10
-44.0904005807
 20
-23.67773947
 30
0.0
 10
-44.0832260864
 20
-23.665117805
 30
0.0
 10
-44.0770517879
 20
-23.6542160407
 30
0.0
 10
-44.0725638929
 20
-23.646252871
 30
0.0
 10
-44.0695193524
 20
-23.6408180062
 30
0.0
 10
-44.067653228
 20
-23.6374702693
 30
0.0
 10
-44.0660754343
 20
-23.6346199
 30
0.0
 10
-44.0647861583
 20
-23.6322710363
 30
0.0
 10
-44.0637973456
 20
-23.6304369725
 30
0.0
 10
-44.0631474389
 20
-23.6292158922
 30
0.0
 10
-44.0627997946
 20
-23.6285132646
 30
0.0
 10
-44.0626162246
 20
-23.6281552608
 30
0.0
 10
-44.0625631931
 20
-23.6279791158
 30
0.0
 10
-44.0624918223
 20
-23.6278447476
 30
0.0
 10
-44.0625152591
 20
-23.6278312164
 30
0.0
 11
-44.1860608262
 21
-23.8443375673
 31
0.0
 11
-44.1617470223
 21
-23.8021751679
 31
0.0
 11
-44.1384212285
 21
-23.7616295042
 31
0.0
 11
-44.1169742745
 21
-23.7242490565
 31
0.0
 11
-44.1072160424
 21
-23.7071999644
 31
0.0
 11
-44.0982283305
 21
-23.6914667926
 31
0.0
 11
-44.0900972119
 21
-23.6772002194
 31
0.0
 11
-44.0829008401
 21
-23.6645373638
 31
0.0
 11
-44.0767083563
 21
-23.6535998863
 31
0.0
 11
-44.0715789235
 21
-23.6444922901
 31
0.0
 11
-44.0694287606
 21
-23.6406529184
 31
0.0
 11
-44.067561868
 21
-23.6373021573
 31
0.0
 11
-44.0659830738
 21
-23.6344486507
 31
0.0
 11
-44.0646959277
 21
-23.632098824
 31
0.0
 11
-44.0637034344
 21
-23.630258157
 31
0.0
 11
-44.0630083333
 21
-23.6289316788
 31
0.0
 11
-44.0627727557
 21
-23.6284621448
 31
0.0
 11
-44.0626119762
 21
-23.6281220646
 31
0.0
 11
-44.0625261066
 21
-23.6279116759
 31
0.0
 11
-44.0625152591
 21
-23.6278312164
 31
0.0
  0
LINE
  5
496
100
AcDbEntity
  8
RACCORDO
100
AcDbLine
 62
253
  6
CONTINUOUS
 10
-33.0691112302
 20
18.5521029846
 11
-33.1340247826
 21
19.0166572575
  0
SPLINE
  5
497
100
AcDbEntity
  8
0
100
AcDbSpline
 62
253
  6
CONTINUOUS
 70
0
 71
3
 72
26
 73
22
 74
20
 42
0.0000001
 43
0.0000001
 44
0.0000000001
 12
-0.124641584
 22
0.2158928633
 32
0.0
 13
0.2158910365
 23
0.1246447481
 33
0.0
 40
0.0
 40
0.0
 40
0.0
 40
0.0
 40
0.1952373303
 40
0.3828767077
 40
0.5557522251
 40
0.6345529812
 40
0.7072370395
 40
0.7731083627
 40
0.8315339236
 40
0.8819525002
 40
0.9238825542
 40
0.9415345305
 40
0.9569212142
 40
0.9700029891
 40
0.9807505739
 40
0.9891391978
 40
0.995146544
 40
0.9972538066
 40
0.998762781
 40
0.999674324
 40
1.0
 40
1.0
 40
1.0
 40
1.0
 10
-47.1889696919
 20
-23.8443375673
 30
0.0
 10
-47.1970812553
 20
-23.8302874519
 30
0.0
 10
-47.2129753332
 20
-23.8027262774
 30
0.0
 10
-47.2360054136
 20
-23.7626974533
 30
0.0
 10
-47.2541747425
 20
-23.7310346265
 30
0.0
 10
-47.2675644014
 20
-23.7076424792
 30
0.0
 10
-47.2765240397
 20
-23.6919598769
 30
0.0
 10
-47.284629935
 20
-23.6777394743
 30
0.0
 10
-47.2918044293
 20
-23.6651178092
 30
0.0
 10
-47.297978728
 20
-23.6542160446
 30
0.0
 10
-47.3024666232
 20
-23.6462528745
 30
0.0
 10
-47.305511164
 20
-23.6408180094
 30
0.0
 10
-47.3073772885
 20
-23.6374702721
 30
0.0
 10
-47.3089550825
 20
-23.6346199025
 30
0.0
 10
-47.3102443588
 20
-23.6322710383
 30
0.0
 10
-47.3112331717
 20
-23.630436974
 30
0.0
 10
-47.3118830786
 20
-23.6292158934
 30
0.0
 10
-47.3122307231
 20
-23.6285132654
 30
0.0
 10
-47.3124142933
 20
-23.6281552612
 30
0.0
 10
-47.3124673248
 20
-23.627979116
 30
0.0
 10
-47.3125386959
 20
-23.6278447476
 30
0.0
 10
-47.3125152591
 20
-23.6278312164
 30
0.0
 11
-47.1889696919
 21
-23.8443375673
 31
0.0
 11
-47.2132834951
 21
-23.8021751692
 31
0.0
 11
-47.2366092882
 21
-23.7616295068
 31
0.0
 11
-47.2580562414
 21
-23.7242490603
 31
0.0
 11
-47.2678144735
 21
-23.7071999685
 31
0.0
 11
-47.2768021852
 21
-23.6914667969
 31
0.0
 11
-47.2849333037
 21
-23.6772002239
 31
0.0
 11
-47.2921296756
 21
-23.6645373679
 31
0.0
 11
-47.2983221596
 21
-23.6535998903
 31
0.0
 11
-47.3034515926
 21
-23.6444922937
 31
0.0
 11
-47.3056017557
 21
-23.6406529215
 31
0.0
 11
-47.3074686486
 21
-23.6373021601
 31
0.0
 11
-47.309047443
 21
-23.6344486533
 31
0.0
 11
-47.3103345894
 21
-23.632098826
 31
0.0
 11
-47.3113270829
 21
-23.6302581585
 31
0.0
 11
-47.3120221841
 21
-23.6289316801
 31
0.0
 11
-47.3122577619
 21
-23.6284621457
 31
0.0
 11
-47.3124185417
 21
-23.628122065
 31
0.0
 11
-47.3125044114
 21
-23.627911676
 31
0.0
 11
-47.3125152591
 21
-23.6278312164
 31
0.0
  0
SPLINE
  5
498
100
AcDbEntity
  8
0
100
AcDbSpline
 62
7
  6
CONTINUOUS
 70
0
 71
3
 72
13
 73
9
 74
7
 42
0.0000001
 43
0.0000001
 44
0.0000000001
 12
-0.2489101548
 22
0.143711993
 32
0.0
 13
-0.244355276
 23
0.1513687366
 33
0.0
 40
0.0
 40
0.0
 40
0.0
 40
0.0
 40
0.3612210663
 40
0.682170423
 40
0.812667465
 40
0.9137049675
 40
0.9780318448
 40
1.0
 40
1.0
 40
1.0
 40
1.0
 10
-46.1889696919
 20
-23.2669872981
 30
0.0
 10
-46.2189402224
 20
-23.249683365
 30
0.0
 10
-46.2755275979
 20
-23.2169831279
 30
0.0
 10
-46.3428918889
 20
-23.1779450624
 30
0.0
 10
-46.3886708573
 20
-23.1513733071
 30
0.0
 10
-46.4131373365
 20
-23.1370619739
 30
0.0
 10
-46.4286649236
 20
-23.1280587384
 30
0.0
 10
-46.4357259142
 20
-23.1237581614
 30
0.0
 10
-46.4375152591
 20
-23.1226497308
 30
0.0
 11
-46.1889696919
 21
-23.2669872981
 31
0.0
 11
-46.2788569013
 21
-23.2150332915
 31
0.0
 11
-46.3586715929
 21
-23.1687830511
 31
0.0
 11
-46.3910997812
 21
-23.1499360992
 31
0.0
 11
-46.4161850072
 21
-23.1353054509
 31
0.0
 11
-46.4321249264
 21
-23.1259378303
 31
0.0
 11
-46.4375152591
 21
-23.1226497308
 31
0.0
  0
LINE
  5
499
100
AcDbEntity
  8
RACCORDO
100
AcDbLine
 62
253
  6
CONTINUOUS
 10
-33.1340247826
 20
-19.0166572575
 11
-33.0691112302
 21
-18.5521029846
  0
SPLINE
  5
49A
100
AcDbEntity
  8
0
100
AcDbSpline
 62
253
  6
CONTINUOUS
 70
0
 71
3
 72
26
 73
22
 74
20
 42
0.0000001
 43
0.0000001
 44
0.0000000001
 12
0.0014544634
 22
-0.2500094792
 32
0.0
 13
-0.2500094789
 23
-0.0014545126
 33
0.0
 40
0.0
 40
0.0
 40
0.0
 40
0.0
 40
0.195080196
 40
0.3826515393
 40
0.5555245815
 40
0.6343411269
 40
0.7070484192
 40
0.7729476609
 40
0.831403253
 40
0.881851676
 40
0.9238093952
 40
0.9414738478
 40
0.9568718917
 40
0.9699637695
 40
0.9807201068
 40
0.9891161374
 40
0.9951296516
 40
0.997239688
 40
0.9987514623
 40
0.9996664469
 40
1.0
 40
1.0
 40
1.0
 40
1.0
 10
-44.1860608262
 20
-24.2456323968
 30
0.0
 10
-44.1859662472
 20
-24.2618896962
 30
0.0
 10
-44.1857986425
 20
-24.2937786412
 30
0.0
 10
-44.1856093961
 20
-24.3400745182
 30
0.0
 10
-44.1855074117
 20
-24.3766814763
 30
0.0
 10
-44.1854658673
 20
-24.403716003
 30
0.0
 10
-44.1854551791
 20
-24.4218355876
 30
0.0
 10
-44.1854639531
 20
-24.4382583307
 30
0.0
 10
-44.1854919358
 20
-24.4528260562
 30
0.0
 10
-44.1855387715
 20
-24.46539845
 30
0.0
 10
-44.1855952142
 20
-24.4745714119
 30
0.0
 10
-44.1856522498
 20
-24.4808230755
 30
0.0
 10
-44.1856967158
 20
-24.4846694877
 30
0.0
 10
-44.1857455519
 20
-24.4879390802
 30
0.0
 10
-44.1857972135
 20
-24.4906278529
 30
0.0
 10
-44.1858543655
 20
-24.492719004
 30
0.0
 10
-44.1859033373
 20
-24.4941060199
 30
0.0
 10
-44.1859543879
 20
-24.4948925842
 30
0.0
 10
-44.1859793461
 20
-24.4952943483
 30
0.0
 10
-44.1860197914
 20
-24.495477879
 30
0.0
 10
-44.1860330291
 20
-24.4956280043
 30
0.0
 10
-44.1860608262
 20
-24.495628166
 30
0.0
 11
-44.1860608262
 21
-24.2456323968
 31
0.0
 11
-44.185805035
 21
-24.2944044496
 31
0.0
 11
-44.1856149786
 21
-24.3412994718
 31
0.0
 11
-44.1854979357
 21
-24.384519944
 31
0.0
 11
-44.1854683199
 21
-24.4042251386
 31
0.0
 11
-44.1854584174
 21
-24.4224029558
 31
0.0
 11
-44.18546832
 21
-24.4388786668
 31
0.0
 11
-44.1854979358
 21
-24.4534933362
 31
0.0
 11
-44.1855469801
 21
-24.4661060382
 31
0.0
 11
-44.1856149789
 21
-24.4765958229
 31
0.0
 11
-44.1856558902
 21
-24.4810119887
 31
0.0
 11
-44.1857012756
 21
-24.4848614432
 31
0.0
 11
-44.18575103
 21
-24.488134214
 31
0.0
 11
-44.1858050355
 21
-24.4908229035
 31
0.0
 11
-44.1858631687
 21
-24.4929212211
 31
0.0
 11
-44.1859252981
 21
-24.4944233978
 31
0.0
 11
-44.1859578072
 21
-24.4949499332
 31
0.0
 11
-44.1859912475
 21
-24.4953264153
 31
0.0
 11
-44.1860255952
 21
-24.4955525807
 31
0.0
 11
-44.1860608262
 21
-24.495628166
 31
0.0
  0
LINE
  5
49B
100
AcDbEntity
  8
0
100
AcDbLine
 62
7
  6
CONTINUOUS
 10
-44.9375152591
 20
-24.2500042308
 11
-44.9375152591
 21
-24.5
  0
LINE
  5
49C
100
AcDbEntity
  8
RACCORDO
100
AcDbLine
 62
253
  6
CONTINUOUS
 10
-33.1340247778
 20
19.0166572575
 11
-42.9375152591
 21
15.629521819
  0
LINE
  5
49D
100
AcDbEntity
  8
RACCORDO
100
AcDbLine
 62
253
  6
CONTINUOUS
 10
-42.9375152591
 20
-15.629521819
 11
-33.1340247778
 21
-19.0166572575
  0
SPLINE
  5
49E
100
AcDbEntity
  8
0
100
AcDbSpline
 62
253
  6
CONTINUOUS
 70
0
 71
3
 72
26
 73
22
 74
20
 42
0.0000001
 43
0.0000001
 44
0.0000000001
 12
-0.0014544634
 22
-0.2500094792
 32
0.0
 13
0.2500094789
 23
-0.0014545126
 33
0.0
 40
0.0
 40
0.0
 40
0.0
 40
0.0
 40
0.195080196
 40
0.3826515393
 40
0.5555245815
 40
0.6343411269
 40
0.7070484192
 40
0.7729476609
 40
0.831403253
 40
0.881851676
 40
0.9238093952
 40
0.9414738478
 40
0.9568718917
 40
0.9699637695
 40
0.9807201068
 40
0.9891161374
 40
0.9951296516
 40
0.997239688
 40
0.9987514623
 40
0.9996664469
 40
1.0
 40
1.0
 40
1.0
 40
1.0
 10
-47.1889696919
 20
-24.2369056521
 30
0.0
 10
-47.1890642709
 20
-24.2531629515
 30
0.0
 10
-47.1892318757
 20
-24.2850518965
 30
0.0
 10
-47.1894211221
 20
-24.3313477735
 30
0.0
 10
-47.1895231065
 20
-24.3679547315
 30
0.0
 10
-47.1895646508
 20
-24.3949892583
 30
0.0
 10
-47.1895753391
 20
-24.4131088428
 30
0.0
 10
-47.189566565
 20
-24.429531586
 30
0.0
 10
-47.1895385823
 20
-24.4440993115
 30
0.0
 10
-47.1894917466
 20
-24.4566717053
 30
0.0
 10
-47.1894353039
 20
-24.4658446672
 30
0.0
 10
-47.1893782683
 20
-24.4720963307
 30
0.0
 10
-47.1893338023
 20
-24.4759427429
 30
0.0
 10
-47.1892849662
 20
-24.4792123355
 30
0.0
 10
-47.1892333046
 20
-24.4819011082
 30
0.0
 10
-47.1891761526
 20
-24.4839922593
 30
0.0
 10
-47.1891271808
 20
-24.4853792751
 30
0.0
 10
-47.1890761302
 20
-24.4861658394
 30
0.0
 10
-47.189051172
 20
-24.4865676036
 30
0.0
 10
-47.1890107268
 20
-24.4867511343
 30
0.0
 10
-47.1889974891
 20
-24.4869012596
 30
0.0
 10
-47.1889696919
 20
-24.4869014213
 30
0.0
 11
-47.1889696919
 21
-24.2369056521
 31
0.0
 11
-47.1892254831
 21
-24.2856777048
 31
0.0
 11
-47.1894155395
 21
-24.3325727271
 31
0.0
 11
-47.1895325825
 21
-24.3757931993
 31
0.0
 11
-47.1895621982
 21
-24.3954983939
 31
0.0
 11
-47.1895721007
 21
-24.4136762111
 31
0.0
 11
-47.1895621981
 21
-24.430151922
 31
0.0
 11
-47.1895325823
 21
-24.4447665915
 31
0.0
 11
-47.189483538
 21
-24.4573792935
 31
0.0
 11
-47.1894155393
 21
-24.4678690781
 31
0.0
 11
-47.189374628
 21
-24.472285244
 31
0.0
 11
-47.1893292425
 21
-24.4761346985
 31
0.0
 11
-47.1892794881
 21
-24.4794074693
 31
0.0
 11
-47.1892254827
 21
-24.4820961588
 31
0.0
 11
-47.1891673494
 21
-24.4841944764
 31
0.0
 11
-47.18910522
 21
-24.4856966531
 31
0.0
 11
-47.1890727109
 21
-24.4862231885
 31
0.0
 11
-47.1890392706
 21
-24.4865996706
 31
0.0
 11
-47.189004923
 21
-24.486825836
 31
0.0
 11
-47.1889696919
 21
-24.4869014213
 31
0.0
  0
SPLINE
  5
49F
100
AcDbEntity
  8
0
100
AcDbSpline
 62
253
  6
CONTINUOUS
 70
0
 71
3
 72
26
 73
22
 74
20
 42
0.0000001
 43
0.0000001
 44
0.0000000001
 12
0.2500094789
 22
-0.0014545126
 32
0.0
 13
-0.0014544634
 23
-0.2500094792
 33
0.0
 40
0.0
 40
0.0
 40
0.0
 40
0.0
 40
0.0003335531
 40
0.0012485377
 40
0.002760312
 40
0.0048703484
 40
0.0108838626
 40
0.0192798932
 40
0.0300362305
 40
0.0431281083
 40
0.0585261522
 40
0.0761906048
 40
0.118148324
 40
0.168596747
 40
0.2270523391
 40
0.2929515808
 40
0.3656588731
 40
0.4444754185
 40
0.6173484607
 40
0.804919804
 40
1.0
 40
1.0
 40
1.0
 40
1.0
 10
-44.1860608262
 20
24.495628166
 30
0.0
 10
-44.1860330291
 20
24.4956280043
 30
0.0
 10
-44.1860197914
 20
24.495477879
 30
0.0
 10
-44.1859793461
 20
24.4952943483
 30
0.0
 10
-44.1859543879
 20
24.4948925842
 30
0.0
 10
-44.1859033373
 20
24.4941060198
 30
0.0
 10
-44.1858543655
 20
24.492719004
 30
0.0
 10
-44.1857972135
 20
24.4906278529
 30
0.0
 10
-44.1857455519
 20
24.4879390802
 30
0.0
 10
-44.1856967158
 20
24.4846694877
 30
0.0
 10
-44.1856522498
 20
24.4808230755
 30
0.0
 10
-44.1855952142
 20
24.4745714119
 30
0.0
 10
-44.1855387715
 20
24.46539845
 30
0.0
 10
-44.1854919358
 20
24.4528260562
 30
0.0
 10
-44.1854639531
 20
24.4382583307
 30
0.0
 10
-44.1854551791
 20
24.4218355876
 30
0.0
 10
-44.1854658673
 20
24.403716003
 30
0.0
 10
-44.1855074117
 20
24.3766814763
 30
0.0
 10
-44.1856093961
 20
24.3400745182
 30
0.0
 10
-44.1857986425
 20
24.2937786412
 30
0.0
 10
-44.1859662472
 20
24.2618896962
 30
0.0
 10
-44.1860608262
 20
24.2456323968
 30
0.0
 11
-44.1860608262
 21
24.495628166
 31
0.0
 11
-44.1860255952
 21
24.4955525807
 31
0.0
 11
-44.1859912475
 21
24.4953264153
 31
0.0
 11
-44.1859578072
 21
24.4949499332
 31
0.0
 11
-44.1859252981
 21
24.4944233978
 31
0.0
 11
-44.1858631687
 21
24.4929212211
 31
0.0
 11
-44.1858050355
 21
24.4908229035
 31
0.0
 11
-44.18575103
 21
24.488134214
 31
0.0
 11
-44.1857012756
 21
24.4848614432
 31
0.0
 11
-44.1856558902
 21
24.4810119887
 31
0.0
 11
-44.1856149789
 21
24.4765958229
 31
0.0
 11
-44.1855469801
 21
24.4661060382
 31
0.0
 11
-44.1854979358
 21
24.4534933362
 31
0.0
 11
-44.18546832
 21
24.4388786668
 31
0.0
 11
-44.1854584174
 21
24.4224029558
 31
0.0
 11
-44.1854683199
 21
24.4042251386
 31
0.0
 11
-44.1854979357
 21
24.384519944
 31
0.0
 11
-44.1856149786
 21
24.3412994718
 31
0.0
 11
-44.185805035
 21
24.2944044496
 31
0.0
 11
-44.1860608262
 21
24.2456323968
 31
0.0
  0
LINE
  5
4A0
100
AcDbEntity
  8
0
100
AcDbLine
 62
7
  6
CONTINUOUS
 10
-44.9375152591
 20
24.5
 11
-44.9375152591
 21
24.2500042308
  0
SPLINE
  5
4A1
100
AcDbEntity
  8
0
100
AcDbSpline
 62
253
  6
CONTINUOUS
 70
0
 71
3
 72
26
 73
22
 74
20
 42
0.0000001
 43
0.0000001
 44
0.0000000001
 12
-0.2500094789
 22
-0.0014545125
 32
0.0
 13
0.0014544634
 23
-0.2500094792
 33
0.0
 40
0.0
 40
0.0
 40
0.0
 40
0.0
 40
0.0003335531
 40
0.0012485377
 40
0.002760312
 40
0.0048703484
 40
0.0108838626
 40
0.0192798932
 40
0.0300362305
 40
0.0431281083
 40
0.0585261522
 40
0.0761906048
 40
0.118148324
 40
0.168596747
 40
0.2270523391
 40
0.2929515808
 40
0.3656588731
 40
0.4444754185
 40
0.6173484607
 40
0.804919804
 40
1.0
 40
1.0
 40
1.0
 40
1.0
 10
-47.1889696919
 20
24.4869014213
 30
0.0
 10
-47.1889974891
 20
24.4869012596
 30
0.0
 10
-47.1890107268
 20
24.4867511343
 30
0.0
 10
-47.189051172
 20
24.4865676036
 30
0.0
 10
-47.1890761302
 20
24.4861658394
 30
0.0
 10
-47.1891271808
 20
24.4853792751
 30
0.0
 10
-47.1891761526
 20
24.4839922593
 30
0.0
 10
-47.1892333046
 20
24.4819011082
 30
0.0
 10
-47.1892849662
 20
24.4792123355
 30
0.0
 10
-47.1893338023
 20
24.4759427429
 30
0.0
 10
-47.1893782683
 20
24.4720963307
 30
0.0
 10
-47.1894353039
 20
24.4658446672
 30
0.0
 10
-47.1894917466
 20
24.4566717053
 30
0.0
 10
-47.1895385823
 20
24.4440993115
 30
0.0
 10
-47.189566565
 20
24.429531586
 30
0.0
 10
-47.1895753391
 20
24.4131088428
 30
0.0
 10
-47.1895646508
 20
24.3949892583
 30
0.0
 10
-47.1895231065
 20
24.3679547315
 30
0.0
 10
-47.1894211221
 20
24.3313477735
 30
0.0
 10
-47.1892318757
 20
24.2850518965
 30
0.0
 10
-47.1890642709
 20
24.2531629515
 30
0.0
 10
-47.1889696919
 20
24.2369056521
 30
0.0
 11
-47.1889696919
 21
24.4869014213
 31
0.0
 11
-47.189004923
 21
24.486825836
 31
0.0
 11
-47.1890392706
 21
24.4865996706
 31
0.0
 11
-47.1890727109
 21
24.4862231885
 31
0.0
 11
-47.18910522
 21
24.4856966531
 31
0.0
 11
-47.1891673494
 21
24.4841944764
 31
0.0
 11
-47.1892254827
 21
24.4820961588
 31
0.0
 11
-47.1892794881
 21
24.4794074693
 31
0.0
 11
-47.1893292425
 21
24.4761346985
 31
0.0
 11
-47.189374628
 21
24.472285244
 31
0.0
 11
-47.1894155393
 21
24.4678690781
 31
0.0
 11
-47.189483538
 21
24.4573792935
 31
0.0
 11
-47.1895325823
 21
24.4447665915
 31
0.0
 11
-47.1895621981
 21
24.430151922
 31
0.0
 11
-47.1895721007
 21
24.4136762111
 31
0.0
 11
-47.1895621982
 21
24.3954983939
 31
0.0
 11
-47.1895325825
 21
24.3757931993
 31
0.0
 11
-47.1894155395
 21
24.3325727271
 31
0.0
 11
-47.1892254831
 21
24.2856777048
 31
0.0
 11
-47.1889696919
 21
24.2369056521
 31
0.0
  0
ELLIPSE
  5
4A2
100
AcDbEntity
  8
0
100
AcDbEllipse
 62
7
  6
CONTINUOUS
 10
12.45
 20
22.3842776662
 30
0.0
 11
0.2
 21
0.0
 31
0.0
 40
0.0524077793
 41
-3.1415926536
 42
-1.5707963268
  0
ELLIPSE
  5
4A3
100
AcDbEntity
  8
0
100
AcDbEllipse
 62
7
  6
CONTINUOUS
 10
10.05
 20
22.3842776662
 30
0.0
 11
0.2
 21
-0.0
 31
0.0
 40
0.0524077793
 41
-1.5707963268
 42
0.0
  0
ELLIPSE
  5
4A4
100
AcDbEntity
  8
0
100
AcDbEllipse
 62
7
  6
CONTINUOUS
 10
12.45
 20
-22.3842776662
 30
0.0
 11
0.2
 21
0.0
 31
0.0
 40
0.0524077793
 41
1.5707963268
 42
3.1415926536
  0
ELLIPSE
  5
4A5
100
AcDbEntity
  8
0
100
AcDbEllipse
 62
7
  6
CONTINUOUS
 10
10.05
 20
-22.3842776662
 30
0.0
 11
0.2
 21
0.0
 31
0.0
 40
0.0524077793
 41
0.0
 42
1.5707963268
  0
ELLIPSE
  5
4A6
100
AcDbEntity
  8
0
100
AcDbEllipse
 62
7
  6
CONTINUOUS
 10
21.1427234819
 20
22.3344902759
 30
0.0
 11
0.25
 21
0.0
 31
0.0
 40
0.0524077793
 41
-1.5707963268
 42
-0.0058177642
  0
ELLIPSE
  5
4A7
100
AcDbEntity
  8
0
100
AcDbEllipse
 62
7
  6
CONTINUOUS
 10
18.7572765181
 20
22.3344902759
 30
0.0
 11
0.25
 21
0.0
 31
0.0
 40
0.0524077793
 41
-3.1357748894
 42
-1.5707963268
  0
ELLIPSE
  5
4A8
100
AcDbEntity
  8
0
100
AcDbEllipse
 62
7
  6
CONTINUOUS
 10
1.3572765181
 20
22.3344902759
 30
0.0
 11
0.25
 21
-0.0
 31
0.0
 40
0.0524077793
 41
-3.1357748894
 42
-1.5707963268
  0
ELLIPSE
  5
4A9
100
AcDbEntity
  8
0
100
AcDbEllipse
 62
7
  6
CONTINUOUS
 10
3.7427234819
 20
22.3344902759
 30
0.0
 11
0.25
 21
0.0
 31
0.0
 40
0.0524077793
 41
-1.5707963268
 42
-0.0058177642
  0
ELLIPSE
  5
4AA
100
AcDbEntity
  8
0
100
AcDbEllipse
 62
7
  6
CONTINUOUS
 10
21.1427234819
 20
-22.3344902759
 30
0.0
 11
0.25
 21
0.0
 31
0.0
 40
0.0524077793
 41
0.0058177642
 42
1.5707963268
  0
ELLIPSE
  5
4AB
100
AcDbEntity
  8
0
100
AcDbEllipse
 62
7
  6
CONTINUOUS
 10
18.7572765181
 20
-22.3344902759
 30
0.0
 11
0.25
 21
0.0
 31
0.0
 40
0.0524077793
 41
1.5707963268
 42
3.1357748894
  0
ELLIPSE
  5
4AC
100
AcDbEntity
  8
0
100
AcDbEllipse
 62
7
  6
CONTINUOUS
 10
3.7427234819
 20
-22.3344902759
 30
0.0
 11
0.25
 21
0.0
 31
0.0
 40
0.0524077793
 41
0.0058177642
 42
1.5707963268
  0
ELLIPSE
  5
4AD
100
AcDbEntity
  8
0
100
AcDbEllipse
 62
7
  6
CONTINUOUS
 10
1.3572765181
 20
-22.3344902759
 30
0.0
 11
0.25
 21
-0.0
 31
0.0
 40
0.0524077793
 41
1.5707963268
 42
3.1357748894
  0
ELLIPSE
  5
4AE
100
AcDbEntity
  8
0
100
AcDbEllipse
 62
7
  6
CONTINUOUS
 10
21.8728684853
 20
-21.8207021581
 30
0.0
 11
-0.1582391023
 21
0.4751033573
 31
0.0
 40
0.9984778551
 41
-3.4626430032
 42
-1.8927600658
  0
ELLIPSE
  5
4AF
100
AcDbEntity
  8
0
100
AcDbEllipse
 62
7
  6
CONTINUOUS
 10
0.6271315147
 20
-21.8207021581
 30
0.0
 11
-0.1582391023
 21
-0.4751033573
 31
0.0
 40
0.9984778551
 41
-0.6578562559
 42
0.3210503496
  0
ELLIPSE
  5
4B0
100
AcDbEntity
  8
0
100
AcDbEllipse
 62
7
  6
CONTINUOUS
 10
0.6271315147
 20
21.8207021581
 30
0.0
 11
-0.1582391023
 21
0.4751033573
 31
0.0
 40
0.9984778551
 41
-0.3210503496
 42
0.6578562559
  0
ELLIPSE
  5
4B1
100
AcDbEntity
  8
0
100
AcDbEllipse
 62
7
  6
CONTINUOUS
 10
21.8728684853
 20
21.8207021581
 30
0.0
 11
0.1582391023
 21
0.4751033573
 31
0.0
 40
0.9984778551
 41
-1.2488325878
 42
0.3210503496
  0
ELLIPSE
  5
4B2
100
AcDbEntity
  8
RACCORDO
100
AcDbEllipse
 62
7
  6
CONTINUOUS
 10
-21.6498286038
 20
-21.5998286038
 30
0.0
 11
0.35379574
 21
0.35379574
 31
0.0
 40
0.999315002
 41
-3.9266482007
 42
-2.3565371065
  0
ELLIPSE
  5
4B3
100
AcDbEntity
  8
RACCORDO
100
AcDbEllipse
 62
7
  6
CONTINUOUS
 10
21.6498286038
 20
-21.5998286038
 30
0.0
 11
-0.35379574
 21
0.35379574
 31
0.0
 40
0.999315002
 41
-3.9266482006
 42
-2.3565371065
  0
ELLIPSE
  5
4B4
100
AcDbEntity
  8
RACCORDO
100
AcDbEllipse
 62
7
  6
CONTINUOUS
 10
21.6498286038
 20
21.5998286038
 30
0.0
 11
0.35379574
 21
0.35379574
 31
0.0
 40
0.999315002
 41
-0.7850555471
 42
0.7850555471
  0
ELLIPSE
  5
4B5
100
AcDbEntity
  8
RACCORDO
100
AcDbEllipse
 62
7
  6
CONTINUOUS
 10
-21.6498286038
 20
21.5998286038
 30
0.0
 11
0.35379574
 21
-0.35379574
 31
0.0
 40
0.999315002
 41
2.3565371065
 42
3.9266482006
  0
ELLIPSE
  5
4B6
100
AcDbEntity
  8
0
100
AcDbEllipse
 62
7
  6
CONTINUOUS
 10
32.410914417
 20
-23.15
 30
0.0
 11
85.9426996401
 21
0.0
 31
0.0
 40
0.0058178298
 41
-2.6791240519
 42
-2.5607560384
  0
ELLIPSE
  5
4B7
100
AcDbEntity
  8
0
100
AcDbEllipse
 62
7
  6
CONTINUOUS
 10
32.410914417
 20
-23.15
 30
0.0
 11
85.9426996401
 21
-0.0
 31
0.0
 40
0.0058178298
 41
2.5607560384
 42
2.6905658418
  0
ELLIPSE
  5
4B8
100
AcDbEntity
  8
0
100
AcDbEllipse
 62
7
  6
CONTINUOUS
 10
-33.4375152591
 20
22.0833543458
 30
0.0
 11
0.4998584972
 21
-0.0118946536
 31
0.0
 40
1.0
 41
-1.5295514826
 42
-0.6310036438
  0
ELLIPSE
  5
4B9
100
AcDbEntity
  8
0
100
AcDbEllipse
 62
7
  6
CONTINUOUS
 10
32.410914417
 20
23.15
 30
0.0
 11
85.9426996401
 21
-0.0
 31
0.0
 40
0.0058178298
 41
-2.6905658418
 42
-2.5607560384
  0
ELLIPSE
  5
4BA
100
AcDbEntity
  8
0
100
AcDbEllipse
 62
7
  6
CONTINUOUS
 10
32.410914417
 20
23.15
 30
0.0
 11
85.9426996401
 21
-0.0
 31
0.0
 40
0.0058178298
 41
2.5607560384
 42
2.6791240518
  0
ELLIPSE
  5
4BB
100
AcDbEntity
  8
0
100
AcDbEllipse
 62
7
  6
CONTINUOUS
 10
-33.4375152591
 20
-22.0833543458
 30
0.0
 11
0.4848287197
 21
-0.1222338436
 31
0.0
 40
1.0
 41
0.9017658799
 42
1.8003137187
  0
ENDSEC
  0
SECTION
  2
OBJECTS
  0
DICTIONARY
  5
C
100
AcDbDictionary
280
0
281
1
  3
ACAD_GROUP
350
D
  3
ACAD_MLINESTYLE
350
17
  3
ACAD_LAYOUT
350
1A
  3
ACAD_PLOTSETTINGS
350
19
  3
ACAD_PLOTSTYLENAME
350
E
  0
DICTIONARY
  5
D
102
{ACAD_REACTORS
330
C
102
}
100
AcDbDictionary
280
0
281
1
  0
ACDBDICTIONARYWDFLT
  5
E
102
{ACAD_REACTORS
330
C
102
}
100
AcDbDictionary
281
1
  3
Normal
350
F
100
AcDbDictionaryWithDefault
340
F
  0
DICTIONARY
  5
17
102
{ACAD_REACTORS
330
C
102
}
100
AcDbDictionary
280
0
281
1
  3
Standard
350
18
  0
DICTIONARY
  5
19
102
{ACAD_REACTORS
330
C
102
}
100
AcDbDictionary
281
1
  0
DICTIONARY
  5
1A
102
{ACAD_REACTORS
330
C
102
}
100
AcDbDictionary
281
1
  3
Model
350
4BC
  3
Layout1
350
4BD
  0
ACDBPLACEHOLDER
  5
F
102
{ACAD_REACTORS
330
E
102
}
  0
MLINESTYLE
  5
18
102
{ACAD_REACTORS
330
17
102
}
100
AcDbMlineStyle
  2
STANDARD
 70
0
  3

 62
256
 51
90.0
 52
90.0
 71
2
 49
0.5
 62
256
  6
BYLAYER
 49
-0.5
 62
256
  6
BYLAYER
  0
LAYOUT
  5
4BC
102
{ACAD_REACTORS
330
1A
102
}
100
AcDbPlotSettings
  1

  2
none_device
  4
ISO_A4_(297.00_x_210.00_MM)
  6

 40
0.0
 41
0.0
 42
0.0
 43
0.0
 44
297.0
 45
210.0
 46
0.0
 47
0.0
 48
0.0
 49
0.0
140
0.0
141
0.0
142
1.0
143
1.0
 70
1024
 72
1
 73
0
 74
0
  7

 75
0
147
1.0
148
0.0
149
0.0
100
AcDbLayout
  1
Model
 70
0
 71
0
 10
0.0
 20
0.0
 11
297.0
 21
210.0
 12
0.0
 22
0.0
 32
0.0
 14
0.0
 24
0.0
 34
0.0
 15
0.0
 25
0.0
 35
0.0
146
0.0
 13
0.0
 23
0.0
 33
0.0
 16
1.0
 26
0.0
 36
0.0
 17
0.0
 27
1.0
 37
0.0
 76
0
330
21A
345
0
346
0
  0
LAYOUT
  5
4BD
102
{ACAD_REACTORS
330
1A
102
}
100
AcDbPlotSettings
  1

  2
none_device
  4
ISO_A4_(297.00_x_210.00_MM)
  6

 40
0.0
 41
0.0
 42
0.0
 43
0.0
 44
297.0
 45
210.0
 46
0.0
 47
0.0
 48
0.0
 49
0.0
140
0.0
141
0.0
142
1.0
143
1.0
 70
0
 72
1
 73
0
 74
0
  7

 75
0
147
1.0
148
0.0
149
0.0
100
AcDbLayout
  1
Layout1
 70
0
 71
1
 10
0.0
 20
0.0
 11
297.0
 21
210.0
 12
0.0
 22
0.0
 32
0.0
 14
0.0
 24
0.0
 34
0.0
 15
0.0
 25
0.0
 35
0.0
146
0.0
 13
0.0
 23
0.0
 33
0.0
 16
1.0
 26
0.0
 36
0.0
 17
0.0
 27
1.0
 37
0.0
 76
0
330
21B
345
0
346
0
  0
ENDSEC
  0
EOF
