  0
SECTION
  2
HEADER
  9
$ACADVER
  1
AC1021
  9
$DWGCODEPAGE
  3
ANSI_1252
  9
$EXTMAX
 10
297.0
 20
210.0
 30
0.0
  9
$EXTMIN
 10
0.0
 20
0.0
 30
0.0
  9
$LIMMIN
 10
0.0
 20
0.0
  9
$LIMMAX
 10
297.0
 20
210.0
  9
$VIEWCTR
 10
148.5
 20
105.0
  9
$VIEWSIZE
 40
210.0
  9
$CLAYER
  8
0
  9
$LTSCALE
 40
16.335
  9
$CELTYPE
  6
BYLAYER
  9
$DIMSCALE
 40
1.0
  9
$DIMASZ
 40
3.0
  9
$DIMEXO
 40
0.5
  9
$DIMDLI
 40
11.286
  9
$DIMEXE
 40
1.5
  9
$DIMCEN
 40
2.673
  9
$DIMLFAC
 40
1.0
  9
$DIMBLK
  1
_FILLED
  9
$DIMALT
 70
0
  9
$DIMALTF
 40
25.4
  9
$DIMTXT
 40
3.0
  9
$DIMTOL
 70
1
  9
$DIMLIM
 70
0
  9
$DIMTFAC
 40
1.0
  9
$DIMTP
 40
0.01
  9
$DIMTM
 40
0.01
  9
$DIMGAP
 40
0.625
  9
$DIMDSEP
 70
44
  9
$AUNITS
 70
0
  9
$PDMODE
 70
3
  9
$PDSIZE
 40
3.0
  9
$HANDSEED
  5
51A
  9
$TILEMODE
 70
1
  9
$MEASUREMENT
 70
1
  9
$INSUNITS
 70
4
  0
ENDSEC
  0
SECTION
  2
CLASSES
  0
CLASS
  1
ACDBDICTIONARYWDFLT
  2
AcDbDictionaryWithDefault
  3
AutoCAD 2000
 90
0
 91
1
280
0
281
0
  0
CLASS
  1
ACDBPLACEHOLDER
  2
AcDbPlaceHolder
  3
AutoCAD 2000
 90
0
 91
1
280
0
281
0
  0
CLASS
  1
LAYOUT
  2
AcDbLayout
  3
AutoCAD 2000
 90
0
 91
0
280
0
281
0
  0
ENDSEC
  0
SECTION
  2
TABLES
  0
TABLE
  2
VPORT
  5
8
100
AcDbSymbolTable
 70
2
  0
VPORT
  5
1F4
100
AcDbSymbolTableRecord
100
AcDbViewportTableRecord
  2
*ACTIVE
 70
0
 10
0.0
 20
0.0
 11
1.0
 21
1.0
 12
148.5
 22
105.0
 13
0.0
 23
0.0
 14
1.0
 24
1.0
 15
0.0
 25
0.0
 16
0.0
 26
0.0
 36
1.0
 17
0.0
 27
0.0
 37
0.0
 40
210.0
 41
1.4142857143
 42
50.0
 43
0.0
 44
0.0
 50
0.0
 51
0.0
 71
0
 72
100
 73
1
 74
1
 75
0
 76
0
 77
0
 78
0
  0
ENDTAB
  0
TABLE
  2
LTYPE
  5
5
100
AcDbSymbolTable
 70
6
  0
LTYPE
  5
14
100
AcDbSymbolTableRecord
100
AcDbLinetypeTableRecord
  2
BYBLOCK
 70
0
  3

 72
65
 73
0
 40
0.0
  0
LTYPE
  5
15
100
AcDbSymbolTableRecord
100
AcDbLinetypeTableRecord
  2
BYLAYER
 70
0
  3

 72
65
 73
0
 40
0.0
  0
LTYPE
  5
16
100
AcDbSymbolTableRecord
100
AcDbLinetypeTableRecord
  2
CONTINUOUS
 70
64
  3
Solid line
 72
65
 73
0
 40
0.0
  0
LTYPE
  5
1F5
100
AcDbSymbolTableRecord
100
AcDbLinetypeTableRecord
  2
CENTER
 70
64
  3
____ _ ____ _ ____ _ ____ _ ____ _ ____ _ ____
 72
65
 73
4
 40
0.6
 49
0.375
 74
0
 49
-0.075
 74
0
 49
0.075
 74
0
 49
-0.075
 74
0
  0
LTYPE
  5
1F6
100
AcDbSymbolTableRecord
100
AcDbLinetypeTableRecord
  2
HIDDEN
 70
64
  3
- - - - - - - - - - - - - - - - - - - -
 72
65
 73
2
 40
0.2
 49
0.1
 74
0
 49
-0.1
 74
0
  0
LTYPE
  5
1F7
100
AcDbSymbolTableRecord
100
AcDbLinetypeTableRecord
  2
PHANTOM
 70
64
  3
_____ _ _ _____ _ _ _____ _ _ _____
 72
65
 73
6
 40
0.8
 49
0.45
 74
0
 49
-0.05
 74
0
 49
0.1
 74
0
 49
-0.05
 74
0
 49
0.1
 74
0
 49
-0.05
 74
0
  0
LTYPE
  5
1F8
100
AcDbSymbolTableRecord
100
AcDbLinetypeTableRecord
  2
DOT
 70
64
  3
. . . . . . . . . . . . . . . . . . . .
 72
65
 73
2
 40
0.2
 49
0.1
 74
0
 49
-0.1
 74
0
  0
LTYPE
  5
1F9
100
AcDbSymbolTableRecord
100
AcDbLinetypeTableRecord
  2
DASHED
 70
64
  3
- - - - - - - - - - - - - - - - - - - -
 72
65
 73
2
 40
0.2
 49
0.1
 74
0
 49
-0.1
 74
0
  0
ENDTAB
  0
TABLE
  2
LAYER
  5
2
100
AcDbSymbolTable
 70
36
  0
LAYER
  5
10
100
AcDbSymbolTableRecord
100
AcDbLayerTableRecord
  2
0
 70
0
 62
7
  6
CONTINUOUS
370
-3
390
F
  0
LAYER
  5
1FA
100
AcDbSymbolTableRecord
100
AcDbLayerTableRecord
  2
DEFAULT_1
 70
0
 62
7
  6
CENTER
370
-3
390
F
  0
LAYER
  5
1FB
100
AcDbSymbolTableRecord
100
AcDbLayerTableRecord
  2
DEFAULT_2
 70
0
 62
7
  6
HIDDEN
370
-3
390
F
  0
LAYER
  5
1FC
100
AcDbSymbolTableRecord
100
AcDbLayerTableRecord
  2
DEFAULT_3
 70
0
 62
7
  6
PHANTOM
370
-3
390
F
  0
LAYER
  5
1FD
100
AcDbSymbolTableRecord
100
AcDbLayerTableRecord
  2
ASSI
 70
0
 62
7
  6
CONTINUOUS
370
-3
390
F
  0
LAYER
  5
1FE
100
AcDbSymbolTableRecord
100
AcDbLayerTableRecord
  2
COORDINATE
 70
0
 62
7
  6
CONTINUOUS
370
-3
390
F
  0
LAYER
  5
1FF
100
AcDbSymbolTableRecord
100
AcDbLayerTableRecord
  2
COORD_ORIGINE
 70
0
 62
7
  6
CONTINUOUS
370
-3
390
F
  0
LAYER
  5
200
100
AcDbSymbolTableRecord
100
AcDbLayerTableRecord
  2
COPY_PUBLISH
 70
0
 62
7
  6
CONTINUOUS
370
-3
390
F
  0
LAYER
  5
201
100
AcDbSymbolTableRecord
100
AcDbLayerTableRecord
  2
COSMETIC
 70
0
 62
7
  6
CONTINUOUS
370
-3
390
F
  0
LAYER
  5
202
100
AcDbSymbolTableRecord
100
AcDbLayerTableRecord
  2
COSMETICI
 70
0
 62
7
  6
CONTINUOUS
370
-3
390
F
  0
LAYER
  5
203
100
AcDbSymbolTableRecord
100
AcDbLayerTableRecord
  2
CURVE
 70
0
 62
7
  6
CONTINUOUS
370
-3
390
F
  0
LAYER
  5
204
100
AcDbSymbolTableRecord
100
AcDbLayerTableRecord
  2
DRAFT
 70
0
 62
7
  6
CONTINUOUS
370
-3
390
F
  0
LAYER
  5
205
100
AcDbSymbolTableRecord
100
AcDbLayerTableRecord
  2
IMPORT
 70
0
 62
7
  6
CONTINUOUS
370
-3
390
F
  0
LAYER
  5
206
100
AcDbSymbolTableRecord
100
AcDbLayerTableRecord
  2
IMPORT_IGES
 70
0
 62
7
  6
CONTINUOUS
370
-3
390
F
  0
LAYER
  5
207
100
AcDbSymbolTableRecord
100
AcDbLayerTableRecord
  2
INTFCLR_11
 70
0
 62
7
  6
CONTINUOUS
370
-3
390
F
  0
LAYER
  5
208
100
AcDbSymbolTableRecord
100
AcDbLayerTableRecord
  2
INTF_1
 70
0
 62
7
  6
CONTINUOUS
370
-3
390
F
  0
LAYER
  5
209
100
AcDbSymbolTableRecord
100
AcDbLayerTableRecord
  2
INTF_2
 70
0
 62
7
  6
CONTINUOUS
370
-3
390
F
  0
LAYER
  5
20A
100
AcDbSymbolTableRecord
100
AcDbLayerTableRecord
  2
INTF_3
 70
0
 62
7
  6
CONTINUOUS
370
-3
390
F
  0
LAYER
  5
20B
100
AcDbSymbolTableRecord
100
AcDbLayerTableRecord
  2
INTF_MAGENTA
 70
0
 62
7
  6
CONTINUOUS
370
-3
390
F
  0
LAYER
  5
20C
100
AcDbSymbolTableRecord
100
AcDbLayerTableRecord
  2
NOTE
 70
0
 62
7
  6
CONTINUOUS
370
-3
390
F
  0
LAYER
  5
20D
100
AcDbSymbolTableRecord
100
AcDbLayerTableRecord
  2
PIANI
 70
0
 62
7
  6
CONTINUOUS
370
-3
390
F
  0
LAYER
  5
20E
100
AcDbSymbolTableRecord
100
AcDbLayerTableRecord
  2
PIANI_ORIGINE
 70
0
 62
7
  6
CONTINUOUS
370
-3
390
F
  0
LAYER
  5
20F
100
AcDbSymbolTableRecord
100
AcDbLayerTableRecord
  2
PIANI_RIFERIMENTO
 70
0
 62
7
  6
CONTINUOUS
370
-3
390
F
  0
LAYER
  5
210
100
AcDbSymbolTableRecord
100
AcDbLayerTableRecord
  2
PUNTI
 70
0
 62
7
  6
CONTINUOUS
370
-3
390
F
  0
LAYER
  5
211
100
AcDbSymbolTableRecord
100
AcDbLayerTableRecord
  2
RACCORDO
 70
0
 62
7
  6
CONTINUOUS
370
-3
390
F
  0
LAYER
  5
212
100
AcDbSymbolTableRecord
100
AcDbLayerTableRecord
  2
SIMBOLI
 70
0
 62
7
  6
CONTINUOUS
370
-3
390
F
  0
LAYER
  5
213
100
AcDbSymbolTableRecord
100
AcDbLayerTableRecord
  2
SMUSSO
 70
0
 62
7
  6
CONTINUOUS
370
-3
390
F
  0
LAYER
  5
214
100
AcDbSymbolTableRecord
100
AcDbLayerTableRecord
  2
SNAPLINE
 70
0
 62
7
  6
CONTINUOUS
370
-3
390
F
  0
LAYER
  5
215
100
AcDbSymbolTableRecord
100
AcDbLayerTableRecord
  2
STANDARD
 70
0
 62
7
  6
CONTINUOUS
370
-3
390
F
  0
LAYER
  5
216
100
AcDbSymbolTableRecord
100
AcDbLayerTableRecord
  2
SUPERFICI
 70
0
 62
7
  6
CONTINUOUS
370
-3
390
F
  0
LAYER
  5
217
100
AcDbSymbolTableRecord
100
AcDbLayerTableRecord
  2
TRASH
 70
0
 62
7
  6
CONTINUOUS
370
-3
390
F
  0
LAYER
  5
218
100
AcDbSymbolTableRecord
100
AcDbLayerTableRecord
  2
XSEC_DATUMS
 70
0
 62
7
  6
CONTINUOUS
370
-3
390
F
  0
LAYER
  5
219
100
AcDbSymbolTableRecord
100
AcDbLayerTableRecord
  2
___SHELL
 70
0
 62
7
  6
CONTINUOUS
370
-3
390
F
  0
ENDTAB
  0
TABLE
  2
STYLE
  5
3
100
AcDbSymbolTable
 70
1
  0
STYLE
  5
11
100
AcDbSymbolTableRecord
100
AcDbTextStyleTableRecord
  2
STANDARD
 70
0
 40
0.0
 41
0.8
 50
0.0
 71
0
 42
0.2
  3
txt
  4

  0
STYLE
  5
21A
100
AcDbSymbolTableRecord
100
AcDbTextStyleTableRecord
  2
TEXTSTYLE_1
 70
0
 40
0.0
 41
0.8
 50
0.0
 71
0
 42
0.2
  3
gdt
  4

  0
ENDTAB
  0
TABLE
  2
VIEW
  5
6
100
AcDbSymbolTable
 70
0
  0
ENDTAB
  0
TABLE
  2
UCS
  5
7
100
AcDbSymbolTable
 70
0
  0
ENDTAB
  0
TABLE
  2
APPID
  5
9
100
AcDbSymbolTable
 70
1
  0
APPID
  5
21B
100
AcDbSymbolTableRecord
100
AcDbRegAppTableRecord
  2
ACAD
 70
0
  0
ENDTAB
  0
TABLE
  2
BLOCK_RECORD
  5
1
100
AcDbSymbolTable
 70
0
  0
BLOCK_RECORD
  5
21C
100
AcDbSymbolTableRecord
100
AcDbBlockTableRecord
  2
*Model_Space
  0
BLOCK_RECORD
  5
21D
100
AcDbSymbolTableRecord
100
AcDbBlockTableRecord
  2
*Paper_Space
  0
BLOCK_RECORD
  5
21E
100
AcDbSymbolTableRecord
100
AcDbBlockTableRecord
  2
_FILLED
  0
BLOCK_RECORD
  5
21F
100
AcDbSymbolTableRecord
100
AcDbBlockTableRecord
  2
*D0
  0
BLOCK_RECORD
  5
220
100
AcDbSymbolTableRecord
100
AcDbBlockTableRecord
  2
*D1
  0
BLOCK_RECORD
  5
221
100
AcDbSymbolTableRecord
100
AcDbBlockTableRecord
  2
*D2
  0
BLOCK_RECORD
  5
222
100
AcDbSymbolTableRecord
100
AcDbBlockTableRecord
  2
*D3
  0
BLOCK_RECORD
  5
223
100
AcDbSymbolTableRecord
100
AcDbBlockTableRecord
  2
*D4
  0
ENDTAB
  0
TABLE
  2
DIMSTYLE
  5
A
100
AcDbSymbolTable
 70
1
100
AcDbDimStyleTable
 71
0
  0
DIMSTYLE
105
224
100
AcDbSymbolTableRecord
100
AcDbDimStyleTableRecord
  2
STANDARD
 70
0
  3

  4

 40
1.0
 41
3.0
 42
0.5
 43
0.38
 44
1.5
 45
0.0
 46
0.0
 47
0.01
 48
0.01
140
3.0
141
0.09
142
0.0
143
25.4
144
1.0
145
0.0
146
1.0
147
0.625
 71
1.0
 72
0.0
 73
0
 74
0
 75
0
 76
0
 77
1
 78
8
170
0
171
1
172
0
173
0
174
0
175
0
176
0
177
0
178
0
270
2
271
2
272
2
273
2
274
2
275
0
280
0
281
0
282
0
283
1
284
8
285
0
286
0
287
3
288
0
340
11
278
44
341
21E
342
21E
343
21E
344
21E
  0
DIMSTYLE
105
225
100
AcDbSymbolTableRecord
100
AcDbDimStyleTableRecord
  2
DIMSTYLE_1
 70
0
  3

  4

 40
1.0
 41
3.0
 42
0.5
 43
0.38
 44
1.5
 45
0.0
 46
0.0
 47
0.0
 48
0.0
140
3.0
141
0.09
142
0.0
143
25.4
144
1.0
145
0.0
146
1.0
147
0.75
 71
0.0
 72
0.0
 73
0
 74
0
 75
0
 76
0
 77
1
 78
8
170
0
171
1
172
0
173
0
174
0
175
0
176
0
177
0
178
0
270
2
271
2
272
2
273
2
274
2
275
0
280
0
281
0
282
0
283
1
284
8
285
0
286
0
287
3
288
0
340
11
278
44
341
21E
342
21E
343
21E
344
21E
  0
ENDTAB
  0
ENDSEC
  0
SECTION
  2
BLOCKS
  0
BLOCK
  5
20
100
AcDbEntity
  8
0
100
AcDbBlockBegin
  2
*Model_Space
 70
0
 10
0.0
 20
0.0
 30
0.0
  3
*Model_Space
  1

  0
ENDBLK
  5
21
100
AcDbEntity
  8
0
100
AcDbBlockEnd
  0
BLOCK
  5
1C
100
AcDbEntity
  8
0
100
AcDbBlockBegin
  2
*Paper_Space
 70
0
 10
0.0
 20
0.0
 30
0.0
  3
*Paper_Space
  1

  0
ENDBLK
  5
1D
100
AcDbEntity
  8
0
100
AcDbBlockEnd
  0
BLOCK
  5
226
100
AcDbEntity
  8
0
100
AcDbBlockBegin
  2
_FILLED
 70
64
 10
0.0
 20
0.0
  3
_FILLED
  1

  0
SOLID
  5
227
100
AcDbEntity
  8
0
  6
BYBLOCK
 62
0
100
AcDbTrace
 10
0.0
 20
0.0
 11
-1.0
 21
0.3166666667
 12
-1.0
 22
-0.3166666667
 13
-1.0
 23
-0.3166666667
  0
ENDBLK
  5
228
100
AcDbEntity
  8
0
  6
BYBLOCK
 62
0
100
AcDbBlockEnd
  0
BLOCK
  5
229
100
AcDbEntity
  8
0
100
AcDbBlockBegin
 62
7
  6
CONTINUOUS
  2
*D0
 70
65
 10
0.0
 20
0.0
  3
*D0
  1

  0
MTEXT
  5
22A
100
AcDbEntity
  8
0
100
AcDbMText
 62
7
  6
CONTINUOUS
  7
STANDARD
 71
2
 72
1
 10
-43.3871858035
 20
38.8445181231
 30
0.0
 11
1.0
 21
0.0
 31
0.0
 44
0.9
  1
11
 40
3.0
 41
5.1428571429
  0
LINE
  5
22B
100
AcDbEntity
  8
0
100
AcDbLine
 62
7
  6
CONTINUOUS
 10
-48.8871858035
 20
22.3941990932
 11
-48.8871858035
 21
36.5945181231
  0
LINE
  5
22C
100
AcDbEntity
  8
0
100
AcDbLine
 62
7
  6
CONTINUOUS
 10
-37.8871858035
 20
21.4
 11
-37.8871858035
 21
36.5945181231
  0
LINE
  5
22D
100
AcDbEntity
  8
0
100
AcDbLine
 62
7
  6
CONTINUOUS
 10
-48.8871858035
 20
35.0945181231
 11
-52.8871858035
 21
35.0945181231
  0
LINE
  5
22E
100
AcDbEntity
  8
0
100
AcDbLine
 62
7
  6
CONTINUOUS
 10
-52.8871858035
 20
35.0945181231
 11
-43.3871858035
 21
35.0945181231
  0
LINE
  5
22F
100
AcDbEntity
  8
0
100
AcDbLine
 62
7
  6
CONTINUOUS
 10
-37.8871858035
 20
35.0945181231
 11
-33.8871858035
 21
35.0945181231
  0
LINE
  5
230
100
AcDbEntity
  8
0
100
AcDbLine
 62
7
  6
CONTINUOUS
 10
-33.8871858035
 20
35.0945181231
 11
-43.3871858035
 21
35.0945181231
  0
INSERT
  5
231
100
AcDbEntity
  8
0
100
AcDbBlockReference
 62
7
  6
CONTINUOUS
  2
_FILLED
 10
-48.8871858035
 20
35.0945181231
 41
3.0
 42
3.0
 43
3.0
  0
INSERT
  5
232
100
AcDbEntity
  8
0
100
AcDbBlockReference
 62
7
  6
CONTINUOUS
  2
_FILLED
 10
-37.8871858035
 20
35.0945181231
 41
3.0
 42
3.0
 43
3.0
 50
180.0
  0
ENDBLK
  5
233
100
AcDbEntity
  8
0
  6
BYBLOCK
 62
0
100
AcDbBlockEnd
  0
BLOCK
  5
234
100
AcDbEntity
  8
0
100
AcDbBlockBegin
 62
7
  6
CONTINUOUS
  2
*D1
 70
65
 10
0.0
 20
0.0
  3
*D1
  1

  0
MTEXT
  5
235
100
AcDbEntity
  8
0
100
AcDbMText
 62
7
  6
CONTINUOUS
  7
STANDARD
 71
2
 72
1
 10
-49.0371944384
 20
48.8445181231
 30
0.0
 11
1.0
 21
0.0
 31
0.0
 44
0.9
  1
22,3
 40
3.0
 41
12.8571428571
  0
LINE
  5
236
100
AcDbEntity
  8
0
100
AcDbLine
 62
7
  6
CONTINUOUS
 10
-37.8871858035
 20
21.4
 11
-37.8871858035
 21
46.5945181231
  0
LINE
  5
237
100
AcDbEntity
  8
0
100
AcDbLine
 62
7
  6
CONTINUOUS
 10
-60.1872030733
 20
0.5
 11
-60.1872030733
 21
46.5945181231
  0
LINE
  5
238
100
AcDbEntity
  8
0
100
AcDbLine
 62
7
  6
CONTINUOUS
 10
-37.8871858035
 20
45.0945181231
 11
-49.0371944384
 21
45.0945181231
  0
LINE
  5
239
100
AcDbEntity
  8
0
100
AcDbLine
 62
7
  6
CONTINUOUS
 10
-60.1872030733
 20
45.0945181231
 11
-49.0371944384
 21
45.0945181231
  0
INSERT
  5
23A
100
AcDbEntity
  8
0
100
AcDbBlockReference
 62
7
  6
CONTINUOUS
  2
_FILLED
 10
-37.8871858035
 20
45.0945181231
 41
3.0
 42
3.0
 43
3.0
 50
0.0
  0
INSERT
  5
23B
100
AcDbEntity
  8
0
100
AcDbBlockReference
 62
7
  6
CONTINUOUS
  2
_FILLED
 10
-60.1872030733
 20
45.0945181231
 41
3.0
 42
3.0
 43
3.0
 50
180.0
  0
ENDBLK
  5
23C
100
AcDbEntity
  8
0
  6
BYBLOCK
 62
0
100
AcDbBlockEnd
  0
BLOCK
  5
23D
100
AcDbEntity
  8
0
100
AcDbBlockBegin
 62
7
  6
CONTINUOUS
  2
*D2
 70
65
 10
0.0
 20
0.0
  3
*D2
  1

  0
MTEXT
  5
23E
100
AcDbEntity
  8
0
100
AcDbMText
 62
7
  6
CONTINUOUS
  7
STANDARD
 71
2
 72
1
 10
0.1252181717
 20
38.8445181231
 30
0.0
 11
1.0
 21
0.0
 31
0.0
 44
0.9
  1
44,55
 40
3.0
 41
16.0714285714
  0
LINE
  5
23F
100
AcDbEntity
  8
0
100
AcDbLine
 62
7
  6
CONTINUOUS
 10
-22.15
 20
22.1001713375
 11
-22.15
 21
36.5945181231
  0
LINE
  5
240
100
AcDbEntity
  8
0
100
AcDbLine
 62
7
  6
CONTINUOUS
 10
22.4004363434
 20
22.400016923
 11
22.4004363434
 21
36.5945181231
  0
LINE
  5
241
100
AcDbEntity
  8
0
100
AcDbLine
 62
7
  6
CONTINUOUS
 10
-22.15
 20
35.0945181231
 11
0.1252181717
 21
35.0945181231
  0
LINE
  5
242
100
AcDbEntity
  8
0
100
AcDbLine
 62
7
  6
CONTINUOUS
 10
22.4004363434
 20
35.0945181231
 11
0.1252181717
 21
35.0945181231
  0
INSERT
  5
243
100
AcDbEntity
  8
0
100
AcDbBlockReference
 62
7
  6
CONTINUOUS
  2
_FILLED
 10
-22.15
 20
35.0945181231
 41
3.0
 42
3.0
 43
3.0
 50
180.0
  0
INSERT
  5
244
100
AcDbEntity
  8
0
100
AcDbBlockReference
 62
7
  6
CONTINUOUS
  2
_FILLED
 10
22.4004363434
 20
35.0945181231
 41
3.0
 42
3.0
 43
3.0
  0
ENDBLK
  5
245
100
AcDbEntity
  8
0
  6
BYBLOCK
 62
0
100
AcDbBlockEnd
  0
BLOCK
  5
246
100
AcDbEntity
  8
0
100
AcDbBlockBegin
 62
7
  6
CONTINUOUS
  2
*D3
 70
65
 10
0.0
 20
0.0
  3
*D3
  1

  0
MTEXT
  5
247
100
AcDbEntity
  8
0
100
AcDbMText
 62
7
  6
CONTINUOUS
  7
STANDARD
 71
2
 72
1
 10
41.3965950704
 20
-0.0
 30
0.0
 11
0.0
 21
1.0
 31
0.0
 44
0.9
  1
49
 40
3.0
 41
7.0714285714
  0
LINE
  5
248
100
AcDbEntity
  8
0
100
AcDbLine
 62
7
  6
CONTINUOUS
 10
21.6500042308
 20
24.5
 11
46.6465950704
 21
24.5
  0
LINE
  5
249
100
AcDbEntity
  8
0
100
AcDbLine
 62
7
  6
CONTINUOUS
 10
21.6500042308
 20
-24.5
 11
46.6465950704
 21
-24.5
  0
LINE
  5
24A
100
AcDbEntity
  8
0
100
AcDbLine
 62
7
  6
CONTINUOUS
 10
45.1465950704
 20
24.5
 11
45.1465950704
 21
-0.0
  0
LINE
  5
24B
100
AcDbEntity
  8
0
100
AcDbLine
 62
7
  6
CONTINUOUS
 10
45.1465950704
 20
-24.5
 11
45.1465950704
 21
-0.0
  0
INSERT
  5
24C
100
AcDbEntity
  8
0
100
AcDbBlockReference
 62
7
  6
CONTINUOUS
  2
_FILLED
 10
45.1465950704
 20
24.5
 41
3.0
 42
3.0
 43
3.0
 50
90.0
  0
INSERT
  5
24D
100
AcDbEntity
  8
0
100
AcDbBlockReference
 62
7
  6
CONTINUOUS
  2
_FILLED
 10
45.1465950704
 20
-24.5
 41
3.0
 42
3.0
 43
3.0
 50
270.0
  0
ENDBLK
  5
24E
100
AcDbEntity
  8
0
  6
BYBLOCK
 62
0
100
AcDbBlockEnd
  0
BLOCK
  5
24F
100
AcDbEntity
  8
0
100
AcDbBlockBegin
 62
7
  6
CONTINUOUS
  2
*D4
 70
65
 10
0.0
 20
0.0
  3
*D4
  1

  0
MTEXT
  5
250
100
AcDbEntity
  8
0
100
AcDbMText
 62
7
  6
CONTINUOUS
  7
STANDARD
 71
2
 72
1
 10
31.3965950704
 20
-0.0
 30
0.0
 11
0.0
 21
1.0
 31
0.0
 44
0.9
  1
44,2
 40
3.0
 41
13.1785714286
  0
LINE
  5
251
100
AcDbEntity
  8
0
100
AcDbLine
 62
7
  6
CONTINUOUS
 10
22.1501713375
 20
22.1
 11
36.6465950704
 21
22.1
  0
LINE
  5
252
100
AcDbEntity
  8
0
100
AcDbLine
 62
7
  6
CONTINUOUS
 10
22.1501713375
 20
-22.1
 11
36.6465950704
 21
-22.1
  0
LINE
  5
253
100
AcDbEntity
  8
0
100
AcDbLine
 62
7
  6
CONTINUOUS
 10
35.1465950704
 20
22.1
 11
35.1465950704
 21
-0.0
  0
LINE
  5
254
100
AcDbEntity
  8
0
100
AcDbLine
 62
7
  6
CONTINUOUS
 10
35.1465950704
 20
-22.1
 11
35.1465950704
 21
-0.0
  0
INSERT
  5
255
100
AcDbEntity
  8
0
100
AcDbBlockReference
 62
7
  6
CONTINUOUS
  2
_FILLED
 10
35.1465950704
 20
22.1
 41
3.0
 42
3.0
 43
3.0
 50
90.0
  0
INSERT
  5
256
100
AcDbEntity
  8
0
100
AcDbBlockReference
 62
7
  6
CONTINUOUS
  2
_FILLED
 10
35.1465950704
 20
-22.1
 41
3.0
 42
3.0
 43
3.0
 50
270.0
  0
ENDBLK
  5
257
100
AcDbEntity
  8
0
  6
BYBLOCK
 62
0
100
AcDbBlockEnd
  0
ENDSEC
  0
SECTION
  2
ENTITIES
  0
DIMENSION
  5
258
100
AcDbEntity
  8
0
100
AcDbDimension
 62
7
  6
CONTINUOUS
  2
*D0
 10
-37.8871858035
 20
35.0945181231
 11
-43.8157570496
 21
35.0945181231
 70
160
 71
2
 42
11.0
  3
DIMSTYLE_1
100
AcDbAlignedDimension
 13
-48.8871858035
 23
21.8941990932
 14
-37.8871858035
 24
20.9
100
AcDbRotatedDimension
  0
DIMENSION
  5
259
100
AcDbEntity
  8
0
100
AcDbDimension
 62
7
  6
CONTINUOUS
  2
*D1
 10
-60.1872030733
 20
45.0945181231
 11
-49.4657655716
 21
45.0945181231
 70
160
 71
2
 42
22.3000172699
  3
DIMSTYLE_1
100
AcDbAlignedDimension
 13
-37.8871858035
 23
20.9
 14
-60.1872030733
 24
-0.0
 50
180.0
100
AcDbRotatedDimension
  0
DIMENSION
  5
25A
100
AcDbEntity
  8
0
100
AcDbDimension
 62
7
  6
CONTINUOUS
  2
*D2
 10
22.4004363434
 20
35.0945181231
 11
-0.3033532434
 21
35.0945181231
 70
160
 71
2
 42
44.5504363434
  3
DIMSTYLE_1
100
AcDbAlignedDimension
 13
-22.15
 23
21.6001713375
 14
22.4004363434
 24
21.900016923
100
AcDbRotatedDimension
  0
DIMENSION
  5
25B
100
AcDbEntity
  8
0
100
AcDbDimension
 62
7
  6
CONTINUOUS
  2
*D3
 10
45.1465950704
 20
-24.5
 11
45.1465950704
 21
-0.4285697071
 70
160
 71
2
 42
49.0
  3
DIMSTYLE_1
100
AcDbAlignedDimension
 13
21.1500042308
 23
24.5
 14
21.1500042308
 24
-24.5
 50
270.0
100
AcDbRotatedDimension
  0
DIMENSION
  5
25C
100
AcDbEntity
  8
0
100
AcDbDimension
 62
7
  6
CONTINUOUS
  2
*D4
 10
35.1465950704
 20
-22.1
 11
35.1465950704
 21
-0.4285719757
 70
160
 71
2
 42
44.2
  3
DIMSTYLE_1
100
AcDbAlignedDimension
 13
21.6501713375
 23
22.1
 14
21.6501713375
 24
-22.1
 50
270.0
100
AcDbRotatedDimension
  0
LINE
  5
25D
100
AcDbEntity
  8
0
100
AcDbLine
 62
7
  6
CONTINUOUS
 10
22.0287444328
 20
-22.3829850084
 11
22.0106003307
 21
-22.3874863612
  0
LINE
  5
25E
100
AcDbEntity
  8
0
100
AcDbLine
 62
7
  6
CONTINUOUS
 10
22.0116466326
 20
-22.3874774628
 11
22.0298106129
 21
-22.3829728533
  0
LINE
  5
25F
100
AcDbEntity
  8
0
100
AcDbLine
 62
7
  6
CONTINUOUS
 10
22.0116466326
 20
-22.3874774628
 11
21.9922605054
 21
-22.3913028363
  0
LINE
  5
260
100
AcDbEntity
  8
0
100
AcDbLine
 62
7
  6
CONTINUOUS
 10
21.9933216825
 20
-22.391296686
 11
21.9737539988
 21
-22.3944392873
  0
LINE
  5
261
100
AcDbEntity
  8
0
100
AcDbLine
 62
7
  6
CONTINUOUS
 10
21.9552548208
 20
-22.3968789096
 11
21.9748302154
 21
-22.3944353938
  0
LWPOLYLINE
  5
262
100
AcDbEntity
  8
0
100
AcDbPolyline
 62
7
  6
CONTINUOUS
 90
33
 70
0
 10
10.0674313393
 20
-23.99923891
 10
10.0761055151
 20
-23.9982889069
 10
10.084729991
 20
-23.9969614365
 10
10.0932883498
 20
-23.9952590264
 10
10.1017643002
 20
-23.9931849183
 10
10.1101417076
 20
-23.9907430608
 10
10.1184046251
 20
-23.9879381028
 10
10.1265373238
 20
-23.9847753849
 10
10.1345243226
 20
-23.9812609278
 10
10.142350418
 20
-23.9774014221
 10
10.1500007124
 20
-23.973204216
 10
10.1574606433
 20
-23.9686772994
 10
10.1647160107
 20
-23.96382929
 10
10.1717530036
 20
-23.9586694178
 10
10.1785582271
 20
-23.9532075051
 10
10.1851187275
 20
-23.9474539493
 10
10.1914220169
 20
-23.9414197042
 10
10.1974560971
 20
-23.9351162564
 10
10.2032094825
 20
-23.928555605
 10
10.2086712217
 20
-23.92175024
 10
10.2138309187
 20
-23.9147131159
 10
10.2186787524
 20
-23.9074576282
 10
10.2232054955
 20
-23.8999975893
 10
10.2274025317
 20
-23.8923471996
 10
10.2312618726
 20
-23.8845210219
 10
10.2347761726
 20
-23.8765339547
 10
10.2379387427
 20
-23.8684012014
 10
10.2407435636
 20
-23.8601382427
 10
10.2431852971
 20
-23.8517608084
 10
10.2452592959
 20
-23.8432848447
 10
10.2469616128
 20
-23.8347264854
 10
10.2482890083
 20
-23.8261020222
 10
10.249238956
 20
-23.8174278719
  0
LINE
  5
263
100
AcDbEntity
  8
0
100
AcDbLine
 62
7
  6
CONTINUOUS
 10
21.9368209747
 20
-22.3986161017
 11
21.956242785
 21
-22.3968767616
  0
LINE
  5
264
100
AcDbEntity
  8
0
100
AcDbLine
 62
7
  6
CONTINUOUS
 10
21.9183944573
 20
-22.3996564652
 11
21.9375829094
 21
-22.3986151811
  0
LWPOLYLINE
  5
265
100
AcDbEntity
  8
ASSI
100
AcDbPolyline
 62
253
  6
CONTINUOUS
 90
16
 70
0
 10
21.5292680107
 20
-21.9790966731
 10
21.5814923419
 20
-21.9763250857
 10
21.6331449058
 20
-21.9681122503
 10
21.6836602691
 20
-21.9545480944
 10
21.7324854666
 20
-21.9357811179
 10
21.7790860063
 20
-21.9120167849
 10
21.8229517275
 20
-21.8835152902
 10
21.8636024543
 20
-21.850588673
 10
21.9005932272
 20
-21.813597397
 10
21.9335191358
 20
-21.7729464364
 10
21.9620197811
 20
-21.72908082
 10
21.9857832239
 20
-21.6824807413
 10
22.0045493816
 20
-21.6336563136
 10
22.0181128695
 20
-21.5831420004
 10
22.0263252522
 20
-21.5314907666
 10
22.0290966731
 20
-21.4792680107
  0
LWPOLYLINE
  5
266
100
AcDbEntity
  8
0
100
AcDbPolyline
 62
7
  6
CONTINUOUS
 90
33
 70
0
 10
10.05
 20
-23.9982478817
 10
10.0595177689
 20
-23.9980212874
 10
10.0690139853
 20
-23.9973420164
 10
10.0784671306
 20
-23.996211606
 10
10.0878557901
 20
-23.9946326143
 10
10.0971586822
 20
-23.992608618
 10
10.1063547081
 20
-23.9901442066
 10
10.1154230243
 20
-23.9872449671
 10
10.1243430874
 20
-23.9839174684
 10
10.1330946827
 20
-23.9801692522
 10
10.141657981
 20
-23.976008812
 10
10.1500135766
 20
-23.9714455769
 10
10.1581425291
 20
-23.9664898927
 10
10.1660264176
 20
-23.961152992
 10
10.1736473808
 20
-23.9554469688
 10
10.1809881503
 20
-23.9493847549
 10
10.1880320988
 20
-23.9429800842
 10
10.1947632611
 20
-23.9362474753
 10
10.2011663717
 20
-23.9292022024
 10
10.2072269084
 20
-23.9218602553
 10
10.212931162
 20
-23.9142382532
 10
10.2182662456
 20
-23.9063534174
 10
10.223220111
 20
-23.8982235369
 10
10.2277814795
 20
-23.8898671026
 10
10.2319399301
 20
-23.8813032282
 10
10.2356860161
 20
-23.8725514452
 10
10.2390113298
 20
-23.8636314815
 10
10.24190841
 20
-23.8545633862
 10
10.2443710508
 20
-23.8453662265
 10
10.2463931735
 20
-23.8360622836
 10
10.2479695714
 20
-23.8266769845
 10
10.249097153
 20
-23.817233139
 10
10.2497742648
 20
-23.8077507432
  0
LWPOLYLINE
  5
267
100
AcDbEntity
  8
0
100
AcDbPolyline
 62
7
  6
CONTINUOUS
 90
3
 70
0
 10
10.05
 20
-24.0
 10
10.0587239759
 20
-23.9998096367
 10
10.0674313393
 20
-23.99923891
  0
LINE
  5
268
100
AcDbEntity
  8
0
100
AcDbLine
 62
7
  6
CONTINUOUS
 10
21.8999752685
 20
-22.4
 11
21.9188270706
 21
-22.3996562606
  0
LWPOLYLINE
  5
269
100
AcDbEntity
  8
0
100
AcDbPolyline
 62
7
  6
CONTINUOUS
 90
46
 70
0
 10
18.7572765181
 20
-23.1226497308
 10
18.7477548078
 20
-23.122789871
 10
18.7382612279
 20
-23.1231350796
 10
18.72880942
 20
-23.1236853565
 10
18.7194002723
 20
-23.124445448
 10
18.710059835
 20
-23.1254106079
 10
18.7008384812
 20
-23.1265665975
 10
18.6917611052
 20
-23.1279138384
 10
18.6828257477
 20
-23.129451909
 10
18.6740410274
 20
-23.1311653069
 10
18.6654172855
 20
-23.1330543018
 10
18.6569642137
 20
-23.1351186239
 10
18.6486888322
 20
-23.1373419612
 10
18.6405999915
 20
-23.1397244588
 10
18.6327059209
 20
-23.1422659715
 10
18.6250121704
 20
-23.1449497513
 10
18.6175261767
 20
-23.1477758427
 10
18.6102547994
 20
-23.1507442011
 10
18.6032022797
 20
-23.153837946
 10
18.5963747203
 20
-23.1570570531
 10
18.5897777311
 20
-23.1604015466
 10
18.5834144623
 20
-23.1638546185
 10
18.5772897886
 20
-23.1674162006
 10
18.5714081666
 20
-23.1710863611
 10
18.5657718473
 20
-23.174848497
 10
18.5603845799
 20
-23.1787025133
 10
18.5552497557
 20
-23.1826485049
 10
18.5503688747
 20
-23.1866701532
 10
18.5457446542
 20
-23.1907673474
 10
18.5413794967
 20
-23.1949401982
 10
18.5372742531
 20
-23.19917272
 10
18.5334306904
 20
-23.20346479
 10
18.5298502871
 20
-23.2078165308
 10
18.5265333048
 20
-23.2122123248
 10
18.5234806282
 20
-23.2166520374
 10
18.5206928681
 20
-23.2211358032
 10
18.5181697239
 20
-23.2256484084
 10
18.515911256
 20
-23.2301897017
 10
18.513917257
 20
-23.2347598345
 10
18.5121868671
 20
-23.2393440468
 10
18.5107193734
 20
-23.2439421659
 10
18.5095137977
 20
-23.2485543646
 10
18.5085687189
 20
-23.2531664013
 10
18.5078826705
 20
-23.2577735289
 10
18.5074540049
 20
-23.2623804945
 10
18.5072807489
 20
-23.2669872981
  0
LINE
  5
26A
100
AcDbEntity
  8
0
100
AcDbLine
 62
7
  6
CONTINUOUS
 10
1.3499957692
 20
-24.5
 11
3.7500042308
 21
-24.5
  0
LINE
  5
26B
100
AcDbEntity
  8
0
100
AcDbLine
 62
7
  6
CONTINUOUS
 10
18.7499957692
 20
-24.5
 11
21.1500042308
 21
-24.5
  0
LINE
  5
26C
100
AcDbEntity
  8
0
100
AcDbLine
 62
253
  6
CONTINUOUS
 10
1.3630943479
 20
-24.4869014213
 11
3.7369056521
 21
-24.4869014213
  0
LINE
  5
26D
100
AcDbEntity
  8
0
100
AcDbLine
 62
253
  6
CONTINUOUS
 10
18.7630943479
 20
-24.4869014213
 11
21.1369056521
 21
-24.4869014213
  0
LINE
  5
26E
100
AcDbEntity
  8
0
100
AcDbLine
 62
253
  6
CONTINUOUS
 10
1.1130985787
 20
-24.2369056521
 11
3.9869014213
 21
-24.2369056521
  0
LINE
  5
26F
100
AcDbEntity
  8
0
100
AcDbLine
 62
253
  6
CONTINUOUS
 10
18.5130985787
 20
-24.2369056521
 11
21.3869014213
 21
-24.2369056521
  0
LINE
  5
270
100
AcDbEntity
  8
0
100
AcDbLine
 62
7
  6
CONTINUOUS
 10
15.7
 20
-24.0
 11
12.45
 21
-24.0
  0
LINE
  5
271
100
AcDbEntity
  8
0
100
AcDbLine
 62
7
  6
CONTINUOUS
 10
10.05
 20
-24.0
 11
6.8
 21
-24.0
  0
LINE
  5
272
100
AcDbEntity
  8
0
100
AcDbLine
 62
253
  6
CONTINUOUS
 10
7.75
 20
-23.9982478817
 11
10.05
 21
-23.9982478817
  0
LINE
  5
273
100
AcDbEntity
  8
0
100
AcDbLine
 62
253
  6
CONTINUOUS
 10
12.45
 20
-23.9982478817
 11
14.75
 21
-23.9982478817
  0
LINE
  5
274
100
AcDbEntity
  8
0
100
AcDbLine
 62
7
  6
CONTINUOUS
 10
15.6912732553
 20
-23.9912732553
 11
14.75
 21
-23.9912732553
  0
LINE
  5
275
100
AcDbEntity
  8
0
100
AcDbLine
 62
7
  6
CONTINUOUS
 10
7.75
 20
-23.9912732553
 11
6.8087267447
 21
-23.9912732553
  0
LINE
  5
276
100
AcDbEntity
  8
0
100
AcDbLine
 62
253
  6
CONTINUOUS
 10
1.1130985787
 20
-23.8443375673
 11
3.9869014213
 21
-23.8443375673
  0
LINE
  5
277
100
AcDbEntity
  8
0
100
AcDbLine
 62
253
  6
CONTINUOUS
 10
18.5130985787
 20
-23.8443375673
 11
21.3869014213
 21
-23.8443375673
  0
LINE
  5
278
100
AcDbEntity
  8
0
100
AcDbLine
 62
253
  6
CONTINUOUS
 10
7.75
 20
-23.7982512664
 11
10.25
 21
-23.7982512664
  0
LINE
  5
279
100
AcDbEntity
  8
0
100
AcDbLine
 62
253
  6
CONTINUOUS
 10
12.25
 20
-23.7982512664
 11
14.75
 21
-23.7982512664
  0
LINE
  5
27A
100
AcDbEntity
  8
0
100
AcDbLine
 62
253
  6
CONTINUOUS
 10
21.1369056521
 20
-23.6278312164
 11
18.7630943479
 21
-23.6278312164
  0
LINE
  5
27B
100
AcDbEntity
  8
0
100
AcDbLine
 62
253
  6
CONTINUOUS
 10
3.7369056521
 20
-23.6278312164
 11
1.3630943479
 21
-23.6278312164
  0
LINE
  5
27C
100
AcDbEntity
  8
0
100
AcDbLine
 62
7
  6
CONTINUOUS
 10
21.1427234819
 20
-23.1226497308
 11
18.7572765181
 21
-23.1226497308
  0
LINE
  5
27D
100
AcDbEntity
  8
0
100
AcDbLine
 62
7
  6
CONTINUOUS
 10
1.3572765181
 20
-23.1226497308
 11
3.7427234819
 21
-23.1226497308
  0
LWPOLYLINE
  5
27E
100
AcDbEntity
  8
0
100
AcDbPolyline
 62
7
  6
CONTINUOUS
 90
36
 70
0
 10
12.45
 20
-24.0
 10
12.4412760241
 20
-23.9998096367
 10
12.4325686607
 20
-23.99923891
 10
12.4238944849
 20
-23.9982889069
 10
12.415270009
 20
-23.9969614365
 10
12.4067116502
 20
-23.9952590264
 10
12.3982356998
 20
-23.9931849183
 10
12.3898582924
 20
-23.9907430608
 10
12.3815953749
 20
-23.9879381028
 10
12.3734626762
 20
-23.9847753849
 10
12.3654756774
 20
-23.9812609278
 10
12.357649582
 20
-23.9774014221
 10
12.3499992876
 20
-23.973204216
 10
12.3425393567
 20
-23.9686772994
 10
12.3352839893
 20
-23.96382929
 10
12.3282469964
 20
-23.9586694178
 10
12.3214417729
 20
-23.9532075051
 10
12.3148812725
 20
-23.9474539493
 10
12.3085779831
 20
-23.9414197042
 10
12.3025439029
 20
-23.9351162564
 10
12.2967905175
 20
-23.928555605
 10
12.2913287783
 20
-23.92175024
 10
12.2861690813
 20
-23.9147131159
 10
12.2813212476
 20
-23.9074576282
 10
12.2767945045
 20
-23.8999975893
 10
12.2725974683
 20
-23.8923471996
 10
12.2687381274
 20
-23.8845210219
 10
12.2652238274
 20
-23.8765339547
 10
12.2620612573
 20
-23.8684012014
 10
12.2592564364
 20
-23.8601382427
 10
12.2568147029
 20
-23.8517608084
 10
12.2547407041
 20
-23.8432848447
 10
12.2530383872
 20
-23.8347264854
 10
12.2517109917
 20
-23.8261020222
 10
12.250761044
 20
-23.8174278719
 10
12.2501903515
 20
-23.8087205449
  0
LWPOLYLINE
  5
27F
100
AcDbEntity
  8
0
100
AcDbPolyline
 62
7
  6
CONTINUOUS
 90
34
 70
0
 10
1.3499957692
 20
-24.5
 10
1.338100484
 20
-24.4997168498
 10
1.3262321444
 20
-24.4988680342
 10
1.3144176339
 20
-24.4974554741
 10
1.3026837125
 20
-24.4954823677
 10
1.2910569612
 20
-24.4929531817
 10
1.279563721
 20
-24.4898736417
 10
1.2682300262
 20
-24.4862507213
 10
1.2570815507
 20
-24.4820926258
 10
1.2461435537
 20
-24.4774087722
 10
1.2354408124
 20
-24.4722097688
 10
1.2249975717
 20
-24.4665073916
 10
1.2148374941
 20
-24.4603145581
 10
1.2049835949
 20
-24.4536452955
 10
1.1954581962
 20
-24.4465147107
 10
1.1862828809
 20
-24.4389389589
 10
1.1774784339
 20
-24.4309352005
 10
1.1690647995
 20
-24.4225215661
 10
1.1610610411
 20
-24.4137171191
 10
1.1534852893
 20
-24.4045418038
 10
1.1463547045
 20
-24.3950164051
 10
1.1396854419
 20
-24.3851625059
 10
1.1334926084
 20
-24.3750024283
 10
1.1277902312
 20
-24.3645591876
 10
1.1225912278
 20
-24.3538564463
 10
1.1179073742
 20
-24.3429184493
 10
1.1137492787
 20
-24.3317699738
 10
1.1101263583
 20
-24.320436279
 10
1.1070468183
 20
-24.3089430388
 10
1.1045176323
 20
-24.2973162875
 10
1.1025445259
 20
-24.2855823661
 10
1.1011319658
 20
-24.2737678556
 10
1.1002831502
 20
-24.261899516
 10
1.1
 20
-24.2500042308
  0
LWPOLYLINE
  5
280
100
AcDbEntity
  8
0
100
AcDbPolyline
 62
253
  6
CONTINUOUS
 90
34
 70
0
 10
1.3630943479
 20
-24.4869014213
 10
1.3512188764
 20
-24.4866188016
 10
1.3393651338
 20
-24.4857718998
 10
1.3275599583
 20
-24.4843619039
 10
1.3158284637
 20
-24.4823909579
 10
1.3041990284
 20
-24.479862968
 10
1.2927030628
 20
-24.4767843893
 10
1.2813682977
 20
-24.4731627796
 10
1.2702186857
 20
-24.4690059252
 10
1.2592792846
 20
-24.4643231516
 10
1.2485747498
 20
-24.4591249663
 10
1.2381294963
 20
-24.4534231778
 10
1.2279674207
 20
-24.4472308154
 10
1.218111636
 20
-24.4405619782
 10
1.2085843746
 20
-24.4334317248
 10
1.1994071613
 20
-24.4258561639
 10
1.1906007697
 20
-24.4178524323
 10
1.1821851835
 20
-24.4094386807
 10
1.1741794893
 20
-24.4006339852
 10
1.1666018328
 20
-24.3914582982
 10
1.1594693818
 20
-24.381932404
 10
1.1527983017
 20
-24.3720778879
 10
1.1466037094
 20
-24.3619170757
 10
1.1408996441
 20
-24.3514729905
 10
1.1356990365
 20
-24.340769304
 10
1.1310136722
 20
-24.3298302705
 10
1.1268541679
 20
-24.3186806742
 10
1.1232299507
 20
-24.3073457817
 10
1.1201492321
 20
-24.2958512706
 10
1.1176189951
 20
-24.2842231913
 10
1.1156449765
 20
-24.2724879116
 10
1.1142316477
 20
-24.2606720293
 10
1.1133822076
 20
-24.248802311
 10
1.1130985787
 20
-24.2369056521
  0
LWPOLYLINE
  5
281
100
AcDbEntity
  8
0
100
AcDbPolyline
 62
7
  6
CONTINUOUS
 90
34
 70
0
 10
18.7499957692
 20
-24.5
 10
18.738100484
 20
-24.4997168498
 10
18.7262321444
 20
-24.4988680342
 10
18.7144176339
 20
-24.4974554741
 10
18.7026837125
 20
-24.4954823677
 10
18.6910569612
 20
-24.4929531817
 10
18.679563721
 20
-24.4898736417
 10
18.6682300262
 20
-24.4862507213
 10
18.6570815507
 20
-24.4820926258
 10
18.6461435537
 20
-24.4774087722
 10
18.6354408124
 20
-24.4722097688
 10
18.6249975717
 20
-24.4665073916
 10
18.6148374941
 20
-24.4603145581
 10
18.6049835949
 20
-24.4536452955
 10
18.5954581962
 20
-24.4465147107
 10
18.5862828809
 20
-24.4389389589
 10
18.5774784339
 20
-24.4309352005
 10
18.5690647995
 20
-24.4225215661
 10
18.5610610411
 20
-24.4137171191
 10
18.5534852893
 20
-24.4045418038
 10
18.5463547045
 20
-24.3950164051
 10
18.5396854419
 20
-24.3851625059
 10
18.5334926084
 20
-24.3750024283
 10
18.5277902312
 20
-24.3645591876
 10
18.5225912278
 20
-24.3538564463
 10
18.5179073742
 20
-24.3429184493
 10
18.5137492787
 20
-24.3317699738
 10
18.5101263583
 20
-24.320436279
 10
18.5070468183
 20
-24.3089430388
 10
18.5045176323
 20
-24.2973162875
 10
18.5025445259
 20
-24.2855823661
 10
18.5011319658
 20
-24.2737678556
 10
18.5002831502
 20
-24.261899516
 10
18.5
 20
-24.2500042308
  0
LWPOLYLINE
  5
282
100
AcDbEntity
  8
0
100
AcDbPolyline
 62
253
  6
CONTINUOUS
 90
34
 70
0
 10
18.7630943479
 20
-24.4869014213
 10
18.7511993264
 20
-24.4866178705
 10
18.7393312497
 20
-24.4857686655
 10
18.7275170018
 20
-24.4843557301
 10
18.7157833446
 20
-24.4823822649
 10
18.7041568574
 20
-24.4798527401
 10
18.6926638767
 20
-24.4767728857
 10
18.6813304369
 20
-24.4731496783
 10
18.6701822107
 20
-24.4689913253
 10
18.6592444513
 20
-24.4643072462
 10
18.6485419351
 20
-24.4591080515
 10
18.6380989058
 20
-24.4534055187
 10
18.6279390193
 20
-24.4472125651
 10
18.6180852898
 20
-24.4405432193
 10
18.6085600383
 20
-24.4334125887
 10
18.5993848416
 20
-24.4258368259
 10
18.5905804837
 20
-24.4178330917
 10
18.5821669083
 20
-24.4094195163
 10
18.5741631741
 20
-24.4006151584
 10
18.5665874113
 20
-24.3914399617
 10
18.5594567807
 20
-24.3819147102
 10
18.5527874349
 20
-24.3720609807
 10
18.5465944813
 20
-24.3619010942
 10
18.5408919485
 20
-24.3514580649
 10
18.5356927538
 20
-24.3407555487
 10
18.5310086747
 20
-24.3298177893
 10
18.5268503217
 20
-24.3186695631
 10
18.5232271143
 20
-24.3073361233
 10
18.5201472599
 20
-24.2958431426
 10
18.5176177351
 20
-24.2842166554
 10
18.5156442699
 20
-24.2724829982
 10
18.5142313345
 20
-24.2606687503
 10
18.5133821295
 20
-24.2488006736
 10
18.5130985787
 20
-24.2369056521
  0
LWPOLYLINE
  5
283
100
AcDbEntity
  8
0
100
AcDbPolyline
 62
253
  6
CONTINUOUS
 90
33
 70
0
 10
12.45
 20
-23.9982478817
 10
12.4404836168
 20
-23.9980213534
 10
12.4309887913
 20
-23.9973422816
 10
12.4215370323
 20
-23.9962122046
 10
12.4121497511
 20
-23.9946336824
 10
12.4028482129
 20
-23.9926102908
 10
12.3936534886
 20
-23.9901466136
 10
12.3845864073
 20
-23.9872482316
 10
12.3756675089
 20
-23.9839217108
 10
12.3669169974
 20
-23.9801745867
 10
12.3583546957
 20
-23.9760153477
 10
12.35
 20
-23.971453416
 10
12.3418718365
 20
-23.9664991256
 10
12.3339886181
 20
-23.9611636997
 10
12.3263682028
 20
-23.9554592248
 10
12.3190278532
 20
-23.9493986233
 10
12.3119841977
 20
-23.9429956244
 10
12.3052531924
 20
-23.936264733
 10
12.2988500851
 20
-23.9292211967
 10
12.2927893811
 20
-23.9218809714
 10
12.2870848096
 20
-23.914260685
 10
12.2817492934
 20
-23.9063776
 10
12.2767949192
 20
-23.8982495741
 10
12.2722329103
 20
-23.8898950198
 10
12.2680736009
 20
-23.8813328629
 10
12.2643264134
 20
-23.8725824996
 10
12.2609998363
 20
-23.863663752
 10
12.2581014053
 20
-23.8545968242
 10
12.2556376863
 20
-23.8454022555
 10
12.2536142605
 20
-23.8361008747
 10
12.2520357116
 20
-23.8267137523
 10
12.2509056155
 20
-23.8172621533
 10
12.2502265322
 20
-23.8077674885
  0
LWPOLYLINE
  5
284
100
AcDbEntity
  8
ASSI
100
AcDbPolyline
 62
253
  6
CONTINUOUS
 90
16
 70
0
 10
-21.5292680061
 20
-21.9790966686
 10
-21.5814916322
 20
-21.9763251557
 10
-21.6331435839
 20
-21.9681125267
 10
-21.6836584449
 20
-21.9545486824
 10
-21.732483246
 20
-21.9357821014
 10
-21.7790835188
 20
-21.9120182154
 10
-21.8229491457
 20
-21.8835171595
 10
-21.8635999447
 20
-21.850590925
 10
-21.9005909253
 20
-21.8135999444
 10
-21.9335171597
 20
-21.7729491454
 10
-21.9620182155
 20
-21.7290835184
 10
-21.9857821015
 20
-21.6824832457
 10
-22.0045486824
 20
-21.6336584446
 10
-22.0181125267
 20
-21.5831435837
 10
-22.0263251557
 20
-21.5314916321
 10
-22.0290966686
 20
-21.4792680061
  0
LINE
  5
285
100
AcDbEntity
  8
ASSI
100
AcDbLine
 62
253
  6
CONTINUOUS
 10
-22.0181757439
 20
21.3281217643
 11
-22.0162364884
 21
21.2603135093
  0
LINE
  5
286
100
AcDbEntity
  8
ASSI
100
AcDbLine
 62
253
  6
CONTINUOUS
 10
-22.0162364884
 20
21.2603135093
 11
-22.0145750611
 21
21.1828827454
  0
LINE
  5
287
100
AcDbEntity
  8
ASSI
100
AcDbLine
 62
253
  6
CONTINUOUS
 10
-21.5292680107
 20
21.9790966732
 11
-21.5291704084
 21
21.9737748348
  0
LINE
  5
288
100
AcDbEntity
  8
ASSI
100
AcDbLine
 62
253
  6
CONTINUOUS
 10
-22.0145750611
 20
21.1828827454
 11
-22.0132167917
 21
21.0970200951
  0
LINE
  5
289
100
AcDbEntity
  8
ASSI
100
AcDbLine
 62
253
  6
CONTINUOUS
 10
-22.0132167917
 20
21.0970200951
 11
-22.0118176087
 21
20.9567506248
  0
LINE
  5
28A
100
AcDbEntity
  8
ASSI
100
AcDbLine
 62
253
  6
CONTINUOUS
 10
-22.0118176087
 20
20.9567506248
 11
-22.0112355165
 21
20.8090179706
  0
LINE
  5
28B
100
AcDbEntity
  8
ASSI
100
AcDbLine
 62
253
  6
CONTINUOUS
 10
-21.5291704084
 20
21.9737748348
 11
-21.5288808813
 21
21.8570982493
  0
LWPOLYLINE
  5
28C
100
AcDbEntity
  8
ASSI
100
AcDbPolyline
 62
253
  6
CONTINUOUS
 90
9
 70
0
 10
-22.0112355165
 20
20.8090179706
 10
-22.006682419
 20
16.1861946591
 10
-22.0032675958
 20
11.5626698818
 10
-22.0009910471
 20
6.9384436386
 10
-21.9998527728
 20
2.3130482761
 10
-21.999852773
 20
-2.3130485523
 10
-22.0009910472
 20
-6.9384438863
 10
-22.0032675954
 20
-11.5626700725
 10
-22.0066824177
 20
-16.1861947644
  0
LWPOLYLINE
  5
28D
100
AcDbEntity
  8
ASSI
100
AcDbPolyline
 62
253
  6
CONTINUOUS
 90
9
 70
0
 10
-21.5259906577
 20
16.2032852422
 10
-21.5239884873
 20
11.5749304089
 10
-21.522653707
 20
6.9454680738
 10
-21.5219863168
 20
2.3152516701
 10
-21.5219863169
 20
-2.3152532859
 10
-21.5226537074
 20
-6.9454695271
 10
-21.5239884882
 20
-11.5749315371
 10
-21.5259906592
 20
-16.2032858832
 10
-21.5285908517
 20
-21.1664501863
  0
LINE
  5
28E
100
AcDbEntity
  8
ASSI
100
AcDbLine
 62
253
  6
CONTINUOUS
 10
-21.5288808813
 20
21.8570982493
 11
-21.5286225309
 21
21.4712590462
  0
LINE
  5
28F
100
AcDbEntity
  8
ASSI
100
AcDbLine
 62
7
  6
CONTINUOUS
 10
-22.15
 20
-21.6001713375
 11
-22.15
 21
21.6001713375
  0
LINE
  5
290
100
AcDbEntity
  8
ASSI
100
AcDbLine
 62
253
  6
CONTINUOUS
 10
-21.5286225309
 20
21.4712590462
 11
-21.5286402097
 21
20.9156991869
  0
LINE
  5
291
100
AcDbEntity
  8
ASSI
100
AcDbLine
 62
253
  6
CONTINUOUS
 10
-21.5286402097
 20
20.9156991869
 11
-21.5259906577
 21
16.2032852422
  0
LWPOLYLINE
  5
292
100
AcDbEntity
  8
ASSI
100
AcDbPolyline
 62
253
  6
CONTINUOUS
 90
3
 70
0
 10
-21.5285908517
 20
-21.1664501863
 10
-21.5286225448
 20
-21.4712590417
 10
-21.5286396723
 20
-21.5395705868
  0
LINE
  5
293
100
AcDbEntity
  8
ASSI
100
AcDbLine
 62
253
  6
CONTINUOUS
 10
-21.5286396723
 20
-21.5395705868
 11
-21.529001892
 21
-21.9213845566
  0
LINE
  5
294
100
AcDbEntity
  8
ASSI
100
AcDbLine
 62
253
  6
CONTINUOUS
 10
-22.0066824177
 20
-16.1861947644
 11
-22.0115327859
 21
-20.9083356433
  0
LWPOLYLINE
  5
295
100
AcDbEntity
  8
ASSI
100
AcDbPolyline
 62
253
  6
CONTINUOUS
 90
3
 70
0
 10
-21.529001892
 20
-21.9213845566
 10
-21.5291704053
 20
-21.97377483
 10
-21.5292680061
 20
-21.9790966686
  0
LINE
  5
296
100
AcDbEntity
  8
ASSI
100
AcDbLine
 62
253
  6
CONTINUOUS
 10
-22.0115327859
 20
-20.9083356433
 11
-22.0126643657
 21
-21.0516173805
  0
LINE
  5
297
100
AcDbEntity
  8
ASSI
100
AcDbLine
 62
253
  6
CONTINUOUS
 10
-22.0126643657
 20
-21.0516173805
 11
-22.0138540984
 21
-21.1407594396
  0
LINE
  5
298
100
AcDbEntity
  8
ASSI
100
AcDbLine
 62
253
  6
CONTINUOUS
 10
-22.0138540984
 20
-21.1407594396
 11
-22.0153687867
 21
-21.2227451098
  0
LWPOLYLINE
  5
299
100
AcDbEntity
  8
ASSI
100
AcDbPolyline
 62
253
  6
CONTINUOUS
 90
12
 70
0
 10
-22.0153687867
 20
-21.2227451098
 10
-22.0171769531
 20
-21.2956209676
 10
-22.0181757392
 20
-21.3281217589
 10
-22.0192337284
 20
-21.3577705033
 10
-22.0203500342
 20
-21.3846125751
 10
-22.0215075411
 20
-21.4082383553
 10
-22.0227074662
 20
-21.4285988473
 10
-22.0239485923
 20
-21.4457430477
 10
-22.0252101523
 20
-21.4594083267
 10
-22.0264852238
 20
-21.4695071412
 10
-22.0277807292
 20
-21.4761270343
 10
-22.0290966686
 20
-21.4792680061
  0
LWPOLYLINE
  5
29A
100
AcDbEntity
  8
0
100
AcDbPolyline
 62
7
  6
CONTINUOUS
 90
24
 70
0
 10
0.4532781464
 20
22.3778036315
 10
0.4344481737
 20
22.371953526
 10
0.4169818377
 20
22.3654791805
 10
0.3997692148
 20
22.3583557574
 10
0.3828263979
 20
22.3505878911
 10
0.3661265481
 20
22.3421622288
 10
0.3496965044
 20
22.3330921232
 10
0.3336328773
 20
22.3234222665
 10
0.3179360814
 20
22.3131433829
 10
0.302605702
 20
22.3022647482
 10
0.2877371067
 20
22.2908588817
 10
0.2733517594
 20
22.2789382749
 10
0.259428196
 20
22.2664904364
 10
0.2459973916
 20
22.253550411
 10
0.2330581689
 20
22.2401196809
 10
0.2206117051
 20
22.2261967639
 10
0.208692507
 20
22.2118122589
 10
0.1972880601
 20
22.1969448639
 10
0.1864108788
 20
22.1816158808
 10
0.1761330135
 20
22.1659198134
 10
0.1664634057
 20
22.149855731
 10
0.1573931139
 20
22.1334245644
 10
0.1489673634
 20
22.1167236087
 10
0.1413006957
 20
22.1
  0
LINE
  5
29B
100
AcDbEntity
  8
0
100
AcDbLine
 62
7
  6
CONTINUOUS
 10
0.4712555672
 20
22.3829850084
 11
0.4521919239
 21
22.3777877284
  0
LWPOLYLINE
  5
29C
100
AcDbEntity
  8
ASSI
100
AcDbPolyline
 62
253
  6
CONTINUOUS
 90
14
 70
0
 10
21.6282482493
 20
-20.8294410241
 10
21.6765178027
 20
-20.8287871287
 10
21.7231152913
 20
-20.8279330327
 10
21.7675688265
 20
-20.8268873855
 10
21.8094282309
 20
-20.8256607763
 10
21.8482695981
 20
-20.8242656268
 10
21.8836995846
 20
-20.8227160656
 10
21.9153593941
 20
-20.8210277849
 10
21.9429284103
 20
-20.8192178819
 10
21.9661274442
 20
-20.8173046853
 10
21.984721561
 20
-20.8153075699
 10
21.9985224596
 20
-20.8132467602
 10
22.0073903797
 20
-20.8111431259
 10
22.0112355165
 20
-20.8090179705
  0
LINE
  5
29D
100
AcDbEntity
  8
ASSI
100
AcDbLine
 62
253
  6
CONTINUOUS
 10
21.5286602181
 20
-20.8301238198
 11
21.6282482493
 21
-20.8294410241
  0
LINE
  5
29E
100
AcDbEntity
  8
ASSI
100
AcDbLine
 62
253
  6
CONTINUOUS
 10
-21.5292680065
 20
-21.979096669
 11
-17.049852293
 21
-21.9754549158
  0
LINE
  5
29F
100
AcDbEntity
  8
ASSI
100
AcDbLine
 62
253
  6
CONTINUOUS
 10
-17.049852293
 20
-21.9754549158
 11
-12.5841710404
 21
-21.9726628465
  0
LINE
  5
2A0
100
AcDbEntity
  8
ASSI
100
AcDbLine
 62
253
  6
CONTINUOUS
 10
-12.5841710404
 20
-21.9726628465
 11
-8.12267437
 21
-21.9707175883
  0
LINE
  5
2A1
100
AcDbEntity
  8
0
100
AcDbLine
 62
7
  6
CONTINUOUS
 10
12.25
 20
-22.4
 11
10.25
 21
-22.4
  0
LINE
  5
2A2
100
AcDbEntity
  8
0
100
AcDbLine
 62
7
  6
CONTINUOUS
 10
0.5995573105
 20
-22.4
 11
1.1
 21
-22.4
  0
LINE
  5
2A3
100
AcDbEntity
  8
0
100
AcDbLine
 62
7
  6
CONTINUOUS
 10
4.0
 20
-22.4
 11
6.8
 21
-22.4
  0
LINE
  5
2A4
100
AcDbEntity
  8
0
100
AcDbLine
 62
7
  6
CONTINUOUS
 10
15.7
 20
-22.4
 11
18.5
 21
-22.4
  0
LINE
  5
2A5
100
AcDbEntity
  8
0
100
AcDbLine
 62
7
  6
CONTINUOUS
 10
21.4
 20
-22.4
 11
21.9004426895
 21
-22.4
  0
LINE
  5
2A6
100
AcDbEntity
  8
0
100
AcDbLine
 62
7
  6
CONTINUOUS
 10
7.75
 20
-22.3737961104
 11
10.05
 21
-22.3737961104
  0
LINE
  5
2A7
100
AcDbEntity
  8
0
100
AcDbLine
 62
7
  6
CONTINUOUS
 10
12.45
 20
-22.3737961104
 11
14.75
 21
-22.3737961104
  0
LINE
  5
2A8
100
AcDbEntity
  8
0
100
AcDbLine
 62
7
  6
CONTINUOUS
 10
0.6266747509
 20
-22.3213883311
 11
1.3572765181
 21
-22.3213883311
  0
LINE
  5
2A9
100
AcDbEntity
  8
0
100
AcDbLine
 62
7
  6
CONTINUOUS
 10
3.7427234819
 20
-22.3213883311
 11
6.8087267447
 21
-22.3213883311
  0
LINE
  5
2AA
100
AcDbEntity
  8
0
100
AcDbLine
 62
7
  6
CONTINUOUS
 10
7.75
 20
-22.3213883311
 11
14.75
 21
-22.3213883311
  0
LINE
  5
2AB
100
AcDbEntity
  8
0
100
AcDbLine
 62
7
  6
CONTINUOUS
 10
15.6912732553
 20
-22.3213883311
 11
18.7572765181
 21
-22.3213883311
  0
LINE
  5
2AC
100
AcDbEntity
  8
0
100
AcDbLine
 62
7
  6
CONTINUOUS
 10
21.1427234819
 20
-22.3213883311
 11
21.8733252491
 21
-22.3213883311
  0
LINE
  5
2AD
100
AcDbEntity
  8
ASSI
100
AcDbLine
 62
7
  6
CONTINUOUS
 10
-21.6501713375
 20
-22.1
 11
21.6501713375
 21
-22.1
  0
LINE
  5
2AE
100
AcDbEntity
  8
ASSI
100
AcDbLine
 62
253
  6
CONTINUOUS
 10
-8.12267437
 20
-21.9707175883
 11
-1.3690388355
 21
-21.9693666467
  0
LINE
  5
2AF
100
AcDbEntity
  8
ASSI
100
AcDbLine
 62
253
  6
CONTINUOUS
 10
3.2596647921
 20
-20.8321887561
 11
21.5286602182
 21
-20.8301237979
  0
LINE
  5
2B0
100
AcDbEntity
  8
ASSI
100
AcDbLine
 62
253
  6
CONTINUOUS
 10
-1.3690388355
 20
-21.9693666467
 11
3.2569074831
 21
-21.9695391154
  0
LINE
  5
2B1
100
AcDbEntity
  8
ASSI
100
AcDbLine
 62
253
  6
CONTINUOUS
 10
-21.5286602202
 20
-20.8301237891
 11
-12.5831576877
 21
-20.8315141022
  0
LWPOLYLINE
  5
2B2
100
AcDbEntity
  8
ASSI
100
AcDbPolyline
 62
253
  6
CONTINUOUS
 90
3
 70
0
 10
-12.5831576877
 20
-20.8315141022
 10
-8.121335472
 20
-20.8319346681
 10
3.2596647921
 20
-20.8321887561
  0
LINE
  5
2B3
100
AcDbEntity
  8
ASSI
100
AcDbLine
 62
253
  6
CONTINUOUS
 10
3.2569074831
 20
-21.9695391154
 11
8.0929230951
 21
-21.970708013
  0
LWPOLYLINE
  5
2B4
100
AcDbEntity
  8
ASSI
100
AcDbPolyline
 62
253
  6
CONTINUOUS
 90
3
 70
0
 10
8.0929230951
 20
-21.970708013
 10
13.1968124287
 20
-21.972997494
 10
15.887645198
 20
-21.9746860867
  0
LINE
  5
2B5
100
AcDbEntity
  8
ASSI
100
AcDbLine
 62
253
  6
CONTINUOUS
 10
15.887645198
 20
-21.9746860867
 11
21.5292680107
 21
-21.9790966731
  0
LWPOLYLINE
  5
2B6
100
AcDbEntity
  8
ASSI
100
AcDbPolyline
 62
253
  6
CONTINUOUS
 90
15
 70
0
 10
-21.5286597714
 20
-20.8301232531
 10
-21.6282467746
 20
-20.8294404827
 10
-21.6765158698
 20
-20.8287866094
 10
-21.7231129578
 20
-20.8279325413
 10
-21.7675661642
 20
-20.8268869273
 10
-21.8094253245
 20
-20.8256603558
 10
-21.8482665436
 20
-20.8242652477
 10
-21.8836964883
 20
-20.8227157309
 10
-21.91535637
 20
-20.8210274971
 10
-21.9429255788
 20
-20.8192176422
 10
-21.9661249294
 20
-20.8173044944
 10
-21.9847194892
 20
-20.8153074273
 10
-21.9985209565
 20
-20.8132466647
 10
-22.007389568
 20
-20.8111430754
 10
-22.011235514
 20
-20.8090179618
  0
LINE
  5
2B7
100
AcDbEntity
  8
0
100
AcDbLine
 62
7
  6
CONTINUOUS
 10
0.5811729295
 20
-22.3996562606
 11
0.6000247316
 21
-22.4
  0
LINE
  5
2B8
100
AcDbEntity
  8
0
100
AcDbLine
 62
7
  6
CONTINUOUS
 10
0.5816055428
 20
-22.3996564652
 11
0.5624170906
 21
-22.3986151811
  0
LINE
  5
2B9
100
AcDbEntity
  8
0
100
AcDbLine
 62
7
  6
CONTINUOUS
 10
0.5631790254
 20
-22.3986161018
 11
0.543757215
 21
-22.3968767616
  0
LINE
  5
2BA
100
AcDbEntity
  8
0
100
AcDbLine
 62
7
  6
CONTINUOUS
 10
0.5447451794
 20
-22.3968789096
 11
0.5251697846
 21
-22.3944353938
  0
LINE
  5
2BB
100
AcDbEntity
  8
0
100
AcDbLine
 62
7
  6
CONTINUOUS
 10
0.5066783175
 20
-22.391296686
 11
0.5262460014
 21
-22.3944392873
  0
LINE
  5
2BC
100
AcDbEntity
  8
0
100
AcDbLine
 62
7
  6
CONTINUOUS
 10
0.4883533674
 20
-22.3874774628
 11
0.5077394948
 21
-22.3913028363
  0
LINE
  5
2BD
100
AcDbEntity
  8
0
100
AcDbLine
 62
7
  6
CONTINUOUS
 10
0.4893996695
 20
-22.3874863612
 11
0.4701893871
 21
-22.3829728533
  0
LINE
  5
2BE
100
AcDbEntity
  8
0
100
AcDbLine
 62
7
  6
CONTINUOUS
 10
0.4712555674
 20
-22.3829850084
 11
0.4521919239
 21
-22.3777877284
  0
LINE
  5
2BF
100
AcDbEntity
  8
0
100
AcDbLine
 62
7
  6
CONTINUOUS
 10
0.4532781466
 20
-22.3778036315
 11
0.4344481737
 21
-22.371953526
  0
LWPOLYLINE
  5
2C0
100
AcDbEntity
  8
0
100
AcDbPolyline
 62
7
  6
CONTINUOUS
 90
23
 70
0
 10
0.4355542922
 20
-22.371973596
 10
0.4181077382
 20
-22.3655038839
 10
0.4009147505
 20
-22.3583855132
 10
0.3839910115
 20
-22.3506229031
 10
0.3673097143
 20
-22.3422027732
 10
0.3508976657
 20
-22.3331384039
 10
0.3348509688
 20
-22.3234740556
 10
0.3191699479
 20
-22.3132004611
 10
0.3038542787
 20
-22.3023268876
 10
0.2889990902
 20
-22.2909253973
 10
0.2746256817
 20
-22.2790083624
 10
0.260712754
 20
-22.2665634107
 10
0.2472915388
 20
-22.253625488
 10
0.2343610249
 20
-22.2401962802
 10
0.2219222236
 20
-22.2262741014
 10
0.2100093992
 20
-22.2118888391
 10
0.1986098791
 20
-22.1970190634
 10
0.187736336
 20
-22.1816862041
 10
0.1774610526
 20
-22.1659844383
 10
0.1677929085
 20
-22.1499127199
 10
0.158723024
 20
-22.133472095
 10
0.1502970434
 20
-22.1167598787
 10
0.1426188247
 20
-22.1
  0
LINE
  5
2C1
100
AcDbEntity
  8
SIMBOLI
100
AcDbLine
 62
253
  6
CONTINUOUS
 10
-13.890523
 20
-10.958456
 11
-13.829187
 21
-11.048241
  0
LINE
  5
2C2
100
AcDbEntity
  8
RACCORDO
100
AcDbLine
 62
7
  6
CONTINUOUS
 10
22.3729446494
 20
-16.6
 11
22.15
 21
-16.6
  0
LINE
  5
2C3
100
AcDbEntity
  8
SIMBOLI
100
AcDbLine
 62
253
  6
CONTINUOUS
 10
-12.477694
 20
-10.900772
 11
-12.386075
 21
-10.954363
  0
LINE
  5
2C4
100
AcDbEntity
  8
SIMBOLI
100
AcDbLine
 62
253
  6
CONTINUOUS
 10
-13.985788
 20
-10.901795
 11
-13.890523
 21
-10.958456
  0
LINE
  5
2C5
100
AcDbEntity
  8
SIMBOLI
100
AcDbLine
 62
253
  6
CONTINUOUS
 10
-10.06412
 20
-11.546533
 11
-10.202744
 21
-11.458806
  0
LINE
  5
2C6
100
AcDbEntity
  8
SIMBOLI
100
AcDbLine
 62
253
  6
CONTINUOUS
 10
-12.299484
 20
-10.713543
 11
-12.192746
 21
-10.789438
  0
LWPOLYLINE
  5
2C7
100
AcDbEntity
  8
SIMBOLI
100
AcDbPolyline
 62
253
  6
CONTINUOUS
 90
23
 70
0
 10
-10.010984
 20
-11.283726
 10
-10.003399935
 20
-11.2898070259
 10
-9.995491284
 20
-11.2956544447
 10
-9.9872363544
 20
-11.3012882938
 10
-9.9786134537
 20
-11.306728611
 10
-9.9696101126
 20
-11.3119892502
 10
-9.9602507548
 20
-11.3170593318
 10
-9.9505585985
 20
-11.3219301624
 10
-9.9405151472
 20
-11.3266265292
 10
-9.9300974734
 20
-11.3311740746
 10
-9.9193066395
 20
-11.335568384
 10
-9.9081539993
 20
-11.3397882119
 10
-9.8966680816
 20
-11.3437750477
 10
-9.8848859101
 20
-11.347464208
 10
-9.8728613111
 20
-11.3508035836
 10
-9.8606457147
 20
-11.3537653397
 10
-9.8482641627
 20
-11.3564061663
 10
-9.8357285476
 20
-11.3588058096
 10
-9.8230245516
 20
-11.3610517171
 10
-9.8101394149
 20
-11.3632202027
 10
-9.7970928175
 20
-11.365335345
 10
-9.7706194414
 20
-11.369439529
 10
-9.7437344655
 20
-11.3734146421
  0
LWPOLYLINE
  5
2C8
100
AcDbEntity
  8
SIMBOLI
100
AcDbPolyline
 62
253
  6
CONTINUOUS
 90
44
 70
0
 10
-10.211901
 20
-11.967982
 10
-10.2008543289
 20
-11.9789925606
 10
-10.1895355646
 20
-11.9896523213
 10
-10.1779383082
 20
-11.9999645826
 10
-10.1660561612
 20
-12.0099326447
 10
-10.1538827247
 20
-12.019559808
 10
-10.1414148058
 20
-12.0288461407
 10
-10.1286620337
 20
-12.0377787824
 10
-10.115637243
 20
-12.0463416407
 10
-10.1023532687
 20
-12.0545186228
 10
-10.0888229456
 20
-12.0622936365
 10
-10.0773689532
 20
-12.0684545299
 10
-10.065761428
 20
-12.0743180981
 10
-10.0540089997
 20
-12.0798773363
 10
-10.0421202982
 20
-12.0851252394
 10
-10.0301039532
 20
-12.0900548026
 10
-10.0179685943
 20
-12.0946590208
 10
-10.0057235098
 20
-12.0989335457
 10
-9.9933806211
 20
-12.102884654
 10
-9.9809525079
 20
-12.1065212794
 10
-9.96845175
 20
-12.109852355
 10
-9.9558909272
 20
-12.1128868145
 10
-9.9432826192
 20
-12.1156335911
 10
-9.9281043357
 20
-12.1185653057
 10
-9.9128774502
 20
-12.1211275326
 10
-9.8976036246
 20
-12.1233521832
 10
-9.8822845205
 20
-12.1252711691
 10
-9.8669217997
 20
-12.1269164016
 10
-9.8515159557
 20
-12.1283121822
 10
-9.8360628085
 20
-12.1294523715
 10
-9.8205570096
 20
-12.1303232203
 10
-9.8049932106
 20
-12.1309109793
 10
-9.7893660633
 20
-12.1312018989
 10
-9.7736717625
 20
-12.1311816718
 10
-9.7579126764
 20
-12.1308337572
 10
-9.7420927164
 20
-12.1301410563
 10
-9.726215794
 20
-12.1290864703
 10
-9.7102858207
 20
-12.1276529004
 10
-9.696973306
 20
-12.1261557924
 10
-9.6836299277
 20
-12.1243699586
 10
-9.6702589469
 20
-12.1222817307
 10
-9.6568636247
 20
-12.1198774405
 10
-9.643447222
 20
-12.1171434197
 10
-9.630013
 20
-12.114066
  0
LINE
  5
2C9
100
AcDbEntity
  8
SIMBOLI
100
AcDbLine
 62
253
  6
CONTINUOUS
 10
-12.192746
 20
-10.789438
 11
-12.114001
 21
-10.889858
  0
LINE
  5
2CA
100
AcDbEntity
  8
SIMBOLI
100
AcDbLine
 62
253
  6
CONTINUOUS
 10
-12.386075
 20
-10.954363
 11
-12.327271
 21
-11.039031
  0
LINE
  5
2CB
100
AcDbEntity
  8
SIMBOLI
100
AcDbLine
 62
253
  6
CONTINUOUS
 10
-12.388116
 20
-11.5992
 11
-11.996785
 21
-12.35009
  0
LINE
  5
2CC
100
AcDbEntity
  8
SIMBOLI
100
AcDbLine
 62
253
  6
CONTINUOUS
 10
-12.298315
 20
-12.35009
 11
-12.654983
 21
-11.635562
  0
LINE
  5
2CD
100
AcDbEntity
  8
SIMBOLI
100
AcDbLine
 62
253
  6
CONTINUOUS
 10
-12.114001
 20
-10.889858
 11
-12.065441
 21
-11.010566
  0
LINE
  5
2CE
100
AcDbEntity
  8
SIMBOLI
100
AcDbLine
 62
253
  6
CONTINUOUS
 10
-13.829187
 20
-11.048241
 11
-13.808742
 21
-11.166499
  0
LWPOLYLINE
  5
2CF
100
AcDbEntity
  8
SIMBOLI
100
AcDbPolyline
 62
253
  6
CONTINUOUS
 90
36
 70
0
 10
-13.559651
 20
-11.057979
 10
-13.5576768112
 20
-11.0702911609
 10
-13.5559508319
 20
-11.0824908666
 10
-13.5544670101
 20
-11.0945843136
 10
-13.5532192939
 20
-11.1065776982
 10
-13.5522016315
 20
-11.1184772167
 10
-13.5514079709
 20
-11.1302890657
 10
-13.550832877
 20
-11.1420180039
 10
-13.5504733804
 20
-11.1536630399
 10
-13.5503271285
 20
-11.1652217449
 10
-13.5503917688
 20
-11.17669169
 10
-13.5506649486
 20
-11.1880704462
 10
-13.5511443153
 20
-11.1993555846
 10
-13.5518275283
 20
-11.2105443141
 10
-13.5527122951
 20
-11.221632395
 10
-13.5537963354
 20
-11.2326152255
 10
-13.5550773686
 20
-11.2434882036
 10
-13.5565531145
 20
-11.2542467273
 10
-13.5582212925
 20
-11.2648861949
 10
-13.5600792598
 20
-11.275401939
 10
-13.5621229236
 20
-11.2857890311
 10
-13.5643478285
 20
-11.2960424772
 10
-13.5667495193
 20
-11.3061572833
 10
-13.5693235406
 20
-11.3161284554
 10
-13.5720654372
 20
-11.3259509996
 10
-13.5749706395
 20
-11.3356204922
 10
-13.5780341213
 20
-11.3451347901
 10
-13.581250742
 20
-11.3544923205
 10
-13.5846153612
 20
-11.3636915107
 10
-13.5881228384
 20
-11.3727307879
 10
-13.5917680331
 20
-11.3816085792
 10
-13.5963196367
 20
-11.3920503047
 10
-13.6010701932
 20
-11.4022770177
 10
-13.6060277446
 20
-11.4123085099
 10
-13.6112003328
 20
-11.4221645734
 10
-13.616596
 20
-11.431865
  0
LINE
  5
2D0
100
AcDbEntity
  8
SIMBOLI
100
AcDbLine
 62
253
  6
CONTINUOUS
 10
-14.739322
 20
-12.35009
 11
-14.739322
 21
-10.64991
  0
LINE
  5
2D1
100
AcDbEntity
  8
SIMBOLI
100
AcDbLine
 62
253
  6
CONTINUOUS
 10
-14.478082
 20
-11.683574
 11
-14.478082
 21
-12.35009
  0
LINE
  5
2D2
100
AcDbEntity
  8
SIMBOLI
100
AcDbLine
 62
253
  6
CONTINUOUS
 10
-14.478082
 20
-11.447752
 11
-14.478082
 21
-10.882908
  0
LINE
  5
2D3
100
AcDbEntity
  8
SIMBOLI
100
AcDbLine
 62
253
  6
CONTINUOUS
 10
-13.236838
 20
-12.35009
 11
-13.236838
 21
-10.64991
  0
LINE
  5
2D4
100
AcDbEntity
  8
SIMBOLI
100
AcDbLine
 62
253
  6
CONTINUOUS
 10
-12.975598
 20
-11.635562
 11
-12.975598
 21
-12.35009
  0
LINE
  5
2D5
100
AcDbEntity
  8
SIMBOLI
100
AcDbLine
 62
253
  6
CONTINUOUS
 10
-12.975598
 20
-11.413861
 11
-12.975598
 21
-10.882908
  0
LINE
  5
2D6
100
AcDbEntity
  8
0
100
AcDbLine
 62
253
  6
CONTINUOUS
 10
3.7369056521
 20
24.4869014213
 11
3.7500042308
 21
24.5
  0
LINE
  5
2D7
100
AcDbEntity
  8
0
100
AcDbLine
 62
253
  6
CONTINUOUS
 10
3.9869014213
 20
24.2369056521
 11
4.0
 21
24.2500042308
  0
LWPOLYLINE
  5
2D8
100
AcDbEntity
  8
SIMBOLI
100
AcDbPolyline
 62
253
  6
CONTINUOUS
 90
26
 70
0
 10
-9.7437344655
 20
-11.3734146421
 10
-9.660516343
 20
-11.3854135276
 10
-9.6321583464
 20
-11.3897188536
 10
-9.6131257708
 20
-11.3927584862
 10
-9.5940239742
 20
-11.39598522
 10
-9.5748867014
 20
-11.3994486513
 10
-9.5557382789
 20
-11.4032019475
 10
-9.5365653598
 20
-11.4073125605
 10
-9.517345179
 20
-11.411851513
 10
-9.5028949745
 20
-11.4155786968
 10
-9.4884536236
 20
-11.4196116158
 10
-9.4740693702
 20
-11.4239751137
 10
-9.4597904579
 20
-11.4286940346
 10
-9.4456639184
 20
-11.4337894671
 10
-9.4317319343
 20
-11.4392674802
 10
-9.4180354761
 20
-11.4451303878
 10
-9.404615514
 20
-11.451380504
 10
-9.3915066208
 20
-11.4580208921
 10
-9.3787177784
 20
-11.4650576129
 10
-9.366251571
 20
-11.4724974767
 10
-9.3541105826
 20
-11.4803472938
 10
-9.3446335623
 20
-11.4869289438
 10
-9.3353669149
 20
-11.493793131
 10
-9.3263112195
 20
-11.5009556638
 10
-9.3174670549
 20
-11.5084323506
 10
-9.308835
 20
-11.516239
  0
LINE
  5
2D9
100
AcDbEntity
  8
SIMBOLI
100
AcDbLine
 62
253
  6
CONTINUOUS
 10
-12.59574
 20
-10.882908
 11
-12.477694
 21
-10.900772
  0
LINE
  5
2DA
100
AcDbEntity
  8
SIMBOLI
100
AcDbLine
 62
253
  6
CONTINUOUS
 10
-14.108021
 20
-10.882908
 11
-13.985788
 21
-10.901795
  0
LINE
  5
2DB
100
AcDbEntity
  8
SIMBOLI
100
AcDbLine
 62
253
  6
CONTINUOUS
 10
-9.6709805688
 20
-11.6244756947
 11
-9.678609
 21
-11.623184
  0
LINE
  5
2DC
100
AcDbEntity
  8
SIMBOLI
100
AcDbLine
 62
253
  6
CONTINUOUS
 10
-8.26169547
 20
-11.6244757112
 11
-8.269324
 21
-11.623184
  0
LINE
  5
2DD
100
AcDbEntity
  8
SIMBOLI
100
AcDbLine
 62
253
  6
CONTINUOUS
 10
-8.654835
 20
-11.546533
 11
-8.793459
 21
-11.458806
  0
LWPOLYLINE
  5
2DE
100
AcDbEntity
  8
SIMBOLI
100
AcDbPolyline
 62
253
  6
CONTINUOUS
 90
23
 70
0
 10
-8.601699
 20
-11.283726
 10
-8.5941144661
 20
-11.2898070532
 10
-8.5862053959
 20
-11.2956545469
 10
-8.5779500795
 20
-11.3012885171
 10
-8.5693268071
 20
-11.3067289997
 10
-8.5603230938
 20
-11.3119898454
 10
-8.5509633536
 20
-11.3170601623
 10
-8.5412707978
 20
-11.3219312416
 10
-8.5312269271
 20
-11.326627848
 10
-8.5208088108
 20
-11.3311756005
 10
-8.5100175034
 20
-11.3355700626
 10
-8.4988643504
 20
-11.3397899725
 10
-8.4873778746
 20
-11.3437768233
 10
-8.475595096
 20
-11.3474659445
 10
-8.4635698452
 20
-11.3508052541
 10
-8.4513535565
 20
-11.3537669474
 10
-8.438971267
 20
-11.3564077374
 10
-8.4264348659
 20
-11.3588073875
 10
-8.4137300465
 20
-11.3610533441
 10
-8.4008440624
 20
-11.3632219119
 10
-8.3877966051
 20
-11.3653371485
 10
-8.3613215321
 20
-11.3694414993
 10
-8.3070751697
 20
-11.3773503146
  0
LWPOLYLINE
  5
2DF
100
AcDbEntity
  8
SIMBOLI
100
AcDbPolyline
 62
253
  6
CONTINUOUS
 90
56
 70
0
 10
-9.395216
 20
-10.993472
 10
-9.4040254118
 20
-10.9849544753
 10
-9.4129422646
 20
-10.9768208715
 10
-9.4219674676
 20
-10.9690510219
 10
-9.4311019299
 20
-10.96162476
 10
-9.4403437756
 20
-10.954525162
 10
-9.4496799881
 20
-10.9477482758
 10
-9.459094766
 20
-10.9412933921
 10
-9.4685723074
 20
-10.9351598014
 10
-9.4780991216
 20
-10.929345471
 10
-9.4876709608
 20
-10.9238430735
 10
-9.4972858879
 20
-10.9186439581
 10
-9.5069419661
 20
-10.9137394741
 10
-9.51663532
 20
-10.9091208339
 10
-9.5263543209
 20
-10.9047787033
 10
-9.5360854017
 20
-10.9007036117
 10
-9.5458149955
 20
-10.8968860881
 10
-9.5587688416
 20
-10.8921802108
 10
-9.5717046673
 20
-10.8878921186
 10
-9.5846312148
 20
-10.8839985347
 10
-9.5975554747
 20
-10.880478687
 10
-9.6104774311
 20
-10.8773218222
 10
-9.6233953162
 20
-10.8745196916
 10
-9.6363075238
 20
-10.8720611904
 10
-9.6492130931
 20
-10.8699237898
 10
-9.662111225
 20
-10.8680821049
 10
-9.6750011204
 20
-10.8665107508
 10
-9.6878819799
 20
-10.8651843425
 10
-9.7007530044
 20
-10.8640774952
 10
-9.7161850272
 20
-10.8630139858
 10
-9.7316057602
 20
-10.8622499985
 10
-9.7470192272
 20
-10.8618054418
 10
-9.7624294515
 20
-10.8617002245
 10
-9.7778404569
 20
-10.8619542549
 10
-9.7906841665
 20
-10.8624582385
 10
-9.8035197747
 20
-10.8632580639
 10
-9.8163358436
 20
-10.8643862702
 10
-9.8291209354
 20
-10.865875396
 10
-9.8418636122
 20
-10.8677579803
 10
-9.8545524361
 20
-10.8700665619
 10
-9.8640254822
 20
-10.8720954534
 10
-9.8734488754
 20
-10.8743859218
 10
-9.8828096886
 20
-10.8769416172
 10
-9.8920949951
 20
-10.8797661899
 10
-9.9012919165
 20
-10.8828631202
 10
-9.9103877694
 20
-10.8862352083
 10
-9.9193699188
 20
-10.8898850843
 10
-9.9282257298
 20
-10.8938153784
 10
-9.9369428569
 20
-10.8980282526
 10
-9.9455101123
 20
-10.9025239963
 10
-9.9539165976
 20
-10.9073024306
 10
-9.9621514142
 20
-10.9123633766
 10
-9.9702065539
 20
-10.9177108008
 10
-9.9780855695
 20
-10.9233652508
 10
-9.9857949039
 20
-10.9293514195
 10
-9.993341
 20
-10.935694
  0
LWPOLYLINE
  5
2E0
100
AcDbEntity
  8
SIMBOLI
100
AcDbPolyline
 62
253
  6
CONTINUOUS
 90
56
 70
0
 10
-7.985931
 20
-10.993472
 10
-7.9947391173
 20
-10.9849552259
 10
-8.0036547839
 20
-10.9768223338
 10
-8.0126788933
 20
-10.9690531539
 10
-8.0218123391
 20
-10.9616275168
 10
-8.031053232
 20
-10.9545284945
 10
-8.0403885514
 20
-10.9477521263
 10
-8.0498024935
 20
-10.9412976928
 10
-8.0592792548
 20
-10.935164475
 10
-8.0688053416
 20
-10.9293504313
 10
-8.0783765007
 20
-10.9238482304
 10
-8.0879907889
 20
-10.9186492186
 10
-8.0976462629
 20
-10.9137447423
 10
-8.1073390436
 20
-10.9091260158
 10
-8.1170575082
 20
-10.9047837261
 10
-8.1267880979
 20
-10.9007084281
 10
-8.136517254
 20
-10.8968906769
 10
-8.1494706097
 20
-10.8921844975
 10
-8.1624060485
 20
-10.8878961124
 10
-8.1753323063
 20
-10.8840022464
 10
-8.1882563673
 20
-10.8804821265
 10
-8.2011782081
 20
-10.87732499
 10
-8.2140960536
 20
-10.8745225766
 10
-8.2270082902
 20
-10.8720637733
 10
-8.2399139516
 20
-10.8699260566
 10
-8.2528122333
 20
-10.8680840506
 10
-8.2657023305
 20
-10.8665123791
 10
-8.2785834388
 20
-10.865185666
 10
-8.2914547534
 20
-10.8640785353
 10
-8.3068871719
 20
-10.8630147219
 10
-8.3223083469
 20
-10.8622504607
 10
-8.3377222965
 20
-10.8618056469
 10
-8.3531330383
 20
-10.8617001756
 10
-8.3685445906
 20
-10.861953942
 10
-8.3813887751
 20
-10.8624576914
 10
-8.3942248774
 20
-10.8632572786
 10
-8.4070414624
 20
-10.8643852544
 10
-8.4198270948
 20
-10.8658741701
 10
-8.4325703394
 20
-10.8677565765
 10
-8.4452597612
 20
-10.8700650246
 10
-8.4547332762
 20
-10.8720938516
 10
-8.4641571527
 20
-10.8743842865
 10
-8.4735184599
 20
-10.8769399786
 10
-8.482804267
 20
-10.8797645776
 10
-8.4920016919
 20
-10.8828615622
 10
-8.5010980478
 20
-10.886233729
 10
-8.5100806968
 20
-10.8898837044
 10
-8.5189370008
 20
-10.8938141142
 10
-8.5276546118
 20
-10.898027117
 10
-8.5362223425
 20
-10.9025230001
 10
-8.5446292956
 20
-10.9073015831
 10
-8.5528645739
 20
-10.9123626855
 10
-8.5609201707
 20
-10.9177102727
 10
-8.5687996425
 20
-10.923364892
 10
-8.5765094365
 20
-10.9293512368
 10
-8.584056
 20
-10.935694
  0
LWPOLYLINE
  5
2E1
100
AcDbEntity
  8
SIMBOLI
100
AcDbPolyline
 62
253
  6
CONTINUOUS
 90
32
 70
0
 10
-9.493181
 20
-11.695268
 10
-9.4966947146
 20
-11.6917825649
 10
-9.5002957128
 20
-11.6884003144
 10
-9.5039895953
 20
-11.6851152182
 10
-9.5077819626
 20
-11.6819212461
 10
-9.5116784156
 20
-11.6788123678
 10
-9.5156845548
 20
-11.6757825531
 10
-9.519804886
 20
-11.6728273777
 10
-9.5240395356
 20
-11.6699488403
 10
-9.5283875352
 20
-11.6671505458
 10
-9.532847916
 20
-11.6644360989
 10
-9.5374197097
 20
-11.6618091042
 10
-9.5421019478
 20
-11.6592731666
 10
-9.5468933026
 20
-11.656831587
 10
-9.5517910104
 20
-11.6544864511
 10
-9.5567919483
 20
-11.652239541
 10
-9.5618929936
 20
-11.6500926387
 10
-9.5670910234
 20
-11.6480475262
 10
-9.5723829149
 20
-11.6461059856
 10
-9.5777649455
 20
-11.6442686455
 10
-9.5832309935
 20
-11.6425315218
 10
-9.5887743375
 20
-11.6408894769
 10
-9.5943882561
 20
-11.6393373734
 10
-9.6000660279
 20
-11.6378700738
 10
-9.6058009314
 20
-11.6364824405
 10
-9.6127506831
 20
-11.6349143189
 10
-9.6197729158
 20
-11.633439315
 10
-9.6268675192
 20
-11.632043225
 10
-9.6340343834
 20
-11.6307118452
 10
-9.6412733983
 20
-11.6294309716
 10
-9.6485849509
 20
-11.6281855759
 10
-9.6709805688
 20
-11.6244756947
  0
LWPOLYLINE
  5
2E2
100
AcDbEntity
  8
SIMBOLI
100
AcDbPolyline
 62
253
  6
CONTINUOUS
 90
32
 70
0
 10
-8.083896
 20
-11.695268
 10
-8.0874096179
 20
-11.6917826583
 10
-8.09101052
 20
-11.6884004906
 10
-8.0947043079
 20
-11.6851154671
 10
-8.0984965827
 20
-11.6819215579
 10
-8.102392946
 20
-11.6788127331
 10
-8.1063989991
 20
-11.6757829628
 10
-8.1105192485
 20
-11.672827823
 10
-8.114753821
 20
-11.6699493131
 10
-8.1191017489
 20
-11.667151038
 10
-8.123562064
 20
-11.6644366029
 10
-8.1281337984
 20
-11.661809613
 10
-8.1328159843
 20
-11.6592736733
 10
-8.1376072945
 20
-11.6568320852
 10
-8.1425049656
 20
-11.6544869354
 10
-8.1475058751
 20
-11.6522400067
 10
-8.1526069007
 20
-11.650093082
 10
-8.1578049197
 20
-11.6480479441
 10
-8.1630968097
 20
-11.646106376
 10
-8.1684788484
 20
-11.6442690071
 10
-8.1739449138
 20
-11.6425318539
 10
-8.1794882841
 20
-11.6408897793
 10
-8.1851022376
 20
-11.6393376463
 10
-8.1907800525
 20
-11.6378703179
 10
-8.1965150069
 20
-11.6364826571
 10
-8.2034648294
 20
-11.6349145046
 10
-8.2104871418
 20
-11.6334394723
 10
-8.2175818322
 20
-11.6320433564
 10
-8.224748789
 20
-11.6307119528
 10
-8.2319879004
 20
-11.6294310579
 10
-8.2392995517
 20
-11.628185643
 10
-8.26169547
 20
-11.6244757112
  0
LWPOLYLINE
  5
2E3
100
AcDbEntity
  8
SIMBOLI
100
AcDbPolyline
 62
253
  6
CONTINUOUS
 90
44
 70
0
 10
-8.802616
 20
-11.967982
 10
-8.7915696934
 20
-11.978992207
 10
-8.7802512895
 20
-11.9896516568
 10
-8.7686543891
 20
-11.9999636473
 10
-8.756772593
 20
-12.0099314766
 10
-8.744599502
 20
-12.0195584428
 10
-8.7321319217
 20
-12.0288446125
 10
-8.7193794767
 20
-12.0377771253
 10
-8.7063549966
 20
-12.0463398896
 10
-8.6930713106
 20
-12.0545168137
 10
-8.6795412484
 20
-12.0622918056
 10
-8.6680874487
 20
-12.0684527089
 10
-8.6564800906
 20
-12.0743163106
 10
-8.6447278013
 20
-12.0798756035
 10
-8.6328392077
 20
-12.0851235801
 10
-8.6208229369
 20
-12.0900532333
 10
-8.6086876159
 20
-12.0946575559
 10
-8.5964425307
 20
-12.0989321966
 10
-8.5840996037
 20
-12.102883429
 10
-8.5716714162
 20
-12.106520183
 10
-8.5591705495
 20
-12.1098513883
 10
-8.5466095851
 20
-12.1128859746
 10
-8.5340011041
 20
-12.1156328717
 10
-8.5188225748
 20
-12.1185647184
 10
-8.5035954098
 20
-12.1211270633
 10
-8.4883212801
 20
-12.1233518181
 10
-8.4730018566
 20
-12.1252708944
 10
-8.4576388101
 20
-12.1269162041
 10
-8.4422326424
 20
-12.1283120488
 10
-8.426779178
 20
-12.1294522896
 10
-8.4112730723
 20
-12.1303231778
 10
-8.3957089806
 20
-12.1309109644
 10
-8.3800815583
 20
-12.1312019005
 10
-8.3643870046
 20
-12.1311816793
 10
-8.3486276953
 20
-12.1308337623
 10
-8.3328075498
 20
-12.130141053
 10
-8.3169304878
 20
-12.1290864549
 10
-8.3010004288
 20
-12.1276528716
 10
-8.2876878886
 20
-12.1261557532
 10
-8.274344525
 20
-12.124369912
 10
-8.2609735963
 20
-12.1222816821
 10
-8.2475783604
 20
-12.1198773975
 10
-8.2341620756
 20
-12.1171433921
 10
-8.220728
 20
-12.114066
  0
LINE
  5
2E4
100
AcDbEntity
  8
0
100
AcDbLine
 62
253
  6
CONTINUOUS
 10
3.7369056521
 20
-24.4869014213
 11
3.7500042308
 21
-24.5
  0
LINE
  5
2E5
100
AcDbEntity
  8
0
100
AcDbLine
 62
253
  6
CONTINUOUS
 10
3.9869014213
 20
-24.2369056521
 11
4.0
 21
-24.2500042308
  0
LINE
  5
2E6
100
AcDbEntity
  8
SIMBOLI
100
AcDbLine
 62
253
  6
CONTINUOUS
 10
-10.05909
 20
-11.215713
 11
-10.010984
 21
-11.283726
  0
LINE
  5
2E7
100
AcDbEntity
  8
SIMBOLI
100
AcDbLine
 62
253
  6
CONTINUOUS
 10
-8.649805
 20
-11.215713
 11
-8.601699
 21
-11.283726
  0
LINE
  5
2E8
100
AcDbEntity
  8
SIMBOLI
100
AcDbLine
 62
253
  6
CONTINUOUS
 10
-9.308835
 20
-11.516239
 11
-9.204681
 21
-11.66408
  0
LINE
  5
2E9
100
AcDbEntity
  8
SIMBOLI
100
AcDbLine
 62
253
  6
CONTINUOUS
 10
-7.89955
 20
-11.516239
 11
-7.795396
 21
-11.66408
  0
LINE
  5
2EA
100
AcDbEntity
  8
SIMBOLI
100
AcDbLine
 62
253
  6
CONTINUOUS
 10
-9.442461
 20
-11.769382
 11
-9.493181
 21
-11.695268
  0
LINE
  5
2EB
100
AcDbEntity
  8
SIMBOLI
100
AcDbLine
 62
253
  6
CONTINUOUS
 10
-8.033176
 20
-11.769382
 11
-8.083896
 21
-11.695268
  0
LINE
  5
2EC
100
AcDbEntity
  8
SIMBOLI
100
AcDbLine
 62
253
  6
CONTINUOUS
 10
-10.202744
 20
-11.458806
 11
-10.295546
 21
-11.320088
  0
LINE
  5
2ED
100
AcDbEntity
  8
SIMBOLI
100
AcDbLine
 62
253
  6
CONTINUOUS
 10
-8.793459
 20
-11.458806
 11
-8.886261
 21
-11.320088
  0
LINE
  5
2EE
100
AcDbEntity
  8
SIMBOLI
100
AcDbLine
 62
253
  6
CONTINUOUS
 10
-12.327271
 20
-11.039031
 11
-12.30767
 21
-11.150128
  0
LINE
  5
2EF
100
AcDbEntity
  8
SIMBOLI
100
AcDbLine
 62
253
  6
CONTINUOUS
 10
-12.065441
 20
-11.010566
 11
-12.049254
 21
-11.147325
  0
LINE
  5
2F0
100
AcDbEntity
  8
SIMBOLI
100
AcDbLine
 62
253
  6
CONTINUOUS
 10
-11.673633
 20
-12.35009
 11
-11.673633
 21
-10.64991
  0
LINE
  5
2F1
100
AcDbEntity
  8
SIMBOLI
100
AcDbLine
 62
253
  6
CONTINUOUS
 10
-11.412393
 20
-10.882908
 11
-11.412393
 21
-11.377146
  0
LINE
  5
2F2
100
AcDbEntity
  8
SIMBOLI
100
AcDbLine
 62
253
  6
CONTINUOUS
 10
-11.412393
 20
-11.60732
 11
-11.412393
 21
-12.117091
  0
LINE
  5
2F3
100
AcDbEntity
  8
SIMBOLI
100
AcDbLine
 62
253
  6
CONTINUOUS
 10
-10.708059
 20
-11.377146
 11
-10.708059
 21
-11.60732
  0
LINE
  5
2F4
100
AcDbEntity
  8
SIMBOLI
100
AcDbLine
 62
253
  6
CONTINUOUS
 10
-10.586772
 20
-10.64991
 11
-10.586772
 21
-10.882908
  0
LINE
  5
2F5
100
AcDbEntity
  8
SIMBOLI
100
AcDbLine
 62
253
  6
CONTINUOUS
 10
-10.586772
 20
-12.117091
 11
-10.586772
 21
-12.35009
  0
LINE
  5
2F6
100
AcDbEntity
  8
SIMBOLI
100
AcDbLine
 62
253
  6
CONTINUOUS
 10
-12.049254
 20
-11.147325
 11
-12.072769
 21
-11.308022
  0
LINE
  5
2F7
100
AcDbEntity
  8
SIMBOLI
100
AcDbLine
 62
253
  6
CONTINUOUS
 10
-13.808742
 20
-11.166499
 11
-13.829044
 21
-11.283735
  0
LINE
  5
2F8
100
AcDbEntity
  8
SIMBOLI
100
AcDbLine
 62
253
  6
CONTINUOUS
 10
-12.30767
 20
-11.150128
 11
-12.327417
 21
-11.25934
  0
LWPOLYLINE
  5
2F9
100
AcDbEntity
  8
SIMBOLI
100
AcDbPolyline
 62
253
  6
CONTINUOUS
 90
28
 70
0
 10
-12.576544
 20
-10.64991
 10
-12.5656582385
 20
-10.6498346756
 10
-12.5548214605
 20
-10.6499501152
 10
-12.5440344804
 20
-10.6502553632
 10
-12.5332981128
 20
-10.6507494637
 10
-12.5226131724
 20
-10.6514314608
 10
-12.5119804736
 20
-10.6523003988
 10
-12.5014008311
 20
-10.6533553218
 10
-12.4908750595
 20
-10.6545952741
 10
-12.4804039732
 20
-10.6560192998
 10
-12.4699878496
 20
-10.6576267115
 10
-12.4596248171
 20
-10.6594178952
 10
-12.4493124665
 20
-10.6613935051
 10
-12.4390483889
 20
-10.6635541958
 10
-12.4288301752
 20
-10.6659006216
 10
-12.4186554166
 20
-10.6684334368
 10
-12.408521704
 20
-10.6711532959
 10
-12.3984266284
 20
-10.6740608531
 10
-12.3883677809
 20
-10.6771567628
 10
-12.3783433189
 20
-10.6804415961
 10
-12.3683536668
 20
-10.6839155904
 10
-12.3583998152
 20
-10.6875788997
 10
-12.348482755
 20
-10.6914316782
 10
-12.3386034768
 20
-10.6954740798
 10
-12.3287629714
 20
-10.6997062588
 10
-12.3189622297
 20
-10.7041283691
 10
-12.3092022423
 20
-10.7087405648
 10
-12.299484
 20
-10.713543
  0
LINE
  5
2FA
100
AcDbEntity
  8
SIMBOLI
100
AcDbLine
 62
253
  6
CONTINUOUS
 10
-14.478082
 20
-12.3501020786
 11
-14.739322
 21
-12.3500778249
  0
LINE
  5
2FB
100
AcDbEntity
  8
SIMBOLI
100
AcDbLine
 62
253
  6
CONTINUOUS
 10
-12.975598
 20
-12.3501008307
 11
-13.236838
 21
-12.3500790729
  0
LINE
  5
2FC
100
AcDbEntity
  8
SIMBOLI
100
AcDbLine
 62
253
  6
CONTINUOUS
 10
-11.996785
 20
-12.3501015736
 11
-12.298315
 21
-12.350078298
  0
LINE
  5
2FD
100
AcDbEntity
  8
SIMBOLI
100
AcDbLine
 62
253
  6
CONTINUOUS
 10
-10.586772
 20
-12.3501275995
 11
-11.673633
 21
-12.3500507323
  0
LINE
  5
2FE
100
AcDbEntity
  8
SIMBOLI
100
AcDbLine
 62
253
  6
CONTINUOUS
 10
-11.412393
 20
-12.117061731
 11
-10.586772
 21
-12.1171193085
  0
LINE
  5
2FF
100
AcDbEntity
  8
SIMBOLI
100
AcDbLine
 62
253
  6
CONTINUOUS
 10
-14.09326
 20
-11.6835912097
 11
-14.478082
 21
-11.683556583
  0
LINE
  5
300
100
AcDbEntity
  8
SIMBOLI
100
AcDbLine
 62
253
  6
CONTINUOUS
 10
-12.654983
 20
-11.635574855
 11
-12.975598
 21
-11.6355490012
  0
LINE
  5
301
100
AcDbEntity
  8
SIMBOLI
100
AcDbLine
 62
253
  6
CONTINUOUS
 10
-10.708059
 20
-11.6073441465
 11
-11.412393
 21
-11.6072951602
  0
LINE
  5
302
100
AcDbEntity
  8
SIMBOLI
100
AcDbLine
 62
253
  6
CONTINUOUS
 10
-14.108021
 20
-11.4477684791
 11
-14.478082
 21
-11.4477353301
  0
LINE
  5
303
100
AcDbEntity
  8
SIMBOLI
100
AcDbLine
 62
253
  6
CONTINUOUS
 10
-12.59574
 20
-11.4138761054
 11
-12.975598
 21
-11.4138456938
  0
LINE
  5
304
100
AcDbEntity
  8
SIMBOLI
100
AcDbLine
 62
253
  6
CONTINUOUS
 10
-11.412393
 20
-11.3771212887
 11
-10.708059
 21
-11.3771700215
  0
LINE
  5
305
100
AcDbEntity
  8
SIMBOLI
100
AcDbLine
 62
253
  6
CONTINUOUS
 10
-14.478082
 20
-10.8828915936
 11
-14.108021
 21
-10.8829242187
  0
LINE
  5
306
100
AcDbEntity
  8
SIMBOLI
100
AcDbLine
 62
253
  6
CONTINUOUS
 10
-12.975598
 20
-10.8828929236
 11
-12.59574
 21
-10.8829228786
  0
LINE
  5
307
100
AcDbEntity
  8
SIMBOLI
100
AcDbLine
 62
253
  6
CONTINUOUS
 10
-10.586772
 20
-10.8829355368
 11
-11.412393
 21
-10.8828795289
  0
LINE
  5
308
100
AcDbEntity
  8
SIMBOLI
100
AcDbLine
 62
253
  6
CONTINUOUS
 10
-14.739322
 20
-10.6498812886
 11
-14.094694
 21
-10.6499381463
  0
LINE
  5
309
100
AcDbEntity
  8
SIMBOLI
100
AcDbLine
 62
253
  6
CONTINUOUS
 10
-13.236838
 20
-10.6498836363
 11
-12.576544
 21
-10.6499357709
  0
LINE
  5
30A
100
AcDbEntity
  8
SIMBOLI
100
AcDbLine
 62
253
  6
CONTINUOUS
 10
-11.673633
 20
-10.649872198
 11
-10.586772
 21
-10.649946196
  0
LWPOLYLINE
  5
30B
100
AcDbEntity
  8
SIMBOLI
100
AcDbPolyline
 62
253
  6
CONTINUOUS
 90
49
 70
0
 10
-14.094694
 20
-10.64991
 10
-14.0775474082
 20
-10.6500334916
 10
-14.0605978297
 20
-10.6505985876
 10
-14.0438449315
 20
-10.6515948262
 10
-14.0272883806
 20
-10.6530117453
 10
-14.0109278437
 20
-10.654838883
 10
-13.9947629878
 20
-10.6570657774
 10
-13.9787937225
 20
-10.6596826796
 10
-13.9630209276
 20
-10.6626826932
 10
-13.9474457254
 20
-10.6660596347
 10
-13.9320692385
 20
-10.6698073209
 10
-13.9168925892
 20
-10.6739195684
 10
-13.9019168999
 20
-10.6783901938
 10
-13.8871442129
 20
-10.6832143626
 10
-13.8725802492
 20
-10.6883926358
 10
-13.8582316499
 20
-10.6939269233
 10
-13.8441050558
 20
-10.6998191349
 10
-13.8302071078
 20
-10.7060711805
 10
-13.8165444469
 20
-10.7126849699
 10
-13.8031243148
 20
-10.7196621206
 10
-13.7899563565
 20
-10.7270030798
 10
-13.7770508177
 20
-10.7347080023
 10
-13.7644179443
 20
-10.7427770429
 10
-13.752067982
 20
-10.7512103565
 10
-13.7400111767
 20
-10.7600080978
 10
-13.7282574879
 20
-10.7691693189
 10
-13.7168157305
 20
-10.778688661
 10
-13.7056944329
 20
-10.7885596624
 10
-13.6949021238
 20
-10.7987758615
 10
-13.6844473318
 20
-10.8093307967
 10
-13.6743385854
 20
-10.8202180064
 10
-13.6645844888
 20
-10.8314296255
 10
-13.6551939481
 20
-10.842952174
 10
-13.6461759449
 20
-10.8547707688
 10
-13.6375394612
 20
-10.8668705265
 10
-13.6292934784
 20
-10.8792365637
 10
-13.6214469784
 20
-10.8918539971
 10
-13.614007754
 20
-10.9047078022
 10
-13.6069788427
 20
-10.9177823895
 10
-13.6003620934
 20
-10.9310620283
 10
-13.5941593547
 20
-10.9445309878
 10
-13.5883724753
 20
-10.9581735376
 10
-13.583003304
 20
-10.9719739467
 10
-13.5780536308
 20
-10.9859200423
 10
-13.5735250111
 20
-11.0000138824
 10
-13.5694189415
 20
-11.0142610825
 10
-13.5657369187
 20
-11.0286672584
 10
-13.5624804393
 20
-11.0432380257
 10
-13.559651
 20
-11.057979
  0
LWPOLYLINE
  5
30C
100
AcDbEntity
  8
SIMBOLI
100
AcDbPolyline
 62
253
  6
CONTINUOUS
 90
19
 70
0
 10
-9.678609
 20
-11.623184
 10
-9.7005372377
 20
-11.6213356745
 10
-9.7224041276
 20
-11.6192027159
 10
-9.7442087893
 20
-11.6167857278
 10
-9.7659503421
 20
-11.6140853135
 10
-9.7876279057
 20
-11.6111020764
 10
-9.8092405995
 20
-11.60783662
 10
-9.8307881456
 20
-11.6042893483
 10
-9.8522726775
 20
-11.6004598676
 10
-9.8736969308
 20
-11.5963475851
 10
-9.8950636416
 20
-11.5919519076
 10
-9.9163755458
 20
-11.5872722422
 10
-9.9376353794
 20
-11.5823079959
 10
-9.9588452573
 20
-11.5770586677
 10
-9.9800048112
 20
-11.571524125
 10
-10.0011130517
 20
-11.5657043274
 10
-10.0221689896
 20
-11.5595992344
 10
-10.0431716354
 20
-11.5532088054
 10
-10.06412
 20
-11.546533
  0
LWPOLYLINE
  5
30D
100
AcDbEntity
  8
SIMBOLI
100
AcDbPolyline
 62
253
  6
CONTINUOUS
 90
19
 70
0
 10
-8.269324
 20
-11.623184
 10
-8.2912519376
 20
-11.6213357019
 10
-8.3131185648
 20
-11.619202775
 10
-8.3349230021
 20
-11.616785821
 10
-8.35666437
 20
-11.6140854415
 10
-8.378341789
 20
-11.6111022381
 10
-8.3999543797
 20
-11.6078368125
 10
-8.4215018646
 20
-11.6042895671
 10
-8.442986374
 20
-11.6004601074
 10
-8.4644106405
 20
-11.59634784
 10
-8.4857773965
 20
-11.591952171
 10
-8.5070893744
 20
-11.5872725068
 10
-8.5283493066
 20
-11.5823082539
 10
-8.5495593055
 20
-11.5770589105
 10
-8.5707190025
 20
-11.5715243431
 10
-8.5918274091
 20
-11.5657045099
 10
-8.6128835366
 20
-11.5595993694
 10
-8.6338863965
 20
-11.55320888
 10
-8.654835
 20
-11.546533
  0
LWPOLYLINE
  5
30E
100
AcDbEntity
  8
SIMBOLI
100
AcDbPolyline
 62
253
  6
CONTINUOUS
 90
27
 70
0
 10
-8.3070751697
 20
-11.3773503146
 10
-8.2793029654
 20
-11.3813234951
 10
-8.2512129527
 20
-11.3854162558
 10
-8.222854045
 20
-11.3897218685
 10
-8.2038210127
 20
-11.3927617296
 10
-8.1847188926
 20
-11.3959887263
 10
-8.1655814395
 20
-11.3994524585
 10
-8.1464329889
 20
-11.4032060953
 10
-8.1272602004
 20
-11.4073170836
 10
-8.1080403146
 20
-11.4118564399
 10
-8.0935904438
 20
-11.41558394
 10
-8.0791495308
 20
-11.4196171771
 10
-8.064765828
 20
-11.4239809845
 10
-8.0504875876
 20
-11.4287001958
 10
-8.0363618495
 20
-11.4337958859
 10
-8.0224308043
 20
-11.4392740972
 10
-8.0087354298
 20
-11.4451371137
 10
-7.9953167044
 20
-11.4513872194
 10
-7.9822092034
 20
-11.4580274501
 10
-7.9694218925
 20
-11.4650638493
 10
-7.9569573348
 20
-11.4725032121
 10
-7.9448180934
 20
-11.4803523338
 10
-7.935342526
 20
-11.4869332775
 10
-7.9260773672
 20
-11.4937966159
 10
-7.9170231828
 20
-11.5009581491
 10
-7.9081805384
 20
-11.5084336771
 10
-7.89955
 20
-11.516239
  0
LWPOLYLINE
  5
30F
100
AcDbEntity
  8
ASSI
100
AcDbPolyline
 62
253
  6
CONTINUOUS
 90
10
 70
0
 10
-22.0290966732
 20
21.4792680107
 10
-22.0277807339
 20
21.4761270389
 10
-22.0264852285
 20
21.4695071458
 10
-22.0252101569
 20
21.4594083314
 10
-22.0239485969
 20
21.4457430525
 10
-22.0227074709
 20
21.4285988523
 10
-22.0215075458
 20
21.4082383604
 10
-22.020350039
 20
21.3846125803
 10
-22.0192337331
 20
21.3577705085
 10
-22.0181757439
 20
21.3281217643
  0
LINE
  5
310
100
AcDbEntity
  8
SIMBOLI
100
AcDbLine
 62
253
  6
CONTINUOUS
 10
-10.075125
 20
-11.125614
 11
-10.05909
 21
-11.215713
  0
LINE
  5
311
100
AcDbEntity
  8
SIMBOLI
100
AcDbLine
 62
253
  6
CONTINUOUS
 10
-8.66584
 20
-11.125614
 11
-8.649805
 21
-11.215713
  0
LINE
  5
312
100
AcDbEntity
  8
SIMBOLI
100
AcDbLine
 62
253
  6
CONTINUOUS
 10
-9.204681
 20
-11.66408
 11
-9.169963
 21
-11.864986
  0
LINE
  5
313
100
AcDbEntity
  8
SIMBOLI
100
AcDbLine
 62
253
  6
CONTINUOUS
 10
-10.295546
 20
-11.320088
 11
-10.32648
 21
-11.134727
  0
LINE
  5
314
100
AcDbEntity
  8
SIMBOLI
100
AcDbLine
 62
253
  6
CONTINUOUS
 10
-8.886261
 20
-11.320088
 11
-8.917195
 21
-11.134727
  0
LINE
  5
315
100
AcDbEntity
  8
SIMBOLI
100
AcDbLine
 62
253
  6
CONTINUOUS
 10
-9.425555
 20
-11.870811
 11
-9.442461
 21
-11.769382
  0
LWPOLYLINE
  5
316
100
AcDbEntity
  8
SIMBOLI
100
AcDbPolyline
 62
253
  6
CONTINUOUS
 90
74
 70
0
 10
-9.169963
 20
-11.864986
 10
-9.1702270238
 20
-11.886001576
 10
-9.1713751391
 20
-11.906937167
 10
-9.1734201225
 20
-11.9278210944
 10
-9.1763747504
 20
-11.9486816795
 10
-9.180251547
 20
-11.96952844
 10
-9.1850620274
 20
-11.990295678
 10
-9.1908174541
 20
-12.0108988921
 10
-9.1975290899
 20
-12.0312535806
 10
-9.2035899264
 20
-12.0473013619
 10
-9.2102486436
 20
-12.0630912642
 10
-9.2174839404
 20
-12.0785785459
 10
-9.2252745159
 20
-12.0937184653
 10
-9.2335990687
 20
-12.1084662808
 10
-9.2424370111
 20
-12.1227846601
 10
-9.2517706074
 20
-12.1366659084
 10
-9.2615828355
 20
-12.1501097405
 10
-9.271856673
 20
-12.163115871
 10
-9.2825750977
 20
-12.1756840146
 10
-9.2965841832
 20
-12.1907870785
 10
-9.311298811
 20
-12.2052602149
 10
-9.3267564531
 20
-12.2191582966
 10
-9.3429945816
 20
-12.2325361967
 10
-9.3565723237
 20
-12.2428946034
 10
-9.3706933923
 20
-12.2529457653
 10
-9.3853776204
 20
-12.2626802349
 10
-9.4006448409
 20
-12.2720885651
 10
-9.4165148869
 20
-12.2811613086
 10
-9.433010563
 20
-12.2898879631
 10
-9.4501665613
 20
-12.2982538073
 10
-9.4680205455
 20
-12.3062430645
 10
-9.4866101791
 20
-12.3138399584
 10
-9.505973126
 20
-12.3210287126
 10
-9.5227141206
 20
-12.3266922343
 10
-9.539963936
 20
-12.3320285308
 10
-9.5576682145
 20
-12.3370047631
 10
-9.5757905322
 20
-12.3415928191
 10
-9.5943662
 20
-12.3457834936
 10
-9.6134484628
 20
-12.3495723083
 10
-9.6330615412
 20
-12.3529512008
 10
-9.6531135593
 20
-12.3558977726
 10
-9.6734836171
 20
-12.3583860411
 10
-9.6940508786
 20
-12.3603991896
 10
-9.714694763
 20
-12.3619570649
 10
-9.7352947534
 20
-12.3630886795
 10
-9.7659451516
 20
-12.3640480821
 10
-9.7963969469
 20
-12.3641981203
 10
-9.8267528381
 20
-12.3636091679
 10
-9.8568410332
 20
-12.362295319
 10
-9.8864819738
 20
-12.3602524709
 10
-9.9157395291
 20
-12.3574600149
 10
-9.9447384249
 20
-12.3538932152
 10
-9.973603387
 20
-12.3495273366
 10
-10.0024143448
 20
-12.3443293066
 10
-10.0310720425
 20
-12.3382327061
 10
-10.0500304605
 20
-12.3336299653
 10
-10.0688714639
 20
-12.3285591768
 10
-10.0876097767
 20
-12.3229848826
 10
-10.1062500578
 20
-12.3168771827
 10
-10.1247567045
 20
-12.3102284098
 10
-10.1430840486
 20
-12.3030364546
 10
-10.1611923486
 20
-12.2953022762
 10
-10.1790655691
 20
-12.2870391063
 10
-10.1966936015
 20
-12.278263245
 10
-10.2175079612
 20
-12.2670785677
 10
-10.2379288387
 20
-12.2552082055
 10
-10.2579303796
 20
-12.2426812774
 10
-10.2774867292
 20
-12.2295269024
 10
-10.2965720332
 20
-12.2157741994
 10
-10.3151664051
 20
-12.201446032
 10
-10.3332738323
 20
-12.1865402419
 10
-10.3509042702
 20
-12.1710484156
 10
-10.3680676742
 20
-12.1549621395
 10
-10.384774
 20
-12.138273
  0
LWPOLYLINE
  5
317
100
AcDbEntity
  8
SIMBOLI
100
AcDbPolyline
 62
253
  6
CONTINUOUS
 90
74
 70
0
 10
-7.760678
 20
-11.864986
 10
-7.760941998
 20
-11.8860007904
 10
-7.7620900277
 20
-11.9069356806
 10
-7.7641348734
 20
-11.9278189903
 10
-7.7670893197
 20
-11.9486790394
 10
-7.7709658995
 20
-11.9695253455
 10
-7.7757761401
 20
-11.990292218
 10
-7.7815313171
 20
-12.010895164
 10
-7.7882427063
 20
-12.0312496908
 10
-7.7943033566
 20
-12.0472974237
 10
-7.8009619057
 20
-12.063087347
 10
-7.8081970602
 20
-12.0785747146
 10
-7.8159875265
 20
-12.0937147805
 10
-7.8243120112
 20
-12.1084627988
 10
-7.8331499326
 20
-12.1227814319
 10
-7.8424835558
 20
-12.1366629753
 10
-7.8522958578
 20
-12.1501071331
 10
-7.8625698154
 20
-12.1631136094
 10
-7.8732884056
 20
-12.1756821083
 10
-7.8872977592
 20
-12.1907856153
 10
-7.9020127147
 20
-12.2052591835
 10
-7.9174707339
 20
-12.2191576764
 10
-7.933709279
 20
-12.2325359575
 10
-7.9472873757
 20
-12.2428946414
 10
-7.9614088102
 20
-12.2529460518
 10
-7.9760934078
 20
-12.2626807383
 10
-7.9913609941
 20
-12.2720892504
 10
-8.0072313946
 20
-12.2811621377
 10
-8.023727405
 20
-12.2898888954
 10
-8.0408837029
 20
-12.2982548021
 10
-8.0587379362
 20
-12.306244082
 10
-8.0773277529
 20
-12.3138409594
 10
-8.0966908008
 20
-12.3210296587
 10
-8.1134318087
 20
-12.326693107
 10
-8.1306815784
 20
-12.3320293119
 10
-8.1483857614
 20
-12.3370054424
 10
-8.1665079388
 20
-12.3415933933
 10
-8.1850834116
 20
-12.3457839616
 10
-8.2041654109
 20
-12.3495726702
 10
-8.2237781494
 20
-12.352951459
 10
-8.2438297678
 20
-12.3558979358
 10
-8.2641993887
 20
-12.3583861257
 10
-8.2847661981
 20
-12.3603992177
 10
-8.3054096366
 20
-12.3619570575
 10
-8.3260092082
 20
-12.3630886551
 10
-8.356659061
 20
-12.3640480611
 10
-8.3871104077
 20
-12.3641981307
 10
-8.4174659473
 20
-12.3636092292
 10
-8.4475539338
 20
-12.3622954382
 10
-8.4771948523
 20
-12.3602526428
 10
-8.5064525549
 20
-12.3574602254
 10
-8.5354517355
 20
-12.3538934425
 10
-8.5643170882
 20
-12.3495275506
 10
-8.5931285114
 20
-12.3443294706
 10
-8.6217867224
 20
-12.3382327799
 10
-8.6407454958
 20
-12.333629956
 10
-8.659586852
 20
-12.3285590669
 10
-8.678325503
 20
-12.3229846562
 10
-8.696966097
 20
-12.3168768258
 10
-8.7154730264
 20
-12.310227912
 10
-8.7338006199
 20
-12.3030358099
 10
-8.7519091326
 20
-12.2953014829
 10
-8.7697825258
 20
-12.2870381678
 10
-8.7874106872
 20
-12.27826217
 10
-8.8082251401
 20
-12.2670773485
 10
-8.8286460421
 20
-12.2552068731
 10
-8.8486475376
 20
-12.2426798731
 10
-8.8682037711
 20
-12.2295254778
 10
-8.8872888868
 20
-12.2157728167
 10
-8.9058829992
 20
-12.2014447627
 10
-8.9239901025
 20
-12.1865391631
 10
-8.9416201609
 20
-12.1710476088
 10
-8.9587831387
 20
-12.1549616908
 10
-8.975489
 20
-12.138273
  0
LINE
  5
318
100
AcDbEntity
  8
SIMBOLI
100
AcDbLine
 62
253
  6
CONTINUOUS
 10
-10.32648
 20
-11.134727
 11
-10.309268
 21
-10.995419
  0
LINE
  5
319
100
AcDbEntity
  8
SIMBOLI
100
AcDbLine
 62
253
  6
CONTINUOUS
 10
-8.917195
 20
-11.134727
 11
-8.899982
 21
-10.995419
  0
LINE
  5
31A
100
AcDbEntity
  8
SIMBOLI
100
AcDbLine
 62
253
  6
CONTINUOUS
 10
-10.065941
 20
-11.053108
 11
-10.075125
 21
-11.125614
  0
LWPOLYLINE
  5
31B
100
AcDbEntity
  8
0
100
AcDbPolyline
 62
7
  6
CONTINUOUS
 90
23
 70
0
 10
0.1426188247
 20
22.1
 10
0.1502970433
 20
22.1167598786
 10
0.158723024
 20
22.133472095
 10
0.1677929085
 20
22.1499127199
 10
0.1774610526
 20
22.1659844382
 10
0.187736336
 20
22.181686204
 10
0.1986098791
 20
22.1970190633
 10
0.2100093991
 20
22.211888839
 10
0.2219222235
 20
22.2262741014
 10
0.2343610249
 20
22.2401962802
 10
0.2472915387
 20
22.2536254879
 10
0.2607127539
 20
22.2665634107
 10
0.2746256816
 20
22.2790083624
 10
0.2889990901
 20
22.2909253973
 10
0.3038542786
 20
22.3023268875
 10
0.3191699478
 20
22.313200461
 10
0.3348509686
 20
22.3234740556
 10
0.3508976656
 20
22.3331384038
 10
0.3673097142
 20
22.3422027731
 10
0.3839910114
 20
22.350622903
 10
0.4009147504
 20
22.3583855131
 10
0.418107738
 20
22.3655038838
 10
0.435554292
 20
22.3719735959
  0
LINE
  5
31C
100
AcDbEntity
  8
SIMBOLI
100
AcDbLine
 62
253
  6
CONTINUOUS
 10
-13.985071
 20
-11.429011
 11
-14.108021
 21
-11.447752
  0
LINE
  5
31D
100
AcDbEntity
  8
SIMBOLI
100
AcDbLine
 62
253
  6
CONTINUOUS
 10
-12.478425
 20
-11.396143
 11
-12.59574
 21
-11.413861
  0
LWPOLYLINE
  5
31E
100
AcDbEntity
  8
0
100
AcDbPolyline
 62
7
  6
CONTINUOUS
 90
23
 70
0
 10
0.1413006957
 20
-22.1
 10
0.1489673634
 20
-22.1167236087
 10
0.1573931139
 20
-22.1334245644
 10
0.1664634057
 20
-22.149855731
 10
0.1761330135
 20
-22.1659198134
 10
0.1864108788
 20
-22.1816158808
 10
0.1972880601
 20
-22.1969448639
 10
0.208692507
 20
-22.2118122589
 10
0.2206117051
 20
-22.2261967639
 10
0.2330581689
 20
-22.2401196809
 10
0.2459973916
 20
-22.253550411
 10
0.259428196
 20
-22.2664904364
 10
0.2733517594
 20
-22.2789382749
 10
0.2877371067
 20
-22.2908588817
 10
0.302605702
 20
-22.3022647482
 10
0.3179360814
 20
-22.3131433829
 10
0.3336328773
 20
-22.3234222665
 10
0.3496965044
 20
-22.3330921232
 10
0.3661265481
 20
-22.3421622288
 10
0.3828263979
 20
-22.3505878911
 10
0.3997692148
 20
-22.3583557574
 10
0.4169818377
 20
-22.3654791805
 10
0.4344481737
 20
-22.371953526
  0
LINE
  5
31F
100
AcDbEntity
  8
SIMBOLI
100
AcDbLine
 62
253
  6
CONTINUOUS
 10
-7.795396
 20
-11.66408
 11
-7.760678
 21
-11.864986
  0
LINE
  5
320
100
AcDbEntity
  8
SIMBOLI
100
AcDbLine
 62
253
  6
CONTINUOUS
 10
-8.01627
 20
-11.870811
 11
-8.033176
 21
-11.769382
  0
LINE
  5
321
100
AcDbEntity
  8
SIMBOLI
100
AcDbLine
 62
253
  6
CONTINUOUS
 10
-8.656656
 20
-11.053108
 11
-8.66584
 21
-11.125614
  0
LINE
  5
322
100
AcDbEntity
  8
SIMBOLI
100
AcDbLine
 62
253
  6
CONTINUOUS
 10
-9.448888
 20
-11.980379
 11
-9.425555
 21
-11.870811
  0
LINE
  5
323
100
AcDbEntity
  8
SIMBOLI
100
AcDbLine
 62
253
  6
CONTINUOUS
 10
-8.039602
 20
-11.980379
 11
-8.01627
 21
-11.870811
  0
LINE
  5
324
100
AcDbEntity
  8
SIMBOLI
100
AcDbLine
 62
253
  6
CONTINUOUS
 10
-10.309268
 20
-10.995419
 11
-10.257629
 21
-10.873597
  0
LINE
  5
325
100
AcDbEntity
  8
SIMBOLI
100
AcDbLine
 62
253
  6
CONTINUOUS
 10
-10.038388
 20
-10.989026
 11
-10.065941
 21
-11.053108
  0
LINE
  5
326
100
AcDbEntity
  8
SIMBOLI
100
AcDbLine
 62
253
  6
CONTINUOUS
 10
-12.072769
 20
-11.308022
 11
-12.143314
 21
-11.43982
  0
LINE
  5
327
100
AcDbEntity
  8
SIMBOLI
100
AcDbLine
 62
253
  6
CONTINUOUS
 10
-13.829044
 20
-11.283735
 11
-13.88995
 21
-11.372788
  0
LINE
  5
328
100
AcDbEntity
  8
0
100
AcDbLine
 62
7
  6
CONTINUOUS
 10
15.6912732553
 20
23.9912732553
 11
15.7
 21
24.0
  0
LINE
  5
329
100
AcDbEntity
  8
0
100
AcDbLine
 62
7
  6
CONTINUOUS
 10
15.7
 20
-24.0
 11
15.6912732553
 21
-23.9912732553
  0
LINE
  5
32A
100
AcDbEntity
  8
SIMBOLI
100
AcDbLine
 62
253
  6
CONTINUOUS
 10
-8.899982
 20
-10.995419
 11
-8.848344
 21
-10.873597
  0
LINE
  5
32B
100
AcDbEntity
  8
SIMBOLI
100
AcDbLine
 62
253
  6
CONTINUOUS
 10
-8.629103
 20
-10.989026
 11
-8.656656
 21
-11.053108
  0
LINE
  5
32C
100
AcDbEntity
  8
SIMBOLI
100
AcDbLine
 62
253
  6
CONTINUOUS
 10
-12.327417
 20
-11.25934
 11
-12.38666
 21
-11.342991
  0
LINE
  5
32D
100
AcDbEntity
  8
SIMBOLI
100
AcDbLine
 62
253
  6
CONTINUOUS
 10
-13.616596
 20
-11.431865
 11
-13.697398
 21
-11.536692
  0
LINE
  5
32E
100
AcDbEntity
  8
0
100
AcDbLine
 62
253
  6
CONTINUOUS
 10
21.1369056521
 20
24.4869014213
 11
21.1500042308
 21
24.5
  0
LINE
  5
32F
100
AcDbEntity
  8
0
100
AcDbLine
 62
253
  6
CONTINUOUS
 10
21.1369056521
 20
-24.4869014213
 11
21.1500042308
 21
-24.5
  0
LINE
  5
330
100
AcDbEntity
  8
SIMBOLI
100
AcDbLine
 62
253
  6
CONTINUOUS
 10
-10.257629
 20
-10.873597
 11
-10.173898
 21
-10.773196
  0
LINE
  5
331
100
AcDbEntity
  8
SIMBOLI
100
AcDbLine
 62
253
  6
CONTINUOUS
 10
-8.848344
 20
-10.873597
 11
-8.764613
 21
-10.773196
  0
LINE
  5
332
100
AcDbEntity
  8
SIMBOLI
100
AcDbLine
 62
253
  6
CONTINUOUS
 10
-9.993341
 20
-10.935694
 11
-10.038388
 21
-10.989026
  0
LINE
  5
333
100
AcDbEntity
  8
0
100
AcDbLine
 62
253
  6
CONTINUOUS
 10
21.3869014213
 20
24.2369056521
 11
21.4
 21
24.2500042308
  0
LINE
  5
334
100
AcDbEntity
  8
ASSI
100
AcDbLine
 62
253
  6
CONTINUOUS
 10
-22.0290966686
 20
-21.4792680061
 11
-22.15
 21
-21.6001713375
  0
LINE
  5
335
100
AcDbEntity
  8
ASSI
100
AcDbLine
 62
253
  6
CONTINUOUS
 10
21.5292680065
 20
21.9790966689
 11
21.6501713375
 21
22.1
  0
LINE
  5
336
100
AcDbEntity
  8
ASSI
100
AcDbLine
 62
253
  6
CONTINUOUS
 10
-21.5292680065
 20
-21.979096669
 11
-21.6501713375
 21
-22.1
  0
LINE
  5
337
100
AcDbEntity
  8
SIMBOLI
100
AcDbLine
 62
253
  6
CONTINUOUS
 10
-12.143314
 20
-11.43982
 11
-12.251544
 21
-11.538339
  0
LINE
  5
338
100
AcDbEntity
  8
DRAFT
100
AcDbLine
 62
7
  6
CONTINUOUS
 10
22.15
 20
-0.0
 11
22.345044505
 21
-0.0
  0
LINE
  5
339
100
AcDbEntity
  8
0
100
AcDbLine
 62
253
  6
CONTINUOUS
 10
21.3869014213
 20
-24.2369056521
 11
21.4
 21
-24.2500042308
  0
LINE
  5
33A
100
AcDbEntity
  8
ASSI
100
AcDbLine
 62
253
  6
CONTINUOUS
 10
-22.15
 20
21.6001713375
 11
-22.0290966732
 21
21.4792680107
  0
LINE
  5
33B
100
AcDbEntity
  8
ASSI
100
AcDbLine
 62
253
  6
CONTINUOUS
 10
21.6501713375
 20
-22.1
 11
21.5292680107
 21
-21.9790966731
  0
LINE
  5
33C
100
AcDbEntity
  8
ASSI
100
AcDbLine
 62
253
  6
CONTINUOUS
 10
-21.6501713375
 20
22.1
 11
-21.5292680107
 21
21.9790966732
  0
LWPOLYLINE
  5
33D
100
AcDbEntity
  8
0
100
AcDbPolyline
 62
7
  6
CONTINUOUS
 90
46
 70
0
 10
1.1072807489
 20
23.2669872981
 10
1.1074530002
 20
23.2624086438
 10
1.107879076
 20
23.2578133363
 10
1.1085612936
 20
23.2532084873
 10
1.1095016949
 20
23.2486040164
 10
1.1107020615
 20
23.2440046301
 10
1.1121640005
 20
23.2394098269
 10
1.1138888012
 20
23.2348274049
 10
1.1158774854
 20
23.2302649474
 10
1.1181310056
 20
23.2257218339
 10
1.1206498359
 20
23.2212061961
 10
1.1234341743
 20
23.2167259548
 10
1.1264843097
 20
23.2122803754
 10
1.1297998422
 20
23.2078778818
 10
1.1333800917
 20
23.2035266855
 10
1.1372246804
 20
23.1992259418
 10
1.1413322885
 20
23.1949843084
 10
1.1457012916
 20
23.190810255
 10
1.1503306031
 20
23.1867028731
 10
1.155217921
 20
23.1826710024
 10
1.1603606094
 20
23.1787233192
 10
1.1657568086
 20
23.174858895
 10
1.1714031697
 20
23.1710866868
 10
1.1772959661
 20
23.1674155212
 10
1.1834324633
 20
23.1638445008
 10
1.1898081936
 20
23.1603826202
 10
1.1964182527
 20
23.1570387866
 10
1.2032588898
 20
23.1538121858
 10
1.2103244393
 20
23.1507117507
 10
1.2176087277
 20
23.1477463786
 10
1.2251068131
 20
23.1449153837
 10
1.232811747
 20
23.1422275134
 10
1.2407160001
 20
23.139691538
 10
1.248813251
 20
23.1373069291
 10
1.2570951528
 20
23.1350821053
 10
1.2655527784
 20
23.1330255505
 10
1.2741783563
 20
23.1311368767
 10
1.2829620918
 20
23.1294239958
 10
1.2918935973
 20
23.1278949421
 10
1.3009635726
 20
23.1265494608
 10
1.3101474601
 20
23.1253969981
 10
1.3194464883
 20
23.1244418396
 10
1.3288901495
 20
23.123679751
 10
1.3384801207
 20
23.1231181344
 10
1.3481893412
 20
23.1227714623
 10
1.3580037468
 20
23.1226497308
  0
LWPOLYLINE
  5
33E
100
AcDbEntity
  8
0
100
AcDbPolyline
 62
253
  6
CONTINUOUS
 90
34
 70
0
 10
1.1130985787
 20
23.8443375673
 10
1.1134152294
 20
23.8340547998
 10
1.1142953912
 20
23.8237952398
 10
1.1157370775
 20
23.8135820427
 10
1.1177370345
 20
23.803438259
 10
1.1202907485
 20
23.7933867826
 10
1.1233924559
 20
23.7834502991
 10
1.1270351563
 20
23.7736512346
 10
1.1312106284
 20
23.764011705
 10
1.1359094483
 20
23.7545534661
 10
1.1411210111
 20
23.7452978646
 10
1.1468335547
 20
23.7362657898
 10
1.153034186
 20
23.7274776267
 10
1.1597089108
 20
23.7189532096
 10
1.1668426644
 20
23.7107117775
 10
1.1744193466
 20
23.702771931
 10
1.182421857
 20
23.6951515897
 10
1.1908321346
 20
23.6878679524
 10
1.1996311978
 20
23.6809374578
 10
1.2087991877
 20
23.6743757476
 10
1.2183154127
 20
23.6681976311
 10
1.2281583952
 20
23.6624170521
 10
1.2383059201
 20
23.6570470569
 10
1.2487350852
 20
23.6520997654
 10
1.2594223524
 20
23.6475863432
 10
1.2703436011
 20
23.6435169769
 10
1.2814741828
 20
23.6399008509
 10
1.2927889764
 20
23.6367461264
 10
1.304262445
 20
23.6340599235
 10
1.3158686938
 20
23.6318483049
 10
1.3275815281
 20
23.630116262
 10
1.3393745128
 20
23.6288677039
 10
1.3512210317
 20
23.6281054486
 10
1.3630943479
 20
23.6278312164
  0
LINE
  5
33F
100
AcDbEntity
  8
0
100
AcDbLine
 62
253
  6
CONTINUOUS
 10
1.1130985787
 20
-23.8443375673
 11
1.1072807489
 21
-23.2669872981
  0
LINE
  5
340
100
AcDbEntity
  8
0
100
AcDbLine
 62
253
  6
CONTINUOUS
 10
1.3630943479
 20
-23.6278312164
 11
1.3580037468
 21
-23.1226497308
  0
LINE
  5
341
100
AcDbEntity
  8
0
100
AcDbLine
 62
7
  6
CONTINUOUS
 10
1.1
 20
-22.4
 11
1.1
 21
-24.2500042308
  0
LINE
  5
342
100
AcDbEntity
  8
0
100
AcDbLine
 62
7
  6
CONTINUOUS
 10
1.1
 20
22.4
 11
1.1
 21
24.2500042308
  0
LINE
  5
343
100
AcDbEntity
  8
0
100
AcDbLine
 62
253
  6
CONTINUOUS
 10
1.1072807489
 20
23.2669872981
 11
1.1072807489
 21
22.3344140523
  0
LINE
  5
344
100
AcDbEntity
  8
0
100
AcDbLine
 62
253
  6
CONTINUOUS
 10
1.1072807489
 20
-22.3344140523
 11
1.1072807489
 21
-23.2669872981
  0
LINE
  5
345
100
AcDbEntity
  8
0
100
AcDbLine
 62
253
  6
CONTINUOUS
 10
1.1130985787
 20
24.2369056521
 11
1.1130985787
 21
23.8443375673
  0
LINE
  5
346
100
AcDbEntity
  8
0
100
AcDbLine
 62
253
  6
CONTINUOUS
 10
1.1130985787
 20
-23.8443375673
 11
1.1130985787
 21
-24.2369056521
  0
LINE
  5
347
100
AcDbEntity
  8
0
100
AcDbLine
 62
253
  6
CONTINUOUS
 10
1.3572765181
 20
23.1226497308
 11
1.3572765181
 21
22.3213883311
  0
LINE
  5
348
100
AcDbEntity
  8
0
100
AcDbLine
 62
253
  6
CONTINUOUS
 10
1.3572765181
 20
-22.3213883311
 11
1.3572765181
 21
-23.1226497308
  0
LINE
  5
349
100
AcDbEntity
  8
0
100
AcDbLine
 62
253
  6
CONTINUOUS
 10
1.3630943479
 20
-23.6278312164
 11
1.3630943479
 21
-24.4869014213
  0
LINE
  5
34A
100
AcDbEntity
  8
0
100
AcDbLine
 62
253
  6
CONTINUOUS
 10
1.3630943479
 20
23.6278312164
 11
1.3630943479
 21
24.4869014213
  0
LINE
  5
34B
100
AcDbEntity
  8
0
100
AcDbLine
 62
253
  6
CONTINUOUS
 10
1.1072807489
 20
23.2669872981
 11
1.1130985787
 21
23.8443375673
  0
LINE
  5
34C
100
AcDbEntity
  8
0
100
AcDbLine
 62
253
  6
CONTINUOUS
 10
1.3580037468
 20
23.1226497308
 11
1.3630943479
 21
23.6278312164
  0
LWPOLYLINE
  5
34D
100
AcDbEntity
  8
0
100
AcDbPolyline
 62
7
  6
CONTINUOUS
 90
34
 70
0
 10
1.1
 20
24.2500042308
 10
1.1002831502
 20
24.261899516
 10
1.1011319658
 20
24.2737678556
 10
1.1025445259
 20
24.2855823661
 10
1.1045176323
 20
24.2973162875
 10
1.1070468183
 20
24.3089430388
 10
1.1101263583
 20
24.320436279
 10
1.1137492787
 20
24.3317699738
 10
1.1179073742
 20
24.3429184493
 10
1.1225912278
 20
24.3538564463
 10
1.1277902312
 20
24.3645591876
 10
1.1334926084
 20
24.3750024283
 10
1.1396854419
 20
24.3851625059
 10
1.1463547045
 20
24.3950164051
 10
1.1534852893
 20
24.4045418038
 10
1.1610610411
 20
24.4137171191
 10
1.1690647995
 20
24.4225215661
 10
1.1774784339
 20
24.4309352005
 10
1.1862828809
 20
24.4389389589
 10
1.1954581962
 20
24.4465147107
 10
1.2049835949
 20
24.4536452955
 10
1.2148374941
 20
24.4603145581
 10
1.2249975717
 20
24.4665073916
 10
1.2354408124
 20
24.4722097688
 10
1.2461435537
 20
24.4774087722
 10
1.2570815507
 20
24.4820926258
 10
1.2682300262
 20
24.4862507213
 10
1.279563721
 20
24.4898736417
 10
1.2910569612
 20
24.4929531817
 10
1.3026837125
 20
24.4954823677
 10
1.3144176339
 20
24.4974554741
 10
1.3262321444
 20
24.4988680342
 10
1.338100484
 20
24.4997168498
 10
1.3499957692
 20
24.5
  0
LWPOLYLINE
  5
34E
100
AcDbEntity
  8
0
100
AcDbPolyline
 62
253
  6
CONTINUOUS
 90
34
 70
0
 10
1.1130985787
 20
24.2369056521
 10
1.1133822076
 20
24.248802311
 10
1.1142316477
 20
24.2606720293
 10
1.1156449765
 20
24.2724879116
 10
1.1176189951
 20
24.2842231913
 10
1.1201492321
 20
24.2958512706
 10
1.1232299507
 20
24.3073457817
 10
1.1268541679
 20
24.3186806742
 10
1.1310136722
 20
24.3298302705
 10
1.1356990365
 20
24.340769304
 10
1.1408996441
 20
24.3514729905
 10
1.1466037094
 20
24.3619170757
 10
1.1527983017
 20
24.3720778879
 10
1.1594693818
 20
24.381932404
 10
1.1666018328
 20
24.3914582982
 10
1.1741794893
 20
24.4006339852
 10
1.1821851835
 20
24.4094386807
 10
1.1906007697
 20
24.4178524323
 10
1.1994071613
 20
24.4258561639
 10
1.2085843746
 20
24.4334317248
 10
1.218111636
 20
24.4405619782
 10
1.2279674207
 20
24.4472308154
 10
1.2381294963
 20
24.4534231778
 10
1.2485747498
 20
24.4591249663
 10
1.2592792846
 20
24.4643231516
 10
1.2702186857
 20
24.4690059252
 10
1.2813682977
 20
24.4731627796
 10
1.2927030628
 20
24.4767843893
 10
1.3041990284
 20
24.479862968
 10
1.3158284637
 20
24.4823909579
 10
1.3275599583
 20
24.4843619039
 10
1.3393651338
 20
24.4857718998
 10
1.3512188764
 20
24.4866188016
 10
1.3630943479
 20
24.4869014213
  0
LWPOLYLINE
  5
34F
100
AcDbEntity
  8
0
100
AcDbPolyline
 62
253
  6
CONTINUOUS
 90
34
 70
0
 10
1.1130985787
 20
-23.8443375673
 10
1.1134147059
 20
-23.8340637895
 10
1.1142936182
 20
-23.8238108791
 10
1.1157337097
 20
-23.8136019692
 10
1.1177322757
 20
-23.8034593699
 10
1.1202850915
 20
-23.7934067803
 10
1.1233860116
 20
-23.7834691596
 10
1.1270277197
 20
-23.7736697274
 10
1.131202225
 20
-23.7640297916
 10
1.1359002057
 20
-23.7545709211
 10
1.1411111622
 20
-23.7453143541
 10
1.1468233034
 20
-23.7362811256
 10
1.1530236356
 20
-23.7274918143
 10
1.1596981116
 20
-23.7189663226
 10
1.1668317095
 20
-23.7107238287
 10
1.1744083435
 20
-23.7027829214
 10
1.1824109257
 20
-23.6951615168
 10
1.190821384
 20
-23.6878768325
 10
1.1996207164
 20
-23.6809453292
 10
1.2087890533
 20
-23.6743826581
 10
1.2183057051
 20
-23.6682036281
 10
1.2281491901
 20
-23.6624221869
 10
1.2382972889
 20
-23.6570513849
 10
1.2487270938
 20
-23.6521033459
 10
1.2594150612
 20
-23.6475892394
 10
1.2703370778
 20
-23.6435192505
 10
1.281468477
 20
-23.6399025721
 10
1.2927840914
 20
-23.6367473785
 10
1.3042583493
 20
-23.6340607927
 10
1.315865375
 20
-23.6318488662
 10
1.3275790087
 20
-23.6301165815
 10
1.3393728236
 20
-23.6288678476
 10
1.3512201842
 20
-23.6281054856
 10
1.3630943479
 20
-23.6278312164
  0
LWPOLYLINE
  5
350
100
AcDbEntity
  8
0
100
AcDbPolyline
 62
7
  6
CONTINUOUS
 90
46
 70
0
 10
1.1072807489
 20
-23.2669872981
 10
1.1074530002
 20
-23.2624086438
 10
1.107879076
 20
-23.2578133363
 10
1.1085612936
 20
-23.2532084873
 10
1.1095016949
 20
-23.2486040164
 10
1.1107020615
 20
-23.2440046301
 10
1.1121640005
 20
-23.2394098269
 10
1.1138888012
 20
-23.2348274049
 10
1.1158774854
 20
-23.2302649474
 10
1.1181310056
 20
-23.2257218339
 10
1.1206498359
 20
-23.2212061961
 10
1.1234341743
 20
-23.2167259548
 10
1.1264843097
 20
-23.2122803754
 10
1.1297998422
 20
-23.2078778818
 10
1.1333800917
 20
-23.2035266855
 10
1.1372246804
 20
-23.1992259418
 10
1.1413322885
 20
-23.1949843084
 10
1.1457012916
 20
-23.190810255
 10
1.1503306031
 20
-23.1867028731
 10
1.155217921
 20
-23.1826710024
 10
1.1603606094
 20
-23.1787233192
 10
1.1657568086
 20
-23.174858895
 10
1.1714031697
 20
-23.1710866868
 10
1.1772959661
 20
-23.1674155212
 10
1.1834324633
 20
-23.1638445008
 10
1.1898081936
 20
-23.1603826202
 10
1.1964182527
 20
-23.1570387866
 10
1.2032588898
 20
-23.1538121858
 10
1.2103244393
 20
-23.1507117507
 10
1.2176087277
 20
-23.1477463786
 10
1.2251068131
 20
-23.1449153837
 10
1.232811747
 20
-23.1422275134
 10
1.2407160001
 20
-23.139691538
 10
1.248813251
 20
-23.1373069291
 10
1.2570951528
 20
-23.1350821053
 10
1.2655527784
 20
-23.1330255505
 10
1.2741783563
 20
-23.1311368767
 10
1.2829620918
 20
-23.1294239958
 10
1.2918935973
 20
-23.1278949421
 10
1.3009635726
 20
-23.1265494608
 10
1.3101474601
 20
-23.1253969981
 10
1.3194464883
 20
-23.1244418396
 10
1.3288901495
 20
-23.123679751
 10
1.3384801207
 20
-23.1231181344
 10
1.3481893412
 20
-23.1227714623
 10
1.3580037468
 20
-23.1226497308
  0
LINE
  5
351
100
AcDbEntity
  8
0
100
AcDbLine
 62
7
  6
CONTINUOUS
 10
4.0
 20
22.4
 11
3.9927192511
 21
22.3344140523
  0
LINE
  5
352
100
AcDbEntity
  8
SIMBOLI
100
AcDbLine
 62
253
  6
CONTINUOUS
 10
-8.584056
 20
-10.935694
 11
-8.629103
 21
-10.989026
  0
LINE
  5
353
100
AcDbEntity
  8
SIMBOLI
100
AcDbLine
 62
253
  6
CONTINUOUS
 10
-9.518886
 20
-12.062626
 11
-9.448888
 21
-11.980379
  0
LINE
  5
354
100
AcDbEntity
  8
SIMBOLI
100
AcDbLine
 62
253
  6
CONTINUOUS
 10
-8.109601
 20
-12.062626
 11
-8.039602
 21
-11.980379
  0
LINE
  5
355
100
AcDbEntity
  8
ASSI
100
AcDbLine
 62
253
  6
CONTINUOUS
 10
22.0290966685
 20
21.4792680061
 11
22.15
 21
21.6001713375
  0
LINE
  5
356
100
AcDbEntity
  8
SIMBOLI
100
AcDbLine
 62
253
  6
CONTINUOUS
 10
-9.229492
 20
-10.829954
 11
-9.395216
 21
-10.993472
  0
LINE
  5
357
100
AcDbEntity
  8
SIMBOLI
100
AcDbLine
 62
253
  6
CONTINUOUS
 10
-7.820207
 20
-10.829954
 11
-7.985931
 21
-10.993472
  0
LINE
  5
358
100
AcDbEntity
  8
SIMBOLI
100
AcDbLine
 62
253
  6
CONTINUOUS
 10
-10.384774
 20
-12.138273
 11
-10.211901
 21
-11.967982
  0
LINE
  5
359
100
AcDbEntity
  8
SIMBOLI
100
AcDbLine
 62
253
  6
CONTINUOUS
 10
-8.975489
 20
-12.138273
 11
-8.802616
 21
-11.967982
  0
LWPOLYLINE
  5
35A
100
AcDbEntity
  8
SIMBOLI
100
AcDbPolyline
 62
253
  6
CONTINUOUS
 90
53
 70
0
 10
-10.173898
 20
-10.773196
 10
-10.1615372749
 20
-10.7626098951
 10
-10.1487547097
 20
-10.7524224125
 10
-10.1355001956
 20
-10.7425986744
 10
-10.1217236236
 20
-10.733103803
 10
-10.1073812473
 20
-10.7239127411
 10
-10.0924547691
 20
-10.7150397152
 10
-10.0769322538
 20
-10.7065087721
 10
-10.0608017662
 20
-10.698343959
 10
-10.0440607409
 20
-10.6905713722
 10
-10.0267440924
 20
-10.6832253054
 10
-10.0088961051
 20
-10.6763421019
 10
-9.9905610635
 20
-10.6699581046
 10
-9.9717820389
 20
-10.6641056114
 10
-9.9525972511
 20
-10.6588007396
 10
-9.9330437067
 20
-10.6540555615
 10
-9.9131584126
 20
-10.649882149
 10
-9.8929738249
 20
-10.6462871557
 10
-9.872504197
 20
-10.6432555608
 10
-9.8517592319
 20
-10.6407669247
 10
-9.8307486327
 20
-10.638800808
 10
-9.8094830651
 20
-10.637337448
 10
-9.7879770474
 20
-10.6363597897
 10
-9.7662460604
 20
-10.6358514552
 10
-9.7443055854
 20
-10.6357960663
 10
-9.7221733153
 20
-10.6361846654
 10
-9.6998757914
 20
-10.6370379766
 10
-9.6774417667
 20
-10.6383841445
 10
-9.6548999944
 20
-10.6402513135
 10
-9.6322765289
 20
-10.6426686582
 10
-9.6095866298
 20
-10.6456694735
 10
-9.586842858
 20
-10.6492880841
 10
-9.5640577743
 20
-10.6535588148
 10
-9.5458127181
 20
-10.6574700646
 10
-9.5275815789
 20
-10.6618506475
 10
-9.5093966743
 20
-10.6667305721
 10
-9.491290322
 20
-10.6721398468
 10
-9.4732948397
 20
-10.6781084799
 10
-9.4554411945
 20
-10.6846584657
 10
-9.4377549521
 20
-10.6917797419
 10
-9.4202603274
 20
-10.6994542318
 10
-9.4029815357
 20
-10.707663859
 10
-9.3859427919
 20
-10.7163905469
 10
-9.3691642228
 20
-10.7256172171
 10
-9.3526496011
 20
-10.7353307836
 10
-9.3363986111
 20
-10.7455191586
 10
-9.3204109372
 20
-10.7561702543
 10
-9.3046862637
 20
-10.767271983
 10
-9.289220236
 20
-10.7788189524
 10
-9.2739923445
 20
-10.7908325528
 10
-9.2589780404
 20
-10.8033408703
 10
-9.2441527751
 20
-10.8163719907
 10
-9.229492
 20
-10.829954
  0
LWPOLYLINE
  5
35B
100
AcDbEntity
  8
SIMBOLI
100
AcDbPolyline
 62
253
  6
CONTINUOUS
 90
53
 70
0
 10
-8.764613
 20
-10.773196
 10
-8.7522521908
 20
-10.7626098272
 10
-8.7394695369
 20
-10.7524222819
 10
-8.726214919
 20
-10.74259848
 10
-8.7124382175
 20
-10.7331035377
 10
-8.6980956764
 20
-10.7239123933
 10
-8.6831689943
 20
-10.7150392754
 10
-8.6676462332
 20
-10.7065082348
 10
-8.651515455
 20
-10.6983433225
 10
-8.6347740938
 20
-10.6905706392
 10
-8.6174570706
 20
-10.6832244844
 10
-8.5996086784
 20
-10.6763412075
 10
-8.5812732102
 20
-10.6699571576
 10
-8.5624937461
 20
-10.6641046379
 10
-8.5433085139
 20
-10.6587997667
 10
-8.5237545287
 20
-10.6540546162
 10
-8.5038688053
 20
-10.6498812586
 10
-8.4836838064
 20
-10.6462863463
 10
-8.4632137856
 20
-10.6432548531
 10
-8.4424684438
 20
-10.6407663327
 10
-8.4214574824
 20
-10.6388003392
 10
-8.4001915664
 20
-10.6373371046
 10
-8.3786852171
 20
-10.636359573
 10
-8.3569539197
 20
-10.6358513667
 10
-8.3350131594
 20
-10.6357961079
 10
-8.312880633
 20
-10.6361848402
 10
-8.2905828833
 20
-10.6370382925
 10
-8.2681486645
 20
-10.6383846151
 10
-8.245606731
 20
-10.6402519581
 10
-8.2229831381
 20
-10.6426695016
 10
-8.2002931444
 20
-10.6456705439
 10
-8.1775493097
 20
-10.6492894134
 10
-8.1547641937
 20
-10.6535604381
 10
-8.1365191339
 20
-10.657471948
 10
-8.1182880156
 20
-10.6618528024
 10
-8.1001031622
 20
-10.6667329964
 10
-8.081996897
 20
-10.6721425251
 10
-8.0640015435
 20
-10.6781113835
 10
-8.046148074
 20
-10.6846615539
 10
-8.0284620573
 20
-10.6917829674
 10
-8.0109677113
 20
-10.6994575422
 10
-7.9936892535
 20
-10.7076671965
 10
-7.976650902
 20
-10.7163938486
 10
-7.959872785
 20
-10.7256204166
 10
-7.9433586728
 20
-10.7353338182
 10
-7.9271082464
 20
-10.7455219711
 10
-7.9111211866
 20
-10.756172793
 10
-7.8953971743
 20
-10.7672742015
 10
-7.8799318532
 20
-10.7788208089
 10
-7.8647047179
 20
-10.7908340065
 10
-7.8496912257
 20
-10.8033418802
 10
-7.8348668339
 20
-10.8163725161
 10
-7.820207
 20
-10.829954
  0
LINE
  5
35C
100
AcDbEntity
  8
SIMBOLI
100
AcDbLine
 62
253
  6
CONTINUOUS
 10
-13.697398
 20
-11.536692
 11
-13.807264
 21
-11.61641
  0
LINE
  5
35D
100
AcDbEntity
  8
SIMBOLI
100
AcDbLine
 62
253
  6
CONTINUOUS
 10
-13.88995
 20
-11.372788
 11
-13.985071
 21
-11.429011
  0
LINE
  5
35E
100
AcDbEntity
  8
ASSI
100
AcDbLine
 62
253
  6
CONTINUOUS
 10
22.15
 20
-21.6001713375
 11
22.0290966731
 21
-21.4792680107
  0
LINE
  5
35F
100
AcDbEntity
  8
0
100
AcDbLine
 62
7
  6
CONTINUOUS
 10
4.0
 20
-22.4
 11
3.9927192511
 21
-22.3344140523
  0
LWPOLYLINE
  5
360
100
AcDbEntity
  8
0
100
AcDbPolyline
 62
7
  6
CONTINUOUS
 90
46
 70
0
 10
3.9927192511
 20
-23.2669872981
 10
3.9925469998
 20
-23.2624086438
 10
3.992120924
 20
-23.2578133363
 10
3.9914387064
 20
-23.2532084873
 10
3.9904983051
 20
-23.2486040164
 10
3.9892979385
 20
-23.2440046301
 10
3.9878359995
 20
-23.2394098269
 10
3.9861111988
 20
-23.2348274049
 10
3.9841225146
 20
-23.2302649474
 10
3.9818689944
 20
-23.2257218339
 10
3.9793501641
 20
-23.2212061961
 10
3.9765658257
 20
-23.2167259548
 10
3.9735156903
 20
-23.2122803754
 10
3.9702001578
 20
-23.2078778818
 10
3.9666199083
 20
-23.2035266855
 10
3.9627753196
 20
-23.1992259418
 10
3.9586677115
 20
-23.1949843084
 10
3.9542987084
 20
-23.190810255
 10
3.9496693969
 20
-23.1867028731
 10
3.944782079
 20
-23.1826710024
 10
3.9396393906
 20
-23.1787233192
 10
3.9342431914
 20
-23.174858895
 10
3.9285968303
 20
-23.1710866868
 10
3.9227040339
 20
-23.1674155212
 10
3.9165675367
 20
-23.1638445008
 10
3.9101918064
 20
-23.1603826202
 10
3.9035817473
 20
-23.1570387866
 10
3.8967411102
 20
-23.1538121858
 10
3.8896755607
 20
-23.1507117507
 10
3.8823912723
 20
-23.1477463786
 10
3.8748931869
 20
-23.1449153837
 10
3.867188253
 20
-23.1422275134
 10
3.8592839999
 20
-23.139691538
 10
3.851186749
 20
-23.1373069291
 10
3.8429048472
 20
-23.1350821053
 10
3.8344472216
 20
-23.1330255505
 10
3.8258216437
 20
-23.1311368767
 10
3.8170379082
 20
-23.1294239958
 10
3.8081064027
 20
-23.1278949421
 10
3.7990364274
 20
-23.1265494608
 10
3.7898525399
 20
-23.1253969981
 10
3.7805535117
 20
-23.1244418396
 10
3.7711098505
 20
-23.123679751
 10
3.7615198793
 20
-23.1231181344
 10
3.7518106588
 20
-23.1227714623
 10
3.7419962532
 20
-23.1226497308
  0
LWPOLYLINE
  5
361
100
AcDbEntity
  8
0
100
AcDbPolyline
 62
253
  6
CONTINUOUS
 90
34
 70
0
 10
3.9869014213
 20
-23.8443375673
 10
3.9865847706
 20
-23.8340547998
 10
3.9857046088
 20
-23.8237952398
 10
3.9842629225
 20
-23.8135820427
 10
3.9822629655
 20
-23.803438259
 10
3.9797092515
 20
-23.7933867826
 10
3.9766075441
 20
-23.7834502991
 10
3.9729648437
 20
-23.7736512346
 10
3.9687893716
 20
-23.764011705
 10
3.9640905517
 20
-23.7545534661
 10
3.9588789889
 20
-23.7452978646
 10
3.9531664453
 20
-23.7362657898
 10
3.946965814
 20
-23.7274776267
 10
3.9402910892
 20
-23.7189532096
 10
3.9331573356
 20
-23.7107117775
 10
3.9255806534
 20
-23.702771931
 10
3.917578143
 20
-23.6951515897
 10
3.9091678654
 20
-23.6878679524
 10
3.9003688022
 20
-23.6809374578
 10
3.8912008123
 20
-23.6743757476
 10
3.8816845873
 20
-23.6681976311
 10
3.8718416048
 20
-23.6624170521
 10
3.8616940799
 20
-23.6570470569
 10
3.8512649148
 20
-23.6520997654
 10
3.8405776476
 20
-23.6475863432
 10
3.8296563989
 20
-23.6435169769
 10
3.8185258172
 20
-23.6399008509
 10
3.8072110236
 20
-23.6367461264
 10
3.795737555
 20
-23.6340599235
 10
3.7841313062
 20
-23.6318483049
 10
3.7724184719
 20
-23.630116262
 10
3.7606254872
 20
-23.6288677039
 10
3.7487789683
 20
-23.6281054486
 10
3.7369056521
 20
-23.6278312164
  0
LINE
  5
362
100
AcDbEntity
  8
0
100
AcDbLine
 62
253
  6
CONTINUOUS
 10
3.7369056521
 20
23.6278312164
 11
3.7419962532
 21
23.1226497308
  0
LINE
  5
363
100
AcDbEntity
  8
0
100
AcDbLine
 62
253
  6
CONTINUOUS
 10
3.9869014213
 20
23.8443375673
 11
3.9927192511
 21
23.2669872981
  0
LINE
  5
364
100
AcDbEntity
  8
0
100
AcDbLine
 62
253
  6
CONTINUOUS
 10
3.7369056521
 20
-23.6278312164
 11
3.7369056521
 21
-24.4869014213
  0
LINE
  5
365
100
AcDbEntity
  8
0
100
AcDbLine
 62
253
  6
CONTINUOUS
 10
3.7369056521
 20
23.6278312164
 11
3.7369056521
 21
24.4869014213
  0
LINE
  5
366
100
AcDbEntity
  8
0
100
AcDbLine
 62
253
  6
CONTINUOUS
 10
3.7427234819
 20
-23.1226497308
 11
3.7427234819
 21
-22.3213883311
  0
LINE
  5
367
100
AcDbEntity
  8
0
100
AcDbLine
 62
253
  6
CONTINUOUS
 10
3.7427234819
 20
22.3213883311
 11
3.7427234819
 21
23.1226497308
  0
LINE
  5
368
100
AcDbEntity
  8
0
100
AcDbLine
 62
253
  6
CONTINUOUS
 10
3.9869014213
 20
-24.2369056521
 11
3.9869014213
 21
-23.8443375673
  0
LINE
  5
369
100
AcDbEntity
  8
0
100
AcDbLine
 62
253
  6
CONTINUOUS
 10
3.9869014213
 20
23.8443375673
 11
3.9869014213
 21
24.2369056521
  0
LINE
  5
36A
100
AcDbEntity
  8
0
100
AcDbLine
 62
253
  6
CONTINUOUS
 10
3.9927192511
 20
-23.2669872981
 11
3.9927192511
 21
-22.3344140523
  0
LINE
  5
36B
100
AcDbEntity
  8
0
100
AcDbLine
 62
253
  6
CONTINUOUS
 10
3.9927192511
 20
22.3344140523
 11
3.9927192511
 21
23.2669872981
  0
LINE
  5
36C
100
AcDbEntity
  8
0
100
AcDbLine
 62
7
  6
CONTINUOUS
 10
4.0
 20
-22.4
 11
4.0
 21
-24.2500042308
  0
LINE
  5
36D
100
AcDbEntity
  8
0
100
AcDbLine
 62
7
  6
CONTINUOUS
 10
4.0
 20
22.4
 11
4.0
 21
24.2500042308
  0
LINE
  5
36E
100
AcDbEntity
  8
0
100
AcDbLine
 62
253
  6
CONTINUOUS
 10
3.7419962532
 20
-23.1226497308
 11
3.7369056521
 21
-23.6278312164
  0
LINE
  5
36F
100
AcDbEntity
  8
0
100
AcDbLine
 62
253
  6
CONTINUOUS
 10
3.9927192511
 20
-23.2669872981
 11
3.9869014213
 21
-23.8443375673
  0
LWPOLYLINE
  5
370
100
AcDbEntity
  8
0
100
AcDbPolyline
 62
253
  6
CONTINUOUS
 90
34
 70
0
 10
3.9869014213
 20
-24.2369056521
 10
3.9866178705
 20
-24.2488006736
 10
3.9857686655
 20
-24.2606687503
 10
3.9843557301
 20
-24.2724829982
 10
3.9823822649
 20
-24.2842166554
 10
3.9798527401
 20
-24.2958431426
 10
3.9767728857
 20
-24.3073361233
 10
3.9731496783
 20
-24.3186695631
 10
3.9689913253
 20
-24.3298177893
 10
3.9643072462
 20
-24.3407555487
 10
3.9591080515
 20
-24.3514580649
 10
3.9534055187
 20
-24.3619010942
 10
3.9472125651
 20
-24.3720609807
 10
3.9405432193
 20
-24.3819147102
 10
3.9334125887
 20
-24.3914399617
 10
3.9258368259
 20
-24.4006151584
 10
3.9178330917
 20
-24.4094195163
 10
3.9094195163
 20
-24.4178330917
 10
3.9006151584
 20
-24.4258368259
 10
3.8914399617
 20
-24.4334125887
 10
3.8819147102
 20
-24.4405432193
 10
3.8720609807
 20
-24.4472125651
 10
3.8619010942
 20
-24.4534055187
 10
3.8514580649
 20
-24.4591080515
 10
3.8407555487
 20
-24.4643072462
 10
3.8298177893
 20
-24.4689913253
 10
3.8186695631
 20
-24.4731496783
 10
3.8073361233
 20
-24.4767728857
 10
3.7958431426
 20
-24.4798527401
 10
3.7842166554
 20
-24.4823822649
 10
3.7724829982
 20
-24.4843557301
 10
3.7606687503
 20
-24.4857686655
 10
3.7488006736
 20
-24.4866178705
 10
3.7369056521
 20
-24.4869014213
  0
LWPOLYLINE
  5
371
100
AcDbEntity
  8
0
100
AcDbPolyline
 62
7
  6
CONTINUOUS
 90
34
 70
0
 10
4.0
 20
-24.2500042308
 10
3.9997168498
 20
-24.261899516
 10
3.9988680342
 20
-24.2737678556
 10
3.9974554741
 20
-24.2855823661
 10
3.9954823677
 20
-24.2973162875
 10
3.9929531817
 20
-24.3089430388
 10
3.9898736417
 20
-24.320436279
 10
3.9862507213
 20
-24.3317699738
 10
3.9820926258
 20
-24.3429184493
 10
3.9774087722
 20
-24.3538564463
 10
3.9722097688
 20
-24.3645591876
 10
3.9665073916
 20
-24.3750024283
 10
3.9603145581
 20
-24.3851625059
 10
3.9536452955
 20
-24.3950164051
 10
3.9465147107
 20
-24.4045418038
 10
3.9389389589
 20
-24.4137171191
 10
3.9309352005
 20
-24.4225215661
 10
3.9225215661
 20
-24.4309352005
 10
3.9137171191
 20
-24.4389389589
 10
3.9045418038
 20
-24.4465147107
 10
3.8950164051
 20
-24.4536452955
 10
3.8851625059
 20
-24.4603145581
 10
3.8750024283
 20
-24.4665073916
 10
3.8645591876
 20
-24.4722097688
 10
3.8538564463
 20
-24.4774087722
 10
3.8429184493
 20
-24.4820926258
 10
3.8317699738
 20
-24.4862507213
 10
3.820436279
 20
-24.4898736417
 10
3.8089430388
 20
-24.4929531817
 10
3.7973162875
 20
-24.4954823677
 10
3.7855823661
 20
-24.4974554741
 10
3.7737678556
 20
-24.4988680342
 10
3.761899516
 20
-24.4997168498
 10
3.7500042308
 20
-24.5
  0
LWPOLYLINE
  5
372
100
AcDbEntity
  8
0
100
AcDbPolyline
 62
253
  6
CONTINUOUS
 90
34
 70
0
 10
3.9869014213
 20
23.8443375673
 10
3.9865852941
 20
23.8340637895
 10
3.9857063818
 20
23.8238108791
 10
3.9842662903
 20
23.8136019692
 10
3.9822677243
 20
23.8034593699
 10
3.9797149085
 20
23.7934067803
 10
3.9766139884
 20
23.7834691596
 10
3.9729722803
 20
23.7736697274
 10
3.968797775
 20
23.7640297916
 10
3.9640997943
 20
23.7545709211
 10
3.9588888378
 20
23.7453143541
 10
3.9531766966
 20
23.7362811256
 10
3.9469763644
 20
23.7274918143
 10
3.9403018884
 20
23.7189663226
 10
3.9331682905
 20
23.7107238287
 10
3.9255916565
 20
23.7027829214
 10
3.9175890743
 20
23.6951615168
 10
3.909178616
 20
23.6878768325
 10
3.9003792836
 20
23.6809453292
 10
3.8912109467
 20
23.6743826581
 10
3.8816942949
 20
23.6682036281
 10
3.8718508099
 20
23.6624221869
 10
3.8617027111
 20
23.6570513849
 10
3.8512729062
 20
23.6521033459
 10
3.8405849388
 20
23.6475892394
 10
3.8296629222
 20
23.6435192505
 10
3.818531523
 20
23.6399025721
 10
3.8072159086
 20
23.6367473785
 10
3.7957416507
 20
23.6340607927
 10
3.784134625
 20
23.6318488662
 10
3.7724209913
 20
23.6301165815
 10
3.7606271764
 20
23.6288678476
 10
3.7487798158
 20
23.6281054856
 10
3.7369056521
 20
23.6278312164
  0
LWPOLYLINE
  5
373
100
AcDbEntity
  8
0
100
AcDbPolyline
 62
7
  6
CONTINUOUS
 90
46
 70
0
 10
3.9927192511
 20
23.2669872981
 10
3.9925469998
 20
23.2624086438
 10
3.992120924
 20
23.2578133363
 10
3.9914387064
 20
23.2532084873
 10
3.9904983051
 20
23.2486040164
 10
3.9892979385
 20
23.2440046301
 10
3.9878359995
 20
23.2394098269
 10
3.9861111988
 20
23.2348274049
 10
3.9841225146
 20
23.2302649474
 10
3.9818689944
 20
23.2257218339
 10
3.9793501641
 20
23.2212061961
 10
3.9765658257
 20
23.2167259548
 10
3.9735156903
 20
23.2122803754
 10
3.9702001578
 20
23.2078778818
 10
3.9666199083
 20
23.2035266855
 10
3.9627753196
 20
23.1992259418
 10
3.9586677115
 20
23.1949843084
 10
3.9542987084
 20
23.190810255
 10
3.9496693969
 20
23.1867028731
 10
3.944782079
 20
23.1826710024
 10
3.9396393906
 20
23.1787233192
 10
3.9342431914
 20
23.174858895
 10
3.9285968303
 20
23.1710866868
 10
3.9227040339
 20
23.1674155212
 10
3.9165675367
 20
23.1638445008
 10
3.9101918064
 20
23.1603826202
 10
3.9035817473
 20
23.1570387866
 10
3.8967411102
 20
23.1538121858
 10
3.8896755607
 20
23.1507117507
 10
3.8823912723
 20
23.1477463786
 10
3.8748931869
 20
23.1449153837
 10
3.867188253
 20
23.1422275134
 10
3.8592839999
 20
23.139691538
 10
3.851186749
 20
23.1373069291
 10
3.8429048472
 20
23.1350821053
 10
3.8344472216
 20
23.1330255505
 10
3.8258216437
 20
23.1311368767
 10
3.8170379082
 20
23.1294239958
 10
3.8081064027
 20
23.1278949421
 10
3.7990364274
 20
23.1265494608
 10
3.7898525399
 20
23.1253969981
 10
3.7805535117
 20
23.1244418396
 10
3.7711098505
 20
23.123679751
 10
3.7615198793
 20
23.1231181344
 10
3.7518106588
 20
23.1227714623
 10
3.7419962532
 20
23.1226497308
  0
LINE
  5
374
100
AcDbEntity
  8
0
100
AcDbLine
 62
7
  6
CONTINUOUS
 10
1.1
 20
-22.4
 11
1.1072807489
 21
-22.3344140523
  0
LINE
  5
375
100
AcDbEntity
  8
SIMBOLI
100
AcDbLine
 62
253
  6
CONTINUOUS
 10
-12.38666
 20
-11.342991
 11
-12.478425
 21
-11.396143
  0
LWPOLYLINE
  5
376
100
AcDbEntity
  8
SIMBOLI
100
AcDbPolyline
 62
253
  6
CONTINUOUS
 90
28
 70
0
 10
-13.807264
 20
-11.61641
 10
-13.8172723606
 20
-11.6214779227
 10
-13.8273256847
 20
-11.626344984
 10
-13.8374228957
 20
-11.6310113591
 10
-13.8475629171
 20
-11.6354772231
 10
-13.8577446724
 20
-11.639742751
 10
-13.8679670851
 20
-11.643808118
 10
-13.8782290787
 20
-11.6476734992
 10
-13.8885295765
 20
-11.6513390698
 10
-13.8988675022
 20
-11.6548050048
 10
-13.909242389
 20
-11.658071571
 10
-13.9196562097
 20
-11.6611394015
 10
-13.930111547
 20
-11.6640092212
 10
-13.9406109835
 20
-11.6666817547
 10
-13.9511571018
 20
-11.669157727
 10
-13.9617524845
 20
-11.6714378627
 10
-13.9723997143
 20
-11.6735228866
 10
-13.9831013738
 20
-11.6754135236
 10
-13.9938600457
 20
-11.6771104984
 10
-14.0046777367
 20
-11.6786142422
 10
-14.0155541503
 20
-11.6799240114
 10
-14.0264884142
 20
-11.6810387692
 10
-14.037479656
 20
-11.6819574785
 10
-14.0485270032
 20
-11.6826791021
 10
-14.0596295836
 20
-11.6832026032
 10
-14.0707865248
 20
-11.6835269445
 10
-14.0819969544
 20
-11.6836510891
 10
-14.09326
 20
-11.683574
  0
LINE
  5
377
100
AcDbEntity
  8
0
100
AcDbLine
 62
7
  6
CONTINUOUS
 10
1.1
 20
22.4
 11
1.1072807489
 21
22.3344140523
  0
LINE
  5
378
100
AcDbEntity
  8
0
100
AcDbLine
 62
7
  6
CONTINUOUS
 10
6.8
 20
-22.4
 11
6.8
 21
-24.0
  0
LINE
  5
379
100
AcDbEntity
  8
0
100
AcDbLine
 62
7
  6
CONTINUOUS
 10
6.8
 20
22.4
 11
6.8
 21
24.0
  0
LINE
  5
37A
100
AcDbEntity
  8
0
100
AcDbLine
 62
7
  6
CONTINUOUS
 10
6.8087267447
 20
23.9912732553
 11
6.8087267447
 21
22.3213883311
  0
LINE
  5
37B
100
AcDbEntity
  8
0
100
AcDbLine
 62
7
  6
CONTINUOUS
 10
6.8087267447
 20
-22.3213883311
 11
6.8087267447
 21
-23.9912732553
  0
LINE
  5
37C
100
AcDbEntity
  8
0
100
AcDbLine
 62
7
  6
CONTINUOUS
 10
7.75
 20
-23.9982478817
 11
7.75
 21
-22.3213883311
  0
LINE
  5
37D
100
AcDbEntity
  8
0
100
AcDbLine
 62
7
  6
CONTINUOUS
 10
7.75
 20
22.3213883311
 11
7.75
 21
23.9982478817
  0
LINE
  5
37E
100
AcDbEntity
  8
0
100
AcDbLine
 62
253
  6
CONTINUOUS
 10
0.6004921535
 20
-22.4
 11
0.6266747509
 21
-22.3213883311
  0
LINE
  5
37F
100
AcDbEntity
  8
SIMBOLI
100
AcDbLine
 62
253
  6
CONTINUOUS
 10
-9.630013
 20
-12.114066
 11
-9.518886
 21
-12.062626
  0
LINE
  5
380
100
AcDbEntity
  8
SIMBOLI
100
AcDbLine
 62
253
  6
CONTINUOUS
 10
-8.220728
 20
-12.114066
 11
-8.109601
 21
-12.062626
  0
LINE
  5
381
100
AcDbEntity
  8
SIMBOLI
100
AcDbLine
 62
253
  6
CONTINUOUS
 10
-12.251544
 20
-11.538339
 11
-12.388116
 21
-11.5992
  0
LINE
  5
382
100
AcDbEntity
  8
0
100
AcDbLine
 62
253
  6
CONTINUOUS
 10
0.6266747509
 20
22.3213883311
 11
0.6004921535
 21
22.4
  0
LINE
  5
383
100
AcDbEntity
  8
0
100
AcDbLine
 62
253
  6
CONTINUOUS
 10
10.05
 20
-22.3737961104
 11
10.05
 21
-24.0
  0
LINE
  5
384
100
AcDbEntity
  8
0
100
AcDbLine
 62
253
  6
CONTINUOUS
 10
10.05
 20
22.3737961104
 11
10.05
 21
24.0
  0
LINE
  5
385
100
AcDbEntity
  8
0
100
AcDbLine
 62
7
  6
CONTINUOUS
 10
10.25
 20
-23.7999966153
 11
10.25
 21
-22.3842776662
  0
LINE
  5
386
100
AcDbEntity
  8
0
100
AcDbLine
 62
7
  6
CONTINUOUS
 10
10.25
 20
22.3842776662
 11
10.25
 21
23.7999966153
  0
LINE
  5
387
100
AcDbEntity
  8
0
100
AcDbLine
 62
7
  6
CONTINUOUS
 10
6.8
 20
-22.4
 11
6.8087267447
 21
-22.3213883311
  0
LINE
  5
388
100
AcDbEntity
  8
0
100
AcDbLine
 62
7
  6
CONTINUOUS
 10
6.8087267447
 20
22.3213883311
 11
6.8
 21
22.4
  0
LINE
  5
389
100
AcDbEntity
  8
0
100
AcDbLine
 62
253
  6
CONTINUOUS
 10
10.25
 20
23.7999966153
 11
10.25
 21
23.7982512664
  0
LINE
  5
38A
100
AcDbEntity
  8
0
100
AcDbLine
 62
253
  6
CONTINUOUS
 10
12.25
 20
-23.7999966153
 11
12.25
 21
-23.7982512664
  0
LINE
  5
38B
100
AcDbEntity
  8
0
100
AcDbLine
 62
7
  6
CONTINUOUS
 10
10.2498096485
 20
23.8087205449
 11
10.25
 21
23.7999966153
  0
LINE
  5
38C
100
AcDbEntity
  8
0
100
AcDbLine
 62
7
  6
CONTINUOUS
 10
12.2501903515
 20
-23.8087205449
 11
12.25
 21
-23.7999966153
  0
LINE
  5
38D
100
AcDbEntity
  8
0
100
AcDbLine
 62
7
  6
CONTINUOUS
 10
12.25
 20
23.7999966153
 11
12.25
 21
22.3842776662
  0
LINE
  5
38E
100
AcDbEntity
  8
0
100
AcDbLine
 62
7
  6
CONTINUOUS
 10
12.25
 20
-22.3842776662
 11
12.25
 21
-23.7999966153
  0
LINE
  5
38F
100
AcDbEntity
  8
0
100
AcDbLine
 62
253
  6
CONTINUOUS
 10
12.45
 20
-22.3737961104
 11
12.45
 21
-24.0
  0
LINE
  5
390
100
AcDbEntity
  8
0
100
AcDbLine
 62
253
  6
CONTINUOUS
 10
12.45
 20
22.3737961104
 11
12.45
 21
24.0
  0
LINE
  5
391
100
AcDbEntity
  8
0
100
AcDbLine
 62
7
  6
CONTINUOUS
 10
10.2498096485
 20
-23.8087205449
 11
10.25
 21
-23.7982512664
  0
LINE
  5
392
100
AcDbEntity
  8
0
100
AcDbLine
 62
7
  6
CONTINUOUS
 10
12.2501903515
 20
23.8087205449
 11
12.25
 21
23.7982512664
  0
LINE
  5
393
100
AcDbEntity
  8
0
100
AcDbLine
 62
7
  6
CONTINUOUS
 10
12.250761044
 20
23.8174278719
 11
12.2501903515
 21
23.8087205449
  0
LINE
  5
394
100
AcDbEntity
  8
0
100
AcDbLine
 62
7
  6
CONTINUOUS
 10
10.249238956
 20
-23.8174278719
 11
10.2498096485
 21
-23.8087205449
  0
LWPOLYLINE
  5
395
100
AcDbEntity
  8
ASSI
100
AcDbPolyline
 62
253
  6
CONTINUOUS
 90
10
 70
0
 10
22.0290966731
 20
-21.4792680107
 10
22.0277807338
 20
-21.4761270388
 10
22.0264852284
 20
-21.4695071457
 10
22.0252101569
 20
-21.4594083313
 10
22.0239485969
 20
-21.4457430524
 10
22.0227074708
 20
-21.4285988522
 10
22.0215075457
 20
-21.4082383603
 10
22.0203500389
 20
-21.3846125802
 10
22.0192337331
 20
-21.3577705085
 10
22.0181757438
 20
-21.3281217642
  0
LINE
  5
396
100
AcDbEntity
  8
0
100
AcDbLine
 62
7
  6
CONTINUOUS
 10
14.75
 20
23.9982478817
 11
14.75
 21
22.3213883311
  0
LINE
  5
397
100
AcDbEntity
  8
0
100
AcDbLine
 62
7
  6
CONTINUOUS
 10
14.75
 20
-22.3213883311
 11
14.75
 21
-23.9982478817
  0
LINE
  5
398
100
AcDbEntity
  8
0
100
AcDbLine
 62
7
  6
CONTINUOUS
 10
15.7
 20
22.4
 11
15.6912732553
 21
22.3213883311
  0
LINE
  5
399
100
AcDbEntity
  8
0
100
AcDbLine
 62
253
  6
CONTINUOUS
 10
21.8995078465
 20
22.4
 11
21.8733252491
 21
22.3213883311
  0
LINE
  5
39A
100
AcDbEntity
  8
0
100
AcDbLine
 62
253
  6
CONTINUOUS
 10
22.3991272468
 20
21.8997711479
 11
22.3729446494
 21
21.821159479
  0
LINE
  5
39B
100
AcDbEntity
  8
0
100
AcDbLine
 62
253
  6
CONTINUOUS
 10
21.8733252491
 20
-22.3213883311
 11
21.8995078465
 21
-22.4
  0
LINE
  5
39C
100
AcDbEntity
  8
0
100
AcDbLine
 62
253
  6
CONTINUOUS
 10
22.3729446494
 20
-21.821159479
 11
22.3991272468
 21
-21.8997711479
  0
LINE
  5
39D
100
AcDbEntity
  8
0
100
AcDbLine
 62
7
  6
CONTINUOUS
 10
15.6912732553
 20
-22.3213883311
 11
15.7
 21
-22.4
  0
LINE
  5
39E
100
AcDbEntity
  8
0
100
AcDbLine
 62
7
  6
CONTINUOUS
 10
15.6912732553
 20
-23.9912732553
 11
15.6912732553
 21
-22.3213883311
  0
LINE
  5
39F
100
AcDbEntity
  8
0
100
AcDbLine
 62
7
  6
CONTINUOUS
 10
15.6912732553
 20
22.3213883311
 11
15.6912732553
 21
23.9912732553
  0
LINE
  5
3A0
100
AcDbEntity
  8
0
100
AcDbLine
 62
7
  6
CONTINUOUS
 10
15.7
 20
-22.4
 11
15.7
 21
-24.0
  0
LINE
  5
3A1
100
AcDbEntity
  8
0
100
AcDbLine
 62
7
  6
CONTINUOUS
 10
15.7
 20
22.4
 11
15.7
 21
24.0
  0
LWPOLYLINE
  5
3A2
100
AcDbEntity
  8
0
100
AcDbPolyline
 62
7
  6
CONTINUOUS
 90
34
 70
0
 10
18.5
 20
24.2500042308
 10
18.5002831502
 20
24.261899516
 10
18.5011319658
 20
24.2737678556
 10
18.5025445259
 20
24.2855823661
 10
18.5045176323
 20
24.2973162875
 10
18.5070468183
 20
24.3089430388
 10
18.5101263583
 20
24.320436279
 10
18.5137492787
 20
24.3317699738
 10
18.5179073742
 20
24.3429184493
 10
18.5225912278
 20
24.3538564463
 10
18.5277902312
 20
24.3645591876
 10
18.5334926084
 20
24.3750024283
 10
18.5396854419
 20
24.3851625059
 10
18.5463547045
 20
24.3950164051
 10
18.5534852893
 20
24.4045418038
 10
18.5610610411
 20
24.4137171191
 10
18.5690647995
 20
24.4225215661
 10
18.5774784339
 20
24.4309352005
 10
18.5862828809
 20
24.4389389589
 10
18.5954581962
 20
24.4465147107
 10
18.6049835949
 20
24.4536452955
 10
18.6148374941
 20
24.4603145581
 10
18.6249975717
 20
24.4665073916
 10
18.6354408124
 20
24.4722097688
 10
18.6461435537
 20
24.4774087722
 10
18.6570815507
 20
24.4820926258
 10
18.6682300262
 20
24.4862507213
 10
18.679563721
 20
24.4898736417
 10
18.6910569612
 20
24.4929531817
 10
18.7026837125
 20
24.4954823677
 10
18.7144176339
 20
24.4974554741
 10
18.7262321444
 20
24.4988680342
 10
18.738100484
 20
24.4997168498
 10
18.7499957692
 20
24.5
  0
LWPOLYLINE
  5
3A3
100
AcDbEntity
  8
0
100
AcDbPolyline
 62
253
  6
CONTINUOUS
 90
34
 70
0
 10
18.5130985787
 20
24.2369056521
 10
18.5133821295
 20
24.2488006736
 10
18.5142313345
 20
24.2606687503
 10
18.5156442699
 20
24.2724829982
 10
18.5176177351
 20
24.2842166554
 10
18.5201472599
 20
24.2958431426
 10
18.5232271143
 20
24.3073361233
 10
18.5268503217
 20
24.3186695631
 10
18.5310086747
 20
24.3298177893
 10
18.5356927538
 20
24.3407555487
 10
18.5408919485
 20
24.3514580649
 10
18.5465944813
 20
24.3619010942
 10
18.5527874349
 20
24.3720609807
 10
18.5594567807
 20
24.3819147102
 10
18.5665874113
 20
24.3914399617
 10
18.5741631741
 20
24.4006151584
 10
18.5821669083
 20
24.4094195163
 10
18.5905804837
 20
24.4178330917
 10
18.5993848416
 20
24.4258368259
 10
18.6085600383
 20
24.4334125887
 10
18.6180852898
 20
24.4405432193
 10
18.6279390193
 20
24.4472125651
 10
18.6380989058
 20
24.4534055187
 10
18.6485419351
 20
24.4591080515
 10
18.6592444513
 20
24.4643072462
 10
18.6701822107
 20
24.4689913253
 10
18.6813304369
 20
24.4731496783
 10
18.6926638767
 20
24.4767728857
 10
18.7041568574
 20
24.4798527401
 10
18.7157833446
 20
24.4823822649
 10
18.7275170018
 20
24.4843557301
 10
18.7393312497
 20
24.4857686655
 10
18.7511993264
 20
24.4866178705
 10
18.7630943479
 20
24.4869014213
  0
LINE
  5
3A4
100
AcDbEntity
  8
0
100
AcDbLine
 62
253
  6
CONTINUOUS
 10
1.1130985787
 20
-24.2369056521
 11
1.1
 21
-24.2500042308
  0
LINE
  5
3A5
100
AcDbEntity
  8
RACCORDO
100
AcDbLine
 62
7
  6
CONTINUOUS
 10
22.15
 20
16.6
 11
22.3729446494
 21
16.6
  0
LINE
  5
3A6
100
AcDbEntity
  8
0
100
AcDbLine
 62
253
  6
CONTINUOUS
 10
1.1130985787
 20
24.2369056521
 11
1.1
 21
24.2500042308
  0
LWPOLYLINE
  5
3A7
100
AcDbEntity
  8
0
100
AcDbPolyline
 62
7
  6
CONTINUOUS
 90
46
 70
0
 10
18.5072807489
 20
23.2669872981
 10
18.5074530002
 20
23.2624086438
 10
18.507879076
 20
23.2578133363
 10
18.5085612936
 20
23.2532084873
 10
18.5095016949
 20
23.2486040164
 10
18.5107020615
 20
23.2440046301
 10
18.5121640005
 20
23.2394098269
 10
18.5138888012
 20
23.2348274049
 10
18.5158774854
 20
23.2302649474
 10
18.5181310056
 20
23.2257218339
 10
18.5206498359
 20
23.2212061961
 10
18.5234341743
 20
23.2167259548
 10
18.5264843097
 20
23.2122803754
 10
18.5297998422
 20
23.2078778818
 10
18.5333800917
 20
23.2035266855
 10
18.5372246804
 20
23.1992259418
 10
18.5413322885
 20
23.1949843084
 10
18.5457012916
 20
23.190810255
 10
18.5503306031
 20
23.1867028731
 10
18.555217921
 20
23.1826710024
 10
18.5603606094
 20
23.1787233192
 10
18.5657568086
 20
23.174858895
 10
18.5714031697
 20
23.1710866868
 10
18.5772959661
 20
23.1674155212
 10
18.5834324633
 20
23.1638445008
 10
18.5898081936
 20
23.1603826202
 10
18.5964182527
 20
23.1570387866
 10
18.6032588898
 20
23.1538121858
 10
18.6103244393
 20
23.1507117507
 10
18.6176087277
 20
23.1477463786
 10
18.6251068131
 20
23.1449153837
 10
18.632811747
 20
23.1422275134
 10
18.6407160001
 20
23.139691538
 10
18.648813251
 20
23.1373069291
 10
18.6570951528
 20
23.1350821053
 10
18.6655527784
 20
23.1330255505
 10
18.6741783563
 20
23.1311368767
 10
18.6829620918
 20
23.1294239958
 10
18.6918935973
 20
23.1278949421
 10
18.7009635726
 20
23.1265494608
 10
18.7101474601
 20
23.1253969981
 10
18.7194464883
 20
23.1244418396
 10
18.7288901495
 20
23.123679751
 10
18.7384801207
 20
23.1231181344
 10
18.7481893412
 20
23.1227714623
 10
18.7580037468
 20
23.1226497308
  0
LWPOLYLINE
  5
3A8
100
AcDbEntity
  8
0
100
AcDbPolyline
 62
7
  6
CONTINUOUS
 90
46
 70
0
 10
21.3927192511
 20
-23.2669872981
 10
21.3925469998
 20
-23.2624086438
 10
21.392120924
 20
-23.2578133363
 10
21.3914387064
 20
-23.2532084873
 10
21.3904983051
 20
-23.2486040164
 10
21.3892979385
 20
-23.2440046301
 10
21.3878359995
 20
-23.2394098269
 10
21.3861111988
 20
-23.2348274049
 10
21.3841225146
 20
-23.2302649474
 10
21.3818689944
 20
-23.2257218339
 10
21.3793501641
 20
-23.2212061961
 10
21.3765658257
 20
-23.2167259548
 10
21.3735156903
 20
-23.2122803754
 10
21.3702001578
 20
-23.2078778818
 10
21.3666199083
 20
-23.2035266855
 10
21.3627753196
 20
-23.1992259418
 10
21.3586677115
 20
-23.1949843084
 10
21.3542987084
 20
-23.190810255
 10
21.3496693969
 20
-23.1867028731
 10
21.344782079
 20
-23.1826710024
 10
21.3396393906
 20
-23.1787233192
 10
21.3342431914
 20
-23.174858895
 10
21.3285968303
 20
-23.1710866868
 10
21.3227040339
 20
-23.1674155212
 10
21.3165675367
 20
-23.1638445008
 10
21.3101918064
 20
-23.1603826202
 10
21.3035817473
 20
-23.1570387866
 10
21.2967411102
 20
-23.1538121858
 10
21.2896755607
 20
-23.1507117507
 10
21.2823912723
 20
-23.1477463786
 10
21.2748931869
 20
-23.1449153837
 10
21.267188253
 20
-23.1422275134
 10
21.2592839999
 20
-23.139691538
 10
21.251186749
 20
-23.1373069291
 10
21.2429048472
 20
-23.1350821053
 10
21.2344472216
 20
-23.1330255505
 10
21.2258216437
 20
-23.1311368767
 10
21.2170379082
 20
-23.1294239958
 10
21.2081064027
 20
-23.1278949421
 10
21.1990364274
 20
-23.1265494608
 10
21.1898525399
 20
-23.1253969981
 10
21.1805535117
 20
-23.1244418396
 10
21.1711098505
 20
-23.123679751
 10
21.1615198793
 20
-23.1231181344
 10
21.1518106588
 20
-23.1227714623
 10
21.1419962532
 20
-23.1226497308
  0
LWPOLYLINE
  5
3A9
100
AcDbEntity
  8
0
100
AcDbPolyline
 62
253
  6
CONTINUOUS
 90
34
 70
0
 10
18.5130985787
 20
23.8443375673
 10
18.5134152294
 20
23.8340547998
 10
18.5142953912
 20
23.8237952398
 10
18.5157370775
 20
23.8135820427
 10
18.5177370345
 20
23.803438259
 10
18.5202907485
 20
23.7933867826
 10
18.5233924559
 20
23.7834502991
 10
18.5270351563
 20
23.7736512346
 10
18.5312106284
 20
23.764011705
 10
18.5359094483
 20
23.7545534661
 10
18.5411210111
 20
23.7452978646
 10
18.5468335547
 20
23.7362657898
 10
18.553034186
 20
23.7274776267
 10
18.5597089108
 20
23.7189532096
 10
18.5668426644
 20
23.7107117775
 10
18.5744193466
 20
23.702771931
 10
18.582421857
 20
23.6951515897
 10
18.5908321346
 20
23.6878679524
 10
18.5996311978
 20
23.6809374578
 10
18.6087991877
 20
23.6743757476
 10
18.6183154127
 20
23.6681976311
 10
18.6281583952
 20
23.6624170521
 10
18.6383059201
 20
23.6570470569
 10
18.6487350852
 20
23.6520997654
 10
18.6594223524
 20
23.6475863432
 10
18.6703436011
 20
23.6435169769
 10
18.6814741828
 20
23.6399008509
 10
18.6927889764
 20
23.6367461264
 10
18.704262445
 20
23.6340599235
 10
18.7158686938
 20
23.6318483049
 10
18.7275815281
 20
23.630116262
 10
18.7393745128
 20
23.6288677039
 10
18.7512210317
 20
23.6281054486
 10
18.7630943479
 20
23.6278312164
  0
LWPOLYLINE
  5
3AA
100
AcDbEntity
  8
0
100
AcDbPolyline
 62
253
  6
CONTINUOUS
 90
34
 70
0
 10
21.3869014213
 20
-23.8443375673
 10
21.3865847593
 20
-23.8340546062
 10
21.3857045651
 20
-23.823794854
 10
21.3842628252
 20
-23.8135814673
 10
21.3822627951
 20
-23.8034375035
 10
21.3797089882
 20
-23.7933858521
 10
21.3766071628
 20
-23.7834491834
 10
21.3729643121
 20
-23.773649913
 10
21.3687886591
 20
-23.7640101717
 10
21.3640896369
 20
-23.7545517387
 10
21.3588778568
 20
-23.7452959695
 10
21.3531650792
 20
-23.7362637463
 10
21.346964196
 20
-23.7274754512
 10
21.3402892023
 20
-23.7189509186
 10
21.3331551648
 20
-23.7107093898
 10
21.3255781853
 20
-23.7027694659
 10
21.3175753657
 20
-23.6951490678
 10
21.3091647686
 20
-23.6878653946
 10
21.300365376
 20
-23.680934885
 10
21.2911970501
 20
-23.6743731824
 10
21.2816804827
 20
-23.6681950956
 10
21.2718371465
 20
-23.6624145653
 10
21.2616892451
 20
-23.6570446328
 10
21.2512596942
 20
-23.6520974265
 10
21.2405720665
 20
-23.6475841265
 10
21.2296505067
 20
-23.6435149235
 10
21.2185196469
 20
-23.6398989896
 10
21.2072045833
 20
-23.6367444758
 10
21.1957305613
 20
-23.6340584395
 10
21.1841237639
 20
-23.6318470295
 10
21.172411255
 20
-23.630115347
 10
21.1606197781
 20
-23.6288672183
 10
21.1487756673
 20
-23.6281053043
 10
21.1369056521
 20
-23.6278312164
  0
LINE
  5
3AB
100
AcDbEntity
  8
0
100
AcDbLine
 62
253
  6
CONTINUOUS
 10
18.5130985787
 20
-23.8443375673
 11
18.5072807489
 21
-23.2669872981
  0
LINE
  5
3AC
100
AcDbEntity
  8
0
100
AcDbLine
 62
253
  6
CONTINUOUS
 10
18.7630943479
 20
-23.6278312164
 11
18.7580037468
 21
-23.1226497308
  0
LINE
  5
3AD
100
AcDbEntity
  8
0
100
AcDbLine
 62
7
  6
CONTINUOUS
 10
18.5
 20
-22.4
 11
18.5
 21
-24.2500042308
  0
LINE
  5
3AE
100
AcDbEntity
  8
0
100
AcDbLine
 62
7
  6
CONTINUOUS
 10
18.5
 20
22.4
 11
18.5
 21
24.2500042308
  0
LINE
  5
3AF
100
AcDbEntity
  8
0
100
AcDbLine
 62
253
  6
CONTINUOUS
 10
18.5072807489
 20
23.2669872981
 11
18.5072807489
 21
22.3344140523
  0
LINE
  5
3B0
100
AcDbEntity
  8
0
100
AcDbLine
 62
253
  6
CONTINUOUS
 10
18.5072807489
 20
-22.3344140523
 11
18.5072807489
 21
-23.2669872981
  0
LINE
  5
3B1
100
AcDbEntity
  8
0
100
AcDbLine
 62
253
  6
CONTINUOUS
 10
18.5130985787
 20
24.2369056521
 11
18.5130985787
 21
23.8443375673
  0
LINE
  5
3B2
100
AcDbEntity
  8
0
100
AcDbLine
 62
253
  6
CONTINUOUS
 10
18.5130985787
 20
-23.8443375673
 11
18.5130985787
 21
-24.2369056521
  0
LINE
  5
3B3
100
AcDbEntity
  8
0
100
AcDbLine
 62
253
  6
CONTINUOUS
 10
18.7572765181
 20
23.1226497308
 11
18.7572765181
 21
22.3213883311
  0
LINE
  5
3B4
100
AcDbEntity
  8
0
100
AcDbLine
 62
253
  6
CONTINUOUS
 10
18.7572765181
 20
-22.3213883311
 11
18.7572765181
 21
-23.1226497308
  0
LINE
  5
3B5
100
AcDbEntity
  8
0
100
AcDbLine
 62
253
  6
CONTINUOUS
 10
18.7630943479
 20
-23.6278312164
 11
18.7630943479
 21
-24.4869014213
  0
LINE
  5
3B6
100
AcDbEntity
  8
0
100
AcDbLine
 62
253
  6
CONTINUOUS
 10
18.7630943479
 20
23.6278312164
 11
18.7630943479
 21
24.4869014213
  0
LINE
  5
3B7
100
AcDbEntity
  8
0
100
AcDbLine
 62
253
  6
CONTINUOUS
 10
18.5072807489
 20
23.2669872981
 11
18.5130985787
 21
23.8443375673
  0
LINE
  5
3B8
100
AcDbEntity
  8
0
100
AcDbLine
 62
253
  6
CONTINUOUS
 10
18.7580037468
 20
23.1226497308
 11
18.7630943479
 21
23.6278312164
  0
LWPOLYLINE
  5
3B9
100
AcDbEntity
  8
0
100
AcDbPolyline
 62
253
  6
CONTINUOUS
 90
34
 70
0
 10
18.5130985787
 20
-23.8443375673
 10
18.5134152294
 20
-23.8340547998
 10
18.5142953912
 20
-23.8237952398
 10
18.5157370775
 20
-23.8135820427
 10
18.5177370345
 20
-23.803438259
 10
18.5202907485
 20
-23.7933867826
 10
18.5233924559
 20
-23.7834502991
 10
18.5270351563
 20
-23.7736512346
 10
18.5312106284
 20
-23.764011705
 10
18.5359094483
 20
-23.7545534661
 10
18.5411210111
 20
-23.7452978646
 10
18.5468335547
 20
-23.7362657898
 10
18.553034186
 20
-23.7274776267
 10
18.5597089108
 20
-23.7189532096
 10
18.5668426644
 20
-23.7107117775
 10
18.5744193466
 20
-23.702771931
 10
18.582421857
 20
-23.6951515897
 10
18.5908321346
 20
-23.6878679524
 10
18.5996311978
 20
-23.6809374578
 10
18.6087991877
 20
-23.6743757476
 10
18.6183154127
 20
-23.6681976311
 10
18.6281583952
 20
-23.6624170521
 10
18.6383059201
 20
-23.6570470569
 10
18.6487350852
 20
-23.6520997654
 10
18.6594223524
 20
-23.6475863432
 10
18.6703436011
 20
-23.6435169769
 10
18.6814741828
 20
-23.6399008509
 10
18.6927889764
 20
-23.6367461264
 10
18.704262445
 20
-23.6340599235
 10
18.7158686938
 20
-23.6318483049
 10
18.7275815281
 20
-23.630116262
 10
18.7393745128
 20
-23.6288677039
 10
18.7512210317
 20
-23.6281054486
 10
18.7630943479
 20
-23.6278312164
  0
LWPOLYLINE
  5
3BA
100
AcDbEntity
  8
0
100
AcDbPolyline
 62
253
  6
CONTINUOUS
 90
34
 70
0
 10
21.3869014213
 20
23.8443375673
 10
21.3865847706
 20
23.8340547998
 10
21.3857046088
 20
23.8237952398
 10
21.3842629225
 20
23.8135820427
 10
21.3822629655
 20
23.803438259
 10
21.3797092515
 20
23.7933867826
 10
21.3766075441
 20
23.7834502991
 10
21.3729648437
 20
23.7736512346
 10
21.3687893716
 20
23.764011705
 10
21.3640905517
 20
23.7545534661
 10
21.3588789889
 20
23.7452978646
 10
21.3531664453
 20
23.7362657898
 10
21.346965814
 20
23.7274776267
 10
21.3402910892
 20
23.7189532096
 10
21.3331573356
 20
23.7107117775
 10
21.3255806534
 20
23.702771931
 10
21.317578143
 20
23.6951515897
 10
21.3091678654
 20
23.6878679524
 10
21.3003688022
 20
23.6809374578
 10
21.2912008123
 20
23.6743757476
 10
21.2816845873
 20
23.6681976311
 10
21.2718416048
 20
23.6624170521
 10
21.2616940799
 20
23.6570470569
 10
21.2512649148
 20
23.6520997654
 10
21.2405776476
 20
23.6475863432
 10
21.2296563989
 20
23.6435169769
 10
21.2185258172
 20
23.6399008509
 10
21.2072110236
 20
23.6367461264
 10
21.195737555
 20
23.6340599235
 10
21.1841313062
 20
23.6318483049
 10
21.1724184719
 20
23.630116262
 10
21.1606254872
 20
23.6288677039
 10
21.1487789683
 20
23.6281054486
 10
21.1369056521
 20
23.6278312164
  0
LINE
  5
3BB
100
AcDbEntity
  8
0
100
AcDbLine
 62
7
  6
CONTINUOUS
 10
21.4
 20
22.4
 11
21.3927192511
 21
22.3344140523
  0
LINE
  5
3BC
100
AcDbEntity
  8
0
100
AcDbLine
 62
253
  6
CONTINUOUS
 10
1.3630943479
 20
-24.4869014213
 11
1.3499957692
 21
-24.5
  0
LINE
  5
3BD
100
AcDbEntity
  8
0
100
AcDbLine
 62
253
  6
CONTINUOUS
 10
1.3630943479
 20
24.4869014213
 11
1.3499957692
 21
24.5
  0
LINE
  5
3BE
100
AcDbEntity
  8
0
100
AcDbLine
 62
7
  6
CONTINUOUS
 10
21.4
 20
-22.4
 11
21.3927192511
 21
-22.3344140523
  0
LINE
  5
3BF
100
AcDbEntity
  8
ASSI
100
AcDbLine
 62
253
  6
CONTINUOUS
 10
22.0181757438
 20
-21.3281217642
 11
22.0162364883
 21
-21.2603135092
  0
LINE
  5
3C0
100
AcDbEntity
  8
ASSI
100
AcDbLine
 62
253
  6
CONTINUOUS
 10
22.0162364883
 20
-21.2603135092
 11
22.014575061
 21
-21.1828827453
  0
LINE
  5
3C1
100
AcDbEntity
  8
ASSI
100
AcDbLine
 62
253
  6
CONTINUOUS
 10
21.5292680107
 20
-21.9790966731
 11
21.5291704084
 21
-21.9737748348
  0
LWPOLYLINE
  5
3C2
100
AcDbEntity
  8
0
100
AcDbPolyline
 62
7
  6
CONTINUOUS
 90
34
 70
0
 10
22.4004363434
 20
21.900016923
 10
22.4000925039
 20
21.9186599938
 10
22.3990515353
 20
21.9372584493
 10
22.3973134374
 20
21.9558122896
 10
22.3948725704
 20
21.9743622224
 10
22.3917345743
 20
21.9928675399
 10
22.3879163686
 20
22.0112061191
 10
22.3834133688
 20
22.0293657052
 10
22.3782301595
 20
22.0473585528
 10
22.3723974143
 20
22.0650993029
 10
22.3659236928
 20
22.0825653996
 10
22.3588004354
 20
22.0997793986
 10
22.3510326366
 20
22.1167236087
 10
22.3426068861
 20
22.1334245644
 10
22.3335365943
 20
22.149855731
 10
22.3238669865
 20
22.1659198134
 10
22.3135891212
 20
22.1816158808
 10
22.3027119399
 20
22.1969448639
 10
22.291307493
 20
22.2118122589
 10
22.2793882949
 20
22.2261967639
 10
22.2669418311
 20
22.2401196809
 10
22.2540026084
 20
22.253550411
 10
22.240571804
 20
22.2664904364
 10
22.2266482406
 20
22.2789382749
 10
22.2122628933
 20
22.2908588817
 10
22.197394298
 20
22.3022647482
 10
22.1820639186
 20
22.3131433829
 10
22.1663671227
 20
22.3234222665
 10
22.1503034956
 20
22.3330921232
 10
22.1338734519
 20
22.3421622288
 10
22.1171736021
 20
22.3505878911
 10
22.1002307852
 20
22.3583557574
 10
22.0830181623
 20
22.3654791805
 10
22.0655518263
 20
22.371953526
  0
LINE
  5
3C3
100
AcDbEntity
  8
ASSI
100
AcDbLine
 62
253
  6
CONTINUOUS
 10
22.014575061
 20
-21.1828827453
 11
22.0132167916
 21
-21.097020095
  0
LINE
  5
3C4
100
AcDbEntity
  8
0
100
AcDbLine
 62
253
  6
CONTINUOUS
 10
21.1369056521
 20
23.6278312164
 11
21.1419962532
 21
23.1226497308
  0
LINE
  5
3C5
100
AcDbEntity
  8
0
100
AcDbLine
 62
253
  6
CONTINUOUS
 10
21.3869014213
 20
23.8443375673
 11
21.3927192511
 21
23.2669872981
  0
LINE
  5
3C6
100
AcDbEntity
  8
ASSI
100
AcDbLine
 62
253
  6
CONTINUOUS
 10
22.0132167916
 20
-21.097020095
 11
22.0118176087
 21
-20.9567506247
  0
LINE
  5
3C7
100
AcDbEntity
  8
ASSI
100
AcDbLine
 62
253
  6
CONTINUOUS
 10
22.0118176087
 20
-20.9567506247
 11
22.0112355165
 21
-20.8090179705
  0
LINE
  5
3C8
100
AcDbEntity
  8
DRAFT
100
AcDbLine
 62
7
  6
CONTINUOUS
 10
22.345044505
 20
-0.0
 11
22.3729446494
 21
-16.6
  0
LINE
  5
3C9
100
AcDbEntity
  8
ASSI
100
AcDbLine
 62
253
  6
CONTINUOUS
 10
21.5291704084
 20
-21.9737748348
 11
21.5288808816
 21
-21.8570982492
  0
LWPOLYLINE
  5
3CA
100
AcDbEntity
  8
ASSI
100
AcDbPolyline
 62
253
  6
CONTINUOUS
 90
9
 70
0
 10
22.0112355165
 20
-20.8090179705
 10
22.006682419
 20
-16.1861947747
 10
22.003267596
 20
-11.5626700842
 10
22.0009910472
 20
-6.9384438989
 10
21.9998527729
 20
-2.3130485653
 10
21.9998527729
 20
2.3130482631
 10
22.0009910471
 20
6.938443626
 10
22.0032675953
 20
11.56266987
 10
22.0066824176
 20
16.1861946486
  0
LWPOLYLINE
  5
3CB
100
AcDbEntity
  8
ASSI
100
AcDbPolyline
 62
253
  6
CONTINUOUS
 90
9
 70
0
 10
21.5259906581
 20
-16.2032858936
 10
21.5239884878
 20
-11.5749315488
 10
21.5226537074
 20
-6.9454695396
 10
21.521986317
 20
-2.3152532988
 10
21.5219863167
 20
2.3152516572
 10
21.522653707
 20
6.9454680613
 10
21.5239884878
 20
11.5749303971
 10
21.5259906589
 20
16.2032852317
 10
21.5286602201
 20
20.8301237885
  0
LINE
  5
3CC
100
AcDbEntity
  8
0
100
AcDbLine
 62
253
  6
CONTINUOUS
 10
21.1369056521
 20
-23.6278312164
 11
21.1369056521
 21
-24.4869014213
  0
LINE
  5
3CD
100
AcDbEntity
  8
0
100
AcDbLine
 62
253
  6
CONTINUOUS
 10
21.1369056521
 20
23.6278312164
 11
21.1369056521
 21
24.4869014213
  0
LINE
  5
3CE
100
AcDbEntity
  8
0
100
AcDbLine
 62
253
  6
CONTINUOUS
 10
21.1427234819
 20
-23.1226497308
 11
21.1427234819
 21
-22.3213883311
  0
LINE
  5
3CF
100
AcDbEntity
  8
0
100
AcDbLine
 62
253
  6
CONTINUOUS
 10
21.1427234819
 20
22.3213883311
 11
21.1427234819
 21
23.1226497308
  0
LINE
  5
3D0
100
AcDbEntity
  8
0
100
AcDbLine
 62
253
  6
CONTINUOUS
 10
21.3869014213
 20
-24.2369056521
 11
21.3869014213
 21
-23.8443375673
  0
LINE
  5
3D1
100
AcDbEntity
  8
0
100
AcDbLine
 62
253
  6
CONTINUOUS
 10
21.3869014213
 20
23.8443375673
 11
21.3869014213
 21
24.2369056521
  0
LINE
  5
3D2
100
AcDbEntity
  8
0
100
AcDbLine
 62
253
  6
CONTINUOUS
 10
21.3927192511
 20
-23.2669872981
 11
21.3927192511
 21
-22.3344140523
  0
LINE
  5
3D3
100
AcDbEntity
  8
0
100
AcDbLine
 62
253
  6
CONTINUOUS
 10
21.3927192511
 20
22.3344140523
 11
21.3927192511
 21
23.2669872981
  0
LINE
  5
3D4
100
AcDbEntity
  8
0
100
AcDbLine
 62
7
  6
CONTINUOUS
 10
21.4
 20
-22.4
 11
21.4
 21
-24.2500042308
  0
LINE
  5
3D5
100
AcDbEntity
  8
0
100
AcDbLine
 62
7
  6
CONTINUOUS
 10
21.4
 20
22.4
 11
21.4
 21
24.2500042308
  0
LINE
  5
3D6
100
AcDbEntity
  8
ASSI
100
AcDbLine
 62
253
  6
CONTINUOUS
 10
21.5288808816
 20
-21.8570982492
 11
21.5285925246
 21
-21.3244023284
  0
LINE
  5
3D7
100
AcDbEntity
  8
ASSI
100
AcDbLine
 62
7
  6
CONTINUOUS
 10
22.15
 20
-21.6001713375
 11
22.15
 21
21.6001713375
  0
LINE
  5
3D8
100
AcDbEntity
  8
DRAFT
100
AcDbLine
 62
7
  6
CONTINUOUS
 10
22.3729446494
 20
-21.821159479
 11
22.3729446494
 21
-16.6
  0
LINE
  5
3D9
100
AcDbEntity
  8
DRAFT
100
AcDbLine
 62
7
  6
CONTINUOUS
 10
22.3729446494
 20
16.6
 11
22.3729446494
 21
21.821159479
  0
LINE
  5
3DA
100
AcDbEntity
  8
0
100
AcDbLine
 62
7
  6
CONTINUOUS
 10
22.3991272468
 20
-21.8997711479
 11
22.3991272468
 21
21.8997711479
  0
LINE
  5
3DB
100
AcDbEntity
  8
0
100
AcDbLine
 62
7
  6
CONTINUOUS
 10
22.4004363434
 20
-21.900016923
 11
22.4004363434
 21
21.900016923
  0
LINE
  5
3DC
100
AcDbEntity
  8
ASSI
100
AcDbLine
 62
253
  6
CONTINUOUS
 10
21.5286602242
 20
20.8301237906
 11
21.5286225447
 21
21.4712590417
  0
LINE
  5
3DD
100
AcDbEntity
  8
ASSI
100
AcDbLine
 62
253
  6
CONTINUOUS
 10
21.5285925246
 20
-21.3244023284
 11
21.5259906581
 21
-16.2032858936
  0
LINE
  5
3DE
100
AcDbEntity
  8
ASSI
100
AcDbLine
 62
253
  6
CONTINUOUS
 10
21.5286225447
 20
21.4712590417
 11
21.5287042098
 21
21.6642087987
  0
LINE
  5
3DF
100
AcDbEntity
  8
ASSI
100
AcDbLine
 62
253
  6
CONTINUOUS
 10
21.5287042098
 20
21.6642087987
 11
21.5288339014
 21
21.8165925478
  0
LINE
  5
3E0
100
AcDbEntity
  8
DRAFT
100
AcDbLine
 62
7
  6
CONTINUOUS
 10
22.3729446494
 20
16.6
 11
22.345044505
 21
-0.0
  0
LWPOLYLINE
  5
3E1
100
AcDbEntity
  8
ASSI
100
AcDbPolyline
 62
253
  6
CONTINUOUS
 90
4
 70
0
 10
21.5288339014
 20
21.8165925478
 10
21.5291059813
 20
21.9623359168
 10
21.5291704053
 20
21.97377483
 10
21.5292680061
 20
21.9790966685
  0
LINE
  5
3E2
100
AcDbEntity
  8
ASSI
100
AcDbLine
 62
253
  6
CONTINUOUS
 10
22.0066824176
 20
16.1861946486
 11
22.0115327859
 21
20.9083356433
  0
LINE
  5
3E3
100
AcDbEntity
  8
ASSI
100
AcDbLine
 62
253
  6
CONTINUOUS
 10
22.0115327859
 20
20.9083356433
 11
22.0126643657
 21
21.0516173804
  0
LINE
  5
3E4
100
AcDbEntity
  8
0
100
AcDbLine
 62
253
  6
CONTINUOUS
 10
21.1419962532
 20
-23.1226497308
 11
21.1369056521
 21
-23.6278312164
  0
LINE
  5
3E5
100
AcDbEntity
  8
0
100
AcDbLine
 62
253
  6
CONTINUOUS
 10
21.3927192511
 20
-23.2669872981
 11
21.3869014213
 21
-23.8443375673
  0
LINE
  5
3E6
100
AcDbEntity
  8
ASSI
100
AcDbLine
 62
253
  6
CONTINUOUS
 10
22.0126643657
 20
21.0516173804
 11
22.0138540984
 21
21.1407594396
  0
LWPOLYLINE
  5
3E7
100
AcDbEntity
  8
0
100
AcDbPolyline
 62
7
  6
CONTINUOUS
 90
34
 70
0
 10
22.3991272468
 20
-21.8997711479
 10
22.3987828053
 20
-21.9184483695
 10
22.3977408271
 20
-21.9370790651
 10
22.3960013121
 20
-21.9556632347
 10
22.3935584869
 20
-21.974241627
 10
22.390418125
 20
-21.9927734933
 10
22.3865975465
 20
-22.0111365879
 10
22.3820921993
 20
-22.0293185542
 10
22.3769066356
 20
-22.0473317488
 10
22.3710718318
 20
-22.0650909961
 10
22.3645963347
 20
-22.0825737857
 10
22.3574715976
 20
-22.0998026279
 10
22.3497029567
 20
-22.1167598786
 10
22.341276976
 20
-22.133472095
 10
22.3322070915
 20
-22.1499127199
 10
22.3225389474
 20
-22.1659844382
 10
22.312263664
 20
-22.181686204
 10
22.3013901209
 20
-22.1970190633
 10
22.2899906009
 20
-22.211888839
 10
22.2780777765
 20
-22.2262741014
 10
22.2656389751
 20
-22.2401962802
 10
22.2527084613
 20
-22.2536254879
 10
22.2392872461
 20
-22.2665634107
 10
22.2253743184
 20
-22.2790083624
 10
22.2110009099
 20
-22.2909253973
 10
22.1961457214
 20
-22.3023268875
 10
22.1808300522
 20
-22.313200461
 10
22.1651490314
 20
-22.3234740556
 10
22.1491023344
 20
-22.3331384038
 10
22.1326902858
 20
-22.3422027731
 10
22.1160089886
 20
-22.350622903
 10
22.0990852496
 20
-22.3583855131
 10
22.081892262
 20
-22.3655038838
 10
22.064445708
 20
-22.3719735959
  0
LINE
  5
3E8
100
AcDbEntity
  8
ASSI
100
AcDbLine
 62
253
  6
CONTINUOUS
 10
22.0138540984
 20
21.1407594396
 11
22.0153687867
 21
21.2227451098
  0
LWPOLYLINE
  5
3E9
100
AcDbEntity
  8
0
100
AcDbPolyline
 62
253
  6
CONTINUOUS
 90
34
 70
0
 10
21.3869014213
 20
-24.2369056521
 10
21.3866178705
 20
-24.2488006736
 10
21.3857686655
 20
-24.2606687503
 10
21.3843557301
 20
-24.2724829982
 10
21.3823822649
 20
-24.2842166554
 10
21.3798527401
 20
-24.2958431426
 10
21.3767728857
 20
-24.3073361233
 10
21.3731496783
 20
-24.3186695631
 10
21.3689913253
 20
-24.3298177893
 10
21.3643072462
 20
-24.3407555487
 10
21.3591080515
 20
-24.3514580649
 10
21.3534055187
 20
-24.3619010942
 10
21.3472125651
 20
-24.3720609807
 10
21.3405432193
 20
-24.3819147102
 10
21.3334125887
 20
-24.3914399617
 10
21.3258368259
 20
-24.4006151584
 10
21.3178330917
 20
-24.4094195163
 10
21.3094195163
 20
-24.4178330917
 10
21.3006151584
 20
-24.4258368259
 10
21.2914399617
 20
-24.4334125887
 10
21.2819147102
 20
-24.4405432193
 10
21.2720609807
 20
-24.4472125651
 10
21.2619010942
 20
-24.4534055187
 10
21.2514580649
 20
-24.4591080515
 10
21.2407555487
 20
-24.4643072462
 10
21.2298177893
 20
-24.4689913253
 10
21.2186695631
 20
-24.4731496783
 10
21.2073361233
 20
-24.4767728857
 10
21.1958431426
 20
-24.4798527401
 10
21.1842166554
 20
-24.4823822649
 10
21.1724829982
 20
-24.4843557301
 10
21.1606687503
 20
-24.4857686655
 10
21.1488006736
 20
-24.4866178705
 10
21.1369056521
 20
-24.4869014213
  0
LWPOLYLINE
  5
3EA
100
AcDbEntity
  8
0
100
AcDbPolyline
 62
7
  6
CONTINUOUS
 90
34
 70
0
 10
21.4
 20
-24.2500042308
 10
21.3997168498
 20
-24.261899516
 10
21.3988680342
 20
-24.2737678556
 10
21.3974554741
 20
-24.2855823661
 10
21.3954823677
 20
-24.2973162875
 10
21.3929531817
 20
-24.3089430388
 10
21.3898736417
 20
-24.320436279
 10
21.3862507213
 20
-24.3317699738
 10
21.3820926258
 20
-24.3429184493
 10
21.3774087722
 20
-24.3538564463
 10
21.3722097688
 20
-24.3645591876
 10
21.3665073916
 20
-24.3750024283
 10
21.3603145581
 20
-24.3851625059
 10
21.3536452955
 20
-24.3950164051
 10
21.3465147107
 20
-24.4045418038
 10
21.3389389589
 20
-24.4137171191
 10
21.3309352005
 20
-24.4225215661
 10
21.3225215661
 20
-24.4309352005
 10
21.3137171191
 20
-24.4389389589
 10
21.3045418038
 20
-24.4465147107
 10
21.2950164051
 20
-24.4536452955
 10
21.2851625059
 20
-24.4603145581
 10
21.2750024283
 20
-24.4665073916
 10
21.2645591876
 20
-24.4722097688
 10
21.2538564463
 20
-24.4774087722
 10
21.2429184493
 20
-24.4820926258
 10
21.2317699738
 20
-24.4862507213
 10
21.220436279
 20
-24.4898736417
 10
21.2089430388
 20
-24.4929531817
 10
21.1973162875
 20
-24.4954823677
 10
21.1855823661
 20
-24.4974554741
 10
21.1737678556
 20
-24.4988680342
 10
21.161899516
 20
-24.4997168498
 10
21.1500042308
 20
-24.5
  0
LWPOLYLINE
  5
3EB
100
AcDbEntity
  8
ASSI
100
AcDbPolyline
 62
253
  6
CONTINUOUS
 90
12
 70
0
 10
22.0153687867
 20
21.2227451098
 10
22.0171769531
 20
21.2956209676
 10
22.0181757392
 20
21.3281217589
 10
22.0192337284
 20
21.3577705032
 10
22.0203500342
 20
21.3846125751
 10
22.0215075411
 20
21.4082383553
 10
22.0227074662
 20
21.4285988473
 10
22.0239485922
 20
21.4457430477
 10
22.0252101522
 20
21.4594083267
 10
22.0264852238
 20
21.4695071411
 10
22.0277807292
 20
21.4761270343
 10
22.0290966685
 20
21.4792680061
  0
LINE
  5
3EC
100
AcDbEntity
  8
0
100
AcDbLine
 62
7
  6
CONTINUOUS
 10
18.5
 20
-22.4
 11
18.5072807489
 21
-22.3344140523
  0
LINE
  5
3ED
100
AcDbEntity
  8
0
100
AcDbLine
 62
7
  6
CONTINUOUS
 10
6.8
 20
-24.0
 11
6.8087267447
 21
-23.9912732553
  0
LINE
  5
3EE
100
AcDbEntity
  8
0
100
AcDbLine
 62
7
  6
CONTINUOUS
 10
0.4893996693
 20
22.3874863612
 11
0.4701893871
 21
22.3829728533
  0
LINE
  5
3EF
100
AcDbEntity
  8
0
100
AcDbLine
 62
7
  6
CONTINUOUS
 10
0.4883533674
 20
22.3874774628
 11
0.5077394946
 21
22.3913028363
  0
LINE
  5
3F0
100
AcDbEntity
  8
0
100
AcDbLine
 62
7
  6
CONTINUOUS
 10
0.5066783175
 20
22.391296686
 11
0.5262460012
 21
22.3944392873
  0
LINE
  5
3F1
100
AcDbEntity
  8
0
100
AcDbLine
 62
7
  6
CONTINUOUS
 10
0.5447451792
 20
22.3968789096
 11
0.5251697846
 21
22.3944353938
  0
LWPOLYLINE
  5
3F2
100
AcDbEntity
  8
0
100
AcDbPolyline
 62
7
  6
CONTINUOUS
 90
33
 70
0
 10
12.4325686607
 20
23.99923891
 10
12.4238944849
 20
23.9982889069
 10
12.415270009
 20
23.9969614365
 10
12.4067116502
 20
23.9952590264
 10
12.3982356998
 20
23.9931849183
 10
12.3898582924
 20
23.9907430608
 10
12.3815953749
 20
23.9879381028
 10
12.3734626762
 20
23.9847753849
 10
12.3654756774
 20
23.9812609278
 10
12.357649582
 20
23.9774014221
 10
12.3499992876
 20
23.973204216
 10
12.3425393567
 20
23.9686772994
 10
12.3352839893
 20
23.96382929
 10
12.3282469964
 20
23.9586694178
 10
12.3214417729
 20
23.9532075051
 10
12.3148812725
 20
23.9474539493
 10
12.3085779831
 20
23.9414197042
 10
12.3025439029
 20
23.9351162564
 10
12.2967905175
 20
23.928555605
 10
12.2913287783
 20
23.92175024
 10
12.2861690813
 20
23.9147131159
 10
12.2813212476
 20
23.9074576282
 10
12.2767945045
 20
23.8999975893
 10
12.2725974683
 20
23.8923471996
 10
12.2687381274
 20
23.8845210219
 10
12.2652238274
 20
23.8765339547
 10
12.2620612573
 20
23.8684012014
 10
12.2592564364
 20
23.8601382427
 10
12.2568147029
 20
23.8517608084
 10
12.2547407041
 20
23.8432848447
 10
12.2530383872
 20
23.8347264854
 10
12.2517109917
 20
23.8261020222
 10
12.250761044
 20
23.8174278719
  0
LINE
  5
3F3
100
AcDbEntity
  8
0
100
AcDbLine
 62
7
  6
CONTINUOUS
 10
0.5631790253
 20
22.3986161017
 11
0.543757215
 21
22.3968767616
  0
LINE
  5
3F4
100
AcDbEntity
  8
0
100
AcDbLine
 62
7
  6
CONTINUOUS
 10
0.5816055427
 20
22.3996564652
 11
0.5624170906
 21
22.3986151811
  0
LWPOLYLINE
  5
3F5
100
AcDbEntity
  8
ASSI
100
AcDbPolyline
 62
253
  6
CONTINUOUS
 90
16
 70
0
 10
-21.5292680107
 20
21.9790966732
 10
-21.5814923419
 20
21.9763250857
 10
-21.6331449059
 20
21.9681122504
 10
-21.6836602692
 20
21.9545480944
 10
-21.7324854667
 20
21.9357811179
 10
-21.7790860063
 20
21.912016785
 10
-21.8229517276
 20
21.8835152902
 10
-21.8636024544
 20
21.8505886731
 10
-21.9005932273
 20
21.813597397
 10
-21.9335191359
 20
21.7729464364
 10
-21.9620197812
 20
21.7290808201
 10
-21.9857832239
 20
21.6824807413
 10
-22.0045493817
 20
21.6336563137
 10
-22.0181128696
 20
21.5831420005
 10
-22.0263252523
 20
21.5314907667
 10
-22.0290966732
 20
21.4792680107
  0
LINE
  5
3F6
100
AcDbEntity
  8
0
100
AcDbLine
 62
7
  6
CONTINUOUS
 10
0.6000247315
 20
22.4
 11
0.5811729294
 21
22.3996562606
  0
LWPOLYLINE
  5
3F7
100
AcDbEntity
  8
0
100
AcDbPolyline
 62
7
  6
CONTINUOUS
 90
46
 70
0
 10
21.1427234819
 20
23.1226497308
 10
21.1522451922
 20
23.122789871
 10
21.1617387721
 20
23.1231350796
 10
21.17119058
 20
23.1236853565
 10
21.1805997277
 20
23.124445448
 10
21.189940165
 20
23.1254106079
 10
21.1991615188
 20
23.1265665975
 10
21.2082388948
 20
23.1279138384
 10
21.2171742523
 20
23.129451909
 10
21.2259589726
 20
23.1311653069
 10
21.2345827145
 20
23.1330543018
 10
21.2430357863
 20
23.1351186239
 10
21.2513111678
 20
23.1373419612
 10
21.2594000085
 20
23.1397244588
 10
21.2672940791
 20
23.1422659715
 10
21.2749878296
 20
23.1449497513
 10
21.2824738233
 20
23.1477758427
 10
21.2897452006
 20
23.1507442011
 10
21.2967977203
 20
23.153837946
 10
21.3036252797
 20
23.1570570531
 10
21.3102222689
 20
23.1604015466
 10
21.3165855377
 20
23.1638546185
 10
21.3227102114
 20
23.1674162006
 10
21.3285918334
 20
23.1710863611
 10
21.3342281527
 20
23.174848497
 10
21.3396154201
 20
23.1787025133
 10
21.3447502443
 20
23.1826485049
 10
21.3496311253
 20
23.1866701532
 10
21.3542553458
 20
23.1907673474
 10
21.3586205033
 20
23.1949401982
 10
21.3627257469
 20
23.19917272
 10
21.3665693096
 20
23.20346479
 10
21.3701497129
 20
23.2078165308
 10
21.3734666952
 20
23.2122123248
 10
21.3765193718
 20
23.2166520374
 10
21.3793071319
 20
23.2211358032
 10
21.3818302761
 20
23.2256484084
 10
21.384088744
 20
23.2301897017
 10
21.386082743
 20
23.2347598345
 10
21.3878131329
 20
23.2393440468
 10
21.3892806266
 20
23.2439421659
 10
21.3904862023
 20
23.2485543646
 10
21.3914312811
 20
23.2531664013
 10
21.3921173295
 20
23.2577735289
 10
21.3925459951
 20
23.2623804945
 10
21.3927192511
 20
23.2669872981
  0
LWPOLYLINE
  5
3F8
100
AcDbEntity
  8
ASSI
100
AcDbPolyline
 62
253
  6
CONTINUOUS
 90
14
 70
0
 10
-21.6282482493
 20
20.8294410242
 10
-21.6765178027
 20
20.8287871289
 10
-21.7231152914
 20
20.8279330329
 10
-21.7675688266
 20
20.8268873857
 10
-21.8094282312
 20
20.8256607765
 10
-21.8482695984
 20
20.8242656269
 10
-21.883699585
 20
20.8227160657
 10
-21.9153593945
 20
20.8210277851
 10
-21.9429284107
 20
20.8192178821
 10
-21.9661274445
 20
20.8173046855
 10
-21.9847215612
 20
20.81530757
 10
-21.9985224598
 20
20.8132467603
 10
-22.0073903798
 20
20.8111431261
 10
-22.0112355165
 20
20.8090179706
  0
LINE
  5
3F9
100
AcDbEntity
  8
ASSI
100
AcDbLine
 62
253
  6
CONTINUOUS
 10
-21.5286602179
 20
20.83012382
 11
-21.6282482493
 21
20.8294410242
  0
LINE
  5
3FA
100
AcDbEntity
  8
ASSI
100
AcDbLine
 62
253
  6
CONTINUOUS
 10
21.5292680065
 20
21.9790966689
 11
17.0497650898
 21
21.9754548654
  0
LINE
  5
3FB
100
AcDbEntity
  8
ASSI
100
AcDbLine
 62
253
  6
CONTINUOUS
 10
17.0497650898
 20
21.9754548654
 11
12.5841377851
 21
21.9726628203
  0
LINE
  5
3FC
100
AcDbEntity
  8
ASSI
100
AcDbLine
 62
253
  6
CONTINUOUS
 10
12.5841377851
 20
21.9726628203
 11
8.1228010852
 21
21.9707176316
  0
LINE
  5
3FD
100
AcDbEntity
  8
ASSI
100
AcDbLine
 62
253
  6
CONTINUOUS
 10
8.1228010852
 20
21.9707176316
 11
3.642041313
 21
21.969600354
  0
LINE
  5
3FE
100
AcDbEntity
  8
ASSI
100
AcDbLine
 62
253
  6
CONTINUOUS
 10
-8.095379339
 20
20.8319364756
 11
-21.528660218
 21
20.8301237974
  0
LINE
  5
3FF
100
AcDbEntity
  8
ASSI
100
AcDbLine
 62
253
  6
CONTINUOUS
 10
3.642041313
 20
21.969600354
 11
-0.9291528022
 21
21.9693427124
  0
LINE
  5
400
100
AcDbEntity
  8
ASSI
100
AcDbLine
 62
7
  6
CONTINUOUS
 10
-21.6501713375
 20
22.1
 11
21.6501713375
 21
22.1
  0
LINE
  5
401
100
AcDbEntity
  8
0
100
AcDbLine
 62
7
  6
CONTINUOUS
 10
0.6266747509
 20
22.3213883311
 11
1.3572765181
 21
22.3213883311
  0
LINE
  5
402
100
AcDbEntity
  8
0
100
AcDbLine
 62
7
  6
CONTINUOUS
 10
3.7427234819
 20
22.3213883311
 11
6.8087267447
 21
22.3213883311
  0
LINE
  5
403
100
AcDbEntity
  8
0
100
AcDbLine
 62
7
  6
CONTINUOUS
 10
7.75
 20
22.3213883311
 11
14.75
 21
22.3213883311
  0
LINE
  5
404
100
AcDbEntity
  8
0
100
AcDbLine
 62
7
  6
CONTINUOUS
 10
15.6912732553
 20
22.3213883311
 11
18.7572765181
 21
22.3213883311
  0
LINE
  5
405
100
AcDbEntity
  8
0
100
AcDbLine
 62
7
  6
CONTINUOUS
 10
21.1427234819
 20
22.3213883311
 11
21.8733252491
 21
22.3213883311
  0
LINE
  5
406
100
AcDbEntity
  8
0
100
AcDbLine
 62
7
  6
CONTINUOUS
 10
7.75
 20
22.3737961104
 11
10.05
 21
22.3737961104
  0
LINE
  5
407
100
AcDbEntity
  8
0
100
AcDbLine
 62
7
  6
CONTINUOUS
 10
12.45
 20
22.3737961104
 11
14.75
 21
22.3737961104
  0
LINE
  5
408
100
AcDbEntity
  8
0
100
AcDbLine
 62
7
  6
CONTINUOUS
 10
12.25
 20
22.4
 11
10.25
 21
22.4
  0
LINE
  5
409
100
AcDbEntity
  8
0
100
AcDbLine
 62
7
  6
CONTINUOUS
 10
0.6004921535
 20
22.4
 11
1.1
 21
22.4
  0
LINE
  5
40A
100
AcDbEntity
  8
0
100
AcDbLine
 62
7
  6
CONTINUOUS
 10
4.0
 20
22.4
 11
6.8
 21
22.4
  0
LINE
  5
40B
100
AcDbEntity
  8
0
100
AcDbLine
 62
7
  6
CONTINUOUS
 10
15.7
 20
22.4
 11
18.5
 21
22.4
  0
LINE
  5
40C
100
AcDbEntity
  8
0
100
AcDbLine
 62
7
  6
CONTINUOUS
 10
21.4
 20
22.4
 11
21.8995078465
 21
22.4
  0
LINE
  5
40D
100
AcDbEntity
  8
0
100
AcDbLine
 62
7
  6
CONTINUOUS
 10
21.1427234819
 20
23.1226497308
 11
18.7572765181
 21
23.1226497308
  0
LINE
  5
40E
100
AcDbEntity
  8
0
100
AcDbLine
 62
7
  6
CONTINUOUS
 10
1.3572765181
 20
23.1226497308
 11
3.7427234819
 21
23.1226497308
  0
LINE
  5
40F
100
AcDbEntity
  8
ASSI
100
AcDbLine
 62
253
  6
CONTINUOUS
 10
17.049041044
 20
20.8309108172
 11
-8.095379339
 21
20.8319364756
  0
LINE
  5
410
100
AcDbEntity
  8
ASSI
100
AcDbLine
 62
253
  6
CONTINUOUS
 10
21.5286602201
 20
20.8301237885
 11
17.049041044
 21
20.8309108172
  0
LINE
  5
411
100
AcDbEntity
  8
ASSI
100
AcDbLine
 62
253
  6
CONTINUOUS
 10
-0.9291528022
 20
21.9693427124
 11
-8.0924204844
 21
21.9707078275
  0
LINE
  5
412
100
AcDbEntity
  8
ASSI
100
AcDbLine
 62
253
  6
CONTINUOUS
 10
-8.0924204844
 20
21.9707078275
 11
-13.1962560974
 21
21.9729971844
  0
LINE
  5
413
100
AcDbEntity
  8
ASSI
100
AcDbLine
 62
253
  6
CONTINUOUS
 10
-13.1962560974
 20
21.9729971844
 11
-21.5292680107
 21
21.9790966732
  0
LWPOLYLINE
  5
414
100
AcDbEntity
  8
ASSI
100
AcDbPolyline
 62
253
  6
CONTINUOUS
 90
15
 70
0
 10
21.5286597714
 20
20.8301232531
 10
21.6282467746
 20
20.8294404827
 10
21.6765158698
 20
20.8287866094
 10
21.7231129579
 20
20.8279325413
 10
21.7675661642
 20
20.8268869273
 10
21.8094253245
 20
20.8256603558
 10
21.8482665437
 20
20.8242652477
 10
21.8836964883
 20
20.8227157309
 10
21.9153563701
 20
20.821027497
 10
21.9429255788
 20
20.8192176422
 10
21.9661249295
 20
20.8173044944
 10
21.9847194892
 20
20.8153074273
 10
21.9985209565
 20
20.8132466647
 10
22.007389568
 20
20.8111430754
 10
22.011235514
 20
20.8090179618
  0
LINE
  5
415
100
AcDbEntity
  8
0
100
AcDbLine
 62
7
  6
CONTINUOUS
 10
21.9188270705
 20
22.3996562606
 11
21.8999752684
 21
22.4
  0
LWPOLYLINE
  5
416
100
AcDbEntity
  8
ASSI
100
AcDbPolyline
 62
253
  6
CONTINUOUS
 90
16
 70
0
 10
21.5292680061
 20
21.9790966685
 10
21.5814916322
 20
21.9763251557
 10
21.6331435839
 20
21.9681125267
 10
21.6836584449
 20
21.9545486823
 10
21.732483246
 20
21.9357821014
 10
21.7790835187
 20
21.9120182154
 10
21.8229491457
 20
21.8835171595
 10
21.8635999447
 20
21.850590925
 10
21.9005909253
 20
21.8135999444
 10
21.9335171597
 20
21.7729491454
 10
21.9620182155
 20
21.7290835184
 10
21.9857821015
 20
21.6824832457
 10
22.0045486823
 20
21.6336584446
 10
22.0181125267
 20
21.5831435837
 10
22.0263251557
 20
21.531491632
 10
22.0290966685
 20
21.4792680061
  0
LINE
  5
417
100
AcDbEntity
  8
0
100
AcDbLine
 62
7
  6
CONTINUOUS
 10
6.8
 20
24.0
 11
6.8087267447
 21
23.9912732553
  0
LINE
  5
418
100
AcDbEntity
  8
0
100
AcDbLine
 62
7
  6
CONTINUOUS
 10
18.5
 20
22.4
 11
18.5072807489
 21
22.3344140523
  0
LWPOLYLINE
  5
419
100
AcDbEntity
  8
0
100
AcDbPolyline
 62
7
  6
CONTINUOUS
 90
33
 70
0
 10
12.45
 20
23.9982478817
 10
12.4404822311
 20
23.9980212874
 10
12.4309860147
 20
23.9973420164
 10
12.4215328694
 20
23.996211606
 10
12.4121442099
 20
23.9946326143
 10
12.4028413178
 20
23.992608618
 10
12.3936452919
 20
23.9901442066
 10
12.3845769757
 20
23.9872449671
 10
12.3756569126
 20
23.9839174684
 10
12.3669053173
 20
23.9801692522
 10
12.358342019
 20
23.976008812
 10
12.3499864234
 20
23.9714455769
 10
12.3418574709
 20
23.9664898927
 10
12.3339735824
 20
23.961152992
 10
12.3263526192
 20
23.9554469688
 10
12.3190118497
 20
23.9493847549
 10
12.3119679012
 20
23.9429800842
 10
12.3052367389
 20
23.9362474753
 10
12.2988336283
 20
23.9292022024
 10
12.2927730916
 20
23.9218602553
 10
12.287068838
 20
23.9142382532
 10
12.2817337544
 20
23.9063534174
 10
12.276779889
 20
23.8982235369
 10
12.2722185205
 20
23.8898671026
 10
12.2680600699
 20
23.8813032282
 10
12.2643139839
 20
23.8725514452
 10
12.2609886702
 20
23.8636314815
 10
12.25809159
 20
23.8545633862
 10
12.2556289492
 20
23.8453662265
 10
12.2536068265
 20
23.8360622836
 10
12.2520304286
 20
23.8266769845
 10
12.250902847
 20
23.817233139
 10
12.2502257352
 20
23.8077507432
  0
LWPOLYLINE
  5
41A
100
AcDbEntity
  8
0
100
AcDbPolyline
 62
7
  6
CONTINUOUS
 90
3
 70
0
 10
12.45
 20
24.0
 10
12.4412760241
 20
23.9998096367
 10
12.4325686607
 20
23.99923891
  0
LINE
  5
41B
100
AcDbEntity
  8
0
100
AcDbLine
 62
253
  6
CONTINUOUS
 10
1.3630943479
 20
23.6278312164
 11
3.7369056521
 21
23.6278312164
  0
LINE
  5
41C
100
AcDbEntity
  8
0
100
AcDbLine
 62
253
  6
CONTINUOUS
 10
18.7630943479
 20
23.6278312164
 11
21.1369056521
 21
23.6278312164
  0
LINE
  5
41D
100
AcDbEntity
  8
0
100
AcDbLine
 62
253
  6
CONTINUOUS
 10
14.75
 20
23.7982512664
 11
12.25
 21
23.7982512664
  0
LINE
  5
41E
100
AcDbEntity
  8
0
100
AcDbLine
 62
253
  6
CONTINUOUS
 10
7.75
 20
23.7982512664
 11
10.25
 21
23.7982512664
  0
LINE
  5
41F
100
AcDbEntity
  8
0
100
AcDbLine
 62
253
  6
CONTINUOUS
 10
1.1130985787
 20
23.8443375673
 11
3.9869014213
 21
23.8443375673
  0
LINE
  5
420
100
AcDbEntity
  8
0
100
AcDbLine
 62
253
  6
CONTINUOUS
 10
18.5130985787
 20
23.8443375673
 11
21.3869014213
 21
23.8443375673
  0
LINE
  5
421
100
AcDbEntity
  8
0
100
AcDbLine
 62
7
  6
CONTINUOUS
 10
6.8087267447
 20
23.9912732553
 11
7.75
 21
23.9912732553
  0
LINE
  5
422
100
AcDbEntity
  8
0
100
AcDbLine
 62
7
  6
CONTINUOUS
 10
14.75
 20
23.9912732553
 11
15.6912732553
 21
23.9912732553
  0
LINE
  5
423
100
AcDbEntity
  8
0
100
AcDbLine
 62
253
  6
CONTINUOUS
 10
14.75
 20
23.9982478817
 11
12.45
 21
23.9982478817
  0
LINE
  5
424
100
AcDbEntity
  8
0
100
AcDbLine
 62
253
  6
CONTINUOUS
 10
10.05
 20
23.9982478817
 11
7.75
 21
23.9982478817
  0
LINE
  5
425
100
AcDbEntity
  8
0
100
AcDbLine
 62
7
  6
CONTINUOUS
 10
6.8
 20
24.0
 11
10.05
 21
24.0
  0
LINE
  5
426
100
AcDbEntity
  8
0
100
AcDbLine
 62
7
  6
CONTINUOUS
 10
12.45
 20
24.0
 11
15.7
 21
24.0
  0
LINE
  5
427
100
AcDbEntity
  8
0
100
AcDbLine
 62
253
  6
CONTINUOUS
 10
1.1130985787
 20
24.2369056521
 11
3.9869014213
 21
24.2369056521
  0
LINE
  5
428
100
AcDbEntity
  8
0
100
AcDbLine
 62
253
  6
CONTINUOUS
 10
18.5130985787
 20
24.2369056521
 11
21.3869014213
 21
24.2369056521
  0
LINE
  5
429
100
AcDbEntity
  8
0
100
AcDbLine
 62
253
  6
CONTINUOUS
 10
21.1369056521
 20
24.4869014213
 11
18.7630943479
 21
24.4869014213
  0
LINE
  5
42A
100
AcDbEntity
  8
0
100
AcDbLine
 62
253
  6
CONTINUOUS
 10
3.7369056521
 20
24.4869014213
 11
1.3630943479
 21
24.4869014213
  0
LINE
  5
42B
100
AcDbEntity
  8
0
100
AcDbLine
 62
7
  6
CONTINUOUS
 10
21.1500042308
 20
24.5
 11
18.7499957692
 21
24.5
  0
LINE
  5
42C
100
AcDbEntity
  8
0
100
AcDbLine
 62
7
  6
CONTINUOUS
 10
3.7500042308
 20
24.5
 11
1.3499957692
 21
24.5
  0
LWPOLYLINE
  5
42D
100
AcDbEntity
  8
0
100
AcDbPolyline
 62
7
  6
CONTINUOUS
 90
36
 70
0
 10
10.05
 20
24.0
 10
10.0587239759
 20
23.9998096367
 10
10.0674313393
 20
23.99923891
 10
10.0761055151
 20
23.9982889069
 10
10.084729991
 20
23.9969614365
 10
10.0932883498
 20
23.9952590264
 10
10.1017643002
 20
23.9931849183
 10
10.1101417076
 20
23.9907430608
 10
10.1184046251
 20
23.9879381028
 10
10.1265373238
 20
23.9847753849
 10
10.1345243226
 20
23.9812609278
 10
10.142350418
 20
23.9774014221
 10
10.1500007124
 20
23.973204216
 10
10.1574606433
 20
23.9686772994
 10
10.1647160107
 20
23.96382929
 10
10.1717530036
 20
23.9586694178
 10
10.1785582271
 20
23.9532075051
 10
10.1851187275
 20
23.9474539493
 10
10.1914220169
 20
23.9414197042
 10
10.1974560971
 20
23.9351162564
 10
10.2032094825
 20
23.928555605
 10
10.2086712217
 20
23.92175024
 10
10.2138309187
 20
23.9147131159
 10
10.2186787524
 20
23.9074576282
 10
10.2232054955
 20
23.8999975893
 10
10.2274025317
 20
23.8923471996
 10
10.2312618726
 20
23.8845210219
 10
10.2347761726
 20
23.8765339547
 10
10.2379387427
 20
23.8684012014
 10
10.2407435636
 20
23.8601382427
 10
10.2431852971
 20
23.8517608084
 10
10.2452592959
 20
23.8432848447
 10
10.2469616128
 20
23.8347264854
 10
10.2482890083
 20
23.8261020222
 10
10.249238956
 20
23.8174278719
 10
10.2498096485
 20
23.8087205449
  0
LWPOLYLINE
  5
42E
100
AcDbEntity
  8
0
100
AcDbPolyline
 62
253
  6
CONTINUOUS
 90
33
 70
0
 10
10.05
 20
23.9982478817
 10
10.0595163832
 20
23.9980213534
 10
10.0690112087
 20
23.9973422816
 10
10.0784629677
 20
23.9962122046
 10
10.0878502489
 20
23.9946336824
 10
10.0971517871
 20
23.9926102908
 10
10.1063465114
 20
23.9901466136
 10
10.1154135927
 20
23.9872482316
 10
10.1243324911
 20
23.9839217108
 10
10.1330830026
 20
23.9801745867
 10
10.1416453043
 20
23.9760153477
 10
10.15
 20
23.971453416
 10
10.1581281635
 20
23.9664991256
 10
10.1660113819
 20
23.9611636997
 10
10.1736317972
 20
23.9554592248
 10
10.1809721468
 20
23.9493986233
 10
10.1880158023
 20
23.9429956244
 10
10.1947468076
 20
23.936264733
 10
10.2011499149
 20
23.9292211967
 10
10.2072106189
 20
23.9218809714
 10
10.2129151904
 20
23.914260685
 10
10.2182507066
 20
23.9063776
 10
10.2232050808
 20
23.8982495741
 10
10.2277670897
 20
23.8898950198
 10
10.2319263991
 20
23.8813328629
 10
10.2356735866
 20
23.8725824996
 10
10.2390001637
 20
23.863663752
 10
10.2418985947
 20
23.8545968242
 10
10.2443623137
 20
23.8454022555
 10
10.2463857395
 20
23.8361008747
 10
10.2479642884
 20
23.8267137523
 10
10.2490943845
 20
23.8172621533
 10
10.2497734678
 20
23.8077674885
  0
LWPOLYLINE
  5
42F
100
AcDbEntity
  8
0
100
AcDbPolyline
 62
253
  6
CONTINUOUS
 90
34
 70
0
 10
3.7369056521
 20
24.4869014213
 10
3.7487811236
 20
24.4866188016
 10
3.7606348662
 20
24.4857718998
 10
3.7724400417
 20
24.4843619039
 10
3.7841715363
 20
24.4823909579
 10
3.7958009716
 20
24.479862968
 10
3.8072969372
 20
24.4767843893
 10
3.8186317023
 20
24.4731627796
 10
3.8297813143
 20
24.4690059252
 10
3.8407207154
 20
24.4643231516
 10
3.8514252502
 20
24.4591249663
 10
3.8618705037
 20
24.4534231778
 10
3.8720325793
 20
24.4472308154
 10
3.881888364
 20
24.4405619782
 10
3.8914156254
 20
24.4334317248
 10
3.9005928387
 20
24.4258561639
 10
3.9093992303
 20
24.4178524323
 10
3.9178148165
 20
24.4094386807
 10
3.9258205107
 20
24.4006339852
 10
3.9333981672
 20
24.3914582982
 10
3.9405306182
 20
24.381932404
 10
3.9472016983
 20
24.3720778879
 10
3.9533962906
 20
24.3619170757
 10
3.9591003559
 20
24.3514729905
 10
3.9643009635
 20
24.340769304
 10
3.9689863278
 20
24.3298302705
 10
3.9731458321
 20
24.3186806742
 10
3.9767700493
 20
24.3073457817
 10
3.9798507679
 20
24.2958512706
 10
3.9823810049
 20
24.2842231913
 10
3.9843550235
 20
24.2724879116
 10
3.9857683523
 20
24.2606720293
 10
3.9866177924
 20
24.248802311
 10
3.9869014213
 20
24.2369056521
  0
LWPOLYLINE
  5
430
100
AcDbEntity
  8
0
100
AcDbPolyline
 62
7
  6
CONTINUOUS
 90
34
 70
0
 10
3.7500042308
 20
24.5
 10
3.761899516
 20
24.4997168498
 10
3.7737678556
 20
24.4988680342
 10
3.7855823661
 20
24.4974554741
 10
3.7973162875
 20
24.4954823677
 10
3.8089430388
 20
24.4929531817
 10
3.820436279
 20
24.4898736417
 10
3.8317699738
 20
24.4862507213
 10
3.8429184493
 20
24.4820926258
 10
3.8538564463
 20
24.4774087722
 10
3.8645591876
 20
24.4722097688
 10
3.8750024283
 20
24.4665073916
 10
3.8851625059
 20
24.4603145581
 10
3.8950164051
 20
24.4536452955
 10
3.9045418038
 20
24.4465147107
 10
3.9137171191
 20
24.4389389589
 10
3.9225215661
 20
24.4309352005
 10
3.9309352005
 20
24.4225215661
 10
3.9389389589
 20
24.4137171191
 10
3.9465147107
 20
24.4045418038
 10
3.9536452955
 20
24.3950164051
 10
3.9603145581
 20
24.3851625059
 10
3.9665073916
 20
24.3750024283
 10
3.9722097688
 20
24.3645591876
 10
3.9774087722
 20
24.3538564463
 10
3.9820926258
 20
24.3429184493
 10
3.9862507213
 20
24.3317699738
 10
3.9898736417
 20
24.320436279
 10
3.9929531817
 20
24.3089430388
 10
3.9954823677
 20
24.2973162875
 10
3.9974554741
 20
24.2855823661
 10
3.9988680342
 20
24.2737678556
 10
3.9997168498
 20
24.261899516
 10
4.0
 20
24.2500042308
  0
LWPOLYLINE
  5
431
100
AcDbEntity
  8
0
100
AcDbPolyline
 62
253
  6
CONTINUOUS
 90
34
 70
0
 10
21.1369056521
 20
24.4869014213
 10
21.1488006736
 20
24.4866178705
 10
21.1606687503
 20
24.4857686655
 10
21.1724829982
 20
24.4843557301
 10
21.1842166554
 20
24.4823822649
 10
21.1958431426
 20
24.4798527401
 10
21.2073361233
 20
24.4767728857
 10
21.2186695631
 20
24.4731496783
 10
21.2298177893
 20
24.4689913253
 10
21.2407555487
 20
24.4643072462
 10
21.2514580649
 20
24.4591080515
 10
21.2619010942
 20
24.4534055187
 10
21.2720609807
 20
24.4472125651
 10
21.2819147102
 20
24.4405432193
 10
21.2914399617
 20
24.4334125887
 10
21.3006151584
 20
24.4258368259
 10
21.3094195163
 20
24.4178330917
 10
21.3178330917
 20
24.4094195163
 10
21.3258368259
 20
24.4006151584
 10
21.3334125887
 20
24.3914399617
 10
21.3405432193
 20
24.3819147102
 10
21.3472125651
 20
24.3720609807
 10
21.3534055187
 20
24.3619010942
 10
21.3591080515
 20
24.3514580649
 10
21.3643072462
 20
24.3407555487
 10
21.3689913253
 20
24.3298177893
 10
21.3731496783
 20
24.3186695631
 10
21.3767728857
 20
24.3073361233
 10
21.3798527401
 20
24.2958431426
 10
21.3823822649
 20
24.2842166554
 10
21.3843557301
 20
24.2724829982
 10
21.3857686655
 20
24.2606687503
 10
21.3866178705
 20
24.2488006736
 10
21.3869014213
 20
24.2369056521
  0
LWPOLYLINE
  5
432
100
AcDbEntity
  8
0
100
AcDbPolyline
 62
7
  6
CONTINUOUS
 90
34
 70
0
 10
21.1500042308
 20
24.5
 10
21.161899516
 20
24.4997168498
 10
21.1737678556
 20
24.4988680342
 10
21.1855823661
 20
24.4974554741
 10
21.1973162875
 20
24.4954823677
 10
21.2089430388
 20
24.4929531817
 10
21.220436279
 20
24.4898736417
 10
21.2317699738
 20
24.4862507213
 10
21.2429184493
 20
24.4820926258
 10
21.2538564463
 20
24.4774087722
 10
21.2645591876
 20
24.4722097688
 10
21.2750024283
 20
24.4665073916
 10
21.2851625059
 20
24.4603145581
 10
21.2950164051
 20
24.4536452955
 10
21.3045418038
 20
24.4465147107
 10
21.3137171191
 20
24.4389389589
 10
21.3225215661
 20
24.4309352005
 10
21.3309352005
 20
24.4225215661
 10
21.3389389589
 20
24.4137171191
 10
21.3465147107
 20
24.4045418038
 10
21.3536452955
 20
24.3950164051
 10
21.3603145581
 20
24.3851625059
 10
21.3665073916
 20
24.3750024283
 10
21.3722097688
 20
24.3645591876
 10
21.3774087722
 20
24.3538564463
 10
21.3820926258
 20
24.3429184493
 10
21.3862507213
 20
24.3317699738
 10
21.3898736417
 20
24.320436279
 10
21.3929531817
 20
24.3089430388
 10
21.3954823677
 20
24.2973162875
 10
21.3974554741
 20
24.2855823661
 10
21.3988680342
 20
24.2737678556
 10
21.3997168498
 20
24.261899516
 10
21.4
 20
24.2500042308
  0
LINE
  5
433
100
AcDbEntity
  8
0
100
AcDbLine
 62
7
  6
CONTINUOUS
 10
21.9183944572
 20
22.3996564652
 11
21.9375829094
 21
22.3986151811
  0
LINE
  5
434
100
AcDbEntity
  8
0
100
AcDbLine
 62
7
  6
CONTINUOUS
 10
21.9368209746
 20
22.3986161017
 11
21.956242785
 21
22.3968767616
  0
LINE
  5
435
100
AcDbEntity
  8
0
100
AcDbLine
 62
7
  6
CONTINUOUS
 10
21.9552548206
 20
22.3968789096
 11
21.9748302154
 21
22.3944353938
  0
LINE
  5
436
100
AcDbEntity
  8
0
100
AcDbLine
 62
7
  6
CONTINUOUS
 10
21.9933216825
 20
22.391296686
 11
21.9737539986
 21
22.3944392873
  0
LWPOLYLINE
  5
437
100
AcDbEntity
  8
0
100
AcDbPolyline
 62
7
  6
CONTINUOUS
 90
35
 70
0
 10
22.0467218536
 20
-22.3778036315
 10
22.0655518263
 20
-22.371953526
 10
22.0830181623
 20
-22.3654791805
 10
22.1002307852
 20
-22.3583557574
 10
22.1171736021
 20
-22.3505878911
 10
22.1338734519
 20
-22.3421622288
 10
22.1503034956
 20
-22.3330921232
 10
22.1663671227
 20
-22.3234222665
 10
22.1820639186
 20
-22.3131433829
 10
22.197394298
 20
-22.3022647482
 10
22.2122628933
 20
-22.2908588817
 10
22.2266482406
 20
-22.2789382749
 10
22.240571804
 20
-22.2664904364
 10
22.2540026084
 20
-22.253550411
 10
22.2669418311
 20
-22.2401196809
 10
22.2793882949
 20
-22.2261967639
 10
22.291307493
 20
-22.2118122589
 10
22.3027119399
 20
-22.1969448639
 10
22.3135891212
 20
-22.1816158808
 10
22.3238669865
 20
-22.1659198134
 10
22.3335365943
 20
-22.149855731
 10
22.3426068861
 20
-22.1334245644
 10
22.3510326366
 20
-22.1167236087
 10
22.3588004354
 20
-22.0997793986
 10
22.3659236928
 20
-22.0825653996
 10
22.3723974143
 20
-22.0650993029
 10
22.3782301595
 20
-22.0473585528
 10
22.3834133688
 20
-22.0293657052
 10
22.3879163686
 20
-22.0112061191
 10
22.3917345743
 20
-21.9928675399
 10
22.3948725704
 20
-21.9743622224
 10
22.3973134374
 20
-21.9558122896
 10
22.3990515353
 20
-21.9372584493
 10
22.4000925039
 20
-21.9186599938
 10
22.4004363434
 20
-21.900016923
  0
LINE
  5
438
100
AcDbEntity
  8
0
100
AcDbLine
 62
7
  6
CONTINUOUS
 10
22.0287444328
 20
-22.3829850084
 11
22.0478080761
 21
-22.3777877284
  0
LINE
  5
439
100
AcDbEntity
  8
0
100
AcDbLine
 62
7
  6
CONTINUOUS
 10
22.0116466326
 20
22.3874774628
 11
21.9922605052
 21
22.3913028363
  0
LINE
  5
43A
100
AcDbEntity
  8
0
100
AcDbLine
 62
7
  6
CONTINUOUS
 10
22.0106003305
 20
22.3874863612
 11
22.0298106129
 21
22.3829728533
  0
LINE
  5
43B
100
AcDbEntity
  8
0
100
AcDbLine
 62
7
  6
CONTINUOUS
 10
22.0287444326
 20
22.3829850084
 11
22.0478080761
 21
22.3777877284
  0
LINE
  5
43C
100
AcDbEntity
  8
0
100
AcDbLine
 62
7
  6
CONTINUOUS
 10
22.0467218534
 20
22.3778036315
 11
22.0655518263
 21
22.371953526
  0
LINE
  5
43D
100
AcDbEntity
  8
0
100
AcDbLine
 62
253
  6
CONTINUOUS
 10
18.5130985787
 20
-24.2369056521
 11
18.5
 21
-24.2500042308
  0
LINE
  5
43E
100
AcDbEntity
  8
0
100
AcDbLine
 62
253
  6
CONTINUOUS
 10
18.7630943479
 20
-24.4869014213
 11
18.7499957692
 21
-24.5
  0
LWPOLYLINE
  5
43F
100
AcDbEntity
  8
0
100
AcDbPolyline
 62
7
  6
CONTINUOUS
 90
34
 70
0
 10
22.0644457078
 20
22.371973596
 10
22.0818922618
 20
22.3655038839
 10
22.0990852495
 20
22.3583855132
 10
22.1160089885
 20
22.3506229031
 10
22.1326902857
 20
22.3422027732
 10
22.1491023343
 20
22.3331384039
 10
22.1651490312
 20
22.3234740556
 10
22.1808300521
 20
22.3132004611
 10
22.1961457213
 20
22.3023268876
 10
22.2110009098
 20
22.2909253973
 10
22.2253743183
 20
22.2790083624
 10
22.239287246
 20
22.2665634107
 10
22.2527084612
 20
22.253625488
 10
22.2656389751
 20
22.2401962802
 10
22.2780777764
 20
22.2262741014
 10
22.2899906008
 20
22.2118888391
 10
22.3013901209
 20
22.1970190634
 10
22.312263664
 20
22.1816862041
 10
22.3225389474
 20
22.1659844383
 10
22.3322070915
 20
22.1499127199
 10
22.341276976
 20
22.133472095
 10
22.3497029566
 20
22.1167598787
 10
22.3574715976
 20
22.0998026279
 10
22.3645963347
 20
22.0825737857
 10
22.3710718318
 20
22.0650909962
 10
22.3769066355
 20
22.0473317489
 10
22.3820921993
 20
22.0293185543
 10
22.3865975464
 20
22.011136588
 10
22.390418125
 20
21.9927734933
 10
22.3935584869
 20
21.974241627
 10
22.3960013121
 20
21.9556632347
 10
22.3977408271
 20
21.9370790651
 10
22.3987828053
 20
21.9184483695
 10
22.3991272468
 20
21.8997711479
  0
LINE
  5
440
100
AcDbEntity
  8
0
100
AcDbLine
 62
253
  6
CONTINUOUS
 10
18.5130985787
 20
24.2369056521
 11
18.5
 21
24.2500042308
  0
LINE
  5
441
100
AcDbEntity
  8
0
100
AcDbLine
 62
253
  6
CONTINUOUS
 10
18.7630943479
 20
24.4869014213
 11
18.7499957692
 21
24.5
  0
LINE
  5
442
100
AcDbEntity
  8
0
100
AcDbLine
 62
7
  6
CONTINUOUS
 10
-49.8871858035
 20
-24.5
 11
-49.1357313706
 21
-24.495628166
  0
LINE
  5
443
100
AcDbEntity
  8
0
100
AcDbLine
 62
253
  6
CONTINUOUS
 10
-49.8871858035
 20
-24.2500042308
 11
-49.1357313706
 21
-24.2456323968
  0
LINE
  5
444
100
AcDbEntity
  8
0
100
AcDbLine
 62
7
  6
CONTINUOUS
 10
-44.3842769378
 20
-23.9679850128
 11
-48.8871858035
 21
-23.9941821702
  0
LINE
  5
445
100
AcDbEntity
  8
0
100
AcDbLine
 62
253
  6
CONTINUOUS
 10
-48.8871858035
 20
-24.2456323968
 11
-49.1357313706
 21
-24.2456323968
  0
LINE
  5
446
100
AcDbEntity
  8
0
100
AcDbLine
 62
253
  6
CONTINUOUS
 10
-52.3871858035
 20
-24.2369056521
 11
-52.1386402363
 21
-24.2369056521
  0
LINE
  5
447
100
AcDbEntity
  8
0
100
AcDbLine
 62
7
  6
CONTINUOUS
 10
-52.1386402363
 20
-24.4869014213
 11
-49.8871858035
 21
-24.5
  0
LINE
  5
448
100
AcDbEntity
  8
0
100
AcDbLine
 62
253
  6
CONTINUOUS
 10
-52.1386402363
 20
-24.2369056521
 11
-49.8871858035
 21
-24.2500042308
  0
LINE
  5
449
100
AcDbEntity
  8
0
100
AcDbLine
 62
7
  6
CONTINUOUS
 10
-38.8813680721
 20
-22.3359700255
 11
-49.8871858035
 21
-22.4
  0
LINE
  5
44A
100
AcDbEntity
  8
0
100
AcDbLine
 62
253
  6
CONTINUOUS
 10
-52.3871858035
 20
-23.8443375673
 11
-52.1386402363
 21
-23.8443375673
  0
LINE
  5
44B
100
AcDbEntity
  8
0
100
AcDbLine
 62
253
  6
CONTINUOUS
 10
-48.8871858035
 20
-23.8443375673
 11
-49.1357313706
 21
-23.8443375673
  0
LINE
  5
44C
100
AcDbEntity
  8
ASSI
100
AcDbLine
 62
7
  6
CONTINUOUS
 10
-53.4871858035
 20
-22.1
 11
-58.4773378828
 21
-21.969328269
  0
LINE
  5
44D
100
AcDbEntity
  8
0
100
AcDbLine
 62
7
  6
CONTINUOUS
 10
-51.3871858035
 20
-22.3213883311
 11
-49.8871858035
 21
-22.4
  0
LWPOLYLINE
  5
44E
100
AcDbEntity
  8
ASSI
100
AcDbPolyline
 62
7
  6
CONTINUOUS
 90
22
 70
0
 10
-58.1042975801
 20
-21.9790966731
 10
-58.1900854515
 20
-21.9737748348
 10
-58.2752586636
 20
-21.9623359219
 10
-58.3593818418
 20
-21.9448413119
 10
-58.4420219878
 20
-21.9213845622
 10
-58.5227608409
 20
-21.8920877781
 10
-58.6011960473
 20
-21.8570982492
 10
-58.6769313948
 20
-21.8165925532
 10
-58.7495750113
 20
-21.7707801649
 10
-58.8187513184
 20
-21.719898155
 10
-58.8841061711
 20
-21.6642088038
 10
-58.9453077141
 20
-21.6039969206
 10
-59.0020434395
 20
-21.5395705914
 10
-59.054024696
 20
-21.4712590461
 10
-59.1009859946
 20
-21.3994129662
 10
-59.1426862587
 20
-21.3244023284
 10
-59.1789111753
 20
-21.2466171303
 10
-59.209480386
 20
-21.1664501882
 10
-59.2342427373
 20
-21.0842957516
 10
-59.2530705406
 20
-21.0005677757
 10
-59.2658639321
 20
-20.9156991872
 10
-59.2725554094
 20
-20.8301237924
  0
LINE
  5
44F
100
AcDbEntity
  8
ASSI
100
AcDbLine
 62
253
  6
CONTINUOUS
 10
-59.2725555346
 20
-20.8301238198
 11
-59.2682974195
 21
-20.8298880969
  0
LINE
  5
450
100
AcDbEntity
  8
ASSI
100
AcDbLine
 62
253
  6
CONTINUOUS
 10
-59.2682974195
 20
-20.8298880969
 11
-59.1744304672
 21
-20.8256607763
  0
LINE
  5
451
100
AcDbEntity
  8
ASSI
100
AcDbLine
 62
253
  6
CONTINUOUS
 10
-59.1744304672
 20
-20.8256607763
 11
-58.7863876347
 21
-20.8090179705
  0
LINE
  5
452
100
AcDbEntity
  8
0
100
AcDbLine
 62
253
  6
CONTINUOUS
 10
-49.8871858035
 20
-21.900016923
 11
-48.8871858035
 21
-21.8941990932
  0
LINE
  5
453
100
AcDbEntity
  8
ASSI
100
AcDbLine
 62
253
  6
CONTINUOUS
 10
-59.6443399632
 20
-20.8322349461
 11
-59.2725555371
 21
-20.8301237979
  0
LINE
  5
454
100
AcDbEntity
  8
0
100
AcDbLine
 62
7
  6
CONTINUOUS
 10
-37.8871858035
 20
-20.9
 11
-47.8871858035
 21
-20.9
  0
LINE
  5
455
100
AcDbEntity
  8
0
100
AcDbLine
 62
7
  6
CONTINUOUS
 10
-38.3784596003
 20
-21.5834304982
 11
-47.8871858035
 21
-21.4174550649
  0
LINE
  5
456
100
AcDbEntity
  8
ASSI
100
AcDbLine
 62
253
  6
CONTINUOUS
 10
-53.4871858035
 20
-21.6001713375
 11
-58.1042975801
 21
-21.4792680107
  0
LINE
  5
457
100
AcDbEntity
  8
0
100
AcDbLine
 62
253
  6
CONTINUOUS
 10
-51.3871858035
 20
-21.821159479
 11
-49.8871858035
 21
-21.8997711479
  0
LWPOLYLINE
  5
458
100
AcDbEntity
  8
ASSI
100
AcDbPolyline
 62
253
  6
CONTINUOUS
 90
22
 70
0
 10
-58.1042975801
 20
-21.4792680107
 10
-58.1545512756
 20
-21.4761270388
 10
-58.2040246316
 20
-21.4695071457
 10
-58.2527176484
 20
-21.4594083313
 10
-58.3008946806
 20
-21.4457430524
 10
-58.3482913734
 20
-21.4285988522
 10
-58.3941146626
 20
-21.4082383603
 10
-58.4383180659
 20
-21.3846125802
 10
-58.4809480656
 20
-21.3577705085
 10
-58.521351044
 20
-21.3281217642
 10
-58.559493145
 20
-21.295620973
 10
-58.5954082247
 20
-21.2603135092
 10
-58.628544234
 20
-21.2227451153
 10
-58.6588555744
 20
-21.1828827453
 10
-58.6863878444
 20
-21.1407594451
 10
-58.7107257903
 20
-21.097020095
 10
-58.7318219023
 20
-21.0516173858
 10
-58.7497236903
 20
-21.0045986266
 10
-58.7641584299
 20
-20.9567506247
 10
-58.7750352132
 20
-20.9083356493
 10
-58.7824449481
 20
-20.8590914312
 10
-58.7863876347
 20
-20.8090179705
  0
LWPOLYLINE
  5
459
100
AcDbEntity
  8
0
100
AcDbPolyline
 62
7
  6
CONTINUOUS
 90
4
 70
0
 10
-51.3871858035
 20
23.1226497308
 10
-51.3870044117
 20
23.122789871
 10
-51.386461592
 20
23.1231350796
 10
-51.3855597641
 20
23.1236853565
  0
LINE
  5
45A
100
AcDbEntity
  8
0
100
AcDbLine
 62
7
  6
CONTINUOUS
 10
-51.3855597641
 20
23.1236853565
 11
-51.3826864854
 21
23.1254106079
  0
LINE
  5
45B
100
AcDbEntity
  8
0
100
AcDbLine
 62
7
  6
CONTINUOUS
 10
-51.3826864854
 20
23.1254106079
 11
-51.3227771727
 21
23.1604015466
  0
LINE
  5
45C
100
AcDbEntity
  8
0
100
AcDbLine
 62
253
  6
CONTINUOUS
 10
-49.8871858035
 20
23.4104851482
 11
-49.1357313706
 21
23.8443375673
  0
LINE
  5
45D
100
AcDbEntity
  8
0
100
AcDbLine
 62
7
  6
CONTINUOUS
 10
-49.8871858035
 20
23.1226497308
 11
-49.0121858035
 21
23.6278312164
  0
LINE
  5
45E
100
AcDbEntity
  8
0
100
AcDbLine
 62
7
  6
CONTINUOUS
 10
-51.3227771727
 20
23.1604015466
 11
-51.1386402363
 21
23.2669872981
  0
LINE
  5
45F
100
AcDbEntity
  8
RACCORDO
100
AcDbLine
 62
253
  6
CONTINUOUS
 10
-38.0836953222
 20
-19.0166572575
 11
-37.8871858035
 21
-19.0166572575
  0
LINE
  5
460
100
AcDbEntity
  8
RACCORDO
100
AcDbLine
 62
7
  6
CONTINUOUS
 10
-38.0854404964
 20
-19.7942654032
 11
-47.8871858035
 21
-19.7087268678
  0
LINE
  5
461
100
AcDbEntity
  8
0
100
AcDbLine
 62
7
  6
CONTINUOUS
 10
-48.8871858035
 20
-18.5082905244
 11
-47.8871858035
 21
-18.5170173922
  0
LINE
  5
462
100
AcDbEntity
  8
0
100
AcDbLine
 62
253
  6
CONTINUOUS
 10
-49.1357313706
 20
-23.8443375673
 11
-49.8871858035
 21
-23.4104851482
  0
LINE
  5
463
100
AcDbEntity
  8
0
100
AcDbLine
 62
7
  6
CONTINUOUS
 10
-49.0121858035
 20
-23.6278312164
 11
-49.8871858035
 21
-23.1226497308
  0
LINE
  5
464
100
AcDbEntity
  8
0
100
AcDbLine
 62
7
  6
CONTINUOUS
 10
-51.1386402363
 20
-23.2669872981
 11
-51.2558331326
 21
-23.1992259418
  0
LINE
  5
465
100
AcDbEntity
  8
0
100
AcDbLine
 62
7
  6
CONTINUOUS
 10
-51.2558331326
 20
-23.1992259418
 11
-51.3697528354
 21
-23.1330255505
  0
LWPOLYLINE
  5
466
100
AcDbEntity
  8
0
100
AcDbPolyline
 62
7
  6
CONTINUOUS
 90
7
 70
0
 10
-51.3697528354
 20
-23.1330255505
 10
-51.3827029837
 20
-23.1253969981
 10
-51.384310049
 20
-23.1244418396
 10
-51.3855690035
 20
-23.123679751
 10
-51.3864704256
 20
-23.1231181344
 10
-51.3870112554
 20
-23.1227714623
 10
-51.3871858035
 20
-23.1226497308
  0
LINE
  5
467
100
AcDbEntity
  8
RACCORDO
100
AcDbLine
 62
7
  6
CONTINUOUS
 10
-51.3871858035
 20
-17.4
 11
-53.4871858035
 21
-17.3633443637
  0
LINE
  5
468
100
AcDbEntity
  8
RACCORDO
100
AcDbLine
 62
253
  6
CONTINUOUS
 10
-51.4064613448
 20
-16.399815849
 11
-53.4871858035
 21
-16.3634966685
  0
LWPOLYLINE
  5
469
100
AcDbEntity
  8
ASSI
100
AcDbPolyline
 62
253
  6
CONTINUOUS
 90
11
 70
0
 10
-58.1042977557
 20
21.9790966685
 10
-58.1055927035
 20
21.9763251557
 10
-58.1067302012
 20
21.9681125267
 10
-58.1076977971
 20
21.9545486823
 10
-58.1084848993
 20
21.9357821014
 10
-58.1090828916
 20
21.9120182154
 10
-58.1094852275
 20
21.8835171595
 10
-58.1096875027
 20
21.850590925
 10
-58.109687503
 20
21.8135999444
 10
-58.1094852285
 20
21.7729491454
 10
-58.1084849017
 20
21.6824832457
  0
LWPOLYLINE
  5
46A
100
AcDbEntity
  8
ASSI
100
AcDbPolyline
 62
253
  6
CONTINUOUS
 90
9
 70
0
 10
-58.1042975801
 20
-21.9790966731
 10
-58.1055925483
 20
-21.9763250857
 10
-58.10673006
 20
-21.9681122503
 10
-58.1076976637
 20
-21.9545480944
 10
-58.1084847682
 20
-21.9357811179
 10
-58.1090827575
 20
-21.9120167849
 10
-58.1094850855
 20
-21.8835152902
 10
-58.1096873493
 20
-21.850588673
 10
-58.1096873364
 20
-21.813597397
  0
LWPOLYLINE
  5
46B
100
AcDbEntity
  8
0
100
AcDbPolyline
 62
253
  6
CONTINUOUS
 90
6
 70
0
 10
-52.2589319317
 20
23.6340599235
 10
-52.2601412871
 20
23.6318483049
 10
-52.2610731393
 20
23.630116262
 10
-52.2617253851
 20
23.6288677039
 10
-52.2620965524
 20
23.6281054486
 10
-52.2621858035
 20
23.6278312164
  0
LINE
  5
46C
100
AcDbEntity
  8
0
100
AcDbLine
 62
253
  6
CONTINUOUS
 10
-52.255692249
 20
23.6399008509
 11
-52.2589319317
 21
23.6340599235
  0
LINE
  5
46D
100
AcDbEntity
  8
0
100
AcDbLine
 62
253
  6
CONTINUOUS
 10
-52.2460440279
 20
23.6570470569
 11
-52.255692249
 21
23.6399008509
  0
LINE
  5
46E
100
AcDbEntity
  8
0
100
AcDbLine
 62
253
  6
CONTINUOUS
 10
-52.2154764481
 20
23.7107117775
 11
-52.2460440279
 21
23.6570470569
  0
LINE
  5
46F
100
AcDbEntity
  8
0
100
AcDbLine
 62
253
  6
CONTINUOUS
 10
-52.1386402363
 20
23.8443375673
 11
-52.2154764481
 21
23.7107117775
  0
LINE
  5
470
100
AcDbEntity
  8
RACCORDO
100
AcDbLine
 62
7
  6
CONTINUOUS
 10
-47.8871858035
 20
14.9602976573
 11
-38.0187817743
 21
18.5521029837
  0
LINE
  5
471
100
AcDbEntity
  8
RACCORDO
100
AcDbLine
 62
253
  6
CONTINUOUS
 10
-47.8871858035
 20
15.629521819
 11
-38.0836953222
 21
19.0166572575
  0
LINE
  5
472
100
AcDbEntity
  8
RACCORDO
100
AcDbLine
 62
253
  6
CONTINUOUS
 10
-38.0836953222
 20
-19.0166572575
 11
-47.8871858035
 21
-15.629521819
  0
LINE
  5
473
100
AcDbEntity
  8
RACCORDO
100
AcDbLine
 62
7
  6
CONTINUOUS
 10
-38.0187817743
 20
-18.5521029837
 11
-47.8871858035
 21
-14.9602976573
  0
LINE
  5
474
100
AcDbEntity
  8
0
100
AcDbLine
 62
253
  6
CONTINUOUS
 10
-52.1386402363
 20
-23.8443375673
 11
-52.2200178496
 21
-23.7027694659
  0
LINE
  5
475
100
AcDbEntity
  8
0
100
AcDbLine
 62
253
  6
CONTINUOUS
 10
-52.2200178496
 20
-23.7027694659
 11
-52.2460453993
 21
-23.6570446328
  0
LINE
  5
476
100
AcDbEntity
  8
0
100
AcDbLine
 62
253
  6
CONTINUOUS
 10
-52.2460453993
 20
-23.6570446328
 11
-52.2556932876
 21
-23.6398989896
  0
LWPOLYLINE
  5
477
100
AcDbEntity
  8
0
100
AcDbPolyline
 62
253
  6
CONTINUOUS
 90
7
 70
0
 10
-52.2556932876
 20
-23.6398989896
 10
-52.2589327478
 20
-23.6340584395
 10
-52.2601419796
 20
-23.6318470295
 10
-52.2610736256
 20
-23.630115347
 10
-52.2617256322
 20
-23.6288672183
 10
-52.2620966164
 20
-23.6281053043
 10
-52.2621858035
 20
-23.6278312164
  0
LWPOLYLINE
  5
478
100
AcDbEntity
  8
ASSI
100
AcDbPolyline
 62
253
  6
CONTINUOUS
 90
10
 70
0
 10
-59.2725555371
 20
-20.8301237979
 10
-59.4465024527
 20
-16.2032858936
 10
-59.5769958321
 20
-11.5749315488
 10
-59.6640081492
 20
-6.9454695396
 10
-59.7075188991
 20
-2.3152532988
 10
-59.7075189068
 20
2.3152516572
 10
-59.6640081701
 20
6.9454680613
 10
-59.5769958591
 20
11.5749303971
 10
-59.4465024744
 20
16.2032852317
 10
-59.2725555374
 20
20.8301237885
  0
LWPOLYLINE
  5
479
100
AcDbEntity
  8
ASSI
100
AcDbPolyline
 62
253
  6
CONTINUOUS
 90
10
 70
0
 10
-58.7863876347
 20
-20.8090179705
 10
-58.9602634105
 20
-16.1861947747
 10
-59.0906702429
 20
-11.5626700842
 10
-59.1776081316
 20
-6.9384438989
 10
-59.221077074
 20
-2.3130485653
 10
-59.2210770729
 20
2.3130482631
 10
-59.1776081366
 20
6.938443626
 10
-59.0906702679
 20
11.56266987
 10
-58.960263464
 20
16.1861946486
 10
-58.7863877248
 20
20.8090179618
  0
LWPOLYLINE
  5
47A
100
AcDbEntity
  8
ASSI
100
AcDbPolyline
 62
7
  6
CONTINUOUS
 90
13
 70
0
 10
-59.644339952
 20
20.8322351597
 10
-59.8075299468
 20
17.4235897044
 10
-59.9442196524
 20
13.939793571
 10
-60.0505410618
 20
10.4549385084
 10
-60.1264832012
 20
6.9692891526
 10
-60.1720376226
 20
3.4831101933
 10
-60.1872030595
 20
-0.0033334713
 10
-60.1719795123
 20
-3.4897768564
 10
-60.126366982
 20
-6.975954977
 10
-60.0503667446
 20
-10.4616029352
 10
-59.9439872623
 20
-13.9464560419
 10
-59.8072395102
 20
-17.4302496611
 10
-59.644339952
 20
-20.8322351591
  0
LWPOLYLINE
  5
47B
100
AcDbEntity
  8
ASSI
100
AcDbPolyline
 62
7
  6
CONTINUOUS
 90
22
 70
0
 10
-59.2725555883
 20
20.8301237906
 10
-59.2658641107
 20
20.915699186
 10
-59.2530707188
 20
21.0005677747
 10
-59.2342429153
 20
21.0842957504
 10
-59.2094805638
 20
21.1664501863
 10
-59.1789113532
 20
21.2466171274
 10
-59.1426864368
 20
21.3244023247
 10
-59.1009861728
 20
21.399412962
 10
-59.0540248742
 20
21.4712590417
 10
-59.0020436176
 20
21.5395705868
 10
-58.9453078923
 20
21.6039969157
 10
-58.8841063495
 20
21.6642087987
 10
-58.8187514969
 20
21.7198981497
 10
-58.7495751898
 20
21.7707801595
 10
-58.6769315733
 20
21.8165925478
 10
-58.601196226
 20
21.8570982438
 10
-58.5227610199
 20
21.8920877725
 10
-58.4420221674
 20
21.9213845566
 10
-58.3593820214
 20
21.9448413064
 10
-58.2752588425
 20
21.9623359168
 10
-58.190085629
 20
21.97377483
 10
-58.1042977557
 20
21.9790966685
  0
LWPOLYLINE
  5
47C
100
AcDbEntity
  8
ASSI
100
AcDbPolyline
 62
253
  6
CONTINUOUS
 90
22
 70
0
 10
-58.7863877248
 20
20.8090179618
 10
-58.7824450781
 20
20.8590914241
 10
-58.7750353731
 20
20.9083356433
 10
-58.7641586098
 20
20.9567506195
 10
-58.7497238767
 20
21.0045986215
 10
-58.7318220854
 20
21.0516173804
 10
-58.7107259699
 20
21.0970200894
 10
-58.686388024
 20
21.1407594396
 10
-58.6588557539
 20
21.1828827398
 10
-58.6285444135
 20
21.2227451098
 10
-58.595408404
 20
21.2603135038
 10
-58.5594933242
 20
21.2956209676
 10
-58.521351223
 20
21.3281217589
 10
-58.4809482443
 20
21.3577705032
 10
-58.4383182443
 20
21.3846125751
 10
-58.3941148406
 20
21.4082383553
 10
-58.3482915511
 20
21.4285988473
 10
-58.3008948579
 20
21.4457430477
 10
-58.2527178253
 20
21.4594083267
 10
-58.2040248082
 20
21.4695071411
 10
-58.1545514516
 20
21.4761270343
 10
-58.1042977557
 20
21.4792680061
  0
LINE
  5
47D
100
AcDbEntity
  8
ASSI
100
AcDbLine
 62
253
  6
CONTINUOUS
 10
-58.1067302035
 20
21.5831435837
 11
-58.1042977557
 21
21.4792680061
  0
LINE
  5
47E
100
AcDbEntity
  8
ASSI
100
AcDbLine
 62
253
  6
CONTINUOUS
 10
-58.1084849017
 20
21.6824832457
 11
-58.1067302035
 21
21.5831435837
  0
LINE
  5
47F
100
AcDbEntity
  8
ASSI
100
AcDbLine
 62
253
  6
CONTINUOUS
 10
-58.1096873364
 20
-21.813597397
 11
-58.1090827016
 21
-21.72908082
  0
LINE
  5
480
100
AcDbEntity
  8
ASSI
100
AcDbLine
 62
253
  6
CONTINUOUS
 10
-58.1090827016
 20
-21.72908082
 11
-58.1076975961
 21
-21.6336563136
  0
LWPOLYLINE
  5
481
100
AcDbEntity
  8
ASSI
100
AcDbPolyline
 62
253
  6
CONTINUOUS
 90
3
 70
0
 10
-58.1076975961
 20
-21.6336563136
 10
-58.1055925126
 20
-21.5314907666
 10
-58.1042975801
 20
-21.4792680107
  0
LWPOLYLINE
  5
482
100
AcDbEntity
  8
0
100
AcDbPolyline
 62
253
  6
CONTINUOUS
 90
8
 70
0
 10
-52.1386402363
 20
24.4869014213
 10
-52.1387077899
 20
24.4866178705
 10
-52.1387718958
 20
24.4857686655
 10
-52.1388324089
 20
24.4843557301
 10
-52.138889192
 20
24.4823822649
 10
-52.1389421166
 20
24.4798527401
 10
-52.1389910627
 20
24.4767728857
 10
-52.1390765854
 20
24.4689913253
  0
LINE
  5
483
100
AcDbEntity
  8
ASSI
100
AcDbLine
 62
7
  6
CONTINUOUS
 10
-53.4871858035
 20
-22.1
 11
-53.4871858035
 21
22.1
  0
LINE
  5
484
100
AcDbEntity
  8
DRAFT
100
AcDbLine
 62
7
  6
CONTINUOUS
 10
-52.9855840035
 20
-0.0
 11
-51.3871858035
 21
-16.6
  0
LWPOLYLINE
  5
485
100
AcDbEntity
  8
0
100
AcDbPolyline
 62
253
  6
CONTINUOUS
 90
6
 70
0
 10
-52.1389421166
 20
-24.4798527401
 10
-52.138889192
 20
-24.4823822649
 10
-52.1388324089
 20
-24.4843557301
 10
-52.1387718958
 20
-24.4857686655
 10
-52.1387077899
 20
-24.4866178705
 10
-52.1386402363
 20
-24.4869014213
  0
LINE
  5
486
100
AcDbEntity
  8
0
100
AcDbLine
 62
253
  6
CONTINUOUS
 10
-52.1390359195
 20
-24.4731496783
 11
-52.1389421166
 21
-24.4798527401
  0
LINE
  5
487
100
AcDbEntity
  8
0
100
AcDbLine
 62
253
  6
CONTINUOUS
 10
-52.1391449857
 20
-24.4591080515
 11
-52.1390359195
 21
-24.4731496783
  0
LINE
  5
488
100
AcDbEntity
  8
0
100
AcDbLine
 62
253
  6
CONTINUOUS
 10
-52.1392281017
 20
24.3914399617
 11
-52.1386402363
 21
24.2369056521
  0
LINE
  5
489
100
AcDbEntity
  8
0
100
AcDbLine
 62
253
  6
CONTINUOUS
 10
-52.1392420648
 20
-24.4178330917
 11
-52.1391449857
 21
-24.4591080515
  0
LINE
  5
48A
100
AcDbEntity
  8
0
100
AcDbLine
 62
7
  6
CONTINUOUS
 10
-52.3871858035
 20
-24.2369056521
 11
-52.3871858035
 21
-23.8443375673
  0
LINE
  5
48B
100
AcDbEntity
  8
0
100
AcDbLine
 62
7
  6
CONTINUOUS
 10
-52.3871858035
 20
23.8443375673
 11
-52.3871858035
 21
24.2369056521
  0
LINE
  5
48C
100
AcDbEntity
  8
0
100
AcDbLine
 62
253
  6
CONTINUOUS
 10
-52.1386402363
 20
-24.2369056521
 11
-52.1386402363
 21
-23.8443375673
  0
LINE
  5
48D
100
AcDbEntity
  8
0
100
AcDbLine
 62
253
  6
CONTINUOUS
 10
-52.1386402363
 20
23.8443375673
 11
-52.1386402363
 21
24.2369056521
  0
LINE
  5
48E
100
AcDbEntity
  8
0
100
AcDbLine
 62
7
  6
CONTINUOUS
 10
-51.3871858035
 20
-21.821159479
 11
-51.3871858035
 21
-23.1226497308
  0
LINE
  5
48F
100
AcDbEntity
  8
DRAFT
100
AcDbLine
 62
7
  6
CONTINUOUS
 10
-51.3871858035
 20
-21.821159479
 11
-51.3871858035
 21
-16.6
  0
LINE
  5
490
100
AcDbEntity
  8
DRAFT
100
AcDbLine
 62
7
  6
CONTINUOUS
 10
-51.3871858035
 20
16.6
 11
-51.3871858035
 21
21.821159479
  0
LINE
  5
491
100
AcDbEntity
  8
0
100
AcDbLine
 62
7
  6
CONTINUOUS
 10
-51.3871858035
 20
21.821159479
 11
-51.3871858035
 21
23.1226497308
  0
LINE
  5
492
100
AcDbEntity
  8
0
100
AcDbLine
 62
253
  6
CONTINUOUS
 10
-52.139195644
 20
24.4472125651
 11
-52.1392281017
 21
24.3914399617
  0
LINE
  5
493
100
AcDbEntity
  8
0
100
AcDbLine
 62
253
  6
CONTINUOUS
 10
-52.1389421166
 20
-24.2958431426
 11
-52.1392420648
 21
-24.4178330917
  0
LINE
  5
494
100
AcDbEntity
  8
0
100
AcDbLine
 62
253
  6
CONTINUOUS
 10
-52.1386402363
 20
-24.2369056521
 11
-52.1389421166
 21
-24.2958431426
  0
LINE
  5
495
100
AcDbEntity
  8
0
100
AcDbLine
 62
253
  6
CONTINUOUS
 10
-52.1390765854
 20
24.4689913253
 11
-52.139195644
 21
24.4472125651
  0
LINE
  5
496
100
AcDbEntity
  8
DRAFT
100
AcDbLine
 62
7
  6
CONTINUOUS
 10
-51.3871858035
 20
16.6
 11
-52.9855840035
 21
-0.0
  0
LINE
  5
497
100
AcDbEntity
  8
0
100
AcDbLine
 62
253
  6
CONTINUOUS
 10
-49.1357313706
 20
-24.2456323968
 11
-49.1355996939
 21
-24.269398774
  0
LINE
  5
498
100
AcDbEntity
  8
0
100
AcDbLine
 62
253
  6
CONTINUOUS
 10
-51.1386402363
 20
-23.2669872981
 11
-51.1386402363
 21
-22.3344140523
  0
LINE
  5
499
100
AcDbEntity
  8
0
100
AcDbLine
 62
253
  6
CONTINUOUS
 10
-51.1386402363
 20
22.3344140523
 11
-51.1386402363
 21
23.2669872981
  0
LINE
  5
49A
100
AcDbEntity
  8
0
100
AcDbLine
 62
7
  6
CONTINUOUS
 10
-49.8871858035
 20
-24.5
 11
-49.8871858035
 21
24.5
  0
LINE
  5
49B
100
AcDbEntity
  8
0
100
AcDbLine
 62
253
  6
CONTINUOUS
 10
-49.1355996939
 20
24.269398774
 11
-49.1357313706
 21
24.2456323968
  0
LINE
  5
49C
100
AcDbEntity
  8
0
100
AcDbLine
 62
253
  6
CONTINUOUS
 10
-49.1354296762
 20
24.4885897127
 11
-49.1353358315
 21
24.4818895243
  0
LINE
  5
49D
100
AcDbEntity
  8
0
100
AcDbLine
 62
253
  6
CONTINUOUS
 10
-49.1353358315
 20
24.4818895243
 11
-49.1352267138
 21
24.467851711
  0
LINE
  5
49E
100
AcDbEntity
  8
0
100
AcDbLine
 62
253
  6
CONTINUOUS
 10
-49.1355996939
 20
-24.269398774
 11
-49.1351341854
 21
-24.4093607299
  0
LINE
  5
49F
100
AcDbEntity
  8
0
100
AcDbLine
 62
253
  6
CONTINUOUS
 10
-49.1352267138
 20
24.467851711
 11
-49.1351295476
 21
24.4265791771
  0
LINE
  5
4A0
100
AcDbEntity
  8
0
100
AcDbLine
 62
253
  6
CONTINUOUS
 10
-49.1357313706
 20
24.2456323968
 11
-49.1357313706
 21
23.8443375673
  0
LINE
  5
4A1
100
AcDbEntity
  8
0
100
AcDbLine
 62
253
  6
CONTINUOUS
 10
-49.1357313706
 20
-23.8443375673
 11
-49.1357313706
 21
-24.2456323968
  0
LINE
  5
4A2
100
AcDbEntity
  8
0
100
AcDbLine
 62
7
  6
CONTINUOUS
 10
-48.8871858035
 20
24.2456323968
 11
-48.8871858035
 21
23.8443375673
  0
LINE
  5
4A3
100
AcDbEntity
  8
0
100
AcDbLine
 62
7
  6
CONTINUOUS
 10
-48.8871858035
 20
-22.3941821702
 11
-48.8871858035
 21
-18.5082905244
  0
LINE
  5
4A4
100
AcDbEntity
  8
0
100
AcDbLine
 62
7
  6
CONTINUOUS
 10
-48.8871858035
 20
-23.8443375673
 11
-48.8871858035
 21
-24.2456323968
  0
LINE
  5
4A5
100
AcDbEntity
  8
0
100
AcDbLine
 62
7
  6
CONTINUOUS
 10
-48.8871858035
 20
18.5082905244
 11
-48.8871858035
 21
22.3941821702
  0
LINE
  5
4A6
100
AcDbEntity
  8
0
100
AcDbLine
 62
7
  6
CONTINUOUS
 10
-47.8871858035
 20
21.4174550649
 11
-47.8871858035
 21
-21.4174550649
  0
LINE
  5
4A7
100
AcDbEntity
  8
0
100
AcDbLine
 62
253
  6
CONTINUOUS
 10
-49.1351341854
 20
-24.4093607299
 11
-49.1351991171
 21
-24.4621499225
  0
LINE
  5
4A8
100
AcDbEntity
  8
0
100
AcDbLine
 62
253
  6
CONTINUOUS
 10
-49.1351295476
 20
24.4265791771
 11
-49.1354294546
 21
24.3045780153
  0
LINE
  5
4A9
100
AcDbEntity
  8
0
100
AcDbLine
 62
253
  6
CONTINUOUS
 10
-49.1354294546
 20
24.3045780153
 11
-49.1355996939
 21
24.269398774
  0
LINE
  5
4AA
100
AcDbEntity
  8
0
100
AcDbLine
 62
253
  6
CONTINUOUS
 10
-49.1351991171
 20
-24.4621499225
 11
-49.1352951488
 21
-24.4777326699
  0
LWPOLYLINE
  5
4AB
100
AcDbEntity
  8
0
100
AcDbPolyline
 62
253
  6
CONTINUOUS
 90
8
 70
0
 10
-49.1352951488
 20
-24.4777326699
 10
-49.1353807053
 20
-24.4855111341
 10
-49.1354296762
 20
-24.4885897127
 10
-49.1354826269
 20
-24.4911177026
 10
-49.1355394121
 20
-24.4930886486
 10
-49.1355998895
 20
-24.4944986445
 10
-49.1356639254
 20
-24.4953455463
 10
-49.1357313706
 20
-24.495628166
  0
LINE
  5
4AC
100
AcDbEntity
  8
0
100
AcDbLine
 62
7
  6
CONTINUOUS
 10
-44.3871858035
 20
-23.4243617711
 11
-44.3871858035
 21
-22.8756382289
  0
LINE
  5
4AD
100
AcDbEntity
  8
0
100
AcDbLine
 62
7
  6
CONTINUOUS
 10
-44.3871858035
 20
22.8756382289
 11
-44.3871858035
 21
23.4243617711
  0
LINE
  5
4AE
100
AcDbEntity
  8
0
100
AcDbLine
 62
253
  6
CONTINUOUS
 10
-44.3433936408
 20
-23.9660720289
 11
-44.3433936408
 21
-22.3677471607
  0
LINE
  5
4AF
100
AcDbEntity
  8
0
100
AcDbLine
 62
253
  6
CONTINUOUS
 10
-44.3433936408
 20
22.3677471607
 11
-44.3433936408
 21
23.9660720289
  0
LINE
  5
4B0
100
AcDbEntity
  8
0
100
AcDbLine
 62
7
  6
CONTINUOUS
 10
-43.8871858035
 20
-23.4679934743
 11
-43.8871858035
 21
-22.3650935624
  0
LINE
  5
4B1
100
AcDbEntity
  8
0
100
AcDbLine
 62
7
  6
CONTINUOUS
 10
-43.8871858035
 20
22.3650935624
 11
-43.8871858035
 21
23.4679934743
  0
LWPOLYLINE
  5
4B2
100
AcDbEntity
  8
0
100
AcDbPolyline
 62
253
  6
CONTINUOUS
 90
6
 70
0
 10
-49.1357313706
 20
24.495628166
 10
-49.1356639254
 20
24.4953455463
 10
-49.1355998895
 20
24.4944986445
 10
-49.1355394121
 20
24.4930886486
 10
-49.1354826269
 20
24.4911177026
 10
-49.1354296762
 20
24.4885897127
  0
LINE
  5
4B3
100
AcDbEntity
  8
0
100
AcDbLine
 62
253
  6
CONTINUOUS
 10
-38.3784596003
 20
-21.5834304982
 11
-38.3784596003
 21
-20.9
  0
LINE
  5
4B4
100
AcDbEntity
  8
0
100
AcDbLine
 62
253
  6
CONTINUOUS
 10
-38.3784596003
 20
20.9
 11
-38.3784596003
 21
21.5834304982
  0
LINE
  5
4B5
100
AcDbEntity
  8
RACCORDO
100
AcDbLine
 62
253
  6
CONTINUOUS
 10
-38.0854404964
 20
20.9
 11
-38.0854404964
 21
19.7942654032
  0
LINE
  5
4B6
100
AcDbEntity
  8
RACCORDO
100
AcDbLine
 62
253
  6
CONTINUOUS
 10
-38.0854404964
 20
-19.7942654032
 11
-38.0854404964
 21
-20.9
  0
LINE
  5
4B7
100
AcDbEntity
  8
RACCORDO
100
AcDbLine
 62
253
  6
CONTINUOUS
 10
-38.0836953222
 20
-19.7942654032
 11
-38.0836953222
 21
-19.0166572575
  0
LINE
  5
4B8
100
AcDbEntity
  8
RACCORDO
100
AcDbLine
 62
253
  6
CONTINUOUS
 10
-38.0836953222
 20
19.0166572575
 11
-38.0836953222
 21
19.7942654032
  0
LINE
  5
4B9
100
AcDbEntity
  8
0
100
AcDbLine
 62
7
  6
CONTINUOUS
 10
-37.8871858035
 20
-21.3359869487
 11
-37.8871858035
 21
-20.9
  0
LINE
  5
4BA
100
AcDbEntity
  8
RACCORDO
100
AcDbLine
 62
7
  6
CONTINUOUS
 10
-37.8871858035
 20
-20.9
 11
-37.8871858035
 21
-18.7400415081
  0
LINE
  5
4BB
100
AcDbEntity
  8
RACCORDO
100
AcDbLine
 62
7
  6
CONTINUOUS
 10
-37.8871858035
 20
18.7400415081
 11
-37.8871858035
 21
20.9
  0
LINE
  5
4BC
100
AcDbEntity
  8
0
100
AcDbLine
 62
7
  6
CONTINUOUS
 10
-37.8871858035
 20
20.9
 11
-37.8871858035
 21
21.3359869487
  0
LWPOLYLINE
  5
4BD
100
AcDbEntity
  8
0
100
AcDbPolyline
 62
253
  6
CONTINUOUS
 90
6
 70
0
 10
-49.0154396752
 20
-23.6340599235
 10
-49.0142303198
 20
-23.6318483049
 10
-49.0132984676
 20
-23.630116262
 10
-49.0126462219
 20
-23.6288677039
 10
-49.0122750546
 20
-23.6281054486
 10
-49.0121858035
 20
-23.6278312164
  0
LINE
  5
4BE
100
AcDbEntity
  8
0
100
AcDbLine
 62
253
  6
CONTINUOUS
 10
-49.018679358
 20
-23.6399008509
 11
-49.0154396752
 21
-23.6340599235
  0
LINE
  5
4BF
100
AcDbEntity
  8
0
100
AcDbLine
 62
253
  6
CONTINUOUS
 10
-49.0283275791
 20
-23.6570470569
 11
-49.018679358
 21
-23.6399008509
  0
LINE
  5
4C0
100
AcDbEntity
  8
0
100
AcDbLine
 62
253
  6
CONTINUOUS
 10
-49.0588951589
 20
-23.7107117775
 11
-49.0283275791
 21
-23.6570470569
  0
LINE
  5
4C1
100
AcDbEntity
  8
0
100
AcDbLine
 62
253
  6
CONTINUOUS
 10
-49.1357313706
 20
-23.8443375673
 11
-49.0588951589
 21
-23.7107117775
  0
LINE
  5
4C2
100
AcDbEntity
  8
0
100
AcDbLine
 62
253
  6
CONTINUOUS
 10
-49.1357313706
 20
23.8443375673
 11
-49.0543537573
 21
23.7027694659
  0
LINE
  5
4C3
100
AcDbEntity
  8
0
100
AcDbLine
 62
253
  6
CONTINUOUS
 10
-49.0543537573
 20
23.7027694659
 11
-49.0283262076
 21
23.6570446328
  0
LINE
  5
4C4
100
AcDbEntity
  8
0
100
AcDbLine
 62
253
  6
CONTINUOUS
 10
-49.0283262076
 20
23.6570446328
 11
-49.0186783193
 21
23.6398989896
  0
LWPOLYLINE
  5
4C5
100
AcDbEntity
  8
0
100
AcDbPolyline
 62
253
  6
CONTINUOUS
 90
7
 70
0
 10
-49.0186783193
 20
23.6398989896
 10
-49.0154388591
 20
23.6340584395
 10
-49.0142296273
 20
23.6318470295
 10
-49.0132979813
 20
23.630115347
 10
-49.0126459747
 20
23.6288672183
 10
-49.0122749905
 20
23.6281053043
 10
-49.0121858035
 20
23.6278312164
  0
LINE
  5
4C6
100
AcDbEntity
  8
RACCORDO
100
AcDbLine
 62
253
  6
CONTINUOUS
 10
-38.0508992764
 20
-18.7823607319
 11
-38.0187817746
 21
-18.5521029846
  0
LINE
  5
4C7
100
AcDbEntity
  8
RACCORDO
100
AcDbLine
 62
253
  6
CONTINUOUS
 10
-38.0681791097
 20
-18.9059168611
 11
-38.0508992764
 21
-18.7823607319
  0
LINE
  5
4C8
100
AcDbEntity
  8
RACCORDO
100
AcDbLine
 62
253
  6
CONTINUOUS
 10
-38.0836953276
 20
-19.0166572575
 11
-38.0681791097
 21
-18.9059168611
  0
LINE
  5
4C9
100
AcDbEntity
  8
RACCORDO
100
AcDbLine
 62
253
  6
CONTINUOUS
 10
-51.4064613448
 20
16.399815849
 11
-53.4871858035
 21
16.3634966685
  0
LINE
  5
4CA
100
AcDbEntity
  8
RACCORDO
100
AcDbLine
 62
253
  6
CONTINUOUS
 10
-38.0199250515
 20
18.5603134114
 11
-38.021346482
 21
18.5705183503
  0
LINE
  5
4CB
100
AcDbEntity
  8
RACCORDO
100
AcDbLine
 62
253
  6
CONTINUOUS
 10
-38.021346482
 20
18.5705183503
 11
-38.0836953276
 21
19.0166572575
  0
LINE
  5
4CC
100
AcDbEntity
  8
RACCORDO
100
AcDbLine
 62
253
  6
CONTINUOUS
 10
-38.0187817746
 20
18.5521029846
 11
-38.0199250515
 21
18.5603134114
  0
LINE
  5
4CD
100
AcDbEntity
  8
RACCORDO
100
AcDbLine
 62
7
  6
CONTINUOUS
 10
-51.3871858035
 20
17.4
 11
-53.4871858035
 21
17.3633443637
  0
LINE
  5
4CE
100
AcDbEntity
  8
0
100
AcDbLine
 62
7
  6
CONTINUOUS
 10
-51.3871858035
 20
-23.1226497308
 11
-52.2621858035
 21
-23.6278312164
  0
LINE
  5
4CF
100
AcDbEntity
  8
0
100
AcDbLine
 62
253
  6
CONTINUOUS
 10
-51.1386402363
 20
-23.2669872981
 11
-52.1386402363
 21
-23.8443375673
  0
LINE
  5
4D0
100
AcDbEntity
  8
0
100
AcDbLine
 62
7
  6
CONTINUOUS
 10
-48.8871858035
 20
18.5082905244
 11
-47.8871858035
 21
18.5170173922
  0
LINE
  5
4D1
100
AcDbEntity
  8
RACCORDO
100
AcDbLine
 62
7
  6
CONTINUOUS
 10
-38.0854404964
 20
19.7942654032
 11
-47.8871858035
 21
19.7087268678
  0
LINE
  5
4D2
100
AcDbEntity
  8
RACCORDO
100
AcDbLine
 62
253
  6
CONTINUOUS
 10
-38.0836953222
 20
19.0166572575
 11
-37.8871858035
 21
19.0166572575
  0
LWPOLYLINE
  5
4D3
100
AcDbEntity
  8
ASSI
100
AcDbPolyline
 62
253
  6
CONTINUOUS
 90
4
 70
0
 10
-59.2725424825
 20
20.8301232531
 10
-59.2682845671
 20
20.8298875397
 10
-59.2590139953
 20
20.8294404827
 10
-58.7863877248
 20
20.8090179618
  0
LINE
  5
4D4
100
AcDbEntity
  8
0
100
AcDbLine
 62
7
  6
CONTINUOUS
 10
-52.2621858035
 20
23.6278312164
 11
-51.3871858035
 21
23.1226497308
  0
LINE
  5
4D5
100
AcDbEntity
  8
0
100
AcDbLine
 62
253
  6
CONTINUOUS
 10
-52.1386402363
 20
23.8443375673
 11
-51.1386402363
 21
23.2669872981
  0
LINE
  5
4D6
100
AcDbEntity
  8
0
100
AcDbLine
 62
253
  6
CONTINUOUS
 10
-49.8871858035
 20
21.8997711479
 11
-51.3871858035
 21
21.821159479
  0
LINE
  5
4D7
100
AcDbEntity
  8
0
100
AcDbLine
 62
7
  6
CONTINUOUS
 10
-49.8871858035
 20
22.4
 11
-51.3871858035
 21
22.3213883311
  0
LINE
  5
4D8
100
AcDbEntity
  8
ASSI
100
AcDbLine
 62
253
  6
CONTINUOUS
 10
-58.1042977557
 20
21.4792680061
 11
-53.4871858035
 21
21.6001713375
  0
LINE
  5
4D9
100
AcDbEntity
  8
ASSI
100
AcDbLine
 62
7
  6
CONTINUOUS
 10
-58.4773378675
 20
21.9693282694
 11
-53.4871858035
 21
22.1
  0
LINE
  5
4DA
100
AcDbEntity
  8
0
100
AcDbLine
 62
7
  6
CONTINUOUS
 10
-38.3784596003
 20
21.5834304982
 11
-47.8871858035
 21
21.4174550649
  0
LINE
  5
4DB
100
AcDbEntity
  8
0
100
AcDbLine
 62
7
  6
CONTINUOUS
 10
-37.8871858035
 20
20.9
 11
-47.8871858035
 21
20.9
  0
LINE
  5
4DC
100
AcDbEntity
  8
ASSI
100
AcDbLine
 62
253
  6
CONTINUOUS
 10
-59.2725555374
 20
20.8301237885
 11
-59.6443399631
 21
20.8322349466
  0
LINE
  5
4DD
100
AcDbEntity
  8
0
100
AcDbLine
 62
253
  6
CONTINUOUS
 10
-48.8871858035
 20
21.8941990932
 11
-49.8871858035
 21
21.900016923
  0
LINE
  5
4DE
100
AcDbEntity
  8
0
100
AcDbLine
 62
7
  6
CONTINUOUS
 10
-38.8813680721
 20
22.3359700255
 11
-49.8871858035
 21
22.4
  0
LINE
  5
4DF
100
AcDbEntity
  8
0
100
AcDbLine
 62
253
  6
CONTINUOUS
 10
-52.1386402363
 20
24.2369056521
 11
-49.8871858035
 21
24.2500042308
  0
LINE
  5
4E0
100
AcDbEntity
  8
0
100
AcDbLine
 62
7
  6
CONTINUOUS
 10
-52.1386402363
 20
24.4869014213
 11
-49.8871858035
 21
24.5
  0
LINE
  5
4E1
100
AcDbEntity
  8
0
100
AcDbLine
 62
253
  6
CONTINUOUS
 10
-52.3871858035
 20
23.8443375673
 11
-52.1386402363
 21
23.8443375673
  0
LINE
  5
4E2
100
AcDbEntity
  8
0
100
AcDbLine
 62
253
  6
CONTINUOUS
 10
-48.8871858035
 20
23.8443375673
 11
-49.1357313706
 21
23.8443375673
  0
LINE
  5
4E3
100
AcDbEntity
  8
0
100
AcDbLine
 62
253
  6
CONTINUOUS
 10
-52.3871858035
 20
24.2369056521
 11
-52.1386402363
 21
24.2369056521
  0
LINE
  5
4E4
100
AcDbEntity
  8
0
100
AcDbLine
 62
253
  6
CONTINUOUS
 10
-48.8871858035
 20
24.2456323968
 11
-49.1357313706
 21
24.2456323968
  0
LINE
  5
4E5
100
AcDbEntity
  8
0
100
AcDbLine
 62
7
  6
CONTINUOUS
 10
-48.8871858035
 20
23.9941821702
 11
-44.3842769378
 21
23.9679850128
  0
LINE
  5
4E6
100
AcDbEntity
  8
0
100
AcDbLine
 62
253
  6
CONTINUOUS
 10
-49.8871858035
 20
24.2500042308
 11
-49.1357313706
 21
24.2456323968
  0
LINE
  5
4E7
100
AcDbEntity
  8
0
100
AcDbLine
 62
7
  6
CONTINUOUS
 10
-49.8871858035
 20
24.5
 11
-49.1357313706
 21
24.495628166
  0
ARC
  5
4E8
100
AcDbEntity
  8
0
100
AcDbCircle
 62
7
  6
CONTINUOUS
 10
7.25
 20
-23.15
 40
0.5
100
AcDbArc
 50
154.1580672368
 51
205.8419327632
  0
ARC
  5
4E9
100
AcDbEntity
  8
0
100
AcDbCircle
 62
7
  6
CONTINUOUS
 10
15.25
 20
-23.15
 40
0.5
100
AcDbArc
 50
334.1580672368
 51
25.8419327632
  0
ARC
  5
4EA
100
AcDbEntity
  8
0
100
AcDbCircle
 62
7
  6
CONTINUOUS
 10
15.25
 20
23.15
 40
0.5
100
AcDbArc
 50
334.1580672368
 51
25.8419327632
  0
ARC
  5
4EB
100
AcDbEntity
  8
0
100
AcDbCircle
 62
7
  6
CONTINUOUS
 10
7.25
 20
23.15
 40
0.5
100
AcDbArc
 50
154.1580672368
 51
205.8419327632
  0
ARC
  5
4EC
100
AcDbEntity
  8
ASSI
100
AcDbCircle
 62
7
  6
CONTINUOUS
 10
-58.4459682128
 20
-20.7697383618
 40
1.2
100
AcDbArc
 50
182.985352181
 51
268.5
  0
ARC
  5
4ED
100
AcDbEntity
  8
0
100
AcDbCircle
 62
7
  6
CONTINUOUS
 10
-52.1371858035
 20
-24.2369056521
 40
0.25
100
AcDbArc
 50
180.0
 51
269.6666666667
  0
ARC
  5
4EE
100
AcDbEntity
  8
0
100
AcDbCircle
 62
7
  6
CONTINUOUS
 10
-49.1371858035
 20
-24.2456323968
 40
0.25
100
AcDbArc
 50
270.3333333333
 51
360.0
  0
ARC
  5
4EF
100
AcDbEntity
  8
0
100
AcDbCircle
 62
7
  6
CONTINUOUS
 10
-52.1371858035
 20
-23.8443375673
 40
0.25
100
AcDbArc
 50
120.0
 51
180.0
  0
ARC
  5
4F0
100
AcDbEntity
  8
0
100
AcDbCircle
 62
7
  6
CONTINUOUS
 10
-49.1371858035
 20
-23.8443375673
 40
0.25
100
AcDbArc
 50
0.0
 51
60.0
  0
ARC
  5
4F1
100
AcDbEntity
  8
ASSI
100
AcDbCircle
 62
7
  6
CONTINUOUS
 10
-58.4459682049
 20
20.769738362
 40
1.2
100
AcDbArc
 50
91.5
 51
177.0146478186
  0
ARC
  5
4F2
100
AcDbEntity
  8
0
100
AcDbCircle
 62
7
  6
CONTINUOUS
 10
-52.1371858035
 20
24.2369056521
 40
0.25
100
AcDbArc
 50
90.3333333333
 51
180.0
  0
ARC
  5
4F3
100
AcDbEntity
  8
0
100
AcDbCircle
 62
7
  6
CONTINUOUS
 10
-49.1371858035
 20
24.2456323968
 40
0.25
100
AcDbArc
 50
0.0
 51
89.6666666667
  0
ARC
  5
4F4
100
AcDbEntity
  8
0
100
AcDbCircle
 62
7
  6
CONTINUOUS
 10
-49.1371858035
 20
23.8443375673
 40
0.25
100
AcDbArc
 50
300.0
 51
360.0
  0
ARC
  5
4F5
100
AcDbEntity
  8
0
100
AcDbCircle
 62
7
  6
CONTINUOUS
 10
-52.1371858035
 20
23.8443375673
 40
0.25
100
AcDbArc
 50
180.0
 51
240.0
  0
ARC
  5
4F6
100
AcDbEntity
  8
0
100
AcDbCircle
 62
7
  6
CONTINUOUS
 10
-38.8871858035
 20
-21.3359869487
 40
1.0
100
AcDbArc
 50
270.3333333333
 51
360.0
  0
ARC
  5
4F7
100
AcDbEntity
  8
0
100
AcDbCircle
 62
7
  6
CONTINUOUS
 10
-44.3871858035
 20
-23.4679934743
 40
0.5
100
AcDbArc
 50
270.3333333333
 51
360.0
  0
ARC
  5
4F8
100
AcDbEntity
  8
RACCORDO
100
AcDbCircle
 62
7
  6
CONTINUOUS
 10
-38.0871858035
 20
-19.9942577878
 40
0.2
100
AcDbArc
 50
0.0
 51
89.5
  0
ARC
  5
4F9
100
AcDbEntity
  8
RACCORDO
100
AcDbCircle
 62
7
  6
CONTINUOUS
 10
-38.0871858035
 20
-18.7400415081
 40
0.2
100
AcDbArc
 50
0.0
 51
69.9999998797
  0
ARC
  5
4FA
100
AcDbEntity
  8
0
100
AcDbCircle
 62
7
  6
CONTINUOUS
 10
-38.8871858035
 20
21.3359869487
 40
1.0
100
AcDbArc
 50
0.0
 51
89.6666666667
  0
ARC
  5
4FB
100
AcDbEntity
  8
0
100
AcDbCircle
 62
7
  6
CONTINUOUS
 10
-44.3871858035
 20
23.4679934743
 40
0.5
100
AcDbArc
 50
0.0
 51
89.6666666667
  0
ARC
  5
4FC
100
AcDbEntity
  8
RACCORDO
100
AcDbCircle
 62
7
  6
CONTINUOUS
 10
-38.0871858035
 20
18.7400415081
 40
0.2
100
AcDbArc
 50
290.0000001204
 51
360.0
  0
ARC
  5
4FD
100
AcDbEntity
  8
RACCORDO
100
AcDbCircle
 62
7
  6
CONTINUOUS
 10
-38.0871858035
 20
19.9942577878
 40
0.2
100
AcDbArc
 50
270.5
 51
360.0
  0
ELLIPSE
  5
4FE
100
AcDbEntity
  8
0
100
AcDbEllipse
 62
7
  6
CONTINUOUS
 10
10.05
 20
-22.3842776662
 30
0.0
 11
0.2
 21
-0.0
 31
0.0
 40
0.0524077793
 41
-0.0
 42
1.5707963268
  0
ELLIPSE
  5
4FF
100
AcDbEntity
  8
0
100
AcDbEllipse
 62
7
  6
CONTINUOUS
 10
12.45
 20
-22.3842776662
 30
0.0
 11
0.2
 21
0.0
 31
0.0
 40
0.0524077793
 41
1.5707963268
 42
3.1415926536
  0
ELLIPSE
  5
500
100
AcDbEntity
  8
0
100
AcDbEllipse
 62
7
  6
CONTINUOUS
 10
10.05
 20
22.3842776662
 30
0.0
 11
0.2
 21
-0.0
 31
0.0
 40
0.0524077793
 41
-1.5707963268
 42
0.0
  0
ELLIPSE
  5
501
100
AcDbEntity
  8
0
100
AcDbEllipse
 62
7
  6
CONTINUOUS
 10
12.45
 20
22.3842776662
 30
0.0
 11
0.2
 21
0.0
 31
0.0
 40
0.0524077793
 41
-3.1415926536
 42
-1.5707963268
  0
ELLIPSE
  5
502
100
AcDbEntity
  8
0
100
AcDbEllipse
 62
7
  6
CONTINUOUS
 10
1.3572765181
 20
-22.3344902759
 30
0.0
 11
0.25
 21
0.0
 31
0.0
 40
0.0524077793
 41
1.5707963268
 42
3.1357748894
  0
ELLIPSE
  5
503
100
AcDbEntity
  8
0
100
AcDbEllipse
 62
7
  6
CONTINUOUS
 10
3.7427234819
 20
-22.3344902759
 30
0.0
 11
0.25
 21
0.0
 31
0.0
 40
0.0524077793
 41
0.0058177642
 42
1.5707963268
  0
ELLIPSE
  5
504
100
AcDbEntity
  8
0
100
AcDbEllipse
 62
7
  6
CONTINUOUS
 10
21.1427234819
 20
-22.3344902759
 30
0.0
 11
0.25
 21
0.0
 31
0.0
 40
0.0524077793
 41
0.0058177642
 42
1.5707963268
  0
ELLIPSE
  5
505
100
AcDbEntity
  8
0
100
AcDbEllipse
 62
7
  6
CONTINUOUS
 10
18.7572765181
 20
-22.3344902759
 30
0.0
 11
0.25
 21
0.0
 31
0.0
 40
0.0524077793
 41
1.5707963268
 42
3.1357748894
  0
ELLIPSE
  5
506
100
AcDbEntity
  8
0
100
AcDbEllipse
 62
7
  6
CONTINUOUS
 10
1.3572765181
 20
22.3344902759
 30
0.0
 11
0.25
 21
-0.0
 31
0.0
 40
0.0524077793
 41
-3.1357748894
 42
-1.5707963268
  0
ELLIPSE
  5
507
100
AcDbEntity
  8
0
100
AcDbEllipse
 62
7
  6
CONTINUOUS
 10
3.7427234819
 20
22.3344902759
 30
0.0
 11
0.25
 21
0.0
 31
0.0
 40
0.0524077793
 41
-1.5707963268
 42
-0.0058177642
  0
ELLIPSE
  5
508
100
AcDbEntity
  8
0
100
AcDbEllipse
 62
7
  6
CONTINUOUS
 10
18.7572765181
 20
22.3344902759
 30
0.0
 11
0.25
 21
0.0
 31
0.0
 40
0.0524077793
 41
-3.1357748894
 42
-1.5707963268
  0
ELLIPSE
  5
509
100
AcDbEntity
  8
0
100
AcDbEllipse
 62
7
  6
CONTINUOUS
 10
21.1427234819
 20
22.3344902759
 30
0.0
 11
0.25
 21
0.0
 31
0.0
 40
0.0524077793
 41
-1.5707963268
 42
-0.0058177642
  0
ELLIPSE
  5
50A
100
AcDbEntity
  8
0
100
AcDbEllipse
 62
7
  6
CONTINUOUS
 10
0.6271315147
 20
21.8207021581
 30
0.0
 11
-0.1582391023
 21
0.4751033573
 31
0.0
 40
0.9984778551
 41
-0.3210503496
 42
0.6578562559
  0
ELLIPSE
  5
50B
100
AcDbEntity
  8
0
100
AcDbEllipse
 62
7
  6
CONTINUOUS
 10
21.8728684853
 20
21.8207021581
 30
0.0
 11
0.1582391023
 21
0.4751033573
 31
0.0
 40
0.9984778551
 41
-1.2488325878
 42
0.3210503496
  0
ELLIPSE
  5
50C
100
AcDbEntity
  8
0
100
AcDbEllipse
 62
7
  6
CONTINUOUS
 10
21.8728684853
 20
-21.8207021581
 30
0.0
 11
-0.1582391023
 21
0.4751033573
 31
0.0
 40
0.9984778551
 41
-3.4626430032
 42
-1.8927600658
  0
ELLIPSE
  5
50D
100
AcDbEntity
  8
0
100
AcDbEllipse
 62
7
  6
CONTINUOUS
 10
0.6271315147
 20
-21.8207021581
 30
0.0
 11
-0.1582391023
 21
-0.4751033573
 31
0.0
 40
0.9984778551
 41
-0.6578562559
 42
0.3210503496
  0
ELLIPSE
  5
50E
100
AcDbEntity
  8
ASSI
100
AcDbEllipse
 62
7
  6
CONTINUOUS
 10
-21.6498286038
 20
-21.5998286038
 30
0.0
 11
0.35379574
 21
0.35379574
 31
0.0
 40
0.999315002
 41
-3.9266482006
 42
-2.3565371065
  0
ELLIPSE
  5
50F
100
AcDbEntity
  8
ASSI
100
AcDbEllipse
 62
7
  6
CONTINUOUS
 10
21.6498286038
 20
-21.5998286038
 30
0.0
 11
0.35379574
 21
-0.35379574
 31
0.0
 40
0.999315002
 41
-0.7850555471
 42
0.7850555471
  0
ELLIPSE
  5
510
100
AcDbEntity
  8
ASSI
100
AcDbEllipse
 62
7
  6
CONTINUOUS
 10
21.6498286038
 20
21.5998286038
 30
0.0
 11
0.35379574
 21
0.35379574
 31
0.0
 40
0.999315002
 41
-0.7850555471
 42
0.7850555471
  0
ELLIPSE
  5
511
100
AcDbEntity
  8
ASSI
100
AcDbEllipse
 62
7
  6
CONTINUOUS
 10
-21.6498286038
 20
21.5998286038
 30
0.0
 11
0.35379574
 21
-0.35379574
 31
0.0
 40
0.999315002
 41
2.3565371065
 42
3.9266482006
  0
ELLIPSE
  5
512
100
AcDbEntity
  8
0
100
AcDbEllipse
 62
7
  6
CONTINUOUS
 10
-38.3871858035
 20
22.0833543458
 30
0.0
 11
0.5
 21
0.0
 31
0.0
 40
1.0
 41
-1.5533430343
 42
-0.6547951955
  0
ELLIPSE
  5
513
100
AcDbEntity
  8
0
100
AcDbEllipse
 62
7
  6
CONTINUOUS
 10
-38.3871858035
 20
-22.0833543458
 30
0.0
 11
-0.0
 21
0.5
 31
0.0
 40
1.0
 41
-0.9160011313
 42
-0.0174532925
  0
ELLIPSE
  5
514
100
AcDbEntity
  8
0
100
AcDbEllipse
 62
7
  6
CONTINUOUS
 10
27.4612438726
 20
-23.15
 30
0.0
 11
85.9426996401
 21
-0.0
 31
0.0
 40
0.0058178298
 41
-2.6791240519
 42
-2.5607560384
  0
ELLIPSE
  5
515
100
AcDbEntity
  8
0
100
AcDbEllipse
 62
7
  6
CONTINUOUS
 10
27.4612438726
 20
-23.15
 30
0.0
 11
85.9426996401
 21
-0.0
 31
0.0
 40
0.0058178298
 41
2.5607560384
 42
2.6905658418
  0
ELLIPSE
  5
516
100
AcDbEntity
  8
0
100
AcDbEllipse
 62
7
  6
CONTINUOUS
 10
27.4612438726
 20
23.15
 30
0.0
 11
85.9426996401
 21
-0.0
 31
0.0
 40
0.0058178298
 41
-2.6905658418
 42
-2.5607560384
  0
ELLIPSE
  5
517
100
AcDbEntity
  8
0
100
AcDbEllipse
 62
7
  6
CONTINUOUS
 10
27.4612438726
 20
23.15
 30
0.0
 11
85.9426996401
 21
-0.0
 31
0.0
 40
0.0058178298
 41
2.5607560384
 42
2.6791240518
  0
ENDSEC
  0
SECTION
  2
OBJECTS
  0
DICTIONARY
  5
C
100
AcDbDictionary
280
0
281
1
  3
ACAD_GROUP
350
D
  3
ACAD_MLINESTYLE
350
17
  3
ACAD_LAYOUT
350
1A
  3
ACAD_PLOTSETTINGS
350
19
  3
ACAD_PLOTSTYLENAME
350
E
  0
DICTIONARY
  5
D
102
{ACAD_REACTORS
330
C
102
}
100
AcDbDictionary
280
0
281
1
  0
ACDBDICTIONARYWDFLT
  5
E
102
{ACAD_REACTORS
330
C
102
}
100
AcDbDictionary
281
1
  3
Normal
350
F
100
AcDbDictionaryWithDefault
340
F
  0
DICTIONARY
  5
17
102
{ACAD_REACTORS
330
C
102
}
100
AcDbDictionary
280
0
281
1
  3
Standard
350
18
  0
DICTIONARY
  5
19
102
{ACAD_REACTORS
330
C
102
}
100
AcDbDictionary
281
1
  0
DICTIONARY
  5
1A
102
{ACAD_REACTORS
330
C
102
}
100
AcDbDictionary
281
1
  3
Model
350
518
  3
Layout1
350
519
  0
ACDBPLACEHOLDER
  5
F
102
{ACAD_REACTORS
330
E
102
}
  0
MLINESTYLE
  5
18
102
{ACAD_REACTORS
330
17
102
}
100
AcDbMlineStyle
  2
STANDARD
 70
0
  3

 62
256
 51
90.0
 52
90.0
 71
2
 49
0.5
 62
256
  6
BYLAYER
 49
-0.5
 62
256
  6
BYLAYER
  0
LAYOUT
  5
518
102
{ACAD_REACTORS
330
1A
102
}
100
AcDbPlotSettings
  1

  2
none_device
  4
ISO_A4_(297.00_x_210.00_MM)
  6

 40
0.0
 41
0.0
 42
0.0
 43
0.0
 44
297.0
 45
210.0
 46
0.0
 47
0.0
 48
0.0
 49
0.0
140
0.0
141
0.0
142
1.0
143
1.0
 70
1024
 72
1
 73
0
 74
0
  7

 75
0
147
1.0
148
0.0
149
0.0
100
AcDbLayout
  1
Model
 70
0
 71
0
 10
0.0
 20
0.0
 11
297.0
 21
210.0
 12
0.0
 22
0.0
 32
0.0
 14
0.0
 24
0.0
 34
0.0
 15
0.0
 25
0.0
 35
0.0
146
0.0
 13
0.0
 23
0.0
 33
0.0
 16
1.0
 26
0.0
 36
0.0
 17
0.0
 27
1.0
 37
0.0
 76
0
330
21C
345
0
346
0
  0
LAYOUT
  5
519
102
{ACAD_REACTORS
330
1A
102
}
100
AcDbPlotSettings
  1

  2
none_device
  4
ISO_A4_(297.00_x_210.00_MM)
  6

 40
0.0
 41
0.0
 42
0.0
 43
0.0
 44
297.0
 45
210.0
 46
0.0
 47
0.0
 48
0.0
 49
0.0
140
0.0
141
0.0
142
1.0
143
1.0
 70
0
 72
1
 73
0
 74
0
  7

 75
0
147
1.0
148
0.0
149
0.0
100
AcDbLayout
  1
Layout1
 70
0
 71
1
 10
0.0
 20
0.0
 11
297.0
 21
210.0
 12
0.0
 22
0.0
 32
0.0
 14
0.0
 24
0.0
 34
0.0
 15
0.0
 25
0.0
 35
0.0
146
0.0
 13
0.0
 23
0.0
 33
0.0
 16
1.0
 26
0.0
 36
0.0
 17
0.0
 27
1.0
 37
0.0
 76
0
330
21D
345
0
346
0
  0
ENDSEC
  0
EOF
