  0
SECTION
  2
HEADER
  9
$ACADVER
  1
AC1024
  9
$DWGCODEPAGE
  3
ANSI_1252
  9
$EXTMAX
 10
297.0
 20
210.0
 30
0.0
  9
$EXTMIN
 10
0.0
 20
0.0
 30
0.0
  9
$LIMMIN
 10
0.0
 20
0.0
  9
$LIMMAX
 10
297.0
 20
210.0
  9
$VIEWCTR
 10
148.5
 20
105.0
  9
$VIEWSIZE
 40
210.0
  9
$CLAYER
  8
0
  9
$LTSCALE
 40
16.335
  9
$CELTYPE
  6
BYLAYER
  9
$DIMSCALE
 40
1.0
  9
$DIMASZ
 40
3.0
  9
$DIMEXO
 40
0.5
  9
$DIMDLI
 40
11.286
  9
$DIMEXE
 40
1.5
  9
$DIMCEN
 40
2.673
  9
$DIMLFAC
 40
1.0
  9
$DIMBLK
  1
_FILLED
  9
$DIMALT
 70
0
  9
$DIMALTF
 40
0.0393700787
  9
$DIMTXT
 40
3.0
  9
$DIMTOL
 70
1
  9
$DIMLIM
 70
0
  9
$DIMTFAC
 40
1.0
  9
$DIMTP
 40
0.01
  9
$DIMTM
 40
0.01
  9
$DIMGAP
 40
0.625
  9
$DIMDSEP
 70
44
  9
$AUNITS
 70
0
  9
$PDMODE
 70
3
  9
$PDSIZE
 40
3.0
  9
$HANDSEED
  5
564
  9
$TILEMODE
 70
1
  9
$MEASUREMENT
 70
1
  9
$INSUNITS
 70
4
  0
ENDSEC
  0
SECTION
  2
CLASSES
  0
CLASS
  1
ACDBDICTIONARYWDFLT
  2
AcDbDictionaryWithDefault
  3
AutoCAD 2000
 90
0
 91
1
280
0
281
0
  0
CLASS
  1
ACDBPLACEHOLDER
  2
AcDbPlaceHolder
  3
AutoCAD 2000
 90
0
 91
1
280
0
281
0
  0
CLASS
  1
LAYOUT
  2
AcDbLayout
  3
AutoCAD 2000
 90
0
 91
0
280
0
281
0
  0
ENDSEC
  0
SECTION
  2
TABLES
  0
TABLE
  2
VPORT
  5
8
100
AcDbSymbolTable
 70
2
  0
VPORT
  5
1F4
100
AcDbSymbolTableRecord
100
AcDbViewportTableRecord
  2
*ACTIVE
 70
0
 10
0.0
 20
0.0
 11
1.0
 21
1.0
 12
148.5
 22
105.0
 13
0.0
 23
0.0
 14
1.0
 24
1.0
 15
0.0
 25
0.0
 16
0.0
 26
0.0
 36
1.0
 17
0.0
 27
0.0
 37
0.0
 40
210.0
 41
1.4142857143
 42
50.0
 43
0.0
 44
0.0
 50
0.0
 51
0.0
 71
0
 72
100
 73
1
 74
1
 75
0
 76
0
 77
0
 78
0
  0
ENDTAB
  0
TABLE
  2
LTYPE
  5
5
100
AcDbSymbolTable
 70
6
  0
LTYPE
  5
14
100
AcDbSymbolTableRecord
100
AcDbLinetypeTableRecord
  2
BYBLOCK
 70
0
  3

 72
65
 73
0
 40
0.0
  0
LTYPE
  5
15
100
AcDbSymbolTableRecord
100
AcDbLinetypeTableRecord
  2
BYLAYER
 70
0
  3

 72
65
 73
0
 40
0.0
  0
LTYPE
  5
16
100
AcDbSymbolTableRecord
100
AcDbLinetypeTableRecord
  2
CONTINUOUS
 70
64
  3
Solid line
 72
65
 73
0
 40
0.0
  0
LTYPE
  5
1F5
100
AcDbSymbolTableRecord
100
AcDbLinetypeTableRecord
  2
CENTER
 70
64
  3
____ _ ____ _ ____ _ ____ _ ____ _ ____ _ ____
 72
65
 73
4
 40
0.6
 49
0.375
 74
0
 49
-0.075
 74
0
 49
0.075
 74
0
 49
-0.075
 74
0
  0
LTYPE
  5
1F6
100
AcDbSymbolTableRecord
100
AcDbLinetypeTableRecord
  2
HIDDEN
 70
64
  3
- - - - - - - - - - - - - - - - - - - -
 72
65
 73
2
 40
0.2
 49
0.1
 74
0
 49
-0.1
 74
0
  0
LTYPE
  5
1F7
100
AcDbSymbolTableRecord
100
AcDbLinetypeTableRecord
  2
PHANTOM
 70
64
  3
_____ _ _ _____ _ _ _____ _ _ _____
 72
65
 73
6
 40
0.8
 49
0.45
 74
0
 49
-0.05
 74
0
 49
0.1
 74
0
 49
-0.05
 74
0
 49
0.1
 74
0
 49
-0.05
 74
0
  0
LTYPE
  5
1F8
100
AcDbSymbolTableRecord
100
AcDbLinetypeTableRecord
  2
DOT
 70
64
  3
. . . . . . . . . . . . . . . . . . . .
 72
65
 73
2
 40
0.2
 49
0.1
 74
0
 49
-0.1
 74
0
  0
LTYPE
  5
1F9
100
AcDbSymbolTableRecord
100
AcDbLinetypeTableRecord
  2
DASHED
 70
64
  3
- - - - - - - - - - - - - - - - - - - -
 72
65
 73
2
 40
0.2
 49
0.1
 74
0
 49
-0.1
 74
0
  0
ENDTAB
  0
TABLE
  2
LAYER
  5
2
100
AcDbSymbolTable
 70
36
  0
LAYER
  5
10
100
AcDbSymbolTableRecord
100
AcDbLayerTableRecord
  2
0
 70
0
 62
7
  6
CONTINUOUS
370
-3
390
F
  0
LAYER
  5
1FA
100
AcDbSymbolTableRecord
100
AcDbLayerTableRecord
  2
DEFAULT_1
 70
0
 62
7
  6
CENTER
370
-3
390
F
  0
LAYER
  5
1FB
100
AcDbSymbolTableRecord
100
AcDbLayerTableRecord
  2
DEFAULT_2
 70
0
 62
7
  6
HIDDEN
370
-3
390
F
  0
LAYER
  5
1FC
100
AcDbSymbolTableRecord
100
AcDbLayerTableRecord
  2
DEFAULT_3
 70
0
 62
7
  6
PHANTOM
370
-3
390
F
  0
LAYER
  5
1FD
100
AcDbSymbolTableRecord
100
AcDbLayerTableRecord
  2
ASSI
 70
0
 62
7
  6
CONTINUOUS
370
-3
390
F
  0
LAYER
  5
1FE
100
AcDbSymbolTableRecord
100
AcDbLayerTableRecord
  2
COORDINATE
 70
0
 62
7
  6
CONTINUOUS
370
-3
390
F
  0
LAYER
  5
1FF
100
AcDbSymbolTableRecord
100
AcDbLayerTableRecord
  2
COORD_ORIGINE
 70
0
 62
7
  6
CONTINUOUS
370
-3
390
F
  0
LAYER
  5
200
100
AcDbSymbolTableRecord
100
AcDbLayerTableRecord
  2
COPY_PUBLISH
 70
0
 62
7
  6
CONTINUOUS
370
-3
390
F
  0
LAYER
  5
201
100
AcDbSymbolTableRecord
100
AcDbLayerTableRecord
  2
COSMETIC
 70
0
 62
7
  6
CONTINUOUS
370
-3
390
F
  0
LAYER
  5
202
100
AcDbSymbolTableRecord
100
AcDbLayerTableRecord
  2
COSMETICI
 70
0
 62
7
  6
CONTINUOUS
370
-3
390
F
  0
LAYER
  5
203
100
AcDbSymbolTableRecord
100
AcDbLayerTableRecord
  2
CURVE
 70
0
 62
7
  6
CONTINUOUS
370
-3
390
F
  0
LAYER
  5
204
100
AcDbSymbolTableRecord
100
AcDbLayerTableRecord
  2
DRAFT
 70
0
 62
7
  6
CONTINUOUS
370
-3
390
F
  0
LAYER
  5
205
100
AcDbSymbolTableRecord
100
AcDbLayerTableRecord
  2
IMPORT
 70
0
 62
7
  6
CONTINUOUS
370
-3
390
F
  0
LAYER
  5
206
100
AcDbSymbolTableRecord
100
AcDbLayerTableRecord
  2
IMPORT_IGES
 70
0
 62
7
  6
CONTINUOUS
370
-3
390
F
  0
LAYER
  5
207
100
AcDbSymbolTableRecord
100
AcDbLayerTableRecord
  2
INTFCLR_11
 70
0
 62
7
  6
CONTINUOUS
370
-3
390
F
  0
LAYER
  5
208
100
AcDbSymbolTableRecord
100
AcDbLayerTableRecord
  2
INTF_1
 70
0
 62
7
  6
CONTINUOUS
370
-3
390
F
  0
LAYER
  5
209
100
AcDbSymbolTableRecord
100
AcDbLayerTableRecord
  2
INTF_3
 70
0
 62
7
  6
CONTINUOUS
370
-3
390
F
  0
LAYER
  5
20A
100
AcDbSymbolTableRecord
100
AcDbLayerTableRecord
  2
NOTE
 70
0
 62
7
  6
CONTINUOUS
370
-3
390
F
  0
LAYER
  5
20B
100
AcDbSymbolTableRecord
100
AcDbLayerTableRecord
  2
PIANI
 70
0
 62
7
  6
CONTINUOUS
370
-3
390
F
  0
LAYER
  5
20C
100
AcDbSymbolTableRecord
100
AcDbLayerTableRecord
  2
PIANI_ORIGINE
 70
0
 62
7
  6
CONTINUOUS
370
-3
390
F
  0
LAYER
  5
20D
100
AcDbSymbolTableRecord
100
AcDbLayerTableRecord
  2
PIANI_RIFERIMENTO
 70
0
 62
7
  6
CONTINUOUS
370
-3
390
F
  0
LAYER
  5
20E
100
AcDbSymbolTableRecord
100
AcDbLayerTableRecord
  2
PUNTI
 70
0
 62
7
  6
CONTINUOUS
370
-3
390
F
  0
LAYER
  5
20F
100
AcDbSymbolTableRecord
100
AcDbLayerTableRecord
  2
RACCORDO
 70
0
 62
7
  6
CONTINUOUS
370
-3
390
F
  0
LAYER
  5
210
100
AcDbSymbolTableRecord
100
AcDbLayerTableRecord
  2
SIMBOLI
 70
0
 62
7
  6
CONTINUOUS
370
-3
390
F
  0
LAYER
  5
211
100
AcDbSymbolTableRecord
100
AcDbLayerTableRecord
  2
SMUSSO
 70
0
 62
7
  6
CONTINUOUS
370
-3
390
F
  0
LAYER
  5
212
100
AcDbSymbolTableRecord
100
AcDbLayerTableRecord
  2
SNAPLINE
 70
0
 62
7
  6
CONTINUOUS
370
-3
390
F
  0
LAYER
  5
213
100
AcDbSymbolTableRecord
100
AcDbLayerTableRecord
  2
SUPERFICI
 70
0
 62
7
  6
CONTINUOUS
370
-3
390
F
  0
LAYER
  5
214
100
AcDbSymbolTableRecord
100
AcDbLayerTableRecord
  2
TRASH
 70
0
 62
7
  6
CONTINUOUS
370
-3
390
F
  0
LAYER
  5
215
100
AcDbSymbolTableRecord
100
AcDbLayerTableRecord
  2
XSEC_DATUMS
 70
0
 62
7
  6
CONTINUOUS
370
-3
390
F
  0
LAYER
  5
216
100
AcDbSymbolTableRecord
100
AcDbLayerTableRecord
  2
___SHELL
 70
0
 62
7
  6
CONTINUOUS
370
-3
390
F
  0
ENDTAB
  0
TABLE
  2
STYLE
  5
3
100
AcDbSymbolTable
 70
1
  0
STYLE
  5
11
100
AcDbSymbolTableRecord
100
AcDbTextStyleTableRecord
  2
STANDARD
 70
0
 40
0.0
 41
0.8
 50
0.0
 71
0
 42
0.2
  3
txt
  4

  0
STYLE
  5
217
100
AcDbSymbolTableRecord
100
AcDbTextStyleTableRecord
  2
TEXTSTYLE_1
 70
0
 40
0.0
 41
0.8
 50
0.0
 71
0
 42
0.2
  3
gdt
  4

  0
ENDTAB
  0
TABLE
  2
VIEW
  5
6
100
AcDbSymbolTable
 70
0
  0
ENDTAB
  0
TABLE
  2
UCS
  5
7
100
AcDbSymbolTable
 70
0
  0
ENDTAB
  0
TABLE
  2
APPID
  5
9
100
AcDbSymbolTable
 70
1
  0
APPID
  5
218
100
AcDbSymbolTableRecord
100
AcDbRegAppTableRecord
  2
ACAD
 70
0
  0
ENDTAB
  0
TABLE
  2
BLOCK_RECORD
  5
1
100
AcDbSymbolTable
 70
0
  0
BLOCK_RECORD
  5
219
100
AcDbSymbolTableRecord
100
AcDbBlockTableRecord
  2
*Model_Space
  0
BLOCK_RECORD
  5
21A
100
AcDbSymbolTableRecord
100
AcDbBlockTableRecord
  2
*Paper_Space
  0
BLOCK_RECORD
  5
21B
100
AcDbSymbolTableRecord
100
AcDbBlockTableRecord
  2
_FILLED
  0
BLOCK_RECORD
  5
21C
100
AcDbSymbolTableRecord
100
AcDbBlockTableRecord
  2
*D0
  0
BLOCK_RECORD
  5
21D
100
AcDbSymbolTableRecord
100
AcDbBlockTableRecord
  2
*D1
  0
BLOCK_RECORD
  5
21E
100
AcDbSymbolTableRecord
100
AcDbBlockTableRecord
  2
*D2
  0
ENDTAB
  0
TABLE
  2
DIMSTYLE
  5
A
100
AcDbSymbolTable
 70
1
100
AcDbDimStyleTable
 71
0
  0
DIMSTYLE
105
21F
100
AcDbSymbolTableRecord
100
AcDbDimStyleTableRecord
  2
STANDARD
 70
0
  3

  4

 40
1.0
 41
3.0
 42
0.5
 43
0.38
 44
1.5
 45
0.0
 46
0.0
 47
0.01
 48
0.01
140
3.0
141
0.0
142
0.0
143
25.4
144
1.0
145
0.0
146
1.0
147
0.625
 71
1
 72
0
 73
0
 74
0
 75
0
 76
0
 77
1
 78
8
 79
2
170
0
171
1
172
0
173
0
174
0
175
0
176
0
177
0
178
0
270
2
179
2
271
2
272
2
273
2
274
2
275
0
280
0
281
0
282
0
283
1
284
8
285
0
286
0
287
3
288
0
340
11
278
44
341
21B
342
21B
343
21B
344
21B
  0
DIMSTYLE
105
220
100
AcDbSymbolTableRecord
100
AcDbDimStyleTableRecord
  2
DIMSTYLE_1
 70
0
  3

  4

 40
1.0
 41
3.0
 42
0.5
 43
0.38
 44
1.5
 45
0.0
 46
0.0
 47
0.0
 48
0.0
140
3.0
141
0.0
142
0.0
143
25.4
144
1.0
145
0.0
146
1.0
147
0.75
 71
0
 72
0
 73
0
 74
0
 75
0
 76
0
 77
1
 78
8
 79
2
170
0
171
1
172
0
173
0
174
0
175
0
176
0
177
0
178
0
270
2
179
2
271
2
272
2
273
2
274
2
275
0
280
0
281
0
282
0
283
1
284
8
285
0
286
0
287
3
288
0
340
11
278
44
341
21B
342
21B
343
21B
344
21B
  0
ENDTAB
  0
ENDSEC
  0
SECTION
  2
BLOCKS
  0
BLOCK
  5
20
100
AcDbEntity
  8
0
100
AcDbBlockBegin
  2
*Model_Space
 70
0
 10
0.0
 20
0.0
 30
0.0
  3
*Model_Space
  1

  0
ENDBLK
  5
21
100
AcDbEntity
  8
0
100
AcDbBlockEnd
  0
BLOCK
  5
1C
100
AcDbEntity
  8
0
100
AcDbBlockBegin
  2
*Paper_Space
 70
0
 10
0.0
 20
0.0
 30
0.0
  3
*Paper_Space
  1

  0
ENDBLK
  5
1D
100
AcDbEntity
  8
0
100
AcDbBlockEnd
  0
BLOCK
  5
221
100
AcDbEntity
  8
0
100
AcDbBlockBegin
  2
_FILLED
 70
64
 10
0.0
 20
0.0
 30
0.0
  3
_FILLED
  1

  0
SOLID
  5
222
100
AcDbEntity
  8
0
  6
BYBLOCK
 62
0
100
AcDbTrace
 10
0.0
 20
0.0
 30
0.0
 11
-1.0
 21
0.3166666667
 31
0.0
 12
-1.0
 22
-0.3166666667
 32
0.0
 13
-1.0
 23
-0.3166666667
 33
0.0
  0
ENDBLK
  5
223
100
AcDbEntity
  8
0
  6
BYBLOCK
 62
0
100
AcDbBlockEnd
  0
BLOCK
  5
224
100
AcDbEntity
  8
0
100
AcDbBlockBegin
 62
7
  6
CONTINUOUS
  2
*D0
 70
65
 10
0.0
 20
0.0
 30
0.0
  3
*D0
  1

  0
MTEXT
  5
225
100
AcDbEntity
  8
0
100
AcDbMText
 62
7
  6
CONTINUOUS
  7
STANDARD
 71
2
 72
1
 10
67.0406739556
 20
73.8724059744
 30
0.0
 11
1.0
 21
0.0
 31
0.0
 73
2
 44
0.9
  1
{\ftxt;\W0.0001;\H0.0001;\~}{\ftxt;\W1.5714285714;\H3.0; }{\ftxt;\W0.0001;\H0.0001;\~}
 40
3.0
 41
7.0714285714
  0
LINE
  5
226
100
AcDbEntity
  8
0
100
AcDbLine
 62
7
  6
CONTINUOUS
 10
33.5406739556
 20
55.1279044646
 30
0.0
 11
33.5406739556
 21
71.6224059744
 31
0.0
  0
LINE
  5
227
100
AcDbEntity
  8
0
100
AcDbLine
 62
7
  6
CONTINUOUS
 10
100.5406739556
 20
55.1279044646
 30
0.0
 11
100.5406739556
 21
71.6224059744
 31
0.0
  0
LINE
  5
228
100
AcDbEntity
  8
0
100
AcDbLine
 62
7
  6
CONTINUOUS
 10
33.5406739556
 20
70.1224059744
 30
0.0
 11
67.0406739556
 21
70.1224059744
 31
0.0
  0
LINE
  5
229
100
AcDbEntity
  8
0
100
AcDbLine
 62
7
  6
CONTINUOUS
 10
100.5406739556
 20
70.1224059744
 30
0.0
 11
67.0406739556
 21
70.1224059744
 31
0.0
  0
INSERT
  5
22A
100
AcDbEntity
  8
0
100
AcDbBlockReference
 62
7
  6
CONTINUOUS
  2
_FILLED
 10
33.5406739556
 20
70.1224059744
 30
0.0
 41
3.0
 42
3.0
 43
3.0
 50
180.0
  0
INSERT
  5
22B
100
AcDbEntity
  8
0
100
AcDbBlockReference
 62
7
  6
CONTINUOUS
  2
_FILLED
 10
100.5406739556
 20
70.1224059744
 30
0.0
 41
3.0
 42
3.0
 43
3.0
  0
ENDBLK
  5
22C
100
AcDbEntity
  8
0
  6
BYBLOCK
 62
0
100
AcDbBlockEnd
  0
BLOCK
  5
22D
100
AcDbEntity
  8
0
100
AcDbBlockBegin
 62
7
  6
CONTINUOUS
  2
*D1
 70
65
 10
0.0
 20
0.0
 30
0.0
  3
*D1
  1

  0
MTEXT
  5
22E
100
AcDbEntity
  8
0
100
AcDbMText
 62
7
  6
CONTINUOUS
  7
STANDARD
 71
2
 72
1
 10
111.7890700988
 20
33.0279046997
 30
0.0
 11
0.0
 21
1.0
 31
0.0
 73
2
 44
0.9
  1
{\ftxt;\W0.0001;\H0.0001;\~}{\ftxt;\W2.9285714286;\H3.0; }{\ftxt;\W0.0001;\H0.0001;\~}
 40
3.0
 41
13.1785714286
  0
LINE
  5
22F
100
AcDbEntity
  8
0
100
AcDbLine
 62
7
  6
CONTINUOUS
 10
100.541187792
 20
55.1279046997
 30
0.0
 11
117.0390700988
 21
55.1279046997
 31
0.0
  0
LINE
  5
230
100
AcDbEntity
  8
0
100
AcDbLine
 62
7
  6
CONTINUOUS
 10
100.541187792
 20
10.9279046997
 30
0.0
 11
117.0390700988
 21
10.9279046997
 31
0.0
  0
LINE
  5
231
100
AcDbEntity
  8
0
100
AcDbLine
 62
7
  6
CONTINUOUS
 10
115.5390700988
 20
55.1279046997
 30
0.0
 11
115.5390700988
 21
33.0279046997
 31
0.0
  0
LINE
  5
232
100
AcDbEntity
  8
0
100
AcDbLine
 62
7
  6
CONTINUOUS
 10
115.5390700988
 20
10.9279046997
 30
0.0
 11
115.5390700988
 21
33.0279046997
 31
0.0
  0
INSERT
  5
233
100
AcDbEntity
  8
0
100
AcDbBlockReference
 62
7
  6
CONTINUOUS
  2
_FILLED
 10
115.5390700988
 20
55.1279046997
 30
0.0
 41
3.0
 42
3.0
 43
3.0
 50
90.0
  0
INSERT
  5
234
100
AcDbEntity
  8
0
100
AcDbBlockReference
 62
7
  6
CONTINUOUS
  2
_FILLED
 10
115.5390700988
 20
10.9279046997
 30
0.0
 41
3.0
 42
3.0
 43
3.0
 50
270.0
  0
ENDBLK
  5
235
100
AcDbEntity
  8
0
  6
BYBLOCK
 62
0
100
AcDbBlockEnd
  0
BLOCK
  5
236
100
AcDbEntity
  8
0
100
AcDbBlockBegin
 62
7
  6
CONTINUOUS
  2
*D2
 70
65
 10
0.0
 20
0.0
 30
0.0
  3
*D2
  1

  0
MTEXT
  5
237
100
AcDbEntity
  8
0
100
AcDbMText
 62
7
  6
CONTINUOUS
  7
STANDARD
 71
2
 72
1
 10
7.1634799249
 20
73.8724059744
 30
0.0
 11
1.0
 21
0.0
 31
0.0
 73
2
 44
0.9
  1
{\ftxt;\W0.0001;\H0.0001;\~}{\ftxt;\W2.1428571429;\H3.0; }{\ftxt;\W0.0001;\H0.0001;\~}
 40
3.0
 41
9.6428571429
  0
LINE
  5
238
100
AcDbEntity
  8
0
100
AcDbLine
 62
7
  6
CONTINUOUS
 10
10.5134885598
 20
55.1279044646
 30
0.0
 11
10.5134885598
 21
71.6224059744
 31
0.0
  0
LINE
  5
239
100
AcDbEntity
  8
0
100
AcDbLine
 62
7
  6
CONTINUOUS
 10
3.8134712899
 20
33.5279046997
 30
0.0
 11
3.8134712899
 21
71.6224059744
 31
0.0
  0
LINE
  5
23A
100
AcDbEntity
  8
0
100
AcDbLine
 62
7
  6
CONTINUOUS
 10
10.5134885598
 20
70.1224059744
 30
0.0
 11
14.5134885598
 21
70.1224059744
 31
0.0
  0
LINE
  5
23B
100
AcDbEntity
  8
0
100
AcDbLine
 62
7
  6
CONTINUOUS
 10
14.5134885598
 20
70.1224059744
 30
0.0
 11
7.1634799249
 21
70.1224059744
 31
0.0
  0
LINE
  5
23C
100
AcDbEntity
  8
0
100
AcDbLine
 62
7
  6
CONTINUOUS
 10
3.8134712899
 20
70.1224059744
 30
0.0
 11
-0.1865287101
 21
70.1224059744
 31
0.0
  0
LINE
  5
23D
100
AcDbEntity
  8
0
100
AcDbLine
 62
7
  6
CONTINUOUS
 10
-0.1865287101
 20
70.1224059744
 30
0.0
 11
7.1634799249
 21
70.1224059744
 31
0.0
  0
INSERT
  5
23E
100
AcDbEntity
  8
0
100
AcDbBlockReference
 62
7
  6
CONTINUOUS
  2
_FILLED
 10
10.5134885598
 20
70.1224059744
 30
0.0
 41
3.0
 42
3.0
 43
3.0
 50
180.0
  0
INSERT
  5
23F
100
AcDbEntity
  8
0
100
AcDbBlockReference
 62
7
  6
CONTINUOUS
  2
_FILLED
 10
3.8134712899
 20
70.1224059744
 30
0.0
 41
3.0
 42
3.0
 43
3.0
  0
ENDBLK
  5
240
100
AcDbEntity
  8
0
  6
BYBLOCK
 62
0
100
AcDbBlockEnd
  0
ENDSEC
  0
SECTION
  2
ENTITIES
  0
DIMENSION
  5
241
100
AcDbEntity
  8
0
100
AcDbDimension
 62
7
  6
CONTINUOUS
  2
*D0
 10
100.5406739556
 20
70.1224059744
 30
0.0
 11
66.6121022644
 21
70.1224059744
 31
0.0
 70
160
 71
2
 72
2
 41
0.9
 42
67.0
  1
{\ftxt;\W0.0001;\H0.0001;\~}{\ftxt;\W1.5714285714;\H3.0; }{\ftxt;\W0.0001;\H0.0001;\~}
  3
DIMSTYLE_1
100
AcDbAlignedDimension
 13
33.5406739556
 23
54.6279044646
 33
0.0
 14
100.5406739556
 24
54.6279044646
 34
0.0
100
AcDbRotatedDimension
  0
DIMENSION
  5
242
100
AcDbEntity
  8
0
100
AcDbDimension
 62
7
  6
CONTINUOUS
  2
*D1
 10
115.5390700988
 20
10.9279046997
 30
0.0
 11
115.5390700988
 21
32.5993310194
 31
0.0
 70
160
 71
2
 72
2
 41
0.9
 42
44.2
  1
{\ftxt;\W0.0001;\H0.0001;\~}{\ftxt;\W2.9285714286;\H3.0; }{\ftxt;\W0.0001;\H0.0001;\~}
  3
DIMSTYLE_1
100
AcDbAlignedDimension
 13
100.041187792
 23
55.1279046997
 33
0.0
 14
100.041187792
 24
10.9279046997
 34
0.0
 50
270.0
100
AcDbRotatedDimension
  0
DIMENSION
  5
243
100
AcDbEntity
  8
0
100
AcDbDimension
 62
7
  6
CONTINUOUS
  2
*D2
 10
3.8134712899
 20
70.1224059744
 30
0.0
 11
6.7349085574
 21
70.1224059744
 31
0.0
 70
160
 71
2
 72
2
 41
0.9
 42
6.7000172699
  1
{\ftxt;\W0.0001;\H0.0001;\~}{\ftxt;\W2.1428571429;\H3.0; }{\ftxt;\W0.0001;\H0.0001;\~}
  3
DIMSTYLE_1
100
AcDbAlignedDimension
 13
10.5134885598
 23
54.6279044646
 33
0.0
 14
3.8134712899
 24
33.0279046997
 34
0.0
 50
180.0
100
AcDbRotatedDimension
  0
LINE
  5
244
100
AcDbEntity
  8
0
100
AcDbLine
 62
250
  6
CONTINUOUS
 10
37.0275796077
 20
57.514806121
 30
0.0
 11
37.0406781864
 21
57.5279046997
 31
0.0
  0
LINE
  5
245
100
AcDbEntity
  8
0
100
AcDbLine
 62
250
  6
CONTINUOUS
 10
37.2775753769
 20
57.2648103518
 30
0.0
 11
37.2906739556
 21
57.2779089305
 31
0.0
  0
LINE
  5
246
100
AcDbEntity
  8
0
100
AcDbLine
 62
250
  6
CONTINUOUS
 10
37.0275796077
 20
8.5410032785
 30
0.0
 11
37.0406781864
 21
8.5279046997
 31
0.0
  0
LINE
  5
247
100
AcDbEntity
  8
0
100
AcDbLine
 62
250
  6
CONTINUOUS
 10
37.2775753769
 20
8.7909990477
 30
0.0
 11
37.2906739556
 21
8.777900469
 31
0.0
  0
LINE
  5
248
100
AcDbEntity
  8
0
100
AcDbLine
 62
250
  6
CONTINUOUS
 10
34.4037725343
 20
9.1835671324
 30
0.0
 11
34.3979547045
 21
9.7609174016
 31
0.0
  0
LINE
  5
249
100
AcDbEntity
  8
0
100
AcDbLine
 62
250
  6
CONTINUOUS
 10
34.6537683035
 20
9.4000734834
 30
0.0
 11
34.6486777025
 21
9.9052549689
 31
0.0
  0
LINE
  5
24A
100
AcDbEntity
  8
DRAFT
100
AcDbLine
 62
7
  6
CONTINUOUS
 10
33.4456294506
 20
33.0279046997
 30
0.0
 11
33.4177293063
 21
49.6279046997
 31
0.0
  0
LINE
  5
24B
100
AcDbEntity
  8
0
100
AcDbLine
 62
7
  6
CONTINUOUS
 10
33.4456294506
 20
33.0279046997
 30
0.0
 11
33.4177293063
 21
49.6279046997
 31
0.0
  0
LINE
  5
24C
100
AcDbEntity
  8
0
100
AcDbLine
 62
7
  6
CONTINUOUS
 10
33.3902376122
 20
54.9279216228
 30
0.0
 11
33.3902376122
 21
11.1278877767
 31
0.0
  0
LINE
  5
24D
100
AcDbEntity
  8
0
100
AcDbLine
 62
7
  6
CONTINUOUS
 10
33.3915467089
 20
54.9276758477
 30
0.0
 11
33.3915467089
 21
11.1281335518
 31
0.0
  0
LINE
  5
24E
100
AcDbEntity
  8
DRAFT
100
AcDbLine
 62
7
  6
CONTINUOUS
 10
33.4177293063
 20
54.8490641787
 30
0.0
 11
33.4177293063
 21
49.6279046997
 31
0.0
  0
LINE
  5
24F
100
AcDbEntity
  8
0
100
AcDbLine
 62
7
  6
CONTINUOUS
 10
33.4177293063
 20
54.8490641787
 30
0.0
 11
33.4177293063
 21
49.6279046997
 31
0.0
  0
LINE
  5
250
100
AcDbEntity
  8
DRAFT
100
AcDbLine
 62
7
  6
CONTINUOUS
 10
33.4177293063
 20
16.4279046997
 30
0.0
 11
33.4177293063
 21
11.2067452207
 31
0.0
  0
LINE
  5
251
100
AcDbEntity
  8
0
100
AcDbLine
 62
7
  6
CONTINUOUS
 10
33.4177293063
 20
16.4279046997
 30
0.0
 11
33.4177293063
 21
11.2067452207
 31
0.0
  0
LINE
  5
252
100
AcDbEntity
  8
RACCORDO
100
AcDbLine
 62
7
  6
CONTINUOUS
 10
33.5406739556
 20
11.4279049349
 30
0.0
 11
33.5406739556
 21
54.6279044646
 31
0.0
  0
LINE
  5
253
100
AcDbEntity
  8
0
100
AcDbLine
 62
7
  6
CONTINUOUS
 10
34.3906739556
 20
8.777900469
 30
0.0
 11
34.3906739556
 21
10.6279046997
 31
0.0
  0
LINE
  5
254
100
AcDbEntity
  8
0
100
AcDbLine
 62
7
  6
CONTINUOUS
 10
34.3906739556
 20
55.4279046997
 30
0.0
 11
34.3906739556
 21
57.2779089305
 31
0.0
  0
LINE
  5
255
100
AcDbEntity
  8
0
100
AcDbLine
 62
250
  6
CONTINUOUS
 10
34.3979547045
 20
56.2948919978
 30
0.0
 11
34.3979547045
 21
55.362318752
 31
0.0
  0
LINE
  5
256
100
AcDbEntity
  8
0
100
AcDbLine
 62
250
  6
CONTINUOUS
 10
34.3979547045
 20
10.6934906474
 30
0.0
 11
34.3979547045
 21
9.7609174016
 31
0.0
  0
LINE
  5
257
100
AcDbEntity
  8
0
100
AcDbLine
 62
250
  6
CONTINUOUS
 10
34.4037725343
 20
57.2648103518
 30
0.0
 11
34.4037725343
 21
56.872242267
 31
0.0
  0
LINE
  5
258
100
AcDbEntity
  8
0
100
AcDbLine
 62
250
  6
CONTINUOUS
 10
34.4037725343
 20
9.1835671324
 30
0.0
 11
34.4037725343
 21
8.7909990477
 31
0.0
  0
LINE
  5
259
100
AcDbEntity
  8
0
100
AcDbLine
 62
250
  6
CONTINUOUS
 10
34.6479504737
 20
56.1505544305
 30
0.0
 11
34.6479504737
 21
55.3492930308
 31
0.0
  0
LINE
  5
25A
100
AcDbEntity
  8
0
100
AcDbLine
 62
250
  6
CONTINUOUS
 10
34.6479504737
 20
10.7065163687
 30
0.0
 11
34.6479504737
 21
9.9052549689
 31
0.0
  0
LINE
  5
25B
100
AcDbEntity
  8
0
100
AcDbLine
 62
250
  6
CONTINUOUS
 10
34.6537683035
 20
8.5410032785
 30
0.0
 11
34.6537683035
 21
9.4000734834
 31
0.0
  0
LINE
  5
25C
100
AcDbEntity
  8
0
100
AcDbLine
 62
250
  6
CONTINUOUS
 10
34.6537683035
 20
56.6557359161
 30
0.0
 11
34.6537683035
 21
57.514806121
 31
0.0
  0
LINE
  5
25D
100
AcDbEntity
  8
DRAFT
100
AcDbLine
 62
7
  6
CONTINUOUS
 10
33.4177293063
 20
16.4279046997
 30
0.0
 11
33.4456294506
 21
33.0279046997
 31
0.0
  0
LINE
  5
25E
100
AcDbEntity
  8
0
100
AcDbLine
 62
7
  6
CONTINUOUS
 10
33.4177293063
 20
16.4279046997
 30
0.0
 11
33.4456294506
 21
33.0279046997
 31
0.0
  0
LINE
  5
25F
100
AcDbEntity
  8
0
100
AcDbLine
 62
250
  6
CONTINUOUS
 10
34.3979547045
 20
56.2948919978
 30
0.0
 11
34.4037725343
 21
56.872242267
 31
0.0
  0
LINE
  5
260
100
AcDbEntity
  8
0
100
AcDbLine
 62
250
  6
CONTINUOUS
 10
34.6486777025
 20
56.1505544305
 30
0.0
 11
34.6537683035
 21
56.6557359161
 31
0.0
  0
LINE
  5
261
100
AcDbEntity
  8
0
100
AcDbLine
 62
7
  6
CONTINUOUS
 10
37.2906739556
 20
55.4279046997
 30
0.0
 11
37.2833932067
 21
55.362318752
 31
0.0
  0
LINE
  5
262
100
AcDbEntity
  8
0
100
AcDbLine
 62
7
  6
CONTINUOUS
 10
37.2906739556
 20
10.6279046997
 30
0.0
 11
37.2833932067
 21
10.6934906474
 31
0.0
  0
LINE
  5
263
100
AcDbEntity
  8
0
100
AcDbLine
 62
250
  6
CONTINUOUS
 10
37.0275796077
 20
56.6557359161
 30
0.0
 11
37.0326702088
 21
56.1505544305
 31
0.0
  0
LINE
  5
264
100
AcDbEntity
  8
0
100
AcDbLine
 62
250
  6
CONTINUOUS
 10
37.2775753769
 20
56.872242267
 30
0.0
 11
37.2833932067
 21
56.2948919978
 31
0.0
  0
LINE
  5
265
100
AcDbEntity
  8
0
100
AcDbLine
 62
250
  6
CONTINUOUS
 10
37.0275796077
 20
8.5410032785
 30
0.0
 11
37.0275796077
 21
9.4000734834
 31
0.0
  0
LINE
  5
266
100
AcDbEntity
  8
0
100
AcDbLine
 62
250
  6
CONTINUOUS
 10
37.0275796077
 20
56.6557359161
 30
0.0
 11
37.0275796077
 21
57.514806121
 31
0.0
  0
LINE
  5
267
100
AcDbEntity
  8
0
100
AcDbLine
 62
250
  6
CONTINUOUS
 10
37.0333974375
 20
9.9052549689
 30
0.0
 11
37.0333974375
 21
10.7065163687
 31
0.0
  0
LINE
  5
268
100
AcDbEntity
  8
0
100
AcDbLine
 62
250
  6
CONTINUOUS
 10
37.0333974375
 20
55.3492930308
 30
0.0
 11
37.0333974375
 21
56.1505544305
 31
0.0
  0
LINE
  5
269
100
AcDbEntity
  8
0
100
AcDbLine
 62
250
  6
CONTINUOUS
 10
37.2775753769
 20
8.7909990477
 30
0.0
 11
37.2775753769
 21
9.1835671324
 31
0.0
  0
LINE
  5
26A
100
AcDbEntity
  8
0
100
AcDbLine
 62
250
  6
CONTINUOUS
 10
37.2775753769
 20
56.872242267
 30
0.0
 11
37.2775753769
 21
57.2648103518
 31
0.0
  0
LINE
  5
26B
100
AcDbEntity
  8
0
100
AcDbLine
 62
250
  6
CONTINUOUS
 10
37.2833932067
 20
9.7609174016
 30
0.0
 11
37.2833932067
 21
10.6934906474
 31
0.0
  0
LINE
  5
26C
100
AcDbEntity
  8
0
100
AcDbLine
 62
250
  6
CONTINUOUS
 10
37.2833932067
 20
55.362318752
 30
0.0
 11
37.2833932067
 21
56.2948919978
 31
0.0
  0
LINE
  5
26D
100
AcDbEntity
  8
0
100
AcDbLine
 62
7
  6
CONTINUOUS
 10
37.2906739556
 20
8.777900469
 30
0.0
 11
37.2906739556
 21
10.6279046997
 31
0.0
  0
LINE
  5
26E
100
AcDbEntity
  8
0
100
AcDbLine
 62
7
  6
CONTINUOUS
 10
37.2906739556
 20
55.4279046997
 30
0.0
 11
37.2906739556
 21
57.2779089305
 31
0.0
  0
LINE
  5
26F
100
AcDbEntity
  8
0
100
AcDbLine
 62
250
  6
CONTINUOUS
 10
37.0326702088
 20
9.9052549689
 30
0.0
 11
37.0275796077
 21
9.4000734834
 31
0.0
  0
LINE
  5
270
100
AcDbEntity
  8
0
100
AcDbLine
 62
250
  6
CONTINUOUS
 10
37.2833932067
 20
9.7609174016
 30
0.0
 11
37.2775753769
 21
9.1835671324
 31
0.0
  0
LINE
  5
271
100
AcDbEntity
  8
0
100
AcDbLine
 62
7
  6
CONTINUOUS
 10
34.3906739556
 20
10.6279046997
 30
0.0
 11
34.3979547045
 21
10.6934906474
 31
0.0
  0
LWPOLYLINE
  5
272
100
AcDbEntity
  8
0
100
AcDbPolyline
 62
7
  6
CONTINUOUS
 90
10
 70
0
 43
0.3500000006
 10
65.7549597931
 20
73.8724096069
 10
65.1121018066
 20
73.2295470886
 10
64.6835328369
 20
72.3724091492
 10
64.6835328369
 20
71.3009776611
 10
65.1121018066
 20
70.8724086914
 10
65.7549597931
 20
70.8724086914
 10
66.1835332947
 20
71.3009776611
 10
66.1835332947
 20
72.1581246643
 10
65.7549597931
 20
72.586693634
 10
64.8263861389
 20
72.586693634
  0
LINE
  5
273
100
AcDbEntity
  8
0
100
AcDbLine
 62
7
  6
CONTINUOUS
 10
48.9906739556
 20
57.0279046997
 30
0.0
 11
48.9819472109
 21
57.019177955
 31
0.0
  0
LINE
  5
274
100
AcDbEntity
  8
0
100
AcDbLine
 62
7
  6
CONTINUOUS
 10
48.9906739556
 20
9.0279046997
 30
0.0
 11
48.9819472109
 21
9.0366314445
 31
0.0
  0
LINE
  5
275
100
AcDbEntity
  8
0
100
AcDbLine
 62
7
  6
CONTINUOUS
 10
34.3906739556
 20
55.4279046997
 30
0.0
 11
34.3979547045
 21
55.362318752
 31
0.0
  0
LINE
  5
276
100
AcDbEntity
  8
0
100
AcDbLine
 62
7
  6
CONTINUOUS
 10
40.0906739556
 20
9.0279046997
 30
0.0
 11
40.0906739556
 21
10.6279046997
 31
0.0
  0
LINE
  5
277
100
AcDbEntity
  8
0
100
AcDbLine
 62
7
  6
CONTINUOUS
 10
40.0906739556
 20
55.4279046997
 30
0.0
 11
40.0906739556
 21
57.0279046997
 31
0.0
  0
LINE
  5
278
100
AcDbEntity
  8
0
100
AcDbLine
 62
7
  6
CONTINUOUS
 10
40.0994007003
 20
57.019177955
 30
0.0
 11
40.0994007003
 21
55.3492930308
 31
0.0
  0
LINE
  5
279
100
AcDbEntity
  8
0
100
AcDbLine
 62
7
  6
CONTINUOUS
 10
40.0994007003
 20
10.7065163687
 30
0.0
 11
40.0994007003
 21
9.0366314445
 31
0.0
  0
LINE
  5
27A
100
AcDbEntity
  8
0
100
AcDbLine
 62
7
  6
CONTINUOUS
 10
41.0406739556
 20
9.029656818
 30
0.0
 11
41.0406739556
 21
10.7065163687
 31
0.0
  0
LINE
  5
27B
100
AcDbEntity
  8
0
100
AcDbLine
 62
7
  6
CONTINUOUS
 10
41.0406739556
 20
55.3492930308
 30
0.0
 11
41.0406739556
 21
57.0261525815
 31
0.0
  0
LINE
  5
27C
100
AcDbEntity
  8
0
100
AcDbLine
 62
250
  6
CONTINUOUS
 10
33.3915467089
 20
11.1281335518
 30
0.0
 11
33.4177293063
 21
11.2067452207
 31
0.0
  0
LINE
  5
27D
100
AcDbEntity
  8
0
100
AcDbLine
 62
250
  6
CONTINUOUS
 10
54.4275796077
 20
57.514806121
 30
0.0
 11
54.4406781864
 21
57.5279046997
 31
0.0
  0
LINE
  5
27E
100
AcDbEntity
  8
0
100
AcDbLine
 62
250
  6
CONTINUOUS
 10
54.6775753769
 20
57.2648103518
 30
0.0
 11
54.6906739556
 21
57.2779089305
 31
0.0
  0
LINE
  5
27F
100
AcDbEntity
  8
0
100
AcDbLine
 62
250
  6
CONTINUOUS
 10
54.4275796077
 20
8.5410032785
 30
0.0
 11
54.4406781864
 21
8.5279046997
 31
0.0
  0
LINE
  5
280
100
AcDbEntity
  8
0
100
AcDbLine
 62
250
  6
CONTINUOUS
 10
54.6775753769
 20
8.7909990477
 30
0.0
 11
54.6906739556
 21
8.777900469
 31
0.0
  0
LINE
  5
281
100
AcDbEntity
  8
0
100
AcDbLine
 62
250
  6
CONTINUOUS
 10
33.4177293063
 20
54.8490641787
 30
0.0
 11
33.3915467089
 21
54.9276758477
 31
0.0
  0
LINE
  5
282
100
AcDbEntity
  8
0
100
AcDbLine
 62
250
  6
CONTINUOUS
 10
43.3406739556
 20
9.0279046997
 30
0.0
 11
43.3406739556
 21
10.6541085894
 31
0.0
  0
LINE
  5
283
100
AcDbEntity
  8
0
100
AcDbLine
 62
250
  6
CONTINUOUS
 10
43.3406739556
 20
55.4017008101
 30
0.0
 11
43.3406739556
 21
57.0279046997
 31
0.0
  0
LINE
  5
284
100
AcDbEntity
  8
0
100
AcDbLine
 62
7
  6
CONTINUOUS
 10
43.5406739556
 20
9.2279080844
 30
0.0
 11
43.5406739556
 21
10.6436270335
 31
0.0
  0
LINE
  5
285
100
AcDbEntity
  8
0
100
AcDbLine
 62
7
  6
CONTINUOUS
 10
43.5406739556
 20
55.412182366
 30
0.0
 11
43.5406739556
 21
56.8279013151
 31
0.0
  0
LINE
  5
286
100
AcDbEntity
  8
0
100
AcDbLine
 62
7
  6
CONTINUOUS
 10
40.0906739556
 20
10.6279046997
 30
0.0
 11
40.0994007003
 21
10.7065163687
 31
0.0
  0
LINE
  5
287
100
AcDbEntity
  8
0
100
AcDbLine
 62
250
  6
CONTINUOUS
 10
33.8911661091
 20
10.6279046997
 30
0.0
 11
33.9173487065
 21
10.7065163687
 31
0.0
  0
LINE
  5
288
100
AcDbEntity
  8
0
100
AcDbLine
 62
7
  6
CONTINUOUS
 10
34.6406697248
 20
8.5279046997
 30
0.0
 11
37.0406781864
 21
8.5279046997
 31
0.0
  0
LINE
  5
289
100
AcDbEntity
  8
0
100
AcDbLine
 62
7
  6
CONTINUOUS
 10
52.0406697248
 20
8.5279046997
 30
0.0
 11
54.4406781864
 21
8.5279046997
 31
0.0
  0
LINE
  5
28A
100
AcDbEntity
  8
0
100
AcDbLine
 62
7
  6
CONTINUOUS
 10
79.6406697248
 20
8.5279046997
 30
0.0
 11
82.0406781864
 21
8.5279046997
 31
0.0
  0
LINE
  5
28B
100
AcDbEntity
  8
0
100
AcDbLine
 62
7
  6
CONTINUOUS
 10
97.0406697248
 20
8.5279046997
 30
0.0
 11
99.4406781864
 21
8.5279046997
 31
0.0
  0
LINE
  5
28C
100
AcDbEntity
  8
0
100
AcDbLine
 62
250
  6
CONTINUOUS
 10
34.6537683035
 20
8.5410032785
 30
0.0
 11
37.0275796077
 21
8.5410032785
 31
0.0
  0
LINE
  5
28D
100
AcDbEntity
  8
0
100
AcDbLine
 62
250
  6
CONTINUOUS
 10
52.0537683035
 20
8.5410032785
 30
0.0
 11
54.4275796077
 21
8.5410032785
 31
0.0
  0
LINE
  5
28E
100
AcDbEntity
  8
0
100
AcDbLine
 62
250
  6
CONTINUOUS
 10
79.6537683035
 20
8.5410032785
 30
0.0
 11
82.0275796077
 21
8.5410032785
 31
0.0
  0
LINE
  5
28F
100
AcDbEntity
  8
0
100
AcDbLine
 62
250
  6
CONTINUOUS
 10
97.0537683035
 20
8.5410032785
 30
0.0
 11
99.4275796077
 21
8.5410032785
 31
0.0
  0
LINE
  5
290
100
AcDbEntity
  8
0
100
AcDbLine
 62
250
  6
CONTINUOUS
 10
34.4037725343
 20
8.7909990477
 30
0.0
 11
37.2775753769
 21
8.7909990477
 31
0.0
  0
LINE
  5
291
100
AcDbEntity
  8
0
100
AcDbLine
 62
250
  6
CONTINUOUS
 10
51.8037725343
 20
8.7909990477
 30
0.0
 11
54.6775753769
 21
8.7909990477
 31
0.0
  0
LINE
  5
292
100
AcDbEntity
  8
0
100
AcDbLine
 62
250
  6
CONTINUOUS
 10
79.4037725343
 20
8.7909990477
 30
0.0
 11
82.2775753769
 21
8.7909990477
 31
0.0
  0
LINE
  5
293
100
AcDbEntity
  8
0
100
AcDbLine
 62
250
  6
CONTINUOUS
 10
96.8037725343
 20
8.7909990477
 30
0.0
 11
99.6775753769
 21
8.7909990477
 31
0.0
  0
LINE
  5
294
100
AcDbEntity
  8
0
100
AcDbLine
 62
7
  6
CONTINUOUS
 10
93.9906739556
 20
9.0279046997
 30
0.0
 11
90.7406739556
 21
9.0279046997
 31
0.0
  0
LINE
  5
295
100
AcDbEntity
  8
0
100
AcDbLine
 62
7
  6
CONTINUOUS
 10
88.3406739556
 20
9.0279046997
 30
0.0
 11
85.0906739556
 21
9.0279046997
 31
0.0
  0
LINE
  5
296
100
AcDbEntity
  8
0
100
AcDbLine
 62
7
  6
CONTINUOUS
 10
48.9906739556
 20
9.0279046997
 30
0.0
 11
45.7406739556
 21
9.0279046997
 31
0.0
  0
LINE
  5
297
100
AcDbEntity
  8
0
100
AcDbLine
 62
7
  6
CONTINUOUS
 10
43.3406739556
 20
9.0279046997
 30
0.0
 11
40.0906739556
 21
9.0279046997
 31
0.0
  0
LINE
  5
298
100
AcDbEntity
  8
0
100
AcDbLine
 62
250
  6
CONTINUOUS
 10
41.0406739556
 20
9.029656818
 30
0.0
 11
43.3406739556
 21
9.029656818
 31
0.0
  0
LINE
  5
299
100
AcDbEntity
  8
0
100
AcDbLine
 62
250
  6
CONTINUOUS
 10
45.7406739556
 20
9.029656818
 30
0.0
 11
48.0406739556
 21
9.029656818
 31
0.0
  0
LINE
  5
29A
100
AcDbEntity
  8
0
100
AcDbLine
 62
250
  6
CONTINUOUS
 10
86.0406739556
 20
9.029656818
 30
0.0
 11
88.3406739556
 21
9.029656818
 31
0.0
  0
LINE
  5
29B
100
AcDbEntity
  8
0
100
AcDbLine
 62
250
  6
CONTINUOUS
 10
90.7406739556
 20
9.029656818
 30
0.0
 11
93.0406739556
 21
9.029656818
 31
0.0
  0
LINE
  5
29C
100
AcDbEntity
  8
0
100
AcDbLine
 62
7
  6
CONTINUOUS
 10
93.9819472109
 20
9.0366314445
 30
0.0
 11
93.0406739556
 21
9.0366314445
 31
0.0
  0
LINE
  5
29D
100
AcDbEntity
  8
0
100
AcDbLine
 62
7
  6
CONTINUOUS
 10
86.0406739556
 20
9.0366314445
 30
0.0
 11
85.0994007003
 21
9.0366314445
 31
0.0
  0
LINE
  5
29E
100
AcDbEntity
  8
0
100
AcDbLine
 62
7
  6
CONTINUOUS
 10
48.9819472109
 20
9.0366314445
 30
0.0
 11
48.0406739556
 21
9.0366314445
 31
0.0
  0
LINE
  5
29F
100
AcDbEntity
  8
0
100
AcDbLine
 62
7
  6
CONTINUOUS
 10
41.0406739556
 20
9.0366314445
 30
0.0
 11
40.0994007003
 21
9.0366314445
 31
0.0
  0
LINE
  5
2A0
100
AcDbEntity
  8
0
100
AcDbLine
 62
250
  6
CONTINUOUS
 10
34.4037725343
 20
9.1835671324
 30
0.0
 11
37.2775753769
 21
9.1835671324
 31
0.0
  0
LINE
  5
2A1
100
AcDbEntity
  8
0
100
AcDbLine
 62
250
  6
CONTINUOUS
 10
51.8037725343
 20
9.1835671324
 30
0.0
 11
54.6775753769
 21
9.1835671324
 31
0.0
  0
LINE
  5
2A2
100
AcDbEntity
  8
0
100
AcDbLine
 62
250
  6
CONTINUOUS
 10
79.4037725343
 20
9.1835671324
 30
0.0
 11
82.2775753769
 21
9.1835671324
 31
0.0
  0
LINE
  5
2A3
100
AcDbEntity
  8
0
100
AcDbLine
 62
250
  6
CONTINUOUS
 10
96.8037725343
 20
9.1835671324
 30
0.0
 11
99.6775753769
 21
9.1835671324
 31
0.0
  0
LINE
  5
2A4
100
AcDbEntity
  8
0
100
AcDbLine
 62
250
  6
CONTINUOUS
 10
41.0406739556
 20
9.2296534334
 30
0.0
 11
43.5404839162
 21
9.2296534334
 31
0.0
  0
LINE
  5
2A5
100
AcDbEntity
  8
0
100
AcDbLine
 62
250
  6
CONTINUOUS
 10
45.5406739556
 20
9.2296534334
 30
0.0
 11
48.0406739556
 21
9.2296534334
 31
0.0
  0
LINE
  5
2A6
100
AcDbEntity
  8
0
100
AcDbLine
 62
250
  6
CONTINUOUS
 10
86.0406739556
 20
9.2296534334
 30
0.0
 11
88.5404839162
 21
9.2296534334
 31
0.0
  0
LINE
  5
2A7
100
AcDbEntity
  8
0
100
AcDbLine
 62
250
  6
CONTINUOUS
 10
90.5406739556
 20
9.2296534334
 30
0.0
 11
93.0406739556
 21
9.2296534334
 31
0.0
  0
LINE
  5
2A8
100
AcDbEntity
  8
0
100
AcDbLine
 62
250
  6
CONTINUOUS
 10
99.4275796077
 20
9.4000734834
 30
0.0
 11
97.0537683035
 21
9.4000734834
 31
0.0
  0
LINE
  5
2A9
100
AcDbEntity
  8
0
100
AcDbLine
 62
250
  6
CONTINUOUS
 10
82.0275796077
 20
9.4000734834
 30
0.0
 11
79.6537683035
 21
9.4000734834
 31
0.0
  0
LINE
  5
2AA
100
AcDbEntity
  8
0
100
AcDbLine
 62
250
  6
CONTINUOUS
 10
54.4275796077
 20
9.4000734834
 30
0.0
 11
52.0537683035
 21
9.4000734834
 31
0.0
  0
LINE
  5
2AB
100
AcDbEntity
  8
0
100
AcDbLine
 62
250
  6
CONTINUOUS
 10
37.0275796077
 20
9.4000734834
 30
0.0
 11
34.6537683035
 21
9.4000734834
 31
0.0
  0
LINE
  5
2AC
100
AcDbEntity
  8
0
100
AcDbLine
 62
7
  6
CONTINUOUS
 10
99.4333974375
 20
9.9052549689
 30
0.0
 11
97.0479504737
 21
9.9052549689
 31
0.0
  0
LINE
  5
2AD
100
AcDbEntity
  8
0
100
AcDbLine
 62
7
  6
CONTINUOUS
 10
54.4333974375
 20
9.9052549689
 30
0.0
 11
52.0479504737
 21
9.9052549689
 31
0.0
  0
LINE
  5
2AE
100
AcDbEntity
  8
0
100
AcDbLine
 62
7
  6
CONTINUOUS
 10
34.6479504737
 20
9.9052549689
 30
0.0
 11
37.0333974375
 21
9.9052549689
 31
0.0
  0
LINE
  5
2AF
100
AcDbEntity
  8
0
100
AcDbLine
 62
7
  6
CONTINUOUS
 10
79.6479504737
 20
9.9052549689
 30
0.0
 11
82.0333974375
 21
9.9052549689
 31
0.0
  0
LINE
  5
2B0
100
AcDbEntity
  8
0
100
AcDbLine
 62
7
  6
CONTINUOUS
 10
100.1901818021
 20
10.6279046997
 30
0.0
 11
99.6906739556
 21
10.6279046997
 31
0.0
  0
LINE
  5
2B1
100
AcDbEntity
  8
0
100
AcDbLine
 62
7
  6
CONTINUOUS
 10
96.7906739556
 20
10.6279046997
 30
0.0
 11
93.9906739556
 21
10.6279046997
 31
0.0
  0
LINE
  5
2B2
100
AcDbEntity
  8
0
100
AcDbLine
 62
7
  6
CONTINUOUS
 10
85.0906739556
 20
10.6279046997
 30
0.0
 11
82.2906739556
 21
10.6279046997
 31
0.0
  0
LINE
  5
2B3
100
AcDbEntity
  8
0
100
AcDbLine
 62
7
  6
CONTINUOUS
 10
79.3906739556
 20
10.6279046997
 30
0.0
 11
78.8911661091
 21
10.6279046997
 31
0.0
  0
LINE
  5
2B4
100
AcDbEntity
  8
0
100
AcDbLine
 62
7
  6
CONTINUOUS
 10
55.1901818021
 20
10.6279046997
 30
0.0
 11
54.6906739556
 21
10.6279046997
 31
0.0
  0
LINE
  5
2B5
100
AcDbEntity
  8
0
100
AcDbLine
 62
7
  6
CONTINUOUS
 10
51.7906739556
 20
10.6279046997
 30
0.0
 11
48.9906739556
 21
10.6279046997
 31
0.0
  0
LINE
  5
2B6
100
AcDbEntity
  8
0
100
AcDbLine
 62
7
  6
CONTINUOUS
 10
40.0906739556
 20
10.6279046997
 30
0.0
 11
37.2906739556
 21
10.6279046997
 31
0.0
  0
LINE
  5
2B7
100
AcDbEntity
  8
0
100
AcDbLine
 62
7
  6
CONTINUOUS
 10
34.3906739556
 20
10.6279046997
 30
0.0
 11
33.8911661091
 21
10.6279046997
 31
0.0
  0
LINE
  5
2B8
100
AcDbEntity
  8
0
100
AcDbLine
 62
7
  6
CONTINUOUS
 10
43.5406739556
 20
10.6279046997
 30
0.0
 11
45.5406739556
 21
10.6279046997
 31
0.0
  0
LINE
  5
2B9
100
AcDbEntity
  8
0
100
AcDbLine
 62
7
  6
CONTINUOUS
 10
88.5406739556
 20
10.6279046997
 30
0.0
 11
90.5406739556
 21
10.6279046997
 31
0.0
  0
LINE
  5
2BA
100
AcDbEntity
  8
0
100
AcDbLine
 62
7
  6
CONTINUOUS
 10
93.0406739556
 20
10.6541085894
 30
0.0
 11
90.7406739556
 21
10.6541085894
 31
0.0
  0
LINE
  5
2BB
100
AcDbEntity
  8
0
100
AcDbLine
 62
7
  6
CONTINUOUS
 10
88.3406739556
 20
10.6541085894
 30
0.0
 11
86.0406739556
 21
10.6541085894
 31
0.0
  0
LINE
  5
2BC
100
AcDbEntity
  8
0
100
AcDbLine
 62
7
  6
CONTINUOUS
 10
48.0406739556
 20
10.6541085894
 30
0.0
 11
45.7406739556
 21
10.6541085894
 31
0.0
  0
LINE
  5
2BD
100
AcDbEntity
  8
0
100
AcDbLine
 62
7
  6
CONTINUOUS
 10
43.3406739556
 20
10.6541085894
 30
0.0
 11
41.0406739556
 21
10.6541085894
 31
0.0
  0
LINE
  5
2BE
100
AcDbEntity
  8
0
100
AcDbLine
 62
7
  6
CONTINUOUS
 10
100.1639992047
 20
10.7065163687
 30
0.0
 11
99.4333974375
 21
10.7065163687
 31
0.0
  0
LINE
  5
2BF
100
AcDbEntity
  8
0
100
AcDbLine
 62
7
  6
CONTINUOUS
 10
97.0479504737
 20
10.7065163687
 30
0.0
 11
93.9819472109
 21
10.7065163687
 31
0.0
  0
LINE
  5
2C0
100
AcDbEntity
  8
0
100
AcDbLine
 62
7
  6
CONTINUOUS
 10
93.0406739556
 20
10.7065163687
 30
0.0
 11
86.0406739556
 21
10.7065163687
 31
0.0
  0
LINE
  5
2C1
100
AcDbEntity
  8
0
100
AcDbLine
 62
7
  6
CONTINUOUS
 10
85.0994007003
 20
10.7065163687
 30
0.0
 11
82.0333974375
 21
10.7065163687
 31
0.0
  0
LINE
  5
2C2
100
AcDbEntity
  8
0
100
AcDbLine
 62
7
  6
CONTINUOUS
 10
79.6479504737
 20
10.7065163687
 30
0.0
 11
78.9173487065
 21
10.7065163687
 31
0.0
  0
LINE
  5
2C3
100
AcDbEntity
  8
0
100
AcDbLine
 62
7
  6
CONTINUOUS
 10
55.1639992047
 20
10.7065163687
 30
0.0
 11
54.4333974375
 21
10.7065163687
 31
0.0
  0
LINE
  5
2C4
100
AcDbEntity
  8
0
100
AcDbLine
 62
7
  6
CONTINUOUS
 10
52.0479504737
 20
10.7065163687
 30
0.0
 11
48.9819472109
 21
10.7065163687
 31
0.0
  0
LINE
  5
2C5
100
AcDbEntity
  8
0
100
AcDbLine
 62
7
  6
CONTINUOUS
 10
48.0406739556
 20
10.7065163687
 30
0.0
 11
41.0406739556
 21
10.7065163687
 31
0.0
  0
LINE
  5
2C6
100
AcDbEntity
  8
0
100
AcDbLine
 62
7
  6
CONTINUOUS
 10
40.0994007003
 20
10.7065163687
 30
0.0
 11
37.0333974375
 21
10.7065163687
 31
0.0
  0
LINE
  5
2C7
100
AcDbEntity
  8
0
100
AcDbLine
 62
7
  6
CONTINUOUS
 10
34.6479504737
 20
10.7065163687
 30
0.0
 11
33.9173487065
 21
10.7065163687
 31
0.0
  0
LINE
  5
2C8
100
AcDbEntity
  8
RACCORDO
100
AcDbLine
 62
7
  6
CONTINUOUS
 10
34.0401601192
 20
10.9279046997
 30
0.0
 11
100.041187792
 21
10.9279046997
 31
0.0
  0
LINE
  5
2C9
100
AcDbEntity
  8
0
100
AcDbLine
 62
250
  6
CONTINUOUS
 10
33.9173487065
 20
55.3492930308
 30
0.0
 11
33.8911661091
 21
55.4279046997
 31
0.0
  0
LINE
  5
2CA
100
AcDbEntity
  8
0
100
AcDbLine
 62
7
  6
CONTINUOUS
 10
40.0994007003
 20
55.3492930308
 30
0.0
 11
40.0906739556
 21
55.4279046997
 31
0.0
  0
LINE
  5
2CB
100
AcDbEntity
  8
0
100
AcDbLine
 62
7
  6
CONTINUOUS
 10
45.5406739556
 20
56.8279013151
 30
0.0
 11
45.5406739556
 21
55.412182366
 31
0.0
  0
LINE
  5
2CC
100
AcDbEntity
  8
0
100
AcDbLine
 62
7
  6
CONTINUOUS
 10
45.5406739556
 20
10.6436270335
 30
0.0
 11
45.5406739556
 21
9.2279080844
 31
0.0
  0
LINE
  5
2CD
100
AcDbEntity
  8
0
100
AcDbLine
 62
250
  6
CONTINUOUS
 10
45.7406739556
 20
10.6541085894
 30
0.0
 11
45.7406739556
 21
9.0279046997
 31
0.0
  0
LINE
  5
2CE
100
AcDbEntity
  8
0
100
AcDbLine
 62
250
  6
CONTINUOUS
 10
45.7406739556
 20
55.4017008101
 30
0.0
 11
45.7406739556
 21
57.0279046997
 31
0.0
  0
LINE
  5
2CF
100
AcDbEntity
  8
0
100
AcDbLine
 62
7
  6
CONTINUOUS
 10
48.0406739556
 20
57.0261525815
 30
0.0
 11
48.0406739556
 21
55.3492930308
 31
0.0
  0
LINE
  5
2D0
100
AcDbEntity
  8
0
100
AcDbLine
 62
7
  6
CONTINUOUS
 10
48.0406739556
 20
10.7065163687
 30
0.0
 11
48.0406739556
 21
9.029656818
 31
0.0
  0
LINE
  5
2D1
100
AcDbEntity
  8
0
100
AcDbLine
 62
7
  6
CONTINUOUS
 10
48.9906739556
 20
55.4279046997
 30
0.0
 11
48.9819472109
 21
55.3492930308
 31
0.0
  0
LINE
  5
2D2
100
AcDbEntity
  8
RACCORDO
100
AcDbLine
 62
250
  6
CONTINUOUS
 10
33.6620094615
 20
11.6707424609
 30
0.0
 11
33.5406739556
 21
11.4279049349
 31
0.0
  0
LINE
  5
2D3
100
AcDbEntity
  8
RACCORDO
100
AcDbLine
 62
250
  6
CONTINUOUS
 10
34.1618381237
 20
11.1714276931
 30
0.0
 11
34.0401601192
 21
10.9279046997
 31
0.0
  0
LINE
  5
2D4
100
AcDbEntity
  8
RACCORDO
100
AcDbLine
 62
250
  6
CONTINUOUS
 10
33.5406739556
 20
54.6279044646
 30
0.0
 11
33.6620094612
 21
54.3850669392
 31
0.0
  0
LINE
  5
2D5
100
AcDbEntity
  8
RACCORDO
100
AcDbLine
 62
250
  6
CONTINUOUS
 10
34.0401601192
 20
55.1279046997
 30
0.0
 11
34.1618381237
 21
54.8843817065
 31
0.0
  0
LINE
  5
2D6
100
AcDbEntity
  8
0
100
AcDbLine
 62
7
  6
CONTINUOUS
 10
48.9819472109
 20
10.7065163687
 30
0.0
 11
48.9906739556
 21
10.6279046997
 31
0.0
  0
LINE
  5
2D7
100
AcDbEntity
  8
0
100
AcDbLine
 62
250
  6
CONTINUOUS
 10
51.8037725343
 20
9.1835671324
 30
0.0
 11
51.7979547045
 21
9.7609174016
 31
0.0
  0
LINE
  5
2D8
100
AcDbEntity
  8
0
100
AcDbLine
 62
7
  6
CONTINUOUS
 10
48.9819472109
 20
9.0366314445
 30
0.0
 11
48.9819472109
 21
10.7065163687
 31
0.0
  0
LINE
  5
2D9
100
AcDbEntity
  8
0
100
AcDbLine
 62
7
  6
CONTINUOUS
 10
48.9819472109
 20
55.3492930308
 30
0.0
 11
48.9819472109
 21
57.019177955
 31
0.0
  0
LINE
  5
2DA
100
AcDbEntity
  8
0
100
AcDbLine
 62
7
  6
CONTINUOUS
 10
48.9906739556
 20
10.6279046997
 30
0.0
 11
48.9906739556
 21
9.0279046997
 31
0.0
  0
LINE
  5
2DB
100
AcDbEntity
  8
0
100
AcDbLine
 62
7
  6
CONTINUOUS
 10
48.9906739556
 20
55.4279046997
 30
0.0
 11
48.9906739556
 21
57.0279046997
 31
0.0
  0
LINE
  5
2DC
100
AcDbEntity
  8
0
100
AcDbLine
 62
250
  6
CONTINUOUS
 10
51.7979547045
 20
56.2948919978
 30
0.0
 11
51.8037725343
 21
56.872242267
 31
0.0
  0
LINE
  5
2DD
100
AcDbEntity
  8
0
100
AcDbLine
 62
250
  6
CONTINUOUS
 10
55.1901818021
 20
55.4279046997
 30
0.0
 11
55.1639992047
 21
55.3492930308
 31
0.0
  0
LINE
  5
2DE
100
AcDbEntity
  8
RACCORDO
100
AcDbLine
 62
7
  6
CONTINUOUS
 10
100.663618605
 20
16.4279046997
 30
0.0
 11
100.5406739556
 21
16.4279046997
 31
0.0
  0
LINE
  5
2DF
100
AcDbEntity
  8
0
100
AcDbLine
 62
7
  6
CONTINUOUS
 10
100.663618605
 20
16.4279046997
 30
0.0
 11
100.5406739556
 21
16.4279046997
 31
0.0
  0
LINE
  5
2E0
100
AcDbEntity
  8
RACCORDO
100
AcDbLine
 62
7
  6
CONTINUOUS
 10
33.5406739556
 20
16.4279046997
 30
0.0
 11
33.4177293063
 21
16.4279046997
 31
0.0
  0
LINE
  5
2E1
100
AcDbEntity
  8
0
100
AcDbLine
 62
7
  6
CONTINUOUS
 10
33.5406739556
 20
16.4279046997
 30
0.0
 11
33.4177293063
 21
16.4279046997
 31
0.0
  0
LINE
  5
2E2
100
AcDbEntity
  8
0
100
AcDbLine
 62
250
  6
CONTINUOUS
 10
55.1639992047
 20
10.7065163687
 30
0.0
 11
55.1901818021
 21
10.6279046997
 31
0.0
  0
LINE
  5
2E3
100
AcDbEntity
  8
0
100
AcDbLine
 62
250
  6
CONTINUOUS
 10
52.0537683035
 20
9.4000734834
 30
0.0
 11
52.0486777025
 21
9.9052549689
 31
0.0
  0
LINE
  5
2E4
100
AcDbEntity
  8
0
100
AcDbLine
 62
250
  6
CONTINUOUS
 10
54.4275796077
 20
56.6557359161
 30
0.0
 11
54.4326702088
 21
56.1505544305
 31
0.0
  0
LINE
  5
2E5
100
AcDbEntity
  8
0
100
AcDbLine
 62
7
  6
CONTINUOUS
 10
51.7906739556
 20
8.777900469
 30
0.0
 11
51.7906739556
 21
10.6279046997
 31
0.0
  0
LINE
  5
2E6
100
AcDbEntity
  8
0
100
AcDbLine
 62
7
  6
CONTINUOUS
 10
51.7906739556
 20
55.4279046997
 30
0.0
 11
51.7906739556
 21
57.2779089305
 31
0.0
  0
LINE
  5
2E7
100
AcDbEntity
  8
0
100
AcDbLine
 62
250
  6
CONTINUOUS
 10
51.7979547045
 20
56.2948919978
 30
0.0
 11
51.7979547045
 21
55.362318752
 31
0.0
  0
LINE
  5
2E8
100
AcDbEntity
  8
0
100
AcDbLine
 62
250
  6
CONTINUOUS
 10
51.7979547045
 20
10.6934906474
 30
0.0
 11
51.7979547045
 21
9.7609174016
 31
0.0
  0
LINE
  5
2E9
100
AcDbEntity
  8
0
100
AcDbLine
 62
250
  6
CONTINUOUS
 10
51.8037725343
 20
57.2648103518
 30
0.0
 11
51.8037725343
 21
56.872242267
 31
0.0
  0
LINE
  5
2EA
100
AcDbEntity
  8
0
100
AcDbLine
 62
250
  6
CONTINUOUS
 10
51.8037725343
 20
9.1835671324
 30
0.0
 11
51.8037725343
 21
8.7909990477
 31
0.0
  0
LINE
  5
2EB
100
AcDbEntity
  8
0
100
AcDbLine
 62
250
  6
CONTINUOUS
 10
52.0479504737
 20
56.1505544305
 30
0.0
 11
52.0479504737
 21
55.3492930308
 31
0.0
  0
LINE
  5
2EC
100
AcDbEntity
  8
0
100
AcDbLine
 62
250
  6
CONTINUOUS
 10
52.0479504737
 20
10.7065163687
 30
0.0
 11
52.0479504737
 21
9.9052549689
 31
0.0
  0
LINE
  5
2ED
100
AcDbEntity
  8
0
100
AcDbLine
 62
250
  6
CONTINUOUS
 10
52.0537683035
 20
8.5410032785
 30
0.0
 11
52.0537683035
 21
9.4000734834
 31
0.0
  0
LINE
  5
2EE
100
AcDbEntity
  8
0
100
AcDbLine
 62
250
  6
CONTINUOUS
 10
52.0537683035
 20
56.6557359161
 30
0.0
 11
52.0537683035
 21
57.514806121
 31
0.0
  0
LINE
  5
2EF
100
AcDbEntity
  8
0
100
AcDbLine
 62
250
  6
CONTINUOUS
 10
54.4275796077
 20
8.5410032785
 30
0.0
 11
54.4275796077
 21
9.4000734834
 31
0.0
  0
LINE
  5
2F0
100
AcDbEntity
  8
0
100
AcDbLine
 62
250
  6
CONTINUOUS
 10
54.4275796077
 20
56.6557359161
 30
0.0
 11
54.4275796077
 21
57.514806121
 31
0.0
  0
LINE
  5
2F1
100
AcDbEntity
  8
0
100
AcDbLine
 62
250
  6
CONTINUOUS
 10
54.4333974375
 20
9.9052549689
 30
0.0
 11
54.4333974375
 21
10.7065163687
 31
0.0
  0
LINE
  5
2F2
100
AcDbEntity
  8
0
100
AcDbLine
 62
250
  6
CONTINUOUS
 10
54.4333974375
 20
55.3492930308
 30
0.0
 11
54.4333974375
 21
56.1505544305
 31
0.0
  0
LINE
  5
2F3
100
AcDbEntity
  8
0
100
AcDbLine
 62
250
  6
CONTINUOUS
 10
54.6775753769
 20
8.7909990477
 30
0.0
 11
54.6775753769
 21
9.1835671324
 31
0.0
  0
LINE
  5
2F4
100
AcDbEntity
  8
0
100
AcDbLine
 62
250
  6
CONTINUOUS
 10
54.6775753769
 20
56.872242267
 30
0.0
 11
54.6775753769
 21
57.2648103518
 31
0.0
  0
LINE
  5
2F5
100
AcDbEntity
  8
0
100
AcDbLine
 62
250
  6
CONTINUOUS
 10
54.6833932067
 20
9.7609174016
 30
0.0
 11
54.6833932067
 21
10.6934906474
 31
0.0
  0
LINE
  5
2F6
100
AcDbEntity
  8
0
100
AcDbLine
 62
250
  6
CONTINUOUS
 10
54.6833932067
 20
55.362318752
 30
0.0
 11
54.6833932067
 21
56.2948919978
 31
0.0
  0
LINE
  5
2F7
100
AcDbEntity
  8
0
100
AcDbLine
 62
7
  6
CONTINUOUS
 10
54.6906739556
 20
8.777900469
 30
0.0
 11
54.6906739556
 21
10.6279046997
 31
0.0
  0
LINE
  5
2F8
100
AcDbEntity
  8
0
100
AcDbLine
 62
7
  6
CONTINUOUS
 10
54.6906739556
 20
55.4279046997
 30
0.0
 11
54.6906739556
 21
57.2779089305
 31
0.0
  0
LINE
  5
2F9
100
AcDbEntity
  8
0
100
AcDbLine
 62
250
  6
CONTINUOUS
 10
52.0486777025
 20
56.1505544305
 30
0.0
 11
52.0537683035
 21
56.6557359161
 31
0.0
  0
LINE
  5
2FA
100
AcDbEntity
  8
0
100
AcDbLine
 62
250
  6
CONTINUOUS
 10
54.4326702088
 20
9.9052549689
 30
0.0
 11
54.4275796077
 21
9.4000734834
 31
0.0
  0
LINE
  5
2FB
100
AcDbEntity
  8
0
100
AcDbLine
 62
7
  6
CONTINUOUS
 10
54.6906739556
 20
55.4279046997
 30
0.0
 11
54.6833932067
 21
55.362318752
 31
0.0
  0
LINE
  5
2FC
100
AcDbEntity
  8
0
100
AcDbLine
 62
7
  6
CONTINUOUS
 10
51.7906739556
 20
10.6279046997
 30
0.0
 11
51.7979547045
 21
10.6934906474
 31
0.0
  0
LINE
  5
2FD
100
AcDbEntity
  8
0
100
AcDbLine
 62
7
  6
CONTINUOUS
 10
54.6906739556
 20
10.6279046997
 30
0.0
 11
54.6833932067
 21
10.6934906474
 31
0.0
  0
LINE
  5
2FE
100
AcDbEntity
  8
0
100
AcDbLine
 62
7
  6
CONTINUOUS
 10
51.7906739556
 20
55.4279046997
 30
0.0
 11
51.7979547045
 21
55.362318752
 31
0.0
  0
LINE
  5
2FF
100
AcDbEntity
  8
0
100
AcDbLine
 62
250
  6
CONTINUOUS
 10
54.6775753769
 20
56.872242267
 30
0.0
 11
54.6833932067
 21
56.2948919978
 31
0.0
  0
LINE
  5
300
100
AcDbEntity
  8
0
100
AcDbLine
 62
250
  6
CONTINUOUS
 10
54.6833932067
 20
9.7609174016
 30
0.0
 11
54.6775753769
 21
9.1835671324
 31
0.0
  0
LINE
  5
301
100
AcDbEntity
  8
0
100
AcDbLine
 62
250
  6
CONTINUOUS
 10
82.0275796077
 20
57.514806121
 30
0.0
 11
82.0406781864
 21
57.5279046997
 31
0.0
  0
LINE
  5
302
100
AcDbEntity
  8
0
100
AcDbLine
 62
250
  6
CONTINUOUS
 10
82.2775753769
 20
57.2648103518
 30
0.0
 11
82.2906739556
 21
57.2779089305
 31
0.0
  0
LINE
  5
303
100
AcDbEntity
  8
0
100
AcDbLine
 62
250
  6
CONTINUOUS
 10
34.4037725343
 20
8.7909990477
 30
0.0
 11
34.3906739556
 21
8.777900469
 31
0.0
  0
LINE
  5
304
100
AcDbEntity
  8
0
100
AcDbLine
 62
250
  6
CONTINUOUS
 10
82.0275796077
 20
8.5410032785
 30
0.0
 11
82.0406781864
 21
8.5279046997
 31
0.0
  0
LINE
  5
305
100
AcDbEntity
  8
0
100
AcDbLine
 62
250
  6
CONTINUOUS
 10
82.2775753769
 20
8.7909990477
 30
0.0
 11
82.2906739556
 21
8.777900469
 31
0.0
  0
LINE
  5
306
100
AcDbEntity
  8
0
100
AcDbLine
 62
250
  6
CONTINUOUS
 10
34.4037725343
 20
57.2648103518
 30
0.0
 11
34.3906739556
 21
57.2779089305
 31
0.0
  0
LINE
  5
307
100
AcDbEntity
  8
0
100
AcDbLine
 62
250
  6
CONTINUOUS
 10
34.6537683035
 20
8.5410032785
 30
0.0
 11
34.6406697248
 21
8.5279046997
 31
0.0
  0
LWPOLYLINE
  5
308
100
AcDbEntity
  8
0
100
AcDbPolyline
 62
7
  6
CONTINUOUS
 90
2
 70
0
 43
0.3500000006
 10
114.7890679321
 20
29.635049057
 10
113.2890674744
 20
29.635049057
  0
LINE
  5
309
100
AcDbEntity
  8
0
100
AcDbLine
 62
250
  6
CONTINUOUS
 10
34.6537683035
 20
57.514806121
 30
0.0
 11
34.6406697248
 21
57.5279046997
 31
0.0
  0
LINE
  5
30A
100
AcDbEntity
  8
0
100
AcDbLine
 62
7
  6
CONTINUOUS
 10
66.0615080356
 20
20.0280245575
 30
0.0
 11
66.0615027577
 21
23.0279399647
 31
0.0
  0
LINE
  5
30B
100
AcDbEntity
  8
DRAFT
100
AcDbLine
 62
7
  6
CONTINUOUS
 10
66.0615079332
 20
20.0280245574
 30
0.0
 11
66.0615027577
 21
23.0279399647
 31
0.0
  0
LWPOLYLINE
  5
30C
100
AcDbEntity
  8
0
100
AcDbPolyline
 62
7
  6
CONTINUOUS
 90
4
 70
0
 43
0.3500000006
 10
67.040675766
 20
73.2295470886
 10
67.040675766
 20
73.8724096069
 10
68.5406716919
 20
73.8724096069
 10
67.6835292206
 20
70.8724086914
  0
LINE
  5
30D
100
AcDbEntity
  8
0
100
AcDbLine
 62
7
  6
CONTINUOUS
 10
40.0994007003
 20
9.0366314445
 30
0.0
 11
40.0906739556
 21
9.0279046997
 31
0.0
  0
LWPOLYLINE
  5
30E
100
AcDbEntity
  8
0
100
AcDbPolyline
 62
7
  6
CONTINUOUS
 90
2
 70
0
 43
0.3500000006
 10
114.7890679321
 20
31.9921919861
 10
113.2890674744
 20
31.9921919861
  0
LINE
  5
30F
100
AcDbEntity
  8
DRAFT
100
AcDbLine
 62
7
  6
CONTINUOUS
 10
100.6357184606
 20
33.0279046997
 30
0.0
 11
100.5406739556
 21
33.0279046997
 31
0.0
  0
LINE
  5
310
100
AcDbEntity
  8
0
100
AcDbLine
 62
7
  6
CONTINUOUS
 10
100.6357184606
 20
33.0279046997
 30
0.0
 11
100.5406739556
 21
33.0279046997
 31
0.0
  0
LINE
  5
311
100
AcDbEntity
  8
DRAFT
100
AcDbLine
 62
7
  6
CONTINUOUS
 10
33.5406739556
 20
33.0279046997
 30
0.0
 11
33.4456294506
 21
33.0279046997
 31
0.0
  0
LINE
  5
312
100
AcDbEntity
  8
0
100
AcDbLine
 62
7
  6
CONTINUOUS
 10
33.5406739556
 20
33.0279046997
 30
0.0
 11
33.4456294506
 21
33.0279046997
 31
0.0
  0
LINE
  5
313
100
AcDbEntity
  8
0
100
AcDbLine
 62
7
  6
CONTINUOUS
 10
40.0906739556
 20
57.0279046997
 30
0.0
 11
40.0994007003
 21
57.019177955
 31
0.0
  0
LINE
  5
314
100
AcDbEntity
  8
DRAFT
100
AcDbLine
 62
7
  6
CONTINUOUS
 10
68.0198451787
 20
23.0279443033
 30
0.0
 11
68.0198398756
 21
20.0279833759
 31
0.0
  0
LINE
  5
315
100
AcDbEntity
  8
0
100
AcDbLine
 62
7
  6
CONTINUOUS
 10
68.0198451535
 20
23.0279443033
 30
0.0
 11
68.0198398756
 21
20.0279833759
 31
0.0
  0
LINE
  5
316
100
AcDbEntity
  8
0
100
AcDbLine
 62
7
  6
CONTINUOUS
 10
93.9906739556
 20
57.0279046997
 30
0.0
 11
93.9819472109
 21
57.019177955
 31
0.0
  0
LINE
  5
317
100
AcDbEntity
  8
0
100
AcDbLine
 62
7
  6
CONTINUOUS
 10
93.9906739556
 20
9.0279046997
 30
0.0
 11
93.9819472109
 21
9.0366314445
 31
0.0
  0
LINE
  5
318
100
AcDbEntity
  8
0
100
AcDbLine
 62
250
  6
CONTINUOUS
 10
99.4275796077
 20
57.514806121
 30
0.0
 11
99.4406781864
 21
57.5279046997
 31
0.0
  0
LINE
  5
319
100
AcDbEntity
  8
0
100
AcDbLine
 62
250
  6
CONTINUOUS
 10
99.6775753769
 20
57.2648103518
 30
0.0
 11
99.6906739556
 21
57.2779089305
 31
0.0
  0
LINE
  5
31A
100
AcDbEntity
  8
0
100
AcDbLine
 62
250
  6
CONTINUOUS
 10
51.8037725343
 20
8.7909990477
 30
0.0
 11
51.7906739556
 21
8.777900469
 31
0.0
  0
LINE
  5
31B
100
AcDbEntity
  8
0
100
AcDbLine
 62
250
  6
CONTINUOUS
 10
99.4275796077
 20
8.5410032785
 30
0.0
 11
99.4406781864
 21
8.5279046997
 31
0.0
  0
LINE
  5
31C
100
AcDbEntity
  8
0
100
AcDbLine
 62
250
  6
CONTINUOUS
 10
99.6775753769
 20
8.7909990477
 30
0.0
 11
99.6906739556
 21
8.777900469
 31
0.0
  0
LINE
  5
31D
100
AcDbEntity
  8
0
100
AcDbLine
 62
250
  6
CONTINUOUS
 10
51.8037725343
 20
57.2648103518
 30
0.0
 11
51.7906739556
 21
57.2779089305
 31
0.0
  0
LINE
  5
31E
100
AcDbEntity
  8
0
100
AcDbLine
 62
250
  6
CONTINUOUS
 10
52.0537683035
 20
8.5410032785
 30
0.0
 11
52.0406697248
 21
8.5279046997
 31
0.0
  0
LINE
  5
31F
100
AcDbEntity
  8
0
100
AcDbLine
 62
250
  6
CONTINUOUS
 10
52.0537683035
 20
57.514806121
 30
0.0
 11
52.0406697248
 21
57.5279046997
 31
0.0
  0
LINE
  5
320
100
AcDbEntity
  8
0
100
AcDbLine
 62
250
  6
CONTINUOUS
 10
79.4037725343
 20
9.1835671324
 30
0.0
 11
79.3979547045
 21
9.7609174016
 31
0.0
  0
LINE
  5
321
100
AcDbEntity
  8
0
100
AcDbLine
 62
250
  6
CONTINUOUS
 10
79.6537683035
 20
9.4000734834
 30
0.0
 11
79.6486777025
 21
9.9052549689
 31
0.0
  0
LINE
  5
322
100
AcDbEntity
  8
0
100
AcDbLine
 62
7
  6
CONTINUOUS
 10
79.3906739556
 20
8.777900469
 30
0.0
 11
79.3906739556
 21
10.6279046997
 31
0.0
  0
LINE
  5
323
100
AcDbEntity
  8
0
100
AcDbLine
 62
7
  6
CONTINUOUS
 10
79.3906739556
 20
55.4279046997
 30
0.0
 11
79.3906739556
 21
57.2779089305
 31
0.0
  0
LINE
  5
324
100
AcDbEntity
  8
0
100
AcDbLine
 62
250
  6
CONTINUOUS
 10
79.3979547045
 20
56.2948919978
 30
0.0
 11
79.3979547045
 21
55.362318752
 31
0.0
  0
LINE
  5
325
100
AcDbEntity
  8
0
100
AcDbLine
 62
250
  6
CONTINUOUS
 10
79.3979547045
 20
10.6934906474
 30
0.0
 11
79.3979547045
 21
9.7609174016
 31
0.0
  0
LINE
  5
326
100
AcDbEntity
  8
0
100
AcDbLine
 62
250
  6
CONTINUOUS
 10
79.4037725343
 20
57.2648103518
 30
0.0
 11
79.4037725343
 21
56.872242267
 31
0.0
  0
LINE
  5
327
100
AcDbEntity
  8
0
100
AcDbLine
 62
250
  6
CONTINUOUS
 10
79.4037725343
 20
9.1835671324
 30
0.0
 11
79.4037725343
 21
8.7909990477
 31
0.0
  0
LINE
  5
328
100
AcDbEntity
  8
0
100
AcDbLine
 62
250
  6
CONTINUOUS
 10
79.6479504737
 20
56.1505544305
 30
0.0
 11
79.6479504737
 21
55.3492930308
 31
0.0
  0
LINE
  5
329
100
AcDbEntity
  8
0
100
AcDbLine
 62
250
  6
CONTINUOUS
 10
79.6479504737
 20
10.7065163687
 30
0.0
 11
79.6479504737
 21
9.9052549689
 31
0.0
  0
LINE
  5
32A
100
AcDbEntity
  8
0
100
AcDbLine
 62
250
  6
CONTINUOUS
 10
79.6537683035
 20
8.5410032785
 30
0.0
 11
79.6537683035
 21
9.4000734834
 31
0.0
  0
LINE
  5
32B
100
AcDbEntity
  8
0
100
AcDbLine
 62
250
  6
CONTINUOUS
 10
79.6537683035
 20
56.6557359161
 30
0.0
 11
79.6537683035
 21
57.514806121
 31
0.0
  0
LINE
  5
32C
100
AcDbEntity
  8
0
100
AcDbLine
 62
250
  6
CONTINUOUS
 10
79.3979547045
 20
56.2948919978
 30
0.0
 11
79.4037725343
 21
56.872242267
 31
0.0
  0
LINE
  5
32D
100
AcDbEntity
  8
0
100
AcDbLine
 62
250
  6
CONTINUOUS
 10
79.6486777025
 20
56.1505544305
 30
0.0
 11
79.6537683035
 21
56.6557359161
 31
0.0
  0
LINE
  5
32E
100
AcDbEntity
  8
0
100
AcDbLine
 62
7
  6
CONTINUOUS
 10
82.2906739556
 20
55.4279046997
 30
0.0
 11
82.2833932067
 21
55.362318752
 31
0.0
  0
LINE
  5
32F
100
AcDbEntity
  8
0
100
AcDbLine
 62
7
  6
CONTINUOUS
 10
82.2906739556
 20
10.6279046997
 30
0.0
 11
82.2833932067
 21
10.6934906474
 31
0.0
  0
LINE
  5
330
100
AcDbEntity
  8
0
100
AcDbLine
 62
250
  6
CONTINUOUS
 10
82.0275796077
 20
56.6557359161
 30
0.0
 11
82.0326702088
 21
56.1505544305
 31
0.0
  0
LINE
  5
331
100
AcDbEntity
  8
0
100
AcDbLine
 62
250
  6
CONTINUOUS
 10
82.2775753769
 20
56.872242267
 30
0.0
 11
82.2833932067
 21
56.2948919978
 31
0.0
  0
LINE
  5
332
100
AcDbEntity
  8
0
100
AcDbLine
 62
250
  6
CONTINUOUS
 10
82.0275796077
 20
8.5410032785
 30
0.0
 11
82.0275796077
 21
9.4000734834
 31
0.0
  0
LINE
  5
333
100
AcDbEntity
  8
0
100
AcDbLine
 62
250
  6
CONTINUOUS
 10
82.0275796077
 20
56.6557359161
 30
0.0
 11
82.0275796077
 21
57.514806121
 31
0.0
  0
LINE
  5
334
100
AcDbEntity
  8
0
100
AcDbLine
 62
250
  6
CONTINUOUS
 10
82.0333974375
 20
9.9052549689
 30
0.0
 11
82.0333974375
 21
10.7065163687
 31
0.0
  0
LINE
  5
335
100
AcDbEntity
  8
0
100
AcDbLine
 62
250
  6
CONTINUOUS
 10
82.0333974375
 20
55.3492930308
 30
0.0
 11
82.0333974375
 21
56.1505544305
 31
0.0
  0
LINE
  5
336
100
AcDbEntity
  8
0
100
AcDbLine
 62
250
  6
CONTINUOUS
 10
82.2775753769
 20
8.7909990477
 30
0.0
 11
82.2775753769
 21
9.1835671324
 31
0.0
  0
LINE
  5
337
100
AcDbEntity
  8
0
100
AcDbLine
 62
250
  6
CONTINUOUS
 10
82.2775753769
 20
56.872242267
 30
0.0
 11
82.2775753769
 21
57.2648103518
 31
0.0
  0
LINE
  5
338
100
AcDbEntity
  8
0
100
AcDbLine
 62
250
  6
CONTINUOUS
 10
82.2833932067
 20
9.7609174016
 30
0.0
 11
82.2833932067
 21
10.6934906474
 31
0.0
  0
LINE
  5
339
100
AcDbEntity
  8
0
100
AcDbLine
 62
250
  6
CONTINUOUS
 10
82.2833932067
 20
55.362318752
 30
0.0
 11
82.2833932067
 21
56.2948919978
 31
0.0
  0
LINE
  5
33A
100
AcDbEntity
  8
0
100
AcDbLine
 62
7
  6
CONTINUOUS
 10
82.2906739556
 20
8.777900469
 30
0.0
 11
82.2906739556
 21
10.6279046997
 31
0.0
  0
LINE
  5
33B
100
AcDbEntity
  8
0
100
AcDbLine
 62
7
  6
CONTINUOUS
 10
82.2906739556
 20
55.4279046997
 30
0.0
 11
82.2906739556
 21
57.2779089305
 31
0.0
  0
LINE
  5
33C
100
AcDbEntity
  8
0
100
AcDbLine
 62
250
  6
CONTINUOUS
 10
82.0326702088
 20
9.9052549689
 30
0.0
 11
82.0275796077
 21
9.4000734834
 31
0.0
  0
LINE
  5
33D
100
AcDbEntity
  8
0
100
AcDbLine
 62
250
  6
CONTINUOUS
 10
82.2833932067
 20
9.7609174016
 30
0.0
 11
82.2775753769
 21
9.1835671324
 31
0.0
  0
LINE
  5
33E
100
AcDbEntity
  8
0
100
AcDbLine
 62
7
  6
CONTINUOUS
 10
79.3906739556
 20
10.6279046997
 30
0.0
 11
79.3979547045
 21
10.6934906474
 31
0.0
  0
LWPOLYLINE
  5
33F
100
AcDbEntity
  8
0
100
AcDbPolyline
 62
7
  6
CONTINUOUS
 90
3
 70
0
 43
0.3500000006
 10
114.5033522644
 20
34.0636192474
 10
114.717645813
 20
33.9921925964
 10
115.003352417
 20
33.8493347626
  0
LINE
  5
340
100
AcDbEntity
  8
0
100
AcDbLine
 62
7
  6
CONTINUOUS
 10
79.3906739556
 20
55.4279046997
 30
0.0
 11
79.3979547045
 21
55.362318752
 31
0.0
  0
LINE
  5
341
100
AcDbEntity
  8
0
100
AcDbLine
 62
7
  6
CONTINUOUS
 10
85.0906739556
 20
9.0279046997
 30
0.0
 11
85.0906739556
 21
10.6279046997
 31
0.0
  0
LINE
  5
342
100
AcDbEntity
  8
0
100
AcDbLine
 62
7
  6
CONTINUOUS
 10
85.0906739556
 20
55.4279046997
 30
0.0
 11
85.0906739556
 21
57.0279046997
 31
0.0
  0
LINE
  5
343
100
AcDbEntity
  8
0
100
AcDbLine
 62
7
  6
CONTINUOUS
 10
85.0994007003
 20
57.019177955
 30
0.0
 11
85.0994007003
 21
55.3492930308
 31
0.0
  0
LINE
  5
344
100
AcDbEntity
  8
0
100
AcDbLine
 62
7
  6
CONTINUOUS
 10
85.0994007003
 20
10.7065163687
 30
0.0
 11
85.0994007003
 21
9.0366314445
 31
0.0
  0
LINE
  5
345
100
AcDbEntity
  8
0
100
AcDbLine
 62
7
  6
CONTINUOUS
 10
86.0406739556
 20
9.029656818
 30
0.0
 11
86.0406739556
 21
10.7065163687
 31
0.0
  0
LINE
  5
346
100
AcDbEntity
  8
0
100
AcDbLine
 62
7
  6
CONTINUOUS
 10
86.0406739556
 20
55.3492930308
 30
0.0
 11
86.0406739556
 21
57.0261525815
 31
0.0
  0
LINE
  5
347
100
AcDbEntity
  8
0
100
AcDbLine
 62
250
  6
CONTINUOUS
 10
78.8911661091
 20
10.6279046997
 30
0.0
 11
78.9173487065
 21
10.7065163687
 31
0.0
  0
LINE
  5
348
100
AcDbEntity
  8
RACCORDO
100
AcDbLine
 62
7
  6
CONTINUOUS
 10
33.4177293063
 20
49.6279046997
 30
0.0
 11
33.5406739556
 21
49.6279046997
 31
0.0
  0
LINE
  5
349
100
AcDbEntity
  8
0
100
AcDbLine
 62
7
  6
CONTINUOUS
 10
33.4177293063
 20
49.6279046997
 30
0.0
 11
33.5406739556
 21
49.6279046997
 31
0.0
  0
LINE
  5
34A
100
AcDbEntity
  8
RACCORDO
100
AcDbLine
 62
7
  6
CONTINUOUS
 10
100.5406739556
 20
49.6279046997
 30
0.0
 11
100.663618605
 21
49.6279046997
 31
0.0
  0
LINE
  5
34B
100
AcDbEntity
  8
0
100
AcDbLine
 62
7
  6
CONTINUOUS
 10
100.5406739556
 20
49.6279046997
 30
0.0
 11
100.663618605
 21
49.6279046997
 31
0.0
  0
LINE
  5
34C
100
AcDbEntity
  8
0
100
AcDbLine
 62
250
  6
CONTINUOUS
 10
78.9173487065
 20
55.3492930308
 30
0.0
 11
78.8911661091
 21
55.4279046997
 31
0.0
  0
LINE
  5
34D
100
AcDbEntity
  8
0
100
AcDbLine
 62
250
  6
CONTINUOUS
 10
88.3406739556
 20
9.0279046997
 30
0.0
 11
88.3406739556
 21
10.6541085894
 31
0.0
  0
LINE
  5
34E
100
AcDbEntity
  8
0
100
AcDbLine
 62
250
  6
CONTINUOUS
 10
88.3406739556
 20
55.4017008101
 30
0.0
 11
88.3406739556
 21
57.0279046997
 31
0.0
  0
LINE
  5
34F
100
AcDbEntity
  8
0
100
AcDbLine
 62
7
  6
CONTINUOUS
 10
88.5406739556
 20
9.2279080844
 30
0.0
 11
88.5406739556
 21
10.6436270335
 31
0.0
  0
LINE
  5
350
100
AcDbEntity
  8
0
100
AcDbLine
 62
7
  6
CONTINUOUS
 10
88.5406739556
 20
55.412182366
 30
0.0
 11
88.5406739556
 21
56.8279013151
 31
0.0
  0
LINE
  5
351
100
AcDbEntity
  8
0
100
AcDbLine
 62
7
  6
CONTINUOUS
 10
85.0906739556
 20
10.6279046997
 30
0.0
 11
85.0994007003
 21
10.7065163687
 31
0.0
  0
LINE
  5
352
100
AcDbEntity
  8
RACCORDO
100
AcDbLine
 62
250
  6
CONTINUOUS
 10
99.9195097875
 20
54.8843817064
 30
0.0
 11
100.041187792
 21
55.1279046997
 31
0.0
  0
LINE
  5
353
100
AcDbEntity
  8
RACCORDO
100
AcDbLine
 62
250
  6
CONTINUOUS
 10
100.4193384497
 20
54.3850669385
 30
0.0
 11
100.5406739556
 21
54.6279044646
 31
0.0
  0
LWPOLYLINE
  5
354
100
AcDbEntity
  8
0
100
AcDbPolyline
 62
7
  6
CONTINUOUS
 90
10
 70
0
 43
0.3500000006
 10
114.2890677795
 20
33.9921925964
 10
114.4319301453
 20
34.0636192474
 10
114.5033522644
 20
34.0636192474
 10
114.6462146301
 20
33.9207614136
 10
114.6462146301
 20
33.8493347626
 10
114.5747834473
 20
33.7779035797
 10
114.5033522644
 20
33.7779035797
 10
114.3604989624
 20
33.8493347626
 10
114.2890677795
 20
33.9207614136
 10
114.2890677795
 20
33.9921925964
  0
LINE
  5
355
100
AcDbEntity
  8
RACCORDO
100
AcDbLine
 62
7
  6
CONTINUOUS
 10
34.0401601192
 20
55.1279046997
 30
0.0
 11
100.041187792
 21
55.1279046997
 31
0.0
  0
LINE
  5
356
100
AcDbEntity
  8
0
100
AcDbLine
 62
7
  6
CONTINUOUS
 10
100.1639992047
 20
55.3492930308
 30
0.0
 11
99.4333974375
 21
55.3492930308
 31
0.0
  0
LINE
  5
357
100
AcDbEntity
  8
0
100
AcDbLine
 62
7
  6
CONTINUOUS
 10
97.0479504737
 20
55.3492930308
 30
0.0
 11
93.9819472109
 21
55.3492930308
 31
0.0
  0
LINE
  5
358
100
AcDbEntity
  8
0
100
AcDbLine
 62
7
  6
CONTINUOUS
 10
93.0406739556
 20
55.3492930308
 30
0.0
 11
86.0406739556
 21
55.3492930308
 31
0.0
  0
LINE
  5
359
100
AcDbEntity
  8
0
100
AcDbLine
 62
7
  6
CONTINUOUS
 10
85.0994007003
 20
55.3492930308
 30
0.0
 11
82.0333974375
 21
55.3492930308
 31
0.0
  0
LINE
  5
35A
100
AcDbEntity
  8
0
100
AcDbLine
 62
7
  6
CONTINUOUS
 10
79.6479504737
 20
55.3492930308
 30
0.0
 11
78.9173487065
 21
55.3492930308
 31
0.0
  0
LINE
  5
35B
100
AcDbEntity
  8
0
100
AcDbLine
 62
7
  6
CONTINUOUS
 10
55.1639992047
 20
55.3492930308
 30
0.0
 11
54.4333974375
 21
55.3492930308
 31
0.0
  0
LINE
  5
35C
100
AcDbEntity
  8
0
100
AcDbLine
 62
7
  6
CONTINUOUS
 10
52.0479504737
 20
55.3492930308
 30
0.0
 11
48.9819472109
 21
55.3492930308
 31
0.0
  0
LINE
  5
35D
100
AcDbEntity
  8
0
100
AcDbLine
 62
7
  6
CONTINUOUS
 10
48.0406739556
 20
55.3492930308
 30
0.0
 11
41.0406739556
 21
55.3492930308
 31
0.0
  0
LINE
  5
35E
100
AcDbEntity
  8
0
100
AcDbLine
 62
7
  6
CONTINUOUS
 10
40.0994007003
 20
55.3492930308
 30
0.0
 11
37.0333974375
 21
55.3492930308
 31
0.0
  0
LINE
  5
35F
100
AcDbEntity
  8
0
100
AcDbLine
 62
7
  6
CONTINUOUS
 10
34.6479504737
 20
55.3492930308
 30
0.0
 11
33.9173487065
 21
55.3492930308
 31
0.0
  0
LINE
  5
360
100
AcDbEntity
  8
0
100
AcDbLine
 62
7
  6
CONTINUOUS
 10
93.0406739556
 20
55.4017008101
 30
0.0
 11
90.7406739556
 21
55.4017008101
 31
0.0
  0
LINE
  5
361
100
AcDbEntity
  8
0
100
AcDbLine
 62
7
  6
CONTINUOUS
 10
88.3406739556
 20
55.4017008101
 30
0.0
 11
86.0406739556
 21
55.4017008101
 31
0.0
  0
LINE
  5
362
100
AcDbEntity
  8
0
100
AcDbLine
 62
7
  6
CONTINUOUS
 10
48.0406739556
 20
55.4017008101
 30
0.0
 11
45.7406739556
 21
55.4017008101
 31
0.0
  0
LINE
  5
363
100
AcDbEntity
  8
0
100
AcDbLine
 62
7
  6
CONTINUOUS
 10
43.3406739556
 20
55.4017008101
 30
0.0
 11
41.0406739556
 21
55.4017008101
 31
0.0
  0
LINE
  5
364
100
AcDbEntity
  8
RACCORDO
100
AcDbLine
 62
250
  6
CONTINUOUS
 10
100.041187792
 20
10.9279046997
 30
0.0
 11
99.9195097875
 21
11.171427693
 31
0.0
  0
LINE
  5
365
100
AcDbEntity
  8
RACCORDO
100
AcDbLine
 62
250
  6
CONTINUOUS
 10
100.5406739556
 20
11.4279049349
 30
0.0
 11
100.41933845
 21
11.6707424603
 31
0.0
  0
LINE
  5
366
100
AcDbEntity
  8
0
100
AcDbLine
 62
7
  6
CONTINUOUS
 10
85.0994007003
 20
55.3492930308
 30
0.0
 11
85.0906739556
 21
55.4279046997
 31
0.0
  0
LINE
  5
367
100
AcDbEntity
  8
0
100
AcDbLine
 62
7
  6
CONTINUOUS
 10
90.5406739556
 20
56.8279013151
 30
0.0
 11
90.5406739556
 21
55.412182366
 31
0.0
  0
LINE
  5
368
100
AcDbEntity
  8
0
100
AcDbLine
 62
7
  6
CONTINUOUS
 10
90.5406739556
 20
10.6436270335
 30
0.0
 11
90.5406739556
 21
9.2279080844
 31
0.0
  0
LINE
  5
369
100
AcDbEntity
  8
0
100
AcDbLine
 62
250
  6
CONTINUOUS
 10
90.7406739556
 20
10.6541085894
 30
0.0
 11
90.7406739556
 21
9.0279046997
 31
0.0
  0
LINE
  5
36A
100
AcDbEntity
  8
0
100
AcDbLine
 62
250
  6
CONTINUOUS
 10
90.7406739556
 20
55.4017008101
 30
0.0
 11
90.7406739556
 21
57.0279046997
 31
0.0
  0
LINE
  5
36B
100
AcDbEntity
  8
0
100
AcDbLine
 62
7
  6
CONTINUOUS
 10
93.9906739556
 20
55.4279046997
 30
0.0
 11
93.9819472109
 21
55.3492930308
 31
0.0
  0
LINE
  5
36C
100
AcDbEntity
  8
0
100
AcDbLine
 62
250
  6
CONTINUOUS
 10
100.1901818021
 20
55.4279046997
 30
0.0
 11
100.1639992047
 21
55.3492930308
 31
0.0
  0
LINE
  5
36D
100
AcDbEntity
  8
0
100
AcDbLine
 62
250
  6
CONTINUOUS
 10
100.6898012024
 20
54.9276758477
 30
0.0
 11
100.663618605
 21
54.8490641787
 31
0.0
  0
LINE
  5
36E
100
AcDbEntity
  8
0
100
AcDbLine
 62
7
  6
CONTINUOUS
 10
100.1911166451
 20
55.4279046997
 30
0.0
 11
99.6906739556
 21
55.4279046997
 31
0.0
  0
LINE
  5
36F
100
AcDbEntity
  8
0
100
AcDbLine
 62
7
  6
CONTINUOUS
 10
96.7906739556
 20
55.4279046997
 30
0.0
 11
93.9906739556
 21
55.4279046997
 31
0.0
  0
LINE
  5
370
100
AcDbEntity
  8
0
100
AcDbLine
 62
7
  6
CONTINUOUS
 10
85.0906739556
 20
55.4279046997
 30
0.0
 11
82.2906739556
 21
55.4279046997
 31
0.0
  0
LINE
  5
371
100
AcDbEntity
  8
0
100
AcDbLine
 62
7
  6
CONTINUOUS
 10
79.3906739556
 20
55.4279046997
 30
0.0
 11
78.8902312661
 21
55.4279046997
 31
0.0
  0
LINE
  5
372
100
AcDbEntity
  8
0
100
AcDbLine
 62
7
  6
CONTINUOUS
 10
55.1911166451
 20
55.4279046997
 30
0.0
 11
54.6906739556
 21
55.4279046997
 31
0.0
  0
LINE
  5
373
100
AcDbEntity
  8
0
100
AcDbLine
 62
7
  6
CONTINUOUS
 10
51.7906739556
 20
55.4279046997
 30
0.0
 11
48.9906739556
 21
55.4279046997
 31
0.0
  0
LINE
  5
374
100
AcDbEntity
  8
0
100
AcDbLine
 62
7
  6
CONTINUOUS
 10
40.0906739556
 20
55.4279046997
 30
0.0
 11
37.2906739556
 21
55.4279046997
 31
0.0
  0
LINE
  5
375
100
AcDbEntity
  8
0
100
AcDbLine
 62
7
  6
CONTINUOUS
 10
34.3906739556
 20
55.4279046997
 30
0.0
 11
33.8902312661
 21
55.4279046997
 31
0.0
  0
LINE
  5
376
100
AcDbEntity
  8
0
100
AcDbLine
 62
7
  6
CONTINUOUS
 10
43.5406739556
 20
55.4279046997
 30
0.0
 11
45.5406739556
 21
55.4279046997
 31
0.0
  0
LINE
  5
377
100
AcDbEntity
  8
0
100
AcDbLine
 62
7
  6
CONTINUOUS
 10
88.5406739556
 20
55.4279046997
 30
0.0
 11
90.5406739556
 21
55.4279046997
 31
0.0
  0
LINE
  5
378
100
AcDbEntity
  8
0
100
AcDbLine
 62
7
  6
CONTINUOUS
 10
99.4333974375
 20
56.1505544305
 30
0.0
 11
97.0479504737
 21
56.1505544305
 31
0.0
  0
LINE
  5
379
100
AcDbEntity
  8
0
100
AcDbLine
 62
7
  6
CONTINUOUS
 10
54.4333974375
 20
56.1505544305
 30
0.0
 11
52.0479504737
 21
56.1505544305
 31
0.0
  0
LINE
  5
37A
100
AcDbEntity
  8
0
100
AcDbLine
 62
7
  6
CONTINUOUS
 10
34.6479504737
 20
56.1505544305
 30
0.0
 11
37.0333974375
 21
56.1505544305
 31
0.0
  0
LINE
  5
37B
100
AcDbEntity
  8
0
100
AcDbLine
 62
7
  6
CONTINUOUS
 10
79.6479504737
 20
56.1505544305
 30
0.0
 11
82.0333974375
 21
56.1505544305
 31
0.0
  0
LINE
  5
37C
100
AcDbEntity
  8
0
100
AcDbLine
 62
250
  6
CONTINUOUS
 10
34.6537683035
 20
56.6557359161
 30
0.0
 11
37.0275796077
 21
56.6557359161
 31
0.0
  0
LINE
  5
37D
100
AcDbEntity
  8
0
100
AcDbLine
 62
250
  6
CONTINUOUS
 10
52.0537683035
 20
56.6557359161
 30
0.0
 11
54.4275796077
 21
56.6557359161
 31
0.0
  0
LINE
  5
37E
100
AcDbEntity
  8
0
100
AcDbLine
 62
250
  6
CONTINUOUS
 10
79.6537683035
 20
56.6557359161
 30
0.0
 11
82.0275796077
 21
56.6557359161
 31
0.0
  0
LINE
  5
37F
100
AcDbEntity
  8
0
100
AcDbLine
 62
250
  6
CONTINUOUS
 10
97.0537683035
 20
56.6557359161
 30
0.0
 11
99.4275796077
 21
56.6557359161
 31
0.0
  0
LINE
  5
380
100
AcDbEntity
  8
0
100
AcDbLine
 62
250
  6
CONTINUOUS
 10
93.0406739556
 20
56.8261559661
 30
0.0
 11
90.540863995
 21
56.8261559661
 31
0.0
  0
LINE
  5
381
100
AcDbEntity
  8
0
100
AcDbLine
 62
250
  6
CONTINUOUS
 10
48.0406739556
 20
56.8261559661
 30
0.0
 11
45.540863995
 21
56.8261559661
 31
0.0
  0
LINE
  5
382
100
AcDbEntity
  8
0
100
AcDbLine
 62
250
  6
CONTINUOUS
 10
41.0406739556
 20
56.8261559661
 30
0.0
 11
43.5406739556
 21
56.8261559661
 31
0.0
  0
LINE
  5
383
100
AcDbEntity
  8
0
100
AcDbLine
 62
250
  6
CONTINUOUS
 10
86.0406739556
 20
56.8261559661
 30
0.0
 11
88.5406739556
 21
56.8261559661
 31
0.0
  0
LINE
  5
384
100
AcDbEntity
  8
0
100
AcDbLine
 62
250
  6
CONTINUOUS
 10
34.4037725343
 20
56.872242267
 30
0.0
 11
37.2775753769
 21
56.872242267
 31
0.0
  0
LINE
  5
385
100
AcDbEntity
  8
0
100
AcDbLine
 62
250
  6
CONTINUOUS
 10
51.8037725343
 20
56.872242267
 30
0.0
 11
54.6775753769
 21
56.872242267
 31
0.0
  0
LINE
  5
386
100
AcDbEntity
  8
0
100
AcDbLine
 62
250
  6
CONTINUOUS
 10
79.4037725343
 20
56.872242267
 30
0.0
 11
82.2775753769
 21
56.872242267
 31
0.0
  0
LINE
  5
387
100
AcDbEntity
  8
0
100
AcDbLine
 62
250
  6
CONTINUOUS
 10
96.8037725343
 20
56.872242267
 30
0.0
 11
99.6775753769
 21
56.872242267
 31
0.0
  0
LINE
  5
388
100
AcDbEntity
  8
0
100
AcDbLine
 62
7
  6
CONTINUOUS
 10
40.0994007003
 20
57.019177955
 30
0.0
 11
41.0406739556
 21
57.019177955
 31
0.0
  0
LINE
  5
389
100
AcDbEntity
  8
0
100
AcDbLine
 62
7
  6
CONTINUOUS
 10
48.0406739556
 20
57.019177955
 30
0.0
 11
48.9819472109
 21
57.019177955
 31
0.0
  0
LINE
  5
38A
100
AcDbEntity
  8
0
100
AcDbLine
 62
7
  6
CONTINUOUS
 10
85.0994007003
 20
57.019177955
 30
0.0
 11
86.0406739556
 21
57.019177955
 31
0.0
  0
LINE
  5
38B
100
AcDbEntity
  8
0
100
AcDbLine
 62
7
  6
CONTINUOUS
 10
93.0406739556
 20
57.019177955
 30
0.0
 11
93.9819472109
 21
57.019177955
 31
0.0
  0
LINE
  5
38C
100
AcDbEntity
  8
0
100
AcDbLine
 62
250
  6
CONTINUOUS
 10
93.0406739556
 20
57.0261525815
 30
0.0
 11
90.7406739556
 21
57.0261525815
 31
0.0
  0
LINE
  5
38D
100
AcDbEntity
  8
0
100
AcDbLine
 62
250
  6
CONTINUOUS
 10
88.3406739556
 20
57.0261525815
 30
0.0
 11
86.0406739556
 21
57.0261525815
 31
0.0
  0
LINE
  5
38E
100
AcDbEntity
  8
0
100
AcDbLine
 62
250
  6
CONTINUOUS
 10
48.0406739556
 20
57.0261525815
 30
0.0
 11
45.7406739556
 21
57.0261525815
 31
0.0
  0
LINE
  5
38F
100
AcDbEntity
  8
0
100
AcDbLine
 62
250
  6
CONTINUOUS
 10
43.3406739556
 20
57.0261525815
 30
0.0
 11
41.0406739556
 21
57.0261525815
 31
0.0
  0
LINE
  5
390
100
AcDbEntity
  8
0
100
AcDbLine
 62
7
  6
CONTINUOUS
 10
40.0906739556
 20
57.0279046997
 30
0.0
 11
43.3406739556
 21
57.0279046997
 31
0.0
  0
LINE
  5
391
100
AcDbEntity
  8
0
100
AcDbLine
 62
7
  6
CONTINUOUS
 10
45.7406739556
 20
57.0279046997
 30
0.0
 11
48.9906739556
 21
57.0279046997
 31
0.0
  0
LINE
  5
392
100
AcDbEntity
  8
0
100
AcDbLine
 62
7
  6
CONTINUOUS
 10
85.0906739556
 20
57.0279046997
 30
0.0
 11
88.3406739556
 21
57.0279046997
 31
0.0
  0
LINE
  5
393
100
AcDbEntity
  8
0
100
AcDbLine
 62
7
  6
CONTINUOUS
 10
90.7406739556
 20
57.0279046997
 30
0.0
 11
93.9906739556
 21
57.0279046997
 31
0.0
  0
LINE
  5
394
100
AcDbEntity
  8
0
100
AcDbLine
 62
250
  6
CONTINUOUS
 10
34.4037725343
 20
57.2648103518
 30
0.0
 11
37.2775753769
 21
57.2648103518
 31
0.0
  0
LINE
  5
395
100
AcDbEntity
  8
0
100
AcDbLine
 62
250
  6
CONTINUOUS
 10
51.8037725343
 20
57.2648103518
 30
0.0
 11
54.6775753769
 21
57.2648103518
 31
0.0
  0
LINE
  5
396
100
AcDbEntity
  8
0
100
AcDbLine
 62
250
  6
CONTINUOUS
 10
79.4037725343
 20
57.2648103518
 30
0.0
 11
82.2775753769
 21
57.2648103518
 31
0.0
  0
LINE
  5
397
100
AcDbEntity
  8
0
100
AcDbLine
 62
250
  6
CONTINUOUS
 10
96.8037725343
 20
57.2648103518
 30
0.0
 11
99.6775753769
 21
57.2648103518
 31
0.0
  0
LINE
  5
398
100
AcDbEntity
  8
0
100
AcDbLine
 62
250
  6
CONTINUOUS
 10
99.4275796077
 20
57.514806121
 30
0.0
 11
97.0537683035
 21
57.514806121
 31
0.0
  0
LINE
  5
399
100
AcDbEntity
  8
0
100
AcDbLine
 62
250
  6
CONTINUOUS
 10
82.0275796077
 20
57.514806121
 30
0.0
 11
79.6537683035
 21
57.514806121
 31
0.0
  0
LINE
  5
39A
100
AcDbEntity
  8
0
100
AcDbLine
 62
250
  6
CONTINUOUS
 10
54.4275796077
 20
57.514806121
 30
0.0
 11
52.0537683035
 21
57.514806121
 31
0.0
  0
LINE
  5
39B
100
AcDbEntity
  8
0
100
AcDbLine
 62
250
  6
CONTINUOUS
 10
37.0275796077
 20
57.514806121
 30
0.0
 11
34.6537683035
 21
57.514806121
 31
0.0
  0
LINE
  5
39C
100
AcDbEntity
  8
0
100
AcDbLine
 62
7
  6
CONTINUOUS
 10
99.4406781864
 20
57.5279046997
 30
0.0
 11
97.0406697248
 21
57.5279046997
 31
0.0
  0
LINE
  5
39D
100
AcDbEntity
  8
0
100
AcDbLine
 62
7
  6
CONTINUOUS
 10
82.0406781864
 20
57.5279046997
 30
0.0
 11
79.6406697248
 21
57.5279046997
 31
0.0
  0
LINE
  5
39E
100
AcDbEntity
  8
0
100
AcDbLine
 62
7
  6
CONTINUOUS
 10
54.4406781864
 20
57.5279046997
 30
0.0
 11
52.0406697248
 21
57.5279046997
 31
0.0
  0
LINE
  5
39F
100
AcDbEntity
  8
0
100
AcDbLine
 62
7
  6
CONTINUOUS
 10
37.0406781864
 20
57.5279046997
 30
0.0
 11
34.6406697248
 21
57.5279046997
 31
0.0
  0
LINE
  5
3A0
100
AcDbEntity
  8
0
100
AcDbLine
 62
250
  6
CONTINUOUS
 10
100.1639992047
 20
10.7065163687
 30
0.0
 11
100.1901818021
 21
10.6279046997
 31
0.0
  0
LINE
  5
3A1
100
AcDbEntity
  8
0
100
AcDbLine
 62
250
  6
CONTINUOUS
 10
100.663618605
 20
11.2067452207
 30
0.0
 11
100.6898012024
 21
11.1281335518
 31
0.0
  0
LINE
  5
3A2
100
AcDbEntity
  8
0
100
AcDbLine
 62
7
  6
CONTINUOUS
 10
93.9819472109
 20
10.7065163687
 30
0.0
 11
93.9906739556
 21
10.6279046997
 31
0.0
  0
LINE
  5
3A3
100
AcDbEntity
  8
0
100
AcDbLine
 62
7
  6
CONTINUOUS
 10
93.0406739556
 20
57.0261525815
 30
0.0
 11
93.0406739556
 21
55.3492930308
 31
0.0
  0
LINE
  5
3A4
100
AcDbEntity
  8
0
100
AcDbLine
 62
7
  6
CONTINUOUS
 10
93.0406739556
 20
10.7065163687
 30
0.0
 11
93.0406739556
 21
9.029656818
 31
0.0
  0
LINE
  5
3A5
100
AcDbEntity
  8
0
100
AcDbLine
 62
7
  6
CONTINUOUS
 10
93.9819472109
 20
9.0366314445
 30
0.0
 11
93.9819472109
 21
10.7065163687
 31
0.0
  0
LINE
  5
3A6
100
AcDbEntity
  8
0
100
AcDbLine
 62
7
  6
CONTINUOUS
 10
93.9819472109
 20
55.3492930308
 30
0.0
 11
93.9819472109
 21
57.019177955
 31
0.0
  0
LINE
  5
3A7
100
AcDbEntity
  8
0
100
AcDbLine
 62
7
  6
CONTINUOUS
 10
93.9906739556
 20
10.6279046997
 30
0.0
 11
93.9906739556
 21
9.0279046997
 31
0.0
  0
LINE
  5
3A8
100
AcDbEntity
  8
0
100
AcDbLine
 62
7
  6
CONTINUOUS
 10
93.9906739556
 20
55.4279046997
 30
0.0
 11
93.9906739556
 21
57.0279046997
 31
0.0
  0
LINE
  5
3A9
100
AcDbEntity
  8
0
100
AcDbLine
 62
250
  6
CONTINUOUS
 10
79.4037725343
 20
8.7909990477
 30
0.0
 11
79.3906739556
 21
8.777900469
 31
0.0
  0
LINE
  5
3AA
100
AcDbEntity
  8
0
100
AcDbLine
 62
250
  6
CONTINUOUS
 10
79.6537683035
 20
8.5410032785
 30
0.0
 11
79.6406697248
 21
8.5279046997
 31
0.0
  0
LINE
  5
3AB
100
AcDbEntity
  8
0
100
AcDbLine
 62
250
  6
CONTINUOUS
 10
79.4037725343
 20
57.2648103518
 30
0.0
 11
79.3906739556
 21
57.2779089305
 31
0.0
  0
LINE
  5
3AC
100
AcDbEntity
  8
0
100
AcDbLine
 62
250
  6
CONTINUOUS
 10
79.6537683035
 20
57.514806121
 30
0.0
 11
79.6406697248
 21
57.5279046997
 31
0.0
  0
LINE
  5
3AD
100
AcDbEntity
  8
0
100
AcDbLine
 62
250
  6
CONTINUOUS
 10
96.8037725343
 20
9.1835671324
 30
0.0
 11
96.7979547045
 21
9.7609174016
 31
0.0
  0
LINE
  5
3AE
100
AcDbEntity
  8
0
100
AcDbLine
 62
250
  6
CONTINUOUS
 10
97.0537683035
 20
9.4000734834
 30
0.0
 11
97.0486777025
 21
9.9052549689
 31
0.0
  0
LINE
  5
3AF
100
AcDbEntity
  8
0
100
AcDbLine
 62
7
  6
CONTINUOUS
 10
96.7906739556
 20
8.777900469
 30
0.0
 11
96.7906739556
 21
10.6279046997
 31
0.0
  0
LINE
  5
3B0
100
AcDbEntity
  8
0
100
AcDbLine
 62
7
  6
CONTINUOUS
 10
96.7906739556
 20
55.4279046997
 30
0.0
 11
96.7906739556
 21
57.2779089305
 31
0.0
  0
LINE
  5
3B1
100
AcDbEntity
  8
0
100
AcDbLine
 62
250
  6
CONTINUOUS
 10
96.7979547045
 20
56.2948919978
 30
0.0
 11
96.7979547045
 21
55.362318752
 31
0.0
  0
LINE
  5
3B2
100
AcDbEntity
  8
0
100
AcDbLine
 62
250
  6
CONTINUOUS
 10
96.7979547045
 20
10.6934906474
 30
0.0
 11
96.7979547045
 21
9.7609174016
 31
0.0
  0
LINE
  5
3B3
100
AcDbEntity
  8
0
100
AcDbLine
 62
250
  6
CONTINUOUS
 10
96.8037725343
 20
57.2648103518
 30
0.0
 11
96.8037725343
 21
56.872242267
 31
0.0
  0
LINE
  5
3B4
100
AcDbEntity
  8
0
100
AcDbLine
 62
250
  6
CONTINUOUS
 10
96.8037725343
 20
9.1835671324
 30
0.0
 11
96.8037725343
 21
8.7909990477
 31
0.0
  0
LINE
  5
3B5
100
AcDbEntity
  8
0
100
AcDbLine
 62
250
  6
CONTINUOUS
 10
97.0479504737
 20
56.1505544305
 30
0.0
 11
97.0479504737
 21
55.3492930308
 31
0.0
  0
LINE
  5
3B6
100
AcDbEntity
  8
0
100
AcDbLine
 62
250
  6
CONTINUOUS
 10
97.0479504737
 20
10.7065163687
 30
0.0
 11
97.0479504737
 21
9.9052549689
 31
0.0
  0
LINE
  5
3B7
100
AcDbEntity
  8
0
100
AcDbLine
 62
250
  6
CONTINUOUS
 10
97.0537683035
 20
8.5410032785
 30
0.0
 11
97.0537683035
 21
9.4000734834
 31
0.0
  0
LINE
  5
3B8
100
AcDbEntity
  8
0
100
AcDbLine
 62
250
  6
CONTINUOUS
 10
97.0537683035
 20
56.6557359161
 30
0.0
 11
97.0537683035
 21
57.514806121
 31
0.0
  0
LINE
  5
3B9
100
AcDbEntity
  8
0
100
AcDbLine
 62
250
  6
CONTINUOUS
 10
96.7979547045
 20
56.2948919978
 30
0.0
 11
96.8037725343
 21
56.872242267
 31
0.0
  0
LINE
  5
3BA
100
AcDbEntity
  8
0
100
AcDbLine
 62
250
  6
CONTINUOUS
 10
97.0486777025
 20
56.1505544305
 30
0.0
 11
97.0537683035
 21
56.6557359161
 31
0.0
  0
LINE
  5
3BB
100
AcDbEntity
  8
0
100
AcDbLine
 62
7
  6
CONTINUOUS
 10
99.6906739556
 20
55.4279046997
 30
0.0
 11
99.6833932067
 21
55.362318752
 31
0.0
  0
LINE
  5
3BC
100
AcDbEntity
  8
0
100
AcDbLine
 62
7
  6
CONTINUOUS
 10
85.0994007003
 20
9.0366314445
 30
0.0
 11
85.0906739556
 21
9.0279046997
 31
0.0
  0
LINE
  5
3BD
100
AcDbEntity
  8
0
100
AcDbLine
 62
7
  6
CONTINUOUS
 10
85.0906739556
 20
57.0279046997
 30
0.0
 11
85.0994007003
 21
57.019177955
 31
0.0
  0
LINE
  5
3BE
100
AcDbEntity
  8
0
100
AcDbLine
 62
7
  6
CONTINUOUS
 10
99.6906739556
 20
10.6279046997
 30
0.0
 11
99.6833932067
 21
10.6934906474
 31
0.0
  0
LINE
  5
3BF
100
AcDbEntity
  8
0
100
AcDbLine
 62
250
  6
CONTINUOUS
 10
99.4275796077
 20
56.6557359161
 30
0.0
 11
99.4326702088
 21
56.1505544305
 31
0.0
  0
LINE
  5
3C0
100
AcDbEntity
  8
0
100
AcDbLine
 62
250
  6
CONTINUOUS
 10
99.6775753769
 20
56.872242267
 30
0.0
 11
99.6833932067
 21
56.2948919978
 31
0.0
  0
LINE
  5
3C1
100
AcDbEntity
  8
DRAFT
100
AcDbLine
 62
7
  6
CONTINUOUS
 10
100.663618605
 20
16.4279046997
 30
0.0
 11
100.6357184606
 21
33.0279046997
 31
0.0
  0
LINE
  5
3C2
100
AcDbEntity
  8
0
100
AcDbLine
 62
7
  6
CONTINUOUS
 10
100.663618605
 20
16.4279046997
 30
0.0
 11
100.6357184606
 21
33.0279046997
 31
0.0
  0
LINE
  5
3C3
100
AcDbEntity
  8
0
100
AcDbLine
 62
250
  6
CONTINUOUS
 10
99.4275796077
 20
8.5410032785
 30
0.0
 11
99.4275796077
 21
9.4000734834
 31
0.0
  0
LINE
  5
3C4
100
AcDbEntity
  8
0
100
AcDbLine
 62
250
  6
CONTINUOUS
 10
99.4275796077
 20
56.6557359161
 30
0.0
 11
99.4275796077
 21
57.514806121
 31
0.0
  0
LINE
  5
3C5
100
AcDbEntity
  8
0
100
AcDbLine
 62
250
  6
CONTINUOUS
 10
99.4333974375
 20
9.9052549689
 30
0.0
 11
99.4333974375
 21
10.7065163687
 31
0.0
  0
LINE
  5
3C6
100
AcDbEntity
  8
0
100
AcDbLine
 62
250
  6
CONTINUOUS
 10
99.4333974375
 20
55.3492930308
 30
0.0
 11
99.4333974375
 21
56.1505544305
 31
0.0
  0
LINE
  5
3C7
100
AcDbEntity
  8
0
100
AcDbLine
 62
250
  6
CONTINUOUS
 10
99.6775753769
 20
8.7909990477
 30
0.0
 11
99.6775753769
 21
9.1835671324
 31
0.0
  0
LINE
  5
3C8
100
AcDbEntity
  8
0
100
AcDbLine
 62
250
  6
CONTINUOUS
 10
99.6775753769
 20
56.872242267
 30
0.0
 11
99.6775753769
 21
57.2648103518
 31
0.0
  0
LINE
  5
3C9
100
AcDbEntity
  8
0
100
AcDbLine
 62
250
  6
CONTINUOUS
 10
99.6833932067
 20
9.7609174016
 30
0.0
 11
99.6833932067
 21
10.6934906474
 31
0.0
  0
LINE
  5
3CA
100
AcDbEntity
  8
0
100
AcDbLine
 62
250
  6
CONTINUOUS
 10
99.6833932067
 20
55.362318752
 30
0.0
 11
99.6833932067
 21
56.2948919978
 31
0.0
  0
LINE
  5
3CB
100
AcDbEntity
  8
0
100
AcDbLine
 62
7
  6
CONTINUOUS
 10
99.6906739556
 20
8.777900469
 30
0.0
 11
99.6906739556
 21
10.6279046997
 31
0.0
  0
LINE
  5
3CC
100
AcDbEntity
  8
0
100
AcDbLine
 62
7
  6
CONTINUOUS
 10
99.6906739556
 20
55.4279046997
 30
0.0
 11
99.6906739556
 21
57.2779089305
 31
0.0
  0
LINE
  5
3CD
100
AcDbEntity
  8
RACCORDO
100
AcDbLine
 62
7
  6
CONTINUOUS
 10
100.5406739556
 20
11.4279049349
 30
0.0
 11
100.5406739556
 21
54.6279044646
 31
0.0
  0
LINE
  5
3CE
100
AcDbEntity
  8
DRAFT
100
AcDbLine
 62
7
  6
CONTINUOUS
 10
100.663618605
 20
54.8490641787
 30
0.0
 11
100.663618605
 21
49.6279046997
 31
0.0
  0
LINE
  5
3CF
100
AcDbEntity
  8
0
100
AcDbLine
 62
7
  6
CONTINUOUS
 10
100.663618605
 20
54.8490641787
 30
0.0
 11
100.663618605
 21
49.6279046997
 31
0.0
  0
LINE
  5
3D0
100
AcDbEntity
  8
DRAFT
100
AcDbLine
 62
7
  6
CONTINUOUS
 10
100.663618605
 20
16.4279046997
 30
0.0
 11
100.663618605
 21
11.2067452207
 31
0.0
  0
LINE
  5
3D1
100
AcDbEntity
  8
0
100
AcDbLine
 62
7
  6
CONTINUOUS
 10
100.663618605
 20
16.4279046997
 30
0.0
 11
100.663618605
 21
11.2067452207
 31
0.0
  0
LINE
  5
3D2
100
AcDbEntity
  8
0
100
AcDbLine
 62
7
  6
CONTINUOUS
 10
100.6898012024
 20
54.9276758477
 30
0.0
 11
100.6898012024
 21
11.1281335518
 31
0.0
  0
LINE
  5
3D3
100
AcDbEntity
  8
0
100
AcDbLine
 62
7
  6
CONTINUOUS
 10
100.691110299
 20
54.9279216228
 30
0.0
 11
100.691110299
 21
11.1278877767
 31
0.0
  0
LINE
  5
3D4
100
AcDbEntity
  8
DRAFT
100
AcDbLine
 62
7
  6
CONTINUOUS
 10
100.6357184606
 20
33.0279046997
 30
0.0
 11
100.663618605
 21
49.6279046997
 31
0.0
  0
LINE
  5
3D5
100
AcDbEntity
  8
0
100
AcDbLine
 62
7
  6
CONTINUOUS
 10
100.6357184606
 20
33.0279046997
 30
0.0
 11
100.663618605
 21
49.6279046997
 31
0.0
  0
LINE
  5
3D6
100
AcDbEntity
  8
0
100
AcDbLine
 62
250
  6
CONTINUOUS
 10
99.4326702088
 20
9.9052549689
 30
0.0
 11
99.4275796077
 21
9.4000734834
 31
0.0
  0
LINE
  5
3D7
100
AcDbEntity
  8
0
100
AcDbLine
 62
250
  6
CONTINUOUS
 10
99.6833932067
 20
9.7609174016
 30
0.0
 11
99.6775753769
 21
9.1835671324
 31
0.0
  0
LINE
  5
3D8
100
AcDbEntity
  8
0
100
AcDbLine
 62
7
  6
CONTINUOUS
 10
96.7906739556
 20
10.6279046997
 30
0.0
 11
96.7979547045
 21
10.6934906474
 31
0.0
  0
LINE
  5
3D9
100
AcDbEntity
  8
0
100
AcDbLine
 62
7
  6
CONTINUOUS
 10
96.7906739556
 20
55.4279046997
 30
0.0
 11
96.7979547045
 21
55.362318752
 31
0.0
  0
LINE
  5
3DA
100
AcDbEntity
  8
0
100
AcDbLine
 62
250
  6
CONTINUOUS
 10
96.8037725343
 20
8.7909990477
 30
0.0
 11
96.7906739556
 21
8.777900469
 31
0.0
  0
LINE
  5
3DB
100
AcDbEntity
  8
0
100
AcDbLine
 62
250
  6
CONTINUOUS
 10
97.0537683035
 20
8.5410032785
 30
0.0
 11
97.0406697248
 21
8.5279046997
 31
0.0
  0
LINE
  5
3DC
100
AcDbEntity
  8
0
100
AcDbLine
 62
250
  6
CONTINUOUS
 10
96.8037725343
 20
57.2648103518
 30
0.0
 11
96.7906739556
 21
57.2779089305
 31
0.0
  0
LINE
  5
3DD
100
AcDbEntity
  8
0
100
AcDbLine
 62
250
  6
CONTINUOUS
 10
97.0537683035
 20
57.514806121
 30
0.0
 11
97.0406697248
 21
57.5279046997
 31
0.0
  0
LWPOLYLINE
  5
3DE
100
AcDbEntity
  8
0
100
AcDbPolyline
 62
7
  6
CONTINUOUS
 90
3
 70
0
 43
0.3500000006
 10
114.1462144775
 20
32.4921921387
 10
114.1462144775
 20
30.9921916809
 10
111.7890670166
 20
31.6350496674
  0
LWPOLYLINE
  5
3DF
100
AcDbEntity
  8
0
100
AcDbPolyline
 62
7
  6
CONTINUOUS
 90
3
 70
0
 43
0.3500000006
 10
114.1462144775
 20
30.1350492096
 10
114.1462144775
 20
28.6350487518
 10
111.7890670166
 20
29.2779067383
  0
LWPOLYLINE
  5
3E0
100
AcDbEntity
  8
0
100
AcDbPolyline
 62
7
  6
CONTINUOUS
 90
7
 70
0
 43
0.3500000006
 10
114.7890679321
 20
36.5636200104
 10
114.7890679321
 20
35.0636195526
 10
112.6462140198
 20
36.5636200104
 10
112.21764505
 20
36.5636200104
 10
111.7890670166
 20
36.1350465088
 10
111.7890670166
 20
35.4921885223
 10
112.4319295349
 20
35.0636195526
  0
LWPOLYLINE
  5
3E1
100
AcDbEntity
  8
0
100
AcDbPolyline
 62
7
  6
CONTINUOUS
 90
10
 70
0
 43
0.3500000006
 10
5.0206226234
 20
73.8724096069
 10
4.37776577
 20
73.2295470886
 10
3.9491942511
 20
72.3724091492
 10
3.9491942511
 20
71.3009776611
 10
4.37776577
 20
70.8724086914
 10
5.0206226234
 20
70.8724086914
 10
5.4491944256
 20
71.3009776611
 10
5.4491944256
 20
72.1581246643
 10
5.0206226234
 20
72.586693634
 10
4.0920512352
 20
72.586693634
  0
LINE
  5
3E2
100
AcDbEntity
  8
0
100
AcDbLine
 62
7
  6
CONTINUOUS
 10
14.1134885598
 20
8.5279046997
 30
0.0
 11
14.8649429926
 21
8.5322765337
 31
0.0
  0
LINE
  5
3E3
100
AcDbEntity
  8
0
100
AcDbLine
 62
250
  6
CONTINUOUS
 10
14.1134885598
 20
8.777900469
 30
0.0
 11
14.8649429926
 21
8.782272303
 31
0.0
  0
LINE
  5
3E4
100
AcDbEntity
  8
0
100
AcDbLine
 62
250
  6
CONTINUOUS
 10
15.1134885598
 20
8.782272303
 30
0.0
 11
14.8649429926
 21
8.782272303
 31
0.0
  0
LINE
  5
3E5
100
AcDbEntity
  8
0
100
AcDbLine
 62
250
  6
CONTINUOUS
 10
11.6134885598
 20
8.7909990477
 30
0.0
 11
11.862034127
 21
8.7909990477
 31
0.0
  0
LINE
  5
3E6
100
AcDbEntity
  8
0
100
AcDbLine
 62
7
  6
CONTINUOUS
 10
11.862034127
 20
8.5410032785
 30
0.0
 11
14.1134885598
 21
8.5279046997
 31
0.0
  0
LINE
  5
3E7
100
AcDbEntity
  8
0
100
AcDbLine
 62
250
  6
CONTINUOUS
 10
11.862034127
 20
8.7909990477
 30
0.0
 11
14.1134885598
 21
8.777900469
 31
0.0
  0
LINE
  5
3E8
100
AcDbEntity
  8
0
100
AcDbLine
 62
7
  6
CONTINUOUS
 10
19.6163974255
 20
9.059919687
 30
0.0
 11
15.1134885598
 21
9.0337225295
 31
0.0
  0
LINE
  5
3E9
100
AcDbEntity
  8
0
100
AcDbLine
 62
7
  6
CONTINUOUS
 10
14.1134885598
 20
10.6279046997
 30
0.0
 11
25.1193062911
 21
10.6919346742
 31
0.0
  0
LINE
  5
3EA
100
AcDbEntity
  8
0
100
AcDbLine
 62
250
  6
CONTINUOUS
 10
15.1134885598
 20
9.1835671324
 30
0.0
 11
14.8649429926
 21
9.1835671324
 31
0.0
  0
LINE
  5
3EB
100
AcDbEntity
  8
0
100
AcDbLine
 62
250
  6
CONTINUOUS
 10
11.6134885598
 20
9.1835671324
 30
0.0
 11
11.862034127
 21
9.1835671324
 31
0.0
  0
LINE
  5
3EC
100
AcDbEntity
  8
0
100
AcDbLine
 62
7
  6
CONTINUOUS
 10
12.6134885598
 20
10.7065163687
 30
0.0
 11
14.1134885598
 21
10.6279046997
 31
0.0
  0
LINE
  5
3ED
100
AcDbEntity
  8
RACCORDO
100
AcDbLine
 62
7
  6
CONTINUOUS
 10
10.5134885598
 20
10.9279046997
 30
0.0
 11
5.4850604261
 21
11.1914334515
 31
0.0
  0
LINE
  5
3EE
100
AcDbEntity
  8
RACCORDO
100
AcDbLine
 62
250
  6
CONTINUOUS
 10
4.7301868669
 20
12.3196765403
 30
0.0
 11
5.21652792
 21
12.3405712868
 31
0.0
  0
LINE
  5
3EF
100
AcDbEntity
  8
0
100
AcDbLine
 62
250
  6
CONTINUOUS
 10
14.1134885598
 20
11.1278877767
 30
0.0
 11
15.1134885598
 21
11.1337056065
 31
0.0
  0
LINE
  5
3F0
100
AcDbEntity
  8
0
100
AcDbLine
 62
7
  6
CONTINUOUS
 10
26.1134885598
 20
12.1279046997
 30
0.0
 11
16.1134885598
 21
12.1279046997
 31
0.0
  0
LINE
  5
3F1
100
AcDbEntity
  8
0
100
AcDbLine
 62
7
  6
CONTINUOUS
 10
25.622214763
 20
11.4444742015
 30
0.0
 11
16.1134885598
 21
11.6104496348
 31
0.0
  0
LINE
  5
3F2
100
AcDbEntity
  8
RACCORDO
100
AcDbLine
 62
250
  6
CONTINUOUS
 10
4.3494715624
 20
12.3276880959
 30
0.0
 11
4.7301868652
 21
12.3196765547
 31
0.0
  0
LINE
  5
3F3
100
AcDbEntity
  8
0
100
AcDbLine
 62
250
  6
CONTINUOUS
 10
12.6134885598
 20
11.2067452207
 30
0.0
 11
14.1134885598
 21
11.1281335518
 31
0.0
  0
LINE
  5
3F4
100
AcDbEntity
  8
RACCORDO
100
AcDbLine
 62
250
  6
CONTINUOUS
 10
10.5134885598
 20
11.4279049349
 30
0.0
 11
5.8798725434
 21
11.6707424603
 31
0.0
  0
LINE
  5
3F5
100
AcDbEntity
  8
0
100
AcDbLine
 62
250
  6
CONTINUOUS
 10
14.1134885598
 20
56.438389848
 30
0.0
 11
14.8649429926
 21
56.872242267
 31
0.0
  0
LINE
  5
3F6
100
AcDbEntity
  8
0
100
AcDbLine
 62
7
  6
CONTINUOUS
 10
14.1134885598
 20
56.1505544305
 30
0.0
 11
14.9884885598
 21
56.6557359161
 31
0.0
  0
LINE
  5
3F7
100
AcDbEntity
  8
RACCORDO
100
AcDbLine
 62
250
  6
CONTINUOUS
 10
25.9169790411
 20
14.0112474422
 30
0.0
 11
26.1134885598
 21
14.0112474422
 31
0.0
  0
LINE
  5
3F8
100
AcDbEntity
  8
0
100
AcDbLine
 62
250
  6
CONTINUOUS
 10
25.9169790411
 20
14.0112474422
 30
0.0
 11
26.1134885598
 21
14.0112474422
 31
0.0
  0
LINE
  5
3F9
100
AcDbEntity
  8
RACCORDO
100
AcDbLine
 62
7
  6
CONTINUOUS
 10
25.9152338669
 20
13.2336392965
 30
0.0
 11
16.1134885598
 21
13.3191778319
 31
0.0
  0
LINE
  5
3FA
100
AcDbEntity
  8
0
100
AcDbLine
 62
7
  6
CONTINUOUS
 10
25.9152338669
 20
13.2336392965
 30
0.0
 11
16.1134885598
 21
13.3191778319
 31
0.0
  0
LINE
  5
3FB
100
AcDbEntity
  8
0
100
AcDbLine
 62
7
  6
CONTINUOUS
 10
15.1134885598
 20
14.5196141753
 30
0.0
 11
16.1134885598
 21
14.5108873075
 31
0.0
  0
LINE
  5
3FC
100
AcDbEntity
  8
0
100
AcDbLine
 62
250
  6
CONTINUOUS
 10
14.8649429926
 20
9.1835671324
 30
0.0
 11
14.1134885598
 21
9.6174195515
 31
0.0
  0
LINE
  5
3FD
100
AcDbEntity
  8
0
100
AcDbLine
 62
7
  6
CONTINUOUS
 10
14.9884885598
 20
9.4000734834
 30
0.0
 11
14.1134885598
 21
9.9052549689
 31
0.0
  0
LWPOLYLINE
  5
3FE
100
AcDbEntity
  8
0
100
AcDbPolyline
 62
7
  6
CONTINUOUS
 90
3
 70
0
 43
0.3500000006
 10
7.0206226673
 20
71.1581243591
 10
6.9491943169
 20
70.9438308105
 10
6.8063370495
 20
70.6581242065
  0
LINE
  5
3FF
100
AcDbEntity
  8
RACCORDO
100
AcDbLine
 62
7
  6
CONTINUOUS
 10
12.6134885598
 20
15.6279046997
 30
0.0
 11
10.5134885598
 21
15.6645603361
 31
0.0
  0
LINE
  5
400
100
AcDbEntity
  8
0
100
AcDbLine
 62
7
  6
CONTINUOUS
 10
12.6134885598
 20
15.6279046997
 30
0.0
 11
10.5134885598
 21
15.6645603361
 31
0.0
  0
LINE
  5
401
100
AcDbEntity
  8
RACCORDO
100
AcDbLine
 62
250
  6
CONTINUOUS
 10
12.5942130184
 20
16.6280888507
 30
0.0
 11
10.5134885598
 21
16.6644080312
 31
0.0
  0
LINE
  5
402
100
AcDbEntity
  8
0
100
AcDbLine
 62
250
  6
CONTINUOUS
 10
12.5942130184
 20
16.6280888507
 30
0.0
 11
10.5134885598
 21
16.6644080312
 31
0.0
  0
LINE
  5
403
100
AcDbEntity
  8
RACCORDO
100
AcDbLine
 62
7
  6
CONTINUOUS
 10
16.1134885598
 20
47.9882023571
 30
0.0
 11
25.981892589
 21
51.5800076834
 31
0.0
  0
LINE
  5
404
100
AcDbEntity
  8
0
100
AcDbLine
 62
7
  6
CONTINUOUS
 10
16.1134885598
 20
47.9882023571
 30
0.0
 11
25.981892589
 21
51.5800076834
 31
0.0
  0
LINE
  5
405
100
AcDbEntity
  8
RACCORDO
100
AcDbLine
 62
250
  6
CONTINUOUS
 10
25.9169790411
 20
52.0445619573
 30
0.0
 11
16.1134885598
 21
48.6574265188
 31
0.0
  0
LINE
  5
406
100
AcDbEntity
  8
0
100
AcDbLine
 62
250
  6
CONTINUOUS
 10
25.9169790411
 20
52.0445619573
 30
0.0
 11
16.1134885598
 21
48.6574265188
 31
0.0
  0
LINE
  5
407
100
AcDbEntity
  8
RACCORDO
100
AcDbLine
 62
250
  6
CONTINUOUS
 10
16.1134885598
 20
17.3983828807
 30
0.0
 11
25.9169790411
 21
14.0112474422
 31
0.0
  0
LINE
  5
408
100
AcDbEntity
  8
0
100
AcDbLine
 62
250
  6
CONTINUOUS
 10
16.1134885598
 20
17.3983828807
 30
0.0
 11
25.9169790411
 21
14.0112474422
 31
0.0
  0
LINE
  5
409
100
AcDbEntity
  8
RACCORDO
100
AcDbLine
 62
7
  6
CONTINUOUS
 10
25.981892589
 20
14.4758017161
 30
0.0
 11
16.1134885598
 21
18.0676070424
 31
0.0
  0
LINE
  5
40A
100
AcDbEntity
  8
0
100
AcDbLine
 62
7
  6
CONTINUOUS
 10
25.981892589
 20
14.4758017161
 30
0.0
 11
16.1134885598
 21
18.0676070424
 31
0.0
  0
LWPOLYLINE
  5
40B
100
AcDbEntity
  8
0
100
AcDbPolyline
 62
7
  6
CONTINUOUS
 90
3
 70
0
 10
4.0578332158
 20
19.0486368034
 10
4.1889550813
 20
15.7006652539
 10
4.3494713266
 20
12.32768814
  0
LINE
  5
40C
100
AcDbEntity
  8
DRAFT
100
AcDbLine
 62
7
  6
CONTINUOUS
 10
4.0310863448
 20
19.8471232117
 30
0.0
 11
4.0578328912
 21
19.0486449202
 31
0.0
  0
LINE
  5
40D
100
AcDbEntity
  8
0
100
AcDbLine
 62
7
  6
CONTINUOUS
 10
4.0147987015
 20
20.3509108988
 30
0.0
 11
4.0578333368
 21
19.0486367807
 31
0.0
  0
LINE
  5
40E
100
AcDbEntity
  8
0
100
AcDbLine
 62
7
  6
CONTINUOUS
 10
3.999449647
 20
20.8450668852
 30
0.0
 11
4.0251784162
 21
20.027983376
 31
0.0
  0
LINE
  5
40F
100
AcDbEntity
  8
DRAFT
100
AcDbLine
 62
7
  6
CONTINUOUS
 10
3.9956689276
 20
20.9699785678
 30
0.0
 11
4.0251784162
 21
20.027983376
 31
0.0
  0
LINE
  5
410
100
AcDbEntity
  8
0
100
AcDbLine
 62
7
  6
CONTINUOUS
 10
3.9793118381
 20
21.5249603043
 30
0.0
 11
4.0096204268
 21
20.5156542699
 31
0.0
  0
LINE
  5
411
100
AcDbEntity
  8
DRAFT
100
AcDbLine
 62
7
  6
CONTINUOUS
 10
3.9745430091
 20
21.6919528796
 30
0.0
 11
4.0096204268
 21
20.5156542699
 31
0.0
  0
LINE
  5
412
100
AcDbEntity
  8
0
100
AcDbLine
 62
7
  6
CONTINUOUS
 10
3.9652145889
 20
22.0259425176
 30
0.0
 11
3.9943307419
 21
21.014204088
 31
0.0
  0
LINE
  5
413
100
AcDbEntity
  8
DRAFT
100
AcDbLine
 62
7
  6
CONTINUOUS
 10
3.9517450682
 20
22.5269375322
 30
0.0
 11
3.9793118391
 21
21.5249603043
 31
0.0
  0
LINE
  5
414
100
AcDbEntity
  8
0
100
AcDbLine
 62
7
  6
CONTINUOUS
 10
3.9431141388
 20
22.8609407287
 30
0.0
 11
3.9793118391
 21
21.5249603043
 31
0.0
  0
LINE
  5
415
100
AcDbEntity
  8
DRAFT
100
AcDbLine
 62
7
  6
CONTINUOUS
 10
3.9389032975
 20
23.0279443033
 30
0.0
 11
3.9652145904
 21
22.0259424728
 31
0.0
  0
LINE
  5
416
100
AcDbEntity
  8
DRAFT
100
AcDbLine
 62
7
  6
CONTINUOUS
 10
3.9260676891
 20
23.5502434079
 30
0.0
 11
3.9312509035
 21
23.3371274093
 31
0.0
  0
LINE
  5
417
100
AcDbEntity
  8
0
100
AcDbLine
 62
7
  6
CONTINUOUS
 10
3.9153274389
 20
24.001956576
 30
0.0
 11
3.9389032985
 21
23.0279443033
 31
0.0
  0
LINE
  5
418
100
AcDbEntity
  8
0
100
AcDbLine
 62
7
  6
CONTINUOUS
 10
3.9261168634
 20
23.5482398102
 30
0.0
 11
3.9517450671
 21
22.5269375617
 31
0.0
  0
LINE
  5
419
100
AcDbEntity
  8
DRAFT
100
AcDbLine
 62
7
  6
CONTINUOUS
 10
3.9152111894
 20
24.0069201806
 30
0.0
 11
3.9342459211
 21
23.2153611665
 31
0.0
  0
LWPOLYLINE
  5
41A
100
AcDbEntity
  8
0
100
AcDbPolyline
 62
7
  6
CONTINUOUS
 90
10
 70
0
 10
4.3494713266
 20
53.7281212596
 10
4.1886663616
 20
50.3484841222
 10
4.0535884933
 20
46.8852620321
 10
3.9485210016
 20
43.4209996887
 10
3.8734746658
 20
39.9559570599
 10
3.8284577026
 20
36.4903941693
 10
3.8134713038
 20
33.0245712437
 10
3.8285154689
 20
29.5587485937
 10
3.8735901971
 20
26.0931865301
 10
3.9152052542
 20
24.0071762814
  0
LWPOLYLINE
  5
41B
100
AcDbEntity
  8
0
100
AcDbPolyline
 62
7
  6
CONTINUOUS
 90
4
 70
0
 43
0.3500000006
 10
8.0206229725
 20
73.2295470886
 10
8.0206229725
 20
73.8724096069
 10
9.5206228638
 20
73.8724096069
 10
8.663479826
 20
70.8724086914
  0
LINE
  5
41C
100
AcDbEntity
  8
RACCORDO
100
AcDbLine
 62
7
  6
CONTINUOUS
 10
10.5134885598
 20
10.9279046997
 30
0.0
 11
10.5134885598
 21
55.1279046997
 31
0.0
  0
LINE
  5
41D
100
AcDbEntity
  8
DRAFT
100
AcDbLine
 62
7
  6
CONTINUOUS
 10
12.6134885598
 20
16.4279046997
 30
0.0
 11
11.0150903597
 21
33.0279046997
 31
0.0
  0
LINE
  5
41E
100
AcDbEntity
  8
0
100
AcDbLine
 62
7
  6
CONTINUOUS
 10
12.6134885598
 20
16.4279046997
 30
0.0
 11
11.0150903597
 21
33.0279046997
 31
0.0
  0
LINE
  5
41F
100
AcDbEntity
  8
0
100
AcDbLine
 62
7
  6
CONTINUOUS
 10
11.6134885598
 20
8.7909990477
 30
0.0
 11
11.6134885598
 21
9.1835671324
 31
0.0
  0
LINE
  5
420
100
AcDbEntity
  8
0
100
AcDbLine
 62
7
  6
CONTINUOUS
 10
11.6134885598
 20
56.872242267
 30
0.0
 11
11.6134885598
 21
57.2648103518
 31
0.0
  0
LINE
  5
421
100
AcDbEntity
  8
0
100
AcDbLine
 62
250
  6
CONTINUOUS
 10
11.862034127
 20
8.7909990477
 30
0.0
 11
11.862034127
 21
9.1835671324
 31
0.0
  0
LINE
  5
422
100
AcDbEntity
  8
0
100
AcDbLine
 62
250
  6
CONTINUOUS
 10
11.862034127
 20
56.872242267
 30
0.0
 11
11.862034127
 21
57.2648103518
 31
0.0
  0
LINE
  5
423
100
AcDbEntity
  8
DRAFT
100
AcDbLine
 62
7
  6
CONTINUOUS
 10
12.6134885598
 20
54.8490641787
 30
0.0
 11
12.6134885598
 21
49.6279046997
 31
0.0
  0
LINE
  5
424
100
AcDbEntity
  8
DRAFT
100
AcDbLine
 62
7
  6
CONTINUOUS
 10
12.6134885598
 20
16.4279046997
 30
0.0
 11
12.6134885598
 21
11.2067452207
 31
0.0
  0
LINE
  5
425
100
AcDbEntity
  8
0
100
AcDbLine
 62
7
  6
CONTINUOUS
 10
12.6134885598
 20
16.4279046997
 30
0.0
 11
12.6134885598
 21
11.2067452207
 31
0.0
  0
LINE
  5
426
100
AcDbEntity
  8
0
100
AcDbLine
 62
7
  6
CONTINUOUS
 10
12.6134885598
 20
9.9052549689
 30
0.0
 11
12.6134885598
 21
11.2067452207
 31
0.0
  0
LINE
  5
427
100
AcDbEntity
  8
0
100
AcDbLine
 62
7
  6
CONTINUOUS
 10
12.6134885598
 20
49.6279046997
 30
0.0
 11
12.6134885598
 21
54.8490641787
 31
0.0
  0
LINE
  5
428
100
AcDbEntity
  8
0
100
AcDbLine
 62
7
  6
CONTINUOUS
 10
12.6134885598
 20
54.8490641787
 30
0.0
 11
12.6134885598
 21
56.1505544305
 31
0.0
  0
LINE
  5
429
100
AcDbEntity
  8
DRAFT
100
AcDbLine
 62
7
  6
CONTINUOUS
 10
11.0150903597
 20
33.0279046997
 30
0.0
 11
12.6134885598
 21
49.6279046997
 31
0.0
  0
LINE
  5
42A
100
AcDbEntity
  8
0
100
AcDbLine
 62
7
  6
CONTINUOUS
 10
11.0150903597
 20
33.0279046997
 30
0.0
 11
12.6134885598
 21
49.6279046997
 31
0.0
  0
LINE
  5
42B
100
AcDbEntity
  8
0
100
AcDbLine
 62
250
  6
CONTINUOUS
 10
12.862034127
 20
9.7609174016
 30
0.0
 11
12.862034127
 21
10.6934906474
 31
0.0
  0
LINE
  5
42C
100
AcDbEntity
  8
0
100
AcDbLine
 62
250
  6
CONTINUOUS
 10
12.862034127
 20
55.362318752
 30
0.0
 11
12.862034127
 21
56.2948919978
 31
0.0
  0
LINE
  5
42D
100
AcDbEntity
  8
0
100
AcDbLine
 62
7
  6
CONTINUOUS
 10
14.1134885598
 20
8.5279046997
 30
0.0
 11
14.1134885598
 21
57.5279046997
 31
0.0
  0
LINE
  5
42E
100
AcDbEntity
  8
0
100
AcDbLine
 62
250
  6
CONTINUOUS
 10
14.8649429926
 20
57.2735370965
 30
0.0
 11
14.8649429926
 21
56.872242267
 31
0.0
  0
LINE
  5
42F
100
AcDbEntity
  8
0
100
AcDbLine
 62
250
  6
CONTINUOUS
 10
14.8649429926
 20
9.1835671324
 30
0.0
 11
14.8649429926
 21
8.782272303
 31
0.0
  0
LINE
  5
430
100
AcDbEntity
  8
0
100
AcDbLine
 62
7
  6
CONTINUOUS
 10
15.1134885598
 20
57.2735370965
 30
0.0
 11
15.1134885598
 21
56.872242267
 31
0.0
  0
LINE
  5
431
100
AcDbEntity
  8
0
100
AcDbLine
 62
7
  6
CONTINUOUS
 10
15.1134885598
 20
55.4220868699
 30
0.0
 11
15.1134885598
 21
51.5361952241
 31
0.0
  0
LINE
  5
432
100
AcDbEntity
  8
0
100
AcDbLine
 62
7
  6
CONTINUOUS
 10
15.1134885598
 20
14.5196141753
 30
0.0
 11
15.1134885598
 21
10.6337225295
 31
0.0
  0
LINE
  5
433
100
AcDbEntity
  8
0
100
AcDbLine
 62
7
  6
CONTINUOUS
 10
15.1134885598
 20
9.1835671324
 30
0.0
 11
15.1134885598
 21
8.782272303
 31
0.0
  0
LINE
  5
434
100
AcDbEntity
  8
0
100
AcDbLine
 62
7
  6
CONTINUOUS
 10
16.1134885598
 20
54.4453597647
 30
0.0
 11
16.1134885598
 21
11.6104496348
 31
0.0
  0
LINE
  5
435
100
AcDbEntity
  8
0
100
AcDbLine
 62
7
  6
CONTINUOUS
 10
19.6134885598
 20
9.6035429286
 30
0.0
 11
19.6134885598
 21
10.1522664709
 31
0.0
  0
LINE
  5
436
100
AcDbEntity
  8
0
100
AcDbLine
 62
7
  6
CONTINUOUS
 10
19.6134885598
 20
55.9035429286
 30
0.0
 11
19.6134885598
 21
56.4522664709
 31
0.0
  0
LINE
  5
437
100
AcDbEntity
  8
0
100
AcDbLine
 62
250
  6
CONTINUOUS
 10
19.6572807224
 20
56.9939767286
 30
0.0
 11
19.6572807224
 21
55.3956518604
 31
0.0
  0
LINE
  5
438
100
AcDbEntity
  8
0
100
AcDbLine
 62
250
  6
CONTINUOUS
 10
19.6572807224
 20
10.660157539
 30
0.0
 11
19.6572807224
 21
9.0618326709
 31
0.0
  0
LINE
  5
439
100
AcDbEntity
  8
0
100
AcDbLine
 62
7
  6
CONTINUOUS
 10
20.1134885598
 20
56.4958981741
 30
0.0
 11
20.1134885598
 21
55.3929977209
 31
0.0
  0
LINE
  5
43A
100
AcDbEntity
  8
0
100
AcDbLine
 62
7
  6
CONTINUOUS
 10
20.1134885598
 20
10.6628116786
 30
0.0
 11
20.1134885598
 21
9.5599112254
 31
0.0
  0
LWPOLYLINE
  5
43B
100
AcDbEntity
  8
0
100
AcDbPolyline
 62
7
  6
CONTINUOUS
 90
10
 70
0
 43
0.3500000006
 10
6.9491943169
 20
71.372408844
 10
7.0206226673
 20
71.2295464783
 10
7.0206226673
 20
71.1581243591
 10
6.8777653999
 20
71.0152619934
 10
6.8063370495
 20
71.0152619934
 10
6.734908699
 20
71.0866931763
 10
6.734908699
 20
71.1581243591
 10
6.8063370495
 20
71.3009776611
 10
6.8777653999
 20
71.372408844
 10
6.9491943169
 20
71.372408844
  0
LINE
  5
43C
100
AcDbEntity
  8
0
100
AcDbLine
 62
250
  6
CONTINUOUS
 10
25.622214763
 20
54.6113351979
 30
0.0
 11
25.622214763
 21
53.9279046997
 31
0.0
  0
LINE
  5
43D
100
AcDbEntity
  8
0
100
AcDbLine
 62
250
  6
CONTINUOUS
 10
25.622214763
 20
12.1279046997
 30
0.0
 11
25.622214763
 21
11.4444742015
 31
0.0
  0
LINE
  5
43E
100
AcDbEntity
  8
RACCORDO
100
AcDbLine
 62
250
  6
CONTINUOUS
 10
25.9152338669
 20
53.9279046997
 30
0.0
 11
25.9152338669
 21
52.8221701029
 31
0.0
  0
LINE
  5
43F
100
AcDbEntity
  8
0
100
AcDbLine
 62
250
  6
CONTINUOUS
 10
25.9152338669
 20
53.9279046997
 30
0.0
 11
25.9152338669
 21
52.8221701029
 31
0.0
  0
LINE
  5
440
100
AcDbEntity
  8
RACCORDO
100
AcDbLine
 62
250
  6
CONTINUOUS
 10
25.9152338669
 20
13.2336392965
 30
0.0
 11
25.9152338669
 21
12.1279046997
 31
0.0
  0
LINE
  5
441
100
AcDbEntity
  8
0
100
AcDbLine
 62
250
  6
CONTINUOUS
 10
25.9152338669
 20
13.2336392965
 30
0.0
 11
25.9152338669
 21
12.1279046997
 31
0.0
  0
LINE
  5
442
100
AcDbEntity
  8
RACCORDO
100
AcDbLine
 62
250
  6
CONTINUOUS
 10
25.9169790411
 20
13.2336392965
 30
0.0
 11
25.9169790411
 21
14.0112474422
 31
0.0
  0
LINE
  5
443
100
AcDbEntity
  8
0
100
AcDbLine
 62
250
  6
CONTINUOUS
 10
25.9169790411
 20
13.2336392965
 30
0.0
 11
25.9169790411
 21
14.0112474422
 31
0.0
  0
LINE
  5
444
100
AcDbEntity
  8
RACCORDO
100
AcDbLine
 62
250
  6
CONTINUOUS
 10
25.9169790411
 20
52.0445619573
 30
0.0
 11
25.9169790411
 21
52.8221701029
 31
0.0
  0
LINE
  5
445
100
AcDbEntity
  8
0
100
AcDbLine
 62
250
  6
CONTINUOUS
 10
25.9169790411
 20
52.0445619573
 30
0.0
 11
25.9169790411
 21
52.8221701029
 31
0.0
  0
LINE
  5
446
100
AcDbEntity
  8
0
100
AcDbLine
 62
7
  6
CONTINUOUS
 10
26.1134885598
 20
54.3638916484
 30
0.0
 11
26.1134885598
 21
53.9279046997
 31
0.0
  0
LINE
  5
447
100
AcDbEntity
  8
0
100
AcDbLine
 62
7
  6
CONTINUOUS
 10
26.1134885598
 20
12.1279046997
 30
0.0
 11
26.1134885598
 21
11.6919177511
 31
0.0
  0
LINE
  5
448
100
AcDbEntity
  8
RACCORDO
100
AcDbLine
 62
7
  6
CONTINUOUS
 10
26.1134885598
 20
12.1279046997
 30
0.0
 11
26.1134885598
 21
14.2878631917
 31
0.0
  0
LINE
  5
449
100
AcDbEntity
  8
0
100
AcDbLine
 62
7
  6
CONTINUOUS
 10
26.1134885598
 20
12.1279046997
 30
0.0
 11
26.1134885598
 21
14.2878631917
 31
0.0
  0
LINE
  5
44A
100
AcDbEntity
  8
RACCORDO
100
AcDbLine
 62
7
  6
CONTINUOUS
 10
26.1134885598
 20
51.7679462078
 30
0.0
 11
26.1134885598
 21
53.9279046997
 31
0.0
  0
LINE
  5
44B
100
AcDbEntity
  8
0
100
AcDbLine
 62
7
  6
CONTINUOUS
 10
26.1134885598
 20
51.7679462078
 30
0.0
 11
26.1134885598
 21
53.9279046997
 31
0.0
  0
LINE
  5
44C
100
AcDbEntity
  8
RACCORDO
100
AcDbLine
 62
250
  6
CONTINUOUS
 10
25.9169790362
 20
14.0112474422
 30
0.0
 11
25.9818925887
 21
14.4758017151
 31
0.0
  0
LINE
  5
44D
100
AcDbEntity
  8
0
100
AcDbLine
 62
250
  6
CONTINUOUS
 10
25.9169790362
 20
14.0112474422
 30
0.0
 11
25.9818925887
 21
14.4758017151
 31
0.0
  0
LINE
  5
44E
100
AcDbEntity
  8
RACCORDO
100
AcDbLine
 62
250
  6
CONTINUOUS
 10
25.9355099073
 20
14.1435398523
 30
0.0
 11
25.9384786841
 21
14.1647729172
 31
0.0
  0
LINE
  5
44F
100
AcDbEntity
  8
0
100
AcDbLine
 62
250
  6
CONTINUOUS
 10
25.9355099073
 20
14.1435398523
 30
0.0
 11
25.9384786841
 21
14.1647729172
 31
0.0
  0
LINE
  5
450
100
AcDbEntity
  8
RACCORDO
100
AcDbLine
 62
250
  6
CONTINUOUS
 10
25.954972855
 20
14.2827802329
 30
0.0
 11
25.957445582
 21
14.3004622653
 31
0.0
  0
LINE
  5
451
100
AcDbEntity
  8
0
100
AcDbLine
 62
250
  6
CONTINUOUS
 10
25.954972855
 20
14.2827802329
 30
0.0
 11
25.957445582
 21
14.3004622653
 31
0.0
  0
LINE
  5
452
100
AcDbEntity
  8
RACCORDO
100
AcDbLine
 62
250
  6
CONTINUOUS
 10
12.5942130184
 20
49.4277205488
 30
0.0
 11
10.5134885598
 21
49.3914013682
 31
0.0
  0
LINE
  5
453
100
AcDbEntity
  8
0
100
AcDbLine
 62
250
  6
CONTINUOUS
 10
12.5942130184
 20
49.4277205488
 30
0.0
 11
10.5134885598
 21
49.3914013682
 31
0.0
  0
LINE
  5
454
100
AcDbEntity
  8
RACCORDO
100
AcDbLine
 62
250
  6
CONTINUOUS
 10
25.9818925887
 20
51.5800076844
 30
0.0
 11
25.9169790362
 21
52.0445619573
 31
0.0
  0
LINE
  5
455
100
AcDbEntity
  8
0
100
AcDbLine
 62
250
  6
CONTINUOUS
 10
25.9818925887
 20
51.5800076844
 30
0.0
 11
25.9169790362
 21
52.0445619573
 31
0.0
  0
LINE
  5
456
100
AcDbEntity
  8
RACCORDO
100
AcDbLine
 62
7
  6
CONTINUOUS
 10
12.6134885598
 20
50.4279046997
 30
0.0
 11
10.5134885598
 21
50.3912490634
 31
0.0
  0
LINE
  5
457
100
AcDbEntity
  8
0
100
AcDbLine
 62
7
  6
CONTINUOUS
 10
12.6134885598
 20
50.4279046997
 30
0.0
 11
10.5134885598
 21
50.3912490634
 31
0.0
  0
LINE
  5
458
100
AcDbEntity
  8
0
100
AcDbLine
 62
7
  6
CONTINUOUS
 10
15.1134885598
 20
51.5361952241
 30
0.0
 11
16.1134885598
 21
51.5449220919
 31
0.0
  0
LINE
  5
459
100
AcDbEntity
  8
0
100
AcDbLine
 62
7
  6
CONTINUOUS
 10
12.6134885598
 20
9.9052549689
 30
0.0
 11
11.7384885598
 21
9.4000734834
 31
0.0
  0
LINE
  5
45A
100
AcDbEntity
  8
0
100
AcDbLine
 62
250
  6
CONTINUOUS
 10
12.862034127
 20
9.7609174016
 30
0.0
 11
11.862034127
 21
9.1835671324
 31
0.0
  0
LINE
  5
45B
100
AcDbEntity
  8
RACCORDO
100
AcDbLine
 62
7
  6
CONTINUOUS
 10
25.9152338669
 20
52.8221701029
 30
0.0
 11
16.1134885598
 21
52.7366315675
 31
0.0
  0
LINE
  5
45C
100
AcDbEntity
  8
0
100
AcDbLine
 62
7
  6
CONTINUOUS
 10
25.9152338669
 20
52.8221701029
 30
0.0
 11
16.1134885598
 21
52.7366315675
 31
0.0
  0
LINE
  5
45D
100
AcDbEntity
  8
RACCORDO
100
AcDbLine
 62
250
  6
CONTINUOUS
 10
25.9169790411
 20
52.0445619573
 30
0.0
 11
26.1134885598
 21
52.0445619573
 31
0.0
  0
LINE
  5
45E
100
AcDbEntity
  8
0
100
AcDbLine
 62
250
  6
CONTINUOUS
 10
25.9169790411
 20
52.0445619573
 30
0.0
 11
26.1134885598
 21
52.0445619573
 31
0.0
  0
LINE
  5
45F
100
AcDbEntity
  8
RACCORDO
100
AcDbLine
 62
250
  6
CONTINUOUS
 10
4.7301993068
 20
53.7361323356
 30
0.0
 11
5.2165279148
 21
53.7152381119
 31
0.0
  0
LINE
  5
460
100
AcDbEntity
  8
0
100
AcDbLine
 62
7
  6
CONTINUOUS
 10
11.7384885598
 20
56.6557359161
 30
0.0
 11
12.6134885598
 21
56.1505544305
 31
0.0
  0
LINE
  5
461
100
AcDbEntity
  8
0
100
AcDbLine
 62
250
  6
CONTINUOUS
 10
11.862034127
 20
56.872242267
 30
0.0
 11
12.862034127
 21
56.2948919978
 31
0.0
  0
LINE
  5
462
100
AcDbEntity
  8
RACCORDO
100
AcDbLine
 62
250
  6
CONTINUOUS
 10
5.8798725321
 20
54.3850669385
 30
0.0
 11
10.5134885598
 21
54.6279044646
 31
0.0
  0
LINE
  5
463
100
AcDbEntity
  8
0
100
AcDbLine
 62
250
  6
CONTINUOUS
 10
14.1134885598
 20
54.9276758477
 30
0.0
 11
12.6134885598
 21
54.8490641787
 31
0.0
  0
LINE
  5
464
100
AcDbEntity
  8
RACCORDO
100
AcDbLine
 62
7
  6
CONTINUOUS
 10
5.4850604274
 20
54.864375948
 30
0.0
 11
10.5134885598
 21
55.1279046997
 31
0.0
  0
LINE
  5
465
100
AcDbEntity
  8
0
100
AcDbLine
 62
7
  6
CONTINUOUS
 10
14.1134885598
 20
55.4279046997
 30
0.0
 11
12.6134885598
 21
55.3492930308
 31
0.0
  0
LINE
  5
466
100
AcDbEntity
  8
RACCORDO
100
AcDbLine
 62
250
  6
CONTINUOUS
 10
4.7301868651
 20
53.7361328435
 30
0.0
 11
4.3494704959
 21
53.7281052287
 31
0.0
  0
LINE
  5
467
100
AcDbEntity
  8
0
100
AcDbLine
 62
7
  6
CONTINUOUS
 10
25.622214763
 20
54.6113351979
 30
0.0
 11
16.1134885598
 21
54.4453597647
 31
0.0
  0
LINE
  5
468
100
AcDbEntity
  8
0
100
AcDbLine
 62
7
  6
CONTINUOUS
 10
26.1134885598
 20
53.9279046997
 30
0.0
 11
16.1134885598
 21
53.9279046997
 31
0.0
  0
LINE
  5
469
100
AcDbEntity
  8
0
100
AcDbLine
 62
250
  6
CONTINUOUS
 10
15.1134885598
 20
54.922103793
 30
0.0
 11
14.1134885598
 21
54.9279216228
 31
0.0
  0
LINE
  5
46A
100
AcDbEntity
  8
0
100
AcDbLine
 62
7
  6
CONTINUOUS
 10
25.1193062911
 20
55.3638747252
 30
0.0
 11
14.1134885598
 21
55.4279046997
 31
0.0
  0
LINE
  5
46B
100
AcDbEntity
  8
0
100
AcDbLine
 62
250
  6
CONTINUOUS
 10
11.862034127
 20
57.2648103518
 30
0.0
 11
14.1134885598
 21
57.2779089305
 31
0.0
  0
LINE
  5
46C
100
AcDbEntity
  8
0
100
AcDbLine
 62
7
  6
CONTINUOUS
 10
11.862034127
 20
57.514806121
 30
0.0
 11
14.1134885598
 21
57.5279046997
 31
0.0
  0
LINE
  5
46D
100
AcDbEntity
  8
0
100
AcDbLine
 62
250
  6
CONTINUOUS
 10
15.1134885598
 20
56.872242267
 30
0.0
 11
14.8649429926
 21
56.872242267
 31
0.0
  0
LINE
  5
46E
100
AcDbEntity
  8
0
100
AcDbLine
 62
250
  6
CONTINUOUS
 10
11.6134885598
 20
56.872242267
 30
0.0
 11
11.862034127
 21
56.872242267
 31
0.0
  0
LINE
  5
46F
100
AcDbEntity
  8
0
100
AcDbLine
 62
250
  6
CONTINUOUS
 10
11.6134885598
 20
57.2648103518
 30
0.0
 11
11.862034127
 21
57.2648103518
 31
0.0
  0
LINE
  5
470
100
AcDbEntity
  8
0
100
AcDbLine
 62
250
  6
CONTINUOUS
 10
15.1134885598
 20
57.2735370965
 30
0.0
 11
14.8649429926
 21
57.2735370965
 31
0.0
  0
LINE
  5
471
100
AcDbEntity
  8
0
100
AcDbLine
 62
7
  6
CONTINUOUS
 10
19.6163974255
 20
56.9958897125
 30
0.0
 11
15.1134885598
 21
57.0220868699
 31
0.0
  0
LINE
  5
472
100
AcDbEntity
  8
0
100
AcDbLine
 62
250
  6
CONTINUOUS
 10
14.1134885598
 20
57.2779089305
 30
0.0
 11
14.8649429926
 21
57.2735370965
 31
0.0
  0
LINE
  5
473
100
AcDbEntity
  8
0
100
AcDbLine
 62
7
  6
CONTINUOUS
 10
14.1134885598
 20
57.5279046997
 30
0.0
 11
14.8649429926
 21
57.5235328657
 31
0.0
  0
ARC
  5
474
100
AcDbEntity
  8
0
100
AcDbCircle
 62
7
  6
CONTINUOUS
 10
33.8925929286
 20
11.1281383408
 30
0.0
 40
0.5010462198
100
AcDbArc
 50
180.0005476341
 51
182.1368089705
  0
ARC
  5
475
100
AcDbEntity
  8
RACCORDO
100
AcDbCircle
 62
250
  6
CONTINUOUS
 10
34.1624023637
 20
11.6718570521
 30
0.0
 40
0.5004157457
100
AcDbArc
 50
180.1276222482
 51
269.935398387
  0
ARC
  5
476
100
AcDbEntity
  8
0
100
AcDbCircle
 62
7
  6
CONTINUOUS
 10
40.5406739556
 20
9.8779046997
 30
0.0
 40
0.5
100
AcDbArc
 50
154.1580672368
 51
205.8419327632
  0
ARC
  5
477
100
AcDbEntity
  8
0
100
AcDbCircle
 62
7
  6
CONTINUOUS
 10
48.5406739556
 20
9.8779046997
 30
0.0
 40
0.5
100
AcDbArc
 50
334.1580672368
 51
25.8419327632
  0
ARC
  5
478
100
AcDbEntity
  8
0
100
AcDbCircle
 62
7
  6
CONTINUOUS
 10
33.8902211139
 20
11.1278879733
 30
0.0
 40
0.4999835017
100
AcDbArc
 50
180.0000225334
 51
270.0547276814
  0
ARC
  5
479
100
AcDbEntity
  8
0
100
AcDbCircle
 62
7
  6
CONTINUOUS
 10
33.8913949992
 20
11.1276735726
 30
0.0
 40
0.4997971501
100
AcDbArc
 50
182.0886896209
 51
269.9201716728
  0
ARC
  5
47A
100
AcDbEntity
  8
0
100
AcDbCircle
 62
250
  6
CONTINUOUS
 10
34.6537791518
 20
8.791009896
 30
0.0
 40
0.2500066177
100
AcDbArc
 50
180.0024861811
 51
269.9975138189
  0
ARC
  5
47B
100
AcDbEntity
  8
0
100
AcDbCircle
 62
250
  6
CONTINUOUS
 10
37.0275687594
 20
8.791009896
 30
0.0
 40
0.2500066177
100
AcDbArc
 50
270.0024861811
 51
359.9975138189
  0
ARC
  5
47C
100
AcDbEntity
  8
0
100
AcDbCircle
 62
7
  6
CONTINUOUS
 10
34.6406686069
 20
8.7778993511
 30
0.0
 40
0.2499946513
100
AcDbArc
 50
179.9997437926
 51
270.0002562074
  0
ARC
  5
47D
100
AcDbEntity
  8
0
100
AcDbCircle
 62
7
  6
CONTINUOUS
 10
37.0406793043
 20
8.7778993511
 30
0.0
 40
0.2499946513
100
AcDbArc
 50
269.9997437926
 51
0.0002562074
  0
ARC
  5
47E
100
AcDbEntity
  8
0
100
AcDbCircle
 62
250
  6
CONTINUOUS
 10
45.7406727745
 20
9.2296556328
 30
0.0
 40
0.1999988149
100
AcDbArc
 50
180.5004468359
 51
270.0003383609
  0
ARC
  5
47F
100
AcDbEntity
  8
0
100
AcDbCircle
 62
250
  6
CONTINUOUS
 10
43.3406753537
 20
9.2296551614
 30
0.0
 40
0.1999983434
100
AcDbArc
 50
269.999599464
 51
357.4990138677
  0
ARC
  5
480
100
AcDbEntity
  8
0
100
AcDbCircle
 62
7
  6
CONTINUOUS
 10
43.3407830238
 20
9.2296595233
 30
0.0
 40
0.199890966
100
AcDbArc
 50
357.4990138677
 51
359.4981310773
  0
ARC
  5
481
100
AcDbEntity
  8
0
100
AcDbCircle
 62
7
  6
CONTINUOUS
 10
45.7405564017
 20
9.2279112829
 30
0.0
 40
0.1998824461
100
AcDbArc
 50
180.0009168221
 51
269.999564761
  0
ARC
  5
482
100
AcDbEntity
  8
0
100
AcDbCircle
 62
7
  6
CONTINUOUS
 10
43.3408673588
 20
9.2279102144
 30
0.0
 40
0.1998065968
100
AcDbArc
 50
270.000435239
 51
359.999389227
  0
ARC
  5
483
100
AcDbEntity
  8
0
100
AcDbCircle
 62
7
  6
CONTINUOUS
 10
43.3412445021
 20
9.2296535965
 30
0.0
 40
0.1994294535
100
AcDbArc
 50
359.4986724619
 51
359.9999531369
  0
ARC
  5
484
100
AcDbEntity
  8
0
100
AcDbCircle
 62
250
  6
CONTINUOUS
 10
45.7401009848
 20
9.2296535969
 30
0.0
 40
0.1994270291
100
AcDbArc
 50
180.000046973
 51
180.5012967607
  0
ARC
  5
485
100
AcDbEntity
  8
0
100
AcDbCircle
 62
7
  6
CONTINUOUS
 10
55.191123686
 20
11.1278933582
 30
0.0
 40
0.4999888836
100
AcDbArc
 50
269.9456294642
 51
336.4226461915
  0
ARC
  5
486
100
AcDbEntity
  8
0
100
AcDbCircle
 62
7
  6
CONTINUOUS
 10
55.1901183054
 20
11.1273970472
 30
0.0
 40
0.4994968435
100
AcDbArc
 50
270.0609006181
 51
336.4604742603
  0
ARC
  5
487
100
AcDbEntity
  8
0
100
AcDbCircle
 62
250
  6
CONTINUOUS
 10
54.4275687589
 20
8.7910098964
 30
0.0
 40
0.2500066182
100
AcDbArc
 50
270.0024862874
 51
359.9975137126
  0
ARC
  5
488
100
AcDbEntity
  8
0
100
AcDbCircle
 62
250
  6
CONTINUOUS
 10
52.0537791523
 20
8.7910098964
 30
0.0
 40
0.2500066182
100
AcDbArc
 50
180.0024862874
 51
269.9975137126
  0
ARC
  5
489
100
AcDbEntity
  8
0
100
AcDbCircle
 62
7
  6
CONTINUOUS
 10
54.4406793043
 20
8.7778993511
 30
0.0
 40
0.2499946513
100
AcDbArc
 50
269.9997437926
 51
0.0002562074
  0
ARC
  5
48A
100
AcDbEntity
  8
0
100
AcDbCircle
 62
7
  6
CONTINUOUS
 10
52.0406686069
 20
8.7778993511
 30
0.0
 40
0.2499946513
100
AcDbArc
 50
179.9997437926
 51
270.0002562074
  0
ARC
  5
48B
100
AcDbEntity
  8
0
100
AcDbCircle
 62
7
  6
CONTINUOUS
 10
67.0398018219
 20
20.0280451906
 30
0.0
 40
0.9800381301
100
AcDbArc
 50
355.5582036053
 51
359.9963861336
  0
ARC
  5
48C
100
AcDbEntity
  8
0
100
AcDbCircle
 62
7
  6
CONTINUOUS
 10
67.0395233889
 20
23.027862844
 30
0.0
 40
0.9780206565
100
AcDbArc
 50
175.60468005
 51
179.9954820064
  0
ARC
  5
48D
100
AcDbEntity
  8
RACCORDO
100
AcDbCircle
 62
250
  6
CONTINUOUS
 10
-18841.9666337281
 20
33.0279046357
 30
0.0
 40
18875.6573499297
100
AcDbArc
 50
359.9372049881
 51
0.0627950123
  0
ARC
  5
48E
100
AcDbEntity
  8
0
100
AcDbCircle
 62
7
  6
CONTINUOUS
 10
33.8925929286
 20
54.9276710587
 30
0.0
 40
0.5010462198
100
AcDbArc
 50
177.8631910301
 51
179.9994523659
  0
ARC
  5
48F
100
AcDbEntity
  8
RACCORDO
100
AcDbCircle
 62
250
  6
CONTINUOUS
 10
34.1624023655
 20
54.3839523461
 30
0.0
 40
0.5004157477
100
AcDbArc
 50
90.064601853
 51
179.8723775409
  0
ARC
  5
490
100
AcDbEntity
  8
0
100
AcDbCircle
 62
7
  6
CONTINUOUS
 10
33.8902211139
 20
54.9279214261
 30
0.0
 40
0.4999835017
100
AcDbArc
 50
89.9452723311
 51
179.9999774666
  0
ARC
  5
491
100
AcDbEntity
  8
0
100
AcDbCircle
 62
7
  6
CONTINUOUS
 10
33.8913949753
 20
54.9281358517
 30
0.0
 40
0.4997971501
100
AcDbArc
 50
90.0798255991
 51
177.9113131225
  0
ARC
  5
492
100
AcDbEntity
  8
0
100
AcDbCircle
 62
7
  6
CONTINUOUS
 10
40.5406739556
 20
56.1779046997
 30
0.0
 40
0.5
100
AcDbArc
 50
154.1580672368
 51
205.8419327632
  0
ARC
  5
493
100
AcDbEntity
  8
0
100
AcDbCircle
 62
250
  6
CONTINUOUS
 10
37.0275687594
 20
57.2647995035
 30
0.0
 40
0.2500066177
100
AcDbArc
 50
0.0024861811
 51
89.9975138189
  0
ARC
  5
494
100
AcDbEntity
  8
0
100
AcDbCircle
 62
250
  6
CONTINUOUS
 10
34.6537791518
 20
57.2647995035
 30
0.0
 40
0.2500066177
100
AcDbArc
 50
90.0024861811
 51
179.9975138189
  0
ARC
  5
495
100
AcDbEntity
  8
0
100
AcDbCircle
 62
7
  6
CONTINUOUS
 10
37.0406793043
 20
57.2779100484
 30
0.0
 40
0.2499946513
100
AcDbArc
 50
359.9997437926
 51
90.0002562074
  0
ARC
  5
496
100
AcDbEntity
  8
0
100
AcDbCircle
 62
7
  6
CONTINUOUS
 10
34.6406686069
 20
57.2779100484
 30
0.0
 40
0.2499946513
100
AcDbArc
 50
89.9997437926
 51
180.0002562074
  0
ARC
  5
497
100
AcDbEntity
  8
0
100
AcDbCircle
 62
250
  6
CONTINUOUS
 10
43.3406751367
 20
56.8261537666
 30
0.0
 40
0.1999988149
100
AcDbArc
 50
0.5004468359
 51
90.0003383609
  0
ARC
  5
498
100
AcDbEntity
  8
0
100
AcDbCircle
 62
7
  6
CONTINUOUS
 10
43.3407915096
 20
56.8278981166
 30
0.0
 40
0.1998824461
100
AcDbArc
 50
0.0009168222
 51
89.999564761
  0
ARC
  5
499
100
AcDbEntity
  8
0
100
AcDbCircle
 62
250
  6
CONTINUOUS
 10
43.3412469265
 20
56.8261558026
 30
0.0
 40
0.1994270291
100
AcDbArc
 50
0.000046973
 51
0.5012967607
  0
ARC
  5
49A
100
AcDbEntity
  8
0
100
AcDbCircle
 62
7
  6
CONTINUOUS
 10
55.1911170178
 20
54.9279058552
 30
0.0
 40
0.5000001395
100
AcDbArc
 50
23.5781179647
 51
90.0536053219
  0
ARC
  5
49B
100
AcDbEntity
  8
0
100
AcDbCircle
 62
7
  6
CONTINUOUS
 10
55.1901182369
 20
54.9284122479
 30
0.0
 40
0.4994968435
100
AcDbArc
 50
23.5395335816
 51
89.9390915521
  0
ARC
  5
49C
100
AcDbEntity
  8
0
100
AcDbCircle
 62
7
  6
CONTINUOUS
 10
48.5406739556
 20
56.1779046997
 30
0.0
 40
0.5
100
AcDbArc
 50
334.1580672368
 51
25.8419327632
  0
ARC
  5
49D
100
AcDbEntity
  8
0
100
AcDbCircle
 62
250
  6
CONTINUOUS
 10
54.4275687589
 20
57.264799503
 30
0.0
 40
0.2500066182
100
AcDbArc
 50
0.0024862874
 51
89.9975137126
  0
ARC
  5
49E
100
AcDbEntity
  8
0
100
AcDbCircle
 62
250
  6
CONTINUOUS
 10
52.0537791518
 20
57.2647995035
 30
0.0
 40
0.2500066177
100
AcDbArc
 50
90.0024861811
 51
179.9975138189
  0
ARC
  5
49F
100
AcDbEntity
  8
0
100
AcDbCircle
 62
7
  6
CONTINUOUS
 10
54.4406793043
 20
57.2779100484
 30
0.0
 40
0.2499946513
100
AcDbArc
 50
359.9997437926
 51
90.0002562074
  0
ARC
  5
4A0
100
AcDbEntity
  8
0
100
AcDbCircle
 62
7
  6
CONTINUOUS
 10
52.0406686069
 20
57.2779100484
 30
0.0
 40
0.2499946513
100
AcDbArc
 50
89.9997437926
 51
180.0002562074
  0
ARC
  5
4A1
100
AcDbEntity
  8
0
100
AcDbCircle
 62
250
  6
CONTINUOUS
 10
45.7406725575
 20
56.8261542381
 30
0.0
 40
0.1999983434
100
AcDbArc
 50
89.999599464
 51
177.4990138679
  0
ARC
  5
4A2
100
AcDbEntity
  8
0
100
AcDbCircle
 62
7
  6
CONTINUOUS
 10
45.7405648875
 20
56.8261498762
 30
0.0
 40
0.1998909661
100
AcDbArc
 50
177.4990138679
 51
179.498131077
  0
ARC
  5
4A3
100
AcDbEntity
  8
0
100
AcDbCircle
 62
7
  6
CONTINUOUS
 10
45.7404805524
 20
56.8278991851
 30
0.0
 40
0.1998065968
100
AcDbArc
 50
90.000435239
 51
179.999389227
  0
ARC
  5
4A4
100
AcDbEntity
  8
0
100
AcDbCircle
 62
7
  6
CONTINUOUS
 10
45.7401034092
 20
56.826155803
 30
0.0
 40
0.1994294535
100
AcDbArc
 50
179.4986724619
 51
179.9999531369
  0
ARC
  5
4A5
100
AcDbEntity
  8
RACCORDO
100
AcDbCircle
 62
250
  6
CONTINUOUS
 10
67.040673917
 20
-27008.2483653058
 30
0.0
 40
27019.4397974521
100
AcDbArc
 50
89.9302791246
 51
90.0697208752
  0
ARC
  5
4A6
100
AcDbEntity
  8
DRAFT
100
AcDbCircle
 62
7
  6
CONTINUOUS
 10
67.0406721548
 20
23.0279935364
 30
0.0
 40
0.9791674122
100
AcDbArc
 50
359.9971191523
 51
180.0031347266
  0
ARC
  5
4A7
100
AcDbEntity
  8
0
100
AcDbCircle
 62
7
  6
CONTINUOUS
 10
67.0406683013
 20
23.0280037132
 30
0.0
 40
0.9791623023
100
AcDbArc
 50
359.9965236745
 51
175.6180332397
  0
ARC
  5
4A8
100
AcDbEntity
  8
DRAFT
100
AcDbCircle
 62
7
  6
CONTINUOUS
 10
67.0406780403
 20
20.0278208967
 30
0.0
 40
0.9791488019
100
AcDbArc
 50
179.9880828731
 51
0.0095074908
  0
ARC
  5
4A9
100
AcDbEntity
  8
0
100
AcDbCircle
 62
7
  6
CONTINUOUS
 10
67.0406702638
 20
20.0278066057
 30
0.0
 40
0.9791367264
100
AcDbArc
 50
179.987246539
 51
355.5681869899
  0
ARC
  5
4AA
100
AcDbEntity
  8
0
100
AcDbCircle
 62
7
  6
CONTINUOUS
 10
78.8902308867
 20
11.1279035338
 30
0.0
 40
0.5000001395
100
AcDbArc
 50
203.5781171788
 51
270.0536060974
  0
ARC
  5
4AB
100
AcDbEntity
  8
0
100
AcDbCircle
 62
7
  6
CONTINUOUS
 10
78.8912296081
 20
11.1273970457
 30
0.0
 40
0.4994968435
100
AcDbArc
 50
203.5395254781
 51
269.939099136
  0
ARC
  5
4AC
100
AcDbEntity
  8
0
100
AcDbCircle
 62
250
  6
CONTINUOUS
 10
79.6537791518
 20
8.791009896
 30
0.0
 40
0.2500066177
100
AcDbArc
 50
180.0024861811
 51
269.9975138189
  0
ARC
  5
4AD
100
AcDbEntity
  8
0
100
AcDbCircle
 62
250
  6
CONTINUOUS
 10
82.0275687594
 20
8.791009896
 30
0.0
 40
0.2500066177
100
AcDbArc
 50
270.0024861811
 51
359.9975138189
  0
ARC
  5
4AE
100
AcDbEntity
  8
0
100
AcDbCircle
 62
7
  6
CONTINUOUS
 10
79.6406686069
 20
8.7778993511
 30
0.0
 40
0.2499946513
100
AcDbArc
 50
179.9997437926
 51
270.0002562074
  0
ARC
  5
4AF
100
AcDbEntity
  8
0
100
AcDbCircle
 62
7
  6
CONTINUOUS
 10
82.0406793043
 20
8.7778993511
 30
0.0
 40
0.2499946513
100
AcDbArc
 50
269.9997437926
 51
0.0002562074
  0
ARC
  5
4B0
100
AcDbEntity
  8
0
100
AcDbCircle
 62
7
  6
CONTINUOUS
 10
100.1887549827
 20
11.1281383408
 30
0.0
 40
0.5010462197
100
AcDbArc
 50
357.8631910299
 51
359.9994523661
  0
ARC
  5
4B1
100
AcDbEntity
  8
RACCORDO
100
AcDbCircle
 62
250
  6
CONTINUOUS
 10
99.9189455484
 20
11.6718570561
 30
0.0
 40
0.5004157477
100
AcDbArc
 50
270.0646015426
 51
359.8723772264
  0
ARC
  5
4B2
100
AcDbEntity
  8
0
100
AcDbCircle
 62
7
  6
CONTINUOUS
 10
85.5406739556
 20
9.8779046997
 30
0.0
 40
0.5
100
AcDbArc
 50
154.1580672368
 51
205.8419327632
  0
ARC
  5
4B3
100
AcDbEntity
  8
0
100
AcDbCircle
 62
7
  6
CONTINUOUS
 10
93.5406739556
 20
9.8779046997
 30
0.0
 40
0.5
100
AcDbArc
 50
334.1580672368
 51
25.8419327632
  0
ARC
  5
4B4
100
AcDbEntity
  8
0
100
AcDbCircle
 62
7
  6
CONTINUOUS
 10
100.1911267973
 20
11.1278879733
 30
0.0
 40
0.4999835017
100
AcDbArc
 50
269.9452723311
 51
359.9999774666
  0
ARC
  5
4B5
100
AcDbEntity
  8
0
100
AcDbCircle
 62
7
  6
CONTINUOUS
 10
100.1899529121
 20
11.1276735727
 30
0.0
 40
0.4997971501
100
AcDbArc
 50
270.0798283321
 51
357.911310366
  0
ARC
  5
4B6
100
AcDbEntity
  8
0
100
AcDbCircle
 62
250
  6
CONTINUOUS
 10
99.4275687589
 20
8.7910098964
 30
0.0
 40
0.2500066182
100
AcDbArc
 50
270.0024862874
 51
359.9975137126
  0
ARC
  5
4B7
100
AcDbEntity
  8
0
100
AcDbCircle
 62
250
  6
CONTINUOUS
 10
97.0537791523
 20
8.7910098964
 30
0.0
 40
0.2500066182
100
AcDbArc
 50
180.0024862874
 51
269.9975137126
  0
ARC
  5
4B8
100
AcDbEntity
  8
0
100
AcDbCircle
 62
7
  6
CONTINUOUS
 10
99.4406793043
 20
8.7778993511
 30
0.0
 40
0.2499946513
100
AcDbArc
 50
269.9997437926
 51
0.0002562074
  0
ARC
  5
4B9
100
AcDbEntity
  8
0
100
AcDbCircle
 62
7
  6
CONTINUOUS
 10
97.0406686069
 20
8.7778993511
 30
0.0
 40
0.2499946513
100
AcDbArc
 50
179.9997437926
 51
270.0002562074
  0
ARC
  5
4BA
100
AcDbEntity
  8
0
100
AcDbCircle
 62
250
  6
CONTINUOUS
 10
90.7406727745
 20
9.2296556328
 30
0.0
 40
0.1999988149
100
AcDbArc
 50
180.5004468359
 51
270.0003383609
  0
ARC
  5
4BB
100
AcDbEntity
  8
0
100
AcDbCircle
 62
250
  6
CONTINUOUS
 10
88.3406753537
 20
9.2296551614
 30
0.0
 40
0.1999983434
100
AcDbArc
 50
269.999599464
 51
357.4990138677
  0
ARC
  5
4BC
100
AcDbEntity
  8
0
100
AcDbCircle
 62
7
  6
CONTINUOUS
 10
88.3407830238
 20
9.2296595233
 30
0.0
 40
0.199890966
100
AcDbArc
 50
357.4990138677
 51
359.4981310771
  0
ARC
  5
4BD
100
AcDbEntity
  8
0
100
AcDbCircle
 62
7
  6
CONTINUOUS
 10
90.7405564016
 20
9.2279112829
 30
0.0
 40
0.199882446
100
AcDbArc
 50
180.0009168219
 51
269.999564761
  0
ARC
  5
4BE
100
AcDbEntity
  8
0
100
AcDbCircle
 62
7
  6
CONTINUOUS
 10
88.3408673589
 20
9.2279102144
 30
0.0
 40
0.1998065968
100
AcDbArc
 50
270.000435239
 51
359.9993892272
  0
ARC
  5
4BF
100
AcDbEntity
  8
0
100
AcDbCircle
 62
7
  6
CONTINUOUS
 10
88.3412445007
 20
9.2296535965
 30
0.0
 40
0.1994294549
100
AcDbArc
 50
359.4986724639
 51
359.9999531355
  0
ARC
  5
4C0
100
AcDbEntity
  8
0
100
AcDbCircle
 62
250
  6
CONTINUOUS
 10
90.7401009847
 20
9.2296535969
 30
0.0
 40
0.1994270291
100
AcDbArc
 50
180.0000469736
 51
180.5012967612
  0
ARC
  5
4C1
100
AcDbEntity
  8
0
100
AcDbCircle
 62
7
  6
CONTINUOUS
 10
78.8902242253
 20
54.9279160412
 30
0.0
 40
0.4999888836
100
AcDbArc
 50
89.9456294642
 51
156.4226461914
  0
ARC
  5
4C2
100
AcDbEntity
  8
0
100
AcDbCircle
 62
7
  6
CONTINUOUS
 10
78.8912296766
 20
54.9284122494
 30
0.0
 40
0.4994968435
100
AcDbArc
 50
90.0609087188
 51
156.4604666798
  0
ARC
  5
4C3
100
AcDbEntity
  8
0
100
AcDbCircle
 62
7
  6
CONTINUOUS
 10
85.5406739556
 20
56.1779046997
 30
0.0
 40
0.5
100
AcDbArc
 50
154.1580672368
 51
205.8419327632
  0
ARC
  5
4C4
100
AcDbEntity
  8
0
100
AcDbCircle
 62
250
  6
CONTINUOUS
 10
82.0275687594
 20
57.2647995035
 30
0.0
 40
0.2500066177
100
AcDbArc
 50
0.0024861811
 51
89.9975138189
  0
ARC
  5
4C5
100
AcDbEntity
  8
0
100
AcDbCircle
 62
250
  6
CONTINUOUS
 10
79.6537791518
 20
57.2647995035
 30
0.0
 40
0.2500066177
100
AcDbArc
 50
90.0024861811
 51
179.9975138189
  0
ARC
  5
4C6
100
AcDbEntity
  8
0
100
AcDbCircle
 62
7
  6
CONTINUOUS
 10
82.0406793043
 20
57.2779100484
 30
0.0
 40
0.2499946513
100
AcDbArc
 50
359.9997437926
 51
90.0002562074
  0
ARC
  5
4C7
100
AcDbEntity
  8
0
100
AcDbCircle
 62
7
  6
CONTINUOUS
 10
79.6406686069
 20
57.2779100484
 30
0.0
 40
0.2499946513
100
AcDbArc
 50
89.9997437926
 51
180.0002562074
  0
ARC
  5
4C8
100
AcDbEntity
  8
0
100
AcDbCircle
 62
250
  6
CONTINUOUS
 10
88.3406751367
 20
56.8261537666
 30
0.0
 40
0.1999988149
100
AcDbArc
 50
0.5004468359
 51
90.0003383608
  0
ARC
  5
4C9
100
AcDbEntity
  8
0
100
AcDbCircle
 62
7
  6
CONTINUOUS
 10
88.3407915096
 20
56.8278981166
 30
0.0
 40
0.199882446
100
AcDbArc
 50
0.0009168219
 51
89.999564761
  0
ARC
  5
4CA
100
AcDbEntity
  8
0
100
AcDbCircle
 62
250
  6
CONTINUOUS
 10
88.3412469274
 20
56.8261558026
 30
0.0
 40
0.1994270283
100
AcDbArc
 50
0.0000469719
 51
0.5012967618
  0
ARC
  5
4CB
100
AcDbEntity
  8
0
100
AcDbCircle
 62
7
  6
CONTINUOUS
 10
100.1887549827
 20
54.9276710587
 30
0.0
 40
0.5010462197
100
AcDbArc
 50
0.0005476338
 51
2.1368089706
  0
ARC
  5
4CC
100
AcDbEntity
  8
RACCORDO
100
AcDbCircle
 62
250
  6
CONTINUOUS
 10
99.9189455502
 20
54.3839523446
 30
0.0
 40
0.5004157457
100
AcDbArc
 50
0.1276225588
 51
89.9353987012
  0
ARC
  5
4CD
100
AcDbEntity
  8
0
100
AcDbCircle
 62
7
  6
CONTINUOUS
 10
100.1911267973
 20
54.9279214261
 30
0.0
 40
0.4999835017
100
AcDbArc
 50
0.0000225334
 51
90.0547276814
  0
ARC
  5
4CE
100
AcDbEntity
  8
0
100
AcDbCircle
 62
7
  6
CONTINUOUS
 10
100.1899529361
 20
54.9281358515
 30
0.0
 40
0.4997971501
100
AcDbArc
 50
2.0886868952
 51
89.9201744244
  0
ARC
  5
4CF
100
AcDbEntity
  8
0
100
AcDbCircle
 62
7
  6
CONTINUOUS
 10
93.5406739556
 20
56.1779046997
 30
0.0
 40
0.5
100
AcDbArc
 50
334.1580672368
 51
25.8419327632
  0
ARC
  5
4D0
100
AcDbEntity
  8
0
100
AcDbCircle
 62
250
  6
CONTINUOUS
 10
99.4275687589
 20
57.264799503
 30
0.0
 40
0.2500066182
100
AcDbArc
 50
0.0024862874
 51
89.9975137126
  0
ARC
  5
4D1
100
AcDbEntity
  8
0
100
AcDbCircle
 62
250
  6
CONTINUOUS
 10
97.0537791518
 20
57.2647995035
 30
0.0
 40
0.2500066177
100
AcDbArc
 50
90.0024861811
 51
179.9975138189
  0
ARC
  5
4D2
100
AcDbEntity
  8
0
100
AcDbCircle
 62
7
  6
CONTINUOUS
 10
99.4406793043
 20
57.2779100484
 30
0.0
 40
0.2499946513
100
AcDbArc
 50
359.9997437926
 51
90.0002562074
  0
ARC
  5
4D3
100
AcDbEntity
  8
0
100
AcDbCircle
 62
7
  6
CONTINUOUS
 10
97.0406686069
 20
57.2779100484
 30
0.0
 40
0.2499946513
100
AcDbArc
 50
89.9997437926
 51
180.0002562074
  0
ARC
  5
4D4
100
AcDbEntity
  8
0
100
AcDbCircle
 62
250
  6
CONTINUOUS
 10
90.7406725575
 20
56.8261542381
 30
0.0
 40
0.1999983434
100
AcDbArc
 50
89.999599464
 51
177.4990138677
  0
ARC
  5
4D5
100
AcDbEntity
  8
0
100
AcDbCircle
 62
7
  6
CONTINUOUS
 10
90.7405648874
 20
56.8261498762
 30
0.0
 40
0.199890966
100
AcDbArc
 50
177.4990138677
 51
179.4981310771
  0
ARC
  5
4D6
100
AcDbEntity
  8
0
100
AcDbCircle
 62
7
  6
CONTINUOUS
 10
90.7404805524
 20
56.8278991851
 30
0.0
 40
0.1998065968
100
AcDbArc
 50
90.000435239
 51
179.999389227
  0
ARC
  5
4D7
100
AcDbEntity
  8
0
100
AcDbCircle
 62
7
  6
CONTINUOUS
 10
90.7401034105
 20
56.826155803
 30
0.0
 40
0.1994294549
100
AcDbArc
 50
179.4986724638
 51
179.9999531355
  0
ARC
  5
4D8
100
AcDbEntity
  8
RACCORDO
100
AcDbCircle
 62
250
  6
CONTINUOUS
 10
67.0406740091
 20
27074.3040639336
 30
0.0
 40
27019.4396866806
100
AcDbArc
 50
269.9302791243
 51
270.0697208755
  0
ARC
  5
4D9
100
AcDbEntity
  8
RACCORDO
100
AcDbCircle
 62
250
  6
CONTINUOUS
 10
18976.0480014719
 20
33.0279047623
 30
0.0
 40
18875.6573697622
100
AcDbArc
 50
179.9372049882
 51
180.0627950122
  0
ARC
  5
4DA
100
AcDbEntity
  8
0
100
AcDbCircle
 62
7
  6
CONTINUOUS
 10
14.8634885598
 20
8.782272303
 30
0.0
 40
0.25
100
AcDbArc
 50
270.3333333333
 51
360.0
  0
ARC
  5
4DB
100
AcDbEntity
  8
0
100
AcDbCircle
 62
7
  6
CONTINUOUS
 10
11.8634885598
 20
8.7909990477
 30
0.0
 40
0.25
100
AcDbArc
 50
180.0
 51
269.6666666667
  0
ARC
  5
4DC
100
AcDbEntity
  8
0
100
AcDbCircle
 62
7
  6
CONTINUOUS
 10
14.8634885598
 20
9.1835671324
 30
0.0
 40
0.25
100
AcDbArc
 50
0.0
 51
60.0
  0
ARC
  5
4DD
100
AcDbEntity
  8
0
100
AcDbCircle
 62
7
  6
CONTINUOUS
 10
11.8634885598
 20
9.1835671324
 30
0.0
 40
0.25
100
AcDbArc
 50
120.0
 51
180.0
  0
ARC
  5
4DE
100
AcDbEntity
  8
RACCORDO
100
AcDbCircle
 62
7
  6
CONTINUOUS
 10
5.9303087428
 20
12.3750840676
 30
0.0
 40
1.2053310386
100
AcDbArc
 50
256.5467268342
 51
266.979362551
  0
ARC
  5
4DF
100
AcDbEntity
  8
RACCORDO
100
AcDbCircle
 62
250
  6
CONTINUOUS
 10
5.9292360676
 20
12.369996542
 30
0.0
 40
1.2001135073
100
AcDbArc
 50
182.4030974639
 51
250.8918561356
  0
ARC
  5
4E0
100
AcDbEntity
  8
RACCORDO
100
AcDbCircle
 62
7
  6
CONTINUOUS
 10
5.5478635736
 20
12.3897888932
 30
0.0
 40
1.2
100
AcDbArc
 50
182.9664171381
 51
267.0
  0
ARC
  5
4E1
100
AcDbEntity
  8
RACCORDO
100
AcDbCircle
 62
250
  6
CONTINUOUS
 10
5.9289822521
 20
12.3687244433
 30
0.0
 40
1.1988373265
100
AcDbArc
 50
250.8834162404
 51
256.537670608
  0
ARC
  5
4E2
100
AcDbEntity
  8
RACCORDO
100
AcDbCircle
 62
250
  6
CONTINUOUS
 10
5.9162409075
 20
12.37017177
 30
0.0
 40
0.7003569705
100
AcDbArc
 50
182.4223819801
 51
267.0234606625
  0
ARC
  5
4E3
100
AcDbEntity
  8
0
100
AcDbCircle
 62
7
  6
CONTINUOUS
 10
19.6134885598
 20
9.5599112254
 30
0.0
 40
0.5
100
AcDbArc
 50
270.3333333333
 51
360.0
  0
ARC
  5
4E4
100
AcDbEntity
  8
0
100
AcDbCircle
 62
7
  6
CONTINUOUS
 10
25.1134885598
 20
11.6919177511
 30
0.0
 40
1.0
100
AcDbArc
 50
270.3333333333
 51
360.0
  0
ARC
  5
4E5
100
AcDbEntity
  8
RACCORDO
100
AcDbCircle
 62
7
  6
CONTINUOUS
 10
25.9134885598
 20
14.2878631917
 30
0.0
 40
0.2
100
AcDbArc
 50
0.0
 51
69.9999998795
  0
ARC
  5
4E6
100
AcDbEntity
  8
RACCORDO
100
AcDbCircle
 62
7
  6
CONTINUOUS
 10
25.9134885598
 20
13.0336469119
 30
0.0
 40
0.2
100
AcDbArc
 50
0.0
 51
89.5
  0
ARC
  5
4E7
100
AcDbEntity
  8
0
100
AcDbCircle
 62
7
  6
CONTINUOUS
 10
25.9134885598
 20
14.2878631917
 30
0.0
 40
0.2
100
AcDbArc
 50
0.0
 51
69.9999998795
  0
ARC
  5
4E8
100
AcDbEntity
  8
0
100
AcDbCircle
 62
7
  6
CONTINUOUS
 10
25.9134885598
 20
13.0336469119
 30
0.0
 40
0.2
100
AcDbArc
 50
0.0
 51
89.5
  0
ARC
  5
4E9
100
AcDbEntity
  8
RACCORDO
100
AcDbCircle
 62
7
  6
CONTINUOUS
 10
5.9303087096
 20
53.6807254387
 30
0.0
 40
1.2053309302
100
AcDbArc
 50
93.020636683
 51
103.4527639124
  0
ARC
  5
4EA
100
AcDbEntity
  8
RACCORDO
100
AcDbCircle
 62
250
  6
CONTINUOUS
 10
5.9292360565
 20
53.6858128574
 30
0.0
 40
1.2001135069
100
AcDbArc
 50
109.1081439607
 51
177.5969025651
  0
ARC
  5
4EB
100
AcDbEntity
  8
RACCORDO
100
AcDbCircle
 62
7
  6
CONTINUOUS
 10
5.5478635749
 20
53.6660205063
 30
0.0
 40
1.2
100
AcDbArc
 50
93.0
 51
177.0335828619
  0
ARC
  5
4EC
100
AcDbEntity
  8
RACCORDO
100
AcDbCircle
 62
250
  6
CONTINUOUS
 10
5.9289823252
 20
53.6870846473
 30
0.0
 40
1.1988376454
100
AcDbArc
 50
103.4618176938
 51
109.1165828228
  0
ARC
  5
4ED
100
AcDbEntity
  8
RACCORDO
100
AcDbCircle
 62
250
  6
CONTINUOUS
 10
5.916240891
 20
53.6856376389
 30
0.0
 40
0.7003569598
100
AcDbArc
 50
92.9765389623
 51
177.5776188208
  0
ARC
  5
4EE
100
AcDbEntity
  8
0
100
AcDbCircle
 62
7
  6
CONTINUOUS
 10
11.8634885598
 20
56.872242267
 30
0.0
 40
0.25
100
AcDbArc
 50
180.0
 51
240.0
  0
ARC
  5
4EF
100
AcDbEntity
  8
0
100
AcDbCircle
 62
7
  6
CONTINUOUS
 10
11.8634885598
 20
57.2648103518
 30
0.0
 40
0.25
100
AcDbArc
 50
90.3333333333
 51
180.0
  0
ARC
  5
4F0
100
AcDbEntity
  8
0
100
AcDbCircle
 62
7
  6
CONTINUOUS
 10
14.8634885598
 20
56.872242267
 30
0.0
 40
0.25
100
AcDbArc
 50
300.0
 51
360.0
  0
ARC
  5
4F1
100
AcDbEntity
  8
0
100
AcDbCircle
 62
7
  6
CONTINUOUS
 10
14.8634885598
 20
57.2735370965
 30
0.0
 40
0.25
100
AcDbArc
 50
0.0
 51
89.6666666667
  0
ARC
  5
4F2
100
AcDbEntity
  8
0
100
AcDbCircle
 62
7
  6
CONTINUOUS
 10
25.1134885598
 20
54.3638916484
 30
0.0
 40
1.0
100
AcDbArc
 50
0.0
 51
89.6666666667
  0
ARC
  5
4F3
100
AcDbEntity
  8
RACCORDO
100
AcDbCircle
 62
7
  6
CONTINUOUS
 10
25.9134885598
 20
51.7679462078
 30
0.0
 40
0.2
100
AcDbArc
 50
290.0000001205
 51
360.0
  0
ARC
  5
4F4
100
AcDbEntity
  8
RACCORDO
100
AcDbCircle
 62
7
  6
CONTINUOUS
 10
25.9134885598
 20
53.0221624876
 30
0.0
 40
0.2
100
AcDbArc
 50
270.5
 51
360.0
  0
ARC
  5
4F5
100
AcDbEntity
  8
0
100
AcDbCircle
 62
7
  6
CONTINUOUS
 10
25.9134885598
 20
51.7679462078
 30
0.0
 40
0.2
100
AcDbArc
 50
290.0000001205
 51
360.0
  0
ARC
  5
4F6
100
AcDbEntity
  8
0
100
AcDbCircle
 62
7
  6
CONTINUOUS
 10
25.9134885598
 20
53.0221624876
 30
0.0
 40
0.2
100
AcDbArc
 50
270.5
 51
360.0
  0
ARC
  5
4F7
100
AcDbEntity
  8
0
100
AcDbCircle
 62
7
  6
CONTINUOUS
 10
19.6134885598
 20
56.4958981741
 30
0.0
 40
0.5
100
AcDbArc
 50
0.0
 51
89.6666666667
  0
ARC
  5
4F8
100
AcDbEntity
  8
RACCORDO
100
AcDbCircle
 62
250
  6
CONTINUOUS
 10
499.4146009654
 20
33.027904701
 30
0.0
 40
495.1176630525
100
AcDbArc
 50
177.602912679
 51
182.3970873214
  0
ARC
  5
4F9
100
AcDbEntity
  8
RACCORDO
100
AcDbCircle
 62
250
  6
CONTINUOUS
 10
499.3070732965
 20
33.0279047622
 30
0.0
 40
494.5234400883
100
AcDbArc
 50
177.602453643
 51
182.3975463716
  0
SPLINE
  5
4FA
100
AcDbEntity
  8
0
100
AcDbSpline
 62
7
  6
CONTINUOUS
 70
0
 71
3
 72
15
 73
11
 74
0
 42
0.0000001
 43
0.0000001
 44
0.0000000001
 40
0.0
 40
0.0
 40
0.0
 40
0.0
 40
0.1666133779
 40
0.3262255844
 40
0.4735308137
 40
0.6056575217
 40
0.7220676483
 40
0.8241942131
 40
0.9152281509
 40
1.0
 40
1.0
 40
1.0
 40
1.0
 10
37.0333974375
 20
56.1505544305
 30
0.0
 10
37.0508524573
 20
56.1505544305
 30
0.0
 10
37.0850596485
 20
56.1528144048
 30
0.0
 10
37.1339360502
 20
56.161982276
 30
0.0
 10
37.1777774617
 20
56.1763816634
 30
0.0
 10
37.2150201323
 20
56.1950058815
 30
0.0
 10
37.2447724605
 20
56.216915822
 30
0.0
 10
37.2665689854
 20
56.2413154393
 30
0.0
 10
37.2800726397
 20
56.2675157237
 30
0.0
 10
37.2833037216
 20
56.2860114433
 30
0.0
 10
37.2833932067
 20
56.2948919978
 30
0.0
  0
SPLINE
  5
4FB
100
AcDbEntity
  8
0
100
AcDbSpline
 62
7
  6
CONTINUOUS
 70
0
 71
3
 72
15
 73
11
 74
0
 42
0.0000001
 43
0.0000001
 44
0.0000000001
 40
0.0
 40
0.0
 40
0.0
 40
0.0
 40
0.0847246382
 40
0.1757279367
 40
0.2778501555
 40
0.3942839058
 40
0.5264550939
 40
0.6738071548
 40
0.8334364544
 40
1.0
 40
1.0
 40
1.0
 40
1.0
 10
34.3979547045
 20
56.2948919978
 30
0.0
 10
34.3980443461
 20
56.2859959114
 30
0.0
 10
34.4012871352
 20
56.2674655026
 30
0.0
 10
34.4148385257
 20
56.241222114
 30
0.0
 10
34.4367099706
 20
56.2167891891
 30
0.0
 10
34.4665620317
 20
56.1948594433
 30
0.0
 10
34.5039247626
 20
56.1762321496
 30
0.0
 10
34.5478973678
 20
56.1618581707
 30
0.0
 10
34.5969009485
 20
56.1527197689
 30
0.0
 10
34.6311876435
 20
56.1505544305
 30
0.0
 10
34.6486777025
 20
56.1505544305
 30
0.0
  0
SPLINE
  5
4FC
100
AcDbEntity
  8
0
100
AcDbSpline
 62
7
  6
CONTINUOUS
 70
0
 71
3
 72
15
 73
11
 74
0
 42
0.0000001
 43
0.0000001
 44
0.0000000001
 40
0.0
 40
0.0
 40
0.0
 40
0.0
 40
0.0847246382
 40
0.1757279367
 40
0.2778501555
 40
0.3942839058
 40
0.5264550939
 40
0.6738071548
 40
0.8334364544
 40
1.0
 40
1.0
 40
1.0
 40
1.0
 10
51.7979547045
 20
56.2948919978
 30
0.0
 10
51.7980443461
 20
56.2859959114
 30
0.0
 10
51.8012871352
 20
56.2674655026
 30
0.0
 10
51.8148385257
 20
56.241222114
 30
0.0
 10
51.8367099706
 20
56.2167891891
 30
0.0
 10
51.8665620317
 20
56.1948594433
 30
0.0
 10
51.9039247626
 20
56.1762321496
 30
0.0
 10
51.9478973678
 20
56.1618581707
 30
0.0
 10
51.9969009485
 20
56.1527197689
 30
0.0
 10
52.0311876435
 20
56.1505544305
 30
0.0
 10
52.0486777025
 20
56.1505544305
 30
0.0
  0
SPLINE
  5
4FD
100
AcDbEntity
  8
0
100
AcDbSpline
 62
7
  6
CONTINUOUS
 70
0
 71
3
 72
15
 73
11
 74
0
 42
0.0000001
 43
0.0000001
 44
0.0000000001
 40
0.0
 40
0.0
 40
0.0
 40
0.0
 40
0.0847246382
 40
0.1757279367
 40
0.2778501555
 40
0.3942839058
 40
0.5264550939
 40
0.6738071548
 40
0.8334364544
 40
1.0
 40
1.0
 40
1.0
 40
1.0
 10
54.6833932067
 20
56.2948919978
 30
0.0
 10
54.6833035651
 20
56.2859959114
 30
0.0
 10
54.6800607761
 20
56.2674655026
 30
0.0
 10
54.6665093855
 20
56.241222114
 30
0.0
 10
54.6446379406
 20
56.2167891891
 30
0.0
 10
54.6147858796
 20
56.1948594433
 30
0.0
 10
54.5774231486
 20
56.1762321496
 30
0.0
 10
54.5334505434
 20
56.1618581707
 30
0.0
 10
54.4844469627
 20
56.1527197689
 30
0.0
 10
54.4501602677
 20
56.1505544305
 30
0.0
 10
54.4326702088
 20
56.1505544305
 30
0.0
  0
SPLINE
  5
4FE
100
AcDbEntity
  8
0
100
AcDbSpline
 62
7
  6
CONTINUOUS
 70
0
 71
3
 72
15
 73
11
 74
0
 42
0.0000001
 43
0.0000001
 44
0.0000000001
 40
0.0
 40
0.0
 40
0.0
 40
0.0
 40
0.0847246382
 40
0.1757279367
 40
0.2778501555
 40
0.3942839058
 40
0.5264550939
 40
0.6738071548
 40
0.8334364544
 40
1.0
 40
1.0
 40
1.0
 40
1.0
 10
54.6833932067
 20
9.7609174016
 30
0.0
 10
54.6833035651
 20
9.769813488
 30
0.0
 10
54.6800607761
 20
9.7883438968
 30
0.0
 10
54.6665093855
 20
9.8145872855
 30
0.0
 10
54.6446379406
 20
9.8390202104
 30
0.0
 10
54.6147858796
 20
9.8609499562
 30
0.0
 10
54.5774231486
 20
9.8795772498
 30
0.0
 10
54.5334505434
 20
9.8939512288
 30
0.0
 10
54.4844469627
 20
9.9030896306
 30
0.0
 10
54.4501602677
 20
9.9052549689
 30
0.0
 10
54.4326702088
 20
9.9052549689
 30
0.0
  0
SPLINE
  5
4FF
100
AcDbEntity
  8
0
100
AcDbSpline
 62
7
  6
CONTINUOUS
 70
0
 71
3
 72
15
 73
11
 74
0
 42
0.0000001
 43
0.0000001
 44
0.0000000001
 40
0.0
 40
0.0
 40
0.0
 40
0.0
 40
0.0847246382
 40
0.1757279367
 40
0.2778501555
 40
0.3942839058
 40
0.5264550939
 40
0.6738071548
 40
0.8334364544
 40
1.0
 40
1.0
 40
1.0
 40
1.0
 10
51.7979547045
 20
9.7609174016
 30
0.0
 10
51.7980443461
 20
9.769813488
 30
0.0
 10
51.8012871352
 20
9.7883438968
 30
0.0
 10
51.8148385257
 20
9.8145872855
 30
0.0
 10
51.8367099706
 20
9.8390202104
 30
0.0
 10
51.8665620317
 20
9.8609499562
 30
0.0
 10
51.9039247626
 20
9.8795772498
 30
0.0
 10
51.9478973678
 20
9.8939512288
 30
0.0
 10
51.9969009485
 20
9.9030896306
 30
0.0
 10
52.0311876435
 20
9.9052549689
 30
0.0
 10
52.0486777025
 20
9.9052549689
 30
0.0
  0
SPLINE
  5
500
100
AcDbEntity
  8
0
100
AcDbSpline
 62
7
  6
CONTINUOUS
 70
0
 71
3
 72
15
 73
11
 74
0
 42
0.0000001
 43
0.0000001
 44
0.0000000001
 40
0.0
 40
0.0
 40
0.0
 40
0.0
 40
0.0847246382
 40
0.1757279367
 40
0.2778501555
 40
0.3942839058
 40
0.5264550939
 40
0.6738071548
 40
0.8334364544
 40
1.0
 40
1.0
 40
1.0
 40
1.0
 10
37.2833932067
 20
9.7609174016
 30
0.0
 10
37.2833035651
 20
9.769813488
 30
0.0
 10
37.2800607761
 20
9.7883438968
 30
0.0
 10
37.2665093855
 20
9.8145872855
 30
0.0
 10
37.2446379406
 20
9.8390202104
 30
0.0
 10
37.2147858796
 20
9.8609499562
 30
0.0
 10
37.1774231486
 20
9.8795772498
 30
0.0
 10
37.1334505434
 20
9.8939512288
 30
0.0
 10
37.0844469627
 20
9.9030896306
 30
0.0
 10
37.0501602677
 20
9.9052549689
 30
0.0
 10
37.0326702088
 20
9.9052549689
 30
0.0
  0
SPLINE
  5
501
100
AcDbEntity
  8
0
100
AcDbSpline
 62
7
  6
CONTINUOUS
 70
0
 71
3
 72
15
 73
11
 74
0
 42
0.0000001
 43
0.0000001
 44
0.0000000001
 40
0.0
 40
0.0
 40
0.0
 40
0.0
 40
0.1666133779
 40
0.3262255844
 40
0.4735308137
 40
0.6056575217
 40
0.7220676483
 40
0.8241942131
 40
0.9152281509
 40
1.0
 40
1.0
 40
1.0
 40
1.0
 10
34.6479504737
 20
9.9052549689
 30
0.0
 10
34.6304954539
 20
9.9052549689
 30
0.0
 10
34.5962882627
 20
9.9029949947
 30
0.0
 10
34.547411861
 20
9.8938271235
 30
0.0
 10
34.5035704496
 20
9.8794277361
 30
0.0
 10
34.4663277789
 20
9.860803518
 30
0.0
 10
34.4365754507
 20
9.8388935775
 30
0.0
 10
34.4147789258
 20
9.8144939601
 30
0.0
 10
34.4012752715
 20
9.7882936758
 30
0.0
 10
34.3980441896
 20
9.7697979562
 30
0.0
 10
34.3979547045
 20
9.7609174016
 30
0.0
  0
SPLINE
  5
502
100
AcDbEntity
  8
0
100
AcDbSpline
 62
7
  6
CONTINUOUS
 70
0
 71
3
 72
15
 73
11
 74
0
 42
0.0000001
 43
0.0000001
 44
0.0000000001
 40
0.0
 40
0.0
 40
0.0
 40
0.0
 40
0.1666133779
 40
0.3262255844
 40
0.4735308137
 40
0.6056575217
 40
0.7220676483
 40
0.8241942131
 40
0.9152281509
 40
1.0
 40
1.0
 40
1.0
 40
1.0
 10
82.0333974375
 20
56.1505544305
 30
0.0
 10
82.0508524573
 20
56.1505544305
 30
0.0
 10
82.0850596485
 20
56.1528144048
 30
0.0
 10
82.1339360502
 20
56.161982276
 30
0.0
 10
82.1777774617
 20
56.1763816634
 30
0.0
 10
82.2150201323
 20
56.1950058815
 30
0.0
 10
82.2447724605
 20
56.216915822
 30
0.0
 10
82.2665689854
 20
56.2413154393
 30
0.0
 10
82.2800726397
 20
56.2675157237
 30
0.0
 10
82.2833037216
 20
56.2860114433
 30
0.0
 10
82.2833932067
 20
56.2948919978
 30
0.0
  0
SPLINE
  5
503
100
AcDbEntity
  8
0
100
AcDbSpline
 62
7
  6
CONTINUOUS
 70
0
 71
3
 72
15
 73
11
 74
0
 42
0.0000001
 43
0.0000001
 44
0.0000000001
 40
0.0
 40
0.0
 40
0.0
 40
0.0
 40
0.0847246382
 40
0.1757279367
 40
0.2778501555
 40
0.3942839058
 40
0.5264550939
 40
0.6738071548
 40
0.8334364544
 40
1.0
 40
1.0
 40
1.0
 40
1.0
 10
79.3979547045
 20
56.2948919978
 30
0.0
 10
79.3980443461
 20
56.2859959114
 30
0.0
 10
79.4012871352
 20
56.2674655026
 30
0.0
 10
79.4148385257
 20
56.241222114
 30
0.0
 10
79.4367099706
 20
56.2167891891
 30
0.0
 10
79.4665620317
 20
56.1948594433
 30
0.0
 10
79.5039247626
 20
56.1762321496
 30
0.0
 10
79.5478973678
 20
56.1618581707
 30
0.0
 10
79.5969009485
 20
56.1527197689
 30
0.0
 10
79.6311876435
 20
56.1505544305
 30
0.0
 10
79.6486777025
 20
56.1505544305
 30
0.0
  0
SPLINE
  5
504
100
AcDbEntity
  8
0
100
AcDbSpline
 62
7
  6
CONTINUOUS
 70
0
 71
3
 72
15
 73
11
 74
0
 42
0.0000001
 43
0.0000001
 44
0.0000000001
 40
0.0
 40
0.0
 40
0.0
 40
0.0
 40
0.0847246382
 40
0.1757279367
 40
0.2778501555
 40
0.3942839058
 40
0.5264550939
 40
0.6738071548
 40
0.8334364544
 40
1.0
 40
1.0
 40
1.0
 40
1.0
 10
96.7979547045
 20
56.2948919978
 30
0.0
 10
96.7980443461
 20
56.2859959114
 30
0.0
 10
96.8012871352
 20
56.2674655026
 30
0.0
 10
96.8148385257
 20
56.241222114
 30
0.0
 10
96.8367099706
 20
56.2167891891
 30
0.0
 10
96.8665620317
 20
56.1948594433
 30
0.0
 10
96.9039247626
 20
56.1762321496
 30
0.0
 10
96.9478973678
 20
56.1618581707
 30
0.0
 10
96.9969009485
 20
56.1527197689
 30
0.0
 10
97.0311876435
 20
56.1505544305
 30
0.0
 10
97.0486777025
 20
56.1505544305
 30
0.0
  0
SPLINE
  5
505
100
AcDbEntity
  8
0
100
AcDbSpline
 62
7
  6
CONTINUOUS
 70
0
 71
3
 72
15
 73
11
 74
0
 42
0.0000001
 43
0.0000001
 44
0.0000000001
 40
0.0
 40
0.0
 40
0.0
 40
0.0
 40
0.0847246382
 40
0.1757279367
 40
0.2778501555
 40
0.3942839058
 40
0.5264550939
 40
0.6738071548
 40
0.8334364544
 40
1.0
 40
1.0
 40
1.0
 40
1.0
 10
99.6833932067
 20
56.2948919978
 30
0.0
 10
99.6833035651
 20
56.2859959114
 30
0.0
 10
99.6800607761
 20
56.2674655026
 30
0.0
 10
99.6665093855
 20
56.241222114
 30
0.0
 10
99.6446379406
 20
56.2167891891
 30
0.0
 10
99.6147858796
 20
56.1948594433
 30
0.0
 10
99.5774231486
 20
56.1762321496
 30
0.0
 10
99.5334505434
 20
56.1618581707
 30
0.0
 10
99.4844469627
 20
56.1527197689
 30
0.0
 10
99.4501602677
 20
56.1505544305
 30
0.0
 10
99.4326702088
 20
56.1505544305
 30
0.0
  0
SPLINE
  5
506
100
AcDbEntity
  8
0
100
AcDbSpline
 62
7
  6
CONTINUOUS
 70
0
 71
3
 72
15
 73
11
 74
0
 42
0.0000001
 43
0.0000001
 44
0.0000000001
 40
0.0
 40
0.0
 40
0.0
 40
0.0
 40
0.0847246382
 40
0.1757279367
 40
0.2778501555
 40
0.3942839058
 40
0.5264550939
 40
0.6738071548
 40
0.8334364544
 40
1.0
 40
1.0
 40
1.0
 40
1.0
 10
99.6833932067
 20
9.7609174016
 30
0.0
 10
99.6833035651
 20
9.769813488
 30
0.0
 10
99.6800607761
 20
9.7883438968
 30
0.0
 10
99.6665093855
 20
9.8145872855
 30
0.0
 10
99.6446379406
 20
9.8390202104
 30
0.0
 10
99.6147858796
 20
9.8609499562
 30
0.0
 10
99.5774231486
 20
9.8795772498
 30
0.0
 10
99.5334505434
 20
9.8939512288
 30
0.0
 10
99.4844469627
 20
9.9030896306
 30
0.0
 10
99.4501602677
 20
9.9052549689
 30
0.0
 10
99.4326702088
 20
9.9052549689
 30
0.0
  0
SPLINE
  5
507
100
AcDbEntity
  8
0
100
AcDbSpline
 62
7
  6
CONTINUOUS
 70
0
 71
3
 72
15
 73
11
 74
0
 42
0.0000001
 43
0.0000001
 44
0.0000000001
 40
0.0
 40
0.0
 40
0.0
 40
0.0
 40
0.0847246382
 40
0.1757279367
 40
0.2778501555
 40
0.3942839058
 40
0.5264550939
 40
0.6738071548
 40
0.8334364544
 40
1.0
 40
1.0
 40
1.0
 40
1.0
 10
96.7979547045
 20
9.7609174016
 30
0.0
 10
96.7980443461
 20
9.769813488
 30
0.0
 10
96.8012871352
 20
9.7883438968
 30
0.0
 10
96.8148385257
 20
9.8145872855
 30
0.0
 10
96.8367099706
 20
9.8390202104
 30
0.0
 10
96.8665620317
 20
9.8609499562
 30
0.0
 10
96.9039247626
 20
9.8795772498
 30
0.0
 10
96.9478973678
 20
9.8939512288
 30
0.0
 10
96.9969009485
 20
9.9030896306
 30
0.0
 10
97.0311876435
 20
9.9052549689
 30
0.0
 10
97.0486777025
 20
9.9052549689
 30
0.0
  0
SPLINE
  5
508
100
AcDbEntity
  8
0
100
AcDbSpline
 62
7
  6
CONTINUOUS
 70
0
 71
3
 72
15
 73
11
 74
0
 42
0.0000001
 43
0.0000001
 44
0.0000000001
 40
0.0
 40
0.0
 40
0.0
 40
0.0
 40
0.0847246382
 40
0.1757279367
 40
0.2778501555
 40
0.3942839058
 40
0.5264550939
 40
0.6738071548
 40
0.8334364544
 40
1.0
 40
1.0
 40
1.0
 40
1.0
 10
82.2833932067
 20
9.7609174016
 30
0.0
 10
82.2833035651
 20
9.769813488
 30
0.0
 10
82.2800607761
 20
9.7883438968
 30
0.0
 10
82.2665093855
 20
9.8145872855
 30
0.0
 10
82.2446379406
 20
9.8390202104
 30
0.0
 10
82.2147858796
 20
9.8609499562
 30
0.0
 10
82.1774231486
 20
9.8795772498
 30
0.0
 10
82.1334505434
 20
9.8939512288
 30
0.0
 10
82.0844469627
 20
9.9030896306
 30
0.0
 10
82.0501602677
 20
9.9052549689
 30
0.0
 10
82.0326702088
 20
9.9052549689
 30
0.0
  0
SPLINE
  5
509
100
AcDbEntity
  8
0
100
AcDbSpline
 62
7
  6
CONTINUOUS
 70
0
 71
3
 72
15
 73
11
 74
0
 42
0.0000001
 43
0.0000001
 44
0.0000000001
 40
0.0
 40
0.0
 40
0.0
 40
0.0
 40
0.1666133779
 40
0.3262255844
 40
0.4735308137
 40
0.6056575217
 40
0.7220676483
 40
0.8241942131
 40
0.9152281509
 40
1.0
 40
1.0
 40
1.0
 40
1.0
 10
79.6479504737
 20
9.9052549689
 30
0.0
 10
79.6304954539
 20
9.9052549689
 30
0.0
 10
79.5962882627
 20
9.9029949947
 30
0.0
 10
79.547411861
 20
9.8938271235
 30
0.0
 10
79.5035704496
 20
9.8794277361
 30
0.0
 10
79.4663277789
 20
9.860803518
 30
0.0
 10
79.4365754507
 20
9.8388935775
 30
0.0
 10
79.4147789258
 20
9.8144939601
 30
0.0
 10
79.4012752715
 20
9.7882936758
 30
0.0
 10
79.3980441896
 20
9.7697979562
 30
0.0
 10
79.3979547045
 20
9.7609174016
 30
0.0
  0
SPLINE
  5
50A
100
AcDbEntity
  8
RACCORDO
100
AcDbSpline
 62
250
  6
CONTINUOUS
 70
0
 71
3
 72
18
 73
14
 74
0
 42
0.0000001
 43
0.0000001
 44
0.0000000001
 40
0.0
 40
0.0
 40
0.0
 40
0.0
 40
0.1924392758
 40
0.3774451731
 40
0.5477948483
 40
0.6975760804
 40
0.8214914473
 40
0.8722735819
 40
0.9150243252
 40
0.9493566263
 40
0.9749703677
 40
0.9917736336
 40
1.0
 40
1.0
 40
1.0
 40
1.0
 10
99.9136963858
 20
12.3196765403
 30
0.0
 10
99.945101647
 20
12.3197412762
 30
0.0
 10
100.0066989618
 20
12.3201108108
 30
0.0
 10
100.0960886269
 20
12.3213745616
 30
0.0
 10
100.1785051884
 20
12.3232974299
 30
0.0
 10
100.2509264225
 20
12.32580718
 30
0.0
 10
100.3038279206
 20
12.3284115833
 30
0.0
 10
100.3392202437
 20
12.3308328915
 30
0.0
 10
100.3600427703
 20
12.3325896069
 30
0.0
 10
100.3766282015
 20
12.3344252915
 30
0.0
 10
100.3892128752
 20
12.3361992097
 30
0.0
 10
100.3969185222
 20
12.3380792821
 30
0.0
 10
100.4012565554
 20
12.3394328873
 30
0.0
 10
100.4019681597
 20
12.3405712868
 30
0.0
  0
SPLINE
  5
50B
100
AcDbEntity
  8
RACCORDO
100
AcDbSpline
 62
250
  6
CONTINUOUS
 70
0
 71
3
 72
18
 73
14
 74
0
 42
0.0000001
 43
0.0000001
 44
0.0000000001
 40
0.0
 40
0.0
 40
0.0
 40
0.0
 40
0.1924365446
 40
0.3774401827
 40
0.5477884061
 40
0.697569168
 40
0.8214850783
 40
0.8722678461
 40
0.9150194387
 40
0.9493527834
 40
0.9749677353
 40
0.9917723362
 40
1.0
 40
1.0
 40
1.0
 40
1.0
 10
99.9136960969
 20
53.7361323356
 30
0.0
 10
99.9451009195
 20
53.736067603
 30
0.0
 10
100.0066974339
 20
53.7356980836
 30
0.0
 10
100.0960860688
 20
53.7344343797
 30
0.0
 10
100.1785019672
 20
53.7325115768
 30
0.0
 10
100.2509229976
 20
53.7300019019
 30
0.0
 10
100.3038246207
 20
53.7273975699
 30
0.0
 10
100.3392172966
 20
53.7249763235
 30
0.0
 10
100.360040225
 20
53.7232196475
 30
0.0
 10
100.3766262246
 20
53.7213839861
 30
0.0
 10
100.3892113752
 20
53.7196101128
 30
0.0
 10
100.3969178909
 20
53.7177299987
 30
0.0
 10
100.4012561155
 20
53.7163764866
 30
0.0
 10
100.4019681595
 20
53.7152381119
 30
0.0
  0
SPLINE
  5
50C
100
AcDbEntity
  8
RACCORDO
100
AcDbSpline
 62
250
  6
CONTINUOUS
 70
0
 71
3
 72
18
 73
14
 74
0
 42
0.0000001
 43
0.0000001
 44
0.0000000001
 40
0.0
 40
0.0
 40
0.0
 40
0.0
 40
0.1924392759
 40
0.3774451732
 40
0.5477948484
 40
0.6975760805
 40
0.8214914474
 40
0.872273582
 40
0.9150243253
 40
0.9493566263
 40
0.9749703677
 40
0.9917736337
 40
1.0
 40
1.0
 40
1.0
 40
1.0
 10
34.1676515252
 20
53.7361328592
 30
0.0
 10
34.136246264
 20
53.7360681233
 30
0.0
 10
34.0746489492
 20
53.7356985887
 30
0.0
 10
33.9852592842
 20
53.7344348379
 30
0.0
 10
33.9028427227
 20
53.7325119696
 30
0.0
 10
33.8304214886
 20
53.7300022195
 30
0.0
 10
33.7775199905
 20
53.7273978162
 30
0.0
 10
33.7421276675
 20
53.724976508
 30
0.0
 10
33.7213051409
 20
53.7232197926
 30
0.0
 10
33.7047197097
 20
53.721384108
 30
0.0
 10
33.692135036
 20
53.7196101898
 30
0.0
 10
33.684429389
 20
53.7177301175
 30
0.0
 10
33.6800913558
 20
53.7163765122
 30
0.0
 10
33.6793797515
 20
53.7152381127
 30
0.0
  0
SPLINE
  5
50D
100
AcDbEntity
  8
RACCORDO
100
AcDbSpline
 62
250
  6
CONTINUOUS
 70
0
 71
3
 72
18
 73
14
 74
0
 42
0.0000001
 43
0.0000001
 44
0.0000000001
 40
0.0
 40
0.0
 40
0.0
 40
0.0
 40
0.1924365446
 40
0.3774401826
 40
0.547788406
 40
0.6975691679
 40
0.8214850782
 40
0.8722678461
 40
0.9150194387
 40
0.9493527834
 40
0.9749677353
 40
0.9917723362
 40
1.0
 40
1.0
 40
1.0
 40
1.0
 10
34.1676518142
 20
12.3196770639
 30
0.0
 10
34.1362469916
 20
12.3197417964
 30
0.0
 10
34.0746504772
 20
12.3201113158
 30
0.0
 10
33.9852618424
 20
12.3213750198
 30
0.0
 10
33.902845944
 20
12.3232978227
 30
0.0
 10
33.8304249136
 20
12.3258074976
 30
0.0
 10
33.7775232905
 20
12.3284118296
 30
0.0
 10
33.7421306147
 20
12.3308330759
 30
0.0
 10
33.7213076863
 20
12.332589752
 30
0.0
 10
33.7047216867
 20
12.3344254134
 30
0.0
 10
33.6921365361
 20
12.3361992866
 30
0.0
 10
33.6844300203
 20
12.3380794008
 30
0.0
 10
33.6800917958
 20
12.3394329129
 30
0.0
 10
33.6793797517
 20
12.3405712875
 30
0.0
  0
SPLINE
  5
50E
100
AcDbEntity
  8
RACCORDO
100
AcDbSpline
 62
250
  6
CONTINUOUS
 70
0
 71
3
 72
16
 73
12
 74
0
 42
0.0000001
 43
0.0000001
 44
0.0000000001
 40
0.0
 40
0.0
 40
0.0
 40
0.0
 40
0.0095009486
 40
0.0277840411
 40
0.0547144552
 40
0.0900550042
 40
0.1847133801
 40
0.3085503052
 40
0.4573751061
 40
0.6261127283
 40
1.0
 40
1.0
 40
1.0
 40
1.0
 10
99.9195097875
 20
11.171427693
 30
0.0
 10
99.9191239938
 20
11.1750437985
 30
0.0
 10
99.9187884375
 20
11.1856862351
 30
0.0
 10
99.9181582121
 20
11.206610479
 30
0.0
 10
99.9176488965
 20
11.237444588
 30
0.0
 10
99.9168272642
 20
11.2975033507
 30
0.0
 10
99.9159901353
 20
11.3946614532
 30
0.0
 10
99.9151425885
 20
11.5352551922
 30
0.0
 10
99.9144711329
 20
11.7042063414
 30
0.0
 10
99.9137998166
 20
11.9688678846
 30
0.0
 10
99.9136590526
 20
12.17656574
 30
0.0
 10
99.9136963934
 20
12.3196765553
 30
0.0
  0
SPLINE
  5
50F
100
AcDbEntity
  8
RACCORDO
100
AcDbSpline
 62
250
  6
CONTINUOUS
 70
0
 71
3
 72
16
 73
12
 74
0
 42
0.0000001
 43
0.0000001
 44
0.0000000001
 40
0.0
 40
0.0
 40
0.0
 40
0.0
 40
0.3738872716
 40
0.5426248938
 40
0.6914496946
 40
0.8152866198
 40
0.9099449957
 40
0.9452855447
 40
0.9722159588
 40
0.9904990513
 40
1.0
 40
1.0
 40
1.0
 40
1.0
 10
34.1676515264
 20
12.3196765556
 30
0.0
 10
34.1676888671
 20
12.1765657404
 30
0.0
 10
34.1675481088
 20
11.968867885
 30
0.0
 10
34.1668767887
 20
11.7042063419
 30
0.0
 10
34.1662053322
 20
11.5352551927
 30
0.0
 10
34.1653577834
 20
11.3946614538
 30
0.0
 10
34.1645206529
 20
11.2975033512
 30
0.0
 10
34.1636990189
 20
11.2374445885
 30
0.0
 10
34.1631897022
 20
11.2066104795
 30
0.0
 10
34.1625594756
 20
11.1856862357
 30
0.0
 10
34.1622239184
 20
11.175043799
 30
0.0
 10
34.161838124
 20
11.1714276935
 30
0.0
  0
SPLINE
  5
510
100
AcDbEntity
  8
RACCORDO
100
AcDbSpline
 62
250
  6
CONTINUOUS
 70
0
 71
3
 72
16
 73
12
 74
0
 42
0.0000001
 43
0.0000001
 44
0.0000000001
 40
0.0
 40
0.0
 40
0.0
 40
0.0
 40
0.3738872716
 40
0.5426248938
 40
0.6914496946
 40
0.8152866198
 40
0.9099449957
 40
0.9452855447
 40
0.9722159588
 40
0.9904990513
 40
1.0
 40
1.0
 40
1.0
 40
1.0
 10
99.9136963847
 20
53.7361328434
 30
0.0
 10
99.913659044
 20
53.8792436587
 30
0.0
 10
99.9137998021
 20
54.0869415142
 30
0.0
 10
99.9144711224
 20
54.3516030573
 30
0.0
 10
99.9151425788
 20
54.5205542066
 30
0.0
 10
99.9159901277
 20
54.6611479456
 30
0.0
 10
99.9168272583
 20
54.7583060482
 30
0.0
 10
99.9176488923
 20
54.8183648109
 30
0.0
 10
99.918158209
 20
54.8491989199
 30
0.0
 10
99.9187884356
 20
54.8701231638
 30
0.0
 10
99.9191239928
 20
54.8807656004
 30
0.0
 10
99.9195097872
 20
54.8843817059
 30
0.0
  0
SPLINE
  5
511
100
AcDbEntity
  8
RACCORDO
100
AcDbSpline
 62
250
  6
CONTINUOUS
 70
0
 71
3
 72
16
 73
12
 74
0
 42
0.0000001
 43
0.0000001
 44
0.0000000001
 40
0.0
 40
0.0
 40
0.0
 40
0.0
 40
0.0095009486
 40
0.0277840411
 40
0.0547144552
 40
0.0900550042
 40
0.1847133801
 40
0.3085503052
 40
0.4573751061
 40
0.6261127283
 40
1.0
 40
1.0
 40
1.0
 40
1.0
 10
34.1618381237
 20
54.8843817065
 30
0.0
 10
34.1622239174
 20
54.880765601
 30
0.0
 10
34.1625594737
 20
54.8701231644
 30
0.0
 10
34.163189699
 20
54.8491989205
 30
0.0
 10
34.1636990146
 20
54.8183648115
 30
0.0
 10
34.1645206469
 20
54.7583060488
 30
0.0
 10
34.1653577757
 20
54.6611479462
 30
0.0
 10
34.1662053224
 20
54.5205542071
 30
0.0
 10
34.1668767779
 20
54.3516030578
 30
0.0
 10
34.1675480941
 20
54.0869415146
 30
0.0
 10
34.1676888583
 20
53.879243659
 30
0.0
 10
34.1676515175
 20
53.7361328437
 30
0.0
  0
SPLINE
  5
512
100
AcDbEntity
  8
RACCORDO
100
AcDbSpline
 62
250
  6
CONTINUOUS
 70
0
 71
3
 72
18
 73
14
 74
0
 42
0.0000001
 43
0.0000001
 44
0.0000000001
 40
0.0
 40
0.0
 40
0.0
 40
0.0
 40
0.1908169078
 40
0.3736874364
 40
0.5423171366
 40
0.6910365047
 40
0.8147878898
 40
0.8659678853
 40
0.9094205555
 40
0.9447879656
 40
0.9717829012
 40
0.9901964222
 40
1.0
 40
1.0
 40
1.0
 40
1.0
 10
100.4019681596
 20
53.7152381119
 30
0.0
 10
100.4020151058
 20
53.7578815558
 30
0.0
 10
100.402305209
 20
53.8413925643
 30
0.0
 10
100.4033346564
 20
53.9625848199
 30
0.0
 10
100.4049127535
 20
54.0743630429
 30
0.0
 10
100.4069824703
 20
54.1729176835
 30
0.0
 10
100.4091446189
 20
54.2452182401
 30
0.0
 10
100.4111569475
 20
54.2939782433
 30
0.0
 10
100.4126227909
 20
54.3230010943
 30
0.0
 10
100.4141757882
 20
54.3465795146
 30
0.0
 10
100.4156461927
 20
54.3646191696
 30
0.0
 10
100.4173117988
 20
54.3767598237
 30
0.0
 10
100.4183620259
 20
54.3831056663
 30
0.0
 10
100.4193384497
 20
54.3850669385
 30
0.0
  0
SPLINE
  5
513
100
AcDbEntity
  8
RACCORDO
100
AcDbSpline
 62
250
  6
CONTINUOUS
 70
0
 71
3
 72
18
 73
14
 74
0
 42
0.0000001
 43
0.0000001
 44
0.0000000001
 40
0.0
 40
0.0
 40
0.0
 40
0.0
 40
0.0098035778
 40
0.0282170989
 40
0.0552120345
 40
0.0905794446
 40
0.1340321148
 40
0.1852121103
 40
0.3089634955
 40
0.4576828637
 40
0.6263125643
 40
0.8091830929
 40
1.0
 40
1.0
 40
1.0
 40
1.0
 10
100.41933845
 20
11.6707424603
 30
0.0
 10
100.4183620262
 20
11.6727037326
 30
0.0
 10
100.4173117991
 20
11.6790495752
 30
0.0
 10
100.4156461929
 20
11.6911902293
 30
0.0
 10
100.4141757885
 20
11.7092298844
 30
0.0
 10
100.4126227912
 20
11.7328083047
 30
0.0
 10
100.4111569478
 20
11.7618311556
 30
0.0
 10
100.4091446192
 20
11.8105911588
 30
0.0
 10
100.4069824706
 20
11.8828917155
 30
0.0
 10
100.4049127538
 20
11.9814463562
 30
0.0
 10
100.4033346567
 20
12.0932245793
 30
0.0
 10
100.4023052093
 20
12.2144168347
 30
0.0
 10
100.402015106
 20
12.2979278431
 30
0.0
 10
100.4019681597
 20
12.3405712868
 30
0.0
  0
SPLINE
  5
514
100
AcDbEntity
  8
RACCORDO
100
AcDbSpline
 62
250
  6
CONTINUOUS
 70
0
 71
3
 72
18
 73
14
 74
0
 42
0.0000001
 43
0.0000001
 44
0.0000000001
 40
0.0
 40
0.0
 40
0.0
 40
0.0
 40
0.1908169078
 40
0.3736874364
 40
0.5423171366
 40
0.6910365047
 40
0.8147878898
 40
0.8659678853
 40
0.9094205555
 40
0.9447879656
 40
0.9717829012
 40
0.9901964222
 40
1.0
 40
1.0
 40
1.0
 40
1.0
 10
33.6793797516
 20
12.3405712875
 30
0.0
 10
33.6793328054
 20
12.2979278437
 30
0.0
 10
33.6790427022
 20
12.2144168351
 30
0.0
 10
33.6780132548
 20
12.0932245796
 30
0.0
 10
33.6764351577
 20
11.9814463566
 30
0.0
 10
33.6743654409
 20
11.882891716
 30
0.0
 10
33.6722032923
 20
11.8105911593
 30
0.0
 10
33.6701909637
 20
11.7618311562
 30
0.0
 10
33.6687251203
 20
11.7328083052
 30
0.0
 10
33.667172123
 20
11.7092298849
 30
0.0
 10
33.6657017186
 20
11.6911902299
 30
0.0
 10
33.6640361124
 20
11.6790495758
 30
0.0
 10
33.6629858853
 20
11.6727037332
 30
0.0
 10
33.6620094615
 20
11.6707424609
 30
0.0
  0
SPLINE
  5
515
100
AcDbEntity
  8
RACCORDO
100
AcDbSpline
 62
250
  6
CONTINUOUS
 70
0
 71
3
 72
18
 73
14
 74
0
 42
0.0000001
 43
0.0000001
 44
0.0000000001
 40
0.0
 40
0.0
 40
0.0
 40
0.0
 40
0.0098035778
 40
0.0282170989
 40
0.0552120345
 40
0.0905794446
 40
0.1340321148
 40
0.1852121103
 40
0.3089634955
 40
0.4576828637
 40
0.6263125643
 40
0.809183093
 40
1.0
 40
1.0
 40
1.0
 40
1.0
 10
33.6620094612
 20
54.3850669392
 30
0.0
 10
33.6629858851
 20
54.3831056669
 30
0.0
 10
33.6640361121
 20
54.3767598243
 30
0.0
 10
33.6657017183
 20
54.3646191702
 30
0.0
 10
33.6671721227
 20
54.3465795151
 30
0.0
 10
33.66872512
 20
54.3230010948
 30
0.0
 10
33.6701909634
 20
54.2939782439
 30
0.0
 10
33.672203292
 20
54.2452182407
 30
0.0
 10
33.6743654406
 20
54.172917684
 30
0.0
 10
33.6764351575
 20
54.0743630433
 30
0.0
 10
33.6780132545
 20
53.9625848202
 30
0.0
 10
33.6790427019
 20
53.8413925648
 30
0.0
 10
33.6793328053
 20
53.7578815564
 30
0.0
 10
33.6793797515
 20
53.7152381127
 30
0.0
  0
SPLINE
  5
516
100
AcDbEntity
  8
RACCORDO
100
AcDbSpline
 62
250
  6
CONTINUOUS
 70
0
 71
3
 72
9
 73
5
 74
0
 42
0.0000001
 43
0.0000001
 44
0.0000000001
 40
0.0
 40
0.0
 40
0.0
 40
0.0
 40
0.2499830911
 40
1.0
 40
1.0
 40
1.0
 40
1.0
 10
34.1676515299
 20
12.3196765554
 30
0.0
 10
39.6461175096
 20
12.322342451
 30
0.0
 10
61.5614648975
 20
12.3303605082
 30
0.0
 10
83.4768161872
 20
12.3276749935
 30
0.0
 10
99.9136963859
 20
12.3196765547
 30
0.0
  0
SPLINE
  5
517
100
AcDbEntity
  8
RACCORDO
100
AcDbSpline
 62
250
  6
CONTINUOUS
 70
0
 71
3
 72
9
 73
5
 74
0
 42
0.0000001
 43
0.0000001
 44
0.0000000001
 40
0.0
 40
0.0
 40
0.0
 40
0.0
 40
0.2499444994
 40
1.0
 40
1.0
 40
1.0
 40
1.0
 10
99.9136963859
 20
12.3196765547
 30
0.0
 10
99.9109681455
 20
15.7702808232
 30
0.0
 10
99.9027816546
 20
29.5757647691
 30
0.0
 10
99.9055092374
 20
43.3812551887
 30
0.0
 10
99.9136963812
 20
53.7361328435
 30
0.0
  0
SPLINE
  5
518
100
AcDbEntity
  8
RACCORDO
100
AcDbSpline
 62
250
  6
CONTINUOUS
 70
0
 71
3
 72
9
 73
5
 74
0
 42
0.0000001
 43
0.0000001
 44
0.0000000001
 40
0.0
 40
0.0
 40
0.0
 40
0.0
 40
0.2499830911
 40
1.0
 40
1.0
 40
1.0
 40
1.0
 10
99.9136963812
 20
53.7361328435
 30
0.0
 10
94.4352304012
 20
53.7334669481
 30
0.0
 10
72.5198830133
 20
53.7254488919
 30
0.0
 10
50.6045317235
 20
53.7281344045
 30
0.0
 10
34.1676515252
 20
53.7361328443
 30
0.0
  0
SPLINE
  5
519
100
AcDbEntity
  8
RACCORDO
100
AcDbSpline
 62
250
  6
CONTINUOUS
 70
0
 71
3
 72
9
 73
5
 74
0
 42
0.0000001
 43
0.0000001
 44
0.0000000001
 40
0.0
 40
0.0
 40
0.0
 40
0.0
 40
0.2499444994
 40
1.0
 40
1.0
 40
1.0
 40
1.0
 10
34.1676515252
 20
53.7361328443
 30
0.0
 10
34.1703797654
 20
50.2855285758
 30
0.0
 10
34.178566257
 20
36.4800446298
 30
0.0
 10
34.1758386741
 20
22.6745542103
 30
0.0
 10
34.1676515299
 20
12.3196765554
 30
0.0
  0
SPLINE
  5
51A
100
AcDbEntity
  8
0
100
AcDbSpline
 62
250
  6
CONTINUOUS
 70
0
 71
3
 72
13
 73
9
 74
0
 42
0.0000001
 43
0.0000001
 44
0.0000000001
 40
0.0
 40
0.0
 40
0.0
 40
0.0
 40
0.1162394899
 40
0.2339784923
 40
0.3543712679
 40
0.4780982409
 40
0.7345378657
 40
1.0
 40
1.0
 40
1.0
 40
1.0
 10
34.4037725343
 20
56.872242267
 30
0.0
 10
34.4038200606
 20
56.8580925513
 30
0.0
 10
34.4071785952
 20
56.8295195335
 30
0.0
 10
34.4217351821
 20
56.7885591966
 30
0.0
 10
34.4452060554
 20
56.7508874136
 30
0.0
 10
34.4875087823
 20
56.7065256786
 30
0.0
 10
34.5574350501
 20
56.6666914992
 30
0.0
 10
34.6214537862
 20
56.6558173226
 30
0.0
 10
34.6537683035
 20
56.6557359161
 30
0.0
  0
SPLINE
  5
51B
100
AcDbEntity
  8
0
100
AcDbSpline
 62
250
  6
CONTINUOUS
 70
0
 71
3
 72
13
 73
9
 74
0
 42
0.0000001
 43
0.0000001
 44
0.0000000001
 40
0.0
 40
0.0
 40
0.0
 40
0.0
 40
0.1162394861
 40
0.2339784844
 40
0.3543712552
 40
0.4780982232
 40
0.7345378384
 40
1.0
 40
1.0
 40
1.0
 40
1.0
 10
37.2775753769
 20
56.872242267
 30
0.0
 10
37.2775278507
 20
56.8580925518
 30
0.0
 10
37.2741693162
 20
56.8295195349
 30
0.0
 10
37.2596127305
 20
56.7885591993
 30
0.0
 10
37.2361418585
 20
56.7508874176
 30
0.0
 10
37.1938391347
 20
56.706525683
 30
0.0
 10
37.1239128666
 20
56.6666915012
 30
0.0
 10
37.0598941283
 20
56.6558173226
 30
0.0
 10
37.0275796077
 20
56.6557359161
 30
0.0
  0
SPLINE
  5
51C
100
AcDbEntity
  8
0
100
AcDbSpline
 62
250
  6
CONTINUOUS
 70
0
 71
3
 72
13
 73
9
 74
0
 42
0.0000001
 43
0.0000001
 44
0.0000000001
 40
0.0
 40
0.0
 40
0.0
 40
0.0
 40
0.1162394861
 40
0.2339784844
 40
0.3543712552
 40
0.4780982232
 40
0.7345378384
 40
1.0
 40
1.0
 40
1.0
 40
1.0
 10
51.8037725343
 20
56.872242267
 30
0.0
 10
51.8038200606
 20
56.8580925518
 30
0.0
 10
51.807178595
 20
56.8295195349
 30
0.0
 10
51.8217351807
 20
56.7885591993
 30
0.0
 10
51.8452060527
 20
56.7508874176
 30
0.0
 10
51.8875087765
 20
56.706525683
 30
0.0
 10
51.9574350446
 20
56.6666915012
 30
0.0
 10
52.0214537829
 20
56.6558173226
 30
0.0
 10
52.0537683035
 20
56.6557359161
 30
0.0
  0
SPLINE
  5
51D
100
AcDbEntity
  8
0
100
AcDbSpline
 62
250
  6
CONTINUOUS
 70
0
 71
3
 72
13
 73
9
 74
0
 42
0.0000001
 43
0.0000001
 44
0.0000000001
 40
0.0
 40
0.0
 40
0.0
 40
0.0
 40
0.1162393822
 40
0.2339783947
 40
0.3543711753
 40
0.4780981573
 40
0.7345378061
 40
1.0
 40
1.0
 40
1.0
 40
1.0
 10
54.6775753769
 20
56.872242267
 30
0.0
 10
54.6775278507
 20
56.8580925644
 30
0.0
 10
54.6741693177
 20
56.8295195594
 30
0.0
 10
54.6596127478
 20
56.7885592284
 30
0.0
 10
54.6361418756
 20
56.750887441
 30
0.0
 10
54.5938391537
 20
56.7065256954
 30
0.0
 10
54.5239128783
 20
56.6666915044
 30
0.0
 10
54.4598941322
 20
56.6558173227
 30
0.0
 10
54.4275796077
 20
56.6557359161
 30
0.0
  0
SPLINE
  5
51E
100
AcDbEntity
  8
0
100
AcDbSpline
 62
250
  6
CONTINUOUS
 70
0
 71
3
 72
13
 73
9
 74
0
 42
0.0000001
 43
0.0000001
 44
0.0000000001
 40
0.0
 40
0.0
 40
0.0
 40
0.0
 40
0.1162394861
 40
0.2339784844
 40
0.3543712552
 40
0.4780982232
 40
0.7345378384
 40
1.0
 40
1.0
 40
1.0
 40
1.0
 10
54.6775753769
 20
9.1835671324
 30
0.0
 10
54.6775278507
 20
9.1977168477
 30
0.0
 10
54.6741693162
 20
9.2262898645
 30
0.0
 10
54.6596127305
 20
9.2672502002
 30
0.0
 10
54.6361418585
 20
9.3049219819
 30
0.0
 10
54.5938391347
 20
9.3492837164
 30
0.0
 10
54.5239128666
 20
9.3891178983
 30
0.0
 10
54.4598941283
 20
9.3999920768
 30
0.0
 10
54.4275796077
 20
9.4000734834
 30
0.0
  0
SPLINE
  5
51F
100
AcDbEntity
  8
0
100
AcDbSpline
 62
250
  6
CONTINUOUS
 70
0
 71
3
 72
13
 73
9
 74
0
 42
0.0000001
 43
0.0000001
 44
0.0000000001
 40
0.0
 40
0.0
 40
0.0
 40
0.0
 40
0.1162393822
 40
0.2339783947
 40
0.3543711753
 40
0.4780981573
 40
0.7345378061
 40
1.0
 40
1.0
 40
1.0
 40
1.0
 10
51.8037725343
 20
9.1835671324
 30
0.0
 10
51.8038200605
 20
9.197716835
 30
0.0
 10
51.8071785936
 20
9.2262898401
 30
0.0
 10
51.8217351634
 20
9.267250171
 30
0.0
 10
51.8452060356
 20
9.3049219585
 30
0.0
 10
51.8875087575
 20
9.3492837041
 30
0.0
 10
51.9574350329
 20
9.3891178951
 30
0.0
 10
52.021453779
 20
9.3999920768
 30
0.0
 10
52.0537683035
 20
9.4000734834
 30
0.0
  0
SPLINE
  5
520
100
AcDbEntity
  8
0
100
AcDbSpline
 62
250
  6
CONTINUOUS
 70
0
 71
3
 72
13
 73
9
 74
0
 42
0.0000001
 43
0.0000001
 44
0.0000000001
 40
0.0
 40
0.0
 40
0.0
 40
0.0
 40
0.1162394861
 40
0.2339784844
 40
0.3543712552
 40
0.4780982232
 40
0.7345378384
 40
1.0
 40
1.0
 40
1.0
 40
1.0
 10
37.2775753769
 20
9.1835671324
 30
0.0
 10
37.2775278507
 20
9.1977168477
 30
0.0
 10
37.2741693162
 20
9.2262898645
 30
0.0
 10
37.2596127305
 20
9.2672502002
 30
0.0
 10
37.2361418585
 20
9.3049219819
 30
0.0
 10
37.1938391347
 20
9.3492837164
 30
0.0
 10
37.1239128666
 20
9.3891178983
 30
0.0
 10
37.0598941283
 20
9.3999920768
 30
0.0
 10
37.0275796077
 20
9.4000734834
 30
0.0
  0
SPLINE
  5
521
100
AcDbEntity
  8
0
100
AcDbSpline
 62
250
  6
CONTINUOUS
 70
0
 71
3
 72
13
 73
9
 74
0
 42
0.0000001
 43
0.0000001
 44
0.0000000001
 40
0.0
 40
0.0
 40
0.0
 40
0.0
 40
0.1162394861
 40
0.2339784844
 40
0.3543712552
 40
0.4780982232
 40
0.7345378384
 40
1.0
 40
1.0
 40
1.0
 40
1.0
 10
34.4037725343
 20
9.1835671324
 30
0.0
 10
34.4038200606
 20
9.1977168477
 30
0.0
 10
34.407178595
 20
9.2262898645
 30
0.0
 10
34.4217351807
 20
9.2672502002
 30
0.0
 10
34.4452060527
 20
9.3049219819
 30
0.0
 10
34.4875087765
 20
9.3492837164
 30
0.0
 10
34.5574350446
 20
9.3891178983
 30
0.0
 10
34.6214537829
 20
9.3999920768
 30
0.0
 10
34.6537683035
 20
9.4000734834
 30
0.0
  0
SPLINE
  5
522
100
AcDbEntity
  8
0
100
AcDbSpline
 62
250
  6
CONTINUOUS
 70
0
 71
3
 72
13
 73
9
 74
0
 42
0.0000001
 43
0.0000001
 44
0.0000000001
 40
0.0
 40
0.0
 40
0.0
 40
0.0
 40
0.1162394899
 40
0.2339784923
 40
0.3543712679
 40
0.4780982409
 40
0.7345378657
 40
1.0
 40
1.0
 40
1.0
 40
1.0
 10
79.4037725343
 20
56.872242267
 30
0.0
 10
79.4038200606
 20
56.8580925513
 30
0.0
 10
79.4071785952
 20
56.8295195335
 30
0.0
 10
79.4217351821
 20
56.7885591966
 30
0.0
 10
79.4452060554
 20
56.7508874136
 30
0.0
 10
79.4875087823
 20
56.7065256786
 30
0.0
 10
79.5574350501
 20
56.6666914992
 30
0.0
 10
79.6214537862
 20
56.6558173226
 30
0.0
 10
79.6537683035
 20
56.6557359161
 30
0.0
  0
SPLINE
  5
523
100
AcDbEntity
  8
0
100
AcDbSpline
 62
250
  6
CONTINUOUS
 70
0
 71
3
 72
13
 73
9
 74
0
 42
0.0000001
 43
0.0000001
 44
0.0000000001
 40
0.0
 40
0.0
 40
0.0
 40
0.0
 40
0.1162394861
 40
0.2339784844
 40
0.3543712552
 40
0.4780982232
 40
0.7345378384
 40
1.0
 40
1.0
 40
1.0
 40
1.0
 10
82.2775753769
 20
56.872242267
 30
0.0
 10
82.2775278507
 20
56.8580925518
 30
0.0
 10
82.2741693162
 20
56.8295195349
 30
0.0
 10
82.2596127305
 20
56.7885591993
 30
0.0
 10
82.2361418585
 20
56.7508874176
 30
0.0
 10
82.1938391347
 20
56.706525683
 30
0.0
 10
82.1239128666
 20
56.6666915012
 30
0.0
 10
82.0598941283
 20
56.6558173226
 30
0.0
 10
82.0275796077
 20
56.6557359161
 30
0.0
  0
SPLINE
  5
524
100
AcDbEntity
  8
0
100
AcDbSpline
 62
250
  6
CONTINUOUS
 70
0
 71
3
 72
13
 73
9
 74
0
 42
0.0000001
 43
0.0000001
 44
0.0000000001
 40
0.0
 40
0.0
 40
0.0
 40
0.0
 40
0.1162394861
 40
0.2339784844
 40
0.3543712552
 40
0.4780982232
 40
0.7345378384
 40
1.0
 40
1.0
 40
1.0
 40
1.0
 10
96.8037725343
 20
56.872242267
 30
0.0
 10
96.8038200606
 20
56.8580925518
 30
0.0
 10
96.807178595
 20
56.8295195349
 30
0.0
 10
96.8217351807
 20
56.7885591993
 30
0.0
 10
96.8452060527
 20
56.7508874176
 30
0.0
 10
96.8875087765
 20
56.706525683
 30
0.0
 10
96.9574350446
 20
56.6666915012
 30
0.0
 10
97.0214537829
 20
56.6558173226
 30
0.0
 10
97.0537683035
 20
56.6557359161
 30
0.0
  0
SPLINE
  5
525
100
AcDbEntity
  8
0
100
AcDbSpline
 62
250
  6
CONTINUOUS
 70
0
 71
3
 72
13
 73
9
 74
0
 42
0.0000001
 43
0.0000001
 44
0.0000000001
 40
0.0
 40
0.0
 40
0.0
 40
0.0
 40
0.1162393822
 40
0.2339783947
 40
0.3543711753
 40
0.4780981573
 40
0.7345378061
 40
1.0
 40
1.0
 40
1.0
 40
1.0
 10
99.6775753769
 20
56.872242267
 30
0.0
 10
99.6775278507
 20
56.8580925644
 30
0.0
 10
99.6741693177
 20
56.8295195594
 30
0.0
 10
99.6596127478
 20
56.7885592284
 30
0.0
 10
99.6361418756
 20
56.750887441
 30
0.0
 10
99.5938391537
 20
56.7065256954
 30
0.0
 10
99.5239128783
 20
56.6666915044
 30
0.0
 10
99.4598941322
 20
56.6558173227
 30
0.0
 10
99.4275796077
 20
56.6557359161
 30
0.0
  0
SPLINE
  5
526
100
AcDbEntity
  8
0
100
AcDbSpline
 62
250
  6
CONTINUOUS
 70
0
 71
3
 72
13
 73
9
 74
0
 42
0.0000001
 43
0.0000001
 44
0.0000000001
 40
0.0
 40
0.0
 40
0.0
 40
0.0
 40
0.1162394861
 40
0.2339784844
 40
0.3543712552
 40
0.4780982232
 40
0.7345378384
 40
1.0
 40
1.0
 40
1.0
 40
1.0
 10
99.6775753769
 20
9.1835671324
 30
0.0
 10
99.6775278507
 20
9.1977168477
 30
0.0
 10
99.6741693162
 20
9.2262898645
 30
0.0
 10
99.6596127305
 20
9.2672502002
 30
0.0
 10
99.6361418585
 20
9.3049219819
 30
0.0
 10
99.5938391347
 20
9.3492837164
 30
0.0
 10
99.5239128666
 20
9.3891178983
 30
0.0
 10
99.4598941283
 20
9.3999920768
 30
0.0
 10
99.4275796077
 20
9.4000734834
 30
0.0
  0
SPLINE
  5
527
100
AcDbEntity
  8
0
100
AcDbSpline
 62
250
  6
CONTINUOUS
 70
0
 71
3
 72
13
 73
9
 74
0
 42
0.0000001
 43
0.0000001
 44
0.0000000001
 40
0.0
 40
0.0
 40
0.0
 40
0.0
 40
0.1162393822
 40
0.2339783947
 40
0.3543711753
 40
0.4780981573
 40
0.7345378061
 40
1.0
 40
1.0
 40
1.0
 40
1.0
 10
96.8037725343
 20
9.1835671324
 30
0.0
 10
96.8038200605
 20
9.197716835
 30
0.0
 10
96.8071785936
 20
9.2262898401
 30
0.0
 10
96.8217351634
 20
9.267250171
 30
0.0
 10
96.8452060356
 20
9.3049219585
 30
0.0
 10
96.8875087575
 20
9.3492837041
 30
0.0
 10
96.9574350329
 20
9.3891178951
 30
0.0
 10
97.021453779
 20
9.3999920768
 30
0.0
 10
97.0537683035
 20
9.4000734834
 30
0.0
  0
SPLINE
  5
528
100
AcDbEntity
  8
0
100
AcDbSpline
 62
250
  6
CONTINUOUS
 70
0
 71
3
 72
13
 73
9
 74
0
 42
0.0000001
 43
0.0000001
 44
0.0000000001
 40
0.0
 40
0.0
 40
0.0
 40
0.0
 40
0.1162394861
 40
0.2339784844
 40
0.3543712552
 40
0.4780982232
 40
0.7345378384
 40
1.0
 40
1.0
 40
1.0
 40
1.0
 10
82.2775753769
 20
9.1835671324
 30
0.0
 10
82.2775278507
 20
9.1977168477
 30
0.0
 10
82.2741693162
 20
9.2262898645
 30
0.0
 10
82.2596127305
 20
9.2672502002
 30
0.0
 10
82.2361418585
 20
9.3049219819
 30
0.0
 10
82.1938391347
 20
9.3492837164
 30
0.0
 10
82.1239128666
 20
9.3891178983
 30
0.0
 10
82.0598941283
 20
9.3999920768
 30
0.0
 10
82.0275796077
 20
9.4000734834
 30
0.0
  0
SPLINE
  5
529
100
AcDbEntity
  8
0
100
AcDbSpline
 62
250
  6
CONTINUOUS
 70
0
 71
3
 72
13
 73
9
 74
0
 42
0.0000001
 43
0.0000001
 44
0.0000000001
 40
0.0
 40
0.0
 40
0.0
 40
0.0
 40
0.1162394861
 40
0.2339784844
 40
0.3543712552
 40
0.4780982232
 40
0.7345378384
 40
1.0
 40
1.0
 40
1.0
 40
1.0
 10
79.4037725343
 20
9.1835671324
 30
0.0
 10
79.4038200606
 20
9.1977168477
 30
0.0
 10
79.407178595
 20
9.2262898645
 30
0.0
 10
79.4217351807
 20
9.2672502002
 30
0.0
 10
79.4452060527
 20
9.3049219819
 30
0.0
 10
79.4875087765
 20
9.3492837164
 30
0.0
 10
79.5574350446
 20
9.3891178983
 30
0.0
 10
79.6214537829
 20
9.3999920768
 30
0.0
 10
79.6537683035
 20
9.4000734834
 30
0.0
  0
LINE
  5
52A
100
AcDbEntity
  8
DRAFT
100
AcDbLine
 62
7
  6
CONTINUOUS
 10
4.025178415
 20
20.0279833759
 30
0.0
 11
4.0310863448
 21
19.8471232117
 31
0.0
  0
LINE
  5
52B
100
AcDbEntity
  8
DRAFT
100
AcDbLine
 62
7
  6
CONTINUOUS
 10
3.9342459211
 20
23.2153611665
 30
0.0
 11
3.9389032985
 21
23.0279443033
 31
0.0
  0
SPLINE
  5
52C
100
AcDbEntity
  8
RACCORDO
100
AcDbSpline
 62
250
  6
CONTINUOUS
 70
0
 71
3
 72
20
 73
16
 74
0
 42
0.0000001
 43
0.0000001
 44
0.0000000001
 40
0.0
 40
0.0
 40
0.0
 40
0.0
 40
0.0017592822
 40
0.0055942363
 40
0.0201940068
 40
0.0441045176
 40
0.0772031582
 40
0.1191597488
 40
0.1695562879
 40
0.2279614752
 40
0.2938048909
 40
0.4450928598
 40
0.6177145956
 40
0.8052818974
 40
1.0
 40
1.0
 40
1.0
 40
1.0
 10
5.8667930281
 20
54.8843817059
 30
0.0
 10
5.8665001949
 20
54.8843663592
 30
0.0
 10
5.8659433799
 20
54.8833510825
 30
0.0
 10
5.8652753841
 20
54.8802883312
 30
0.0
 10
5.8645315636
 20
54.8730237581
 30
0.0
 10
5.86402878
 20
54.8612321978
 30
0.0
 10
5.8637202694
 20
54.8446797589
 30
0.0
 10
5.8636939417
 20
54.8237914006
 30
0.0
 10
5.8639301524
 20
54.7986560605
 30
0.0
 10
5.8644423911
 20
54.7695532868
 30
0.0
 10
5.8655362912
 20
54.7236389079
 30
0.0
 10
5.8675855687
 20
54.6587073442
 30
0.0
 10
5.8708821148
 20
54.5735179668
 30
0.0
 10
5.8750044744
 20
54.4811182026
 30
0.0
 10
5.8781751091
 20
54.4174779084
 30
0.0
 10
5.8798725321
 20
54.3850669385
 30
0.0
  0
SPLINE
  5
52D
100
AcDbEntity
  8
RACCORDO
100
AcDbSpline
 62
250
  6
CONTINUOUS
 70
0
 71
3
 72
20
 73
16
 74
0
 42
0.0000001
 43
0.0000001
 44
0.0000000001
 40
0.0
 40
0.0
 40
0.0
 40
0.0
 40
0.0017592849
 40
0.0055942412
 40
0.0201940163
 40
0.0441045311
 40
0.0772031763
 40
0.119159775
 40
0.1695563206
 40
0.2279615106
 40
0.2938049322
 40
0.4450929081
 40
0.6177146368
 40
0.8052819109
 40
1.0
 40
1.0
 40
1.0
 40
1.0
 10
5.8667930395
 20
11.171427693
 30
0.0
 10
5.8665002058
 20
11.1714430397
 30
0.0
 10
5.865943389
 20
11.172458316
 30
0.0
 10
5.8652753913
 20
11.1755210694
 30
0.0
 10
5.8645315683
 20
11.1827856432
 30
0.0
 10
5.8640287824
 20
11.1945772063
 30
0.0
 10
5.8637202699
 20
11.2111296478
 30
0.0
 10
5.863693941
 20
11.2320180095
 30
0.0
 10
5.8639301507
 20
11.2571533525
 30
0.0
 10
5.8644423888
 20
11.286256129
 30
0.0
 10
5.8655362891
 20
11.3321705107
 30
0.0
 10
5.8675855677
 20
11.3971020757
 30
0.0
 10
5.8708821167
 20
11.4822914488
 30
0.0
 10
5.8750044802
 20
11.5746912053
 30
0.0
 10
5.8781751184
 20
11.6383314927
 30
0.0
 10
5.8798725434
 20
11.6707424603
 30
0.0
  0
SPLINE
  5
52E
100
AcDbEntity
  8
0
100
AcDbSpline
 62
7
  6
CONTINUOUS
 70
0
 71
3
 72
13
 73
9
 74
0
 42
0.0000001
 43
0.0000001
 44
0.0000000001
 40
0.0
 40
0.0
 40
0.0
 40
0.0
 40
0.3612210663
 40
0.682170423
 40
0.812667465
 40
0.9137049675
 40
0.9780318448
 40
1.0
 40
1.0
 40
1.0
 40
1.0
 10
12.862034127
 20
56.2948919978
 30
0.0
 10
12.8320635964
 20
56.2775880647
 30
0.0
 10
12.7754762209
 20
56.2448878277
 30
0.0
 10
12.70811193
 20
56.2058497621
 30
0.0
 10
12.6623329616
 20
56.1792780068
 30
0.0
 10
12.6378664823
 20
56.1649666736
 30
0.0
 10
12.6223388952
 20
56.1559634381
 30
0.0
 10
12.6152779047
 20
56.1516628612
 30
0.0
 10
12.6134885598
 20
56.1505544305
 30
0.0
  0
SPLINE
  5
52F
100
AcDbEntity
  8
0
100
AcDbSpline
 62
7
  6
CONTINUOUS
 70
0
 71
3
 72
13
 73
9
 74
0
 42
0.0000001
 43
0.0000001
 44
0.0000000001
 40
0.0
 40
0.0
 40
0.0
 40
0.0
 40
0.3612210663
 40
0.682170423
 40
0.812667465
 40
0.9137049675
 40
0.9780318448
 40
1.0
 40
1.0
 40
1.0
 40
1.0
 10
12.862034127
 20
9.7609174016
 30
0.0
 10
12.8320635964
 20
9.7782213347
 30
0.0
 10
12.7754762209
 20
9.8109215718
 30
0.0
 10
12.70811193
 20
9.8499596373
 30
0.0
 10
12.6623329616
 20
9.8765313927
 30
0.0
 10
12.6378664823
 20
9.8908427259
 30
0.0
 10
12.6223388952
 20
9.8998459613
 30
0.0
 10
12.6152779047
 20
9.9041465383
 30
0.0
 10
12.6134885598
 20
9.9052549689
 30
0.0
  0
SPLINE
  5
530
100
AcDbEntity
  8
0
100
AcDbSpline
 62
250
  6
CONTINUOUS
 70
0
 71
3
 72
26
 73
22
 74
0
 42
0.0000001
 43
0.0000001
 44
0.0000000001
 40
0.0
 40
0.0
 40
0.0
 40
0.0
 40
0.0003335531
 40
0.0012485377
 40
0.002760312
 40
0.0048703484
 40
0.0108838626
 40
0.0192798932
 40
0.0300362305
 40
0.0431281083
 40
0.0585261522
 40
0.0761906048
 40
0.118148324
 40
0.168596747
 40
0.2270523391
 40
0.2929515808
 40
0.3656588731
 40
0.4444754185
 40
0.6173484607
 40
0.804919804
 40
1.0
 40
1.0
 40
1.0
 40
1.0
 10
14.8649429926
 20
57.5235328657
 30
0.0
 10
14.8649707898
 20
57.523532704
 30
0.0
 10
14.8649840275
 20
57.5233825788
 30
0.0
 10
14.8650244727
 20
57.5231990481
 30
0.0
 10
14.8650494309
 20
57.5227972839
 30
0.0
 10
14.8651004815
 20
57.5220107196
 30
0.0
 10
14.8651494533
 20
57.5206237037
 30
0.0
 10
14.8652066054
 20
57.5185325526
 30
0.0
 10
14.8652582669
 20
57.51584378
 30
0.0
 10
14.865307103
 20
57.5125741874
 30
0.0
 10
14.865351569
 20
57.5087277752
 30
0.0
 10
14.8654086046
 20
57.5024761116
 30
0.0
 10
14.8654650473
 20
57.4933031497
 30
0.0
 10
14.8655118831
 20
57.4807307559
 30
0.0
 10
14.8655398658
 20
57.4661630304
 30
0.0
 10
14.8655486398
 20
57.4497402873
 30
0.0
 10
14.8655379515
 20
57.4316207027
 30
0.0
 10
14.8654964072
 20
57.404586176
 30
0.0
 10
14.8653944228
 20
57.3679792179
 30
0.0
 10
14.8652051764
 20
57.3216833409
 30
0.0
 10
14.8650375716
 20
57.2897943959
 30
0.0
 10
14.8649429926
 20
57.2735370965
 30
0.0
  0
SPLINE
  5
531
100
AcDbEntity
  8
0
100
AcDbSpline
 62
250
  6
CONTINUOUS
 70
0
 71
3
 72
26
 73
22
 74
0
 42
0.0000001
 43
0.0000001
 44
0.0000000001
 40
0.0
 40
0.0
 40
0.0
 40
0.0
 40
0.0003335531
 40
0.0012485377
 40
0.002760312
 40
0.0048703484
 40
0.0108838626
 40
0.0192798932
 40
0.0300362305
 40
0.0431281083
 40
0.0585261522
 40
0.0761906048
 40
0.118148324
 40
0.168596747
 40
0.2270523391
 40
0.2929515808
 40
0.3656588731
 40
0.4444754185
 40
0.6173484607
 40
0.804919804
 40
1.0
 40
1.0
 40
1.0
 40
1.0
 10
11.862034127
 20
57.514806121
 30
0.0
 10
11.8620063298
 20
57.5148059593
 30
0.0
 10
11.8619930921
 20
57.514655834
 30
0.0
 10
11.8619526468
 20
57.5144723033
 30
0.0
 10
11.8619276887
 20
57.5140705392
 30
0.0
 10
11.8618766381
 20
57.5132839749
 30
0.0
 10
11.8618276662
 20
57.511896959
 30
0.0
 10
11.8617705142
 20
57.5098058079
 30
0.0
 10
11.8617188527
 20
57.5071170352
 30
0.0
 10
11.8616700165
 20
57.5038474427
 30
0.0
 10
11.8616255505
 20
57.5000010305
 30
0.0
 10
11.8615685149
 20
57.4937493669
 30
0.0
 10
11.8615120723
 20
57.484576405
 30
0.0
 10
11.8614652365
 20
57.4720040112
 30
0.0
 10
11.8614372538
 20
57.4574362857
 30
0.0
 10
11.8614284798
 20
57.4410135426
 30
0.0
 10
11.861439168
 20
57.422893958
 30
0.0
 10
11.8614807124
 20
57.3958594313
 30
0.0
 10
11.8615826968
 20
57.3592524732
 30
0.0
 10
11.8617719432
 20
57.3129565962
 30
0.0
 10
11.861939548
 20
57.2810676512
 30
0.0
 10
11.862034127
 20
57.2648103518
 30
0.0
  0
SPLINE
  5
532
100
AcDbEntity
  8
0
100
AcDbSpline
 62
250
  6
CONTINUOUS
 70
0
 71
3
 72
26
 73
22
 74
0
 42
0.0000001
 43
0.0000001
 44
0.0000000001
 40
0.0
 40
0.0
 40
0.0
 40
0.0
 40
0.1952371571
 40
0.3828765725
 40
0.5557521165
 40
0.6345528919
 40
0.7072369656
 40
0.7731083045
 40
0.8315338818
 40
0.8819524705
 40
0.9238825345
 40
0.9415345162
 40
0.9569212041
 40
0.9700029814
 40
0.9807505693
 40
0.9891391953
 40
0.9951465425
 40
0.9972538056
 40
0.9987627805
 40
0.9996743239
 40
1.0
 40
1.0
 40
1.0
 40
1.0
 10
11.862034127
 20
56.872242267
 30
0.0
 10
11.8539225708
 20
56.8581921641
 30
0.0
 10
11.8380284985
 20
56.8306309993
 30
0.0
 10
11.8149984225
 20
56.7906021831
 30
0.0
 10
11.7968290901
 20
56.7589393503
 30
0.0
 10
11.7834394286
 20
56.7355471985
 30
0.0
 10
11.7744797883
 20
56.7198645926
 30
0.0
 10
11.766373891
 20
56.7056441866
 30
0.0
 10
11.7591993948
 20
56.6930225183
 30
0.0
 10
11.7530250945
 20
56.6821207509
 30
0.0
 10
11.7485371982
 20
56.6741575789
 30
0.0
 10
11.7454926567
 20
56.6687227124
 30
0.0
 10
11.7436265316
 20
56.6653749742
 30
0.0
 10
11.7420487372
 20
56.6625246038
 30
0.0
 10
11.7407594607
 20
56.6601757392
 30
0.0
 10
11.7397706475
 20
56.6583416744
 30
0.0
 10
11.7391207404
 20
56.6571205935
 30
0.0
 10
11.7387730959
 20
56.6564179653
 30
0.0
 10
11.7385895256
 20
56.6560599611
 30
0.0
 10
11.7385364941
 20
56.6558838158
 30
0.0
 10
11.7384651229
 20
56.6557494474
 30
0.0
 10
11.7384885598
 20
56.6557359161
 30
0.0
  0
SPLINE
  5
533
100
AcDbEntity
  8
0
100
AcDbSpline
 62
250
  6
CONTINUOUS
 70
0
 71
3
 72
26
 73
22
 74
0
 42
0.0000001
 43
0.0000001
 44
0.0000000001
 40
0.0
 40
0.0
 40
0.0
 40
0.0
 40
0.1952373303
 40
0.3828767077
 40
0.5557522251
 40
0.6345529812
 40
0.7072370395
 40
0.7731083627
 40
0.8315339236
 40
0.8819525002
 40
0.9238825542
 40
0.9415345305
 40
0.9569212142
 40
0.9700029891
 40
0.9807505739
 40
0.9891391978
 40
0.995146544
 40
0.9972538066
 40
0.998762781
 40
0.999674324
 40
1.0
 40
1.0
 40
1.0
 40
1.0
 10
14.8649429926
 20
56.872242267
 30
0.0
 10
14.873054556
 20
56.8581921516
 30
0.0
 10
14.8889486339
 20
56.8306309771
 30
0.0
 10
14.9119787144
 20
56.7906021531
 30
0.0
 10
14.9301480432
 20
56.7589393263
 30
0.0
 10
14.9435377021
 20
56.7355471789
 30
0.0
 10
14.9524973404
 20
56.7198645766
 30
0.0
 10
14.9606032358
 20
56.7056441741
 30
0.0
 10
14.9677777301
 20
56.6930225089
 30
0.0
 10
14.9739520288
 20
56.6821207443
 30
0.0
 10
14.978439924
 20
56.6741575743
 30
0.0
 10
14.9814844647
 20
56.6687227092
 30
0.0
 10
14.9833505893
 20
56.6653749719
 30
0.0
 10
14.9849283832
 20
56.6625246022
 30
0.0
 10
14.9862176595
 20
56.6601757381
 30
0.0
 10
14.9872064724
 20
56.6583416738
 30
0.0
 10
14.9878563793
 20
56.6571205931
 30
0.0
 10
14.9882040238
 20
56.6564179651
 30
0.0
 10
14.9883875941
 20
56.656059961
 30
0.0
 10
14.9884406255
 20
56.6558838157
 30
0.0
 10
14.9885119966
 20
56.6557494474
 30
0.0
 10
14.9884885598
 20
56.6557359161
 30
0.0
  0
SPLINE
  5
534
100
AcDbEntity
  8
0
100
AcDbSpline
 62
250
  6
CONTINUOUS
 70
0
 71
3
 72
26
 73
22
 74
0
 42
0.0000001
 43
0.0000001
 44
0.0000000001
 40
0.0
 40
0.0
 40
0.0
 40
0.0
 40
0.1952373367
 40
0.3828767197
 40
0.5557522426
 40
0.6345529999
 40
0.7072370592
 40
0.7731083831
 40
0.8315339428
 40
0.8819525183
 40
0.923882571
 40
0.941534545
 40
0.956921227
 40
0.9700030008
 40
0.9807505828
 40
0.9891392048
 40
0.9951465495
 40
0.9972538103
 40
0.9987627829
 40
0.9996743245
 40
1.0
 40
1.0
 40
1.0
 40
1.0
 10
14.8649429926
 20
9.1835671324
 30
0.0
 10
14.8730545563
 20
9.1976172483
 30
0.0
 10
14.8889486346
 20
9.2251784237
 30
0.0
 10
14.9119787159
 20
9.265207249
 30
0.0
 10
14.9301480452
 20
9.2968700767
 30
0.0
 10
14.9435377045
 20
9.3202622246
 30
0.0
 10
14.9524973428
 20
9.3359448271
 30
0.0
 10
14.9606032382
 20
9.3501652297
 30
0.0
 10
14.9677777324
 20
9.3627868947
 30
0.0
 10
14.973952031
 20
9.3736886591
 30
0.0
 10
14.978439926
 20
9.3816518288
 30
0.0
 10
14.9814844665
 20
9.3870866935
 30
0.0
 10
14.9833505908
 20
9.3904344305
 30
0.0
 10
14.9849283846
 20
9.3932847997
 30
0.0
 10
14.9862176606
 20
9.3956336634
 30
0.0
 10
14.9872064733
 20
9.3974677273
 30
0.0
 10
14.98785638
 20
9.3986888076
 30
0.0
 10
14.9882040243
 20
9.3993914352
 30
0.0
 10
14.9883875943
 20
9.399749439
 30
0.0
 10
14.9884406257
 20
9.399925584
 30
0.0
 10
14.9885119966
 20
9.4000599521
 30
0.0
 10
14.9884885598
 20
9.4000734834
 30
0.0
  0
SPLINE
  5
535
100
AcDbEntity
  8
0
100
AcDbSpline
 62
250
  6
CONTINUOUS
 70
0
 71
3
 72
26
 73
22
 74
0
 42
0.0000001
 43
0.0000001
 44
0.0000000001
 40
0.0
 40
0.0
 40
0.0
 40
0.0
 40
0.1952373303
 40
0.3828767077
 40
0.5557522251
 40
0.6345529812
 40
0.7072370395
 40
0.7731083627
 40
0.8315339236
 40
0.8819525002
 40
0.9238825542
 40
0.9415345305
 40
0.9569212142
 40
0.9700029891
 40
0.9807505739
 40
0.9891391978
 40
0.995146544
 40
0.9972538066
 40
0.998762781
 40
0.999674324
 40
1.0
 40
1.0
 40
1.0
 40
1.0
 10
11.862034127
 20
9.1835671324
 30
0.0
 10
11.8539225636
 20
9.1976172479
 30
0.0
 10
11.8380284857
 20
9.2251784223
 30
0.0
 10
11.8149984052
 20
9.2652072464
 30
0.0
 10
11.7968290764
 20
9.2968700732
 30
0.0
 10
11.7834394174
 20
9.3202622206
 30
0.0
 10
11.7744797792
 20
9.3359448229
 30
0.0
 10
11.7663738838
 20
9.3501652254
 30
0.0
 10
11.7591993895
 20
9.3627868906
 30
0.0
 10
11.7530250908
 20
9.3736886552
 30
0.0
 10
11.7485371956
 20
9.3816518252
 30
0.0
 10
11.7454926549
 20
9.3870866903
 30
0.0
 10
11.7436265303
 20
9.3904344276
 30
0.0
 10
11.7420487363
 20
9.3932847973
 30
0.0
 10
11.7407594601
 20
9.3956336614
 30
0.0
 10
11.7397706471
 20
9.3974677257
 30
0.0
 10
11.7391207402
 20
9.3986888064
 30
0.0
 10
11.7387730958
 20
9.3993914344
 30
0.0
 10
11.7385895255
 20
9.3997494385
 30
0.0
 10
11.7385364941
 20
9.3999255838
 30
0.0
 10
11.7384651229
 20
9.4000599521
 30
0.0
 10
11.7384885598
 20
9.4000734834
 30
0.0
  0
SPLINE
  5
536
100
AcDbEntity
  8
0
100
AcDbSpline
 62
250
  6
CONTINUOUS
 70
0
 71
3
 72
26
 73
22
 74
0
 42
0.0000001
 43
0.0000001
 44
0.0000000001
 40
0.0
 40
0.0
 40
0.0
 40
0.0
 40
0.195080196
 40
0.3826515393
 40
0.5555245815
 40
0.6343411269
 40
0.7070484192
 40
0.7729476609
 40
0.831403253
 40
0.881851676
 40
0.9238093952
 40
0.9414738478
 40
0.9568718917
 40
0.9699637695
 40
0.9807201068
 40
0.9891161374
 40
0.9951296516
 40
0.997239688
 40
0.9987514623
 40
0.9996664469
 40
1.0
 40
1.0
 40
1.0
 40
1.0
 10
14.8649429926
 20
8.782272303
 30
0.0
 10
14.8650375716
 20
8.7660150036
 30
0.0
 10
14.8652051764
 20
8.7341260586
 30
0.0
 10
14.8653944228
 20
8.6878301815
 30
0.0
 10
14.8654964072
 20
8.6512232235
 30
0.0
 10
14.8655379515
 20
8.6241886968
 30
0.0
 10
14.8655486398
 20
8.6060691122
 30
0.0
 10
14.8655398658
 20
8.589646369
 30
0.0
 10
14.8655118831
 20
8.5750786435
 30
0.0
 10
14.8654650473
 20
8.5625062498
 30
0.0
 10
14.8654086046
 20
8.5533332879
 30
0.0
 10
14.865351569
 20
8.5470816243
 30
0.0
 10
14.865307103
 20
8.5432352121
 30
0.0
 10
14.8652582669
 20
8.5399656195
 30
0.0
 10
14.8652066054
 20
8.5372768468
 30
0.0
 10
14.8651494533
 20
8.5351856957
 30
0.0
 10
14.8651004815
 20
8.5337986799
 30
0.0
 10
14.8650494309
 20
8.5330121156
 30
0.0
 10
14.8650244727
 20
8.5326103514
 30
0.0
 10
14.8649840275
 20
8.5324268207
 30
0.0
 10
14.8649707898
 20
8.5322766955
 30
0.0
 10
14.8649429926
 20
8.5322765337
 30
0.0
  0
SPLINE
  5
537
100
AcDbEntity
  8
0
100
AcDbSpline
 62
250
  6
CONTINUOUS
 70
0
 71
3
 72
26
 73
22
 74
0
 42
0.0000001
 43
0.0000001
 44
0.0000000001
 40
0.0
 40
0.0
 40
0.0
 40
0.0
 40
0.195080196
 40
0.3826515393
 40
0.5555245815
 40
0.6343411269
 40
0.7070484192
 40
0.7729476609
 40
0.831403253
 40
0.881851676
 40
0.9238093952
 40
0.9414738478
 40
0.9568718917
 40
0.9699637695
 40
0.9807201068
 40
0.9891161374
 40
0.9951296516
 40
0.997239688
 40
0.9987514623
 40
0.9996664469
 40
1.0
 40
1.0
 40
1.0
 40
1.0
 10
11.862034127
 20
8.7909990477
 30
0.0
 10
11.861939548
 20
8.7747417483
 30
0.0
 10
11.8617719432
 20
8.7428528033
 30
0.0
 10
11.8615826968
 20
8.6965569263
 30
0.0
 10
11.8614807124
 20
8.6599499682
 30
0.0
 10
11.861439168
 20
8.6329154415
 30
0.0
 10
11.8614284798
 20
8.6147958569
 30
0.0
 10
11.8614372538
 20
8.5983731137
 30
0.0
 10
11.8614652365
 20
8.5838053882
 30
0.0
 10
11.8615120723
 20
8.5712329945
 30
0.0
 10
11.8615685149
 20
8.5620600326
 30
0.0
 10
11.8616255505
 20
8.555808369
 30
0.0
 10
11.8616700165
 20
8.5519619568
 30
0.0
 10
11.8617188527
 20
8.5486923642
 30
0.0
 10
11.8617705142
 20
8.5460035915
 30
0.0
 10
11.8618276662
 20
8.5439124405
 30
0.0
 10
11.8618766381
 20
8.5425254246
 30
0.0
 10
11.8619276887
 20
8.5417388603
 30
0.0
 10
11.8619526468
 20
8.5413370961
 30
0.0
 10
11.8619930921
 20
8.5411535654
 30
0.0
 10
11.8620063298
 20
8.5410034402
 30
0.0
 10
11.862034127
 20
8.5410032785
 30
0.0
  0
ELLIPSE
  5
538
100
AcDbEntity
  8
0
100
AcDbEllipse
 62
7
  6
CONTINUOUS
 10
45.7406739556
 20
55.412182366
 30
0.0
 11
0.2
 21
0.0
 31
0.0
 40
0.0524077793
 41
-3.1415926536
 42
-1.5707963268
  0
ELLIPSE
  5
539
100
AcDbEntity
  8
0
100
AcDbEllipse
 62
7
  6
CONTINUOUS
 10
43.3406739556
 20
55.412182366
 30
0.0
 11
0.2
 21
0.0
 31
0.0
 40
0.0524077793
 41
-1.5707963268
 42
0.0
  0
ELLIPSE
  5
53A
100
AcDbEntity
  8
0
100
AcDbEllipse
 62
7
  6
CONTINUOUS
 10
45.7406739556
 20
10.6436270335
 30
0.0
 11
0.2
 21
-0.0
 31
0.0
 40
0.0524077793
 41
1.5707963268
 42
3.1415926536
  0
ELLIPSE
  5
53B
100
AcDbEntity
  8
0
100
AcDbEllipse
 62
7
  6
CONTINUOUS
 10
43.3406739556
 20
10.6436270335
 30
0.0
 11
0.2
 21
0.0
 31
0.0
 40
0.0524077793
 41
0.0
 42
1.5707963268
  0
ELLIPSE
  5
53C
100
AcDbEntity
  8
0
100
AcDbEllipse
 62
7
  6
CONTINUOUS
 10
54.4333974375
 20
55.3623949756
 30
0.0
 11
0.25
 21
0.0
 31
0.0
 40
0.0524077793
 41
-1.5707963268
 42
-0.0058177642
  0
ELLIPSE
  5
53D
100
AcDbEntity
  8
0
100
AcDbEllipse
 62
7
  6
CONTINUOUS
 10
52.0479504737
 20
55.3623949756
 30
0.0
 11
0.25
 21
0.0
 31
0.0
 40
0.0524077793
 41
-3.1357748894
 42
-1.5707963268
  0
ELLIPSE
  5
53E
100
AcDbEntity
  8
0
100
AcDbEllipse
 62
7
  6
CONTINUOUS
 10
34.6479504737
 20
55.3623949756
 30
0.0
 11
0.25
 21
0.0
 31
0.0
 40
0.0524077793
 41
-3.1357748894
 42
-1.5707963268
  0
ELLIPSE
  5
53F
100
AcDbEntity
  8
0
100
AcDbEllipse
 62
7
  6
CONTINUOUS
 10
37.0333974375
 20
55.3623949756
 30
0.0
 11
0.25
 21
0.0
 31
0.0
 40
0.0524077793
 41
-1.5707963268
 42
-0.0058177642
  0
ELLIPSE
  5
540
100
AcDbEntity
  8
0
100
AcDbEllipse
 62
7
  6
CONTINUOUS
 10
54.4333974375
 20
10.6934144238
 30
0.0
 11
0.25
 21
0.0
 31
0.0
 40
0.0524077793
 41
0.0058177642
 42
1.5707963268
  0
ELLIPSE
  5
541
100
AcDbEntity
  8
0
100
AcDbEllipse
 62
7
  6
CONTINUOUS
 10
52.0479504737
 20
10.6934144238
 30
0.0
 11
0.25
 21
0.0
 31
0.0
 40
0.0524077793
 41
1.5707963268
 42
3.1357748894
  0
ELLIPSE
  5
542
100
AcDbEntity
  8
0
100
AcDbEllipse
 62
7
  6
CONTINUOUS
 10
37.0333974375
 20
10.6934144238
 30
0.0
 11
0.25
 21
0.0
 31
0.0
 40
0.0524077793
 41
0.0058177642
 42
1.5707963268
  0
ELLIPSE
  5
543
100
AcDbEntity
  8
0
100
AcDbEllipse
 62
7
  6
CONTINUOUS
 10
34.6479504737
 20
10.6934144238
 30
0.0
 11
0.25
 21
0.0
 31
0.0
 40
0.0524077793
 41
1.5707963268
 42
3.1357748894
  0
ELLIPSE
  5
544
100
AcDbEntity
  8
0
100
AcDbEllipse
 62
7
  6
CONTINUOUS
 10
55.163542441
 20
11.2072025417
 30
0.0
 11
-0.1582391023
 21
0.4751033573
 31
0.0
 40
0.9984778551
 41
-3.4626430032
 42
-2.4837363977
  0
ELLIPSE
  5
545
100
AcDbEntity
  8
0
100
AcDbEllipse
 62
7
  6
CONTINUOUS
 10
33.9178054703
 20
11.2072025417
 30
0.0
 11
-0.1582391023
 21
-0.4751033573
 31
0.0
 40
0.9984778551
 41
-1.2488325878
 42
0.3210503496
  0
ELLIPSE
  5
546
100
AcDbEntity
  8
0
100
AcDbEllipse
 62
7
  6
CONTINUOUS
 10
33.9178054703
 20
54.8486068578
 30
0.0
 11
-0.1582391023
 21
0.4751033573
 31
0.0
 40
0.9984778551
 41
-0.3210503496
 42
1.2488325878
  0
ELLIPSE
  5
547
100
AcDbEntity
  8
0
100
AcDbEllipse
 62
7
  6
CONTINUOUS
 10
55.163542441
 20
54.8486068578
 30
0.0
 11
0.1582391023
 21
0.4751033573
 31
0.0
 40
0.9984778551
 41
-0.6578562559
 42
0.3210503496
  0
ELLIPSE
  5
548
100
AcDbEntity
  8
0
100
AcDbEllipse
 62
7
  6
CONTINUOUS
 10
90.7406739556
 20
55.412182366
 30
0.0
 11
0.2
 21
-0.0
 31
0.0
 40
0.0524077793
 41
-3.1415926536
 42
-1.5707963268
  0
ELLIPSE
  5
549
100
AcDbEntity
  8
0
100
AcDbEllipse
 62
7
  6
CONTINUOUS
 10
88.3406739556
 20
55.412182366
 30
0.0
 11
0.2
 21
0.0
 31
0.0
 40
0.0524077793
 41
-1.5707963268
 42
0.0
  0
ELLIPSE
  5
54A
100
AcDbEntity
  8
0
100
AcDbEllipse
 62
7
  6
CONTINUOUS
 10
90.7406739556
 20
10.6436270335
 30
0.0
 11
0.2
 21
0.0
 31
0.0
 40
0.0524077793
 41
1.5707963268
 42
3.1415926536
  0
ELLIPSE
  5
54B
100
AcDbEntity
  8
0
100
AcDbEllipse
 62
7
  6
CONTINUOUS
 10
88.3406739556
 20
10.6436270335
 30
0.0
 11
0.2
 21
0.0
 31
0.0
 40
0.0524077793
 41
0.0
 42
1.5707963268
  0
ELLIPSE
  5
54C
100
AcDbEntity
  8
0
100
AcDbEllipse
 62
7
  6
CONTINUOUS
 10
99.4333974375
 20
55.3623949756
 30
0.0
 11
0.25
 21
0.0
 31
0.0
 40
0.0524077793
 41
-1.5707963268
 42
-0.0058177642
  0
ELLIPSE
  5
54D
100
AcDbEntity
  8
0
100
AcDbEllipse
 62
7
  6
CONTINUOUS
 10
97.0479504737
 20
55.3623949756
 30
0.0
 11
0.25
 21
0.0
 31
0.0
 40
0.0524077793
 41
-3.1357748894
 42
-1.5707963268
  0
ELLIPSE
  5
54E
100
AcDbEntity
  8
0
100
AcDbEllipse
 62
7
  6
CONTINUOUS
 10
79.6479504737
 20
55.3623949756
 30
0.0
 11
0.25
 21
0.0
 31
0.0
 40
0.0524077793
 41
-3.1357748894
 42
-1.5707963268
  0
ELLIPSE
  5
54F
100
AcDbEntity
  8
0
100
AcDbEllipse
 62
7
  6
CONTINUOUS
 10
82.0333974375
 20
55.3623949756
 30
0.0
 11
0.25
 21
0.0
 31
0.0
 40
0.0524077793
 41
-1.5707963268
 42
-0.0058177642
  0
ELLIPSE
  5
550
100
AcDbEntity
  8
0
100
AcDbEllipse
 62
7
  6
CONTINUOUS
 10
99.4333974375
 20
10.6934144238
 30
0.0
 11
0.25
 21
-0.0
 31
0.0
 40
0.0524077793
 41
0.0058177642
 42
1.5707963268
  0
ELLIPSE
  5
551
100
AcDbEntity
  8
0
100
AcDbEllipse
 62
7
  6
CONTINUOUS
 10
97.0479504737
 20
10.6934144238
 30
0.0
 11
0.25
 21
-0.0
 31
0.0
 40
0.0524077793
 41
1.5707963268
 42
3.1357748894
  0
ELLIPSE
  5
552
100
AcDbEntity
  8
0
100
AcDbEllipse
 62
7
  6
CONTINUOUS
 10
82.0333974375
 20
10.6934144238
 30
0.0
 11
0.25
 21
0.0
 31
0.0
 40
0.0524077793
 41
0.0058177642
 42
1.5707963268
  0
ELLIPSE
  5
553
100
AcDbEntity
  8
0
100
AcDbEllipse
 62
7
  6
CONTINUOUS
 10
79.6479504737
 20
10.6934144238
 30
0.0
 11
0.25
 21
0.0
 31
0.0
 40
0.0524077793
 41
1.5707963268
 42
3.1357748894
  0
ELLIPSE
  5
554
100
AcDbEntity
  8
0
100
AcDbEllipse
 62
7
  6
CONTINUOUS
 10
100.163542441
 20
11.2072025417
 30
0.0
 11
-0.1582391023
 21
0.4751033573
 31
0.0
 40
0.9984778551
 41
-3.4626430032
 42
-1.8927600658
  0
ELLIPSE
  5
555
100
AcDbEntity
  8
0
100
AcDbEllipse
 62
7
  6
CONTINUOUS
 10
78.9178054703
 20
11.2072025417
 30
0.0
 11
-0.1582391023
 21
-0.4751033573
 31
0.0
 40
0.9984778551
 41
-0.6578562559
 42
0.3210503496
  0
ELLIPSE
  5
556
100
AcDbEntity
  8
0
100
AcDbEllipse
 62
7
  6
CONTINUOUS
 10
78.9178054703
 20
54.8486068578
 30
0.0
 11
-0.1582391023
 21
0.4751033573
 31
0.0
 40
0.9984778551
 41
-0.3210503496
 42
0.6578562559
  0
ELLIPSE
  5
557
100
AcDbEntity
  8
0
100
AcDbEllipse
 62
7
  6
CONTINUOUS
 10
100.163542441
 20
54.8486068578
 30
0.0
 11
0.1582391023
 21
0.4751033573
 31
0.0
 40
0.9984778551
 41
-1.2488325878
 42
0.3210503496
  0
ELLIPSE
  5
558
100
AcDbEntity
  8
RACCORDO
100
AcDbEllipse
 62
7
  6
CONTINUOUS
 10
34.0408453519
 20
11.4285908727
 30
0.0
 11
0.2238673116
 21
0.4480418466
 31
0.0
 40
0.9982882662
 41
-4.2483303396
 42
-2.6789040089
  0
ELLIPSE
  5
559
100
AcDbEntity
  8
RACCORDO
100
AcDbEllipse
 62
7
  6
CONTINUOUS
 10
100.0405025594
 20
11.4285908727
 30
0.0
 11
-0.2238673116
 21
0.4480418466
 31
0.0
 40
0.9982882662
 41
-3.6042812983
 42
-2.0348549675
  0
ELLIPSE
  5
55A
100
AcDbEntity
  8
RACCORDO
100
AcDbEllipse
 62
7
  6
CONTINUOUS
 10
100.0405025594
 20
54.6272185267
 30
0.0
 11
0.2238673116
 21
0.4480418466
 31
0.0
 40
0.9982882662
 41
-1.1067376861
 42
0.4626886447
  0
ELLIPSE
  5
55B
100
AcDbEntity
  8
RACCORDO
100
AcDbEllipse
 62
7
  6
CONTINUOUS
 10
34.0408453519
 20
54.6272185267
 30
0.0
 11
-0.2238673116
 21
0.4480418466
 31
0.0
 40
0.9982882662
 41
-0.4626886447
 42
1.1067376861
  0
ELLIPSE
  5
55C
100
AcDbEntity
  8
0
100
AcDbEllipse
 62
7
  6
CONTINUOUS
 10
91.4619182359
 20
56.1779046997
 30
0.0
 11
85.9426996401
 21
-0.0
 31
0.0
 40
0.0058178298
 41
-2.6905658418
 42
-2.5607560384
  0
ELLIPSE
  5
55D
100
AcDbEntity
  8
0
100
AcDbEllipse
 62
7
  6
CONTINUOUS
 10
91.4619182359
 20
56.1779046997
 30
0.0
 11
85.9426996401
 21
-0.0
 31
0.0
 40
0.0058178298
 41
2.5607560384
 42
2.6791240518
  0
ELLIPSE
  5
55E
100
AcDbEntity
  8
0
100
AcDbEllipse
 62
7
  6
CONTINUOUS
 10
91.4619182359
 20
9.8779046997
 30
0.0
 11
85.9426996401
 21
-0.0
 31
0.0
 40
0.0058178298
 41
-2.6791240519
 42
-2.5607560384
  0
ELLIPSE
  5
55F
100
AcDbEntity
  8
0
100
AcDbEllipse
 62
7
  6
CONTINUOUS
 10
91.4619182359
 20
9.8779046997
 30
0.0
 11
85.9426996401
 21
-0.0
 31
0.0
 40
0.0058178298
 41
2.5607560384
 42
2.6905658418
  0
ELLIPSE
  5
560
100
AcDbEntity
  8
0
100
AcDbEllipse
 62
7
  6
CONTINUOUS
 10
25.6134885598
 20
10.944550354
 30
0.0
 11
0.0
 21
0.5
 31
0.0
 40
1.0
 41
-0.9160011313
 42
-0.0174532925
  0
ELLIPSE
  5
561
100
AcDbEntity
  8
0
100
AcDbEllipse
 62
7
  6
CONTINUOUS
 10
25.6134885598
 20
55.1112590455
 30
0.0
 11
0.5
 21
0.0
 31
0.0
 40
1.0
 41
-1.5533430343
 42
-0.6547951955
  0
ENDSEC
  0
SECTION
  2
OBJECTS
  0
DICTIONARY
  5
C
100
AcDbDictionary
280
0
281
1
  3
ACAD_GROUP
350
D
  3
ACAD_MLINESTYLE
350
17
  3
ACAD_LAYOUT
350
1A
  3
ACAD_PLOTSETTINGS
350
19
  3
ACAD_PLOTSTYLENAME
350
E
  0
DICTIONARY
  5
D
102
{ACAD_REACTORS
330
C
102
}
100
AcDbDictionary
280
0
281
1
  0
ACDBDICTIONARYWDFLT
  5
E
102
{ACAD_REACTORS
330
C
102
}
100
AcDbDictionary
281
1
  3
Normal
350
F
100
AcDbDictionaryWithDefault
340
F
  0
DICTIONARY
  5
17
102
{ACAD_REACTORS
330
C
102
}
100
AcDbDictionary
280
0
281
1
  3
Standard
350
18
  0
DICTIONARY
  5
19
102
{ACAD_REACTORS
330
C
102
}
100
AcDbDictionary
281
1
  0
DICTIONARY
  5
1A
102
{ACAD_REACTORS
330
C
102
}
100
AcDbDictionary
281
1
  3
Model
350
562
  3
Layout1
350
563
  0
ACDBPLACEHOLDER
  5
F
102
{ACAD_REACTORS
330
E
102
}
  0
MLINESTYLE
  5
18
102
{ACAD_REACTORS
330
17
102
}
100
AcDbMlineStyle
  2
STANDARD
 70
0
  3

 62
256
 51
90.0
 52
90.0
 71
2
 49
0.5
 62
256
  6
BYLAYER
 49
-0.5
 62
256
  6
BYLAYER
  0
LAYOUT
  5
562
102
{ACAD_REACTORS
330
1A
102
}
100
AcDbPlotSettings
  1

  2
none_device
  4
ISO_A4_(297.00_x_210.00_MM)
  6

 40
0.0
 41
0.0
 42
0.0
 43
0.0
 44
297.0
 45
210.0
 46
0.0
 47
0.0
 48
0.0
 49
0.0
140
0.0
141
0.0
142
1.0
143
1.0
 70
1024
 72
1
 73
0
 74
0
  7

 75
0
147
1.0
148
0.0
149
0.0
100
AcDbLayout
  1
Model
 70
0
 71
0
 10
0.0
 20
0.0
 11
297.0
 21
210.0
 12
0.0
 22
0.0
 32
0.0
 14
0.0
 24
0.0
 34
0.0
 15
0.0
 25
0.0
 35
0.0
146
0.0
 13
0.0
 23
0.0
 33
0.0
 16
1.0
 26
0.0
 36
0.0
 17
0.0
 27
1.0
 37
0.0
 76
0
330
219
345
0
346
0
  0
LAYOUT
  5
563
102
{ACAD_REACTORS
330
1A
102
}
100
AcDbPlotSettings
  1

  2
none_device
  4
ISO_A4_(297.00_x_210.00_MM)
  6

 40
0.0
 41
0.0
 42
0.0
 43
0.0
 44
297.0
 45
210.0
 46
0.0
 47
0.0
 48
0.0
 49
0.0
140
0.0
141
0.0
142
1.0
143
1.0
 70
0
 72
1
 73
0
 74
0
  7

 75
0
147
1.0
148
0.0
149
0.0
100
AcDbLayout
  1
Layout1
 70
0
 71
1
 10
0.0
 20
0.0
 11
297.0
 21
210.0
 12
0.0
 22
0.0
 32
0.0
 14
0.0
 24
0.0
 34
0.0
 15
0.0
 25
0.0
 35
0.0
146
0.0
 13
0.0
 23
0.0
 33
0.0
 16
1.0
 26
0.0
 36
0.0
 17
0.0
 27
1.0
 37
0.0
 76
0
330
21A
345
0
346
0
  0
ENDSEC
  0
EOF
