  0
SECTION
  2
HEADER
  9
$ACADVER
  1
AC1015
  9
$DWGCODEPAGE
  3
ANSI_1252
  9
$EXTMAX
 10
297.0
 20
210.0
 30
0.0
  9
$EXTMIN
 10
0.0
 20
0.0
 30
0.0
  9
$LIMMIN
 10
0.0
 20
0.0
  9
$LIMMAX
 10
297.0
 20
210.0
  9
$VIEWCTR
 10
148.5
 20
105.0
  9
$VIEWSIZE
 40
210.0
  9
$CLAYER
  8
0
  9
$LTSCALE
 40
16.335
  9
$CELTYPE
  6
BYLAYER
  9
$DIMSCALE
 40
1.0
  9
$DIMASZ
 40
3.0
  9
$DIMEXO
 40
1.85625
  9
$DIMDLI
 40
11.286
  9
$DIMEXE
 40
5.346
  9
$DIMCEN
 40
2.673
  9
$DIMLFAC
 40
1.0
  9
$DIMBLK
  1
_FILLED
  9
$DIMTXT
 40
3.0
  9
$DIMTOL
 70
1
  9
$DIMLIM
 70
0
  9
$DIMTFAC
 40
1.0
  9
$DIMTP
 40
0.01
  9
$DIMTM
 40
0.01
  9
$PDMODE
 70
3
  9
$PDSIZE
 40
3.0
  9
$HANDSEED
  5
547
  9
$TILEMODE
 70
1
  9
$MEASUREMENT
 70
1
  9
$INSUNITS
 70
4
  0
ENDSEC
  0
SECTION
  2
CLASSES
  0
CLASS
  1
ACDBDICTIONARYWDFLT
  2
AcDbDictionaryWithDefault
  3
AutoCAD 2000
 90
0
280
0
281
0
  0
CLASS
  1
ACDBPLACEHOLDER
  2
AcDbPlaceHolder
  3
AutoCAD 2000
 90
0
280
0
281
0
  0
CLASS
  1
LAYOUT
  2
AcDbLayout
  3
AutoCAD 2000
 90
0
280
0
281
0
  0
ENDSEC
  0
SECTION
  2
TABLES
  0
TABLE
  2
VPORT
  5
8
100
AcDbSymbolTable
 70
2
  0
VPORT
  5
1F4
100
AcDbSymbolTableRecord
100
AcDbViewportTableRecord
  2
*ACTIVE
 70
0
 10
0.0
 20
0.0
 11
1.0
 21
1.0
 12
148.5
 22
105.0
 13
0.0
 23
0.0
 14
1.0
 24
1.0
 15
0.0
 25
0.0
 16
0.0
 26
0.0
 36
1.0
 17
0.0
 27
0.0
 37
0.0
 40
210.0
 41
1.4142857143
 42
50.0
 43
0.0
 44
0.0
 50
0.0
 51
0.0
 71
0
 72
100
 73
1
 74
1
 75
0
 76
0
 77
0
 78
0
  0
ENDTAB
  0
TABLE
  2
LTYPE
  5
5
100
AcDbSymbolTable
 70
6
  0
LTYPE
  5
14
100
AcDbSymbolTableRecord
100
AcDbLinetypeTableRecord
  2
BYBLOCK
 70
0
  3

 72
65
 73
0
 40
0.0
  0
LTYPE
  5
15
100
AcDbSymbolTableRecord
100
AcDbLinetypeTableRecord
  2
BYLAYER
 70
0
  3

 72
65
 73
0
 40
0.0
  0
LTYPE
  5
16
100
AcDbSymbolTableRecord
100
AcDbLinetypeTableRecord
  2
CONTINUOUS
 70
64
  3
Solid line
 72
65
 73
0
 40
0.0
  0
LTYPE
  5
1F5
100
AcDbSymbolTableRecord
100
AcDbLinetypeTableRecord
  2
CENTER
 70
64
  3
____ _ ____ _ ____ _ ____ _ ____ _ ____ _ ____
 72
65
 73
4
 40
0.6
 49
0.375
 74
0
 49
-0.075
 74
0
 49
0.075
 74
0
 49
-0.075
 74
0
  0
LTYPE
  5
1F6
100
AcDbSymbolTableRecord
100
AcDbLinetypeTableRecord
  2
HIDDEN
 70
64
  3
- - - - - - - - - - - - - - - - - - - -
 72
65
 73
2
 40
0.2
 49
0.1
 74
0
 49
-0.1
 74
0
  0
LTYPE
  5
1F7
100
AcDbSymbolTableRecord
100
AcDbLinetypeTableRecord
  2
PHANTOM
 70
64
  3
_____ _ _ _____ _ _ _____ _ _ _____
 72
65
 73
6
 40
0.8
 49
0.45
 74
0
 49
-0.05
 74
0
 49
0.1
 74
0
 49
-0.05
 74
0
 49
0.1
 74
0
 49
-0.05
 74
0
  0
LTYPE
  5
1F8
100
AcDbSymbolTableRecord
100
AcDbLinetypeTableRecord
  2
DOT
 70
64
  3
. . . . . . . . . . . . . . . . . . . .
 72
65
 73
2
 40
0.2
 49
0.1
 74
0
 49
-0.1
 74
0
  0
LTYPE
  5
1F9
100
AcDbSymbolTableRecord
100
AcDbLinetypeTableRecord
  2
DASHED
 70
64
  3
- - - - - - - - - - - - - - - - - - - -
 72
65
 73
2
 40
0.2
 49
0.1
 74
0
 49
-0.1
 74
0
  0
ENDTAB
  0
TABLE
  2
LAYER
  5
2
100
AcDbSymbolTable
 70
36
  0
LAYER
  5
10
100
AcDbSymbolTableRecord
100
AcDbLayerTableRecord
  2
0
 70
0
 62
7
  6
CONTINUOUS
370
-3
390
F
  0
LAYER
  5
1FA
100
AcDbSymbolTableRecord
100
AcDbLayerTableRecord
  2
DEFAULT_1
 70
0
 62
7
  6
CENTER
370
-3
390
F
  0
LAYER
  5
1FB
100
AcDbSymbolTableRecord
100
AcDbLayerTableRecord
  2
DEFAULT_2
 70
0
 62
7
  6
HIDDEN
370
-3
390
F
  0
LAYER
  5
1FC
100
AcDbSymbolTableRecord
100
AcDbLayerTableRecord
  2
DEFAULT_3
 70
0
 62
7
  6
PHANTOM
370
-3
390
F
  0
LAYER
  5
1FD
100
AcDbSymbolTableRecord
100
AcDbLayerTableRecord
  2
ASSI
 70
0
 62
7
  6
CONTINUOUS
370
-3
390
F
  0
LAYER
  5
1FE
100
AcDbSymbolTableRecord
100
AcDbLayerTableRecord
  2
COORDINATE
 70
0
 62
7
  6
CONTINUOUS
370
-3
390
F
  0
LAYER
  5
1FF
100
AcDbSymbolTableRecord
100
AcDbLayerTableRecord
  2
COORD_ORIGINE
 70
0
 62
7
  6
CONTINUOUS
370
-3
390
F
  0
LAYER
  5
200
100
AcDbSymbolTableRecord
100
AcDbLayerTableRecord
  2
COPY_PUBLISH
 70
0
 62
7
  6
CONTINUOUS
370
-3
390
F
  0
LAYER
  5
201
100
AcDbSymbolTableRecord
100
AcDbLayerTableRecord
  2
COSMETIC
 70
0
 62
7
  6
CONTINUOUS
370
-3
390
F
  0
LAYER
  5
202
100
AcDbSymbolTableRecord
100
AcDbLayerTableRecord
  2
COSMETICI
 70
0
 62
7
  6
CONTINUOUS
370
-3
390
F
  0
LAYER
  5
203
100
AcDbSymbolTableRecord
100
AcDbLayerTableRecord
  2
CURVE
 70
0
 62
7
  6
CONTINUOUS
370
-3
390
F
  0
LAYER
  5
204
100
AcDbSymbolTableRecord
100
AcDbLayerTableRecord
  2
DRAFT
 70
0
 62
7
  6
CONTINUOUS
370
-3
390
F
  0
LAYER
  5
205
100
AcDbSymbolTableRecord
100
AcDbLayerTableRecord
  2
IMPORT
 70
0
 62
7
  6
CONTINUOUS
370
-3
390
F
  0
LAYER
  5
206
100
AcDbSymbolTableRecord
100
AcDbLayerTableRecord
  2
IMPORT_IGES
 70
0
 62
7
  6
CONTINUOUS
370
-3
390
F
  0
LAYER
  5
207
100
AcDbSymbolTableRecord
100
AcDbLayerTableRecord
  2
INTFCLR_11
 70
0
 62
7
  6
CONTINUOUS
370
-3
390
F
  0
LAYER
  5
208
100
AcDbSymbolTableRecord
100
AcDbLayerTableRecord
  2
INTF_1
 70
0
 62
7
  6
CONTINUOUS
370
-3
390
F
  0
LAYER
  5
209
100
AcDbSymbolTableRecord
100
AcDbLayerTableRecord
  2
INTF_3
 70
0
 62
7
  6
CONTINUOUS
370
-3
390
F
  0
LAYER
  5
20A
100
AcDbSymbolTableRecord
100
AcDbLayerTableRecord
  2
NOTE
 70
0
 62
7
  6
CONTINUOUS
370
-3
390
F
  0
LAYER
  5
20B
100
AcDbSymbolTableRecord
100
AcDbLayerTableRecord
  2
PIANI
 70
0
 62
7
  6
CONTINUOUS
370
-3
390
F
  0
LAYER
  5
20C
100
AcDbSymbolTableRecord
100
AcDbLayerTableRecord
  2
PIANI_ORIGINE
 70
0
 62
7
  6
CONTINUOUS
370
-3
390
F
  0
LAYER
  5
20D
100
AcDbSymbolTableRecord
100
AcDbLayerTableRecord
  2
PIANI_RIFERIMENTO
 70
0
 62
7
  6
CONTINUOUS
370
-3
390
F
  0
LAYER
  5
20E
100
AcDbSymbolTableRecord
100
AcDbLayerTableRecord
  2
PUNTI
 70
0
 62
7
  6
CONTINUOUS
370
-3
390
F
  0
LAYER
  5
20F
100
AcDbSymbolTableRecord
100
AcDbLayerTableRecord
  2
RACCORDO
 70
0
 62
7
  6
CONTINUOUS
370
-3
390
F
  0
LAYER
  5
210
100
AcDbSymbolTableRecord
100
AcDbLayerTableRecord
  2
SIMBOLI
 70
0
 62
7
  6
CONTINUOUS
370
-3
390
F
  0
LAYER
  5
211
100
AcDbSymbolTableRecord
100
AcDbLayerTableRecord
  2
SMUSSO
 70
0
 62
7
  6
CONTINUOUS
370
-3
390
F
  0
LAYER
  5
212
100
AcDbSymbolTableRecord
100
AcDbLayerTableRecord
  2
SNAPLINE
 70
0
 62
7
  6
CONTINUOUS
370
-3
390
F
  0
LAYER
  5
213
100
AcDbSymbolTableRecord
100
AcDbLayerTableRecord
  2
SUPERFICI
 70
0
 62
7
  6
CONTINUOUS
370
-3
390
F
  0
LAYER
  5
214
100
AcDbSymbolTableRecord
100
AcDbLayerTableRecord
  2
TRASH
 70
0
 62
7
  6
CONTINUOUS
370
-3
390
F
  0
LAYER
  5
215
100
AcDbSymbolTableRecord
100
AcDbLayerTableRecord
  2
XSEC_DATUMS
 70
0
 62
7
  6
CONTINUOUS
370
-3
390
F
  0
LAYER
  5
216
100
AcDbSymbolTableRecord
100
AcDbLayerTableRecord
  2
___SHELL
 70
0
 62
7
  6
CONTINUOUS
370
-3
390
F
  0
ENDTAB
  0
TABLE
  2
STYLE
  5
3
100
AcDbSymbolTable
 70
1
  0
STYLE
  5
11
100
AcDbSymbolTableRecord
100
AcDbTextStyleTableRecord
  2
STANDARD
 70
0
 40
0.0
 41
0.8
 50
0.0
 71
0
 42
0.2
  3
txt
  4

  0
STYLE
  5
217
100
AcDbSymbolTableRecord
100
AcDbTextStyleTableRecord
  2
TEXTSTYLE_1
 70
0
 40
0.0
 41
0.8
 50
0.0
 71
0
 42
0.2
  3
gdt
  4

  0
ENDTAB
  0
TABLE
  2
VIEW
  5
6
100
AcDbSymbolTable
 70
0
  0
ENDTAB
  0
TABLE
  2
UCS
  5
7
100
AcDbSymbolTable
 70
0
  0
ENDTAB
  0
TABLE
  2
APPID
  5
9
100
AcDbSymbolTable
 70
1
  0
APPID
  5
218
100
AcDbSymbolTableRecord
100
AcDbRegAppTableRecord
  2
ACAD
 70
0
  0
ENDTAB
  0
TABLE
  2
BLOCK_RECORD
  5
1
100
AcDbSymbolTable
 70
0
  0
BLOCK_RECORD
  5
219
100
AcDbSymbolTableRecord
100
AcDbBlockTableRecord
  2
*Model_Space
  0
BLOCK_RECORD
  5
21A
100
AcDbSymbolTableRecord
100
AcDbBlockTableRecord
  2
*Paper_Space
  0
BLOCK_RECORD
  5
21B
100
AcDbSymbolTableRecord
100
AcDbBlockTableRecord
  2
_FILLED
  0
BLOCK_RECORD
  5
21C
100
AcDbSymbolTableRecord
100
AcDbBlockTableRecord
  2
*D0
  0
BLOCK_RECORD
  5
21D
100
AcDbSymbolTableRecord
100
AcDbBlockTableRecord
  2
*D1
  0
BLOCK_RECORD
  5
21E
100
AcDbSymbolTableRecord
100
AcDbBlockTableRecord
  2
*D2
  0
BLOCK_RECORD
  5
21F
100
AcDbSymbolTableRecord
100
AcDbBlockTableRecord
  2
*D3
  0
ENDTAB
  0
TABLE
  2
DIMSTYLE
  5
A
100
AcDbSymbolTable
 70
1
100
AcDbDimStyleTable
 71
0
  0
DIMSTYLE
105
220
100
AcDbSymbolTableRecord
100
AcDbDimStyleTableRecord
  2
STANDARD
 70
0
  3

  4

 40
1.0
 41
3.0
 42
0.0625
 43
0.38
 44
0.18
 45
0.0
 46
0.0
 47
0.01
 48
0.01
140
3.0
141
0.09
142
0.0
143
25.4
144
1.0
145
0.0
146
1.0
147
0.09
 71
1.0
 72
0.0
 73
0
 74
0
 75
0
 76
0
 77
1
 78
8
170
0
171
2
172
0
173
0
174
0
175
0
176
0
177
0
178
0
270
2
271
2
272
2
273
2
274
2
275
0
280
0
281
0
282
0
283
1
284
8
285
0
286
0
287
3
288
0
340
11
341
21B
342
21B
343
21B
344
21B
  0
DIMSTYLE
105
221
100
AcDbSymbolTableRecord
100
AcDbDimStyleTableRecord
  2
DIMSTYLE_1
 70
0
  3

  4

 40
1.0
 41
3.0
 42
0.0625
 43
0.38
 44
0.18
 45
0.0
 46
0.0
 47
0.0
 48
0.0
140
3.0
141
0.09
142
0.0
143
25.4
144
1.0
145
0.0
146
1.0
147
0.09
 71
0.0
 72
0.0
 73
0
 74
0
 75
0
 76
0
 77
1
 78
8
170
0
171
2
172
0
173
0
174
0
175
0
176
0
177
0
178
0
270
2
271
2
272
2
273
2
274
2
275
0
280
0
281
0
282
0
283
1
284
8
285
0
286
0
287
3
288
0
340
11
341
21B
342
21B
343
21B
344
21B
  0
ENDTAB
  0
ENDSEC
  0
SECTION
  2
BLOCKS
  0
BLOCK
  5
20
100
AcDbEntity
  8
0
100
AcDbBlockBegin
  2
*Model_Space
 70
0
 10
0.0
 20
0.0
 30
0.0
  3
*Model_Space
  1

  0
ENDBLK
  5
21
100
AcDbEntity
  8
0
100
AcDbBlockEnd
  0
BLOCK
  5
1C
100
AcDbEntity
  8
0
100
AcDbBlockBegin
  2
*Paper_Space
 70
0
 10
0.0
 20
0.0
 30
0.0
  3
*Paper_Space
  1

  0
ENDBLK
  5
1D
100
AcDbEntity
  8
0
100
AcDbBlockEnd
  0
BLOCK
  5
222
100
AcDbEntity
  8
0
100
AcDbBlockBegin
  2
_FILLED
 70
64
 10
0.0
 20
0.0
  3
_FILLED
  1

  0
SOLID
  5
223
100
AcDbEntity
  8
0
  6
BYBLOCK
 62
0
100
AcDbTrace
 10
0.0
 20
0.0
 11
-1.0
 21
0.3166666667
 12
-1.0
 22
-0.3166666667
 13
-1.0
 23
-0.3166666667
  0
ENDBLK
  5
224
100
AcDbEntity
  8
0
  6
BYBLOCK
 62
0
100
AcDbBlockEnd
  0
BLOCK
  5
225
100
AcDbEntity
  8
0
100
AcDbBlockBegin
 62
7
  6
CONTINUOUS
  2
*D0
 70
65
 10
0.0
 20
0.0
  3
*D0
  1

  0
LINE
  5
226
100
AcDbEntity
  8
0
100
AcDbLine
 62
7
  6
CONTINUOUS
 10
-48.9971581712
 20
21.4
 11
-48.9971581712
 21
36.5945012747
  0
LINE
  5
227
100
AcDbEntity
  8
0
100
AcDbLine
 62
7
  6
CONTINUOUS
 10
-59.9971581712
 20
24.7456323968
 11
-59.9971581712
 21
36.5945012747
  0
LINE
  5
228
100
AcDbEntity
  8
0
100
AcDbLine
 62
7
  6
CONTINUOUS
 10
-48.9971581712
 20
35.0945012747
 11
-44.9971581712
 21
35.0945012747
  0
LINE
  5
229
100
AcDbEntity
  8
0
100
AcDbLine
 62
7
  6
CONTINUOUS
 10
-44.9971581712
 20
35.0945012747
 11
-54.4971581712
 21
35.0945012747
  0
LINE
  5
22A
100
AcDbEntity
  8
0
100
AcDbLine
 62
7
  6
CONTINUOUS
 10
-59.9971581712
 20
35.0945012747
 11
-63.9971581712
 21
35.0945012747
  0
LINE
  5
22B
100
AcDbEntity
  8
0
100
AcDbLine
 62
7
  6
CONTINUOUS
 10
-63.9971581712
 20
35.0945012747
 11
-54.4971581712
 21
35.0945012747
  0
INSERT
  5
22C
100
AcDbEntity
  8
0
100
AcDbBlockReference
 62
7
  6
CONTINUOUS
  2
_FILLED
 10
-48.9971581712
 20
35.0945012747
 41
3.0
 42
3.0
 43
3.0
 50
180.0
  0
INSERT
  5
22D
100
AcDbEntity
  8
0
100
AcDbBlockReference
 62
7
  6
CONTINUOUS
  2
_FILLED
 10
-59.9971581712
 20
35.0945012747
 41
3.0
 42
3.0
 43
3.0
  0
ENDBLK
  5
22E
100
AcDbEntity
  8
0
  6
BYBLOCK
 62
0
100
AcDbBlockEnd
  0
BLOCK
  5
22F
100
AcDbEntity
  8
0
100
AcDbBlockBegin
 62
7
  6
CONTINUOUS
  2
*D1
 70
65
 10
0.0
 20
0.0
  3
*D1
  1

  0
LINE
  5
230
100
AcDbEntity
  8
0
100
AcDbLine
 62
7
  6
CONTINUOUS
 10
-48.9971581712
 20
21.4
 11
-48.9971581712
 21
46.5945012747
  0
LINE
  5
231
100
AcDbEntity
  8
0
100
AcDbLine
 62
7
  6
CONTINUOUS
 10
-71.297175441
 20
0.5
 11
-71.297175441
 21
46.5945012747
  0
LINE
  5
232
100
AcDbEntity
  8
0
100
AcDbLine
 62
7
  6
CONTINUOUS
 10
-48.9971581712
 20
45.0945012747
 11
-60.1471668061
 21
45.0945012747
  0
LINE
  5
233
100
AcDbEntity
  8
0
100
AcDbLine
 62
7
  6
CONTINUOUS
 10
-71.297175441
 20
45.0945012747
 11
-60.1471668061
 21
45.0945012747
  0
INSERT
  5
234
100
AcDbEntity
  8
0
100
AcDbBlockReference
 62
7
  6
CONTINUOUS
  2
_FILLED
 10
-48.9971581712
 20
45.0945012747
 41
3.0
 42
3.0
 43
3.0
 50
360.0
  0
INSERT
  5
235
100
AcDbEntity
  8
0
100
AcDbBlockReference
 62
7
  6
CONTINUOUS
  2
_FILLED
 10
-71.297175441
 20
45.0945012747
 41
3.0
 42
3.0
 43
3.0
 50
180.0
  0
ENDBLK
  5
236
100
AcDbEntity
  8
0
  6
BYBLOCK
 62
0
100
AcDbBlockEnd
  0
BLOCK
  5
237
100
AcDbEntity
  8
0
100
AcDbBlockBegin
 62
7
  6
CONTINUOUS
  2
*D2
 70
65
 10
0.0
 20
0.0
  3
*D2
  1

  0
LINE
  5
238
100
AcDbEntity
  8
0
100
AcDbLine
 62
7
  6
CONTINUOUS
 10
-33.6504363434
 20
22.400016923
 11
-33.6504363434
 21
36.5945012747
  0
LINE
  5
239
100
AcDbEntity
  8
0
100
AcDbLine
 62
7
  6
CONTINUOUS
 10
33.6504363434
 20
22.400016923
 11
33.6504363434
 21
36.5945012747
  0
LINE
  5
23A
100
AcDbEntity
  8
0
100
AcDbLine
 62
7
  6
CONTINUOUS
 10
-33.6504363434
 20
35.0945012747
 11
-0.0
 21
35.0945012747
  0
LINE
  5
23B
100
AcDbEntity
  8
0
100
AcDbLine
 62
7
  6
CONTINUOUS
 10
33.6504363434
 20
35.0945012747
 11
-0.0
 21
35.0945012747
  0
INSERT
  5
23C
100
AcDbEntity
  8
0
100
AcDbBlockReference
 62
7
  6
CONTINUOUS
  2
_FILLED
 10
-33.6504363434
 20
35.0945012747
 41
3.0
 42
3.0
 43
3.0
 50
180.0
  0
INSERT
  5
23D
100
AcDbEntity
  8
0
100
AcDbBlockReference
 62
7
  6
CONTINUOUS
  2
_FILLED
 10
33.6504363434
 20
35.0945012747
 41
3.0
 42
3.0
 43
3.0
  0
ENDBLK
  5
23E
100
AcDbEntity
  8
0
  6
BYBLOCK
 62
0
100
AcDbBlockEnd
  0
BLOCK
  5
23F
100
AcDbEntity
  8
0
100
AcDbBlockBegin
 62
7
  6
CONTINUOUS
  2
*D3
 70
65
 10
0.0
 20
0.0
  3
*D3
  1

  0
LINE
  5
240
100
AcDbEntity
  8
0
100
AcDbLine
 62
7
  6
CONTINUOUS
 10
32.9000042308
 20
-24.5
 11
47.9983961432
 21
-24.5
  0
LINE
  5
241
100
AcDbEntity
  8
0
100
AcDbLine
 62
7
  6
CONTINUOUS
 10
32.9000042308
 20
24.5
 11
47.9983961432
 21
24.5
  0
LINE
  5
242
100
AcDbEntity
  8
0
100
AcDbLine
 62
7
  6
CONTINUOUS
 10
46.4983961432
 20
-24.5
 11
46.4983961432
 21
0.0
  0
LINE
  5
243
100
AcDbEntity
  8
0
100
AcDbLine
 62
7
  6
CONTINUOUS
 10
46.4983961432
 20
24.5
 11
46.4983961432
 21
0.0
  0
INSERT
  5
244
100
AcDbEntity
  8
0
100
AcDbBlockReference
 62
7
  6
CONTINUOUS
  2
_FILLED
 10
46.4983961432
 20
-24.5
 41
3.0
 42
3.0
 43
3.0
 50
270.0
  0
INSERT
  5
245
100
AcDbEntity
  8
0
100
AcDbBlockReference
 62
7
  6
CONTINUOUS
  2
_FILLED
 10
46.4983961432
 20
24.5
 41
3.0
 42
3.0
 43
3.0
 50
90.0
  0
ENDBLK
  5
246
100
AcDbEntity
  8
0
  6
BYBLOCK
 62
0
100
AcDbBlockEnd
  0
ENDSEC
  0
SECTION
  2
ENTITIES
  0
DIMENSION
  5
247
100
AcDbEntity
  8
0
100
AcDbDimension
 62
7
  6
CONTINUOUS
  2
*D0
 10
-59.9971581712
 20
35.0945012747
 11
-56.2114438854
 21
35.8445012747
 70
160
 71
2
 42
11.0
  3
DIMSTYLE_1
100
AcDbAlignedDimension
 13
-48.9971581712
 23
21.4
 14
-59.9971581712
 24
24.7456323968
 50
180.0
100
AcDbRotatedDimension
  0
DIMENSION
  5
248
100
AcDbEntity
  8
0
100
AcDbDimension
 62
7
  6
CONTINUOUS
  2
*D1
 10
-71.297175441
 20
45.0945012747
 11
-64.4328810918
 21
45.8445012747
 70
160
 71
2
 42
22.3000172699
  3
DIMSTYLE_1
100
AcDbAlignedDimension
 13
-48.9971581712
 23
21.4
 14
-71.297175441
 24
0.5
 50
180.0
100
AcDbRotatedDimension
  0
DIMENSION
  5
249
100
AcDbEntity
  8
0
100
AcDbDimension
 62
7
  6
CONTINUOUS
  2
*D2
 10
33.6504363434
 20
35.0945012747
 11
-4.2857142857
 21
35.8445012747
 70
160
 71
2
 42
67.3008726868
  3
DIMSTYLE_1
100
AcDbAlignedDimension
 13
-33.6504363434
 23
22.400016923
 14
33.6504363434
 24
22.400016923
100
AcDbRotatedDimension
  0
DIMENSION
  5
24A
100
AcDbEntity
  8
0
100
AcDbDimension
 62
7
  6
CONTINUOUS
  2
*D3
 10
46.4983961432
 20
24.5
 11
45.7483961432
 21
0.2787699491
 70
160
 71
2
 42
49.0
  3
DIMSTYLE_1
100
AcDbAlignedDimension
 13
32.9000042308
 23
-24.5
 14
32.9000042308
 24
24.5
 50
90.0
100
AcDbRotatedDimension
  0
LINE
  5
24B
100
AcDbEntity
  8
0
100
AcDbLine
 62
253
  6
CONTINUOUS
 10
-30.0130943479
 20
24.4869014213
 11
-29.9999957692
 21
24.5
  0
LINE
  5
24C
100
AcDbEntity
  8
0
100
AcDbLine
 62
253
  6
CONTINUOUS
 10
-29.7630985787
 20
24.2369056521
 11
-29.75
 21
24.2500042308
  0
LINE
  5
24D
100
AcDbEntity
  8
0
100
AcDbLine
 62
253
  6
CONTINUOUS
 10
-30.0130943479
 20
-24.4869014213
 11
-29.9999957692
 21
-24.5
  0
LINE
  5
24E
100
AcDbEntity
  8
0
100
AcDbLine
 62
253
  6
CONTINUOUS
 10
-29.7630985787
 20
-24.2369056521
 11
-29.75
 21
-24.2500042308
  0
LINE
  5
24F
100
AcDbEntity
  8
0
100
AcDbLine
 62
253
  6
CONTINUOUS
 10
-32.6369014213
 20
-23.8443375673
 11
-32.6427192511
 21
-23.2669872981
  0
LINE
  5
250
100
AcDbEntity
  8
0
100
AcDbLine
 62
253
  6
CONTINUOUS
 10
-32.3869056521
 20
-23.6278312164
 11
-32.3919962532
 21
-23.1226497308
  0
LINE
  5
251
100
AcDbEntity
  8
DRAFT
100
AcDbLine
 62
7
  6
CONTINUOUS
 10
-33.595044505
 20
0.0
 11
-33.6229446494
 21
16.6
  0
LINE
  5
252
100
AcDbEntity
  8
0
100
AcDbLine
 62
7
  6
CONTINUOUS
 10
-33.6504363434
 20
21.900016923
 11
-33.6504363434
 21
-21.900016923
  0
LINE
  5
253
100
AcDbEntity
  8
0
100
AcDbLine
 62
7
  6
CONTINUOUS
 10
-33.6491272468
 20
21.8997711479
 11
-33.6491272468
 21
-21.8997711479
  0
LINE
  5
254
100
AcDbEntity
  8
DRAFT
100
AcDbLine
 62
7
  6
CONTINUOUS
 10
-33.6229446494
 20
21.821159479
 11
-33.6229446494
 21
16.6
  0
LINE
  5
255
100
AcDbEntity
  8
DRAFT
100
AcDbLine
 62
7
  6
CONTINUOUS
 10
-33.6229446494
 20
-16.6
 11
-33.6229446494
 21
-21.821159479
  0
LINE
  5
256
100
AcDbEntity
  8
RACCORDO
100
AcDbLine
 62
7
  6
CONTINUOUS
 10
-33.5
 20
-21.5999997649
 11
-33.5
 21
21.5999997649
  0
LINE
  5
257
100
AcDbEntity
  8
0
100
AcDbLine
 62
7
  6
CONTINUOUS
 10
-32.65
 20
-22.4
 11
-32.65
 21
-24.2500042308
  0
LINE
  5
258
100
AcDbEntity
  8
0
100
AcDbLine
 62
7
  6
CONTINUOUS
 10
-32.65
 20
22.4
 11
-32.65
 21
24.2500042308
  0
LINE
  5
259
100
AcDbEntity
  8
0
100
AcDbLine
 62
253
  6
CONTINUOUS
 10
-32.6427192511
 20
23.2669872981
 11
-32.6427192511
 21
22.3344140523
  0
LINE
  5
25A
100
AcDbEntity
  8
0
100
AcDbLine
 62
253
  6
CONTINUOUS
 10
-32.6427192511
 20
-22.3344140523
 11
-32.6427192511
 21
-23.2669872981
  0
LINE
  5
25B
100
AcDbEntity
  8
0
100
AcDbLine
 62
253
  6
CONTINUOUS
 10
-32.6369014213
 20
24.2369056521
 11
-32.6369014213
 21
23.8443375673
  0
LINE
  5
25C
100
AcDbEntity
  8
0
100
AcDbLine
 62
253
  6
CONTINUOUS
 10
-32.6369014213
 20
-23.8443375673
 11
-32.6369014213
 21
-24.2369056521
  0
LINE
  5
25D
100
AcDbEntity
  8
0
100
AcDbLine
 62
253
  6
CONTINUOUS
 10
-32.3927234819
 20
23.1226497308
 11
-32.3927234819
 21
22.3213883311
  0
LINE
  5
25E
100
AcDbEntity
  8
0
100
AcDbLine
 62
253
  6
CONTINUOUS
 10
-32.3927234819
 20
-22.3213883311
 11
-32.3927234819
 21
-23.1226497308
  0
LINE
  5
25F
100
AcDbEntity
  8
0
100
AcDbLine
 62
253
  6
CONTINUOUS
 10
-32.3869056521
 20
-23.6278312164
 11
-32.3869056521
 21
-24.4869014213
  0
LINE
  5
260
100
AcDbEntity
  8
0
100
AcDbLine
 62
253
  6
CONTINUOUS
 10
-32.3869056521
 20
23.6278312164
 11
-32.3869056521
 21
24.4869014213
  0
LINE
  5
261
100
AcDbEntity
  8
DRAFT
100
AcDbLine
 62
7
  6
CONTINUOUS
 10
-33.6229446494
 20
-16.6
 11
-33.595044505
 21
0.0
  0
LINE
  5
262
100
AcDbEntity
  8
0
100
AcDbLine
 62
253
  6
CONTINUOUS
 10
-32.6427192511
 20
23.2669872981
 11
-32.6369014213
 21
23.8443375673
  0
LINE
  5
263
100
AcDbEntity
  8
0
100
AcDbLine
 62
253
  6
CONTINUOUS
 10
-32.3919962532
 20
23.1226497308
 11
-32.3869056521
 21
23.6278312164
  0
LINE
  5
264
100
AcDbEntity
  8
0
100
AcDbLine
 62
7
  6
CONTINUOUS
 10
-29.75
 20
22.4
 11
-29.7572807489
 21
22.3344140523
  0
LINE
  5
265
100
AcDbEntity
  8
0
100
AcDbLine
 62
7
  6
CONTINUOUS
 10
-29.75
 20
-22.4
 11
-29.7572807489
 21
-22.3344140523
  0
LINE
  5
266
100
AcDbEntity
  8
0
100
AcDbLine
 62
253
  6
CONTINUOUS
 10
-30.0130943479
 20
23.6278312164
 11
-30.0080037468
 21
23.1226497308
  0
LINE
  5
267
100
AcDbEntity
  8
0
100
AcDbLine
 62
253
  6
CONTINUOUS
 10
-29.7630985787
 20
23.8443375673
 11
-29.7572807489
 21
23.2669872981
  0
LINE
  5
268
100
AcDbEntity
  8
0
100
AcDbLine
 62
253
  6
CONTINUOUS
 10
-30.0130943479
 20
-23.6278312164
 11
-30.0130943479
 21
-24.4869014213
  0
LINE
  5
269
100
AcDbEntity
  8
0
100
AcDbLine
 62
253
  6
CONTINUOUS
 10
-30.0130943479
 20
23.6278312164
 11
-30.0130943479
 21
24.4869014213
  0
LINE
  5
26A
100
AcDbEntity
  8
0
100
AcDbLine
 62
253
  6
CONTINUOUS
 10
-30.0072765181
 20
-23.1226497308
 11
-30.0072765181
 21
-22.3213883311
  0
LINE
  5
26B
100
AcDbEntity
  8
0
100
AcDbLine
 62
253
  6
CONTINUOUS
 10
-30.0072765181
 20
22.3213883311
 11
-30.0072765181
 21
23.1226497308
  0
LINE
  5
26C
100
AcDbEntity
  8
0
100
AcDbLine
 62
253
  6
CONTINUOUS
 10
-29.7630985787
 20
-24.2369056521
 11
-29.7630985787
 21
-23.8443375673
  0
LINE
  5
26D
100
AcDbEntity
  8
0
100
AcDbLine
 62
253
  6
CONTINUOUS
 10
-29.7630985787
 20
23.8443375673
 11
-29.7630985787
 21
24.2369056521
  0
LINE
  5
26E
100
AcDbEntity
  8
0
100
AcDbLine
 62
253
  6
CONTINUOUS
 10
-29.7572807489
 20
-23.2669872981
 11
-29.7572807489
 21
-22.3344140523
  0
LINE
  5
26F
100
AcDbEntity
  8
0
100
AcDbLine
 62
253
  6
CONTINUOUS
 10
-29.7572807489
 20
22.3344140523
 11
-29.7572807489
 21
23.2669872981
  0
LINE
  5
270
100
AcDbEntity
  8
0
100
AcDbLine
 62
7
  6
CONTINUOUS
 10
-29.75
 20
-22.4
 11
-29.75
 21
-24.2500042308
  0
LINE
  5
271
100
AcDbEntity
  8
0
100
AcDbLine
 62
7
  6
CONTINUOUS
 10
-29.75
 20
22.4
 11
-29.75
 21
24.2500042308
  0
LINE
  5
272
100
AcDbEntity
  8
0
100
AcDbLine
 62
253
  6
CONTINUOUS
 10
-30.0080037468
 20
-23.1226497308
 11
-30.0130943479
 21
-23.6278312164
  0
LINE
  5
273
100
AcDbEntity
  8
0
100
AcDbLine
 62
253
  6
CONTINUOUS
 10
-29.7572807489
 20
-23.2669872981
 11
-29.7630985787
 21
-23.8443375673
  0
LINE
  5
274
100
AcDbEntity
  8
0
100
AcDbLine
 62
7
  6
CONTINUOUS
 10
-32.65
 20
-22.4
 11
-32.6427192511
 21
-22.3344140523
  0
LWPOLYLINE
  5
275
100
AcDbEntity
  8
0
100
AcDbPolyline
 62
7
  6
CONTINUOUS
 90
10
 70
0
 43
0.3500000006
 10
-3.2142856836
 20
38.8445007935
 10
-3.8571428204
 20
38.201642807
 10
-4.2857143393
 20
37.3445003357
 10
-4.2857143393
 20
36.2730733795
 10
-3.8571428204
 20
35.8444998779
 10
-3.2142856836
 20
35.8444998779
 10
-2.7857141647
 20
36.2730733795
 10
-2.7857141647
 20
37.1302158508
 10
-3.2142856836
 20
37.5587848206
 10
-4.1428570719
 20
37.5587848206
  0
LINE
  5
276
100
AcDbEntity
  8
0
100
AcDbLine
 62
7
  6
CONTINUOUS
 10
-18.05
 20
24.0
 11
-18.0587267447
 21
23.9912732553
  0
LWPOLYLINE
  5
277
100
AcDbEntity
  8
0
100
AcDbPolyline
 62
7
  6
CONTINUOUS
 90
5
 70
0
 43
0.3500000006
 10
3.0000000658
 20
37.5587848206
 10
3.357142951
 20
37.7730738373
 10
3.357142951
 20
38.4159318237
 10
3.0000000658
 20
38.8445007935
 10
2.1428571696
 20
38.8445007935
  0
LINE
  5
278
100
AcDbEntity
  8
0
100
AcDbLine
 62
7
  6
CONTINUOUS
 10
-18.05
 20
-24.0
 11
-18.0587267447
 21
-23.9912732553
  0
LINE
  5
279
100
AcDbEntity
  8
0
100
AcDbLine
 62
7
  6
CONTINUOUS
 10
-32.65
 20
22.4
 11
-32.6427192511
 21
22.3344140523
  0
LINE
  5
27A
100
AcDbEntity
  8
0
100
AcDbLine
 62
7
  6
CONTINUOUS
 10
-26.95
 20
-22.4
 11
-26.95
 21
-24.0
  0
LINE
  5
27B
100
AcDbEntity
  8
0
100
AcDbLine
 62
7
  6
CONTINUOUS
 10
-26.95
 20
22.4
 11
-26.95
 21
24.0
  0
LINE
  5
27C
100
AcDbEntity
  8
0
100
AcDbLine
 62
7
  6
CONTINUOUS
 10
-26.9412732553
 20
23.9912732553
 11
-26.9412732553
 21
22.3213883311
  0
LINE
  5
27D
100
AcDbEntity
  8
0
100
AcDbLine
 62
7
  6
CONTINUOUS
 10
-26.9412732553
 20
-22.3213883311
 11
-26.9412732553
 21
-23.9912732553
  0
LINE
  5
27E
100
AcDbEntity
  8
0
100
AcDbLine
 62
7
  6
CONTINUOUS
 10
-26.0
 20
-23.9982478817
 11
-26.0
 21
-22.3213883311
  0
LINE
  5
27F
100
AcDbEntity
  8
0
100
AcDbLine
 62
7
  6
CONTINUOUS
 10
-26.0
 20
22.3213883311
 11
-26.0
 21
23.9982478817
  0
LINE
  5
280
100
AcDbEntity
  8
0
100
AcDbLine
 62
253
  6
CONTINUOUS
 10
-33.6491272468
 20
-21.8997711479
 11
-33.6229446494
 21
-21.821159479
  0
LINE
  5
281
100
AcDbEntity
  8
0
100
AcDbLine
 62
253
  6
CONTINUOUS
 10
-12.6130943479
 20
24.4869014213
 11
-12.5999957692
 21
24.5
  0
LINE
  5
282
100
AcDbEntity
  8
0
100
AcDbLine
 62
253
  6
CONTINUOUS
 10
-12.3630985787
 20
24.2369056521
 11
-12.35
 21
24.2500042308
  0
LINE
  5
283
100
AcDbEntity
  8
0
100
AcDbLine
 62
253
  6
CONTINUOUS
 10
-12.6130943479
 20
-24.4869014213
 11
-12.5999957692
 21
-24.5
  0
LINE
  5
284
100
AcDbEntity
  8
0
100
AcDbLine
 62
253
  6
CONTINUOUS
 10
-12.3630985787
 20
-24.2369056521
 11
-12.35
 21
-24.2500042308
  0
LINE
  5
285
100
AcDbEntity
  8
0
100
AcDbLine
 62
253
  6
CONTINUOUS
 10
-33.6229446494
 20
21.821159479
 11
-33.6491272468
 21
21.8997711479
  0
LINE
  5
286
100
AcDbEntity
  8
0
100
AcDbLine
 62
253
  6
CONTINUOUS
 10
-23.7
 20
-22.3737961104
 11
-23.7
 21
-24.0
  0
LINE
  5
287
100
AcDbEntity
  8
0
100
AcDbLine
 62
253
  6
CONTINUOUS
 10
-23.7
 20
22.3737961104
 11
-23.7
 21
24.0
  0
LINE
  5
288
100
AcDbEntity
  8
0
100
AcDbLine
 62
7
  6
CONTINUOUS
 10
-23.5
 20
-23.7999966153
 11
-23.5
 21
-22.3842776662
  0
LINE
  5
289
100
AcDbEntity
  8
0
100
AcDbLine
 62
7
  6
CONTINUOUS
 10
-23.5
 20
22.3842776662
 11
-23.5
 21
23.7999966153
  0
LINE
  5
28A
100
AcDbEntity
  8
0
100
AcDbLine
 62
7
  6
CONTINUOUS
 10
-26.95
 20
-22.4
 11
-26.9412732553
 21
-22.3213883311
  0
LINE
  5
28B
100
AcDbEntity
  8
0
100
AcDbLine
 62
253
  6
CONTINUOUS
 10
-33.1495078465
 20
-22.4
 11
-33.1233252491
 21
-22.3213883311
  0
LINE
  5
28C
100
AcDbEntity
  8
0
100
AcDbLine
 62
7
  6
CONTINUOUS
 10
-32.4000042308
 20
-24.5
 11
-29.9999957692
 21
-24.5
  0
LINE
  5
28D
100
AcDbEntity
  8
0
100
AcDbLine
 62
7
  6
CONTINUOUS
 10
-15.0000042308
 20
-24.5
 11
-12.5999957692
 21
-24.5
  0
LINE
  5
28E
100
AcDbEntity
  8
0
100
AcDbLine
 62
7
  6
CONTINUOUS
 10
12.5999957692
 20
-24.5
 11
15.0000042308
 21
-24.5
  0
LINE
  5
28F
100
AcDbEntity
  8
0
100
AcDbLine
 62
7
  6
CONTINUOUS
 10
29.9999957692
 20
-24.5
 11
32.4000042308
 21
-24.5
  0
LINE
  5
290
100
AcDbEntity
  8
0
100
AcDbLine
 62
253
  6
CONTINUOUS
 10
-32.3869056521
 20
-24.4869014213
 11
-30.0130943479
 21
-24.4869014213
  0
LINE
  5
291
100
AcDbEntity
  8
0
100
AcDbLine
 62
253
  6
CONTINUOUS
 10
-14.9869056521
 20
-24.4869014213
 11
-12.6130943479
 21
-24.4869014213
  0
LINE
  5
292
100
AcDbEntity
  8
0
100
AcDbLine
 62
253
  6
CONTINUOUS
 10
12.6130943479
 20
-24.4869014213
 11
14.9869056521
 21
-24.4869014213
  0
LINE
  5
293
100
AcDbEntity
  8
0
100
AcDbLine
 62
253
  6
CONTINUOUS
 10
30.0130943479
 20
-24.4869014213
 11
32.3869056521
 21
-24.4869014213
  0
LINE
  5
294
100
AcDbEntity
  8
0
100
AcDbLine
 62
253
  6
CONTINUOUS
 10
12.3630985787
 20
-24.2369056521
 11
15.2369014213
 21
-24.2369056521
  0
LINE
  5
295
100
AcDbEntity
  8
0
100
AcDbLine
 62
253
  6
CONTINUOUS
 10
-12.3630985787
 20
-24.2369056521
 11
-15.2369014213
 21
-24.2369056521
  0
LINE
  5
296
100
AcDbEntity
  8
0
100
AcDbLine
 62
253
  6
CONTINUOUS
 10
29.7630985787
 20
-24.2369056521
 11
32.6369014213
 21
-24.2369056521
  0
LINE
  5
297
100
AcDbEntity
  8
0
100
AcDbLine
 62
253
  6
CONTINUOUS
 10
-29.7630985787
 20
-24.2369056521
 11
-32.6369014213
 21
-24.2369056521
  0
LINE
  5
298
100
AcDbEntity
  8
0
100
AcDbLine
 62
7
  6
CONTINUOUS
 10
26.95
 20
-24.0
 11
23.7
 21
-24.0
  0
LINE
  5
299
100
AcDbEntity
  8
0
100
AcDbLine
 62
7
  6
CONTINUOUS
 10
21.3
 20
-24.0
 11
18.05
 21
-24.0
  0
LINE
  5
29A
100
AcDbEntity
  8
0
100
AcDbLine
 62
7
  6
CONTINUOUS
 10
-18.05
 20
-24.0
 11
-21.3
 21
-24.0
  0
LINE
  5
29B
100
AcDbEntity
  8
0
100
AcDbLine
 62
7
  6
CONTINUOUS
 10
-23.7
 20
-24.0
 11
-26.95
 21
-24.0
  0
LINE
  5
29C
100
AcDbEntity
  8
0
100
AcDbLine
 62
253
  6
CONTINUOUS
 10
-26.0
 20
-23.9982478817
 11
-23.7
 21
-23.9982478817
  0
LINE
  5
29D
100
AcDbEntity
  8
0
100
AcDbLine
 62
253
  6
CONTINUOUS
 10
-21.3
 20
-23.9982478817
 11
-19.0
 21
-23.9982478817
  0
LINE
  5
29E
100
AcDbEntity
  8
0
100
AcDbLine
 62
253
  6
CONTINUOUS
 10
19.0
 20
-23.9982478817
 11
21.3
 21
-23.9982478817
  0
LINE
  5
29F
100
AcDbEntity
  8
0
100
AcDbLine
 62
253
  6
CONTINUOUS
 10
23.7
 20
-23.9982478817
 11
26.0
 21
-23.9982478817
  0
LINE
  5
2A0
100
AcDbEntity
  8
0
100
AcDbLine
 62
7
  6
CONTINUOUS
 10
26.9412732553
 20
-23.9912732553
 11
26.0
 21
-23.9912732553
  0
LINE
  5
2A1
100
AcDbEntity
  8
0
100
AcDbLine
 62
7
  6
CONTINUOUS
 10
19.0
 20
-23.9912732553
 11
18.0587267447
 21
-23.9912732553
  0
LINE
  5
2A2
100
AcDbEntity
  8
0
100
AcDbLine
 62
7
  6
CONTINUOUS
 10
-18.0587267447
 20
-23.9912732553
 11
-19.0
 21
-23.9912732553
  0
LINE
  5
2A3
100
AcDbEntity
  8
0
100
AcDbLine
 62
7
  6
CONTINUOUS
 10
-26.0
 20
-23.9912732553
 11
-26.9412732553
 21
-23.9912732553
  0
LINE
  5
2A4
100
AcDbEntity
  8
0
100
AcDbLine
 62
253
  6
CONTINUOUS
 10
12.3630985787
 20
-23.8443375673
 11
15.2369014213
 21
-23.8443375673
  0
LINE
  5
2A5
100
AcDbEntity
  8
0
100
AcDbLine
 62
253
  6
CONTINUOUS
 10
-12.3630985787
 20
-23.8443375673
 11
-15.2369014213
 21
-23.8443375673
  0
LINE
  5
2A6
100
AcDbEntity
  8
0
100
AcDbLine
 62
253
  6
CONTINUOUS
 10
29.7630985787
 20
-23.8443375673
 11
32.6369014213
 21
-23.8443375673
  0
LINE
  5
2A7
100
AcDbEntity
  8
0
100
AcDbLine
 62
253
  6
CONTINUOUS
 10
-29.7630985787
 20
-23.8443375673
 11
-32.6369014213
 21
-23.8443375673
  0
LINE
  5
2A8
100
AcDbEntity
  8
0
100
AcDbLine
 62
253
  6
CONTINUOUS
 10
-26.0
 20
-23.7982512664
 11
-23.5
 21
-23.7982512664
  0
LINE
  5
2A9
100
AcDbEntity
  8
0
100
AcDbLine
 62
253
  6
CONTINUOUS
 10
19.0
 20
-23.7982512664
 11
21.5
 21
-23.7982512664
  0
LINE
  5
2AA
100
AcDbEntity
  8
0
100
AcDbLine
 62
253
  6
CONTINUOUS
 10
-19.0
 20
-23.7982512664
 11
-21.5
 21
-23.7982512664
  0
LINE
  5
2AB
100
AcDbEntity
  8
0
100
AcDbLine
 62
253
  6
CONTINUOUS
 10
23.5
 20
-23.7982512664
 11
26.0
 21
-23.7982512664
  0
LINE
  5
2AC
100
AcDbEntity
  8
0
100
AcDbLine
 62
253
  6
CONTINUOUS
 10
32.3869056521
 20
-23.6278312164
 11
30.0130943479
 21
-23.6278312164
  0
LINE
  5
2AD
100
AcDbEntity
  8
0
100
AcDbLine
 62
253
  6
CONTINUOUS
 10
14.9869056521
 20
-23.6278312164
 11
12.6130943479
 21
-23.6278312164
  0
LINE
  5
2AE
100
AcDbEntity
  8
0
100
AcDbLine
 62
253
  6
CONTINUOUS
 10
-12.6130943479
 20
-23.6278312164
 11
-14.9869056521
 21
-23.6278312164
  0
LINE
  5
2AF
100
AcDbEntity
  8
0
100
AcDbLine
 62
253
  6
CONTINUOUS
 10
-30.0130943479
 20
-23.6278312164
 11
-32.3869056521
 21
-23.6278312164
  0
LINE
  5
2B0
100
AcDbEntity
  8
0
100
AcDbLine
 62
7
  6
CONTINUOUS
 10
-32.3927234819
 20
-23.1226497308
 11
-30.0072765181
 21
-23.1226497308
  0
LINE
  5
2B1
100
AcDbEntity
  8
0
100
AcDbLine
 62
7
  6
CONTINUOUS
 10
32.3927234819
 20
-23.1226497308
 11
30.0072765181
 21
-23.1226497308
  0
LINE
  5
2B2
100
AcDbEntity
  8
0
100
AcDbLine
 62
7
  6
CONTINUOUS
 10
12.6072765181
 20
-23.1226497308
 11
14.9927234819
 21
-23.1226497308
  0
LINE
  5
2B3
100
AcDbEntity
  8
0
100
AcDbLine
 62
7
  6
CONTINUOUS
 10
-12.6072765181
 20
-23.1226497308
 11
-14.9927234819
 21
-23.1226497308
  0
LINE
  5
2B4
100
AcDbEntity
  8
0
100
AcDbLine
 62
7
  6
CONTINUOUS
 10
33.1495078465
 20
-22.4
 11
32.65
 21
-22.4
  0
LINE
  5
2B5
100
AcDbEntity
  8
0
100
AcDbLine
 62
7
  6
CONTINUOUS
 10
29.75
 20
-22.4
 11
26.95
 21
-22.4
  0
LINE
  5
2B6
100
AcDbEntity
  8
0
100
AcDbLine
 62
7
  6
CONTINUOUS
 10
-23.5
 20
-22.4
 11
-21.5
 21
-22.4
  0
LINE
  5
2B7
100
AcDbEntity
  8
0
100
AcDbLine
 62
7
  6
CONTINUOUS
 10
18.05
 20
-22.4
 11
15.25
 21
-22.4
  0
LINE
  5
2B8
100
AcDbEntity
  8
0
100
AcDbLine
 62
7
  6
CONTINUOUS
 10
12.35
 20
-22.4
 11
11.8504921535
 21
-22.4
  0
LINE
  5
2B9
100
AcDbEntity
  8
0
100
AcDbLine
 62
7
  6
CONTINUOUS
 10
-11.8504921535
 20
-22.4
 11
-12.35
 21
-22.4
  0
LINE
  5
2BA
100
AcDbEntity
  8
0
100
AcDbLine
 62
7
  6
CONTINUOUS
 10
-15.25
 20
-22.4
 11
-18.05
 21
-22.4
  0
LINE
  5
2BB
100
AcDbEntity
  8
0
100
AcDbLine
 62
7
  6
CONTINUOUS
 10
21.5
 20
-22.4
 11
23.5
 21
-22.4
  0
LINE
  5
2BC
100
AcDbEntity
  8
0
100
AcDbLine
 62
7
  6
CONTINUOUS
 10
-26.95
 20
-22.4
 11
-29.75
 21
-22.4
  0
LINE
  5
2BD
100
AcDbEntity
  8
0
100
AcDbLine
 62
7
  6
CONTINUOUS
 10
-32.65
 20
-22.4
 11
-33.1495078465
 21
-22.4
  0
LINE
  5
2BE
100
AcDbEntity
  8
0
100
AcDbLine
 62
7
  6
CONTINUOUS
 10
26.0
 20
-22.3737961104
 11
23.7
 21
-22.3737961104
  0
LINE
  5
2BF
100
AcDbEntity
  8
0
100
AcDbLine
 62
7
  6
CONTINUOUS
 10
21.3
 20
-22.3737961104
 11
19.0
 21
-22.3737961104
  0
LINE
  5
2C0
100
AcDbEntity
  8
0
100
AcDbLine
 62
7
  6
CONTINUOUS
 10
-19.0
 20
-22.3737961104
 11
-21.3
 21
-22.3737961104
  0
LINE
  5
2C1
100
AcDbEntity
  8
0
100
AcDbLine
 62
7
  6
CONTINUOUS
 10
-23.7
 20
-22.3737961104
 11
-26.0
 21
-22.3737961104
  0
LINE
  5
2C2
100
AcDbEntity
  8
0
100
AcDbLine
 62
7
  6
CONTINUOUS
 10
33.1233252491
 20
-22.3213883311
 11
32.3927234819
 21
-22.3213883311
  0
LINE
  5
2C3
100
AcDbEntity
  8
0
100
AcDbLine
 62
7
  6
CONTINUOUS
 10
30.0072765181
 20
-22.3213883311
 11
26.9412732553
 21
-22.3213883311
  0
LINE
  5
2C4
100
AcDbEntity
  8
0
100
AcDbLine
 62
7
  6
CONTINUOUS
 10
26.0
 20
-22.3213883311
 11
19.0
 21
-22.3213883311
  0
LINE
  5
2C5
100
AcDbEntity
  8
0
100
AcDbLine
 62
7
  6
CONTINUOUS
 10
18.0587267447
 20
-22.3213883311
 11
14.9927234819
 21
-22.3213883311
  0
LINE
  5
2C6
100
AcDbEntity
  8
0
100
AcDbLine
 62
7
  6
CONTINUOUS
 10
12.6072765181
 20
-22.3213883311
 11
11.8766747509
 21
-22.3213883311
  0
LINE
  5
2C7
100
AcDbEntity
  8
0
100
AcDbLine
 62
7
  6
CONTINUOUS
 10
-11.8766747509
 20
-22.3213883311
 11
-12.6072765181
 21
-22.3213883311
  0
LINE
  5
2C8
100
AcDbEntity
  8
0
100
AcDbLine
 62
7
  6
CONTINUOUS
 10
-14.9927234819
 20
-22.3213883311
 11
-18.0587267447
 21
-22.3213883311
  0
LINE
  5
2C9
100
AcDbEntity
  8
0
100
AcDbLine
 62
7
  6
CONTINUOUS
 10
-19.0
 20
-22.3213883311
 11
-26.0
 21
-22.3213883311
  0
LINE
  5
2CA
100
AcDbEntity
  8
0
100
AcDbLine
 62
7
  6
CONTINUOUS
 10
-26.9412732553
 20
-22.3213883311
 11
-30.0072765181
 21
-22.3213883311
  0
LINE
  5
2CB
100
AcDbEntity
  8
0
100
AcDbLine
 62
7
  6
CONTINUOUS
 10
-32.3927234819
 20
-22.3213883311
 11
-33.1233252491
 21
-22.3213883311
  0
LINE
  5
2CC
100
AcDbEntity
  8
RACCORDO
100
AcDbLine
 62
7
  6
CONTINUOUS
 10
-33.0005138364
 20
-22.1
 11
33.0005138364
 21
-22.1
  0
LINE
  5
2CD
100
AcDbEntity
  8
0
100
AcDbLine
 62
253
  6
CONTINUOUS
 10
-33.1233252491
 20
22.3213883311
 11
-33.1495078465
 21
22.4
  0
LINE
  5
2CE
100
AcDbEntity
  8
0
100
AcDbLine
 62
7
  6
CONTINUOUS
 10
-26.9412732553
 20
22.3213883311
 11
-26.95
 21
22.4
  0
LINE
  5
2CF
100
AcDbEntity
  8
0
100
AcDbLine
 62
7
  6
CONTINUOUS
 10
-21.5
 20
23.7999966153
 11
-21.5
 21
22.3842776662
  0
LINE
  5
2D0
100
AcDbEntity
  8
0
100
AcDbLine
 62
7
  6
CONTINUOUS
 10
-21.5
 20
-22.3842776662
 11
-21.5
 21
-23.7999966153
  0
LINE
  5
2D1
100
AcDbEntity
  8
0
100
AcDbLine
 62
253
  6
CONTINUOUS
 10
-21.3
 20
-22.3737961104
 11
-21.3
 21
-24.0
  0
LINE
  5
2D2
100
AcDbEntity
  8
0
100
AcDbLine
 62
253
  6
CONTINUOUS
 10
-21.3
 20
22.3737961104
 11
-21.3
 21
24.0
  0
LINE
  5
2D3
100
AcDbEntity
  8
0
100
AcDbLine
 62
7
  6
CONTINUOUS
 10
-19.0
 20
23.9982478817
 11
-19.0
 21
22.3213883311
  0
LINE
  5
2D4
100
AcDbEntity
  8
0
100
AcDbLine
 62
7
  6
CONTINUOUS
 10
-19.0
 20
-22.3213883311
 11
-19.0
 21
-23.9982478817
  0
LINE
  5
2D5
100
AcDbEntity
  8
0
100
AcDbLine
 62
7
  6
CONTINUOUS
 10
-18.05
 20
22.4
 11
-18.0587267447
 21
22.3213883311
  0
LINE
  5
2D6
100
AcDbEntity
  8
RACCORDO
100
AcDbLine
 62
253
  6
CONTINUOUS
 10
-33.3786644941
 20
-21.3571622388
 11
-33.5
 21
-21.5999997649
  0
LINE
  5
2D7
100
AcDbEntity
  8
RACCORDO
100
AcDbLine
 62
253
  6
CONTINUOUS
 10
-32.8788358319
 20
-21.8564770067
 11
-33.0005138364
 21
-22.1
  0
LINE
  5
2D8
100
AcDbEntity
  8
RACCORDO
100
AcDbLine
 62
253
  6
CONTINUOUS
 10
-33.5
 20
21.5999997649
 11
-33.3786644944
 21
21.3571622394
  0
LINE
  5
2D9
100
AcDbEntity
  8
RACCORDO
100
AcDbLine
 62
253
  6
CONTINUOUS
 10
-33.0005138364
 20
22.1
 11
-32.8788358319
 21
21.8564770068
  0
LINE
  5
2DA
100
AcDbEntity
  8
0
100
AcDbLine
 62
7
  6
CONTINUOUS
 10
-18.0587267447
 20
-22.3213883311
 11
-18.05
 21
-22.4
  0
LINE
  5
2DB
100
AcDbEntity
  8
0
100
AcDbLine
 62
253
  6
CONTINUOUS
 10
-15.2369014213
 20
-23.8443375673
 11
-15.2427192511
 21
-23.2669872981
  0
LINE
  5
2DC
100
AcDbEntity
  8
0
100
AcDbLine
 62
7
  6
CONTINUOUS
 10
-18.0587267447
 20
-23.9912732553
 11
-18.0587267447
 21
-22.3213883311
  0
LINE
  5
2DD
100
AcDbEntity
  8
0
100
AcDbLine
 62
7
  6
CONTINUOUS
 10
-18.0587267447
 20
22.3213883311
 11
-18.0587267447
 21
23.9912732553
  0
LINE
  5
2DE
100
AcDbEntity
  8
0
100
AcDbLine
 62
7
  6
CONTINUOUS
 10
-18.05
 20
-22.4
 11
-18.05
 21
-24.0
  0
LINE
  5
2DF
100
AcDbEntity
  8
0
100
AcDbLine
 62
7
  6
CONTINUOUS
 10
-18.05
 20
22.4
 11
-18.05
 21
24.0
  0
LINE
  5
2E0
100
AcDbEntity
  8
0
100
AcDbLine
 62
253
  6
CONTINUOUS
 10
-15.2427192511
 20
23.2669872981
 11
-15.2369014213
 21
23.8443375673
  0
LINE
  5
2E1
100
AcDbEntity
  8
0
100
AcDbLine
 62
253
  6
CONTINUOUS
 10
-11.8504921535
 20
22.4
 11
-11.8766747509
 21
22.3213883311
  0
LINE
  5
2E2
100
AcDbEntity
  8
RACCORDO
100
AcDbLine
 62
7
  6
CONTINUOUS
 10
33.6229446494
 20
-16.6
 11
33.5
 21
-16.6
  0
LINE
  5
2E3
100
AcDbEntity
  8
RACCORDO
100
AcDbLine
 62
7
  6
CONTINUOUS
 10
-33.5
 20
-16.6
 11
-33.6229446494
 21
-16.6
  0
LINE
  5
2E4
100
AcDbEntity
  8
0
100
AcDbLine
 62
253
  6
CONTINUOUS
 10
-11.8766747509
 20
-22.3213883311
 11
-11.8504921535
 21
-22.4
  0
LINE
  5
2E5
100
AcDbEntity
  8
0
100
AcDbLine
 62
253
  6
CONTINUOUS
 10
-14.9869056521
 20
-23.6278312164
 11
-14.9919962532
 21
-23.1226497308
  0
LINE
  5
2E6
100
AcDbEntity
  8
0
100
AcDbLine
 62
253
  6
CONTINUOUS
 10
-12.6130943479
 20
23.6278312164
 11
-12.6080037468
 21
23.1226497308
  0
LINE
  5
2E7
100
AcDbEntity
  8
0
100
AcDbLine
 62
7
  6
CONTINUOUS
 10
-15.25
 20
-22.4
 11
-15.25
 21
-24.2500042308
  0
LINE
  5
2E8
100
AcDbEntity
  8
0
100
AcDbLine
 62
7
  6
CONTINUOUS
 10
-15.25
 20
22.4
 11
-15.25
 21
24.2500042308
  0
LINE
  5
2E9
100
AcDbEntity
  8
0
100
AcDbLine
 62
253
  6
CONTINUOUS
 10
-15.2427192511
 20
23.2669872981
 11
-15.2427192511
 21
22.3344140523
  0
LINE
  5
2EA
100
AcDbEntity
  8
0
100
AcDbLine
 62
253
  6
CONTINUOUS
 10
-15.2427192511
 20
-22.3344140523
 11
-15.2427192511
 21
-23.2669872981
  0
LINE
  5
2EB
100
AcDbEntity
  8
0
100
AcDbLine
 62
253
  6
CONTINUOUS
 10
-15.2369014213
 20
24.2369056521
 11
-15.2369014213
 21
23.8443375673
  0
LINE
  5
2EC
100
AcDbEntity
  8
0
100
AcDbLine
 62
253
  6
CONTINUOUS
 10
-15.2369014213
 20
-23.8443375673
 11
-15.2369014213
 21
-24.2369056521
  0
LINE
  5
2ED
100
AcDbEntity
  8
0
100
AcDbLine
 62
253
  6
CONTINUOUS
 10
-14.9927234819
 20
23.1226497308
 11
-14.9927234819
 21
22.3213883311
  0
LINE
  5
2EE
100
AcDbEntity
  8
0
100
AcDbLine
 62
253
  6
CONTINUOUS
 10
-14.9927234819
 20
-22.3213883311
 11
-14.9927234819
 21
-23.1226497308
  0
LINE
  5
2EF
100
AcDbEntity
  8
0
100
AcDbLine
 62
253
  6
CONTINUOUS
 10
-14.9869056521
 20
-23.6278312164
 11
-14.9869056521
 21
-24.4869014213
  0
LINE
  5
2F0
100
AcDbEntity
  8
0
100
AcDbLine
 62
253
  6
CONTINUOUS
 10
-14.9869056521
 20
23.6278312164
 11
-14.9869056521
 21
24.4869014213
  0
LINE
  5
2F1
100
AcDbEntity
  8
0
100
AcDbLine
 62
253
  6
CONTINUOUS
 10
-12.6130943479
 20
-23.6278312164
 11
-12.6130943479
 21
-24.4869014213
  0
LINE
  5
2F2
100
AcDbEntity
  8
0
100
AcDbLine
 62
253
  6
CONTINUOUS
 10
-12.6130943479
 20
23.6278312164
 11
-12.6130943479
 21
24.4869014213
  0
LINE
  5
2F3
100
AcDbEntity
  8
0
100
AcDbLine
 62
253
  6
CONTINUOUS
 10
-12.6072765181
 20
-23.1226497308
 11
-12.6072765181
 21
-22.3213883311
  0
LINE
  5
2F4
100
AcDbEntity
  8
0
100
AcDbLine
 62
253
  6
CONTINUOUS
 10
-12.6072765181
 20
22.3213883311
 11
-12.6072765181
 21
23.1226497308
  0
LINE
  5
2F5
100
AcDbEntity
  8
0
100
AcDbLine
 62
253
  6
CONTINUOUS
 10
-12.3630985787
 20
-24.2369056521
 11
-12.3630985787
 21
-23.8443375673
  0
LINE
  5
2F6
100
AcDbEntity
  8
0
100
AcDbLine
 62
253
  6
CONTINUOUS
 10
-12.3630985787
 20
23.8443375673
 11
-12.3630985787
 21
24.2369056521
  0
LINE
  5
2F7
100
AcDbEntity
  8
0
100
AcDbLine
 62
253
  6
CONTINUOUS
 10
-12.3572807489
 20
-23.2669872981
 11
-12.3572807489
 21
-22.3344140523
  0
LINE
  5
2F8
100
AcDbEntity
  8
0
100
AcDbLine
 62
253
  6
CONTINUOUS
 10
-12.3572807489
 20
22.3344140523
 11
-12.3572807489
 21
23.2669872981
  0
LINE
  5
2F9
100
AcDbEntity
  8
0
100
AcDbLine
 62
7
  6
CONTINUOUS
 10
-12.35
 20
-22.4
 11
-12.35
 21
-24.2500042308
  0
LINE
  5
2FA
100
AcDbEntity
  8
0
100
AcDbLine
 62
7
  6
CONTINUOUS
 10
-12.35
 20
22.4
 11
-12.35
 21
24.2500042308
  0
LINE
  5
2FB
100
AcDbEntity
  8
0
100
AcDbLine
 62
253
  6
CONTINUOUS
 10
-14.9919962532
 20
23.1226497308
 11
-14.9869056521
 21
23.6278312164
  0
LINE
  5
2FC
100
AcDbEntity
  8
0
100
AcDbLine
 62
253
  6
CONTINUOUS
 10
-12.6080037468
 20
-23.1226497308
 11
-12.6130943479
 21
-23.6278312164
  0
LINE
  5
2FD
100
AcDbEntity
  8
0
100
AcDbLine
 62
7
  6
CONTINUOUS
 10
-12.35
 20
22.4
 11
-12.3572807489
 21
22.3344140523
  0
LINE
  5
2FE
100
AcDbEntity
  8
0
100
AcDbLine
 62
7
  6
CONTINUOUS
 10
-15.25
 20
-22.4
 11
-15.2427192511
 21
-22.3344140523
  0
LINE
  5
2FF
100
AcDbEntity
  8
0
100
AcDbLine
 62
7
  6
CONTINUOUS
 10
-12.35
 20
-22.4
 11
-12.3572807489
 21
-22.3344140523
  0
LINE
  5
300
100
AcDbEntity
  8
0
100
AcDbLine
 62
7
  6
CONTINUOUS
 10
-15.25
 20
22.4
 11
-15.2427192511
 21
22.3344140523
  0
LINE
  5
301
100
AcDbEntity
  8
0
100
AcDbLine
 62
253
  6
CONTINUOUS
 10
-12.3630985787
 20
23.8443375673
 11
-12.3572807489
 21
23.2669872981
  0
LINE
  5
302
100
AcDbEntity
  8
0
100
AcDbLine
 62
253
  6
CONTINUOUS
 10
-12.3572807489
 20
-23.2669872981
 11
-12.3630985787
 21
-23.8443375673
  0
LWPOLYLINE
  5
303
100
AcDbEntity
  8
0
100
AcDbPolyline
 62
7
  6
CONTINUOUS
 90
3
 70
0
 43
0.3500000006
 10
1.1428571477
 20
36.1302155457
 10
1.0714285848
 20
35.9159310608
 10
0.9285714591
 20
35.6302153931
  0
LINE
  5
304
100
AcDbEntity
  8
0
100
AcDbLine
 62
253
  6
CONTINUOUS
 10
14.9869056521
 20
24.4869014213
 11
15.0000042308
 21
24.5
  0
LINE
  5
305
100
AcDbEntity
  8
0
100
AcDbLine
 62
253
  6
CONTINUOUS
 10
15.2369014213
 20
24.2369056521
 11
15.25
 21
24.2500042308
  0
LINE
  5
306
100
AcDbEntity
  8
0
100
AcDbLine
 62
253
  6
CONTINUOUS
 10
-32.6369014213
 20
-24.2369056521
 11
-32.65
 21
-24.2500042308
  0
LINE
  5
307
100
AcDbEntity
  8
0
100
AcDbLine
 62
253
  6
CONTINUOUS
 10
14.9869056521
 20
-24.4869014213
 11
15.0000042308
 21
-24.5
  0
LINE
  5
308
100
AcDbEntity
  8
0
100
AcDbLine
 62
253
  6
CONTINUOUS
 10
15.2369014213
 20
-24.2369056521
 11
15.25
 21
-24.2500042308
  0
LINE
  5
309
100
AcDbEntity
  8
0
100
AcDbLine
 62
253
  6
CONTINUOUS
 10
-32.6369014213
 20
24.2369056521
 11
-32.65
 21
24.2500042308
  0
LINE
  5
30A
100
AcDbEntity
  8
0
100
AcDbLine
 62
253
  6
CONTINUOUS
 10
-32.3869056521
 20
-24.4869014213
 11
-32.4000042308
 21
-24.5
  0
LINE
  5
30B
100
AcDbEntity
  8
0
100
AcDbLine
 62
253
  6
CONTINUOUS
 10
-32.3869056521
 20
24.4869014213
 11
-32.4000042308
 21
24.5
  0
LWPOLYLINE
  5
30C
100
AcDbEntity
  8
0
100
AcDbPolyline
 62
7
  6
CONTINUOUS
 90
4
 70
0
 43
0.3500000006
 10
-1.9285714102
 20
38.201642807
 10
-1.9285714102
 20
38.8445007935
 10
-0.4285714127
 20
38.8445007935
 10
-1.2857142735
 20
35.8444998779
  0
LINE
  5
30D
100
AcDbEntity
  8
0
100
AcDbLine
 62
7
  6
CONTINUOUS
 10
-2.2504202518
 20
-13.0162036412
 11
-2.2502486302
 21
-10.0124626156
  0
LINE
  5
30E
100
AcDbEntity
  8
0
100
AcDbLine
 62
7
  6
CONTINUOUS
 10
-26.9412732553
 20
-23.9912732553
 11
-26.95
 21
-24.0
  0
LINE
  5
30F
100
AcDbEntity
  8
DRAFT
100
AcDbLine
 62
7
  6
CONTINUOUS
 10
33.595044505
 20
0.0
 11
33.5
 21
0.0
  0
LINE
  5
310
100
AcDbEntity
  8
DRAFT
100
AcDbLine
 62
7
  6
CONTINUOUS
 10
-33.5
 20
0.0
 11
-33.595044505
 21
0.0
  0
LINE
  5
311
100
AcDbEntity
  8
0
100
AcDbLine
 62
7
  6
CONTINUOUS
 10
-26.95
 20
24.0
 11
-26.9412732553
 21
23.9912732553
  0
LINE
  5
312
100
AcDbEntity
  8
0
100
AcDbLine
 62
7
  6
CONTINUOUS
 10
2.2502486302
 20
-10.0124626156
 11
2.2504202518
 21
-13.0162036412
  0
LINE
  5
313
100
AcDbEntity
  8
0
100
AcDbLine
 62
7
  6
CONTINUOUS
 10
26.95
 20
24.0
 11
26.9412732553
 21
23.9912732553
  0
LWPOLYLINE
  5
314
100
AcDbEntity
  8
0
100
AcDbPolyline
 62
7
  6
CONTINUOUS
 90
2
 70
0
 43
0.3500000006
 10
45.7483960876
 20
1.2787705765
 10
44.2483956299
 20
1.2787705765
  0
LINE
  5
315
100
AcDbEntity
  8
0
100
AcDbLine
 62
7
  6
CONTINUOUS
 10
26.95
 20
-24.0
 11
26.9412732553
 21
-23.9912732553
  0
LINE
  5
316
100
AcDbEntity
  8
0
100
AcDbLine
 62
253
  6
CONTINUOUS
 10
32.3869056521
 20
24.4869014213
 11
32.4000042308
 21
24.5
  0
LINE
  5
317
100
AcDbEntity
  8
0
100
AcDbLine
 62
253
  6
CONTINUOUS
 10
32.6369014213
 20
24.2369056521
 11
32.65
 21
24.2500042308
  0
LINE
  5
318
100
AcDbEntity
  8
0
100
AcDbLine
 62
253
  6
CONTINUOUS
 10
-15.2369014213
 20
-24.2369056521
 11
-15.25
 21
-24.2500042308
  0
LINE
  5
319
100
AcDbEntity
  8
0
100
AcDbLine
 62
253
  6
CONTINUOUS
 10
32.3869056521
 20
-24.4869014213
 11
32.4000042308
 21
-24.5
  0
LINE
  5
31A
100
AcDbEntity
  8
0
100
AcDbLine
 62
253
  6
CONTINUOUS
 10
32.6369014213
 20
-24.2369056521
 11
32.65
 21
-24.2500042308
  0
LINE
  5
31B
100
AcDbEntity
  8
0
100
AcDbLine
 62
253
  6
CONTINUOUS
 10
-15.2369014213
 20
24.2369056521
 11
-15.25
 21
24.2500042308
  0
LINE
  5
31C
100
AcDbEntity
  8
0
100
AcDbLine
 62
253
  6
CONTINUOUS
 10
-14.9869056521
 20
-24.4869014213
 11
-15.0000042308
 21
-24.5
  0
LINE
  5
31D
100
AcDbEntity
  8
0
100
AcDbLine
 62
253
  6
CONTINUOUS
 10
-14.9869056521
 20
24.4869014213
 11
-15.0000042308
 21
24.5
  0
LINE
  5
31E
100
AcDbEntity
  8
0
100
AcDbLine
 62
253
  6
CONTINUOUS
 10
12.3630985787
 20
-23.8443375673
 11
12.3572807489
 21
-23.2669872981
  0
LINE
  5
31F
100
AcDbEntity
  8
0
100
AcDbLine
 62
253
  6
CONTINUOUS
 10
12.6130943479
 20
-23.6278312164
 11
12.6080037468
 21
-23.1226497308
  0
LINE
  5
320
100
AcDbEntity
  8
0
100
AcDbLine
 62
7
  6
CONTINUOUS
 10
12.35
 20
-22.4
 11
12.35
 21
-24.2500042308
  0
LINE
  5
321
100
AcDbEntity
  8
0
100
AcDbLine
 62
7
  6
CONTINUOUS
 10
12.35
 20
22.4
 11
12.35
 21
24.2500042308
  0
LINE
  5
322
100
AcDbEntity
  8
0
100
AcDbLine
 62
253
  6
CONTINUOUS
 10
12.3572807489
 20
23.2669872981
 11
12.3572807489
 21
22.3344140523
  0
LINE
  5
323
100
AcDbEntity
  8
0
100
AcDbLine
 62
253
  6
CONTINUOUS
 10
12.3572807489
 20
-22.3344140523
 11
12.3572807489
 21
-23.2669872981
  0
LINE
  5
324
100
AcDbEntity
  8
0
100
AcDbLine
 62
253
  6
CONTINUOUS
 10
12.3630985787
 20
24.2369056521
 11
12.3630985787
 21
23.8443375673
  0
LINE
  5
325
100
AcDbEntity
  8
0
100
AcDbLine
 62
253
  6
CONTINUOUS
 10
12.3630985787
 20
-23.8443375673
 11
12.3630985787
 21
-24.2369056521
  0
LINE
  5
326
100
AcDbEntity
  8
0
100
AcDbLine
 62
253
  6
CONTINUOUS
 10
12.6072765181
 20
23.1226497308
 11
12.6072765181
 21
22.3213883311
  0
LINE
  5
327
100
AcDbEntity
  8
0
100
AcDbLine
 62
253
  6
CONTINUOUS
 10
12.6072765181
 20
-22.3213883311
 11
12.6072765181
 21
-23.1226497308
  0
LINE
  5
328
100
AcDbEntity
  8
0
100
AcDbLine
 62
253
  6
CONTINUOUS
 10
12.6130943479
 20
-23.6278312164
 11
12.6130943479
 21
-24.4869014213
  0
LINE
  5
329
100
AcDbEntity
  8
0
100
AcDbLine
 62
253
  6
CONTINUOUS
 10
12.6130943479
 20
23.6278312164
 11
12.6130943479
 21
24.4869014213
  0
LINE
  5
32A
100
AcDbEntity
  8
0
100
AcDbLine
 62
253
  6
CONTINUOUS
 10
12.3572807489
 20
23.2669872981
 11
12.3630985787
 21
23.8443375673
  0
LINE
  5
32B
100
AcDbEntity
  8
0
100
AcDbLine
 62
253
  6
CONTINUOUS
 10
12.6080037468
 20
23.1226497308
 11
12.6130943479
 21
23.6278312164
  0
LINE
  5
32C
100
AcDbEntity
  8
0
100
AcDbLine
 62
7
  6
CONTINUOUS
 10
15.25
 20
22.4
 11
15.2427192511
 21
22.3344140523
  0
LINE
  5
32D
100
AcDbEntity
  8
0
100
AcDbLine
 62
7
  6
CONTINUOUS
 10
15.25
 20
-22.4
 11
15.2427192511
 21
-22.3344140523
  0
LINE
  5
32E
100
AcDbEntity
  8
0
100
AcDbLine
 62
253
  6
CONTINUOUS
 10
14.9869056521
 20
23.6278312164
 11
14.9919962532
 21
23.1226497308
  0
LINE
  5
32F
100
AcDbEntity
  8
0
100
AcDbLine
 62
253
  6
CONTINUOUS
 10
15.2369014213
 20
23.8443375673
 11
15.2427192511
 21
23.2669872981
  0
LINE
  5
330
100
AcDbEntity
  8
0
100
AcDbLine
 62
253
  6
CONTINUOUS
 10
14.9869056521
 20
-23.6278312164
 11
14.9869056521
 21
-24.4869014213
  0
LINE
  5
331
100
AcDbEntity
  8
0
100
AcDbLine
 62
253
  6
CONTINUOUS
 10
14.9869056521
 20
23.6278312164
 11
14.9869056521
 21
24.4869014213
  0
LINE
  5
332
100
AcDbEntity
  8
0
100
AcDbLine
 62
253
  6
CONTINUOUS
 10
14.9927234819
 20
-23.1226497308
 11
14.9927234819
 21
-22.3213883311
  0
LINE
  5
333
100
AcDbEntity
  8
0
100
AcDbLine
 62
253
  6
CONTINUOUS
 10
14.9927234819
 20
22.3213883311
 11
14.9927234819
 21
23.1226497308
  0
LINE
  5
334
100
AcDbEntity
  8
0
100
AcDbLine
 62
253
  6
CONTINUOUS
 10
15.2369014213
 20
-24.2369056521
 11
15.2369014213
 21
-23.8443375673
  0
LINE
  5
335
100
AcDbEntity
  8
0
100
AcDbLine
 62
253
  6
CONTINUOUS
 10
15.2369014213
 20
23.8443375673
 11
15.2369014213
 21
24.2369056521
  0
LINE
  5
336
100
AcDbEntity
  8
0
100
AcDbLine
 62
253
  6
CONTINUOUS
 10
15.2427192511
 20
-23.2669872981
 11
15.2427192511
 21
-22.3344140523
  0
LINE
  5
337
100
AcDbEntity
  8
0
100
AcDbLine
 62
253
  6
CONTINUOUS
 10
15.2427192511
 20
22.3344140523
 11
15.2427192511
 21
23.2669872981
  0
LINE
  5
338
100
AcDbEntity
  8
0
100
AcDbLine
 62
7
  6
CONTINUOUS
 10
15.25
 20
-22.4
 11
15.25
 21
-24.2500042308
  0
LINE
  5
339
100
AcDbEntity
  8
0
100
AcDbLine
 62
7
  6
CONTINUOUS
 10
15.25
 20
22.4
 11
15.25
 21
24.2500042308
  0
LINE
  5
33A
100
AcDbEntity
  8
0
100
AcDbLine
 62
253
  6
CONTINUOUS
 10
14.9919962532
 20
-23.1226497308
 11
14.9869056521
 21
-23.6278312164
  0
LINE
  5
33B
100
AcDbEntity
  8
0
100
AcDbLine
 62
253
  6
CONTINUOUS
 10
15.2427192511
 20
-23.2669872981
 11
15.2369014213
 21
-23.8443375673
  0
LINE
  5
33C
100
AcDbEntity
  8
0
100
AcDbLine
 62
7
  6
CONTINUOUS
 10
12.35
 20
-22.4
 11
12.3572807489
 21
-22.3344140523
  0
LINE
  5
33D
100
AcDbEntity
  8
0
100
AcDbLine
 62
7
  6
CONTINUOUS
 10
12.35
 20
22.4
 11
12.3572807489
 21
22.3344140523
  0
LINE
  5
33E
100
AcDbEntity
  8
0
100
AcDbLine
 62
7
  6
CONTINUOUS
 10
18.05
 20
-22.4
 11
18.05
 21
-24.0
  0
LINE
  5
33F
100
AcDbEntity
  8
0
100
AcDbLine
 62
7
  6
CONTINUOUS
 10
18.05
 20
22.4
 11
18.05
 21
24.0
  0
LINE
  5
340
100
AcDbEntity
  8
0
100
AcDbLine
 62
7
  6
CONTINUOUS
 10
18.0587267447
 20
23.9912732553
 11
18.0587267447
 21
22.3213883311
  0
LINE
  5
341
100
AcDbEntity
  8
0
100
AcDbLine
 62
7
  6
CONTINUOUS
 10
18.0587267447
 20
-22.3213883311
 11
18.0587267447
 21
-23.9912732553
  0
LINE
  5
342
100
AcDbEntity
  8
0
100
AcDbLine
 62
7
  6
CONTINUOUS
 10
19.0
 20
-23.9982478817
 11
19.0
 21
-22.3213883311
  0
LINE
  5
343
100
AcDbEntity
  8
0
100
AcDbLine
 62
7
  6
CONTINUOUS
 10
19.0
 20
22.3213883311
 11
19.0
 21
23.9982478817
  0
LINE
  5
344
100
AcDbEntity
  8
0
100
AcDbLine
 62
253
  6
CONTINUOUS
 10
11.8504921535
 20
-22.4
 11
11.8766747509
 21
-22.3213883311
  0
LINE
  5
345
100
AcDbEntity
  8
RACCORDO
100
AcDbLine
 62
7
  6
CONTINUOUS
 10
-33.6229446494
 20
16.6
 11
-33.5
 21
16.6
  0
LINE
  5
346
100
AcDbEntity
  8
RACCORDO
100
AcDbLine
 62
7
  6
CONTINUOUS
 10
33.5
 20
16.6
 11
33.6229446494
 21
16.6
  0
LWPOLYLINE
  5
347
100
AcDbEntity
  8
0
100
AcDbPolyline
 62
7
  6
CONTINUOUS
 90
10
 70
0
 43
0.3500000006
 10
1.0714285848
 20
36.3445000305
 10
1.1428571477
 20
36.2016421967
 10
1.1428571477
 20
36.1302155457
 10
1.0000000219
 20
35.9873577118
 10
0.9285714591
 20
35.9873577118
 10
0.8571428254
 20
36.0587888947
 10
0.8571428254
 20
36.1302155457
 10
0.9285714591
 20
36.2730733795
 10
1.0000000219
 20
36.3445000305
 10
1.0714285848
 20
36.3445000305
  0
LINE
  5
348
100
AcDbEntity
  8
0
100
AcDbLine
 62
253
  6
CONTINUOUS
 10
11.8766747509
 20
22.3213883311
 11
11.8504921535
 21
22.4
  0
LINE
  5
349
100
AcDbEntity
  8
0
100
AcDbLine
 62
253
  6
CONTINUOUS
 10
21.3
 20
-22.3737961104
 11
21.3
 21
-24.0
  0
LINE
  5
34A
100
AcDbEntity
  8
0
100
AcDbLine
 62
253
  6
CONTINUOUS
 10
21.3
 20
22.3737961104
 11
21.3
 21
24.0
  0
LINE
  5
34B
100
AcDbEntity
  8
0
100
AcDbLine
 62
7
  6
CONTINUOUS
 10
21.5
 20
-23.7999966153
 11
21.5
 21
-22.3842776662
  0
LINE
  5
34C
100
AcDbEntity
  8
0
100
AcDbLine
 62
7
  6
CONTINUOUS
 10
21.5
 20
22.3842776662
 11
21.5
 21
23.7999966153
  0
LINE
  5
34D
100
AcDbEntity
  8
0
100
AcDbLine
 62
7
  6
CONTINUOUS
 10
18.05
 20
-22.4
 11
18.0587267447
 21
-22.3213883311
  0
LINE
  5
34E
100
AcDbEntity
  8
RACCORDO
100
AcDbLine
 62
253
  6
CONTINUOUS
 10
32.8788358319
 20
21.8564770067
 11
33.0005138364
 21
22.1
  0
LINE
  5
34F
100
AcDbEntity
  8
RACCORDO
100
AcDbLine
 62
253
  6
CONTINUOUS
 10
33.3786644941
 20
21.3571622388
 11
33.5
 21
21.5999997649
  0
LINE
  5
350
100
AcDbEntity
  8
RACCORDO
100
AcDbLine
 62
7
  6
CONTINUOUS
 10
-33.0005138364
 20
22.1
 11
33.0005138364
 21
22.1
  0
LINE
  5
351
100
AcDbEntity
  8
0
100
AcDbLine
 62
7
  6
CONTINUOUS
 10
33.1233252491
 20
22.3213883311
 11
32.3927234819
 21
22.3213883311
  0
LINE
  5
352
100
AcDbEntity
  8
0
100
AcDbLine
 62
7
  6
CONTINUOUS
 10
30.0072765181
 20
22.3213883311
 11
26.9412732553
 21
22.3213883311
  0
LINE
  5
353
100
AcDbEntity
  8
0
100
AcDbLine
 62
7
  6
CONTINUOUS
 10
26.0
 20
22.3213883311
 11
19.0
 21
22.3213883311
  0
LINE
  5
354
100
AcDbEntity
  8
0
100
AcDbLine
 62
7
  6
CONTINUOUS
 10
18.0587267447
 20
22.3213883311
 11
14.9927234819
 21
22.3213883311
  0
LINE
  5
355
100
AcDbEntity
  8
0
100
AcDbLine
 62
7
  6
CONTINUOUS
 10
12.6072765181
 20
22.3213883311
 11
11.8766747509
 21
22.3213883311
  0
LINE
  5
356
100
AcDbEntity
  8
0
100
AcDbLine
 62
7
  6
CONTINUOUS
 10
-11.8766747509
 20
22.3213883311
 11
-12.6072765181
 21
22.3213883311
  0
LINE
  5
357
100
AcDbEntity
  8
0
100
AcDbLine
 62
7
  6
CONTINUOUS
 10
-14.9927234819
 20
22.3213883311
 11
-18.0587267447
 21
22.3213883311
  0
LINE
  5
358
100
AcDbEntity
  8
0
100
AcDbLine
 62
7
  6
CONTINUOUS
 10
-19.0
 20
22.3213883311
 11
-26.0
 21
22.3213883311
  0
LINE
  5
359
100
AcDbEntity
  8
0
100
AcDbLine
 62
7
  6
CONTINUOUS
 10
-26.9412732553
 20
22.3213883311
 11
-30.0072765181
 21
22.3213883311
  0
LINE
  5
35A
100
AcDbEntity
  8
0
100
AcDbLine
 62
7
  6
CONTINUOUS
 10
-32.3927234819
 20
22.3213883311
 11
-33.1233252491
 21
22.3213883311
  0
LINE
  5
35B
100
AcDbEntity
  8
0
100
AcDbLine
 62
7
  6
CONTINUOUS
 10
26.0
 20
22.3737961104
 11
23.7
 21
22.3737961104
  0
LINE
  5
35C
100
AcDbEntity
  8
0
100
AcDbLine
 62
7
  6
CONTINUOUS
 10
21.3
 20
22.3737961104
 11
19.0
 21
22.3737961104
  0
LINE
  5
35D
100
AcDbEntity
  8
0
100
AcDbLine
 62
7
  6
CONTINUOUS
 10
-19.0
 20
22.3737961104
 11
-21.3
 21
22.3737961104
  0
LINE
  5
35E
100
AcDbEntity
  8
0
100
AcDbLine
 62
7
  6
CONTINUOUS
 10
-23.7
 20
22.3737961104
 11
-26.0
 21
22.3737961104
  0
LINE
  5
35F
100
AcDbEntity
  8
RACCORDO
100
AcDbLine
 62
253
  6
CONTINUOUS
 10
33.0005138364
 20
-22.1
 11
32.8788358319
 21
-21.8564770068
  0
LINE
  5
360
100
AcDbEntity
  8
RACCORDO
100
AcDbLine
 62
253
  6
CONTINUOUS
 10
33.5
 20
-21.5999997649
 11
33.3786644944
 21
-21.3571622394
  0
LINE
  5
361
100
AcDbEntity
  8
0
100
AcDbLine
 62
7
  6
CONTINUOUS
 10
18.0587267447
 20
22.3213883311
 11
18.05
 21
22.4
  0
LINE
  5
362
100
AcDbEntity
  8
0
100
AcDbLine
 62
7
  6
CONTINUOUS
 10
23.5
 20
23.7999966153
 11
23.5
 21
22.3842776662
  0
LINE
  5
363
100
AcDbEntity
  8
0
100
AcDbLine
 62
7
  6
CONTINUOUS
 10
23.5
 20
-22.3842776662
 11
23.5
 21
-23.7999966153
  0
LINE
  5
364
100
AcDbEntity
  8
0
100
AcDbLine
 62
253
  6
CONTINUOUS
 10
23.7
 20
-22.3737961104
 11
23.7
 21
-24.0
  0
LINE
  5
365
100
AcDbEntity
  8
0
100
AcDbLine
 62
253
  6
CONTINUOUS
 10
23.7
 20
22.3737961104
 11
23.7
 21
24.0
  0
LINE
  5
366
100
AcDbEntity
  8
0
100
AcDbLine
 62
7
  6
CONTINUOUS
 10
26.95
 20
22.4
 11
26.9412732553
 21
22.3213883311
  0
LINE
  5
367
100
AcDbEntity
  8
0
100
AcDbLine
 62
253
  6
CONTINUOUS
 10
33.1495078465
 20
22.4
 11
33.1233252491
 21
22.3213883311
  0
LINE
  5
368
100
AcDbEntity
  8
0
100
AcDbLine
 62
253
  6
CONTINUOUS
 10
33.6491272468
 20
21.8997711479
 11
33.6229446494
 21
21.821159479
  0
LINE
  5
369
100
AcDbEntity
  8
0
100
AcDbLine
 62
7
  6
CONTINUOUS
 10
33.1504426895
 20
22.4
 11
32.65
 21
22.4
  0
LINE
  5
36A
100
AcDbEntity
  8
0
100
AcDbLine
 62
7
  6
CONTINUOUS
 10
29.75
 20
22.4
 11
26.95
 21
22.4
  0
LINE
  5
36B
100
AcDbEntity
  8
0
100
AcDbLine
 62
7
  6
CONTINUOUS
 10
-23.5
 20
22.4
 11
-21.5
 21
22.4
  0
LINE
  5
36C
100
AcDbEntity
  8
0
100
AcDbLine
 62
7
  6
CONTINUOUS
 10
18.05
 20
22.4
 11
15.25
 21
22.4
  0
LINE
  5
36D
100
AcDbEntity
  8
0
100
AcDbLine
 62
7
  6
CONTINUOUS
 10
12.35
 20
22.4
 11
11.8495573105
 21
22.4
  0
LINE
  5
36E
100
AcDbEntity
  8
0
100
AcDbLine
 62
7
  6
CONTINUOUS
 10
-11.8495573105
 20
22.4
 11
-12.35
 21
22.4
  0
LINE
  5
36F
100
AcDbEntity
  8
0
100
AcDbLine
 62
7
  6
CONTINUOUS
 10
-15.25
 20
22.4
 11
-18.05
 21
22.4
  0
LINE
  5
370
100
AcDbEntity
  8
0
100
AcDbLine
 62
7
  6
CONTINUOUS
 10
21.5
 20
22.4
 11
23.5
 21
22.4
  0
LINE
  5
371
100
AcDbEntity
  8
0
100
AcDbLine
 62
7
  6
CONTINUOUS
 10
-26.95
 20
22.4
 11
-29.75
 21
22.4
  0
LINE
  5
372
100
AcDbEntity
  8
0
100
AcDbLine
 62
7
  6
CONTINUOUS
 10
-32.65
 20
22.4
 11
-33.1504426895
 21
22.4
  0
LINE
  5
373
100
AcDbEntity
  8
0
100
AcDbLine
 62
7
  6
CONTINUOUS
 10
-32.3927234819
 20
23.1226497308
 11
-30.0072765181
 21
23.1226497308
  0
LINE
  5
374
100
AcDbEntity
  8
0
100
AcDbLine
 62
7
  6
CONTINUOUS
 10
32.3927234819
 20
23.1226497308
 11
30.0072765181
 21
23.1226497308
  0
LINE
  5
375
100
AcDbEntity
  8
0
100
AcDbLine
 62
7
  6
CONTINUOUS
 10
12.6072765181
 20
23.1226497308
 11
14.9927234819
 21
23.1226497308
  0
LINE
  5
376
100
AcDbEntity
  8
0
100
AcDbLine
 62
7
  6
CONTINUOUS
 10
-12.6072765181
 20
23.1226497308
 11
-14.9927234819
 21
23.1226497308
  0
LINE
  5
377
100
AcDbEntity
  8
0
100
AcDbLine
 62
253
  6
CONTINUOUS
 10
-32.3869056521
 20
23.6278312164
 11
-30.0130943479
 21
23.6278312164
  0
LINE
  5
378
100
AcDbEntity
  8
0
100
AcDbLine
 62
253
  6
CONTINUOUS
 10
-14.9869056521
 20
23.6278312164
 11
-12.6130943479
 21
23.6278312164
  0
LINE
  5
379
100
AcDbEntity
  8
0
100
AcDbLine
 62
253
  6
CONTINUOUS
 10
12.6130943479
 20
23.6278312164
 11
14.9869056521
 21
23.6278312164
  0
LINE
  5
37A
100
AcDbEntity
  8
0
100
AcDbLine
 62
253
  6
CONTINUOUS
 10
30.0130943479
 20
23.6278312164
 11
32.3869056521
 21
23.6278312164
  0
LINE
  5
37B
100
AcDbEntity
  8
0
100
AcDbLine
 62
253
  6
CONTINUOUS
 10
26.0
 20
23.7982512664
 11
23.5
 21
23.7982512664
  0
LINE
  5
37C
100
AcDbEntity
  8
0
100
AcDbLine
 62
253
  6
CONTINUOUS
 10
19.0
 20
23.7982512664
 11
21.5
 21
23.7982512664
  0
LINE
  5
37D
100
AcDbEntity
  8
0
100
AcDbLine
 62
253
  6
CONTINUOUS
 10
-19.0
 20
23.7982512664
 11
-21.5
 21
23.7982512664
  0
LINE
  5
37E
100
AcDbEntity
  8
0
100
AcDbLine
 62
253
  6
CONTINUOUS
 10
-23.5
 20
23.7982512664
 11
-26.0
 21
23.7982512664
  0
LINE
  5
37F
100
AcDbEntity
  8
0
100
AcDbLine
 62
253
  6
CONTINUOUS
 10
12.3630985787
 20
23.8443375673
 11
15.2369014213
 21
23.8443375673
  0
LINE
  5
380
100
AcDbEntity
  8
0
100
AcDbLine
 62
253
  6
CONTINUOUS
 10
-12.3630985787
 20
23.8443375673
 11
-15.2369014213
 21
23.8443375673
  0
LINE
  5
381
100
AcDbEntity
  8
0
100
AcDbLine
 62
253
  6
CONTINUOUS
 10
29.7630985787
 20
23.8443375673
 11
32.6369014213
 21
23.8443375673
  0
LINE
  5
382
100
AcDbEntity
  8
0
100
AcDbLine
 62
253
  6
CONTINUOUS
 10
-29.7630985787
 20
23.8443375673
 11
-32.6369014213
 21
23.8443375673
  0
LINE
  5
383
100
AcDbEntity
  8
0
100
AcDbLine
 62
7
  6
CONTINUOUS
 10
-26.9412732553
 20
23.9912732553
 11
-26.0
 21
23.9912732553
  0
LINE
  5
384
100
AcDbEntity
  8
0
100
AcDbLine
 62
7
  6
CONTINUOUS
 10
-19.0
 20
23.9912732553
 11
-18.0587267447
 21
23.9912732553
  0
LINE
  5
385
100
AcDbEntity
  8
0
100
AcDbLine
 62
7
  6
CONTINUOUS
 10
18.0587267447
 20
23.9912732553
 11
19.0
 21
23.9912732553
  0
LINE
  5
386
100
AcDbEntity
  8
0
100
AcDbLine
 62
7
  6
CONTINUOUS
 10
26.0
 20
23.9912732553
 11
26.9412732553
 21
23.9912732553
  0
LINE
  5
387
100
AcDbEntity
  8
0
100
AcDbLine
 62
253
  6
CONTINUOUS
 10
26.0
 20
23.9982478817
 11
23.7
 21
23.9982478817
  0
LINE
  5
388
100
AcDbEntity
  8
0
100
AcDbLine
 62
253
  6
CONTINUOUS
 10
21.3
 20
23.9982478817
 11
19.0
 21
23.9982478817
  0
LINE
  5
389
100
AcDbEntity
  8
0
100
AcDbLine
 62
253
  6
CONTINUOUS
 10
-19.0
 20
23.9982478817
 11
-21.3
 21
23.9982478817
  0
LINE
  5
38A
100
AcDbEntity
  8
0
100
AcDbLine
 62
253
  6
CONTINUOUS
 10
-23.7
 20
23.9982478817
 11
-26.0
 21
23.9982478817
  0
LINE
  5
38B
100
AcDbEntity
  8
0
100
AcDbLine
 62
7
  6
CONTINUOUS
 10
-26.95
 20
24.0
 11
-23.7
 21
24.0
  0
LINE
  5
38C
100
AcDbEntity
  8
0
100
AcDbLine
 62
7
  6
CONTINUOUS
 10
-21.3
 20
24.0
 11
-18.05
 21
24.0
  0
LINE
  5
38D
100
AcDbEntity
  8
0
100
AcDbLine
 62
7
  6
CONTINUOUS
 10
18.05
 20
24.0
 11
21.3
 21
24.0
  0
LINE
  5
38E
100
AcDbEntity
  8
0
100
AcDbLine
 62
7
  6
CONTINUOUS
 10
23.7
 20
24.0
 11
26.95
 21
24.0
  0
LINE
  5
38F
100
AcDbEntity
  8
0
100
AcDbLine
 62
253
  6
CONTINUOUS
 10
12.3630985787
 20
24.2369056521
 11
15.2369014213
 21
24.2369056521
  0
LINE
  5
390
100
AcDbEntity
  8
0
100
AcDbLine
 62
253
  6
CONTINUOUS
 10
-12.3630985787
 20
24.2369056521
 11
-15.2369014213
 21
24.2369056521
  0
LINE
  5
391
100
AcDbEntity
  8
0
100
AcDbLine
 62
253
  6
CONTINUOUS
 10
29.7630985787
 20
24.2369056521
 11
32.6369014213
 21
24.2369056521
  0
LINE
  5
392
100
AcDbEntity
  8
0
100
AcDbLine
 62
253
  6
CONTINUOUS
 10
-29.7630985787
 20
24.2369056521
 11
-32.6369014213
 21
24.2369056521
  0
LINE
  5
393
100
AcDbEntity
  8
0
100
AcDbLine
 62
253
  6
CONTINUOUS
 10
32.3869056521
 20
24.4869014213
 11
30.0130943479
 21
24.4869014213
  0
LINE
  5
394
100
AcDbEntity
  8
0
100
AcDbLine
 62
253
  6
CONTINUOUS
 10
14.9869056521
 20
24.4869014213
 11
12.6130943479
 21
24.4869014213
  0
LINE
  5
395
100
AcDbEntity
  8
0
100
AcDbLine
 62
253
  6
CONTINUOUS
 10
-12.6130943479
 20
24.4869014213
 11
-14.9869056521
 21
24.4869014213
  0
LINE
  5
396
100
AcDbEntity
  8
0
100
AcDbLine
 62
253
  6
CONTINUOUS
 10
-30.0130943479
 20
24.4869014213
 11
-32.3869056521
 21
24.4869014213
  0
LINE
  5
397
100
AcDbEntity
  8
0
100
AcDbLine
 62
7
  6
CONTINUOUS
 10
32.4000042308
 20
24.5
 11
29.9999957692
 21
24.5
  0
LINE
  5
398
100
AcDbEntity
  8
0
100
AcDbLine
 62
7
  6
CONTINUOUS
 10
15.0000042308
 20
24.5
 11
12.5999957692
 21
24.5
  0
LINE
  5
399
100
AcDbEntity
  8
0
100
AcDbLine
 62
7
  6
CONTINUOUS
 10
-12.5999957692
 20
24.5
 11
-15.0000042308
 21
24.5
  0
LINE
  5
39A
100
AcDbEntity
  8
0
100
AcDbLine
 62
7
  6
CONTINUOUS
 10
-29.9999957692
 20
24.5
 11
-32.4000042308
 21
24.5
  0
LINE
  5
39B
100
AcDbEntity
  8
0
100
AcDbLine
 62
253
  6
CONTINUOUS
 10
33.1233252491
 20
-22.3213883311
 11
33.1495078465
 21
-22.4
  0
LINE
  5
39C
100
AcDbEntity
  8
0
100
AcDbLine
 62
253
  6
CONTINUOUS
 10
33.6229446494
 20
-21.821159479
 11
33.6491272468
 21
-21.8997711479
  0
LINE
  5
39D
100
AcDbEntity
  8
0
100
AcDbLine
 62
7
  6
CONTINUOUS
 10
26.9412732553
 20
-22.3213883311
 11
26.95
 21
-22.4
  0
LINE
  5
39E
100
AcDbEntity
  8
0
100
AcDbLine
 62
7
  6
CONTINUOUS
 10
26.0
 20
23.9982478817
 11
26.0
 21
22.3213883311
  0
LINE
  5
39F
100
AcDbEntity
  8
0
100
AcDbLine
 62
7
  6
CONTINUOUS
 10
26.0
 20
-22.3213883311
 11
26.0
 21
-23.9982478817
  0
LINE
  5
3A0
100
AcDbEntity
  8
0
100
AcDbLine
 62
7
  6
CONTINUOUS
 10
26.9412732553
 20
-23.9912732553
 11
26.9412732553
 21
-22.3213883311
  0
LINE
  5
3A1
100
AcDbEntity
  8
0
100
AcDbLine
 62
7
  6
CONTINUOUS
 10
26.9412732553
 20
22.3213883311
 11
26.9412732553
 21
23.9912732553
  0
LINE
  5
3A2
100
AcDbEntity
  8
0
100
AcDbLine
 62
7
  6
CONTINUOUS
 10
26.95
 20
-22.4
 11
26.95
 21
-24.0
  0
LINE
  5
3A3
100
AcDbEntity
  8
0
100
AcDbLine
 62
7
  6
CONTINUOUS
 10
26.95
 20
22.4
 11
26.95
 21
24.0
  0
LINE
  5
3A4
100
AcDbEntity
  8
0
100
AcDbLine
 62
253
  6
CONTINUOUS
 10
12.3630985787
 20
-24.2369056521
 11
12.35
 21
-24.2500042308
  0
LINE
  5
3A5
100
AcDbEntity
  8
0
100
AcDbLine
 62
253
  6
CONTINUOUS
 10
12.6130943479
 20
-24.4869014213
 11
12.5999957692
 21
-24.5
  0
LINE
  5
3A6
100
AcDbEntity
  8
0
100
AcDbLine
 62
253
  6
CONTINUOUS
 10
12.3630985787
 20
24.2369056521
 11
12.35
 21
24.2500042308
  0
LINE
  5
3A7
100
AcDbEntity
  8
0
100
AcDbLine
 62
253
  6
CONTINUOUS
 10
12.6130943479
 20
24.4869014213
 11
12.5999957692
 21
24.5
  0
LINE
  5
3A8
100
AcDbEntity
  8
0
100
AcDbLine
 62
253
  6
CONTINUOUS
 10
29.7630985787
 20
-23.8443375673
 11
29.7572807489
 21
-23.2669872981
  0
LINE
  5
3A9
100
AcDbEntity
  8
0
100
AcDbLine
 62
253
  6
CONTINUOUS
 10
30.0130943479
 20
-23.6278312164
 11
30.0080037468
 21
-23.1226497308
  0
LINE
  5
3AA
100
AcDbEntity
  8
0
100
AcDbLine
 62
7
  6
CONTINUOUS
 10
29.75
 20
-22.4
 11
29.75
 21
-24.2500042308
  0
LINE
  5
3AB
100
AcDbEntity
  8
0
100
AcDbLine
 62
7
  6
CONTINUOUS
 10
29.75
 20
22.4
 11
29.75
 21
24.2500042308
  0
LINE
  5
3AC
100
AcDbEntity
  8
0
100
AcDbLine
 62
253
  6
CONTINUOUS
 10
29.7572807489
 20
23.2669872981
 11
29.7572807489
 21
22.3344140523
  0
LINE
  5
3AD
100
AcDbEntity
  8
0
100
AcDbLine
 62
253
  6
CONTINUOUS
 10
29.7572807489
 20
-22.3344140523
 11
29.7572807489
 21
-23.2669872981
  0
LINE
  5
3AE
100
AcDbEntity
  8
0
100
AcDbLine
 62
253
  6
CONTINUOUS
 10
29.7630985787
 20
24.2369056521
 11
29.7630985787
 21
23.8443375673
  0
LINE
  5
3AF
100
AcDbEntity
  8
0
100
AcDbLine
 62
253
  6
CONTINUOUS
 10
29.7630985787
 20
-23.8443375673
 11
29.7630985787
 21
-24.2369056521
  0
LINE
  5
3B0
100
AcDbEntity
  8
0
100
AcDbLine
 62
253
  6
CONTINUOUS
 10
30.0072765181
 20
23.1226497308
 11
30.0072765181
 21
22.3213883311
  0
LINE
  5
3B1
100
AcDbEntity
  8
0
100
AcDbLine
 62
253
  6
CONTINUOUS
 10
30.0072765181
 20
-22.3213883311
 11
30.0072765181
 21
-23.1226497308
  0
LINE
  5
3B2
100
AcDbEntity
  8
0
100
AcDbLine
 62
253
  6
CONTINUOUS
 10
30.0130943479
 20
-23.6278312164
 11
30.0130943479
 21
-24.4869014213
  0
LINE
  5
3B3
100
AcDbEntity
  8
0
100
AcDbLine
 62
253
  6
CONTINUOUS
 10
30.0130943479
 20
23.6278312164
 11
30.0130943479
 21
24.4869014213
  0
LINE
  5
3B4
100
AcDbEntity
  8
0
100
AcDbLine
 62
253
  6
CONTINUOUS
 10
29.7572807489
 20
23.2669872981
 11
29.7630985787
 21
23.8443375673
  0
LINE
  5
3B5
100
AcDbEntity
  8
0
100
AcDbLine
 62
253
  6
CONTINUOUS
 10
30.0080037468
 20
23.1226497308
 11
30.0130943479
 21
23.6278312164
  0
LINE
  5
3B6
100
AcDbEntity
  8
0
100
AcDbLine
 62
7
  6
CONTINUOUS
 10
32.65
 20
22.4
 11
32.6427192511
 21
22.3344140523
  0
LINE
  5
3B7
100
AcDbEntity
  8
0
100
AcDbLine
 62
7
  6
CONTINUOUS
 10
18.0587267447
 20
-23.9912732553
 11
18.05
 21
-24.0
  0
LINE
  5
3B8
100
AcDbEntity
  8
0
100
AcDbLine
 62
7
  6
CONTINUOUS
 10
18.05
 20
24.0
 11
18.0587267447
 21
23.9912732553
  0
LINE
  5
3B9
100
AcDbEntity
  8
0
100
AcDbLine
 62
7
  6
CONTINUOUS
 10
32.65
 20
-22.4
 11
32.6427192511
 21
-22.3344140523
  0
LINE
  5
3BA
100
AcDbEntity
  8
0
100
AcDbLine
 62
253
  6
CONTINUOUS
 10
32.3869056521
 20
23.6278312164
 11
32.3919962532
 21
23.1226497308
  0
LINE
  5
3BB
100
AcDbEntity
  8
0
100
AcDbLine
 62
253
  6
CONTINUOUS
 10
32.6369014213
 20
23.8443375673
 11
32.6427192511
 21
23.2669872981
  0
LINE
  5
3BC
100
AcDbEntity
  8
DRAFT
100
AcDbLine
 62
7
  6
CONTINUOUS
 10
33.6229446494
 20
-16.6
 11
33.595044505
 21
0.0
  0
LINE
  5
3BD
100
AcDbEntity
  8
0
100
AcDbLine
 62
253
  6
CONTINUOUS
 10
32.3869056521
 20
-23.6278312164
 11
32.3869056521
 21
-24.4869014213
  0
LINE
  5
3BE
100
AcDbEntity
  8
0
100
AcDbLine
 62
253
  6
CONTINUOUS
 10
32.3869056521
 20
23.6278312164
 11
32.3869056521
 21
24.4869014213
  0
LINE
  5
3BF
100
AcDbEntity
  8
0
100
AcDbLine
 62
253
  6
CONTINUOUS
 10
32.3927234819
 20
-23.1226497308
 11
32.3927234819
 21
-22.3213883311
  0
LINE
  5
3C0
100
AcDbEntity
  8
0
100
AcDbLine
 62
253
  6
CONTINUOUS
 10
32.3927234819
 20
22.3213883311
 11
32.3927234819
 21
23.1226497308
  0
LINE
  5
3C1
100
AcDbEntity
  8
0
100
AcDbLine
 62
253
  6
CONTINUOUS
 10
32.6369014213
 20
-24.2369056521
 11
32.6369014213
 21
-23.8443375673
  0
LINE
  5
3C2
100
AcDbEntity
  8
0
100
AcDbLine
 62
253
  6
CONTINUOUS
 10
32.6369014213
 20
23.8443375673
 11
32.6369014213
 21
24.2369056521
  0
LINE
  5
3C3
100
AcDbEntity
  8
0
100
AcDbLine
 62
253
  6
CONTINUOUS
 10
32.6427192511
 20
-23.2669872981
 11
32.6427192511
 21
-22.3344140523
  0
LINE
  5
3C4
100
AcDbEntity
  8
0
100
AcDbLine
 62
253
  6
CONTINUOUS
 10
32.6427192511
 20
22.3344140523
 11
32.6427192511
 21
23.2669872981
  0
LINE
  5
3C5
100
AcDbEntity
  8
0
100
AcDbLine
 62
7
  6
CONTINUOUS
 10
32.65
 20
-22.4
 11
32.65
 21
-24.2500042308
  0
LINE
  5
3C6
100
AcDbEntity
  8
0
100
AcDbLine
 62
7
  6
CONTINUOUS
 10
32.65
 20
22.4
 11
32.65
 21
24.2500042308
  0
LINE
  5
3C7
100
AcDbEntity
  8
RACCORDO
100
AcDbLine
 62
7
  6
CONTINUOUS
 10
33.5
 20
-21.5999997649
 11
33.5
 21
21.5999997649
  0
LINE
  5
3C8
100
AcDbEntity
  8
DRAFT
100
AcDbLine
 62
7
  6
CONTINUOUS
 10
33.6229446494
 20
21.821159479
 11
33.6229446494
 21
16.6
  0
LINE
  5
3C9
100
AcDbEntity
  8
DRAFT
100
AcDbLine
 62
7
  6
CONTINUOUS
 10
33.6229446494
 20
-16.6
 11
33.6229446494
 21
-21.821159479
  0
LINE
  5
3CA
100
AcDbEntity
  8
0
100
AcDbLine
 62
7
  6
CONTINUOUS
 10
33.6491272468
 20
21.8997711479
 11
33.6491272468
 21
-21.8997711479
  0
LINE
  5
3CB
100
AcDbEntity
  8
0
100
AcDbLine
 62
7
  6
CONTINUOUS
 10
33.6504363434
 20
21.900016923
 11
33.6504363434
 21
-21.900016923
  0
LINE
  5
3CC
100
AcDbEntity
  8
DRAFT
100
AcDbLine
 62
7
  6
CONTINUOUS
 10
33.595044505
 20
0.0
 11
33.6229446494
 21
16.6
  0
LINE
  5
3CD
100
AcDbEntity
  8
0
100
AcDbLine
 62
253
  6
CONTINUOUS
 10
32.3919962532
 20
-23.1226497308
 11
32.3869056521
 21
-23.6278312164
  0
LINE
  5
3CE
100
AcDbEntity
  8
0
100
AcDbLine
 62
253
  6
CONTINUOUS
 10
32.6427192511
 20
-23.2669872981
 11
32.6369014213
 21
-23.8443375673
  0
LINE
  5
3CF
100
AcDbEntity
  8
0
100
AcDbLine
 62
7
  6
CONTINUOUS
 10
29.75
 20
-22.4
 11
29.7572807489
 21
-22.3344140523
  0
LWPOLYLINE
  5
3D0
100
AcDbEntity
  8
0
100
AcDbPolyline
 62
7
  6
CONTINUOUS
 90
10
 70
0
 43
0.3500000006
 10
45.7483960876
 20
3.064484436
 10
44.8912536163
 20
3.9216269073
 10
44.034111145
 20
4.1359136581
 10
43.1769686737
 20
4.1359136581
 10
42.7483951721
 20
3.7073424225
 10
42.7483951721
 20
3.064484436
 10
43.1769686737
 20
2.6359132004
 10
44.034111145
 20
2.6359132004
 10
44.4626801147
 20
3.064484436
 10
44.4626801147
 20
3.9930558243
  0
LINE
  5
3D1
100
AcDbEntity
  8
0
100
AcDbLine
 62
7
  6
CONTINUOUS
 10
29.75
 20
22.4
 11
29.7572807489
 21
22.3344140523
  0
LWPOLYLINE
  5
3D2
100
AcDbEntity
  8
0
100
AcDbPolyline
 62
7
  6
CONTINUOUS
 90
6
 70
0
 43
0.3500000006
 10
2.1428571696
 20
35.8444998779
 10
3.2142856836
 20
35.8444998779
 10
3.4285713015
 20
36.0587888947
 10
3.4285713015
 20
37.1302158508
 10
3.0000000658
 20
37.5587848206
 10
2.5714285469
 20
37.5587848206
  0
LINE
  5
3D3
100
AcDbEntity
  8
0
100
AcDbLine
 62
253
  6
CONTINUOUS
 10
29.7630985787
 20
-24.2369056521
 11
29.75
 21
-24.2500042308
  0
LINE
  5
3D4
100
AcDbEntity
  8
0
100
AcDbLine
 62
253
  6
CONTINUOUS
 10
30.0130943479
 20
-24.4869014213
 11
29.9999957692
 21
-24.5
  0
LINE
  5
3D5
100
AcDbEntity
  8
0
100
AcDbLine
 62
253
  6
CONTINUOUS
 10
29.7630985787
 20
24.2369056521
 11
29.75
 21
24.2500042308
  0
LINE
  5
3D6
100
AcDbEntity
  8
0
100
AcDbLine
 62
253
  6
CONTINUOUS
 10
30.0130943479
 20
24.4869014213
 11
29.9999957692
 21
24.5
  0
LWPOLYLINE
  5
3D7
100
AcDbEntity
  8
0
100
AcDbPolyline
 62
7
  6
CONTINUOUS
 90
3
 70
0
 43
0.3500000006
 10
45.1055381012
 20
1.7787707291
 10
45.1055381012
 20
0.2787702713
 10
42.7483951721
 20
0.9216259918
  0
LWPOLYLINE
  5
3D8
100
AcDbEntity
  8
0
100
AcDbPolyline
 62
7
  6
CONTINUOUS
 90
5
 70
0
 43
0.3500000006
 10
-57.1471669006
 20
47.5587878723
 10
-56.7900245819
 20
47.7730723572
 10
-56.7900245819
 20
48.4159303436
 10
-57.1471669006
 20
48.8444993134
 10
-58.0043093719
 20
48.8444993134
  0
LINE
  5
3D9
100
AcDbEntity
  8
0
100
AcDbLine
 62
7
  6
CONTINUOUS
 10
-60.9971581712
 20
-24.5
 11
-60.2457037383
 21
-24.495628166
  0
LINE
  5
3DA
100
AcDbEntity
  8
0
100
AcDbLine
 62
253
  6
CONTINUOUS
 10
-60.9971581712
 20
-24.2500042308
 11
-60.2457037383
 21
-24.2456323968
  0
LINE
  5
3DB
100
AcDbEntity
  8
0
100
AcDbLine
 62
253
  6
CONTINUOUS
 10
-59.9971581712
 20
-24.2456323968
 11
-60.2457037383
 21
-24.2456323968
  0
LINE
  5
3DC
100
AcDbEntity
  8
0
100
AcDbLine
 62
253
  6
CONTINUOUS
 10
-63.4971581712
 20
-24.2369056521
 11
-63.248612604
 21
-24.2369056521
  0
LINE
  5
3DD
100
AcDbEntity
  8
0
100
AcDbLine
 62
7
  6
CONTINUOUS
 10
-63.248612604
 20
-24.4869014213
 11
-60.9971581712
 21
-24.5
  0
LINE
  5
3DE
100
AcDbEntity
  8
0
100
AcDbLine
 62
253
  6
CONTINUOUS
 10
-63.248612604
 20
-24.2369056521
 11
-60.9971581712
 21
-24.2500042308
  0
LWPOLYLINE
  5
3DF
100
AcDbEntity
  8
0
100
AcDbPolyline
 62
7
  6
CONTINUOUS
 90
3
 70
0
 43
0.3500000006
 10
-56.2114419708
 20
37.9873583221
 10
-55.3542994995
 20
38.8445007935
 10
-55.3542994995
 20
35.8444998779
  0
LINE
  5
3E0
100
AcDbEntity
  8
0
100
AcDbLine
 62
7
  6
CONTINUOUS
 10
-55.4942493055
 20
-23.9679850128
 11
-59.9971581712
 21
-23.9941821702
  0
LINE
  5
3E1
100
AcDbEntity
  8
0
100
AcDbLine
 62
7
  6
CONTINUOUS
 10
-49.9913404398
 20
-22.3359700255
 11
-60.9971581712
 21
-22.4
  0
LINE
  5
3E2
100
AcDbEntity
  8
0
100
AcDbLine
 62
253
  6
CONTINUOUS
 10
-63.4971581712
 20
-23.8443375673
 11
-63.248612604
 21
-23.8443375673
  0
LINE
  5
3E3
100
AcDbEntity
  8
0
100
AcDbLine
 62
253
  6
CONTINUOUS
 10
-59.9971581712
 20
-23.8443375673
 11
-60.2457037383
 21
-23.8443375673
  0
LINE
  5
3E4
100
AcDbEntity
  8
0
100
AcDbLine
 62
7
  6
CONTINUOUS
 10
-62.4971581712
 20
-22.3213883311
 11
-60.9971581712
 21
-22.4
  0
LINE
  5
3E5
100
AcDbEntity
  8
RACCORDO
100
AcDbLine
 62
7
  6
CONTINUOUS
 10
-64.5971581712
 20
-22.1
 11
-69.6263161257
 21
-21.8364329999
  0
LWPOLYLINE
  5
3E6
100
AcDbEntity
  8
0
100
AcDbPolyline
 62
7
  6
CONTINUOUS
 90
3
 70
0
 43
0.3500000006
 10
-54.4971570282
 20
37.9873583221
 10
-53.6400145569
 20
38.8445007935
 10
-53.6400145569
 20
35.8444998779
  0
LINE
  5
3E7
100
AcDbEntity
  8
RACCORDO
100
AcDbLine
 62
253
  6
CONTINUOUS
 10
-70.3804598641
 20
-20.7082281594
 11
-69.8941188109
 21
-20.6873334129
  0
LINE
  5
3E8
100
AcDbEntity
  8
0
100
AcDbLine
 62
253
  6
CONTINUOUS
 10
-60.9971581712
 20
-21.900016923
 11
-59.9971581712
 21
-21.8941990932
  0
LINE
  5
3E9
100
AcDbEntity
  8
0
100
AcDbLine
 62
7
  6
CONTINUOUS
 10
-48.9971581712
 20
-20.9
 11
-58.9971581712
 21
-20.9
  0
LINE
  5
3EA
100
AcDbEntity
  8
0
100
AcDbLine
 62
7
  6
CONTINUOUS
 10
-49.4884319679
 20
-21.5834304982
 11
-58.9971581712
 21
-21.4174550649
  0
LINE
  5
3EB
100
AcDbEntity
  8
0
100
AcDbLine
 62
253
  6
CONTINUOUS
 10
-62.4971581712
 20
-21.821159479
 11
-60.9971581712
 21
-21.8997711479
  0
LINE
  5
3EC
100
AcDbEntity
  8
RACCORDO
100
AcDbLine
 62
253
  6
CONTINUOUS
 10
-64.5971581712
 20
-21.5999997649
 11
-69.2307741875
 21
-21.3571622394
  0
LINE
  5
3ED
100
AcDbEntity
  8
0
100
AcDbLine
 62
253
  6
CONTINUOUS
 10
-60.9971581712
 20
23.4104851482
 11
-60.2457037383
 21
23.8443375673
  0
LINE
  5
3EE
100
AcDbEntity
  8
0
100
AcDbLine
 62
7
  6
CONTINUOUS
 10
-60.9971581712
 20
23.1226497308
 11
-60.1221581712
 21
23.6278312164
  0
LINE
  5
3EF
100
AcDbEntity
  8
RACCORDO
100
AcDbLine
 62
253
  6
CONTINUOUS
 10
-49.1936676899
 20
-19.0166572575
 11
-48.9971581712
 21
-19.0166572575
  0
LINE
  5
3F0
100
AcDbEntity
  8
RACCORDO
100
AcDbLine
 62
7
  6
CONTINUOUS
 10
-49.1954128641
 20
-19.7942654032
 11
-58.9971581712
 21
-19.7087268678
  0
LINE
  5
3F1
100
AcDbEntity
  8
0
100
AcDbLine
 62
7
  6
CONTINUOUS
 10
-59.9971581712
 20
-18.5082905244
 11
-58.9971581712
 21
-18.5170173922
  0
LINE
  5
3F2
100
AcDbEntity
  8
0
100
AcDbLine
 62
253
  6
CONTINUOUS
 10
-60.2457037383
 20
-23.8443375673
 11
-60.9971581712
 21
-23.4104851482
  0
LINE
  5
3F3
100
AcDbEntity
  8
0
100
AcDbLine
 62
7
  6
CONTINUOUS
 10
-60.1221581712
 20
-23.6278312164
 11
-60.9971581712
 21
-23.1226497308
  0
LINE
  5
3F4
100
AcDbEntity
  8
RACCORDO
100
AcDbLine
 62
7
  6
CONTINUOUS
 10
-62.4971581712
 20
-17.4
 11
-64.5971581712
 21
-17.3633443637
  0
LINE
  5
3F5
100
AcDbEntity
  8
RACCORDO
100
AcDbLine
 62
253
  6
CONTINUOUS
 10
-62.5164337125
 20
-16.399815849
 11
-64.5971581712
 21
-16.3634966685
  0
LINE
  5
3F6
100
AcDbEntity
  8
RACCORDO
100
AcDbLine
 62
7
  6
CONTINUOUS
 10
-58.9971581712
 20
14.9602976573
 11
-49.128754142
 21
18.5521029837
  0
LINE
  5
3F7
100
AcDbEntity
  8
RACCORDO
100
AcDbLine
 62
7
  6
CONTINUOUS
 10
-49.128754142
 20
-18.5521029837
 11
-58.9971581712
 21
-14.9602976573
  0
LWPOLYLINE
  5
3F8
100
AcDbEntity
  8
0
100
AcDbPolyline
 62
7
  6
CONTINUOUS
 90
3
 70
0
 43
0.3500000006
 10
-59.0043096771
 20
46.1302140656
 10
-59.0757363281
 20
45.9159295807
 10
-59.218594162
 20
45.630213913
  0
LWPOLYLINE
  5
3F9
100
AcDbEntity
  8
0
100
AcDbPolyline
 62
7
  6
CONTINUOUS
 90
3
 70
0
 10
-71.0071919153
 20
-15.2279843145
 10
-70.9216916496
 20
-17.3272394458
 10
-70.7611754043
 20
-20.7002165598
  0
LWPOLYLINE
  5
3FA
100
AcDbEntity
  8
0
100
AcDbPolyline
 62
7
  6
CONTINUOUS
 90
10
 70
0
 10
-70.7611754043
 20
20.7002165599
 10
-70.9219803693
 20
17.3205794225
 10
-71.0570582377
 20
13.8573573324
 10
-71.1621257294
 20
10.3930949889
 10
-71.2371720652
 20
6.9280523602
 10
-71.2821890284
 20
3.4624894696
 10
-71.2971754271
 20
-0.0033334561
 10
-71.2821312621
 20
-3.4691561061
 10
-71.2370565338
 20
-6.9347181696
 10
-71.2216555865
 20
-7.772277193
  0
LINE
  5
3FB
100
AcDbEntity
  8
RACCORDO
100
AcDbLine
 62
7
  6
CONTINUOUS
 10
-64.5971581712
 20
-22.1
 11
-64.5971581712
 21
22.1
  0
LINE
  5
3FC
100
AcDbEntity
  8
DRAFT
100
AcDbLine
 62
7
  6
CONTINUOUS
 10
-62.4971581712
 20
-16.6
 11
-64.0955563712
 21
0.0
  0
LINE
  5
3FD
100
AcDbEntity
  8
0
100
AcDbLine
 62
7
  6
CONTINUOUS
 10
-63.4971581712
 20
-24.2369056521
 11
-63.4971581712
 21
-23.8443375673
  0
LINE
  5
3FE
100
AcDbEntity
  8
0
100
AcDbLine
 62
7
  6
CONTINUOUS
 10
-63.4971581712
 20
23.8443375673
 11
-63.4971581712
 21
24.2369056521
  0
LINE
  5
3FF
100
AcDbEntity
  8
0
100
AcDbLine
 62
253
  6
CONTINUOUS
 10
-63.248612604
 20
-24.2369056521
 11
-63.248612604
 21
-23.8443375673
  0
LINE
  5
400
100
AcDbEntity
  8
0
100
AcDbLine
 62
253
  6
CONTINUOUS
 10
-63.248612604
 20
23.8443375673
 11
-63.248612604
 21
24.2369056521
  0
LINE
  5
401
100
AcDbEntity
  8
DRAFT
100
AcDbLine
 62
7
  6
CONTINUOUS
 10
-62.4971581712
 20
21.821159479
 11
-62.4971581712
 21
16.6
  0
LINE
  5
402
100
AcDbEntity
  8
DRAFT
100
AcDbLine
 62
7
  6
CONTINUOUS
 10
-62.4971581712
 20
-16.6
 11
-62.4971581712
 21
-21.821159479
  0
LINE
  5
403
100
AcDbEntity
  8
0
100
AcDbLine
 62
7
  6
CONTINUOUS
 10
-62.4971581712
 20
-21.821159479
 11
-62.4971581712
 21
-23.1226497308
  0
LINE
  5
404
100
AcDbEntity
  8
0
100
AcDbLine
 62
7
  6
CONTINUOUS
 10
-62.4971581712
 20
21.821159479
 11
-62.4971581712
 21
23.1226497308
  0
LINE
  5
405
100
AcDbEntity
  8
DRAFT
100
AcDbLine
 62
7
  6
CONTINUOUS
 10
-64.0955563712
 20
0.0
 11
-62.4971581712
 21
16.6
  0
LINE
  5
406
100
AcDbEntity
  8
0
100
AcDbLine
 62
253
  6
CONTINUOUS
 10
-62.248612604
 20
-23.2669872981
 11
-62.248612604
 21
-22.3344140523
  0
LINE
  5
407
100
AcDbEntity
  8
0
100
AcDbLine
 62
253
  6
CONTINUOUS
 10
-62.248612604
 20
22.3344140523
 11
-62.248612604
 21
23.2669872981
  0
LINE
  5
408
100
AcDbEntity
  8
0
100
AcDbLine
 62
7
  6
CONTINUOUS
 10
-60.9971581712
 20
-24.2500042308
 11
-60.9971581712
 21
24.2500042308
  0
LINE
  5
409
100
AcDbEntity
  8
0
100
AcDbLine
 62
253
  6
CONTINUOUS
 10
-60.2457037383
 20
24.2456323968
 11
-60.2457037383
 21
23.8443375673
  0
LINE
  5
40A
100
AcDbEntity
  8
0
100
AcDbLine
 62
253
  6
CONTINUOUS
 10
-60.2457037383
 20
-23.8443375673
 11
-60.2457037383
 21
-24.2456323968
  0
LINE
  5
40B
100
AcDbEntity
  8
0
100
AcDbLine
 62
7
  6
CONTINUOUS
 10
-59.9971581712
 20
24.2456323968
 11
-59.9971581712
 21
23.8443375673
  0
LINE
  5
40C
100
AcDbEntity
  8
0
100
AcDbLine
 62
7
  6
CONTINUOUS
 10
-59.9971581712
 20
22.3941821702
 11
-59.9971581712
 21
18.5082905244
  0
LINE
  5
40D
100
AcDbEntity
  8
0
100
AcDbLine
 62
7
  6
CONTINUOUS
 10
-59.9971581712
 20
-18.5082905244
 11
-59.9971581712
 21
-22.3941821702
  0
LINE
  5
40E
100
AcDbEntity
  8
0
100
AcDbLine
 62
7
  6
CONTINUOUS
 10
-59.9971581712
 20
-23.8443375673
 11
-59.9971581712
 21
-24.2456323968
  0
LINE
  5
40F
100
AcDbEntity
  8
0
100
AcDbLine
 62
7
  6
CONTINUOUS
 10
-58.9971581712
 20
21.4174550649
 11
-58.9971581712
 21
-21.4174550649
  0
LINE
  5
410
100
AcDbEntity
  8
0
100
AcDbLine
 62
7
  6
CONTINUOUS
 10
-55.4971581712
 20
-23.4243617711
 11
-55.4971581712
 21
-22.8756382289
  0
LINE
  5
411
100
AcDbEntity
  8
0
100
AcDbLine
 62
7
  6
CONTINUOUS
 10
-55.4971581712
 20
22.8756382289
 11
-55.4971581712
 21
23.4243617711
  0
LINE
  5
412
100
AcDbEntity
  8
0
100
AcDbLine
 62
253
  6
CONTINUOUS
 10
-55.4533660085
 20
23.9660720289
 11
-55.4533660085
 21
22.3677471607
  0
LINE
  5
413
100
AcDbEntity
  8
0
100
AcDbLine
 62
253
  6
CONTINUOUS
 10
-55.4533660085
 20
-22.3677471607
 11
-55.4533660085
 21
-23.9660720289
  0
LINE
  5
414
100
AcDbEntity
  8
0
100
AcDbLine
 62
7
  6
CONTINUOUS
 10
-54.9971581712
 20
23.4679934743
 11
-54.9971581712
 21
22.3650935624
  0
LINE
  5
415
100
AcDbEntity
  8
0
100
AcDbLine
 62
7
  6
CONTINUOUS
 10
-54.9971581712
 20
-22.3650935624
 11
-54.9971581712
 21
-23.4679934743
  0
LINE
  5
416
100
AcDbEntity
  8
0
100
AcDbLine
 62
253
  6
CONTINUOUS
 10
-49.4884319679
 20
21.5834304982
 11
-49.4884319679
 21
20.9
  0
LINE
  5
417
100
AcDbEntity
  8
0
100
AcDbLine
 62
253
  6
CONTINUOUS
 10
-49.4884319679
 20
-20.9
 11
-49.4884319679
 21
-21.5834304982
  0
LINE
  5
418
100
AcDbEntity
  8
RACCORDO
100
AcDbLine
 62
253
  6
CONTINUOUS
 10
-49.1954128641
 20
20.9
 11
-49.1954128641
 21
19.7942654032
  0
LINE
  5
419
100
AcDbEntity
  8
RACCORDO
100
AcDbLine
 62
253
  6
CONTINUOUS
 10
-49.1954128641
 20
-19.7942654032
 11
-49.1954128641
 21
-20.9
  0
LINE
  5
41A
100
AcDbEntity
  8
RACCORDO
100
AcDbLine
 62
253
  6
CONTINUOUS
 10
-49.1936676899
 20
-19.7942654032
 11
-49.1936676899
 21
-19.0166572575
  0
LINE
  5
41B
100
AcDbEntity
  8
RACCORDO
100
AcDbLine
 62
253
  6
CONTINUOUS
 10
-49.1936676899
 20
19.0166572575
 11
-49.1936676899
 21
19.7942654032
  0
LINE
  5
41C
100
AcDbEntity
  8
0
100
AcDbLine
 62
7
  6
CONTINUOUS
 10
-48.9971581712
 20
21.3359869487
 11
-48.9971581712
 21
20.9
  0
LINE
  5
41D
100
AcDbEntity
  8
0
100
AcDbLine
 62
7
  6
CONTINUOUS
 10
-48.9971581712
 20
-20.9
 11
-48.9971581712
 21
-21.3359869487
  0
LINE
  5
41E
100
AcDbEntity
  8
RACCORDO
100
AcDbLine
 62
7
  6
CONTINUOUS
 10
-48.9971581712
 20
-20.9
 11
-48.9971581712
 21
-18.7400415081
  0
LINE
  5
41F
100
AcDbEntity
  8
RACCORDO
100
AcDbLine
 62
7
  6
CONTINUOUS
 10
-48.9971581712
 20
18.7400415081
 11
-48.9971581712
 21
20.9
  0
LINE
  5
420
100
AcDbEntity
  8
RACCORDO
100
AcDbLine
 62
253
  6
CONTINUOUS
 10
-62.5164337125
 20
16.399815849
 11
-64.5971581712
 21
16.3634966685
  0
LINE
  5
421
100
AcDbEntity
  8
RACCORDO
100
AcDbLine
 62
7
  6
CONTINUOUS
 10
-62.4971581712
 20
17.4
 11
-64.5971581712
 21
17.3633443637
  0
LINE
  5
422
100
AcDbEntity
  8
0
100
AcDbLine
 62
7
  6
CONTINUOUS
 10
-59.9971581712
 20
18.5082905244
 11
-58.9971581712
 21
18.5170173922
  0
LINE
  5
423
100
AcDbEntity
  8
0
100
AcDbLine
 62
7
  6
CONTINUOUS
 10
-62.4971581712
 20
-23.1226497308
 11
-63.3721581712
 21
-23.6278312164
  0
LINE
  5
424
100
AcDbEntity
  8
0
100
AcDbLine
 62
253
  6
CONTINUOUS
 10
-62.248612604
 20
-23.2669872981
 11
-63.248612604
 21
-23.8443375673
  0
LINE
  5
425
100
AcDbEntity
  8
RACCORDO
100
AcDbLine
 62
7
  6
CONTINUOUS
 10
-49.1954128641
 20
19.7942654032
 11
-58.9971581712
 21
19.7087268678
  0
LINE
  5
426
100
AcDbEntity
  8
RACCORDO
100
AcDbLine
 62
253
  6
CONTINUOUS
 10
-49.1936676899
 20
19.0166572575
 11
-48.9971581712
 21
19.0166572575
  0
LINE
  5
427
100
AcDbEntity
  8
RACCORDO
100
AcDbLine
 62
253
  6
CONTINUOUS
 10
-70.3804474241
 20
20.7082276358
 11
-69.8941188162
 21
20.6873334122
  0
LINE
  5
428
100
AcDbEntity
  8
0
100
AcDbLine
 62
7
  6
CONTINUOUS
 10
-63.3721581712
 20
23.6278312164
 11
-62.4971581712
 21
23.1226497308
  0
LINE
  5
429
100
AcDbEntity
  8
0
100
AcDbLine
 62
253
  6
CONTINUOUS
 10
-63.248612604
 20
23.8443375673
 11
-62.248612604
 21
23.2669872981
  0
LINE
  5
42A
100
AcDbEntity
  8
RACCORDO
100
AcDbLine
 62
253
  6
CONTINUOUS
 10
-69.2307741989
 20
21.3571622388
 11
-64.5971581712
 21
21.5999997649
  0
LINE
  5
42B
100
AcDbEntity
  8
0
100
AcDbLine
 62
253
  6
CONTINUOUS
 10
-60.9971581712
 20
21.8997711479
 11
-62.4971581712
 21
21.821159479
  0
LINE
  5
42C
100
AcDbEntity
  8
RACCORDO
100
AcDbLine
 62
7
  6
CONTINUOUS
 10
-69.6263166329
 20
21.8364329734
 11
-64.5971581712
 21
22.1
  0
LINE
  5
42D
100
AcDbEntity
  8
0
100
AcDbLine
 62
7
  6
CONTINUOUS
 10
-60.9971581712
 20
22.4
 11
-62.4971581712
 21
22.3213883311
  0
LINE
  5
42E
100
AcDbEntity
  8
0
100
AcDbLine
 62
7
  6
CONTINUOUS
 10
-49.4884319679
 20
21.5834304982
 11
-58.9971581712
 21
21.4174550649
  0
LINE
  5
42F
100
AcDbEntity
  8
0
100
AcDbLine
 62
7
  6
CONTINUOUS
 10
-48.9971581712
 20
20.9
 11
-58.9971581712
 21
20.9
  0
LINE
  5
430
100
AcDbEntity
  8
0
100
AcDbLine
 62
253
  6
CONTINUOUS
 10
-59.9971581712
 20
21.8941990932
 11
-60.9971581712
 21
21.900016923
  0
LINE
  5
431
100
AcDbEntity
  8
0
100
AcDbLine
 62
7
  6
CONTINUOUS
 10
-49.9913404398
 20
22.3359700255
 11
-60.9971581712
 21
22.4
  0
LINE
  5
432
100
AcDbEntity
  8
0
100
AcDbLine
 62
253
  6
CONTINUOUS
 10
-63.248612604
 20
24.2369056521
 11
-60.9971581712
 21
24.2500042308
  0
LINE
  5
433
100
AcDbEntity
  8
0
100
AcDbLine
 62
7
  6
CONTINUOUS
 10
-63.248612604
 20
24.4869014213
 11
-60.9971581712
 21
24.5
  0
LINE
  5
434
100
AcDbEntity
  8
0
100
AcDbLine
 62
253
  6
CONTINUOUS
 10
-63.4971581712
 20
23.8443375673
 11
-63.248612604
 21
23.8443375673
  0
LINE
  5
435
100
AcDbEntity
  8
0
100
AcDbLine
 62
253
  6
CONTINUOUS
 10
-59.9971581712
 20
23.8443375673
 11
-60.2457037383
 21
23.8443375673
  0
LINE
  5
436
100
AcDbEntity
  8
0
100
AcDbLine
 62
253
  6
CONTINUOUS
 10
-63.4971581712
 20
24.2369056521
 11
-63.248612604
 21
24.2369056521
  0
LINE
  5
437
100
AcDbEntity
  8
0
100
AcDbLine
 62
253
  6
CONTINUOUS
 10
-59.9971581712
 20
24.2456323968
 11
-60.2457037383
 21
24.2456323968
  0
LINE
  5
438
100
AcDbEntity
  8
0
100
AcDbLine
 62
7
  6
CONTINUOUS
 10
-55.4942493055
 20
23.9679850128
 11
-59.9971581712
 21
23.9941821702
  0
LINE
  5
439
100
AcDbEntity
  8
0
100
AcDbLine
 62
253
  6
CONTINUOUS
 10
-60.9971581712
 20
24.2500042308
 11
-60.2457037383
 21
24.2456323968
  0
LINE
  5
43A
100
AcDbEntity
  8
0
100
AcDbLine
 62
7
  6
CONTINUOUS
 10
-60.9971581712
 20
24.5
 11
-60.2457037383
 21
24.495628166
  0
LWPOLYLINE
  5
43B
100
AcDbEntity
  8
0
100
AcDbPolyline
 62
7
  6
CONTINUOUS
 90
10
 70
0
 43
0.3500000006
 10
-59.0757363281
 20
46.3445030823
 10
-59.0043096771
 20
46.2016452484
 10
-59.0043096771
 20
46.1302140656
 10
-59.147167511
 20
45.9873562317
 10
-59.218594162
 20
45.9873562317
 10
-59.2900253448
 20
46.0587874146
 10
-59.2900253448
 20
46.1302140656
 10
-59.218594162
 20
46.2730718994
 10
-59.147167511
 20
46.3445030823
 10
-59.0757363281
 20
46.3445030823
  0
LWPOLYLINE
  5
43C
100
AcDbEntity
  8
0
100
AcDbPolyline
 62
7
  6
CONTINUOUS
 90
6
 70
0
 43
0.3500000006
 10
-58.0043093719
 20
45.8445029297
 10
-56.9328824158
 20
45.8445029297
 10
-56.718593399
 20
46.0587874146
 10
-56.718593399
 20
47.1302143707
 10
-57.1471669006
 20
47.5587878723
 10
-57.5757404022
 20
47.5587878723
  0
LWPOLYLINE
  5
43D
100
AcDbEntity
  8
0
100
AcDbPolyline
 62
7
  6
CONTINUOUS
 90
7
 70
0
 43
0.3500000006
 10
-60.5757367859
 20
45.8445029297
 10
-62.0757372437
 20
45.8445029297
 10
-60.5757367859
 20
47.987356842
 10
-60.5757367859
 20
48.4159303436
 10
-61.0043102875
 20
48.8444993134
 10
-61.6471682739
 20
48.8444993134
 10
-62.0757372437
 20
48.2016458588
  0
LWPOLYLINE
  5
43E
100
AcDbEntity
  8
0
100
AcDbPolyline
 62
7
  6
CONTINUOUS
 90
7
 70
0
 43
0.3500000006
 10
-62.932879715
 20
45.8445029297
 10
-64.4328801727
 20
45.8445029297
 10
-62.932879715
 20
47.987356842
 10
-62.932879715
 20
48.4159303436
 10
-63.3614532166
 20
48.8444993134
 10
-64.004311203
 20
48.8444993134
 10
-64.4328801727
 20
48.2016458588
  0
ARC
  5
43F
100
AcDbEntity
  8
DRAFT
100
AcDbCircle
 62
253
  6
CONTINUOUS
 10
-0.1725086419
 20
-170.993056833
 40
159.4922590826
100
AcDbArc
 50
90.2972681896
 51
90.7464543817
  0
ARC
  5
440
100
AcDbEntity
  8
0
100
AcDbCircle
 62
7
  6
CONTINUOUS
 10
-0.018867928
 20
-10.0000264279
 40
0.9811320483
100
AcDbArc
 50
179.4988425685
 51
180.1479750579
  0
ARC
  5
441
100
AcDbEntity
  8
RACCORDO
100
AcDbCircle
 62
253
  6
CONTINUOUS
 10
-32.878271592
 20
-21.3560476477
 40
0.5004157456
100
AcDbArc
 50
180.1276222325
 51
269.9353984027
  0
ARC
  5
442
100
AcDbEntity
  8
0
100
AcDbCircle
 62
7
  6
CONTINUOUS
 10
-26.5
 20
-23.15
 40
0.5
100
AcDbArc
 50
154.1580672368
 51
205.8419327632
  0
ARC
  5
443
100
AcDbEntity
  8
0
100
AcDbCircle
 62
7
  6
CONTINUOUS
 10
-18.5
 20
-23.15
 40
0.5
100
AcDbArc
 50
334.1580672368
 51
25.8419327632
  0
ARC
  5
444
100
AcDbEntity
  8
0
100
AcDbCircle
 62
7
  6
CONTINUOUS
 10
-11.8495502697
 20
-21.9000113415
 40
0.4999888836
100
AcDbArc
 50
269.9456294642
 51
336.4226461915
  0
ARC
  5
445
100
AcDbEntity
  8
0
100
AcDbCircle
 62
7
  6
CONTINUOUS
 10
-33.1504528417
 20
-21.9000167264
 40
0.4999835017
100
AcDbArc
 50
180.0000225334
 51
270.0547276814
  0
ARC
  5
446
100
AcDbEntity
  8
0
100
AcDbCircle
 62
7
  6
CONTINUOUS
 10
-11.8505556502
 20
-21.9005076525
 40
0.4994968435
100
AcDbArc
 50
270.0609006181
 51
336.4604742603
  0
ARC
  5
447
100
AcDbEntity
  8
0
100
AcDbCircle
 62
253
  6
CONTINUOUS
 10
-12.6131051967
 20
-24.2368948033
 40
0.2500066182
100
AcDbArc
 50
270.0024862874
 51
359.9975137126
  0
ARC
  5
448
100
AcDbEntity
  8
0
100
AcDbCircle
 62
253
  6
CONTINUOUS
 10
-14.9868948033
 20
-24.2368948033
 40
0.2500066182
100
AcDbArc
 50
180.0024862874
 51
269.9975137126
  0
ARC
  5
449
100
AcDbEntity
  8
0
100
AcDbCircle
 62
253
  6
CONTINUOUS
 10
-32.3868948038
 20
-24.2368948038
 40
0.2500066177
100
AcDbArc
 50
180.0024861811
 51
269.9975138189
  0
ARC
  5
44A
100
AcDbEntity
  8
0
100
AcDbCircle
 62
253
  6
CONTINUOUS
 10
-30.0131051962
 20
-24.2368948038
 40
0.2500066177
100
AcDbArc
 50
270.0024861811
 51
359.9975138189
  0
ARC
  5
44B
100
AcDbEntity
  8
0
100
AcDbCircle
 62
7
  6
CONTINUOUS
 10
-12.5999946513
 20
-24.2500053487
 40
0.2499946513
100
AcDbArc
 50
269.9997437926
 51
0.0002562074
  0
ARC
  5
44C
100
AcDbEntity
  8
0
100
AcDbCircle
 62
7
  6
CONTINUOUS
 10
-15.0000053487
 20
-24.2500053487
 40
0.2499946513
100
AcDbArc
 50
179.9997437926
 51
270.0002562074
  0
ARC
  5
44D
100
AcDbEntity
  8
0
100
AcDbCircle
 62
7
  6
CONTINUOUS
 10
-32.4000053487
 20
-24.2500053487
 40
0.2499946513
100
AcDbArc
 50
179.9997437926
 51
270.0002562074
  0
ARC
  5
44E
100
AcDbEntity
  8
0
100
AcDbCircle
 62
7
  6
CONTINUOUS
 10
-29.9999946513
 20
-24.2500053487
 40
0.2499946513
100
AcDbArc
 50
269.9997437926
 51
0.0002562074
  0
ARC
  5
44F
100
AcDbEntity
  8
0
100
AcDbCircle
 62
7
  6
CONTINUOUS
 10
-23.6999988192
 20
-23.7982490665
 40
0.1999988152
100
AcDbArc
 50
269.9996617127
 51
359.4995522505
  0
ARC
  5
450
100
AcDbEntity
  8
0
100
AcDbCircle
 62
253
  6
CONTINUOUS
 10
-21.3000011811
 20
-23.7982490669
 40
0.1999988149
100
AcDbArc
 50
180.5004468359
 51
270.0003383609
  0
ARC
  5
451
100
AcDbEntity
  8
0
100
AcDbCircle
 62
7
  6
CONTINUOUS
 10
-21.300117554
 20
-23.7999934169
 40
0.1998824461
100
AcDbArc
 50
180.0009168221
 51
269.999564761
  0
ARC
  5
452
100
AcDbEntity
  8
0
100
AcDbCircle
 62
7
  6
CONTINUOUS
 10
-23.699882446
 20
-23.7999934169
 40
0.1998824461
100
AcDbArc
 50
270.002881872
 51
359.9990831779
  0
ARC
  5
453
100
AcDbEntity
  8
0
100
AcDbCircle
 62
7
  6
CONTINUOUS
 10
-23.6994294463
 20
-23.7982511033
 40
0.1994294463
100
AcDbArc
 50
359.4987086158
 51
359.9999531427
  0
ARC
  5
454
100
AcDbEntity
  8
0
100
AcDbCircle
 62
253
  6
CONTINUOUS
 10
-21.3005729711
 20
-23.7982511029
 40
0.1994270289
100
AcDbArc
 50
180.0000469729
 51
180.5012967611
  0
ARC
  5
455
100
AcDbEntity
  8
RACCORDO
100
AcDbCircle
 62
253
  6
CONTINUOUS
 10
-18909.0073076697
 20
-0.0000000641
 40
18875.6573499156
100
AcDbArc
 50
359.9372049881
 51
0.0627950123
  0
ARC
  5
456
100
AcDbEntity
  8
RACCORDO
100
AcDbCircle
 62
253
  6
CONTINUOUS
 10
-32.8782715901
 20
21.3560476464
 40
0.5004157477
100
AcDbArc
 50
90.0646018528
 51
179.872377541
  0
ARC
  5
457
100
AcDbEntity
  8
0
100
AcDbCircle
 62
7
  6
CONTINUOUS
 10
-11.8495569378
 20
21.9000011555
 40
0.5000001395
100
AcDbArc
 50
23.5781179647
 51
90.0536053219
  0
ARC
  5
458
100
AcDbEntity
  8
0
100
AcDbCircle
 62
7
  6
CONTINUOUS
 10
-18.5
 20
23.15
 40
0.5
100
AcDbArc
 50
334.1580672368
 51
25.8419327632
  0
ARC
  5
459
100
AcDbEntity
  8
0
100
AcDbCircle
 62
7
  6
CONTINUOUS
 10
-26.5
 20
23.15
 40
0.5
100
AcDbArc
 50
154.1580672368
 51
205.8419327632
  0
ARC
  5
45A
100
AcDbEntity
  8
0
100
AcDbCircle
 62
7
  6
CONTINUOUS
 10
-33.1504528417
 20
21.9000167264
 40
0.4999835017
100
AcDbArc
 50
89.9452723311
 51
179.9999774666
  0
ARC
  5
45B
100
AcDbEntity
  8
0
100
AcDbCircle
 62
7
  6
CONTINUOUS
 10
-11.8505557187
 20
21.9005075481
 40
0.4994968435
100
AcDbArc
 50
23.5395335816
 51
89.9390915521
  0
ARC
  5
45C
100
AcDbEntity
  8
0
100
AcDbCircle
 62
253
  6
CONTINUOUS
 10
-12.6131051967
 20
24.2368948033
 40
0.2500066182
100
AcDbArc
 50
0.0024862874
 51
89.9975137126
  0
ARC
  5
45D
100
AcDbEntity
  8
0
100
AcDbCircle
 62
253
  6
CONTINUOUS
 10
-14.9868948038
 20
24.2368948038
 40
0.2500066177
100
AcDbArc
 50
90.0024861811
 51
179.9975138189
  0
ARC
  5
45E
100
AcDbEntity
  8
0
100
AcDbCircle
 62
253
  6
CONTINUOUS
 10
-30.0131051962
 20
24.2368948038
 40
0.2500066177
100
AcDbArc
 50
0.0024861811
 51
89.9975138189
  0
ARC
  5
45F
100
AcDbEntity
  8
0
100
AcDbCircle
 62
253
  6
CONTINUOUS
 10
-32.3868948038
 20
24.2368948038
 40
0.2500066177
100
AcDbArc
 50
90.0024861811
 51
179.9975138189
  0
ARC
  5
460
100
AcDbEntity
  8
0
100
AcDbCircle
 62
7
  6
CONTINUOUS
 10
-12.5999946513
 20
24.2500053487
 40
0.2499946513
100
AcDbArc
 50
359.9997437926
 51
90.0002562074
  0
ARC
  5
461
100
AcDbEntity
  8
0
100
AcDbCircle
 62
7
  6
CONTINUOUS
 10
-15.0000053487
 20
24.2500053487
 40
0.2499946513
100
AcDbArc
 50
89.9997437926
 51
180.0002562074
  0
ARC
  5
462
100
AcDbEntity
  8
0
100
AcDbCircle
 62
7
  6
CONTINUOUS
 10
-29.9999946513
 20
24.2500053487
 40
0.2499946513
100
AcDbArc
 50
359.9997437926
 51
90.0002562074
  0
ARC
  5
463
100
AcDbEntity
  8
0
100
AcDbCircle
 62
7
  6
CONTINUOUS
 10
-32.4000053487
 20
24.2500053487
 40
0.2499946513
100
AcDbArc
 50
89.9997437926
 51
180.0002562074
  0
ARC
  5
464
100
AcDbEntity
  8
0
100
AcDbCircle
 62
7
  6
CONTINUOUS
 10
-21.3000011808
 20
23.7982490665
 40
0.1999988152
100
AcDbArc
 50
89.9996617127
 51
179.4995522505
  0
ARC
  5
465
100
AcDbEntity
  8
0
100
AcDbCircle
 62
253
  6
CONTINUOUS
 10
-23.6999988189
 20
23.7982490669
 40
0.1999988149
100
AcDbArc
 50
0.5004468359
 51
90.0003383609
  0
ARC
  5
466
100
AcDbEntity
  8
0
100
AcDbCircle
 62
7
  6
CONTINUOUS
 10
-21.300117554
 20
23.7999934169
 40
0.1998824461
100
AcDbArc
 50
90.0028818721
 51
179.999083178
  0
ARC
  5
467
100
AcDbEntity
  8
0
100
AcDbCircle
 62
7
  6
CONTINUOUS
 10
-23.699882446
 20
23.7999934169
 40
0.1998824461
100
AcDbArc
 50
0.000916822
 51
89.999564761
  0
ARC
  5
468
100
AcDbEntity
  8
0
100
AcDbCircle
 62
7
  6
CONTINUOUS
 10
-21.3005705535
 20
23.7982511033
 40
0.1994294465
100
AcDbArc
 50
179.4987086163
 51
179.9999531426
  0
ARC
  5
469
100
AcDbEntity
  8
0
100
AcDbCircle
 62
253
  6
CONTINUOUS
 10
-23.6994270289
 20
23.7982511029
 40
0.1994270289
100
AcDbArc
 50
0.0000469729
 51
0.5012967611
  0
ARC
  5
46A
100
AcDbEntity
  8
RACCORDO
100
AcDbCircle
 62
253
  6
CONTINUOUS
 10
-0.0000000386
 20
-27041.2762700013
 40
27019.4397974479
100
AcDbArc
 50
89.9302791246
 51
90.0697208752
  0
ARC
  5
46B
100
AcDbEntity
  8
0
100
AcDbCircle
 62
253
  6
CONTINUOUS
 10
-0.0
 20
-224.4995581341
 40
214.4993287934
100
AcDbArc
 50
89.7328858843
 51
90.2671141143
  0
ARC
  5
46C
100
AcDbEntity
  8
0
100
AcDbCircle
 62
253
  6
CONTINUOUS
 10
-0.0
 20
-198.0232661285
 40
186.5230023868
100
AcDbArc
 50
89.692820439
 51
90.307179561
  0
ARC
  5
46D
100
AcDbEntity
  8
DRAFT
100
AcDbCircle
 62
253
  6
CONTINUOUS
 10
0.1155603289
 20
-177.2453078502
 40
165.7447232255
100
AcDbArc
 50
89.2620180875
 51
89.6942593411
  0
ARC
  5
46E
100
AcDbEntity
  8
0
100
AcDbCircle
 62
253
  6
CONTINUOUS
 10
-0.0
 20
-178.0036294875
 40
165.0033313478
100
AcDbArc
 50
89.6527596487
 51
90.3472403501
  0
ARC
  5
46F
100
AcDbEntity
  8
0
100
AcDbCircle
 62
7
  6
CONTINUOUS
 10
0.004550766
 20
-13.0001927669
 40
1.00455015
100
AcDbArc
 50
180.1788436816
 51
184.6407415028
  0
ARC
  5
470
100
AcDbEntity
  8
0
100
AcDbCircle
 62
7
  6
CONTINUOUS
 10
-0.0000006532
 20
-12.9999654756
 40
1.0000322187
100
AcDbArc
 50
184.674819414
 51
350.9204805545
  0
ARC
  5
471
100
AcDbEntity
  8
DRAFT
100
AcDbCircle
 62
7
  6
CONTINUOUS
 10
0.000000002
 20
-13.0000002487
 40
1.0000000349
100
AcDbArc
 50
179.9958543763
 51
0.004408585
  0
ARC
  5
472
100
AcDbEntity
  8
DRAFT
100
AcDbCircle
 62
7
  6
CONTINUOUS
 10
0.0000000023
 20
-9.9999998972
 40
0.9999999848
100
AcDbArc
 50
0.0003137849
 51
180.000109035
  0
ARC
  5
473
100
AcDbEntity
  8
0
100
AcDbCircle
 62
7
  6
CONTINUOUS
 10
-0.0000002702
 20
-9.9999992762
 40
0.9999987654
100
AcDbArc
 50
0.7775862784
 51
179.5098537434
  0
ARC
  5
474
100
AcDbEntity
  8
0
100
AcDbCircle
 62
7
  6
CONTINUOUS
 10
0.0030536713
 20
-13.0004159573
 40
0.9969450765
100
AcDbArc
 50
350.9183454502
 51
359.8326191395
  0
ARC
  5
475
100
AcDbEntity
  8
0
100
AcDbCircle
 62
7
  6
CONTINUOUS
 10
0.0125840988
 20
-10.0000214159
 40
0.9874158746
100
AcDbArc
 50
359.8526758172
 51
0.7887806737
  0
ARC
  5
476
100
AcDbEntity
  8
RACCORDO
100
AcDbCircle
 62
253
  6
CONTINUOUS
 10
32.8782715928
 20
-21.3560476436
 40
0.5004157477
100
AcDbArc
 50
270.0646015426
 51
359.8723772264
  0
ARC
  5
477
100
AcDbEntity
  8
0
100
AcDbCircle
 62
7
  6
CONTINUOUS
 10
11.8495569311
 20
-21.9000011659
 40
0.5000001395
100
AcDbArc
 50
203.5781171788
 51
270.0536060974
  0
ARC
  5
478
100
AcDbEntity
  8
0
100
AcDbCircle
 62
7
  6
CONTINUOUS
 10
18.5
 20
-23.15
 40
0.5
100
AcDbArc
 50
154.1580672368
 51
205.8419327632
  0
ARC
  5
479
100
AcDbEntity
  8
0
100
AcDbCircle
 62
7
  6
CONTINUOUS
 10
26.5
 20
-23.15
 40
0.5
100
AcDbArc
 50
334.1580672368
 51
25.8419327632
  0
ARC
  5
47A
100
AcDbEntity
  8
0
100
AcDbCircle
 62
7
  6
CONTINUOUS
 10
33.1504528417
 20
-21.9000167264
 40
0.4999835017
100
AcDbArc
 50
269.9452723311
 51
359.9999774666
  0
ARC
  5
47B
100
AcDbEntity
  8
0
100
AcDbCircle
 62
7
  6
CONTINUOUS
 10
11.8505556525
 20
-21.900507654
 40
0.4994968435
100
AcDbArc
 50
203.5395254781
 51
269.939099136
  0
ARC
  5
47C
100
AcDbEntity
  8
0
100
AcDbCircle
 62
253
  6
CONTINUOUS
 10
32.3868948033
 20
-24.2368948033
 40
0.2500066182
100
AcDbArc
 50
270.0024862874
 51
359.9975137126
  0
ARC
  5
47D
100
AcDbEntity
  8
0
100
AcDbCircle
 62
253
  6
CONTINUOUS
 10
30.0131051967
 20
-24.2368948033
 40
0.2500066182
100
AcDbArc
 50
180.0024862874
 51
269.9975137126
  0
ARC
  5
47E
100
AcDbEntity
  8
0
100
AcDbCircle
 62
253
  6
CONTINUOUS
 10
12.6131051962
 20
-24.2368948038
 40
0.2500066177
100
AcDbArc
 50
180.0024861811
 51
269.9975138189
  0
ARC
  5
47F
100
AcDbEntity
  8
0
100
AcDbCircle
 62
253
  6
CONTINUOUS
 10
14.9868948038
 20
-24.2368948038
 40
0.2500066177
100
AcDbArc
 50
270.0024861811
 51
359.9975138189
  0
ARC
  5
480
100
AcDbEntity
  8
0
100
AcDbCircle
 62
7
  6
CONTINUOUS
 10
32.4000053487
 20
-24.2500053487
 40
0.2499946513
100
AcDbArc
 50
269.9997437926
 51
0.0002562074
  0
ARC
  5
481
100
AcDbEntity
  8
0
100
AcDbCircle
 62
7
  6
CONTINUOUS
 10
29.9999946513
 20
-24.2500053487
 40
0.2499946513
100
AcDbArc
 50
179.9997437926
 51
270.0002562074
  0
ARC
  5
482
100
AcDbEntity
  8
0
100
AcDbCircle
 62
7
  6
CONTINUOUS
 10
12.5999946513
 20
-24.2500053487
 40
0.2499946513
100
AcDbArc
 50
179.9997437926
 51
270.0002562074
  0
ARC
  5
483
100
AcDbEntity
  8
0
100
AcDbCircle
 62
7
  6
CONTINUOUS
 10
15.0000053487
 20
-24.2500053487
 40
0.2499946513
100
AcDbArc
 50
269.9997437926
 51
0.0002562074
  0
ARC
  5
484
100
AcDbEntity
  8
0
100
AcDbCircle
 62
7
  6
CONTINUOUS
 10
21.3000011808
 20
-23.7982490665
 40
0.1999988152
100
AcDbArc
 50
269.9996617127
 51
359.4995522505
  0
ARC
  5
485
100
AcDbEntity
  8
0
100
AcDbCircle
 62
253
  6
CONTINUOUS
 10
23.6999988189
 20
-23.7982490669
 40
0.1999988149
100
AcDbArc
 50
180.5004468359
 51
270.0003383609
  0
ARC
  5
486
100
AcDbEntity
  8
0
100
AcDbCircle
 62
7
  6
CONTINUOUS
 10
23.699882446
 20
-23.7999934169
 40
0.1998824461
100
AcDbArc
 50
180.0009168221
 51
269.999564761
  0
ARC
  5
487
100
AcDbEntity
  8
0
100
AcDbCircle
 62
7
  6
CONTINUOUS
 10
21.300117554
 20
-23.7999934169
 40
0.1998824461
100
AcDbArc
 50
270.002881872
 51
359.9990831779
  0
ARC
  5
488
100
AcDbEntity
  8
0
100
AcDbCircle
 62
7
  6
CONTINUOUS
 10
21.3005705537
 20
-23.7982511033
 40
0.1994294463
100
AcDbArc
 50
359.4987086158
 51
359.9999531427
  0
ARC
  5
489
100
AcDbEntity
  8
0
100
AcDbCircle
 62
253
  6
CONTINUOUS
 10
23.6994270287
 20
-23.7982511029
 40
0.1994270287
100
AcDbArc
 50
180.0000469728
 51
180.5012967615
  0
ARC
  5
48A
100
AcDbEntity
  8
RACCORDO
100
AcDbCircle
 62
253
  6
CONTINUOUS
 10
0.0000000534
 20
27041.2761592415
 40
27019.4396866882
100
AcDbArc
 50
269.9302791243
 51
270.0697208755
  0
ARC
  5
48B
100
AcDbEntity
  8
RACCORDO
100
AcDbCircle
 62
253
  6
CONTINUOUS
 10
18909.0073275046
 20
0.0000000625
 40
18875.6573697505
100
AcDbArc
 50
179.9372049882
 51
180.0627950122
  0
ARC
  5
48C
100
AcDbEntity
  8
RACCORDO
100
AcDbCircle
 62
253
  6
CONTINUOUS
 10
32.8782715945
 20
21.3560476448
 40
0.5004157458
100
AcDbArc
 50
0.1276225658
 51
89.9353986942
  0
ARC
  5
48D
100
AcDbEntity
  8
0
100
AcDbCircle
 62
7
  6
CONTINUOUS
 10
26.5
 20
23.15
 40
0.5
100
AcDbArc
 50
334.1580672368
 51
25.8419327632
  0
ARC
  5
48E
100
AcDbEntity
  8
0
100
AcDbCircle
 62
7
  6
CONTINUOUS
 10
18.5
 20
23.15
 40
0.5
100
AcDbArc
 50
154.1580672368
 51
205.8419327632
  0
ARC
  5
48F
100
AcDbEntity
  8
0
100
AcDbCircle
 62
7
  6
CONTINUOUS
 10
11.8495502697
 20
21.9000113415
 40
0.4999888836
100
AcDbArc
 50
89.9456294642
 51
156.4226461914
  0
ARC
  5
490
100
AcDbEntity
  8
0
100
AcDbCircle
 62
7
  6
CONTINUOUS
 10
33.1504528417
 20
21.9000167264
 40
0.4999835017
100
AcDbArc
 50
0.0000225334
 51
90.0547276814
  0
ARC
  5
491
100
AcDbEntity
  8
0
100
AcDbCircle
 62
7
  6
CONTINUOUS
 10
11.850555721
 20
21.9005075496
 40
0.4994968435
100
AcDbArc
 50
90.0609087188
 51
156.4604666798
  0
ARC
  5
492
100
AcDbEntity
  8
0
100
AcDbCircle
 62
253
  6
CONTINUOUS
 10
32.3868948033
 20
24.2368948033
 40
0.2500066182
100
AcDbArc
 50
0.0024862874
 51
89.9975137126
  0
ARC
  5
493
100
AcDbEntity
  8
0
100
AcDbCircle
 62
253
  6
CONTINUOUS
 10
30.0131051962
 20
24.2368948038
 40
0.2500066177
100
AcDbArc
 50
90.0024861811
 51
179.9975138189
  0
ARC
  5
494
100
AcDbEntity
  8
0
100
AcDbCircle
 62
253
  6
CONTINUOUS
 10
14.9868948038
 20
24.2368948038
 40
0.2500066177
100
AcDbArc
 50
0.0024861811
 51
89.9975138189
  0
ARC
  5
495
100
AcDbEntity
  8
0
100
AcDbCircle
 62
253
  6
CONTINUOUS
 10
12.6131051962
 20
24.2368948038
 40
0.2500066177
100
AcDbArc
 50
90.0024861811
 51
179.9975138189
  0
ARC
  5
496
100
AcDbEntity
  8
0
100
AcDbCircle
 62
7
  6
CONTINUOUS
 10
32.4000053487
 20
24.2500053487
 40
0.2499946513
100
AcDbArc
 50
359.9997437926
 51
90.0002562074
  0
ARC
  5
497
100
AcDbEntity
  8
0
100
AcDbCircle
 62
7
  6
CONTINUOUS
 10
29.9999946513
 20
24.2500053487
 40
0.2499946513
100
AcDbArc
 50
89.9997437926
 51
180.0002562074
  0
ARC
  5
498
100
AcDbEntity
  8
0
100
AcDbCircle
 62
7
  6
CONTINUOUS
 10
15.0000053487
 20
24.2500053487
 40
0.2499946513
100
AcDbArc
 50
359.9997437926
 51
90.0002562074
  0
ARC
  5
499
100
AcDbEntity
  8
0
100
AcDbCircle
 62
7
  6
CONTINUOUS
 10
12.5999946513
 20
24.2500053487
 40
0.2499946513
100
AcDbArc
 50
89.9997437926
 51
180.0002562074
  0
ARC
  5
49A
100
AcDbEntity
  8
0
100
AcDbCircle
 62
7
  6
CONTINUOUS
 10
23.6999988192
 20
23.7982490665
 40
0.1999988152
100
AcDbArc
 50
89.9996617127
 51
179.4995522505
  0
ARC
  5
49B
100
AcDbEntity
  8
0
100
AcDbCircle
 62
253
  6
CONTINUOUS
 10
21.3000011811
 20
23.7982490669
 40
0.1999988149
100
AcDbArc
 50
0.5004468359
 51
90.0003383609
  0
ARC
  5
49C
100
AcDbEntity
  8
0
100
AcDbCircle
 62
7
  6
CONTINUOUS
 10
23.699882446
 20
23.7999934169
 40
0.1998824461
100
AcDbArc
 50
90.002881872
 51
179.9990831779
  0
ARC
  5
49D
100
AcDbEntity
  8
0
100
AcDbCircle
 62
7
  6
CONTINUOUS
 10
21.300117554
 20
23.7999934169
 40
0.1998824461
100
AcDbArc
 50
0.0009168221
 51
89.999564761
  0
ARC
  5
49E
100
AcDbEntity
  8
0
100
AcDbCircle
 62
7
  6
CONTINUOUS
 10
23.6994294463
 20
23.7982511033
 40
0.1994294463
100
AcDbArc
 50
179.4987086158
 51
179.9999531427
  0
ARC
  5
49F
100
AcDbEntity
  8
0
100
AcDbCircle
 62
253
  6
CONTINUOUS
 10
21.3005729711
 20
23.7982511029
 40
0.1994270289
100
AcDbArc
 50
0.0000469729
 51
0.5012967611
  0
ARC
  5
4A0
100
AcDbEntity
  8
RACCORDO
100
AcDbCircle
 62
7
  6
CONTINUOUS
 10
-69.1812539879
 20
-20.6578177636
 40
1.2002803877
100
AcDbArc
 50
182.4070951251
 51
267.0104570268
  0
ARC
  5
4A1
100
AcDbEntity
  8
RACCORDO
100
AcDbCircle
 62
7
  6
CONTINUOUS
 10
-69.5627831573
 20
-20.6381158065
 40
1.2
100
AcDbArc
 50
182.9664171381
 51
267.0
  0
ARC
  5
4A2
100
AcDbEntity
  8
0
100
AcDbCircle
 62
7
  6
CONTINUOUS
 10
-49.9971581712
 20
-21.3359869487
 40
1.0
100
AcDbArc
 50
270.3333333333
 51
360.0
  0
ARC
  5
4A3
100
AcDbEntity
  8
RACCORDO
100
AcDbCircle
 62
253
  6
CONTINUOUS
 10
-69.1944058235
 20
-20.6577329297
 40
0.7003569705
100
AcDbArc
 50
182.4223819801
 51
267.0234606625
  0
ARC
  5
4A4
100
AcDbEntity
  8
0
100
AcDbCircle
 62
7
  6
CONTINUOUS
 10
-55.4971581712
 20
-23.4679934743
 40
0.5
100
AcDbArc
 50
270.3333333333
 51
360.0
  0
ARC
  5
4A5
100
AcDbEntity
  8
0
100
AcDbCircle
 62
7
  6
CONTINUOUS
 10
-63.2471581712
 20
-24.2369056521
 40
0.25
100
AcDbArc
 50
180.0
 51
269.6666666667
  0
ARC
  5
4A6
100
AcDbEntity
  8
0
100
AcDbCircle
 62
7
  6
CONTINUOUS
 10
-60.2471581712
 20
-24.2456323968
 40
0.25
100
AcDbArc
 50
270.3333333333
 51
360.0
  0
ARC
  5
4A7
100
AcDbEntity
  8
0
100
AcDbCircle
 62
7
  6
CONTINUOUS
 10
-60.2471581712
 20
-23.8443375673
 40
0.25
100
AcDbArc
 50
0.0
 51
60.0
  0
ARC
  5
4A8
100
AcDbEntity
  8
0
100
AcDbCircle
 62
7
  6
CONTINUOUS
 10
-63.2471581712
 20
-23.8443375673
 40
0.25
100
AcDbArc
 50
120.0
 51
180.0
  0
ARC
  5
4A9
100
AcDbEntity
  8
RACCORDO
100
AcDbCircle
 62
7
  6
CONTINUOUS
 10
-49.1971581712
 20
-19.9942577878
 40
0.2
100
AcDbArc
 50
0.0
 51
89.5
  0
ARC
  5
4AA
100
AcDbEntity
  8
RACCORDO
100
AcDbCircle
 62
7
  6
CONTINUOUS
 10
-49.1971581712
 20
-18.7400415081
 40
0.2
100
AcDbArc
 50
0.0
 51
69.9999998795
  0
ARC
  5
4AB
100
AcDbEntity
  8
RACCORDO
100
AcDbCircle
 62
7
  6
CONTINUOUS
 10
-69.1812539938
 20
20.6578177692
 40
1.2002803872
100
AcDbArc
 50
92.9895432494
 51
177.5929051889
  0
ARC
  5
4AC
100
AcDbEntity
  8
RACCORDO
100
AcDbCircle
 62
7
  6
CONTINUOUS
 10
-69.562783156
 20
20.6381158066
 40
1.2
100
AcDbArc
 50
93.0
 51
177.0335828619
  0
ARC
  5
4AD
100
AcDbEntity
  8
0
100
AcDbCircle
 62
7
  6
CONTINUOUS
 10
-49.9971581712
 20
21.3359869487
 40
1.0
100
AcDbArc
 50
0.0
 51
89.6666666667
  0
ARC
  5
4AE
100
AcDbEntity
  8
RACCORDO
100
AcDbCircle
 62
253
  6
CONTINUOUS
 10
-69.1944058399
 20
20.6577329392
 40
0.7003569598
100
AcDbArc
 50
92.9765389623
 51
177.5776188208
  0
ARC
  5
4AF
100
AcDbEntity
  8
0
100
AcDbCircle
 62
7
  6
CONTINUOUS
 10
-55.4971581712
 20
23.4679934743
 40
0.5
100
AcDbArc
 50
0.0
 51
89.6666666667
  0
ARC
  5
4B0
100
AcDbEntity
  8
0
100
AcDbCircle
 62
7
  6
CONTINUOUS
 10
-63.2471581712
 20
24.2369056521
 40
0.25
100
AcDbArc
 50
90.3333333333
 51
180.0
  0
ARC
  5
4B1
100
AcDbEntity
  8
0
100
AcDbCircle
 62
7
  6
CONTINUOUS
 10
-60.2471581712
 20
24.2456323968
 40
0.25
100
AcDbArc
 50
0.0
 51
89.6666666667
  0
ARC
  5
4B2
100
AcDbEntity
  8
0
100
AcDbCircle
 62
7
  6
CONTINUOUS
 10
-63.2471581712
 20
23.8443375673
 40
0.25
100
AcDbArc
 50
180.0
 51
240.0
  0
ARC
  5
4B3
100
AcDbEntity
  8
0
100
AcDbCircle
 62
7
  6
CONTINUOUS
 10
-60.2471581712
 20
23.8443375673
 40
0.25
100
AcDbArc
 50
300.0
 51
360.0
  0
ARC
  5
4B4
100
AcDbEntity
  8
RACCORDO
100
AcDbCircle
 62
7
  6
CONTINUOUS
 10
-49.1971581712
 20
18.7400415081
 40
0.2
100
AcDbArc
 50
290.0000001205
 51
360.0
  0
ARC
  5
4B5
100
AcDbEntity
  8
RACCORDO
100
AcDbCircle
 62
7
  6
CONTINUOUS
 10
-49.1971581712
 20
19.9942577878
 40
0.2
100
AcDbArc
 50
270.5
 51
360.0
  0
ARC
  5
4B6
100
AcDbEntity
  8
RACCORDO
100
AcDbCircle
 62
253
  6
CONTINUOUS
 10
424.3039542344
 20
0.0000000013
 40
495.1176630525
100
AcDbArc
 50
177.602912679
 51
182.3970873214
  0
ARC
  5
4B7
100
AcDbEntity
  8
RACCORDO
100
AcDbCircle
 62
253
  6
CONTINUOUS
 10
424.1964265656
 20
0.0000000625
 40
494.5234400883
100
AcDbArc
 50
177.602453643
 51
182.3975463716
  0
ARC
  5
4B8
100
AcDbEntity
  8
0
100
AcDbCircle
 62
7
  6
CONTINUOUS
 10
329.0811619024
 20
0.0011344989
 40
400.3760889281
100
AcDbArc
 50
181.6481470853
 51
181.8631732043
  0
ARC
  5
4B9
100
AcDbEntity
  8
0
100
AcDbCircle
 62
7
  6
CONTINUOUS
 10
329.0621243033
 20
0.000587958
 40
400.3570436468
100
AcDbArc
 50
181.4331341836
 51
181.6481472624
  0
LINE
  5
4BA
100
AcDbEntity
  8
0
100
AcDbLine
 62
7
  6
CONTINUOUS
 10
-1.0
 20
-11.5029443954
 11
-0.9999999997
 21
-10.9932895623
  0
LINE
  5
4BB
100
AcDbEntity
  8
0
100
AcDbLine
 62
7
  6
CONTINUOUS
 10
-0.9999999997
 20
-10.9932895623
 11
-1.0000000006
 21
-10.4925136639
  0
LINE
  5
4BC
100
AcDbEntity
  8
0
100
AcDbLine
 62
7
  6
CONTINUOUS
 10
-1.0000000006
 20
-10.4925136639
 11
-0.9999999306
 21
-10.0000018
  0
LINE
  5
4BD
100
AcDbEntity
  8
0
100
AcDbLine
 62
7
  6
CONTINUOUS
 10
-1.0000000803
 20
-12.9999278939
 11
-0.9999999991
 21
-12.5120660881
  0
LINE
  5
4BE
100
AcDbEntity
  8
0
100
AcDbLine
 62
7
  6
CONTINUOUS
 10
-0.9999999991
 20
-12.5120660881
 11
-1.0000000005
 21
-12.0128081903
  0
LINE
  5
4BF
100
AcDbEntity
  8
0
100
AcDbLine
 62
7
  6
CONTINUOUS
 10
-1.0000000005
 20
-12.0128081903
 11
-1.0
 21
-11.5029443954
  0
LINE
  5
4C0
100
AcDbEntity
  8
0
100
AcDbLine
 62
7
  6
CONTINUOUS
 10
1.0
 20
-11.5029443954
 11
1.0000000005
 21
-12.0127471418
  0
LINE
  5
4C1
100
AcDbEntity
  8
0
100
AcDbLine
 62
7
  6
CONTINUOUS
 10
1.0000000005
 20
-12.0127471418
 11
0.9999999991
 21
-12.5120244222
  0
LINE
  5
4C2
100
AcDbEntity
  8
0
100
AcDbLine
 62
7
  6
CONTINUOUS
 10
0.9999999991
 20
-12.5120244222
 11
1.0000000804
 21
-12.9999233043
  0
LINE
  5
4C3
100
AcDbEntity
  8
0
100
AcDbLine
 62
7
  6
CONTINUOUS
 10
0.9999999304
 20
-9.9999944204
 11
1.0000000006
 21
-10.4924321047
  0
LINE
  5
4C4
100
AcDbEntity
  8
0
100
AcDbLine
 62
7
  6
CONTINUOUS
 10
1.0000000006
 20
-10.4924321047
 11
0.9999999997
 21
-10.9932245814
  0
LINE
  5
4C5
100
AcDbEntity
  8
0
100
AcDbLine
 62
7
  6
CONTINUOUS
 10
0.9999999997
 20
-10.9932245814
 11
1.0
 21
-11.5029443954
  0
SPLINE
  5
4C6
100
AcDbEntity
  8
0
100
AcDbSpline
 62
7
  6
CONTINUOUS
 70
0
 71
3
 72
15
 73
11
 74
9
 42
0.0000001
 43
0.0000001
 44
0.0000000001
 12
0.3142908459
 22
0.0
 32
0.0
 13
0.0031667975
 23
0.3142748912
 33
0.0
 40
0.0
 40
0.0
 40
0.0
 40
0.0
 40
0.1666133779
 40
0.3262255844
 40
0.4735308137
 40
0.6056575217
 40
0.7220676483
 40
0.8241942131
 40
0.9152281509
 40
1.0
 40
1.0
 40
1.0
 40
1.0
 10
14.9927234819
 20
23.1226497308
 30
0.0
 10
15.0101785017
 20
23.1226497308
 30
0.0
 10
15.0443856929
 20
23.124909705
 30
0.0
 10
15.0932620946
 20
23.1340775763
 30
0.0
 10
15.1371035061
 20
23.1484769636
 30
0.0
 10
15.1743461767
 20
23.1671011817
 30
0.0
 10
15.2040985049
 20
23.1890111222
 30
0.0
 10
15.2258950298
 20
23.2134107396
 30
0.0
 10
15.2393986841
 20
23.239611024
 30
0.0
 10
15.242629766
 20
23.2581067436
 30
0.0
 10
15.2427192511
 20
23.2669872981
 30
0.0
 11
14.9927234819
 21
23.1226497308
 31
0.0
 11
15.0449802175
 21
23.126016189
 31
0.0
 11
15.0942534457
 21
23.1354311576
 31
0.0
 11
15.1381709782
 21
23.1500815293
 31
0.0
 11
15.1751759211
 21
23.1689245842
 31
0.0
 11
15.2044151803
 21
23.1909165769
 31
0.0
 11
15.2254977136
 21
23.215119319
 31
0.0
 11
15.2382790097
 21
23.2407168857
 31
0.0
 11
15.2427192511
 21
23.2669872981
 31
0.0
  0
SPLINE
  5
4C7
100
AcDbEntity
  8
0
100
AcDbSpline
 62
253
  6
CONTINUOUS
 70
0
 71
3
 72
13
 73
9
 74
7
 42
0.0000001
 43
0.0000001
 44
0.0000000001
 12
0.0012265944
 22
-0.3651869709
 32
0.0
 13
0.3651878721
 23
-0.0009199792
 33
0.0
 40
0.0
 40
0.0
 40
0.0
 40
0.0
 40
0.1162394899
 40
0.2339784923
 40
0.3543712679
 40
0.4780982409
 40
0.7345378657
 40
1.0
 40
1.0
 40
1.0
 40
1.0
 10
12.3630985787
 20
23.8443375673
 30
0.0
 10
12.363146105
 20
23.8301878516
 30
0.0
 10
12.3665046396
 20
23.8016148337
 30
0.0
 10
12.3810612265
 20
23.7606544968
 30
0.0
 10
12.4045320998
 20
23.7229827139
 30
0.0
 10
12.4468348266
 20
23.6786209789
 30
0.0
 10
12.5167610945
 20
23.6387867994
 30
0.0
 10
12.5807798306
 20
23.6279126229
 30
0.0
 10
12.6130943479
 20
23.6278312164
 30
0.0
 11
12.3630985787
 21
23.8443375673
 31
0.0
 11
12.3680263068
 21
23.8021751679
 31
0.0
 11
12.3823368095
 21
23.7616295042
 31
0.0
 11
12.4054824773
 21
23.7242490565
 31
0.0
 11
12.4365773793
 21
23.6914667926
 31
0.0
 11
12.5175929316
 21
23.6444922901
 31
0.0
 11
12.6130943479
 21
23.6278312164
 31
0.0
  0
SPLINE
  5
4C8
100
AcDbEntity
  8
0
100
AcDbSpline
 62
7
  6
CONTINUOUS
 70
0
 71
3
 72
15
 73
11
 74
9
 42
0.0000001
 43
0.0000001
 44
0.0000000001
 12
0.0031741039
 22
-0.3149999784
 32
0.0
 13
0.3150159699
 23
0.0
 33
0.0
 40
0.0
 40
0.0
 40
0.0
 40
0.0
 40
0.0847246382
 40
0.1757279367
 40
0.2778501555
 40
0.3942839058
 40
0.5264550939
 40
0.6738071548
 40
0.8334364544
 40
1.0
 40
1.0
 40
1.0
 40
1.0
 10
12.3572807489
 20
23.2669872981
 30
0.0
 10
12.3573703905
 20
23.2580912117
 30
0.0
 10
12.3606131795
 20
23.2395608029
 30
0.0
 10
12.3741645701
 20
23.2133174142
 30
0.0
 10
12.396036015
 20
23.1888844894
 30
0.0
 10
12.425888076
 20
23.1669547435
 30
0.0
 10
12.463250807
 20
23.1483274499
 30
0.0
 10
12.5072234122
 20
23.133953471
 30
0.0
 10
12.5562269929
 20
23.1248150691
 30
0.0
 10
12.5905136879
 20
23.1226497308
 30
0.0
 10
12.6080037468
 20
23.1226497308
 30
0.0
 11
12.3572807489
 21
23.2669872981
 31
0.0
 11
12.3617358026
 21
23.2406721314
 31
0.0
 11
12.3745605835
 21
23.2150332915
 31
0.0
 11
12.3957149112
 21
23.1907967144
 31
0.0
 11
12.4250527761
 21
23.1687830511
 31
0.0
 11
12.4621789369
 21
23.1499360992
 31
0.0
 11
12.5062311591
 21
23.1353054509
 31
0.0
 11
12.5556366974
 21
23.1259378303
 31
0.0
 11
12.6080037468
 21
23.1226497308
 31
0.0
  0
SPLINE
  5
4C9
100
AcDbEntity
  8
0
100
AcDbSpline
 62
253
  6
CONTINUOUS
 70
0
 71
3
 72
13
 73
9
 74
7
 42
0.0000001
 43
0.0000001
 44
0.0000000001
 12
-0.0012265944
 22
-0.3651869708
 32
0.0
 13
-0.3651878719
 23
-0.0009199792
 33
0.0
 40
0.0
 40
0.0
 40
0.0
 40
0.0
 40
0.1162394861
 40
0.2339784844
 40
0.3543712552
 40
0.4780982232
 40
0.7345378384
 40
1.0
 40
1.0
 40
1.0
 40
1.0
 10
15.2369014213
 20
23.8443375673
 30
0.0
 10
15.2368538951
 20
23.830187852
 30
0.0
 10
15.2334953606
 20
23.8016148352
 30
0.0
 10
15.2189387749
 20
23.7606544996
 30
0.0
 10
15.1954679029
 20
23.7229827179
 30
0.0
 10
15.1531651791
 20
23.6786209833
 30
0.0
 10
15.083238911
 20
23.6387868014
 30
0.0
 10
15.0192201727
 20
23.6279126229
 30
0.0
 10
14.9869056521
 20
23.6278312164
 30
0.0
 11
15.2369014213
 21
23.8443375673
 31
0.0
 11
15.2319736935
 21
23.8021751692
 31
0.0
 11
15.2176631919
 21
23.7616295068
 31
0.0
 11
15.1945175256
 21
23.7242490603
 31
0.0
 11
15.1634226257
 21
23.6914667969
 31
0.0
 11
15.0824070779
 21
23.6444922937
 31
0.0
 11
14.9869056521
 21
23.6278312164
 31
0.0
  0
SPLINE
  5
4CA
100
AcDbEntity
  8
0
100
AcDbSpline
 62
253
  6
CONTINUOUS
 70
0
 71
3
 72
13
 73
9
 74
7
 42
0.0000001
 43
0.0000001
 44
0.0000000001
 12
0.0012265944
 22
-0.3651869708
 32
0.0
 13
0.3651878719
 23
-0.0009199792
 33
0.0
 40
0.0
 40
0.0
 40
0.0
 40
0.0
 40
0.1162394861
 40
0.2339784844
 40
0.3543712552
 40
0.4780982232
 40
0.7345378384
 40
1.0
 40
1.0
 40
1.0
 40
1.0
 10
29.7630985787
 20
23.8443375673
 30
0.0
 10
29.7631461049
 20
23.830187852
 30
0.0
 10
29.7665046394
 20
23.8016148352
 30
0.0
 10
29.7810612251
 20
23.7606544996
 30
0.0
 10
29.8045320971
 20
23.7229827179
 30
0.0
 10
29.8468348209
 20
23.6786209833
 30
0.0
 10
29.916761089
 20
23.6387868014
 30
0.0
 10
29.9807798273
 20
23.6279126229
 30
0.0
 10
30.0130943479
 20
23.6278312164
 30
0.0
 11
29.7630985787
 21
23.8443375673
 31
0.0
 11
29.7680263065
 21
23.8021751692
 31
0.0
 11
29.7823368081
 21
23.7616295068
 31
0.0
 11
29.8054824744
 21
23.7242490603
 31
0.0
 11
29.8365773743
 21
23.6914667969
 31
0.0
 11
29.9175929221
 21
23.6444922937
 31
0.0
 11
30.0130943479
 21
23.6278312164
 31
0.0
  0
SPLINE
  5
4CB
100
AcDbEntity
  8
0
100
AcDbSpline
 62
7
  6
CONTINUOUS
 70
0
 71
3
 72
15
 73
11
 74
9
 42
0.0000001
 43
0.0000001
 44
0.0000000001
 12
0.0031741039
 22
-0.3149999784
 32
0.0
 13
0.3150159699
 23
0.0
 33
0.0
 40
0.0
 40
0.0
 40
0.0
 40
0.0
 40
0.0847246382
 40
0.1757279367
 40
0.2778501555
 40
0.3942839058
 40
0.5264550939
 40
0.6738071548
 40
0.8334364544
 40
1.0
 40
1.0
 40
1.0
 40
1.0
 10
29.7572807489
 20
23.2669872981
 30
0.0
 10
29.7573703905
 20
23.2580912117
 30
0.0
 10
29.7606131795
 20
23.2395608029
 30
0.0
 10
29.7741645701
 20
23.2133174142
 30
0.0
 10
29.796036015
 20
23.1888844894
 30
0.0
 10
29.825888076
 20
23.1669547435
 30
0.0
 10
29.863250807
 20
23.1483274499
 30
0.0
 10
29.9072234122
 20
23.133953471
 30
0.0
 10
29.9562269929
 20
23.1248150691
 30
0.0
 10
29.9905136879
 20
23.1226497308
 30
0.0
 10
30.0080037468
 20
23.1226497308
 30
0.0
 11
29.7572807489
 21
23.2669872981
 31
0.0
 11
29.7617358026
 21
23.2406721314
 31
0.0
 11
29.7745605835
 21
23.2150332915
 31
0.0
 11
29.7957149112
 21
23.1907967144
 31
0.0
 11
29.8250527761
 21
23.1687830511
 31
0.0
 11
29.8621789369
 21
23.1499360992
 31
0.0
 11
29.9062311591
 21
23.1353054509
 31
0.0
 11
29.9556366974
 21
23.1259378303
 31
0.0
 11
30.0080037468
 21
23.1226497308
 31
0.0
  0
SPLINE
  5
4CC
100
AcDbEntity
  8
0
100
AcDbSpline
 62
7
  6
CONTINUOUS
 70
0
 71
3
 72
15
 73
11
 74
9
 42
0.0000001
 43
0.0000001
 44
0.0000000001
 12
-0.0031741039
 22
-0.3149999784
 32
0.0
 13
-0.3150159699
 23
0.0
 33
0.0
 40
0.0
 40
0.0
 40
0.0
 40
0.0
 40
0.0847246382
 40
0.1757279367
 40
0.2778501555
 40
0.3942839058
 40
0.5264550939
 40
0.6738071548
 40
0.8334364544
 40
1.0
 40
1.0
 40
1.0
 40
1.0
 10
32.6427192511
 20
23.2669872981
 30
0.0
 10
32.6426296095
 20
23.2580912117
 30
0.0
 10
32.6393868205
 20
23.2395608029
 30
0.0
 10
32.6258354299
 20
23.2133174142
 30
0.0
 10
32.603963985
 20
23.1888844894
 30
0.0
 10
32.574111924
 20
23.1669547435
 30
0.0
 10
32.536749193
 20
23.1483274499
 30
0.0
 10
32.4927765878
 20
23.133953471
 30
0.0
 10
32.4437730071
 20
23.1248150691
 30
0.0
 10
32.4094863121
 20
23.1226497308
 30
0.0
 10
32.3919962532
 20
23.1226497308
 30
0.0
 11
32.6427192511
 21
23.2669872981
 31
0.0
 11
32.6382641974
 21
23.2406721314
 31
0.0
 11
32.6254394165
 21
23.2150332915
 31
0.0
 11
32.6042850888
 21
23.1907967144
 31
0.0
 11
32.5749472239
 21
23.1687830511
 31
0.0
 11
32.5378210631
 21
23.1499360992
 31
0.0
 11
32.4937688409
 21
23.1353054509
 31
0.0
 11
32.4443633026
 21
23.1259378303
 31
0.0
 11
32.3919962532
 21
23.1226497308
 31
0.0
  0
SPLINE
  5
4CD
100
AcDbEntity
  8
0
100
AcDbSpline
 62
253
  6
CONTINUOUS
 70
0
 71
3
 72
13
 73
9
 74
7
 42
0.0000001
 43
0.0000001
 44
0.0000000001
 12
-0.0012265943
 22
-0.3651869702
 32
0.0
 13
-0.3651878714
 23
-0.0009199792
 33
0.0
 40
0.0
 40
0.0
 40
0.0
 40
0.0
 40
0.1162393822
 40
0.2339783947
 40
0.3543711753
 40
0.4780981573
 40
0.7345378061
 40
1.0
 40
1.0
 40
1.0
 40
1.0
 10
32.6369014213
 20
23.8443375673
 30
0.0
 10
32.6368538951
 20
23.8301878647
 30
0.0
 10
32.6334953621
 20
23.8016148597
 30
0.0
 10
32.6189387922
 20
23.7606545287
 30
0.0
 10
32.59546792
 20
23.7229827412
 30
0.0
 10
32.5531651981
 20
23.6786209956
 30
0.0
 10
32.4832389227
 20
23.6387868046
 30
0.0
 10
32.4192201766
 20
23.6279126229
 30
0.0
 10
32.3869056521
 20
23.6278312164
 30
0.0
 11
32.6369014213
 21
23.8443375673
 31
0.0
 11
32.6319737009
 21
23.8021752067
 31
0.0
 11
32.617663207
 21
23.761629536
 31
0.0
 11
32.5945175433
 21
23.7242490838
 31
0.0
 11
32.563422644
 21
23.6914668129
 31
0.0
 11
32.482407089
 21
23.644492298
 31
0.0
 11
32.3869056521
 21
23.6278312164
 31
0.0
  0
SPLINE
  5
4CE
100
AcDbEntity
  8
0
100
AcDbSpline
 62
253
  6
CONTINUOUS
 70
0
 71
3
 72
13
 73
9
 74
7
 42
0.0000001
 43
0.0000001
 44
0.0000000001
 12
-0.0012265944
 22
0.3651869708
 32
0.0
 13
-0.3651878719
 23
0.0009199792
 33
0.0
 40
0.0
 40
0.0
 40
0.0
 40
0.0
 40
0.1162394861
 40
0.2339784844
 40
0.3543712552
 40
0.4780982232
 40
0.7345378384
 40
1.0
 40
1.0
 40
1.0
 40
1.0
 10
32.6369014213
 20
-23.8443375673
 30
0.0
 10
32.6368538951
 20
-23.830187852
 30
0.0
 10
32.6334953606
 20
-23.8016148352
 30
0.0
 10
32.6189387749
 20
-23.7606544996
 30
0.0
 10
32.5954679029
 20
-23.7229827179
 30
0.0
 10
32.5531651791
 20
-23.6786209833
 30
0.0
 10
32.483238911
 20
-23.6387868014
 30
0.0
 10
32.4192201727
 20
-23.6279126229
 30
0.0
 10
32.3869056521
 20
-23.6278312164
 30
0.0
 11
32.6369014213
 21
-23.8443375673
 31
0.0
 11
32.6319736935
 21
-23.8021751692
 31
0.0
 11
32.6176631919
 21
-23.7616295068
 31
0.0
 11
32.5945175256
 21
-23.7242490603
 31
0.0
 11
32.5634226257
 21
-23.6914667969
 31
0.0
 11
32.4824070779
 21
-23.6444922937
 31
0.0
 11
32.3869056521
 21
-23.6278312164
 31
0.0
  0
SPLINE
  5
4CF
100
AcDbEntity
  8
0
100
AcDbSpline
 62
7
  6
CONTINUOUS
 70
0
 71
3
 72
15
 73
11
 74
9
 42
0.0000001
 43
0.0000001
 44
0.0000000001
 12
-0.0031741039
 22
0.3149999784
 32
0.0
 13
-0.3150159699
 23
0.0
 33
0.0
 40
0.0
 40
0.0
 40
0.0
 40
0.0
 40
0.0847246382
 40
0.1757279367
 40
0.2778501555
 40
0.3942839058
 40
0.5264550939
 40
0.6738071548
 40
0.8334364544
 40
1.0
 40
1.0
 40
1.0
 40
1.0
 10
32.6427192511
 20
-23.2669872981
 30
0.0
 10
32.6426296095
 20
-23.2580912117
 30
0.0
 10
32.6393868205
 20
-23.2395608029
 30
0.0
 10
32.6258354299
 20
-23.2133174142
 30
0.0
 10
32.603963985
 20
-23.1888844894
 30
0.0
 10
32.574111924
 20
-23.1669547435
 30
0.0
 10
32.536749193
 20
-23.1483274499
 30
0.0
 10
32.4927765878
 20
-23.133953471
 30
0.0
 10
32.4437730071
 20
-23.1248150691
 30
0.0
 10
32.4094863121
 20
-23.1226497308
 30
0.0
 10
32.3919962532
 20
-23.1226497308
 30
0.0
 11
32.6427192511
 21
-23.2669872981
 31
0.0
 11
32.6382641974
 21
-23.2406721314
 31
0.0
 11
32.6254394165
 21
-23.2150332915
 31
0.0
 11
32.6042850888
 21
-23.1907967144
 31
0.0
 11
32.5749472239
 21
-23.1687830511
 31
0.0
 11
32.5378210631
 21
-23.1499360992
 31
0.0
 11
32.4937688409
 21
-23.1353054509
 31
0.0
 11
32.4443633026
 21
-23.1259378303
 31
0.0
 11
32.3919962532
 21
-23.1226497308
 31
0.0
  0
SPLINE
  5
4D0
100
AcDbEntity
  8
0
100
AcDbSpline
 62
7
  6
CONTINUOUS
 70
0
 71
3
 72
15
 73
11
 74
9
 42
0.0000001
 43
0.0000001
 44
0.0000000001
 12
0.0031741039
 22
0.3149999784
 32
0.0
 13
0.3150159699
 23
-0.0
 33
0.0
 40
0.0
 40
0.0
 40
0.0
 40
0.0
 40
0.0847246382
 40
0.1757279367
 40
0.2778501555
 40
0.3942839058
 40
0.5264550939
 40
0.6738071548
 40
0.8334364544
 40
1.0
 40
1.0
 40
1.0
 40
1.0
 10
29.7572807489
 20
-23.2669872981
 30
0.0
 10
29.7573703905
 20
-23.2580912117
 30
0.0
 10
29.7606131795
 20
-23.2395608029
 30
0.0
 10
29.7741645701
 20
-23.2133174142
 30
0.0
 10
29.796036015
 20
-23.1888844894
 30
0.0
 10
29.825888076
 20
-23.1669547435
 30
0.0
 10
29.863250807
 20
-23.1483274499
 30
0.0
 10
29.9072234122
 20
-23.133953471
 30
0.0
 10
29.9562269929
 20
-23.1248150691
 30
0.0
 10
29.9905136879
 20
-23.1226497308
 30
0.0
 10
30.0080037468
 20
-23.1226497308
 30
0.0
 11
29.7572807489
 21
-23.2669872981
 31
0.0
 11
29.7617358026
 21
-23.2406721314
 31
0.0
 11
29.7745605835
 21
-23.2150332915
 31
0.0
 11
29.7957149112
 21
-23.1907967144
 31
0.0
 11
29.8250527761
 21
-23.1687830511
 31
0.0
 11
29.8621789369
 21
-23.1499360992
 31
0.0
 11
29.9062311591
 21
-23.1353054509
 31
0.0
 11
29.9556366974
 21
-23.1259378303
 31
0.0
 11
30.0080037468
 21
-23.1226497308
 31
0.0
  0
SPLINE
  5
4D1
100
AcDbEntity
  8
0
100
AcDbSpline
 62
253
  6
CONTINUOUS
 70
0
 71
3
 72
13
 73
9
 74
7
 42
0.0000001
 43
0.0000001
 44
0.0000000001
 12
0.0012265943
 22
0.3651869702
 32
0.0
 13
0.3651878714
 23
0.0009199792
 33
0.0
 40
0.0
 40
0.0
 40
0.0
 40
0.0
 40
0.1162393822
 40
0.2339783947
 40
0.3543711753
 40
0.4780981573
 40
0.7345378061
 40
1.0
 40
1.0
 40
1.0
 40
1.0
 10
29.7630985787
 20
-23.8443375673
 30
0.0
 10
29.7631461049
 20
-23.8301878647
 30
0.0
 10
29.7665046379
 20
-23.8016148597
 30
0.0
 10
29.7810612078
 20
-23.7606545287
 30
0.0
 10
29.80453208
 20
-23.7229827412
 30
0.0
 10
29.8468348019
 20
-23.6786209956
 30
0.0
 10
29.9167610773
 20
-23.6387868046
 30
0.0
 10
29.9807798234
 20
-23.6279126229
 30
0.0
 10
30.0130943479
 20
-23.6278312164
 30
0.0
 11
29.7630985787
 21
-23.8443375673
 31
0.0
 11
29.7680262991
 21
-23.8021752067
 31
0.0
 11
29.782336793
 21
-23.761629536
 31
0.0
 11
29.8054824567
 21
-23.7242490838
 31
0.0
 11
29.836577356
 21
-23.6914668129
 31
0.0
 11
29.917592911
 21
-23.644492298
 31
0.0
 11
30.0130943479
 21
-23.6278312164
 31
0.0
  0
SPLINE
  5
4D2
100
AcDbEntity
  8
0
100
AcDbSpline
 62
253
  6
CONTINUOUS
 70
0
 71
3
 72
13
 73
9
 74
7
 42
0.0000001
 43
0.0000001
 44
0.0000000001
 12
-0.0012265944
 22
0.3651869708
 32
0.0
 13
-0.3651878719
 23
0.0009199792
 33
0.0
 40
0.0
 40
0.0
 40
0.0
 40
0.0
 40
0.1162394861
 40
0.2339784844
 40
0.3543712552
 40
0.4780982232
 40
0.7345378384
 40
1.0
 40
1.0
 40
1.0
 40
1.0
 10
15.2369014213
 20
-23.8443375673
 30
0.0
 10
15.2368538951
 20
-23.830187852
 30
0.0
 10
15.2334953606
 20
-23.8016148352
 30
0.0
 10
15.2189387749
 20
-23.7606544996
 30
0.0
 10
15.1954679029
 20
-23.7229827179
 30
0.0
 10
15.1531651791
 20
-23.6786209833
 30
0.0
 10
15.083238911
 20
-23.6387868014
 30
0.0
 10
15.0192201727
 20
-23.6279126229
 30
0.0
 10
14.9869056521
 20
-23.6278312164
 30
0.0
 11
15.2369014213
 21
-23.8443375673
 31
0.0
 11
15.2319736935
 21
-23.8021751692
 31
0.0
 11
15.2176631919
 21
-23.7616295068
 31
0.0
 11
15.1945175256
 21
-23.7242490603
 31
0.0
 11
15.1634226257
 21
-23.6914667969
 31
0.0
 11
15.0824070779
 21
-23.6444922937
 31
0.0
 11
14.9869056521
 21
-23.6278312164
 31
0.0
  0
SPLINE
  5
4D3
100
AcDbEntity
  8
0
100
AcDbSpline
 62
7
  6
CONTINUOUS
 70
0
 71
3
 72
15
 73
11
 74
9
 42
0.0000001
 43
0.0000001
 44
0.0000000001
 12
-0.0031741039
 22
0.3149999784
 32
0.0
 13
-0.3150159699
 23
0.0
 33
0.0
 40
0.0
 40
0.0
 40
0.0
 40
0.0
 40
0.0847246382
 40
0.1757279367
 40
0.2778501555
 40
0.3942839058
 40
0.5264550939
 40
0.6738071548
 40
0.8334364544
 40
1.0
 40
1.0
 40
1.0
 40
1.0
 10
15.2427192511
 20
-23.2669872981
 30
0.0
 10
15.2426296095
 20
-23.2580912117
 30
0.0
 10
15.2393868205
 20
-23.2395608029
 30
0.0
 10
15.2258354299
 20
-23.2133174142
 30
0.0
 10
15.203963985
 20
-23.1888844894
 30
0.0
 10
15.174111924
 20
-23.1669547435
 30
0.0
 10
15.136749193
 20
-23.1483274499
 30
0.0
 10
15.0927765878
 20
-23.133953471
 30
0.0
 10
15.0437730071
 20
-23.1248150691
 30
0.0
 10
15.0094863121
 20
-23.1226497308
 30
0.0
 10
14.9919962532
 20
-23.1226497308
 30
0.0
 11
15.2427192511
 21
-23.2669872981
 31
0.0
 11
15.2382641974
 21
-23.2406721314
 31
0.0
 11
15.2254394165
 21
-23.2150332915
 31
0.0
 11
15.2042850888
 21
-23.1907967144
 31
0.0
 11
15.1749472239
 21
-23.1687830511
 31
0.0
 11
15.1378210631
 21
-23.1499360992
 31
0.0
 11
15.0937688409
 21
-23.1353054509
 31
0.0
 11
15.0443633026
 21
-23.1259378303
 31
0.0
 11
14.9919962532
 21
-23.1226497308
 31
0.0
  0
SPLINE
  5
4D4
100
AcDbEntity
  8
0
100
AcDbSpline
 62
7
  6
CONTINUOUS
 70
0
 71
3
 72
15
 73
11
 74
9
 42
0.0000001
 43
0.0000001
 44
0.0000000001
 12
-0.3142908459
 22
0.0
 32
0.0
 13
-0.0031667975
 23
-0.3142748912
 33
0.0
 40
0.0
 40
0.0
 40
0.0
 40
0.0
 40
0.1666133779
 40
0.3262255844
 40
0.4735308137
 40
0.6056575217
 40
0.7220676483
 40
0.8241942131
 40
0.9152281509
 40
1.0
 40
1.0
 40
1.0
 40
1.0
 10
12.6072765181
 20
-23.1226497308
 30
0.0
 10
12.5898214983
 20
-23.1226497308
 30
0.0
 10
12.5556143071
 20
-23.124909705
 30
0.0
 10
12.5067379054
 20
-23.1340775763
 30
0.0
 10
12.4628964939
 20
-23.1484769636
 30
0.0
 10
12.4256538233
 20
-23.1671011817
 30
0.0
 10
12.3959014951
 20
-23.1890111222
 30
0.0
 10
12.3741049702
 20
-23.2134107396
 30
0.0
 10
12.3606013159
 20
-23.239611024
 30
0.0
 10
12.357370234
 20
-23.2581067436
 30
0.0
 10
12.3572807489
 20
-23.2669872981
 30
0.0
 11
12.6072765181
 21
-23.1226497308
 31
0.0
 11
12.5550197825
 21
-23.126016189
 31
0.0
 11
12.5057465543
 21
-23.1354311576
 31
0.0
 11
12.4618290218
 21
-23.1500815293
 31
0.0
 11
12.4248240789
 21
-23.1689245842
 31
0.0
 11
12.3955848197
 21
-23.1909165769
 31
0.0
 11
12.3745022864
 21
-23.215119319
 31
0.0
 11
12.3617209903
 21
-23.2407168857
 31
0.0
 11
12.3572807489
 21
-23.2669872981
 31
0.0
  0
SPLINE
  5
4D5
100
AcDbEntity
  8
0
100
AcDbSpline
 62
253
  6
CONTINUOUS
 70
0
 71
3
 72
13
 73
9
 74
7
 42
0.0000001
 43
0.0000001
 44
0.0000000001
 12
0.0012265944
 22
0.3651869708
 32
0.0
 13
0.3651878719
 23
0.0009199792
 33
0.0
 40
0.0
 40
0.0
 40
0.0
 40
0.0
 40
0.1162394861
 40
0.2339784844
 40
0.3543712552
 40
0.4780982232
 40
0.7345378384
 40
1.0
 40
1.0
 40
1.0
 40
1.0
 10
12.3630985787
 20
-23.8443375673
 30
0.0
 10
12.3631461049
 20
-23.830187852
 30
0.0
 10
12.3665046394
 20
-23.8016148352
 30
0.0
 10
12.3810612251
 20
-23.7606544996
 30
0.0
 10
12.4045320971
 20
-23.7229827179
 30
0.0
 10
12.4468348209
 20
-23.6786209833
 30
0.0
 10
12.516761089
 20
-23.6387868014
 30
0.0
 10
12.5807798273
 20
-23.6279126229
 30
0.0
 10
12.6130943479
 20
-23.6278312164
 30
0.0
 11
12.3630985787
 21
-23.8443375673
 31
0.0
 11
12.3680263065
 21
-23.8021751692
 31
0.0
 11
12.3823368081
 21
-23.7616295068
 31
0.0
 11
12.4054824744
 21
-23.7242490603
 31
0.0
 11
12.4365773743
 21
-23.6914667969
 31
0.0
 11
12.5175929221
 21
-23.6444922937
 31
0.0
 11
12.6130943479
 21
-23.6278312164
 31
0.0
  0
SPLINE
  5
4D6
100
AcDbEntity
  8
0
100
AcDbSpline
 62
7
  6
CONTINUOUS
 70
0
 71
3
 72
15
 73
11
 74
9
 42
0.0000001
 43
0.0000001
 44
0.0000000001
 12
0.0
 22
-0.7835849489
 32
0.0
 13
-0.7835849489
 23
-0.0
 33
0.0
 40
0.0
 40
0.0
 40
0.0
 40
0.0
 40
0.1250016995
 40
0.2500015929
 40
0.3750019934
 40
0.5000021438
 40
0.6250020315
 40
0.7500016142
 40
0.8750001245
 40
1.0
 40
1.0
 40
1.0
 40
1.0
 10
33.6491272468
 20
-21.8997711479
 30
0.0
 10
33.6491272468
 20
-21.9324209647
 30
0.0
 10
33.6427071378
 20
-21.9979001651
 30
0.0
 10
33.6141710301
 20
-22.0922261856
 30
0.0
 10
33.5678061813
 20
-22.1792278759
 30
0.0
 10
33.505372633
 20
-22.2555146988
 30
0.0
 10
33.4292585201
 20
-22.3181579234
 30
0.0
 10
33.3423705113
 20
-22.3647451103
 30
0.0
 10
33.2480978538
 20
-22.3934475677
 30
0.0
 10
33.1826246089
 20
-22.4
 30
0.0
 10
33.1499752685
 20
-22.4
 30
0.0
 11
33.6491272468
 21
-21.8997711479
 31
0.0
 11
33.6395560502
 21
-21.9972518487
 31
0.0
 11
33.6111996043
 21
-22.0910054062
 31
0.0
 11
33.5651280255
 21
-22.1774421175
 31
0.0
 11
33.503092465
 21
-22.2532408395
 31
0.0
 11
33.4274627432
 21
-22.3154819984
 31
0.0
 11
33.3411394798
 21
-22.3617644365
 31
0.0
 11
33.2474419862
 21
-22.3903018677
 31
0.0
 11
33.1499752685
 21
-22.4
 31
0.0
  0
SPLINE
  5
4D7
100
AcDbEntity
  8
0
100
AcDbSpline
 62
7
  6
CONTINUOUS
 70
0
 71
3
 72
15
 73
11
 74
9
 42
0.0000001
 43
0.0000001
 44
0.0000000001
 12
0.783584949
 22
0.0
 32
0.0
 13
-0.0
 23
-0.783584949
 33
0.0
 40
0.0
 40
0.0
 40
0.0
 40
0.0
 40
0.1249998755
 40
0.2499983858
 40
0.3749979685
 40
0.4999978562
 40
0.6249980066
 40
0.7499984071
 40
0.8749983005
 40
1.0
 40
1.0
 40
1.0
 40
1.0
 10
33.1499752684
 20
22.4
 30
0.0
 10
33.1826246088
 20
22.4
 30
0.0
 10
33.2480978538
 20
22.3934475677
 30
0.0
 10
33.3423705112
 20
22.3647451103
 30
0.0
 10
33.4292585201
 20
22.3181579234
 30
0.0
 10
33.505372633
 20
22.2555146988
 30
0.0
 10
33.5678061812
 20
22.1792278759
 30
0.0
 10
33.6141710301
 20
22.0922261856
 30
0.0
 10
33.6427071378
 20
21.9979001651
 30
0.0
 10
33.6491272468
 20
21.9324209647
 30
0.0
 10
33.6491272468
 20
21.8997711479
 30
0.0
 11
33.1499752684
 21
22.4
 31
0.0
 11
33.2474419861
 21
22.3903018677
 31
0.0
 11
33.3411394797
 21
22.3617644365
 31
0.0
 11
33.4274627432
 21
22.3154819985
 31
0.0
 11
33.503092465
 21
22.2532408395
 31
0.0
 11
33.5651280255
 21
22.1774421175
 31
0.0
 11
33.6111996043
 21
22.0910054062
 31
0.0
 11
33.6395560502
 21
21.9972518487
 31
0.0
 11
33.6491272468
 21
21.8997711479
 31
0.0
  0
SPLINE
  5
4D8
100
AcDbEntity
  8
0
100
AcDbSpline
 62
7
  6
CONTINUOUS
 70
0
 71
3
 72
15
 73
11
 74
9
 42
0.0000001
 43
0.0000001
 44
0.0000000001
 12
0.3142908459
 22
0.0
 32
0.0
 13
0.0031667975
 23
0.3142748912
 33
0.0
 40
0.0
 40
0.0
 40
0.0
 40
0.0
 40
0.1666133779
 40
0.3262255844
 40
0.4735308137
 40
0.6056575217
 40
0.7220676483
 40
0.8241942131
 40
0.9152281509
 40
1.0
 40
1.0
 40
1.0
 40
1.0
 10
-30.0072765181
 20
23.1226497308
 30
0.0
 10
-29.9898214983
 20
23.1226497308
 30
0.0
 10
-29.9556143071
 20
23.124909705
 30
0.0
 10
-29.9067379054
 20
23.1340775763
 30
0.0
 10
-29.8628964939
 20
23.1484769636
 30
0.0
 10
-29.8256538233
 20
23.1671011817
 30
0.0
 10
-29.7959014951
 20
23.1890111222
 30
0.0
 10
-29.7741049702
 20
23.2134107396
 30
0.0
 10
-29.7606013159
 20
23.239611024
 30
0.0
 10
-29.757370234
 20
23.2581067436
 30
0.0
 10
-29.7572807489
 20
23.2669872981
 30
0.0
 11
-30.0072765181
 21
23.1226497308
 31
0.0
 11
-29.9550197825
 21
23.126016189
 31
0.0
 11
-29.9057465543
 21
23.1354311576
 31
0.0
 11
-29.8618290218
 21
23.1500815293
 31
0.0
 11
-29.8248240789
 21
23.1689245842
 31
0.0
 11
-29.7955848197
 21
23.1909165769
 31
0.0
 11
-29.7745022864
 21
23.215119319
 31
0.0
 11
-29.7617209903
 21
23.2407168857
 31
0.0
 11
-29.7572807489
 21
23.2669872981
 31
0.0
  0
SPLINE
  5
4D9
100
AcDbEntity
  8
0
100
AcDbSpline
 62
253
  6
CONTINUOUS
 70
0
 71
3
 72
13
 73
9
 74
7
 42
0.0000001
 43
0.0000001
 44
0.0000000001
 12
0.0012265944
 22
-0.3651869709
 32
0.0
 13
0.3651878721
 23
-0.0009199792
 33
0.0
 40
0.0
 40
0.0
 40
0.0
 40
0.0
 40
0.1162394899
 40
0.2339784923
 40
0.3543712679
 40
0.4780982409
 40
0.7345378657
 40
1.0
 40
1.0
 40
1.0
 40
1.0
 10
-32.6369014213
 20
23.8443375673
 30
0.0
 10
-32.636853895
 20
23.8301878516
 30
0.0
 10
-32.6334953604
 20
23.8016148337
 30
0.0
 10
-32.6189387735
 20
23.7606544968
 30
0.0
 10
-32.5954679002
 20
23.7229827139
 30
0.0
 10
-32.5531651734
 20
23.6786209789
 30
0.0
 10
-32.4832389055
 20
23.6387867994
 30
0.0
 10
-32.4192201694
 20
23.6279126229
 30
0.0
 10
-32.3869056521
 20
23.6278312164
 30
0.0
 11
-32.6369014213
 21
23.8443375673
 31
0.0
 11
-32.6319736932
 21
23.8021751679
 31
0.0
 11
-32.6176631905
 21
23.7616295042
 31
0.0
 11
-32.5945175227
 21
23.7242490565
 31
0.0
 11
-32.5634226207
 21
23.6914667926
 31
0.0
 11
-32.4824070684
 21
23.6444922901
 31
0.0
 11
-32.3869056521
 21
23.6278312164
 31
0.0
  0
SPLINE
  5
4DA
100
AcDbEntity
  8
0
100
AcDbSpline
 62
7
  6
CONTINUOUS
 70
0
 71
3
 72
15
 73
11
 74
9
 42
0.0000001
 43
0.0000001
 44
0.0000000001
 12
0.0031741039
 22
-0.3149999784
 32
0.0
 13
0.3150159699
 23
0.0
 33
0.0
 40
0.0
 40
0.0
 40
0.0
 40
0.0
 40
0.0847246382
 40
0.1757279367
 40
0.2778501555
 40
0.3942839058
 40
0.5264550939
 40
0.6738071548
 40
0.8334364544
 40
1.0
 40
1.0
 40
1.0
 40
1.0
 10
-32.6427192511
 20
23.2669872981
 30
0.0
 10
-32.6426296095
 20
23.2580912117
 30
0.0
 10
-32.6393868205
 20
23.2395608029
 30
0.0
 10
-32.6258354299
 20
23.2133174142
 30
0.0
 10
-32.603963985
 20
23.1888844894
 30
0.0
 10
-32.574111924
 20
23.1669547435
 30
0.0
 10
-32.536749193
 20
23.1483274499
 30
0.0
 10
-32.4927765878
 20
23.133953471
 30
0.0
 10
-32.4437730071
 20
23.1248150691
 30
0.0
 10
-32.4094863121
 20
23.1226497308
 30
0.0
 10
-32.3919962532
 20
23.1226497308
 30
0.0
 11
-32.6427192511
 21
23.2669872981
 31
0.0
 11
-32.6382641974
 21
23.2406721314
 31
0.0
 11
-32.6254394165
 21
23.2150332915
 31
0.0
 11
-32.6042850888
 21
23.1907967144
 31
0.0
 11
-32.5749472239
 21
23.1687830511
 31
0.0
 11
-32.5378210631
 21
23.1499360992
 31
0.0
 11
-32.4937688409
 21
23.1353054509
 31
0.0
 11
-32.4443633026
 21
23.1259378303
 31
0.0
 11
-32.3919962532
 21
23.1226497308
 31
0.0
  0
SPLINE
  5
4DB
100
AcDbEntity
  8
0
100
AcDbSpline
 62
253
  6
CONTINUOUS
 70
0
 71
3
 72
13
 73
9
 74
7
 42
0.0000001
 43
0.0000001
 44
0.0000000001
 12
-0.0012265944
 22
-0.3651869708
 32
0.0
 13
-0.3651878719
 23
-0.0009199792
 33
0.0
 40
0.0
 40
0.0
 40
0.0
 40
0.0
 40
0.1162394861
 40
0.2339784844
 40
0.3543712552
 40
0.4780982232
 40
0.7345378384
 40
1.0
 40
1.0
 40
1.0
 40
1.0
 10
-29.7630985787
 20
23.8443375673
 30
0.0
 10
-29.7631461049
 20
23.830187852
 30
0.0
 10
-29.7665046394
 20
23.8016148352
 30
0.0
 10
-29.7810612251
 20
23.7606544996
 30
0.0
 10
-29.8045320971
 20
23.7229827179
 30
0.0
 10
-29.8468348209
 20
23.6786209833
 30
0.0
 10
-29.916761089
 20
23.6387868014
 30
0.0
 10
-29.9807798273
 20
23.6279126229
 30
0.0
 10
-30.0130943479
 20
23.6278312164
 30
0.0
 11
-29.7630985787
 21
23.8443375673
 31
0.0
 11
-29.7680263065
 21
23.8021751692
 31
0.0
 11
-29.7823368081
 21
23.7616295068
 31
0.0
 11
-29.8054824744
 21
23.7242490603
 31
0.0
 11
-29.8365773743
 21
23.6914667969
 31
0.0
 11
-29.9175929221
 21
23.6444922937
 31
0.0
 11
-30.0130943479
 21
23.6278312164
 31
0.0
  0
SPLINE
  5
4DC
100
AcDbEntity
  8
0
100
AcDbSpline
 62
253
  6
CONTINUOUS
 70
0
 71
3
 72
13
 73
9
 74
7
 42
0.0000001
 43
0.0000001
 44
0.0000000001
 12
0.0012265944
 22
-0.3651869708
 32
0.0
 13
0.3651878719
 23
-0.0009199792
 33
0.0
 40
0.0
 40
0.0
 40
0.0
 40
0.0
 40
0.1162394861
 40
0.2339784844
 40
0.3543712552
 40
0.4780982232
 40
0.7345378384
 40
1.0
 40
1.0
 40
1.0
 40
1.0
 10
-15.2369014213
 20
23.8443375673
 30
0.0
 10
-15.2368538951
 20
23.830187852
 30
0.0
 10
-15.2334953606
 20
23.8016148352
 30
0.0
 10
-15.2189387749
 20
23.7606544996
 30
0.0
 10
-15.1954679029
 20
23.7229827179
 30
0.0
 10
-15.1531651791
 20
23.6786209833
 30
0.0
 10
-15.083238911
 20
23.6387868014
 30
0.0
 10
-15.0192201727
 20
23.6279126229
 30
0.0
 10
-14.9869056521
 20
23.6278312164
 30
0.0
 11
-15.2369014213
 21
23.8443375673
 31
0.0
 11
-15.2319736935
 21
23.8021751692
 31
0.0
 11
-15.2176631919
 21
23.7616295068
 31
0.0
 11
-15.1945175256
 21
23.7242490603
 31
0.0
 11
-15.1634226257
 21
23.6914667969
 31
0.0
 11
-15.0824070779
 21
23.6444922937
 31
0.0
 11
-14.9869056521
 21
23.6278312164
 31
0.0
  0
SPLINE
  5
4DD
100
AcDbEntity
  8
0
100
AcDbSpline
 62
7
  6
CONTINUOUS
 70
0
 71
3
 72
15
 73
11
 74
9
 42
0.0000001
 43
0.0000001
 44
0.0000000001
 12
0.0031741039
 22
-0.3149999784
 32
0.0
 13
0.3150159699
 23
0.0
 33
0.0
 40
0.0
 40
0.0
 40
0.0
 40
0.0
 40
0.0847246382
 40
0.1757279367
 40
0.2778501555
 40
0.3942839058
 40
0.5264550939
 40
0.6738071548
 40
0.8334364544
 40
1.0
 40
1.0
 40
1.0
 40
1.0
 10
-15.2427192511
 20
23.2669872981
 30
0.0
 10
-15.2426296095
 20
23.2580912117
 30
0.0
 10
-15.2393868205
 20
23.2395608029
 30
0.0
 10
-15.2258354299
 20
23.2133174142
 30
0.0
 10
-15.203963985
 20
23.1888844894
 30
0.0
 10
-15.174111924
 20
23.1669547435
 30
0.0
 10
-15.136749193
 20
23.1483274499
 30
0.0
 10
-15.0927765878
 20
23.133953471
 30
0.0
 10
-15.0437730071
 20
23.1248150691
 30
0.0
 10
-15.0094863121
 20
23.1226497308
 30
0.0
 10
-14.9919962532
 20
23.1226497308
 30
0.0
 11
-15.2427192511
 21
23.2669872981
 31
0.0
 11
-15.2382641974
 21
23.2406721314
 31
0.0
 11
-15.2254394165
 21
23.2150332915
 31
0.0
 11
-15.2042850888
 21
23.1907967144
 31
0.0
 11
-15.1749472239
 21
23.1687830511
 31
0.0
 11
-15.1378210631
 21
23.1499360992
 31
0.0
 11
-15.0937688409
 21
23.1353054509
 31
0.0
 11
-15.0443633026
 21
23.1259378303
 31
0.0
 11
-14.9919962532
 21
23.1226497308
 31
0.0
  0
SPLINE
  5
4DE
100
AcDbEntity
  8
0
100
AcDbSpline
 62
7
  6
CONTINUOUS
 70
0
 71
3
 72
15
 73
11
 74
9
 42
0.0000001
 43
0.0000001
 44
0.0000000001
 12
-0.0031741039
 22
-0.3149999784
 32
0.0
 13
-0.3150159699
 23
0.0
 33
0.0
 40
0.0
 40
0.0
 40
0.0
 40
0.0
 40
0.0847246382
 40
0.1757279367
 40
0.2778501555
 40
0.3942839058
 40
0.5264550939
 40
0.6738071548
 40
0.8334364544
 40
1.0
 40
1.0
 40
1.0
 40
1.0
 10
-12.3572807489
 20
23.2669872981
 30
0.0
 10
-12.3573703905
 20
23.2580912117
 30
0.0
 10
-12.3606131795
 20
23.2395608029
 30
0.0
 10
-12.3741645701
 20
23.2133174142
 30
0.0
 10
-12.396036015
 20
23.1888844894
 30
0.0
 10
-12.425888076
 20
23.1669547435
 30
0.0
 10
-12.463250807
 20
23.1483274499
 30
0.0
 10
-12.5072234122
 20
23.133953471
 30
0.0
 10
-12.5562269929
 20
23.1248150691
 30
0.0
 10
-12.5905136879
 20
23.1226497308
 30
0.0
 10
-12.6080037468
 20
23.1226497308
 30
0.0
 11
-12.3572807489
 21
23.2669872981
 31
0.0
 11
-12.3617358026
 21
23.2406721314
 31
0.0
 11
-12.3745605835
 21
23.2150332915
 31
0.0
 11
-12.3957149112
 21
23.1907967144
 31
0.0
 11
-12.4250527761
 21
23.1687830511
 31
0.0
 11
-12.4621789369
 21
23.1499360992
 31
0.0
 11
-12.5062311591
 21
23.1353054509
 31
0.0
 11
-12.5556366974
 21
23.1259378303
 31
0.0
 11
-12.6080037468
 21
23.1226497308
 31
0.0
  0
SPLINE
  5
4DF
100
AcDbEntity
  8
0
100
AcDbSpline
 62
253
  6
CONTINUOUS
 70
0
 71
3
 72
13
 73
9
 74
7
 42
0.0000001
 43
0.0000001
 44
0.0000000001
 12
-0.0012265943
 22
-0.3651869702
 32
0.0
 13
-0.3651878714
 23
-0.0009199792
 33
0.0
 40
0.0
 40
0.0
 40
0.0
 40
0.0
 40
0.1162393822
 40
0.2339783947
 40
0.3543711753
 40
0.4780981573
 40
0.7345378061
 40
1.0
 40
1.0
 40
1.0
 40
1.0
 10
-12.3630985787
 20
23.8443375673
 30
0.0
 10
-12.3631461049
 20
23.8301878647
 30
0.0
 10
-12.3665046379
 20
23.8016148597
 30
0.0
 10
-12.3810612078
 20
23.7606545287
 30
0.0
 10
-12.40453208
 20
23.7229827412
 30
0.0
 10
-12.4468348019
 20
23.6786209956
 30
0.0
 10
-12.5167610773
 20
23.6387868046
 30
0.0
 10
-12.5807798234
 20
23.6279126229
 30
0.0
 10
-12.6130943479
 20
23.6278312164
 30
0.0
 11
-12.3630985787
 21
23.8443375673
 31
0.0
 11
-12.3680262991
 21
23.8021752067
 31
0.0
 11
-12.382336793
 21
23.761629536
 31
0.0
 11
-12.4054824567
 21
23.7242490838
 31
0.0
 11
-12.436577356
 21
23.6914668129
 31
0.0
 11
-12.517592911
 21
23.644492298
 31
0.0
 11
-12.6130943479
 21
23.6278312164
 31
0.0
  0
SPLINE
  5
4E0
100
AcDbEntity
  8
0
100
AcDbSpline
 62
253
  6
CONTINUOUS
 70
0
 71
3
 72
13
 73
9
 74
7
 42
0.0000001
 43
0.0000001
 44
0.0000000001
 12
-0.0012265944
 22
0.3651869708
 32
0.0
 13
-0.3651878719
 23
0.0009199792
 33
0.0
 40
0.0
 40
0.0
 40
0.0
 40
0.0
 40
0.1162394861
 40
0.2339784844
 40
0.3543712552
 40
0.4780982232
 40
0.7345378384
 40
1.0
 40
1.0
 40
1.0
 40
1.0
 10
-12.3630985787
 20
-23.8443375673
 30
0.0
 10
-12.3631461049
 20
-23.830187852
 30
0.0
 10
-12.3665046394
 20
-23.8016148352
 30
0.0
 10
-12.3810612251
 20
-23.7606544996
 30
0.0
 10
-12.4045320971
 20
-23.7229827179
 30
0.0
 10
-12.4468348209
 20
-23.6786209833
 30
0.0
 10
-12.516761089
 20
-23.6387868014
 30
0.0
 10
-12.5807798273
 20
-23.6279126229
 30
0.0
 10
-12.6130943479
 20
-23.6278312164
 30
0.0
 11
-12.3630985787
 21
-23.8443375673
 31
0.0
 11
-12.3680263065
 21
-23.8021751692
 31
0.0
 11
-12.3823368081
 21
-23.7616295068
 31
0.0
 11
-12.4054824744
 21
-23.7242490603
 31
0.0
 11
-12.4365773743
 21
-23.6914667969
 31
0.0
 11
-12.5175929221
 21
-23.6444922937
 31
0.0
 11
-12.6130943479
 21
-23.6278312164
 31
0.0
  0
SPLINE
  5
4E1
100
AcDbEntity
  8
0
100
AcDbSpline
 62
7
  6
CONTINUOUS
 70
0
 71
3
 72
15
 73
11
 74
9
 42
0.0000001
 43
0.0000001
 44
0.0000000001
 12
-0.0031741039
 22
0.3149999784
 32
0.0
 13
-0.3150159699
 23
0.0
 33
0.0
 40
0.0
 40
0.0
 40
0.0
 40
0.0
 40
0.0847246382
 40
0.1757279367
 40
0.2778501555
 40
0.3942839058
 40
0.5264550939
 40
0.6738071548
 40
0.8334364544
 40
1.0
 40
1.0
 40
1.0
 40
1.0
 10
-12.3572807489
 20
-23.2669872981
 30
0.0
 10
-12.3573703905
 20
-23.2580912117
 30
0.0
 10
-12.3606131795
 20
-23.2395608029
 30
0.0
 10
-12.3741645701
 20
-23.2133174142
 30
0.0
 10
-12.396036015
 20
-23.1888844894
 30
0.0
 10
-12.425888076
 20
-23.1669547435
 30
0.0
 10
-12.463250807
 20
-23.1483274499
 30
0.0
 10
-12.5072234122
 20
-23.133953471
 30
0.0
 10
-12.5562269929
 20
-23.1248150691
 30
0.0
 10
-12.5905136879
 20
-23.1226497308
 30
0.0
 10
-12.6080037468
 20
-23.1226497308
 30
0.0
 11
-12.3572807489
 21
-23.2669872981
 31
0.0
 11
-12.3617358026
 21
-23.2406721314
 31
0.0
 11
-12.3745605835
 21
-23.2150332915
 31
0.0
 11
-12.3957149112
 21
-23.1907967144
 31
0.0
 11
-12.4250527761
 21
-23.1687830511
 31
0.0
 11
-12.4621789369
 21
-23.1499360992
 31
0.0
 11
-12.5062311591
 21
-23.1353054509
 31
0.0
 11
-12.5556366974
 21
-23.1259378303
 31
0.0
 11
-12.6080037468
 21
-23.1226497308
 31
0.0
  0
SPLINE
  5
4E2
100
AcDbEntity
  8
0
100
AcDbSpline
 62
7
  6
CONTINUOUS
 70
0
 71
3
 72
15
 73
11
 74
9
 42
0.0000001
 43
0.0000001
 44
0.0000000001
 12
0.0031741039
 22
0.3149999784
 32
0.0
 13
0.3150159699
 23
0.0
 33
0.0
 40
0.0
 40
0.0
 40
0.0
 40
0.0
 40
0.0847246382
 40
0.1757279367
 40
0.2778501555
 40
0.3942839058
 40
0.5264550939
 40
0.6738071548
 40
0.8334364544
 40
1.0
 40
1.0
 40
1.0
 40
1.0
 10
-15.2427192511
 20
-23.2669872981
 30
0.0
 10
-15.2426296095
 20
-23.2580912117
 30
0.0
 10
-15.2393868205
 20
-23.2395608029
 30
0.0
 10
-15.2258354299
 20
-23.2133174142
 30
0.0
 10
-15.203963985
 20
-23.1888844894
 30
0.0
 10
-15.174111924
 20
-23.1669547435
 30
0.0
 10
-15.136749193
 20
-23.1483274499
 30
0.0
 10
-15.0927765878
 20
-23.133953471
 30
0.0
 10
-15.0437730071
 20
-23.1248150691
 30
0.0
 10
-15.0094863121
 20
-23.1226497308
 30
0.0
 10
-14.9919962532
 20
-23.1226497308
 30
0.0
 11
-15.2427192511
 21
-23.2669872981
 31
0.0
 11
-15.2382641974
 21
-23.2406721314
 31
0.0
 11
-15.2254394165
 21
-23.2150332915
 31
0.0
 11
-15.2042850888
 21
-23.1907967144
 31
0.0
 11
-15.1749472239
 21
-23.1687830511
 31
0.0
 11
-15.1378210631
 21
-23.1499360992
 31
0.0
 11
-15.0937688409
 21
-23.1353054509
 31
0.0
 11
-15.0443633026
 21
-23.1259378303
 31
0.0
 11
-14.9919962532
 21
-23.1226497308
 31
0.0
  0
SPLINE
  5
4E3
100
AcDbEntity
  8
0
100
AcDbSpline
 62
253
  6
CONTINUOUS
 70
0
 71
3
 72
13
 73
9
 74
7
 42
0.0000001
 43
0.0000001
 44
0.0000000001
 12
0.0012265943
 22
0.3651869702
 32
0.0
 13
0.3651878714
 23
0.0009199792
 33
0.0
 40
0.0
 40
0.0
 40
0.0
 40
0.0
 40
0.1162393822
 40
0.2339783947
 40
0.3543711753
 40
0.4780981573
 40
0.7345378061
 40
1.0
 40
1.0
 40
1.0
 40
1.0
 10
-15.2369014213
 20
-23.8443375673
 30
0.0
 10
-15.2368538951
 20
-23.8301878647
 30
0.0
 10
-15.2334953621
 20
-23.8016148597
 30
0.0
 10
-15.2189387922
 20
-23.7606545287
 30
0.0
 10
-15.19546792
 20
-23.7229827412
 30
0.0
 10
-15.1531651981
 20
-23.6786209956
 30
0.0
 10
-15.0832389227
 20
-23.6387868046
 30
0.0
 10
-15.0192201766
 20
-23.6279126229
 30
0.0
 10
-14.9869056521
 20
-23.6278312164
 30
0.0
 11
-15.2369014213
 21
-23.8443375673
 31
0.0
 11
-15.2319737009
 21
-23.8021752067
 31
0.0
 11
-15.217663207
 21
-23.761629536
 31
0.0
 11
-15.1945175433
 21
-23.7242490838
 31
0.0
 11
-15.163422644
 21
-23.6914668129
 31
0.0
 11
-15.082407089
 21
-23.644492298
 31
0.0
 11
-14.9869056521
 21
-23.6278312164
 31
0.0
  0
SPLINE
  5
4E4
100
AcDbEntity
  8
0
100
AcDbSpline
 62
253
  6
CONTINUOUS
 70
0
 71
3
 72
13
 73
9
 74
7
 42
0.0000001
 43
0.0000001
 44
0.0000000001
 12
-0.0012265944
 22
0.3651869708
 32
0.0
 13
-0.3651878719
 23
0.0009199792
 33
0.0
 40
0.0
 40
0.0
 40
0.0
 40
0.0
 40
0.1162394861
 40
0.2339784844
 40
0.3543712552
 40
0.4780982232
 40
0.7345378384
 40
1.0
 40
1.0
 40
1.0
 40
1.0
 10
-29.7630985787
 20
-23.8443375673
 30
0.0
 10
-29.7631461049
 20
-23.830187852
 30
0.0
 10
-29.7665046394
 20
-23.8016148352
 30
0.0
 10
-29.7810612251
 20
-23.7606544996
 30
0.0
 10
-29.8045320971
 20
-23.7229827179
 30
0.0
 10
-29.8468348209
 20
-23.6786209833
 30
0.0
 10
-29.916761089
 20
-23.6387868014
 30
0.0
 10
-29.9807798273
 20
-23.6279126229
 30
0.0
 10
-30.0130943479
 20
-23.6278312164
 30
0.0
 11
-29.7630985787
 21
-23.8443375673
 31
0.0
 11
-29.7680263065
 21
-23.8021751692
 31
0.0
 11
-29.7823368081
 21
-23.7616295068
 31
0.0
 11
-29.8054824744
 21
-23.7242490603
 31
0.0
 11
-29.8365773743
 21
-23.6914667969
 31
0.0
 11
-29.9175929221
 21
-23.6444922937
 31
0.0
 11
-30.0130943479
 21
-23.6278312164
 31
0.0
  0
SPLINE
  5
4E5
100
AcDbEntity
  8
0
100
AcDbSpline
 62
7
  6
CONTINUOUS
 70
0
 71
3
 72
15
 73
11
 74
9
 42
0.0000001
 43
0.0000001
 44
0.0000000001
 12
-0.0031741039
 22
0.3149999784
 32
0.0
 13
-0.3150159699
 23
0.0
 33
0.0
 40
0.0
 40
0.0
 40
0.0
 40
0.0
 40
0.0847246382
 40
0.1757279367
 40
0.2778501555
 40
0.3942839058
 40
0.5264550939
 40
0.6738071548
 40
0.8334364544
 40
1.0
 40
1.0
 40
1.0
 40
1.0
 10
-29.7572807489
 20
-23.2669872981
 30
0.0
 10
-29.7573703905
 20
-23.2580912117
 30
0.0
 10
-29.7606131795
 20
-23.2395608029
 30
0.0
 10
-29.7741645701
 20
-23.2133174142
 30
0.0
 10
-29.796036015
 20
-23.1888844894
 30
0.0
 10
-29.825888076
 20
-23.1669547435
 30
0.0
 10
-29.863250807
 20
-23.1483274499
 30
0.0
 10
-29.9072234122
 20
-23.133953471
 30
0.0
 10
-29.9562269929
 20
-23.1248150691
 30
0.0
 10
-29.9905136879
 20
-23.1226497308
 30
0.0
 10
-30.0080037468
 20
-23.1226497308
 30
0.0
 11
-29.7572807489
 21
-23.2669872981
 31
0.0
 11
-29.7617358026
 21
-23.2406721314
 31
0.0
 11
-29.7745605835
 21
-23.2150332915
 31
0.0
 11
-29.7957149112
 21
-23.1907967144
 31
0.0
 11
-29.8250527761
 21
-23.1687830511
 31
0.0
 11
-29.8621789369
 21
-23.1499360992
 31
0.0
 11
-29.9062311591
 21
-23.1353054509
 31
0.0
 11
-29.9556366974
 21
-23.1259378303
 31
0.0
 11
-30.0080037468
 21
-23.1226497308
 31
0.0
  0
SPLINE
  5
4E6
100
AcDbEntity
  8
0
100
AcDbSpline
 62
7
  6
CONTINUOUS
 70
0
 71
3
 72
15
 73
11
 74
9
 42
0.0000001
 43
0.0000001
 44
0.0000000001
 12
-0.3142908459
 22
0.0
 32
0.0
 13
-0.0031667975
 23
-0.3142748912
 33
0.0
 40
0.0
 40
0.0
 40
0.0
 40
0.0
 40
0.1666133779
 40
0.3262255844
 40
0.4735308137
 40
0.6056575217
 40
0.7220676483
 40
0.8241942131
 40
0.9152281509
 40
1.0
 40
1.0
 40
1.0
 40
1.0
 10
-32.3927234819
 20
-23.1226497308
 30
0.0
 10
-32.4101785017
 20
-23.1226497308
 30
0.0
 10
-32.4443856929
 20
-23.124909705
 30
0.0
 10
-32.4932620946
 20
-23.1340775763
 30
0.0
 10
-32.5371035061
 20
-23.1484769636
 30
0.0
 10
-32.5743461767
 20
-23.1671011817
 30
0.0
 10
-32.6040985049
 20
-23.1890111222
 30
0.0
 10
-32.6258950298
 20
-23.2134107396
 30
0.0
 10
-32.6393986841
 20
-23.239611024
 30
0.0
 10
-32.642629766
 20
-23.2581067436
 30
0.0
 10
-32.6427192511
 20
-23.2669872981
 30
0.0
 11
-32.3927234819
 21
-23.1226497308
 31
0.0
 11
-32.4449802175
 21
-23.126016189
 31
0.0
 11
-32.4942534457
 21
-23.1354311576
 31
0.0
 11
-32.5381709782
 21
-23.1500815293
 31
0.0
 11
-32.5751759211
 21
-23.1689245842
 31
0.0
 11
-32.6044151803
 21
-23.1909165769
 31
0.0
 11
-32.6254977136
 21
-23.215119319
 31
0.0
 11
-32.6382790097
 21
-23.2407168857
 31
0.0
 11
-32.6427192511
 21
-23.2669872981
 31
0.0
  0
SPLINE
  5
4E7
100
AcDbEntity
  8
0
100
AcDbSpline
 62
253
  6
CONTINUOUS
 70
0
 71
3
 72
13
 73
9
 74
7
 42
0.0000001
 43
0.0000001
 44
0.0000000001
 12
0.0012265944
 22
0.3651869708
 32
0.0
 13
0.3651878719
 23
0.0009199792
 33
0.0
 40
0.0
 40
0.0
 40
0.0
 40
0.0
 40
0.1162394861
 40
0.2339784844
 40
0.3543712552
 40
0.4780982232
 40
0.7345378384
 40
1.0
 40
1.0
 40
1.0
 40
1.0
 10
-32.6369014213
 20
-23.8443375673
 30
0.0
 10
-32.6368538951
 20
-23.830187852
 30
0.0
 10
-32.6334953606
 20
-23.8016148352
 30
0.0
 10
-32.6189387749
 20
-23.7606544996
 30
0.0
 10
-32.5954679029
 20
-23.7229827179
 30
0.0
 10
-32.5531651791
 20
-23.6786209833
 30
0.0
 10
-32.483238911
 20
-23.6387868014
 30
0.0
 10
-32.4192201727
 20
-23.6279126229
 30
0.0
 10
-32.3869056521
 20
-23.6278312164
 30
0.0
 11
-32.6369014213
 21
-23.8443375673
 31
0.0
 11
-32.6319736935
 21
-23.8021751692
 31
0.0
 11
-32.6176631919
 21
-23.7616295068
 31
0.0
 11
-32.5945175256
 21
-23.7242490603
 31
0.0
 11
-32.5634226257
 21
-23.6914667969
 31
0.0
 11
-32.4824070779
 21
-23.6444922937
 31
0.0
 11
-32.3869056521
 21
-23.6278312164
 31
0.0
  0
SPLINE
  5
4E8
100
AcDbEntity
  8
0
100
AcDbSpline
 62
7
  6
CONTINUOUS
 70
0
 71
3
 72
15
 73
11
 74
9
 42
0.0000001
 43
0.0000001
 44
0.0000000001
 12
-0.783584949
 22
0.0
 32
0.0
 13
-0.0
 23
0.783584949
 33
0.0
 40
0.0
 40
0.0
 40
0.0
 40
0.0
 40
0.1249998755
 40
0.2499983858
 40
0.3749979685
 40
0.4999978562
 40
0.6249980066
 40
0.7499984071
 40
0.8749983005
 40
1.0
 40
1.0
 40
1.0
 40
1.0
 10
-33.1499752684
 20
-22.4
 30
0.0
 10
-33.1826246088
 20
-22.4
 30
0.0
 10
-33.2480978538
 20
-22.3934475677
 30
0.0
 10
-33.3423705112
 20
-22.3647451103
 30
0.0
 10
-33.4292585201
 20
-22.3181579234
 30
0.0
 10
-33.505372633
 20
-22.2555146988
 30
0.0
 10
-33.5678061812
 20
-22.1792278759
 30
0.0
 10
-33.6141710301
 20
-22.0922261856
 30
0.0
 10
-33.6427071378
 20
-21.9979001651
 30
0.0
 10
-33.6491272468
 20
-21.9324209647
 30
0.0
 10
-33.6491272468
 20
-21.8997711479
 30
0.0
 11
-33.1499752684
 21
-22.4
 31
0.0
 11
-33.2474419861
 21
-22.3903018677
 31
0.0
 11
-33.3411394797
 21
-22.3617644365
 31
0.0
 11
-33.4274627432
 21
-22.3154819985
 31
0.0
 11
-33.503092465
 21
-22.2532408395
 31
0.0
 11
-33.5651280255
 21
-22.1774421175
 31
0.0
 11
-33.6111996043
 21
-22.0910054062
 31
0.0
 11
-33.6395560502
 21
-21.9972518487
 31
0.0
 11
-33.6491272468
 21
-21.8997711479
 31
0.0
  0
SPLINE
  5
4E9
100
AcDbEntity
  8
0
100
AcDbSpline
 62
7
  6
CONTINUOUS
 70
0
 71
3
 72
15
 73
11
 74
9
 42
0.0000001
 43
0.0000001
 44
0.0000000001
 12
0.0
 22
0.7835849489
 32
0.0
 13
0.7835849489
 23
0.0
 33
0.0
 40
0.0
 40
0.0
 40
0.0
 40
0.0
 40
0.1250016995
 40
0.2500015929
 40
0.3750019934
 40
0.5000021438
 40
0.6250020315
 40
0.7500016142
 40
0.8750001245
 40
1.0
 40
1.0
 40
1.0
 40
1.0
 10
-33.6491272468
 20
21.8997711479
 30
0.0
 10
-33.6491272468
 20
21.9324209647
 30
0.0
 10
-33.6427071378
 20
21.9979001651
 30
0.0
 10
-33.6141710301
 20
22.0922261856
 30
0.0
 10
-33.5678061813
 20
22.1792278759
 30
0.0
 10
-33.505372633
 20
22.2555146988
 30
0.0
 10
-33.4292585201
 20
22.3181579234
 30
0.0
 10
-33.3423705113
 20
22.3647451103
 30
0.0
 10
-33.2480978538
 20
22.3934475677
 30
0.0
 10
-33.1826246089
 20
22.4
 30
0.0
 10
-33.1499752685
 20
22.4
 30
0.0
 11
-33.6491272468
 21
21.8997711479
 31
0.0
 11
-33.6395560502
 21
21.9972518487
 31
0.0
 11
-33.6111996043
 21
22.0910054062
 31
0.0
 11
-33.5651280255
 21
22.1774421175
 31
0.0
 11
-33.503092465
 21
22.2532408395
 31
0.0
 11
-33.4274627432
 21
22.3154819984
 31
0.0
 11
-33.3411394798
 21
22.3617644365
 31
0.0
 11
-33.2474419862
 21
22.3903018677
 31
0.0
 11
-33.1499752685
 21
22.4
 31
0.0
  0
LINE
  5
4EA
100
AcDbEntity
  8
DRAFT
100
AcDbLine
 62
7
  6
CONTINUOUS
 10
-1.0
 20
-11.5029443954
 11
-1.0000000804
 21
-10.000001785
  0
LINE
  5
4EB
100
AcDbEntity
  8
DRAFT
100
AcDbLine
 62
7
  6
CONTINUOUS
 10
1.0000000809
 20
-9.9999944053
 11
1.0
 21
-11.5029443954
  0
LINE
  5
4EC
100
AcDbEntity
  8
DRAFT
100
AcDbLine
 62
7
  6
CONTINUOUS
 10
-1.0000001456
 20
-12.9999278582
 11
-1.0
 21
-11.5029443954
  0
LINE
  5
4ED
100
AcDbEntity
  8
DRAFT
100
AcDbLine
 62
7
  6
CONTINUOUS
 10
1.0
 20
-11.5029443954
 11
1.000000146
 21
-12.9999232686
  0
SPLINE
  5
4EE
100
AcDbEntity
  8
RACCORDO
100
AcDbSpline
 62
253
  6
CONTINUOUS
 70
0
 71
3
 72
18
 73
14
 74
12
 42
0.0000001
 43
0.0000001
 44
0.0000000001
 12
0.4895870824
 22
0.0010091892
 32
0.0
 13
0.2595086199
 23
0.4151527501
 33
0.0
 40
0.0
 40
0.0
 40
0.0
 40
0.0
 40
0.1924392758
 40
0.3774451731
 40
0.5477948483
 40
0.6975760804
 40
0.8214914473
 40
0.8722735819
 40
0.9150243252
 40
0.9493566263
 40
0.9749703677
 40
0.9917736336
 40
1.0
 40
1.0
 40
1.0
 40
1.0
 10
32.8730224302
 20
-20.7082281594
 30
0.0
 10
32.9044276914
 20
-20.7081634235
 30
0.0
 10
32.9660250062
 20
-20.707793889
 30
0.0
 10
33.0554146713
 20
-20.7065301381
 30
0.0
 10
33.1378312328
 20
-20.7046072698
 30
0.0
 10
33.2102524669
 20
-20.7020975197
 30
0.0
 10
33.263153965
 20
-20.6994931164
 30
0.0
 10
33.2985462881
 20
-20.6970718082
 30
0.0
 10
33.3193688147
 20
-20.6953150928
 30
0.0
 10
33.3359542459
 20
-20.6934794083
 30
0.0
 10
33.3485389195
 20
-20.69170549
 30
0.0
 10
33.3562445666
 20
-20.6898254177
 30
0.0
 10
33.3605825998
 20
-20.6884718125
 30
0.0
 10
33.3612942041
 20
-20.6873334129
 30
0.0
 11
32.8730224302
 21
-20.7082281594
 31
0.0
 11
32.9672366786
 21
-20.7076563214
 31
0.0
 11
33.0578039751
 21
-20.706351883
 31
0.0
 11
33.1411814036
 21
-20.7043616953
 31
0.0
 11
33.2144662316
 21
-20.7017566988
 31
0.0
 11
33.2750532461
 21
-20.6986328812
 31
0.0
 11
33.2998558501
 21
-20.6969105902
 31
0.0
 11
33.3207077647
 21
-20.6951013698
 31
0.0
 11
33.337410894
 21
-20.6932205651
 31
0.0
 11
33.3498008243
 21
-20.6912851501
 31
0.0
 11
33.3577882926
 21
-20.6893157328
 31
0.0
 11
33.3612942041
 21
-20.6873334129
 31
0.0
  0
SPLINE
  5
4EF
100
AcDbEntity
  8
RACCORDO
100
AcDbSpline
 62
253
  6
CONTINUOUS
 70
0
 71
3
 72
18
 73
14
 74
12
 42
0.0000001
 43
0.0000001
 44
0.0000000001
 12
0.4895871942
 22
-0.0010091513
 32
0.0
 13
0.2596280414
 23
-0.4150782086
 33
0.0
 40
0.0
 40
0.0
 40
0.0
 40
0.0
 40
0.1924365446
 40
0.3774401827
 40
0.5477884061
 40
0.697569168
 40
0.8214850783
 40
0.8722678461
 40
0.9150194387
 40
0.9493527834
 40
0.9749677353
 40
0.9917723362
 40
1.0
 40
1.0
 40
1.0
 40
1.0
 10
32.8730221413
 20
20.7082276358
 30
0.0
 10
32.9044269639
 20
20.7081629033
 30
0.0
 10
32.9660234783
 20
20.7077933839
 30
0.0
 10
33.0554121132
 20
20.7065296799
 30
0.0
 10
33.1378280116
 20
20.704606877
 30
0.0
 10
33.210249042
 20
20.7020972022
 30
0.0
 10
33.2631506651
 20
20.6994928701
 30
0.0
 10
33.2985433409
 20
20.6970716238
 30
0.0
 10
33.3193662694
 20
20.6953149478
 30
0.0
 10
33.3359522689
 20
20.6934792864
 30
0.0
 10
33.3485374196
 20
20.6917054131
 30
0.0
 10
33.3562439353
 20
20.6898252989
 30
0.0
 10
33.3605821598
 20
20.6884717868
 30
0.0
 10
33.3612942039
 20
20.6873334122
 30
0.0
 11
32.8730221413
 21
20.7082276358
 31
0.0
 11
32.9672350741
 21
20.7076558221
 31
0.0
 11
33.0578012858
 21
20.7063514334
 31
0.0
 11
33.141178024
 21
20.704361315
 31
0.0
 11
33.2144626413
 21
20.7017563992
 31
0.0
 11
33.2750499404
 21
20.6986326657
 31
0.0
 11
33.2998528637
 21
20.6969104159
 31
0.0
 11
33.3207052039
 21
20.6951012352
 31
0.0
 11
33.3374088555
 21
20.6932204682
 31
0.0
 11
33.3497993939
 21
20.6912850883
 31
0.0
 11
33.3577875452
 21
20.6893157031
 31
0.0
 11
33.3612942039
 21
20.6873334122
 31
0.0
  0
SPLINE
  5
4F0
100
AcDbEntity
  8
RACCORDO
100
AcDbSpline
 62
253
  6
CONTINUOUS
 70
0
 71
3
 72
18
 73
14
 74
12
 42
0.0000001
 43
0.0000001
 44
0.0000000001
 12
-0.4895870823
 22
-0.0010091892
 32
0.0
 13
-0.2595086175
 23
-0.4151527514
 33
0.0
 40
0.0
 40
0.0
 40
0.0
 40
0.0
 40
0.1924392759
 40
0.3774451732
 40
0.5477948484
 40
0.6975760805
 40
0.8214914474
 40
0.872273582
 40
0.9150243253
 40
0.9493566263
 40
0.9749703677
 40
0.9917736337
 40
1.0
 40
1.0
 40
1.0
 40
1.0
 10
-32.8730224304
 20
20.7082281594
 30
0.0
 10
-32.9044276916
 20
20.7081634236
 30
0.0
 10
-32.9660250064
 20
20.707793889
 30
0.0
 10
-33.0554146714
 20
20.7065301382
 30
0.0
 10
-33.1378312329
 20
20.7046072699
 30
0.0
 10
-33.210252467
 20
20.7020975198
 30
0.0
 10
-33.2631539651
 20
20.6994931164
 30
0.0
 10
-33.2985462882
 20
20.6970718083
 30
0.0
 10
-33.3193688147
 20
20.6953150929
 30
0.0
 10
-33.335954246
 20
20.6934794083
 30
0.0
 10
-33.3485389196
 20
20.6917054901
 30
0.0
 10
-33.3562445666
 20
20.6898254177
 30
0.0
 10
-33.3605825998
 20
20.6884718125
 30
0.0
 10
-33.3612942041
 20
20.687333413
 30
0.0
 11
-32.8730224304
 21
20.7082281594
 31
0.0
 11
-32.9672366787
 21
20.7076563215
 31
0.0
 11
-33.0578039752
 21
20.7063518831
 31
0.0
 11
-33.1411814037
 21
20.7043616953
 31
0.0
 11
-33.2144662317
 21
20.7017566988
 31
0.0
 11
-33.2750532462
 21
20.6986328813
 31
0.0
 11
-33.2998558501
 21
20.6969105902
 31
0.0
 11
-33.3207077648
 21
20.6951013698
 31
0.0
 11
-33.337410894
 21
20.6932205652
 31
0.0
 11
-33.3498008243
 21
20.6912851502
 31
0.0
 11
-33.3577882926
 21
20.6893157328
 31
0.0
 11
-33.3612942041
 21
20.687333413
 31
0.0
  0
SPLINE
  5
4F1
100
AcDbEntity
  8
RACCORDO
100
AcDbSpline
 62
253
  6
CONTINUOUS
 70
0
 71
3
 72
18
 73
14
 74
12
 42
0.0000001
 43
0.0000001
 44
0.0000000001
 12
-0.4895871941
 22
0.0010091513
 32
0.0
 13
-0.2596280427
 23
0.4150782076
 33
0.0
 40
0.0
 40
0.0
 40
0.0
 40
0.0
 40
0.1924365446
 40
0.3774401826
 40
0.547788406
 40
0.6975691679
 40
0.8214850782
 40
0.8722678461
 40
0.9150194387
 40
0.9493527834
 40
0.9749677353
 40
0.9917723362
 40
1.0
 40
1.0
 40
1.0
 40
1.0
 10
-32.8730221414
 20
-20.7082276358
 30
0.0
 10
-32.904426964
 20
-20.7081629033
 30
0.0
 10
-32.9660234784
 20
-20.7077933839
 30
0.0
 10
-33.0554121133
 20
-20.70652968
 30
0.0
 10
-33.1378280117
 20
-20.7046068771
 30
0.0
 10
-33.210249042
 20
-20.7020972022
 30
0.0
 10
-33.2631506651
 20
-20.6994928701
 30
0.0
 10
-33.2985433409
 20
-20.6970716238
 30
0.0
 10
-33.3193662694
 20
-20.6953149478
 30
0.0
 10
-33.3359522689
 20
-20.6934792864
 30
0.0
 10
-33.3485374195
 20
-20.6917054131
 30
0.0
 10
-33.3562439353
 20
-20.6898252989
 30
0.0
 10
-33.3605821598
 20
-20.6884717868
 30
0.0
 10
-33.3612942039
 20
-20.6873334122
 30
0.0
 11
-32.8730221414
 21
-20.7082276358
 31
0.0
 11
-32.9672350742
 21
-20.7076558221
 31
0.0
 11
-33.0578012858
 21
-20.7063514334
 31
0.0
 11
-33.141178024
 21
-20.704361315
 31
0.0
 11
-33.2144626413
 21
-20.7017563992
 31
0.0
 11
-33.2750499404
 21
-20.6986326657
 31
0.0
 11
-33.2998528637
 21
-20.6969104159
 31
0.0
 11
-33.3207052039
 21
-20.6951012352
 31
0.0
 11
-33.3374088554
 21
-20.6932204683
 31
0.0
 11
-33.3497993939
 21
-20.6912850883
 31
0.0
 11
-33.3577875452
 21
-20.6893157031
 31
0.0
 11
-33.3612942039
 21
-20.6873334122
 31
0.0
  0
SPLINE
  5
4F2
100
AcDbEntity
  8
RACCORDO
100
AcDbSpline
 62
253
  6
CONTINUOUS
 70
0
 71
3
 72
16
 73
12
 74
10
 42
0.0000001
 43
0.0000001
 44
0.0000000001
 12
-0.1218174263
 22
1.141814046
 32
0.0
 13
0.0002996155
 23
1.1482938262
 33
0.0
 40
0.0
 40
0.0
 40
0.0
 40
0.0
 40
0.0095009486
 40
0.0277840411
 40
0.0547144552
 40
0.0900550042
 40
0.1847133801
 40
0.3085503052
 40
0.4573751061
 40
0.6261127283
 40
1.0
 40
1.0
 40
1.0
 40
1.0
 10
32.8788358319
 20
-21.8564770068
 30
0.0
 10
32.8784500382
 20
-21.8528609012
 30
0.0
 10
32.8781144818
 20
-21.8422184647
 30
0.0
 10
32.8774842565
 20
-21.8212942208
 30
0.0
 10
32.8769749408
 20
-21.7904601118
 30
0.0
 10
32.8761533085
 20
-21.7304013491
 30
0.0
 10
32.8753161797
 20
-21.6332432465
 30
0.0
 10
32.8744686329
 20
-21.4926495075
 30
0.0
 10
32.8737971773
 20
-21.3236983583
 30
0.0
 10
32.873125861
 20
-21.0590368152
 30
0.0
 10
32.872985097
 20
-20.8513389597
 30
0.0
 10
32.8730224378
 20
-20.7082281444
 30
0.0
 11
32.8788358319
 21
-21.8564770068
 31
0.0
 11
32.8782223622
 21
-21.8455843873
 31
0.0
 11
32.8776222736
 21
-21.8245986024
 31
0.0
 11
32.8770407748
 21
-21.7936800409
 31
0.0
 11
32.8764824949
 21
-21.7531025456
 31
0.0
 11
32.8754530286
 21
-21.6444117885
 31
0.0
 11
32.8745705074
 21
-21.5022133456
 31
0.0
 11
32.8738658511
 21
-21.3313201926
 31
0.0
 11
32.8733623691
 21
-21.1375604702
 31
0.0
 11
32.8730224378
 21
-20.7082281444
 31
0.0
  0
SPLINE
  5
4F3
100
AcDbEntity
  8
RACCORDO
100
AcDbSpline
 62
253
  6
CONTINUOUS
 70
0
 71
3
 72
16
 73
12
 74
10
 42
0.0000001
 43
0.0000001
 44
0.0000000001
 12
0.0002996142
 22
-1.148293826
 32
0.0
 13
-0.1218176672
 23
-1.1418140201
 33
0.0
 40
0.0
 40
0.0
 40
0.0
 40
0.0
 40
0.3738872716
 40
0.5426248938
 40
0.6914496946
 40
0.8152866198
 40
0.9099449957
 40
0.9452855447
 40
0.9722159588
 40
0.9904990513
 40
1.0
 40
1.0
 40
1.0
 40
1.0
 10
-32.8730224292
 20
-20.7082281442
 30
0.0
 10
-32.8729850886
 20
-20.8513389594
 30
0.0
 10
-32.8731258468
 20
-21.0590368148
 30
0.0
 10
-32.873797167
 20
-21.3236983578
 30
0.0
 10
-32.8744686234
 20
-21.492649507
 30
0.0
 10
-32.8753161722
 20
-21.633243246
 30
0.0
 10
-32.8761533028
 20
-21.7304013485
 30
0.0
 10
-32.8769749367
 20
-21.7904601112
 30
0.0
 10
-32.8774842535
 20
-21.8212942202
 30
0.0
 10
-32.8781144801
 20
-21.8422184641
 30
0.0
 10
-32.8784500372
 20
-21.8528609007
 30
0.0
 10
-32.8788358316
 20
-21.8564770062
 30
0.0
 11
-32.8730224292
 21
-20.7082281442
 31
0.0
 11
-32.8733623569
 21
-21.1375604698
 31
0.0
 11
-32.8738658405
 21
-21.3313201921
 31
0.0
 11
-32.8745704982
 21
-21.5022133451
 31
0.0
 11
-32.8754530213
 21
-21.6444117879
 31
0.0
 11
-32.8764824897
 21
-21.7531025451
 31
0.0
 11
-32.8770407708
 21
-21.7936800403
 31
0.0
 11
-32.8776222708
 21
-21.8245986018
 31
0.0
 11
-32.8782223606
 21
-21.8455843867
 31
0.0
 11
-32.8788358316
 21
-21.8564770062
 31
0.0
  0
SPLINE
  5
4F4
100
AcDbEntity
  8
RACCORDO
100
AcDbSpline
 62
253
  6
CONTINUOUS
 70
0
 71
3
 72
16
 73
12
 74
10
 42
0.0000001
 43
0.0000001
 44
0.0000000001
 12
-0.0002996142
 22
1.1482938265
 32
0.0
 13
0.121817671
 23
1.1418140202
 33
0.0
 40
0.0
 40
0.0
 40
0.0
 40
0.0
 40
0.3738872716
 40
0.5426248938
 40
0.6914496946
 40
0.8152866198
 40
0.9099449957
 40
0.9452855447
 40
0.9722159588
 40
0.9904990513
 40
1.0
 40
1.0
 40
1.0
 40
1.0
 10
32.8730224291
 20
20.7082281437
 30
0.0
 10
32.8729850884
 20
20.8513389589
 30
0.0
 10
32.8731258465
 20
21.0590368144
 30
0.0
 10
32.8737971668
 20
21.3236983576
 30
0.0
 10
32.8744686232
 20
21.4926495068
 30
0.0
 10
32.875316172
 20
21.6332432458
 30
0.0
 10
32.8761533027
 20
21.7304013484
 30
0.0
 10
32.8769749366
 20
21.7904601112
 30
0.0
 10
32.8774842534
 20
21.8212942202
 30
0.0
 10
32.87811448
 20
21.8422184641
 30
0.0
 10
32.8784500371
 20
21.8528609007
 30
0.0
 10
32.8788358316
 20
21.8564770062
 30
0.0
 11
32.8730224291
 21
20.7082281437
 31
0.0
 11
32.8733623567
 21
21.1375604695
 31
0.0
 11
32.8738658404
 21
21.3313201918
 31
0.0
 11
32.8745704981
 21
21.5022133449
 31
0.0
 11
32.8754530212
 21
21.6444117878
 31
0.0
 11
32.8764824896
 21
21.753102545
 31
0.0
 11
32.8770407708
 21
21.7936800402
 31
0.0
 11
32.8776222707
 21
21.8245986018
 31
0.0
 11
32.8782223606
 21
21.8455843867
 31
0.0
 11
32.8788358316
 21
21.8564770062
 31
0.0
  0
SPLINE
  5
4F5
100
AcDbEntity
  8
RACCORDO
100
AcDbSpline
 62
253
  6
CONTINUOUS
 70
0
 71
3
 72
16
 73
12
 74
10
 42
0.0000001
 43
0.0000001
 44
0.0000000001
 12
0.1218174189
 22
-1.1418140473
 32
0.0
 13
-0.0002996155
 23
-1.1482938267
 33
0.0
 40
0.0
 40
0.0
 40
0.0
 40
0.0
 40
0.0095009486
 40
0.0277840411
 40
0.0547144552
 40
0.0900550042
 40
0.1847133801
 40
0.3085503052
 40
0.4573751061
 40
0.6261127283
 40
1.0
 40
1.0
 40
1.0
 40
1.0
 10
-32.8788358319
 20
21.8564770068
 30
0.0
 10
-32.8784500383
 20
21.8528609013
 30
0.0
 10
-32.8781144819
 20
21.8422184647
 30
0.0
 10
-32.8774842566
 20
21.8212942208
 30
0.0
 10
-32.876974941
 20
21.7904601118
 30
0.0
 10
-32.8761533087
 20
21.730401349
 30
0.0
 10
-32.8753161799
 20
21.6332432464
 30
0.0
 10
-32.8744686332
 20
21.4926495074
 30
0.0
 10
-32.8737971777
 20
21.3236983581
 30
0.0
 10
-32.8731258615
 20
21.0590368148
 30
0.0
 10
-32.8729850973
 20
20.8513389593
 30
0.0
 10
-32.8730224381
 20
20.708228144
 30
0.0
 11
-32.8788358319
 21
21.8564770068
 31
0.0
 11
-32.8782223622
 21
21.8455843873
 31
0.0
 11
-32.8776222737
 21
21.8245986024
 31
0.0
 11
-32.877040775
 21
21.7936800408
 31
0.0
 11
-32.876482495
 21
21.7531025456
 31
0.0
 11
-32.8754530288
 21
21.6444117884
 31
0.0
 11
-32.8745705077
 21
21.5022133454
 31
0.0
 11
-32.8738658515
 21
21.3313201923
 31
0.0
 11
-32.8733623695
 21
21.1375604699
 31
0.0
 11
-32.8730224381
 21
20.708228144
 31
0.0
  0
SPLINE
  5
4F6
100
AcDbEntity
  8
RACCORDO
100
AcDbSpline
 62
253
  6
CONTINUOUS
 70
0
 71
3
 72
18
 73
14
 74
12
 42
0.0000001
 43
0.0000001
 44
0.0000000001
 12
0.0007380827
 22
0.6704349897
 32
0.0
 13
0.2987961745
 23
0.6001703644
 33
0.0
 40
0.0
 40
0.0
 40
0.0
 40
0.0
 40
0.1908169078
 40
0.3736874364
 40
0.5423171366
 40
0.6910365047
 40
0.8147878898
 40
0.8659678853
 40
0.9094205555
 40
0.9447879656
 40
0.9717829012
 40
0.9901964222
 40
1.0
 40
1.0
 40
1.0
 40
1.0
 10
33.361294204
 20
20.6873334122
 30
0.0
 10
33.3613411502
 20
20.7299768561
 30
0.0
 10
33.3616312534
 20
20.8134878646
 30
0.0
 10
33.3626607008
 20
20.9346801201
 30
0.0
 10
33.3642387979
 20
21.0464583431
 30
0.0
 10
33.3663085147
 20
21.1450129837
 30
0.0
 10
33.3684706633
 20
21.2173135404
 30
0.0
 10
33.3704829919
 20
21.2660735436
 30
0.0
 10
33.3719488353
 20
21.2950963945
 30
0.0
 10
33.3735018326
 20
21.3186748148
 30
0.0
 10
33.374972237
 20
21.3367144699
 30
0.0
 10
33.3766378432
 20
21.3488551239
 30
0.0
 10
33.3776880703
 20
21.3552009665
 30
0.0
 10
33.3786644941
 20
21.3571622388
 30
0.0
 11
33.361294204
 21
20.6873334122
 31
0.0
 11
33.3617467385
 21
20.815263021
 31
0.0
 11
33.362807283
 21
20.9378613091
 31
0.0
 11
33.3644393657
 21
21.0509048478
 31
0.0
 11
33.3665870689
 21
21.1505884426
 31
0.0
 11
33.3691773276
 21
21.2335153074
 31
0.0
 11
33.3706112462
 21
21.2677982134
 31
0.0
 11
33.372121469
 21
21.2968912501
 31
0.0
 11
33.3736954551
 21
21.320550515
 31
0.0
 11
33.3753204492
 21
21.3385757761
 31
0.0
 11
33.3769823213
 21
21.3508084819
 31
0.0
 11
33.3786644941
 21
21.3571622388
 31
0.0
  0
SPLINE
  5
4F7
100
AcDbEntity
  8
RACCORDO
100
AcDbSpline
 62
253
  6
CONTINUOUS
 70
0
 71
3
 72
18
 73
14
 74
12
 42
0.0000001
 43
0.0000001
 44
0.0000000001
 12
-0.2987961815
 22
0.6001703607
 32
0.0
 13
-0.0007380826
 23
0.6704349895
 33
0.0
 40
0.0
 40
0.0
 40
0.0
 40
0.0
 40
0.0098035778
 40
0.0282170989
 40
0.0552120345
 40
0.0905794446
 40
0.1340321148
 40
0.1852121103
 40
0.3089634955
 40
0.4576828637
 40
0.6263125643
 40
0.8091830929
 40
1.0
 40
1.0
 40
1.0
 40
1.0
 10
33.3786644944
 20
-21.3571622394
 30
0.0
 10
33.3776880705
 20
-21.3552009671
 30
0.0
 10
33.3766378435
 20
-21.3488551245
 30
0.0
 10
33.3749722373
 20
-21.3367144704
 30
0.0
 10
33.3735018329
 20
-21.3186748154
 30
0.0
 10
33.3719488356
 20
-21.2950963951
 30
0.0
 10
33.3704829922
 20
-21.2660735441
 30
0.0
 10
33.3684706636
 20
-21.217313541
 30
0.0
 10
33.366308515
 20
-21.1450129842
 30
0.0
 10
33.3642387981
 20
-21.0464583435
 30
0.0
 10
33.3626607011
 20
-20.9346801204
 30
0.0
 10
33.3616312537
 20
-20.813487865
 30
0.0
 10
33.3613411503
 20
-20.7299768566
 30
0.0
 10
33.3612942041
 20
-20.6873334129
 30
0.0
 11
33.3786644944
 21
-21.3571622394
 31
0.0
 11
33.3769823216
 21
-21.3508084825
 31
0.0
 11
33.3753204495
 21
-21.3385757767
 31
0.0
 11
33.3736954554
 21
-21.3205505155
 31
0.0
 11
33.3721214692
 21
-21.2968912506
 31
0.0
 11
33.3706112465
 21
-21.267798214
 31
0.0
 11
33.3691773279
 21
-21.233515308
 31
0.0
 11
33.3665870692
 21
-21.1505884431
 31
0.0
 11
33.364439366
 21
-21.0509048483
 31
0.0
 11
33.3628072833
 21
-20.9378613094
 31
0.0
 11
33.3617467388
 21
-20.8152630212
 31
0.0
 11
33.3612942041
 21
-20.6873334129
 31
0.0
  0
SPLINE
  5
4F8
100
AcDbEntity
  8
RACCORDO
100
AcDbSpline
 62
253
  6
CONTINUOUS
 70
0
 71
3
 72
18
 73
14
 74
12
 42
0.0000001
 43
0.0000001
 44
0.0000000001
 12
-0.0007380827
 22
-0.6704349897
 32
0.0
 13
-0.2987961745
 23
-0.6001703644
 33
0.0
 40
0.0
 40
0.0
 40
0.0
 40
0.0
 40
0.1908169078
 40
0.3736874364
 40
0.5423171366
 40
0.6910365047
 40
0.8147878898
 40
0.8659678853
 40
0.9094205555
 40
0.9447879656
 40
0.9717829012
 40
0.9901964222
 40
1.0
 40
1.0
 40
1.0
 40
1.0
 10
-33.361294204
 20
-20.6873334122
 30
0.0
 10
-33.3613411502
 20
-20.7299768561
 30
0.0
 10
-33.3616312534
 20
-20.8134878646
 30
0.0
 10
-33.3626607008
 20
-20.9346801201
 30
0.0
 10
-33.3642387979
 20
-21.0464583431
 30
0.0
 10
-33.3663085147
 20
-21.1450129837
 30
0.0
 10
-33.3684706633
 20
-21.2173135404
 30
0.0
 10
-33.3704829919
 20
-21.2660735436
 30
0.0
 10
-33.3719488353
 20
-21.2950963945
 30
0.0
 10
-33.3735018326
 20
-21.3186748148
 30
0.0
 10
-33.374972237
 20
-21.3367144699
 30
0.0
 10
-33.3766378432
 20
-21.3488551239
 30
0.0
 10
-33.3776880703
 20
-21.3552009665
 30
0.0
 10
-33.3786644941
 20
-21.3571622388
 30
0.0
 11
-33.361294204
 21
-20.6873334122
 31
0.0
 11
-33.3617467386
 21
-20.815263021
 31
0.0
 11
-33.362807283
 21
-20.9378613091
 31
0.0
 11
-33.3644393657
 21
-21.0509048479
 31
0.0
 11
-33.3665870689
 21
-21.1505884427
 31
0.0
 11
-33.3691773276
 21
-21.2335153074
 31
0.0
 11
-33.3706112462
 21
-21.2677982135
 31
0.0
 11
-33.372121469
 21
-21.2968912501
 31
0.0
 11
-33.3736954551
 21
-21.320550515
 31
0.0
 11
-33.3753204492
 21
-21.3385757761
 31
0.0
 11
-33.3769823213
 21
-21.3508084819
 31
0.0
 11
-33.3786644941
 21
-21.3571622388
 31
0.0
  0
SPLINE
  5
4F9
100
AcDbEntity
  8
RACCORDO
100
AcDbSpline
 62
253
  6
CONTINUOUS
 70
0
 71
3
 72
18
 73
14
 74
12
 42
0.0000001
 43
0.0000001
 44
0.0000000001
 12
0.2987961815
 22
-0.6001703607
 32
0.0
 13
0.0007380826
 23
-0.6704349895
 33
0.0
 40
0.0
 40
0.0
 40
0.0
 40
0.0
 40
0.0098035778
 40
0.0282170989
 40
0.0552120345
 40
0.0905794446
 40
0.1340321148
 40
0.1852121103
 40
0.3089634955
 40
0.4576828637
 40
0.6263125643
 40
0.809183093
 40
1.0
 40
1.0
 40
1.0
 40
1.0
 10
-33.3786644944
 20
21.3571622394
 30
0.0
 10
-33.3776880706
 20
21.3552009672
 30
0.0
 10
-33.3766378435
 20
21.3488551245
 30
0.0
 10
-33.3749722373
 20
21.3367144704
 30
0.0
 10
-33.3735018329
 20
21.3186748154
 30
0.0
 10
-33.3719488356
 20
21.2950963951
 30
0.0
 10
-33.3704829922
 20
21.2660735442
 30
0.0
 10
-33.3684706636
 20
21.217313541
 30
0.0
 10
-33.366308515
 20
21.1450129842
 30
0.0
 10
-33.3642387982
 20
21.0464583435
 30
0.0
 10
-33.3626607011
 20
20.9346801205
 30
0.0
 10
-33.3616312537
 20
20.813487865
 30
0.0
 10
-33.3613411504
 20
20.7299768567
 30
0.0
 10
-33.3612942041
 20
20.687333413
 30
0.0
 11
-33.3786644944
 21
21.3571622394
 31
0.0
 11
-33.3769823216
 21
21.3508084825
 31
0.0
 11
-33.3753204495
 21
21.3385757767
 31
0.0
 11
-33.3736954554
 21
21.3205505155
 31
0.0
 11
-33.3721214693
 21
21.2968912507
 31
0.0
 11
-33.3706112465
 21
21.2677982141
 31
0.0
 11
-33.3691773279
 21
21.233515308
 31
0.0
 11
-33.3665870692
 21
21.1505884432
 31
0.0
 11
-33.364439366
 21
21.0509048483
 31
0.0
 11
-33.3628072833
 21
20.9378613094
 31
0.0
 11
-33.3617467388
 21
20.8152630212
 31
0.0
 11
-33.3612942041
 21
20.687333413
 31
0.0
  0
SPLINE
  5
4FA
100
AcDbEntity
  8
0
100
AcDbSpline
 62
7
  6
CONTINUOUS
 70
0
 71
3
 72
23
 73
19
 74
17
 42
0.0000001
 43
0.0000001
 44
0.0000000001
 12
0.0003498228
 22
7.042128911
 32
0.0
 13
0.0003498228
 23
-7.042128911
 33
0.0
 40
0.0
 40
0.0
 40
0.0
 40
0.0
 40
0.0624881714
 40
0.1249749517
 40
0.1874669556
 40
0.2499635016
 40
0.3124651185
 40
0.3749739549
 40
0.4374876498
 40
0.5000001388
 40
0.562512651
 40
0.6250264206
 40
0.6875356594
 40
0.7500371355
 40
0.8125333164
 40
0.8750252088
 40
0.9375118082
 40
1.0
 40
1.0
 40
1.0
 40
1.0
 10
-2.2502486302
 20
-10.0124626156
 30
0.0
 10
-2.2502413436
 20
-9.8657793628
 30
0.0
 10
-2.2210935651
 20
-9.5715936783
 30
0.0
 10
-2.0917015148
 20
-9.1481316032
 30
0.0
 10
-1.8818157965
 20
-8.7580473664
 30
0.0
 10
-1.5996912051
 20
-8.4165699853
 30
0.0
 10
-1.2563593457
 20
-8.1366511361
 30
0.0
 10
-0.8650961817
 20
-7.9288831278
 30
0.0
 10
-0.4409184815
 20
-7.801048012
 30
0.0
 10
0.0000010302
 20
-7.7579012428
 30
0.0
 10
0.4409206249
 20
-7.8010485338
 30
0.0
 10
0.8650994744
 20
-7.9288841226
 30
0.0
 10
1.2563626143
 20
-8.1366538888
 30
0.0
 10
1.5996941921
 20
-8.4165726432
 30
0.0
 10
1.8818170127
 20
-8.7580496163
 30
0.0
 10
2.0917018067
 20
-9.1481325297
 30
0.0
 10
2.2210936175
 20
-9.5715940056
 30
0.0
 10
2.2502413436
 20
-9.8657793148
 30
0.0
 10
2.2502486302
 20
-10.0124626156
 30
0.0
 11
-2.2502486302
 21
-10.0124626156
 31
0.0
 11
-2.2068150466
 21
-9.5745615832
 31
0.0
 11
-2.0782921054
 21
-9.1537088508
 31
0.0
 11
-1.869785184
 21
-8.7661621987
 31
0.0
 11
-1.5895032032
 21
-8.4268427189
 31
0.0
 11
-1.2483905299
 21
-8.148689388
 31
0.0
 11
-0.8596248056
 21
-7.9422115449
 31
0.0
 11
-0.438126775
 21
-7.8151626479
 31
0.0
 11
0.0000009602
 21
-7.7722834917
 31
0.0
 11
0.4381288159
 21
-7.8151630952
 31
0.0
 11
0.8596272407
 21
-7.9422125061
 31
0.0
 11
1.2483949514
 21
-8.1486926514
 31
0.0
 11
1.5895064808
 21
-8.4268458165
 31
0.0
 11
1.8697862221
 21
-8.7661638107
 31
0.0
 11
2.0782925143
 21
-9.15370991
 31
0.0
 11
2.2068150293
 21
-9.5745614403
 31
0.0
 11
2.2502486302
 21
-10.0124626156
 31
0.0
  0
SPLINE
  5
4FB
100
AcDbEntity
  8
0
100
AcDbSpline
 62
7
  6
CONTINUOUS
 70
0
 71
3
 72
23
 73
19
 74
17
 42
0.0000001
 43
0.0000001
 44
0.0000000001
 12
0.0004520413
 22
-6.9976699015
 32
0.0
 13
0.0004520413
 23
6.9976699015
 33
0.0
 40
0.0
 40
0.0
 40
0.0
 40
0.0
 40
0.0624804217
 40
0.1249583975
 40
0.187443381
 40
0.2499362201
 40
0.3124387917
 40
0.3749532405
 40
0.4374763269
 40
0.5000003488
 40
0.5625242872
 40
0.6250472871
 40
0.6875620465
 40
0.7500644678
 40
0.8125569309
 40
0.8750417862
 40
0.9375195619
 40
1.0
 40
1.0
 40
1.0
 40
1.0
 10
2.2504202518
 20
-13.0162036412
 30
0.0
 10
2.2504296664
 20
-13.1619427632
 30
0.0
 10
2.2208952874
 20
-13.4542682706
 30
0.0
 10
2.0899057575
 20
-13.8743506176
 30
0.0
 10
1.8780759277
 20
-14.2602120442
 30
0.0
 10
1.5944510693
 20
-14.5967844874
 30
0.0
 10
1.2506846036
 20
-14.8716791238
 30
0.0
 10
0.8603082658
 20
-15.0750693882
 30
0.0
 10
0.4381852742
 20
-15.1999202386
 30
0.0
 10
-0.0000022667
 20
-15.2420080553
 30
0.0
 10
-0.438189469
 20
-15.1999193209
 30
0.0
 10
-0.8603126812
 20
-15.075067908
 30
0.0
 10
-1.2506883932
 20
-14.8716760757
 30
0.0
 10
-1.5944543321
 20
-14.5967816382
 30
0.0
 10
-1.8780772901
 20
-14.2602095848
 30
0.0
 10
-2.089906107
 20
-13.8743495499
 30
0.0
 10
-2.2208953537
 20
-13.4542678826
 30
0.0
 10
-2.2504296664
 20
-13.1619428016
 30
0.0
 10
-2.2504202518
 20
-13.0162036412
 30
0.0
 11
2.2504202518
 21
-13.0162036412
 31
0.0
 11
2.2064468239
 21
-13.4512040592
 31
0.0
 11
2.0764410448
 21
-13.8686277737
 31
0.0
 11
1.866125974
 21
-14.2519742384
 31
0.0
 11
1.584452075
 21
-14.5864810851
 31
0.0
 11
1.2429493856
 21
-14.859740118
 31
0.0
 11
0.8550434559
 21
-15.0619684169
 31
0.0
 11
0.4355135601
 21
-15.1861249588
 31
0.0
 11
-0.0000024392
 21
-15.22797856
 31
0.0
 11
-0.4355177717
 21
-15.1861241366
 31
0.0
 11
-0.8550468879
 21
-15.0619670907
 31
0.0
 11
-1.2429541758
 21
-14.859736695
 31
0.0
 11
-1.5844556276
 21
-14.5864778
 31
0.0
 11
-1.8661271726
 21
-14.2519724108
 31
0.0
 11
-2.0764415207
 21
-13.8686265727
 31
0.0
 11
-2.2064468153
 21
-13.4512041742
 31
0.0
 11
-2.2504202518
 21
-13.0162036412
 31
0.0
  0
SPLINE
  5
4FC
100
AcDbEntity
  8
RACCORDO
100
AcDbSpline
 62
253
  6
CONTINUOUS
 70
0
 71
3
 72
9
 73
5
 74
3
 42
0.0000001
 43
0.0000001
 44
0.0000000001
 12
0.0327461522
 22
-41.4164457701
 32
0.0
 13
-0.0327461535
 23
-41.4164457701
 33
0.0
 40
0.0
 40
0.0
 40
0.0
 40
0.0
 40
0.2499444994
 40
1.0
 40
1.0
 40
1.0
 40
1.0
 10
-32.8730224304
 20
20.7082281446
 30
0.0
 10
-32.8702941902
 20
17.257623876
 30
0.0
 10
-32.8621076986
 20
3.4521399301
 30
0.0
 10
-32.8648352815
 20
-10.3533504895
 30
0.0
 10
-32.8730224257
 20
-20.7082281443
 30
0.0
 11
-32.8730224304
 21
20.7082281446
 31
0.0
 11
-32.8668836799
 21
10.3564139235
 31
0.0
 11
-32.8730224257
 21
-20.7082281443
 31
0.0
  0
SPLINE
  5
4FD
100
AcDbEntity
  8
RACCORDO
100
AcDbSpline
 62
253
  6
CONTINUOUS
 70
0
 71
3
 72
9
 73
5
 74
3
 42
0.0000001
 43
0.0000001
 44
0.0000000001
 12
-65.7460385349
 22
-0.0319929088
 32
0.0
 13
-65.7460385349
 23
0.0319930381
 33
0.0
 40
0.0
 40
0.0
 40
0.0
 40
0.0
 40
0.2499830911
 40
1.0
 40
1.0
 40
1.0
 40
1.0
 10
32.8730224256
 20
20.7082281438
 30
0.0
 10
27.3945564455
 20
20.7055622484
 30
0.0
 10
5.4792090576
 20
20.6975441922
 30
0.0
 10
-16.4361422322
 20
20.7002297047
 30
0.0
 10
-32.8730224304
 20
20.7082281446
 30
0.0
 11
32.8730224256
 21
20.7082281438
 31
0.0
 11
16.4376236368
 21
20.702222374
 31
0.0
 11
-32.8730224304
 21
20.7082281446
 31
0.0
  0
SPLINE
  5
4FE
100
AcDbEntity
  8
RACCORDO
100
AcDbSpline
 62
253
  6
CONTINUOUS
 70
0
 71
3
 72
9
 73
5
 74
3
 42
0.0000001
 43
0.0000001
 44
0.0000000001
 12
-0.0327461535
 22
41.4164457701
 32
0.0
 13
0.0327461522
 23
41.4164457701
 33
0.0
 40
0.0
 40
0.0
 40
0.0
 40
0.0
 40
0.2499444994
 40
1.0
 40
1.0
 40
1.0
 40
1.0
 10
32.8730224302
 20
-20.708228145
 30
0.0
 10
32.8702941899
 20
-17.2576238765
 30
0.0
 10
32.8621076989
 20
-3.4521399306
 30
0.0
 10
32.8648352818
 20
10.353350489
 30
0.0
 10
32.8730224256
 20
20.7082281438
 30
0.0
 11
32.8730224302
 21
-20.708228145
 31
0.0
 11
32.8668836799
 21
-10.356413924
 31
0.0
 11
32.8730224256
 21
20.7082281438
 31
0.0
  0
SPLINE
  5
4FF
100
AcDbEntity
  8
RACCORDO
100
AcDbSpline
 62
253
  6
CONTINUOUS
 70
0
 71
3
 72
9
 73
5
 74
3
 42
0.0000001
 43
0.0000001
 44
0.0000000001
 12
65.7460385349
 22
0.0319929108
 32
0.0
 13
65.7460385348
 23
-0.0319930339
 33
0.0
 40
0.0
 40
0.0
 40
0.0
 40
0.0
 40
0.2499830911
 40
1.0
 40
1.0
 40
1.0
 40
1.0
 10
-32.8730224257
 20
-20.7082281443
 30
0.0
 10
-27.394556446
 20
-20.7055622487
 30
0.0
 10
-5.4792090582
 20
-20.6975441916
 30
0.0
 10
16.4361422316
 20
-20.7002297062
 30
0.0
 10
32.8730224302
 20
-20.708228145
 30
0.0
 11
-32.8730224257
 21
-20.7082281443
 31
0.0
 11
-16.4376236382
 21
-20.702222374
 31
0.0
 11
32.8730224302
 21
-20.708228145
 31
0.0
  0
SPLINE
  5
500
100
AcDbEntity
  8
DRAFT
100
AcDbSpline
 62
253
  6
CONTINUOUS
 70
0
 71
3
 72
12
 73
8
 74
6
 42
0.0000001
 43
0.0000001
 44
0.0000000001
 12
1.2503923337
 22
0.0185419963
 32
0.0
 13
1.250506983
 23
0.0075550811
 33
0.0
 40
0.0
 40
0.0
 40
0.0
 40
0.0
 40
0.2423464417
 40
0.4904053746
 40
0.6162883096
 40
0.7432726289
 40
1.0
 40
1.0
 40
1.0
 40
1.0
 10
-2.2504202518
 20
-13.0162036412
 30
0.0
 10
-2.1494108742
 20
-13.0147057789
 30
0.0
 10
-1.9450113963
 20
-13.0115768793
 30
0.0
 10
-1.6881238662
 20
-13.0094801195
 30
0.0
 10
-1.4793248023
 20
-13.0074528584
 30
0.0
 10
-1.2669348424
 20
-13.003840071
 30
0.0
 10
-1.1070130649
 20
-13.0005744257
 30
0.0
 10
-0.9999999415
 20
-12.9999278936
 30
0.0
 11
-2.2504202518
 21
-13.0162036412
 31
0.0
 11
-1.9473883762
 21
-13.0119699758
 31
0.0
 11
-1.6371979067
 21
-13.008958346
 31
0.0
 11
-1.4797866345
 21
-13.00726665
 31
0.0
 11
-1.3210096994
 21
-13.0047001668
 31
0.0
 11
-0.9999999415
 21
-12.9999278936
 31
0.0
  0
SPLINE
  5
501
100
AcDbEntity
  8
DRAFT
100
AcDbSpline
 62
253
  6
CONTINUOUS
 70
0
 71
3
 72
12
 73
8
 74
6
 42
0.0000001
 43
0.0000001
 44
0.0000000001
 12
1.2505070568
 22
-0.0075549819
 32
0.0
 13
1.2503924068
 23
-0.0185419973
 33
0.0
 40
0.0
 40
0.0
 40
0.0
 40
0.0
 40
0.2567273829
 40
0.3837117096
 40
0.5095946413
 40
0.7576535653
 40
1.0
 40
1.0
 40
1.0
 40
1.0
 10
0.9999999413
 20
-12.9999233041
 30
0.0
 10
1.107013076
 20
-13.0005698277
 30
0.0
 10
1.2669348302
 20
-13.0038383449
 30
0.0
 10
1.4793247685
 20
-13.0074535178
 30
0.0
 10
1.6881238464
 20
-13.0094807669
 30
0.0
 10
1.9450113927
 20
-13.011576415
 30
0.0
 10
2.1494108712
 20
-13.0147057789
 30
0.0
 10
2.2504202518
 20
-13.0162036412
 30
0.0
 11
0.9999999413
 21
-12.9999233041
 31
0.0
 11
1.321009683
 21
-13.0046989302
 31
0.0
 11
1.4797866106
 21
-13.0072670146
 31
0.0
 11
1.6371978856
 21
-13.0089589209
 31
0.0
 11
1.9473883689
 21
-13.0119698464
 31
0.0
 11
2.2504202518
 21
-13.0162036412
 31
0.0
  0
SPLINE
  5
502
100
AcDbEntity
  8
DRAFT
100
AcDbSpline
 62
253
  6
CONTINUOUS
 70
0
 71
3
 72
11
 73
7
 74
5
 42
0.0000001
 43
0.0000001
 44
0.0000000001
 12
-1.250298597
 22
-0.0058105914
 32
0.0
 13
-1.2502307754
 23
-0.0142601854
 33
0.0
 40
0.0
 40
0.0
 40
0.0
 40
0.0
 40
0.256725622
 40
0.5095916939
 40
0.7576536288
 40
1.0
 40
1.0
 40
1.0
 40
1.0
 10
-0.9999999677
 20
-10.0000018
 30
0.0
 10
-1.1069945294
 20
-10.0004990426
 30
0.0
 10
-1.3193553418
 20
-10.0039413739
 30
0.0
 10
-1.6351072444
 20
-10.0070867312
 30
0.0
 10
-1.944878336
 20
-10.0088718205
 30
0.0
 10
-2.149252333
 20
-10.0113106476
 30
0.0
 10
-2.2502486302
 20
-10.0124626156
 30
0.0
 11
-0.9999999677
 21
-10.0000018
 31
0.0
 11
-1.3209666051
 21
-10.0036307046
 31
0.0
 11
-1.6371113826
 21
-10.0068833225
 31
0.0
 11
-1.9472575074
 21
-10.0092081974
 31
0.0
 11
-2.2502486302
 21
-10.0124626156
 31
0.0
  0
SPLINE
  5
503
100
AcDbEntity
  8
DRAFT
100
AcDbSpline
 62
253
  6
CONTINUOUS
 70
0
 71
3
 72
11
 73
7
 74
5
 42
0.0000001
 43
0.0000001
 44
0.0000000001
 12
-1.2502308603
 22
0.0142601863
 32
0.0
 13
-1.2502986827
 23
0.0058104276
 33
0.0
 40
0.0
 40
0.0
 40
0.0
 40
0.0
 40
0.2423463636
 40
0.4904082881
 40
0.7432743624
 40
1.0
 40
1.0
 40
1.0
 40
1.0
 10
2.2502486302
 20
-10.0124626156
 30
0.0
 10
2.1492523293
 20
-10.0113106475
 30
0.0
 10
1.9448783334
 20
-10.0088709639
 30
0.0
 10
1.6351072063
 20
-10.0070885389
 30
0.0
 10
1.3193553014
 20
-10.0039405568
 30
0.0
 10
1.106994543
 20
-10.000491649
 30
0.0
 10
0.9999999675
 20
-9.9999944204
 30
0.0
 11
2.2502486302
 21
-10.0124626156
 31
0.0
 11
1.9472574986
 21
-10.0092079892
 31
0.0
 11
1.6371113571
 21
-10.0068842471
 31
0.0
 11
1.3209665853
 21
-10.0036287164
 31
0.0
 11
0.9999999675
 21
-9.9999944204
 31
0.0
  0
LINE
  5
504
100
AcDbEntity
  8
0
100
AcDbLine
 62
7
  6
CONTINUOUS
 10
-71.0832560857
 20
-13.0162036412
 11
-71.0071922091
 21
-15.22797856
  0
LINE
  5
505
100
AcDbEntity
  8
0
100
AcDbLine
 62
7
  6
CONTINUOUS
 10
-71.0071922091
 20
-15.22797856
 11
-71.0072507578
 21
-15.226364344
  0
LINE
  5
506
100
AcDbEntity
  8
0
100
AcDbLine
 62
7
  6
CONTINUOUS
 10
-71.2216555291
 20
-7.7722834917
 11
-71.1696851214
 21
-10.0124626156
  0
LINE
  5
507
100
AcDbEntity
  8
RACCORDO
100
AcDbLine
 62
253
  6
CONTINUOUS
 10
-70.3804598659
 20
20.7082281438
 11
-70.7611751686
 21
20.7002166039
  0
LINE
  5
508
100
AcDbEntity
  8
RACCORDO
100
AcDbLine
 62
253
  6
CONTINUOUS
 10
-70.7611751685
 20
-20.7002166039
 11
-70.3804598657
 21
-20.708228145
  0
SPLINE
  5
509
100
AcDbEntity
  8
RACCORDO
100
AcDbSpline
 62
253
  6
CONTINUOUS
 70
0
 71
3
 72
20
 73
16
 74
14
 42
0.0000001
 43
0.0000001
 44
0.0000000001
 12
-0.4993512462
 22
-0.0261698899
 32
0.0
 13
0.0261520065
 23
-0.4993521831
 33
0.0
 40
0.0
 40
0.0
 40
0.0
 40
0.0
 40
0.0017592822
 40
0.0055942363
 40
0.0201940068
 40
0.0441045176
 40
0.0772031582
 40
0.1191597488
 40
0.1695562879
 40
0.2279614752
 40
0.2938048909
 40
0.4450928598
 40
0.6177145956
 40
0.8052818974
 40
1.0
 40
1.0
 40
1.0
 40
1.0
 10
-69.2438537028
 20
21.8564770062
 30
0.0
 10
-69.2441465361
 20
21.8564616594
 30
0.0
 10
-69.244703351
 20
21.8554463828
 30
0.0
 10
-69.2453713468
 20
21.8523836315
 30
0.0
 10
-69.2461151673
 20
21.8451190584
 30
0.0
 10
-69.246617951
 20
21.8333274981
 30
0.0
 10
-69.2469264615
 20
21.8167750591
 30
0.0
 10
-69.2469527892
 20
21.7958867009
 30
0.0
 10
-69.2467165785
 20
21.7707513608
 30
0.0
 10
-69.2462043399
 20
21.7416485871
 30
0.0
 10
-69.2451104398
 20
21.6957342082
 30
0.0
 10
-69.2430611622
 20
21.6308026445
 30
0.0
 10
-69.2397646162
 20
21.545613267
 30
0.0
 10
-69.2356422566
 20
21.4532135028
 30
0.0
 10
-69.2324716219
 20
21.3895732087
 30
0.0
 10
-69.2307741989
 20
21.3571622388
 30
0.0
 11
-69.2438537028
 21
21.8564770062
 31
0.0
 11
-69.2444599849
 21
21.8558395867
 31
0.0
 11
-69.2450028822
 21
21.8540004244
 31
0.0
 11
-69.2458932555
 21
21.8467545051
 31
0.0
 11
-69.2465142889
 21
21.8348145162
 31
0.0
 11
-69.2468564101
 21
21.8182675233
 31
0.0
 11
-69.2469171524
 21
21.7972877833
 31
0.0
 11
-69.2466972346
 21
21.7720886325
 31
0.0
 11
-69.2461976849
 21
21.7428881781
 31
0.0
 11
-69.2454239477
 21
21.709973158
 31
0.0
 11
-69.2430894385
 21
21.6343596767
 31
0.0
 11
-69.239779556
 21
21.5481059861
 31
0.0
 11
-69.235615776
 21
21.4544079536
 31
0.0
 11
-69.2307741989
 21
21.3571622388
 31
0.0
  0
SPLINE
  5
50A
100
AcDbEntity
  8
RACCORDO
100
AcDbSpline
 62
253
  6
CONTINUOUS
 70
0
 71
3
 72
20
 73
16
 74
14
 42
0.0000001
 43
0.0000001
 44
0.0000000001
 12
-0.4993512487
 22
0.02616989
 32
0.0
 13
0.0261520397
 23
0.4993521839
 33
0.0
 40
0.0
 40
0.0
 40
0.0
 40
0.0
 40
0.0017592849
 40
0.0055942412
 40
0.0201940163
 40
0.0441045311
 40
0.0772031763
 40
0.119159775
 40
0.1695563206
 40
0.2279615106
 40
0.2938049322
 40
0.4450929081
 40
0.6177146368
 40
0.8052819109
 40
1.0
 40
1.0
 40
1.0
 40
1.0
 10
-69.2438536915
 20
-21.8564770068
 30
0.0
 10
-69.2441465252
 20
-21.85646166
 30
0.0
 10
-69.244703342
 20
-21.8554463837
 30
0.0
 10
-69.2453713397
 20
-21.8523836303
 30
0.0
 10
-69.2461151627
 20
-21.8451190565
 30
0.0
 10
-69.2466179485
 20
-21.8333274935
 30
0.0
 10
-69.246926461
 20
-21.8167750519
 30
0.0
 10
-69.24695279
 20
-21.7958866903
 30
0.0
 10
-69.2467165802
 20
-21.7707513472
 30
0.0
 10
-69.2462043421
 20
-21.7416485708
 30
0.0
 10
-69.2451104419
 20
-21.6957341891
 30
0.0
 10
-69.2430611632
 20
-21.6308026241
 30
0.0
 10
-69.2397646142
 20
-21.5456132509
 30
0.0
 10
-69.2356422508
 20
-21.4532134945
 30
0.0
 10
-69.2324716126
 20
-21.3895732071
 30
0.0
 10
-69.2307741875
 20
-21.3571622394
 30
0.0
 11
-69.2438536915
 21
-21.8564770068
 31
0.0
 11
-69.2444599752
 21
-21.855839587
 31
0.0
 11
-69.2450028741
 21
-21.854000424
 31
0.0
 11
-69.2458932502
 21
-21.8467545027
 31
0.0
 11
-69.2465142861
 21
-21.8348145119
 31
0.0
 11
-69.2468564092
 21
-21.8182675166
 31
0.0
 11
-69.2469171531
 21
-21.7972877725
 31
0.0
 11
-69.2466972361
 21
-21.7720886182
 31
0.0
 11
-69.2461976871
 21
-21.7428881623
 31
0.0
 11
-69.2454239498
 21
-21.7099731391
 31
0.0
 11
-69.2430894393
 21
-21.6343596539
 31
0.0
 11
-69.2397795538
 21
-21.5481059666
 31
0.0
 11
-69.2356157702
 21
-21.4544079477
 31
0.0
 11
-69.2307741875
 21
-21.3571622394
 31
0.0
  0
SPLINE
  5
50B
100
AcDbEntity
  8
0
100
AcDbSpline
 62
7
  6
CONTINUOUS
 70
0
 71
3
 72
13
 73
9
 74
7
 42
0.0000001
 43
0.0000001
 44
0.0000000001
 12
-0.2489101548
 22
-0.143711993
 32
0.0
 13
-0.244355276
 23
-0.1513687366
 33
0.0
 40
0.0
 40
0.0
 40
0.0
 40
0.0
 40
0.3612210663
 40
0.682170423
 40
0.812667465
 40
0.9137049675
 40
0.9780318448
 40
1.0
 40
1.0
 40
1.0
 40
1.0
 10
-62.248612604
 20
23.2669872981
 30
0.0
 10
-62.2785831345
 20
23.249683365
 30
0.0
 10
-62.33517051
 20
23.2169831279
 30
0.0
 10
-62.402534801
 20
23.1779450624
 30
0.0
 10
-62.4483137694
 20
23.1513733071
 30
0.0
 10
-62.4727802486
 20
23.1370619739
 30
0.0
 10
-62.4883078357
 20
23.1280587384
 30
0.0
 10
-62.4953688263
 20
23.1237581614
 30
0.0
 10
-62.4971581712
 20
23.1226497308
 30
0.0
 11
-62.248612604
 21
23.2669872981
 31
0.0
 11
-62.3384998134
 21
23.2150332915
 31
0.0
 11
-62.418314505
 21
23.1687830511
 31
0.0
 11
-62.4507426933
 21
23.1499360992
 31
0.0
 11
-62.4758279193
 21
23.1353054509
 31
0.0
 11
-62.4917678385
 21
23.1259378303
 31
0.0
 11
-62.4971581712
 21
23.1226497308
 31
0.0
  0
SPLINE
  5
50C
100
AcDbEntity
  8
0
100
AcDbSpline
 62
253
  6
CONTINUOUS
 70
0
 71
3
 72
26
 73
22
 74
20
 42
0.0000001
 43
0.0000001
 44
0.0000000001
 12
-0.124641584
 22
-0.2158928633
 32
0.0
 13
0.2158910366
 23
-0.124644748
 33
0.0
 40
0.0
 40
0.0
 40
0.0
 40
0.0
 40
0.1952371571
 40
0.3828765725
 40
0.5557521165
 40
0.6345528919
 40
0.7072369656
 40
0.7731083045
 40
0.8315338818
 40
0.8819524705
 40
0.9238825345
 40
0.9415345162
 40
0.9569212041
 40
0.9700029814
 40
0.9807505693
 40
0.9891391953
 40
0.9951465425
 40
0.9972538056
 40
0.9987627805
 40
0.9996743239
 40
1.0
 40
1.0
 40
1.0
 40
1.0
 10
-63.248612604
 20
23.8443375673
 30
0.0
 10
-63.2567241602
 20
23.8302874643
 30
0.0
 10
-63.2726182324
 20
23.8027262996
 30
0.0
 10
-63.2956483085
 20
23.7626974834
 30
0.0
 10
-63.3138176408
 20
23.7310346506
 30
0.0
 10
-63.3272073023
 20
23.7076424988
 30
0.0
 10
-63.3361669427
 20
23.6919598928
 30
0.0
 10
-63.34427284
 20
23.6777394869
 30
0.0
 10
-63.3514473361
 20
23.6651178186
 30
0.0
 10
-63.3576216364
 20
23.6542160512
 30
0.0
 10
-63.3621095327
 20
23.6462528792
 30
0.0
 10
-63.3651540743
 20
23.6408180126
 30
0.0
 10
-63.3670201993
 20
23.6374702745
 30
0.0
 10
-63.3685979937
 20
23.6346199041
 30
0.0
 10
-63.3698872703
 20
23.6322710394
 30
0.0
 10
-63.3708760835
 20
23.6304369747
 30
0.0
 10
-63.3715259905
 20
23.6292158937
 30
0.0
 10
-63.371873635
 20
23.6285132656
 30
0.0
 10
-63.3720572054
 20
23.6281552613
 30
0.0
 10
-63.3721102368
 20
23.627979116
 30
0.0
 10
-63.372181608
 20
23.6278447476
 30
0.0
 10
-63.3721581712
 20
23.6278312164
 30
0.0
 11
-63.248612604
 21
23.8443375673
 31
0.0
 11
-63.2729263856
 21
23.8021752067
 31
0.0
 11
-63.2962521835
 21
23.761629536
 31
0.0
 11
-63.3176991401
 21
23.7242490838
 31
0.0
 11
-63.3274573745
 21
23.7071999878
 31
0.0
 11
-63.3364450882
 21
23.6914668129
 31
0.0
 11
-63.3445762086
 21
23.6772002365
 31
0.0
 11
-63.3517725826
 21
23.664537377
 31
0.0
 11
-63.357965068
 21
23.6535998967
 31
0.0
 11
-63.3630945023
 21
23.644492298
 31
0.0
 11
-63.3652446661
 21
23.6406529246
 31
0.0
 11
-63.3671115594
 21
23.6373021623
 31
0.0
 11
-63.3686903541
 21
23.6344486549
 31
0.0
 11
-63.369977501
 21
23.632098827
 31
0.0
 11
-63.3709699947
 21
23.6302581591
 31
0.0
 11
-63.371665096
 21
23.6289316804
 31
0.0
 11
-63.3719006739
 21
23.6284621459
 31
0.0
 11
-63.3720614538
 21
23.6281220652
 31
0.0
 11
-63.3721473235
 21
23.627911676
 31
0.0
 11
-63.3721581712
 21
23.6278312164
 31
0.0
  0
SPLINE
  5
50D
100
AcDbEntity
  8
0
100
AcDbSpline
 62
253
  6
CONTINUOUS
 70
0
 71
3
 72
26
 73
22
 74
20
 42
0.0000001
 43
0.0000001
 44
0.0000000001
 12
0.124641584
 22
-0.2158928633
 32
0.0
 13
-0.2158910366
 23
-0.1246447481
 33
0.0
 40
0.0
 40
0.0
 40
0.0
 40
0.0
 40
0.1952373303
 40
0.3828767077
 40
0.5557522251
 40
0.6345529812
 40
0.7072370395
 40
0.7731083627
 40
0.8315339236
 40
0.8819525002
 40
0.9238825542
 40
0.9415345305
 40
0.9569212142
 40
0.9700029891
 40
0.9807505739
 40
0.9891391978
 40
0.995146544
 40
0.9972538066
 40
0.998762781
 40
0.999674324
 40
1.0
 40
1.0
 40
1.0
 40
1.0
 10
-60.2457037383
 20
23.8443375673
 30
0.0
 10
-60.2375921749
 20
23.8302874519
 30
0.0
 10
-60.2216980971
 20
23.8027262774
 30
0.0
 10
-60.1986680166
 20
23.7626974533
 30
0.0
 10
-60.1804986877
 20
23.7310346265
 30
0.0
 10
-60.1671090288
 20
23.7076424792
 30
0.0
 10
-60.1581493905
 20
23.6919598769
 30
0.0
 10
-60.1500434952
 20
23.6777394743
 30
0.0
 10
-60.1428690009
 20
23.6651178092
 30
0.0
 10
-60.1366947022
 20
23.6542160446
 30
0.0
 10
-60.132206807
 20
23.6462528745
 30
0.0
 10
-60.1291622663
 20
23.6408180094
 30
0.0
 10
-60.1272961417
 20
23.6374702721
 30
0.0
 10
-60.1257183477
 20
23.6346199025
 30
0.0
 10
-60.1244290715
 20
23.6322710383
 30
0.0
 10
-60.1234402585
 20
23.630436974
 30
0.0
 10
-60.1227903516
 20
23.6292158934
 30
0.0
 10
-60.1224427072
 20
23.6285132654
 30
0.0
 10
-60.1222591369
 20
23.6281552612
 30
0.0
 10
-60.1222061054
 20
23.627979116
 30
0.0
 10
-60.1221347343
 20
23.6278447476
 30
0.0
 10
-60.1221581712
 20
23.6278312164
 30
0.0
 11
-60.2457037383
 21
23.8443375673
 31
0.0
 11
-60.2213899351
 21
23.8021751692
 31
0.0
 11
-60.198064142
 21
23.7616295068
 31
0.0
 11
-60.1766171888
 21
23.7242490603
 31
0.0
 11
-60.1668589568
 21
23.7071999685
 31
0.0
 11
-60.157871245
 21
23.6914667969
 31
0.0
 11
-60.1497401265
 21
23.6772002239
 31
0.0
 11
-60.1425437546
 21
23.6645373679
 31
0.0
 11
-60.1363512706
 21
23.6535998903
 31
0.0
 11
-60.1312218376
 21
23.6444922937
 31
0.0
 11
-60.1290716745
 21
23.6406529215
 31
0.0
 11
-60.1272047817
 21
23.6373021601
 31
0.0
 11
-60.1256259873
 21
23.6344486533
 31
0.0
 11
-60.1243388408
 21
23.632098826
 31
0.0
 11
-60.1233463473
 21
23.6302581585
 31
0.0
 11
-60.1226512461
 21
23.6289316801
 31
0.0
 11
-60.1224156683
 21
23.6284621457
 31
0.0
 11
-60.1222548885
 21
23.628122065
 31
0.0
 11
-60.1221690188
 21
23.627911676
 31
0.0
 11
-60.1221581712
 21
23.6278312164
 31
0.0
  0
SPLINE
  5
50E
100
AcDbEntity
  8
0
100
AcDbSpline
 62
253
  6
CONTINUOUS
 70
0
 71
3
 72
26
 73
22
 74
20
 42
0.0000001
 43
0.0000001
 44
0.0000000001
 12
0.124641584
 22
0.2158928634
 32
0.0
 13
-0.2158910366
 23
0.1246447481
 33
0.0
 40
0.0
 40
0.0
 40
0.0
 40
0.0
 40
0.1952373367
 40
0.3828767197
 40
0.5557522426
 40
0.6345529999
 40
0.7072370592
 40
0.7731083831
 40
0.8315339428
 40
0.8819525183
 40
0.923882571
 40
0.941534545
 40
0.956921227
 40
0.9700030008
 40
0.9807505828
 40
0.9891392048
 40
0.9951465495
 40
0.9972538103
 40
0.9987627829
 40
0.9996743245
 40
1.0
 40
1.0
 40
1.0
 40
1.0
 10
-60.2457037383
 20
-23.8443375673
 30
0.0
 10
-60.2375921747
 20
-23.8302874514
 30
0.0
 10
-60.2216980963
 20
-23.8027262761
 30
0.0
 10
-60.1986680151
 20
-23.7626974507
 30
0.0
 10
-60.1804986857
 20
-23.7310346231
 30
0.0
 10
-60.1671090265
 20
-23.7076424751
 30
0.0
 10
-60.1581493881
 20
-23.6919598726
 30
0.0
 10
-60.1500434927
 20
-23.67773947
 30
0.0
 10
-60.1428689985
 20
-23.665117805
 30
0.0
 10
-60.1366947
 20
-23.6542160407
 30
0.0
 10
-60.132206805
 20
-23.646252871
 30
0.0
 10
-60.1291622645
 20
-23.6408180062
 30
0.0
 10
-60.1272961401
 20
-23.6374702693
 30
0.0
 10
-60.1257183464
 20
-23.6346199
 30
0.0
 10
-60.1244290704
 20
-23.6322710363
 30
0.0
 10
-60.1234402577
 20
-23.6304369725
 30
0.0
 10
-60.122790351
 20
-23.6292158922
 30
0.0
 10
-60.1224427067
 20
-23.6285132646
 30
0.0
 10
-60.1222591367
 20
-23.6281552608
 30
0.0
 10
-60.1222061052
 20
-23.6279791158
 30
0.0
 10
-60.1221347344
 20
-23.6278447476
 30
0.0
 10
-60.1221581712
 20
-23.6278312164
 30
0.0
 11
-60.2457037383
 21
-23.8443375673
 31
0.0
 11
-60.2213899343
 21
-23.8021751679
 31
0.0
 11
-60.1980641406
 21
-23.7616295042
 31
0.0
 11
-60.1766171866
 21
-23.7242490565
 31
0.0
 11
-60.1668589544
 21
-23.7071999644
 31
0.0
 11
-60.1578712426
 21
-23.6914667926
 31
0.0
 11
-60.149740124
 21
-23.6772002194
 31
0.0
 11
-60.1425437522
 21
-23.6645373638
 31
0.0
 11
-60.1363512684
 21
-23.6535998863
 31
0.0
 11
-60.1312218356
 21
-23.6444922901
 31
0.0
 11
-60.1290716727
 21
-23.6406529184
 31
0.0
 11
-60.1272047801
 21
-23.6373021573
 31
0.0
 11
-60.1256259858
 21
-23.6344486507
 31
0.0
 11
-60.1243388398
 21
-23.632098824
 31
0.0
 11
-60.1233463465
 21
-23.630258157
 31
0.0
 11
-60.1226512454
 21
-23.6289316788
 31
0.0
 11
-60.1224156678
 21
-23.6284621448
 31
0.0
 11
-60.1222548883
 21
-23.6281220646
 31
0.0
 11
-60.1221690187
 21
-23.6279116759
 31
0.0
 11
-60.1221581712
 21
-23.6278312164
 31
0.0
  0
LINE
  5
50F
100
AcDbEntity
  8
RACCORDO
100
AcDbLine
 62
253
  6
CONTINUOUS
 10
-49.1287541423
 20
18.5521029846
 11
-49.1936676947
 21
19.0166572575
  0
SPLINE
  5
510
100
AcDbEntity
  8
0
100
AcDbSpline
 62
253
  6
CONTINUOUS
 70
0
 71
3
 72
26
 73
22
 74
20
 42
0.0000001
 43
0.0000001
 44
0.0000000001
 12
-0.124641584
 22
0.2158928633
 32
0.0
 13
0.2158910366
 23
0.1246447481
 33
0.0
 40
0.0
 40
0.0
 40
0.0
 40
0.0
 40
0.1952373303
 40
0.3828767077
 40
0.5557522251
 40
0.6345529812
 40
0.7072370395
 40
0.7731083627
 40
0.8315339236
 40
0.8819525002
 40
0.9238825542
 40
0.9415345305
 40
0.9569212142
 40
0.9700029891
 40
0.9807505739
 40
0.9891391978
 40
0.995146544
 40
0.9972538066
 40
0.998762781
 40
0.999674324
 40
1.0
 40
1.0
 40
1.0
 40
1.0
 10
-63.248612604
 20
-23.8443375673
 30
0.0
 10
-63.2567241674
 20
-23.8302874519
 30
0.0
 10
-63.2726182452
 20
-23.8027262774
 30
0.0
 10
-63.2956483257
 20
-23.7626974533
 30
0.0
 10
-63.3138176546
 20
-23.7310346265
 30
0.0
 10
-63.3272073135
 20
-23.7076424792
 30
0.0
 10
-63.3361669518
 20
-23.6919598769
 30
0.0
 10
-63.3442728471
 20
-23.6777394743
 30
0.0
 10
-63.3514473414
 20
-23.6651178092
 30
0.0
 10
-63.3576216401
 20
-23.6542160446
 30
0.0
 10
-63.3621095353
 20
-23.6462528745
 30
0.0
 10
-63.3651540761
 20
-23.6408180094
 30
0.0
 10
-63.3670202006
 20
-23.6374702721
 30
0.0
 10
-63.3685979946
 20
-23.6346199025
 30
0.0
 10
-63.3698872709
 20
-23.6322710383
 30
0.0
 10
-63.3708760838
 20
-23.630436974
 30
0.0
 10
-63.3715259907
 20
-23.6292158934
 30
0.0
 10
-63.3718736352
 20
-23.6285132654
 30
0.0
 10
-63.3720572054
 20
-23.6281552612
 30
0.0
 10
-63.3721102369
 20
-23.627979116
 30
0.0
 10
-63.372181608
 20
-23.6278447476
 30
0.0
 10
-63.3721581712
 20
-23.6278312164
 30
0.0
 11
-63.248612604
 21
-23.8443375673
 31
0.0
 11
-63.2729264072
 21
-23.8021751692
 31
0.0
 11
-63.2962522003
 21
-23.7616295068
 31
0.0
 11
-63.3176991535
 21
-23.7242490603
 31
0.0
 11
-63.3274573856
 21
-23.7071999685
 31
0.0
 11
-63.3364450973
 21
-23.6914667969
 31
0.0
 11
-63.3445762158
 21
-23.6772002239
 31
0.0
 11
-63.3517725877
 21
-23.6645373679
 31
0.0
 11
-63.3579650717
 21
-23.6535998903
 31
0.0
 11
-63.3630945047
 21
-23.6444922937
 31
0.0
 11
-63.3652446678
 21
-23.6406529215
 31
0.0
 11
-63.3671115607
 21
-23.6373021601
 31
0.0
 11
-63.3686903551
 21
-23.6344486533
 31
0.0
 11
-63.3699775015
 21
-23.632098826
 31
0.0
 11
-63.370969995
 21
-23.6302581585
 31
0.0
 11
-63.3716650962
 21
-23.6289316801
 31
0.0
 11
-63.371900674
 21
-23.6284621457
 31
0.0
 11
-63.3720614538
 21
-23.628122065
 31
0.0
 11
-63.3721473235
 21
-23.627911676
 31
0.0
 11
-63.3721581712
 21
-23.6278312164
 31
0.0
  0
SPLINE
  5
511
100
AcDbEntity
  8
0
100
AcDbSpline
 62
7
  6
CONTINUOUS
 70
0
 71
3
 72
13
 73
9
 74
7
 42
0.0000001
 43
0.0000001
 44
0.0000000001
 12
-0.2489101548
 22
0.143711993
 32
0.0
 13
-0.244355276
 23
0.1513687366
 33
0.0
 40
0.0
 40
0.0
 40
0.0
 40
0.0
 40
0.3612210663
 40
0.682170423
 40
0.812667465
 40
0.9137049675
 40
0.9780318448
 40
1.0
 40
1.0
 40
1.0
 40
1.0
 10
-62.248612604
 20
-23.2669872981
 30
0.0
 10
-62.2785831345
 20
-23.249683365
 30
0.0
 10
-62.33517051
 20
-23.2169831279
 30
0.0
 10
-62.402534801
 20
-23.1779450624
 30
0.0
 10
-62.4483137694
 20
-23.1513733071
 30
0.0
 10
-62.4727802486
 20
-23.1370619739
 30
0.0
 10
-62.4883078357
 20
-23.1280587384
 30
0.0
 10
-62.4953688263
 20
-23.1237581614
 30
0.0
 10
-62.4971581712
 20
-23.1226497308
 30
0.0
 11
-62.248612604
 21
-23.2669872981
 31
0.0
 11
-62.3384998134
 21
-23.2150332915
 31
0.0
 11
-62.418314505
 21
-23.1687830511
 31
0.0
 11
-62.4507426933
 21
-23.1499360992
 31
0.0
 11
-62.4758279193
 21
-23.1353054509
 31
0.0
 11
-62.4917678385
 21
-23.1259378303
 31
0.0
 11
-62.4971581712
 21
-23.1226497308
 31
0.0
  0
LINE
  5
512
100
AcDbEntity
  8
RACCORDO
100
AcDbLine
 62
253
  6
CONTINUOUS
 10
-49.1936676947
 20
-19.0166572575
 11
-49.1287541423
 21
-18.5521029846
  0
SPLINE
  5
513
100
AcDbEntity
  8
0
100
AcDbSpline
 62
253
  6
CONTINUOUS
 70
0
 71
3
 72
26
 73
22
 74
20
 42
0.0000001
 43
0.0000001
 44
0.0000000001
 12
0.0014544634
 22
-0.2500094792
 32
0.0
 13
-0.2500094788
 23
-0.0014545126
 33
0.0
 40
0.0
 40
0.0
 40
0.0
 40
0.0
 40
0.195080196
 40
0.3826515393
 40
0.5555245815
 40
0.6343411269
 40
0.7070484192
 40
0.7729476609
 40
0.831403253
 40
0.881851676
 40
0.9238093952
 40
0.9414738478
 40
0.9568718917
 40
0.9699637695
 40
0.9807201068
 40
0.9891161374
 40
0.9951296516
 40
0.997239688
 40
0.9987514623
 40
0.9996664469
 40
1.0
 40
1.0
 40
1.0
 40
1.0
 10
-60.2457037383
 20
-24.2456323968
 30
0.0
 10
-60.2456091593
 20
-24.2618896962
 30
0.0
 10
-60.2454415546
 20
-24.2937786412
 30
0.0
 10
-60.2452523082
 20
-24.3400745182
 30
0.0
 10
-60.2451503238
 20
-24.3766814763
 30
0.0
 10
-60.2451087794
 20
-24.403716003
 30
0.0
 10
-60.2450980912
 20
-24.4218355876
 30
0.0
 10
-60.2451068652
 20
-24.4382583307
 30
0.0
 10
-60.2451348479
 20
-24.4528260562
 30
0.0
 10
-60.2451816836
 20
-24.46539845
 30
0.0
 10
-60.2452381263
 20
-24.4745714119
 30
0.0
 10
-60.2452951619
 20
-24.4808230755
 30
0.0
 10
-60.2453396279
 20
-24.4846694877
 30
0.0
 10
-60.245388464
 20
-24.4879390802
 30
0.0
 10
-60.2454401256
 20
-24.4906278529
 30
0.0
 10
-60.2454972776
 20
-24.492719004
 30
0.0
 10
-60.2455462494
 20
-24.4941060198
 30
0.0
 10
-60.2455973
 20
-24.4948925842
 30
0.0
 10
-60.2456222582
 20
-24.4952943483
 30
0.0
 10
-60.2456627035
 20
-24.495477879
 30
0.0
 10
-60.2456759412
 20
-24.4956280043
 30
0.0
 10
-60.2457037383
 20
-24.495628166
 30
0.0
 11
-60.2457037383
 21
-24.2456323968
 31
0.0
 11
-60.2454479471
 21
-24.2944044496
 31
0.0
 11
-60.2452578907
 21
-24.3412994718
 31
0.0
 11
-60.2451408478
 21
-24.384519944
 31
0.0
 11
-60.245111232
 21
-24.4042251386
 31
0.0
 11
-60.2451013295
 21
-24.4224029558
 31
0.0
 11
-60.2451112321
 21
-24.4388786668
 31
0.0
 11
-60.2451408479
 21
-24.4534933362
 31
0.0
 11
-60.2451898922
 21
-24.4661060382
 31
0.0
 11
-60.245257891
 21
-24.4765958229
 31
0.0
 11
-60.2452988023
 21
-24.4810119887
 31
0.0
 11
-60.2453441877
 21
-24.4848614432
 31
0.0
 11
-60.2453939421
 21
-24.488134214
 31
0.0
 11
-60.2454479476
 21
-24.4908229035
 31
0.0
 11
-60.2455060808
 21
-24.4929212211
 31
0.0
 11
-60.2455682102
 21
-24.4944233978
 31
0.0
 11
-60.2456007193
 21
-24.4949499332
 31
0.0
 11
-60.2456341596
 21
-24.4953264153
 31
0.0
 11
-60.2456685072
 21
-24.4955525807
 31
0.0
 11
-60.2457037383
 21
-24.495628166
 31
0.0
  0
LINE
  5
514
100
AcDbEntity
  8
0
100
AcDbLine
 62
7
  6
CONTINUOUS
 10
-60.9971581712
 20
-24.2500042308
 11
-60.9971581712
 21
-24.5
  0
LINE
  5
515
100
AcDbEntity
  8
RACCORDO
100
AcDbLine
 62
253
  6
CONTINUOUS
 10
-49.1936676899
 20
19.0166572575
 11
-58.9971581712
 21
15.629521819
  0
LINE
  5
516
100
AcDbEntity
  8
RACCORDO
100
AcDbLine
 62
253
  6
CONTINUOUS
 10
-58.9971581712
 20
-15.629521819
 11
-49.1936676899
 21
-19.0166572575
  0
SPLINE
  5
517
100
AcDbEntity
  8
0
100
AcDbSpline
 62
253
  6
CONTINUOUS
 70
0
 71
3
 72
26
 73
22
 74
20
 42
0.0000001
 43
0.0000001
 44
0.0000000001
 12
-0.0014544634
 22
-0.2500094792
 32
0.0
 13
0.2500094789
 23
-0.0014545126
 33
0.0
 40
0.0
 40
0.0
 40
0.0
 40
0.0
 40
0.195080196
 40
0.3826515393
 40
0.5555245815
 40
0.6343411269
 40
0.7070484192
 40
0.7729476609
 40
0.831403253
 40
0.881851676
 40
0.9238093952
 40
0.9414738478
 40
0.9568718917
 40
0.9699637695
 40
0.9807201068
 40
0.9891161374
 40
0.9951296516
 40
0.997239688
 40
0.9987514623
 40
0.9996664469
 40
1.0
 40
1.0
 40
1.0
 40
1.0
 10
-63.248612604
 20
-24.2369056521
 30
0.0
 10
-63.248707183
 20
-24.2531629515
 30
0.0
 10
-63.2488747878
 20
-24.2850518965
 30
0.0
 10
-63.2490640342
 20
-24.3313477735
 30
0.0
 10
-63.2491660186
 20
-24.3679547315
 30
0.0
 10
-63.2492075629
 20
-24.3949892583
 30
0.0
 10
-63.2492182512
 20
-24.4131088428
 30
0.0
 10
-63.2492094771
 20
-24.429531586
 30
0.0
 10
-63.2491814944
 20
-24.4440993115
 30
0.0
 10
-63.2491346587
 20
-24.4566717053
 30
0.0
 10
-63.249078216
 20
-24.4658446672
 30
0.0
 10
-63.2490211804
 20
-24.4720963307
 30
0.0
 10
-63.2489767144
 20
-24.4759427429
 30
0.0
 10
-63.2489278783
 20
-24.4792123355
 30
0.0
 10
-63.2488762167
 20
-24.4819011082
 30
0.0
 10
-63.2488190647
 20
-24.4839922593
 30
0.0
 10
-63.2487700929
 20
-24.4853792751
 30
0.0
 10
-63.2487190423
 20
-24.4861658394
 30
0.0
 10
-63.2486940841
 20
-24.4865676036
 30
0.0
 10
-63.2486536389
 20
-24.4867511343
 30
0.0
 10
-63.2486404011
 20
-24.4869012596
 30
0.0
 10
-63.248612604
 20
-24.4869014213
 30
0.0
 11
-63.248612604
 21
-24.2369056521
 31
0.0
 11
-63.2488683952
 21
-24.2856777048
 31
0.0
 11
-63.2490584516
 21
-24.3325727271
 31
0.0
 11
-63.2491754946
 21
-24.3757931993
 31
0.0
 11
-63.2492051103
 21
-24.3954983939
 31
0.0
 11
-63.2492150128
 21
-24.4136762111
 31
0.0
 11
-63.2492051102
 21
-24.430151922
 31
0.0
 11
-63.2491754944
 21
-24.4447665915
 31
0.0
 11
-63.2491264501
 21
-24.4573792935
 31
0.0
 11
-63.2490584514
 21
-24.4678690781
 31
0.0
 11
-63.2490175401
 21
-24.472285244
 31
0.0
 11
-63.2489721546
 21
-24.4761346985
 31
0.0
 11
-63.2489224002
 21
-24.4794074693
 31
0.0
 11
-63.2488683948
 21
-24.4820961588
 31
0.0
 11
-63.2488102615
 21
-24.4841944764
 31
0.0
 11
-63.2487481321
 21
-24.4856966531
 31
0.0
 11
-63.248715623
 21
-24.4862231885
 31
0.0
 11
-63.2486821827
 21
-24.4865996706
 31
0.0
 11
-63.2486478351
 21
-24.486825836
 31
0.0
 11
-63.248612604
 21
-24.4869014213
 31
0.0
  0
SPLINE
  5
518
100
AcDbEntity
  8
0
100
AcDbSpline
 62
253
  6
CONTINUOUS
 70
0
 71
3
 72
26
 73
22
 74
20
 42
0.0000001
 43
0.0000001
 44
0.0000000001
 12
0.2500094788
 22
-0.0014545126
 32
0.0
 13
-0.0014544634
 23
-0.2500094792
 33
0.0
 40
0.0
 40
0.0
 40
0.0
 40
0.0
 40
0.0003335531
 40
0.0012485377
 40
0.002760312
 40
0.0048703484
 40
0.0108838626
 40
0.0192798932
 40
0.0300362305
 40
0.0431281083
 40
0.0585261522
 40
0.0761906048
 40
0.118148324
 40
0.168596747
 40
0.2270523391
 40
0.2929515808
 40
0.3656588731
 40
0.4444754185
 40
0.6173484607
 40
0.804919804
 40
1.0
 40
1.0
 40
1.0
 40
1.0
 10
-60.2457037383
 20
24.495628166
 30
0.0
 10
-60.2456759412
 20
24.4956280043
 30
0.0
 10
-60.2456627035
 20
24.495477879
 30
0.0
 10
-60.2456222582
 20
24.4952943483
 30
0.0
 10
-60.2455973
 20
24.4948925842
 30
0.0
 10
-60.2455462494
 20
24.4941060199
 30
0.0
 10
-60.2454972776
 20
24.492719004
 30
0.0
 10
-60.2454401256
 20
24.4906278529
 30
0.0
 10
-60.245388464
 20
24.4879390802
 30
0.0
 10
-60.2453396279
 20
24.4846694877
 30
0.0
 10
-60.2452951619
 20
24.4808230755
 30
0.0
 10
-60.2452381263
 20
24.4745714119
 30
0.0
 10
-60.2451816836
 20
24.46539845
 30
0.0
 10
-60.2451348479
 20
24.4528260562
 30
0.0
 10
-60.2451068652
 20
24.4382583307
 30
0.0
 10
-60.2450980912
 20
24.4218355876
 30
0.0
 10
-60.2451087794
 20
24.403716003
 30
0.0
 10
-60.2451503238
 20
24.3766814763
 30
0.0
 10
-60.2452523082
 20
24.3400745182
 30
0.0
 10
-60.2454415546
 20
24.2937786412
 30
0.0
 10
-60.2456091593
 20
24.2618896962
 30
0.0
 10
-60.2457037383
 20
24.2456323968
 30
0.0
 11
-60.2457037383
 21
24.495628166
 31
0.0
 11
-60.2456685072
 21
24.4955525807
 31
0.0
 11
-60.2456341596
 21
24.4953264153
 31
0.0
 11
-60.2456007193
 21
24.4949499332
 31
0.0
 11
-60.2455682102
 21
24.4944233978
 31
0.0
 11
-60.2455060808
 21
24.4929212211
 31
0.0
 11
-60.2454479476
 21
24.4908229035
 31
0.0
 11
-60.2453939421
 21
24.488134214
 31
0.0
 11
-60.2453441877
 21
24.4848614432
 31
0.0
 11
-60.2452988023
 21
24.4810119887
 31
0.0
 11
-60.245257891
 21
24.4765958229
 31
0.0
 11
-60.2451898922
 21
24.4661060382
 31
0.0
 11
-60.2451408479
 21
24.4534933362
 31
0.0
 11
-60.2451112321
 21
24.4388786668
 31
0.0
 11
-60.2451013295
 21
24.4224029558
 31
0.0
 11
-60.245111232
 21
24.4042251386
 31
0.0
 11
-60.2451408478
 21
24.384519944
 31
0.0
 11
-60.2452578907
 21
24.3412994718
 31
0.0
 11
-60.2454479471
 21
24.2944044496
 31
0.0
 11
-60.2457037383
 21
24.2456323968
 31
0.0
  0
LINE
  5
519
100
AcDbEntity
  8
0
100
AcDbLine
 62
7
  6
CONTINUOUS
 10
-60.9971581712
 20
24.5
 11
-60.9971581712
 21
24.2500042308
  0
SPLINE
  5
51A
100
AcDbEntity
  8
0
100
AcDbSpline
 62
253
  6
CONTINUOUS
 70
0
 71
3
 72
26
 73
22
 74
20
 42
0.0000001
 43
0.0000001
 44
0.0000000001
 12
-0.2500094789
 22
-0.0014545126
 32
0.0
 13
0.0014544634
 23
-0.2500094792
 33
0.0
 40
0.0
 40
0.0
 40
0.0
 40
0.0
 40
0.0003335531
 40
0.0012485377
 40
0.002760312
 40
0.0048703484
 40
0.0108838626
 40
0.0192798932
 40
0.0300362305
 40
0.0431281083
 40
0.0585261522
 40
0.0761906048
 40
0.118148324
 40
0.168596747
 40
0.2270523391
 40
0.2929515808
 40
0.3656588731
 40
0.4444754185
 40
0.6173484607
 40
0.804919804
 40
1.0
 40
1.0
 40
1.0
 40
1.0
 10
-63.248612604
 20
24.4869014213
 30
0.0
 10
-63.2486404011
 20
24.4869012596
 30
0.0
 10
-63.2486536389
 20
24.4867511343
 30
0.0
 10
-63.2486940841
 20
24.4865676036
 30
0.0
 10
-63.2487190423
 20
24.4861658394
 30
0.0
 10
-63.2487700929
 20
24.4853792751
 30
0.0
 10
-63.2488190647
 20
24.4839922593
 30
0.0
 10
-63.2488762167
 20
24.4819011082
 30
0.0
 10
-63.2489278783
 20
24.4792123355
 30
0.0
 10
-63.2489767144
 20
24.4759427429
 30
0.0
 10
-63.2490211804
 20
24.4720963307
 30
0.0
 10
-63.249078216
 20
24.4658446672
 30
0.0
 10
-63.2491346587
 20
24.4566717053
 30
0.0
 10
-63.2491814944
 20
24.4440993115
 30
0.0
 10
-63.2492094771
 20
24.429531586
 30
0.0
 10
-63.2492182512
 20
24.4131088428
 30
0.0
 10
-63.2492075629
 20
24.3949892583
 30
0.0
 10
-63.2491660186
 20
24.3679547315
 30
0.0
 10
-63.2490640342
 20
24.3313477735
 30
0.0
 10
-63.2488747878
 20
24.2850518965
 30
0.0
 10
-63.248707183
 20
24.2531629515
 30
0.0
 10
-63.248612604
 20
24.2369056521
 30
0.0
 11
-63.248612604
 21
24.4869014213
 31
0.0
 11
-63.2486478351
 21
24.486825836
 31
0.0
 11
-63.2486821827
 21
24.4865996706
 31
0.0
 11
-63.248715623
 21
24.4862231885
 31
0.0
 11
-63.2487481321
 21
24.4856966531
 31
0.0
 11
-63.2488102615
 21
24.4841944764
 31
0.0
 11
-63.2488683948
 21
24.4820961588
 31
0.0
 11
-63.2489224002
 21
24.4794074693
 31
0.0
 11
-63.2489721546
 21
24.4761346985
 31
0.0
 11
-63.2490175401
 21
24.472285244
 31
0.0
 11
-63.2490584514
 21
24.4678690781
 31
0.0
 11
-63.2491264501
 21
24.4573792935
 31
0.0
 11
-63.2491754944
 21
24.4447665915
 31
0.0
 11
-63.2492051102
 21
24.430151922
 31
0.0
 11
-63.2492150128
 21
24.4136762111
 31
0.0
 11
-63.2492051103
 21
24.3954983939
 31
0.0
 11
-63.2491754946
 21
24.3757931993
 31
0.0
 11
-63.2490584516
 21
24.3325727271
 31
0.0
 11
-63.2488683952
 21
24.2856777048
 31
0.0
 11
-63.248612604
 21
24.2369056521
 31
0.0
  0
ELLIPSE
  5
51B
100
AcDbEntity
  8
0
100
AcDbEllipse
 62
7
  6
CONTINUOUS
 10
23.7
 20
22.3842776662
 30
0.0
 11
0.2
 21
0.0
 31
0.0
 40
0.0524077793
 41
-3.1415926536
 42
-1.5707963268
  0
ELLIPSE
  5
51C
100
AcDbEntity
  8
0
100
AcDbEllipse
 62
7
  6
CONTINUOUS
 10
21.3
 20
22.3842776662
 30
0.0
 11
0.2
 21
0.0
 31
0.0
 40
0.0524077793
 41
-1.5707963268
 42
0.0
  0
ELLIPSE
  5
51D
100
AcDbEntity
  8
0
100
AcDbEllipse
 62
7
  6
CONTINUOUS
 10
23.7
 20
-22.3842776662
 30
0.0
 11
0.2
 21
-0.0
 31
0.0
 40
0.0524077793
 41
1.5707963268
 42
3.1415926536
  0
ELLIPSE
  5
51E
100
AcDbEntity
  8
0
100
AcDbEllipse
 62
7
  6
CONTINUOUS
 10
21.3
 20
-22.3842776662
 30
0.0
 11
0.2
 21
-0.0
 31
0.0
 40
0.0524077793
 41
0.0
 42
1.5707963268
  0
ELLIPSE
  5
51F
100
AcDbEntity
  8
0
100
AcDbEllipse
 62
7
  6
CONTINUOUS
 10
32.3927234819
 20
22.3344902759
 30
0.0
 11
0.25
 21
0.0
 31
0.0
 40
0.0524077793
 41
-1.5707963268
 42
-0.0058177642
  0
ELLIPSE
  5
520
100
AcDbEntity
  8
0
100
AcDbEllipse
 62
7
  6
CONTINUOUS
 10
30.0072765181
 20
22.3344902759
 30
0.0
 11
0.25
 21
0.0
 31
0.0
 40
0.0524077793
 41
-3.1357748894
 42
-1.5707963268
  0
ELLIPSE
  5
521
100
AcDbEntity
  8
0
100
AcDbEllipse
 62
7
  6
CONTINUOUS
 10
12.6072765181
 20
22.3344902759
 30
0.0
 11
0.25
 21
-0.0
 31
0.0
 40
0.0524077793
 41
-3.1357748894
 42
-1.5707963268
  0
ELLIPSE
  5
522
100
AcDbEntity
  8
0
100
AcDbEllipse
 62
7
  6
CONTINUOUS
 10
14.9927234819
 20
22.3344902759
 30
0.0
 11
0.25
 21
0.0
 31
0.0
 40
0.0524077793
 41
-1.5707963268
 42
-0.0058177642
  0
ELLIPSE
  5
523
100
AcDbEntity
  8
0
100
AcDbEllipse
 62
7
  6
CONTINUOUS
 10
32.3927234819
 20
-22.3344902759
 30
0.0
 11
0.25
 21
0.0
 31
0.0
 40
0.0524077793
 41
0.0058177642
 42
1.5707963268
  0
ELLIPSE
  5
524
100
AcDbEntity
  8
0
100
AcDbEllipse
 62
7
  6
CONTINUOUS
 10
30.0072765181
 20
-22.3344902759
 30
0.0
 11
0.25
 21
0.0
 31
0.0
 40
0.0524077793
 41
1.5707963268
 42
3.1357748894
  0
ELLIPSE
  5
525
100
AcDbEntity
  8
0
100
AcDbEllipse
 62
7
  6
CONTINUOUS
 10
14.9927234819
 20
-22.3344902759
 30
0.0
 11
0.25
 21
0.0
 31
0.0
 40
0.0524077793
 41
0.0058177642
 42
1.5707963268
  0
ELLIPSE
  5
526
100
AcDbEntity
  8
0
100
AcDbEllipse
 62
7
  6
CONTINUOUS
 10
12.6072765181
 20
-22.3344902759
 30
0.0
 11
0.25
 21
0.0
 31
0.0
 40
0.0524077793
 41
1.5707963268
 42
3.1357748894
  0
ELLIPSE
  5
527
100
AcDbEntity
  8
0
100
AcDbEllipse
 62
7
  6
CONTINUOUS
 10
33.1228684853
 20
-21.8207021581
 30
0.0
 11
-0.1582391023
 21
0.4751033573
 31
0.0
 40
0.9984778551
 41
-3.4626430032
 42
-1.8927600658
  0
ELLIPSE
  5
528
100
AcDbEntity
  8
0
100
AcDbEllipse
 62
7
  6
CONTINUOUS
 10
11.8771315147
 20
-21.8207021581
 30
0.0
 11
-0.1582391023
 21
-0.4751033573
 31
0.0
 40
0.9984778551
 41
-0.6578562559
 42
0.3210503496
  0
ELLIPSE
  5
529
100
AcDbEntity
  8
0
100
AcDbEllipse
 62
7
  6
CONTINUOUS
 10
11.8771315147
 20
21.8207021581
 30
0.0
 11
-0.1582391023
 21
0.4751033573
 31
0.0
 40
0.9984778551
 41
-0.3210503496
 42
0.6578562559
  0
ELLIPSE
  5
52A
100
AcDbEntity
  8
0
100
AcDbEllipse
 62
7
  6
CONTINUOUS
 10
33.1228684853
 20
21.8207021581
 30
0.0
 11
0.1582391023
 21
0.4751033573
 31
0.0
 40
0.9984778551
 41
-1.2488325878
 42
0.3210503496
  0
ELLIPSE
  5
52B
100
AcDbEntity
  8
0
100
AcDbEllipse
 62
7
  6
CONTINUOUS
 10
-21.3
 20
22.3842776662
 30
0.0
 11
0.2
 21
0.0
 31
0.0
 40
0.0524077793
 41
-3.1415926536
 42
-1.5707963268
  0
ELLIPSE
  5
52C
100
AcDbEntity
  8
0
100
AcDbEllipse
 62
7
  6
CONTINUOUS
 10
-23.7
 20
22.3842776662
 30
0.0
 11
0.2
 21
-0.0
 31
0.0
 40
0.0524077793
 41
-1.5707963268
 42
0.0
  0
ELLIPSE
  5
52D
100
AcDbEntity
  8
0
100
AcDbEllipse
 62
7
  6
CONTINUOUS
 10
-21.3
 20
-22.3842776662
 30
0.0
 11
0.2
 21
-0.0
 31
0.0
 40
0.0524077793
 41
1.5707963268
 42
3.1415926536
  0
ELLIPSE
  5
52E
100
AcDbEntity
  8
0
100
AcDbEllipse
 62
7
  6
CONTINUOUS
 10
-23.7
 20
-22.3842776662
 30
0.0
 11
0.2
 21
-0.0
 31
0.0
 40
0.0524077793
 41
0.0
 42
1.5707963268
  0
ELLIPSE
  5
52F
100
AcDbEntity
  8
0
100
AcDbEllipse
 62
7
  6
CONTINUOUS
 10
-12.6072765181
 20
22.3344902759
 30
0.0
 11
0.25
 21
0.0
 31
0.0
 40
0.0524077793
 41
-1.5707963268
 42
-0.0058177642
  0
ELLIPSE
  5
530
100
AcDbEntity
  8
0
100
AcDbEllipse
 62
7
  6
CONTINUOUS
 10
-14.9927234819
 20
22.3344902759
 30
0.0
 11
0.25
 21
-0.0
 31
0.0
 40
0.0524077793
 41
-3.1357748894
 42
-1.5707963268
  0
ELLIPSE
  5
531
100
AcDbEntity
  8
0
100
AcDbEllipse
 62
7
  6
CONTINUOUS
 10
-32.3927234819
 20
22.3344902759
 30
0.0
 11
0.25
 21
0.0
 31
0.0
 40
0.0524077793
 41
-3.1357748894
 42
-1.5707963268
  0
ELLIPSE
  5
532
100
AcDbEntity
  8
0
100
AcDbEllipse
 62
7
  6
CONTINUOUS
 10
-30.0072765181
 20
22.3344902759
 30
0.0
 11
0.25
 21
0.0
 31
0.0
 40
0.0524077793
 41
-1.5707963268
 42
-0.0058177642
  0
ELLIPSE
  5
533
100
AcDbEntity
  8
0
100
AcDbEllipse
 62
7
  6
CONTINUOUS
 10
-12.6072765181
 20
-22.3344902759
 30
0.0
 11
0.25
 21
-0.0
 31
0.0
 40
0.0524077793
 41
0.0058177642
 42
1.5707963268
  0
ELLIPSE
  5
534
100
AcDbEntity
  8
0
100
AcDbEllipse
 62
7
  6
CONTINUOUS
 10
-14.9927234819
 20
-22.3344902759
 30
0.0
 11
0.25
 21
0.0
 31
0.0
 40
0.0524077793
 41
1.5707963268
 42
3.1357748894
  0
ELLIPSE
  5
535
100
AcDbEntity
  8
0
100
AcDbEllipse
 62
7
  6
CONTINUOUS
 10
-30.0072765181
 20
-22.3344902759
 30
0.0
 11
0.25
 21
0.0
 31
0.0
 40
0.0524077793
 41
0.0058177642
 42
1.5707963268
  0
ELLIPSE
  5
536
100
AcDbEntity
  8
0
100
AcDbEllipse
 62
7
  6
CONTINUOUS
 10
-32.3927234819
 20
-22.3344902759
 30
0.0
 11
0.25
 21
0.0
 31
0.0
 40
0.0524077793
 41
1.5707963268
 42
3.1357748894
  0
ELLIPSE
  5
537
100
AcDbEntity
  8
0
100
AcDbEllipse
 62
7
  6
CONTINUOUS
 10
-11.8771315147
 20
-21.8207021581
 30
0.0
 11
-0.1582391023
 21
0.4751033573
 31
0.0
 40
0.9984778551
 41
-3.4626430032
 42
-2.4837363977
  0
ELLIPSE
  5
538
100
AcDbEntity
  8
0
100
AcDbEllipse
 62
7
  6
CONTINUOUS
 10
-33.1228684853
 20
-21.8207021581
 30
0.0
 11
-0.1582391023
 21
-0.4751033573
 31
0.0
 40
0.9984778551
 41
-1.2488325878
 42
0.3210503496
  0
ELLIPSE
  5
539
100
AcDbEntity
  8
0
100
AcDbEllipse
 62
7
  6
CONTINUOUS
 10
-33.1228684853
 20
21.8207021581
 30
0.0
 11
-0.1582391023
 21
0.4751033573
 31
0.0
 40
0.9984778551
 41
-0.3210503496
 42
1.2488325878
  0
ELLIPSE
  5
53A
100
AcDbEntity
  8
0
100
AcDbEllipse
 62
7
  6
CONTINUOUS
 10
-11.8771315147
 20
21.8207021581
 30
0.0
 11
0.1582391023
 21
0.4751033573
 31
0.0
 40
0.9984778551
 41
-0.6578562559
 42
0.3210503496
  0
ELLIPSE
  5
53B
100
AcDbEntity
  8
RACCORDO
100
AcDbEllipse
 62
7
  6
CONTINUOUS
 10
-32.9998286038
 20
-21.599313827
 30
0.0
 11
0.2238673116
 21
0.4480418466
 31
0.0
 40
0.9982882662
 41
-4.2483303396
 42
-2.6789040089
  0
ELLIPSE
  5
53C
100
AcDbEntity
  8
RACCORDO
100
AcDbEllipse
 62
7
  6
CONTINUOUS
 10
32.9998286038
 20
-21.599313827
 30
0.0
 11
-0.2238673116
 21
0.4480418466
 31
0.0
 40
0.9982882662
 41
-3.6042812983
 42
-2.0348549675
  0
ELLIPSE
  5
53D
100
AcDbEntity
  8
RACCORDO
100
AcDbEllipse
 62
7
  6
CONTINUOUS
 10
32.9998286038
 20
21.599313827
 30
0.0
 11
0.2238673116
 21
0.4480418466
 31
0.0
 40
0.9982882662
 41
-1.1067376861
 42
0.4626886447
  0
ELLIPSE
  5
53E
100
AcDbEntity
  8
RACCORDO
100
AcDbEllipse
 62
7
  6
CONTINUOUS
 10
-32.9998286038
 20
21.599313827
 30
0.0
 11
-0.2238673116
 21
0.4480418466
 31
0.0
 40
0.9982882662
 41
-0.4626886447
 42
1.1067376861
  0
ELLIPSE
  5
53F
100
AcDbEntity
  8
0
100
AcDbEllipse
 62
7
  6
CONTINUOUS
 10
16.3512715049
 20
-23.15
 30
0.0
 11
85.9426996401
 21
0.0
 31
0.0
 40
0.0058178298
 41
-2.6791240519
 42
-2.5607560384
  0
ELLIPSE
  5
540
100
AcDbEntity
  8
0
100
AcDbEllipse
 62
7
  6
CONTINUOUS
 10
16.3512715049
 20
-23.15
 30
0.0
 11
85.9426996401
 21
-0.0
 31
0.0
 40
0.0058178298
 41
2.5607560384
 42
2.6905658418
  0
ELLIPSE
  5
541
100
AcDbEntity
  8
0
100
AcDbEllipse
 62
7
  6
CONTINUOUS
 10
-49.4971581712
 20
22.0833543458
 30
0.0
 11
0.4828853753
 21
-0.1296985517
 31
0.0
 40
1.0
 41
-1.2909451484
 42
-0.3923973096
  0
ELLIPSE
  5
542
100
AcDbEntity
  8
0
100
AcDbEllipse
 62
7
  6
CONTINUOUS
 10
16.3512715049
 20
23.15
 30
0.0
 11
85.9426996401
 21
-0.0
 31
0.0
 40
0.0058178298
 41
-2.6905658418
 42
-2.5607560384
  0
ELLIPSE
  5
543
100
AcDbEntity
  8
0
100
AcDbEllipse
 62
7
  6
CONTINUOUS
 10
16.3512715049
 20
23.15
 30
0.0
 11
85.9426996401
 21
-0.0
 31
0.0
 40
0.0058178298
 41
2.5607560384
 42
2.6791240518
  0
ELLIPSE
  5
544
100
AcDbEntity
  8
0
100
AcDbEllipse
 62
7
  6
CONTINUOUS
 10
-49.4971581712
 20
-22.0833543458
 30
0.0
 11
-0.1767508215
 21
0.4677169519
 31
0.0
 40
1.0
 41
-1.2773129354
 42
-0.3787650966
  0
ENDSEC
  0
SECTION
  2
OBJECTS
  0
DICTIONARY
  5
C
100
AcDbDictionary
280
0
281
1
  3
ACAD_GROUP
350
D
  3
ACAD_MLINESTYLE
350
17
  3
ACAD_LAYOUT
350
1A
  3
ACAD_PLOTSETTINGS
350
19
  3
ACAD_PLOTSTYLENAME
350
E
  0
DICTIONARY
  5
D
102
{ACAD_REACTORS
330
C
102
}
100
AcDbDictionary
280
0
281
1
  0
ACDBDICTIONARYWDFLT
  5
E
102
{ACAD_REACTORS
330
C
102
}
100
AcDbDictionary
281
1
  3
Normal
350
F
100
AcDbDictionaryWithDefault
340
F
  0
DICTIONARY
  5
17
102
{ACAD_REACTORS
330
C
102
}
100
AcDbDictionary
280
0
281
1
  3
Standard
350
18
  0
DICTIONARY
  5
19
102
{ACAD_REACTORS
330
C
102
}
100
AcDbDictionary
281
1
  0
DICTIONARY
  5
1A
102
{ACAD_REACTORS
330
C
102
}
100
AcDbDictionary
281
1
  3
Model
350
545
  3
Layout1
350
546
  0
ACDBPLACEHOLDER
  5
F
102
{ACAD_REACTORS
330
E
102
}
  0
MLINESTYLE
  5
18
102
{ACAD_REACTORS
330
17
102
}
100
AcDbMlineStyle
  2
STANDARD
 70
0
  3

 62
256
 51
90.0
 52
90.0
 71
2
 49
0.5
 62
256
  6
BYLAYER
 49
-0.5
 62
256
  6
BYLAYER
  0
LAYOUT
  5
545
102
{ACAD_REACTORS
330
1A
102
}
100
AcDbPlotSettings
  1

  2
none_device
  4
ISO_A4_(297.00_x_210.00_MM)
  6

 40
0.0
 41
0.0
 42
0.0
 43
0.0
 44
297.0
 45
210.0
 46
0.0
 47
0.0
 48
0.0
 49
0.0
140
0.0
141
0.0
142
1.0
143
1.0
 70
1024
 72
1
 73
0
 74
0
  7

 75
0
147
1.0
148
0.0
149
0.0
100
AcDbLayout
  1
Model
 70
0
 71
0
 10
0.0
 20
0.0
 11
297.0
 21
210.0
 12
0.0
 22
0.0
 32
0.0
 14
0.0
 24
0.0
 34
0.0
 15
0.0
 25
0.0
 35
0.0
146
0.0
 13
0.0
 23
0.0
 33
0.0
 16
1.0
 26
0.0
 36
0.0
 17
0.0
 27
1.0
 37
0.0
 76
0
330
219
345
0
346
0
  0
LAYOUT
  5
546
102
{ACAD_REACTORS
330
1A
102
}
100
AcDbPlotSettings
  1

  2
none_device
  4
ISO_A4_(297.00_x_210.00_MM)
  6

 40
0.0
 41
0.0
 42
0.0
 43
0.0
 44
297.0
 45
210.0
 46
0.0
 47
0.0
 48
0.0
 49
0.0
140
0.0
141
0.0
142
1.0
143
1.0
 70
0
 72
1
 73
0
 74
0
  7

 75
0
147
1.0
148
0.0
149
0.0
100
AcDbLayout
  1
Layout1
 70
0
 71
1
 10
0.0
 20
0.0
 11
297.0
 21
210.0
 12
0.0
 22
0.0
 32
0.0
 14
0.0
 24
0.0
 34
0.0
 15
0.0
 25
0.0
 35
0.0
146
0.0
 13
0.0
 23
0.0
 33
0.0
 16
1.0
 26
0.0
 36
0.0
 17
0.0
 27
1.0
 37
0.0
 76
0
330
21A
345
0
346
0
  0
ENDSEC
  0
EOF
