  0
SECTION
  2
HEADER
  9
$ACADVER
  1
AC1021
  9
$DWGCODEPAGE
  3
ANSI_1252
  9
$EXTMAX
 10
297.0
 20
210.0
 30
0.0
  9
$EXTMIN
 10
0.0
 20
0.0
 30
0.0
  9
$LIMMIN
 10
0.0
 20
0.0
  9
$LIMMAX
 10
297.0
 20
210.0
  9
$VIEWCTR
 10
148.5
 20
105.0
  9
$VIEWSIZE
 40
210.0
  9
$CLAYER
  8
0
  9
$LTSCALE
 40
16.335
  9
$CELTYPE
  6
BYLAYER
  9
$DIMSCALE
 40
1.0
  9
$DIMASZ
 40
3.0
  9
$DIMEXO
 40
0.5
  9
$DIMDLI
 40
11.286
  9
$DIMEXE
 40
1.5
  9
$DIMCEN
 40
2.673
  9
$DIMLFAC
 40
1.0
  9
$DIMBLK
  1
_FILLED
  9
$DIMALT
 70
0
  9
$DIMALTF
 40
0.0393700787
  9
$DIMTXT
 40
3.0
  9
$DIMTOL
 70
1
  9
$DIMLIM
 70
0
  9
$DIMTFAC
 40
1.0
  9
$DIMTP
 40
0.01
  9
$DIMTM
 40
0.01
  9
$DIMGAP
 40
0.625
  9
$DIMDSEP
 70
44
  9
$AUNITS
 70
0
  9
$PDMODE
 70
3
  9
$PDSIZE
 40
3.0
  9
$HANDSEED
  5
51D
  9
$TILEMODE
 70
1
  9
$MEASUREMENT
 70
1
  9
$INSUNITS
 70
4
  0
ENDSEC
  0
SECTION
  2
CLASSES
  0
CLASS
  1
ACDBDICTIONARYWDFLT
  2
AcDbDictionaryWithDefault
  3
AutoCAD 2000
 90
0
 91
1
280
0
281
0
  0
CLASS
  1
ACDBPLACEHOLDER
  2
AcDbPlaceHolder
  3
AutoCAD 2000
 90
0
 91
1
280
0
281
0
  0
CLASS
  1
LAYOUT
  2
AcDbLayout
  3
AutoCAD 2000
 90
0
 91
0
280
0
281
0
  0
ENDSEC
  0
SECTION
  2
TABLES
  0
TABLE
  2
VPORT
  5
8
100
AcDbSymbolTable
 70
2
  0
VPORT
  5
1F4
100
AcDbSymbolTableRecord
100
AcDbViewportTableRecord
  2
*ACTIVE
 70
0
 10
0.0
 20
0.0
 11
1.0
 21
1.0
 12
148.5
 22
105.0
 13
0.0
 23
0.0
 14
1.0
 24
1.0
 15
0.0
 25
0.0
 16
0.0
 26
0.0
 36
1.0
 17
0.0
 27
0.0
 37
0.0
 40
210.0
 41
1.4142857143
 42
50.0
 43
0.0
 44
0.0
 50
0.0
 51
0.0
 71
0
 72
100
 73
1
 74
1
 75
0
 76
0
 77
0
 78
0
  0
ENDTAB
  0
TABLE
  2
LTYPE
  5
5
100
AcDbSymbolTable
 70
6
  0
LTYPE
  5
14
100
AcDbSymbolTableRecord
100
AcDbLinetypeTableRecord
  2
BYBLOCK
 70
0
  3

 72
65
 73
0
 40
0.0
  0
LTYPE
  5
15
100
AcDbSymbolTableRecord
100
AcDbLinetypeTableRecord
  2
BYLAYER
 70
0
  3

 72
65
 73
0
 40
0.0
  0
LTYPE
  5
16
100
AcDbSymbolTableRecord
100
AcDbLinetypeTableRecord
  2
CONTINUOUS
 70
64
  3
Solid line
 72
65
 73
0
 40
0.0
  0
LTYPE
  5
1F5
100
AcDbSymbolTableRecord
100
AcDbLinetypeTableRecord
  2
CENTER
 70
64
  3
____ _ ____ _ ____ _ ____ _ ____ _ ____ _ ____
 72
65
 73
4
 40
0.6
 49
0.375
 74
0
 49
-0.075
 74
0
 49
0.075
 74
0
 49
-0.075
 74
0
  0
LTYPE
  5
1F6
100
AcDbSymbolTableRecord
100
AcDbLinetypeTableRecord
  2
HIDDEN
 70
64
  3
- - - - - - - - - - - - - - - - - - - -
 72
65
 73
2
 40
0.2
 49
0.1
 74
0
 49
-0.1
 74
0
  0
LTYPE
  5
1F7
100
AcDbSymbolTableRecord
100
AcDbLinetypeTableRecord
  2
PHANTOM
 70
64
  3
_____ _ _ _____ _ _ _____ _ _ _____
 72
65
 73
6
 40
0.8
 49
0.45
 74
0
 49
-0.05
 74
0
 49
0.1
 74
0
 49
-0.05
 74
0
 49
0.1
 74
0
 49
-0.05
 74
0
  0
LTYPE
  5
1F8
100
AcDbSymbolTableRecord
100
AcDbLinetypeTableRecord
  2
DOT
 70
64
  3
. . . . . . . . . . . . . . . . . . . .
 72
65
 73
2
 40
0.2
 49
0.1
 74
0
 49
-0.1
 74
0
  0
LTYPE
  5
1F9
100
AcDbSymbolTableRecord
100
AcDbLinetypeTableRecord
  2
DASHED
 70
64
  3
- - - - - - - - - - - - - - - - - - - -
 72
65
 73
2
 40
0.2
 49
0.1
 74
0
 49
-0.1
 74
0
  0
ENDTAB
  0
TABLE
  2
LAYER
  5
2
100
AcDbSymbolTable
 70
36
  0
LAYER
  5
10
100
AcDbSymbolTableRecord
100
AcDbLayerTableRecord
  2
0
 70
0
 62
7
  6
CONTINUOUS
370
-3
390
F
  0
LAYER
  5
1FA
100
AcDbSymbolTableRecord
100
AcDbLayerTableRecord
  2
DEFAULT_1
 70
0
 62
7
  6
CENTER
370
-3
390
F
  0
LAYER
  5
1FB
100
AcDbSymbolTableRecord
100
AcDbLayerTableRecord
  2
DEFAULT_2
 70
0
 62
7
  6
HIDDEN
370
-3
390
F
  0
LAYER
  5
1FC
100
AcDbSymbolTableRecord
100
AcDbLayerTableRecord
  2
DEFAULT_3
 70
0
 62
7
  6
PHANTOM
370
-3
390
F
  0
LAYER
  5
1FD
100
AcDbSymbolTableRecord
100
AcDbLayerTableRecord
  2
ASSI
 70
0
 62
7
  6
CONTINUOUS
370
-3
390
F
  0
LAYER
  5
1FE
100
AcDbSymbolTableRecord
100
AcDbLayerTableRecord
  2
COORDINATE
 70
0
 62
7
  6
CONTINUOUS
370
-3
390
F
  0
LAYER
  5
1FF
100
AcDbSymbolTableRecord
100
AcDbLayerTableRecord
  2
COPY_PUBLISH
 70
0
 62
7
  6
CONTINUOUS
370
-3
390
F
  0
LAYER
  5
200
100
AcDbSymbolTableRecord
100
AcDbLayerTableRecord
  2
COSMETIC
 70
0
 62
7
  6
CONTINUOUS
370
-3
390
F
  0
LAYER
  5
201
100
AcDbSymbolTableRecord
100
AcDbLayerTableRecord
  2
COSMETICI
 70
0
 62
7
  6
CONTINUOUS
370
-3
390
F
  0
LAYER
  5
202
100
AcDbSymbolTableRecord
100
AcDbLayerTableRecord
  2
CURVE
 70
0
 62
7
  6
CONTINUOUS
370
-3
390
F
  0
LAYER
  5
203
100
AcDbSymbolTableRecord
100
AcDbLayerTableRecord
  2
DRAFT
 70
0
 62
7
  6
CONTINUOUS
370
-3
390
F
  0
LAYER
  5
204
100
AcDbSymbolTableRecord
100
AcDbLayerTableRecord
  2
IMPORT_IGES
 70
0
 62
7
  6
CONTINUOUS
370
-3
390
F
  0
LAYER
  5
205
100
AcDbSymbolTableRecord
100
AcDbLayerTableRecord
  2
INTFCLR_11
 70
0
 62
7
  6
CONTINUOUS
370
-3
390
F
  0
LAYER
  5
206
100
AcDbSymbolTableRecord
100
AcDbLayerTableRecord
  2
INTF_1
 70
0
 62
7
  6
CONTINUOUS
370
-3
390
F
  0
LAYER
  5
207
100
AcDbSymbolTableRecord
100
AcDbLayerTableRecord
  2
INTF_3
 70
0
 62
7
  6
CONTINUOUS
370
-3
390
F
  0
LAYER
  5
208
100
AcDbSymbolTableRecord
100
AcDbLayerTableRecord
  2
INTF_6
 70
0
 62
7
  6
CONTINUOUS
370
-3
390
F
  0
LAYER
  5
209
100
AcDbSymbolTableRecord
100
AcDbLayerTableRecord
  2
INTF_MAGENTA
 70
0
 62
7
  6
CONTINUOUS
370
-3
390
F
  0
LAYER
  5
20A
100
AcDbSymbolTableRecord
100
AcDbLayerTableRecord
  2
NOTE
 70
0
 62
7
  6
CONTINUOUS
370
-3
390
F
  0
LAYER
  5
20B
100
AcDbSymbolTableRecord
100
AcDbLayerTableRecord
  2
PIANI
 70
0
 62
7
  6
CONTINUOUS
370
-3
390
F
  0
LAYER
  5
20C
100
AcDbSymbolTableRecord
100
AcDbLayerTableRecord
  2
PUNTI
 70
0
 62
7
  6
CONTINUOUS
370
-3
390
F
  0
LAYER
  5
20D
100
AcDbSymbolTableRecord
100
AcDbLayerTableRecord
  2
RACCORDO
 70
0
 62
7
  6
CONTINUOUS
370
-3
390
F
  0
LAYER
  5
20E
100
AcDbSymbolTableRecord
100
AcDbLayerTableRecord
  2
SIMBOLI
 70
0
 62
7
  6
CONTINUOUS
370
-3
390
F
  0
LAYER
  5
20F
100
AcDbSymbolTableRecord
100
AcDbLayerTableRecord
  2
SMUSSO
 70
0
 62
7
  6
CONTINUOUS
370
-3
390
F
  0
LAYER
  5
210
100
AcDbSymbolTableRecord
100
AcDbLayerTableRecord
  2
SNAPLINE
 70
0
 62
7
  6
CONTINUOUS
370
-3
390
F
  0
LAYER
  5
211
100
AcDbSymbolTableRecord
100
AcDbLayerTableRecord
  2
STANDARD
 70
0
 62
7
  6
CONTINUOUS
370
-3
390
F
  0
LAYER
  5
212
100
AcDbSymbolTableRecord
100
AcDbLayerTableRecord
  2
SUPERFICI
 70
0
 62
7
  6
CONTINUOUS
370
-3
390
F
  0
LAYER
  5
213
100
AcDbSymbolTableRecord
100
AcDbLayerTableRecord
  2
TRASH
 70
0
 62
7
  6
CONTINUOUS
370
-3
390
F
  0
LAYER
  5
214
100
AcDbSymbolTableRecord
100
AcDbLayerTableRecord
  2
XSEC_DATUMS
 70
0
 62
7
  6
CONTINUOUS
370
-3
390
F
  0
LAYER
  5
215
100
AcDbSymbolTableRecord
100
AcDbLayerTableRecord
  2
___SHELL
 70
0
 62
7
  6
CONTINUOUS
370
-3
390
F
  0
ENDTAB
  0
TABLE
  2
STYLE
  5
3
100
AcDbSymbolTable
 70
1
  0
STYLE
  5
11
100
AcDbSymbolTableRecord
100
AcDbTextStyleTableRecord
  2
STANDARD
 70
0
 40
0.0
 41
0.8
 50
0.0
 71
0
 42
0.2
  3
txt
  4

  0
STYLE
  5
216
100
AcDbSymbolTableRecord
100
AcDbTextStyleTableRecord
  2
TEXTSTYLE_1
 70
0
 40
0.0
 41
0.8
 50
0.0
 71
0
 42
0.2
  3
gdt
  4

  0
ENDTAB
  0
TABLE
  2
VIEW
  5
6
100
AcDbSymbolTable
 70
0
  0
ENDTAB
  0
TABLE
  2
UCS
  5
7
100
AcDbSymbolTable
 70
0
  0
ENDTAB
  0
TABLE
  2
APPID
  5
9
100
AcDbSymbolTable
 70
1
  0
APPID
  5
217
100
AcDbSymbolTableRecord
100
AcDbRegAppTableRecord
  2
ACAD
 70
0
  0
ENDTAB
  0
TABLE
  2
BLOCK_RECORD
  5
1
100
AcDbSymbolTable
 70
0
  0
BLOCK_RECORD
  5
218
100
AcDbSymbolTableRecord
100
AcDbBlockTableRecord
  2
*Model_Space
  0
BLOCK_RECORD
  5
219
100
AcDbSymbolTableRecord
100
AcDbBlockTableRecord
  2
*Paper_Space
  0
BLOCK_RECORD
  5
21A
100
AcDbSymbolTableRecord
100
AcDbBlockTableRecord
  2
_FILLED
  0
BLOCK_RECORD
  5
21B
100
AcDbSymbolTableRecord
100
AcDbBlockTableRecord
  2
*D0
  0
BLOCK_RECORD
  5
21C
100
AcDbSymbolTableRecord
100
AcDbBlockTableRecord
  2
*D1
  0
BLOCK_RECORD
  5
21D
100
AcDbSymbolTableRecord
100
AcDbBlockTableRecord
  2
*D2
  0
ENDTAB
  0
TABLE
  2
DIMSTYLE
  5
A
100
AcDbSymbolTable
 70
1
100
AcDbDimStyleTable
 71
0
  0
DIMSTYLE
105
21E
100
AcDbSymbolTableRecord
100
AcDbDimStyleTableRecord
  2
STANDARD
 70
0
  3

  4

 40
1.0
 41
3.0
 42
0.5
 43
0.38
 44
1.5
 45
0.0
 46
0.0
 47
0.01
 48
0.01
140
3.0
141
0.09
142
0.0
143
25.4
144
1.0
145
0.0
146
1.0
147
0.625
 71
1.0
 72
0.0
 73
0
 74
0
 75
0
 76
0
 77
1
 78
8
170
0
171
2
172
0
173
0
174
0
175
0
176
0
177
0
178
0
270
2
271
2
272
2
273
2
274
2
275
0
280
0
281
0
282
0
283
1
284
8
285
0
286
0
287
3
288
0
340
11
278
44
341
21A
342
21A
343
21A
344
21A
  0
DIMSTYLE
105
21F
100
AcDbSymbolTableRecord
100
AcDbDimStyleTableRecord
  2
DIMSTYLE_1
 70
0
  3

  4

 40
1.0
 41
3.0
 42
0.5
 43
0.38
 44
1.5
 45
0.0
 46
0.0
 47
0.0
 48
0.0
140
3.0
141
0.09
142
0.0
143
25.4
144
1.0
145
0.0
146
1.0
147
0.75
 71
0.0
 72
0.0
 73
0
 74
0
 75
0
 76
0
 77
1
 78
8
170
0
171
2
172
0
173
0
174
0
175
0
176
0
177
0
178
0
270
2
271
2
272
2
273
2
274
2
275
0
280
0
281
0
282
0
283
1
284
8
285
0
286
0
287
3
288
0
340
11
278
44
341
21A
342
21A
343
21A
344
21A
  0
ENDTAB
  0
ENDSEC
  0
SECTION
  2
BLOCKS
  0
BLOCK
  5
20
100
AcDbEntity
  8
0
100
AcDbBlockBegin
  2
*Model_Space
 70
0
 10
0.0
 20
0.0
 30
0.0
  3
*Model_Space
  1

  0
ENDBLK
  5
21
100
AcDbEntity
  8
0
100
AcDbBlockEnd
  0
BLOCK
  5
1C
100
AcDbEntity
  8
0
100
AcDbBlockBegin
  2
*Paper_Space
 70
0
 10
0.0
 20
0.0
 30
0.0
  3
*Paper_Space
  1

  0
ENDBLK
  5
1D
100
AcDbEntity
  8
0
100
AcDbBlockEnd
  0
BLOCK
  5
220
100
AcDbEntity
  8
0
100
AcDbBlockBegin
  2
_FILLED
 70
64
 10
0.0
 20
0.0
  3
_FILLED
  1

  0
SOLID
  5
221
100
AcDbEntity
  8
0
  6
BYBLOCK
 62
0
100
AcDbTrace
 10
0.0
 20
0.0
 11
-1.0
 21
0.3166666667
 12
-1.0
 22
-0.3166666667
 13
-1.0
 23
-0.3166666667
  0
ENDBLK
  5
222
100
AcDbEntity
  8
0
  6
BYBLOCK
 62
0
100
AcDbBlockEnd
  0
BLOCK
  5
223
100
AcDbEntity
  8
0
100
AcDbBlockBegin
 62
7
  6
CONTINUOUS
  2
*D0
 70
65
 10
0.0
 20
0.0
  3
*D0
  1

  0
MTEXT
  5
224
100
AcDbEntity
  8
0
100
AcDbMText
 62
7
  6
CONTINUOUS
  7
STANDARD
 71
2
 72
1
 10
172.6141803694
 20
143.3162932489
 30
0.0
 11
1.0
 21
0.0
 31
0.0
 44
0.9
  1
22
 40
3.0
 41
7.0714285714
  0
LINE
  5
225
100
AcDbEntity
  8
0
100
AcDbLine
 62
7
  6
CONTINUOUS
 10
183.6141803694
 20
132.572926364
 11
183.6141803694
 21
141.0662932489
  0
LINE
  5
226
100
AcDbEntity
  8
0
100
AcDbLine
 62
7
  6
CONTINUOUS
 10
161.6141803694
 20
132.572926364
 11
161.6141803694
 21
141.0662932489
  0
LINE
  5
227
100
AcDbEntity
  8
0
100
AcDbLine
 62
7
  6
CONTINUOUS
 10
183.6141803694
 20
139.5662932489
 11
172.6141803694
 21
139.5662932489
  0
LINE
  5
228
100
AcDbEntity
  8
0
100
AcDbLine
 62
7
  6
CONTINUOUS
 10
161.6141803694
 20
139.5662932489
 11
172.6141803694
 21
139.5662932489
  0
INSERT
  5
229
100
AcDbEntity
  8
0
100
AcDbBlockReference
 62
7
  6
CONTINUOUS
  2
_FILLED
 10
183.6141803694
 20
139.5662932489
 41
3.0
 42
3.0
 43
3.0
  0
INSERT
  5
22A
100
AcDbEntity
  8
0
100
AcDbBlockReference
 62
7
  6
CONTINUOUS
  2
_FILLED
 10
161.6141803694
 20
139.5662932489
 41
3.0
 42
3.0
 43
3.0
 50
180.0
  0
ENDBLK
  5
22B
100
AcDbEntity
  8
0
  6
BYBLOCK
 62
0
100
AcDbBlockEnd
  0
BLOCK
  5
22C
100
AcDbEntity
  8
0
100
AcDbBlockBegin
 62
7
  6
CONTINUOUS
  2
*D1
 70
65
 10
0.0
 20
0.0
  3
*D1
  1

  0
MTEXT
  5
22D
100
AcDbEntity
  8
0
100
AcDbMText
 62
7
  6
CONTINUOUS
  7
STANDARD
 71
2
 72
1
 10
128.4456667027
 20
143.3162932489
 30
0.0
 11
1.0
 21
0.0
 31
0.0
 44
0.9
  1
6,7
 40
3.0
 41
9.6428571429
  0
LINE
  5
22E
100
AcDbEntity
  8
0
100
AcDbLine
 62
7
  6
CONTINUOUS
 10
131.7956753356
 20
132.572926364
 11
131.7956753356
 21
141.0662932489
  0
LINE
  5
22F
100
AcDbEntity
  8
0
100
AcDbLine
 62
7
  6
CONTINUOUS
 10
125.0956580697
 20
110.9727552455
 11
125.0956580697
 21
141.0662932489
  0
LINE
  5
230
100
AcDbEntity
  8
0
100
AcDbLine
 62
7
  6
CONTINUOUS
 10
131.7956753356
 20
139.5662932489
 11
135.7956753356
 21
139.5662932489
  0
LINE
  5
231
100
AcDbEntity
  8
0
100
AcDbLine
 62
7
  6
CONTINUOUS
 10
135.7956753356
 20
139.5662932489
 11
128.4456667027
 21
139.5662932489
  0
LINE
  5
232
100
AcDbEntity
  8
0
100
AcDbLine
 62
7
  6
CONTINUOUS
 10
125.0956580697
 20
139.5662932489
 11
121.0956580697
 21
139.5662932489
  0
LINE
  5
233
100
AcDbEntity
  8
0
100
AcDbLine
 62
7
  6
CONTINUOUS
 10
121.0956580697
 20
139.5662932489
 11
128.4456667027
 21
139.5662932489
  0
INSERT
  5
234
100
AcDbEntity
  8
0
100
AcDbBlockReference
 62
7
  6
CONTINUOUS
  2
_FILLED
 10
131.7956753356
 20
139.5662932489
 41
3.0
 42
3.0
 43
3.0
 50
180.0
  0
INSERT
  5
235
100
AcDbEntity
  8
0
100
AcDbBlockReference
 62
7
  6
CONTINUOUS
  2
_FILLED
 10
125.0956580697
 20
139.5662932489
 41
3.0
 42
3.0
 43
3.0
  0
ENDBLK
  5
236
100
AcDbEntity
  8
0
  6
BYBLOCK
 62
0
100
AcDbBlockEnd
  0
BLOCK
  5
237
100
AcDbEntity
  8
0
100
AcDbBlockBegin
 62
7
  6
CONTINUOUS
  2
*D2
 70
65
 10
0.0
 20
0.0
  3
*D2
  1

  0
MTEXT
  5
238
100
AcDbEntity
  8
0
100
AcDbMText
 62
7
  6
CONTINUOUS
  7
STANDARD
 71
2
 72
1
 10
188.5170885165
 20
110.4727550265
 30
0.0
 11
0.0
 21
1.0
 31
0.0
 44
0.9
  1
44,2
 40
3.0
 41
13.1785714286
  0
LINE
  5
239
100
AcDbEntity
  8
0
100
AcDbLine
 62
7
  6
CONTINUOUS
 10
183.6143517069
 20
132.5727550265
 11
193.7670885165
 21
132.5727550265
  0
LINE
  5
23A
100
AcDbEntity
  8
0
100
AcDbLine
 62
7
  6
CONTINUOUS
 10
183.6143517069
 20
88.3727550265
 11
193.7670885165
 21
88.3727550265
  0
LINE
  5
23B
100
AcDbEntity
  8
0
100
AcDbLine
 62
7
  6
CONTINUOUS
 10
192.2670885165
 20
132.5727550265
 11
192.2670885165
 21
110.4727550265
  0
LINE
  5
23C
100
AcDbEntity
  8
0
100
AcDbLine
 62
7
  6
CONTINUOUS
 10
192.2670885165
 20
88.3727550265
 11
192.2670885165
 21
110.4727550265
  0
INSERT
  5
23D
100
AcDbEntity
  8
0
100
AcDbBlockReference
 62
7
  6
CONTINUOUS
  2
_FILLED
 10
192.2670885165
 20
132.5727550265
 41
3.0
 42
3.0
 43
3.0
 50
90.0
  0
INSERT
  5
23E
100
AcDbEntity
  8
0
100
AcDbBlockReference
 62
7
  6
CONTINUOUS
  2
_FILLED
 10
192.2670885165
 20
88.3727550265
 41
3.0
 42
3.0
 43
3.0
 50
270.0
  0
ENDBLK
  5
23F
100
AcDbEntity
  8
0
  6
BYBLOCK
 62
0
100
AcDbBlockEnd
  0
ENDSEC
  0
SECTION
  2
ENTITIES
  0
DIMENSION
  5
240
100
AcDbEntity
  8
0
100
AcDbDimension
 62
7
  6
CONTINUOUS
  2
*D0
 10
161.6141803694
 20
139.5662932489
 11
172.1856140442
 21
139.5662932489
 70
160
 71
2
 42
22.0
  3
DIMSTYLE_1
100
AcDbAlignedDimension
 13
183.6141803694
 23
132.072926364
 14
161.6141803694
 24
132.072926364
 50
180.0
100
AcDbRotatedDimension
  0
DIMENSION
  5
241
100
AcDbEntity
  8
0
100
AcDbDimension
 62
7
  6
CONTINUOUS
  2
*D1
 10
125.0956580697
 20
139.5662932489
 11
128.0170969849
 21
139.5662932489
 70
160
 71
2
 42
6.7000172659
  3
DIMSTYLE_1
100
AcDbAlignedDimension
 13
131.7956753356
 23
132.072926364
 14
125.0956580697
 24
110.4727552455
 50
180.0
100
AcDbRotatedDimension
  0
DIMENSION
  5
242
100
AcDbEntity
  8
0
100
AcDbDimension
 62
7
  6
CONTINUOUS
  2
*D2
 10
192.2670885165
 20
88.3727550265
 11
192.2670885165
 21
110.0441796369
 70
160
 71
2
 42
44.2
  3
DIMSTYLE_1
100
AcDbAlignedDimension
 13
183.1143517069
 23
132.5727550265
 14
183.1143517069
 24
88.3727550265
 50
270.0
100
AcDbRotatedDimension
  0
LWPOLYLINE
  5
243
100
AcDbEntity
  8
RACCORDO
100
AcDbPolyline
 62
253
  6
CONTINUOUS
 90
16
 70
0
 10
182.9929383531
 20
88.4941683803
 10
183.0451626651
 20
88.4969399658
 10
183.0968152127
 20
88.5051527956
 10
183.1473305627
 20
88.5187169432
 10
183.1961557499
 20
88.5374839093
 10
183.2427562829
 20
88.5612482306
 10
183.2866220023
 20
88.5897497142
 10
183.3272727317
 20
88.622676322
 10
183.3642635108
 20
88.6596675914
 10
183.3971894285
 20
88.7003185488
 10
183.4256900848
 20
88.7441841666
 10
183.4494535392
 20
88.7907842515
 10
183.4682197075
 20
88.8396086893
 10
183.481783204
 20
88.890123016
 10
183.4899955925
 20
88.9417742668
 10
183.4927670156
 20
88.9939970428
  0
LWPOLYLINE
  5
244
100
AcDbEntity
  8
0
100
AcDbPolyline
 62
253
  6
CONTINUOUS
 90
16
 70
0
 10
182.9929383531
 20
88.4941683803
 10
183.0451626651
 20
88.4969399658
 10
183.0968152127
 20
88.5051527956
 10
183.1473305627
 20
88.5187169432
 10
183.1961557499
 20
88.5374839093
 10
183.2427562829
 20
88.5612482306
 10
183.2866220023
 20
88.5897497142
 10
183.3272727317
 20
88.622676322
 10
183.3642635108
 20
88.6596675914
 10
183.3971894285
 20
88.7003185488
 10
183.4256900848
 20
88.7441841666
 10
183.4494535392
 20
88.7907842515
 10
183.4682197075
 20
88.8396086893
 10
183.481783204
 20
88.890123016
 10
183.4899955925
 20
88.9417742668
 10
183.4927670156
 20
88.9939970428
  0
LWPOLYLINE
  5
245
100
AcDbEntity
  8
RACCORDO
100
AcDbPolyline
 62
253
  6
CONTINUOUS
 90
14
 70
0
 10
183.1057362205
 20
89.643462558
 10
183.1525508912
 20
89.6441659077
 10
183.1976455307
 20
89.6450614092
 10
183.2405832078
 20
89.6461403859
 10
183.2809478905
 20
89.6473923834
 10
183.3183484769
 20
89.6488052707
 10
183.352422585
 20
89.6503653582
 10
183.3828400638
 20
89.6520575298
 10
183.409306192
 20
89.6538653898
 10
183.4315645338
 20
89.6557714213
 10
183.4493994235
 20
89.6577571565
 10
183.4626380552
 20
89.6598033551
 10
183.471152157
 20
89.6618901912
 10
183.4748592341
 20
89.6639974449
  0
LWPOLYLINE
  5
246
100
AcDbEntity
  8
0
100
AcDbPolyline
 62
253
  6
CONTINUOUS
 90
14
 70
0
 10
183.1057362205
 20
89.643462558
 10
183.1525508912
 20
89.6441659077
 10
183.1976455307
 20
89.6450614092
 10
183.2405832078
 20
89.6461403859
 10
183.2809478905
 20
89.6473923834
 10
183.3183484769
 20
89.6488052707
 10
183.352422585
 20
89.6503653582
 10
183.3828400638
 20
89.6520575298
 10
183.409306192
 20
89.6538653898
 10
183.4315645338
 20
89.6557714213
 10
183.4493994235
 20
89.6577571565
 10
183.4626380552
 20
89.6598033551
 10
183.471152157
 20
89.6618901912
 10
183.4748592341
 20
89.6639974449
  0
LINE
  5
247
100
AcDbEntity
  8
RACCORDO
100
AcDbLine
 62
253
  6
CONTINUOUS
 10
183.0087734447
 20
89.6426576462
 11
183.1057362205
 21
89.643462558
  0
LINE
  5
248
100
AcDbEntity
  8
0
100
AcDbLine
 62
253
  6
CONTINUOUS
 10
183.0087734447
 20
89.6426576462
 11
183.1057362205
 21
89.643462558
  0
LINE
  5
249
100
AcDbEntity
  8
RACCORDO
100
AcDbLine
 62
253
  6
CONTINUOUS
 10
162.2354223846
 20
88.4941683793
 11
168.9548549275
 21
88.5022777508
  0
LINE
  5
24A
100
AcDbEntity
  8
0
100
AcDbLine
 62
253
  6
CONTINUOUS
 10
162.2354223846
 20
88.4941683793
 11
168.9548549275
 21
88.5022777508
  0
LINE
  5
24B
100
AcDbEntity
  8
RACCORDO
100
AcDbLine
 62
7
  6
CONTINUOUS
 10
162.1140090319
 20
88.3727550265
 11
183.1143517069
 21
88.3727550265
  0
LINE
  5
24C
100
AcDbEntity
  8
0
100
AcDbLine
 62
7
  6
CONTINUOUS
 10
162.1140090319
 20
88.3727550265
 11
183.1143517069
 21
88.3727550265
  0
LINE
  5
24D
100
AcDbEntity
  8
RACCORDO
100
AcDbLine
 62
253
  6
CONTINUOUS
 10
162.21958729
 20
89.6426576679
 11
183.0087734448
 21
89.64265767
  0
LINE
  5
24E
100
AcDbEntity
  8
0
100
AcDbLine
 62
253
  6
CONTINUOUS
 10
162.21958729
 20
89.6426576679
 11
183.0087734448
 21
89.64265767
  0
LINE
  5
24F
100
AcDbEntity
  8
RACCORDO
100
AcDbLine
 62
253
  6
CONTINUOUS
 10
168.9548549275
 20
88.5022777508
 11
177.7191770718
 21
88.5011927155
  0
LINE
  5
250
100
AcDbEntity
  8
0
100
AcDbLine
 62
253
  6
CONTINUOUS
 10
168.9548549275
 20
88.5022777508
 11
177.7191770718
 21
88.5011927155
  0
LWPOLYLINE
  5
251
100
AcDbEntity
  8
RACCORDO
100
AcDbPolyline
 62
253
  6
CONTINUOUS
 90
3
 70
0
 10
177.7191770718
 20
88.5011927155
 10
182.1780473035
 20
88.4955523404
 10
182.992938354
 20
88.4941683794
  0
LWPOLYLINE
  5
252
100
AcDbEntity
  8
0
100
AcDbPolyline
 62
253
  6
CONTINUOUS
 90
3
 70
0
 10
177.7191770718
 20
88.5011927155
 10
182.1780473035
 20
88.4955523404
 10
182.992938354
 20
88.4941683794
  0
LWPOLYLINE
  5
253
100
AcDbEntity
  8
RACCORDO
100
AcDbPolyline
 62
253
  6
CONTINUOUS
 90
15
 70
0
 10
162.2195881929
 20
89.6426582186
 10
162.1226263689
 20
89.6434631022
 10
162.0758121115
 20
89.6441664286
 10
162.0307178252
 20
89.645061901
 10
161.987780429
 20
89.6461408435
 10
161.9474159434
 20
89.6473928023
 10
161.9100154603
 20
89.6488056474
 10
161.875941353
 20
89.6503656895
 10
161.8455237658
 20
89.6520578136
 10
161.819057415
 20
89.6538656245
 10
161.796798733
 20
89.6557716064
 10
161.7789633845
 20
89.6577572922
 10
161.7657241761
 20
89.6598034425
 10
161.7572093827
 20
89.6618902324
 10
161.7535015042
 20
89.6639974427
  0
LWPOLYLINE
  5
254
100
AcDbEntity
  8
0
100
AcDbPolyline
 62
253
  6
CONTINUOUS
 90
15
 70
0
 10
162.2195881929
 20
89.6426582186
 10
162.1226263689
 20
89.6434631022
 10
162.0758121115
 20
89.6441664286
 10
162.0307178252
 20
89.645061901
 10
161.987780429
 20
89.6461408435
 10
161.9474159434
 20
89.6473928023
 10
161.9100154603
 20
89.6488056474
 10
161.875941353
 20
89.6503656895
 10
161.8455237658
 20
89.6520578136
 10
161.819057415
 20
89.6538656245
 10
161.796798733
 20
89.6557716064
 10
161.7789633845
 20
89.6577572922
 10
161.7657241761
 20
89.6598034425
 10
161.7572093827
 20
89.6618902324
 10
161.7535015042
 20
89.6639974427
  0
LWPOLYLINE
  5
255
100
AcDbEntity
  8
RACCORDO
100
AcDbPolyline
 62
253
  6
CONTINUOUS
 90
16
 70
0
 10
162.2354223846
 20
88.4941683793
 10
162.1831987585
 20
88.4969398921
 10
162.1315468068
 20
88.5051525211
 10
162.0810319458
 20
88.5187163655
 10
162.0322071447
 20
88.5374829464
 10
161.985606872
 20
88.5612468324
 10
161.941741245
 20
88.5897478883
 10
161.901090446
 20
88.6226741228
 10
161.8640994654
 20
88.6596651034
 10
161.831173231
 20
88.7003159024
 10
161.8026721752
 20
88.7441815294
 10
161.7789082892
 20
88.7907818021
 10
161.7601417083
 20
88.8396066032
 10
161.746577864
 20
88.8901214641
 10
161.738365235
 20
88.9417734158
 10
161.7355937222
 20
88.9939970417
  0
LWPOLYLINE
  5
256
100
AcDbEntity
  8
0
100
AcDbPolyline
 62
253
  6
CONTINUOUS
 90
16
 70
0
 10
162.2354223846
 20
88.4941683793
 10
162.1831987585
 20
88.4969398921
 10
162.1315468068
 20
88.5051525211
 10
162.0810319458
 20
88.5187163655
 10
162.0322071447
 20
88.5374829464
 10
161.985606872
 20
88.5612468324
 10
161.941741245
 20
88.5897478883
 10
161.901090446
 20
88.6226741228
 10
161.8640994654
 20
88.6596651034
 10
161.831173231
 20
88.7003159024
 10
161.8026721752
 20
88.7441815294
 10
161.7789082892
 20
88.7907818021
 10
161.7601417083
 20
88.8396066032
 10
161.746577864
 20
88.8901214641
 10
161.738365235
 20
88.9417734158
 10
161.7355937222
 20
88.9939970417
  0
LWPOLYLINE
  5
257
100
AcDbEntity
  8
RACCORDO
100
AcDbPolyline
 62
253
  6
CONTINUOUS
 90
9
 70
0
 10
162.2354223857
 20
132.4513416727
 10
162.2343426791
 20
132.4460161767
 10
162.233221233
 20
132.4345713935
 10
162.232087602
 20
132.417069149
 10
162.2309933169
 20
132.3936031307
 10
162.2299446613
 20
132.3642961063
 10
162.2289024571
 20
132.3292972187
 10
162.227891836
 20
132.2887843437
 10
162.2260135368
 20
132.1920861346
  0
LWPOLYLINE
  5
258
100
AcDbEntity
  8
0
100
AcDbPolyline
 62
253
  6
CONTINUOUS
 90
9
 70
0
 10
162.2354223857
 20
132.4513416727
 10
162.2343426791
 20
132.4460161767
 10
162.233221233
 20
132.4345713935
 10
162.232087602
 20
132.417069149
 10
162.2309933169
 20
132.3936031307
 10
162.2299446613
 20
132.3642961063
 10
162.2289024571
 20
132.3292972187
 10
162.227891836
 20
132.2887843437
 10
162.2260135368
 20
132.1920861346
  0
LWPOLYLINE
  5
259
100
AcDbEntity
  8
0
100
AcDbPolyline
 62
7
  6
CONTINUOUS
 90
11
 70
0
 10
174.8121693899
 20
94.9775853022
 10
175.0023948468
 20
94.9915835061
 10
175.1842993687
 20
95.0135760952
 10
175.3568870013
 20
95.0423457248
 10
175.5204178188
 20
95.0768447649
 10
175.6763712101
 20
95.1164370092
 10
175.8247684511
 20
95.1603788724
 10
175.9653373431
 20
95.207874138
 10
176.0991634736
 20
95.2586000359
 10
176.2263199888
 20
95.311962877
 10
176.3467251558
 20
95.3673414944
  0
LINE
  5
25A
100
AcDbEntity
  8
0
100
AcDbLine
 62
7
  6
CONTINUOUS
 10
174.6141803694
 20
94.9727560341
 11
174.8121693899
 21
94.9775853022
  0
LINE
  5
25B
100
AcDbEntity
  8
0
100
AcDbLine
 62
7
  6
CONTINUOUS
 10
170.6136759321
 20
94.9727974732
 11
174.6146849567
 21
94.9727974732
  0
LINE
  5
25C
100
AcDbEntity
  8
DRAFT
100
AcDbLine
 62
7
  6
CONTINUOUS
 10
174.6146849567
 20
94.9727974732
 11
170.6136759321
 21
94.9727974732
  0
LINE
  5
25D
100
AcDbEntity
  8
0
100
AcDbLine
 62
7
  6
CONTINUOUS
 10
170.6141803694
 20
94.9727560359
 11
170.4702806688
 21
94.9752956655
  0
LWPOLYLINE
  5
25E
100
AcDbEntity
  8
DRAFT
100
AcDbPolyline
 62
7
  6
CONTINUOUS
 90
52
 70
0
 10
170.6136759321
 20
94.9727974732
 10
170.3655872924
 20
94.9805772699
 10
170.1200570995
 20
95.0033965682
 10
169.8770857608
 20
95.0412554632
 10
169.6355890113
 20
95.0944704454
 10
169.3966518922
 20
95.1627254355
 10
169.1635284356
 20
95.2450716926
 10
168.9366229743
 20
95.3415438699
 10
168.7155310225
 20
95.4521078869
 10
168.5022928121
 20
95.5757118223
 10
168.2966488415
 20
95.7127586318
 10
168.0988577608
 20
95.8628460396
 10
167.9117364614
 20
96.0237141105
 10
167.735817151
 20
96.1950970019
 10
167.5705659128
 20
96.3772610615
 10
167.4172000134
 20
96.5687444373
 10
167.2754982695
 20
96.7701279077
 10
167.1456799839
 20
96.9808311442
 10
167.0296229175
 20
97.1976503867
 10
166.9277656666
 20
97.4200523357
 10
166.8396677429
 20
97.6485704235
 10
166.76588822
 20
97.881600748
 10
166.7063938576
 20
98.1198369895
 10
166.6612166049
 20
98.3625855952
 10
166.6310134534
 20
98.6061615785
 10
166.6160020784
 20
98.8498834109
 10
166.6159643256
 20
99.0944324969
 10
166.6309036539
 20
99.3381680337
 10
166.6610379862
 20
99.5817701188
 10
166.7061498769
 20
99.8245586043
 10
166.7655899445
 20
100.0628521187
 10
166.8393267123
 20
100.2959608558
 10
166.9273929481
 20
100.5245743757
 10
167.0292357708
 20
100.74708016
 10
167.1452967621
 20
100.9640106011
 10
167.2751362349
 20
101.1748331164
 10
167.4168793456
 20
101.3763375456
 10
167.5703124163
 20
101.5679466847
 10
167.7356510102
 20
101.7502373668
 10
167.9116639088
 20
101.9217303128
 10
168.0988810835
 20
102.082684323
 10
168.2967742735
 20
102.2328402526
 10
168.5025244725
 20
102.3699417653
 10
168.7158825582
 20
102.4935885218
 10
168.9370985056
 20
102.604180432
 10
169.1641013829
 20
102.7006614138
 10
169.3972709345
 20
102.7829869218
 10
169.6362275618
 20
102.8512011554
 10
169.8777607462
 20
102.9043810804
 10
170.1207999536
 20
102.9422189046
 10
170.3664149446
 20
102.9650221488
 10
170.6146053125
 20
102.9727907446
  0
LWPOLYLINE
  5
25F
100
AcDbEntity
  8
0
100
AcDbPolyline
 62
7
  6
CONTINUOUS
 90
52
 70
0
 10
170.6136759321
 20
94.9727974732
 10
170.3655872924
 20
94.9805772699
 10
170.1200570995
 20
95.0033965682
 10
169.8770857608
 20
95.0412554632
 10
169.6355890113
 20
95.0944704454
 10
169.3966518922
 20
95.1627254355
 10
169.1635284356
 20
95.2450716926
 10
168.9366229743
 20
95.3415438699
 10
168.7155310225
 20
95.4521078869
 10
168.5022928121
 20
95.5757118223
 10
168.2966488415
 20
95.7127586318
 10
168.0988577608
 20
95.8628460396
 10
167.9117364614
 20
96.0237141105
 10
167.735817151
 20
96.1950970019
 10
167.5705659128
 20
96.3772610615
 10
167.4172000134
 20
96.5687444373
 10
167.2754982695
 20
96.7701279077
 10
167.1456799839
 20
96.9808311442
 10
167.0296229175
 20
97.1976503867
 10
166.9277656666
 20
97.4200523357
 10
166.8396677429
 20
97.6485704235
 10
166.76588822
 20
97.881600748
 10
166.7063938576
 20
98.1198369895
 10
166.6612166049
 20
98.3625855952
 10
166.6310134534
 20
98.6061615785
 10
166.6160020784
 20
98.8498834109
 10
166.6159643256
 20
99.0944324969
 10
166.6309036539
 20
99.3381680337
 10
166.6610379862
 20
99.5817701188
 10
166.7061498769
 20
99.8245586043
 10
166.7655899445
 20
100.0628521187
 10
166.8393267123
 20
100.2959608558
 10
166.9273929481
 20
100.5245743757
 10
167.0292357708
 20
100.74708016
 10
167.1452967621
 20
100.9640106011
 10
167.2751362349
 20
101.1748331164
 10
167.4168793456
 20
101.3763375456
 10
167.5703124163
 20
101.5679466847
 10
167.7356510102
 20
101.7502373668
 10
167.9116639088
 20
101.9217303128
 10
168.0988810835
 20
102.082684323
 10
168.2967742735
 20
102.2328402526
 10
168.5025244725
 20
102.3699417653
 10
168.7158825582
 20
102.4935885218
 10
168.9370985056
 20
102.604180432
 10
169.1641013829
 20
102.7006614138
 10
169.3972709345
 20
102.7829869218
 10
169.6362275618
 20
102.8512011554
 10
169.8777607462
 20
102.9043810804
 10
170.1207999536
 20
102.9422189046
 10
170.3664149446
 20
102.9650221488
 10
170.6146053125
 20
102.9727907446
  0
LINE
  5
260
100
AcDbEntity
  8
0
100
AcDbLine
 62
7
  6
CONTINUOUS
 10
170.4702806688
 20
94.9752956655
 11
170.3274425963
 21
94.9830048066
  0
LWPOLYLINE
  5
261
100
AcDbEntity
  8
0
100
AcDbPolyline
 62
7
  6
CONTINUOUS
 90
74
 70
0
 10
170.1858925792
 20
94.9957385727
 10
170.045707777
 20
95.0133690889
 10
169.9072248048
 20
95.0357458018
 10
169.7710376009
 20
95.0626474636
 10
169.637325419
 20
95.0939130281
 10
169.5062351516
 20
95.1293341113
 10
169.3782758866
 20
95.1685390524
 10
169.2535826024
 20
95.2112737089
 10
169.1322273853
 20
95.2573589306
 10
169.0145819529
 20
95.3064625399
 10
168.9007326458
 20
95.3582592228
 10
168.7906903731
 20
95.4124825178
 10
168.684679038
 20
95.4688111343
 10
168.5827155793
 20
95.5269803006
 10
168.4847883591
 20
95.5866852622
 10
168.3910451631
 20
95.6475297498
 10
168.3014448654
 20
95.7092574214
 10
168.2159410896
 20
95.7716046406
 10
168.1346369906
 20
95.8341562241
 10
168.0574981102
 20
95.8966218439
 10
167.9843893212
 20
95.9588217245
 10
167.9152379305
 20
96.020511469
 10
167.8500895927
 20
96.0813354708
 10
167.7886828206
 20
96.1412453369
 10
167.7304967184
 20
96.2004947795
 10
167.6754819697
 20
96.2588670857
 10
167.6234867015
 20
96.3162674085
 10
167.573888788
 20
96.3731975174
 10
167.5265620431
 20
96.4296381334
 10
167.4815034885
 20
96.4854134545
 10
167.4383313809
 20
96.5408489355
 10
167.3969011816
 20
96.5960164768
 10
167.3572698192
 20
96.6507129771
 10
167.3193788319
 20
96.7048753028
 10
167.2831799114
 20
96.7584457779
 10
167.2486278547
 20
96.8113686779
 10
167.2156692144
 20
96.8635898605
 10
167.1842587591
 20
96.9150542992
 10
167.1543480396
 20
96.965721877
 10
167.1258798715
 20
97.0155659076
 10
167.0988099608
 20
97.0645409938
 10
167.0730914091
 20
97.1126134518
 10
167.0486654321
 20
97.1597786499
 10
167.0254916592
 20
97.2059976572
 10
167.0035234526
 20
97.2512441062
 10
166.9826961755
 20
97.2955364867
 10
166.9629708131
 20
97.3388456292
 10
166.9443057496
 20
97.3811479344
 10
166.9266370008
 20
97.4224744474
 10
166.9099261469
 20
97.4628032552
 10
166.8941361848
 20
97.5021137986
 10
166.8792099909
 20
97.5404426408
 10
166.8651123175
 20
97.5777718967
 10
166.8518086444
 20
97.6140848938
 10
166.8392476287
 20
97.6494227492
 10
166.8273987207
 20
97.6837714383
 10
166.8162314313
 20
97.7171177287
 10
166.8056988905
 20
97.7495062423
 10
166.7957744619
 20
97.7809261243
 10
166.7864318889
 20
97.8113670322
 10
166.7776289661
 20
97.8408763524
 10
166.7693426964
 20
97.8694461624
 10
166.7615506694
 20
97.8970681083
 10
166.7542153155
 20
97.9237906137
 10
166.7473169364
 20
97.9496074238
 10
166.7408366021
 20
97.97451248
 10
166.734741281
 20
97.9985558781
 10
166.7290143692
 20
98.021732384
 10
166.7236399047
 20
98.0440380106
 10
166.7185888438
 20
98.065525802
 10
166.7138473236
 20
98.0861919047
 10
166.7094020417
 20
98.1060333097
 10
166.705227485
 20
98.1251051507
 10
166.7013122095
 20
98.1434046245
  0
LINE
  5
262
100
AcDbEntity
  8
0
100
AcDbLine
 62
253
  6
CONTINUOUS
 10
171.9315893694
 20
124.4483424924
 11
171.6894463694
 21
124.3039624924
  0
LINE
  5
263
100
AcDbEntity
  8
0
100
AcDbLine
 62
253
  6
CONTINUOUS
 10
172.0617953694
 20
124.5040194924
 11
171.9315893694
 21
124.4483424924
  0
LWPOLYLINE
  5
264
100
AcDbEntity
  8
RACCORDO
100
AcDbPolyline
 62
253
  6
CONTINUOUS
 90
7
 70
0
 10
162.2289024541
 20
88.6162128339
 10
162.2299446587
 20
88.5812139469
 10
162.2309933147
 20
88.5519069229
 10
162.2320876002
 20
88.5284409045
 10
162.2332212314
 20
88.5109386594
 10
162.2343426778
 20
88.4994938756
 10
162.2354223846
 20
88.4941683793
  0
LWPOLYLINE
  5
265
100
AcDbEntity
  8
0
100
AcDbPolyline
 62
253
  6
CONTINUOUS
 90
7
 70
0
 10
162.2289024541
 20
88.6162128339
 10
162.2299446587
 20
88.5812139469
 10
162.2309933147
 20
88.5519069229
 10
162.2320876002
 20
88.5284409045
 10
162.2332212314
 20
88.5109386594
 10
162.2343426778
 20
88.4994938756
 10
162.2354223846
 20
88.4941683793
  0
LINE
  5
266
100
AcDbEntity
  8
RACCORDO
100
AcDbLine
 62
253
  6
CONTINUOUS
 10
161.7465440217
 20
131.8003116954
 11
161.7484878199
 21
131.7325107537
  0
LINE
  5
267
100
AcDbEntity
  8
0
100
AcDbLine
 62
253
  6
CONTINUOUS
 10
161.7465440217
 20
131.8003116954
 11
161.7484878199
 21
131.7325107537
  0
LINE
  5
268
100
AcDbEntity
  8
RACCORDO
100
AcDbLine
 62
253
  6
CONTINUOUS
 10
162.2269409391
 20
88.7025423493
 11
162.2289024541
 21
88.6162128339
  0
LINE
  5
269
100
AcDbEntity
  8
0
100
AcDbLine
 62
253
  6
CONTINUOUS
 10
162.2269409391
 20
88.7025423493
 11
162.2289024541
 21
88.6162128339
  0
LINE
  5
26A
100
AcDbEntity
  8
RACCORDO
100
AcDbLine
 62
253
  6
CONTINUOUS
 10
161.7484878199
 20
131.7325107537
 11
161.7501529893
 21
131.6551058754
  0
LINE
  5
26B
100
AcDbEntity
  8
0
100
AcDbLine
 62
253
  6
CONTINUOUS
 10
161.7484878199
 20
131.7325107537
 11
161.7501529893
 21
131.6551058754
  0
LINE
  5
26C
100
AcDbEntity
  8
RACCORDO
100
AcDbLine
 62
253
  6
CONTINUOUS
 10
162.2251298681
 20
88.8091068782
 11
162.2269409391
 21
88.7025423493
  0
LINE
  5
26D
100
AcDbEntity
  8
0
100
AcDbLine
 62
253
  6
CONTINUOUS
 10
162.2251298681
 20
88.8091068782
 11
162.2269409391
 21
88.7025423493
  0
LINE
  5
26E
100
AcDbEntity
  8
RACCORDO
100
AcDbLine
 62
253
  6
CONTINUOUS
 10
161.7501529893
 20
131.6551058754
 11
161.7515142647
 21
131.5692887064
  0
LINE
  5
26F
100
AcDbEntity
  8
0
100
AcDbLine
 62
253
  6
CONTINUOUS
 10
161.7501529893
 20
131.6551058754
 11
161.7515142647
 21
131.5692887064
  0
LINE
  5
270
100
AcDbEntity
  8
RACCORDO
100
AcDbLine
 62
253
  6
CONTINUOUS
 10
162.2228239227
 20
89.0019941751
 11
162.2251298681
 21
88.8091068782
  0
LINE
  5
271
100
AcDbEntity
  8
0
100
AcDbLine
 62
253
  6
CONTINUOUS
 10
162.2228239227
 20
89.0019941751
 11
162.2251298681
 21
88.8091068782
  0
LINE
  5
272
100
AcDbEntity
  8
RACCORDO
100
AcDbLine
 62
253
  6
CONTINUOUS
 10
161.7515142647
 20
131.5692887064
 11
161.7529169063
 21
131.4291205698
  0
LINE
  5
273
100
AcDbEntity
  8
0
100
AcDbLine
 62
253
  6
CONTINUOUS
 10
161.7515142647
 20
131.5692887064
 11
161.7529169063
 21
131.4291205698
  0
LINE
  5
274
100
AcDbEntity
  8
RACCORDO
100
AcDbLine
 62
253
  6
CONTINUOUS
 10
162.2202596403
 20
89.3886971841
 11
162.2228239227
 21
89.0019941751
  0
LINE
  5
275
100
AcDbEntity
  8
0
100
AcDbLine
 62
253
  6
CONTINUOUS
 10
162.2202596403
 20
89.3886971841
 11
162.2228239227
 21
89.0019941751
  0
LINE
  5
276
100
AcDbEntity
  8
RACCORDO
100
AcDbLine
 62
253
  6
CONTINUOUS
 10
161.7529169063
 20
131.4291205698
 11
161.7535015047
 21
131.2815126081
  0
LINE
  5
277
100
AcDbEntity
  8
0
100
AcDbLine
 62
253
  6
CONTINUOUS
 10
161.7529169063
 20
131.4291205698
 11
161.7535015047
 21
131.2815126081
  0
LINE
  5
278
100
AcDbEntity
  8
RACCORDO
100
AcDbLine
 62
253
  6
CONTINUOUS
 10
161.7535015047
 20
131.2815126081
 11
161.7615788426
 21
122.036027574
  0
LINE
  5
279
100
AcDbEntity
  8
0
100
AcDbLine
 62
253
  6
CONTINUOUS
 10
161.7535015047
 20
131.2815126081
 11
161.7615788426
 21
122.036027574
  0
LINE
  5
27A
100
AcDbEntity
  8
RACCORDO
100
AcDbLine
 62
253
  6
CONTINUOUS
 10
161.7615788426
 20
122.036027574
 11
161.7650405586
 21
112.7861059167
  0
LINE
  5
27B
100
AcDbEntity
  8
0
100
AcDbLine
 62
253
  6
CONTINUOUS
 10
161.7615788426
 20
122.036027574
 11
161.7650405586
 21
112.7861059167
  0
LINE
  5
27C
100
AcDbEntity
  8
RACCORDO
100
AcDbLine
 62
7
  6
CONTINUOUS
 10
161.6141803694
 20
88.872583689
 11
161.6141803694
 21
132.072926364
  0
LINE
  5
27D
100
AcDbEntity
  8
0
100
AcDbLine
 62
7
  6
CONTINUOUS
 10
161.6141803694
 20
88.872583689
 11
161.6141803694
 21
132.072926364
  0
LINE
  5
27E
100
AcDbEntity
  8
RACCORDO
100
AcDbLine
 62
253
  6
CONTINUOUS
 10
162.219587294
 20
131.3028523822
 11
162.2202596403
 21
89.3886971841
  0
LINE
  5
27F
100
AcDbEntity
  8
0
100
AcDbLine
 62
253
  6
CONTINUOUS
 10
162.219587294
 20
131.3028523822
 11
162.2202596403
 21
89.3886971841
  0
LINE
  5
280
100
AcDbEntity
  8
RACCORDO
100
AcDbLine
 62
253
  6
CONTINUOUS
 10
161.7650405586
 20
112.7861059167
 11
161.7638866527
 21
103.5336492188
  0
LINE
  5
281
100
AcDbEntity
  8
0
100
AcDbLine
 62
253
  6
CONTINUOUS
 10
161.7650405586
 20
112.7861059167
 11
161.7638866527
 21
103.5336492188
  0
LINE
  5
282
100
AcDbEntity
  8
RACCORDO
100
AcDbLine
 62
253
  6
CONTINUOUS
 10
161.7638866527
 20
103.5336492188
 11
161.7581171256
 21
94.2862638096
  0
LINE
  5
283
100
AcDbEntity
  8
0
100
AcDbLine
 62
253
  6
CONTINUOUS
 10
161.7638866527
 20
103.5336492188
 11
161.7581171256
 21
94.2862638096
  0
LINE
  5
284
100
AcDbEntity
  8
RACCORDO
100
AcDbLine
 62
253
  6
CONTINUOUS
 10
161.7581171256
 20
94.2862638096
 11
161.7532026651
 21
89.564765488
  0
LINE
  5
285
100
AcDbEntity
  8
0
100
AcDbLine
 62
253
  6
CONTINUOUS
 10
161.7581171256
 20
94.2862638096
 11
161.7532026651
 21
89.564765488
  0
LINE
  5
286
100
AcDbEntity
  8
RACCORDO
100
AcDbLine
 62
253
  6
CONTINUOUS
 10
162.2210749078
 20
131.7190094425
 11
162.2195872907
 21
131.3028523834
  0
LINE
  5
287
100
AcDbEntity
  8
0
100
AcDbLine
 62
253
  6
CONTINUOUS
 10
162.2210749078
 20
131.7190094425
 11
162.2195872907
 21
131.3028523834
  0
LINE
  5
288
100
AcDbEntity
  8
RACCORDO
100
AcDbLine
 62
253
  6
CONTINUOUS
 10
161.7532026651
 20
89.564765488
 11
161.7520679704
 21
89.4215941183
  0
LINE
  5
289
100
AcDbEntity
  8
0
100
AcDbLine
 62
253
  6
CONTINUOUS
 10
161.7532026651
 20
89.564765488
 11
161.7520679704
 21
89.4215941183
  0
LINE
  5
28A
100
AcDbEntity
  8
RACCORDO
100
AcDbLine
 62
253
  6
CONTINUOUS
 10
162.2235420845
 20
132.0117984364
 11
162.2210749078
 21
131.7190094425
  0
LINE
  5
28B
100
AcDbEntity
  8
0
100
AcDbLine
 62
253
  6
CONTINUOUS
 10
162.2235420845
 20
132.0117984364
 11
162.2210749078
 21
131.7190094425
  0
LINE
  5
28C
100
AcDbEntity
  8
RACCORDO
100
AcDbLine
 62
253
  6
CONTINUOUS
 10
161.7520679704
 20
89.4215941183
 11
161.7508755222
 21
89.3325069679
  0
LINE
  5
28D
100
AcDbEntity
  8
0
100
AcDbLine
 62
253
  6
CONTINUOUS
 10
161.7520679704
 20
89.4215941183
 11
161.7508755222
 21
89.3325069679
  0
LINE
  5
28E
100
AcDbEntity
  8
RACCORDO
100
AcDbLine
 62
253
  6
CONTINUOUS
 10
162.2260135368
 20
132.1920861346
 11
162.2235420845
 21
132.0117984364
  0
LINE
  5
28F
100
AcDbEntity
  8
0
100
AcDbLine
 62
253
  6
CONTINUOUS
 10
162.2260135368
 20
132.1920861346
 11
162.2235420845
 21
132.0117984364
  0
LINE
  5
290
100
AcDbEntity
  8
RACCORDO
100
AcDbLine
 62
253
  6
CONTINUOUS
 10
161.7508755222
 20
89.3325069679
 11
161.7493574883
 21
89.2505574682
  0
LINE
  5
291
100
AcDbEntity
  8
0
100
AcDbLine
 62
253
  6
CONTINUOUS
 10
161.7508755222
 20
89.3325069679
 11
161.7493574883
 21
89.2505574682
  0
LWPOLYLINE
  5
292
100
AcDbEntity
  8
RACCORDO
100
AcDbPolyline
 62
253
  6
CONTINUOUS
 90
12
 70
0
 10
161.7493574883
 20
89.2505574682
 10
161.7475451834
 20
89.1776972114
 10
161.7465440206
 20
89.1451983559
 10
161.7454834278
 20
89.1155478221
 10
161.7443643076
 20
89.0887005189
 10
161.7432038056
 20
89.0650683179
 10
161.7420006869
 20
89.044700323
 10
161.7407561864
 20
89.0275474303
 10
161.7394911547
 20
89.0138741999
 10
161.7382125418
 20
89.0037688183
 10
161.7369133976
 20
88.9971430989
 10
161.7355937222
 20
88.9939970417
  0
LWPOLYLINE
  5
293
100
AcDbEntity
  8
0
100
AcDbPolyline
 62
253
  6
CONTINUOUS
 90
12
 70
0
 10
161.7493574883
 20
89.2505574682
 10
161.7475451834
 20
89.1776972114
 10
161.7465440206
 20
89.1451983559
 10
161.7454834278
 20
89.1155478221
 10
161.7443643076
 20
89.0887005189
 10
161.7432038056
 20
89.0650683179
 10
161.7420006869
 20
89.044700323
 10
161.7407561864
 20
89.0275474303
 10
161.7394911547
 20
89.0138741999
 10
161.7382125418
 20
89.0037688183
 10
161.7369133976
 20
88.9971430989
 10
161.7355937222
 20
88.9939970417
  0
LINE
  5
294
100
AcDbEntity
  8
0
100
AcDbLine
 62
253
  6
CONTINUOUS
 10
171.5786763694
 20
124.2158434924
 11
171.3841723694
 21
124.0125714924
  0
LINE
  5
295
100
AcDbEntity
  8
0
100
AcDbLine
 62
253
  6
CONTINUOUS
 10
171.6894463694
 20
124.3039624924
 11
171.5786763694
 21
124.2158434924
  0
LINE
  5
296
100
AcDbEntity
  8
0
100
AcDbLine
 62
253
  6
CONTINUOUS
 10
171.8518003694
 20
123.9076474924
 11
172.2063213694
 21
124.1182264924
  0
LINE
  5
297
100
AcDbEntity
  8
0
100
AcDbLine
 62
253
  6
CONTINUOUS
 10
169.6188773694
 20
120.7312854924
 11
169.6498583694
 21
120.7453144924
  0
LINE
  5
298
100
AcDbEntity
  8
0
100
AcDbLine
 62
253
  6
CONTINUOUS
 10
170.5002093694
 20
122.0669474924
 11
171.0344743694
 21
122.3061684924
  0
LINE
  5
299
100
AcDbEntity
  8
0
100
AcDbLine
 62
253
  6
CONTINUOUS
 10
173.6675123694
 20
123.4848824924
 11
174.0546203694
 21
123.6581974924
  0
LINE
  5
29A
100
AcDbEntity
  8
0
100
AcDbLine
 62
253
  6
CONTINUOUS
 10
169.6498583694
 20
120.7453144924
 11
175.3268613694
 21
123.2859954924
  0
LINE
  5
29B
100
AcDbEntity
  8
0
100
AcDbLine
 62
253
  6
CONTINUOUS
 10
175.0889553694
 20
123.6411004924
 11
169.3824333694
 21
121.0863904924
  0
LWPOLYLINE
  5
29C
100
AcDbEntity
  8
0
100
AcDbPolyline
 62
7
  6
CONTINUOUS
 90
5
 70
0
 10
166.6140249209
 20
98.9528277558
 10
166.6131647244
 20
98.95456547
 10
166.6125110336
 20
98.9564436046
 10
166.6139953025
 20
98.9599692378
 10
166.6159845394
 20
98.9634947665
  0
LINE
  5
29D
100
AcDbEntity
  8
0
100
AcDbLine
 62
253
  6
CONTINUOUS
 10
171.3841723694
 20
124.0125714924
 11
171.3010223694
 21
123.8984414924
  0
LINE
  5
29E
100
AcDbEntity
  8
0
100
AcDbLine
 62
253
  6
CONTINUOUS
 10
171.7058133694
 20
123.7556684924
 11
171.8518003694
 21
123.9076474924
  0
LINE
  5
29F
100
AcDbEntity
  8
RACCORDO
100
AcDbLine
 62
253
  6
CONTINUOUS
 10
182.9929383541
 20
132.4513416737
 11
183.1143517069
 21
132.5727550265
  0
LINE
  5
2A0
100
AcDbEntity
  8
0
100
AcDbLine
 62
253
  6
CONTINUOUS
 10
182.9929383541
 20
132.4513416737
 11
183.1143517069
 21
132.5727550265
  0
LINE
  5
2A1
100
AcDbEntity
  8
0
100
AcDbLine
 62
253
  6
CONTINUOUS
 10
171.9980813694
 20
120.3188954924
 11
171.9096693694
 21
120.2727174924
  0
LINE
  5
2A2
100
AcDbEntity
  8
0
100
AcDbLine
 62
253
  6
CONTINUOUS
 10
174.5856703694
 20
122.4745144924
 11
174.1971013694
 21
122.3006154924
  0
LINE
  5
2A3
100
AcDbEntity
  8
0
100
AcDbLine
 62
253
  6
CONTINUOUS
 10
170.5813143694
 20
120.6824764924
 11
170.1157323694
 21
120.4740904924
  0
LINE
  5
2A4
100
AcDbEntity
  8
0
100
AcDbLine
 62
253
  6
CONTINUOUS
 10
173.4963893694
 20
120.3565984924
 11
173.4440743694
 21
120.3348244924
  0
LINE
  5
2A5
100
AcDbEntity
  8
0
100
AcDbLine
 62
253
  6
CONTINUOUS
 10
170.8819113694
 20
119.9323724924
 11
170.9343733694
 21
119.9541464924
  0
LINE
  5
2A6
100
AcDbEntity
  8
0
100
AcDbLine
 62
253
  6
CONTINUOUS
 10
172.2853793694
 20
119.3478374924
 11
172.3810973694
 21
119.3766254924
  0
LINE
  5
2A7
100
AcDbEntity
  8
0
100
AcDbLine
 62
253
  6
CONTINUOUS
 10
172.0940913694
 20
120.3473914924
 11
171.9980813694
 21
120.3188954924
  0
LINE
  5
2A8
100
AcDbEntity
  8
RACCORDO
100
AcDbLine
 62
253
  6
CONTINUOUS
 10
183.1143517069
 20
88.3727550265
 11
182.992938354
 21
88.4941683794
  0
LINE
  5
2A9
100
AcDbEntity
  8
0
100
AcDbLine
 62
253
  6
CONTINUOUS
 10
183.1143517069
 20
88.3727550265
 11
182.992938354
 21
88.4941683794
  0
LWPOLYLINE
  5
2AA
100
AcDbEntity
  8
0
100
AcDbPolyline
 62
7
  6
CONTINUOUS
 90
3
 70
0
 10
166.6166127726
 20
98.9807079561
 10
166.6181990369
 20
98.9762917041
 10
166.617901921
 20
98.972754636
  0
LINE
  5
2AB
100
AcDbEntity
  8
0
100
AcDbLine
 62
7
  6
CONTINUOUS
 10
166.7013122095
 20
98.1434046245
 11
166.6942042029
 21
98.1777362242
  0
LWPOLYLINE
  5
2AC
100
AcDbEntity
  8
0
100
AcDbPolyline
 62
7
  6
CONTINUOUS
 90
3
 70
0
 10
166.6942042029
 20
98.1777362242
 10
166.6879628947
 20
98.2091877729
 10
166.685133996
 20
98.2238883534
  0
LINE
  5
2AD
100
AcDbEntity
  8
0
100
AcDbLine
 62
7
  6
CONTINUOUS
 10
166.637933976
 20
98.538051617
 11
166.6355352174
 21
98.560380753
  0
LINE
  5
2AE
100
AcDbEntity
  8
0
100
AcDbLine
 62
7
  6
CONTINUOUS
 10
166.6355352174
 20
98.560380753
 11
166.6329238874
 21
98.586152181
  0
LINE
  5
2AF
100
AcDbEntity
  8
0
100
AcDbLine
 62
7
  6
CONTINUOUS
 10
166.6329238874
 20
98.586152181
 11
166.6311386041
 21
98.6048093363
  0
LINE
  5
2B0
100
AcDbEntity
  8
0
100
AcDbLine
 62
7
  6
CONTINUOUS
 10
166.6311386041
 20
98.6048093363
 11
166.6293700444
 21
98.6242762509
  0
LINE
  5
2B1
100
AcDbEntity
  8
0
100
AcDbLine
 62
7
  6
CONTINUOUS
 10
166.6293700444
 20
98.6242762509
 11
166.6276582178
 21
98.6442161043
  0
LINE
  5
2B2
100
AcDbEntity
  8
0
100
AcDbLine
 62
7
  6
CONTINUOUS
 10
166.6276582178
 20
98.6442161043
 11
166.6260279699
 21
98.6644036833
  0
LINE
  5
2B3
100
AcDbEntity
  8
0
100
AcDbLine
 62
7
  6
CONTINUOUS
 10
166.6260279699
 20
98.6644036833
 11
166.6245077551
 21
98.6845007781
  0
LINE
  5
2B4
100
AcDbEntity
  8
0
100
AcDbLine
 62
7
  6
CONTINUOUS
 10
166.6245077551
 20
98.6845007781
 11
166.6231192137
 21
98.7041684945
  0
LINE
  5
2B5
100
AcDbEntity
  8
0
100
AcDbLine
 62
7
  6
CONTINUOUS
 10
166.6231192137
 20
98.7041684945
 11
166.6218702768
 21
98.7231807495
  0
LINE
  5
2B6
100
AcDbEntity
  8
0
100
AcDbLine
 62
7
  6
CONTINUOUS
 10
166.6218702768
 20
98.7231807495
 11
166.6207717163
 21
98.7411908557
  0
LINE
  5
2B7
100
AcDbEntity
  8
0
100
AcDbLine
 62
7
  6
CONTINUOUS
 10
166.6207717163
 20
98.7411908557
 11
166.6194110607
 21
98.7656593224
  0
LINE
  5
2B8
100
AcDbEntity
  8
0
100
AcDbLine
 62
7
  6
CONTINUOUS
 10
166.6194110607
 20
98.7656593224
 11
166.6183498957
 21
98.7869664068
  0
LINE
  5
2B9
100
AcDbEntity
  8
0
100
AcDbLine
 62
7
  6
CONTINUOUS
 10
166.6183498957
 20
98.7869664068
 11
166.6175115029
 21
98.8057119252
  0
LINE
  5
2BA
100
AcDbEntity
  8
0
100
AcDbLine
 62
7
  6
CONTINUOUS
 10
166.6175115029
 20
98.8057119252
 11
166.6166281469
 21
98.8280668368
  0
LINE
  5
2BB
100
AcDbEntity
  8
0
100
AcDbLine
 62
7
  6
CONTINUOUS
 10
166.6166281469
 20
98.8280668368
 11
166.615926906
 21
98.8486482381
  0
LINE
  5
2BC
100
AcDbEntity
  8
0
100
AcDbLine
 62
7
  6
CONTINUOUS
 10
166.615926906
 20
98.8486482381
 11
166.6153740218
 21
98.8676819466
  0
LINE
  5
2BD
100
AcDbEntity
  8
0
100
AcDbLine
 62
7
  6
CONTINUOUS
 10
166.6153740218
 20
98.8676819466
 11
166.6149473706
 21
98.8851506063
  0
LINE
  5
2BE
100
AcDbEntity
  8
0
100
AcDbLine
 62
7
  6
CONTINUOUS
 10
166.6149473706
 20
98.8851506063
 11
166.6145605042
 21
98.9047703813
  0
LINE
  5
2BF
100
AcDbEntity
  8
0
100
AcDbLine
 62
7
  6
CONTINUOUS
 10
166.6145605042
 20
98.9047703813
 11
166.6143006477
 21
98.9220367396
  0
LINE
  5
2C0
100
AcDbEntity
  8
0
100
AcDbLine
 62
7
  6
CONTINUOUS
 10
166.6143006477
 20
98.9220367396
 11
166.6141114681
 21
98.9399071382
  0
LINE
  5
2C1
100
AcDbEntity
  8
0
100
AcDbLine
 62
7
  6
CONTINUOUS
 10
166.6141114681
 20
98.9399071382
 11
166.6140249209
 21
98.9528277558
  0
LINE
  5
2C2
100
AcDbEntity
  8
0
100
AcDbLine
 62
253
  6
CONTINUOUS
 10
165.7737043333
 20
107.5727550265
 11
165.7737043333
 21
104.9727550265
  0
LINE
  5
2C3
100
AcDbEntity
  8
0
100
AcDbLine
 62
253
  6
CONTINUOUS
 10
170.9432873694
 20
123.2368934924
 11
170.6986593694
 21
122.6698954924
  0
LINE
  5
2C4
100
AcDbEntity
  8
0
100
AcDbLine
 62
253
  6
CONTINUOUS
 10
171.1984363694
 20
122.7474924924
 11
171.3910413694
 21
123.1736184924
  0
LINE
  5
2C5
100
AcDbEntity
  8
0
100
AcDbLine
 62
253
  6
CONTINUOUS
 10
169.3824333694
 20
121.0863904924
 11
169.3358163694
 21
120.9973944924
  0
LINE
  5
2C6
100
AcDbEntity
  8
0
100
AcDbLine
 62
253
  6
CONTINUOUS
 10
171.3010223694
 20
123.8984414924
 11
170.9432873694
 21
123.2368934924
  0
LINE
  5
2C7
100
AcDbEntity
  8
0
100
AcDbLine
 62
253
  6
CONTINUOUS
 10
171.3910413694
 20
123.1736184924
 11
171.7058133694
 21
123.7556684924
  0
LINE
  5
2C8
100
AcDbEntity
  8
0
100
AcDbLine
 62
253
  6
CONTINUOUS
 10
171.8322193694
 20
120.2106104924
 11
171.7683583694
 21
120.1340364924
  0
LINE
  5
2C9
100
AcDbEntity
  8
0
100
AcDbLine
 62
253
  6
CONTINUOUS
 10
170.9343733694
 20
119.9541464924
 11
171.0100713694
 21
120.0301354924
  0
LINE
  5
2CA
100
AcDbEntity
  8
RACCORDO
100
AcDbLine
 62
253
  6
CONTINUOUS
 10
183.4927670166
 20
131.9515130112
 11
183.6141803694
 21
132.072926364
  0
LINE
  5
2CB
100
AcDbEntity
  8
0
100
AcDbLine
 62
253
  6
CONTINUOUS
 10
183.4927670166
 20
131.9515130112
 11
183.6141803694
 21
132.072926364
  0
LINE
  5
2CC
100
AcDbEntity
  8
0
100
AcDbLine
 62
253
  6
CONTINUOUS
 10
173.4440743694
 20
120.3348244924
 11
173.3683763694
 21
120.2589814924
  0
LINE
  5
2CD
100
AcDbEntity
  8
0
100
AcDbLine
 62
253
  6
CONTINUOUS
 10
172.4695083694
 20
119.4229494924
 11
172.5466673694
 21
119.4850564924
  0
LINE
  5
2CE
100
AcDbEntity
  8
0
100
AcDbLine
 62
253
  6
CONTINUOUS
 10
171.9096693694
 20
120.2727174924
 11
171.8322193694
 21
120.2106104924
  0
LINE
  5
2CF
100
AcDbEntity
  8
0
100
AcDbLine
 62
253
  6
CONTINUOUS
 10
172.3810973694
 20
119.3766254924
 11
172.4695083694
 21
119.4229494924
  0
LINE
  5
2D0
100
AcDbEntity
  8
0
100
AcDbLine
 62
253
  6
CONTINUOUS
 10
175.0094583694
 20
119.9323724924
 11
175.0689353694
 21
119.9594074924
  0
LWPOLYLINE
  5
2D1
100
AcDbEntity
  8
0
100
AcDbPolyline
 62
7
  6
CONTINUOUS
 90
12
 70
0
 10
170.6141803694
 20
102.9727554869
 10
170.4163947292
 20
102.9679383961
 10
170.226347187
 20
102.9539665574
 10
170.0445953631
 20
102.9320115967
 10
169.8721288726
 20
102.9032874626
 10
169.7086953252
 20
102.8688393196
 10
169.5528365718
 20
102.8293048141
 10
169.404540461
 20
102.7854304225
 10
169.2640709195
 20
102.738010802
 10
169.1303371588
 20
102.6873655532
 10
169.003265464
 20
102.6340867006
 10
168.8829397115
 20
102.5787956311
  0
LINE
  5
2D2
100
AcDbEntity
  8
0
100
AcDbLine
 62
7
  6
CONTINUOUS
 10
174.6137555276
 20
102.9727907446
 11
170.6146053125
 21
102.9727907446
  0
LINE
  5
2D3
100
AcDbEntity
  8
DRAFT
100
AcDbLine
 62
7
  6
CONTINUOUS
 10
170.6146053125
 20
102.9727907446
 11
174.6137555276
 21
102.9727907446
  0
LWPOLYLINE
  5
2D4
100
AcDbEntity
  8
DRAFT
100
AcDbPolyline
 62
7
  6
CONTINUOUS
 90
52
 70
0
 10
174.6137555276
 20
102.9727907446
 10
174.8620580241
 20
102.9650013325
 10
175.1077408319
 20
102.9421853771
 10
175.3508035468
 20
102.904342946
 10
175.5923059094
 20
102.8511631118
 10
175.8311874132
 20
102.7829570717
 10
176.0642676114
 20
102.7006580772
 10
176.2911673308
 20
102.6042289241
 10
176.5122658937
 20
102.4937071612
 10
176.7255211639
 20
102.370138101
 10
176.9311940853
 20
102.2331179626
 10
177.1290245629
 20
102.0830509561
 10
177.3161894705
 20
101.9221942616
 10
177.4921568841
 20
101.7508118019
 10
177.6574604358
 20
101.568639998
 10
177.8108757731
 20
101.3771446383
 10
177.9526223437
 20
101.1757450249
 10
178.0824825815
 20
100.9650222273
 10
178.1985768493
 20
100.7481845104
 10
178.3004653624
 20
100.5257655838
 10
178.3885897987
 20
100.2972319286
 10
178.4623927754
 20
100.0641907876
 10
178.5219071415
 20
99.8259513528
 10
178.5671013396
 20
99.583204679
 10
178.5973212427
 20
99.3396306081
 10
178.6123500188
 20
99.0959088135
 10
178.6124049791
 20
98.851359673
 10
178.5974829995
 20
98.607623884
 10
178.5673652847
 20
98.364019391
 10
178.5222701528
 20
98.1212283745
 10
178.4628499373
 20
97.8829376694
 10
178.3891365089
 20
97.6498397157
 10
178.3010967064
 20
97.421241947
 10
178.1992851804
 20
97.1987534532
 10
178.0832616334
 20
96.9818420067
 10
177.9534644695
 20
96.7710397032
 10
177.8117664512
 20
96.5695518773
 10
177.658383075
 20
96.3779549348
 10
177.4930969601
 20
96.1956720209
 10
177.3171317882
 20
96.0241783306
 10
177.1299570546
 20
95.8632120798
 10
176.9321015525
 20
95.7130345466
 10
176.7263783489
 20
95.5759053159
 10
176.5130349706
 20
95.4522228751
 10
176.2918230357
 20
95.3415880565
 10
176.0648123193
 20
95.2450637957
 10
175.8315976986
 20
95.1626913491
 10
175.5925841468
 20
95.0944288854
 10
175.3510571606
 20
95.0412146278
 10
175.1081122729
 20
95.0033611488
 10
174.862654735
 20
94.9805554626
 10
174.6146849567
 20
94.9727974732
  0
LWPOLYLINE
  5
2D5
100
AcDbEntity
  8
0
100
AcDbPolyline
 62
7
  6
CONTINUOUS
 90
52
 70
0
 10
174.6137555276
 20
102.9727907446
 10
174.8620580241
 20
102.9650013325
 10
175.1077408319
 20
102.9421853771
 10
175.3508035468
 20
102.904342946
 10
175.5923059094
 20
102.8511631118
 10
175.8311874132
 20
102.7829570717
 10
176.0642676114
 20
102.7006580772
 10
176.2911673308
 20
102.6042289241
 10
176.5122658937
 20
102.4937071612
 10
176.7255211639
 20
102.370138101
 10
176.9311940853
 20
102.2331179626
 10
177.1290245629
 20
102.0830509561
 10
177.3161894705
 20
101.9221942616
 10
177.4921568841
 20
101.7508118019
 10
177.6574604358
 20
101.568639998
 10
177.8108757731
 20
101.3771446383
 10
177.9526223437
 20
101.1757450249
 10
178.0824825815
 20
100.9650222273
 10
178.1985768493
 20
100.7481845104
 10
178.3004653624
 20
100.5257655838
 10
178.3885897987
 20
100.2972319286
 10
178.4623927754
 20
100.0641907876
 10
178.5219071415
 20
99.8259513528
 10
178.5671013396
 20
99.583204679
 10
178.5973212427
 20
99.3396306081
 10
178.6123500188
 20
99.0959088135
 10
178.6124049791
 20
98.851359673
 10
178.5974829995
 20
98.607623884
 10
178.5673652847
 20
98.364019391
 10
178.5222701528
 20
98.1212283745
 10
178.4628499373
 20
97.8829376694
 10
178.3891365089
 20
97.6498397157
 10
178.3010967064
 20
97.421241947
 10
178.1992851804
 20
97.1987534532
 10
178.0832616334
 20
96.9818420067
 10
177.9534644695
 20
96.7710397032
 10
177.8117664512
 20
96.5695518773
 10
177.658383075
 20
96.3779549348
 10
177.4930969601
 20
96.1956720209
 10
177.3171317882
 20
96.0241783306
 10
177.1299570546
 20
95.8632120798
 10
176.9321015525
 20
95.7130345466
 10
176.7263783489
 20
95.5759053159
 10
176.5130349706
 20
95.4522228751
 10
176.2918230357
 20
95.3415880565
 10
176.0648123193
 20
95.2450637957
 10
175.8315976986
 20
95.1626913491
 10
175.5925841468
 20
95.0944288854
 10
175.3510571606
 20
95.0412146278
 10
175.1081122729
 20
95.0033611488
 10
174.862654735
 20
94.9805554626
 10
174.6146849567
 20
94.9727974732
  0
LWPOLYLINE
  5
2D6
100
AcDbEntity
  8
0
100
AcDbPolyline
 62
7
  6
CONTINUOUS
 90
3
 70
0
 10
174.9044732436
 20
102.962250945
 10
174.7598763331
 20
102.9701528189
 10
174.6141803694
 20
102.9727554871
  0
LWPOLYLINE
  5
2D7
100
AcDbEntity
  8
0
100
AcDbPolyline
 62
7
  6
CONTINUOUS
 90
9
 70
0
 10
176.112088643
 20
102.6817554899
 10
175.9897849217
 20
102.72877986
 10
175.8640256773
 20
102.772415224
 10
175.7348813874
 20
102.812475385
 10
175.6024911797
 20
102.8486917842
 10
175.46737481
 20
102.880678309
 10
175.3296768606
 20
102.9082179784
 10
175.189588046
 20
102.9311378373
 10
175.0477358367
 20
102.9492016837
  0
LINE
  5
2D8
100
AcDbEntity
  8
RACCORDO
100
AcDbLine
 62
253
  6
CONTINUOUS
 10
183.6141803694
 20
88.872583689
 11
183.4927670156
 21
88.9939970428
  0
LINE
  5
2D9
100
AcDbEntity
  8
0
100
AcDbLine
 62
253
  6
CONTINUOUS
 10
183.6141803694
 20
88.872583689
 11
183.4927670156
 21
88.9939970428
  0
LINE
  5
2DA
100
AcDbEntity
  8
0
100
AcDbLine
 62
253
  6
CONTINUOUS
 10
167.0737043333
 20
107.2013264772
 11
166.702275784
 21
107.5727550265
  0
LINE
  5
2DB
100
AcDbEntity
  8
0
100
AcDbLine
 62
7
  6
CONTINUOUS
 10
166.685133996
 20
98.2238883534
 11
166.6800103028
 21
98.2512910581
  0
LINE
  5
2DC
100
AcDbEntity
  8
0
100
AcDbLine
 62
7
  6
CONTINUOUS
 10
166.6800103028
 20
98.2512910581
 11
166.6755215045
 21
98.276198995
  0
LINE
  5
2DD
100
AcDbEntity
  8
0
100
AcDbLine
 62
7
  6
CONTINUOUS
 10
166.6755215045
 20
98.276198995
 11
166.6715999528
 21
98.2987227913
  0
LINE
  5
2DE
100
AcDbEntity
  8
0
100
AcDbLine
 62
7
  6
CONTINUOUS
 10
166.6715999528
 20
98.2987227913
 11
166.6681754145
 21
98.3190339731
  0
LINE
  5
2DF
100
AcDbEntity
  8
0
100
AcDbLine
 62
7
  6
CONTINUOUS
 10
166.6681754145
 20
98.3190339731
 11
166.6651852534
 21
98.3373049889
  0
LINE
  5
2E0
100
AcDbEntity
  8
0
100
AcDbLine
 62
7
  6
CONTINUOUS
 10
166.6651852534
 20
98.3373049889
 11
166.6614088652
 21
98.3611658611
  0
LINE
  5
2E1
100
AcDbEntity
  8
0
100
AcDbLine
 62
7
  6
CONTINUOUS
 10
166.6614088652
 20
98.3611658611
 11
166.6583415857
 21
98.381258896
  0
LINE
  5
2E2
100
AcDbEntity
  8
0
100
AcDbLine
 62
7
  6
CONTINUOUS
 10
166.6583415857
 20
98.381258896
 11
166.6551272053
 21
98.4030793079
  0
LINE
  5
2E3
100
AcDbEntity
  8
0
100
AcDbLine
 62
7
  6
CONTINUOUS
 10
166.6551272053
 20
98.4030793079
 11
166.6521365057
 21
98.424163166
  0
LINE
  5
2E4
100
AcDbEntity
  8
0
100
AcDbLine
 62
7
  6
CONTINUOUS
 10
166.6521365057
 20
98.424163166
 11
166.6494844762
 21
98.4435635038
  0
LINE
  5
2E5
100
AcDbEntity
  8
0
100
AcDbLine
 62
7
  6
CONTINUOUS
 10
166.6494844762
 20
98.4435635038
 11
166.6468866126
 21
98.4632846184
  0
LINE
  5
2E6
100
AcDbEntity
  8
0
100
AcDbLine
 62
7
  6
CONTINUOUS
 10
166.6468866126
 20
98.4632846184
 11
166.6444436565
 21
98.482553839
  0
LINE
  5
2E7
100
AcDbEntity
  8
0
100
AcDbLine
 62
7
  6
CONTINUOUS
 10
166.6444436565
 20
98.482553839
 11
166.6418967676
 21
98.5034848529
  0
LINE
  5
2E8
100
AcDbEntity
  8
0
100
AcDbLine
 62
7
  6
CONTINUOUS
 10
166.6418967676
 20
98.5034848529
 11
166.6393795634
 21
98.5251327997
  0
LINE
  5
2E9
100
AcDbEntity
  8
0
100
AcDbLine
 62
7
  6
CONTINUOUS
 10
166.6393795634
 20
98.5251327997
 11
166.637933976
 21
98.538051617
  0
LINE
  5
2EA
100
AcDbEntity
  8
0
100
AcDbLine
 62
253
  6
CONTINUOUS
 10
166.6094186735
 20
111.1727550265
 11
166.6094186735
 21
108.5727550265
  0
LINE
  5
2EB
100
AcDbEntity
  8
0
100
AcDbLine
 62
253
  6
CONTINUOUS
 10
167.0737043333
 20
105.3441836145
 11
167.0737043333
 21
107.2013264772
  0
LINE
  5
2EC
100
AcDbEntity
  8
0
100
AcDbLine
 62
253
  6
CONTINUOUS
 10
167.9094186735
 20
108.9441836145
 11
167.9094186735
 21
110.8013264772
  0
LINE
  5
2ED
100
AcDbEntity
  8
0
100
AcDbLine
 62
253
  6
CONTINUOUS
 10
168.6213233662
 20
107.5727550265
 11
168.6213233662
 21
104.9727550265
  0
LINE
  5
2EE
100
AcDbEntity
  8
0
100
AcDbLine
 62
7
  6
CONTINUOUS
 10
166.6141620883
 20
99.0111996806
 11
166.6140241844
 21
98.9925439568
  0
LINE
  5
2EF
100
AcDbEntity
  8
0
100
AcDbLine
 62
7
  6
CONTINUOUS
 10
166.614390068
 20
99.0300088803
 11
166.6141620883
 21
99.0111996806
  0
LINE
  5
2F0
100
AcDbEntity
  8
0
100
AcDbLine
 62
7
  6
CONTINUOUS
 10
166.6146925962
 20
99.0480262501
 11
166.614390068
 21
99.0300088803
  0
LINE
  5
2F1
100
AcDbEntity
  8
0
100
AcDbLine
 62
7
  6
CONTINUOUS
 10
166.6151397286
 20
99.0686390457
 11
166.6146925962
 21
99.0480262501
  0
LINE
  5
2F2
100
AcDbEntity
  8
0
100
AcDbLine
 62
7
  6
CONTINUOUS
 10
166.6156346677
 20
99.0872044974
 11
166.6151397286
 21
99.0686390457
  0
LINE
  5
2F3
100
AcDbEntity
  8
0
100
AcDbLine
 62
7
  6
CONTINUOUS
 10
166.6162821786
 20
99.1076890467
 11
166.6156346677
 21
99.0872044974
  0
LINE
  5
2F4
100
AcDbEntity
  8
0
100
AcDbLine
 62
7
  6
CONTINUOUS
 10
166.617115417
 20
99.1301750376
 11
166.6162821786
 21
99.1076890467
  0
LINE
  5
2F5
100
AcDbEntity
  8
0
100
AcDbLine
 62
7
  6
CONTINUOUS
 10
166.6178922068
 20
99.1485652655
 11
166.617115417
 21
99.1301750376
  0
LINE
  5
2F6
100
AcDbEntity
  8
0
100
AcDbLine
 62
7
  6
CONTINUOUS
 10
166.6188379908
 20
99.1686386747
 11
166.6178922068
 21
99.1485652655
  0
LINE
  5
2F7
100
AcDbEntity
  8
0
100
AcDbLine
 62
7
  6
CONTINUOUS
 10
166.620000649
 20
99.1907966119
 11
166.6188379908
 21
99.1686386747
  0
LINE
  5
2F8
100
AcDbEntity
  8
0
100
AcDbLine
 62
7
  6
CONTINUOUS
 10
166.6214258692
 20
99.2152102991
 11
166.620000649
 21
99.1907966119
  0
LINE
  5
2F9
100
AcDbEntity
  8
0
100
AcDbLine
 62
7
  6
CONTINUOUS
 10
166.6225341227
 20
99.2326129819
 11
166.6214258692
 21
99.2152102991
  0
LINE
  5
2FA
100
AcDbEntity
  8
0
100
AcDbLine
 62
7
  6
CONTINUOUS
 10
166.623774387
 20
99.2507995265
 11
166.6225341227
 21
99.2326129819
  0
LINE
  5
2FB
100
AcDbEntity
  8
0
100
AcDbLine
 62
7
  6
CONTINUOUS
 10
166.6251473739
 20
99.2696349796
 11
166.623774387
 21
99.2507995265
  0
LINE
  5
2FC
100
AcDbEntity
  8
0
100
AcDbLine
 62
7
  6
CONTINUOUS
 10
166.6266516954
 20
99.2889855703
 11
166.6251473739
 21
99.2696349796
  0
LINE
  5
2FD
100
AcDbEntity
  8
0
100
AcDbLine
 62
7
  6
CONTINUOUS
 10
166.6282872981
 20
99.308761948
 11
166.6266516954
 21
99.2889855703
  0
LINE
  5
2FE
100
AcDbEntity
  8
0
100
AcDbLine
 62
7
  6
CONTINUOUS
 10
166.6300485681
 20
99.3288305008
 11
166.6282872981
 21
99.308761948
  0
LINE
  5
2FF
100
AcDbEntity
  8
0
100
AcDbLine
 62
7
  6
CONTINUOUS
 10
166.6319271949
 20
99.3490571632
 11
166.6300485681
 21
99.3288305008
  0
LINE
  5
300
100
AcDbEntity
  8
0
100
AcDbLine
 62
7
  6
CONTINUOUS
 10
166.6339166571
 20
99.3693533034
 11
166.6319271949
 21
99.3490571632
  0
LINE
  5
301
100
AcDbEntity
  8
0
100
AcDbLine
 62
7
  6
CONTINUOUS
 10
166.6360008926
 20
99.3895572067
 11
166.6339166571
 21
99.3693533034
  0
LINE
  5
302
100
AcDbEntity
  8
0
100
AcDbLine
 62
7
  6
CONTINUOUS
 10
166.6381806993
 20
99.4096891096
 11
166.6360008926
 21
99.3895572067
  0
LINE
  5
303
100
AcDbEntity
  8
0
100
AcDbLine
 62
7
  6
CONTINUOUS
 10
166.6404607074
 20
99.4297987967
 11
166.6381806993
 21
99.4096891096
  0
LINE
  5
304
100
AcDbEntity
  8
0
100
AcDbLine
 62
7
  6
CONTINUOUS
 10
166.6428596409
 20
99.450043534
 11
166.6404607074
 21
99.4297987967
  0
LINE
  5
305
100
AcDbEntity
  8
0
100
AcDbLine
 62
7
  6
CONTINUOUS
 10
166.6453994673
 20
99.4705807223
 11
166.6428596409
 21
99.450043534
  0
LINE
  5
306
100
AcDbEntity
  8
0
100
AcDbLine
 62
7
  6
CONTINUOUS
 10
166.6480983378
 20
99.4915131846
 11
166.6453994673
 21
99.4705807223
  0
LINE
  5
307
100
AcDbEntity
  8
0
100
AcDbLine
 62
7
  6
CONTINUOUS
 10
166.6509837978
 20
99.5129953392
 11
166.6480983378
 21
99.4915131846
  0
LINE
  5
308
100
AcDbEntity
  8
0
100
AcDbLine
 62
7
  6
CONTINUOUS
 10
166.6540869329
 20
99.5351813635
 11
166.6509837978
 21
99.5129953392
  0
LINE
  5
309
100
AcDbEntity
  8
0
100
AcDbLine
 62
7
  6
CONTINUOUS
 10
166.6574349047
 20
99.5581727933
 11
166.6540869329
 21
99.5351813635
  0
LINE
  5
30A
100
AcDbEntity
  8
0
100
AcDbLine
 62
7
  6
CONTINUOUS
 10
166.6610649687
 20
99.5821177948
 11
166.6574349047
 21
99.5581727933
  0
LINE
  5
30B
100
AcDbEntity
  8
0
100
AcDbLine
 62
7
  6
CONTINUOUS
 10
166.6650238947
 20
99.6071968069
 11
166.6610649687
 21
99.5821177948
  0
LINE
  5
30C
100
AcDbEntity
  8
0
100
AcDbLine
 62
253
  6
CONTINUOUS
 10
170.1157323694
 20
120.4740904924
 11
170.0960043694
 21
120.3523604924
  0
LINE
  5
30D
100
AcDbEntity
  8
0
100
AcDbLine
 62
253
  6
CONTINUOUS
 10
170.0960043694
 20
120.3523604924
 11
170.0812453694
 21
120.2626344924
  0
LINE
  5
30E
100
AcDbEntity
  8
0
100
AcDbLine
 62
7
  6
CONTINUOUS
 10
166.6693498538
 20
99.633505053
 11
166.6650238947
 21
99.6071968069
  0
LINE
  5
30F
100
AcDbEntity
  8
0
100
AcDbLine
 62
7
  6
CONTINUOUS
 10
166.6740862434
 20
99.6611459925
 11
166.6693498538
 21
99.633505053
  0
LINE
  5
310
100
AcDbEntity
  8
0
100
AcDbLine
 62
7
  6
CONTINUOUS
 10
166.679293564
 20
99.6902923764
 11
166.6740862434
 21
99.6611459925
  0
LINE
  5
311
100
AcDbEntity
  8
0
100
AcDbLine
 62
253
  6
CONTINUOUS
 10
170.5637783694
 20
120.5907044924
 11
170.5813143694
 21
120.6824764924
  0
LINE
  5
312
100
AcDbEntity
  8
0
100
AcDbLine
 62
253
  6
CONTINUOUS
 10
170.6986593694
 20
122.6698954924
 11
170.5002093694
 21
122.0669474924
  0
LINE
  5
313
100
AcDbEntity
  8
0
100
AcDbLine
 62
253
  6
CONTINUOUS
 10
171.0344743694
 20
122.3061684924
 11
171.1984363694
 21
122.7474924924
  0
LINE
  5
314
100
AcDbEntity
  8
0
100
AcDbLine
 62
253
  6
CONTINUOUS
 10
171.0100713694
 20
120.0301354924
 11
171.0318453694
 21
120.0825974924
  0
LINE
  5
315
100
AcDbEntity
  8
0
100
AcDbLine
 62
253
  6
CONTINUOUS
 10
172.6100883694
 20
119.5620694924
 11
172.6577293694
 21
119.6496034924
  0
LINE
  5
316
100
AcDbEntity
  8
0
100
AcDbLine
 62
253
  6
CONTINUOUS
 10
171.7683583694
 20
120.1340364924
 11
171.7204263694
 21
120.0463564924
  0
LINE
  5
317
100
AcDbEntity
  8
0
100
AcDbLine
 62
253
  6
CONTINUOUS
 10
172.5466673694
 20
119.4850564924
 11
172.6100883694
 21
119.5620694924
  0
LINE
  5
318
100
AcDbEntity
  8
0
100
AcDbLine
 62
253
  6
CONTINUOUS
 10
175.1086833694
 20
120.0044164924
 11
175.1482853694
 21
120.0497174924
  0
LINE
  5
319
100
AcDbEntity
  8
0
100
AcDbLine
 62
253
  6
CONTINUOUS
 10
175.0689353694
 20
119.9594074924
 11
175.1086833694
 21
120.0044164924
  0
LINE
  5
31A
100
AcDbEntity
  8
0
100
AcDbLine
 62
253
  6
CONTINUOUS
 10
178.1546565962
 20
104.9727129177
 11
179.0832282019
 21
104.9728001342
  0
LINE
  5
31B
100
AcDbEntity
  8
0
100
AcDbLine
 62
253
  6
CONTINUOUS
 10
170.7260853005
 20
104.9727428687
 11
169.9832282019
 21
104.9727691011
  0
LINE
  5
31C
100
AcDbEntity
  8
0
100
AcDbLine
 62
253
  6
CONTINUOUS
 10
174.9975140047
 20
104.9727647288
 11
174.4403707934
 21
104.9727464024
  0
LINE
  5
31D
100
AcDbEntity
  8
0
100
AcDbLine
 62
253
  6
CONTINUOUS
 10
176.1117998076
 20
106.0870184939
 11
177.0403714132
 21
106.0870654566
  0
LINE
  5
31E
100
AcDbEntity
  8
0
100
AcDbLine
 62
253
  6
CONTINUOUS
 10
178.1546565962
 20
106.2727288302
 11
179.0832282019
 21
106.2727623411
  0
LINE
  5
31F
100
AcDbEntity
  8
0
100
AcDbLine
 62
253
  6
CONTINUOUS
 10
165.7737043333
 20
104.9728028377
 11
166.702275784
 21
104.9727102147
  0
LINE
  5
320
100
AcDbEntity
  8
0
100
AcDbLine
 62
7
  6
CONTINUOUS
 10
176.3451253676
 20
102.5789062237
 11
176.2305645491
 21
102.6316842101
  0
LINE
  5
321
100
AcDbEntity
  8
0
100
AcDbLine
 62
7
  6
CONTINUOUS
 10
176.5622554807
 20
102.46640199
 11
176.4557621306
 21
102.5237012911
  0
LINE
  5
322
100
AcDbEntity
  8
0
100
AcDbLine
 62
253
  6
CONTINUOUS
 10
169.7975140047
 20
106.8298979279
 11
171.0975140047
 21
105.7156122026
  0
LINE
  5
323
100
AcDbEntity
  8
0
100
AcDbLine
 62
253
  6
CONTINUOUS
 10
169.9832282019
 20
104.9727550265
 11
169.7975140047
 21
105.1584693205
  0
LINE
  5
324
100
AcDbEntity
  8
0
100
AcDbLine
 62
253
  6
CONTINUOUS
 10
168.9617996407
 20
110.8013264772
 11
168.9617996407
 21
108.9441836145
  0
LINE
  5
325
100
AcDbEntity
  8
0
100
AcDbLine
 62
253
  6
CONTINUOUS
 10
169.7975140047
 20
107.2013264772
 11
169.7975140047
 21
106.8298979279
  0
LINE
  5
326
100
AcDbEntity
  8
0
100
AcDbLine
 62
253
  6
CONTINUOUS
 10
170.2617996407
 20
108.9441836145
 11
170.2617996407
 21
110.8013264772
  0
LINE
  5
327
100
AcDbEntity
  8
0
100
AcDbLine
 62
253
  6
CONTINUOUS
 10
170.6141803694
 20
102.9727903871
 11
170.6141803694
 21
94.9727965159
  0
LINE
  5
328
100
AcDbEntity
  8
0
100
AcDbLine
 62
253
  6
CONTINUOUS
 10
171.6907623694
 20
119.9513694924
 11
171.6802393694
 21
119.8518524924
  0
LINE
  5
329
100
AcDbEntity
  8
0
100
AcDbLine
 62
253
  6
CONTINUOUS
 10
170.0812453694
 20
120.2626344924
 11
170.0697003694
 21
120.1718854924
  0
LINE
  5
32A
100
AcDbEntity
  8
0
100
AcDbLine
 62
253
  6
CONTINUOUS
 10
170.0697003694
 20
120.1718854924
 11
170.0616633694
 21
120.1122634924
  0
LINE
  5
32B
100
AcDbEntity
  8
0
100
AcDbLine
 62
253
  6
CONTINUOUS
 10
170.5240303694
 20
120.3565984924
 11
170.5469733694
 21
120.4984944924
  0
LINE
  5
32C
100
AcDbEntity
  8
0
100
AcDbLine
 62
253
  6
CONTINUOUS
 10
170.5469733694
 20
120.4984944924
 11
170.5637783694
 21
120.5907044924
  0
LINE
  5
32D
100
AcDbEntity
  8
0
100
AcDbLine
 62
7
  6
CONTINUOUS
 10
166.6850257305
 20
99.7210447276
 11
166.679293564
 21
99.6902923764
  0
LINE
  5
32E
100
AcDbEntity
  8
0
100
AcDbLine
 62
7
  6
CONTINUOUS
 10
166.6913510607
 20
99.7535485744
 11
166.6850257305
 21
99.7210447276
  0
LINE
  5
32F
100
AcDbEntity
  8
0
100
AcDbLine
 62
253
  6
CONTINUOUS
 10
172.6577293694
 20
119.6496034924
 11
172.6873933694
 21
119.7450284924
  0
LINE
  5
330
100
AcDbEntity
  8
0
100
AcDbLine
 62
253
  6
CONTINUOUS
 10
171.7204263694
 20
120.0463564924
 11
171.6907623694
 21
119.9513694924
  0
LINE
  5
331
100
AcDbEntity
  8
0
100
AcDbLine
 62
253
  6
CONTINUOUS
 10
173.3683763694
 20
120.2589814924
 11
173.3466023694
 21
120.2065194924
  0
LINE
  5
332
100
AcDbEntity
  8
0
100
AcDbLine
 62
253
  6
CONTINUOUS
 10
175.3268613694
 20
123.2859954924
 11
175.3733323694
 21
123.3748444924
  0
LINE
  5
333
100
AcDbEntity
  8
0
100
AcDbLine
 62
253
  6
CONTINUOUS
 10
169.3332283449
 20
111.1727550265
 11
168.9617996407
 21
110.8013264772
  0
LINE
  5
334
100
AcDbEntity
  8
0
100
AcDbLine
 62
253
  6
CONTINUOUS
 10
167.5379901242
 20
108.5727550265
 11
167.9094186735
 21
108.9441836145
  0
LINE
  5
335
100
AcDbEntity
  8
0
100
AcDbLine
 62
253
  6
CONTINUOUS
 10
178.7117998076
 20
107.57276933
 11
178.1546565962
 21
107.5727413193
  0
LINE
  5
336
100
AcDbEntity
  8
0
100
AcDbLine
 62
253
  6
CONTINUOUS
 10
177.0403714132
 20
107.5727717388
 11
176.1117998076
 21
107.5727399694
  0
LINE
  5
337
100
AcDbEntity
  8
0
100
AcDbLine
 62
253
  6
CONTINUOUS
 10
170.9117994976
 20
107.5727489063
 11
170.168942399
 21
107.5727622055
  0
LINE
  5
338
100
AcDbEntity
  8
0
100
AcDbLine
 62
253
  6
CONTINUOUS
 10
173.3260849905
 20
107.5727569451
 11
171.8403707934
 21
107.572757342
  0
LINE
  5
339
100
AcDbEntity
  8
0
100
AcDbLine
 62
253
  6
CONTINUOUS
 10
166.6094186735
 20
108.5727702798
 11
167.5379901242
 21
108.5727408691
  0
LINE
  5
33A
100
AcDbEntity
  8
0
100
AcDbLine
 62
253
  6
CONTINUOUS
 10
175.4617993307
 20
108.572750248
 11
176.0189425421
 21
108.5727601992
  0
LINE
  5
33B
100
AcDbEntity
  8
0
100
AcDbLine
 62
253
  6
CONTINUOUS
 10
169.3332283449
 20
108.572760002
 11
169.8903709364
 21
108.5727504452
  0
LINE
  5
33C
100
AcDbEntity
  8
0
100
AcDbLine
 62
253
  6
CONTINUOUS
 10
166.702275784
 20
107.5727302729
 11
165.7737043333
 21
107.572781437
  0
LINE
  5
33D
100
AcDbEntity
  8
0
100
AcDbLine
 62
253
  6
CONTINUOUS
 10
168.9617996407
 20
108.9441836145
 11
169.3332283449
 21
108.5727550265
  0
LINE
  5
33E
100
AcDbEntity
  8
0
100
AcDbLine
 62
253
  6
CONTINUOUS
 10
171.0975140047
 20
107.3870406744
 11
170.9117994976
 21
107.5727550265
  0
LINE
  5
33F
100
AcDbEntity
  8
0
100
AcDbLine
 62
253
  6
CONTINUOUS
 10
167.9094186735
 20
110.8013264772
 11
167.5379901242
 21
111.1727550265
  0
LINE
  5
340
100
AcDbEntity
  8
0
100
AcDbLine
 62
253
  6
CONTINUOUS
 10
174.4403707934
 20
104.9727550265
 11
174.068942399
 21
105.3441836145
  0
LINE
  5
341
100
AcDbEntity
  8
0
100
AcDbLine
 62
253
  6
CONTINUOUS
 10
171.6802393694
 20
119.8518524924
 11
171.6893003694
 21
119.7518964924
  0
LINE
  5
342
100
AcDbEntity
  8
0
100
AcDbLine
 62
253
  6
CONTINUOUS
 10
171.0318453694
 20
120.0825974924
 11
171.0318453694
 21
120.2066654924
  0
LINE
  5
343
100
AcDbEntity
  8
0
100
AcDbLine
 62
253
  6
CONTINUOUS
 10
171.0975140047
 20
105.7156122026
 11
171.0975140047
 21
105.3441836145
  0
LINE
  5
344
100
AcDbEntity
  8
0
100
AcDbLine
 62
253
  6
CONTINUOUS
 10
172.5832282019
 20
107.5727550265
 11
172.5832282019
 21
104.9727550265
  0
LWPOLYLINE
  5
345
100
AcDbEntity
  8
0
100
AcDbPolyline
 62
253
  6
CONTINUOUS
 90
10
 70
0
 10
170.8635499658
 20
102.9727813611
 10
170.8469904216
 20
102.0781606246
 10
170.8346092423
 20
101.1851987083
 10
170.8263879183
 20
100.2938470326
 10
170.8223088744
 20
99.4044572929
 10
170.822349047
 20
98.5165916242
 10
170.8264983955
 20
97.6292263985
 10
170.8347598031
 20
96.742343962
 10
170.8471305649
 20
95.8567340441
 10
170.863608919
 20
94.9727862869
  0
LINE
  5
346
100
AcDbEntity
  8
0
100
AcDbLine
 62
253
  6
CONTINUOUS
 10
172.6873933694
 20
119.7450284924
 11
172.6985003694
 21
119.8436684924
  0
LINE
  5
347
100
AcDbEntity
  8
0
100
AcDbLine
 62
253
  6
CONTINUOUS
 10
175.1482853694
 20
120.0497174924
 11
175.1672833694
 21
120.1122624924
  0
LWPOLYLINE
  5
348
100
AcDbEntity
  8
0
100
AcDbPolyline
 62
7
  6
CONTINUOUS
 90
3
 70
0
 10
166.6166546612
 20
98.9646824248
 10
166.6182482609
 20
98.9691739749
 10
166.617901921
 20
98.972754636
  0
LWPOLYLINE
  5
349
100
AcDbEntity
  8
0
100
AcDbPolyline
 62
7
  6
CONTINUOUS
 90
5
 70
0
 10
166.6140241844
 20
98.9925439568
 10
166.6131733921
 20
98.9907801177
 10
166.612531379
 20
98.9888749343
 10
166.6139946977
 20
98.9853603326
 10
166.6159817089
 20
98.9818293701
  0
LINE
  5
34A
100
AcDbEntity
  8
0
100
AcDbLine
 62
253
  6
CONTINUOUS
 10
169.8903709364
 20
108.5727550265
 11
170.2617996407
 21
108.9441836145
  0
LINE
  5
34B
100
AcDbEntity
  8
0
100
AcDbLine
 62
253
  6
CONTINUOUS
 10
166.702275784
 20
104.9727550265
 11
167.0737043333
 21
105.3441836145
  0
LINE
  5
34C
100
AcDbEntity
  8
0
100
AcDbLine
 62
253
  6
CONTINUOUS
 10
178.8975133848
 20
107.5108501908
 11
178.7117998076
 21
107.5727550265
  0
LINE
  5
34D
100
AcDbEntity
  8
0
100
AcDbLine
 62
253
  6
CONTINUOUS
 10
170.2617996407
 20
110.8013264772
 11
169.8903709364
 21
111.1727550265
  0
LWPOLYLINE
  5
34E
100
AcDbEntity
  8
RACCORDO
100
AcDbPolyline
 62
253
  6
CONTINUOUS
 90
10
 70
0
 10
161.7355937232
 20
131.9515130102
 10
161.7369133987
 20
131.9483669529
 10
161.7382125429
 20
131.9417412334
 10
161.7394911557
 20
131.9316358518
 10
161.7407561875
 20
131.9179626213
 10
161.742000688
 20
131.9008097287
 10
161.7432038066
 20
131.8804417338
 10
161.7443643087
 20
131.8568095326
 10
161.7454834289
 20
131.8299622292
 10
161.7465440217
 20
131.8003116954
  0
LWPOLYLINE
  5
34F
100
AcDbEntity
  8
0
100
AcDbPolyline
 62
253
  6
CONTINUOUS
 90
10
 70
0
 10
161.7355937232
 20
131.9515130102
 10
161.7369133987
 20
131.9483669529
 10
161.7382125429
 20
131.9417412334
 10
161.7394911557
 20
131.9316358518
 10
161.7407561875
 20
131.9179626213
 10
161.742000688
 20
131.9008097287
 10
161.7432038066
 20
131.8804417338
 10
161.7443643087
 20
131.8568095326
 10
161.7454834289
 20
131.8299622292
 10
161.7465440217
 20
131.8003116954
  0
LINE
  5
350
100
AcDbEntity
  8
0
100
AcDbLine
 62
253
  6
CONTINUOUS
 10
169.3358163694
 20
120.9973944924
 11
169.3786333694
 21
120.7970454924
  0
LINE
  5
351
100
AcDbEntity
  8
0
100
AcDbLine
 62
253
  6
CONTINUOUS
 10
172.6985003694
 20
119.8436684924
 11
172.6892943694
 21
119.9426014924
  0
LWPOLYLINE
  5
352
100
AcDbEntity
  8
0
100
AcDbPolyline
 62
253
  6
CONTINUOUS
 90
10
 70
0
 10
174.3648097289
 20
102.972781361
 10
174.3813692205
 20
102.0781575259
 10
174.3937505039
 20
101.1851935839
 10
174.4019720972
 20
100.2938407551
 10
174.4060515839
 20
99.4044505389
 10
174.4060120365
 20
98.5165848813
 10
174.4018635051
 20
97.6292201519
 10
174.3936031161
 20
96.7423388779
 10
174.3812335835
 20
95.85673098
 10
174.3647566782
 20
94.9727862871
  0
LINE
  5
353
100
AcDbEntity
  8
0
100
AcDbLine
 62
253
  6
CONTINUOUS
 10
173.0475141478
 20
111.1727550265
 11
173.0475141478
 21
108.5727550265
  0
LINE
  5
354
100
AcDbEntity
  8
0
100
AcDbLine
 62
253
  6
CONTINUOUS
 10
173.3466023694
 20
120.2065194924
 11
173.3466023694
 21
120.0824514924
  0
LINE
  5
355
100
AcDbEntity
  8
0
100
AcDbLine
 62
253
  6
CONTINUOUS
 10
174.068942399
 20
105.3441836145
 11
174.068942399
 21
107.5727550265
  0
LINE
  5
356
100
AcDbEntity
  8
0
100
AcDbLine
 62
253
  6
CONTINUOUS
 10
174.3475141478
 20
111.1727550265
 11
174.3475141478
 21
108.5727550265
  0
LINE
  5
357
100
AcDbEntity
  8
0
100
AcDbLine
 62
253
  6
CONTINUOUS
 10
174.6141803694
 20
102.9727554871
 11
174.6141803694
 21
94.9727560341
  0
LINE
  5
358
100
AcDbEntity
  8
0
100
AcDbLine
 62
253
  6
CONTINUOUS
 10
170.168942399
 20
107.5727550265
 11
169.7975140047
 21
107.2013264772
  0
LINE
  5
359
100
AcDbEntity
  8
0
100
AcDbLine
 62
253
  6
CONTINUOUS
 10
175.4617993307
 20
111.1727550265
 11
175.0903709364
 21
110.8013264772
  0
LINE
  5
35A
100
AcDbEntity
  8
0
100
AcDbLine
 62
253
  6
CONTINUOUS
 10
169.8903709364
 20
111.1727567252
 11
169.3332283449
 21
111.1727531816
  0
LINE
  5
35B
100
AcDbEntity
  8
0
100
AcDbLine
 62
253
  6
CONTINUOUS
 10
176.0189425421
 20
111.1727531085
 11
175.4617993307
 21
111.1727567983
  0
LINE
  5
35C
100
AcDbEntity
  8
0
100
AcDbLine
 62
253
  6
CONTINUOUS
 10
178.6189425421
 20
111.1727462215
 11
177.133227725
 21
111.1727627913
  0
LINE
  5
35D
100
AcDbEntity
  8
0
100
AcDbLine
 62
253
  6
CONTINUOUS
 10
167.5379901242
 20
111.1727602759
 11
166.6094186735
 21
111.1727493707
  0
LINE
  5
35E
100
AcDbEntity
  8
0
100
AcDbLine
 62
253
  6
CONTINUOUS
 10
179.2689430189
 20
107.2013264772
 11
178.8975133848
 21
107.5108501908
  0
LINE
  5
35F
100
AcDbEntity
  8
0
100
AcDbLine
 62
253
  6
CONTINUOUS
 10
175.0903709364
 20
108.9441836145
 11
175.4617993307
 21
108.5727550265
  0
LINE
  5
360
100
AcDbEntity
  8
0
100
AcDbLine
 62
253
  6
CONTINUOUS
 10
177.4117998076
 20
107.2013264772
 11
177.0403714132
 21
107.5727550265
  0
LINE
  5
361
100
AcDbEntity
  8
0
100
AcDbLine
 62
253
  6
CONTINUOUS
 10
179.4546565962
 20
105.9013264772
 11
179.0832282019
 21
106.2727550265
  0
LINE
  5
362
100
AcDbEntity
  8
0
100
AcDbLine
 62
253
  6
CONTINUOUS
 10
177.4117998076
 20
104.9727550265
 11
176.6689430189
 21
106.0870407519
  0
LINE
  5
363
100
AcDbEntity
  8
0
100
AcDbLine
 62
253
  6
CONTINUOUS
 10
174.3475141478
 20
108.5727550265
 11
173.0475141478
 21
111.1727550265
  0
LWPOLYLINE
  5
364
100
AcDbEntity
  8
RACCORDO
100
AcDbPolyline
 62
253
  6
CONTINUOUS
 90
10
 70
0
 10
183.4927670156
 20
88.9939970428
 10
183.4914473401
 20
88.9971431001
 10
183.4901481959
 20
89.0037688196
 10
183.488869583
 20
89.0138742012
 10
183.4876045513
 20
89.0275474317
 10
183.4863600508
 20
89.0447003243
 10
183.4851569321
 20
89.0650683192
 10
183.4839964301
 20
89.0887005204
 10
183.4828773099
 20
89.1155478238
 10
183.4818167171
 20
89.1451983576
  0
LWPOLYLINE
  5
365
100
AcDbEntity
  8
0
100
AcDbPolyline
 62
253
  6
CONTINUOUS
 90
10
 70
0
 10
183.4927670156
 20
88.9939970428
 10
183.4914473401
 20
88.9971431001
 10
183.4901481959
 20
89.0037688196
 10
183.488869583
 20
89.0138742012
 10
183.4876045513
 20
89.0275474317
 10
183.4863600508
 20
89.0447003243
 10
183.4851569321
 20
89.0650683192
 10
183.4839964301
 20
89.0887005204
 10
183.4828773099
 20
89.1155478238
 10
183.4818167171
 20
89.1451983576
  0
LINE
  5
366
100
AcDbEntity
  8
0
100
AcDbLine
 62
253
  6
CONTINUOUS
 10
171.0318453694
 20
120.2066654924
 11
171.0100713694
 21
120.2591274924
  0
LWPOLYLINE
  5
367
100
AcDbEntity
  8
0
100
AcDbPolyline
 62
7
  6
CONTINUOUS
 90
3
 70
0
 10
178.6116410359
 20
98.9644829285
 10
178.6100383138
 20
98.9691106156
 10
178.6104590726
 20
98.972754636
  0
LINE
  5
368
100
AcDbEntity
  8
0
100
AcDbLine
 62
253
  6
CONTINUOUS
 10
170.0616633694
 20
120.1122634924
 11
170.0806603694
 21
120.0497174924
  0
LINE
  5
369
100
AcDbEntity
  8
0
100
AcDbLine
 62
253
  6
CONTINUOUS
 10
171.6893003694
 20
119.7518964924
 11
171.7180883694
 21
119.6560334924
  0
LINE
  5
36A
100
AcDbEntity
  8
0
100
AcDbLine
 62
253
  6
CONTINUOUS
 10
175.0903709364
 20
110.8013264772
 11
175.0903709364
 21
108.9441836145
  0
LINE
  5
36B
100
AcDbEntity
  8
0
100
AcDbLine
 62
253
  6
CONTINUOUS
 10
175.368942399
 20
107.5727550265
 11
175.368942399
 21
105.3441836145
  0
LINE
  5
36C
100
AcDbEntity
  8
0
100
AcDbLine
 62
253
  6
CONTINUOUS
 10
176.1117998076
 20
107.5727550265
 11
176.1117998076
 21
104.9727550265
  0
LINE
  5
36D
100
AcDbEntity
  8
0
100
AcDbLine
 62
253
  6
CONTINUOUS
 10
176.3903709364
 20
108.9441836145
 11
176.3903709364
 21
110.8013264772
  0
LINE
  5
36E
100
AcDbEntity
  8
0
100
AcDbLine
 62
253
  6
CONTINUOUS
 10
171.0975140047
 20
105.3441836145
 11
170.7260853005
 21
104.9727550265
  0
LINE
  5
36F
100
AcDbEntity
  8
0
100
AcDbLine
 62
253
  6
CONTINUOUS
 10
176.0189425421
 20
108.5727550265
 11
176.3903709364
 21
108.9441836145
  0
LINE
  5
370
100
AcDbEntity
  8
0
100
AcDbLine
 62
253
  6
CONTINUOUS
 10
176.3903709364
 20
110.8013264772
 11
176.0189425421
 21
111.1727550265
  0
LINE
  5
371
100
AcDbEntity
  8
0
100
AcDbLine
 62
253
  6
CONTINUOUS
 10
170.0806603694
 20
120.0497174924
 11
170.1603033694
 21
119.9594074924
  0
LINE
  5
372
100
AcDbEntity
  8
0
100
AcDbLine
 62
253
  6
CONTINUOUS
 10
171.7180883694
 20
119.6560334924
 11
171.7644133694
 21
119.5677684924
  0
LINE
  5
373
100
AcDbEntity
  8
0
100
AcDbLine
 62
253
  6
CONTINUOUS
 10
172.6607973694
 20
120.0383184924
 11
172.6150573694
 21
120.1268764924
  0
LINE
  5
374
100
AcDbEntity
  8
0
100
AcDbLine
 62
253
  6
CONTINUOUS
 10
173.3466023694
 20
120.0824514924
 11
173.3683763694
 21
120.0299894924
  0
LINE
  5
375
100
AcDbEntity
  8
0
100
AcDbLine
 62
253
  6
CONTINUOUS
 10
172.6892943694
 20
119.9426014924
 11
172.6607973694
 21
120.0383184924
  0
LINE
  5
376
100
AcDbEntity
  8
0
100
AcDbLine
 62
253
  6
CONTINUOUS
 10
174.4730013694
 20
121.5052094924
 11
174.6089063694
 21
120.9570624924
  0
LWPOLYLINE
  5
377
100
AcDbEntity
  8
0
100
AcDbPolyline
 62
7
  6
CONTINUOUS
 90
61
 70
0
 10
178.5291032436
 20
99.7923343532
 10
178.525352975
 20
99.8100818705
 10
178.5213513458
 20
99.8286004476
 10
178.5170872829
 20
99.8478874516
 10
178.5125352381
 20
99.8680009585
 10
178.5076822647
 20
99.8889381113
 10
178.5025148585
 20
99.9106952672
 10
178.4970039107
 20
99.9333285241
 10
178.4911337875
 20
99.9568341008
 10
178.484888216
 20
99.9812069986
 10
178.4782340533
 20
100.0065004392
 10
178.4711526575
 20
100.0327088361
 10
178.4636246085
 20
100.0598259928
 10
178.4556121437
 20
100.0879028571
 10
178.4470931127
 20
100.1169313174
 10
178.4380446982
 20
100.146903809
 10
178.4284242907
 20
100.1778704213
 10
178.4182057955
 20
100.209821096
 10
178.4073626687
 20
100.242745346
 10
178.3958474059
 20
100.2766906123
 10
178.3836295706
 20
100.3116439981
 10
178.3706785713
 20
100.3475918224
 10
178.3569421302
 20
100.3845780004
 10
178.3423853938
 20
100.4225861367
 10
178.3269731445
 20
100.461598719
 10
178.3106477075
 20
100.5016552429
 10
178.293371087
 20
100.5427353304
 10
178.2751036091
 20
100.5848171317
 10
178.2557804437
 20
100.6279345378
 10
178.2353600367
 20
100.6720635976
 10
178.2138020065
 20
100.7171760508
 10
178.1910384292
 20
100.7632950181
 10
178.1670214182
 20
100.8103942538
 10
178.1417098375
 20
100.8584348768
 10
178.1150419104
 20
100.9074165602
 10
178.0869691875
 20
100.9573057648
 10
178.0574463049
 20
101.0080567577
 10
178.0264134527
 20
101.0596462724
 10
177.9938207594
 20
101.1120337302
 10
177.959621291
 20
101.1651639726
 10
177.9237582062
 20
101.2189865824
 10
177.8861813444
 20
101.2734505395
 10
177.8468434932
 20
101.3284921426
 10
177.8056921993
 20
101.3840360398
 10
177.7627733416
 20
101.4398898677
 10
177.7179502614
 20
101.4961133665
 10
177.6708783539
 20
101.552987648
 10
177.6215688209
 20
101.610321626
 10
177.5698835976
 20
101.668114774
 10
177.5152003989
 20
101.7268777041
 10
177.4573829058
 20
101.7865010201
 10
177.396367284
 20
101.8467863192
 10
177.3315809897
 20
101.9080393281
 10
177.2627531844
 20
101.9702165844
 10
177.1899312911
 20
102.0329531334
 10
177.1130042097
 20
102.096031901
 10
177.0318207339
 20
102.1592768118
 10
176.9463514189
 20
102.2223825914
 10
176.8566906769
 20
102.2849298766
 10
176.7627856985
 20
102.3466515582
 10
176.6645922779
 20
102.4072800191
  0
LINE
  5
378
100
AcDbEntity
  8
0
100
AcDbLine
 62
7
  6
CONTINUOUS
 10
178.5359039246
 20
99.7590995194
 11
178.5291032436
 21
99.7923343532
  0
LINE
  5
379
100
AcDbEntity
  8
0
100
AcDbLine
 62
7
  6
CONTINUOUS
 10
178.5418667506
 20
99.7287270906
 11
178.5359039246
 21
99.7590995194
  0
LINE
  5
37A
100
AcDbEntity
  8
0
100
AcDbLine
 62
7
  6
CONTINUOUS
 10
178.5470927597
 20
99.7010442381
 11
178.5418667506
 21
99.7287270906
  0
LINE
  5
37B
100
AcDbEntity
  8
0
100
AcDbLine
 62
7
  6
CONTINUOUS
 10
178.5516610357
 20
99.6759374375
 11
178.5470927597
 21
99.7010442381
  0
LINE
  5
37C
100
AcDbEntity
  8
0
100
AcDbLine
 62
7
  6
CONTINUOUS
 10
178.5556529118
 20
99.6532290867
 11
178.5516610357
 21
99.6759374375
  0
LINE
  5
37D
100
AcDbEntity
  8
0
100
AcDbLine
 62
7
  6
CONTINUOUS
 10
178.5591408208
 20
99.6327400799
 11
178.5556529118
 21
99.6532290867
  0
LINE
  5
37E
100
AcDbEntity
  8
0
100
AcDbLine
 62
7
  6
CONTINUOUS
 10
178.5621794225
 20
99.6143519206
 11
178.5591408208
 21
99.6327400799
  0
LINE
  5
37F
100
AcDbEntity
  8
0
100
AcDbLine
 62
253
  6
CONTINUOUS
 10
174.6089063694
 20
120.9570624924
 11
174.7047693694
 21
120.3565984924
  0
LINE
  5
380
100
AcDbEntity
  8
0
100
AcDbLine
 62
7
  6
CONTINUOUS
 10
178.5660219807
 20
99.5903081512
 11
178.5621794225
 21
99.6143519206
  0
LINE
  5
381
100
AcDbEntity
  8
0
100
AcDbLine
 62
7
  6
CONTINUOUS
 10
178.5691465975
 20
99.5700385807
 11
178.5660219807
 21
99.5903081512
  0
LINE
  5
382
100
AcDbEntity
  8
0
100
AcDbLine
 62
7
  6
CONTINUOUS
 10
178.5724349698
 20
99.5479315518
 11
178.5691465975
 21
99.5700385807
  0
LINE
  5
383
100
AcDbEntity
  8
0
100
AcDbLine
 62
7
  6
CONTINUOUS
 10
178.5755176562
 20
99.5264030629
 11
178.5724349698
 21
99.5479315518
  0
LINE
  5
384
100
AcDbEntity
  8
0
100
AcDbLine
 62
7
  6
CONTINUOUS
 10
178.5783154132
 20
99.5061105288
 11
178.5755176562
 21
99.5264030629
  0
LINE
  5
385
100
AcDbEntity
  8
0
100
AcDbLine
 62
7
  6
CONTINUOUS
 10
178.579942181
 20
99.4939474762
 11
178.5783154132
 21
99.5061105288
  0
LINE
  5
386
100
AcDbEntity
  8
0
100
AcDbLine
 62
253
  6
CONTINUOUS
 10
175.1672833694
 20
120.1122624924
 11
175.0777033694
 21
120.7992374924
  0
LINE
  5
387
100
AcDbEntity
  8
0
100
AcDbLine
 62
7
  6
CONTINUOUS
 10
178.5928968191
 20
99.3844485005
 11
178.5903639139
 21
99.4080296932
  0
LINE
  5
388
100
AcDbEntity
  8
0
100
AcDbLine
 62
7
  6
CONTINUOUS
 10
178.5946947239
 20
99.3668550068
 11
178.5928968191
 21
99.3844485005
  0
LINE
  5
389
100
AcDbEntity
  8
0
100
AcDbLine
 62
7
  6
CONTINUOUS
 10
178.5965328909
 20
99.3480150221
 11
178.5946947239
 21
99.3668550068
  0
LINE
  5
38A
100
AcDbEntity
  8
0
100
AcDbLine
 62
7
  6
CONTINUOUS
 10
178.5983605738
 20
99.3282931863
 11
178.5965328909
 21
99.3480150221
  0
LINE
  5
38B
100
AcDbEntity
  8
0
100
AcDbLine
 62
7
  6
CONTINUOUS
 10
178.6001350918
 20
99.3080362206
 11
178.5983605738
 21
99.3282931863
  0
LINE
  5
38C
100
AcDbEntity
  8
0
100
AcDbLine
 62
7
  6
CONTINUOUS
 10
178.6018296224
 20
99.2874760569
 11
178.6001350918
 21
99.3080362206
  0
LINE
  5
38D
100
AcDbEntity
  8
0
100
AcDbLine
 62
7
  6
CONTINUOUS
 10
178.6034135107
 20
99.2669610069
 11
178.6018296224
 21
99.2874760569
  0
LINE
  5
38E
100
AcDbEntity
  8
0
100
AcDbLine
 62
7
  6
CONTINUOUS
 10
178.6048632621
 20
99.2468401257
 11
178.6034135107
 21
99.2669610069
  0
LWPOLYLINE
  5
38F
100
AcDbEntity
  8
0
100
AcDbPolyline
 62
7
  6
CONTINUOUS
 90
3
 70
0
 10
178.6104590726
 20
98.972754636
 10
178.6102257015
 20
98.9762370516
 10
178.611801669
 20
98.9805427784
  0
LINE
  5
390
100
AcDbEntity
  8
0
100
AcDbLine
 62
7
  6
CONTINUOUS
 10
178.6061698209
 20
99.2273463888
 11
178.6048632621
 21
99.2468401257
  0
LINE
  5
391
100
AcDbEntity
  8
0
100
AcDbLine
 62
7
  6
CONTINUOUS
 10
178.6073213374
 20
99.2088348908
 11
178.6061698209
 21
99.2273463888
  0
LINE
  5
392
100
AcDbEntity
  8
0
100
AcDbLine
 62
7
  6
CONTINUOUS
 10
178.6087501526
 20
99.1836168925
 11
178.6073213374
 21
99.2088348908
  0
LINE
  5
393
100
AcDbEntity
  8
0
100
AcDbLine
 62
7
  6
CONTINUOUS
 10
178.6098628028
 20
99.1616606786
 11
178.6087501526
 21
99.1836168925
  0
LINE
  5
394
100
AcDbEntity
  8
0
100
AcDbLine
 62
7
  6
CONTINUOUS
 10
178.6107385231
 20
99.1423924273
 11
178.6098628028
 21
99.1616606786
  0
LINE
  5
395
100
AcDbEntity
  8
0
100
AcDbLine
 62
7
  6
CONTINUOUS
 10
178.6116568366
 20
99.1194939854
 11
178.6107385231
 21
99.1423924273
  0
LINE
  5
396
100
AcDbEntity
  8
0
100
AcDbLine
 62
7
  6
CONTINUOUS
 10
178.6123831101
 20
99.0984635773
 11
178.6116568366
 21
99.1194939854
  0
LINE
  5
397
100
AcDbEntity
  8
0
100
AcDbLine
 62
7
  6
CONTINUOUS
 10
178.6129544998
 20
99.0790304954
 11
178.6123831101
 21
99.0984635773
  0
LINE
  5
398
100
AcDbEntity
  8
0
100
AcDbLine
 62
7
  6
CONTINUOUS
 10
178.6133943943
 20
99.0612093402
 11
178.6129544998
 21
99.0790304954
  0
LINE
  5
399
100
AcDbEntity
  8
0
100
AcDbLine
 62
7
  6
CONTINUOUS
 10
178.6137920807
 20
99.0412104156
 11
178.6133943943
 21
99.0612093402
  0
LINE
  5
39A
100
AcDbEntity
  8
0
100
AcDbLine
 62
7
  6
CONTINUOUS
 10
178.6140580685
 20
99.0236294146
 11
178.6137920807
 21
99.0412104156
  0
LINE
  5
39B
100
AcDbEntity
  8
0
100
AcDbLine
 62
7
  6
CONTINUOUS
 10
178.6142503711
 20
99.0054667993
 11
178.6140580685
 21
99.0236294146
  0
LINE
  5
39C
100
AcDbEntity
  8
0
100
AcDbLine
 62
7
  6
CONTINUOUS
 10
178.6143374455
 20
98.9923541796
 11
178.6142503711
 21
99.0054667993
  0
LINE
  5
39D
100
AcDbEntity
  8
0
100
AcDbLine
 62
253
  6
CONTINUOUS
 10
177.4117998076
 20
106.4584693786
 11
177.4117998076
 21
107.2013264772
  0
LINE
  5
39E
100
AcDbEntity
  8
0
100
AcDbLine
 62
253
  6
CONTINUOUS
 10
177.8760857535
 20
111.1727550265
 11
177.8760857535
 21
108.5727550265
  0
LINE
  5
39F
100
AcDbEntity
  8
0
100
AcDbLine
 62
253
  6
CONTINUOUS
 10
178.1546565962
 20
107.5727550265
 11
178.1546565962
 21
104.9727550265
  0
LINE
  5
3A0
100
AcDbEntity
  8
0
100
AcDbLine
 62
7
  6
CONTINUOUS
 10
178.6141937585
 20
98.9338113983
 11
178.6143339532
 21
98.9524565718
  0
LINE
  5
3A1
100
AcDbEntity
  8
0
100
AcDbLine
 62
7
  6
CONTINUOUS
 10
178.6139633448
 20
98.914999494
 11
178.6141937585
 21
98.9338113983
  0
LINE
  5
3A2
100
AcDbEntity
  8
0
100
AcDbLine
 62
7
  6
CONTINUOUS
 10
178.6136584046
 20
98.8969761143
 11
178.6139633448
 21
98.914999494
  0
LINE
  5
3A3
100
AcDbEntity
  8
0
100
AcDbLine
 62
7
  6
CONTINUOUS
 10
178.6132079941
 20
98.8763378137
 11
178.6136584046
 21
98.8969761143
  0
LINE
  5
3A4
100
AcDbEntity
  8
0
100
AcDbLine
 62
7
  6
CONTINUOUS
 10
178.6127100157
 20
98.857754247
 11
178.6132079941
 21
98.8763378137
  0
LINE
  5
3A5
100
AcDbEntity
  8
0
100
AcDbLine
 62
7
  6
CONTINUOUS
 10
178.6120591786
 20
98.8372562814
 11
178.6127100157
 21
98.857754247
  0
LINE
  5
3A6
100
AcDbEntity
  8
0
100
AcDbLine
 62
7
  6
CONTINUOUS
 10
178.6112222665
 20
98.8147590433
 11
178.6120591786
 21
98.8372562814
  0
LINE
  5
3A7
100
AcDbEntity
  8
0
100
AcDbLine
 62
7
  6
CONTINUOUS
 10
178.6104412251
 20
98.7963338604
 11
178.6112222665
 21
98.8147590433
  0
LINE
  5
3A8
100
AcDbEntity
  8
0
100
AcDbLine
 62
7
  6
CONTINUOUS
 10
178.6094887564
 20
98.7761887845
 11
178.6104412251
 21
98.7963338604
  0
LINE
  5
3A9
100
AcDbEntity
  8
0
100
AcDbLine
 62
253
  6
CONTINUOUS
 10
175.368942399
 20
105.3441836145
 11
174.9975140047
 21
104.9727550265
  0
LINE
  5
3AA
100
AcDbEntity
  8
0
100
AcDbLine
 62
253
  6
CONTINUOUS
 10
177.0403714132
 20
106.0870407519
 11
177.4117998076
 21
106.4584693786
  0
LWPOLYLINE
  5
3AB
100
AcDbEntity
  8
0
100
AcDbPolyline
 62
7
  6
CONTINUOUS
 90
65
 70
0
 10
168.5572584015
 20
102.4033767494
 10
168.4594087974
 20
102.3427314919
 10
168.3663697593
 20
102.2813378397
 10
168.278080401
 20
102.2195370992
 10
168.1936796157
 20
102.1570925823
 10
168.1130475595
 20
102.0941849992
 10
168.0361914223
 20
102.0310631142
 10
167.9624995668
 20
101.967466054
 10
167.8916090486
 20
101.9032587118
 10
167.8238055522
 20
101.8388563935
 10
167.759445695
 20
101.7748041593
 10
167.698547464
 20
101.7114084662
 10
167.6408882718
 20
101.6487159396
 10
167.5864213214
 20
101.5869133299
 10
167.5351358761
 20
101.5262582305
 10
167.4868245716
 20
101.4667923378
 10
167.4411588568
 20
101.4083538402
 10
167.3980218917
 20
101.3510094289
 10
167.3573514556
 20
101.294905641
 10
167.3189266641
 20
101.2399683181
 10
167.2826665051
 20
101.186281421
 10
167.2484932043
 20
101.1339210603
 10
167.2162095086
 20
101.0827794228
 10
167.1857473449
 20
101.0329230022
 10
167.1570380856
 20
100.9844043821
 10
167.1299018568
 20
100.9370777893
 10
167.1042816172
 20
100.8909916888
 10
167.0801199031
 20
100.846185596
 10
167.0572538086
 20
100.8024868261
 10
167.0356381421
 20
100.7599318152
 10
167.0152245385
 20
100.7185487175
 10
166.9958622073
 20
100.6781414991
 10
166.9775135806
 20
100.6387316317
 10
166.9601424714
 20
100.6003442171
 10
166.9436159427
 20
100.5627796903
 10
166.927891045
 20
100.5260223282
 10
166.9129547669
 20
100.490120691
 10
166.8987294458
 20
100.4549659054
 10
166.8851787892
 20
100.4205442142
 10
166.8722895536
 20
100.3868952725
 10
166.8600235721
 20
100.3539876292
 10
166.8483585036
 20
100.3218318556
 10
166.837272163
 20
100.2904386632
 10
166.8267295468
 20
100.2597752413
 10
166.8167123068
 20
100.2298545216
 10
166.8071993726
 20
100.2006807614
 10
166.798154698
 20
100.1722066676
 10
166.7895600475
 20
100.1444354194
 10
166.7813997098
 20
100.1173773854
 10
166.7736443011
 20
100.0909947695
 10
166.7662792397
 20
100.065294007
 10
166.7592894899
 20
100.0402793986
 10
166.7526474843
 20
100.0159088832
 10
166.746340289
 20
99.9921867359
 10
166.7403553775
 20
99.9691170356
 10
166.7346681443
 20
99.9466565153
 10
166.7292675753
 20
99.9248089204
 10
166.7241429235
 20
99.9035769654
 10
166.719272124
 20
99.8829151025
 10
166.7146458326
 20
99.8628261771
 10
166.7102549442
 20
99.8433123167
 10
166.7060797023
 20
99.8243263109
 10
166.7021122529
 20
99.8058703378
 10
166.6983449357
 20
99.7879460304
 10
166.6913510607
 20
99.7535485744
  0
LINE
  5
3AC
100
AcDbEntity
  8
0
100
AcDbLine
 62
7
  6
CONTINUOUS
 10
168.7685152654
 20
102.521594227
 11
168.6599847998
 21
102.4629618942
  0
LINE
  5
3AD
100
AcDbEntity
  8
0
100
AcDbLine
 62
253
  6
CONTINUOUS
 10
171.8263733694
 20
119.4903174924
 11
171.9030943694
 21
119.4267494924
  0
LINE
  5
3AE
100
AcDbEntity
  8
0
100
AcDbLine
 62
253
  6
CONTINUOUS
 10
169.3786333694
 20
120.7970454924
 11
169.4629533694
 21
120.7241244924
  0
LINE
  5
3AF
100
AcDbEntity
  8
0
100
AcDbLine
 62
253
  6
CONTINUOUS
 10
171.0100713694
 20
120.2591274924
 11
170.9343733694
 21
120.3348244924
  0
LINE
  5
3B0
100
AcDbEntity
  8
0
100
AcDbLine
 62
253
  6
CONTINUOUS
 10
172.6150573694
 20
120.1268764924
 11
172.5519273694
 21
120.2049114924
  0
LINE
  5
3B1
100
AcDbEntity
  8
0
100
AcDbLine
 62
253
  6
CONTINUOUS
 10
171.7644133694
 20
119.5677684924
 11
171.8263733694
 21
119.4903174924
  0
LINE
  5
3B2
100
AcDbEntity
  8
0
100
AcDbLine
 62
253
  6
CONTINUOUS
 10
174.6413473694
 20
122.3263354924
 11
174.5856703694
 21
122.4745144924
  0
LINE
  5
3B3
100
AcDbEntity
  8
0
100
AcDbLine
 62
253
  6
CONTINUOUS
 10
174.1971013694
 20
122.3006154924
 11
174.2301273694
 21
122.2123504924
  0
LINE
  5
3B4
100
AcDbEntity
  8
0
100
AcDbLine
 62
253
  6
CONTINUOUS
 10
174.2301273694
 20
122.2123504924
 11
174.2627153694
 21
122.1239404924
  0
LINE
  5
3B5
100
AcDbEntity
  8
0
100
AcDbLine
 62
253
  6
CONTINUOUS
 10
174.6941023694
 20
122.1772784924
 11
174.6413473694
 21
122.3263354924
  0
LINE
  5
3B6
100
AcDbEntity
  8
0
100
AcDbLine
 62
253
  6
CONTINUOUS
 10
174.2627153694
 20
122.1239404924
 11
174.4730013694
 21
121.5052094924
  0
LINE
  5
3B7
100
AcDbEntity
  8
0
100
AcDbLine
 62
253
  6
CONTINUOUS
 10
174.9375603694
 20
121.4233744924
 11
174.6941023694
 21
122.1772784924
  0
LINE
  5
3B8
100
AcDbEntity
  8
0
100
AcDbLine
 62
253
  6
CONTINUOUS
 10
175.0777033694
 20
120.7992374924
 11
174.9375603694
 21
121.4233744924
  0
LINE
  5
3B9
100
AcDbEntity
  8
0
100
AcDbLine
 62
253
  6
CONTINUOUS
 10
175.3733323694
 20
123.3748444924
 11
175.3303683694
 21
123.5751934924
  0
LINE
  5
3BA
100
AcDbEntity
  8
0
100
AcDbLine
 62
7
  6
CONTINUOUS
 10
178.5824673991
 20
99.4744823408
 11
178.579942181
 21
99.4939474762
  0
LINE
  5
3BB
100
AcDbEntity
  8
0
100
AcDbLine
 62
7
  6
CONTINUOUS
 10
178.5849781032
 20
99.4543491213
 11
178.5824673991
 21
99.4744823408
  0
LINE
  5
3BC
100
AcDbEntity
  8
0
100
AcDbLine
 62
7
  6
CONTINUOUS
 10
178.5874300671
 20
99.4338389749
 11
178.5849781032
 21
99.4543491213
  0
LWPOLYLINE
  5
3BD
100
AcDbEntity
  8
0
100
AcDbPolyline
 62
7
  6
CONTINUOUS
 90
3
 70
0
 10
178.5903639139
 20
99.4080296932
 10
178.5895833968
 20
99.4150431397
 10
178.5874300671
 20
99.4338389749
  0
LINE
  5
3BE
100
AcDbEntity
  8
0
100
AcDbLine
 62
253
  6
CONTINUOUS
 10
179.2689430189
 20
106.6441835758
 11
179.2689430189
 21
107.2013264772
  0
LINE
  5
3BF
100
AcDbEntity
  8
0
100
AcDbLine
 62
253
  6
CONTINUOUS
 10
179.4546565962
 20
105.3441836145
 11
179.4546565962
 21
105.9013264772
  0
LINE
  5
3C0
100
AcDbEntity
  8
0
100
AcDbLine
 62
7
  6
CONTINUOUS
 10
178.6083162933
 20
98.7539233224
 11
178.6094887564
 21
98.7761887845
  0
LINE
  5
3C1
100
AcDbEntity
  8
0
100
AcDbLine
 62
7
  6
CONTINUOUS
 10
178.6068804981
 20
98.7294176661
 11
178.6083162933
 21
98.7539233224
  0
LINE
  5
3C2
100
AcDbEntity
  8
0
100
AcDbLine
 62
7
  6
CONTINUOUS
 10
178.6057660544
 20
98.7119803736
 11
178.6068804981
 21
98.7294176661
  0
LINE
  5
3C3
100
AcDbEntity
  8
0
100
AcDbLine
 62
7
  6
CONTINUOUS
 10
178.6045207801
 20
98.6937829159
 11
178.6057660544
 21
98.7119803736
  0
LINE
  5
3C4
100
AcDbEntity
  8
0
100
AcDbLine
 62
7
  6
CONTINUOUS
 10
178.6031443652
 20
98.6749609156
 11
178.6045207801
 21
98.6937829159
  0
LINE
  5
3C5
100
AcDbEntity
  8
0
100
AcDbLine
 62
7
  6
CONTINUOUS
 10
178.6016386636
 20
98.6556491433
 11
178.6031443652
 21
98.6749609156
  0
LINE
  5
3C6
100
AcDbEntity
  8
0
100
AcDbLine
 62
7
  6
CONTINUOUS
 10
178.6000041933
 20
98.6359376255
 11
178.6016386636
 21
98.6556491433
  0
LINE
  5
3C7
100
AcDbEntity
  8
0
100
AcDbLine
 62
7
  6
CONTINUOUS
 10
178.598247093
 20
98.615960959
 11
178.6000041933
 21
98.6359376255
  0
LINE
  5
3C8
100
AcDbEntity
  8
0
100
AcDbLine
 62
7
  6
CONTINUOUS
 10
178.5963762909
 20
98.59585493
 11
178.598247093
 21
98.615960959
  0
LINE
  5
3C9
100
AcDbEntity
  8
0
100
AcDbLine
 62
7
  6
CONTINUOUS
 10
178.5943986997
 20
98.5757074252
 11
178.5963762909
 21
98.59585493
  0
LINE
  5
3CA
100
AcDbEntity
  8
0
100
AcDbLine
 62
7
  6
CONTINUOUS
 10
178.592330865
 20
98.5556804909
 11
178.5943986997
 21
98.5757074252
  0
LINE
  5
3CB
100
AcDbEntity
  8
0
100
AcDbLine
 62
7
  6
CONTINUOUS
 10
178.590169231
 20
98.5357252234
 11
178.592330865
 21
98.5556804909
  0
LINE
  5
3CC
100
AcDbEntity
  8
0
100
AcDbLine
 62
7
  6
CONTINUOUS
 10
178.5879081653
 20
98.515783326
 11
178.590169231
 21
98.5357252234
  0
LINE
  5
3CD
100
AcDbEntity
  8
0
100
AcDbLine
 62
7
  6
CONTINUOUS
 10
178.5855285853
 20
98.4956956172
 11
178.5879081653
 21
98.515783326
  0
LINE
  5
3CE
100
AcDbEntity
  8
0
100
AcDbLine
 62
7
  6
CONTINUOUS
 10
178.5830085492
 20
98.4753059464
 11
178.5855285853
 21
98.4956956172
  0
LINE
  5
3CF
100
AcDbEntity
  8
0
100
AcDbLine
 62
7
  6
CONTINUOUS
 10
178.5803298457
 20
98.4545117969
 11
178.5830085492
 21
98.4753059464
  0
LINE
  5
3D0
100
AcDbEntity
  8
0
100
AcDbLine
 62
7
  6
CONTINUOUS
 10
178.5774649164
 20
98.4331592094
 11
178.5803298457
 21
98.4545117969
  0
LINE
  5
3D1
100
AcDbEntity
  8
0
100
AcDbLine
 62
7
  6
CONTINUOUS
 10
178.5743827075
 20
98.4110946134
 11
178.5774649164
 21
98.4331592094
  0
LINE
  5
3D2
100
AcDbEntity
  8
0
100
AcDbLine
 62
7
  6
CONTINUOUS
 10
178.5710560637
 20
98.388216821
 11
178.5743827075
 21
98.4110946134
  0
LINE
  5
3D3
100
AcDbEntity
  8
0
100
AcDbLine
 62
7
  6
CONTINUOUS
 10
178.5674477885
 20
98.3643781986
 11
178.5710560637
 21
98.388216821
  0
LINE
  5
3D4
100
AcDbEntity
  8
0
100
AcDbLine
 62
7
  6
CONTINUOUS
 10
178.5635111102
 20
98.3393982791
 11
178.5674477885
 21
98.3643781986
  0
LINE
  5
3D5
100
AcDbEntity
  8
0
100
AcDbLine
 62
7
  6
CONTINUOUS
 10
178.5592079082
 20
98.3131822368
 11
178.5635111102
 21
98.3393982791
  0
LINE
  5
3D6
100
AcDbEntity
  8
0
100
AcDbLine
 62
7
  6
CONTINUOUS
 10
178.5544950126
 20
98.2856279533
 11
178.5592079082
 21
98.3131822368
  0
LINE
  5
3D7
100
AcDbEntity
  8
0
100
AcDbLine
 62
7
  6
CONTINUOUS
 10
178.5493119614
 20
98.2565626384
 11
178.5544950126
 21
98.2856279533
  0
LINE
  5
3D8
100
AcDbEntity
  8
0
100
AcDbLine
 62
7
  6
CONTINUOUS
 10
178.5436048981
 20
98.2258859563
 11
178.5493119614
 21
98.2565626384
  0
LINE
  5
3D9
100
AcDbEntity
  8
0
100
AcDbLine
 62
7
  6
CONTINUOUS
 10
178.537305632
 20
98.1934527958
 11
178.5436048981
 21
98.2258859563
  0
LINE
  5
3DA
100
AcDbEntity
  8
0
100
AcDbLine
 62
253
  6
CONTINUOUS
 10
178.8975133848
 20
106.2727550265
 11
179.2689430189
 21
106.6441835758
  0
LINE
  5
3DB
100
AcDbEntity
  8
RACCORDO
100
AcDbLine
 62
253
  6
CONTINUOUS
 10
161.7355937222
 20
88.9939970417
 11
161.6141803694
 21
88.872583689
  0
LINE
  5
3DC
100
AcDbEntity
  8
0
100
AcDbLine
 62
253
  6
CONTINUOUS
 10
161.7355937222
 20
88.9939970417
 11
161.6141803694
 21
88.872583689
  0
LINE
  5
3DD
100
AcDbEntity
  8
RACCORDO
100
AcDbLine
 62
253
  6
CONTINUOUS
 10
162.2354223846
 20
88.4941683793
 11
162.1140090319
 21
88.3727550265
  0
LINE
  5
3DE
100
AcDbEntity
  8
0
100
AcDbLine
 62
253
  6
CONTINUOUS
 10
162.2354223846
 20
88.4941683793
 11
162.1140090319
 21
88.3727550265
  0
LINE
  5
3DF
100
AcDbEntity
  8
0
100
AcDbLine
 62
253
  6
CONTINUOUS
 10
179.0832282019
 20
104.9727550265
 11
179.4546565962
 21
105.3441836145
  0
LINE
  5
3E0
100
AcDbEntity
  8
0
100
AcDbLine
 62
253
  6
CONTINUOUS
 10
171.9909203694
 20
119.3792554924
 11
172.0861993694
 21
119.3492984924
  0
LINE
  5
3E1
100
AcDbEntity
  8
0
100
AcDbLine
 62
253
  6
CONTINUOUS
 10
170.9343733694
 20
120.3348244924
 11
170.8819113694
 21
120.3565984924
  0
LINE
  5
3E2
100
AcDbEntity
  8
0
100
AcDbLine
 62
253
  6
CONTINUOUS
 10
170.1603033694
 20
119.9594074924
 11
170.2197793694
 21
119.9323724924
  0
LINE
  5
3E3
100
AcDbEntity
  8
0
100
AcDbLine
 62
253
  6
CONTINUOUS
 10
171.9030943694
 20
119.4267494924
 11
171.9909203694
 21
119.3792554924
  0
LINE
  5
3E4
100
AcDbEntity
  8
0
100
AcDbLine
 62
253
  6
CONTINUOUS
 10
172.4752073694
 20
120.2689174924
 11
172.3876733694
 21
120.3165574924
  0
LINE
  5
3E5
100
AcDbEntity
  8
0
100
AcDbLine
 62
253
  6
CONTINUOUS
 10
172.5519273694
 20
120.2049114924
 11
172.4752073694
 21
120.2689174924
  0
LINE
  5
3E6
100
AcDbEntity
  8
RACCORDO
100
AcDbLine
 62
253
  6
CONTINUOUS
 10
161.6141803694
 20
132.072926364
 11
161.7355937232
 21
131.9515130102
  0
LINE
  5
3E7
100
AcDbEntity
  8
0
100
AcDbLine
 62
253
  6
CONTINUOUS
 10
161.6141803694
 20
132.072926364
 11
161.7355937232
 21
131.9515130102
  0
LINE
  5
3E8
100
AcDbEntity
  8
RACCORDO
100
AcDbLine
 62
253
  6
CONTINUOUS
 10
162.1140090319
 20
132.5727550265
 11
162.2354223848
 21
132.4513416736
  0
LINE
  5
3E9
100
AcDbEntity
  8
0
100
AcDbLine
 62
253
  6
CONTINUOUS
 10
162.1140090319
 20
132.5727550265
 11
162.2354223848
 21
132.4513416736
  0
LINE
  5
3EA
100
AcDbEntity
  8
0
100
AcDbLine
 62
253
  6
CONTINUOUS
 10
173.3683763694
 20
120.0299894924
 11
173.4440743694
 21
119.9541464924
  0
LINE
  5
3EB
100
AcDbEntity
  8
0
100
AcDbLine
 62
253
  6
CONTINUOUS
 10
173.5129033694
 20
123.7458774924
 11
173.5735483694
 21
123.6625814924
  0
LINE
  5
3EC
100
AcDbEntity
  8
0
100
AcDbLine
 62
253
  6
CONTINUOUS
 10
173.5735483694
 20
123.6625814924
 11
173.6217723694
 21
123.5734394924
  0
LINE
  5
3ED
100
AcDbEntity
  8
0
100
AcDbLine
 62
253
  6
CONTINUOUS
 10
174.0112193694
 20
123.7448544924
 11
173.9277763694
 21
123.8991724924
  0
LINE
  5
3EE
100
AcDbEntity
  8
0
100
AcDbLine
 62
253
  6
CONTINUOUS
 10
173.6217723694
 20
123.5734394924
 11
173.6675123694
 21
123.4848824924
  0
LINE
  5
3EF
100
AcDbEntity
  8
0
100
AcDbLine
 62
253
  6
CONTINUOUS
 10
174.0546203694
 20
123.6581974924
 11
174.0112193694
 21
123.7448544924
  0
LINE
  5
3F0
100
AcDbEntity
  8
RACCORDO
100
AcDbLine
 62
253
  6
CONTINUOUS
 10
183.4818167171
 20
89.1451983576
 11
183.4798729189
 21
89.2129992993
  0
LINE
  5
3F1
100
AcDbEntity
  8
0
100
AcDbLine
 62
253
  6
CONTINUOUS
 10
183.4818167171
 20
89.1451983576
 11
183.4798729189
 21
89.2129992993
  0
LINE
  5
3F2
100
AcDbEntity
  8
RACCORDO
100
AcDbLine
 62
253
  6
CONTINUOUS
 10
183.4798729189
 20
89.2129992993
 11
183.4782077495
 21
89.2904041776
  0
LINE
  5
3F3
100
AcDbEntity
  8
0
100
AcDbLine
 62
253
  6
CONTINUOUS
 10
183.4798729189
 20
89.2129992993
 11
183.4782077495
 21
89.2904041776
  0
LINE
  5
3F4
100
AcDbEntity
  8
RACCORDO
100
AcDbLine
 62
253
  6
CONTINUOUS
 10
183.4782077495
 20
89.2904041776
 11
183.4768464741
 21
89.3762213466
  0
LINE
  5
3F5
100
AcDbEntity
  8
0
100
AcDbLine
 62
253
  6
CONTINUOUS
 10
183.4782077495
 20
89.2904041776
 11
183.4768464741
 21
89.3762213466
  0
LINE
  5
3F6
100
AcDbEntity
  8
RACCORDO
100
AcDbLine
 62
253
  6
CONTINUOUS
 10
183.0048186593
 20
132.0117984404
 11
183.0023472059
 21
132.1920861363
  0
LINE
  5
3F7
100
AcDbEntity
  8
0
100
AcDbLine
 62
253
  6
CONTINUOUS
 10
183.0048186593
 20
132.0117984404
 11
183.0023472059
 21
132.1920861363
  0
LWPOLYLINE
  5
3F8
100
AcDbEntity
  8
RACCORDO
100
AcDbPolyline
 62
253
  6
CONTINUOUS
 90
3
 70
0
 10
183.4768464741
 20
89.3762213466
 10
183.4754438325
 20
89.5163894832
 10
183.4751580727
 20
89.5647654898
  0
LWPOLYLINE
  5
3F9
100
AcDbEntity
  8
0
100
AcDbPolyline
 62
253
  6
CONTINUOUS
 90
3
 70
0
 10
183.4768464741
 20
89.3762213466
 10
183.4754438325
 20
89.5163894832
 10
183.4751580727
 20
89.5647654898
  0
LINE
  5
3FA
100
AcDbEntity
  8
RACCORDO
100
AcDbLine
 62
253
  6
CONTINUOUS
 10
183.0072858372
 20
131.7190094509
 11
183.0048186593
 21
132.0117984404
  0
LINE
  5
3FB
100
AcDbEntity
  8
0
100
AcDbLine
 62
253
  6
CONTINUOUS
 10
183.0072858372
 20
131.7190094509
 11
183.0048186593
 21
132.0117984404
  0
LINE
  5
3FC
100
AcDbEntity
  8
RACCORDO
100
AcDbLine
 62
253
  6
CONTINUOUS
 10
183.008773451
 20
131.3028523837
 11
183.0072858372
 21
131.7190094509
  0
LINE
  5
3FD
100
AcDbEntity
  8
0
100
AcDbLine
 62
253
  6
CONTINUOUS
 10
183.008773451
 20
131.3028523837
 11
183.0072858372
 21
131.7190094509
  0
LINE
  5
3FE
100
AcDbEntity
  8
RACCORDO
100
AcDbLine
 62
253
  6
CONTINUOUS
 10
183.008101092
 20
89.388697196
 11
183.0087734487
 21
131.3028523844
  0
LINE
  5
3FF
100
AcDbEntity
  8
0
100
AcDbLine
 62
253
  6
CONTINUOUS
 10
183.008101092
 20
89.388697196
 11
183.0087734487
 21
131.3028523844
  0
LINE
  5
400
100
AcDbEntity
  8
RACCORDO
100
AcDbLine
 62
253
  6
CONTINUOUS
 10
183.0055368107
 20
89.0019941798
 11
183.008101092
 21
89.388697196
  0
LINE
  5
401
100
AcDbEntity
  8
0
100
AcDbLine
 62
253
  6
CONTINUOUS
 10
183.0055368107
 20
89.0019941798
 11
183.008101092
 21
89.388697196
  0
LINE
  5
402
100
AcDbEntity
  8
RACCORDO
100
AcDbLine
 62
253
  6
CONTINUOUS
 10
183.4751580737
 20
131.380744565
 11
183.4762927684
 21
131.5239159347
  0
LINE
  5
403
100
AcDbEntity
  8
0
100
AcDbLine
 62
253
  6
CONTINUOUS
 10
183.4751580737
 20
131.380744565
 11
183.4762927684
 21
131.5239159347
  0
LINE
  5
404
100
AcDbEntity
  8
RACCORDO
100
AcDbLine
 62
253
  6
CONTINUOUS
 10
183.4762927684
 20
131.5239159347
 11
183.4774852166
 21
131.6130030851
  0
LINE
  5
405
100
AcDbEntity
  8
0
100
AcDbLine
 62
253
  6
CONTINUOUS
 10
183.4762927684
 20
131.5239159347
 11
183.4774852166
 21
131.6130030851
  0
LWPOLYLINE
  5
406
100
AcDbEntity
  8
RACCORDO
100
AcDbPolyline
 62
253
  6
CONTINUOUS
 90
3
 70
0
 10
183.002347202
 20
88.7534239184
 10
183.0032308664
 20
88.8091068806
 10
183.0055368107
 20
89.0019941798
  0
LWPOLYLINE
  5
407
100
AcDbEntity
  8
0
100
AcDbPolyline
 62
253
  6
CONTINUOUS
 90
3
 70
0
 10
183.002347202
 20
88.7534239184
 10
183.0032308664
 20
88.8091068806
 10
183.0055368107
 20
89.0019941798
  0
LINE
  5
408
100
AcDbEntity
  8
RACCORDO
100
AcDbLine
 62
253
  6
CONTINUOUS
 10
183.4774852166
 20
131.6130030851
 11
183.4790032505
 21
131.6949525848
  0
LINE
  5
409
100
AcDbEntity
  8
0
100
AcDbLine
 62
253
  6
CONTINUOUS
 10
183.4774852166
 20
131.6130030851
 11
183.4790032505
 21
131.6949525848
  0
LWPOLYLINE
  5
40A
100
AcDbEntity
  8
RACCORDO
100
AcDbPolyline
 62
253
  6
CONTINUOUS
 90
12
 70
0
 10
183.4790032505
 20
131.6949525848
 10
183.4808155554
 20
131.7678128416
 10
183.4818167182
 20
131.8003116971
 10
183.482877311
 20
131.8299622308
 10
183.4839964312
 20
131.8568095341
 10
183.4851569332
 20
131.8804417351
 10
183.4863600519
 20
131.90080973
 10
183.4876045524
 20
131.9179626227
 10
183.4888695841
 20
131.9316358531
 10
183.490148197
 20
131.9417412347
 10
183.4914473412
 20
131.9483669541
 10
183.4927670166
 20
131.9515130112
  0
LWPOLYLINE
  5
40B
100
AcDbEntity
  8
0
100
AcDbPolyline
 62
253
  6
CONTINUOUS
 90
12
 70
0
 10
183.4790032505
 20
131.6949525848
 10
183.4808155554
 20
131.7678128416
 10
183.4818167182
 20
131.8003116971
 10
183.482877311
 20
131.8299622308
 10
183.4839964312
 20
131.8568095341
 10
183.4851569332
 20
131.8804417351
 10
183.4863600519
 20
131.90080973
 10
183.4876045524
 20
131.9179626227
 10
183.4888695841
 20
131.9316358531
 10
183.490148197
 20
131.9417412347
 10
183.4914473412
 20
131.9483669541
 10
183.4927670166
 20
131.9515130112
  0
LWPOLYLINE
  5
40C
100
AcDbEntity
  8
0
100
AcDbPolyline
 62
7
  6
CONTINUOUS
 90
5
 70
0
 10
178.6143339532
 20
98.9524565718
 10
178.6152115856
 20
98.9541810328
 10
178.6158837865
 20
98.9560435789
 10
178.6143643385
 20
98.9596310782
 10
178.6123798514
 20
98.9631666508
  0
LINE
  5
40D
100
AcDbEntity
  8
0
100
AcDbLine
 62
253
  6
CONTINUOUS
 10
169.5877513694
 20
120.7241244924
 11
169.6188773694
 21
120.7312854924
  0
LINE
  5
40E
100
AcDbEntity
  8
0
100
AcDbLine
 62
253
  6
CONTINUOUS
 10
172.1933153694
 20
120.3567444924
 11
172.0940913694
 21
120.3473914924
  0
LINE
  5
40F
100
AcDbEntity
  8
0
100
AcDbLine
 62
253
  6
CONTINUOUS
 10
173.4965363694
 20
119.9323955548
 11
175.0094583694
 21
119.9323375236
  0
LINE
  5
410
100
AcDbEntity
  8
0
100
AcDbLine
 62
253
  6
CONTINUOUS
 10
170.2197793694
 20
119.9323553634
 11
170.8819113694
 21
119.9323873407
  0
LINE
  5
411
100
AcDbEntity
  8
0
100
AcDbLine
 62
253
  6
CONTINUOUS
 10
174.7047693694
 20
120.3565730957
 11
173.4963893694
 21
120.3566161163
  0
LINE
  5
412
100
AcDbEntity
  8
0
100
AcDbLine
 62
253
  6
CONTINUOUS
 10
170.8819113694
 20
120.3566063431
 11
170.5240303694
 21
120.3565899599
  0
LINE
  5
413
100
AcDbEntity
  8
0
100
AcDbLine
 62
253
  6
CONTINUOUS
 10
169.4629533694
 20
120.7241197518
 11
169.5877513694
 21
120.7241291486
  0
LINE
  5
414
100
AcDbEntity
  8
0
100
AcDbLine
 62
253
  6
CONTINUOUS
 10
172.0861993694
 20
119.3492984924
 11
172.2853793694
 21
119.3478374924
  0
LINE
  5
415
100
AcDbEntity
  8
0
100
AcDbLine
 62
253
  6
CONTINUOUS
 10
172.2923943694
 20
120.3462224924
 11
172.1933153694
 21
120.3567444924
  0
LINE
  5
416
100
AcDbEntity
  8
0
100
AcDbLine
 62
253
  6
CONTINUOUS
 10
172.3876733694
 20
120.3165574924
 11
172.2923943694
 21
120.3462224924
  0
LINE
  5
417
100
AcDbEntity
  8
0
100
AcDbLine
 62
253
  6
CONTINUOUS
 10
173.4440743694
 20
119.9541464924
 11
173.4965363694
 21
119.9323724924
  0
LINE
  5
418
100
AcDbEntity
  8
0
100
AcDbLine
 62
253
  6
CONTINUOUS
 10
173.8440423694
 20
124.0138874924
 11
173.6483693694
 21
124.2174514924
  0
LINE
  5
419
100
AcDbEntity
  8
0
100
AcDbLine
 62
253
  6
CONTINUOUS
 10
173.3702763694
 20
123.8950804924
 11
173.5129033694
 21
123.7458774924
  0
LINE
  5
41A
100
AcDbEntity
  8
0
100
AcDbLine
 62
253
  6
CONTINUOUS
 10
173.9277763694
 20
123.8991724924
 11
173.8440423694
 21
124.0138874924
  0
LWPOLYLINE
  5
41B
100
AcDbEntity
  8
RACCORDO
100
AcDbPolyline
 62
253
  6
CONTINUOUS
 90
7
 70
0
 10
182.9994582847
 20
132.3292972191
 10
182.9984160801
 20
132.3642961061
 10
182.9973674241
 20
132.3936031301
 10
182.9962731386
 20
132.4170691485
 10
182.9951395073
 20
132.4345713936
 10
182.994018061
 20
132.4460161774
 10
182.9929383541
 20
132.4513416737
  0
LWPOLYLINE
  5
41C
100
AcDbEntity
  8
0
100
AcDbPolyline
 62
253
  6
CONTINUOUS
 90
7
 70
0
 10
182.9994582847
 20
132.3292972191
 10
182.9984160801
 20
132.3642961061
 10
182.9973674241
 20
132.3936031301
 10
182.9962731386
 20
132.4170691485
 10
182.9951395073
 20
132.4345713936
 10
182.994018061
 20
132.4460161774
 10
182.9929383541
 20
132.4513416737
  0
LWPOLYLINE
  5
41D
100
AcDbEntity
  8
RACCORDO
100
AcDbPolyline
 62
253
  6
CONTINUOUS
 90
3
 70
0
 10
183.0023472059
 20
132.1920861363
 10
183.0014197996
 20
132.2429677037
 10
182.9994582847
 20
132.3292972191
  0
LWPOLYLINE
  5
41E
100
AcDbEntity
  8
0
100
AcDbPolyline
 62
253
  6
CONTINUOUS
 90
3
 70
0
 10
183.0023472059
 20
132.1920861363
 10
183.0014197996
 20
132.2429677037
 10
182.9994582847
 20
132.3292972191
  0
LINE
  5
41F
100
AcDbEntity
  8
RACCORDO
100
AcDbLine
 62
253
  6
CONTINUOUS
 10
183.4751580727
 20
89.5647654898
 11
183.4667818968
 21
98.9094810712
  0
LINE
  5
420
100
AcDbEntity
  8
0
100
AcDbLine
 62
253
  6
CONTINUOUS
 10
183.4751580727
 20
89.5647654898
 11
183.4667818968
 21
98.9094810712
  0
LINE
  5
421
100
AcDbEntity
  8
RACCORDO
100
AcDbLine
 62
253
  6
CONTINUOUS
 10
183.4667818968
 20
98.9094810712
 11
183.4633201805
 21
108.1594021251
  0
LINE
  5
422
100
AcDbEntity
  8
0
100
AcDbLine
 62
253
  6
CONTINUOUS
 10
183.4667818968
 20
98.9094810712
 11
183.4633201805
 21
108.1594021251
  0
LINE
  5
423
100
AcDbEntity
  8
RACCORDO
100
AcDbLine
 62
7
  6
CONTINUOUS
 10
183.6141803694
 20
88.872583689
 11
183.6141803694
 21
132.072926364
  0
LINE
  5
424
100
AcDbEntity
  8
0
100
AcDbLine
 62
7
  6
CONTINUOUS
 10
183.6141803694
 20
88.872583689
 11
183.6141803694
 21
132.072926364
  0
LINE
  5
425
100
AcDbEntity
  8
RACCORDO
100
AcDbLine
 62
253
  6
CONTINUOUS
 10
183.4633201805
 20
108.1594021251
 11
183.4644740854
 21
117.4118590241
  0
LINE
  5
426
100
AcDbEntity
  8
0
100
AcDbLine
 62
253
  6
CONTINUOUS
 10
183.4633201805
 20
108.1594021251
 11
183.4644740854
 21
117.4118590241
  0
LINE
  5
427
100
AcDbEntity
  8
RACCORDO
100
AcDbLine
 62
253
  6
CONTINUOUS
 10
183.4644740854
 20
117.4118590241
 11
183.4702436127
 21
126.6592454389
  0
LINE
  5
428
100
AcDbEntity
  8
0
100
AcDbLine
 62
253
  6
CONTINUOUS
 10
183.4644740854
 20
117.4118590241
 11
183.4702436127
 21
126.6592454389
  0
LINE
  5
429
100
AcDbEntity
  8
RACCORDO
100
AcDbLine
 62
253
  6
CONTINUOUS
 10
183.4702436127
 20
126.6592454389
 11
183.4751580737
 21
131.380744565
  0
LINE
  5
42A
100
AcDbEntity
  8
0
100
AcDbLine
 62
253
  6
CONTINUOUS
 10
183.4702436127
 20
126.6592454389
 11
183.4751580737
 21
131.380744565
  0
LWPOLYLINE
  5
42B
100
AcDbEntity
  8
0
100
AcDbPolyline
 62
7
  6
CONTINUOUS
 90
5
 70
0
 10
178.611801669
 20
98.9805427784
 10
178.6143668387
 20
98.9850950604
 10
178.6158052827
 20
98.9885898768
 10
178.6151780628
 20
98.9905455968
 10
178.6143374455
 20
98.9923541796
  0
LINE
  5
42C
100
AcDbEntity
  8
0
100
AcDbLine
 62
253
  6
CONTINUOUS
 10
175.1202283694
 20
123.6482604924
 11
175.0889553694
 21
123.6411004924
  0
LINE
  5
42D
100
AcDbEntity
  8
0
100
AcDbLine
 62
253
  6
CONTINUOUS
 10
173.5374533694
 20
124.3054234924
 11
173.1740183694
 21
124.5215554924
  0
LINE
  5
42E
100
AcDbEntity
  8
0
100
AcDbLine
 62
253
  6
CONTINUOUS
 10
173.0267163694
 20
124.1161804924
 11
173.2894643694
 21
123.9593794924
  0
LINE
  5
42F
100
AcDbEntity
  8
0
100
AcDbLine
 62
253
  6
CONTINUOUS
 10
173.6483693694
 20
124.2174514924
 11
173.5374533694
 21
124.3054234924
  0
LINE
  5
430
100
AcDbEntity
  8
0
100
AcDbLine
 62
253
  6
CONTINUOUS
 10
173.2894643694
 20
123.9593794924
 11
173.3702763694
 21
123.8950804924
  0
LINE
  5
431
100
AcDbEntity
  8
0
100
AcDbLine
 62
253
  6
CONTINUOUS
 10
175.3303683694
 20
123.5751934924
 11
175.2457573694
 21
123.6482604924
  0
LWPOLYLINE
  5
432
100
AcDbEntity
  8
RACCORDO
100
AcDbPolyline
 62
253
  6
CONTINUOUS
 90
9
 70
0
 10
182.9929383531
 20
88.4941683803
 10
182.9940180597
 20
88.4994938763
 10
182.9951395058
 20
88.5109386595
 10
182.9962731368
 20
88.528440904
 10
182.9973674219
 20
88.5519069223
 10
182.9984160775
 20
88.5812139467
 10
182.9994582817
 20
88.6162128343
 10
183.0004689028
 20
88.6567257093
 10
183.002347202
 20
88.7534239184
  0
LWPOLYLINE
  5
433
100
AcDbEntity
  8
0
100
AcDbPolyline
 62
253
  6
CONTINUOUS
 90
9
 70
0
 10
182.9929383531
 20
88.4941683803
 10
182.9940180597
 20
88.4994938763
 10
182.9951395058
 20
88.5109386595
 10
182.9962731368
 20
88.528440904
 10
182.9973674219
 20
88.5519069223
 10
182.9984160775
 20
88.5812139467
 10
182.9994582817
 20
88.6162128343
 10
183.0004689028
 20
88.6567257093
 10
183.002347202
 20
88.7534239184
  0
LWPOLYLINE
  5
434
100
AcDbEntity
  8
0
100
AcDbPolyline
 62
7
  6
CONTINUOUS
 90
65
 70
0
 10
176.6726069505
 20
95.5430365746
 10
176.77051261
 20
95.6037774548
 10
176.8636025781
 20
95.6652678718
 10
176.9519386139
 20
95.7271664563
 10
177.0363826573
 20
95.7897108983
 10
177.1170565972
 20
95.8527217692
 10
177.1939516432
 20
95.915948751
 10
177.2676748252
 20
95.9796492191
 10
177.3385916288
 20
96.0439600297
 10
177.4064145598
 20
96.1084633211
 10
177.470776965
 20
96.172602756
 10
177.531654965
 20
96.2360628243
 10
177.5892798088
 20
96.2988033114
 10
177.6437102824
 20
96.3606491754
 10
177.6949609305
 20
96.4213471134
 10
177.7432356104
 20
96.4808512901
 10
177.7888631039
 20
96.5393233585
 10
177.8319605086
 20
96.5966966425
 10
177.8725901995
 20
96.6528246122
 10
177.9109731196
 20
96.7077812625
 10
177.9471902908
 20
96.7614822544
 10
177.9813198576
 20
96.8138518691
 10
178.013559621
 20
96.8649989245
 10
178.0439777669
 20
96.9148569348
 10
178.072643048
 20
96.9633733592
 10
178.0997358159
 20
97.0106950559
 10
178.1253131581
 20
97.0567735765
 10
178.1494326157
 20
97.1015694584
 10
178.1722575362
 20
97.1452565525
 10
178.193833099
 20
97.1877984487
 10
178.2142077073
 20
97.2291670484
 10
178.2335325905
 20
97.269559625
 10
178.2518453882
 20
97.3089549521
 10
178.2691821509
 20
97.3473277785
 10
178.2856758899
 20
97.3848783336
 10
178.3013697592
 20
97.4216229648
 10
178.3162764967
 20
97.4575125623
 10
178.3304731724
 20
97.4926548678
 10
178.3439958877
 20
97.5270633102
 10
178.356858049
 20
97.5606985679
 10
178.3690977258
 20
97.5935919491
 10
178.3807372339
 20
97.6257328625
 10
178.3917987577
 20
97.6571106248
 10
178.4023172488
 20
97.6877579741
 10
178.4123110302
 20
97.7176619286
 10
178.4218011781
 20
97.74681829
 10
178.4308237346
 20
97.7752744438
 10
178.4393969441
 20
97.8030272916
 10
178.4475364862
 20
97.8300663952
 10
178.4552716812
 20
97.856429418
 10
178.4626171029
 20
97.8821099273
 10
178.4695877795
 20
97.9071036296
 10
178.4762112224
 20
97.9314524598
 10
178.4825003565
 20
97.9551521163
 10
178.4884677067
 20
97.9781985556
 10
178.4941378375
 20
98.00063501
 10
178.4995217663
 20
98.022457768
 10
178.5046302276
 20
98.0436640887
 10
178.5094852259
 20
98.0642993939
 10
178.5140960993
 20
98.0843608224
 10
178.5184719544
 20
98.103846268
 10
178.5226325048
 20
98.1228028689
 10
178.5265856076
 20
98.1412284701
 10
178.5303389165
 20
98.1591214201
 10
178.537305632
 20
98.1934527958
  0
LINE
  5
435
100
AcDbEntity
  8
0
100
AcDbLine
 62
253
  6
CONTINUOUS
 10
172.2063213694
 20
124.1182264924
 11
172.4087163694
 21
124.1739034924
  0
LINE
  5
436
100
AcDbEntity
  8
0
100
AcDbLine
 62
253
  6
CONTINUOUS
 10
172.3338963694
 20
124.5788404924
 11
172.0617953694
 21
124.5040194924
  0
LINE
  5
437
100
AcDbEntity
  8
0
100
AcDbLine
 62
253
  6
CONTINUOUS
 10
172.4740383694
 20
124.5978374924
 11
172.3338963694
 21
124.5788404924
  0
LINE
  5
438
100
AcDbEntity
  8
0
100
AcDbLine
 62
253
  6
CONTINUOUS
 10
172.8969493694
 20
124.5978366077
 11
172.4740383694
 21
124.5978373711
  0
LINE
  5
439
100
AcDbEntity
  8
0
100
AcDbLine
 62
253
  6
CONTINUOUS
 10
175.2457573694
 20
123.6482562986
 11
175.1202283694
 21
123.6482645961
  0
LINE
  5
43A
100
AcDbEntity
  8
0
100
AcDbLine
 62
253
  6
CONTINUOUS
 10
172.4087163694
 20
124.1739031022
 11
172.8184753694
 21
124.1736114924
  0
LINE
  5
43B
100
AcDbEntity
  8
0
100
AcDbLine
 62
253
  6
CONTINUOUS
 10
173.1740183694
 20
124.5215554924
 11
172.8969493694
 21
124.5978374924
  0
LINE
  5
43C
100
AcDbEntity
  8
0
100
AcDbLine
 62
253
  6
CONTINUOUS
 10
172.8184753694
 20
124.1736114924
 11
173.0267163694
 21
124.1161804924
  0
LINE
  5
43D
100
AcDbEntity
  8
0
100
AcDbLine
 62
7
  6
CONTINUOUS
 10
176.4612224012
 20
95.4246331297
 11
176.5698192891
 21
95.4833575765
  0
LWPOLYLINE
  5
43E
100
AcDbEntity
  8
RACCORDO
100
AcDbPolyline
 62
253
  6
CONTINUOUS
 90
14
 70
0
 10
162.1226245183
 20
131.302047495
 10
162.0758098476
 20
131.3013441454
 10
162.0307152081
 20
131.3004486438
 10
161.9877775309
 20
131.2993696671
 10
161.9474128483
 20
131.2981176697
 10
161.9100122619
 20
131.2967047823
 10
161.8759381537
 20
131.2951446948
 10
161.845520675
 20
131.2934525232
 10
161.8190545468
 20
131.2916446632
 10
161.796796205
 20
131.2897386317
 10
161.7789613153
 20
131.2877528965
 10
161.7657226836
 20
131.2857066979
 10
161.7572085817
 20
131.2836198618
 10
161.7535015047
 20
131.2815126081
  0
LWPOLYLINE
  5
43F
100
AcDbEntity
  8
0
100
AcDbPolyline
 62
253
  6
CONTINUOUS
 90
14
 70
0
 10
162.1226245183
 20
131.302047495
 10
162.0758098476
 20
131.3013441454
 10
162.0307152081
 20
131.3004486438
 10
161.9877775309
 20
131.2993696671
 10
161.9474128483
 20
131.2981176697
 10
161.9100122619
 20
131.2967047823
 10
161.8759381537
 20
131.2951446948
 10
161.845520675
 20
131.2934525232
 10
161.8190545468
 20
131.2916446632
 10
161.796796205
 20
131.2897386317
 10
161.7789613153
 20
131.2877528965
 10
161.7657226836
 20
131.2857066979
 10
161.7572085817
 20
131.2836198618
 10
161.7535015047
 20
131.2815126081
  0
LINE
  5
440
100
AcDbEntity
  8
RACCORDO
100
AcDbLine
 62
253
  6
CONTINUOUS
 10
162.2195872941
 20
131.3028524068
 11
162.1226245183
 21
131.302047495
  0
LINE
  5
441
100
AcDbEntity
  8
0
100
AcDbLine
 62
253
  6
CONTINUOUS
 10
162.2195872941
 20
131.3028524068
 11
162.1226245183
 21
131.302047495
  0
LINE
  5
442
100
AcDbEntity
  8
RACCORDO
100
AcDbLine
 62
253
  6
CONTINUOUS
 10
183.0087734487
 20
131.3028523844
 11
162.219587294
 21
131.3028523822
  0
LINE
  5
443
100
AcDbEntity
  8
0
100
AcDbLine
 62
253
  6
CONTINUOUS
 10
183.0087734487
 20
131.3028523844
 11
162.219587294
 21
131.3028523822
  0
LWPOLYLINE
  5
444
100
AcDbEntity
  8
RACCORDO
100
AcDbPolyline
 62
253
  6
CONTINUOUS
 90
15
 70
0
 10
183.0087725458
 20
131.3028518344
 10
183.1057343698
 20
131.3020469507
 10
183.1525486273
 20
131.3013436244
 10
183.1976429135
 20
131.300448152
 10
183.2405803098
 20
131.2993692095
 10
183.2809447953
 20
131.2981172507
 10
183.3183452785
 20
131.2967044056
 10
183.3524193858
 20
131.2951443634
 10
183.3828369729
 20
131.2934522394
 10
183.4093033238
 20
131.2916444285
 10
183.4315620058
 20
131.2897384466
 10
183.4493973543
 20
131.2877527608
 10
183.4626365627
 20
131.2857066104
 10
183.4711513561
 20
131.2836198206
 10
183.4748592346
 20
131.2815126103
  0
LWPOLYLINE
  5
445
100
AcDbEntity
  8
0
100
AcDbPolyline
 62
253
  6
CONTINUOUS
 90
15
 70
0
 10
183.0087725458
 20
131.3028518344
 10
183.1057343698
 20
131.3020469507
 10
183.1525486273
 20
131.3013436244
 10
183.1976429135
 20
131.300448152
 10
183.2405803098
 20
131.2993692095
 10
183.2809447953
 20
131.2981172507
 10
183.3183452785
 20
131.2967044056
 10
183.3524193858
 20
131.2951443634
 10
183.3828369729
 20
131.2934522394
 10
183.4093033238
 20
131.2916444285
 10
183.4315620058
 20
131.2897384466
 10
183.4493973543
 20
131.2877527608
 10
183.4626365627
 20
131.2857066104
 10
183.4711513561
 20
131.2836198206
 10
183.4748592346
 20
131.2815126103
  0
LWPOLYLINE
  5
446
100
AcDbEntity
  8
RACCORDO
100
AcDbPolyline
 62
253
  6
CONTINUOUS
 90
16
 70
0
 10
162.2354223857
 20
132.4513416727
 10
162.1831980736
 20
132.4485700872
 10
162.1315455261
 20
132.4403572574
 10
162.0810301761
 20
132.4267931098
 10
162.0322049888
 20
132.4080261437
 10
161.9856044559
 20
132.3842618224
 10
161.9417387365
 20
132.3557603388
 10
161.9010880071
 20
132.322833731
 10
161.8640972279
 20
132.2858424616
 10
161.8311713103
 20
132.2451915042
 10
161.8026706539
 20
132.2013258864
 10
161.7789071996
 20
132.1547258015
 10
161.7601410312
 20
132.1059013637
 10
161.7465775348
 20
132.055387037
 10
161.7383651463
 20
132.0037357862
 10
161.7355937232
 20
131.9515130102
  0
LWPOLYLINE
  5
447
100
AcDbEntity
  8
0
100
AcDbPolyline
 62
253
  6
CONTINUOUS
 90
16
 70
0
 10
162.2354223857
 20
132.4513416727
 10
162.1831980736
 20
132.4485700872
 10
162.1315455261
 20
132.4403572574
 10
162.0810301761
 20
132.4267931098
 10
162.0322049888
 20
132.4080261437
 10
161.9856044559
 20
132.3842618224
 10
161.9417387365
 20
132.3557603388
 10
161.9010880071
 20
132.322833731
 10
161.8640972279
 20
132.2858424616
 10
161.8311713103
 20
132.2451915042
 10
161.8026706539
 20
132.2013258864
 10
161.7789071996
 20
132.1547258015
 10
161.7601410312
 20
132.1059013637
 10
161.7465775348
 20
132.055387037
 10
161.7383651463
 20
132.0037357862
 10
161.7355937232
 20
131.9515130102
  0
LINE
  5
448
100
AcDbEntity
  8
RACCORDO
100
AcDbLine
 62
253
  6
CONTINUOUS
 10
182.9929383541
 20
132.4513416737
 11
178.2907741598
 21
132.4448503205
  0
LINE
  5
449
100
AcDbEntity
  8
0
100
AcDbLine
 62
253
  6
CONTINUOUS
 10
182.9929383541
 20
132.4513416737
 11
178.2907741598
 21
132.4448503205
  0
LINE
  5
44A
100
AcDbEntity
  8
RACCORDO
100
AcDbLine
 62
253
  6
CONTINUOUS
 10
178.2907741598
 20
132.4448503205
 11
173.5828547114
 21
132.4421628672
  0
LINE
  5
44B
100
AcDbEntity
  8
0
100
AcDbLine
 62
253
  6
CONTINUOUS
 10
178.2907741598
 20
132.4448503205
 11
173.5828547114
 21
132.4421628672
  0
LINE
  5
44C
100
AcDbEntity
  8
RACCORDO
100
AcDbLine
 62
7
  6
CONTINUOUS
 10
162.1140090319
 20
132.5727550265
 11
183.1143517069
 21
132.5727550265
  0
LINE
  5
44D
100
AcDbEntity
  8
0
100
AcDbLine
 62
7
  6
CONTINUOUS
 10
162.1140090319
 20
132.5727550265
 11
183.1143517069
 21
132.5727550265
  0
LINE
  5
44E
100
AcDbEntity
  8
RACCORDO
100
AcDbLine
 62
253
  6
CONTINUOUS
 10
173.5828547114
 20
132.4421628672
 11
168.195425887
 21
132.4437582075
  0
LINE
  5
44F
100
AcDbEntity
  8
0
100
AcDbLine
 62
253
  6
CONTINUOUS
 10
173.5828547114
 20
132.4421628672
 11
168.195425887
 21
132.4437582075
  0
LINE
  5
450
100
AcDbEntity
  8
RACCORDO
100
AcDbLine
 62
253
  6
CONTINUOUS
 10
168.195425887
 20
132.4437582075
 11
163.0502411499
 21
132.4499578274
  0
LINE
  5
451
100
AcDbEntity
  8
0
100
AcDbLine
 62
253
  6
CONTINUOUS
 10
168.195425887
 20
132.4437582075
 11
163.0502411499
 21
132.4499578274
  0
LINE
  5
452
100
AcDbEntity
  8
RACCORDO
100
AcDbLine
 62
253
  6
CONTINUOUS
 10
163.0502411499
 20
132.4499578274
 11
162.2354223848
 21
132.4513416736
  0
LINE
  5
453
100
AcDbEntity
  8
0
100
AcDbLine
 62
253
  6
CONTINUOUS
 10
163.0502411499
 20
132.4499578274
 11
162.2354223848
 21
132.4513416736
  0
LWPOLYLINE
  5
454
100
AcDbEntity
  8
RACCORDO
100
AcDbPolyline
 62
253
  6
CONTINUOUS
 90
16
 70
0
 10
182.9929383541
 20
132.4513416737
 10
183.0451619802
 20
132.4485701609
 10
183.096813932
 20
132.4403575319
 10
183.147328793
 20
132.4267936875
 10
183.1961535941
 20
132.4080271066
 10
183.2427538668
 20
132.3842632206
 10
183.2866194938
 20
132.3557621646
 10
183.3272702928
 20
132.3228359302
 10
183.3642612733
 20
132.2858449496
 10
183.3971875077
 20
132.2451941505
 10
183.4256885636
 20
132.2013285236
 10
183.4494524496
 20
132.1547282509
 10
183.4682190304
 20
132.1059034498
 10
183.4817828748
 20
132.0553885889
 10
183.4899955038
 20
132.0037366372
 10
183.4927670166
 20
131.9515130112
  0
LWPOLYLINE
  5
455
100
AcDbEntity
  8
0
100
AcDbPolyline
 62
253
  6
CONTINUOUS
 90
16
 70
0
 10
182.9929383541
 20
132.4513416737
 10
183.0451619802
 20
132.4485701609
 10
183.096813932
 20
132.4403575319
 10
183.147328793
 20
132.4267936875
 10
183.1961535941
 20
132.4080271066
 10
183.2427538668
 20
132.3842632206
 10
183.2866194938
 20
132.3557621646
 10
183.3272702928
 20
132.3228359302
 10
183.3642612733
 20
132.2858449496
 10
183.3971875077
 20
132.2451941505
 10
183.4256885636
 20
132.2013285236
 10
183.4494524496
 20
132.1547282509
 10
183.4682190304
 20
132.1059034498
 10
183.4817828748
 20
132.0553885889
 10
183.4899955038
 20
132.0037366372
 10
183.4927670166
 20
131.9515130112
  0
LINE
  5
456
100
AcDbEntity
  8
RACCORDO
100
AcDbLine
 62
7
  6
CONTINUOUS
 10
131.7956753356
 20
88.3727550265
 11
126.8054766054
 21
88.5034279791
  0
LINE
  5
457
100
AcDbEntity
  8
0
100
AcDbLine
 62
7
  6
CONTINUOUS
 10
131.7956753356
 20
88.3727550265
 11
126.8054766054
 21
88.5034279791
  0
LWPOLYLINE
  5
458
100
AcDbEntity
  8
RACCORDO
100
AcDbPolyline
 62
253
  6
CONTINUOUS
 90
4
 70
0
 10
127.1590864155
 20
88.4941683803
 10
127.0732092909
 20
88.4994938763
 10
126.9879517581
 20
88.5109386595
 10
126.9037486395
 20
88.528440904
  0
LWPOLYLINE
  5
459
100
AcDbEntity
  8
0
100
AcDbPolyline
 62
253
  6
CONTINUOUS
 90
4
 70
0
 10
127.1590864155
 20
88.4941683803
 10
127.0732092909
 20
88.4994938763
 10
126.9879517581
 20
88.5109386595
 10
126.9037486395
 20
88.528440904
  0
LINE
  5
45A
100
AcDbEntity
  8
RACCORDO
100
AcDbLine
 62
253
  6
CONTINUOUS
 10
125.9899008407
 20
89.6426576462
 11
125.9956274172
 21
89.6429581752
  0
LINE
  5
45B
100
AcDbEntity
  8
0
100
AcDbLine
 62
253
  6
CONTINUOUS
 10
125.9899008407
 20
89.6426576462
 11
125.9956274172
 21
89.6429581752
  0
LINE
  5
45C
100
AcDbEntity
  8
RACCORDO
100
AcDbLine
 62
253
  6
CONTINUOUS
 10
125.9956274172
 20
89.6429581752
 11
126.1992561321
 21
89.6520575298
  0
LINE
  5
45D
100
AcDbEntity
  8
0
100
AcDbLine
 62
253
  6
CONTINUOUS
 10
125.9956274172
 20
89.6429581752
 11
126.1992561321
 21
89.6520575298
  0
LINE
  5
45E
100
AcDbEntity
  8
RACCORDO
100
AcDbLine
 62
253
  6
CONTINUOUS
 10
126.1992561321
 20
89.6520575298
 11
126.4752158318
 21
89.6639974449
  0
LINE
  5
45F
100
AcDbEntity
  8
0
100
AcDbLine
 62
253
  6
CONTINUOUS
 10
126.1992561321
 20
89.6520575298
 11
126.4752158318
 21
89.6639974449
  0
LINE
  5
460
100
AcDbEntity
  8
RACCORDO
100
AcDbLine
 62
253
  6
CONTINUOUS
 10
125.6385211869
 20
89.6405198707
 11
125.9899008378
 21
89.64265767
  0
LINE
  5
461
100
AcDbEntity
  8
0
100
AcDbLine
 62
253
  6
CONTINUOUS
 10
125.6385211869
 20
89.6405198707
 11
125.9899008378
 21
89.64265767
  0
LINE
  5
462
100
AcDbEntity
  8
RACCORDO
100
AcDbLine
 62
253
  6
CONTINUOUS
 10
131.7956753356
 20
88.872583689
 11
127.1590864155
 21
88.9939970428
  0
LINE
  5
463
100
AcDbEntity
  8
0
100
AcDbLine
 62
253
  6
CONTINUOUS
 10
131.7956753356
 20
88.872583689
 11
127.1590864155
 21
88.9939970428
  0
LWPOLYLINE
  5
464
100
AcDbEntity
  8
RACCORDO
100
AcDbPolyline
 62
253
  6
CONTINUOUS
 90
22
 70
0
 10
127.1590864155
 20
88.9939970428
 10
127.1086900422
 20
88.9971431001
 10
127.0590777274
 20
89.0037688196
 10
127.0102494711
 20
89.0138742012
 10
126.9619398576
 20
89.0275474317
 10
126.9144143025
 20
89.0447003243
 10
126.8684690533
 20
89.0650683192
 10
126.8241512696
 20
89.0887005204
 10
126.7814137917
 20
89.1155478238
 10
126.7409113879
 20
89.1451983576
 10
126.7026785215
 20
89.1776972132
 10
126.6666807292
 20
89.2129992993
 10
126.6334693895
 20
89.2505574702
 10
126.6030904755
 20
89.2904041776
 10
126.5754980141
 20
89.3325069699
 10
126.5511054644
 20
89.3762213466
 10
126.5299602533
 20
89.4215941201
 10
126.5120149538
 20
89.468578478
 10
126.4975407442
 20
89.5163894832
 10
126.4866280169
 20
89.5647654898
 10
126.4791863795
 20
89.6139681437
 10
126.4752158318
 20
89.6639974449
  0
LWPOLYLINE
  5
465
100
AcDbEntity
  8
0
100
AcDbPolyline
 62
253
  6
CONTINUOUS
 90
22
 70
0
 10
127.1590864155
 20
88.9939970428
 10
127.1086900422
 20
88.9971431001
 10
127.0590777274
 20
89.0037688196
 10
127.0102494711
 20
89.0138742012
 10
126.9619398576
 20
89.0275474317
 10
126.9144143025
 20
89.0447003243
 10
126.8684690533
 20
89.0650683192
 10
126.8241512696
 20
89.0887005204
 10
126.7814137917
 20
89.1155478238
 10
126.7409113879
 20
89.1451983576
 10
126.7026785215
 20
89.1776972132
 10
126.6666807292
 20
89.2129992993
 10
126.6334693895
 20
89.2505574702
 10
126.6030904755
 20
89.2904041776
 10
126.5754980141
 20
89.3325069699
 10
126.5511054644
 20
89.3762213466
 10
126.5299602533
 20
89.4215941201
 10
126.5120149538
 20
89.468578478
 10
126.4975407442
 20
89.5163894832
 10
126.4866280169
 20
89.5647654898
 10
126.4791863795
 20
89.6139681437
 10
126.4752158318
 20
89.6639974449
  0
LWPOLYLINE
  5
466
100
AcDbEntity
  8
RACCORDO
100
AcDbPolyline
 62
253
  6
CONTINUOUS
 90
19
 70
0
 10
126.9037486395
 20
88.528440904
 10
126.8210303698
 20
88.5519069223
 10
126.7402165596
 20
88.5812139467
 10
126.6617145889
 20
88.6162128343
 10
126.5859202007
 20
88.6567257093
 10
126.5132235166
 20
88.7025423506
 10
126.4440026821
 20
88.7534239184
 10
126.3786107498
 20
88.8091068806
 10
126.3173774622
 20
88.8693057841
 10
126.2606160272
 20
88.9337116166
 10
126.2086137208
 20
89.0019941798
 10
126.1616336426
 20
89.0738027726
 10
126.1199161718
 20
89.148768304
 10
126.0836742887
 20
89.2265006105
 10
126.0530863636
 20
89.3066074622
 10
126.028302589
 20
89.388697196
 10
126.0094498794
 20
89.4723573298
 10
125.9966270435
 20
89.5571551052
 10
125.9899008071
 20
89.6426576689
  0
LWPOLYLINE
  5
467
100
AcDbEntity
  8
0
100
AcDbPolyline
 62
253
  6
CONTINUOUS
 90
19
 70
0
 10
126.9037486395
 20
88.528440904
 10
126.8210303698
 20
88.5519069223
 10
126.7402165596
 20
88.5812139467
 10
126.6617145889
 20
88.6162128343
 10
126.5859202007
 20
88.6567257093
 10
126.5132235166
 20
88.7025423506
 10
126.4440026821
 20
88.7534239184
 10
126.3786107498
 20
88.8091068806
 10
126.3173774622
 20
88.8693057841
 10
126.2606160272
 20
88.9337116166
 10
126.2086137208
 20
89.0019941798
 10
126.1616336426
 20
89.0738027726
 10
126.1199161718
 20
89.148768304
 10
126.0836742887
 20
89.2265006105
 10
126.0530863636
 20
89.3066074622
 10
126.028302589
 20
89.388697196
 10
126.0094498794
 20
89.4723573298
 10
125.9966270435
 20
89.5571551052
 10
125.9899008071
 20
89.6426576689
  0
LINE
  5
468
100
AcDbEntity
  8
DRAFT
100
AcDbLine
 62
7
  6
CONTINUOUS
 10
125.4107062217
 20
94.9727974732
 11
125.396278206
 21
94.9727503127
  0
LINE
  5
469
100
AcDbEntity
  8
0
100
AcDbLine
 62
7
  6
CONTINUOUS
 10
125.4107062217
 20
94.9727974732
 11
125.3962577436
 21
94.972750208
  0
LWPOLYLINE
  5
46A
100
AcDbEntity
  8
RACCORDO
100
AcDbPolyline
 62
253
  6
CONTINUOUS
 90
11
 70
0
 10
127.1590864555
 20
132.4513416737
 10
127.1577915077
 20
132.4485701609
 10
127.1566540099
 20
132.4403575319
 10
127.155686414
 20
132.4267936875
 10
127.1548993118
 20
132.4080271066
 10
127.1543013195
 20
132.3842632206
 10
127.1538989837
 20
132.3557621646
 10
127.1536967085
 20
132.3228359302
 10
127.1536967082
 20
132.2858449496
 10
127.1538989827
 20
132.2451941505
 10
127.1548993095
 20
132.1547282509
  0
LWPOLYLINE
  5
46B
100
AcDbEntity
  8
0
100
AcDbPolyline
 62
253
  6
CONTINUOUS
 90
11
 70
0
 10
127.1590864555
 20
132.4513416737
 10
127.1577915077
 20
132.4485701609
 10
127.1566540099
 20
132.4403575319
 10
127.155686414
 20
132.4267936875
 10
127.1548993118
 20
132.4080271066
 10
127.1543013195
 20
132.3842632206
 10
127.1538989837
 20
132.3557621646
 10
127.1536967085
 20
132.3228359302
 10
127.1536967082
 20
132.2858449496
 10
127.1538989827
 20
132.2451941505
 10
127.1548993095
 20
132.1547282509
  0
LWPOLYLINE
  5
46C
100
AcDbEntity
  8
RACCORDO
100
AcDbPolyline
 62
253
  6
CONTINUOUS
 90
9
 70
0
 10
127.1590864155
 20
88.4941683803
 10
127.1577914469
 20
88.4969399658
 10
127.1566539347
 20
88.5051527956
 10
127.1556863305
 20
88.5187169432
 10
127.1548992255
 20
88.5374839093
 10
127.1543012357
 20
88.5612482306
 10
127.1538989072
 20
88.5897497142
 10
127.153696643
 20
88.622676322
 10
127.1536966556
 20
88.6596675914
  0
LWPOLYLINE
  5
46D
100
AcDbEntity
  8
0
100
AcDbPolyline
 62
253
  6
CONTINUOUS
 90
9
 70
0
 10
127.1590864155
 20
88.4941683803
 10
127.1577914469
 20
88.4969399658
 10
127.1566539347
 20
88.5051527956
 10
127.1556863305
 20
88.5187169432
 10
127.1548992255
 20
88.5374839093
 10
127.1543012357
 20
88.5612482306
 10
127.1538989072
 20
88.5897497142
 10
127.153696643
 20
88.622676322
 10
127.1536966556
 20
88.6596675914
  0
LINE
  5
46E
100
AcDbEntity
  8
DRAFT
100
AcDbLine
 62
7
  6
CONTINUOUS
 10
125.1659788778
 20
102.9727505594
 11
125.1820940538
 21
102.9727907446
  0
LINE
  5
46F
100
AcDbEntity
  8
0
100
AcDbLine
 62
7
  6
CONTINUOUS
 10
125.1661554093
 20
102.9727510367
 11
125.1820940538
 21
102.9727907446
  0
LINE
  5
470
100
AcDbEntity
  8
0
100
AcDbLine
 62
253
  6
CONTINUOUS
 10
125.2588762485
 20
104.9727129177
 11
125.3044507257
 21
104.9728001342
  0
LINE
  5
471
100
AcDbEntity
  8
0
100
AcDbLine
 62
253
  6
CONTINUOUS
 10
125.156673149
 20
104.9727647288
 11
125.147094184
 21
104.9727464024
  0
LINE
  5
472
100
AcDbEntity
  8
0
100
AcDbLine
 62
253
  6
CONTINUOUS
 10
125.169947928
 20
106.0870184939
 11
125.2001727843
 21
106.0870654566
  0
LINE
  5
473
100
AcDbEntity
  8
0
100
AcDbLine
 62
253
  6
CONTINUOUS
 10
125.2439107053
 20
106.2727288302
 11
125.289776367
 21
106.2727623411
  0
LWPOLYLINE
  5
474
100
AcDbEntity
  8
DRAFT
100
AcDbPolyline
 62
7
  6
CONTINUOUS
 90
3
 70
0
 10
125.1820940538
 20
102.9727907446
 10
125.1864900593
 20
102.9650013325
 10
125.1916098377
 20
102.9421853771
  0
LWPOLYLINE
  5
475
100
AcDbEntity
  8
0
100
AcDbPolyline
 62
7
  6
CONTINUOUS
 90
3
 70
0
 10
125.1820940538
 20
102.9727907446
 10
125.1864900593
 20
102.9650013325
 10
125.1916098377
 20
102.9421853771
  0
LWPOLYLINE
  5
476
100
AcDbEntity
  8
0
100
AcDbPolyline
 62
7
  6
CONTINUOUS
 90
3
 70
0
 10
125.1873459501
 20
102.962250945
 10
125.184597218
 20
102.9701528189
 10
125.1820991905
 20
102.9727554871
  0
LINE
  5
477
100
AcDbEntity
  8
0
100
AcDbLine
 62
7
  6
CONTINUOUS
 10
125.2123027054
 20
102.772415224
 11
125.2082478805
 21
102.812475385
  0
LINE
  5
478
100
AcDbEntity
  8
0
100
AcDbLine
 62
7
  6
CONTINUOUS
 10
125.2207628025
 20
102.6817554899
 11
125.2112374453
 21
102.7829570717
  0
LINE
  5
479
100
AcDbEntity
  8
0
100
AcDbLine
 62
7
  6
CONTINUOUS
 10
125.2295408274
 20
102.5789062237
 11
125.2190522642
 21
102.7006580772
  0
LINE
  5
47A
100
AcDbEntity
  8
0
100
AcDbLine
 62
7
  6
CONTINUOUS
 10
125.2384593169
 20
102.46640199
 11
125.2274011607
 21
102.6042289241
  0
LINE
  5
47B
100
AcDbEntity
  8
0
100
AcDbLine
 62
7
  6
CONTINUOUS
 10
125.2517063806
 20
102.2849298766
 11
125.2362685343
 21
102.4937071612
  0
LINE
  5
47C
100
AcDbEntity
  8
0
100
AcDbLine
 62
253
  6
CONTINUOUS
 10
125.2917636619
 20
107.2013264772
 11
125.2696728265
 21
107.5108501908
  0
LINE
  5
47D
100
AcDbEntity
  8
DRAFT
100
AcDbLine
 62
7
  6
CONTINUOUS
 10
125.2455437689
 20
102.370138101
 11
125.2652302372
 21
102.0830509561
  0
LINE
  5
47E
100
AcDbEntity
  8
0
100
AcDbLine
 62
7
  6
CONTINUOUS
 10
125.2455437689
 20
102.370138101
 11
125.2652302372
 21
102.0830509561
  0
LINE
  5
47F
100
AcDbEntity
  8
0
100
AcDbLine
 62
253
  6
CONTINUOUS
 10
125.3138704152
 20
105.9013264772
 11
125.2897764385
 21
106.2727550265
  0
LINE
  5
480
100
AcDbEntity
  8
0
100
AcDbLine
 62
7
  6
CONTINUOUS
 10
125.2763149657
 20
101.9080393281
 11
125.260272736
 21
102.1592768118
  0
LINE
  5
481
100
AcDbEntity
  8
DRAFT
100
AcDbLine
 62
7
  6
CONTINUOUS
 10
125.2652302372
 20
102.0830509561
 11
125.2857124183
 21
101.7508118019
  0
LINE
  5
482
100
AcDbEntity
  8
0
100
AcDbLine
 62
7
  6
CONTINUOUS
 10
125.297026914
 20
101.552987648
 11
125.2754180564
 21
101.9221942616
  0
LINE
  5
483
100
AcDbEntity
  8
DRAFT
100
AcDbLine
 62
7
  6
CONTINUOUS
 10
125.2857124183
 20
101.7508118019
 11
125.3064822044
 21
101.3771446383
  0
LINE
  5
484
100
AcDbEntity
  8
0
100
AcDbLine
 62
7
  6
CONTINUOUS
 10
125.3174054162
 20
101.1651639726
 11
125.2961045043
 21
101.568639998
  0
LINE
  5
485
100
AcDbEntity
  8
DRAFT
100
AcDbLine
 62
7
  6
CONTINUOUS
 10
125.3064822044
 20
101.3771446383
 11
125.3271181084
 21
100.9650222273
  0
LINE
  5
486
100
AcDbEntity
  8
0
100
AcDbLine
 62
7
  6
CONTINUOUS
 10
125.3385663146
 20
100.7171760508
 11
125.3168361643
 21
101.1757450249
  0
LINE
  5
487
100
AcDbEntity
  8
0
100
AcDbLine
 62
253
  6
CONTINUOUS
 10
125.2039874004
 20
107.2013264772
 11
125.1870791577
 21
107.5727550265
  0
LINE
  5
488
100
AcDbEntity
  8
DRAFT
100
AcDbLine
 62
7
  6
CONTINUOUS
 10
125.3271181084
 20
100.9650222273
 11
125.3468674943
 21
100.5257655838
  0
LWPOLYLINE
  5
489
100
AcDbEntity
  8
0
100
AcDbPolyline
 62
7
  6
CONTINUOUS
 90
3
 70
0
 10
125.3960979478
 20
94.9727497236
 10
125.4756215783
 20
93.0425065255
 10
125.6385211862
 20
89.6405198835
  0
LWPOLYLINE
  5
48A
100
AcDbEntity
  8
0
100
AcDbPolyline
 62
7
  6
CONTINUOUS
 90
4
 70
0
 10
125.3998298685
 20
98.972754636
 10
125.3996924908
 20
98.9762370516
 10
125.3998620444
 20
98.9805427784
 10
125.4001317701
 20
98.9840935265
  0
LINE
  5
48B
100
AcDbEntity
  8
0
100
AcDbLine
 62
7
  6
CONTINUOUS
 10
125.3584780781
 20
100.242745346
 11
125.3371483124
 21
100.7481845104
  0
LINE
  5
48C
100
AcDbEntity
  8
DRAFT
100
AcDbLine
 62
7
  6
CONTINUOUS
 10
125.3468674943
 20
100.5257655838
 11
125.3653206421
 21
100.0641907876
  0
LWPOLYLINE
  5
48D
100
AcDbEntity
  8
RACCORDO
100
AcDbPolyline
 62
253
  6
CONTINUOUS
 90
10
 70
0
 10
125.9899008378
 20
89.64265767
 10
125.8137754733
 20
94.2689758955
 10
125.6816410856
 20
98.8970807479
 10
125.5935289868
 20
103.5265520258
 10
125.54946375
 20
108.1571780714
 10
125.5494637339
 20
112.7883285945
 10
125.5935289433
 20
117.4189549792
 10
125.6816410293
 20
122.0484269352
 10
125.8137754284
 20
126.6765328043
 10
125.9899008381
 20
131.3028523844
  0
LWPOLYLINE
  5
48E
100
AcDbEntity
  8
0
100
AcDbPolyline
 62
253
  6
CONTINUOUS
 90
10
 70
0
 10
125.9899008378
 20
89.64265767
 10
125.8137754733
 20
94.2689758955
 10
125.6816410856
 20
98.8970807479
 10
125.5935289868
 20
103.5265520258
 10
125.54946375
 20
108.1571780714
 10
125.5494637339
 20
112.7883285945
 10
125.5935289433
 20
117.4189549792
 10
125.6816410293
 20
122.0484269352
 10
125.8137754284
 20
126.6765328043
 10
125.9899008381
 20
131.3028523844
  0
LINE
  5
48F
100
AcDbEntity
  8
0
100
AcDbLine
 62
253
  6
CONTINUOUS
 10
125.2274958166
 20
104.9727550265
 11
125.1997961757
 21
105.71711949
  0
LINE
  5
490
100
AcDbEntity
  8
0
100
AcDbLine
 62
7
  6
CONTINUOUS
 10
125.3768396728
 20
99.7435546662
 11
125.3562853462
 21
100.2972319286
  0
LINE
  5
491
100
AcDbEntity
  8
DRAFT
100
AcDbLine
 62
7
  6
CONTINUOUS
 10
125.3653206421
 20
100.0641907876
 11
125.3822318488
 21
99.583204679
  0
LINE
  5
492
100
AcDbEntity
  8
0
100
AcDbLine
 62
253
  6
CONTINUOUS
 10
125.1997961757
 20
105.71711949
 11
125.1872323099
 21
106.0870407519
  0
LINE
  5
493
100
AcDbEntity
  8
0
100
AcDbLine
 62
7
  6
CONTINUOUS
 10
125.3930568566
 20
99.2369712458
 11
125.3739782801
 21
99.8259513528
  0
LINE
  5
494
100
AcDbEntity
  8
DRAFT
100
AcDbLine
 62
7
  6
CONTINUOUS
 10
125.3822318488
 20
99.583204679
 11
125.3971057755
 21
99.0959088135
  0
LINE
  5
495
100
AcDbEntity
  8
0
100
AcDbLine
 62
253
  6
CONTINUOUS
 10
125.1549245178
 20
110.8013264772
 11
125.1443316088
 21
111.1727550265
  0
LINE
  5
496
100
AcDbEntity
  8
0
100
AcDbLine
 62
253
  6
CONTINUOUS
 10
125.1470940661
 20
104.9727550265
 11
125.1371986905
 21
105.3441836145
  0
LINE
  5
497
100
AcDbEntity
  8
0
100
AcDbLine
 62
253
  6
CONTINUOUS
 10
125.1239752001
 20
108.9441836145
 11
125.1337364995
 21
108.5727550265
  0
LINE
  5
498
100
AcDbEntity
  8
DRAFT
100
AcDbLine
 62
7
  6
CONTINUOUS
 10
125.3971057755
 20
99.0959088135
 11
125.4097676466
 21
98.607623884
  0
LINE
  5
499
100
AcDbEntity
  8
0
100
AcDbLine
 62
7
  6
CONTINUOUS
 10
125.4112254833
 20
98.5456900382
 11
125.3899516439
 21
99.3396306081
  0
LINE
  5
49A
100
AcDbEntity
  8
DRAFT
100
AcDbLine
 62
7
  6
CONTINUOUS
 10
125.4097676466
 20
98.607623884
 11
125.4245330771
 21
97.8829376694
  0
LINE
  5
49B
100
AcDbEntity
  8
0
100
AcDbLine
 62
7
  6
CONTINUOUS
 10
125.4097676466
 20
98.607623884
 11
125.4245330771
 21
97.8829376694
  0
LINE
  5
49C
100
AcDbEntity
  8
0
100
AcDbLine
 62
7
  6
CONTINUOUS
 10
125.4241306108
 20
97.9071036296
 11
125.4224635787
 21
98.00063501
  0
LWPOLYLINE
  5
49D
100
AcDbEntity
  8
0
100
AcDbPolyline
 62
253
  6
CONTINUOUS
 90
3
 70
0
 10
125.1371986905
 20
105.3441836145
 10
125.1209645623
 20
106.8298845483
 10
125.1149098724
 20
107.5727550265
  0
LINE
  5
49E
100
AcDbEntity
  8
0
100
AcDbLine
 62
253
  6
CONTINUOUS
 10
125.1126068258
 20
108.5727550265
 11
125.1039846142
 21
109.440980928
  0
LWPOLYLINE
  5
49F
100
AcDbEntity
  8
0
100
AcDbPolyline
 62
253
  6
CONTINUOUS
 90
4
 70
0
 10
125.1566894569
 20
107.5727550265
 10
125.1637663886
 20
106.7060700032
 10
125.172683397
 20
105.8394020289
 10
125.1834404818
 20
104.9727550265
  0
LINE
  5
4A0
100
AcDbEntity
  8
0
100
AcDbLine
 62
253
  6
CONTINUOUS
 10
125.2104960661
 20
106.4584693786
 11
125.2039874004
 21
107.2013264772
  0
LWPOLYLINE
  5
4A1
100
AcDbEntity
  8
0
100
AcDbPolyline
 62
253
  6
CONTINUOUS
 90
3
 70
0
 10
125.1375080359
 20
107.5727550265
 10
125.1435078602
 20
106.8298847665
 10
125.1595948776
 20
105.3441836145
  0
LINE
  5
4A2
100
AcDbEntity
  8
0
100
AcDbLine
 62
253
  6
CONTINUOUS
 10
125.1039846142
 20
109.440980928
 11
125.0988023456
 21
110.3073516118
  0
LWPOLYLINE
  5
4A3
100
AcDbEntity
  8
0
100
AcDbPolyline
 62
253
  6
CONTINUOUS
 90
3
 70
0
 10
125.1576446998
 20
108.9441836145
 10
125.1548957337
 20
110.1822777163
 10
125.1549245178
 20
110.8013264772
  0
LINE
  5
4A4
100
AcDbEntity
  8
0
100
AcDbLine
 62
253
  6
CONTINUOUS
 10
125.0988023456
 20
110.3073516118
 11
125.0970490502
 21
111.1727550265
  0
LWPOLYLINE
  5
4A5
100
AcDbEntity
  8
0
100
AcDbPolyline
 62
253
  6
CONTINUOUS
 90
3
 70
0
 10
125.1212176528
 20
110.8013264772
 10
125.1211884733
 20
110.1822776875
 10
125.1239752001
 20
108.9441836145
  0
LWPOLYLINE
  5
4A6
100
AcDbEntity
  8
0
100
AcDbPolyline
 62
253
  6
CONTINUOUS
 90
4
 70
0
 10
125.0970490502
 20
111.1727550265
 10
125.0964714518
 20
110.3060862215
 10
125.0977710599
 20
109.4394181989
 10
125.1009478745
 20
108.5727550265
  0
LWPOLYLINE
  5
4A7
100
AcDbEntity
  8
0
100
AcDbPolyline
 62
253
  6
CONTINUOUS
 90
4
 70
0
 10
125.1087261244
 20
111.1727550265
 10
125.1081512108
 20
110.3060862394
 10
125.109444778
 20
109.4394182281
 10
125.1126068258
 20
108.5727550265
  0
LINE
  5
4A8
100
AcDbEntity
  8
0
100
AcDbLine
 62
253
  6
CONTINUOUS
 10
125.2107778933
 20
119.9541464924
 11
125.2106186789
 21
119.9323724924
  0
LINE
  5
4A9
100
AcDbEntity
  8
0
100
AcDbLine
 62
253
  6
CONTINUOUS
 10
125.2132348919
 20
120.0824514924
 11
125.2107778933
 21
119.9541464924
  0
LINE
  5
4AA
100
AcDbEntity
  8
0
100
AcDbLine
 62
253
  6
CONTINUOUS
 10
125.2376105014
 20
120.1122624924
 11
125.2871887719
 21
122.3263354924
  0
LINE
  5
4AB
100
AcDbEntity
  8
0
100
AcDbLine
 62
253
  6
CONTINUOUS
 10
125.1989452223
 20
119.5620694924
 11
125.2121827413
 21
120.1268764924
  0
LINE
  5
4AC
100
AcDbEntity
  8
0
100
AcDbLine
 62
253
  6
CONTINUOUS
 10
125.2871887719
 20
122.3263354924
 11
125.2907225453
 21
122.4745144924
  0
LWPOLYLINE
  5
4AD
100
AcDbEntity
  8
0
100
AcDbPolyline
 62
253
  6
CONTINUOUS
 90
3
 70
0
 10
125.343629651
 20
124.5215554924
 10
125.3447736204
 20
124.5723956069
 10
125.3454445355
 20
124.5978374924
  0
LINE
  5
4AE
100
AcDbEntity
  8
0
100
AcDbLine
 62
253
  6
CONTINUOUS
 10
125.2802448271
 20
122.3006154924
 11
125.2350377666
 21
120.3565984924
  0
LINE
  5
4AF
100
AcDbEntity
  8
0
100
AcDbLine
 62
253
  6
CONTINUOUS
 10
125.1298886454
 20
111.1727550265
 11
125.1212176528
 21
110.8013264772
  0
LINE
  5
4B0
100
AcDbEntity
  8
0
100
AcDbLine
 62
253
  6
CONTINUOUS
 10
125.1481570438
 20
108.5727550265
 11
125.1576446998
 21
108.9441836145
  0
LINE
  5
4B1
100
AcDbEntity
  8
0
100
AcDbLine
 62
253
  6
CONTINUOUS
 10
125.3209074974
 20
123.6581974924
 11
125.343629651
 21
124.5215554924
  0
LINE
  5
4B2
100
AcDbEntity
  8
0
100
AcDbLine
 62
253
  6
CONTINUOUS
 10
125.3327562798
 20
123.3748444924
 11
125.3382984129
 21
123.5751934924
  0
LINE
  5
4B3
100
AcDbEntity
  8
0
100
AcDbLine
 62
253
  6
CONTINUOUS
 10
125.2357412743
 20
120.0497174924
 11
125.2376105014
 21
120.1122624924
  0
LINE
  5
4B4
100
AcDbEntity
  8
0
100
AcDbLine
 62
253
  6
CONTINUOUS
 10
125.2199752901
 20
120.3348244924
 11
125.2162331994
 21
120.2065194924
  0
LWPOLYLINE
  5
4B5
100
AcDbEntity
  8
0
100
AcDbPolyline
 62
253
  6
CONTINUOUS
 90
7
 70
0
 10
125.2638743233
 20
122.0719239948
 10
125.2691419072
 20
122.2346929533
 10
125.2755153031
 20
122.3979685363
 10
125.2831990405
 20
122.5658665283
 10
125.2920515317
 20
122.7343187184
 10
125.302075735
 20
122.903313608
 10
125.3132746083
 20
123.0728396988
  0
LINE
  5
4B6
100
AcDbEntity
  8
0
100
AcDbLine
 62
253
  6
CONTINUOUS
 10
125.2208656753
 20
120.3565984924
 11
125.2199752901
 21
120.3348244924
  0
LINE
  5
4B7
100
AcDbEntity
  8
0
100
AcDbLine
 62
253
  6
CONTINUOUS
 10
125.232043189
 20
119.9594074924
 11
125.2357412743
 21
120.0497174924
  0
LINE
  5
4B8
100
AcDbEntity
  8
0
100
AcDbLine
 62
253
  6
CONTINUOUS
 10
125.3289662901
 20
123.2859954924
 11
125.3327562798
 21
123.3748444924
  0
LWPOLYLINE
  5
4B9
100
AcDbEntity
  8
0
100
AcDbPolyline
 62
7
  6
CONTINUOUS
 90
10
 70
0
 10
125.6385211862
 20
131.3049901694
 10
125.4753311416
 20
127.8963435683
 10
125.3386414542
 20
124.4125476669
 10
125.232320059
 20
120.9276928364
 10
125.1563779298
 20
117.442043713
 10
125.1108235144
 20
113.9558649861
 10
125.0956580796
 20
110.4694215539
 10
125.1108816247
 20
106.9829784013
 10
125.156494149
 20
103.4968005132
 10
125.1659788778
 20
102.9727505594
  0
LWPOLYLINE
  5
4BA
100
AcDbEntity
  8
0
100
AcDbPolyline
 62
253
  6
CONTINUOUS
 90
3
 70
0
 10
125.3115824009
 20
123.4848824924
 10
125.3176626434
 20
123.6003543967
 10
125.3209074974
 20
123.6581974924
  0
LWPOLYLINE
  5
4BB
100
AcDbEntity
  8
0
100
AcDbPolyline
 62
253
  6
CONTINUOUS
 90
3
 70
0
 10
125.2907225453
 20
122.4745144924
 10
125.2870909189
 20
122.416482142
 10
125.2802448271
 20
122.3006154924
  0
LINE
  5
4BC
100
AcDbEntity
  8
0
100
AcDbLine
 62
253
  6
CONTINUOUS
 10
125.2302661023
 20
119.9323724924
 11
125.232043189
 21
119.9594074924
  0
LWPOLYLINE
  5
4BD
100
AcDbEntity
  8
0
100
AcDbPolyline
 62
253
  6
CONTINUOUS
 90
8
 70
0
 10
125.3356893784
 20
123.6411004924
 10
125.3235152875
 20
123.4699680653
 10
125.3125281462
 20
123.2993774801
 10
125.3027248514
 20
123.1293406681
 10
125.2941023001
 20
122.9598695605
 10
125.2866573893
 20
122.7909760885
 10
125.2817456448
 20
122.6619011285
 10
125.2775221317
 20
122.5331565749
  0
LINE
  5
4BE
100
AcDbEntity
  8
0
100
AcDbLine
 62
253
  6
CONTINUOUS
 10
125.3132746083
 20
123.0728396988
 11
125.3289662901
 21
123.2859954924
  0
LWPOLYLINE
  5
4BF
100
AcDbEntity
  8
RACCORDO
100
AcDbPolyline
 62
253
  6
CONTINUOUS
 90
19
 70
0
 10
125.9899008496
 20
131.3028523837
 10
125.9966270867
 20
131.3883549536
 10
126.0094499238
 20
131.4731527331
 10
126.0283026346
 20
131.5568128689
 10
126.0530864097
 20
131.6389026019
 10
126.0836743344
 20
131.7190094509
 10
126.119916217
 20
131.7967417553
 10
126.1616336876
 20
131.8717072857
 10
126.2086137657
 20
131.9435158779
 10
126.2606160718
 20
132.0117984404
 10
126.3173775062
 20
132.0762042721
 10
126.3786107931
 20
132.1364031748
 10
126.4440027246
 20
132.1920861363
 10
126.5132235584
 20
132.2429677037
 10
126.5859202416
 20
132.2887843445
 10
126.6617146287
 20
132.3292972191
 10
126.7402165975
 20
132.3642961061
 10
126.8210304054
 20
132.3936031301
 10
126.9037486739
 20
132.4170691485
  0
LWPOLYLINE
  5
4C0
100
AcDbEntity
  8
0
100
AcDbPolyline
 62
253
  6
CONTINUOUS
 90
19
 70
0
 10
125.9899008496
 20
131.3028523837
 10
125.9966270867
 20
131.3883549536
 10
126.0094499238
 20
131.4731527331
 10
126.0283026346
 20
131.5568128689
 10
126.0530864097
 20
131.6389026019
 10
126.0836743344
 20
131.7190094509
 10
126.119916217
 20
131.7967417553
 10
126.1616336876
 20
131.8717072857
 10
126.2086137657
 20
131.9435158779
 10
126.2606160718
 20
132.0117984404
 10
126.3173775062
 20
132.0762042721
 10
126.3786107931
 20
132.1364031748
 10
126.4440027246
 20
132.1920861363
 10
126.5132235584
 20
132.2429677037
 10
126.5859202416
 20
132.2887843445
 10
126.6617146287
 20
132.3292972191
 10
126.7402165975
 20
132.3642961061
 10
126.8210304054
 20
132.3936031301
 10
126.9037486739
 20
132.4170691485
  0
LWPOLYLINE
  5
4C1
100
AcDbEntity
  8
RACCORDO
100
AcDbPolyline
 62
253
  6
CONTINUOUS
 90
22
 70
0
 10
126.4752158531
 20
131.2815126103
 10
126.4791864101
 20
131.3315419113
 10
126.4866280545
 20
131.380744565
 10
126.4975407864
 20
131.4291205716
 10
126.5120149978
 20
131.4769315768
 10
126.5299602967
 20
131.5239159347
 10
126.5511055072
 20
131.5692887083
 10
126.5754980569
 20
131.6130030851
 10
126.6030905182
 20
131.6551058774
 10
126.6334694321
 20
131.6949525848
 10
126.6666807717
 20
131.7325107557
 10
126.702678564
 20
131.7678128416
 10
126.7409114303
 20
131.8003116971
 10
126.7814138339
 20
131.8299622308
 10
126.8241513117
 20
131.8568095341
 10
126.8684690952
 20
131.8804417351
 10
126.9144143441
 20
131.90080973
 10
126.9619398989
 20
131.9179626227
 10
127.0102495121
 20
131.9316358531
 10
127.059077768
 20
131.9417412347
 10
127.1086900825
 20
131.9483669541
 10
127.1590864555
 20
131.9515130112
  0
LWPOLYLINE
  5
4C2
100
AcDbEntity
  8
0
100
AcDbPolyline
 62
253
  6
CONTINUOUS
 90
22
 70
0
 10
126.4752158531
 20
131.2815126103
 10
126.4791864101
 20
131.3315419113
 10
126.4866280545
 20
131.380744565
 10
126.4975407864
 20
131.4291205716
 10
126.5120149978
 20
131.4769315768
 10
126.5299602967
 20
131.5239159347
 10
126.5511055072
 20
131.5692887083
 10
126.5754980569
 20
131.6130030851
 10
126.6030905182
 20
131.6551058774
 10
126.6334694321
 20
131.6949525848
 10
126.6666807717
 20
131.7325107557
 10
126.702678564
 20
131.7678128416
 10
126.7409114303
 20
131.8003116971
 10
126.7814138339
 20
131.8299622308
 10
126.8241513117
 20
131.8568095341
 10
126.8684690952
 20
131.8804417351
 10
126.9144143441
 20
131.90080973
 10
126.9619398989
 20
131.9179626227
 10
127.0102495121
 20
131.9316358531
 10
127.059077768
 20
131.9417412347
 10
127.1086900825
 20
131.9483669541
 10
127.1590864555
 20
131.9515130112
  0
LINE
  5
4C3
100
AcDbEntity
  8
0
100
AcDbLine
 62
253
  6
CONTINUOUS
 10
125.3365130333
 20
123.6482604924
 11
125.3356893784
 21
123.6411004924
  0
LINE
  5
4C4
100
AcDbEntity
  8
0
100
AcDbLine
 62
253
  6
CONTINUOUS
 10
125.2597475722
 20
107.57276933
 11
125.2329570424
 21
107.5727413193
  0
LINE
  5
4C5
100
AcDbEntity
  8
0
100
AcDbLine
 62
253
  6
CONTINUOUS
 10
125.1870790405
 20
107.5727717388
 11
125.1566895638
 21
107.5727399694
  0
LINE
  5
4C6
100
AcDbEntity
  8
0
100
AcDbLine
 62
253
  6
CONTINUOUS
 10
125.1082635496
 20
107.5727569451
 11
125.1061707495
 21
107.5727547577
  0
LINE
  5
4C7
100
AcDbEntity
  8
0
100
AcDbLine
 62
253
  6
CONTINUOUS
 10
125.1337365219
 20
108.572750248
 11
125.1481570197
 21
108.5727601992
  0
LINE
  5
4C8
100
AcDbEntity
  8
0
100
AcDbLine
 62
253
  6
CONTINUOUS
 10
125.2696728265
 20
107.5108501908
 11
125.2597476696
 21
107.5727550265
  0
LWPOLYLINE
  5
4C9
100
AcDbEntity
  8
DRAFT
100
AcDbPolyline
 62
7
  6
CONTINUOUS
 90
8
 70
0
 10
125.1916098377
 20
102.9421853771
 10
125.1974385245
 20
102.904342946
 10
125.2039940489
 20
102.8511631118
 10
125.2112374453
 20
102.7829570717
 10
125.2190522642
 20
102.7006580772
 10
125.2274011607
 20
102.6042289241
 10
125.2362685343
 20
102.4937071612
 10
125.2455437689
 20
102.370138101
  0
LWPOLYLINE
  5
4CA
100
AcDbEntity
  8
0
100
AcDbPolyline
 62
7
  6
CONTINUOUS
 90
4
 70
0
 10
125.1916098377
 20
102.9421853771
 10
125.1974385245
 20
102.904342946
 10
125.2039940489
 20
102.8511631118
 10
125.2112374453
 20
102.7829570717
  0
LWPOLYLINE
  5
4CB
100
AcDbEntity
  8
0
100
AcDbPolyline
 62
7
  6
CONTINUOUS
 90
4
 70
0
 10
125.4008967329
 20
98.9596310782
 10
125.4002665191
 20
98.9644829285
 10
125.3998504406
 20
98.9691106156
 10
125.3998298685
 20
98.972754636
  0
LWPOLYLINE
  5
4CC
100
AcDbEntity
  8
0
100
AcDbPolyline
 62
7
  6
CONTINUOUS
 90
5
 70
0
 10
125.204328169
 20
102.8486917842
 10
125.2005619249
 20
102.880678309
 10
125.1969601528
 20
102.9082179784
 10
125.1935411152
 20
102.9311378373
 10
125.1903307341
 20
102.9492016837
  0
LWPOLYLINE
  5
4CD
100
AcDbEntity
  8
RACCORDO
100
AcDbPolyline
 62
253
  6
CONTINUOUS
 90
10
 70
0
 10
126.4752158318
 20
89.6639974449
 10
126.2989523671
 20
94.2862638122
 10
126.1667547663
 20
98.9094810712
 10
126.0786230294
 20
103.5336492219
 10
126.0345571527
 20
108.1594021251
 10
126.0345571399
 20
112.7861059199
 10
126.0786230024
 20
117.4118590241
 10
126.166754744
 20
122.0360275769
 10
126.2989523609
 20
126.6592454389
 10
126.4752158531
 20
131.2815126103
  0
LWPOLYLINE
  5
4CE
100
AcDbEntity
  8
0
100
AcDbPolyline
 62
253
  6
CONTINUOUS
 90
10
 70
0
 10
126.4752158318
 20
89.6639974449
 10
126.2989523671
 20
94.2862638122
 10
126.1667547663
 20
98.9094810712
 10
126.0786230294
 20
103.5336492219
 10
126.0345571527
 20
108.1594021251
 10
126.0345571399
 20
112.7861059199
 10
126.0786230024
 20
117.4118590241
 10
126.166754744
 20
122.0360275769
 10
126.2989523609
 20
126.6592454389
 10
126.4752158531
 20
131.2815126103
  0
LINE
  5
4CF
100
AcDbEntity
  8
0
100
AcDbLine
 62
7
  6
CONTINUOUS
 10
125.4241306108
 20
97.9071036296
 11
125.4314175896
 21
97.421241947
  0
LINE
  5
4D0
100
AcDbEntity
  8
DRAFT
100
AcDbLine
 62
7
  6
CONTINUOUS
 10
125.4245330771
 20
97.8829376694
 11
125.4340082163
 21
97.1987534532
  0
LINE
  5
4D1
100
AcDbEntity
  8
0
100
AcDbLine
 62
253
  6
CONTINUOUS
 10
125.3201044513
 20
105.3441836145
 11
125.3138704152
 21
105.9013264772
  0
LINE
  5
4D2
100
AcDbEntity
  8
0
100
AcDbLine
 62
7
  6
CONTINUOUS
 10
125.4309844899
 20
97.4575125623
 11
125.436056576
 21
96.9818420067
  0
LWPOLYLINE
  5
4D3
100
AcDbEntity
  8
0
100
AcDbPolyline
 62
253
  6
CONTINUOUS
 90
4
 70
0
 10
125.2329569481
 20
107.5727550265
 10
125.2398137066
 20
106.7060710485
 10
125.2484532901
 20
105.8394031487
 10
125.2588756988
 20
104.9727550265
  0
LINE
  5
4D4
100
AcDbEntity
  8
0
100
AcDbLine
 62
253
  6
CONTINUOUS
 10
125.296347017
 20
106.6441835758
 11
125.2917636619
 21
107.2013264772
  0
LINE
  5
4D5
100
AcDbEntity
  8
DRAFT
100
AcDbLine
 62
7
  6
CONTINUOUS
 10
125.4340082163
 20
97.1987534532
 11
125.4386274042
 21
96.5695518773
  0
LINE
  5
4D6
100
AcDbEntity
  8
0
100
AcDbLine
 62
7
  6
CONTINUOUS
 10
125.4358543448
 20
97.0106950559
 11
125.4386274042
 21
96.5695518773
  0
LINE
  5
4D7
100
AcDbEntity
  8
DRAFT
100
AcDbLine
 62
7
  6
CONTINUOUS
 10
125.4386274042
 20
96.5695518773
 11
125.4392492606
 21
96.1956720209
  0
LINE
  5
4D8
100
AcDbEntity
  8
0
100
AcDbLine
 62
7
  6
CONTINUOUS
 10
125.4385817499
 20
96.5966966425
 11
125.4392492606
 21
96.1956720209
  0
LWPOLYLINE
  5
4D9
100
AcDbEntity
  8
0
100
AcDbPolyline
 62
253
  6
CONTINUOUS
 90
4
 70
0
 10
125.2110769933
 20
111.1727550265
 10
125.2105256178
 20
110.3060863964
 10
125.211766223
 20
109.4394184846
 10
125.2147988087
 20
108.5727550265
  0
LINE
  5
4DA
100
AcDbEntity
  8
DRAFT
100
AcDbLine
 62
7
  6
CONTINUOUS
 10
125.4392492606
 20
96.1956720209
 11
125.4381421416
 21
95.8632120798
  0
LINE
  5
4DB
100
AcDbEntity
  8
0
100
AcDbLine
 62
7
  6
CONTINUOUS
 10
125.4393133859
 20
96.2360628243
 11
125.4381421416
 21
95.8632120798
  0
LINE
  5
4DC
100
AcDbEntity
  8
0
100
AcDbLine
 62
253
  6
CONTINUOUS
 10
125.3382984129
 20
123.5751934924
 11
125.3389563615
 21
123.6482604924
  0
LWPOLYLINE
  5
4DD
100
AcDbEntity
  8
0
100
AcDbPolyline
 62
253
  6
CONTINUOUS
 90
3
 70
0
 10
125.1595948776
 20
105.3441836145
 10
125.1584546593
 20
105.2204223537
 10
125.1566732812
 20
104.9727550265
  0
LINE
  5
4DE
100
AcDbEntity
  8
0
100
AcDbLine
 62
7
  6
CONTINUOUS
 10
125.4366377457
 20
95.6652678718
 11
125.4384776009
 21
95.915948751
  0
LWPOLYLINE
  5
4DF
100
AcDbEntity
  8
DRAFT
100
AcDbPolyline
 62
7
  6
CONTINUOUS
 90
11
 70
0
 10
125.4381421416
 20
95.8632120798
 10
125.4355422533
 20
95.5759053159
 10
125.4337493527
 20
95.4522228751
 10
125.4316587248
 20
95.3415880565
 10
125.4293062403
 20
95.2450637957
 10
125.4266945251
 20
95.1626913491
 10
125.4238521101
 20
95.0944288854
 10
125.4208273097
 20
95.0412146278
 10
125.4176305056
 20
95.0033611488
 10
125.4142544365
 20
94.9805554626
 10
125.4107062217
 20
94.9727974732
  0
LINE
  5
4E0
100
AcDbEntity
  8
0
100
AcDbLine
 62
7
  6
CONTINUOUS
 10
125.4370102178
 20
95.7130345466
 11
125.4337493527
 21
95.4522228751
  0
LINE
  5
4E1
100
AcDbEntity
  8
0
100
AcDbLine
 62
7
  6
CONTINUOUS
 10
125.4343381876
 20
95.4833575765
 11
125.4316587248
 21
95.3415880565
  0
LINE
  5
4E2
100
AcDbEntity
  8
0
100
AcDbLine
 62
7
  6
CONTINUOUS
 10
125.4322535258
 20
95.3673414944
 11
125.4293062403
 21
95.2450637957
  0
LINE
  5
4E3
100
AcDbEntity
  8
0
100
AcDbLine
 62
253
  6
CONTINUOUS
 10
125.2001730464
 20
106.0870407519
 11
125.2104960661
 21
106.4584693786
  0
LWPOLYLINE
  5
4E4
100
AcDbEntity
  8
0
100
AcDbPolyline
 62
7
  6
CONTINUOUS
 90
7
 70
0
 10
125.4296834309
 20
95.2586000359
 10
125.4266945251
 20
95.1626913491
 10
125.4238521101
 20
95.0944288854
 10
125.4208273097
 20
95.0412146278
 10
125.4176305056
 20
95.0033611488
 10
125.4142544365
 20
94.9805554626
 10
125.4107062217
 20
94.9727974732
  0
LINE
  5
4E5
100
AcDbEntity
  8
0
100
AcDbLine
 62
7
  6
CONTINUOUS
 10
125.4266366113
 20
95.1603788724
 11
125.4282236268
 21
95.207874138
  0
LINE
  5
4E6
100
AcDbEntity
  8
0
100
AcDbLine
 62
253
  6
CONTINUOUS
 10
125.3044513032
 20
104.9727550265
 11
125.3201044513
 21
105.3441836145
  0
LINE
  5
4E7
100
AcDbEntity
  8
0
100
AcDbLine
 62
253
  6
CONTINUOUS
 10
125.2800348833
 20
106.2727550265
 11
125.296347017
 21
106.6441835758
  0
LINE
  5
4E8
100
AcDbEntity
  8
0
100
AcDbLine
 62
7
  6
CONTINUOUS
 10
125.4230065788
 20
95.0768447649
 11
125.4248981331
 21
95.1164370092
  0
LWPOLYLINE
  5
4E9
100
AcDbEntity
  8
0
100
AcDbPolyline
 62
7
  6
CONTINUOUS
 90
4
 70
0
 10
125.4002078497
 20
98.9850950604
 10
125.4003778076
 20
98.9885898768
 10
125.4002114566
 20
98.9905455968
 10
125.4000103363
 20
98.9923541796
  0
LWPOLYLINE
  5
4EA
100
AcDbEntity
  8
0
100
AcDbPolyline
 62
7
  6
CONTINUOUS
 90
4
 70
0
 10
125.4010896624
 20
98.9524565718
 10
125.4012023745
 20
98.9541810328
 10
125.4012739834
 20
98.9560435789
 10
125.4008967329
 20
98.9596310782
  0
LINE
  5
4EB
100
AcDbEntity
  8
0
100
AcDbLine
 62
7
  6
CONTINUOUS
 10
125.4187045284
 20
95.0135760952
 11
125.420954249
 21
95.0423457248
  0
LWPOLYLINE
  5
4EC
100
AcDbEntity
  8
0
100
AcDbPolyline
 62
253
  6
CONTINUOUS
 90
10
 70
0
 10
125.1783311538
 20
102.972781361
 10
125.0879292319
 20
102.0781575259
 10
125.0266829552
 20
101.1851935839
 10
124.9944930275
 20
100.2938407551
 10
124.9912550368
 20
99.4044505389
 10
125.0168477702
 20
98.5165848813
 10
125.071245668
 20
97.6292201519
 10
125.1544733801
 20
96.7423388779
 10
125.2664928691
 20
95.85673098
 10
125.4072841155
 20
94.9727862871
  0
LWPOLYLINE
  5
4ED
100
AcDbEntity
  8
0
100
AcDbPolyline
 62
253
  6
CONTINUOUS
 90
10
 70
0
 10
125.1820991905
 20
102.9727554871
 10
125.0913669484
 20
102.0767503624
 10
125.0299083487
 20
101.1832405512
 10
124.9975937836
 20
100.292000667
 10
124.9942872584
 20
99.4033186179
 10
125.0198321334
 20
98.5164723402
 10
125.074211516
 20
97.6299331317
 10
125.1574895565
 20
96.7433999824
 10
125.2696509039
 20
95.8576016569
 10
125.4107032232
 20
94.9727560341
  0
LWPOLYLINE
  5
4EE
100
AcDbEntity
  8
SUPERFICI
100
AcDbPolyline
 62
7
  6
CONTINUOUS
 90
10
 70
0
 10
125.1659788778
 20
102.9727505594
 10
125.0822654565
 20
102.1465442781
 10
125.0189390648
 20
101.2385069151
 10
124.9854396529
 20
100.3293604003
 10
124.9817764655
 20
99.4198517795
 10
125.0079551351
 20
98.5107348385
 10
125.0639064287
 20
97.6029854209
 10
125.149488174
 20
96.6977967402
 10
125.2645554624
 20
95.7963672424
 10
125.3960979478
 20
94.9727497236
  0
LINE
  5
4EF
100
AcDbEntity
  8
RACCORDO
100
AcDbLine
 62
253
  6
CONTINUOUS
 10
127.1566540077
 20
132.0553885889
 11
127.1590864555
 21
131.9515130112
  0
LINE
  5
4F0
100
AcDbEntity
  8
0
100
AcDbLine
 62
253
  6
CONTINUOUS
 10
127.1566540077
 20
132.0553885889
 11
127.1590864555
 21
131.9515130112
  0
LINE
  5
4F1
100
AcDbEntity
  8
RACCORDO
100
AcDbLine
 62
253
  6
CONTINUOUS
 10
127.1548993095
 20
132.1547282509
 11
127.1566540077
 21
132.0553885889
  0
LINE
  5
4F2
100
AcDbEntity
  8
0
100
AcDbLine
 62
253
  6
CONTINUOUS
 10
127.1548993095
 20
132.1547282509
 11
127.1566540077
 21
132.0553885889
  0
LINE
  5
4F3
100
AcDbEntity
  8
RACCORDO
100
AcDbLine
 62
253
  6
CONTINUOUS
 10
127.1536966556
 20
88.6596675914
 11
127.1543012903
 21
88.7441841666
  0
LINE
  5
4F4
100
AcDbEntity
  8
0
100
AcDbLine
 62
253
  6
CONTINUOUS
 10
127.1536966556
 20
88.6596675914
 11
127.1543012903
 21
88.7441841666
  0
LINE
  5
4F5
100
AcDbEntity
  8
RACCORDO
100
AcDbLine
 62
253
  6
CONTINUOUS
 10
127.1543012903
 20
88.7441841666
 11
127.1556863965
 21
88.8396086893
  0
LINE
  5
4F6
100
AcDbEntity
  8
0
100
AcDbLine
 62
253
  6
CONTINUOUS
 10
127.1543012903
 20
88.7441841666
 11
127.1556863965
 21
88.8396086893
  0
LWPOLYLINE
  5
4F7
100
AcDbEntity
  8
RACCORDO
100
AcDbPolyline
 62
253
  6
CONTINUOUS
 90
3
 70
0
 10
127.1556863965
 20
88.8396086893
 10
127.1577914818
 20
88.9417742668
 10
127.1590864155
 20
88.9939970428
  0
LWPOLYLINE
  5
4F8
100
AcDbEntity
  8
0
100
AcDbPolyline
 62
253
  6
CONTINUOUS
 90
3
 70
0
 10
127.1556863965
 20
88.8396086893
 10
127.1577914818
 20
88.9417742668
 10
127.1590864155
 20
88.9939970428
  0
LINE
  5
4F9
100
AcDbEntity
  8
0
100
AcDbLine
 62
7
  6
CONTINUOUS
 10
125.4162417866
 20
94.9915835061
 11
125.4187045284
 21
95.0135760952
  0
LINE
  5
4FA
100
AcDbEntity
  8
0
100
AcDbLine
 62
7
  6
CONTINUOUS
 10
125.413574678
 20
94.9775853022
 11
125.4162417866
 21
94.9915835061
  0
LINE
  5
4FB
100
AcDbEntity
  8
0
100
AcDbLine
 62
253
  6
CONTINUOUS
 10
125.1443316055
 20
111.1727531085
 11
125.1298886485
 21
111.1727567983
  0
LINE
  5
4FC
100
AcDbEntity
  8
0
100
AcDbLine
 62
253
  6
CONTINUOUS
 10
125.2457932003
 20
111.1727462215
 11
125.180943588
 21
111.1727627913
  0
LWPOLYLINE
  5
4FD
100
AcDbEntity
  8
0
100
AcDbPolyline
 62
253
  6
CONTINUOUS
 90
4
 70
0
 10
125.3303907379
 20
124.1739034924
 10
125.3304050343
 20
124.1738061592
 10
125.3304539984
 20
124.1737088259
 10
125.3305376302
 20
124.1736114924
  0
LINE
  5
4FE
100
AcDbEntity
  8
RACCORDO
100
AcDbLine
 62
7
  6
CONTINUOUS
 10
131.7956753356
 20
88.3727550265
 11
131.7956753356
 21
132.5727550265
  0
LINE
  5
4FF
100
AcDbEntity
  8
0
100
AcDbLine
 62
7
  6
CONTINUOUS
 10
131.7956753356
 20
88.3727550265
 11
131.7956753356
 21
132.5727550265
  0
LINE
  5
500
100
AcDbEntity
  8
0
100
AcDbLine
 62
7
  6
CONTINUOUS
 10
125.4107032232
 20
94.9727560341
 11
125.413574678
 21
94.9775853022
  0
LINE
  5
501
100
AcDbEntity
  8
0
100
AcDbLine
 62
253
  6
CONTINUOUS
 10
125.2106192238
 20
119.9323955548
 11
125.2302652829
 21
119.9323375236
  0
LINE
  5
502
100
AcDbEntity
  8
0
100
AcDbLine
 62
253
  6
CONTINUOUS
 10
125.2350371434
 20
120.3565730957
 11
125.2208661104
 21
120.3566161163
  0
LINE
  5
503
100
AcDbEntity
  8
0
100
AcDbLine
 62
253
  6
CONTINUOUS
 10
125.3389562248
 20
123.6482562986
 11
125.3365131672
 21
123.6482645961
  0
LINE
  5
504
100
AcDbEntity
  8
0
100
AcDbLine
 62
253
  6
CONTINUOUS
 10
125.3454445042
 20
124.5978366077
 11
125.3451459
 21
124.5978376196
  0
LWPOLYLINE
  5
505
100
AcDbEntity
  8
RACCORDO
100
AcDbPolyline
 62
253
  6
CONTINUOUS
 90
4
 70
0
 10
126.9037486739
 20
132.4170691485
 10
126.987951793
 20
132.4345713936
 10
127.0732093277
 20
132.4460161774
 10
127.1590864555
 20
132.4513416737
  0
LWPOLYLINE
  5
506
100
AcDbEntity
  8
0
100
AcDbPolyline
 62
253
  6
CONTINUOUS
 90
4
 70
0
 10
126.9037486739
 20
132.4170691485
 10
126.987951793
 20
132.4345713936
 10
127.0732093277
 20
132.4460161774
 10
127.1590864555
 20
132.4513416737
  0
LINE
  5
507
100
AcDbEntity
  8
RACCORDO
100
AcDbLine
 62
253
  6
CONTINUOUS
 10
127.1590864555
 20
131.9515130112
 11
131.7956753356
 21
132.072926364
  0
LINE
  5
508
100
AcDbEntity
  8
0
100
AcDbLine
 62
253
  6
CONTINUOUS
 10
127.1590864555
 20
131.9515130112
 11
131.7956753356
 21
132.072926364
  0
LINE
  5
509
100
AcDbEntity
  8
RACCORDO
100
AcDbLine
 62
7
  6
CONTINUOUS
 10
126.8057684136
 20
132.4420897152
 11
131.7956753356
 21
132.5727550265
  0
LINE
  5
50A
100
AcDbEntity
  8
0
100
AcDbLine
 62
7
  6
CONTINUOUS
 10
126.8057684136
 20
132.4420897152
 11
131.7956753356
 21
132.5727550265
  0
LINE
  5
50B
100
AcDbEntity
  8
RACCORDO
100
AcDbLine
 62
253
  6
CONTINUOUS
 10
125.9899008381
 20
131.3028523844
 11
125.6385211869
 21
131.3049901822
  0
LINE
  5
50C
100
AcDbEntity
  8
0
100
AcDbLine
 62
253
  6
CONTINUOUS
 10
125.9899008381
 20
131.3028523844
 11
125.6385211869
 21
131.3049901822
  0
LWPOLYLINE
  5
50D
100
AcDbEntity
  8
RACCORDO
100
AcDbPolyline
 62
253
  6
CONTINUOUS
 90
4
 70
0
 10
125.9899142241
 20
131.3028518344
 10
125.9956405297
 20
131.3025513163
 10
126.0061403444
 20
131.3020469507
 10
126.4752158531
 20
131.2815126103
  0
LWPOLYLINE
  5
50E
100
AcDbEntity
  8
0
100
AcDbPolyline
 62
253
  6
CONTINUOUS
 90
4
 70
0
 10
125.9899142241
 20
131.3028518344
 10
125.9956405297
 20
131.3025513163
 10
126.0061403444
 20
131.3020469507
 10
126.4752158531
 20
131.2815126103
  0
ARC
  5
50F
100
AcDbEntity
  8
RACCORDO
100
AcDbCircle
 62
7
  6
CONTINUOUS
 10
126.8368927203
 20
89.7030166701
 40
1.2
100
AcDbArc
 50
182.9853521812
 51
268.5
  0
ARC
  5
510
100
AcDbEntity
  8
RACCORDO
100
AcDbCircle
 62
7
  6
CONTINUOUS
 10
126.8368927195
 20
131.2424933828
 40
1.2
100
AcDbArc
 50
91.5
 51
177.014647819
  0
ARC
  5
511
100
AcDbEntity
  8
0
100
AcDbCircle
 62
7
  6
CONTINUOUS
 10
126.8368927195
 20
131.2424933828
 40
1.2
100
AcDbArc
 50
91.5
 51
177.014647819
  0
ARC
  5
512
100
AcDbEntity
  8
0
100
AcDbCircle
 62
7
  6
CONTINUOUS
 10
126.8368927203
 20
89.7030166701
 40
1.2
100
AcDbArc
 50
182.9853521812
 51
268.5
  0
ELLIPSE
  5
513
100
AcDbEntity
  8
RACCORDO
100
AcDbEllipse
 62
7
  6
CONTINUOUS
 10
162.1143517656
 20
88.8729264227
 30
0.0
 11
0.35379574
 21
0.35379574
 31
0.0
 40
0.999315002
 41
-3.9266482006
 42
-2.3565371065
  0
ELLIPSE
  5
514
100
AcDbEntity
  8
RACCORDO
100
AcDbEllipse
 62
7
  6
CONTINUOUS
 10
183.1140089731
 20
88.8729264227
 30
0.0
 11
-0.35379574
 21
0.35379574
 31
0.0
 40
0.999315002
 41
-3.9266482006
 42
-2.3565371065
  0
ELLIPSE
  5
515
100
AcDbEntity
  8
RACCORDO
100
AcDbEllipse
 62
7
  6
CONTINUOUS
 10
183.1140089731
 20
132.0725836303
 30
0.0
 11
0.35379574
 21
0.35379574
 31
0.0
 40
0.999315002
 41
-0.7850555471
 42
0.7850555471
  0
ELLIPSE
  5
516
100
AcDbEntity
  8
RACCORDO
100
AcDbEllipse
 62
7
  6
CONTINUOUS
 10
162.1143517656
 20
132.0725836303
 30
0.0
 11
0.35379574
 21
-0.35379574
 31
0.0
 40
0.999315002
 41
2.3565371065
 42
3.9266482006
  0
ELLIPSE
  5
517
100
AcDbEntity
  8
0
100
AcDbEllipse
 62
7
  6
CONTINUOUS
 10
162.1143517656
 20
88.8729264227
 30
0.0
 11
0.35379574
 21
0.35379574
 31
0.0
 40
0.999315002
 41
-3.9266482006
 42
-2.3565371065
  0
ELLIPSE
  5
518
100
AcDbEntity
  8
0
100
AcDbEllipse
 62
7
  6
CONTINUOUS
 10
183.1140089731
 20
88.8729264227
 30
0.0
 11
-0.35379574
 21
0.35379574
 31
0.0
 40
0.999315002
 41
-3.9266482006
 42
-2.3565371065
  0
ELLIPSE
  5
519
100
AcDbEntity
  8
0
100
AcDbEllipse
 62
7
  6
CONTINUOUS
 10
183.1140089731
 20
132.0725836303
 30
0.0
 11
0.35379574
 21
0.35379574
 31
0.0
 40
0.999315002
 41
-0.7850555471
 42
0.7850555471
  0
ELLIPSE
  5
51A
100
AcDbEntity
  8
0
100
AcDbEllipse
 62
7
  6
CONTINUOUS
 10
162.1143517656
 20
132.0725836303
 30
0.0
 11
0.35379574
 21
-0.35379574
 31
0.0
 40
0.999315002
 41
2.3565371065
 42
3.9266482006
  0
ENDSEC
  0
SECTION
  2
OBJECTS
  0
DICTIONARY
  5
C
100
AcDbDictionary
280
0
281
1
  3
ACAD_GROUP
350
D
  3
ACAD_MLINESTYLE
350
17
  3
ACAD_LAYOUT
350
1A
  3
ACAD_PLOTSETTINGS
350
19
  3
ACAD_PLOTSTYLENAME
350
E
  0
DICTIONARY
  5
D
102
{ACAD_REACTORS
330
C
102
}
100
AcDbDictionary
280
0
281
1
  0
ACDBDICTIONARYWDFLT
  5
E
102
{ACAD_REACTORS
330
C
102
}
100
AcDbDictionary
281
1
  3
Normal
350
F
100
AcDbDictionaryWithDefault
340
F
  0
DICTIONARY
  5
17
102
{ACAD_REACTORS
330
C
102
}
100
AcDbDictionary
280
0
281
1
  3
Standard
350
18
  0
DICTIONARY
  5
19
102
{ACAD_REACTORS
330
C
102
}
100
AcDbDictionary
281
1
  0
DICTIONARY
  5
1A
102
{ACAD_REACTORS
330
C
102
}
100
AcDbDictionary
281
1
  3
Model
350
51B
  3
Layout1
350
51C
  0
ACDBPLACEHOLDER
  5
F
102
{ACAD_REACTORS
330
E
102
}
  0
MLINESTYLE
  5
18
102
{ACAD_REACTORS
330
17
102
}
100
AcDbMlineStyle
  2
STANDARD
 70
0
  3

 62
256
 51
90.0
 52
90.0
 71
2
 49
0.5
 62
256
  6
BYLAYER
 49
-0.5
 62
256
  6
BYLAYER
  0
LAYOUT
  5
51B
102
{ACAD_REACTORS
330
1A
102
}
100
AcDbPlotSettings
  1

  2
none_device
  4
ISO_A4_(297.00_x_210.00_MM)
  6

 40
0.0
 41
0.0
 42
0.0
 43
0.0
 44
297.0
 45
210.0
 46
0.0
 47
0.0
 48
0.0
 49
0.0
140
0.0
141
0.0
142
1.0
143
1.0
 70
1024
 72
1
 73
0
 74
0
  7

 75
0
147
1.0
148
0.0
149
0.0
100
AcDbLayout
  1
Model
 70
0
 71
0
 10
0.0
 20
0.0
 11
297.0
 21
210.0
 12
0.0
 22
0.0
 32
0.0
 14
0.0
 24
0.0
 34
0.0
 15
0.0
 25
0.0
 35
0.0
146
0.0
 13
0.0
 23
0.0
 33
0.0
 16
1.0
 26
0.0
 36
0.0
 17
0.0
 27
1.0
 37
0.0
 76
0
330
218
345
0
346
0
  0
LAYOUT
  5
51C
102
{ACAD_REACTORS
330
1A
102
}
100
AcDbPlotSettings
  1

  2
none_device
  4
ISO_A4_(297.00_x_210.00_MM)
  6

 40
0.0
 41
0.0
 42
0.0
 43
0.0
 44
297.0
 45
210.0
 46
0.0
 47
0.0
 48
0.0
 49
0.0
140
0.0
141
0.0
142
1.0
143
1.0
 70
0
 72
1
 73
0
 74
0
  7

 75
0
147
1.0
148
0.0
149
0.0
100
AcDbLayout
  1
Layout1
 70
0
 71
1
 10
0.0
 20
0.0
 11
297.0
 21
210.0
 12
0.0
 22
0.0
 32
0.0
 14
0.0
 24
0.0
 34
0.0
 15
0.0
 25
0.0
 35
0.0
146
0.0
 13
0.0
 23
0.0
 33
0.0
 16
1.0
 26
0.0
 36
0.0
 17
0.0
 27
1.0
 37
0.0
 76
0
330
219
345
0
346
0
  0
ENDSEC
  0
EOF
