  0
SECTION
  2
HEADER
  9
$ACADVER
  1
AC1021
  9
$DWGCODEPAGE
  3
ANSI_1252
  9
$EXTMAX
 10
297.0
 20
210.0
 30
0.0
  9
$EXTMIN
 10
0.0
 20
0.0
 30
0.0
  9
$LIMMIN
 10
0.0
 20
0.0
  9
$LIMMAX
 10
297.0
 20
210.0
  9
$VIEWCTR
 10
148.5
 20
105.0
  9
$VIEWSIZE
 40
210.0
  9
$CLAYER
  8
0
  9
$LTSCALE
 40
16.335
  9
$CELTYPE
  6
BYLAYER
  9
$DIMSCALE
 40
1.0
  9
$DIMASZ
 40
3.0
  9
$DIMEXO
 40
0.5
  9
$DIMDLI
 40
11.286
  9
$DIMEXE
 40
1.5
  9
$DIMCEN
 40
2.673
  9
$DIMLFAC
 40
1.0
  9
$DIMBLK
  1
_FILLED
  9
$DIMALT
 70
0
  9
$DIMALTF
 40
0.0393700787
  9
$DIMTXT
 40
3.0
  9
$DIMTOL
 70
1
  9
$DIMLIM
 70
0
  9
$DIMTFAC
 40
1.0
  9
$DIMTP
 40
0.01
  9
$DIMTM
 40
0.01
  9
$DIMGAP
 40
0.625
  9
$DIMDSEP
 70
44
  9
$AUNITS
 70
0
  9
$PDMODE
 70
3
  9
$PDSIZE
 40
3.0
  9
$HANDSEED
  5
5A1
  9
$TILEMODE
 70
1
  9
$MEASUREMENT
 70
1
  9
$INSUNITS
 70
4
  0
ENDSEC
  0
SECTION
  2
CLASSES
  0
CLASS
  1
ACDBDICTIONARYWDFLT
  2
AcDbDictionaryWithDefault
  3
AutoCAD 2000
 90
0
 91
1
280
0
281
0
  0
CLASS
  1
ACDBPLACEHOLDER
  2
AcDbPlaceHolder
  3
AutoCAD 2000
 90
0
 91
1
280
0
281
0
  0
CLASS
  1
LAYOUT
  2
AcDbLayout
  3
AutoCAD 2000
 90
0
 91
0
280
0
281
0
  0
ENDSEC
  0
SECTION
  2
TABLES
  0
TABLE
  2
VPORT
  5
8
100
AcDbSymbolTable
 70
2
  0
VPORT
  5
1F4
100
AcDbSymbolTableRecord
100
AcDbViewportTableRecord
  2
*ACTIVE
 70
0
 10
0.0
 20
0.0
 11
1.0
 21
1.0
 12
148.5
 22
105.0
 13
0.0
 23
0.0
 14
1.0
 24
1.0
 15
0.0
 25
0.0
 16
0.0
 26
0.0
 36
1.0
 17
0.0
 27
0.0
 37
0.0
 40
210.0
 41
1.4142857143
 42
50.0
 43
0.0
 44
0.0
 50
0.0
 51
0.0
 71
0
 72
100
 73
1
 74
1
 75
0
 76
0
 77
0
 78
0
  0
ENDTAB
  0
TABLE
  2
LTYPE
  5
5
100
AcDbSymbolTable
 70
6
  0
LTYPE
  5
14
100
AcDbSymbolTableRecord
100
AcDbLinetypeTableRecord
  2
BYBLOCK
 70
0
  3

 72
65
 73
0
 40
0.0
  0
LTYPE
  5
15
100
AcDbSymbolTableRecord
100
AcDbLinetypeTableRecord
  2
BYLAYER
 70
0
  3

 72
65
 73
0
 40
0.0
  0
LTYPE
  5
16
100
AcDbSymbolTableRecord
100
AcDbLinetypeTableRecord
  2
CONTINUOUS
 70
64
  3
Solid line
 72
65
 73
0
 40
0.0
  0
LTYPE
  5
1F5
100
AcDbSymbolTableRecord
100
AcDbLinetypeTableRecord
  2
CENTER
 70
64
  3
____ _ ____ _ ____ _ ____ _ ____ _ ____ _ ____
 72
65
 73
4
 40
0.6
 49
0.375
 74
0
 49
-0.075
 74
0
 49
0.075
 74
0
 49
-0.075
 74
0
  0
LTYPE
  5
1F6
100
AcDbSymbolTableRecord
100
AcDbLinetypeTableRecord
  2
HIDDEN
 70
64
  3
- - - - - - - - - - - - - - - - - - - -
 72
65
 73
2
 40
0.2
 49
0.1
 74
0
 49
-0.1
 74
0
  0
LTYPE
  5
1F7
100
AcDbSymbolTableRecord
100
AcDbLinetypeTableRecord
  2
PHANTOM
 70
64
  3
_____ _ _ _____ _ _ _____ _ _ _____
 72
65
 73
6
 40
0.8
 49
0.45
 74
0
 49
-0.05
 74
0
 49
0.1
 74
0
 49
-0.05
 74
0
 49
0.1
 74
0
 49
-0.05
 74
0
  0
LTYPE
  5
1F8
100
AcDbSymbolTableRecord
100
AcDbLinetypeTableRecord
  2
DOT
 70
64
  3
. . . . . . . . . . . . . . . . . . . .
 72
65
 73
2
 40
0.2
 49
0.1
 74
0
 49
-0.1
 74
0
  0
LTYPE
  5
1F9
100
AcDbSymbolTableRecord
100
AcDbLinetypeTableRecord
  2
DASHED
 70
64
  3
- - - - - - - - - - - - - - - - - - - -
 72
65
 73
2
 40
0.2
 49
0.1
 74
0
 49
-0.1
 74
0
  0
ENDTAB
  0
TABLE
  2
LAYER
  5
2
100
AcDbSymbolTable
 70
36
  0
LAYER
  5
10
100
AcDbSymbolTableRecord
100
AcDbLayerTableRecord
  2
0
 70
0
 62
7
  6
CONTINUOUS
370
-3
390
F
  0
LAYER
  5
1FA
100
AcDbSymbolTableRecord
100
AcDbLayerTableRecord
  2
DEFAULT_1
 70
0
 62
7
  6
CENTER
370
-3
390
F
  0
LAYER
  5
1FB
100
AcDbSymbolTableRecord
100
AcDbLayerTableRecord
  2
DEFAULT_2
 70
0
 62
7
  6
HIDDEN
370
-3
390
F
  0
LAYER
  5
1FC
100
AcDbSymbolTableRecord
100
AcDbLayerTableRecord
  2
DEFAULT_3
 70
0
 62
7
  6
PHANTOM
370
-3
390
F
  0
LAYER
  5
1FD
100
AcDbSymbolTableRecord
100
AcDbLayerTableRecord
  2
ASSI
 70
0
 62
7
  6
CONTINUOUS
370
-3
390
F
  0
LAYER
  5
1FE
100
AcDbSymbolTableRecord
100
AcDbLayerTableRecord
  2
COORDINATE
 70
0
 62
7
  6
CONTINUOUS
370
-3
390
F
  0
LAYER
  5
1FF
100
AcDbSymbolTableRecord
100
AcDbLayerTableRecord
  2
COPY_PUBLISH
 70
0
 62
7
  6
CONTINUOUS
370
-3
390
F
  0
LAYER
  5
200
100
AcDbSymbolTableRecord
100
AcDbLayerTableRecord
  2
COSMETIC
 70
0
 62
7
  6
CONTINUOUS
370
-3
390
F
  0
LAYER
  5
201
100
AcDbSymbolTableRecord
100
AcDbLayerTableRecord
  2
COSMETICI
 70
0
 62
7
  6
CONTINUOUS
370
-3
390
F
  0
LAYER
  5
202
100
AcDbSymbolTableRecord
100
AcDbLayerTableRecord
  2
CURVE
 70
0
 62
7
  6
CONTINUOUS
370
-3
390
F
  0
LAYER
  5
203
100
AcDbSymbolTableRecord
100
AcDbLayerTableRecord
  2
DRAFT
 70
0
 62
7
  6
CONTINUOUS
370
-3
390
F
  0
LAYER
  5
204
100
AcDbSymbolTableRecord
100
AcDbLayerTableRecord
  2
IMPORT_IGES
 70
0
 62
7
  6
CONTINUOUS
370
-3
390
F
  0
LAYER
  5
205
100
AcDbSymbolTableRecord
100
AcDbLayerTableRecord
  2
INTFCLR_11
 70
0
 62
7
  6
CONTINUOUS
370
-3
390
F
  0
LAYER
  5
206
100
AcDbSymbolTableRecord
100
AcDbLayerTableRecord
  2
INTF_1
 70
0
 62
7
  6
CONTINUOUS
370
-3
390
F
  0
LAYER
  5
207
100
AcDbSymbolTableRecord
100
AcDbLayerTableRecord
  2
INTF_3
 70
0
 62
7
  6
CONTINUOUS
370
-3
390
F
  0
LAYER
  5
208
100
AcDbSymbolTableRecord
100
AcDbLayerTableRecord
  2
INTF_6
 70
0
 62
7
  6
CONTINUOUS
370
-3
390
F
  0
LAYER
  5
209
100
AcDbSymbolTableRecord
100
AcDbLayerTableRecord
  2
INTF_MAGENTA
 70
0
 62
7
  6
CONTINUOUS
370
-3
390
F
  0
LAYER
  5
20A
100
AcDbSymbolTableRecord
100
AcDbLayerTableRecord
  2
NOTE
 70
0
 62
7
  6
CONTINUOUS
370
-3
390
F
  0
LAYER
  5
20B
100
AcDbSymbolTableRecord
100
AcDbLayerTableRecord
  2
PIANI
 70
0
 62
7
  6
CONTINUOUS
370
-3
390
F
  0
LAYER
  5
20C
100
AcDbSymbolTableRecord
100
AcDbLayerTableRecord
  2
PUNTI
 70
0
 62
7
  6
CONTINUOUS
370
-3
390
F
  0
LAYER
  5
20D
100
AcDbSymbolTableRecord
100
AcDbLayerTableRecord
  2
RACCORDO
 70
0
 62
7
  6
CONTINUOUS
370
-3
390
F
  0
LAYER
  5
20E
100
AcDbSymbolTableRecord
100
AcDbLayerTableRecord
  2
SIMBOLI
 70
0
 62
7
  6
CONTINUOUS
370
-3
390
F
  0
LAYER
  5
20F
100
AcDbSymbolTableRecord
100
AcDbLayerTableRecord
  2
SMUSSO
 70
0
 62
7
  6
CONTINUOUS
370
-3
390
F
  0
LAYER
  5
210
100
AcDbSymbolTableRecord
100
AcDbLayerTableRecord
  2
SNAPLINE
 70
0
 62
7
  6
CONTINUOUS
370
-3
390
F
  0
LAYER
  5
211
100
AcDbSymbolTableRecord
100
AcDbLayerTableRecord
  2
STANDARD
 70
0
 62
7
  6
CONTINUOUS
370
-3
390
F
  0
LAYER
  5
212
100
AcDbSymbolTableRecord
100
AcDbLayerTableRecord
  2
SUPERFICI
 70
0
 62
7
  6
CONTINUOUS
370
-3
390
F
  0
LAYER
  5
213
100
AcDbSymbolTableRecord
100
AcDbLayerTableRecord
  2
TRASH
 70
0
 62
7
  6
CONTINUOUS
370
-3
390
F
  0
LAYER
  5
214
100
AcDbSymbolTableRecord
100
AcDbLayerTableRecord
  2
XSEC_DATUMS
 70
0
 62
7
  6
CONTINUOUS
370
-3
390
F
  0
LAYER
  5
215
100
AcDbSymbolTableRecord
100
AcDbLayerTableRecord
  2
___SHELL
 70
0
 62
7
  6
CONTINUOUS
370
-3
390
F
  0
ENDTAB
  0
TABLE
  2
STYLE
  5
3
100
AcDbSymbolTable
 70
1
  0
STYLE
  5
11
100
AcDbSymbolTableRecord
100
AcDbTextStyleTableRecord
  2
STANDARD
 70
0
 40
0.0
 41
0.8
 50
0.0
 71
0
 42
0.2
  3
txt
  4

  0
STYLE
  5
216
100
AcDbSymbolTableRecord
100
AcDbTextStyleTableRecord
  2
TEXTSTYLE_1
 70
0
 40
0.0
 41
0.8
 50
0.0
 71
0
 42
0.2
  3
gdt
  4

  0
ENDTAB
  0
TABLE
  2
VIEW
  5
6
100
AcDbSymbolTable
 70
0
  0
ENDTAB
  0
TABLE
  2
UCS
  5
7
100
AcDbSymbolTable
 70
0
  0
ENDTAB
  0
TABLE
  2
APPID
  5
9
100
AcDbSymbolTable
 70
1
  0
APPID
  5
217
100
AcDbSymbolTableRecord
100
AcDbRegAppTableRecord
  2
ACAD
 70
0
  0
ENDTAB
  0
TABLE
  2
BLOCK_RECORD
  5
1
100
AcDbSymbolTable
 70
0
  0
BLOCK_RECORD
  5
218
100
AcDbSymbolTableRecord
100
AcDbBlockTableRecord
  2
*Model_Space
  0
BLOCK_RECORD
  5
219
100
AcDbSymbolTableRecord
100
AcDbBlockTableRecord
  2
*Paper_Space
  0
BLOCK_RECORD
  5
21A
100
AcDbSymbolTableRecord
100
AcDbBlockTableRecord
  2
_FILLED
  0
BLOCK_RECORD
  5
21B
100
AcDbSymbolTableRecord
100
AcDbBlockTableRecord
  2
*D0
  0
BLOCK_RECORD
  5
21C
100
AcDbSymbolTableRecord
100
AcDbBlockTableRecord
  2
*D1
  0
BLOCK_RECORD
  5
21D
100
AcDbSymbolTableRecord
100
AcDbBlockTableRecord
  2
*D2
  0
ENDTAB
  0
TABLE
  2
DIMSTYLE
  5
A
100
AcDbSymbolTable
 70
1
100
AcDbDimStyleTable
 71
0
  0
DIMSTYLE
105
21E
100
AcDbSymbolTableRecord
100
AcDbDimStyleTableRecord
  2
STANDARD
 70
0
  3

  4

 40
1.0
 41
3.0
 42
0.5
 43
0.38
 44
1.5
 45
0.0
 46
0.0
 47
0.01
 48
0.01
140
3.0
141
0.09
142
0.0
143
25.4
144
1.0
145
0.0
146
1.0
147
0.625
 71
1.0
 72
0.0
 73
0
 74
0
 75
0
 76
0
 77
1
 78
8
170
0
171
2
172
0
173
0
174
0
175
0
176
0
177
0
178
0
270
2
271
2
272
2
273
2
274
2
275
0
280
0
281
0
282
0
283
1
284
8
285
0
286
0
287
3
288
0
340
11
278
44
341
21A
342
21A
343
21A
344
21A
  0
DIMSTYLE
105
21F
100
AcDbSymbolTableRecord
100
AcDbDimStyleTableRecord
  2
DIMSTYLE_1
 70
0
  3

  4

 40
1.0
 41
3.0
 42
0.5
 43
0.38
 44
1.5
 45
0.0
 46
0.0
 47
0.0
 48
0.0
140
3.0
141
0.09
142
0.0
143
25.4
144
1.0
145
0.0
146
1.0
147
0.75
 71
0.0
 72
0.0
 73
0
 74
0
 75
0
 76
0
 77
1
 78
8
170
0
171
2
172
0
173
0
174
0
175
0
176
0
177
0
178
0
270
2
271
2
272
2
273
2
274
2
275
0
280
0
281
0
282
0
283
1
284
8
285
0
286
0
287
3
288
0
340
11
278
44
341
21A
342
21A
343
21A
344
21A
  0
ENDTAB
  0
ENDSEC
  0
SECTION
  2
BLOCKS
  0
BLOCK
  5
20
100
AcDbEntity
  8
0
100
AcDbBlockBegin
  2
*Model_Space
 70
0
 10
0.0
 20
0.0
 30
0.0
  3
*Model_Space
  1

  0
ENDBLK
  5
21
100
AcDbEntity
  8
0
100
AcDbBlockEnd
  0
BLOCK
  5
1C
100
AcDbEntity
  8
0
100
AcDbBlockBegin
  2
*Paper_Space
 70
0
 10
0.0
 20
0.0
 30
0.0
  3
*Paper_Space
  1

  0
ENDBLK
  5
1D
100
AcDbEntity
  8
0
100
AcDbBlockEnd
  0
BLOCK
  5
220
100
AcDbEntity
  8
0
100
AcDbBlockBegin
  2
_FILLED
 70
64
 10
0.0
 20
0.0
  3
_FILLED
  1

  0
SOLID
  5
221
100
AcDbEntity
  8
0
  6
BYBLOCK
 62
0
100
AcDbTrace
 10
0.0
 20
0.0
 11
-1.0
 21
0.3166666667
 12
-1.0
 22
-0.3166666667
 13
-1.0
 23
-0.3166666667
  0
ENDBLK
  5
222
100
AcDbEntity
  8
0
  6
BYBLOCK
 62
0
100
AcDbBlockEnd
  0
BLOCK
  5
223
100
AcDbEntity
  8
0
100
AcDbBlockBegin
 62
7
  6
CONTINUOUS
  2
*D0
 70
65
 10
0.0
 20
0.0
  3
*D0
  1

  0
MTEXT
  5
224
100
AcDbEntity
  8
0
100
AcDbMText
 62
7
  6
CONTINUOUS
  7
STANDARD
 71
2
 72
1
 10
179.9537640911
 20
102.5003117207
 30
0.0
 11
0.0
 21
1.0
 31
0.0
 44
0.9
  1
44,2
 40
3.0
 41
13.1785714286
  0
LINE
  5
225
100
AcDbEntity
  8
0
100
AcDbLine
 62
7
  6
CONTINUOUS
 10
174.029609461
 20
124.6003117207
 11
185.2037640911
 21
124.6003117207
  0
LINE
  5
226
100
AcDbEntity
  8
0
100
AcDbLine
 62
7
  6
CONTINUOUS
 10
174.029609461
 20
80.4003117207
 11
185.2037640911
 21
80.4003117207
  0
LINE
  5
227
100
AcDbEntity
  8
0
100
AcDbLine
 62
7
  6
CONTINUOUS
 10
183.7037640911
 20
124.6003117207
 11
183.7037640911
 21
102.5003117207
  0
LINE
  5
228
100
AcDbEntity
  8
0
100
AcDbLine
 62
7
  6
CONTINUOUS
 10
183.7037640911
 20
80.4003117207
 11
183.7037640911
 21
102.5003117207
  0
INSERT
  5
229
100
AcDbEntity
  8
0
100
AcDbBlockReference
 62
7
  6
CONTINUOUS
  2
_FILLED
 10
183.7037640911
 20
124.6003117207
 41
3.0
 42
3.0
 43
3.0
 50
90.0
  0
INSERT
  5
22A
100
AcDbEntity
  8
0
100
AcDbBlockReference
 62
7
  6
CONTINUOUS
  2
_FILLED
 10
183.7037640911
 20
80.4003117207
 41
3.0
 42
3.0
 43
3.0
 50
270.0
  0
ENDBLK
  5
22B
100
AcDbEntity
  8
0
  6
BYBLOCK
 62
0
100
AcDbBlockEnd
  0
BLOCK
  5
22C
100
AcDbEntity
  8
0
100
AcDbBlockBegin
 62
7
  6
CONTINUOUS
  2
*D1
 70
65
 10
0.0
 20
0.0
  3
*D1
  1

  0
MTEXT
  5
22D
100
AcDbEntity
  8
0
100
AcDbMText
 62
7
  6
CONTINUOUS
  7
STANDARD
 71
2
 72
1
 10
163.0294381234
 20
136.7134770391
 30
0.0
 11
1.0
 21
0.0
 31
0.0
 44
0.9
  1
22
 40
3.0
 41
7.0714285714
  0
LINE
  5
22E
100
AcDbEntity
  8
0
100
AcDbLine
 62
7
  6
CONTINUOUS
 10
174.0294381234
 20
124.6004830582
 11
174.0294381234
 21
134.4634770391
  0
LINE
  5
22F
100
AcDbEntity
  8
0
100
AcDbLine
 62
7
  6
CONTINUOUS
 10
152.0294381234
 20
124.6004830582
 11
152.0294381234
 21
134.4634770391
  0
LINE
  5
230
100
AcDbEntity
  8
0
100
AcDbLine
 62
7
  6
CONTINUOUS
 10
174.0294381234
 20
132.9634770391
 11
163.0294381234
 21
132.9634770391
  0
LINE
  5
231
100
AcDbEntity
  8
0
100
AcDbLine
 62
7
  6
CONTINUOUS
 10
152.0294381234
 20
132.9634770391
 11
163.0294381234
 21
132.9634770391
  0
INSERT
  5
232
100
AcDbEntity
  8
0
100
AcDbBlockReference
 62
7
  6
CONTINUOUS
  2
_FILLED
 10
174.0294381234
 20
132.9634770391
 41
3.0
 42
3.0
 43
3.0
  0
INSERT
  5
233
100
AcDbEntity
  8
0
100
AcDbBlockReference
 62
7
  6
CONTINUOUS
  2
_FILLED
 10
152.0294381234
 20
132.9634770391
 41
3.0
 42
3.0
 43
3.0
 50
180.0
  0
ENDBLK
  5
234
100
AcDbEntity
  8
0
  6
BYBLOCK
 62
0
100
AcDbBlockEnd
  0
BLOCK
  5
235
100
AcDbEntity
  8
0
100
AcDbBlockBegin
 62
7
  6
CONTINUOUS
  2
*D2
 70
65
 10
0.0
 20
0.0
  3
*D2
  1

  0
MTEXT
  5
236
100
AcDbEntity
  8
0
100
AcDbMText
 62
7
  6
CONTINUOUS
  7
STANDARD
 71
2
 72
1
 10
123.7470338902
 20
137.0197937189
 30
0.0
 11
1.0
 21
0.0
 31
0.0
 44
0.9
  1
6,7
 40
3.0
 41
9.6428571429
  0
LINE
  5
237
100
AcDbEntity
  8
0
100
AcDbLine
 62
7
  6
CONTINUOUS
 10
127.0970425231
 20
124.6004830582
 11
127.0970425231
 21
134.7697937189
  0
LINE
  5
238
100
AcDbEntity
  8
0
100
AcDbLine
 62
7
  6
CONTINUOUS
 10
120.3970252572
 20
103.0003119397
 11
120.3970252572
 21
134.7697937189
  0
LINE
  5
239
100
AcDbEntity
  8
0
100
AcDbLine
 62
7
  6
CONTINUOUS
 10
127.0970425231
 20
133.2697937189
 11
131.0970425231
 21
133.2697937189
  0
LINE
  5
23A
100
AcDbEntity
  8
0
100
AcDbLine
 62
7
  6
CONTINUOUS
 10
131.0970425231
 20
133.2697937189
 11
123.7470338902
 21
133.2697937189
  0
LINE
  5
23B
100
AcDbEntity
  8
0
100
AcDbLine
 62
7
  6
CONTINUOUS
 10
120.3970252572
 20
133.2697937189
 11
116.3970252572
 21
133.2697937189
  0
LINE
  5
23C
100
AcDbEntity
  8
0
100
AcDbLine
 62
7
  6
CONTINUOUS
 10
116.3970252572
 20
133.2697937189
 11
123.7470338902
 21
133.2697937189
  0
INSERT
  5
23D
100
AcDbEntity
  8
0
100
AcDbBlockReference
 62
7
  6
CONTINUOUS
  2
_FILLED
 10
127.0970425231
 20
133.2697937189
 41
3.0
 42
3.0
 43
3.0
 50
180.0
  0
INSERT
  5
23E
100
AcDbEntity
  8
0
100
AcDbBlockReference
 62
7
  6
CONTINUOUS
  2
_FILLED
 10
120.3970252572
 20
133.2697937189
 41
3.0
 42
3.0
 43
3.0
  0
ENDBLK
  5
23F
100
AcDbEntity
  8
0
  6
BYBLOCK
 62
0
100
AcDbBlockEnd
  0
ENDSEC
  0
SECTION
  2
ENTITIES
  0
DIMENSION
  5
240
100
AcDbEntity
  8
0
100
AcDbDimension
 62
7
  6
CONTINUOUS
  2
*D0
 10
183.7037640911
 20
80.4003117207
 11
183.7037640911
 21
102.0717390097
 70
160
 71
2
 42
44.2
  3
DIMSTYLE_1
100
AcDbAlignedDimension
 13
173.529609461
 23
124.6003117207
 14
173.529609461
 24
80.4003117207
 50
270.0
100
AcDbRotatedDimension
  0
DIMENSION
  5
241
100
AcDbEntity
  8
0
100
AcDbDimension
 62
7
  6
CONTINUOUS
  2
*D1
 10
152.0294381234
 20
132.9634770391
 11
162.6008653564
 21
132.9634770391
 70
160
 71
2
 42
22.0
  3
DIMSTYLE_1
100
AcDbAlignedDimension
 13
174.0294381234
 23
124.1004830582
 14
152.0294381234
 24
124.1004830582
 50
180.0
100
AcDbRotatedDimension
  0
DIMENSION
  5
242
100
AcDbEntity
  8
0
100
AcDbDimension
 62
7
  6
CONTINUOUS
  2
*D2
 10
120.3970252572
 20
133.2697937189
 11
123.3184641724
 21
133.2697937189
 70
160
 71
2
 42
6.7000172659
  3
DIMSTYLE_1
100
AcDbAlignedDimension
 13
127.0970425231
 23
124.1004830582
 14
120.3970252572
 24
102.5003119397
 50
180.0
100
AcDbRotatedDimension
  0
LWPOLYLINE
  5
243
100
AcDbEntity
  8
RACCORDO
100
AcDbPolyline
 62
253
  6
CONTINUOUS
 90
16
 70
0
 10
173.4081961071
 20
80.5217250745
 10
173.4604204192
 20
80.52449666
 10
173.5120729667
 20
80.5327094898
 10
173.5625883167
 20
80.5462736374
 10
173.611413504
 20
80.5650406035
 10
173.658014037
 20
80.5888049248
 10
173.7018797563
 20
80.6173064084
 10
173.7425304857
 20
80.6502330162
 10
173.7795212649
 20
80.6872242856
 10
173.8124471825
 20
80.727875243
 10
173.8409478389
 20
80.7717408608
 10
173.8647112932
 20
80.8183409457
 10
173.8834774616
 20
80.8671653835
 10
173.8970409581
 20
80.9176797102
 10
173.9052533465
 20
80.969330961
 10
173.9080247696
 20
81.021553737
  0
LWPOLYLINE
  5
244
100
AcDbEntity
  8
0
100
AcDbPolyline
 62
253
  6
CONTINUOUS
 90
16
 70
0
 10
173.4081961071
 20
80.5217250745
 10
173.4604204192
 20
80.52449666
 10
173.5120729667
 20
80.5327094898
 10
173.5625883167
 20
80.5462736374
 10
173.611413504
 20
80.5650406035
 10
173.658014037
 20
80.5888049248
 10
173.7018797563
 20
80.6173064084
 10
173.7425304857
 20
80.6502330162
 10
173.7795212649
 20
80.6872242856
 10
173.8124471825
 20
80.727875243
 10
173.8409478389
 20
80.7717408608
 10
173.8647112932
 20
80.8183409457
 10
173.8834774616
 20
80.8671653835
 10
173.8970409581
 20
80.9176797102
 10
173.9052533465
 20
80.969330961
 10
173.9080247696
 20
81.021553737
  0
LWPOLYLINE
  5
245
100
AcDbEntity
  8
RACCORDO
100
AcDbPolyline
 62
253
  6
CONTINUOUS
 90
14
 70
0
 10
173.5209939746
 20
81.6710192522
 10
173.5678086452
 20
81.6717226019
 10
173.6129032848
 20
81.6726181034
 10
173.6558409619
 20
81.6736970801
 10
173.6962056445
 20
81.6749490776
 10
173.7336062309
 20
81.6763619649
 10
173.7676803391
 20
81.6779220524
 10
173.7980978179
 20
81.679614224
 10
173.8245639461
 20
81.681422084
 10
173.8468222879
 20
81.6833281155
 10
173.8646571776
 20
81.6853138507
 10
173.8778958093
 20
81.6873600493
 10
173.8864099111
 20
81.6894468854
 10
173.8901169882
 20
81.6915541391
  0
LWPOLYLINE
  5
246
100
AcDbEntity
  8
0
100
AcDbPolyline
 62
253
  6
CONTINUOUS
 90
14
 70
0
 10
173.5209939746
 20
81.6710192522
 10
173.5678086452
 20
81.6717226019
 10
173.6129032848
 20
81.6726181034
 10
173.6558409619
 20
81.6736970801
 10
173.6962056445
 20
81.6749490776
 10
173.7336062309
 20
81.6763619649
 10
173.7676803391
 20
81.6779220524
 10
173.7980978179
 20
81.679614224
 10
173.8245639461
 20
81.681422084
 10
173.8468222879
 20
81.6833281155
 10
173.8646571776
 20
81.6853138507
 10
173.8778958093
 20
81.6873600493
 10
173.8864099111
 20
81.6894468854
 10
173.8901169882
 20
81.6915541391
  0
LINE
  5
247
100
AcDbEntity
  8
RACCORDO
100
AcDbLine
 62
253
  6
CONTINUOUS
 10
173.4240311987
 20
81.6702143404
 11
173.5209939746
 21
81.6710192522
  0
LINE
  5
248
100
AcDbEntity
  8
0
100
AcDbLine
 62
253
  6
CONTINUOUS
 10
173.4240311987
 20
81.6702143404
 11
173.5209939746
 21
81.6710192522
  0
LINE
  5
249
100
AcDbEntity
  8
RACCORDO
100
AcDbLine
 62
253
  6
CONTINUOUS
 10
152.6506801387
 20
80.5217250735
 11
159.3701126816
 21
80.529834445
  0
LINE
  5
24A
100
AcDbEntity
  8
0
100
AcDbLine
 62
253
  6
CONTINUOUS
 10
152.6506801387
 20
80.5217250735
 11
159.3701126816
 21
80.529834445
  0
LINE
  5
24B
100
AcDbEntity
  8
RACCORDO
100
AcDbLine
 62
7
  6
CONTINUOUS
 10
152.5292667859
 20
80.4003117207
 11
173.529609461
 21
80.4003117207
  0
LINE
  5
24C
100
AcDbEntity
  8
0
100
AcDbLine
 62
7
  6
CONTINUOUS
 10
152.5292667859
 20
80.4003117207
 11
173.529609461
 21
80.4003117207
  0
LINE
  5
24D
100
AcDbEntity
  8
RACCORDO
100
AcDbLine
 62
253
  6
CONTINUOUS
 10
152.6348450441
 20
81.6702143621
 11
173.4240311989
 21
81.6702143642
  0
LINE
  5
24E
100
AcDbEntity
  8
0
100
AcDbLine
 62
253
  6
CONTINUOUS
 10
152.6348450441
 20
81.6702143621
 11
173.4240311989
 21
81.6702143642
  0
LINE
  5
24F
100
AcDbEntity
  8
RACCORDO
100
AcDbLine
 62
253
  6
CONTINUOUS
 10
159.3701126816
 20
80.529834445
 11
168.1344348258
 21
80.5287494097
  0
LINE
  5
250
100
AcDbEntity
  8
0
100
AcDbLine
 62
253
  6
CONTINUOUS
 10
159.3701126816
 20
80.529834445
 11
168.1344348258
 21
80.5287494097
  0
LWPOLYLINE
  5
251
100
AcDbEntity
  8
RACCORDO
100
AcDbPolyline
 62
253
  6
CONTINUOUS
 90
3
 70
0
 10
168.1344348258
 20
80.5287494097
 10
172.5933050576
 20
80.5231090346
 10
173.408196108
 20
80.5217250736
  0
LWPOLYLINE
  5
252
100
AcDbEntity
  8
0
100
AcDbPolyline
 62
253
  6
CONTINUOUS
 90
3
 70
0
 10
168.1344348258
 20
80.5287494097
 10
172.5933050576
 20
80.5231090346
 10
173.408196108
 20
80.5217250736
  0
LWPOLYLINE
  5
253
100
AcDbEntity
  8
RACCORDO
100
AcDbPolyline
 62
253
  6
CONTINUOUS
 90
15
 70
0
 10
152.634845947
 20
81.6702149128
 10
152.537884123
 20
81.6710197964
 10
152.4910698655
 20
81.6717231228
 10
152.4459755793
 20
81.6726185952
 10
152.4030381831
 20
81.6736975377
 10
152.3626736975
 20
81.6749494965
 10
152.3252732143
 20
81.6763623416
 10
152.291199107
 20
81.6779223837
 10
152.2607815199
 20
81.6796145078
 10
152.234315169
 20
81.6814223187
 10
152.2120564871
 20
81.6833283006
 10
152.1942211385
 20
81.6853139864
 10
152.1809819302
 20
81.6873601367
 10
152.1724671368
 20
81.6894469266
 10
152.1687592582
 20
81.6915541369
  0
LWPOLYLINE
  5
254
100
AcDbEntity
  8
0
100
AcDbPolyline
 62
253
  6
CONTINUOUS
 90
15
 70
0
 10
152.634845947
 20
81.6702149128
 10
152.537884123
 20
81.6710197964
 10
152.4910698655
 20
81.6717231228
 10
152.4459755793
 20
81.6726185952
 10
152.4030381831
 20
81.6736975377
 10
152.3626736975
 20
81.6749494965
 10
152.3252732143
 20
81.6763623416
 10
152.291199107
 20
81.6779223837
 10
152.2607815199
 20
81.6796145078
 10
152.234315169
 20
81.6814223187
 10
152.2120564871
 20
81.6833283006
 10
152.1942211385
 20
81.6853139864
 10
152.1809819302
 20
81.6873601367
 10
152.1724671368
 20
81.6894469266
 10
152.1687592582
 20
81.6915541369
  0
LWPOLYLINE
  5
255
100
AcDbEntity
  8
RACCORDO
100
AcDbPolyline
 62
253
  6
CONTINUOUS
 90
16
 70
0
 10
152.6506801387
 20
80.5217250735
 10
152.5984565126
 20
80.5244965863
 10
152.5468045608
 20
80.5327092153
 10
152.4962896999
 20
80.5462730597
 10
152.4474648987
 20
80.5650396406
 10
152.400864626
 20
80.5888035266
 10
152.3569989991
 20
80.6173045825
 10
152.3163482
 20
80.650230817
 10
152.2793572195
 20
80.6872217976
 10
152.2464309851
 20
80.7278725966
 10
152.2179299292
 20
80.7717382236
 10
152.1941660433
 20
80.8183384963
 10
152.1753994624
 20
80.8671632974
 10
152.1618356181
 20
80.9176781583
 10
152.153622989
 20
80.96933011
 10
152.1508514762
 20
81.0215537359
  0
LWPOLYLINE
  5
256
100
AcDbEntity
  8
0
100
AcDbPolyline
 62
253
  6
CONTINUOUS
 90
16
 70
0
 10
152.6506801387
 20
80.5217250735
 10
152.5984565126
 20
80.5244965863
 10
152.5468045608
 20
80.5327092153
 10
152.4962896999
 20
80.5462730597
 10
152.4474648987
 20
80.5650396406
 10
152.400864626
 20
80.5888035266
 10
152.3569989991
 20
80.6173045825
 10
152.3163482
 20
80.650230817
 10
152.2793572195
 20
80.6872217976
 10
152.2464309851
 20
80.7278725966
 10
152.2179299292
 20
80.7717382236
 10
152.1941660433
 20
80.8183384963
 10
152.1753994624
 20
80.8671632974
 10
152.1618356181
 20
80.9176781583
 10
152.153622989
 20
80.96933011
 10
152.1508514762
 20
81.0215537359
  0
LWPOLYLINE
  5
257
100
AcDbEntity
  8
RACCORDO
100
AcDbPolyline
 62
253
  6
CONTINUOUS
 90
9
 70
0
 10
152.6506801397
 20
124.4788983669
 10
152.6496004331
 20
124.4735728709
 10
152.6484789871
 20
124.4621280877
 10
152.6473453561
 20
124.4446258432
 10
152.6462510709
 20
124.4211598249
 10
152.6452024154
 20
124.3918528005
 10
152.6441602112
 20
124.3568539129
 10
152.64314959
 20
124.3163410379
 10
152.6412712909
 20
124.2196428288
  0
LWPOLYLINE
  5
258
100
AcDbEntity
  8
0
100
AcDbPolyline
 62
253
  6
CONTINUOUS
 90
9
 70
0
 10
152.6506801397
 20
124.4788983669
 10
152.6496004331
 20
124.4735728709
 10
152.6484789871
 20
124.4621280877
 10
152.6473453561
 20
124.4446258432
 10
152.6462510709
 20
124.4211598249
 10
152.6452024154
 20
124.3918528005
 10
152.6441602112
 20
124.3568539129
 10
152.64314959
 20
124.3163410379
 10
152.6412712909
 20
124.2196428288
  0
LWPOLYLINE
  5
259
100
AcDbEntity
  8
0
100
AcDbPolyline
 62
7
  6
CONTINUOUS
 90
11
 70
0
 10
165.2274271439
 20
87.0051419964
 10
165.4176526009
 20
87.0191402003
 10
165.5995571227
 20
87.0411327894
 10
165.7721447554
 20
87.069902419
 10
165.9356755729
 20
87.1044014591
 10
166.0916289642
 20
87.1439937034
 10
166.2400262051
 20
87.1879355666
 10
166.3805950971
 20
87.2354308322
 10
166.5144212276
 20
87.2861567301
 10
166.6415777429
 20
87.3395195712
 10
166.7619829099
 20
87.3948981886
  0
LINE
  5
25A
100
AcDbEntity
  8
0
100
AcDbLine
 62
7
  6
CONTINUOUS
 10
165.0294381234
 20
87.0003127284
 11
165.2274271439
 21
87.0051419964
  0
LINE
  5
25B
100
AcDbEntity
  8
0
100
AcDbLine
 62
7
  6
CONTINUOUS
 10
161.0289336862
 20
87.0003541674
 11
165.0299427107
 21
87.0003541674
  0
LINE
  5
25C
100
AcDbEntity
  8
DRAFT
100
AcDbLine
 62
7
  6
CONTINUOUS
 10
165.0299427107
 20
87.0003541674
 11
161.0289336862
 21
87.0003541674
  0
LINE
  5
25D
100
AcDbEntity
  8
0
100
AcDbLine
 62
7
  6
CONTINUOUS
 10
161.0294381234
 20
87.0003127301
 11
160.8855384228
 21
87.0028523597
  0
LWPOLYLINE
  5
25E
100
AcDbEntity
  8
DRAFT
100
AcDbPolyline
 62
7
  6
CONTINUOUS
 90
52
 70
0
 10
161.0289336862
 20
87.0003541674
 10
160.7808450464
 20
87.0081339641
 10
160.5353148536
 20
87.0309532624
 10
160.2923435148
 20
87.0688121574
 10
160.0508467654
 20
87.1220271396
 10
159.8119096462
 20
87.1902821297
 10
159.5787861897
 20
87.2726283868
 10
159.3518807284
 20
87.3691005641
 10
159.1307887765
 20
87.4796645811
 10
158.9175505661
 20
87.6032685165
 10
158.7119065955
 20
87.740315326
 10
158.5141155148
 20
87.8904027338
 10
158.3269942155
 20
88.0512708047
 10
158.1510749051
 20
88.2226536961
 10
157.9858236668
 20
88.4048177557
 10
157.8324577675
 20
88.5963011315
 10
157.6907560236
 20
88.7976846019
 10
157.5609377379
 20
89.0083878384
 10
157.4448806715
 20
89.2252070809
 10
157.3430234206
 20
89.4476090299
 10
157.254925497
 20
89.6761271177
 10
157.181145974
 20
89.9091574422
 10
157.1216516116
 20
90.1473936837
 10
157.076474359
 20
90.3901422894
 10
157.0462712074
 20
90.6337182727
 10
157.0312598324
 20
90.8774401051
 10
157.0312220797
 20
91.1219891911
 10
157.0461614079
 20
91.3657247279
 10
157.0762957402
 20
91.609326813
 10
157.121407631
 20
91.8521152985
 10
157.1808476985
 20
92.0904088129
 10
157.2545844664
 20
92.32351755
 10
157.3426507022
 20
92.5521310699
 10
157.4444935249
 20
92.7746368542
 10
157.5605545162
 20
92.9915672953
 10
157.690393989
 20
93.2023898106
 10
157.8321370997
 20
93.4038942398
 10
157.9855701704
 20
93.5955033789
 10
158.1509087643
 20
93.777794061
 10
158.3269216629
 20
93.949287007
 10
158.5141388376
 20
94.1102410172
 10
158.7120320275
 20
94.2603969468
 10
158.9177822266
 20
94.3974984595
 10
159.1311403123
 20
94.521145216
 10
159.3523562597
 20
94.6317371262
 10
159.5793591369
 20
94.728218108
 10
159.8125286885
 20
94.810543616
 10
160.0514853158
 20
94.8787578496
 10
160.2930185003
 20
94.9319377746
 10
160.5360577077
 20
94.9697755988
 10
160.7816726986
 20
94.992578843
 10
161.0298630665
 20
95.0003474388
  0
LWPOLYLINE
  5
25F
100
AcDbEntity
  8
0
100
AcDbPolyline
 62
7
  6
CONTINUOUS
 90
52
 70
0
 10
161.0289336862
 20
87.0003541674
 10
160.7808450464
 20
87.0081339641
 10
160.5353148536
 20
87.0309532624
 10
160.2923435148
 20
87.0688121574
 10
160.0508467654
 20
87.1220271396
 10
159.8119096462
 20
87.1902821297
 10
159.5787861897
 20
87.2726283868
 10
159.3518807284
 20
87.3691005641
 10
159.1307887765
 20
87.4796645811
 10
158.9175505661
 20
87.6032685165
 10
158.7119065955
 20
87.740315326
 10
158.5141155148
 20
87.8904027338
 10
158.3269942155
 20
88.0512708047
 10
158.1510749051
 20
88.2226536961
 10
157.9858236668
 20
88.4048177557
 10
157.8324577675
 20
88.5963011315
 10
157.6907560236
 20
88.7976846019
 10
157.5609377379
 20
89.0083878384
 10
157.4448806715
 20
89.2252070809
 10
157.3430234206
 20
89.4476090299
 10
157.254925497
 20
89.6761271177
 10
157.181145974
 20
89.9091574422
 10
157.1216516116
 20
90.1473936837
 10
157.076474359
 20
90.3901422894
 10
157.0462712074
 20
90.6337182727
 10
157.0312598324
 20
90.8774401051
 10
157.0312220797
 20
91.1219891911
 10
157.0461614079
 20
91.3657247279
 10
157.0762957402
 20
91.609326813
 10
157.121407631
 20
91.8521152985
 10
157.1808476985
 20
92.0904088129
 10
157.2545844664
 20
92.32351755
 10
157.3426507022
 20
92.5521310699
 10
157.4444935249
 20
92.7746368542
 10
157.5605545162
 20
92.9915672953
 10
157.690393989
 20
93.2023898106
 10
157.8321370997
 20
93.4038942398
 10
157.9855701704
 20
93.5955033789
 10
158.1509087643
 20
93.777794061
 10
158.3269216629
 20
93.949287007
 10
158.5141388376
 20
94.1102410172
 10
158.7120320275
 20
94.2603969468
 10
158.9177822266
 20
94.3974984595
 10
159.1311403123
 20
94.521145216
 10
159.3523562597
 20
94.6317371262
 10
159.5793591369
 20
94.728218108
 10
159.8125286885
 20
94.810543616
 10
160.0514853158
 20
94.8787578496
 10
160.2930185003
 20
94.9319377746
 10
160.5360577077
 20
94.9697755988
 10
160.7816726986
 20
94.992578843
 10
161.0298630665
 20
95.0003474388
  0
LINE
  5
260
100
AcDbEntity
  8
0
100
AcDbLine
 62
7
  6
CONTINUOUS
 10
160.8855384228
 20
87.0028523597
 11
160.7427003504
 21
87.0105615008
  0
LWPOLYLINE
  5
261
100
AcDbEntity
  8
0
100
AcDbPolyline
 62
7
  6
CONTINUOUS
 90
74
 70
0
 10
160.6011503332
 20
87.0232952669
 10
160.460965531
 20
87.0409257831
 10
160.3224825589
 20
87.063302496
 10
160.1862953549
 20
87.0902041578
 10
160.0525831731
 20
87.1214697223
 10
159.9214929056
 20
87.1568908055
 10
159.7935336406
 20
87.1960957466
 10
159.6688403564
 20
87.2388304031
 10
159.5474851394
 20
87.2849156248
 10
159.429839707
 20
87.3340192341
 10
159.3159903999
 20
87.385815917
 10
159.2059481272
 20
87.440039212
 10
159.0999367921
 20
87.4963678285
 10
158.9979733334
 20
87.5545369948
 10
158.9000461131
 20
87.6142419564
 10
158.8063029171
 20
87.675086444
 10
158.7167026195
 20
87.7368141156
 10
158.6311988436
 20
87.7991613348
 10
158.5498947446
 20
87.8617129183
 10
158.4727558642
 20
87.9241785381
 10
158.3996470752
 20
87.9863784187
 10
158.3304956846
 20
88.0480681632
 10
158.2653473468
 20
88.108892165
 10
158.2039405746
 20
88.1688020311
 10
158.1457544724
 20
88.2280514737
 10
158.0907397238
 20
88.2864237799
 10
158.0387444556
 20
88.3438241027
 10
157.9891465421
 20
88.4007542116
 10
157.9418197972
 20
88.4571948276
 10
157.8967612425
 20
88.5129701487
 10
157.8535891349
 20
88.5684056297
 10
157.8121589356
 20
88.623573171
 10
157.7725275732
 20
88.6782696713
 10
157.7346365859
 20
88.732431997
 10
157.6984376655
 20
88.7860024721
 10
157.6638856088
 20
88.8389253721
 10
157.6309269684
 20
88.8911465547
 10
157.5995165132
 20
88.9426109934
 10
157.5696057936
 20
88.9932785712
 10
157.5411376256
 20
89.0431226018
 10
157.5140677149
 20
89.092097688
 10
157.4883491632
 20
89.140170146
 10
157.4639231861
 20
89.1873353441
 10
157.4407494132
 20
89.2335543514
 10
157.4187812066
 20
89.2788008004
 10
157.3979539296
 20
89.3230931809
 10
157.3782285672
 20
89.3664023234
 10
157.3595635037
 20
89.4087046286
 10
157.3418947549
 20
89.4500311416
 10
157.325183901
 20
89.4903599494
 10
157.3093939389
 20
89.5296704928
 10
157.2944677449
 20
89.567999335
 10
157.2803700716
 20
89.6053285909
 10
157.2670663984
 20
89.641641588
 10
157.2545053828
 20
89.6769794434
 10
157.2426564747
 20
89.7113281325
 10
157.2314891854
 20
89.7446744229
 10
157.2209566445
 20
89.7770629365
 10
157.2110322159
 20
89.8084828185
 10
157.2016896429
 20
89.8389237264
 10
157.1928867201
 20
89.8684330466
 10
157.1846004505
 20
89.8970028566
 10
157.1768084235
 20
89.9246248025
 10
157.1694730696
 20
89.9513473079
 10
157.1625746904
 20
89.977164118
 10
157.1560943561
 20
90.0020691742
 10
157.149999035
 20
90.0261125723
 10
157.1442721233
 20
90.0492890782
 10
157.1388976588
 20
90.0715947048
 10
157.1338465978
 20
90.0930824962
 10
157.1291050777
 20
90.1137485989
 10
157.1246597957
 20
90.1335900039
 10
157.120485239
 20
90.1526618449
 10
157.1165699636
 20
90.1709613187
  0
LINE
  5
262
100
AcDbEntity
  8
0
100
AcDbLine
 62
253
  6
CONTINUOUS
 10
162.5031296234
 20
116.9503117207
 11
162.0133516234
 21
116.7231237207
  0
LINE
  5
263
100
AcDbEntity
  8
0
100
AcDbLine
 62
253
  6
CONTINUOUS
 10
162.7279496234
 20
116.1715597207
 11
162.4505886234
 21
116.0567817207
  0
LINE
  5
264
100
AcDbEntity
  8
0
100
AcDbLine
 62
253
  6
CONTINUOUS
 10
162.2834956234
 20
116.4757547207
 11
162.6415836234
 21
116.6228907207
  0
LWPOLYLINE
  5
265
100
AcDbEntity
  8
RACCORDO
100
AcDbPolyline
 62
253
  6
CONTINUOUS
 90
7
 70
0
 10
152.6441602082
 20
80.6437695281
 10
152.6452024127
 20
80.6087706411
 10
152.6462510687
 20
80.5794636171
 10
152.6473453542
 20
80.5559975987
 10
152.6484789855
 20
80.5384953536
 10
152.6496004318
 20
80.5270505698
 10
152.6506801387
 20
80.5217250735
  0
LWPOLYLINE
  5
266
100
AcDbEntity
  8
0
100
AcDbPolyline
 62
253
  6
CONTINUOUS
 90
7
 70
0
 10
152.6441602082
 20
80.6437695281
 10
152.6452024127
 20
80.6087706411
 10
152.6462510687
 20
80.5794636171
 10
152.6473453542
 20
80.5559975987
 10
152.6484789855
 20
80.5384953536
 10
152.6496004318
 20
80.5270505698
 10
152.6506801387
 20
80.5217250735
  0
LINE
  5
267
100
AcDbEntity
  8
RACCORDO
100
AcDbLine
 62
253
  6
CONTINUOUS
 10
152.1618017757
 20
123.8278683896
 11
152.1637455739
 21
123.7600674479
  0
LINE
  5
268
100
AcDbEntity
  8
0
100
AcDbLine
 62
253
  6
CONTINUOUS
 10
152.1618017757
 20
123.8278683896
 11
152.1637455739
 21
123.7600674479
  0
LINE
  5
269
100
AcDbEntity
  8
RACCORDO
100
AcDbLine
 62
253
  6
CONTINUOUS
 10
152.6421986931
 20
80.7300990435
 11
152.6441602082
 21
80.6437695281
  0
LINE
  5
26A
100
AcDbEntity
  8
0
100
AcDbLine
 62
253
  6
CONTINUOUS
 10
152.6421986931
 20
80.7300990435
 11
152.6441602082
 21
80.6437695281
  0
LINE
  5
26B
100
AcDbEntity
  8
RACCORDO
100
AcDbLine
 62
253
  6
CONTINUOUS
 10
152.1637455739
 20
123.7600674479
 11
152.1654107433
 21
123.6826625696
  0
LINE
  5
26C
100
AcDbEntity
  8
0
100
AcDbLine
 62
253
  6
CONTINUOUS
 10
152.1637455739
 20
123.7600674479
 11
152.1654107433
 21
123.6826625696
  0
LINE
  5
26D
100
AcDbEntity
  8
RACCORDO
100
AcDbLine
 62
253
  6
CONTINUOUS
 10
152.6403876221
 20
80.8366635724
 11
152.6421986931
 21
80.7300990435
  0
LINE
  5
26E
100
AcDbEntity
  8
0
100
AcDbLine
 62
253
  6
CONTINUOUS
 10
152.6403876221
 20
80.8366635724
 11
152.6421986931
 21
80.7300990435
  0
LINE
  5
26F
100
AcDbEntity
  8
RACCORDO
100
AcDbLine
 62
253
  6
CONTINUOUS
 10
152.1654107433
 20
123.6826625696
 11
152.1667720187
 21
123.5968454006
  0
LINE
  5
270
100
AcDbEntity
  8
0
100
AcDbLine
 62
253
  6
CONTINUOUS
 10
152.1654107433
 20
123.6826625696
 11
152.1667720187
 21
123.5968454006
  0
LINE
  5
271
100
AcDbEntity
  8
RACCORDO
100
AcDbLine
 62
253
  6
CONTINUOUS
 10
152.6380816768
 20
81.0295508693
 11
152.6403876221
 21
80.8366635724
  0
LINE
  5
272
100
AcDbEntity
  8
0
100
AcDbLine
 62
253
  6
CONTINUOUS
 10
152.6380816768
 20
81.0295508693
 11
152.6403876221
 21
80.8366635724
  0
LINE
  5
273
100
AcDbEntity
  8
RACCORDO
100
AcDbLine
 62
253
  6
CONTINUOUS
 10
152.1667720187
 20
123.5968454006
 11
152.1681746603
 21
123.456677264
  0
LINE
  5
274
100
AcDbEntity
  8
0
100
AcDbLine
 62
253
  6
CONTINUOUS
 10
152.1667720187
 20
123.5968454006
 11
152.1681746603
 21
123.456677264
  0
LINE
  5
275
100
AcDbEntity
  8
RACCORDO
100
AcDbLine
 62
253
  6
CONTINUOUS
 10
152.6355173943
 20
81.4162538783
 11
152.6380816768
 21
81.0295508693
  0
LINE
  5
276
100
AcDbEntity
  8
0
100
AcDbLine
 62
253
  6
CONTINUOUS
 10
152.6355173943
 20
81.4162538783
 11
152.6380816768
 21
81.0295508693
  0
LINE
  5
277
100
AcDbEntity
  8
RACCORDO
100
AcDbLine
 62
253
  6
CONTINUOUS
 10
152.1681746603
 20
123.456677264
 11
152.1687592587
 21
123.3090693023
  0
LINE
  5
278
100
AcDbEntity
  8
0
100
AcDbLine
 62
253
  6
CONTINUOUS
 10
152.1681746603
 20
123.456677264
 11
152.1687592587
 21
123.3090693023
  0
LINE
  5
279
100
AcDbEntity
  8
RACCORDO
100
AcDbLine
 62
253
  6
CONTINUOUS
 10
152.1687592587
 20
123.3090693023
 11
152.1768365967
 21
114.0635842682
  0
LINE
  5
27A
100
AcDbEntity
  8
0
100
AcDbLine
 62
253
  6
CONTINUOUS
 10
152.1687592587
 20
123.3090693023
 11
152.1768365967
 21
114.0635842682
  0
LINE
  5
27B
100
AcDbEntity
  8
RACCORDO
100
AcDbLine
 62
253
  6
CONTINUOUS
 10
152.1768365967
 20
114.0635842682
 11
152.1802983126
 21
104.8136626109
  0
LINE
  5
27C
100
AcDbEntity
  8
0
100
AcDbLine
 62
253
  6
CONTINUOUS
 10
152.1768365967
 20
114.0635842682
 11
152.1802983126
 21
104.8136626109
  0
LINE
  5
27D
100
AcDbEntity
  8
RACCORDO
100
AcDbLine
 62
7
  6
CONTINUOUS
 10
152.0294381234
 20
80.9001403832
 11
152.0294381234
 21
124.1004830582
  0
LINE
  5
27E
100
AcDbEntity
  8
0
100
AcDbLine
 62
7
  6
CONTINUOUS
 10
152.0294381234
 20
80.9001403832
 11
152.0294381234
 21
124.1004830582
  0
LINE
  5
27F
100
AcDbEntity
  8
RACCORDO
100
AcDbLine
 62
253
  6
CONTINUOUS
 10
152.634845048
 20
123.3304090764
 11
152.6355173943
 21
81.4162538783
  0
LINE
  5
280
100
AcDbEntity
  8
0
100
AcDbLine
 62
253
  6
CONTINUOUS
 10
152.634845048
 20
123.3304090764
 11
152.6355173943
 21
81.4162538783
  0
LINE
  5
281
100
AcDbEntity
  8
RACCORDO
100
AcDbLine
 62
253
  6
CONTINUOUS
 10
152.1802983126
 20
104.8136626109
 11
152.1791444067
 21
95.561205913
  0
LINE
  5
282
100
AcDbEntity
  8
0
100
AcDbLine
 62
253
  6
CONTINUOUS
 10
152.1802983126
 20
104.8136626109
 11
152.1791444067
 21
95.561205913
  0
LINE
  5
283
100
AcDbEntity
  8
RACCORDO
100
AcDbLine
 62
253
  6
CONTINUOUS
 10
152.1791444067
 20
95.561205913
 11
152.1733748797
 21
86.3138205038
  0
LINE
  5
284
100
AcDbEntity
  8
0
100
AcDbLine
 62
253
  6
CONTINUOUS
 10
152.1791444067
 20
95.561205913
 11
152.1733748797
 21
86.3138205038
  0
LINE
  5
285
100
AcDbEntity
  8
RACCORDO
100
AcDbLine
 62
253
  6
CONTINUOUS
 10
152.1733748797
 20
86.3138205038
 11
152.1684604192
 21
81.5923221822
  0
LINE
  5
286
100
AcDbEntity
  8
0
100
AcDbLine
 62
253
  6
CONTINUOUS
 10
152.1733748797
 20
86.3138205038
 11
152.1684604192
 21
81.5923221822
  0
LINE
  5
287
100
AcDbEntity
  8
RACCORDO
100
AcDbLine
 62
253
  6
CONTINUOUS
 10
152.6363326619
 20
123.7465661367
 11
152.6348450448
 21
123.3304090776
  0
LINE
  5
288
100
AcDbEntity
  8
0
100
AcDbLine
 62
253
  6
CONTINUOUS
 10
152.6363326619
 20
123.7465661367
 11
152.6348450448
 21
123.3304090776
  0
LINE
  5
289
100
AcDbEntity
  8
RACCORDO
100
AcDbLine
 62
253
  6
CONTINUOUS
 10
152.1684604192
 20
81.5923221822
 11
152.1673257245
 21
81.4491508125
  0
LINE
  5
28A
100
AcDbEntity
  8
0
100
AcDbLine
 62
253
  6
CONTINUOUS
 10
152.1684604192
 20
81.5923221822
 11
152.1673257245
 21
81.4491508125
  0
LINE
  5
28B
100
AcDbEntity
  8
RACCORDO
100
AcDbLine
 62
253
  6
CONTINUOUS
 10
152.6387998386
 20
124.0393551306
 11
152.6363326619
 21
123.7465661367
  0
LINE
  5
28C
100
AcDbEntity
  8
0
100
AcDbLine
 62
253
  6
CONTINUOUS
 10
152.6387998386
 20
124.0393551306
 11
152.6363326619
 21
123.7465661367
  0
LINE
  5
28D
100
AcDbEntity
  8
RACCORDO
100
AcDbLine
 62
253
  6
CONTINUOUS
 10
152.1673257245
 20
81.4491508125
 11
152.1661332762
 21
81.3600636621
  0
LINE
  5
28E
100
AcDbEntity
  8
0
100
AcDbLine
 62
253
  6
CONTINUOUS
 10
152.1673257245
 20
81.4491508125
 11
152.1661332762
 21
81.3600636621
  0
LINE
  5
28F
100
AcDbEntity
  8
RACCORDO
100
AcDbLine
 62
253
  6
CONTINUOUS
 10
152.6412712909
 20
124.2196428288
 11
152.6387998386
 21
124.0393551306
  0
LINE
  5
290
100
AcDbEntity
  8
0
100
AcDbLine
 62
253
  6
CONTINUOUS
 10
152.6412712909
 20
124.2196428288
 11
152.6387998386
 21
124.0393551306
  0
LINE
  5
291
100
AcDbEntity
  8
RACCORDO
100
AcDbLine
 62
253
  6
CONTINUOUS
 10
152.1661332762
 20
81.3600636621
 11
152.1646152424
 21
81.2781141624
  0
LINE
  5
292
100
AcDbEntity
  8
0
100
AcDbLine
 62
253
  6
CONTINUOUS
 10
152.1661332762
 20
81.3600636621
 11
152.1646152424
 21
81.2781141624
  0
LWPOLYLINE
  5
293
100
AcDbEntity
  8
RACCORDO
100
AcDbPolyline
 62
253
  6
CONTINUOUS
 90
12
 70
0
 10
152.1646152424
 20
81.2781141624
 10
152.1628029375
 20
81.2052539056
 10
152.1618017746
 20
81.1727550501
 10
152.1607411819
 20
81.1431045163
 10
152.1596220616
 20
81.1162572131
 10
152.1584615596
 20
81.0926250121
 10
152.1572584409
 20
81.0722570172
 10
152.1560139405
 20
81.0551041245
 10
152.1547489087
 20
81.0414308941
 10
152.1534702958
 20
81.0313255125
 10
152.1521711517
 20
81.0246997931
 10
152.1508514762
 20
81.0215537359
  0
LWPOLYLINE
  5
294
100
AcDbEntity
  8
0
100
AcDbPolyline
 62
253
  6
CONTINUOUS
 90
12
 70
0
 10
152.1646152424
 20
81.2781141624
 10
152.1628029375
 20
81.2052539056
 10
152.1618017746
 20
81.1727550501
 10
152.1607411819
 20
81.1431045163
 10
152.1596220616
 20
81.1162572131
 10
152.1584615596
 20
81.0926250121
 10
152.1572584409
 20
81.0722570172
 10
152.1560139405
 20
81.0551041245
 10
152.1547489087
 20
81.0414308941
 10
152.1534702958
 20
81.0313255125
 10
152.1521711517
 20
81.0246997931
 10
152.1508514762
 20
81.0215537359
  0
LINE
  5
295
100
AcDbEntity
  8
0
100
AcDbLine
 62
253
  6
CONTINUOUS
 10
161.6764596234
 20
116.3255737207
 11
161.6672146234
 21
116.3159907207
  0
LINE
  5
296
100
AcDbEntity
  8
0
100
AcDbLine
 62
253
  6
CONTINUOUS
 10
162.0138026234
 20
116.2086537207
 11
162.2834956234
 21
116.4757547207
  0
LINE
  5
297
100
AcDbEntity
  8
0
100
AcDbLine
 62
253
  6
CONTINUOUS
 10
161.9957626234
 20
116.1909527207
 11
162.0138026234
 21
116.2086537207
  0
LINE
  5
298
100
AcDbEntity
  8
0
100
AcDbLine
 62
253
  6
CONTINUOUS
 10
161.4649436234
 20
113.3516147207
 11
161.3118316234
 21
113.2751717207
  0
LINE
  5
299
100
AcDbEntity
  8
0
100
AcDbLine
 62
253
  6
CONTINUOUS
 10
166.5332006234
 20
115.3788277207
 11
166.3688136234
 21
115.3238067207
  0
LINE
  5
29A
100
AcDbEntity
  8
0
100
AcDbLine
 62
253
  6
CONTINUOUS
 10
166.5413186234
 20
115.0364107207
 11
166.6037806234
 21
115.0571567207
  0
LINE
  5
29B
100
AcDbEntity
  8
0
100
AcDbLine
 62
253
  6
CONTINUOUS
 10
161.5431916234
 20
113.0178807207
 11
161.6484986234
 21
113.0504647207
  0
LWPOLYLINE
  5
29C
100
AcDbEntity
  8
0
100
AcDbPolyline
 62
7
  6
CONTINUOUS
 90
5
 70
0
 10
157.029282675
 20
90.98038445
 10
157.0284224785
 20
90.9821221642
 10
157.0277687876
 20
90.9840002988
 10
157.0292530565
 20
90.987525932
 10
157.0312422934
 20
90.9910514607
  0
LINE
  5
29D
100
AcDbEntity
  8
0
100
AcDbLine
 62
253
  6
CONTINUOUS
 10
161.6672146234
 20
116.3159907207
 11
161.6593216234
 21
116.3052797207
  0
LINE
  5
29E
100
AcDbEntity
  8
0
100
AcDbLine
 62
253
  6
CONTINUOUS
 10
162.0133516234
 20
116.7231237207
 11
161.6764596234
 21
116.3255737207
  0
LINE
  5
29F
100
AcDbEntity
  8
0
100
AcDbLine
 62
253
  6
CONTINUOUS
 10
162.2429066234
 20
115.4946197207
 11
162.5924256234
 21
115.8441387207
  0
LINE
  5
2A0
100
AcDbEntity
  8
RACCORDO
100
AcDbLine
 62
253
  6
CONTINUOUS
 10
173.4081961082
 20
124.4788983679
 11
173.529609461
 21
124.6003117207
  0
LINE
  5
2A1
100
AcDbEntity
  8
0
100
AcDbLine
 62
253
  6
CONTINUOUS
 10
173.4081961082
 20
124.4788983679
 11
173.529609461
 21
124.6003117207
  0
LINE
  5
2A2
100
AcDbEntity
  8
0
100
AcDbLine
 62
253
  6
CONTINUOUS
 10
162.4505886234
 20
116.0567817207
 11
162.2113366234
 21
115.8183197207
  0
LINE
  5
2A3
100
AcDbEntity
  8
0
100
AcDbLine
 62
253
  6
CONTINUOUS
 10
161.3271656234
 20
112.8289147207
 11
161.4757676234
 21
112.9767277207
  0
LINE
  5
2A4
100
AcDbEntity
  8
0
100
AcDbLine
 62
253
  6
CONTINUOUS
 10
161.3118316234
 20
113.2751717207
 11
161.0299616234
 21
112.9948797207
  0
LINE
  5
2A5
100
AcDbEntity
  8
0
100
AcDbLine
 62
253
  6
CONTINUOUS
 10
161.4757676234
 20
112.9767277207
 11
161.5431916234
 21
113.0178807207
  0
LINE
  5
2A6
100
AcDbEntity
  8
0
100
AcDbLine
 62
253
  6
CONTINUOUS
 10
166.7627556234
 20
114.3999477207
 11
166.8146206234
 21
114.4285857207
  0
LINE
  5
2A7
100
AcDbEntity
  8
0
100
AcDbLine
 62
253
  6
CONTINUOUS
 10
166.1020516234
 20
114.4255417207
 11
166.2375746234
 21
114.4938667207
  0
LINE
  5
2A8
100
AcDbEntity
  8
0
100
AcDbLine
 62
253
  6
CONTINUOUS
 10
166.1340726234
 20
114.8208367207
 11
165.8993306234
 21
114.7025637207
  0
LINE
  5
2A9
100
AcDbEntity
  8
0
100
AcDbLine
 62
253
  6
CONTINUOUS
 10
167.1125006234
 20
114.3203477207
 11
166.8220616234
 21
114.1743387207
  0
LINE
  5
2AA
100
AcDbEntity
  8
0
100
AcDbLine
 62
253
  6
CONTINUOUS
 10
167.0270376234
 20
113.9110717207
 11
167.4124106234
 21
114.1048857207
  0
LINE
  5
2AB
100
AcDbEntity
  8
0
100
AcDbLine
 62
253
  6
CONTINUOUS
 10
161.2568106234
 20
111.0533557207
 11
161.2967236234
 21
111.0728617207
  0
LINE
  5
2AC
100
AcDbEntity
  8
0
100
AcDbLine
 62
253
  6
CONTINUOUS
 10
166.0321476234
 20
113.4145277207
 11
166.0776976234
 21
113.4356117207
  0
LINE
  5
2AD
100
AcDbEntity
  8
RACCORDO
100
AcDbLine
 62
253
  6
CONTINUOUS
 10
173.529609461
 20
80.4003117207
 11
173.408196108
 21
80.5217250736
  0
LINE
  5
2AE
100
AcDbEntity
  8
0
100
AcDbLine
 62
253
  6
CONTINUOUS
 10
173.529609461
 20
80.4003117207
 11
173.408196108
 21
80.5217250736
  0
LWPOLYLINE
  5
2AF
100
AcDbEntity
  8
0
100
AcDbPolyline
 62
7
  6
CONTINUOUS
 90
3
 70
0
 10
157.0318705267
 20
91.0082646503
 10
157.0334567909
 20
91.0038483983
 10
157.0331596751
 20
91.0003113302
  0
LINE
  5
2B0
100
AcDbEntity
  8
0
100
AcDbLine
 62
7
  6
CONTINUOUS
 10
157.1165699636
 20
90.1709613187
 11
157.1094619569
 21
90.2052929184
  0
LWPOLYLINE
  5
2B1
100
AcDbEntity
  8
0
100
AcDbPolyline
 62
7
  6
CONTINUOUS
 90
3
 70
0
 10
157.1094619569
 20
90.2052929184
 10
157.1032206487
 20
90.2367444671
 10
157.10039175
 20
90.2514450476
  0
LINE
  5
2B2
100
AcDbEntity
  8
0
100
AcDbLine
 62
7
  6
CONTINUOUS
 10
157.0531917301
 20
90.5656083112
 11
157.0507929715
 21
90.5879374472
  0
LINE
  5
2B3
100
AcDbEntity
  8
0
100
AcDbLine
 62
7
  6
CONTINUOUS
 10
157.0507929715
 20
90.5879374472
 11
157.0481816414
 21
90.6137088752
  0
LINE
  5
2B4
100
AcDbEntity
  8
0
100
AcDbLine
 62
7
  6
CONTINUOUS
 10
157.0481816414
 20
90.6137088752
 11
157.0463963581
 21
90.6323660305
  0
LINE
  5
2B5
100
AcDbEntity
  8
0
100
AcDbLine
 62
7
  6
CONTINUOUS
 10
157.0463963581
 20
90.6323660305
 11
157.0446277985
 21
90.6518329451
  0
LINE
  5
2B6
100
AcDbEntity
  8
0
100
AcDbLine
 62
7
  6
CONTINUOUS
 10
157.0446277985
 20
90.6518329451
 11
157.0429159719
 21
90.6717727985
  0
LINE
  5
2B7
100
AcDbEntity
  8
0
100
AcDbLine
 62
7
  6
CONTINUOUS
 10
157.0429159719
 20
90.6717727985
 11
157.0412857239
 21
90.6919603775
  0
LINE
  5
2B8
100
AcDbEntity
  8
0
100
AcDbLine
 62
7
  6
CONTINUOUS
 10
157.0412857239
 20
90.6919603775
 11
157.0397655092
 21
90.7120574723
  0
LINE
  5
2B9
100
AcDbEntity
  8
0
100
AcDbLine
 62
7
  6
CONTINUOUS
 10
157.0397655092
 20
90.7120574723
 11
157.0383769678
 21
90.7317251887
  0
LINE
  5
2BA
100
AcDbEntity
  8
0
100
AcDbLine
 62
7
  6
CONTINUOUS
 10
157.0383769678
 20
90.7317251887
 11
157.0371280308
 21
90.7507374437
  0
LINE
  5
2BB
100
AcDbEntity
  8
0
100
AcDbLine
 62
7
  6
CONTINUOUS
 10
157.0371280308
 20
90.7507374437
 11
157.0360294704
 21
90.7687475499
  0
LINE
  5
2BC
100
AcDbEntity
  8
0
100
AcDbLine
 62
7
  6
CONTINUOUS
 10
157.0360294704
 20
90.7687475499
 11
157.0346688147
 21
90.7932160166
  0
LINE
  5
2BD
100
AcDbEntity
  8
0
100
AcDbLine
 62
7
  6
CONTINUOUS
 10
157.0346688147
 20
90.7932160166
 11
157.0336076497
 21
90.814523101
  0
LINE
  5
2BE
100
AcDbEntity
  8
0
100
AcDbLine
 62
7
  6
CONTINUOUS
 10
157.0336076497
 20
90.814523101
 11
157.032769257
 21
90.8332686194
  0
LINE
  5
2BF
100
AcDbEntity
  8
0
100
AcDbLine
 62
7
  6
CONTINUOUS
 10
157.032769257
 20
90.8332686194
 11
157.031885901
 21
90.855623531
  0
LINE
  5
2C0
100
AcDbEntity
  8
0
100
AcDbLine
 62
7
  6
CONTINUOUS
 10
157.031885901
 20
90.855623531
 11
157.03118466
 21
90.8762049323
  0
LINE
  5
2C1
100
AcDbEntity
  8
0
100
AcDbLine
 62
7
  6
CONTINUOUS
 10
157.03118466
 20
90.8762049323
 11
157.0306317758
 21
90.8952386408
  0
LINE
  5
2C2
100
AcDbEntity
  8
0
100
AcDbLine
 62
7
  6
CONTINUOUS
 10
157.0306317758
 20
90.8952386408
 11
157.0302051247
 21
90.9127073005
  0
LINE
  5
2C3
100
AcDbEntity
  8
0
100
AcDbLine
 62
7
  6
CONTINUOUS
 10
157.0302051247
 20
90.9127073005
 11
157.0298182582
 21
90.9323270755
  0
LINE
  5
2C4
100
AcDbEntity
  8
0
100
AcDbLine
 62
7
  6
CONTINUOUS
 10
157.0298182582
 20
90.9323270755
 11
157.0295584017
 21
90.9495934338
  0
LINE
  5
2C5
100
AcDbEntity
  8
0
100
AcDbLine
 62
7
  6
CONTINUOUS
 10
157.0295584017
 20
90.9495934338
 11
157.0293692222
 21
90.9674638324
  0
LINE
  5
2C6
100
AcDbEntity
  8
0
100
AcDbLine
 62
7
  6
CONTINUOUS
 10
157.0293692222
 20
90.9674638324
 11
157.029282675
 21
90.98038445
  0
LINE
  5
2C7
100
AcDbEntity
  8
0
100
AcDbLine
 62
253
  6
CONTINUOUS
 10
162.0036546234
 20
115.4974387207
 11
161.9452516234
 21
115.3601117207
  0
LINE
  5
2C8
100
AcDbEntity
  8
0
100
AcDbLine
 62
253
  6
CONTINUOUS
 10
162.0101946234
 20
115.5125467207
 11
162.0036546234
 21
115.4974387207
  0
LINE
  5
2C9
100
AcDbEntity
  8
0
100
AcDbLine
 62
253
  6
CONTINUOUS
 10
161.6593216234
 20
116.3052797207
 11
161.6236936234
 21
116.2433807207
  0
LINE
  5
2CA
100
AcDbEntity
  8
0
100
AcDbLine
 62
253
  6
CONTINUOUS
 10
161.2967236234
 20
111.0728617207
 11
161.3546766234
 21
111.1382557207
  0
LINE
  5
2CB
100
AcDbEntity
  8
RACCORDO
100
AcDbLine
 62
253
  6
CONTINUOUS
 10
173.9080247707
 20
123.9790697054
 11
174.0294381234
 21
124.1004830582
  0
LINE
  5
2CC
100
AcDbEntity
  8
0
100
AcDbLine
 62
253
  6
CONTINUOUS
 10
173.9080247707
 20
123.9790697054
 11
174.0294381234
 21
124.1004830582
  0
LINE
  5
2CD
100
AcDbEntity
  8
0
100
AcDbLine
 62
253
  6
CONTINUOUS
 10
163.6326406234
 20
113.1902727207
 11
164.1294096234
 21
113.6865897207
  0
LINE
  5
2CE
100
AcDbEntity
  8
0
100
AcDbLine
 62
253
  6
CONTINUOUS
 10
163.8019886234
 20
113.8670997207
 11
163.4520176234
 21
113.5176927207
  0
LINE
  5
2CF
100
AcDbEntity
  8
0
100
AcDbLine
 62
253
  6
CONTINUOUS
 10
164.1891656234
 20
113.3831847207
 11
164.1181346234
 21
113.3197077207
  0
LINE
  5
2D0
100
AcDbEntity
  8
0
100
AcDbLine
 62
253
  6
CONTINUOUS
 10
166.3011646234
 20
114.2410857207
 11
166.2310356234
 21
114.1794117207
  0
LINE
  5
2D1
100
AcDbEntity
  8
0
100
AcDbLine
 62
253
  6
CONTINUOUS
 10
164.0464266234
 20
111.9371887207
 11
164.2877076234
 21
112.1476897207
  0
LINE
  5
2D2
100
AcDbEntity
  8
0
100
AcDbLine
 62
253
  6
CONTINUOUS
 10
163.9853176234
 20
112.3533427207
 11
163.8833926234
 21
112.2646097207
  0
LINE
  5
2D3
100
AcDbEntity
  8
0
100
AcDbLine
 62
253
  6
CONTINUOUS
 10
167.5091486234
 20
114.0030737207
 11
167.4444316234
 21
113.9535777207
  0
LINE
  5
2D4
100
AcDbEntity
  8
0
100
AcDbLine
 62
253
  6
CONTINUOUS
 10
167.3718216234
 20
113.6880557207
 11
167.1932286234
 21
113.5521937207
  0
LINE
  5
2D5
100
AcDbEntity
  8
0
100
AcDbLine
 62
253
  6
CONTINUOUS
 10
165.4262396234
 20
111.1623837207
 11
165.4826136234
 21
111.1975607207
  0
LINE
  5
2D6
100
AcDbEntity
  8
0
100
AcDbLine
 62
253
  6
CONTINUOUS
 10
166.0657466234
 20
113.0531707207
 11
166.0093726234
 21
113.0181057207
  0
LWPOLYLINE
  5
2D7
100
AcDbEntity
  8
0
100
AcDbPolyline
 62
7
  6
CONTINUOUS
 90
12
 70
0
 10
161.0294381234
 20
95.0003121811
 10
160.8316524832
 20
94.9954950903
 10
160.641604941
 20
94.9815232516
 10
160.4598531172
 20
94.9595682909
 10
160.2873866266
 20
94.9308441568
 10
160.1239530793
 20
94.8963960138
 10
159.9680943259
 20
94.8568615083
 10
159.8197982151
 20
94.8129871167
 10
159.6793286736
 20
94.7655674962
 10
159.5455949129
 20
94.7149222474
 10
159.418523218
 20
94.6616433948
 10
159.2981974655
 20
94.6063523253
  0
LINE
  5
2D8
100
AcDbEntity
  8
0
100
AcDbLine
 62
7
  6
CONTINUOUS
 10
165.0290132816
 20
95.0003474388
 11
161.0298630665
 21
95.0003474388
  0
LINE
  5
2D9
100
AcDbEntity
  8
DRAFT
100
AcDbLine
 62
7
  6
CONTINUOUS
 10
161.0298630665
 20
95.0003474388
 11
165.0290132816
 21
95.0003474388
  0
LWPOLYLINE
  5
2DA
100
AcDbEntity
  8
DRAFT
100
AcDbPolyline
 62
7
  6
CONTINUOUS
 90
52
 70
0
 10
165.0290132816
 20
95.0003474388
 10
165.2773157782
 20
94.9925580267
 10
165.5229985859
 20
94.9697420713
 10
165.7660613008
 20
94.9318996402
 10
166.0075636635
 20
94.878719806
 10
166.2464451673
 20
94.8105137659
 10
166.4795253655
 20
94.7282147714
 10
166.7064250848
 20
94.6317856183
 10
166.9275236478
 20
94.5212638554
 10
167.1407789179
 20
94.3976947952
 10
167.3464518393
 20
94.2606746568
 10
167.544282317
 20
94.1106076503
 10
167.7314472246
 20
93.9497509558
 10
167.9074146381
 20
93.7783684961
 10
168.0727181898
 20
93.5961966922
 10
168.2261335271
 20
93.4047013325
 10
168.3678800977
 20
93.2033017191
 10
168.4977403355
 20
92.9925789215
 10
168.6138346033
 20
92.7757412046
 10
168.7157231165
 20
92.553322278
 10
168.8038475528
 20
92.3247886228
 10
168.8776505294
 20
92.0917474818
 10
168.9371648956
 20
91.853508047
 10
168.9823590936
 20
91.6107613732
 10
169.0125789967
 20
91.3671873023
 10
169.0276077728
 20
91.1234655077
 10
169.0276627331
 20
90.8789163672
 10
169.0127407535
 20
90.6351805782
 10
168.9826230387
 20
90.3915760852
 10
168.9375279069
 20
90.1487850687
 10
168.8781076914
 20
89.9104943636
 10
168.804394263
 20
89.6773964099
 10
168.7163544605
 20
89.4487986412
 10
168.6145429344
 20
89.2263101474
 10
168.4985193875
 20
89.0093987009
 10
168.3687222236
 20
88.7985963974
 10
168.2270242053
 20
88.5971085715
 10
168.0736408291
 20
88.405511629
 10
167.9083547141
 20
88.2232287151
 10
167.7323895422
 20
88.0517350248
 10
167.5452148086
 20
87.890768774
 10
167.3473593065
 20
87.7405912408
 10
167.1416361029
 20
87.6034620101
 10
166.9282927247
 20
87.4797795693
 10
166.7070807898
 20
87.3691447507
 10
166.4800700733
 20
87.2726204899
 10
166.2468554527
 20
87.1902480433
 10
166.0078419008
 20
87.1219855796
 10
165.7663149146
 20
87.068771322
 10
165.523370027
 20
87.030917843
 10
165.277912489
 20
87.0081121568
 10
165.0299427107
 20
87.0003541674
  0
LWPOLYLINE
  5
2DB
100
AcDbEntity
  8
0
100
AcDbPolyline
 62
7
  6
CONTINUOUS
 90
52
 70
0
 10
165.0290132816
 20
95.0003474388
 10
165.2773157782
 20
94.9925580267
 10
165.5229985859
 20
94.9697420713
 10
165.7660613008
 20
94.9318996402
 10
166.0075636635
 20
94.878719806
 10
166.2464451673
 20
94.8105137659
 10
166.4795253655
 20
94.7282147714
 10
166.7064250848
 20
94.6317856183
 10
166.9275236478
 20
94.5212638554
 10
167.1407789179
 20
94.3976947952
 10
167.3464518393
 20
94.2606746568
 10
167.544282317
 20
94.1106076503
 10
167.7314472246
 20
93.9497509558
 10
167.9074146381
 20
93.7783684961
 10
168.0727181898
 20
93.5961966922
 10
168.2261335271
 20
93.4047013325
 10
168.3678800977
 20
93.2033017191
 10
168.4977403355
 20
92.9925789215
 10
168.6138346033
 20
92.7757412046
 10
168.7157231165
 20
92.553322278
 10
168.8038475528
 20
92.3247886228
 10
168.8776505294
 20
92.0917474818
 10
168.9371648956
 20
91.853508047
 10
168.9823590936
 20
91.6107613732
 10
169.0125789967
 20
91.3671873023
 10
169.0276077728
 20
91.1234655077
 10
169.0276627331
 20
90.8789163672
 10
169.0127407535
 20
90.6351805782
 10
168.9826230387
 20
90.3915760852
 10
168.9375279069
 20
90.1487850687
 10
168.8781076914
 20
89.9104943636
 10
168.804394263
 20
89.6773964099
 10
168.7163544605
 20
89.4487986412
 10
168.6145429344
 20
89.2263101474
 10
168.4985193875
 20
89.0093987009
 10
168.3687222236
 20
88.7985963974
 10
168.2270242053
 20
88.5971085715
 10
168.0736408291
 20
88.405511629
 10
167.9083547141
 20
88.2232287151
 10
167.7323895422
 20
88.0517350248
 10
167.5452148086
 20
87.890768774
 10
167.3473593065
 20
87.7405912408
 10
167.1416361029
 20
87.6034620101
 10
166.9282927247
 20
87.4797795693
 10
166.7070807898
 20
87.3691447507
 10
166.4800700733
 20
87.2726204899
 10
166.2468554527
 20
87.1902480433
 10
166.0078419008
 20
87.1219855796
 10
165.7663149146
 20
87.068771322
 10
165.523370027
 20
87.030917843
 10
165.277912489
 20
87.0081121568
 10
165.0299427107
 20
87.0003541674
  0
LWPOLYLINE
  5
2DC
100
AcDbEntity
  8
0
100
AcDbPolyline
 62
7
  6
CONTINUOUS
 90
3
 70
0
 10
165.3197309977
 20
94.9898076392
 10
165.1751340871
 20
94.9977095131
 10
165.0294381234
 20
95.0003121813
  0
LWPOLYLINE
  5
2DD
100
AcDbEntity
  8
0
100
AcDbPolyline
 62
7
  6
CONTINUOUS
 90
9
 70
0
 10
166.5273463971
 20
94.7093121841
 10
166.4050426758
 20
94.7563365543
 10
166.2792834314
 20
94.7999719182
 10
166.1501391414
 20
94.8400320792
 10
166.0177489338
 20
94.8762484784
 10
165.8826325641
 20
94.9082350032
 10
165.7449346147
 20
94.9357746726
 10
165.6048458001
 20
94.9586945315
 10
165.4629935907
 20
94.9767583779
  0
LINE
  5
2DE
100
AcDbEntity
  8
RACCORDO
100
AcDbLine
 62
253
  6
CONTINUOUS
 10
174.0294381234
 20
80.9001403832
 11
173.9080247696
 21
81.021553737
  0
LINE
  5
2DF
100
AcDbEntity
  8
0
100
AcDbLine
 62
253
  6
CONTINUOUS
 10
174.0294381234
 20
80.9001403832
 11
173.9080247696
 21
81.021553737
  0
LINE
  5
2E0
100
AcDbEntity
  8
0
100
AcDbLine
 62
253
  6
CONTINUOUS
 10
158.4175335023
 20
97.3717403087
 11
158.7889620903
 21
97.0003117207
  0
LINE
  5
2E1
100
AcDbEntity
  8
0
100
AcDbLine
 62
7
  6
CONTINUOUS
 10
157.10039175
 20
90.2514450476
 11
157.0952680568
 21
90.2788477523
  0
LINE
  5
2E2
100
AcDbEntity
  8
0
100
AcDbLine
 62
7
  6
CONTINUOUS
 10
157.0952680568
 20
90.2788477523
 11
157.0907792585
 21
90.3037556892
  0
LINE
  5
2E3
100
AcDbEntity
  8
0
100
AcDbLine
 62
7
  6
CONTINUOUS
 10
157.0907792585
 20
90.3037556892
 11
157.0868577068
 21
90.3262794855
  0
LINE
  5
2E4
100
AcDbEntity
  8
0
100
AcDbLine
 62
7
  6
CONTINUOUS
 10
157.0868577068
 20
90.3262794855
 11
157.0834331686
 21
90.3465906673
  0
LINE
  5
2E5
100
AcDbEntity
  8
0
100
AcDbLine
 62
7
  6
CONTINUOUS
 10
157.0834331686
 20
90.3465906673
 11
157.0804430075
 21
90.3648616831
  0
LINE
  5
2E6
100
AcDbEntity
  8
0
100
AcDbLine
 62
7
  6
CONTINUOUS
 10
157.0804430075
 20
90.3648616831
 11
157.0766666192
 21
90.3887225553
  0
LINE
  5
2E7
100
AcDbEntity
  8
0
100
AcDbLine
 62
7
  6
CONTINUOUS
 10
157.0766666192
 20
90.3887225553
 11
157.0735993397
 21
90.4088155902
  0
LINE
  5
2E8
100
AcDbEntity
  8
0
100
AcDbLine
 62
7
  6
CONTINUOUS
 10
157.0735993397
 20
90.4088155902
 11
157.0703849593
 21
90.4306360021
  0
LINE
  5
2E9
100
AcDbEntity
  8
0
100
AcDbLine
 62
7
  6
CONTINUOUS
 10
157.0703849593
 20
90.4306360021
 11
157.0673942597
 21
90.4517198602
  0
LINE
  5
2EA
100
AcDbEntity
  8
0
100
AcDbLine
 62
7
  6
CONTINUOUS
 10
157.0673942597
 20
90.4517198602
 11
157.0647422303
 21
90.471120198
  0
LINE
  5
2EB
100
AcDbEntity
  8
0
100
AcDbLine
 62
7
  6
CONTINUOUS
 10
157.0647422303
 20
90.471120198
 11
157.0621443666
 21
90.4908413126
  0
LINE
  5
2EC
100
AcDbEntity
  8
0
100
AcDbLine
 62
7
  6
CONTINUOUS
 10
157.0621443666
 20
90.4908413126
 11
157.0597014106
 21
90.5101105332
  0
LINE
  5
2ED
100
AcDbEntity
  8
0
100
AcDbLine
 62
7
  6
CONTINUOUS
 10
157.0597014106
 20
90.5101105332
 11
157.0571545216
 21
90.5310415471
  0
LINE
  5
2EE
100
AcDbEntity
  8
0
100
AcDbLine
 62
7
  6
CONTINUOUS
 10
157.0571545216
 20
90.5310415471
 11
157.0546373174
 21
90.5526894939
  0
LINE
  5
2EF
100
AcDbEntity
  8
0
100
AcDbLine
 62
7
  6
CONTINUOUS
 10
157.0546373174
 20
90.5526894939
 11
157.0531917301
 21
90.5656083112
  0
LINE
  5
2F0
100
AcDbEntity
  8
0
100
AcDbLine
 62
253
  6
CONTINUOUS
 10
157.5508667085
 20
103.2003117207
 11
157.5508667085
 21
100.6003117207
  0
LINE
  5
2F1
100
AcDbEntity
  8
0
100
AcDbLine
 62
253
  6
CONTINUOUS
 10
158.4175335023
 20
99.2288831714
 11
158.4175335023
 21
97.3717403087
  0
LINE
  5
2F2
100
AcDbEntity
  8
0
100
AcDbLine
 62
253
  6
CONTINUOUS
 10
158.8508667085
 20
102.0860260728
 11
158.8508667085
 21
102.8288831714
  0
LINE
  5
2F3
100
AcDbEntity
  8
0
100
AcDbLine
 62
7
  6
CONTINUOUS
 10
157.0294198424
 20
91.0387563748
 11
157.0292819385
 21
91.020100651
  0
LINE
  5
2F4
100
AcDbEntity
  8
0
100
AcDbLine
 62
7
  6
CONTINUOUS
 10
157.0296478221
 20
91.0575655745
 11
157.0294198424
 21
91.0387563748
  0
LINE
  5
2F5
100
AcDbEntity
  8
0
100
AcDbLine
 62
7
  6
CONTINUOUS
 10
157.0299503502
 20
91.0755829443
 11
157.0296478221
 21
91.0575655745
  0
LINE
  5
2F6
100
AcDbEntity
  8
0
100
AcDbLine
 62
7
  6
CONTINUOUS
 10
157.0303974826
 20
91.0961957399
 11
157.0299503502
 21
91.0755829443
  0
LINE
  5
2F7
100
AcDbEntity
  8
0
100
AcDbLine
 62
7
  6
CONTINUOUS
 10
157.0308924218
 20
91.1147611916
 11
157.0303974826
 21
91.0961957399
  0
LINE
  5
2F8
100
AcDbEntity
  8
0
100
AcDbLine
 62
7
  6
CONTINUOUS
 10
157.0315399326
 20
91.1352457409
 11
157.0308924218
 21
91.1147611916
  0
LINE
  5
2F9
100
AcDbEntity
  8
0
100
AcDbLine
 62
7
  6
CONTINUOUS
 10
157.032373171
 20
91.1577317318
 11
157.0315399326
 21
91.1352457409
  0
LINE
  5
2FA
100
AcDbEntity
  8
0
100
AcDbLine
 62
7
  6
CONTINUOUS
 10
157.0331499609
 20
91.1761219597
 11
157.032373171
 21
91.1577317318
  0
LINE
  5
2FB
100
AcDbEntity
  8
0
100
AcDbLine
 62
7
  6
CONTINUOUS
 10
157.0340957449
 20
91.1961953689
 11
157.0331499609
 21
91.1761219597
  0
LINE
  5
2FC
100
AcDbEntity
  8
0
100
AcDbLine
 62
7
  6
CONTINUOUS
 10
157.0352584031
 20
91.2183533061
 11
157.0340957449
 21
91.1961953689
  0
LINE
  5
2FD
100
AcDbEntity
  8
0
100
AcDbLine
 62
7
  6
CONTINUOUS
 10
157.0366836232
 20
91.2427669933
 11
157.0352584031
 21
91.2183533061
  0
LINE
  5
2FE
100
AcDbEntity
  8
0
100
AcDbLine
 62
7
  6
CONTINUOUS
 10
157.0377918767
 20
91.2601696761
 11
157.0366836232
 21
91.2427669933
  0
LINE
  5
2FF
100
AcDbEntity
  8
0
100
AcDbLine
 62
7
  6
CONTINUOUS
 10
157.039032141
 20
91.2783562207
 11
157.0377918767
 21
91.2601696761
  0
LINE
  5
300
100
AcDbEntity
  8
0
100
AcDbLine
 62
7
  6
CONTINUOUS
 10
157.0404051279
 20
91.2971916738
 11
157.039032141
 21
91.2783562207
  0
LINE
  5
301
100
AcDbEntity
  8
0
100
AcDbLine
 62
7
  6
CONTINUOUS
 10
157.0419094495
 20
91.3165422645
 11
157.0404051279
 21
91.2971916738
  0
LINE
  5
302
100
AcDbEntity
  8
0
100
AcDbLine
 62
7
  6
CONTINUOUS
 10
157.0435450522
 20
91.3363186422
 11
157.0419094495
 21
91.3165422645
  0
LINE
  5
303
100
AcDbEntity
  8
0
100
AcDbLine
 62
7
  6
CONTINUOUS
 10
157.0453063221
 20
91.356387195
 11
157.0435450522
 21
91.3363186422
  0
LINE
  5
304
100
AcDbEntity
  8
0
100
AcDbLine
 62
7
  6
CONTINUOUS
 10
157.047184949
 20
91.3766138574
 11
157.0453063221
 21
91.356387195
  0
LINE
  5
305
100
AcDbEntity
  8
0
100
AcDbLine
 62
7
  6
CONTINUOUS
 10
157.0491744111
 20
91.3969099976
 11
157.047184949
 21
91.3766138574
  0
LINE
  5
306
100
AcDbEntity
  8
0
100
AcDbLine
 62
7
  6
CONTINUOUS
 10
157.0512586466
 20
91.4171139009
 11
157.0491744111
 21
91.3969099976
  0
LINE
  5
307
100
AcDbEntity
  8
0
100
AcDbLine
 62
7
  6
CONTINUOUS
 10
157.0534384534
 20
91.4372458038
 11
157.0512586466
 21
91.4171139009
  0
LINE
  5
308
100
AcDbEntity
  8
0
100
AcDbLine
 62
7
  6
CONTINUOUS
 10
157.0557184615
 20
91.4573554909
 11
157.0534384534
 21
91.4372458038
  0
LINE
  5
309
100
AcDbEntity
  8
0
100
AcDbLine
 62
7
  6
CONTINUOUS
 10
157.058117395
 20
91.4776002282
 11
157.0557184615
 21
91.4573554909
  0
LINE
  5
30A
100
AcDbEntity
  8
0
100
AcDbLine
 62
7
  6
CONTINUOUS
 10
157.0606572214
 20
91.4981374165
 11
157.058117395
 21
91.4776002282
  0
LINE
  5
30B
100
AcDbEntity
  8
0
100
AcDbLine
 62
7
  6
CONTINUOUS
 10
157.0633560919
 20
91.5190698788
 11
157.0606572214
 21
91.4981374165
  0
LINE
  5
30C
100
AcDbEntity
  8
0
100
AcDbLine
 62
7
  6
CONTINUOUS
 10
157.0662415519
 20
91.5405520334
 11
157.0633560919
 21
91.5190698788
  0
LINE
  5
30D
100
AcDbEntity
  8
0
100
AcDbLine
 62
7
  6
CONTINUOUS
 10
157.069344687
 20
91.5627380577
 11
157.0662415519
 21
91.5405520334
  0
LINE
  5
30E
100
AcDbEntity
  8
0
100
AcDbLine
 62
7
  6
CONTINUOUS
 10
157.0726926587
 20
91.5857294875
 11
157.069344687
 21
91.5627380577
  0
LINE
  5
30F
100
AcDbEntity
  8
0
100
AcDbLine
 62
7
  6
CONTINUOUS
 10
157.0763227228
 20
91.609674489
 11
157.0726926587
 21
91.5857294875
  0
LINE
  5
310
100
AcDbEntity
  8
0
100
AcDbLine
 62
7
  6
CONTINUOUS
 10
157.0802816488
 20
91.6347535012
 11
157.0763227228
 21
91.609674489
  0
LINE
  5
311
100
AcDbEntity
  8
0
100
AcDbLine
 62
7
  6
CONTINUOUS
 10
157.0846076079
 20
91.6610617472
 11
157.0802816488
 21
91.6347535012
  0
LINE
  5
312
100
AcDbEntity
  8
0
100
AcDbLine
 62
7
  6
CONTINUOUS
 10
157.0893439975
 20
91.6887026867
 11
157.0846076079
 21
91.6610617472
  0
LINE
  5
313
100
AcDbEntity
  8
0
100
AcDbLine
 62
7
  6
CONTINUOUS
 10
157.0945513181
 20
91.7178490706
 11
157.0893439975
 21
91.6887026867
  0
LINE
  5
314
100
AcDbEntity
  8
0
100
AcDbLine
 62
253
  6
CONTINUOUS
 10
161.3546766234
 20
111.1382557207
 11
161.3693336234
 21
111.1803107207
  0
LINE
  5
315
100
AcDbEntity
  8
0
100
AcDbLine
 62
253
  6
CONTINUOUS
 10
161.0299616234
 20
112.9948797207
 11
160.9454006234
 21
112.7732167207
  0
LINE
  5
316
100
AcDbEntity
  8
0
100
AcDbLine
 62
253
  6
CONTINUOUS
 10
161.2775566234
 20
112.6990287207
 11
161.3271656234
 21
112.8289147207
  0
LINE
  5
317
100
AcDbEntity
  8
0
100
AcDbLine
 62
253
  6
CONTINUOUS
 10
164.0344756234
 20
115.5124337207
 11
164.4209766234
 21
116.1804667207
  0
LINE
  5
318
100
AcDbEntity
  8
0
100
AcDbLine
 62
253
  6
CONTINUOUS
 10
164.0489066234
 20
116.1906147207
 11
163.8333326234
 21
115.8182067207
  0
LINE
  5
319
100
AcDbEntity
  8
0
100
AcDbLine
 62
253
  6
CONTINUOUS
 10
165.8794866234
 20
114.1219107207
 11
166.1020516234
 21
114.4255417207
  0
LINE
  5
31A
100
AcDbEntity
  8
0
100
AcDbLine
 62
253
  6
CONTINUOUS
 10
165.8993306234
 20
114.7025637207
 11
165.5144076234
 21
114.1772697207
  0
LINE
  5
31B
100
AcDbEntity
  8
0
100
AcDbLine
 62
253
  6
CONTINUOUS
 10
166.0776976234
 20
113.4356117207
 11
166.1370036234
 21
113.5057417207
  0
LINE
  5
31C
100
AcDbEntity
  8
0
100
AcDbLine
 62
253
  6
CONTINUOUS
 10
164.9439026234
 20
111.0503117207
 11
165.0156096234
 21
111.1179607207
  0
LINE
  5
31D
100
AcDbEntity
  8
0
100
AcDbLine
 62
253
  6
CONTINUOUS
 10
167.3400266234
 20
113.2248857207
 11
167.6485056234
 21
113.4598527207
  0
LINE
  5
31E
100
AcDbEntity
  8
0
100
AcDbLine
 62
253
  6
CONTINUOUS
 10
161.512771568
 20
97.0002988446
 11
160.5842001173
 21
97.0003275917
  0
LINE
  5
31F
100
AcDbEntity
  8
0
100
AcDbLine
 62
253
  6
CONTINUOUS
 10
162.2556286666
 20
97.0003157628
 11
163.3699144695
 21
97.0003119902
  0
LINE
  5
320
100
AcDbEntity
  8
0
100
AcDbLine
 62
253
  6
CONTINUOUS
 10
165.3508670423
 20
97.7431828228
 11
164.3603909108
 21
97.7431579669
  0
LINE
  5
321
100
AcDbEntity
  8
0
100
AcDbLine
 62
253
  6
CONTINUOUS
 10
162.2556286666
 20
98.4860285508
 11
162.9984857652
 21
98.4860250366
  0
LINE
  5
322
100
AcDbEntity
  8
0
100
AcDbLine
 62
253
  6
CONTINUOUS
 10
158.7889620903
 20
97.0003351449
 11
159.5318192277
 21
97.0002902142
  0
LINE
  5
323
100
AcDbEntity
  8
0
100
AcDbLine
 62
7
  6
CONTINUOUS
 10
166.7603831217
 20
94.6064629179
 11
166.6458223032
 21
94.6592409043
  0
LINE
  5
324
100
AcDbEntity
  8
0
100
AcDbLine
 62
7
  6
CONTINUOUS
 10
166.9775132347
 20
94.4939586842
 11
166.8710198847
 21
94.5512579853
  0
LINE
  5
325
100
AcDbEntity
  8
0
100
AcDbLine
 62
253
  6
CONTINUOUS
 10
159.5937238071
 20
100.6003117207
 11
159.5937238071
 21
103.2003117207
  0
LINE
  5
326
100
AcDbEntity
  8
0
100
AcDbLine
 62
253
  6
CONTINUOUS
 10
160.5842001173
 20
97.0003117207
 11
160.5842001173
 21
99.6003117207
  0
LINE
  5
327
100
AcDbEntity
  8
0
100
AcDbLine
 62
253
  6
CONTINUOUS
 10
161.0294381234
 20
95.0003470813
 11
161.0294381234
 21
87.0003532101
  0
LINE
  5
328
100
AcDbEntity
  8
0
100
AcDbLine
 62
7
  6
CONTINUOUS
 10
157.1002834845
 20
91.7486014218
 11
157.0945513181
 21
91.7178490706
  0
LINE
  5
329
100
AcDbEntity
  8
0
100
AcDbLine
 62
7
  6
CONTINUOUS
 10
157.1066088148
 20
91.7811052686
 11
157.1002834845
 21
91.7486014218
  0
LINE
  5
32A
100
AcDbEntity
  8
0
100
AcDbLine
 62
253
  6
CONTINUOUS
 10
161.9452516234
 20
115.3601117207
 11
161.9154856234
 21
115.2145537207
  0
LINE
  5
32B
100
AcDbEntity
  8
0
100
AcDbLine
 62
253
  6
CONTINUOUS
 10
166.0093726234
 20
113.0181057207
 11
165.1766146234
 21
111.3169617207
  0
LINE
  5
32C
100
AcDbEntity
  8
0
100
AcDbLine
 62
253
  6
CONTINUOUS
 10
166.3688136234
 20
115.3238067207
 11
166.3223616234
 21
115.2309017207
  0
LINE
  5
32D
100
AcDbEntity
  8
0
100
AcDbLine
 62
253
  6
CONTINUOUS
 10
166.8146206234
 20
114.4285857207
 11
166.8928676234
 21
114.5527207207
  0
LINE
  5
32E
100
AcDbEntity
  8
0
100
AcDbLine
 62
253
  6
CONTINUOUS
 10
158.4794381592
 20
101.7145974461
 11
158.8508667085
 21
102.0860260728
  0
LINE
  5
32F
100
AcDbEntity
  8
0
100
AcDbLine
 62
253
  6
CONTINUOUS
 10
159.5318192277
 20
99.6002998407
 11
158.7889620903
 21
99.60032466
  0
LINE
  5
330
100
AcDbEntity
  8
0
100
AcDbLine
 62
253
  6
CONTINUOUS
 10
163.3699144695
 20
99.6003118696
 11
162.2556286666
 21
99.6003139535
  0
LINE
  5
331
100
AcDbEntity
  8
0
100
AcDbLine
 62
253
  6
CONTINUOUS
 10
167.393724117
 20
100.6002968376
 11
168.5080099199
 21
100.6003281816
  0
LINE
  5
332
100
AcDbEntity
  8
0
100
AcDbLine
 62
253
  6
CONTINUOUS
 10
160.5222954128
 20
100.6003043863
 11
159.5937238071
 21
100.6003201501
  0
LINE
  5
333
100
AcDbEntity
  8
0
100
AcDbLine
 62
253
  6
CONTINUOUS
 10
166.2794383142
 20
100.6003181794
 11
165.5365809057
 21
100.6003059627
  0
LINE
  5
334
100
AcDbEntity
  8
0
100
AcDbLine
 62
253
  6
CONTINUOUS
 10
161.2651525113
 20
100.6003163504
 11
162.3794380042
 21
100.6003086671
  0
LINE
  5
335
100
AcDbEntity
  8
0
100
AcDbLine
 62
253
  6
CONTINUOUS
 10
158.8508667085
 20
102.8288831714
 11
158.4794381592
 21
103.2003117207
  0
LINE
  5
336
100
AcDbEntity
  8
0
100
AcDbLine
 62
253
  6
CONTINUOUS
 10
161.3693336234
 20
111.1803107207
 11
161.2775566234
 21
112.6990287207
  0
LINE
  5
337
100
AcDbEntity
  8
0
100
AcDbLine
 62
253
  6
CONTINUOUS
 10
160.9454006234
 20
112.7732167207
 11
161.0450696234
 21
111.1193137207
  0
LINE
  5
338
100
AcDbEntity
  8
0
100
AcDbLine
 62
253
  6
CONTINUOUS
 10
161.2651525113
 20
103.2003117207
 11
161.2651525113
 21
100.6003117207
  0
LINE
  5
339
100
AcDbEntity
  8
0
100
AcDbLine
 62
253
  6
CONTINUOUS
 10
161.6236936234
 20
116.2433807207
 11
161.6236936234
 21
116.1806927207
  0
LINE
  5
33A
100
AcDbEntity
  8
0
100
AcDbLine
 62
253
  6
CONTINUOUS
 10
161.9154856234
 20
115.2145537207
 11
161.9154856234
 21
113.6865897207
  0
LINE
  5
33B
100
AcDbEntity
  8
0
100
AcDbLine
 62
253
  6
CONTINUOUS
 10
162.2429066234
 20
113.8670997207
 11
162.2429066234
 21
115.4946197207
  0
LINE
  5
33C
100
AcDbEntity
  8
0
100
AcDbLine
 62
253
  6
CONTINUOUS
 10
162.2556286666
 20
99.6003117207
 11
162.2556286666
 21
97.0003117207
  0
LWPOLYLINE
  5
33D
100
AcDbEntity
  8
0
100
AcDbPolyline
 62
253
  6
CONTINUOUS
 90
10
 70
0
 10
161.2788077198
 20
95.0003380553
 10
161.2622481757
 20
94.1057173188
 10
161.2498669964
 20
93.2127554025
 10
161.2416456723
 20
92.3214037269
 10
161.2375666285
 20
91.4320139871
 10
161.237606801
 20
90.5441483184
 10
161.2417561495
 20
89.6567830927
 10
161.2500175572
 20
88.7699006562
 10
161.2623883189
 20
87.8842907383
 10
161.2788666731
 20
87.0003429811
  0
LINE
  5
33E
100
AcDbEntity
  8
0
100
AcDbLine
 62
253
  6
CONTINUOUS
 10
164.2877076234
 20
112.1476897207
 11
164.4110546234
 21
113.0483227207
  0
LINE
  5
33F
100
AcDbEntity
  8
0
100
AcDbLine
 62
253
  6
CONTINUOUS
 10
164.1181346234
 20
113.3197077207
 11
163.9853176234
 21
112.3533427207
  0
LINE
  5
340
100
AcDbEntity
  8
0
100
AcDbLine
 62
253
  6
CONTINUOUS
 10
166.1370036234
 20
113.5057417207
 11
166.1507586234
 21
113.5481347207
  0
LINE
  5
341
100
AcDbEntity
  8
0
100
AcDbLine
 62
253
  6
CONTINUOUS
 10
166.8220616234
 20
114.1743387207
 11
166.7895896234
 21
114.0757967207
  0
LWPOLYLINE
  5
342
100
AcDbEntity
  8
0
100
AcDbPolyline
 62
7
  6
CONTINUOUS
 90
3
 70
0
 10
157.0319124153
 20
90.992239119
 10
157.0335060149
 20
90.9967306691
 10
157.0331596751
 20
91.0003113302
  0
LINE
  5
343
100
AcDbEntity
  8
0
100
AcDbLine
 62
253
  6
CONTINUOUS
 10
167.2058566234
 20
114.5725647207
 11
167.1125006234
 21
114.3203477207
  0
LINE
  5
344
100
AcDbEntity
  8
0
100
AcDbLine
 62
253
  6
CONTINUOUS
 10
167.4124106234
 20
114.1048857207
 11
167.5738666234
 21
114.5408827207
  0
LWPOLYLINE
  5
345
100
AcDbEntity
  8
0
100
AcDbPolyline
 62
7
  6
CONTINUOUS
 90
5
 70
0
 10
157.0292819385
 20
91.020100651
 10
157.0284311461
 20
91.0183368119
 10
157.027789133
 20
91.0164316285
 10
157.0292524517
 20
91.0129170268
 10
157.031239463
 20
91.0093860643
  0
LINE
  5
346
100
AcDbEntity
  8
0
100
AcDbLine
 62
253
  6
CONTINUOUS
 10
165.4826136234
 20
111.1975607207
 11
166.3151456234
 21
112.8987057207
  0
LINE
  5
347
100
AcDbEntity
  8
0
100
AcDbLine
 62
253
  6
CONTINUOUS
 10
158.7889620903
 20
99.6003117207
 11
158.4175335023
 21
99.2288831714
  0
LINE
  5
348
100
AcDbEntity
  8
0
100
AcDbLine
 62
253
  6
CONTINUOUS
 10
164.3603905771
 20
101.3431707242
 11
163.3699144456
 21
101.3431678313
  0
LINE
  5
349
100
AcDbEntity
  8
0
100
AcDbLine
 62
253
  6
CONTINUOUS
 10
157.5508667085
 20
101.7146032107
 11
158.4794381592
 21
101.7145921373
  0
LINE
  5
34A
100
AcDbEntity
  8
0
100
AcDbLine
 62
253
  6
CONTINUOUS
 10
167.393724117
 20
102.0860239422
 11
168.1365815255
 21
102.0860283574
  0
LINE
  5
34B
100
AcDbEntity
  8
0
100
AcDbLine
 62
253
  6
CONTINUOUS
 10
161.2651525113
 20
102.0860267987
 11
162.0080096099
 21
102.0860255008
  0
LWPOLYLINE
  5
34C
100
AcDbEntity
  8
RACCORDO
100
AcDbPolyline
 62
253
  6
CONTINUOUS
 90
10
 70
0
 10
152.1508514772
 20
123.9790697044
 10
152.1521711527
 20
123.9759236471
 10
152.1534702969
 20
123.9692979276
 10
152.1547489098
 20
123.959192546
 10
152.1560139415
 20
123.9455193155
 10
152.157258442
 20
123.9283664229
 10
152.1584615607
 20
123.907998428
 10
152.1596220627
 20
123.8843662268
 10
152.160741183
 20
123.8575189234
 10
152.1618017757
 20
123.8278683896
  0
LWPOLYLINE
  5
34D
100
AcDbEntity
  8
0
100
AcDbPolyline
 62
253
  6
CONTINUOUS
 90
10
 70
0
 10
152.1508514772
 20
123.9790697044
 10
152.1521711527
 20
123.9759236471
 10
152.1534702969
 20
123.9692979276
 10
152.1547489098
 20
123.959192546
 10
152.1560139415
 20
123.9455193155
 10
152.157258442
 20
123.9283664229
 10
152.1584615607
 20
123.907998428
 10
152.1596220627
 20
123.8843662268
 10
152.160741183
 20
123.8575189234
 10
152.1618017757
 20
123.8278683896
  0
LINE
  5
34E
100
AcDbEntity
  8
0
100
AcDbLine
 62
253
  6
CONTINUOUS
 10
161.6484986234
 20
113.0504647207
 11
161.7725216234
 21
112.1479157207
  0
LWPOLYLINE
  5
34F
100
AcDbEntity
  8
0
100
AcDbPolyline
 62
253
  6
CONTINUOUS
 90
10
 70
0
 10
164.7800674829
 20
95.0003380552
 10
164.7966269746
 20
94.1057142201
 10
164.809008258
 20
93.2127502781
 10
164.8172298513
 20
92.3213974493
 10
164.821309338
 20
91.4320072331
 10
164.8212697906
 20
90.5441415755
 10
164.8171212591
 20
89.6567768461
 10
164.8088608702
 20
88.7698955721
 10
164.7964913376
 20
87.8842876742
 10
164.7800144323
 20
87.0003429813
  0
LINE
  5
350
100
AcDbEntity
  8
0
100
AcDbLine
 62
253
  6
CONTINUOUS
 10
164.4209766234
 20
116.1804667207
 11
164.4207506234
 21
116.2431547207
  0
LINE
  5
351
100
AcDbEntity
  8
0
100
AcDbLine
 62
253
  6
CONTINUOUS
 10
163.8019886234
 20
115.4946197207
 11
163.8019886234
 21
113.8670997207
  0
LINE
  5
352
100
AcDbEntity
  8
0
100
AcDbLine
 62
253
  6
CONTINUOUS
 10
164.1294096234
 20
113.6865897207
 11
164.1294096234
 21
115.2142147207
  0
LINE
  5
353
100
AcDbEntity
  8
0
100
AcDbLine
 62
253
  6
CONTINUOUS
 10
165.0294381234
 20
95.0003121813
 11
165.0294381234
 21
87.0003127284
  0
LINE
  5
354
100
AcDbEntity
  8
0
100
AcDbLine
 62
253
  6
CONTINUOUS
 10
165.3508667085
 20
102.8288831714
 11
165.3508667085
 21
102.4574546221
  0
LINE
  5
355
100
AcDbEntity
  8
0
100
AcDbLine
 62
253
  6
CONTINUOUS
 10
165.0156096234
 20
111.1179607207
 11
165.1155046234
 21
112.7720897207
  0
LINE
  5
356
100
AcDbEntity
  8
0
100
AcDbLine
 62
253
  6
CONTINUOUS
 10
164.7831236234
 20
112.6984647207
 11
164.6888656234
 21
111.1338577207
  0
LINE
  5
357
100
AcDbEntity
  8
0
100
AcDbLine
 62
253
  6
CONTINUOUS
 10
166.2310356234
 20
114.1794117207
 11
166.1715046234
 21
113.6948207207
  0
LINE
  5
358
100
AcDbEntity
  8
0
100
AcDbLine
 62
253
  6
CONTINUOUS
 10
166.5169646234
 20
113.8241427207
 11
166.5568776234
 21
114.1470537207
  0
LINE
  5
359
100
AcDbEntity
  8
0
100
AcDbLine
 62
253
  6
CONTINUOUS
 10
167.4444316234
 20
113.9535777207
 11
167.3718216234
 21
113.6880557207
  0
LINE
  5
35A
100
AcDbEntity
  8
0
100
AcDbLine
 62
253
  6
CONTINUOUS
 10
167.6485056234
 20
113.4598527207
 11
167.7644106234
 21
113.8831097207
  0
LINE
  5
35B
100
AcDbEntity
  8
0
100
AcDbLine
 62
253
  6
CONTINUOUS
 10
163.8651525113
 20
103.2003117207
 11
163.1222951028
 21
100.6003117207
  0
LINE
  5
35C
100
AcDbEntity
  8
0
100
AcDbLine
 62
253
  6
CONTINUOUS
 10
165.7222951028
 20
103.2003117207
 11
165.3508667085
 21
102.8288831714
  0
LINE
  5
35D
100
AcDbEntity
  8
0
100
AcDbLine
 62
253
  6
CONTINUOUS
 10
162.3794380042
 20
103.2003128529
 11
161.2651525113
 21
103.200310004
  0
LINE
  5
35E
100
AcDbEntity
  8
0
100
AcDbLine
 62
253
  6
CONTINUOUS
 10
166.4651525113
 20
103.2003091797
 11
165.7222951028
 21
103.2003140019
  0
LINE
  5
35F
100
AcDbEntity
  8
0
100
AcDbLine
 62
253
  6
CONTINUOUS
 10
168.5080099199
 20
103.2003056172
 11
167.393724117
 21
103.2003172392
  0
LINE
  5
360
100
AcDbEntity
  8
0
100
AcDbLine
 62
253
  6
CONTINUOUS
 10
158.4794381592
 20
103.2003164516
 11
157.5508667085
 21
103.2003065836
  0
LINE
  5
361
100
AcDbEntity
  8
0
100
AcDbLine
 62
253
  6
CONTINUOUS
 10
165.3508667085
 20
102.4574546221
 11
166.6508667085
 21
101.3431688968
  0
LINE
  5
362
100
AcDbEntity
  8
0
100
AcDbLine
 62
253
  6
CONTINUOUS
 10
165.5365809057
 20
100.6003117207
 11
165.3508667085
 21
100.7860260147
  0
LINE
  5
363
100
AcDbEntity
  8
0
100
AcDbLine
 62
253
  6
CONTINUOUS
 10
167.6413431737
 20
97.0003117207
 11
166.3413431737
 21
99.6003117207
  0
LWPOLYLINE
  5
364
100
AcDbEntity
  8
RACCORDO
100
AcDbPolyline
 62
253
  6
CONTINUOUS
 90
10
 70
0
 10
173.9080247696
 20
81.021553737
 10
173.9067050942
 20
81.0246997943
 10
173.90540595
 20
81.0313255138
 10
173.9041273371
 20
81.0414308954
 10
173.9028623053
 20
81.0551041259
 10
173.9016178049
 20
81.0722570185
 10
173.9004146862
 20
81.0926250135
 10
173.8992541842
 20
81.1162572146
 10
173.8981350639
 20
81.143104518
 10
173.8970744712
 20
81.1727550519
  0
LWPOLYLINE
  5
365
100
AcDbEntity
  8
0
100
AcDbPolyline
 62
253
  6
CONTINUOUS
 90
10
 70
0
 10
173.9080247696
 20
81.021553737
 10
173.9067050942
 20
81.0246997943
 10
173.90540595
 20
81.0313255138
 10
173.9041273371
 20
81.0414308954
 10
173.9028623053
 20
81.0551041259
 10
173.9016178049
 20
81.0722570185
 10
173.9004146862
 20
81.0926250135
 10
173.8992541842
 20
81.1162572146
 10
173.8981350639
 20
81.143104518
 10
173.8970744712
 20
81.1727550519
  0
LWPOLYLINE
  5
366
100
AcDbEntity
  8
0
100
AcDbPolyline
 62
7
  6
CONTINUOUS
 90
3
 70
0
 10
169.02689879
 20
90.9920396227
 10
169.0252960679
 20
90.9966673098
 10
169.0257168267
 20
91.0003113302
  0
LINE
  5
367
100
AcDbEntity
  8
0
100
AcDbLine
 62
253
  6
CONTINUOUS
 10
165.5984857652
 20
97.0003117207
 11
164.8556289766
 21
99.6003117207
  0
LINE
  5
368
100
AcDbEntity
  8
0
100
AcDbLine
 62
253
  6
CONTINUOUS
 10
164.6080093
 20
100.6003117207
 11
163.8651525113
 21
103.2003117207
  0
LINE
  5
369
100
AcDbEntity
  8
0
100
AcDbLine
 62
253
  6
CONTINUOUS
 10
162.0591266234
 20
112.4716157207
 11
161.9416436234
 21
113.3209477207
  0
LINE
  5
36A
100
AcDbEntity
  8
0
100
AcDbLine
 62
253
  6
CONTINUOUS
 10
162.0749116234
 20
112.3536807207
 11
162.0591266234
 21
112.4716157207
  0
LINE
  5
36B
100
AcDbEntity
  8
0
100
AcDbLine
 62
253
  6
CONTINUOUS
 10
166.1507586234
 20
113.5481347207
 11
166.1435426234
 21
113.6351767207
  0
LINE
  5
36C
100
AcDbEntity
  8
0
100
AcDbLine
 62
253
  6
CONTINUOUS
 10
166.3413431737
 20
99.6003117207
 11
166.3413431737
 21
97.0003117207
  0
LINE
  5
36D
100
AcDbEntity
  8
0
100
AcDbLine
 62
253
  6
CONTINUOUS
 10
166.6508667085
 20
101.3431688968
 11
166.6508667085
 21
100.9717403087
  0
LINE
  5
36E
100
AcDbEntity
  8
0
100
AcDbLine
 62
253
  6
CONTINUOUS
 10
167.393724117
 20
103.2003117207
 11
167.393724117
 21
100.6003117207
  0
LINE
  5
36F
100
AcDbEntity
  8
0
100
AcDbLine
 62
253
  6
CONTINUOUS
 10
164.8556289766
 20
99.6003117207
 11
164.112771568
 21
97.0003117207
  0
LINE
  5
370
100
AcDbEntity
  8
0
100
AcDbLine
 62
253
  6
CONTINUOUS
 10
166.6508667085
 20
100.9717403087
 11
166.2794383142
 21
100.6003117207
  0
LINE
  5
371
100
AcDbEntity
  8
0
100
AcDbLine
 62
253
  6
CONTINUOUS
 10
166.6508667085
 20
103.0145973686
 11
166.4651525113
 21
103.2003117207
  0
LWPOLYLINE
  5
372
100
AcDbEntity
  8
0
100
AcDbPolyline
 62
7
  6
CONTINUOUS
 90
61
 70
0
 10
168.9443609977
 20
91.8198910474
 10
168.9406107291
 20
91.8376385647
 10
168.9366090998
 20
91.8561571418
 10
168.932345037
 20
91.8754441458
 10
168.9277929922
 20
91.8955576527
 10
168.9229400187
 20
91.9164948055
 10
168.9177726125
 20
91.9382519614
 10
168.9122616648
 20
91.9608852183
 10
168.9063915416
 20
91.984390795
 10
168.90014597
 20
92.0087636928
 10
168.8934918073
 20
92.0340571334
 10
168.8864104116
 20
92.0602655303
 10
168.8788823625
 20
92.087382687
 10
168.8708698978
 20
92.1154595513
 10
168.8623508668
 20
92.1444880116
 10
168.8533024523
 20
92.1744605032
 10
168.8436820447
 20
92.2054271155
 10
168.8334635495
 20
92.2373777902
 10
168.8226204227
 20
92.2703020402
 10
168.81110516
 20
92.3042473065
 10
168.7988873246
 20
92.3392006923
 10
168.7859363253
 20
92.3751485166
 10
168.7721998842
 20
92.4121346946
 10
168.7576431479
 20
92.4501428309
 10
168.7422308986
 20
92.4891554132
 10
168.7259054616
 20
92.5292119371
 10
168.7086288411
 20
92.5702920246
 10
168.6903613632
 20
92.6123738259
 10
168.6710381978
 20
92.655491232
 10
168.6506177907
 20
92.6996202918
 10
168.6290597606
 20
92.7447327451
 10
168.6062961833
 20
92.7908517123
 10
168.5822791722
 20
92.837950948
 10
168.5569675916
 20
92.885991571
 10
168.5302996645
 20
92.9349732544
 10
168.5022269416
 20
92.984862459
 10
168.472704059
 20
93.0356134519
 10
168.4416712068
 20
93.0872029666
 10
168.4090785134
 20
93.1395904244
 10
168.374879045
 20
93.1927206668
 10
168.3390159602
 20
93.2465432766
 10
168.3014390985
 20
93.3010072337
 10
168.2621012473
 20
93.3560488368
 10
168.2209499534
 20
93.411592734
 10
168.1780310957
 20
93.4674465619
 10
168.1332080154
 20
93.5236700607
 10
168.0861361079
 20
93.5805443422
 10
168.0368265749
 20
93.6378783202
 10
167.9851413516
 20
93.6956714682
 10
167.930458153
 20
93.7544343983
 10
167.8726406599
 20
93.8140577143
 10
167.811625038
 20
93.8743430134
 10
167.7468387437
 20
93.9355960223
 10
167.6780109385
 20
93.9977732786
 10
167.6051890452
 20
94.0605098276
 10
167.5282619638
 20
94.1235885952
 10
167.4470784879
 20
94.186833506
 10
167.361609173
 20
94.2499392856
 10
167.271948431
 20
94.3124865708
 10
167.1780434525
 20
94.3742082524
 10
167.0798500319
 20
94.4348367133
  0
LINE
  5
373
100
AcDbEntity
  8
0
100
AcDbLine
 62
253
  6
CONTINUOUS
 10
164.1294096234
 20
115.2142147207
 11
164.0996436234
 21
115.3597727207
  0
LINE
  5
374
100
AcDbEntity
  8
0
100
AcDbLine
 62
7
  6
CONTINUOUS
 10
168.9511616786
 20
91.7866562136
 11
168.9443609977
 21
91.8198910474
  0
LINE
  5
375
100
AcDbEntity
  8
0
100
AcDbLine
 62
7
  6
CONTINUOUS
 10
168.9571245047
 20
91.7562837848
 11
168.9511616786
 21
91.7866562136
  0
LINE
  5
376
100
AcDbEntity
  8
0
100
AcDbLine
 62
7
  6
CONTINUOUS
 10
168.9623505137
 20
91.7286009323
 11
168.9571245047
 21
91.7562837848
  0
LINE
  5
377
100
AcDbEntity
  8
0
100
AcDbLine
 62
7
  6
CONTINUOUS
 10
168.9669187897
 20
91.7034941317
 11
168.9623505137
 21
91.7286009323
  0
LINE
  5
378
100
AcDbEntity
  8
0
100
AcDbLine
 62
7
  6
CONTINUOUS
 10
168.9709106658
 20
91.6807857809
 11
168.9669187897
 21
91.7034941317
  0
LINE
  5
379
100
AcDbEntity
  8
0
100
AcDbLine
 62
7
  6
CONTINUOUS
 10
168.9743985748
 20
91.6602967741
 11
168.9709106658
 21
91.6807857809
  0
LINE
  5
37A
100
AcDbEntity
  8
0
100
AcDbLine
 62
7
  6
CONTINUOUS
 10
168.9774371766
 20
91.6419086148
 11
168.9743985748
 21
91.6602967741
  0
LINE
  5
37B
100
AcDbEntity
  8
0
100
AcDbLine
 62
7
  6
CONTINUOUS
 10
168.9812797347
 20
91.6178648454
 11
168.9774371766
 21
91.6419086148
  0
LINE
  5
37C
100
AcDbEntity
  8
0
100
AcDbLine
 62
7
  6
CONTINUOUS
 10
168.9844043516
 20
91.5975952749
 11
168.9812797347
 21
91.6178648454
  0
LINE
  5
37D
100
AcDbEntity
  8
0
100
AcDbLine
 62
7
  6
CONTINUOUS
 10
168.9876927238
 20
91.575488246
 11
168.9844043516
 21
91.5975952749
  0
LINE
  5
37E
100
AcDbEntity
  8
0
100
AcDbLine
 62
7
  6
CONTINUOUS
 10
168.9907754103
 20
91.5539597571
 11
168.9876927238
 21
91.575488246
  0
LINE
  5
37F
100
AcDbEntity
  8
0
100
AcDbLine
 62
7
  6
CONTINUOUS
 10
168.9935731673
 20
91.533667223
 11
168.9907754103
 21
91.5539597571
  0
LINE
  5
380
100
AcDbEntity
  8
0
100
AcDbLine
 62
7
  6
CONTINUOUS
 10
168.995199935
 20
91.5215041704
 11
168.9935731673
 21
91.533667223
  0
LINE
  5
381
100
AcDbEntity
  8
0
100
AcDbLine
 62
253
  6
CONTINUOUS
 10
165.5144076234
 20
114.1772697207
 11
165.5689786234
 21
113.7156787207
  0
LINE
  5
382
100
AcDbEntity
  8
0
100
AcDbLine
 62
253
  6
CONTINUOUS
 10
165.9110566234
 20
113.8548097207
 11
165.8794866234
 21
114.1219107207
  0
LINE
  5
383
100
AcDbEntity
  8
0
100
AcDbLine
 62
7
  6
CONTINUOUS
 10
169.0081545731
 20
91.4120051947
 11
169.0056216679
 21
91.4355863874
  0
LINE
  5
384
100
AcDbEntity
  8
0
100
AcDbLine
 62
7
  6
CONTINUOUS
 10
169.0099524779
 20
91.394411701
 11
169.0081545731
 21
91.4120051947
  0
LINE
  5
385
100
AcDbEntity
  8
0
100
AcDbLine
 62
7
  6
CONTINUOUS
 10
169.011790645
 20
91.3755717163
 11
169.0099524779
 21
91.394411701
  0
LINE
  5
386
100
AcDbEntity
  8
0
100
AcDbLine
 62
7
  6
CONTINUOUS
 10
169.0136183279
 20
91.3558498805
 11
169.011790645
 21
91.3755717163
  0
LINE
  5
387
100
AcDbEntity
  8
0
100
AcDbLine
 62
7
  6
CONTINUOUS
 10
169.0153928459
 20
91.3355929148
 11
169.0136183279
 21
91.3558498805
  0
LINE
  5
388
100
AcDbEntity
  8
0
100
AcDbLine
 62
7
  6
CONTINUOUS
 10
169.0170873764
 20
91.3150327511
 11
169.0153928459
 21
91.3355929148
  0
LINE
  5
389
100
AcDbEntity
  8
0
100
AcDbLine
 62
7
  6
CONTINUOUS
 10
169.0186712647
 20
91.2945177011
 11
169.0170873764
 21
91.3150327511
  0
LINE
  5
38A
100
AcDbEntity
  8
0
100
AcDbLine
 62
7
  6
CONTINUOUS
 10
169.0201210161
 20
91.2743968199
 11
169.0186712647
 21
91.2945177011
  0
LWPOLYLINE
  5
38B
100
AcDbEntity
  8
0
100
AcDbPolyline
 62
7
  6
CONTINUOUS
 90
3
 70
0
 10
169.0257168267
 20
91.0003113302
 10
169.0254834555
 20
91.0037937458
 10
169.0270594231
 20
91.0080994726
  0
LINE
  5
38C
100
AcDbEntity
  8
0
100
AcDbLine
 62
7
  6
CONTINUOUS
 10
169.021427575
 20
91.254903083
 11
169.0201210161
 21
91.2743968199
  0
LINE
  5
38D
100
AcDbEntity
  8
0
100
AcDbLine
 62
7
  6
CONTINUOUS
 10
169.0225790915
 20
91.236391585
 11
169.021427575
 21
91.254903083
  0
LINE
  5
38E
100
AcDbEntity
  8
0
100
AcDbLine
 62
7
  6
CONTINUOUS
 10
169.0240079067
 20
91.2111735867
 11
169.0225790915
 21
91.236391585
  0
LINE
  5
38F
100
AcDbEntity
  8
0
100
AcDbLine
 62
7
  6
CONTINUOUS
 10
169.0251205568
 20
91.1892173728
 11
169.0240079067
 21
91.2111735867
  0
LINE
  5
390
100
AcDbEntity
  8
0
100
AcDbLine
 62
7
  6
CONTINUOUS
 10
169.0259962771
 20
91.1699491215
 11
169.0251205568
 21
91.1892173728
  0
LINE
  5
391
100
AcDbEntity
  8
0
100
AcDbLine
 62
7
  6
CONTINUOUS
 10
169.0269145906
 20
91.1470506796
 11
169.0259962771
 21
91.1699491215
  0
LINE
  5
392
100
AcDbEntity
  8
0
100
AcDbLine
 62
7
  6
CONTINUOUS
 10
169.0276408641
 20
91.1260202715
 11
169.0269145906
 21
91.1470506796
  0
LINE
  5
393
100
AcDbEntity
  8
0
100
AcDbLine
 62
7
  6
CONTINUOUS
 10
169.0282122539
 20
91.1065871896
 11
169.0276408641
 21
91.1260202715
  0
LINE
  5
394
100
AcDbEntity
  8
0
100
AcDbLine
 62
7
  6
CONTINUOUS
 10
169.0286521484
 20
91.0887660344
 11
169.0282122539
 21
91.1065871896
  0
LINE
  5
395
100
AcDbEntity
  8
0
100
AcDbLine
 62
7
  6
CONTINUOUS
 10
169.0290498347
 20
91.0687671098
 11
169.0286521484
 21
91.0887660344
  0
LINE
  5
396
100
AcDbEntity
  8
0
100
AcDbLine
 62
7
  6
CONTINUOUS
 10
169.0293158225
 20
91.0511861088
 11
169.0290498347
 21
91.0687671098
  0
LINE
  5
397
100
AcDbEntity
  8
0
100
AcDbLine
 62
7
  6
CONTINUOUS
 10
169.0295081251
 20
91.0330234935
 11
169.0293158225
 21
91.0511861088
  0
LINE
  5
398
100
AcDbEntity
  8
0
100
AcDbLine
 62
7
  6
CONTINUOUS
 10
169.0295951996
 20
91.0199108738
 11
169.0295081251
 21
91.0330234935
  0
LINE
  5
399
100
AcDbEntity
  8
0
100
AcDbLine
 62
253
  6
CONTINUOUS
 10
167.6413431737
 20
99.6003117207
 11
167.6413431737
 21
97.0003117207
  0
LINE
  5
39A
100
AcDbEntity
  8
0
100
AcDbLine
 62
7
  6
CONTINUOUS
 10
169.0294515125
 20
90.9613680925
 11
169.0295917073
 21
90.980013266
  0
LINE
  5
39B
100
AcDbEntity
  8
0
100
AcDbLine
 62
7
  6
CONTINUOUS
 10
169.0292210988
 20
90.9425561882
 11
169.0294515125
 21
90.9613680925
  0
LINE
  5
39C
100
AcDbEntity
  8
0
100
AcDbLine
 62
7
  6
CONTINUOUS
 10
169.0289161587
 20
90.9245328085
 11
169.0292210988
 21
90.9425561882
  0
LINE
  5
39D
100
AcDbEntity
  8
0
100
AcDbLine
 62
7
  6
CONTINUOUS
 10
169.0284657481
 20
90.9038945079
 11
169.0289161587
 21
90.9245328085
  0
LINE
  5
39E
100
AcDbEntity
  8
0
100
AcDbLine
 62
7
  6
CONTINUOUS
 10
169.0279677697
 20
90.8853109412
 11
169.0284657481
 21
90.9038945079
  0
LINE
  5
39F
100
AcDbEntity
  8
0
100
AcDbLine
 62
7
  6
CONTINUOUS
 10
169.0273169326
 20
90.8648129756
 11
169.0279677697
 21
90.8853109412
  0
LINE
  5
3A0
100
AcDbEntity
  8
0
100
AcDbLine
 62
7
  6
CONTINUOUS
 10
169.0264800206
 20
90.8423157376
 11
169.0273169326
 21
90.8648129756
  0
LINE
  5
3A1
100
AcDbEntity
  8
0
100
AcDbLine
 62
7
  6
CONTINUOUS
 10
169.0256989791
 20
90.8238905546
 11
169.0264800206
 21
90.8423157376
  0
LINE
  5
3A2
100
AcDbEntity
  8
0
100
AcDbLine
 62
7
  6
CONTINUOUS
 10
169.0247465105
 20
90.8037454787
 11
169.0256989791
 21
90.8238905546
  0
LWPOLYLINE
  5
3A3
100
AcDbEntity
  8
0
100
AcDbPolyline
 62
7
  6
CONTINUOUS
 90
65
 70
0
 10
158.9725161555
 20
94.4309334436
 10
158.8746665514
 20
94.3702881861
 10
158.7816275133
 20
94.3088945339
 10
158.693338155
 20
94.2470937934
 10
158.6089373698
 20
94.1846492765
 10
158.5283053136
 20
94.1217416934
 10
158.4514491763
 20
94.0586198084
 10
158.3777573209
 20
93.9950227482
 10
158.3068668026
 20
93.930815406
 10
158.2390633063
 20
93.8664130877
 10
158.1747034491
 20
93.8023608535
 10
158.113805218
 20
93.7389651604
 10
158.0561460258
 20
93.6762726338
 10
158.0016790755
 20
93.6144700241
 10
157.9503936302
 20
93.5538149247
 10
157.9020823257
 20
93.494349032
 10
157.8564166108
 20
93.4359105344
 10
157.8132796457
 20
93.3785661231
 10
157.7726092096
 20
93.3224623352
 10
157.7341844181
 20
93.2675250123
 10
157.6979242592
 20
93.2138381152
 10
157.6637509584
 20
93.1614777545
 10
157.6314672627
 20
93.110336117
 10
157.6010050989
 20
93.0604796964
 10
157.5722958396
 20
93.0119610763
 10
157.5451596108
 20
92.9646344835
 10
157.5195393713
 20
92.918548383
 10
157.4953776572
 20
92.8737422902
 10
157.4725115627
 20
92.8300435203
 10
157.4508958961
 20
92.7874885094
 10
157.4304822925
 20
92.7461054117
 10
157.4111199614
 20
92.7056981933
 10
157.3927713346
 20
92.6662883259
 10
157.3754002254
 20
92.6279009113
 10
157.3588736967
 20
92.5903363845
 10
157.343148799
 20
92.5535790224
 10
157.328212521
 20
92.5176773852
 10
157.3139871999
 20
92.4825225996
 10
157.3004365433
 20
92.4481009084
 10
157.2875473076
 20
92.4144519667
 10
157.2752813261
 20
92.3815443234
 10
157.2636162576
 20
92.3493885498
 10
157.2525299171
 20
92.3179953574
 10
157.2419873009
 20
92.2873319355
 10
157.2319700608
 20
92.2574112158
 10
157.2224571266
 20
92.2282374556
 10
157.213412452
 20
92.1997633618
 10
157.2048178016
 20
92.1719921136
 10
157.1966574638
 20
92.1449340796
 10
157.1889020551
 20
92.1185514637
 10
157.1815369937
 20
92.0928507012
 10
157.174547244
 20
92.0678360928
 10
157.1679052384
 20
92.0434655774
 10
157.1615980431
 20
92.0197434301
 10
157.1556131316
 20
91.9966737298
 10
157.1499258984
 20
91.9742132095
 10
157.1445253294
 20
91.9523656146
 10
157.1394006775
 20
91.9311336597
 10
157.1345298781
 20
91.9104717967
 10
157.1299035867
 20
91.8903828713
 10
157.1255126982
 20
91.8708690109
 10
157.1213374564
 20
91.8518830051
 10
157.117370007
 20
91.8334270321
 10
157.1136026897
 20
91.8155027246
 10
157.1066088148
 20
91.7811052686
  0
LINE
  5
3A4
100
AcDbEntity
  8
0
100
AcDbLine
 62
7
  6
CONTINUOUS
 10
159.1837730195
 20
94.5491509212
 11
159.0752425539
 21
94.4905185884
  0
LINE
  5
3A5
100
AcDbEntity
  8
0
100
AcDbLine
 62
253
  6
CONTINUOUS
 10
161.7725216234
 20
112.1479157207
 11
162.0138026234
 21
111.9371887207
  0
LINE
  5
3A6
100
AcDbEntity
  8
0
100
AcDbLine
 62
253
  6
CONTINUOUS
 10
161.0450696234
 20
111.1193137207
 11
161.1172286234
 21
111.0503117207
  0
LINE
  5
3A7
100
AcDbEntity
  8
0
100
AcDbLine
 62
253
  6
CONTINUOUS
 10
162.2113366234
 20
115.8183197207
 11
161.9957626234
 21
116.1909527207
  0
LINE
  5
3A8
100
AcDbEntity
  8
0
100
AcDbLine
 62
253
  6
CONTINUOUS
 10
161.6236936234
 20
116.1806927207
 11
162.0101946234
 21
115.5125467207
  0
LINE
  5
3A9
100
AcDbEntity
  8
0
100
AcDbLine
 62
253
  6
CONTINUOUS
 10
164.0996436234
 20
115.3597727207
 11
164.0407896234
 21
115.4973257207
  0
LINE
  5
3AA
100
AcDbEntity
  8
0
100
AcDbLine
 62
253
  6
CONTINUOUS
 10
164.0407896234
 20
115.4973257207
 11
164.0344756234
 21
115.5124337207
  0
LINE
  5
3AB
100
AcDbEntity
  8
0
100
AcDbLine
 62
253
  6
CONTINUOUS
 10
165.1155046234
 20
112.7720897207
 11
165.0311696234
 21
112.9940907207
  0
LINE
  5
3AC
100
AcDbEntity
  8
0
100
AcDbLine
 62
253
  6
CONTINUOUS
 10
164.7337396234
 20
112.8286887207
 11
164.7831236234
 21
112.6984647207
  0
LINE
  5
3AD
100
AcDbEntity
  8
0
100
AcDbLine
 62
253
  6
CONTINUOUS
 10
165.1766146234
 20
111.3169617207
 11
165.2104396234
 21
111.2187577207
  0
LINE
  5
3AE
100
AcDbEntity
  8
0
100
AcDbLine
 62
253
  6
CONTINUOUS
 10
166.3151456234
 20
112.8987057207
 11
166.2815476234
 21
112.9969097207
  0
LINE
  5
3AF
100
AcDbEntity
  8
0
100
AcDbLine
 62
253
  6
CONTINUOUS
 10
166.8928676234
 20
114.5527207207
 11
166.8698666234
 21
114.6539687207
  0
LINE
  5
3B0
100
AcDbEntity
  8
0
100
AcDbLine
 62
7
  6
CONTINUOUS
 10
168.9977251531
 20
91.502039035
 11
168.995199935
 21
91.5215041704
  0
LINE
  5
3B1
100
AcDbEntity
  8
0
100
AcDbLine
 62
7
  6
CONTINUOUS
 10
169.0002358573
 20
91.4819058155
 11
168.9977251531
 21
91.502039035
  0
LINE
  5
3B2
100
AcDbEntity
  8
0
100
AcDbLine
 62
7
  6
CONTINUOUS
 10
169.0026878211
 20
91.4613956691
 11
169.0002358573
 21
91.4819058155
  0
LWPOLYLINE
  5
3B3
100
AcDbEntity
  8
0
100
AcDbPolyline
 62
7
  6
CONTINUOUS
 90
3
 70
0
 10
169.0056216679
 20
91.4355863874
 10
169.0048411508
 20
91.4425998339
 10
169.0026878211
 20
91.4613956691
  0
LINE
  5
3B4
100
AcDbEntity
  8
0
100
AcDbLine
 62
7
  6
CONTINUOUS
 10
169.0235740473
 20
90.7814800166
 11
169.0247465105
 21
90.8037454787
  0
LINE
  5
3B5
100
AcDbEntity
  8
0
100
AcDbLine
 62
7
  6
CONTINUOUS
 10
169.0221382522
 20
90.7569743603
 11
169.0235740473
 21
90.7814800166
  0
LINE
  5
3B6
100
AcDbEntity
  8
0
100
AcDbLine
 62
7
  6
CONTINUOUS
 10
169.0210238084
 20
90.7395370678
 11
169.0221382522
 21
90.7569743603
  0
LINE
  5
3B7
100
AcDbEntity
  8
0
100
AcDbLine
 62
7
  6
CONTINUOUS
 10
169.0197785342
 20
90.7213396102
 11
169.0210238084
 21
90.7395370678
  0
LINE
  5
3B8
100
AcDbEntity
  8
0
100
AcDbLine
 62
7
  6
CONTINUOUS
 10
169.0184021193
 20
90.7025176098
 11
169.0197785342
 21
90.7213396102
  0
LINE
  5
3B9
100
AcDbEntity
  8
0
100
AcDbLine
 62
7
  6
CONTINUOUS
 10
169.0168964177
 20
90.6832058375
 11
169.0184021193
 21
90.7025176098
  0
LINE
  5
3BA
100
AcDbEntity
  8
0
100
AcDbLine
 62
7
  6
CONTINUOUS
 10
169.0152619474
 20
90.6634943197
 11
169.0168964177
 21
90.6832058375
  0
LINE
  5
3BB
100
AcDbEntity
  8
0
100
AcDbLine
 62
7
  6
CONTINUOUS
 10
169.0135048471
 20
90.6435176532
 11
169.0152619474
 21
90.6634943197
  0
LINE
  5
3BC
100
AcDbEntity
  8
0
100
AcDbLine
 62
7
  6
CONTINUOUS
 10
169.011634045
 20
90.6234116242
 11
169.0135048471
 21
90.6435176532
  0
LINE
  5
3BD
100
AcDbEntity
  8
0
100
AcDbLine
 62
7
  6
CONTINUOUS
 10
169.0096564537
 20
90.6032641194
 11
169.011634045
 21
90.6234116242
  0
LINE
  5
3BE
100
AcDbEntity
  8
0
100
AcDbLine
 62
7
  6
CONTINUOUS
 10
169.0075886191
 20
90.5832371852
 11
169.0096564537
 21
90.6032641194
  0
LINE
  5
3BF
100
AcDbEntity
  8
0
100
AcDbLine
 62
7
  6
CONTINUOUS
 10
169.0054269851
 20
90.5632819176
 11
169.0075886191
 21
90.5832371852
  0
LINE
  5
3C0
100
AcDbEntity
  8
0
100
AcDbLine
 62
7
  6
CONTINUOUS
 10
169.0031659193
 20
90.5433400202
 11
169.0054269851
 21
90.5632819176
  0
LINE
  5
3C1
100
AcDbEntity
  8
0
100
AcDbLine
 62
7
  6
CONTINUOUS
 10
169.0007863393
 20
90.5232523114
 11
169.0031659193
 21
90.5433400202
  0
LINE
  5
3C2
100
AcDbEntity
  8
0
100
AcDbLine
 62
7
  6
CONTINUOUS
 10
168.9982663032
 20
90.5028626406
 11
169.0007863393
 21
90.5232523114
  0
LINE
  5
3C3
100
AcDbEntity
  8
0
100
AcDbLine
 62
7
  6
CONTINUOUS
 10
168.9955875998
 20
90.4820684911
 11
168.9982663032
 21
90.5028626406
  0
LINE
  5
3C4
100
AcDbEntity
  8
0
100
AcDbLine
 62
7
  6
CONTINUOUS
 10
168.9927226705
 20
90.4607159036
 11
168.9955875998
 21
90.4820684911
  0
LINE
  5
3C5
100
AcDbEntity
  8
0
100
AcDbLine
 62
7
  6
CONTINUOUS
 10
168.9896404616
 20
90.4386513076
 11
168.9927226705
 21
90.4607159036
  0
LINE
  5
3C6
100
AcDbEntity
  8
0
100
AcDbLine
 62
7
  6
CONTINUOUS
 10
168.9863138177
 20
90.4157735152
 11
168.9896404616
 21
90.4386513076
  0
LINE
  5
3C7
100
AcDbEntity
  8
0
100
AcDbLine
 62
7
  6
CONTINUOUS
 10
168.9827055425
 20
90.3919348928
 11
168.9863138177
 21
90.4157735152
  0
LINE
  5
3C8
100
AcDbEntity
  8
0
100
AcDbLine
 62
7
  6
CONTINUOUS
 10
168.9787688643
 20
90.3669549733
 11
168.9827055425
 21
90.3919348928
  0
LINE
  5
3C9
100
AcDbEntity
  8
0
100
AcDbLine
 62
7
  6
CONTINUOUS
 10
168.9744656622
 20
90.340738931
 11
168.9787688643
 21
90.3669549733
  0
LINE
  5
3CA
100
AcDbEntity
  8
0
100
AcDbLine
 62
7
  6
CONTINUOUS
 10
168.9697527667
 20
90.3131846476
 11
168.9744656622
 21
90.340738931
  0
LINE
  5
3CB
100
AcDbEntity
  8
0
100
AcDbLine
 62
7
  6
CONTINUOUS
 10
168.9645697155
 20
90.2841193326
 11
168.9697527667
 21
90.3131846476
  0
LINE
  5
3CC
100
AcDbEntity
  8
0
100
AcDbLine
 62
7
  6
CONTINUOUS
 10
168.9588626522
 20
90.2534426505
 11
168.9645697155
 21
90.2841193326
  0
LINE
  5
3CD
100
AcDbEntity
  8
0
100
AcDbLine
 62
7
  6
CONTINUOUS
 10
168.952563386
 20
90.22100949
 11
168.9588626522
 21
90.2534426505
  0
LINE
  5
3CE
100
AcDbEntity
  8
RACCORDO
100
AcDbLine
 62
253
  6
CONTINUOUS
 10
152.1508514762
 20
81.0215537359
 11
152.0294381234
 21
80.9001403832
  0
LINE
  5
3CF
100
AcDbEntity
  8
0
100
AcDbLine
 62
253
  6
CONTINUOUS
 10
152.1508514762
 20
81.0215537359
 11
152.0294381234
 21
80.9001403832
  0
LINE
  5
3D0
100
AcDbEntity
  8
RACCORDO
100
AcDbLine
 62
253
  6
CONTINUOUS
 10
152.6506801387
 20
80.5217250735
 11
152.5292667859
 21
80.4003117207
  0
LINE
  5
3D1
100
AcDbEntity
  8
0
100
AcDbLine
 62
253
  6
CONTINUOUS
 10
152.6506801387
 20
80.5217250735
 11
152.5292667859
 21
80.4003117207
  0
LINE
  5
3D2
100
AcDbEntity
  8
0
100
AcDbLine
 62
253
  6
CONTINUOUS
 10
161.2130646234
 20
111.0507627207
 11
161.2568106234
 21
111.0533557207
  0
LINE
  5
3D3
100
AcDbEntity
  8
0
100
AcDbLine
 62
253
  6
CONTINUOUS
 10
161.2011136234
 20
111.0503117207
 11
161.2130646234
 21
111.0507627207
  0
LINE
  5
3D4
100
AcDbEntity
  8
0
100
AcDbLine
 62
253
  6
CONTINUOUS
 10
161.1172286234
 20
111.0503099759
 11
161.2011136234
 21
111.050313431
  0
LINE
  5
3D5
100
AcDbEntity
  8
0
100
AcDbLine
 62
253
  6
CONTINUOUS
 10
164.8577626234
 20
111.0503134776
 11
164.9439026234
 21
111.0503099275
  0
LINE
  5
3D6
100
AcDbEntity
  8
0
100
AcDbLine
 62
253
  6
CONTINUOUS
 10
165.3382956234
 20
111.1623859994
 11
165.4262396234
 21
111.1623814039
  0
LINE
  5
3D7
100
AcDbEntity
  8
0
100
AcDbLine
 62
253
  6
CONTINUOUS
 10
164.7574166234
 20
111.0561747207
 11
164.8577626234
 21
111.0503117207
  0
LINE
  5
3D8
100
AcDbEntity
  8
0
100
AcDbLine
 62
253
  6
CONTINUOUS
 10
162.1770616234
 20
112.2646097207
 11
162.0749116234
 21
112.3536807207
  0
LINE
  5
3D9
100
AcDbEntity
  8
0
100
AcDbLine
 62
253
  6
CONTINUOUS
 10
161.9416436234
 20
113.3209477207
 11
161.8724156234
 21
113.3828467207
  0
LINE
  5
3DA
100
AcDbEntity
  8
0
100
AcDbLine
 62
253
  6
CONTINUOUS
 10
164.5844606234
 20
112.9771787207
 11
164.7337396234
 21
112.8286887207
  0
LINE
  5
3DB
100
AcDbEntity
  8
0
100
AcDbLine
 62
253
  6
CONTINUOUS
 10
162.5924256234
 20
113.5176927207
 11
162.2429066234
 21
113.8670997207
  0
LINE
  5
3DC
100
AcDbEntity
  8
0
100
AcDbLine
 62
253
  6
CONTINUOUS
 10
161.9154856234
 20
113.6865897207
 11
162.4118036234
 21
113.1902727207
  0
LINE
  5
3DD
100
AcDbEntity
  8
RACCORDO
100
AcDbLine
 62
253
  6
CONTINUOUS
 10
152.0294381234
 20
124.1004830582
 11
152.1508514772
 21
123.9790697044
  0
LINE
  5
3DE
100
AcDbEntity
  8
0
100
AcDbLine
 62
253
  6
CONTINUOUS
 10
152.0294381234
 20
124.1004830582
 11
152.1508514772
 21
123.9790697044
  0
LINE
  5
3DF
100
AcDbEntity
  8
RACCORDO
100
AcDbLine
 62
253
  6
CONTINUOUS
 10
152.5292667859
 20
124.6003117207
 11
152.6506801388
 21
124.4788983678
  0
LINE
  5
3E0
100
AcDbEntity
  8
0
100
AcDbLine
 62
253
  6
CONTINUOUS
 10
152.5292667859
 20
124.6003117207
 11
152.6506801388
 21
124.4788983678
  0
LINE
  5
3E1
100
AcDbEntity
  8
0
100
AcDbLine
 62
253
  6
CONTINUOUS
 10
164.6888656234
 20
111.1338577207
 11
164.7574166234
 21
111.0561747207
  0
LINE
  5
3E2
100
AcDbEntity
  8
0
100
AcDbLine
 62
253
  6
CONTINUOUS
 10
164.4207506234
 20
116.2431547207
 11
164.3912106234
 21
116.2941177207
  0
LINE
  5
3E3
100
AcDbEntity
  8
0
100
AcDbLine
 62
253
  6
CONTINUOUS
 10
164.3912106234
 20
116.2941177207
 11
164.3853476234
 21
116.3047157207
  0
LINE
  5
3E4
100
AcDbEntity
  8
0
100
AcDbLine
 62
253
  6
CONTINUOUS
 10
166.1435426234
 20
113.6351767207
 11
166.1232486234
 21
113.6747507207
  0
LINE
  5
3E5
100
AcDbEntity
  8
0
100
AcDbLine
 62
253
  6
CONTINUOUS
 10
166.7895896234
 20
114.0757967207
 11
166.8579156234
 21
113.9395967207
  0
LINE
  5
3E6
100
AcDbEntity
  8
0
100
AcDbLine
 62
253
  6
CONTINUOUS
 10
167.0455286234
 20
114.9564727207
 11
167.2058566234
 21
114.5725647207
  0
LINE
  5
3E7
100
AcDbEntity
  8
0
100
AcDbLine
 62
253
  6
CONTINUOUS
 10
166.3507736234
 20
115.1453257207
 11
166.3733236234
 21
115.0784657207
  0
LINE
  5
3E8
100
AcDbEntity
  8
0
100
AcDbLine
 62
253
  6
CONTINUOUS
 10
166.3223616234
 20
115.2309017207
 11
166.3507736234
 21
115.1453257207
  0
LINE
  5
3E9
100
AcDbEntity
  8
RACCORDO
100
AcDbLine
 62
253
  6
CONTINUOUS
 10
173.8970744712
 20
81.1727550519
 11
173.8951306729
 21
81.2405559935
  0
LINE
  5
3EA
100
AcDbEntity
  8
0
100
AcDbLine
 62
253
  6
CONTINUOUS
 10
173.8970744712
 20
81.1727550519
 11
173.8951306729
 21
81.2405559935
  0
LINE
  5
3EB
100
AcDbEntity
  8
RACCORDO
100
AcDbLine
 62
253
  6
CONTINUOUS
 10
173.8951306729
 20
81.2405559935
 11
173.8934655036
 21
81.3179608718
  0
LINE
  5
3EC
100
AcDbEntity
  8
0
100
AcDbLine
 62
253
  6
CONTINUOUS
 10
173.8951306729
 20
81.2405559935
 11
173.8934655036
 21
81.3179608718
  0
LINE
  5
3ED
100
AcDbEntity
  8
RACCORDO
100
AcDbLine
 62
253
  6
CONTINUOUS
 10
173.8934655036
 20
81.3179608718
 11
173.8921042281
 21
81.4037780408
  0
LINE
  5
3EE
100
AcDbEntity
  8
0
100
AcDbLine
 62
253
  6
CONTINUOUS
 10
173.8934655036
 20
81.3179608718
 11
173.8921042281
 21
81.4037780408
  0
LINE
  5
3EF
100
AcDbEntity
  8
RACCORDO
100
AcDbLine
 62
253
  6
CONTINUOUS
 10
173.4200764133
 20
124.0393551346
 11
173.4176049599
 21
124.2196428305
  0
LINE
  5
3F0
100
AcDbEntity
  8
0
100
AcDbLine
 62
253
  6
CONTINUOUS
 10
173.4200764133
 20
124.0393551346
 11
173.4176049599
 21
124.2196428305
  0
LWPOLYLINE
  5
3F1
100
AcDbEntity
  8
RACCORDO
100
AcDbPolyline
 62
253
  6
CONTINUOUS
 90
3
 70
0
 10
173.8921042281
 20
81.4037780408
 10
173.8907015866
 20
81.5439461774
 10
173.8904158267
 20
81.592322184
  0
LWPOLYLINE
  5
3F2
100
AcDbEntity
  8
0
100
AcDbPolyline
 62
253
  6
CONTINUOUS
 90
3
 70
0
 10
173.8921042281
 20
81.4037780408
 10
173.8907015866
 20
81.5439461774
 10
173.8904158267
 20
81.592322184
  0
LINE
  5
3F3
100
AcDbEntity
  8
RACCORDO
100
AcDbLine
 62
253
  6
CONTINUOUS
 10
173.4225435912
 20
123.7465661451
 11
173.4200764133
 21
124.0393551346
  0
LINE
  5
3F4
100
AcDbEntity
  8
0
100
AcDbLine
 62
253
  6
CONTINUOUS
 10
173.4225435912
 20
123.7465661451
 11
173.4200764133
 21
124.0393551346
  0
LINE
  5
3F5
100
AcDbEntity
  8
RACCORDO
100
AcDbLine
 62
253
  6
CONTINUOUS
 10
173.4240312051
 20
123.3304090779
 11
173.4225435912
 21
123.7465661451
  0
LINE
  5
3F6
100
AcDbEntity
  8
0
100
AcDbLine
 62
253
  6
CONTINUOUS
 10
173.4240312051
 20
123.3304090779
 11
173.4225435912
 21
123.7465661451
  0
LINE
  5
3F7
100
AcDbEntity
  8
RACCORDO
100
AcDbLine
 62
253
  6
CONTINUOUS
 10
173.423358846
 20
81.4162538902
 11
173.4240312028
 21
123.3304090786
  0
LINE
  5
3F8
100
AcDbEntity
  8
0
100
AcDbLine
 62
253
  6
CONTINUOUS
 10
173.423358846
 20
81.4162538902
 11
173.4240312028
 21
123.3304090786
  0
LINE
  5
3F9
100
AcDbEntity
  8
RACCORDO
100
AcDbLine
 62
253
  6
CONTINUOUS
 10
173.4207945647
 20
81.029550874
 11
173.423358846
 21
81.4162538902
  0
LINE
  5
3FA
100
AcDbEntity
  8
0
100
AcDbLine
 62
253
  6
CONTINUOUS
 10
173.4207945647
 20
81.029550874
 11
173.423358846
 21
81.4162538902
  0
LINE
  5
3FB
100
AcDbEntity
  8
RACCORDO
100
AcDbLine
 62
253
  6
CONTINUOUS
 10
173.8904158277
 20
123.4083012592
 11
173.8915505224
 21
123.5514726289
  0
LINE
  5
3FC
100
AcDbEntity
  8
0
100
AcDbLine
 62
253
  6
CONTINUOUS
 10
173.8904158277
 20
123.4083012592
 11
173.8915505224
 21
123.5514726289
  0
LINE
  5
3FD
100
AcDbEntity
  8
RACCORDO
100
AcDbLine
 62
253
  6
CONTINUOUS
 10
173.8915505224
 20
123.5514726289
 11
173.8927429706
 21
123.6405597793
  0
LINE
  5
3FE
100
AcDbEntity
  8
0
100
AcDbLine
 62
253
  6
CONTINUOUS
 10
173.8915505224
 20
123.5514726289
 11
173.8927429706
 21
123.6405597793
  0
LWPOLYLINE
  5
3FF
100
AcDbEntity
  8
RACCORDO
100
AcDbPolyline
 62
253
  6
CONTINUOUS
 90
3
 70
0
 10
173.417604956
 20
80.7809806126
 10
173.4184886205
 20
80.8366635748
 10
173.4207945647
 20
81.029550874
  0
LWPOLYLINE
  5
400
100
AcDbEntity
  8
0
100
AcDbPolyline
 62
253
  6
CONTINUOUS
 90
3
 70
0
 10
173.417604956
 20
80.7809806126
 10
173.4184886205
 20
80.8366635748
 10
173.4207945647
 20
81.029550874
  0
LINE
  5
401
100
AcDbEntity
  8
RACCORDO
100
AcDbLine
 62
253
  6
CONTINUOUS
 10
173.8927429706
 20
123.6405597793
 11
173.8942610045
 21
123.722509279
  0
LINE
  5
402
100
AcDbEntity
  8
0
100
AcDbLine
 62
253
  6
CONTINUOUS
 10
173.8927429706
 20
123.6405597793
 11
173.8942610045
 21
123.722509279
  0
LWPOLYLINE
  5
403
100
AcDbEntity
  8
RACCORDO
100
AcDbPolyline
 62
253
  6
CONTINUOUS
 90
12
 70
0
 10
173.8942610045
 20
123.722509279
 10
173.8960733094
 20
123.7953695358
 10
173.8970744723
 20
123.8278683913
 10
173.898135065
 20
123.8575189251
 10
173.8992541853
 20
123.8843662283
 10
173.9004146873
 20
123.9079984293
 10
173.901617806
 20
123.9283664242
 10
173.9028623064
 20
123.9455193169
 10
173.9041273382
 20
123.9591925473
 10
173.905405951
 20
123.9692979289
 10
173.9067050952
 20
123.9759236483
 10
173.9080247707
 20
123.9790697054
  0
LWPOLYLINE
  5
404
100
AcDbEntity
  8
0
100
AcDbPolyline
 62
253
  6
CONTINUOUS
 90
12
 70
0
 10
173.8942610045
 20
123.722509279
 10
173.8960733094
 20
123.7953695358
 10
173.8970744723
 20
123.8278683913
 10
173.898135065
 20
123.8575189251
 10
173.8992541853
 20
123.8843662283
 10
173.9004146873
 20
123.9079984293
 10
173.901617806
 20
123.9283664242
 10
173.9028623064
 20
123.9455193169
 10
173.9041273382
 20
123.9591925473
 10
173.905405951
 20
123.9692979289
 10
173.9067050952
 20
123.9759236483
 10
173.9080247707
 20
123.9790697054
  0
LWPOLYLINE
  5
405
100
AcDbEntity
  8
0
100
AcDbPolyline
 62
7
  6
CONTINUOUS
 90
5
 70
0
 10
169.0295917073
 20
90.980013266
 10
169.0304693397
 20
90.981737727
 10
169.0311415406
 20
90.9836002731
 10
169.0296220925
 20
90.9871877724
 10
169.0276376055
 20
90.990723345
  0
LINE
  5
406
100
AcDbEntity
  8
0
100
AcDbLine
 62
253
  6
CONTINUOUS
 10
167.0015566234
 20
113.9049827207
 11
167.0270376234
 21
113.9110717207
  0
LINE
  5
407
100
AcDbEntity
  8
0
100
AcDbLine
 62
253
  6
CONTINUOUS
 10
162.0138026234
 20
111.9371780073
 11
164.0464266234
 21
111.9371779752
  0
LINE
  5
408
100
AcDbEntity
  8
0
100
AcDbLine
 62
253
  6
CONTINUOUS
 10
163.8833926234
 20
112.2646020043
 11
162.1770616234
 21
112.2646020363
  0
LINE
  5
409
100
AcDbEntity
  8
0
100
AcDbLine
 62
253
  6
CONTINUOUS
 10
162.4118036234
 20
113.1902685037
 11
163.6326406234
 21
113.1902687222
  0
LINE
  5
40A
100
AcDbEntity
  8
0
100
AcDbLine
 62
253
  6
CONTINUOUS
 10
166.1536906234
 20
113.0531673562
 11
166.0657466234
 21
113.0531740427
  0
LINE
  5
40B
100
AcDbEntity
  8
0
100
AcDbLine
 62
253
  6
CONTINUOUS
 10
166.9408976234
 20
113.2249056655
 11
167.3400266234
 21
113.224864896
  0
LINE
  5
40C
100
AcDbEntity
  8
0
100
AcDbLine
 62
253
  6
CONTINUOUS
 10
165.3139426234
 20
111.1680207207
 11
165.3382956234
 21
111.1623837207
  0
LINE
  5
40D
100
AcDbEntity
  8
0
100
AcDbLine
 62
253
  6
CONTINUOUS
 10
164.4110546234
 20
113.0483227207
 11
164.5201946234
 21
113.0153997207
  0
LINE
  5
40E
100
AcDbEntity
  8
0
100
AcDbLine
 62
253
  6
CONTINUOUS
 10
164.7465926234
 20
113.2774267207
 11
164.5910006234
 21
113.3522917207
  0
LINE
  5
40F
100
AcDbEntity
  8
0
100
AcDbLine
 62
253
  6
CONTINUOUS
 10
165.2104396234
 20
111.2187577207
 11
165.3139426234
 21
111.1680207207
  0
LINE
  5
410
100
AcDbEntity
  8
0
100
AcDbLine
 62
253
  6
CONTINUOUS
 10
164.5201946234
 20
113.0153997207
 11
164.5844606234
 21
112.9771787207
  0
LINE
  5
411
100
AcDbEntity
  8
0
100
AcDbLine
 62
253
  6
CONTINUOUS
 10
165.5689786234
 20
113.7156787207
 11
165.9078996234
 21
113.4283967207
  0
LINE
  5
412
100
AcDbEntity
  8
0
100
AcDbLine
 62
253
  6
CONTINUOUS
 10
166.1232486234
 20
113.6747507207
 11
165.9110566234
 21
113.8548097207
  0
LINE
  5
413
100
AcDbEntity
  8
0
100
AcDbLine
 62
253
  6
CONTINUOUS
 10
163.7604976234
 20
116.4756417207
 11
164.0489066234
 21
116.1906147207
  0
LINE
  5
414
100
AcDbEntity
  8
0
100
AcDbLine
 62
253
  6
CONTINUOUS
 10
163.8333326234
 20
115.8182067207
 11
163.5938556234
 21
116.0566697207
  0
LINE
  5
415
100
AcDbEntity
  8
0
100
AcDbLine
 62
253
  6
CONTINUOUS
 10
163.4520176234
 20
115.8441387207
 11
163.8019886234
 21
115.4946197207
  0
LINE
  5
416
100
AcDbEntity
  8
0
100
AcDbLine
 62
253
  6
CONTINUOUS
 10
165.0311696234
 20
112.9940907207
 11
164.7465926234
 21
113.2774267207
  0
LINE
  5
417
100
AcDbEntity
  8
0
100
AcDbLine
 62
253
  6
CONTINUOUS
 10
164.3776806234
 20
116.3150887207
 11
164.3673076234
 21
116.3260247207
  0
LINE
  5
418
100
AcDbEntity
  8
0
100
AcDbLine
 62
253
  6
CONTINUOUS
 10
164.3673076234
 20
116.3260247207
 11
164.0313186234
 21
116.7227857207
  0
LINE
  5
419
100
AcDbEntity
  8
0
100
AcDbLine
 62
253
  6
CONTINUOUS
 10
166.5568776234
 20
114.1470537207
 11
166.4930626234
 21
114.2289087207
  0
LINE
  5
41A
100
AcDbEntity
  8
0
100
AcDbLine
 62
253
  6
CONTINUOUS
 10
164.3853476234
 20
116.3047157207
 11
164.3776806234
 21
116.3150887207
  0
LINE
  5
41B
100
AcDbEntity
  8
0
100
AcDbLine
 62
253
  6
CONTINUOUS
 10
166.1715046234
 20
113.6948207207
 11
166.4439036234
 21
113.3179027207
  0
LINE
  5
41C
100
AcDbEntity
  8
0
100
AcDbLine
 62
253
  6
CONTINUOUS
 10
166.6743616234
 20
113.6058617207
 11
166.5169646234
 21
113.8241427207
  0
LINE
  5
41D
100
AcDbEntity
  8
0
100
AcDbLine
 62
253
  6
CONTINUOUS
 10
167.7644106234
 20
113.8831097207
 11
167.7129976234
 21
113.9733087207
  0
LINE
  5
41E
100
AcDbEntity
  8
0
100
AcDbLine
 62
253
  6
CONTINUOUS
 10
167.5738666234
 20
114.5408827207
 11
167.2965056234
 21
115.2048567207
  0
LWPOLYLINE
  5
41F
100
AcDbEntity
  8
RACCORDO
100
AcDbPolyline
 62
253
  6
CONTINUOUS
 90
7
 70
0
 10
173.4147160387
 20
124.3568539133
 10
173.4136738341
 20
124.3918528003
 10
173.4126251781
 20
124.4211598243
 10
173.4115308926
 20
124.4446258427
 10
173.4103972614
 20
124.4621280878
 10
173.4092758151
 20
124.4735728716
 10
173.4081961082
 20
124.4788983679
  0
LWPOLYLINE
  5
420
100
AcDbEntity
  8
0
100
AcDbPolyline
 62
253
  6
CONTINUOUS
 90
7
 70
0
 10
173.4147160387
 20
124.3568539133
 10
173.4136738341
 20
124.3918528003
 10
173.4126251781
 20
124.4211598243
 10
173.4115308926
 20
124.4446258427
 10
173.4103972614
 20
124.4621280878
 10
173.4092758151
 20
124.4735728716
 10
173.4081961082
 20
124.4788983679
  0
LWPOLYLINE
  5
421
100
AcDbEntity
  8
RACCORDO
100
AcDbPolyline
 62
253
  6
CONTINUOUS
 90
3
 70
0
 10
173.4176049599
 20
124.2196428305
 10
173.4166775537
 20
124.2705243979
 10
173.4147160387
 20
124.3568539133
  0
LWPOLYLINE
  5
422
100
AcDbEntity
  8
0
100
AcDbPolyline
 62
253
  6
CONTINUOUS
 90
3
 70
0
 10
173.4176049599
 20
124.2196428305
 10
173.4166775537
 20
124.2705243979
 10
173.4147160387
 20
124.3568539133
  0
LINE
  5
423
100
AcDbEntity
  8
RACCORDO
100
AcDbLine
 62
253
  6
CONTINUOUS
 10
173.8904158267
 20
81.592322184
 11
173.8820396509
 21
90.9370377654
  0
LINE
  5
424
100
AcDbEntity
  8
0
100
AcDbLine
 62
253
  6
CONTINUOUS
 10
173.8904158267
 20
81.592322184
 11
173.8820396509
 21
90.9370377654
  0
LINE
  5
425
100
AcDbEntity
  8
RACCORDO
100
AcDbLine
 62
253
  6
CONTINUOUS
 10
173.8820396509
 20
90.9370377654
 11
173.8785779346
 21
100.1869588193
  0
LINE
  5
426
100
AcDbEntity
  8
0
100
AcDbLine
 62
253
  6
CONTINUOUS
 10
173.8820396509
 20
90.9370377654
 11
173.8785779346
 21
100.1869588193
  0
LINE
  5
427
100
AcDbEntity
  8
RACCORDO
100
AcDbLine
 62
7
  6
CONTINUOUS
 10
174.0294381234
 20
80.9001403832
 11
174.0294381234
 21
124.1004830582
  0
LINE
  5
428
100
AcDbEntity
  8
0
100
AcDbLine
 62
7
  6
CONTINUOUS
 10
174.0294381234
 20
80.9001403832
 11
174.0294381234
 21
124.1004830582
  0
LINE
  5
429
100
AcDbEntity
  8
RACCORDO
100
AcDbLine
 62
253
  6
CONTINUOUS
 10
173.8785779346
 20
100.1869588193
 11
173.8797318394
 21
109.4394157183
  0
LINE
  5
42A
100
AcDbEntity
  8
0
100
AcDbLine
 62
253
  6
CONTINUOUS
 10
173.8785779346
 20
100.1869588193
 11
173.8797318394
 21
109.4394157183
  0
LINE
  5
42B
100
AcDbEntity
  8
RACCORDO
100
AcDbLine
 62
253
  6
CONTINUOUS
 10
173.8797318394
 20
109.4394157183
 11
173.8855013667
 21
118.6868021331
  0
LINE
  5
42C
100
AcDbEntity
  8
0
100
AcDbLine
 62
253
  6
CONTINUOUS
 10
173.8797318394
 20
109.4394157183
 11
173.8855013667
 21
118.6868021331
  0
LINE
  5
42D
100
AcDbEntity
  8
RACCORDO
100
AcDbLine
 62
253
  6
CONTINUOUS
 10
173.8855013667
 20
118.6868021331
 11
173.8904158277
 21
123.4083012592
  0
LINE
  5
42E
100
AcDbEntity
  8
0
100
AcDbLine
 62
253
  6
CONTINUOUS
 10
173.8855013667
 20
118.6868021331
 11
173.8904158277
 21
123.4083012592
  0
LWPOLYLINE
  5
42F
100
AcDbEntity
  8
0
100
AcDbPolyline
 62
7
  6
CONTINUOUS
 90
5
 70
0
 10
169.0270594231
 20
91.0080994726
 10
169.0296245928
 20
91.0126517546
 10
169.0310630368
 20
91.016146571
 10
169.0304358169
 20
91.018102291
 10
169.0295951996
 20
91.0199108738
  0
LINE
  5
430
100
AcDbEntity
  8
0
100
AcDbLine
 62
253
  6
CONTINUOUS
 10
166.6152816234
 20
115.3922447207
 11
166.5332006234
 21
115.3788277207
  0
LINE
  5
431
100
AcDbEntity
  8
0
100
AcDbLine
 62
253
  6
CONTINUOUS
 10
166.6037806234
 20
115.0571567207
 11
166.6511356234
 21
115.0648237207
  0
LINE
  5
432
100
AcDbEntity
  8
0
100
AcDbLine
 62
253
  6
CONTINUOUS
 10
166.5237296234
 20
115.0335927207
 11
166.5413186234
 21
115.0364107207
  0
LINE
  5
433
100
AcDbEntity
  8
0
100
AcDbLine
 62
253
  6
CONTINUOUS
 10
161.6331646234
 20
113.3760817207
 11
161.4649436234
 21
113.3516147207
  0
LINE
  5
434
100
AcDbEntity
  8
0
100
AcDbLine
 62
253
  6
CONTINUOUS
 10
161.7849236234
 20
113.3828467207
 11
161.6331646234
 21
113.3760817207
  0
LINE
  5
435
100
AcDbEntity
  8
0
100
AcDbLine
 62
253
  6
CONTINUOUS
 10
161.8724156234
 20
113.3828480112
 11
161.7849236234
 21
113.3828453877
  0
LINE
  5
436
100
AcDbEntity
  8
0
100
AcDbLine
 62
253
  6
CONTINUOUS
 10
164.2658346234
 20
113.3831835575
 11
164.1891656234
 21
113.3831858513
  0
LINE
  5
437
100
AcDbEntity
  8
0
100
AcDbLine
 62
253
  6
CONTINUOUS
 10
163.4520176234
 20
113.5176907395
 11
162.5924256234
 21
113.5176905839
  0
LINE
  5
438
100
AcDbEntity
  8
0
100
AcDbLine
 62
253
  6
CONTINUOUS
 10
165.9455576234
 20
113.4145309035
 11
166.0321476234
 21
113.4145244963
  0
LINE
  5
439
100
AcDbEntity
  8
0
100
AcDbLine
 62
253
  6
CONTINUOUS
 10
167.1932286234
 20
113.5521818326
 11
166.9623206234
 21
113.5522053111
  0
LINE
  5
43A
100
AcDbEntity
  8
0
100
AcDbLine
 62
253
  6
CONTINUOUS
 10
166.9140636234
 20
113.9049870568
 11
167.0015566234
 21
113.9049783414
  0
LINE
  5
43B
100
AcDbEntity
  8
0
100
AcDbLine
 62
253
  6
CONTINUOUS
 10
167.5973176234
 20
114.0030686296
 11
167.5091486234
 21
114.0030787679
  0
LINE
  5
43C
100
AcDbEntity
  8
0
100
AcDbLine
 62
253
  6
CONTINUOUS
 10
166.3843726234
 20
114.2410821811
 11
166.3011646234
 21
114.241089221
  0
LINE
  5
43D
100
AcDbEntity
  8
0
100
AcDbLine
 62
253
  6
CONTINUOUS
 10
166.6754886234
 20
114.3999518213
 11
166.7627556234
 21
114.3999435767
  0
LINE
  5
43E
100
AcDbEntity
  8
0
100
AcDbLine
 62
253
  6
CONTINUOUS
 10
166.2375746234
 20
114.4938762719
 11
166.4653266234
 21
114.4938568738
  0
LINE
  5
43F
100
AcDbEntity
  8
0
100
AcDbLine
 62
253
  6
CONTINUOUS
 10
166.5280146234
 20
114.820819544
 11
166.1340726234
 21
114.8208530098
  0
LINE
  5
440
100
AcDbEntity
  8
0
100
AcDbLine
 62
253
  6
CONTINUOUS
 10
166.4357866234
 20
115.0335966074
 11
166.5237296234
 21
115.0335887897
  0
LINE
  5
441
100
AcDbEntity
  8
0
100
AcDbLine
 62
253
  6
CONTINUOUS
 10
166.6511356234
 20
115.0648346973
 11
166.8822686234
 21
115.0648124381
  0
LINE
  5
442
100
AcDbEntity
  8
0
100
AcDbLine
 62
253
  6
CONTINUOUS
 10
164.4099266234
 20
113.3776597207
 11
164.2658346234
 21
113.3831847207
  0
LINE
  5
443
100
AcDbEntity
  8
0
100
AcDbLine
 62
253
  6
CONTINUOUS
 10
166.9623206234
 20
113.5521937207
 11
166.9332316234
 21
113.5548997207
  0
LINE
  5
444
100
AcDbEntity
  8
0
100
AcDbLine
 62
253
  6
CONTINUOUS
 10
166.8908376234
 20
113.2296217207
 11
166.9408976234
 21
113.2248857207
  0
LINE
  5
445
100
AcDbEntity
  8
0
100
AcDbLine
 62
253
  6
CONTINUOUS
 10
166.4930626234
 20
114.2289087207
 11
166.3843726234
 21
114.2410857207
  0
LINE
  5
446
100
AcDbEntity
  8
0
100
AcDbLine
 62
253
  6
CONTINUOUS
 10
167.6117496234
 20
114.0011577207
 11
167.5973176234
 21
114.0030737207
  0
LINE
  5
447
100
AcDbEntity
  8
0
100
AcDbLine
 62
253
  6
CONTINUOUS
 10
164.5910006234
 20
113.3522917207
 11
164.4099266234
 21
113.3776597207
  0
LINE
  5
448
100
AcDbEntity
  8
0
100
AcDbLine
 62
253
  6
CONTINUOUS
 10
166.4439036234
 20
113.3179027207
 11
166.8908376234
 21
113.2296217207
  0
LINE
  5
449
100
AcDbEntity
  8
0
100
AcDbLine
 62
253
  6
CONTINUOUS
 10
166.9332316234
 20
113.5548997207
 11
166.6743616234
 21
113.6058617207
  0
LINE
  5
44A
100
AcDbEntity
  8
0
100
AcDbLine
 62
253
  6
CONTINUOUS
 10
166.1778186234
 20
113.0476457207
 11
166.1536906234
 21
113.0531707207
  0
LINE
  5
44B
100
AcDbEntity
  8
0
100
AcDbLine
 62
253
  6
CONTINUOUS
 10
167.7129976234
 20
113.9733087207
 11
167.6117496234
 21
114.0011577207
  0
LINE
  5
44C
100
AcDbEntity
  8
0
100
AcDbLine
 62
253
  6
CONTINUOUS
 10
166.4653266234
 20
114.4938667207
 11
166.5478576234
 21
114.4701897207
  0
LINE
  5
44D
100
AcDbEntity
  8
0
100
AcDbLine
 62
253
  6
CONTINUOUS
 10
166.6703026234
 20
114.7796837207
 11
166.5280146234
 21
114.8208367207
  0
LINE
  5
44E
100
AcDbEntity
  8
0
100
AcDbLine
 62
253
  6
CONTINUOUS
 10
166.6454976234
 20
114.4087417207
 11
166.6754886234
 21
114.3999477207
  0
LINE
  5
44F
100
AcDbEntity
  8
0
100
AcDbLine
 62
253
  6
CONTINUOUS
 10
165.9078996234
 20
113.4283967207
 11
165.9455576234
 21
113.4145277207
  0
LINE
  5
450
100
AcDbEntity
  8
0
100
AcDbLine
 62
253
  6
CONTINUOUS
 10
163.5938556234
 20
116.0566697207
 11
163.3164946234
 21
116.1715597207
  0
LINE
  5
451
100
AcDbEntity
  8
0
100
AcDbLine
 62
253
  6
CONTINUOUS
 10
166.2815476234
 20
112.9969097207
 11
166.1778186234
 21
113.0476457207
  0
LINE
  5
452
100
AcDbEntity
  8
0
100
AcDbLine
 62
253
  6
CONTINUOUS
 10
166.8579156234
 20
113.9395967207
 11
166.9140636234
 21
113.9049827207
  0
LINE
  5
453
100
AcDbEntity
  8
0
100
AcDbLine
 62
253
  6
CONTINUOUS
 10
166.5478576234
 20
114.4701897207
 11
166.6454976234
 21
114.4087417207
  0
LINE
  5
454
100
AcDbEntity
  8
0
100
AcDbLine
 62
253
  6
CONTINUOUS
 10
166.8698666234
 20
114.6539687207
 11
166.6703026234
 21
114.7796837207
  0
LINE
  5
455
100
AcDbEntity
  8
0
100
AcDbLine
 62
253
  6
CONTINUOUS
 10
166.8822686234
 20
115.0648237207
 11
167.0455286234
 21
114.9564727207
  0
LINE
  5
456
100
AcDbEntity
  8
0
100
AcDbLine
 62
253
  6
CONTINUOUS
 10
166.3733236234
 20
115.0784657207
 11
166.4357866234
 21
115.0335927207
  0
LWPOLYLINE
  5
457
100
AcDbEntity
  8
RACCORDO
100
AcDbPolyline
 62
253
  6
CONTINUOUS
 90
9
 70
0
 10
173.4081961071
 20
80.5217250745
 10
173.4092758137
 20
80.5270505705
 10
173.4103972598
 20
80.5384953537
 10
173.4115308908
 20
80.5559975982
 10
173.412625176
 20
80.5794636165
 10
173.4136738315
 20
80.6087706409
 10
173.4147160357
 20
80.6437695285
 10
173.4157266569
 20
80.6842824035
 10
173.417604956
 20
80.7809806126
  0
LWPOLYLINE
  5
458
100
AcDbEntity
  8
0
100
AcDbPolyline
 62
253
  6
CONTINUOUS
 90
9
 70
0
 10
173.4081961071
 20
80.5217250745
 10
173.4092758137
 20
80.5270505705
 10
173.4103972598
 20
80.5384953537
 10
173.4115308908
 20
80.5559975982
 10
173.412625176
 20
80.5794636165
 10
173.4136738315
 20
80.6087706409
 10
173.4147160357
 20
80.6437695285
 10
173.4157266569
 20
80.6842824035
 10
173.417604956
 20
80.7809806126
  0
LWPOLYLINE
  5
459
100
AcDbEntity
  8
0
100
AcDbPolyline
 62
7
  6
CONTINUOUS
 90
65
 70
0
 10
167.0878647046
 20
87.5705932688
 10
167.185770364
 20
87.631334149
 10
167.2788603321
 20
87.692824566
 10
167.367196368
 20
87.7547231505
 10
167.4516404114
 20
87.8172675925
 10
167.5323143512
 20
87.8802784634
 10
167.6092093972
 20
87.9435054452
 10
167.6829325793
 20
88.0072059133
 10
167.7538493828
 20
88.0715167239
 10
167.8216723139
 20
88.1360200153
 10
167.886034719
 20
88.2001594502
 10
167.946912719
 20
88.2636195185
 10
168.0045375629
 20
88.3263600056
 10
168.0589680364
 20
88.3882058696
 10
168.1102186845
 20
88.4489038076
 10
168.1584933645
 20
88.5084079843
 10
168.2041208579
 20
88.5668800527
 10
168.2472182626
 20
88.6242533367
 10
168.2878479536
 20
88.6803813064
 10
168.3262308737
 20
88.7353379567
 10
168.3624480449
 20
88.7890389486
 10
168.3965776117
 20
88.8414085633
 10
168.4288173751
 20
88.8925556187
 10
168.459235521
 20
88.942413629
 10
168.4879008021
 20
88.9909300534
 10
168.51499357
 20
89.0382517502
 10
168.5405709122
 20
89.0843302707
 10
168.5646903697
 20
89.1291261526
 10
168.5875152903
 20
89.1728132467
 10
168.6090908531
 20
89.2153551429
 10
168.6294654614
 20
89.2567237426
 10
168.6487903446
 20
89.2971163192
 10
168.6671031423
 20
89.3365116463
 10
168.684439905
 20
89.3748844727
 10
168.7009336439
 20
89.4124350278
 10
168.7166275132
 20
89.4491796591
 10
168.7315342507
 20
89.4850692565
 10
168.7457309264
 20
89.520211562
 10
168.7592536417
 20
89.5546200044
 10
168.772115803
 20
89.5882552621
 10
168.7843554798
 20
89.6211486433
 10
168.7959949879
 20
89.6532895567
 10
168.8070565117
 20
89.684667319
 10
168.8175750029
 20
89.7153146683
 10
168.8275687843
 20
89.7452186228
 10
168.8370589322
 20
89.7743749842
 10
168.8460814886
 20
89.802831138
 10
168.8546546982
 20
89.8305839858
 10
168.8627942403
 20
89.8576230894
 10
168.8705294353
 20
89.8839861122
 10
168.877874857
 20
89.9096666215
 10
168.8848455336
 20
89.9346603238
 10
168.8914689765
 20
89.959009154
 10
168.8977581106
 20
89.9827088105
 10
168.9037254608
 20
90.0057552498
 10
168.9093955916
 20
90.0281917042
 10
168.9147795204
 20
90.0500144622
 10
168.9198879816
 20
90.0712207829
 10
168.92474298
 20
90.0918560882
 10
168.9293538533
 20
90.1119175166
 10
168.9337297084
 20
90.1314029622
 10
168.9378902588
 20
90.1503595631
 10
168.9418433616
 20
90.1687851643
 10
168.9455966706
 20
90.1866781143
 10
168.952563386
 20
90.22100949
  0
LINE
  5
45A
100
AcDbEntity
  8
0
100
AcDbLine
 62
253
  6
CONTINUOUS
 10
162.5924256234
 20
115.8441365321
 11
163.4520176234
 21
115.8441366915
  0
LINE
  5
45B
100
AcDbEntity
  8
0
100
AcDbLine
 62
253
  6
CONTINUOUS
 10
163.3164946234
 20
116.171558791
 11
162.7279496234
 21
116.1715586824
  0
LINE
  5
45C
100
AcDbEntity
  8
0
100
AcDbLine
 62
253
  6
CONTINUOUS
 10
162.6415836234
 20
116.6228890208
 11
163.4021836234
 21
116.6228891663
  0
LINE
  5
45D
100
AcDbEntity
  8
0
100
AcDbLine
 62
253
  6
CONTINUOUS
 10
163.5408636234
 20
116.9503093535
 11
163.0294381234
 21
116.9503126311
  0
LINE
  5
45E
100
AcDbEntity
  8
0
100
AcDbLine
 62
253
  6
CONTINUOUS
 10
163.0217716234
 20
116.9503127068
 11
162.5031296234
 21
116.9503092364
  0
LINE
  5
45F
100
AcDbEntity
  8
0
100
AcDbLine
 62
253
  6
CONTINUOUS
 10
167.0144096234
 20
115.3922247937
 11
166.6152816234
 21
115.392263735
  0
LINE
  5
460
100
AcDbEntity
  8
0
100
AcDbLine
 62
253
  6
CONTINUOUS
 10
163.4021836234
 20
116.6228907207
 11
163.7604976234
 21
116.4756417207
  0
LINE
  5
461
100
AcDbEntity
  8
0
100
AcDbLine
 62
253
  6
CONTINUOUS
 10
164.0313186234
 20
116.7227857207
 11
163.5408636234
 21
116.9503117207
  0
LINE
  5
462
100
AcDbEntity
  8
0
100
AcDbLine
 62
253
  6
CONTINUOUS
 10
167.2965056234
 20
115.2048567207
 11
167.0144096234
 21
115.3922447207
  0
LINE
  5
463
100
AcDbEntity
  8
0
100
AcDbLine
 62
7
  6
CONTINUOUS
 10
166.8764801552
 20
87.4521898239
 11
166.9850770431
 21
87.5109142707
  0
LWPOLYLINE
  5
464
100
AcDbEntity
  8
RACCORDO
100
AcDbPolyline
 62
253
  6
CONTINUOUS
 90
14
 70
0
 10
152.5378822723
 20
123.3296041892
 10
152.4910676017
 20
123.3289008396
 10
152.4459729621
 20
123.328005338
 10
152.403035285
 20
123.3269263613
 10
152.3626706024
 20
123.3256743639
 10
152.3252700159
 20
123.3242614765
 10
152.2911959078
 20
123.322701389
 10
152.260778429
 20
123.3210092174
 10
152.2343123008
 20
123.3192013574
 10
152.212053959
 20
123.3172953259
 10
152.1942190693
 20
123.3153095907
 10
152.1809804376
 20
123.3132633921
 10
152.1724663358
 20
123.311176556
 10
152.1687592587
 20
123.3090693023
  0
LWPOLYLINE
  5
465
100
AcDbEntity
  8
0
100
AcDbPolyline
 62
253
  6
CONTINUOUS
 90
14
 70
0
 10
152.5378822723
 20
123.3296041892
 10
152.4910676017
 20
123.3289008396
 10
152.4459729621
 20
123.328005338
 10
152.403035285
 20
123.3269263613
 10
152.3626706024
 20
123.3256743639
 10
152.3252700159
 20
123.3242614765
 10
152.2911959078
 20
123.322701389
 10
152.260778429
 20
123.3210092174
 10
152.2343123008
 20
123.3192013574
 10
152.212053959
 20
123.3172953259
 10
152.1942190693
 20
123.3153095907
 10
152.1809804376
 20
123.3132633921
 10
152.1724663358
 20
123.311176556
 10
152.1687592587
 20
123.3090693023
  0
LINE
  5
466
100
AcDbEntity
  8
RACCORDO
100
AcDbLine
 62
253
  6
CONTINUOUS
 10
152.6348450481
 20
123.330409101
 11
152.5378822723
 21
123.3296041892
  0
LINE
  5
467
100
AcDbEntity
  8
0
100
AcDbLine
 62
253
  6
CONTINUOUS
 10
152.6348450481
 20
123.330409101
 11
152.5378822723
 21
123.3296041892
  0
LINE
  5
468
100
AcDbEntity
  8
RACCORDO
100
AcDbLine
 62
253
  6
CONTINUOUS
 10
173.4240312028
 20
123.3304090786
 11
152.634845048
 21
123.3304090764
  0
LINE
  5
469
100
AcDbEntity
  8
0
100
AcDbLine
 62
253
  6
CONTINUOUS
 10
173.4240312028
 20
123.3304090786
 11
152.634845048
 21
123.3304090764
  0
LWPOLYLINE
  5
46A
100
AcDbEntity
  8
RACCORDO
100
AcDbPolyline
 62
253
  6
CONTINUOUS
 90
15
 70
0
 10
173.4240302999
 20
123.3304085286
 10
173.5209921239
 20
123.3296036449
 10
173.5678063813
 20
123.3289003186
 10
173.6129006676
 20
123.3280048462
 10
173.6558380638
 20
123.3269259037
 10
173.6962025494
 20
123.3256739449
 10
173.7336030326
 20
123.3242610998
 10
173.7676771398
 20
123.3227010576
 10
173.798094727
 20
123.3210089336
 10
173.8245610779
 20
123.3192011227
 10
173.8468197598
 20
123.3172951408
 10
173.8646551084
 20
123.315309455
 10
173.8778943167
 20
123.3132633047
 10
173.8864091101
 20
123.3111765148
 10
173.8901169886
 20
123.3090693045
  0
LWPOLYLINE
  5
46B
100
AcDbEntity
  8
0
100
AcDbPolyline
 62
253
  6
CONTINUOUS
 90
15
 70
0
 10
173.4240302999
 20
123.3304085286
 10
173.5209921239
 20
123.3296036449
 10
173.5678063813
 20
123.3289003186
 10
173.6129006676
 20
123.3280048462
 10
173.6558380638
 20
123.3269259037
 10
173.6962025494
 20
123.3256739449
 10
173.7336030326
 20
123.3242610998
 10
173.7676771398
 20
123.3227010576
 10
173.798094727
 20
123.3210089336
 10
173.8245610779
 20
123.3192011227
 10
173.8468197598
 20
123.3172951408
 10
173.8646551084
 20
123.315309455
 10
173.8778943167
 20
123.3132633047
 10
173.8864091101
 20
123.3111765148
 10
173.8901169886
 20
123.3090693045
  0
LWPOLYLINE
  5
46C
100
AcDbEntity
  8
RACCORDO
100
AcDbPolyline
 62
253
  6
CONTINUOUS
 90
16
 70
0
 10
152.6506801397
 20
124.4788983669
 10
152.5984558277
 20
124.4761267814
 10
152.5468032802
 20
124.4679139516
 10
152.4962879302
 20
124.454349804
 10
152.4474627429
 20
124.4355828379
 10
152.4008622099
 20
124.4118185166
 10
152.3569964906
 20
124.383317033
 10
152.3163457611
 20
124.3503904252
 10
152.279354982
 20
124.3133991558
 10
152.2464290644
 20
124.2727481984
 10
152.217928408
 20
124.2288825806
 10
152.1941649536
 20
124.1822824957
 10
152.1753987853
 20
124.1334580579
 10
152.1618352888
 20
124.0829437312
 10
152.1536229003
 20
124.0312924804
 10
152.1508514772
 20
123.9790697044
  0
LWPOLYLINE
  5
46D
100
AcDbEntity
  8
0
100
AcDbPolyline
 62
253
  6
CONTINUOUS
 90
16
 70
0
 10
152.6506801397
 20
124.4788983669
 10
152.5984558277
 20
124.4761267814
 10
152.5468032802
 20
124.4679139516
 10
152.4962879302
 20
124.454349804
 10
152.4474627429
 20
124.4355828379
 10
152.4008622099
 20
124.4118185166
 10
152.3569964906
 20
124.383317033
 10
152.3163457611
 20
124.3503904252
 10
152.279354982
 20
124.3133991558
 10
152.2464290644
 20
124.2727481984
 10
152.217928408
 20
124.2288825806
 10
152.1941649536
 20
124.1822824957
 10
152.1753987853
 20
124.1334580579
 10
152.1618352888
 20
124.0829437312
 10
152.1536229003
 20
124.0312924804
 10
152.1508514772
 20
123.9790697044
  0
LINE
  5
46E
100
AcDbEntity
  8
RACCORDO
100
AcDbLine
 62
253
  6
CONTINUOUS
 10
173.4081961082
 20
124.4788983679
 11
168.7060319138
 21
124.4724070147
  0
LINE
  5
46F
100
AcDbEntity
  8
0
100
AcDbLine
 62
253
  6
CONTINUOUS
 10
173.4081961082
 20
124.4788983679
 11
168.7060319138
 21
124.4724070147
  0
LINE
  5
470
100
AcDbEntity
  8
RACCORDO
100
AcDbLine
 62
253
  6
CONTINUOUS
 10
168.7060319138
 20
124.4724070147
 11
163.9981124654
 21
124.4697195614
  0
LINE
  5
471
100
AcDbEntity
  8
0
100
AcDbLine
 62
253
  6
CONTINUOUS
 10
168.7060319138
 20
124.4724070147
 11
163.9981124654
 21
124.4697195614
  0
LINE
  5
472
100
AcDbEntity
  8
RACCORDO
100
AcDbLine
 62
7
  6
CONTINUOUS
 10
152.5292667859
 20
124.6003117207
 11
173.529609461
 21
124.6003117207
  0
LINE
  5
473
100
AcDbEntity
  8
0
100
AcDbLine
 62
7
  6
CONTINUOUS
 10
152.5292667859
 20
124.6003117207
 11
173.529609461
 21
124.6003117207
  0
LINE
  5
474
100
AcDbEntity
  8
RACCORDO
100
AcDbLine
 62
253
  6
CONTINUOUS
 10
163.9981124654
 20
124.4697195614
 11
158.610683641
 21
124.4713149017
  0
LINE
  5
475
100
AcDbEntity
  8
0
100
AcDbLine
 62
253
  6
CONTINUOUS
 10
163.9981124654
 20
124.4697195614
 11
158.610683641
 21
124.4713149017
  0
LINE
  5
476
100
AcDbEntity
  8
RACCORDO
100
AcDbLine
 62
253
  6
CONTINUOUS
 10
158.610683641
 20
124.4713149017
 11
153.4654989039
 21
124.4775145216
  0
LINE
  5
477
100
AcDbEntity
  8
0
100
AcDbLine
 62
253
  6
CONTINUOUS
 10
158.610683641
 20
124.4713149017
 11
153.4654989039
 21
124.4775145216
  0
LINE
  5
478
100
AcDbEntity
  8
RACCORDO
100
AcDbLine
 62
253
  6
CONTINUOUS
 10
153.4654989039
 20
124.4775145216
 11
152.6506801388
 21
124.4788983678
  0
LINE
  5
479
100
AcDbEntity
  8
0
100
AcDbLine
 62
253
  6
CONTINUOUS
 10
153.4654989039
 20
124.4775145216
 11
152.6506801388
 21
124.4788983678
  0
LWPOLYLINE
  5
47A
100
AcDbEntity
  8
RACCORDO
100
AcDbPolyline
 62
253
  6
CONTINUOUS
 90
16
 70
0
 10
173.4081961082
 20
124.4788983679
 10
173.4604197343
 20
124.4761268551
 10
173.512071686
 20
124.4679142261
 10
173.562586547
 20
124.4543503817
 10
173.6114113481
 20
124.4355838008
 10
173.6580116209
 20
124.4118199148
 10
173.7018772478
 20
124.3833188588
 10
173.7425280468
 20
124.3503926244
 10
173.7795190274
 20
124.3134016438
 10
173.8124452618
 20
124.2727508448
 10
173.8409463177
 20
124.2288852178
 10
173.8647102036
 20
124.1822849451
 10
173.8834767845
 20
124.133460144
 10
173.8970406288
 20
124.0829452831
 10
173.9052532578
 20
124.0312933314
 10
173.9080247707
 20
123.9790697054
  0
LWPOLYLINE
  5
47B
100
AcDbEntity
  8
0
100
AcDbPolyline
 62
253
  6
CONTINUOUS
 90
16
 70
0
 10
173.4081961082
 20
124.4788983679
 10
173.4604197343
 20
124.4761268551
 10
173.512071686
 20
124.4679142261
 10
173.562586547
 20
124.4543503817
 10
173.6114113481
 20
124.4355838008
 10
173.6580116209
 20
124.4118199148
 10
173.7018772478
 20
124.3833188588
 10
173.7425280468
 20
124.3503926244
 10
173.7795190274
 20
124.3134016438
 10
173.8124452618
 20
124.2727508448
 10
173.8409463177
 20
124.2288852178
 10
173.8647102036
 20
124.1822849451
 10
173.8834767845
 20
124.133460144
 10
173.8970406288
 20
124.0829452831
 10
173.9052532578
 20
124.0312933314
 10
173.9080247707
 20
123.9790697054
  0
LINE
  5
47C
100
AcDbEntity
  8
RACCORDO
100
AcDbLine
 62
7
  6
CONTINUOUS
 10
127.0970425231
 20
80.4003117207
 11
122.1068437929
 21
80.5309846733
  0
LINE
  5
47D
100
AcDbEntity
  8
0
100
AcDbLine
 62
7
  6
CONTINUOUS
 10
127.0970425231
 20
80.4003117207
 11
122.1068437929
 21
80.5309846733
  0
LWPOLYLINE
  5
47E
100
AcDbEntity
  8
RACCORDO
100
AcDbPolyline
 62
253
  6
CONTINUOUS
 90
4
 70
0
 10
122.460453603
 20
80.5217250745
 10
122.3745764784
 20
80.5270505705
 10
122.2893189456
 20
80.5384953537
 10
122.205115827
 20
80.5559975982
  0
LWPOLYLINE
  5
47F
100
AcDbEntity
  8
0
100
AcDbPolyline
 62
253
  6
CONTINUOUS
 90
4
 70
0
 10
122.460453603
 20
80.5217250745
 10
122.3745764784
 20
80.5270505705
 10
122.2893189456
 20
80.5384953537
 10
122.205115827
 20
80.5559975982
  0
LINE
  5
480
100
AcDbEntity
  8
RACCORDO
100
AcDbLine
 62
253
  6
CONTINUOUS
 10
121.2912680282
 20
81.6702143404
 11
121.2969946047
 21
81.6705148694
  0
LINE
  5
481
100
AcDbEntity
  8
0
100
AcDbLine
 62
253
  6
CONTINUOUS
 10
121.2912680282
 20
81.6702143404
 11
121.2969946047
 21
81.6705148694
  0
LINE
  5
482
100
AcDbEntity
  8
RACCORDO
100
AcDbLine
 62
253
  6
CONTINUOUS
 10
121.2969946047
 20
81.6705148694
 11
121.5006233196
 21
81.679614224
  0
LINE
  5
483
100
AcDbEntity
  8
0
100
AcDbLine
 62
253
  6
CONTINUOUS
 10
121.2969946047
 20
81.6705148694
 11
121.5006233196
 21
81.679614224
  0
LINE
  5
484
100
AcDbEntity
  8
RACCORDO
100
AcDbLine
 62
253
  6
CONTINUOUS
 10
121.5006233196
 20
81.679614224
 11
121.7765830193
 21
81.6915541391
  0
LINE
  5
485
100
AcDbEntity
  8
0
100
AcDbLine
 62
253
  6
CONTINUOUS
 10
121.5006233196
 20
81.679614224
 11
121.7765830193
 21
81.6915541391
  0
LINE
  5
486
100
AcDbEntity
  8
RACCORDO
100
AcDbLine
 62
253
  6
CONTINUOUS
 10
120.9398883744
 20
81.6680765649
 11
121.2912680253
 21
81.6702143642
  0
LINE
  5
487
100
AcDbEntity
  8
0
100
AcDbLine
 62
253
  6
CONTINUOUS
 10
120.9398883744
 20
81.6680765649
 11
121.2912680253
 21
81.6702143642
  0
LINE
  5
488
100
AcDbEntity
  8
RACCORDO
100
AcDbLine
 62
253
  6
CONTINUOUS
 10
127.0970425231
 20
80.9001403832
 11
122.460453603
 21
81.021553737
  0
LINE
  5
489
100
AcDbEntity
  8
0
100
AcDbLine
 62
253
  6
CONTINUOUS
 10
127.0970425231
 20
80.9001403832
 11
122.460453603
 21
81.021553737
  0
LWPOLYLINE
  5
48A
100
AcDbEntity
  8
RACCORDO
100
AcDbPolyline
 62
253
  6
CONTINUOUS
 90
22
 70
0
 10
122.460453603
 20
81.021553737
 10
122.4100572297
 20
81.0246997943
 10
122.3604449149
 20
81.0313255138
 10
122.3116166586
 20
81.0414308954
 10
122.2633070451
 20
81.0551041259
 10
122.21578149
 20
81.0722570185
 10
122.1698362408
 20
81.0926250135
 10
122.1255184571
 20
81.1162572146
 10
122.0827809792
 20
81.143104518
 10
122.0422785754
 20
81.1727550519
 10
122.004045709
 20
81.2052539074
 10
121.9680479167
 20
81.2405559935
 10
121.934836577
 20
81.2781141644
 10
121.904457663
 20
81.3179608718
 10
121.8768652016
 20
81.3600636641
 10
121.8524726519
 20
81.4037780408
 10
121.8313274408
 20
81.4491508143
 10
121.8133821413
 20
81.4961351722
 10
121.7989079317
 20
81.5439461774
 10
121.7879952044
 20
81.592322184
 10
121.780553567
 20
81.6415248379
 10
121.7765830193
 20
81.6915541391
  0
LWPOLYLINE
  5
48B
100
AcDbEntity
  8
0
100
AcDbPolyline
 62
253
  6
CONTINUOUS
 90
22
 70
0
 10
122.460453603
 20
81.021553737
 10
122.4100572297
 20
81.0246997943
 10
122.3604449149
 20
81.0313255138
 10
122.3116166586
 20
81.0414308954
 10
122.2633070451
 20
81.0551041259
 10
122.21578149
 20
81.0722570185
 10
122.1698362408
 20
81.0926250135
 10
122.1255184571
 20
81.1162572146
 10
122.0827809792
 20
81.143104518
 10
122.0422785754
 20
81.1727550519
 10
122.004045709
 20
81.2052539074
 10
121.9680479167
 20
81.2405559935
 10
121.934836577
 20
81.2781141644
 10
121.904457663
 20
81.3179608718
 10
121.8768652016
 20
81.3600636641
 10
121.8524726519
 20
81.4037780408
 10
121.8313274408
 20
81.4491508143
 10
121.8133821413
 20
81.4961351722
 10
121.7989079317
 20
81.5439461774
 10
121.7879952044
 20
81.592322184
 10
121.780553567
 20
81.6415248379
 10
121.7765830193
 20
81.6915541391
  0
LWPOLYLINE
  5
48C
100
AcDbEntity
  8
RACCORDO
100
AcDbPolyline
 62
253
  6
CONTINUOUS
 90
19
 70
0
 10
122.205115827
 20
80.5559975982
 10
122.1223975573
 20
80.5794636165
 10
122.0415837471
 20
80.6087706409
 10
121.9630817764
 20
80.6437695285
 10
121.8872873882
 20
80.6842824035
 10
121.8145907041
 20
80.7300990448
 10
121.7453698696
 20
80.7809806126
 10
121.6799779373
 20
80.8366635748
 10
121.6187446497
 20
80.8968624783
 10
121.5619832147
 20
80.9612683108
 10
121.5099809083
 20
81.029550874
 10
121.4630008301
 20
81.1013594668
 10
121.4212833593
 20
81.1763249982
 10
121.3850414762
 20
81.2540573047
 10
121.3544535511
 20
81.3341641565
 10
121.3296697765
 20
81.4162538902
 10
121.3108170669
 20
81.499914024
 10
121.297994231
 20
81.5847117994
 10
121.2912679946
 20
81.6702143631
  0
LWPOLYLINE
  5
48D
100
AcDbEntity
  8
0
100
AcDbPolyline
 62
253
  6
CONTINUOUS
 90
19
 70
0
 10
122.205115827
 20
80.5559975982
 10
122.1223975573
 20
80.5794636165
 10
122.0415837471
 20
80.6087706409
 10
121.9630817764
 20
80.6437695285
 10
121.8872873882
 20
80.6842824035
 10
121.8145907041
 20
80.7300990448
 10
121.7453698696
 20
80.7809806126
 10
121.6799779373
 20
80.8366635748
 10
121.6187446497
 20
80.8968624783
 10
121.5619832147
 20
80.9612683108
 10
121.5099809083
 20
81.029550874
 10
121.4630008301
 20
81.1013594668
 10
121.4212833593
 20
81.1763249982
 10
121.3850414762
 20
81.2540573047
 10
121.3544535511
 20
81.3341641565
 10
121.3296697765
 20
81.4162538902
 10
121.3108170669
 20
81.499914024
 10
121.297994231
 20
81.5847117994
 10
121.2912679946
 20
81.6702143631
  0
LINE
  5
48E
100
AcDbEntity
  8
DRAFT
100
AcDbLine
 62
7
  6
CONTINUOUS
 10
120.7120734092
 20
87.0003541674
 11
120.6976453935
 21
87.0003070069
  0
LINE
  5
48F
100
AcDbEntity
  8
0
100
AcDbLine
 62
7
  6
CONTINUOUS
 10
120.7120734092
 20
87.0003541674
 11
120.6976249311
 21
87.0003069022
  0
LWPOLYLINE
  5
490
100
AcDbEntity
  8
RACCORDO
100
AcDbPolyline
 62
253
  6
CONTINUOUS
 90
11
 70
0
 10
122.460453643
 20
124.4788983679
 10
122.4591586952
 20
124.4761268551
 10
122.4580211974
 20
124.4679142261
 10
122.4570536015
 20
124.4543503817
 10
122.4562664993
 20
124.4355838008
 10
122.455668507
 20
124.4118199148
 10
122.4552661712
 20
124.3833188588
 10
122.455063896
 20
124.3503926244
 10
122.4550638957
 20
124.3134016438
 10
122.4552661702
 20
124.2727508448
 10
122.456266497
 20
124.1822849451
  0
LWPOLYLINE
  5
491
100
AcDbEntity
  8
0
100
AcDbPolyline
 62
253
  6
CONTINUOUS
 90
11
 70
0
 10
122.460453643
 20
124.4788983679
 10
122.4591586952
 20
124.4761268551
 10
122.4580211974
 20
124.4679142261
 10
122.4570536015
 20
124.4543503817
 10
122.4562664993
 20
124.4355838008
 10
122.455668507
 20
124.4118199148
 10
122.4552661712
 20
124.3833188588
 10
122.455063896
 20
124.3503926244
 10
122.4550638957
 20
124.3134016438
 10
122.4552661702
 20
124.2727508448
 10
122.456266497
 20
124.1822849451
  0
LWPOLYLINE
  5
492
100
AcDbEntity
  8
RACCORDO
100
AcDbPolyline
 62
253
  6
CONTINUOUS
 90
9
 70
0
 10
122.460453603
 20
80.5217250745
 10
122.4591586344
 20
80.52449666
 10
122.4580211222
 20
80.5327094898
 10
122.457053518
 20
80.5462736374
 10
122.456266413
 20
80.5650406035
 10
122.4556684232
 20
80.5888049248
 10
122.4552660947
 20
80.6173064084
 10
122.4550638305
 20
80.6502330162
 10
122.4550638431
 20
80.6872242856
  0
LWPOLYLINE
  5
493
100
AcDbEntity
  8
0
100
AcDbPolyline
 62
253
  6
CONTINUOUS
 90
9
 70
0
 10
122.460453603
 20
80.5217250745
 10
122.4591586344
 20
80.52449666
 10
122.4580211222
 20
80.5327094898
 10
122.457053518
 20
80.5462736374
 10
122.456266413
 20
80.5650406035
 10
122.4556684232
 20
80.5888049248
 10
122.4552660947
 20
80.6173064084
 10
122.4550638305
 20
80.6502330162
 10
122.4550638431
 20
80.6872242856
  0
LINE
  5
494
100
AcDbEntity
  8
DRAFT
100
AcDbLine
 62
7
  6
CONTINUOUS
 10
120.4673460653
 20
95.0003072537
 11
120.4834612413
 21
95.0003474388
  0
LINE
  5
495
100
AcDbEntity
  8
0
100
AcDbLine
 62
7
  6
CONTINUOUS
 10
120.4675225968
 20
95.0003077309
 11
120.4834612413
 21
95.0003474388
  0
LINE
  5
496
100
AcDbEntity
  8
0
100
AcDbLine
 62
253
  6
CONTINUOUS
 10
120.4348401374
 20
97.0003110845
 11
120.4353136051
 21
97.0003119902
  0
LINE
  5
497
100
AcDbEntity
  8
0
100
AcDbLine
 62
253
  6
CONTINUOUS
 10
120.6537535154
 20
115.3922447207
 11
120.6511160914
 21
115.3788277207
  0
LINE
  5
498
100
AcDbEntity
  8
0
100
AcDbLine
 62
253
  6
CONTINUOUS
 10
120.640112779
 20
115.0335927207
 11
120.6406704503
 21
115.0364107207
  0
LINE
  5
499
100
AcDbEntity
  8
0
100
AcDbLine
 62
253
  6
CONTINUOUS
 10
120.6429998746
 20
115.0571567207
 11
120.644537906
 21
115.0648237207
  0
LINE
  5
49A
100
AcDbEntity
  8
0
100
AcDbLine
 62
253
  6
CONTINUOUS
 10
120.4474098837
 20
97.7431828228
 11
120.4325776827
 21
97.7431579669
  0
LWPOLYLINE
  5
49B
100
AcDbEntity
  8
DRAFT
100
AcDbPolyline
 62
7
  6
CONTINUOUS
 90
3
 70
0
 10
120.4834612413
 20
95.0003474388
 10
120.4878572468
 20
94.9925580267
 10
120.4929770252
 20
94.9697420713
  0
LWPOLYLINE
  5
49C
100
AcDbEntity
  8
0
100
AcDbPolyline
 62
7
  6
CONTINUOUS
 90
3
 70
0
 10
120.4834612413
 20
95.0003474388
 10
120.4878572468
 20
94.9925580267
 10
120.4929770252
 20
94.9697420713
  0
LWPOLYLINE
  5
49D
100
AcDbEntity
  8
0
100
AcDbPolyline
 62
7
  6
CONTINUOUS
 90
3
 70
0
 10
120.4887131376
 20
94.9898076392
 10
120.4859644055
 20
94.9977095131
 10
120.483466378
 20
95.0003121813
  0
LINE
  5
49E
100
AcDbEntity
  8
0
100
AcDbLine
 62
7
  6
CONTINUOUS
 10
120.5136698929
 20
94.7999719182
 11
120.509615068
 21
94.8400320792
  0
LINE
  5
49F
100
AcDbEntity
  8
0
100
AcDbLine
 62
7
  6
CONTINUOUS
 10
120.52212999
 20
94.7093121841
 11
120.5126046328
 21
94.8105137659
  0
LINE
  5
4A0
100
AcDbEntity
  8
0
100
AcDbLine
 62
7
  6
CONTINUOUS
 10
120.5309080149
 20
94.6064629179
 11
120.5204194517
 21
94.7282147714
  0
LINE
  5
4A1
100
AcDbEntity
  8
0
100
AcDbLine
 62
7
  6
CONTINUOUS
 10
120.5398265044
 20
94.4939586842
 11
120.5287683482
 21
94.6317856183
  0
LINE
  5
4A2
100
AcDbEntity
  8
0
100
AcDbLine
 62
7
  6
CONTINUOUS
 10
120.5530735681
 20
94.3124865708
 11
120.5376357218
 21
94.5212638554
  0
LINE
  5
4A3
100
AcDbEntity
  8
DRAFT
100
AcDbLine
 62
7
  6
CONTINUOUS
 10
120.5469109564
 20
94.3976947952
 11
120.5665974247
 21
94.1106076503
  0
LINE
  5
4A4
100
AcDbEntity
  8
0
100
AcDbLine
 62
7
  6
CONTINUOUS
 10
120.5469109564
 20
94.3976947952
 11
120.5665974247
 21
94.1106076503
  0
LINE
  5
4A5
100
AcDbEntity
  8
0
100
AcDbLine
 62
7
  6
CONTINUOUS
 10
120.5776821532
 20
93.9355960223
 11
120.5616399235
 21
94.186833506
  0
LINE
  5
4A6
100
AcDbEntity
  8
DRAFT
100
AcDbLine
 62
7
  6
CONTINUOUS
 10
120.5665974247
 20
94.1106076503
 11
120.5870796058
 21
93.7783684961
  0
LINE
  5
4A7
100
AcDbEntity
  8
0
100
AcDbLine
 62
7
  6
CONTINUOUS
 10
120.5983941015
 20
93.5805443422
 11
120.5767852439
 21
93.9497509558
  0
LINE
  5
4A8
100
AcDbEntity
  8
DRAFT
100
AcDbLine
 62
7
  6
CONTINUOUS
 10
120.5870796058
 20
93.7783684961
 11
120.6078493919
 21
93.4047013325
  0
LINE
  5
4A9
100
AcDbEntity
  8
0
100
AcDbLine
 62
7
  6
CONTINUOUS
 10
120.6187726037
 20
93.1927206668
 11
120.5974716918
 21
93.5961966922
  0
LINE
  5
4AA
100
AcDbEntity
  8
DRAFT
100
AcDbLine
 62
7
  6
CONTINUOUS
 10
120.6078493919
 20
93.4047013325
 11
120.6284852959
 21
92.9925789215
  0
LINE
  5
4AB
100
AcDbEntity
  8
0
100
AcDbLine
 62
7
  6
CONTINUOUS
 10
120.6399335021
 20
92.7447327451
 11
120.6182033518
 21
93.2033017191
  0
LINE
  5
4AC
100
AcDbEntity
  8
DRAFT
100
AcDbLine
 62
7
  6
CONTINUOUS
 10
120.6284852959
 20
92.9925789215
 11
120.6482346818
 21
92.553322278
  0
LWPOLYLINE
  5
4AD
100
AcDbEntity
  8
0
100
AcDbPolyline
 62
7
  6
CONTINUOUS
 90
3
 70
0
 10
120.6974651353
 20
87.0003064178
 10
120.7769887658
 20
85.0700632197
 10
120.9398883737
 20
81.6680765777
  0
LWPOLYLINE
  5
4AE
100
AcDbEntity
  8
0
100
AcDbPolyline
 62
7
  6
CONTINUOUS
 90
4
 70
0
 10
120.701197056
 20
91.0003113302
 10
120.7010596783
 20
91.0037937458
 10
120.7012292319
 20
91.0080994726
 10
120.7014989576
 20
91.0116502207
  0
LINE
  5
4AF
100
AcDbEntity
  8
0
100
AcDbLine
 62
7
  6
CONTINUOUS
 10
120.6598452656
 20
92.2703020402
 11
120.6385154999
 21
92.7757412046
  0
LINE
  5
4B0
100
AcDbEntity
  8
DRAFT
100
AcDbLine
 62
7
  6
CONTINUOUS
 10
120.6482346818
 20
92.553322278
 11
120.6666878296
 21
92.0917474818
  0
LWPOLYLINE
  5
4B1
100
AcDbEntity
  8
RACCORDO
100
AcDbPolyline
 62
253
  6
CONTINUOUS
 90
10
 70
0
 10
121.2912680253
 20
81.6702143642
 10
121.1151426608
 20
86.2965325897
 10
120.9830082731
 20
90.9246374421
 10
120.8948961743
 20
95.55410872
 10
120.8508309375
 20
100.1847347656
 10
120.8508309214
 20
104.8158852887
 10
120.8948961308
 20
109.4465116734
 10
120.9830082168
 20
114.0759836294
 10
121.1151426159
 20
118.7040894985
 10
121.2912680256
 20
123.3304090786
  0
LWPOLYLINE
  5
4B2
100
AcDbEntity
  8
0
100
AcDbPolyline
 62
253
  6
CONTINUOUS
 90
10
 70
0
 10
121.2912680253
 20
81.6702143642
 10
121.1151426608
 20
86.2965325897
 10
120.9830082731
 20
90.9246374421
 10
120.8948961743
 20
95.55410872
 10
120.8508309375
 20
100.1847347656
 10
120.8508309214
 20
104.8158852887
 10
120.8948961308
 20
109.4465116734
 10
120.9830082168
 20
114.0759836294
 10
121.1151426159
 20
118.7040894985
 10
121.2912680256
 20
123.3304090786
  0
LINE
  5
4B3
100
AcDbEntity
  8
0
100
AcDbLine
 62
7
  6
CONTINUOUS
 10
120.6782068603
 20
91.7711113604
 11
120.6576525337
 21
92.3247886228
  0
LINE
  5
4B4
100
AcDbEntity
  8
DRAFT
100
AcDbLine
 62
7
  6
CONTINUOUS
 10
120.6666878296
 20
92.0917474818
 11
120.6835990363
 21
91.6107613732
  0
LINE
  5
4B5
100
AcDbEntity
  8
0
100
AcDbLine
 62
253
  6
CONTINUOUS
 10
120.4399148421
 20
101.715140478
 11
120.4530491691
 21
101.3431688968
  0
LINE
  5
4B6
100
AcDbEntity
  8
0
100
AcDbLine
 62
7
  6
CONTINUOUS
 10
120.6944240441
 20
91.26452794
 11
120.6753454676
 21
91.853508047
  0
LINE
  5
4B7
100
AcDbEntity
  8
0
100
AcDbLine
 62
253
  6
CONTINUOUS
 10
120.521723346
 20
97.0003117207
 11
120.4953099626
 21
97.8736185684
  0
LINE
  5
4B8
100
AcDbEntity
  8
DRAFT
100
AcDbLine
 62
7
  6
CONTINUOUS
 10
120.6835990363
 20
91.6107613732
 11
120.698472963
 21
91.1234655077
  0
LINE
  5
4B9
100
AcDbEntity
  8
0
100
AcDbLine
 62
253
  6
CONTINUOUS
 10
120.4286921577
 20
102.0865269794
 11
120.4399148421
 21
101.715140478
  0
LINE
  5
4BA
100
AcDbEntity
  8
0
100
AcDbLine
 62
253
  6
CONTINUOUS
 10
120.4517351171
 20
103.0145973686
 11
120.4465766779
 21
103.2003117207
  0
LINE
  5
4BB
100
AcDbEntity
  8
0
100
AcDbLine
 62
253
  6
CONTINUOUS
 10
120.4953099626
 20
97.8736185684
 11
120.4723648646
 21
98.7399135269
  0
LINE
  5
4BC
100
AcDbEntity
  8
DRAFT
100
AcDbLine
 62
7
  6
CONTINUOUS
 10
120.698472963
 20
91.1234655077
 11
120.7111348341
 21
90.6351805782
  0
LINE
  5
4BD
100
AcDbEntity
  8
0
100
AcDbLine
 62
253
  6
CONTINUOUS
 10
120.4275566327
 20
100.6003117207
 11
120.4230130713
 21
100.7860260147
  0
LINE
  5
4BE
100
AcDbEntity
  8
0
100
AcDbLine
 62
253
  6
CONTINUOUS
 10
120.4193745166
 20
102.4574546221
 11
120.4286921577
 21
102.0865269794
  0
LINE
  5
4BF
100
AcDbEntity
  8
0
100
AcDbLine
 62
7
  6
CONTINUOUS
 10
120.7125926708
 20
90.5732467324
 11
120.6913188314
 21
91.3671873023
  0
LINE
  5
4C0
100
AcDbEntity
  8
0
100
AcDbLine
 62
253
  6
CONTINUOUS
 10
120.4723648646
 20
98.7399135269
 11
120.4528338283
 21
99.6003117207
  0
LINE
  5
4C1
100
AcDbEntity
  8
DRAFT
100
AcDbLine
 62
7
  6
CONTINUOUS
 10
120.7111348341
 20
90.6351805782
 11
120.7259002646
 21
89.9104943636
  0
LINE
  5
4C2
100
AcDbEntity
  8
0
100
AcDbLine
 62
7
  6
CONTINUOUS
 10
120.7111348341
 20
90.6351805782
 11
120.7259002646
 21
89.9104943636
  0
LINE
  5
4C3
100
AcDbEntity
  8
0
100
AcDbLine
 62
253
  6
CONTINUOUS
 10
120.4617970962
 20
97.0003117207
 11
120.4459194122
 21
97.8699416392
  0
LINE
  5
4C4
100
AcDbEntity
  8
0
100
AcDbLine
 62
7
  6
CONTINUOUS
 10
120.7254977983
 20
89.9346603238
 11
120.7238307662
 21
90.0281917042
  0
LINE
  5
4C5
100
AcDbEntity
  8
0
100
AcDbLine
 62
253
  6
CONTINUOUS
 10
120.4459194122
 20
97.8699416392
 11
120.4324284837
 21
98.7364555858
  0
LINE
  5
4C6
100
AcDbEntity
  8
0
100
AcDbLine
 62
253
  6
CONTINUOUS
 10
120.4324284837
 20
98.7364555858
 11
120.4213093011
 21
99.6003117207
  0
LWPOLYLINE
  5
4C7
100
AcDbEntity
  8
0
100
AcDbPolyline
 62
253
  6
CONTINUOUS
 90
4
 70
0
 10
120.4528338283
 20
99.6003117207
 10
120.4599258357
 20
98.7336266258
 10
120.4688618398
 20
97.8669586464
 10
120.4796418405
 20
97.0003117207
  0
LWPOLYLINE
  5
4C8
100
AcDbEntity
  8
0
100
AcDbPolyline
 62
253
  6
CONTINUOUS
 90
4
 70
0
 10
120.4953795872
 20
99.6003117207
 10
120.5023487791
 20
98.7336272089
 10
120.511130032
 20
97.866959271
 10
120.521723346
 20
97.0003117207
  0
LINE
  5
4C9
100
AcDbEntity
  8
0
100
AcDbLine
 62
253
  6
CONTINUOUS
 10
120.4277766902
 20
98.3000498407
 11
120.4396335495
 21
97.0003117207
  0
LINE
  5
4CA
100
AcDbEntity
  8
0
100
AcDbLine
 62
253
  6
CONTINUOUS
 10
120.4118523833
 20
100.6003117207
 11
120.4056946999
 21
101.4682030438
  0
LINE
  5
4CB
100
AcDbEntity
  8
0
100
AcDbLine
 62
253
  6
CONTINUOUS
 10
120.4056946999
 20
101.4682030438
 11
120.4019233133
 21
102.3347306144
  0
LINE
  5
4CC
100
AcDbEntity
  8
0
100
AcDbLine
 62
253
  6
CONTINUOUS
 10
120.4213093011
 20
99.6003117207
 11
120.4277766902
 21
98.3000498407
  0
LINE
  5
4CD
100
AcDbEntity
  8
0
100
AcDbLine
 62
253
  6
CONTINUOUS
 10
120.4530491691
 20
101.3431688968
 11
120.4542691335
 21
100.9717403087
  0
LINE
  5
4CE
100
AcDbEntity
  8
0
100
AcDbLine
 62
253
  6
CONTINUOUS
 10
120.3983690359
 20
101.9000306205
 11
120.4015734776
 21
100.6003117207
  0
LINE
  5
4CF
100
AcDbEntity
  8
0
100
AcDbLine
 62
253
  6
CONTINUOUS
 10
120.4019233133
 20
102.3347306144
 11
120.4005332066
 21
103.2003117207
  0
LINE
  5
4D0
100
AcDbEntity
  8
0
100
AcDbLine
 62
253
  6
CONTINUOUS
 10
120.4195059903
 20
102.8288831714
 11
120.4193745166
 21
102.4574546221
  0
LWPOLYLINE
  5
4D1
100
AcDbEntity
  8
0
100
AcDbPolyline
 62
253
  6
CONTINUOUS
 90
4
 70
0
 10
120.4766096158
 20
103.2003117207
 10
120.4760499984
 20
102.3336430356
 10
120.4773091483
 20
101.466975089
 10
120.4803870656
 20
100.6003117207
  0
LINE
  5
4D2
100
AcDbEntity
  8
0
100
AcDbLine
 62
253
  6
CONTINUOUS
 10
120.4005332066
 20
103.2003117207
 11
120.3983690359
 21
101.9000306205
  0
LINE
  5
4D3
100
AcDbEntity
  8
0
100
AcDbLine
 62
253
  6
CONTINUOUS
 10
120.5439730323
 20
113.0153997207
 11
120.5437407287
 21
112.9771787207
  0
LINE
  5
4D4
100
AcDbEntity
  8
0
100
AcDbLine
 62
253
  6
CONTINUOUS
 10
120.5012076291
 20
111.1338577207
 11
120.5004734078
 21
111.0561747207
  0
LINE
  5
4D5
100
AcDbEntity
  8
0
100
AcDbLine
 62
253
  6
CONTINUOUS
 10
120.5920969397
 20
113.6948207207
 11
120.5888660495
 21
113.3179027207
  0
LINE
  5
4D6
100
AcDbEntity
  8
0
100
AcDbLine
 62
253
  6
CONTINUOUS
 10
120.5504099191
 20
112.9940907207
 11
120.5537618328
 21
113.2774267207
  0
LINE
  5
4D7
100
AcDbEntity
  8
0
100
AcDbLine
 62
253
  6
CONTINUOUS
 10
120.5437407287
 20
112.9771787207
 11
120.5418033588
 21
112.8286887207
  0
LINE
  5
4D8
100
AcDbEntity
  8
0
100
AcDbLine
 62
253
  6
CONTINUOUS
 10
120.6192816883
 20
114.0757967207
 11
120.6174634972
 21
113.9395967207
  0
LINE
  5
4D9
100
AcDbEntity
  8
0
100
AcDbLine
 62
253
  6
CONTINUOUS
 10
120.5897778597
 20
113.6351767207
 11
120.5903742648
 21
113.6747507207
  0
LINE
  5
4DA
100
AcDbEntity
  8
0
100
AcDbLine
 62
253
  6
CONTINUOUS
 10
120.512586096
 20
111.3169617207
 11
120.5110334341
 21
111.2187577207
  0
LINE
  5
4DB
100
AcDbEntity
  8
0
100
AcDbLine
 62
253
  6
CONTINUOUS
 10
120.5745731104
 20
112.8987057207
 11
120.5762323672
 21
112.9969097207
  0
LINE
  5
4DC
100
AcDbEntity
  8
0
100
AcDbLine
 62
253
  6
CONTINUOUS
 10
120.6577619623
 20
114.5408827207
 11
120.6682869122
 21
115.2048567207
  0
LINE
  5
4DD
100
AcDbEntity
  8
0
100
AcDbLine
 62
253
  6
CONTINUOUS
 10
120.6527492462
 20
114.9564727207
 11
120.646338645
 21
114.5725647207
  0
LINE
  5
4DE
100
AcDbEntity
  8
0
100
AcDbLine
 62
253
  6
CONTINUOUS
 10
120.5460377843
 20
112.7720897207
 11
120.5504099191
 21
112.9940907207
  0
LINE
  5
4DF
100
AcDbEntity
  8
0
100
AcDbLine
 62
253
  6
CONTINUOUS
 10
120.5418033588
 20
112.8286887207
 11
120.5391482416
 21
112.6984647207
  0
LINE
  5
4E0
100
AcDbEntity
  8
0
100
AcDbLine
 62
253
  6
CONTINUOUS
 10
120.6410105938
 20
115.2309017207
 11
120.6375641099
 21
115.0784657207
  0
LINE
  5
4E1
100
AcDbEntity
  8
0
100
AcDbLine
 62
253
  6
CONTINUOUS
 10
120.6360748723
 20
114.5527207207
 11
120.6383835226
 21
114.6539687207
  0
LINE
  5
4E2
100
AcDbEntity
  8
0
100
AcDbLine
 62
253
  6
CONTINUOUS
 10
120.4277008312
 20
103.2003117207
 11
120.4195059903
 21
102.8288831714
  0
LWPOLYLINE
  5
4E3
100
AcDbEntity
  8
0
100
AcDbPolyline
 62
253
  6
CONTINUOUS
 90
3
 70
0
 10
120.6537096143
 20
116.7227857207
 10
120.6570836099
 20
116.8743454168
 10
120.6590985028
 20
116.9503117207
  0
LINE
  5
4E4
100
AcDbEntity
  8
0
100
AcDbLine
 62
253
  6
CONTINUOUS
 10
120.5056232957
 20
111.1179607207
 11
120.5280474116
 21
112.0701388425
  0
LINE
  5
4E5
100
AcDbEntity
  8
0
100
AcDbLine
 62
253
  6
CONTINUOUS
 10
120.5875771767
 20
113.5481347207
 11
120.5897778597
 21
113.6351767207
  0
LINE
  5
4E6
100
AcDbEntity
  8
0
100
AcDbLine
 62
253
  6
CONTINUOUS
 10
120.4542691335
 20
100.9717403087
 11
120.4452606427
 21
100.6003117207
  0
LINE
  5
4E7
100
AcDbEntity
  8
0
100
AcDbLine
 62
253
  6
CONTINUOUS
 10
120.5904462497
 20
113.8548097207
 11
120.5973158637
 21
114.1219107207
  0
LINE
  5
4E8
100
AcDbEntity
  8
0
100
AcDbLine
 62
253
  6
CONTINUOUS
 10
120.5391482416
 20
112.6984647207
 11
120.5012076291
 21
111.1338577207
  0
LINE
  5
4E9
100
AcDbEntity
  8
0
100
AcDbLine
 62
253
  6
CONTINUOUS
 10
120.5280474116
 20
112.0701388425
 11
120.5460377843
 21
112.7720897207
  0
LINE
  5
4EA
100
AcDbEntity
  8
0
100
AcDbLine
 62
253
  6
CONTINUOUS
 10
120.5913783337
 20
114.1772697207
 11
120.579364115
 21
113.7156787207
  0
LWPOLYLINE
  5
4EB
100
AcDbEntity
  8
0
100
AcDbPolyline
 62
253
  6
CONTINUOUS
 90
3
 70
0
 10
120.6469435771
 20
116.6228907207
 10
120.6455976735
 20
116.5737556615
 10
120.6432502404
 20
116.4756417207
  0
LINE
  5
4EC
100
AcDbEntity
  8
0
100
AcDbLine
 62
253
  6
CONTINUOUS
 10
120.5196484003
 20
112.1476897207
 11
120.5436090509
 21
113.0483227207
  0
LINE
  5
4ED
100
AcDbEntity
  8
0
100
AcDbLine
 62
253
  6
CONTINUOUS
 10
120.5480119706
 20
113.3197077207
 11
120.5220077722
 21
112.3533427207
  0
LINE
  5
4EE
100
AcDbEntity
  8
0
100
AcDbLine
 62
253
  6
CONTINUOUS
 10
120.6280217356
 20
116.0566697207
 11
120.6310441327
 21
116.1715597207
  0
LINE
  5
4EF
100
AcDbEntity
  8
0
100
AcDbLine
 62
253
  6
CONTINUOUS
 10
120.6404615128
 20
116.2431547207
 11
120.6537096143
 21
116.7227857207
  0
LINE
  5
4F0
100
AcDbEntity
  8
0
100
AcDbLine
 62
253
  6
CONTINUOUS
 10
120.6432502404
 20
116.4756417207
 11
120.63529403
 21
116.1906147207
  0
LINE
  5
4F1
100
AcDbEntity
  8
0
100
AcDbLine
 62
253
  6
CONTINUOUS
 10
120.5581844932
 20
113.6865897207
 11
120.5879172939
 21
114.7050258388
  0
LINE
  5
4F2
100
AcDbEntity
  8
0
100
AcDbLine
 62
253
  6
CONTINUOUS
 10
120.6071927211
 20
114.1794117207
 11
120.5920969397
 21
113.6948207207
  0
LINE
  5
4F3
100
AcDbEntity
  8
0
100
AcDbLine
 62
253
  6
CONTINUOUS
 10
120.6045714063
 20
113.8241427207
 11
120.6147440899
 21
114.1470537207
  0
LINE
  5
4F4
100
AcDbEntity
  8
0
100
AcDbLine
 62
253
  6
CONTINUOUS
 10
120.5220077722
 20
112.3533427207
 11
120.5191057263
 21
112.2646097207
  0
LINE
  5
4F5
100
AcDbEntity
  8
0
100
AcDbLine
 62
253
  6
CONTINUOUS
 10
120.5156090569
 20
111.1975607207
 11
120.5430484371
 21
112.0324784131
  0
LINE
  5
4F6
100
AcDbEntity
  8
0
100
AcDbLine
 62
253
  6
CONTINUOUS
 10
120.6383205285
 20
116.1804667207
 11
120.6404615128
 21
116.2431547207
  0
LINE
  5
4F7
100
AcDbEntity
  8
0
100
AcDbLine
 62
253
  6
CONTINUOUS
 10
120.5504500209
 20
112.4749544002
 11
120.512586096
 21
111.3169617207
  0
LINE
  5
4F8
100
AcDbEntity
  8
0
100
AcDbLine
 62
253
  6
CONTINUOUS
 10
120.5124626102
 20
111.9371887207
 11
120.5196484003
 21
112.1476897207
  0
LINE
  5
4F9
100
AcDbEntity
  8
0
100
AcDbLine
 62
253
  6
CONTINUOUS
 10
120.5860929368
 20
113.5057417207
 11
120.5875771767
 21
113.5481347207
  0
LINE
  5
4FA
100
AcDbEntity
  8
0
100
AcDbLine
 62
253
  6
CONTINUOUS
 10
120.5522728773
 20
113.5207523106
 11
120.5581844932
 21
113.6865897207
  0
LINE
  5
4FB
100
AcDbEntity
  8
0
100
AcDbLine
 62
253
  6
CONTINUOUS
 10
120.5701325234
 20
113.0181057207
 11
120.5504500209
 21
112.4749544002
  0
LINE
  5
4FC
100
AcDbEntity
  8
0
100
AcDbLine
 62
253
  6
CONTINUOUS
 10
120.550354567
 20
113.3831847207
 11
120.5480119706
 21
113.3197077207
  0
LINE
  5
4FD
100
AcDbEntity
  8
0
100
AcDbLine
 62
253
  6
CONTINUOUS
 10
120.6365984287
 20
113.9535777207
 11
120.6268491799
 21
113.6880557207
  0
LINE
  5
4FE
100
AcDbEntity
  8
0
100
AcDbLine
 62
253
  6
CONTINUOUS
 10
120.6303954557
 20
113.4598527207
 11
120.646011988
 21
113.8831097207
  0
LINE
  5
4FF
100
AcDbEntity
  8
0
100
AcDbLine
 62
253
  6
CONTINUOUS
 10
120.503062921
 20
111.0503117207
 11
120.5056232957
 21
111.1179607207
  0
LINE
  5
500
100
AcDbEntity
  8
0
100
AcDbLine
 62
253
  6
CONTINUOUS
 10
120.6230281653
 20
114.1743387207
 11
120.6192816883
 21
114.0757967207
  0
LINE
  5
501
100
AcDbEntity
  8
0
100
AcDbLine
 62
253
  6
CONTINUOUS
 10
120.5430484371
 20
112.0324784131
 11
120.5745731104
 21
112.8987057207
  0
LINE
  5
502
100
AcDbEntity
  8
0
100
AcDbLine
 62
253
  6
CONTINUOUS
 10
120.63529403
 20
116.1906147207
 11
120.6212492495
 21
115.8182067207
  0
LINE
  5
503
100
AcDbEntity
  8
0
100
AcDbLine
 62
253
  6
CONTINUOUS
 10
120.6125719355
 20
115.5124337207
 11
120.6383205285
 21
116.1804667207
  0
LINE
  5
504
100
AcDbEntity
  8
0
100
AcDbLine
 62
253
  6
CONTINUOUS
 10
120.646338645
 20
114.5725647207
 11
120.6360436641
 21
114.3203477207
  0
LINE
  5
505
100
AcDbEntity
  8
0
100
AcDbLine
 62
253
  6
CONTINUOUS
 10
120.6397308842
 20
114.1048857207
 11
120.6577619623
 21
114.5408827207
  0
LINE
  5
506
100
AcDbEntity
  8
0
100
AcDbLine
 62
253
  6
CONTINUOUS
 10
120.6450998103
 20
115.3238067207
 11
120.6410105938
 21
115.2309017207
  0
LINE
  5
507
100
AcDbEntity
  8
0
100
AcDbLine
 62
253
  6
CONTINUOUS
 10
120.6148200443
 20
114.7025637207
 11
120.5913783337
 21
114.1772697207
  0
LINE
  5
508
100
AcDbEntity
  8
0
100
AcDbLine
 62
253
  6
CONTINUOUS
 10
120.5973158637
 20
114.1219107207
 11
120.6112168867
 21
114.4255417207
  0
LINE
  5
509
100
AcDbEntity
  8
0
100
AcDbLine
 62
253
  6
CONTINUOUS
 10
120.5827754817
 20
113.4356117207
 11
120.5860929368
 21
113.5057417207
  0
LWPOLYLINE
  5
50A
100
AcDbEntity
  8
0
100
AcDbPolyline
 62
7
  6
CONTINUOUS
 90
10
 70
0
 10
120.9398883737
 20
123.3325468636
 10
120.7766983291
 20
119.9239002625
 10
120.6400086417
 20
116.4401043611
 10
120.5336872465
 20
112.9552495307
 10
120.4577451173
 20
109.4696004072
 10
120.4121907019
 20
105.9834216803
 10
120.3970252671
 20
102.4969782481
 10
120.4122488122
 20
99.0105350956
 10
120.4578613365
 20
95.5243572074
 10
120.4673460653
 20
95.0003072537
  0
LINE
  5
50B
100
AcDbEntity
  8
0
100
AcDbLine
 62
253
  6
CONTINUOUS
 10
120.6301373149
 20
114.4285857207
 11
120.6360748723
 21
114.5527207207
  0
LINE
  5
50C
100
AcDbEntity
  8
0
100
AcDbLine
 62
253
  6
CONTINUOUS
 10
120.5137616159
 20
111.1623837207
 11
120.5156090569
 21
111.1975607207
  0
LINE
  5
50D
100
AcDbEntity
  8
0
100
AcDbLine
 62
253
  6
CONTINUOUS
 10
120.6107220368
 20
114.2410857207
 11
120.6071927211
 21
114.1794117207
  0
LINE
  5
50E
100
AcDbEntity
  8
0
100
AcDbLine
 62
253
  6
CONTINUOUS
 10
120.572371484
 20
113.0531707207
 11
120.5701325234
 21
113.0181057207
  0
LINE
  5
50F
100
AcDbEntity
  8
0
100
AcDbLine
 62
253
  6
CONTINUOUS
 10
120.6268491799
 20
113.6880557207
 11
120.6172702792
 21
113.5521937207
  0
LINE
  5
510
100
AcDbEntity
  8
0
100
AcDbLine
 62
253
  6
CONTINUOUS
 10
120.6402040786
 20
114.0030737207
 11
120.6365984287
 21
113.9535777207
  0
LINE
  5
511
100
AcDbEntity
  8
0
100
AcDbLine
 62
253
  6
CONTINUOUS
 10
120.6134766002
 20
113.2248857207
 11
120.6303954557
 21
113.4598527207
  0
LINE
  5
512
100
AcDbEntity
  8
0
100
AcDbLine
 62
253
  6
CONTINUOUS
 10
120.623774792
 20
114.8208367207
 11
120.6148200443
 21
114.7025637207
  0
LINE
  5
513
100
AcDbEntity
  8
0
100
AcDbLine
 62
253
  6
CONTINUOUS
 10
120.6112168867
 20
114.4255417207
 11
120.6165061115
 21
114.4938667207
  0
LINE
  5
514
100
AcDbEntity
  8
0
100
AcDbLine
 62
253
  6
CONTINUOUS
 10
120.58113296
 20
113.4145277207
 11
120.5827754817
 21
113.4356117207
  0
LWPOLYLINE
  5
515
100
AcDbEntity
  8
RACCORDO
100
AcDbPolyline
 62
253
  6
CONTINUOUS
 90
19
 70
0
 10
121.2912680371
 20
123.3304090779
 10
121.2979942742
 20
123.4159116478
 10
121.3108171113
 20
123.5007094273
 10
121.3296698221
 20
123.5843695631
 10
121.3544535972
 20
123.6664592961
 10
121.3850415219
 20
123.7465661451
 10
121.4212834045
 20
123.8242984495
 10
121.4630008751
 20
123.8992639799
 10
121.5099809532
 20
123.9710725721
 10
121.5619832593
 20
124.0393551346
 10
121.6187446937
 20
124.1037609663
 10
121.6799779806
 20
124.163959869
 10
121.7453699121
 20
124.2196428305
 10
121.8145907459
 20
124.2705243979
 10
121.8872874291
 20
124.3163410387
 10
121.9630818162
 20
124.3568539133
 10
122.041583785
 20
124.3918528003
 10
122.1223975929
 20
124.4211598243
 10
122.2051158614
 20
124.4446258427
  0
LWPOLYLINE
  5
516
100
AcDbEntity
  8
0
100
AcDbPolyline
 62
253
  6
CONTINUOUS
 90
19
 70
0
 10
121.2912680371
 20
123.3304090779
 10
121.2979942742
 20
123.4159116478
 10
121.3108171113
 20
123.5007094273
 10
121.3296698221
 20
123.5843695631
 10
121.3544535972
 20
123.6664592961
 10
121.3850415219
 20
123.7465661451
 10
121.4212834045
 20
123.8242984495
 10
121.4630008751
 20
123.8992639799
 10
121.5099809532
 20
123.9710725721
 10
121.5619832593
 20
124.0393551346
 10
121.6187446937
 20
124.1037609663
 10
121.6799779806
 20
124.163959869
 10
121.7453699121
 20
124.2196428305
 10
121.8145907459
 20
124.2705243979
 10
121.8872874291
 20
124.3163410387
 10
121.9630818162
 20
124.3568539133
 10
122.041583785
 20
124.3918528003
 10
122.1223975929
 20
124.4211598243
 10
122.2051158614
 20
124.4446258427
  0
LWPOLYLINE
  5
517
100
AcDbEntity
  8
RACCORDO
100
AcDbPolyline
 62
253
  6
CONTINUOUS
 90
22
 70
0
 10
121.7765830406
 20
123.3090693045
 10
121.7805535976
 20
123.3590986055
 10
121.787995242
 20
123.4083012592
 10
121.7989079739
 20
123.4566772658
 10
121.8133821853
 20
123.504488271
 10
121.8313274842
 20
123.5514726289
 10
121.8524726947
 20
123.5968454025
 10
121.8768652444
 20
123.6405597793
 10
121.9044577057
 20
123.6826625716
 10
121.9348366196
 20
123.722509279
 10
121.9680479592
 20
123.7600674499
 10
122.0040457515
 20
123.7953695358
 10
122.0422786178
 20
123.8278683913
 10
122.0827810214
 20
123.8575189251
 10
122.1255184992
 20
123.8843662283
 10
122.1698362827
 20
123.9079984293
 10
122.2157815316
 20
123.9283664242
 10
122.2633070864
 20
123.9455193169
 10
122.3116166996
 20
123.9591925473
 10
122.3604449555
 20
123.9692979289
 10
122.41005727
 20
123.9759236483
 10
122.460453643
 20
123.9790697054
  0
LWPOLYLINE
  5
518
100
AcDbEntity
  8
0
100
AcDbPolyline
 62
253
  6
CONTINUOUS
 90
22
 70
0
 10
121.7765830406
 20
123.3090693045
 10
121.7805535976
 20
123.3590986055
 10
121.787995242
 20
123.4083012592
 10
121.7989079739
 20
123.4566772658
 10
121.8133821853
 20
123.504488271
 10
121.8313274842
 20
123.5514726289
 10
121.8524726947
 20
123.5968454025
 10
121.8768652444
 20
123.6405597793
 10
121.9044577057
 20
123.6826625716
 10
121.9348366196
 20
123.722509279
 10
121.9680479592
 20
123.7600674499
 10
122.0040457515
 20
123.7953695358
 10
122.0422786178
 20
123.8278683913
 10
122.0827810214
 20
123.8575189251
 10
122.1255184992
 20
123.8843662283
 10
122.1698362827
 20
123.9079984293
 10
122.2157815316
 20
123.9283664242
 10
122.2633070864
 20
123.9455193169
 10
122.3116166996
 20
123.9591925473
 10
122.3604449555
 20
123.9692979289
 10
122.41005727
 20
123.9759236483
 10
122.460453643
 20
123.9790697054
  0
LINE
  5
519
100
AcDbEntity
  8
0
100
AcDbLine
 62
253
  6
CONTINUOUS
 10
120.6278008075
 20
114.3999477207
 11
120.6301373149
 21
114.4285857207
  0
LINE
  5
51A
100
AcDbEntity
  8
0
100
AcDbLine
 62
253
  6
CONTINUOUS
 10
120.6360436641
 20
114.3203477207
 11
120.6230281653
 21
114.1743387207
  0
LWPOLYLINE
  5
51B
100
AcDbEntity
  8
0
100
AcDbPolyline
 62
253
  6
CONTINUOUS
 90
3
 70
0
 10
120.6218018594
 20
113.9110717207
 10
120.6339725236
 20
114.043998872
 10
120.6397308842
 20
114.1048857207
  0
LINE
  5
51C
100
AcDbEntity
  8
0
100
AcDbLine
 62
253
  6
CONTINUOUS
 10
120.6511160914
 20
115.3788277207
 11
120.6450998103
 21
115.3238067207
  0
LINE
  5
51D
100
AcDbEntity
  8
0
100
AcDbLine
 62
253
  6
CONTINUOUS
 10
120.6406704503
 20
115.0364107207
 11
120.6429998746
 21
115.0571567207
  0
LINE
  5
51E
100
AcDbEntity
  8
0
100
AcDbLine
 62
253
  6
CONTINUOUS
 10
120.6208449613
 20
113.9049827207
 11
120.6218018594
 21
113.9110717207
  0
LINE
  5
51F
100
AcDbEntity
  8
0
100
AcDbLine
 62
253
  6
CONTINUOUS
 10
120.4080166361
 20
99.6003118696
 11
120.4075379376
 21
99.6003113692
  0
LINE
  5
520
100
AcDbEntity
  8
0
100
AcDbLine
 62
253
  6
CONTINUOUS
 10
120.480387134
 20
100.6002968376
 11
120.5258029823
 21
100.6003281816
  0
LINE
  5
521
100
AcDbEntity
  8
0
100
AcDbLine
 62
253
  6
CONTINUOUS
 10
120.4452606126
 20
100.6003181794
 11
120.4275566598
 21
100.6003059627
  0
LWPOLYLINE
  5
522
100
AcDbEntity
  8
DRAFT
100
AcDbPolyline
 62
7
  6
CONTINUOUS
 90
8
 70
0
 10
120.4929770252
 20
94.9697420713
 10
120.498805712
 20
94.9318996402
 10
120.5053612364
 20
94.878719806
 10
120.5126046328
 20
94.8105137659
 10
120.5204194517
 20
94.7282147714
 10
120.5287683482
 20
94.6317856183
 10
120.5376357218
 20
94.5212638554
 10
120.5469109564
 20
94.3976947952
  0
LWPOLYLINE
  5
523
100
AcDbEntity
  8
0
100
AcDbPolyline
 62
7
  6
CONTINUOUS
 90
4
 70
0
 10
120.4929770252
 20
94.9697420713
 10
120.498805712
 20
94.9318996402
 10
120.5053612364
 20
94.878719806
 10
120.5126046328
 20
94.8105137659
  0
LWPOLYLINE
  5
524
100
AcDbEntity
  8
0
100
AcDbPolyline
 62
7
  6
CONTINUOUS
 90
4
 70
0
 10
120.7022639204
 20
90.9871877724
 10
120.7016337066
 20
90.9920396227
 10
120.7012176281
 20
90.9966673098
 10
120.701197056
 20
91.0003113302
  0
LWPOLYLINE
  5
525
100
AcDbEntity
  8
0
100
AcDbPolyline
 62
7
  6
CONTINUOUS
 90
5
 70
0
 10
120.5056953565
 20
94.8762484784
 10
120.5019291124
 20
94.9082350032
 10
120.4983273403
 20
94.9357746726
 10
120.4949083027
 20
94.9586945315
 10
120.4916979216
 20
94.9767583779
  0
LINE
  5
526
100
AcDbEntity
  8
0
100
AcDbLine
 62
253
  6
CONTINUOUS
 10
120.6466176506
 20
113.9733087207
 11
120.6437535223
 21
114.0011577207
  0
LINE
  5
527
100
AcDbEntity
  8
0
100
AcDbLine
 62
253
  6
CONTINUOUS
 10
120.5749432728
 20
113.0476457207
 11
120.5744938027
 21
113.0531707207
  0
LINE
  5
528
100
AcDbEntity
  8
0
100
AcDbLine
 62
253
  6
CONTINUOUS
 10
120.6247347889
 20
114.4087417207
 11
120.6253182259
 21
114.3999477207
  0
LINE
  5
529
100
AcDbEntity
  8
0
100
AcDbLine
 62
253
  6
CONTINUOUS
 10
120.6364040966
 20
114.7796837207
 11
120.6337477298
 21
114.8208367207
  0
LINE
  5
52A
100
AcDbEntity
  8
0
100
AcDbLine
 62
253
  6
CONTINUOUS
 10
120.6223323232
 20
114.4938667207
 11
120.6238471372
 21
114.4701897207
  0
LINE
  5
52B
100
AcDbEntity
  8
0
100
AcDbLine
 62
253
  6
CONTINUOUS
 10
120.5117841021
 20
111.1680207207
 11
120.5121095658
 21
111.1623837207
  0
LINE
  5
52C
100
AcDbEntity
  8
0
100
AcDbLine
 62
253
  6
CONTINUOUS
 10
120.5537854766
 20
113.3522917207
 11
120.5523930302
 21
113.3776597207
  0
LWPOLYLINE
  5
52D
100
AcDbEntity
  8
RACCORDO
100
AcDbPolyline
 62
253
  6
CONTINUOUS
 90
10
 70
0
 10
121.7765830193
 20
81.6915541391
 10
121.6003195546
 20
86.3138205064
 10
121.4681219538
 20
90.9370377654
 10
121.3799902169
 20
95.5612059161
 10
121.3359243402
 20
100.1869588193
 10
121.3359243274
 20
104.8136626141
 10
121.3799901899
 20
109.4394157183
 10
121.4681219315
 20
114.0635842711
 10
121.6003195484
 20
118.6868021331
 10
121.7765830406
 20
123.3090693045
  0
LWPOLYLINE
  5
52E
100
AcDbEntity
  8
0
100
AcDbPolyline
 62
253
  6
CONTINUOUS
 90
10
 70
0
 10
121.7765830193
 20
81.6915541391
 10
121.6003195546
 20
86.3138205064
 10
121.4681219538
 20
90.9370377654
 10
121.3799902169
 20
95.5612059161
 10
121.3359243402
 20
100.1869588193
 10
121.3359243274
 20
104.8136626141
 10
121.3799901899
 20
109.4394157183
 10
121.4681219315
 20
114.0635842711
 10
121.6003195484
 20
118.6868021331
 10
121.7765830406
 20
123.3090693045
  0
LINE
  5
52F
100
AcDbEntity
  8
0
100
AcDbLine
 62
253
  6
CONTINUOUS
 10
120.578655904
 20
113.4283967207
 11
120.579133545
 21
113.4145277207
  0
LINE
  5
530
100
AcDbEntity
  8
0
100
AcDbLine
 62
253
  6
CONTINUOUS
 10
120.5762323672
 20
112.9969097207
 11
120.5749432728
 21
113.0476457207
  0
LINE
  5
531
100
AcDbEntity
  8
0
100
AcDbLine
 62
253
  6
CONTINUOUS
 10
120.6174634972
 20
113.9395967207
 11
120.6181784689
 21
113.9049827207
  0
LINE
  5
532
100
AcDbEntity
  8
0
100
AcDbLine
 62
253
  6
CONTINUOUS
 10
120.5110334341
 20
111.2187577207
 11
120.5117841021
 21
111.1680207207
  0
LINE
  5
533
100
AcDbEntity
  8
0
100
AcDbLine
 62
253
  6
CONTINUOUS
 10
120.6511399818
 20
115.0648237207
 11
120.6527492462
 21
114.9564727207
  0
LINE
  5
534
100
AcDbEntity
  8
0
100
AcDbLine
 62
253
  6
CONTINUOUS
 10
120.6682869122
 20
115.2048567207
 11
120.6652490983
 21
115.3922447207
  0
LINE
  5
535
100
AcDbEntity
  8
0
100
AcDbLine
 62
253
  6
CONTINUOUS
 10
120.6383835226
 20
114.6539687207
 11
120.6364040966
 21
114.7796837207
  0
LINE
  5
536
100
AcDbEntity
  8
0
100
AcDbLine
 62
253
  6
CONTINUOUS
 10
120.6238471372
 20
114.4701897207
 11
120.6247347889
 21
114.4087417207
  0
LINE
  5
537
100
AcDbEntity
  8
0
100
AcDbLine
 62
7
  6
CONTINUOUS
 10
120.7254977983
 20
89.9346603238
 11
120.7327847771
 21
89.4487986412
  0
LINE
  5
538
100
AcDbEntity
  8
DRAFT
100
AcDbLine
 62
7
  6
CONTINUOUS
 10
120.7259002646
 20
89.9104943636
 11
120.7353754038
 21
89.2263101474
  0
LINE
  5
539
100
AcDbEntity
  8
0
100
AcDbLine
 62
253
  6
CONTINUOUS
 10
120.5436090509
 20
113.0483227207
 11
120.5439730323
 21
113.0153997207
  0
LINE
  5
53A
100
AcDbEntity
  8
0
100
AcDbLine
 62
7
  6
CONTINUOUS
 10
120.7323516774
 20
89.4850692565
 11
120.7374237635
 21
89.0093987009
  0
LINE
  5
53B
100
AcDbEntity
  8
DRAFT
100
AcDbLine
 62
7
  6
CONTINUOUS
 10
120.7353754038
 20
89.2263101474
 11
120.7399945917
 21
88.5971085715
  0
LINE
  5
53C
100
AcDbEntity
  8
0
100
AcDbLine
 62
7
  6
CONTINUOUS
 10
120.7372215323
 20
89.0382517502
 11
120.7399945917
 21
88.5971085715
  0
LINE
  5
53D
100
AcDbEntity
  8
0
100
AcDbLine
 62
253
  6
CONTINUOUS
 10
120.6375641099
 20
115.0784657207
 11
120.6377927469
 21
115.0335927207
  0
LINE
  5
53E
100
AcDbEntity
  8
DRAFT
100
AcDbLine
 62
7
  6
CONTINUOUS
 10
120.7399945917
 20
88.5971085715
 11
120.7406164481
 21
88.2232287151
  0
LINE
  5
53F
100
AcDbEntity
  8
0
100
AcDbLine
 62
7
  6
CONTINUOUS
 10
120.7399489374
 20
88.6242533367
 11
120.7406164481
 21
88.2232287151
  0
LINE
  5
540
100
AcDbEntity
  8
0
100
AcDbLine
 62
253
  6
CONTINUOUS
 10
120.5537618328
 20
113.2774267207
 11
120.5537854766
 21
113.3522917207
  0
LINE
  5
541
100
AcDbEntity
  8
0
100
AcDbLine
 62
253
  6
CONTINUOUS
 10
120.5903742648
 20
113.6747507207
 11
120.5904462497
 21
113.8548097207
  0
LINE
  5
542
100
AcDbEntity
  8
0
100
AcDbLine
 62
253
  6
CONTINUOUS
 10
120.579364115
 20
113.7156787207
 11
120.578655904
 21
113.4283967207
  0
LINE
  5
543
100
AcDbEntity
  8
DRAFT
100
AcDbLine
 62
7
  6
CONTINUOUS
 10
120.7406164481
 20
88.2232287151
 11
120.7395093291
 21
87.890768774
  0
LINE
  5
544
100
AcDbEntity
  8
0
100
AcDbLine
 62
7
  6
CONTINUOUS
 10
120.7406805734
 20
88.2636195185
 11
120.7395093291
 21
87.890768774
  0
LINE
  5
545
100
AcDbEntity
  8
0
100
AcDbLine
 62
253
  6
CONTINUOUS
 10
120.646011988
 20
113.8831097207
 11
120.6466176506
 21
113.9733087207
  0
LINE
  5
546
100
AcDbEntity
  8
0
100
AcDbLine
 62
253
  6
CONTINUOUS
 10
120.6147440899
 20
114.1470537207
 11
120.6153642467
 21
114.2289087207
  0
LINE
  5
547
100
AcDbEntity
  8
0
100
AcDbLine
 62
253
  6
CONTINUOUS
 10
120.6029418244
 20
113.6058617207
 11
120.6045714063
 21
113.8241427207
  0
LINE
  5
548
100
AcDbEntity
  8
0
100
AcDbLine
 62
7
  6
CONTINUOUS
 10
120.7380049332
 20
87.692824566
 11
120.7398447884
 21
87.9435054452
  0
LWPOLYLINE
  5
549
100
AcDbEntity
  8
DRAFT
100
AcDbPolyline
 62
7
  6
CONTINUOUS
 90
11
 70
0
 10
120.7395093291
 20
87.890768774
 10
120.7369094408
 20
87.6034620101
 10
120.7351165402
 20
87.4797795693
 10
120.7330259123
 20
87.3691447507
 10
120.7306734278
 20
87.2726204899
 10
120.7280617126
 20
87.1902480433
 10
120.7252192976
 20
87.1219855796
 10
120.7221944972
 20
87.068771322
 10
120.7189976931
 20
87.030917843
 10
120.715621624
 20
87.0081121568
 10
120.7120734092
 20
87.0003541674
  0
LINE
  5
54A
100
AcDbEntity
  8
0
100
AcDbLine
 62
7
  6
CONTINUOUS
 10
120.7383774053
 20
87.7405912408
 11
120.7351165402
 21
87.4797795693
  0
LINE
  5
54B
100
AcDbEntity
  8
0
100
AcDbLine
 62
7
  6
CONTINUOUS
 10
120.7357053751
 20
87.5109142707
 11
120.7330259123
 21
87.3691447507
  0
LINE
  5
54C
100
AcDbEntity
  8
0
100
AcDbLine
 62
7
  6
CONTINUOUS
 10
120.7336207133
 20
87.3948981886
 11
120.7306734278
 21
87.2726204899
  0
LWPOLYLINE
  5
54D
100
AcDbEntity
  8
0
100
AcDbPolyline
 62
7
  6
CONTINUOUS
 90
7
 70
0
 10
120.7310506184
 20
87.2861567301
 10
120.7280617126
 20
87.1902480433
 10
120.7252192976
 20
87.1219855796
 10
120.7221944972
 20
87.068771322
 10
120.7189976931
 20
87.030917843
 10
120.715621624
 20
87.0081121568
 10
120.7120734092
 20
87.0003541674
  0
LINE
  5
54E
100
AcDbEntity
  8
0
100
AcDbLine
 62
7
  6
CONTINUOUS
 10
120.7280037988
 20
87.1879355666
 11
120.7295908143
 21
87.2354308322
  0
LINE
  5
54F
100
AcDbEntity
  8
0
100
AcDbLine
 62
7
  6
CONTINUOUS
 10
120.7243737663
 20
87.1044014591
 11
120.7262653206
 21
87.1439937034
  0
LWPOLYLINE
  5
550
100
AcDbEntity
  8
0
100
AcDbPolyline
 62
7
  6
CONTINUOUS
 90
4
 70
0
 10
120.7015750372
 20
91.0126517546
 10
120.7017449951
 20
91.016146571
 10
120.7015786441
 20
91.018102291
 10
120.7013775238
 20
91.0199108738
  0
LWPOLYLINE
  5
551
100
AcDbEntity
  8
0
100
AcDbPolyline
 62
7
  6
CONTINUOUS
 90
4
 70
0
 10
120.7024568499
 20
90.980013266
 10
120.702569562
 20
90.981737727
 10
120.7026411709
 20
90.9836002731
 10
120.7022639204
 20
90.9871877724
  0
LINE
  5
552
100
AcDbEntity
  8
0
100
AcDbLine
 62
7
  6
CONTINUOUS
 10
120.7200717159
 20
87.0411327894
 11
120.7223214365
 21
87.069902419
  0
LWPOLYLINE
  5
553
100
AcDbEntity
  8
0
100
AcDbPolyline
 62
253
  6
CONTINUOUS
 90
10
 70
0
 10
120.4796983413
 20
95.0003380552
 10
120.3892964194
 20
94.1057142201
 10
120.3280501427
 20
93.2127502781
 10
120.295860215
 20
92.3213974493
 10
120.2926222243
 20
91.4320072331
 10
120.3182149577
 20
90.5441415755
 10
120.3726128555
 20
89.6567768461
 10
120.4558405676
 20
88.7698955721
 10
120.5678600566
 20
87.8842876742
 10
120.708651303
 20
87.0003429813
  0
LWPOLYLINE
  5
554
100
AcDbEntity
  8
0
100
AcDbPolyline
 62
253
  6
CONTINUOUS
 90
10
 70
0
 10
120.483466378
 20
95.0003121813
 10
120.3927341359
 20
94.1043070566
 10
120.3312755362
 20
93.2107972454
 10
120.2989609711
 20
92.3195573612
 10
120.2956544459
 20
91.4308753121
 10
120.3211993209
 20
90.5440290344
 10
120.3755787035
 20
89.6574898259
 10
120.458856744
 20
88.7709566766
 10
120.5710180914
 20
87.8851583511
 10
120.7120704107
 20
87.0003127284
  0
LWPOLYLINE
  5
555
100
AcDbEntity
  8
SUPERFICI
100
AcDbPolyline
 62
7
  6
CONTINUOUS
 90
10
 70
0
 10
120.4673460653
 20
95.0003072536
 10
120.383632644
 20
94.1741009723
 10
120.3203062523
 20
93.2660636093
 10
120.2868068404
 20
92.3569170945
 10
120.283143653
 20
91.4474084737
 10
120.3093223226
 20
90.5382915327
 10
120.3652736162
 20
89.6305421151
 10
120.4508553615
 20
88.7253534344
 10
120.5659226499
 20
87.8239239367
 10
120.6974651353
 20
87.0003064178
  0
LINE
  5
556
100
AcDbEntity
  8
0
100
AcDbLine
 62
253
  6
CONTINUOUS
 10
120.4060397223
 20
101.3431707242
 11
120.3991793774
 21
101.3431678313
  0
LINE
  5
557
100
AcDbEntity
  8
0
100
AcDbLine
 62
253
  6
CONTINUOUS
 10
120.4762241664
 20
102.0860239422
 11
120.5054077112
 21
102.0860283574
  0
LWPOLYLINE
  5
558
100
AcDbEntity
  8
0
100
AcDbPolyline
 62
253
  6
CONTINUOUS
 90
3
 70
0
 10
120.6091722761
 20
113.5548997207
 10
120.6047321152
 20
113.5907872677
 10
120.6029418244
 20
113.6058617207
  0
LWPOLYLINE
  5
559
100
AcDbEntity
  8
0
100
AcDbPolyline
 62
253
  6
CONTINUOUS
 90
4
 70
0
 10
120.5888660495
 20
113.3179027207
 10
120.5917750705
 20
113.2917716911
 10
120.5948237166
 20
113.2656517086
 10
120.5992470118
 20
113.2296217207
  0
LINE
  5
55A
100
AcDbEntity
  8
RACCORDO
100
AcDbLine
 62
253
  6
CONTINUOUS
 10
122.4580211952
 20
124.0829452831
 11
122.460453643
 21
123.9790697054
  0
LINE
  5
55B
100
AcDbEntity
  8
0
100
AcDbLine
 62
253
  6
CONTINUOUS
 10
122.4580211952
 20
124.0829452831
 11
122.460453643
 21
123.9790697054
  0
LINE
  5
55C
100
AcDbEntity
  8
RACCORDO
100
AcDbLine
 62
253
  6
CONTINUOUS
 10
122.456266497
 20
124.1822849451
 11
122.4580211952
 21
124.0829452831
  0
LINE
  5
55D
100
AcDbEntity
  8
0
100
AcDbLine
 62
253
  6
CONTINUOUS
 10
122.456266497
 20
124.1822849451
 11
122.4580211952
 21
124.0829452831
  0
LINE
  5
55E
100
AcDbEntity
  8
RACCORDO
100
AcDbLine
 62
253
  6
CONTINUOUS
 10
122.4550638431
 20
80.6872242856
 11
122.4556684778
 21
80.7717408608
  0
LINE
  5
55F
100
AcDbEntity
  8
0
100
AcDbLine
 62
253
  6
CONTINUOUS
 10
122.4550638431
 20
80.6872242856
 11
122.4556684778
 21
80.7717408608
  0
LINE
  5
560
100
AcDbEntity
  8
RACCORDO
100
AcDbLine
 62
253
  6
CONTINUOUS
 10
122.4556684778
 20
80.7717408608
 11
122.457053584
 21
80.8671653835
  0
LINE
  5
561
100
AcDbEntity
  8
0
100
AcDbLine
 62
253
  6
CONTINUOUS
 10
122.4556684778
 20
80.7717408608
 11
122.457053584
 21
80.8671653835
  0
LWPOLYLINE
  5
562
100
AcDbEntity
  8
RACCORDO
100
AcDbPolyline
 62
253
  6
CONTINUOUS
 90
3
 70
0
 10
122.457053584
 20
80.8671653835
 10
122.4591586693
 20
80.969330961
 10
122.460453603
 20
81.021553737
  0
LWPOLYLINE
  5
563
100
AcDbEntity
  8
0
100
AcDbPolyline
 62
253
  6
CONTINUOUS
 90
3
 70
0
 10
122.457053584
 20
80.8671653835
 10
122.4591586693
 20
80.969330961
 10
122.460453603
 20
81.021553737
  0
LINE
  5
564
100
AcDbEntity
  8
0
100
AcDbLine
 62
7
  6
CONTINUOUS
 10
120.7176089741
 20
87.0191402003
 11
120.7200717159
 21
87.0411327894
  0
LINE
  5
565
100
AcDbEntity
  8
0
100
AcDbLine
 62
7
  6
CONTINUOUS
 10
120.7149418655
 20
87.0051419964
 11
120.7176089741
 21
87.0191402003
  0
LINE
  5
566
100
AcDbEntity
  8
0
100
AcDbLine
 62
253
  6
CONTINUOUS
 10
120.4465766736
 20
103.2003091797
 11
120.4277008352
 21
103.2003140019
  0
LINE
  5
567
100
AcDbEntity
  8
0
100
AcDbLine
 62
253
  6
CONTINUOUS
 10
120.5220962172
 20
103.2003056172
 11
120.4766096251
 21
103.2003172392
  0
LINE
  5
568
100
AcDbEntity
  8
0
100
AcDbLine
 62
253
  6
CONTINUOUS
 10
120.6099873501
 20
113.5521937207
 11
120.6091722761
 21
113.5548997207
  0
LINE
  5
569
100
AcDbEntity
  8
0
100
AcDbLine
 62
253
  6
CONTINUOUS
 10
120.5992470118
 20
113.2296217207
 11
120.6006445381
 21
113.2248857207
  0
LINE
  5
56A
100
AcDbEntity
  8
0
100
AcDbLine
 62
253
  6
CONTINUOUS
 10
120.5523930302
 20
113.3776597207
 11
120.5510714531
 21
113.3831847207
  0
LINE
  5
56B
100
AcDbEntity
  8
0
100
AcDbLine
 62
253
  6
CONTINUOUS
 10
120.6437535223
 20
114.0011577207
 11
120.6432950421
 21
114.0030737207
  0
LINE
  5
56C
100
AcDbEntity
  8
0
100
AcDbLine
 62
253
  6
CONTINUOUS
 10
120.5004734078
 20
111.0561747207
 11
120.5017746142
 21
111.0503117207
  0
LINE
  5
56D
100
AcDbEntity
  8
0
100
AcDbLine
 62
253
  6
CONTINUOUS
 10
120.6153642467
 20
114.2289087207
 11
120.6128518807
 21
114.2410857207
  0
LINE
  5
56E
100
AcDbEntity
  8
RACCORDO
100
AcDbLine
 62
7
  6
CONTINUOUS
 10
127.0970425231
 20
80.4003117207
 11
127.0970425231
 21
124.6003117207
  0
LINE
  5
56F
100
AcDbEntity
  8
0
100
AcDbLine
 62
7
  6
CONTINUOUS
 10
127.0970425231
 20
80.4003117207
 11
127.0970425231
 21
124.6003117207
  0
LINE
  5
570
100
AcDbEntity
  8
0
100
AcDbLine
 62
7
  6
CONTINUOUS
 10
120.7120704107
 20
87.0003127284
 11
120.7149418655
 21
87.0051419964
  0
LINE
  5
571
100
AcDbEntity
  8
0
100
AcDbLine
 62
253
  6
CONTINUOUS
 10
120.5017746516
 20
111.0503134776
 11
120.5030628829
 21
111.0503099275
  0
LINE
  5
572
100
AcDbEntity
  8
0
100
AcDbLine
 62
253
  6
CONTINUOUS
 10
120.5121096147
 20
111.1623859994
 11
120.5137615662
 21
111.1623814039
  0
LINE
  5
573
100
AcDbEntity
  8
0
100
AcDbLine
 62
253
  6
CONTINUOUS
 10
120.5083638546
 20
111.9371900618
 11
120.512462357
 21
111.9371779752
  0
LINE
  5
574
100
AcDbEntity
  8
0
100
AcDbLine
 62
253
  6
CONTINUOUS
 10
120.519105538
 20
112.2646020043
 11
120.5162252395
 21
112.2646106832
  0
LINE
  5
575
100
AcDbEntity
  8
0
100
AcDbLine
 62
253
  6
CONTINUOUS
 10
120.5744937153
 20
113.0531673562
 11
120.5723715704
 21
113.0531740427
  0
LINE
  5
576
100
AcDbEntity
  8
0
100
AcDbLine
 62
253
  6
CONTINUOUS
 10
120.5399017693
 20
113.1902732348
 11
120.5413246645
 21
113.1902687222
  0
LINE
  5
577
100
AcDbEntity
  8
0
100
AcDbLine
 62
253
  6
CONTINUOUS
 10
120.6006450595
 20
113.2249056655
 11
120.6134760587
 21
113.224864896
  0
LINE
  5
578
100
AcDbEntity
  8
0
100
AcDbLine
 62
253
  6
CONTINUOUS
 10
120.5510714216
 20
113.3831835575
 11
120.5503545977
 21
113.3831858513
  0
LINE
  5
579
100
AcDbEntity
  8
0
100
AcDbLine
 62
253
  6
CONTINUOUS
 10
120.5791336307
 20
113.4145309035
 11
120.5811328733
 21
113.4145244963
  0
LINE
  5
57A
100
AcDbEntity
  8
0
100
AcDbLine
 62
253
  6
CONTINUOUS
 10
120.5494855985
 20
113.5176907395
 11
120.5487898834
 21
113.5176929787
  0
LINE
  5
57B
100
AcDbEntity
  8
0
100
AcDbLine
 62
253
  6
CONTINUOUS
 10
120.61726996
 20
113.5521818326
 11
120.6099876623
 21
113.5522053111
  0
LINE
  5
57C
100
AcDbEntity
  8
0
100
AcDbLine
 62
253
  6
CONTINUOUS
 10
120.6181785895
 20
113.9049870568
 11
120.6208448396
 21
113.9049783414
  0
LINE
  5
57D
100
AcDbEntity
  8
0
100
AcDbLine
 62
253
  6
CONTINUOUS
 10
120.6432949007
 20
114.0030686296
 11
120.640204219
 21
114.0030787679
  0
LINE
  5
57E
100
AcDbEntity
  8
0
100
AcDbLine
 62
253
  6
CONTINUOUS
 10
120.6128517787
 20
114.2410821811
 11
120.6107221377
 21
114.241089221
  0
LINE
  5
57F
100
AcDbEntity
  8
0
100
AcDbLine
 62
253
  6
CONTINUOUS
 10
120.6253183453
 20
114.3999518213
 11
120.627800687
 21
114.3999435767
  0
LINE
  5
580
100
AcDbEntity
  8
0
100
AcDbLine
 62
253
  6
CONTINUOUS
 10
120.6165063932
 20
114.4938762719
 11
120.6223320336
 21
114.4938568738
  0
LINE
  5
581
100
AcDbEntity
  8
0
100
AcDbLine
 62
253
  6
CONTINUOUS
 10
120.6337472112
 20
114.820819544
 11
120.623775286
 21
114.8208530098
  0
LINE
  5
582
100
AcDbEntity
  8
0
100
AcDbLine
 62
253
  6
CONTINUOUS
 10
120.6377928664
 20
115.0335966074
 11
120.6401126582
 21
115.0335887897
  0
LINE
  5
583
100
AcDbEntity
  8
0
100
AcDbLine
 62
253
  6
CONTINUOUS
 10
120.6445382435
 20
115.0648346973
 11
120.6511396359
 21
115.0648124381
  0
LINE
  5
584
100
AcDbEntity
  8
0
100
AcDbLine
 62
253
  6
CONTINUOUS
 10
120.6652484725
 20
115.3922247937
 11
120.6537541155
 21
115.392263735
  0
LINE
  5
585
100
AcDbEntity
  8
0
100
AcDbLine
 62
253
  6
CONTINUOUS
 10
120.6196707865
 20
115.844138985
 11
120.6203455858
 21
115.8441366915
  0
LINE
  5
586
100
AcDbEntity
  8
0
100
AcDbLine
 62
253
  6
CONTINUOUS
 10
120.6310441009
 20
116.171558791
 11
120.6307342246
 21
116.1715598444
  0
LINE
  5
587
100
AcDbEntity
  8
0
100
AcDbLine
 62
253
  6
CONTINUOUS
 10
120.6464246352
 20
116.6228909248
 11
120.6469435222
 21
116.6228891663
  0
LINE
  5
588
100
AcDbEntity
  8
0
100
AcDbLine
 62
253
  6
CONTINUOUS
 10
120.6590984173
 20
116.9503093535
 11
120.6581266628
 21
116.9503126311
  0
LWPOLYLINE
  5
589
100
AcDbEntity
  8
RACCORDO
100
AcDbPolyline
 62
253
  6
CONTINUOUS
 90
4
 70
0
 10
122.2051158614
 20
124.4446258427
 10
122.2893189805
 20
124.4621280878
 10
122.3745765152
 20
124.4735728716
 10
122.460453643
 20
124.4788983679
  0
LWPOLYLINE
  5
58A
100
AcDbEntity
  8
0
100
AcDbPolyline
 62
253
  6
CONTINUOUS
 90
4
 70
0
 10
122.2051158614
 20
124.4446258427
 10
122.2893189805
 20
124.4621280878
 10
122.3745765152
 20
124.4735728716
 10
122.460453643
 20
124.4788983679
  0
LINE
  5
58B
100
AcDbEntity
  8
RACCORDO
100
AcDbLine
 62
253
  6
CONTINUOUS
 10
122.460453643
 20
123.9790697054
 11
127.0970425231
 21
124.1004830582
  0
LINE
  5
58C
100
AcDbEntity
  8
0
100
AcDbLine
 62
253
  6
CONTINUOUS
 10
122.460453643
 20
123.9790697054
 11
127.0970425231
 21
124.1004830582
  0
LINE
  5
58D
100
AcDbEntity
  8
RACCORDO
100
AcDbLine
 62
7
  6
CONTINUOUS
 10
122.1071356011
 20
124.4696464094
 11
127.0970425231
 21
124.6003117207
  0
LINE
  5
58E
100
AcDbEntity
  8
0
100
AcDbLine
 62
7
  6
CONTINUOUS
 10
122.1071356011
 20
124.4696464094
 11
127.0970425231
 21
124.6003117207
  0
LINE
  5
58F
100
AcDbEntity
  8
RACCORDO
100
AcDbLine
 62
253
  6
CONTINUOUS
 10
121.2912680256
 20
123.3304090786
 11
120.9398883744
 21
123.3325468764
  0
LINE
  5
590
100
AcDbEntity
  8
0
100
AcDbLine
 62
253
  6
CONTINUOUS
 10
121.2912680256
 20
123.3304090786
 11
120.9398883744
 21
123.3325468764
  0
LWPOLYLINE
  5
591
100
AcDbEntity
  8
RACCORDO
100
AcDbPolyline
 62
253
  6
CONTINUOUS
 90
4
 70
0
 10
121.2912814116
 20
123.3304085286
 10
121.2970077172
 20
123.3301080105
 10
121.3075075319
 20
123.3296036449
 10
121.7765830406
 20
123.3090693045
  0
LWPOLYLINE
  5
592
100
AcDbEntity
  8
0
100
AcDbPolyline
 62
253
  6
CONTINUOUS
 90
4
 70
0
 10
121.2912814116
 20
123.3304085286
 10
121.2970077172
 20
123.3301080105
 10
121.3075075319
 20
123.3296036449
 10
121.7765830406
 20
123.3090693045
  0
ARC
  5
593
100
AcDbEntity
  8
RACCORDO
100
AcDbCircle
 62
7
  6
CONTINUOUS
 10
122.1382599078
 20
81.7305733643
 40
1.2
100
AcDbArc
 50
182.9853521812
 51
268.5
  0
ARC
  5
594
100
AcDbEntity
  8
RACCORDO
100
AcDbCircle
 62
7
  6
CONTINUOUS
 10
122.138259907
 20
123.270050077
 40
1.2
100
AcDbArc
 50
91.5
 51
177.014647819
  0
ARC
  5
595
100
AcDbEntity
  8
0
100
AcDbCircle
 62
7
  6
CONTINUOUS
 10
122.138259907
 20
123.270050077
 40
1.2
100
AcDbArc
 50
91.5
 51
177.014647819
  0
ARC
  5
596
100
AcDbEntity
  8
0
100
AcDbCircle
 62
7
  6
CONTINUOUS
 10
122.1382599078
 20
81.7305733643
 40
1.2
100
AcDbArc
 50
182.9853521812
 51
268.5
  0
ELLIPSE
  5
597
100
AcDbEntity
  8
RACCORDO
100
AcDbEllipse
 62
7
  6
CONTINUOUS
 10
152.5296095197
 20
80.9004831169
 30
0.0
 11
0.35379574
 21
0.35379574
 31
0.0
 40
0.999315002
 41
-3.9266482006
 42
-2.3565371065
  0
ELLIPSE
  5
598
100
AcDbEntity
  8
RACCORDO
100
AcDbEllipse
 62
7
  6
CONTINUOUS
 10
173.5292667272
 20
80.9004831169
 30
0.0
 11
-0.35379574
 21
0.35379574
 31
0.0
 40
0.999315002
 41
-3.9266482006
 42
-2.3565371065
  0
ELLIPSE
  5
599
100
AcDbEntity
  8
RACCORDO
100
AcDbEllipse
 62
7
  6
CONTINUOUS
 10
173.5292667272
 20
124.1001403245
 30
0.0
 11
0.35379574
 21
0.35379574
 31
0.0
 40
0.999315002
 41
-0.7850555471
 42
0.7850555471
  0
ELLIPSE
  5
59A
100
AcDbEntity
  8
RACCORDO
100
AcDbEllipse
 62
7
  6
CONTINUOUS
 10
152.5296095197
 20
124.1001403245
 30
0.0
 11
0.35379574
 21
-0.35379574
 31
0.0
 40
0.999315002
 41
2.3565371065
 42
3.9266482006
  0
ELLIPSE
  5
59B
100
AcDbEntity
  8
0
100
AcDbEllipse
 62
7
  6
CONTINUOUS
 10
152.5296095197
 20
80.9004831169
 30
0.0
 11
0.35379574
 21
0.35379574
 31
0.0
 40
0.999315002
 41
-3.9266482006
 42
-2.3565371065
  0
ELLIPSE
  5
59C
100
AcDbEntity
  8
0
100
AcDbEllipse
 62
7
  6
CONTINUOUS
 10
173.5292667272
 20
80.9004831169
 30
0.0
 11
-0.35379574
 21
0.35379574
 31
0.0
 40
0.999315002
 41
-3.9266482006
 42
-2.3565371065
  0
ELLIPSE
  5
59D
100
AcDbEntity
  8
0
100
AcDbEllipse
 62
7
  6
CONTINUOUS
 10
173.5292667272
 20
124.1001403245
 30
0.0
 11
0.35379574
 21
0.35379574
 31
0.0
 40
0.999315002
 41
-0.7850555471
 42
0.7850555471
  0
ELLIPSE
  5
59E
100
AcDbEntity
  8
0
100
AcDbEllipse
 62
7
  6
CONTINUOUS
 10
152.5296095197
 20
124.1001403245
 30
0.0
 11
0.35379574
 21
-0.35379574
 31
0.0
 40
0.999315002
 41
2.3565371065
 42
3.9266482006
  0
ENDSEC
  0
SECTION
  2
OBJECTS
  0
DICTIONARY
  5
C
100
AcDbDictionary
280
0
281
1
  3
ACAD_GROUP
350
D
  3
ACAD_MLINESTYLE
350
17
  3
ACAD_LAYOUT
350
1A
  3
ACAD_PLOTSETTINGS
350
19
  3
ACAD_PLOTSTYLENAME
350
E
  0
DICTIONARY
  5
D
102
{ACAD_REACTORS
330
C
102
}
100
AcDbDictionary
280
0
281
1
  0
ACDBDICTIONARYWDFLT
  5
E
102
{ACAD_REACTORS
330
C
102
}
100
AcDbDictionary
281
1
  3
Normal
350
F
100
AcDbDictionaryWithDefault
340
F
  0
DICTIONARY
  5
17
102
{ACAD_REACTORS
330
C
102
}
100
AcDbDictionary
280
0
281
1
  3
Standard
350
18
  0
DICTIONARY
  5
19
102
{ACAD_REACTORS
330
C
102
}
100
AcDbDictionary
281
1
  0
DICTIONARY
  5
1A
102
{ACAD_REACTORS
330
C
102
}
100
AcDbDictionary
281
1
  3
Model
350
59F
  3
Layout1
350
5A0
  0
ACDBPLACEHOLDER
  5
F
102
{ACAD_REACTORS
330
E
102
}
  0
MLINESTYLE
  5
18
102
{ACAD_REACTORS
330
17
102
}
100
AcDbMlineStyle
  2
STANDARD
 70
0
  3

 62
256
 51
90.0
 52
90.0
 71
2
 49
0.5
 62
256
  6
BYLAYER
 49
-0.5
 62
256
  6
BYLAYER
  0
LAYOUT
  5
59F
102
{ACAD_REACTORS
330
1A
102
}
100
AcDbPlotSettings
  1

  2
none_device
  4
ISO_A4_(297.00_x_210.00_MM)
  6

 40
0.0
 41
0.0
 42
0.0
 43
0.0
 44
297.0
 45
210.0
 46
0.0
 47
0.0
 48
0.0
 49
0.0
140
0.0
141
0.0
142
1.0
143
1.0
 70
1024
 72
1
 73
0
 74
0
  7

 75
0
147
1.0
148
0.0
149
0.0
100
AcDbLayout
  1
Model
 70
0
 71
0
 10
0.0
 20
0.0
 11
297.0
 21
210.0
 12
0.0
 22
0.0
 32
0.0
 14
0.0
 24
0.0
 34
0.0
 15
0.0
 25
0.0
 35
0.0
146
0.0
 13
0.0
 23
0.0
 33
0.0
 16
1.0
 26
0.0
 36
0.0
 17
0.0
 27
1.0
 37
0.0
 76
0
330
218
345
0
346
0
  0
LAYOUT
  5
5A0
102
{ACAD_REACTORS
330
1A
102
}
100
AcDbPlotSettings
  1

  2
none_device
  4
ISO_A4_(297.00_x_210.00_MM)
  6

 40
0.0
 41
0.0
 42
0.0
 43
0.0
 44
297.0
 45
210.0
 46
0.0
 47
0.0
 48
0.0
 49
0.0
140
0.0
141
0.0
142
1.0
143
1.0
 70
0
 72
1
 73
0
 74
0
  7

 75
0
147
1.0
148
0.0
149
0.0
100
AcDbLayout
  1
Layout1
 70
0
 71
1
 10
0.0
 20
0.0
 11
297.0
 21
210.0
 12
0.0
 22
0.0
 32
0.0
 14
0.0
 24
0.0
 34
0.0
 15
0.0
 25
0.0
 35
0.0
146
0.0
 13
0.0
 23
0.0
 33
0.0
 16
1.0
 26
0.0
 36
0.0
 17
0.0
 27
1.0
 37
0.0
 76
0
330
219
345
0
346
0
  0
ENDSEC
  0
EOF
