  0
SECTION
  2
HEADER
  9
$ACADVER
  1
AC1015
  9
$DWGCODEPAGE
  3
ANSI_1252
  9
$EXTMAX
 10
297.0
 20
210.0
 30
0.0
  9
$EXTMIN
 10
0.0
 20
0.0
 30
0.0
  9
$LIMMIN
 10
0.0
 20
0.0
  9
$LIMMAX
 10
297.0
 20
210.0
  9
$VIEWCTR
 10
148.5
 20
105.0
  9
$VIEWSIZE
 40
210.0
  9
$CLAYER
  8
0
  9
$LTSCALE
 40
16.335
  9
$CELTYPE
  6
BYLAYER
  9
$DIMSCALE
 40
1.0
  9
$DIMASZ
 40
3.0
  9
$DIMEXO
 40
1.85625
  9
$DIMDLI
 40
11.286
  9
$DIMEXE
 40
5.346
  9
$DIMCEN
 40
2.673
  9
$DIMLFAC
 40
1.0
  9
$DIMBLK
  1
_FILLED
  9
$DIMTXT
 40
3.0
  9
$DIMTOL
 70
1
  9
$DIMLIM
 70
0
  9
$DIMTFAC
 40
1.0
  9
$DIMTP
 40
0.01
  9
$DIMTM
 40
0.01
  9
$PDMODE
 70
3
  9
$PDSIZE
 40
3.0
  9
$HANDSEED
  5
54B
  9
$TILEMODE
 70
1
  9
$MEASUREMENT
 70
1
  9
$INSUNITS
 70
4
  0
ENDSEC
  0
SECTION
  2
CLASSES
  0
CLASS
  1
ACDBDICTIONARYWDFLT
  2
AcDbDictionaryWithDefault
  3
AutoCAD 2000
 90
0
280
0
281
0
  0
CLASS
  1
ACDBPLACEHOLDER
  2
AcDbPlaceHolder
  3
AutoCAD 2000
 90
0
280
0
281
0
  0
CLASS
  1
LAYOUT
  2
AcDbLayout
  3
AutoCAD 2000
 90
0
280
0
281
0
  0
ENDSEC
  0
SECTION
  2
TABLES
  0
TABLE
  2
VPORT
  5
8
100
AcDbSymbolTable
 70
2
  0
VPORT
  5
1F4
100
AcDbSymbolTableRecord
100
AcDbViewportTableRecord
  2
*ACTIVE
 70
0
 10
0.0
 20
0.0
 11
1.0
 21
1.0
 12
148.5
 22
105.0
 13
0.0
 23
0.0
 14
1.0
 24
1.0
 15
0.0
 25
0.0
 16
0.0
 26
0.0
 36
1.0
 17
0.0
 27
0.0
 37
0.0
 40
210.0
 41
1.4142857143
 42
50.0
 43
0.0
 44
0.0
 50
0.0
 51
0.0
 71
0
 72
100
 73
1
 74
1
 75
0
 76
0
 77
0
 78
0
  0
ENDTAB
  0
TABLE
  2
LTYPE
  5
5
100
AcDbSymbolTable
 70
6
  0
LTYPE
  5
14
100
AcDbSymbolTableRecord
100
AcDbLinetypeTableRecord
  2
BYBLOCK
 70
0
  3

 72
65
 73
0
 40
0.0
  0
LTYPE
  5
15
100
AcDbSymbolTableRecord
100
AcDbLinetypeTableRecord
  2
BYLAYER
 70
0
  3

 72
65
 73
0
 40
0.0
  0
LTYPE
  5
16
100
AcDbSymbolTableRecord
100
AcDbLinetypeTableRecord
  2
CONTINUOUS
 70
64
  3
Solid line
 72
65
 73
0
 40
0.0
  0
LTYPE
  5
1F5
100
AcDbSymbolTableRecord
100
AcDbLinetypeTableRecord
  2
CENTER
 70
64
  3
____ _ ____ _ ____ _ ____ _ ____ _ ____ _ ____
 72
65
 73
4
 40
0.6
 49
0.375
 74
0
 49
-0.075
 74
0
 49
0.075
 74
0
 49
-0.075
 74
0
  0
LTYPE
  5
1F6
100
AcDbSymbolTableRecord
100
AcDbLinetypeTableRecord
  2
HIDDEN
 70
64
  3
- - - - - - - - - - - - - - - - - - - -
 72
65
 73
2
 40
0.2
 49
0.1
 74
0
 49
-0.1
 74
0
  0
LTYPE
  5
1F7
100
AcDbSymbolTableRecord
100
AcDbLinetypeTableRecord
  2
PHANTOM
 70
64
  3
_____ _ _ _____ _ _ _____ _ _ _____
 72
65
 73
6
 40
0.8
 49
0.45
 74
0
 49
-0.05
 74
0
 49
0.1
 74
0
 49
-0.05
 74
0
 49
0.1
 74
0
 49
-0.05
 74
0
  0
LTYPE
  5
1F8
100
AcDbSymbolTableRecord
100
AcDbLinetypeTableRecord
  2
DOT
 70
64
  3
. . . . . . . . . . . . . . . . . . . .
 72
65
 73
2
 40
0.2
 49
0.1
 74
0
 49
-0.1
 74
0
  0
LTYPE
  5
1F9
100
AcDbSymbolTableRecord
100
AcDbLinetypeTableRecord
  2
DASHED
 70
64
  3
- - - - - - - - - - - - - - - - - - - -
 72
65
 73
2
 40
0.2
 49
0.1
 74
0
 49
-0.1
 74
0
  0
ENDTAB
  0
TABLE
  2
LAYER
  5
2
100
AcDbSymbolTable
 70
36
  0
LAYER
  5
10
100
AcDbSymbolTableRecord
100
AcDbLayerTableRecord
  2
0
 70
0
 62
7
  6
CONTINUOUS
370
-3
390
F
  0
LAYER
  5
1FA
100
AcDbSymbolTableRecord
100
AcDbLayerTableRecord
  2
DEFAULT_1
 70
0
 62
7
  6
CENTER
370
-3
390
F
  0
LAYER
  5
1FB
100
AcDbSymbolTableRecord
100
AcDbLayerTableRecord
  2
DEFAULT_2
 70
0
 62
7
  6
HIDDEN
370
-3
390
F
  0
LAYER
  5
1FC
100
AcDbSymbolTableRecord
100
AcDbLayerTableRecord
  2
DEFAULT_3
 70
0
 62
7
  6
PHANTOM
370
-3
390
F
  0
LAYER
  5
1FD
100
AcDbSymbolTableRecord
100
AcDbLayerTableRecord
  2
ASSI
 70
0
 62
7
  6
CONTINUOUS
370
-3
390
F
  0
LAYER
  5
1FE
100
AcDbSymbolTableRecord
100
AcDbLayerTableRecord
  2
COORDINATE
 70
0
 62
7
  6
CONTINUOUS
370
-3
390
F
  0
LAYER
  5
1FF
100
AcDbSymbolTableRecord
100
AcDbLayerTableRecord
  2
COORD_ORIGINE
 70
0
 62
7
  6
CONTINUOUS
370
-3
390
F
  0
LAYER
  5
200
100
AcDbSymbolTableRecord
100
AcDbLayerTableRecord
  2
COPY_PUBLISH
 70
0
 62
7
  6
CONTINUOUS
370
-3
390
F
  0
LAYER
  5
201
100
AcDbSymbolTableRecord
100
AcDbLayerTableRecord
  2
COSMETIC
 70
0
 62
7
  6
CONTINUOUS
370
-3
390
F
  0
LAYER
  5
202
100
AcDbSymbolTableRecord
100
AcDbLayerTableRecord
  2
COSMETICI
 70
0
 62
7
  6
CONTINUOUS
370
-3
390
F
  0
LAYER
  5
203
100
AcDbSymbolTableRecord
100
AcDbLayerTableRecord
  2
CURVE
 70
0
 62
7
  6
CONTINUOUS
370
-3
390
F
  0
LAYER
  5
204
100
AcDbSymbolTableRecord
100
AcDbLayerTableRecord
  2
DRAFT
 70
0
 62
7
  6
CONTINUOUS
370
-3
390
F
  0
LAYER
  5
205
100
AcDbSymbolTableRecord
100
AcDbLayerTableRecord
  2
IMPORT
 70
0
 62
7
  6
CONTINUOUS
370
-3
390
F
  0
LAYER
  5
206
100
AcDbSymbolTableRecord
100
AcDbLayerTableRecord
  2
IMPORT_IGES
 70
0
 62
7
  6
CONTINUOUS
370
-3
390
F
  0
LAYER
  5
207
100
AcDbSymbolTableRecord
100
AcDbLayerTableRecord
  2
INTFCLR_11
 70
0
 62
7
  6
CONTINUOUS
370
-3
390
F
  0
LAYER
  5
208
100
AcDbSymbolTableRecord
100
AcDbLayerTableRecord
  2
INTF_1
 70
0
 62
7
  6
CONTINUOUS
370
-3
390
F
  0
LAYER
  5
209
100
AcDbSymbolTableRecord
100
AcDbLayerTableRecord
  2
INTF_3
 70
0
 62
7
  6
CONTINUOUS
370
-3
390
F
  0
LAYER
  5
20A
100
AcDbSymbolTableRecord
100
AcDbLayerTableRecord
  2
NOTE
 70
0
 62
7
  6
CONTINUOUS
370
-3
390
F
  0
LAYER
  5
20B
100
AcDbSymbolTableRecord
100
AcDbLayerTableRecord
  2
PIANI
 70
0
 62
7
  6
CONTINUOUS
370
-3
390
F
  0
LAYER
  5
20C
100
AcDbSymbolTableRecord
100
AcDbLayerTableRecord
  2
PIANI_ORIGINE
 70
0
 62
7
  6
CONTINUOUS
370
-3
390
F
  0
LAYER
  5
20D
100
AcDbSymbolTableRecord
100
AcDbLayerTableRecord
  2
PIANI_RIFERIMENTO
 70
0
 62
7
  6
CONTINUOUS
370
-3
390
F
  0
LAYER
  5
20E
100
AcDbSymbolTableRecord
100
AcDbLayerTableRecord
  2
PUNTI
 70
0
 62
7
  6
CONTINUOUS
370
-3
390
F
  0
LAYER
  5
20F
100
AcDbSymbolTableRecord
100
AcDbLayerTableRecord
  2
RACCORDO
 70
0
 62
7
  6
CONTINUOUS
370
-3
390
F
  0
LAYER
  5
210
100
AcDbSymbolTableRecord
100
AcDbLayerTableRecord
  2
SIMBOLI
 70
0
 62
7
  6
CONTINUOUS
370
-3
390
F
  0
LAYER
  5
211
100
AcDbSymbolTableRecord
100
AcDbLayerTableRecord
  2
SMUSSO
 70
0
 62
7
  6
CONTINUOUS
370
-3
390
F
  0
LAYER
  5
212
100
AcDbSymbolTableRecord
100
AcDbLayerTableRecord
  2
SNAPLINE
 70
0
 62
7
  6
CONTINUOUS
370
-3
390
F
  0
LAYER
  5
213
100
AcDbSymbolTableRecord
100
AcDbLayerTableRecord
  2
SUPERFICI
 70
0
 62
7
  6
CONTINUOUS
370
-3
390
F
  0
LAYER
  5
214
100
AcDbSymbolTableRecord
100
AcDbLayerTableRecord
  2
TRASH
 70
0
 62
7
  6
CONTINUOUS
370
-3
390
F
  0
LAYER
  5
215
100
AcDbSymbolTableRecord
100
AcDbLayerTableRecord
  2
XSEC_DATUMS
 70
0
 62
7
  6
CONTINUOUS
370
-3
390
F
  0
LAYER
  5
216
100
AcDbSymbolTableRecord
100
AcDbLayerTableRecord
  2
___SHELL
 70
0
 62
7
  6
CONTINUOUS
370
-3
390
F
  0
ENDTAB
  0
TABLE
  2
STYLE
  5
3
100
AcDbSymbolTable
 70
1
  0
STYLE
  5
11
100
AcDbSymbolTableRecord
100
AcDbTextStyleTableRecord
  2
STANDARD
 70
0
 40
0.0
 41
0.8
 50
0.0
 71
0
 42
0.2
  3
txt
  4

  0
STYLE
  5
217
100
AcDbSymbolTableRecord
100
AcDbTextStyleTableRecord
  2
TEXTSTYLE_1
 70
0
 40
0.0
 41
0.8
 50
0.0
 71
0
 42
0.2
  3
gdt
  4

  0
ENDTAB
  0
TABLE
  2
VIEW
  5
6
100
AcDbSymbolTable
 70
0
  0
ENDTAB
  0
TABLE
  2
UCS
  5
7
100
AcDbSymbolTable
 70
0
  0
ENDTAB
  0
TABLE
  2
APPID
  5
9
100
AcDbSymbolTable
 70
1
  0
APPID
  5
218
100
AcDbSymbolTableRecord
100
AcDbRegAppTableRecord
  2
ACAD
 70
0
  0
ENDTAB
  0
TABLE
  2
BLOCK_RECORD
  5
1
100
AcDbSymbolTable
 70
0
  0
BLOCK_RECORD
  5
219
100
AcDbSymbolTableRecord
100
AcDbBlockTableRecord
  2
*Model_Space
  0
BLOCK_RECORD
  5
21A
100
AcDbSymbolTableRecord
100
AcDbBlockTableRecord
  2
*Paper_Space
  0
BLOCK_RECORD
  5
21B
100
AcDbSymbolTableRecord
100
AcDbBlockTableRecord
  2
_FILLED
  0
BLOCK_RECORD
  5
21C
100
AcDbSymbolTableRecord
100
AcDbBlockTableRecord
  2
*D0
  0
BLOCK_RECORD
  5
21D
100
AcDbSymbolTableRecord
100
AcDbBlockTableRecord
  2
*D1
  0
BLOCK_RECORD
  5
21E
100
AcDbSymbolTableRecord
100
AcDbBlockTableRecord
  2
*D2
  0
BLOCK_RECORD
  5
21F
100
AcDbSymbolTableRecord
100
AcDbBlockTableRecord
  2
*D3
  0
ENDTAB
  0
TABLE
  2
DIMSTYLE
  5
A
100
AcDbSymbolTable
 70
1
100
AcDbDimStyleTable
 71
0
  0
DIMSTYLE
105
220
100
AcDbSymbolTableRecord
100
AcDbDimStyleTableRecord
  2
STANDARD
 70
0
  3

  4

 40
1.0
 41
3.0
 42
0.0625
 43
0.38
 44
0.18
 45
0.0
 46
0.0
 47
0.01
 48
0.01
140
3.0
141
0.09
142
0.0
143
25.4
144
1.0
145
0.0
146
1.0
147
0.09
 71
1.0
 72
0.0
 73
0
 74
0
 75
0
 76
0
 77
1
 78
8
170
0
171
2
172
0
173
0
174
0
175
0
176
0
177
0
178
0
270
2
271
2
272
2
273
2
274
2
275
0
280
0
281
0
282
0
283
1
284
8
285
0
286
0
287
3
288
0
340
11
341
21B
342
21B
343
21B
344
21B
  0
DIMSTYLE
105
221
100
AcDbSymbolTableRecord
100
AcDbDimStyleTableRecord
  2
DIMSTYLE_1
 70
0
  3

  4

 40
1.0
 41
3.0
 42
0.0625
 43
0.38
 44
0.18
 45
0.0
 46
0.0
 47
0.0
 48
0.0
140
3.0
141
0.09
142
0.0
143
25.4
144
1.0
145
0.0
146
1.0
147
0.09
 71
0.0
 72
0.0
 73
0
 74
0
 75
0
 76
0
 77
1
 78
8
170
0
171
2
172
0
173
0
174
0
175
0
176
0
177
0
178
0
270
2
271
2
272
2
273
2
274
2
275
0
280
0
281
0
282
0
283
1
284
8
285
0
286
0
287
3
288
0
340
11
341
21B
342
21B
343
21B
344
21B
  0
ENDTAB
  0
ENDSEC
  0
SECTION
  2
BLOCKS
  0
BLOCK
  5
20
100
AcDbEntity
  8
0
100
AcDbBlockBegin
  2
*Model_Space
 70
0
 10
0.0
 20
0.0
 30
0.0
  3
*Model_Space
  1

  0
ENDBLK
  5
21
100
AcDbEntity
  8
0
100
AcDbBlockEnd
  0
BLOCK
  5
1C
100
AcDbEntity
  8
0
100
AcDbBlockBegin
  2
*Paper_Space
 70
0
 10
0.0
 20
0.0
 30
0.0
  3
*Paper_Space
  1

  0
ENDBLK
  5
1D
100
AcDbEntity
  8
0
100
AcDbBlockEnd
  0
BLOCK
  5
222
100
AcDbEntity
  8
0
100
AcDbBlockBegin
  2
_FILLED
 70
64
 10
0.0
 20
0.0
  3
_FILLED
  1

  0
SOLID
  5
223
100
AcDbEntity
  8
0
  6
BYBLOCK
 62
0
100
AcDbTrace
 10
0.0
 20
0.0
 11
-1.0
 21
0.3166666667
 12
-1.0
 22
-0.3166666667
 13
-1.0
 23
-0.3166666667
  0
ENDBLK
  5
224
100
AcDbEntity
  8
0
  6
BYBLOCK
 62
0
100
AcDbBlockEnd
  0
BLOCK
  5
225
100
AcDbEntity
  8
0
100
AcDbBlockBegin
 62
7
  6
CONTINUOUS
  2
*D0
 70
65
 10
0.0
 20
0.0
  3
*D0
  1

  0
LINE
  5
226
100
AcDbEntity
  8
0
100
AcDbLine
 62
7
  6
CONTINUOUS
 10
-47.4846015333
 20
21.4
 11
-47.4846015333
 21
36.5945012747
  0
LINE
  5
227
100
AcDbEntity
  8
0
100
AcDbLine
 62
7
  6
CONTINUOUS
 10
-58.4846015333
 20
22.8941821702
 11
-58.4846015333
 21
36.5945012747
  0
LINE
  5
228
100
AcDbEntity
  8
0
100
AcDbLine
 62
7
  6
CONTINUOUS
 10
-47.4846015333
 20
35.0945012747
 11
-43.4846015333
 21
35.0945012747
  0
LINE
  5
229
100
AcDbEntity
  8
0
100
AcDbLine
 62
7
  6
CONTINUOUS
 10
-43.4846015333
 20
35.0945012747
 11
-52.9846015333
 21
35.0945012747
  0
LINE
  5
22A
100
AcDbEntity
  8
0
100
AcDbLine
 62
7
  6
CONTINUOUS
 10
-58.4846015333
 20
35.0945012747
 11
-62.4846015333
 21
35.0945012747
  0
LINE
  5
22B
100
AcDbEntity
  8
0
100
AcDbLine
 62
7
  6
CONTINUOUS
 10
-62.4846015333
 20
35.0945012747
 11
-52.9846015333
 21
35.0945012747
  0
INSERT
  5
22C
100
AcDbEntity
  8
0
100
AcDbBlockReference
 62
7
  6
CONTINUOUS
  2
_FILLED
 10
-47.4846015333
 20
35.0945012747
 41
3.0
 42
3.0
 43
3.0
 50
180.0
  0
INSERT
  5
22D
100
AcDbEntity
  8
0
100
AcDbBlockReference
 62
7
  6
CONTINUOUS
  2
_FILLED
 10
-58.4846015333
 20
35.0945012747
 41
3.0
 42
3.0
 43
3.0
  0
ENDBLK
  5
22E
100
AcDbEntity
  8
0
  6
BYBLOCK
 62
0
100
AcDbBlockEnd
  0
BLOCK
  5
22F
100
AcDbEntity
  8
0
100
AcDbBlockBegin
 62
7
  6
CONTINUOUS
  2
*D1
 70
65
 10
0.0
 20
0.0
  3
*D1
  1

  0
LINE
  5
230
100
AcDbEntity
  8
0
100
AcDbLine
 62
7
  6
CONTINUOUS
 10
-47.4846015333
 20
21.4
 11
-47.4846015333
 21
46.5945012747
  0
LINE
  5
231
100
AcDbEntity
  8
0
100
AcDbLine
 62
7
  6
CONTINUOUS
 10
-69.7846187991
 20
0.500000219
 11
-69.7846187991
 21
46.5945012747
  0
LINE
  5
232
100
AcDbEntity
  8
0
100
AcDbLine
 62
7
  6
CONTINUOUS
 10
-47.4846015333
 20
45.0945012747
 11
-58.6346101662
 21
45.0945012747
  0
LINE
  5
233
100
AcDbEntity
  8
0
100
AcDbLine
 62
7
  6
CONTINUOUS
 10
-69.7846187991
 20
45.0945012747
 11
-58.6346101662
 21
45.0945012747
  0
INSERT
  5
234
100
AcDbEntity
  8
0
100
AcDbBlockReference
 62
7
  6
CONTINUOUS
  2
_FILLED
 10
-47.4846015333
 20
45.0945012747
 41
3.0
 42
3.0
 43
3.0
  0
INSERT
  5
235
100
AcDbEntity
  8
0
100
AcDbBlockReference
 62
7
  6
CONTINUOUS
  2
_FILLED
 10
-69.7846187991
 20
45.0945012747
 41
3.0
 42
3.0
 43
3.0
 50
180.0
  0
ENDBLK
  5
236
100
AcDbEntity
  8
0
  6
BYBLOCK
 62
0
100
AcDbBlockEnd
  0
BLOCK
  5
237
100
AcDbEntity
  8
0
100
AcDbBlockBegin
 62
7
  6
CONTINUOUS
  2
*D2
 70
65
 10
0.0
 20
0.0
  3
*D2
  1

  0
LINE
  5
238
100
AcDbEntity
  8
0
100
AcDbLine
 62
7
  6
CONTINUOUS
 10
-33.6504363434
 20
22.400016923
 11
-33.6504363434
 21
36.5945012747
  0
LINE
  5
239
100
AcDbEntity
  8
0
100
AcDbLine
 62
7
  6
CONTINUOUS
 10
33.6504363434
 20
22.400016923
 11
33.6504363434
 21
36.5945012747
  0
LINE
  5
23A
100
AcDbEntity
  8
0
100
AcDbLine
 62
7
  6
CONTINUOUS
 10
-33.6504363434
 20
35.0945012747
 11
-0.0
 21
35.0945012747
  0
LINE
  5
23B
100
AcDbEntity
  8
0
100
AcDbLine
 62
7
  6
CONTINUOUS
 10
33.6504363434
 20
35.0945012747
 11
-0.0
 21
35.0945012747
  0
INSERT
  5
23C
100
AcDbEntity
  8
0
100
AcDbBlockReference
 62
7
  6
CONTINUOUS
  2
_FILLED
 10
-33.6504363434
 20
35.0945012747
 41
3.0
 42
3.0
 43
3.0
 50
180.0
  0
INSERT
  5
23D
100
AcDbEntity
  8
0
100
AcDbBlockReference
 62
7
  6
CONTINUOUS
  2
_FILLED
 10
33.6504363434
 20
35.0945012747
 41
3.0
 42
3.0
 43
3.0
 50
0.0
  0
ENDBLK
  5
23E
100
AcDbEntity
  8
0
  6
BYBLOCK
 62
0
100
AcDbBlockEnd
  0
BLOCK
  5
23F
100
AcDbEntity
  8
0
100
AcDbBlockBegin
 62
7
  6
CONTINUOUS
  2
*D3
 70
65
 10
0.0
 20
0.0
  3
*D3
  1

  0
LINE
  5
240
100
AcDbEntity
  8
0
100
AcDbLine
 62
7
  6
CONTINUOUS
 10
32.9000042308
 20
-24.5
 11
47.9983961432
 21
-24.5
  0
LINE
  5
241
100
AcDbEntity
  8
0
100
AcDbLine
 62
7
  6
CONTINUOUS
 10
32.9000042308
 20
24.5
 11
47.9983961432
 21
24.5
  0
LINE
  5
242
100
AcDbEntity
  8
0
100
AcDbLine
 62
7
  6
CONTINUOUS
 10
46.4983961432
 20
-24.5
 11
46.4983961432
 21
0.0
  0
LINE
  5
243
100
AcDbEntity
  8
0
100
AcDbLine
 62
7
  6
CONTINUOUS
 10
46.4983961432
 20
24.5
 11
46.4983961432
 21
0.0
  0
INSERT
  5
244
100
AcDbEntity
  8
0
100
AcDbBlockReference
 62
7
  6
CONTINUOUS
  2
_FILLED
 10
46.4983961432
 20
-24.5
 41
3.0
 42
3.0
 43
3.0
 50
270.0
  0
INSERT
  5
245
100
AcDbEntity
  8
0
100
AcDbBlockReference
 62
7
  6
CONTINUOUS
  2
_FILLED
 10
46.4983961432
 20
24.5
 41
3.0
 42
3.0
 43
3.0
 50
90.0
  0
ENDBLK
  5
246
100
AcDbEntity
  8
0
  6
BYBLOCK
 62
0
100
AcDbBlockEnd
  0
ENDSEC
  0
SECTION
  2
ENTITIES
  0
DIMENSION
  5
247
100
AcDbEntity
  8
0
100
AcDbDimension
 62
7
  6
CONTINUOUS
  2
*D0
 10
-58.4846015333
 20
35.0945012747
 11
-54.6988872475
 21
35.8445012747
 70
160
 71
2
 42
11.0
  3
DIMSTYLE_1
100
AcDbAlignedDimension
 13
-47.4846015333
 23
21.4
 14
-58.4846015333
 24
22.8941821702
 50
180.0
100
AcDbRotatedDimension
  0
DIMENSION
  5
248
100
AcDbEntity
  8
0
100
AcDbDimension
 62
7
  6
CONTINUOUS
  2
*D1
 10
-69.7846187991
 20
45.0945012747
 11
-62.9203244519
 21
45.8445012747
 70
160
 71
2
 42
22.3000172659
  3
DIMSTYLE_1
100
AcDbAlignedDimension
 13
-47.4846015333
 23
21.4
 14
-69.7846187991
 24
0.500000219
 50
180.0
100
AcDbRotatedDimension
  0
DIMENSION
  5
249
100
AcDbEntity
  8
0
100
AcDbDimension
 62
7
  6
CONTINUOUS
  2
*D2
 10
33.6504363434
 20
35.0945012747
 11
-5.6777314997
 21
35.8445012747
 70
160
 71
2
 42
67.3008726868
  3
DIMSTYLE_1
100
AcDbAlignedDimension
 13
-33.6504363434
 23
22.400016923
 14
33.6504363434
 24
22.400016923
100
AcDbRotatedDimension
  0
DIMENSION
  5
24A
100
AcDbEntity
  8
0
100
AcDbDimension
 62
7
  6
CONTINUOUS
  2
*D3
 10
46.4983961432
 20
24.5
 11
45.7483961432
 21
-2.3571428571
 70
160
 71
2
 42
49.0
  3
DIMSTYLE_1
100
AcDbAlignedDimension
 13
32.9000042308
 23
-24.5
 14
32.9000042308
 24
24.5
 50
90.0
100
AcDbRotatedDimension
  0
LINE
  5
24B
100
AcDbEntity
  8
0
100
AcDbLine
 62
253
  6
CONTINUOUS
 10
-30.0130943479
 20
24.4869014213
 11
-29.9999957692
 21
24.5
  0
LINE
  5
24C
100
AcDbEntity
  8
0
100
AcDbLine
 62
253
  6
CONTINUOUS
 10
-29.7630985787
 20
24.2369056521
 11
-29.75
 21
24.2500042308
  0
LINE
  5
24D
100
AcDbEntity
  8
0
100
AcDbLine
 62
253
  6
CONTINUOUS
 10
-30.0130943479
 20
-24.4869014213
 11
-29.9999957692
 21
-24.5
  0
LINE
  5
24E
100
AcDbEntity
  8
0
100
AcDbLine
 62
253
  6
CONTINUOUS
 10
-29.7630985787
 20
-24.2369056521
 11
-29.75
 21
-24.2500042308
  0
LINE
  5
24F
100
AcDbEntity
  8
0
100
AcDbLine
 62
253
  6
CONTINUOUS
 10
-32.6369014213
 20
-23.8443375673
 11
-32.6427192511
 21
-23.2669872981
  0
LINE
  5
250
100
AcDbEntity
  8
0
100
AcDbLine
 62
253
  6
CONTINUOUS
 10
-32.3869056521
 20
-23.6278312164
 11
-32.3919962532
 21
-23.1226497308
  0
LINE
  5
251
100
AcDbEntity
  8
DRAFT
100
AcDbLine
 62
7
  6
CONTINUOUS
 10
-33.595044505
 20
0.0
 11
-33.6229446494
 21
16.6
  0
LINE
  5
252
100
AcDbEntity
  8
0
100
AcDbLine
 62
7
  6
CONTINUOUS
 10
-33.6504363434
 20
21.900016923
 11
-33.6504363434
 21
-21.900016923
  0
LINE
  5
253
100
AcDbEntity
  8
0
100
AcDbLine
 62
7
  6
CONTINUOUS
 10
-33.6491272468
 20
21.8997711479
 11
-33.6491272468
 21
-21.8997711479
  0
LINE
  5
254
100
AcDbEntity
  8
DRAFT
100
AcDbLine
 62
7
  6
CONTINUOUS
 10
-33.6229446494
 20
21.821159479
 11
-33.6229446494
 21
16.6
  0
LINE
  5
255
100
AcDbEntity
  8
DRAFT
100
AcDbLine
 62
7
  6
CONTINUOUS
 10
-33.6229446494
 20
-16.6
 11
-33.6229446494
 21
-21.821159479
  0
LINE
  5
256
100
AcDbEntity
  8
RACCORDO
100
AcDbLine
 62
7
  6
CONTINUOUS
 10
-33.5
 20
-21.6001713375
 11
-33.5
 21
21.6001713375
  0
LINE
  5
257
100
AcDbEntity
  8
0
100
AcDbLine
 62
7
  6
CONTINUOUS
 10
-32.65
 20
-22.4
 11
-32.65
 21
-24.2500042308
  0
LINE
  5
258
100
AcDbEntity
  8
0
100
AcDbLine
 62
7
  6
CONTINUOUS
 10
-32.65
 20
22.4
 11
-32.65
 21
24.2500042308
  0
LINE
  5
259
100
AcDbEntity
  8
0
100
AcDbLine
 62
253
  6
CONTINUOUS
 10
-32.6427192511
 20
23.2669872981
 11
-32.6427192511
 21
22.3344140523
  0
LINE
  5
25A
100
AcDbEntity
  8
0
100
AcDbLine
 62
253
  6
CONTINUOUS
 10
-32.6427192511
 20
-22.3344140523
 11
-32.6427192511
 21
-23.2669872981
  0
LINE
  5
25B
100
AcDbEntity
  8
0
100
AcDbLine
 62
253
  6
CONTINUOUS
 10
-32.6369014213
 20
24.2369056521
 11
-32.6369014213
 21
23.8443375673
  0
LINE
  5
25C
100
AcDbEntity
  8
0
100
AcDbLine
 62
253
  6
CONTINUOUS
 10
-32.6369014213
 20
-23.8443375673
 11
-32.6369014213
 21
-24.2369056521
  0
LINE
  5
25D
100
AcDbEntity
  8
0
100
AcDbLine
 62
253
  6
CONTINUOUS
 10
-32.3927234819
 20
23.1226497308
 11
-32.3927234819
 21
22.3213883311
  0
LINE
  5
25E
100
AcDbEntity
  8
0
100
AcDbLine
 62
253
  6
CONTINUOUS
 10
-32.3927234819
 20
-22.3213883311
 11
-32.3927234819
 21
-23.1226497308
  0
LINE
  5
25F
100
AcDbEntity
  8
0
100
AcDbLine
 62
253
  6
CONTINUOUS
 10
-32.3869056521
 20
-23.6278312164
 11
-32.3869056521
 21
-24.4869014213
  0
LINE
  5
260
100
AcDbEntity
  8
0
100
AcDbLine
 62
253
  6
CONTINUOUS
 10
-32.3869056521
 20
23.6278312164
 11
-32.3869056521
 21
24.4869014213
  0
LINE
  5
261
100
AcDbEntity
  8
DRAFT
100
AcDbLine
 62
7
  6
CONTINUOUS
 10
-33.6229446494
 20
-16.6
 11
-33.595044505
 21
0.0
  0
LINE
  5
262
100
AcDbEntity
  8
0
100
AcDbLine
 62
253
  6
CONTINUOUS
 10
-32.6427192511
 20
23.2669872981
 11
-32.6369014213
 21
23.8443375673
  0
LINE
  5
263
100
AcDbEntity
  8
0
100
AcDbLine
 62
253
  6
CONTINUOUS
 10
-32.3919962532
 20
23.1226497308
 11
-32.3869056521
 21
23.6278312164
  0
LINE
  5
264
100
AcDbEntity
  8
0
100
AcDbLine
 62
7
  6
CONTINUOUS
 10
-29.75
 20
22.4
 11
-29.7572807489
 21
22.3344140523
  0
LWPOLYLINE
  5
265
100
AcDbEntity
  8
0
100
AcDbPolyline
 62
7
  6
CONTINUOUS
 90
5
 70
0
 43
0.3500000006
 10
1.6079827938
 20
37.5587848206
 10
1.965125679
 20
37.7730738373
 10
1.965125679
 20
38.4159318237
 10
1.6079827938
 20
38.8445007935
 10
0.7508398976
 20
38.8445007935
  0
LINE
  5
266
100
AcDbEntity
  8
0
100
AcDbLine
 62
7
  6
CONTINUOUS
 10
-29.75
 20
-22.4
 11
-29.7572807489
 21
-22.3344140523
  0
LINE
  5
267
100
AcDbEntity
  8
0
100
AcDbLine
 62
253
  6
CONTINUOUS
 10
-30.0130943479
 20
23.6278312164
 11
-30.0080037468
 21
23.1226497308
  0
LINE
  5
268
100
AcDbEntity
  8
0
100
AcDbLine
 62
253
  6
CONTINUOUS
 10
-29.7630985787
 20
23.8443375673
 11
-29.7572807489
 21
23.2669872981
  0
LINE
  5
269
100
AcDbEntity
  8
0
100
AcDbLine
 62
253
  6
CONTINUOUS
 10
-30.0130943479
 20
-23.6278312164
 11
-30.0130943479
 21
-24.4869014213
  0
LINE
  5
26A
100
AcDbEntity
  8
0
100
AcDbLine
 62
253
  6
CONTINUOUS
 10
-30.0130943479
 20
23.6278312164
 11
-30.0130943479
 21
24.4869014213
  0
LINE
  5
26B
100
AcDbEntity
  8
0
100
AcDbLine
 62
253
  6
CONTINUOUS
 10
-30.0072765181
 20
-23.1226497308
 11
-30.0072765181
 21
-22.3213883311
  0
LINE
  5
26C
100
AcDbEntity
  8
0
100
AcDbLine
 62
253
  6
CONTINUOUS
 10
-30.0072765181
 20
22.3213883311
 11
-30.0072765181
 21
23.1226497308
  0
LINE
  5
26D
100
AcDbEntity
  8
0
100
AcDbLine
 62
253
  6
CONTINUOUS
 10
-29.7630985787
 20
-24.2369056521
 11
-29.7630985787
 21
-23.8443375673
  0
LINE
  5
26E
100
AcDbEntity
  8
0
100
AcDbLine
 62
253
  6
CONTINUOUS
 10
-29.7630985787
 20
23.8443375673
 11
-29.7630985787
 21
24.2369056521
  0
LINE
  5
26F
100
AcDbEntity
  8
0
100
AcDbLine
 62
253
  6
CONTINUOUS
 10
-29.7572807489
 20
-23.2669872981
 11
-29.7572807489
 21
-22.3344140523
  0
LINE
  5
270
100
AcDbEntity
  8
0
100
AcDbLine
 62
253
  6
CONTINUOUS
 10
-29.7572807489
 20
22.3344140523
 11
-29.7572807489
 21
23.2669872981
  0
LINE
  5
271
100
AcDbEntity
  8
0
100
AcDbLine
 62
7
  6
CONTINUOUS
 10
-29.75
 20
-22.4
 11
-29.75
 21
-24.2500042308
  0
LINE
  5
272
100
AcDbEntity
  8
0
100
AcDbLine
 62
7
  6
CONTINUOUS
 10
-29.75
 20
22.4
 11
-29.75
 21
24.2500042308
  0
LINE
  5
273
100
AcDbEntity
  8
0
100
AcDbLine
 62
253
  6
CONTINUOUS
 10
-30.0080037468
 20
-23.1226497308
 11
-30.0130943479
 21
-23.6278312164
  0
LINE
  5
274
100
AcDbEntity
  8
0
100
AcDbLine
 62
253
  6
CONTINUOUS
 10
-29.7572807489
 20
-23.2669872981
 11
-29.7630985787
 21
-23.8443375673
  0
LINE
  5
275
100
AcDbEntity
  8
0
100
AcDbLine
 62
7
  6
CONTINUOUS
 10
-32.65
 20
-22.4
 11
-32.6427192511
 21
-22.3344140523
  0
LWPOLYLINE
  5
276
100
AcDbEntity
  8
0
100
AcDbPolyline
 62
7
  6
CONTINUOUS
 90
10
 70
0
 43
0.3500000006
 10
-4.6063029556
 20
38.8445007935
 10
-5.2491598091
 20
38.201642807
 10
-5.6777316113
 20
37.3445003357
 10
-5.6777316113
 20
36.2730733795
 10
-5.2491598091
 20
35.8444998779
 10
-4.6063029556
 20
35.8444998779
 10
-4.1777314367
 20
36.2730733795
 10
-4.1777314367
 20
37.1302158508
 10
-4.6063029556
 20
37.5587848206
 10
-5.5348743439
 20
37.5587848206
  0
LINE
  5
277
100
AcDbEntity
  8
0
100
AcDbLine
 62
7
  6
CONTINUOUS
 10
-18.05
 20
24.0
 11
-18.0587267447
 21
23.9912732553
  0
LINE
  5
278
100
AcDbEntity
  8
0
100
AcDbLine
 62
7
  6
CONTINUOUS
 10
-18.05
 20
-24.0
 11
-18.0587267447
 21
-23.9912732553
  0
LINE
  5
279
100
AcDbEntity
  8
0
100
AcDbLine
 62
7
  6
CONTINUOUS
 10
-32.65
 20
22.4
 11
-32.6427192511
 21
22.3344140523
  0
LINE
  5
27A
100
AcDbEntity
  8
0
100
AcDbLine
 62
7
  6
CONTINUOUS
 10
-26.95
 20
-22.4
 11
-26.95
 21
-24.0
  0
LINE
  5
27B
100
AcDbEntity
  8
0
100
AcDbLine
 62
7
  6
CONTINUOUS
 10
-26.95
 20
22.4
 11
-26.95
 21
24.0
  0
LINE
  5
27C
100
AcDbEntity
  8
0
100
AcDbLine
 62
7
  6
CONTINUOUS
 10
-26.9412732553
 20
23.9912732553
 11
-26.9412732553
 21
22.3213883311
  0
LINE
  5
27D
100
AcDbEntity
  8
0
100
AcDbLine
 62
7
  6
CONTINUOUS
 10
-26.9412732553
 20
-22.3213883311
 11
-26.9412732553
 21
-23.9912732553
  0
LINE
  5
27E
100
AcDbEntity
  8
0
100
AcDbLine
 62
7
  6
CONTINUOUS
 10
-26.0
 20
-23.9982478817
 11
-26.0
 21
-22.3213883311
  0
LINE
  5
27F
100
AcDbEntity
  8
0
100
AcDbLine
 62
7
  6
CONTINUOUS
 10
-26.0
 20
22.3213883311
 11
-26.0
 21
23.9982478817
  0
LINE
  5
280
100
AcDbEntity
  8
0
100
AcDbLine
 62
253
  6
CONTINUOUS
 10
-33.6491272468
 20
-21.8997711479
 11
-33.6229446494
 21
-21.821159479
  0
LINE
  5
281
100
AcDbEntity
  8
0
100
AcDbLine
 62
253
  6
CONTINUOUS
 10
-12.6130943479
 20
24.4869014213
 11
-12.5999957692
 21
24.5
  0
LINE
  5
282
100
AcDbEntity
  8
0
100
AcDbLine
 62
253
  6
CONTINUOUS
 10
-12.3630985787
 20
24.2369056521
 11
-12.35
 21
24.2500042308
  0
LINE
  5
283
100
AcDbEntity
  8
0
100
AcDbLine
 62
253
  6
CONTINUOUS
 10
-12.6130943479
 20
-24.4869014213
 11
-12.5999957692
 21
-24.5
  0
LINE
  5
284
100
AcDbEntity
  8
0
100
AcDbLine
 62
253
  6
CONTINUOUS
 10
-12.3630985787
 20
-24.2369056521
 11
-12.35
 21
-24.2500042308
  0
LINE
  5
285
100
AcDbEntity
  8
0
100
AcDbLine
 62
253
  6
CONTINUOUS
 10
-33.6229446494
 20
21.821159479
 11
-33.6491272468
 21
21.8997711479
  0
LINE
  5
286
100
AcDbEntity
  8
0
100
AcDbLine
 62
253
  6
CONTINUOUS
 10
-23.7
 20
-22.3737961104
 11
-23.7
 21
-24.0
  0
LINE
  5
287
100
AcDbEntity
  8
0
100
AcDbLine
 62
253
  6
CONTINUOUS
 10
-23.7
 20
22.3737961104
 11
-23.7
 21
24.0
  0
LINE
  5
288
100
AcDbEntity
  8
0
100
AcDbLine
 62
7
  6
CONTINUOUS
 10
-23.5
 20
-23.7999966153
 11
-23.5
 21
-22.3842776662
  0
LINE
  5
289
100
AcDbEntity
  8
0
100
AcDbLine
 62
7
  6
CONTINUOUS
 10
-23.5
 20
22.3842776662
 11
-23.5
 21
23.7999966153
  0
LINE
  5
28A
100
AcDbEntity
  8
0
100
AcDbLine
 62
7
  6
CONTINUOUS
 10
-26.95
 20
-22.4
 11
-26.9412732553
 21
-22.3213883311
  0
LINE
  5
28B
100
AcDbEntity
  8
0
100
AcDbLine
 62
253
  6
CONTINUOUS
 10
-33.1495078465
 20
-22.4
 11
-33.1233252491
 21
-22.3213883311
  0
LINE
  5
28C
100
AcDbEntity
  8
0
100
AcDbLine
 62
7
  6
CONTINUOUS
 10
-32.4000042308
 20
-24.5
 11
-29.9999957692
 21
-24.5
  0
LINE
  5
28D
100
AcDbEntity
  8
0
100
AcDbLine
 62
7
  6
CONTINUOUS
 10
-15.0000042308
 20
-24.5
 11
-12.5999957692
 21
-24.5
  0
LINE
  5
28E
100
AcDbEntity
  8
0
100
AcDbLine
 62
7
  6
CONTINUOUS
 10
12.5999957692
 20
-24.5
 11
15.0000042308
 21
-24.5
  0
LINE
  5
28F
100
AcDbEntity
  8
0
100
AcDbLine
 62
7
  6
CONTINUOUS
 10
29.9999957692
 20
-24.5
 11
32.4000042308
 21
-24.5
  0
LINE
  5
290
100
AcDbEntity
  8
0
100
AcDbLine
 62
253
  6
CONTINUOUS
 10
-32.3869056521
 20
-24.4869014213
 11
-30.0130943479
 21
-24.4869014213
  0
LINE
  5
291
100
AcDbEntity
  8
0
100
AcDbLine
 62
253
  6
CONTINUOUS
 10
-14.9869056521
 20
-24.4869014213
 11
-12.6130943479
 21
-24.4869014213
  0
LINE
  5
292
100
AcDbEntity
  8
0
100
AcDbLine
 62
253
  6
CONTINUOUS
 10
12.6130943479
 20
-24.4869014213
 11
14.9869056521
 21
-24.4869014213
  0
LINE
  5
293
100
AcDbEntity
  8
0
100
AcDbLine
 62
253
  6
CONTINUOUS
 10
30.0130943479
 20
-24.4869014213
 11
32.3869056521
 21
-24.4869014213
  0
LINE
  5
294
100
AcDbEntity
  8
0
100
AcDbLine
 62
253
  6
CONTINUOUS
 10
12.3630985787
 20
-24.2369056521
 11
15.2369014213
 21
-24.2369056521
  0
LINE
  5
295
100
AcDbEntity
  8
0
100
AcDbLine
 62
253
  6
CONTINUOUS
 10
-12.3630985787
 20
-24.2369056521
 11
-15.2369014213
 21
-24.2369056521
  0
LINE
  5
296
100
AcDbEntity
  8
0
100
AcDbLine
 62
253
  6
CONTINUOUS
 10
29.7630985787
 20
-24.2369056521
 11
32.6369014213
 21
-24.2369056521
  0
LINE
  5
297
100
AcDbEntity
  8
0
100
AcDbLine
 62
253
  6
CONTINUOUS
 10
-29.7630985787
 20
-24.2369056521
 11
-32.6369014213
 21
-24.2369056521
  0
LINE
  5
298
100
AcDbEntity
  8
0
100
AcDbLine
 62
7
  6
CONTINUOUS
 10
26.95
 20
-24.0
 11
23.7
 21
-24.0
  0
LINE
  5
299
100
AcDbEntity
  8
0
100
AcDbLine
 62
7
  6
CONTINUOUS
 10
21.3
 20
-24.0
 11
18.05
 21
-24.0
  0
LINE
  5
29A
100
AcDbEntity
  8
0
100
AcDbLine
 62
7
  6
CONTINUOUS
 10
-18.05
 20
-24.0
 11
-21.3
 21
-24.0
  0
LINE
  5
29B
100
AcDbEntity
  8
0
100
AcDbLine
 62
7
  6
CONTINUOUS
 10
-23.7
 20
-24.0
 11
-26.95
 21
-24.0
  0
LINE
  5
29C
100
AcDbEntity
  8
0
100
AcDbLine
 62
253
  6
CONTINUOUS
 10
-26.0
 20
-23.9982478817
 11
-23.7
 21
-23.9982478817
  0
LINE
  5
29D
100
AcDbEntity
  8
0
100
AcDbLine
 62
253
  6
CONTINUOUS
 10
-21.3
 20
-23.9982478817
 11
-19.0
 21
-23.9982478817
  0
LINE
  5
29E
100
AcDbEntity
  8
0
100
AcDbLine
 62
253
  6
CONTINUOUS
 10
19.0
 20
-23.9982478817
 11
21.3
 21
-23.9982478817
  0
LINE
  5
29F
100
AcDbEntity
  8
0
100
AcDbLine
 62
253
  6
CONTINUOUS
 10
23.7
 20
-23.9982478817
 11
26.0
 21
-23.9982478817
  0
LINE
  5
2A0
100
AcDbEntity
  8
0
100
AcDbLine
 62
7
  6
CONTINUOUS
 10
26.9412732553
 20
-23.9912732553
 11
26.0
 21
-23.9912732553
  0
LINE
  5
2A1
100
AcDbEntity
  8
0
100
AcDbLine
 62
7
  6
CONTINUOUS
 10
19.0
 20
-23.9912732553
 11
18.0587267447
 21
-23.9912732553
  0
LINE
  5
2A2
100
AcDbEntity
  8
0
100
AcDbLine
 62
7
  6
CONTINUOUS
 10
-18.0587267447
 20
-23.9912732553
 11
-19.0
 21
-23.9912732553
  0
LINE
  5
2A3
100
AcDbEntity
  8
0
100
AcDbLine
 62
7
  6
CONTINUOUS
 10
-26.0
 20
-23.9912732553
 11
-26.9412732553
 21
-23.9912732553
  0
LINE
  5
2A4
100
AcDbEntity
  8
0
100
AcDbLine
 62
253
  6
CONTINUOUS
 10
12.3630985787
 20
-23.8443375673
 11
15.2369014213
 21
-23.8443375673
  0
LINE
  5
2A5
100
AcDbEntity
  8
0
100
AcDbLine
 62
253
  6
CONTINUOUS
 10
-12.3630985787
 20
-23.8443375673
 11
-15.2369014213
 21
-23.8443375673
  0
LINE
  5
2A6
100
AcDbEntity
  8
0
100
AcDbLine
 62
253
  6
CONTINUOUS
 10
29.7630985787
 20
-23.8443375673
 11
32.6369014213
 21
-23.8443375673
  0
LINE
  5
2A7
100
AcDbEntity
  8
0
100
AcDbLine
 62
253
  6
CONTINUOUS
 10
-29.7630985787
 20
-23.8443375673
 11
-32.6369014213
 21
-23.8443375673
  0
LINE
  5
2A8
100
AcDbEntity
  8
0
100
AcDbLine
 62
253
  6
CONTINUOUS
 10
-26.0
 20
-23.7982512664
 11
-23.5
 21
-23.7982512664
  0
LINE
  5
2A9
100
AcDbEntity
  8
0
100
AcDbLine
 62
253
  6
CONTINUOUS
 10
19.0
 20
-23.7982512664
 11
21.5
 21
-23.7982512664
  0
LINE
  5
2AA
100
AcDbEntity
  8
0
100
AcDbLine
 62
253
  6
CONTINUOUS
 10
-19.0
 20
-23.7982512664
 11
-21.5
 21
-23.7982512664
  0
LINE
  5
2AB
100
AcDbEntity
  8
0
100
AcDbLine
 62
253
  6
CONTINUOUS
 10
23.5
 20
-23.7982512664
 11
26.0
 21
-23.7982512664
  0
LINE
  5
2AC
100
AcDbEntity
  8
0
100
AcDbLine
 62
253
  6
CONTINUOUS
 10
32.3869056521
 20
-23.6278312164
 11
30.0130943479
 21
-23.6278312164
  0
LINE
  5
2AD
100
AcDbEntity
  8
0
100
AcDbLine
 62
253
  6
CONTINUOUS
 10
14.9869056521
 20
-23.6278312164
 11
12.6130943479
 21
-23.6278312164
  0
LINE
  5
2AE
100
AcDbEntity
  8
0
100
AcDbLine
 62
253
  6
CONTINUOUS
 10
-12.6130943479
 20
-23.6278312164
 11
-14.9869056521
 21
-23.6278312164
  0
LINE
  5
2AF
100
AcDbEntity
  8
0
100
AcDbLine
 62
253
  6
CONTINUOUS
 10
-30.0130943479
 20
-23.6278312164
 11
-32.3869056521
 21
-23.6278312164
  0
LINE
  5
2B0
100
AcDbEntity
  8
0
100
AcDbLine
 62
7
  6
CONTINUOUS
 10
-32.3927234819
 20
-23.1226497308
 11
-30.0072765181
 21
-23.1226497308
  0
LINE
  5
2B1
100
AcDbEntity
  8
0
100
AcDbLine
 62
7
  6
CONTINUOUS
 10
32.3927234819
 20
-23.1226497308
 11
30.0072765181
 21
-23.1226497308
  0
LINE
  5
2B2
100
AcDbEntity
  8
0
100
AcDbLine
 62
7
  6
CONTINUOUS
 10
12.6072765181
 20
-23.1226497308
 11
14.9927234819
 21
-23.1226497308
  0
LINE
  5
2B3
100
AcDbEntity
  8
0
100
AcDbLine
 62
7
  6
CONTINUOUS
 10
-12.6072765181
 20
-23.1226497308
 11
-14.9927234819
 21
-23.1226497308
  0
LINE
  5
2B4
100
AcDbEntity
  8
0
100
AcDbLine
 62
7
  6
CONTINUOUS
 10
33.1495078465
 20
-22.4
 11
32.65
 21
-22.4
  0
LINE
  5
2B5
100
AcDbEntity
  8
0
100
AcDbLine
 62
7
  6
CONTINUOUS
 10
29.75
 20
-22.4
 11
26.95
 21
-22.4
  0
LINE
  5
2B6
100
AcDbEntity
  8
0
100
AcDbLine
 62
7
  6
CONTINUOUS
 10
-23.5
 20
-22.4
 11
-21.5
 21
-22.4
  0
LINE
  5
2B7
100
AcDbEntity
  8
0
100
AcDbLine
 62
7
  6
CONTINUOUS
 10
18.05
 20
-22.4
 11
15.25
 21
-22.4
  0
LINE
  5
2B8
100
AcDbEntity
  8
0
100
AcDbLine
 62
7
  6
CONTINUOUS
 10
12.35
 20
-22.4
 11
11.8504921535
 21
-22.4
  0
LINE
  5
2B9
100
AcDbEntity
  8
0
100
AcDbLine
 62
7
  6
CONTINUOUS
 10
-11.8504921535
 20
-22.4
 11
-12.35
 21
-22.4
  0
LINE
  5
2BA
100
AcDbEntity
  8
0
100
AcDbLine
 62
7
  6
CONTINUOUS
 10
-15.25
 20
-22.4
 11
-18.05
 21
-22.4
  0
LINE
  5
2BB
100
AcDbEntity
  8
0
100
AcDbLine
 62
7
  6
CONTINUOUS
 10
21.5
 20
-22.4
 11
23.5
 21
-22.4
  0
LINE
  5
2BC
100
AcDbEntity
  8
0
100
AcDbLine
 62
7
  6
CONTINUOUS
 10
-26.95
 20
-22.4
 11
-29.75
 21
-22.4
  0
LINE
  5
2BD
100
AcDbEntity
  8
0
100
AcDbLine
 62
7
  6
CONTINUOUS
 10
-32.65
 20
-22.4
 11
-33.1495078465
 21
-22.4
  0
LINE
  5
2BE
100
AcDbEntity
  8
0
100
AcDbLine
 62
7
  6
CONTINUOUS
 10
26.0
 20
-22.3737961104
 11
23.7
 21
-22.3737961104
  0
LINE
  5
2BF
100
AcDbEntity
  8
0
100
AcDbLine
 62
7
  6
CONTINUOUS
 10
21.3
 20
-22.3737961104
 11
19.0
 21
-22.3737961104
  0
LINE
  5
2C0
100
AcDbEntity
  8
0
100
AcDbLine
 62
7
  6
CONTINUOUS
 10
-19.0
 20
-22.3737961104
 11
-21.3
 21
-22.3737961104
  0
LINE
  5
2C1
100
AcDbEntity
  8
0
100
AcDbLine
 62
7
  6
CONTINUOUS
 10
-23.7
 20
-22.3737961104
 11
-26.0
 21
-22.3737961104
  0
LINE
  5
2C2
100
AcDbEntity
  8
0
100
AcDbLine
 62
7
  6
CONTINUOUS
 10
33.1233252491
 20
-22.3213883311
 11
32.3927234819
 21
-22.3213883311
  0
LINE
  5
2C3
100
AcDbEntity
  8
0
100
AcDbLine
 62
7
  6
CONTINUOUS
 10
30.0072765181
 20
-22.3213883311
 11
26.9412732553
 21
-22.3213883311
  0
LINE
  5
2C4
100
AcDbEntity
  8
0
100
AcDbLine
 62
7
  6
CONTINUOUS
 10
26.0
 20
-22.3213883311
 11
19.0
 21
-22.3213883311
  0
LINE
  5
2C5
100
AcDbEntity
  8
0
100
AcDbLine
 62
7
  6
CONTINUOUS
 10
18.0587267447
 20
-22.3213883311
 11
14.9927234819
 21
-22.3213883311
  0
LINE
  5
2C6
100
AcDbEntity
  8
0
100
AcDbLine
 62
7
  6
CONTINUOUS
 10
12.6072765181
 20
-22.3213883311
 11
11.8766747509
 21
-22.3213883311
  0
LINE
  5
2C7
100
AcDbEntity
  8
0
100
AcDbLine
 62
7
  6
CONTINUOUS
 10
-11.8766747509
 20
-22.3213883311
 11
-12.6072765181
 21
-22.3213883311
  0
LINE
  5
2C8
100
AcDbEntity
  8
0
100
AcDbLine
 62
7
  6
CONTINUOUS
 10
-14.9927234819
 20
-22.3213883311
 11
-18.0587267447
 21
-22.3213883311
  0
LINE
  5
2C9
100
AcDbEntity
  8
0
100
AcDbLine
 62
7
  6
CONTINUOUS
 10
-19.0
 20
-22.3213883311
 11
-26.0
 21
-22.3213883311
  0
LINE
  5
2CA
100
AcDbEntity
  8
0
100
AcDbLine
 62
7
  6
CONTINUOUS
 10
-26.9412732553
 20
-22.3213883311
 11
-30.0072765181
 21
-22.3213883311
  0
LINE
  5
2CB
100
AcDbEntity
  8
0
100
AcDbLine
 62
7
  6
CONTINUOUS
 10
-32.3927234819
 20
-22.3213883311
 11
-33.1233252491
 21
-22.3213883311
  0
LINE
  5
2CC
100
AcDbEntity
  8
RACCORDO
100
AcDbLine
 62
7
  6
CONTINUOUS
 10
-33.0001713375
 20
-22.1
 11
33.0001713375
 21
-22.1
  0
LINE
  5
2CD
100
AcDbEntity
  8
0
100
AcDbLine
 62
253
  6
CONTINUOUS
 10
-33.1233252491
 20
22.3213883311
 11
-33.1495078465
 21
22.4
  0
LINE
  5
2CE
100
AcDbEntity
  8
0
100
AcDbLine
 62
7
  6
CONTINUOUS
 10
-26.9412732553
 20
22.3213883311
 11
-26.95
 21
22.4
  0
LINE
  5
2CF
100
AcDbEntity
  8
0
100
AcDbLine
 62
7
  6
CONTINUOUS
 10
-21.5
 20
23.7999966153
 11
-21.5
 21
22.3842776662
  0
LINE
  5
2D0
100
AcDbEntity
  8
0
100
AcDbLine
 62
7
  6
CONTINUOUS
 10
-21.5
 20
-22.3842776662
 11
-21.5
 21
-23.7999966153
  0
LINE
  5
2D1
100
AcDbEntity
  8
0
100
AcDbLine
 62
253
  6
CONTINUOUS
 10
-21.3
 20
-22.3737961104
 11
-21.3
 21
-24.0
  0
LINE
  5
2D2
100
AcDbEntity
  8
0
100
AcDbLine
 62
253
  6
CONTINUOUS
 10
-21.3
 20
22.3737961104
 11
-21.3
 21
24.0
  0
LINE
  5
2D3
100
AcDbEntity
  8
0
100
AcDbLine
 62
7
  6
CONTINUOUS
 10
-19.0
 20
23.9982478817
 11
-19.0
 21
22.3213883311
  0
LINE
  5
2D4
100
AcDbEntity
  8
0
100
AcDbLine
 62
7
  6
CONTINUOUS
 10
-19.0
 20
-22.3213883311
 11
-19.0
 21
-23.9982478817
  0
LINE
  5
2D5
100
AcDbEntity
  8
0
100
AcDbLine
 62
7
  6
CONTINUOUS
 10
-18.05
 20
22.4
 11
-18.0587267447
 21
22.3213883311
  0
LINE
  5
2D6
100
AcDbEntity
  8
0
100
AcDbLine
 62
7
  6
CONTINUOUS
 10
-18.0587267447
 20
-22.3213883311
 11
-18.05
 21
-22.4
  0
LINE
  5
2D7
100
AcDbEntity
  8
0
100
AcDbLine
 62
253
  6
CONTINUOUS
 10
-15.2369014213
 20
-23.8443375673
 11
-15.2427192511
 21
-23.2669872981
  0
LINE
  5
2D8
100
AcDbEntity
  8
0
100
AcDbLine
 62
7
  6
CONTINUOUS
 10
-18.0587267447
 20
-23.9912732553
 11
-18.0587267447
 21
-22.3213883311
  0
LINE
  5
2D9
100
AcDbEntity
  8
0
100
AcDbLine
 62
7
  6
CONTINUOUS
 10
-18.0587267447
 20
22.3213883311
 11
-18.0587267447
 21
23.9912732553
  0
LINE
  5
2DA
100
AcDbEntity
  8
0
100
AcDbLine
 62
7
  6
CONTINUOUS
 10
-18.05
 20
-22.4
 11
-18.05
 21
-24.0
  0
LINE
  5
2DB
100
AcDbEntity
  8
0
100
AcDbLine
 62
7
  6
CONTINUOUS
 10
-18.05
 20
22.4
 11
-18.05
 21
24.0
  0
LINE
  5
2DC
100
AcDbEntity
  8
0
100
AcDbLine
 62
253
  6
CONTINUOUS
 10
-15.2427192511
 20
23.2669872981
 11
-15.2369014213
 21
23.8443375673
  0
LINE
  5
2DD
100
AcDbEntity
  8
0
100
AcDbLine
 62
253
  6
CONTINUOUS
 10
-11.8504921535
 20
22.4
 11
-11.8766747509
 21
22.3213883311
  0
LINE
  5
2DE
100
AcDbEntity
  8
RACCORDO
100
AcDbLine
 62
7
  6
CONTINUOUS
 10
33.6229446494
 20
-16.6
 11
33.5
 21
-16.6
  0
LINE
  5
2DF
100
AcDbEntity
  8
RACCORDO
100
AcDbLine
 62
7
  6
CONTINUOUS
 10
-33.5
 20
-16.6
 11
-33.6229446494
 21
-16.6
  0
LINE
  5
2E0
100
AcDbEntity
  8
0
100
AcDbLine
 62
253
  6
CONTINUOUS
 10
-11.8766747509
 20
-22.3213883311
 11
-11.8504921535
 21
-22.4
  0
LINE
  5
2E1
100
AcDbEntity
  8
0
100
AcDbLine
 62
253
  6
CONTINUOUS
 10
-14.9869056521
 20
-23.6278312164
 11
-14.9919962532
 21
-23.1226497308
  0
LINE
  5
2E2
100
AcDbEntity
  8
0
100
AcDbLine
 62
253
  6
CONTINUOUS
 10
-12.6130943479
 20
23.6278312164
 11
-12.6080037468
 21
23.1226497308
  0
LINE
  5
2E3
100
AcDbEntity
  8
0
100
AcDbLine
 62
7
  6
CONTINUOUS
 10
-15.25
 20
-22.4
 11
-15.25
 21
-24.2500042308
  0
LINE
  5
2E4
100
AcDbEntity
  8
0
100
AcDbLine
 62
7
  6
CONTINUOUS
 10
-15.25
 20
22.4
 11
-15.25
 21
24.2500042308
  0
LINE
  5
2E5
100
AcDbEntity
  8
0
100
AcDbLine
 62
253
  6
CONTINUOUS
 10
-15.2427192511
 20
23.2669872981
 11
-15.2427192511
 21
22.3344140523
  0
LINE
  5
2E6
100
AcDbEntity
  8
0
100
AcDbLine
 62
253
  6
CONTINUOUS
 10
-15.2427192511
 20
-22.3344140523
 11
-15.2427192511
 21
-23.2669872981
  0
LINE
  5
2E7
100
AcDbEntity
  8
0
100
AcDbLine
 62
253
  6
CONTINUOUS
 10
-15.2369014213
 20
24.2369056521
 11
-15.2369014213
 21
23.8443375673
  0
LINE
  5
2E8
100
AcDbEntity
  8
0
100
AcDbLine
 62
253
  6
CONTINUOUS
 10
-15.2369014213
 20
-23.8443375673
 11
-15.2369014213
 21
-24.2369056521
  0
LINE
  5
2E9
100
AcDbEntity
  8
0
100
AcDbLine
 62
253
  6
CONTINUOUS
 10
-14.9927234819
 20
23.1226497308
 11
-14.9927234819
 21
22.3213883311
  0
LINE
  5
2EA
100
AcDbEntity
  8
0
100
AcDbLine
 62
253
  6
CONTINUOUS
 10
-14.9927234819
 20
-22.3213883311
 11
-14.9927234819
 21
-23.1226497308
  0
LINE
  5
2EB
100
AcDbEntity
  8
0
100
AcDbLine
 62
253
  6
CONTINUOUS
 10
-14.9869056521
 20
-23.6278312164
 11
-14.9869056521
 21
-24.4869014213
  0
LINE
  5
2EC
100
AcDbEntity
  8
0
100
AcDbLine
 62
253
  6
CONTINUOUS
 10
-14.9869056521
 20
23.6278312164
 11
-14.9869056521
 21
24.4869014213
  0
LINE
  5
2ED
100
AcDbEntity
  8
0
100
AcDbLine
 62
253
  6
CONTINUOUS
 10
-12.6130943479
 20
-23.6278312164
 11
-12.6130943479
 21
-24.4869014213
  0
LINE
  5
2EE
100
AcDbEntity
  8
0
100
AcDbLine
 62
253
  6
CONTINUOUS
 10
-12.6130943479
 20
23.6278312164
 11
-12.6130943479
 21
24.4869014213
  0
LINE
  5
2EF
100
AcDbEntity
  8
0
100
AcDbLine
 62
253
  6
CONTINUOUS
 10
-12.6072765181
 20
-23.1226497308
 11
-12.6072765181
 21
-22.3213883311
  0
LINE
  5
2F0
100
AcDbEntity
  8
0
100
AcDbLine
 62
253
  6
CONTINUOUS
 10
-12.6072765181
 20
22.3213883311
 11
-12.6072765181
 21
23.1226497308
  0
LINE
  5
2F1
100
AcDbEntity
  8
0
100
AcDbLine
 62
253
  6
CONTINUOUS
 10
-12.3630985787
 20
-24.2369056521
 11
-12.3630985787
 21
-23.8443375673
  0
LINE
  5
2F2
100
AcDbEntity
  8
0
100
AcDbLine
 62
253
  6
CONTINUOUS
 10
-12.3630985787
 20
23.8443375673
 11
-12.3630985787
 21
24.2369056521
  0
LINE
  5
2F3
100
AcDbEntity
  8
0
100
AcDbLine
 62
253
  6
CONTINUOUS
 10
-12.3572807489
 20
-23.2669872981
 11
-12.3572807489
 21
-22.3344140523
  0
LINE
  5
2F4
100
AcDbEntity
  8
0
100
AcDbLine
 62
253
  6
CONTINUOUS
 10
-12.3572807489
 20
22.3344140523
 11
-12.3572807489
 21
23.2669872981
  0
LINE
  5
2F5
100
AcDbEntity
  8
0
100
AcDbLine
 62
7
  6
CONTINUOUS
 10
-12.35
 20
-22.4
 11
-12.35
 21
-24.2500042308
  0
LINE
  5
2F6
100
AcDbEntity
  8
0
100
AcDbLine
 62
7
  6
CONTINUOUS
 10
-12.35
 20
22.4
 11
-12.35
 21
24.2500042308
  0
LINE
  5
2F7
100
AcDbEntity
  8
0
100
AcDbLine
 62
253
  6
CONTINUOUS
 10
-14.9919962532
 20
23.1226497308
 11
-14.9869056521
 21
23.6278312164
  0
LINE
  5
2F8
100
AcDbEntity
  8
0
100
AcDbLine
 62
253
  6
CONTINUOUS
 10
-12.6080037468
 20
-23.1226497308
 11
-12.6130943479
 21
-23.6278312164
  0
LINE
  5
2F9
100
AcDbEntity
  8
0
100
AcDbLine
 62
7
  6
CONTINUOUS
 10
-12.35
 20
22.4
 11
-12.3572807489
 21
22.3344140523
  0
LINE
  5
2FA
100
AcDbEntity
  8
0
100
AcDbLine
 62
7
  6
CONTINUOUS
 10
-15.25
 20
-22.4
 11
-15.2427192511
 21
-22.3344140523
  0
LINE
  5
2FB
100
AcDbEntity
  8
0
100
AcDbLine
 62
7
  6
CONTINUOUS
 10
-12.35
 20
-22.4
 11
-12.3572807489
 21
-22.3344140523
  0
LINE
  5
2FC
100
AcDbEntity
  8
0
100
AcDbLine
 62
7
  6
CONTINUOUS
 10
-15.25
 20
22.4
 11
-15.2427192511
 21
22.3344140523
  0
LINE
  5
2FD
100
AcDbEntity
  8
0
100
AcDbLine
 62
253
  6
CONTINUOUS
 10
-12.3630985787
 20
23.8443375673
 11
-12.3572807489
 21
23.2669872981
  0
LINE
  5
2FE
100
AcDbEntity
  8
0
100
AcDbLine
 62
253
  6
CONTINUOUS
 10
-12.3572807489
 20
-23.2669872981
 11
-12.3630985787
 21
-23.8443375673
  0
LWPOLYLINE
  5
2FF
100
AcDbEntity
  8
0
100
AcDbPolyline
 62
7
  6
CONTINUOUS
 90
3
 70
0
 43
0.3500000006
 10
-0.2491600712
 20
36.1302155457
 10
-0.3205886518
 20
35.9159310608
 10
-0.4634457775
 20
35.6302153931
  0
LINE
  5
300
100
AcDbEntity
  8
RACCORDO
100
AcDbLine
 62
253
  6
CONTINUOUS
 10
-33.3792778734
 20
-21.4794492109
 11
-33.5
 21
-21.6001713375
  0
LINE
  5
301
100
AcDbEntity
  8
RACCORDO
100
AcDbLine
 62
253
  6
CONTINUOUS
 10
-32.879449211
 20
-21.9792778735
 11
-33.0001713375
 21
-22.1
  0
LINE
  5
302
100
AcDbEntity
  8
0
100
AcDbLine
 62
253
  6
CONTINUOUS
 10
14.9869056521
 20
24.4869014213
 11
15.0000042308
 21
24.5
  0
LINE
  5
303
100
AcDbEntity
  8
0
100
AcDbLine
 62
253
  6
CONTINUOUS
 10
15.2369014213
 20
24.2369056521
 11
15.25
 21
24.2500042308
  0
LINE
  5
304
100
AcDbEntity
  8
0
100
AcDbLine
 62
253
  6
CONTINUOUS
 10
-32.6369014213
 20
-24.2369056521
 11
-32.65
 21
-24.2500042308
  0
LINE
  5
305
100
AcDbEntity
  8
RACCORDO
100
AcDbLine
 62
253
  6
CONTINUOUS
 10
-33.5
 20
21.6001713375
 11
-33.3792778735
 21
21.479449211
  0
LINE
  5
306
100
AcDbEntity
  8
RACCORDO
100
AcDbLine
 62
253
  6
CONTINUOUS
 10
-33.0001713375
 20
22.1
 11
-32.879449211
 21
21.9792778735
  0
LINE
  5
307
100
AcDbEntity
  8
0
100
AcDbLine
 62
253
  6
CONTINUOUS
 10
14.9869056521
 20
-24.4869014213
 11
15.0000042308
 21
-24.5
  0
LINE
  5
308
100
AcDbEntity
  8
0
100
AcDbLine
 62
253
  6
CONTINUOUS
 10
15.2369014213
 20
-24.2369056521
 11
15.25
 21
-24.2500042308
  0
LINE
  5
309
100
AcDbEntity
  8
0
100
AcDbLine
 62
253
  6
CONTINUOUS
 10
-32.6369014213
 20
24.2369056521
 11
-32.65
 21
24.2500042308
  0
LWPOLYLINE
  5
30A
100
AcDbEntity
  8
0
100
AcDbPolyline
 62
7
  6
CONTINUOUS
 90
4
 70
0
 43
0.3500000006
 10
-3.3205886822
 20
38.201642807
 10
-3.3205886822
 20
38.8445007935
 10
-1.8205886493
 20
38.8445007935
 10
-2.6777315454
 20
35.8444998779
  0
LINE
  5
30B
100
AcDbEntity
  8
0
100
AcDbLine
 62
253
  6
CONTINUOUS
 10
-32.3869056521
 20
-24.4869014213
 11
-32.4000042308
 21
-24.5
  0
LINE
  5
30C
100
AcDbEntity
  8
0
100
AcDbLine
 62
253
  6
CONTINUOUS
 10
-32.3869056521
 20
24.4869014213
 11
-32.4000042308
 21
24.5
  0
LINE
  5
30D
100
AcDbEntity
  8
0
100
AcDbLine
 62
7
  6
CONTINUOUS
 10
-26.9412732553
 20
-23.9912732553
 11
-26.95
 21
-24.0
  0
LWPOLYLINE
  5
30E
100
AcDbEntity
  8
0
100
AcDbPolyline
 62
7
  6
CONTINUOUS
 90
2
 70
0
 43
0.3500000006
 10
45.7483960876
 20
-1.3571429443
 10
44.2483956299
 20
-1.3571429443
  0
LINE
  5
30F
100
AcDbEntity
  8
DRAFT
100
AcDbLine
 62
7
  6
CONTINUOUS
 10
33.595044505
 20
0.0
 11
33.5
 21
0.0
  0
LINE
  5
310
100
AcDbEntity
  8
DRAFT
100
AcDbLine
 62
7
  6
CONTINUOUS
 10
-33.5
 20
0.0
 11
-33.595044505
 21
0.0
  0
LINE
  5
311
100
AcDbEntity
  8
0
100
AcDbLine
 62
7
  6
CONTINUOUS
 10
-26.95
 20
24.0
 11
-26.9412732553
 21
23.9912732553
  0
LINE
  5
312
100
AcDbEntity
  8
0
100
AcDbLine
 62
7
  6
CONTINUOUS
 10
26.95
 20
24.0
 11
26.9412732553
 21
23.9912732553
  0
LINE
  5
313
100
AcDbEntity
  8
0
100
AcDbLine
 62
7
  6
CONTINUOUS
 10
26.95
 20
-24.0
 11
26.9412732553
 21
-23.9912732553
  0
LINE
  5
314
100
AcDbEntity
  8
0
100
AcDbLine
 62
253
  6
CONTINUOUS
 10
32.3869056521
 20
24.4869014213
 11
32.4000042308
 21
24.5
  0
LINE
  5
315
100
AcDbEntity
  8
0
100
AcDbLine
 62
253
  6
CONTINUOUS
 10
32.6369014213
 20
24.2369056521
 11
32.65
 21
24.2500042308
  0
LINE
  5
316
100
AcDbEntity
  8
0
100
AcDbLine
 62
253
  6
CONTINUOUS
 10
-15.2369014213
 20
-24.2369056521
 11
-15.25
 21
-24.2500042308
  0
LINE
  5
317
100
AcDbEntity
  8
0
100
AcDbLine
 62
253
  6
CONTINUOUS
 10
32.3869056521
 20
-24.4869014213
 11
32.4000042308
 21
-24.5
  0
LINE
  5
318
100
AcDbEntity
  8
0
100
AcDbLine
 62
253
  6
CONTINUOUS
 10
32.6369014213
 20
-24.2369056521
 11
32.65
 21
-24.2500042308
  0
LINE
  5
319
100
AcDbEntity
  8
0
100
AcDbLine
 62
253
  6
CONTINUOUS
 10
-15.2369014213
 20
24.2369056521
 11
-15.25
 21
24.2500042308
  0
LINE
  5
31A
100
AcDbEntity
  8
0
100
AcDbLine
 62
253
  6
CONTINUOUS
 10
-14.9869056521
 20
-24.4869014213
 11
-15.0000042308
 21
-24.5
  0
LINE
  5
31B
100
AcDbEntity
  8
RACCORDO
100
AcDbLine
 62
253
  6
CONTINUOUS
 10
32.879449211
 20
21.9792778735
 11
33.0001713375
 21
22.1
  0
LINE
  5
31C
100
AcDbEntity
  8
RACCORDO
100
AcDbLine
 62
253
  6
CONTINUOUS
 10
33.3792778734
 20
21.4794492109
 11
33.5
 21
21.6001713375
  0
LINE
  5
31D
100
AcDbEntity
  8
0
100
AcDbLine
 62
253
  6
CONTINUOUS
 10
-14.9869056521
 20
24.4869014213
 11
-15.0000042308
 21
24.5
  0
LINE
  5
31E
100
AcDbEntity
  8
RACCORDO
100
AcDbLine
 62
253
  6
CONTINUOUS
 10
33.0001713375
 20
-22.1
 11
32.879449211
 21
-21.9792778735
  0
LINE
  5
31F
100
AcDbEntity
  8
RACCORDO
100
AcDbLine
 62
253
  6
CONTINUOUS
 10
33.5
 20
-21.6001713375
 11
33.3792778735
 21
-21.479449211
  0
LINE
  5
320
100
AcDbEntity
  8
0
100
AcDbLine
 62
253
  6
CONTINUOUS
 10
12.3630985787
 20
-23.8443375673
 11
12.3572807489
 21
-23.2669872981
  0
LINE
  5
321
100
AcDbEntity
  8
0
100
AcDbLine
 62
253
  6
CONTINUOUS
 10
12.6130943479
 20
-23.6278312164
 11
12.6080037468
 21
-23.1226497308
  0
LINE
  5
322
100
AcDbEntity
  8
0
100
AcDbLine
 62
7
  6
CONTINUOUS
 10
12.35
 20
-22.4
 11
12.35
 21
-24.2500042308
  0
LINE
  5
323
100
AcDbEntity
  8
0
100
AcDbLine
 62
7
  6
CONTINUOUS
 10
12.35
 20
22.4
 11
12.35
 21
24.2500042308
  0
LINE
  5
324
100
AcDbEntity
  8
0
100
AcDbLine
 62
253
  6
CONTINUOUS
 10
12.3572807489
 20
23.2669872981
 11
12.3572807489
 21
22.3344140523
  0
LINE
  5
325
100
AcDbEntity
  8
0
100
AcDbLine
 62
253
  6
CONTINUOUS
 10
12.3572807489
 20
-22.3344140523
 11
12.3572807489
 21
-23.2669872981
  0
LINE
  5
326
100
AcDbEntity
  8
0
100
AcDbLine
 62
253
  6
CONTINUOUS
 10
12.3630985787
 20
24.2369056521
 11
12.3630985787
 21
23.8443375673
  0
LINE
  5
327
100
AcDbEntity
  8
0
100
AcDbLine
 62
253
  6
CONTINUOUS
 10
12.3630985787
 20
-23.8443375673
 11
12.3630985787
 21
-24.2369056521
  0
LINE
  5
328
100
AcDbEntity
  8
0
100
AcDbLine
 62
253
  6
CONTINUOUS
 10
12.6072765181
 20
23.1226497308
 11
12.6072765181
 21
22.3213883311
  0
LINE
  5
329
100
AcDbEntity
  8
0
100
AcDbLine
 62
253
  6
CONTINUOUS
 10
12.6072765181
 20
-22.3213883311
 11
12.6072765181
 21
-23.1226497308
  0
LINE
  5
32A
100
AcDbEntity
  8
0
100
AcDbLine
 62
253
  6
CONTINUOUS
 10
12.6130943479
 20
-23.6278312164
 11
12.6130943479
 21
-24.4869014213
  0
LINE
  5
32B
100
AcDbEntity
  8
0
100
AcDbLine
 62
253
  6
CONTINUOUS
 10
12.6130943479
 20
23.6278312164
 11
12.6130943479
 21
24.4869014213
  0
LINE
  5
32C
100
AcDbEntity
  8
0
100
AcDbLine
 62
253
  6
CONTINUOUS
 10
12.3572807489
 20
23.2669872981
 11
12.3630985787
 21
23.8443375673
  0
LINE
  5
32D
100
AcDbEntity
  8
0
100
AcDbLine
 62
253
  6
CONTINUOUS
 10
12.6080037468
 20
23.1226497308
 11
12.6130943479
 21
23.6278312164
  0
LINE
  5
32E
100
AcDbEntity
  8
0
100
AcDbLine
 62
7
  6
CONTINUOUS
 10
15.25
 20
22.4
 11
15.2427192511
 21
22.3344140523
  0
LINE
  5
32F
100
AcDbEntity
  8
0
100
AcDbLine
 62
7
  6
CONTINUOUS
 10
15.25
 20
-22.4
 11
15.2427192511
 21
-22.3344140523
  0
LINE
  5
330
100
AcDbEntity
  8
0
100
AcDbLine
 62
253
  6
CONTINUOUS
 10
14.9869056521
 20
23.6278312164
 11
14.9919962532
 21
23.1226497308
  0
LINE
  5
331
100
AcDbEntity
  8
0
100
AcDbLine
 62
253
  6
CONTINUOUS
 10
15.2369014213
 20
23.8443375673
 11
15.2427192511
 21
23.2669872981
  0
LINE
  5
332
100
AcDbEntity
  8
0
100
AcDbLine
 62
253
  6
CONTINUOUS
 10
14.9869056521
 20
-23.6278312164
 11
14.9869056521
 21
-24.4869014213
  0
LINE
  5
333
100
AcDbEntity
  8
0
100
AcDbLine
 62
253
  6
CONTINUOUS
 10
14.9869056521
 20
23.6278312164
 11
14.9869056521
 21
24.4869014213
  0
LINE
  5
334
100
AcDbEntity
  8
0
100
AcDbLine
 62
253
  6
CONTINUOUS
 10
14.9927234819
 20
-23.1226497308
 11
14.9927234819
 21
-22.3213883311
  0
LINE
  5
335
100
AcDbEntity
  8
0
100
AcDbLine
 62
253
  6
CONTINUOUS
 10
14.9927234819
 20
22.3213883311
 11
14.9927234819
 21
23.1226497308
  0
LINE
  5
336
100
AcDbEntity
  8
0
100
AcDbLine
 62
253
  6
CONTINUOUS
 10
15.2369014213
 20
-24.2369056521
 11
15.2369014213
 21
-23.8443375673
  0
LINE
  5
337
100
AcDbEntity
  8
0
100
AcDbLine
 62
253
  6
CONTINUOUS
 10
15.2369014213
 20
23.8443375673
 11
15.2369014213
 21
24.2369056521
  0
LINE
  5
338
100
AcDbEntity
  8
0
100
AcDbLine
 62
253
  6
CONTINUOUS
 10
15.2427192511
 20
-23.2669872981
 11
15.2427192511
 21
-22.3344140523
  0
LINE
  5
339
100
AcDbEntity
  8
0
100
AcDbLine
 62
253
  6
CONTINUOUS
 10
15.2427192511
 20
22.3344140523
 11
15.2427192511
 21
23.2669872981
  0
LINE
  5
33A
100
AcDbEntity
  8
0
100
AcDbLine
 62
7
  6
CONTINUOUS
 10
15.25
 20
-22.4
 11
15.25
 21
-24.2500042308
  0
LINE
  5
33B
100
AcDbEntity
  8
0
100
AcDbLine
 62
7
  6
CONTINUOUS
 10
15.25
 20
22.4
 11
15.25
 21
24.2500042308
  0
LINE
  5
33C
100
AcDbEntity
  8
0
100
AcDbLine
 62
253
  6
CONTINUOUS
 10
14.9919962532
 20
-23.1226497308
 11
14.9869056521
 21
-23.6278312164
  0
LINE
  5
33D
100
AcDbEntity
  8
0
100
AcDbLine
 62
253
  6
CONTINUOUS
 10
15.2427192511
 20
-23.2669872981
 11
15.2369014213
 21
-23.8443375673
  0
LINE
  5
33E
100
AcDbEntity
  8
0
100
AcDbLine
 62
7
  6
CONTINUOUS
 10
12.35
 20
-22.4
 11
12.3572807489
 21
-22.3344140523
  0
LWPOLYLINE
  5
33F
100
AcDbEntity
  8
0
100
AcDbPolyline
 62
7
  6
CONTINUOUS
 90
10
 70
0
 43
0.3500000006
 10
-0.3205886518
 20
36.3445000305
 10
-0.2491600712
 20
36.2016421967
 10
-0.2491600712
 20
36.1302155457
 10
-0.3920172147
 20
35.9873577118
 10
-0.4634457775
 20
35.9873577118
 10
-0.5348743404
 20
36.0587888947
 10
-0.5348743404
 20
36.1302155457
 10
-0.4634457775
 20
36.2730733795
 10
-0.3920172147
 20
36.3445000305
 10
-0.3205886518
 20
36.3445000305
  0
LINE
  5
340
100
AcDbEntity
  8
0
100
AcDbLine
 62
7
  6
CONTINUOUS
 10
12.35
 20
22.4
 11
12.3572807489
 21
22.3344140523
  0
LINE
  5
341
100
AcDbEntity
  8
0
100
AcDbLine
 62
7
  6
CONTINUOUS
 10
18.05
 20
-22.4
 11
18.05
 21
-24.0
  0
LINE
  5
342
100
AcDbEntity
  8
0
100
AcDbLine
 62
7
  6
CONTINUOUS
 10
18.05
 20
22.4
 11
18.05
 21
24.0
  0
LINE
  5
343
100
AcDbEntity
  8
0
100
AcDbLine
 62
7
  6
CONTINUOUS
 10
18.0587267447
 20
23.9912732553
 11
18.0587267447
 21
22.3213883311
  0
LINE
  5
344
100
AcDbEntity
  8
0
100
AcDbLine
 62
7
  6
CONTINUOUS
 10
18.0587267447
 20
-22.3213883311
 11
18.0587267447
 21
-23.9912732553
  0
LINE
  5
345
100
AcDbEntity
  8
0
100
AcDbLine
 62
7
  6
CONTINUOUS
 10
19.0
 20
-23.9982478817
 11
19.0
 21
-22.3213883311
  0
LINE
  5
346
100
AcDbEntity
  8
0
100
AcDbLine
 62
7
  6
CONTINUOUS
 10
19.0
 20
22.3213883311
 11
19.0
 21
23.9982478817
  0
LINE
  5
347
100
AcDbEntity
  8
0
100
AcDbLine
 62
253
  6
CONTINUOUS
 10
11.8504921535
 20
-22.4
 11
11.8766747509
 21
-22.3213883311
  0
LINE
  5
348
100
AcDbEntity
  8
RACCORDO
100
AcDbLine
 62
7
  6
CONTINUOUS
 10
-33.6229446494
 20
16.6
 11
-33.5
 21
16.6
  0
LINE
  5
349
100
AcDbEntity
  8
RACCORDO
100
AcDbLine
 62
7
  6
CONTINUOUS
 10
33.5
 20
16.6
 11
33.6229446494
 21
16.6
  0
LINE
  5
34A
100
AcDbEntity
  8
0
100
AcDbLine
 62
253
  6
CONTINUOUS
 10
11.8766747509
 20
22.3213883311
 11
11.8504921535
 21
22.4
  0
LINE
  5
34B
100
AcDbEntity
  8
0
100
AcDbLine
 62
253
  6
CONTINUOUS
 10
21.3
 20
-22.3737961104
 11
21.3
 21
-24.0
  0
LINE
  5
34C
100
AcDbEntity
  8
0
100
AcDbLine
 62
253
  6
CONTINUOUS
 10
21.3
 20
22.3737961104
 11
21.3
 21
24.0
  0
LINE
  5
34D
100
AcDbEntity
  8
0
100
AcDbLine
 62
7
  6
CONTINUOUS
 10
21.5
 20
-23.7999966153
 11
21.5
 21
-22.3842776662
  0
LINE
  5
34E
100
AcDbEntity
  8
0
100
AcDbLine
 62
7
  6
CONTINUOUS
 10
21.5
 20
22.3842776662
 11
21.5
 21
23.7999966153
  0
LINE
  5
34F
100
AcDbEntity
  8
0
100
AcDbLine
 62
7
  6
CONTINUOUS
 10
18.05
 20
-22.4
 11
18.0587267447
 21
-22.3213883311
  0
LINE
  5
350
100
AcDbEntity
  8
RACCORDO
100
AcDbLine
 62
7
  6
CONTINUOUS
 10
-33.0001713375
 20
22.1
 11
33.0001713375
 21
22.1
  0
LINE
  5
351
100
AcDbEntity
  8
0
100
AcDbLine
 62
7
  6
CONTINUOUS
 10
33.1233252491
 20
22.3213883311
 11
32.3927234819
 21
22.3213883311
  0
LINE
  5
352
100
AcDbEntity
  8
0
100
AcDbLine
 62
7
  6
CONTINUOUS
 10
30.0072765181
 20
22.3213883311
 11
26.9412732553
 21
22.3213883311
  0
LINE
  5
353
100
AcDbEntity
  8
0
100
AcDbLine
 62
7
  6
CONTINUOUS
 10
26.0
 20
22.3213883311
 11
19.0
 21
22.3213883311
  0
LINE
  5
354
100
AcDbEntity
  8
0
100
AcDbLine
 62
7
  6
CONTINUOUS
 10
18.0587267447
 20
22.3213883311
 11
14.9927234819
 21
22.3213883311
  0
LINE
  5
355
100
AcDbEntity
  8
0
100
AcDbLine
 62
7
  6
CONTINUOUS
 10
12.6072765181
 20
22.3213883311
 11
11.8766747509
 21
22.3213883311
  0
LINE
  5
356
100
AcDbEntity
  8
0
100
AcDbLine
 62
7
  6
CONTINUOUS
 10
-11.8766747509
 20
22.3213883311
 11
-12.6072765181
 21
22.3213883311
  0
LINE
  5
357
100
AcDbEntity
  8
0
100
AcDbLine
 62
7
  6
CONTINUOUS
 10
-14.9927234819
 20
22.3213883311
 11
-18.0587267447
 21
22.3213883311
  0
LINE
  5
358
100
AcDbEntity
  8
0
100
AcDbLine
 62
7
  6
CONTINUOUS
 10
-19.0
 20
22.3213883311
 11
-26.0
 21
22.3213883311
  0
LINE
  5
359
100
AcDbEntity
  8
0
100
AcDbLine
 62
7
  6
CONTINUOUS
 10
-26.9412732553
 20
22.3213883311
 11
-30.0072765181
 21
22.3213883311
  0
LINE
  5
35A
100
AcDbEntity
  8
0
100
AcDbLine
 62
7
  6
CONTINUOUS
 10
-32.3927234819
 20
22.3213883311
 11
-33.1233252491
 21
22.3213883311
  0
LINE
  5
35B
100
AcDbEntity
  8
0
100
AcDbLine
 62
7
  6
CONTINUOUS
 10
26.0
 20
22.3737961104
 11
23.7
 21
22.3737961104
  0
LINE
  5
35C
100
AcDbEntity
  8
0
100
AcDbLine
 62
7
  6
CONTINUOUS
 10
21.3
 20
22.3737961104
 11
19.0
 21
22.3737961104
  0
LINE
  5
35D
100
AcDbEntity
  8
0
100
AcDbLine
 62
7
  6
CONTINUOUS
 10
-19.0
 20
22.3737961104
 11
-21.3
 21
22.3737961104
  0
LINE
  5
35E
100
AcDbEntity
  8
0
100
AcDbLine
 62
7
  6
CONTINUOUS
 10
-23.7
 20
22.3737961104
 11
-26.0
 21
22.3737961104
  0
LINE
  5
35F
100
AcDbEntity
  8
0
100
AcDbLine
 62
7
  6
CONTINUOUS
 10
18.0587267447
 20
22.3213883311
 11
18.05
 21
22.4
  0
LINE
  5
360
100
AcDbEntity
  8
0
100
AcDbLine
 62
7
  6
CONTINUOUS
 10
23.5
 20
23.7999966153
 11
23.5
 21
22.3842776662
  0
LINE
  5
361
100
AcDbEntity
  8
0
100
AcDbLine
 62
7
  6
CONTINUOUS
 10
23.5
 20
-22.3842776662
 11
23.5
 21
-23.7999966153
  0
LINE
  5
362
100
AcDbEntity
  8
0
100
AcDbLine
 62
253
  6
CONTINUOUS
 10
23.7
 20
-22.3737961104
 11
23.7
 21
-24.0
  0
LINE
  5
363
100
AcDbEntity
  8
0
100
AcDbLine
 62
253
  6
CONTINUOUS
 10
23.7
 20
22.3737961104
 11
23.7
 21
24.0
  0
LINE
  5
364
100
AcDbEntity
  8
0
100
AcDbLine
 62
7
  6
CONTINUOUS
 10
26.95
 20
22.4
 11
26.9412732553
 21
22.3213883311
  0
LINE
  5
365
100
AcDbEntity
  8
0
100
AcDbLine
 62
253
  6
CONTINUOUS
 10
33.1495078465
 20
22.4
 11
33.1233252491
 21
22.3213883311
  0
LINE
  5
366
100
AcDbEntity
  8
0
100
AcDbLine
 62
253
  6
CONTINUOUS
 10
33.6491272468
 20
21.8997711479
 11
33.6229446494
 21
21.821159479
  0
LINE
  5
367
100
AcDbEntity
  8
0
100
AcDbLine
 62
7
  6
CONTINUOUS
 10
33.1504426895
 20
22.4
 11
32.65
 21
22.4
  0
LINE
  5
368
100
AcDbEntity
  8
0
100
AcDbLine
 62
7
  6
CONTINUOUS
 10
29.75
 20
22.4
 11
26.95
 21
22.4
  0
LINE
  5
369
100
AcDbEntity
  8
0
100
AcDbLine
 62
7
  6
CONTINUOUS
 10
-23.5
 20
22.4
 11
-21.5
 21
22.4
  0
LINE
  5
36A
100
AcDbEntity
  8
0
100
AcDbLine
 62
7
  6
CONTINUOUS
 10
18.05
 20
22.4
 11
15.25
 21
22.4
  0
LINE
  5
36B
100
AcDbEntity
  8
0
100
AcDbLine
 62
7
  6
CONTINUOUS
 10
12.35
 20
22.4
 11
11.8495573105
 21
22.4
  0
LINE
  5
36C
100
AcDbEntity
  8
0
100
AcDbLine
 62
7
  6
CONTINUOUS
 10
-11.8495573105
 20
22.4
 11
-12.35
 21
22.4
  0
LINE
  5
36D
100
AcDbEntity
  8
0
100
AcDbLine
 62
7
  6
CONTINUOUS
 10
-15.25
 20
22.4
 11
-18.05
 21
22.4
  0
LINE
  5
36E
100
AcDbEntity
  8
0
100
AcDbLine
 62
7
  6
CONTINUOUS
 10
21.5
 20
22.4
 11
23.5
 21
22.4
  0
LINE
  5
36F
100
AcDbEntity
  8
0
100
AcDbLine
 62
7
  6
CONTINUOUS
 10
-26.95
 20
22.4
 11
-29.75
 21
22.4
  0
LINE
  5
370
100
AcDbEntity
  8
0
100
AcDbLine
 62
7
  6
CONTINUOUS
 10
-32.65
 20
22.4
 11
-33.1504426895
 21
22.4
  0
LINE
  5
371
100
AcDbEntity
  8
0
100
AcDbLine
 62
7
  6
CONTINUOUS
 10
-32.3927234819
 20
23.1226497308
 11
-30.0072765181
 21
23.1226497308
  0
LINE
  5
372
100
AcDbEntity
  8
0
100
AcDbLine
 62
7
  6
CONTINUOUS
 10
32.3927234819
 20
23.1226497308
 11
30.0072765181
 21
23.1226497308
  0
LINE
  5
373
100
AcDbEntity
  8
0
100
AcDbLine
 62
7
  6
CONTINUOUS
 10
12.6072765181
 20
23.1226497308
 11
14.9927234819
 21
23.1226497308
  0
LINE
  5
374
100
AcDbEntity
  8
0
100
AcDbLine
 62
7
  6
CONTINUOUS
 10
-12.6072765181
 20
23.1226497308
 11
-14.9927234819
 21
23.1226497308
  0
LINE
  5
375
100
AcDbEntity
  8
0
100
AcDbLine
 62
253
  6
CONTINUOUS
 10
-32.3869056521
 20
23.6278312164
 11
-30.0130943479
 21
23.6278312164
  0
LINE
  5
376
100
AcDbEntity
  8
0
100
AcDbLine
 62
253
  6
CONTINUOUS
 10
-14.9869056521
 20
23.6278312164
 11
-12.6130943479
 21
23.6278312164
  0
LINE
  5
377
100
AcDbEntity
  8
0
100
AcDbLine
 62
253
  6
CONTINUOUS
 10
12.6130943479
 20
23.6278312164
 11
14.9869056521
 21
23.6278312164
  0
LINE
  5
378
100
AcDbEntity
  8
0
100
AcDbLine
 62
253
  6
CONTINUOUS
 10
30.0130943479
 20
23.6278312164
 11
32.3869056521
 21
23.6278312164
  0
LINE
  5
379
100
AcDbEntity
  8
0
100
AcDbLine
 62
253
  6
CONTINUOUS
 10
26.0
 20
23.7982512664
 11
23.5
 21
23.7982512664
  0
LINE
  5
37A
100
AcDbEntity
  8
0
100
AcDbLine
 62
253
  6
CONTINUOUS
 10
19.0
 20
23.7982512664
 11
21.5
 21
23.7982512664
  0
LINE
  5
37B
100
AcDbEntity
  8
0
100
AcDbLine
 62
253
  6
CONTINUOUS
 10
-19.0
 20
23.7982512664
 11
-21.5
 21
23.7982512664
  0
LINE
  5
37C
100
AcDbEntity
  8
0
100
AcDbLine
 62
253
  6
CONTINUOUS
 10
-23.5
 20
23.7982512664
 11
-26.0
 21
23.7982512664
  0
LINE
  5
37D
100
AcDbEntity
  8
0
100
AcDbLine
 62
253
  6
CONTINUOUS
 10
12.3630985787
 20
23.8443375673
 11
15.2369014213
 21
23.8443375673
  0
LINE
  5
37E
100
AcDbEntity
  8
0
100
AcDbLine
 62
253
  6
CONTINUOUS
 10
-12.3630985787
 20
23.8443375673
 11
-15.2369014213
 21
23.8443375673
  0
LINE
  5
37F
100
AcDbEntity
  8
0
100
AcDbLine
 62
253
  6
CONTINUOUS
 10
29.7630985787
 20
23.8443375673
 11
32.6369014213
 21
23.8443375673
  0
LINE
  5
380
100
AcDbEntity
  8
0
100
AcDbLine
 62
253
  6
CONTINUOUS
 10
-29.7630985787
 20
23.8443375673
 11
-32.6369014213
 21
23.8443375673
  0
LINE
  5
381
100
AcDbEntity
  8
0
100
AcDbLine
 62
7
  6
CONTINUOUS
 10
-26.9412732553
 20
23.9912732553
 11
-26.0
 21
23.9912732553
  0
LINE
  5
382
100
AcDbEntity
  8
0
100
AcDbLine
 62
7
  6
CONTINUOUS
 10
-19.0
 20
23.9912732553
 11
-18.0587267447
 21
23.9912732553
  0
LINE
  5
383
100
AcDbEntity
  8
0
100
AcDbLine
 62
7
  6
CONTINUOUS
 10
18.0587267447
 20
23.9912732553
 11
19.0
 21
23.9912732553
  0
LINE
  5
384
100
AcDbEntity
  8
0
100
AcDbLine
 62
7
  6
CONTINUOUS
 10
26.0
 20
23.9912732553
 11
26.9412732553
 21
23.9912732553
  0
LINE
  5
385
100
AcDbEntity
  8
0
100
AcDbLine
 62
253
  6
CONTINUOUS
 10
26.0
 20
23.9982478817
 11
23.7
 21
23.9982478817
  0
LINE
  5
386
100
AcDbEntity
  8
0
100
AcDbLine
 62
253
  6
CONTINUOUS
 10
21.3
 20
23.9982478817
 11
19.0
 21
23.9982478817
  0
LINE
  5
387
100
AcDbEntity
  8
0
100
AcDbLine
 62
253
  6
CONTINUOUS
 10
-19.0
 20
23.9982478817
 11
-21.3
 21
23.9982478817
  0
LINE
  5
388
100
AcDbEntity
  8
0
100
AcDbLine
 62
253
  6
CONTINUOUS
 10
-23.7
 20
23.9982478817
 11
-26.0
 21
23.9982478817
  0
LINE
  5
389
100
AcDbEntity
  8
0
100
AcDbLine
 62
7
  6
CONTINUOUS
 10
-26.95
 20
24.0
 11
-23.7
 21
24.0
  0
LINE
  5
38A
100
AcDbEntity
  8
0
100
AcDbLine
 62
7
  6
CONTINUOUS
 10
-21.3
 20
24.0
 11
-18.05
 21
24.0
  0
LINE
  5
38B
100
AcDbEntity
  8
0
100
AcDbLine
 62
7
  6
CONTINUOUS
 10
18.05
 20
24.0
 11
21.3
 21
24.0
  0
LINE
  5
38C
100
AcDbEntity
  8
0
100
AcDbLine
 62
7
  6
CONTINUOUS
 10
23.7
 20
24.0
 11
26.95
 21
24.0
  0
LINE
  5
38D
100
AcDbEntity
  8
0
100
AcDbLine
 62
253
  6
CONTINUOUS
 10
12.3630985787
 20
24.2369056521
 11
15.2369014213
 21
24.2369056521
  0
LINE
  5
38E
100
AcDbEntity
  8
0
100
AcDbLine
 62
253
  6
CONTINUOUS
 10
-12.3630985787
 20
24.2369056521
 11
-15.2369014213
 21
24.2369056521
  0
LINE
  5
38F
100
AcDbEntity
  8
0
100
AcDbLine
 62
253
  6
CONTINUOUS
 10
29.7630985787
 20
24.2369056521
 11
32.6369014213
 21
24.2369056521
  0
LINE
  5
390
100
AcDbEntity
  8
0
100
AcDbLine
 62
253
  6
CONTINUOUS
 10
-29.7630985787
 20
24.2369056521
 11
-32.6369014213
 21
24.2369056521
  0
LINE
  5
391
100
AcDbEntity
  8
0
100
AcDbLine
 62
253
  6
CONTINUOUS
 10
32.3869056521
 20
24.4869014213
 11
30.0130943479
 21
24.4869014213
  0
LINE
  5
392
100
AcDbEntity
  8
0
100
AcDbLine
 62
253
  6
CONTINUOUS
 10
14.9869056521
 20
24.4869014213
 11
12.6130943479
 21
24.4869014213
  0
LINE
  5
393
100
AcDbEntity
  8
0
100
AcDbLine
 62
253
  6
CONTINUOUS
 10
-12.6130943479
 20
24.4869014213
 11
-14.9869056521
 21
24.4869014213
  0
LINE
  5
394
100
AcDbEntity
  8
0
100
AcDbLine
 62
253
  6
CONTINUOUS
 10
-30.0130943479
 20
24.4869014213
 11
-32.3869056521
 21
24.4869014213
  0
LINE
  5
395
100
AcDbEntity
  8
0
100
AcDbLine
 62
7
  6
CONTINUOUS
 10
32.4000042308
 20
24.5
 11
29.9999957692
 21
24.5
  0
LINE
  5
396
100
AcDbEntity
  8
0
100
AcDbLine
 62
7
  6
CONTINUOUS
 10
15.0000042308
 20
24.5
 11
12.5999957692
 21
24.5
  0
LINE
  5
397
100
AcDbEntity
  8
0
100
AcDbLine
 62
7
  6
CONTINUOUS
 10
-12.5999957692
 20
24.5
 11
-15.0000042308
 21
24.5
  0
LINE
  5
398
100
AcDbEntity
  8
0
100
AcDbLine
 62
7
  6
CONTINUOUS
 10
-29.9999957692
 20
24.5
 11
-32.4000042308
 21
24.5
  0
LINE
  5
399
100
AcDbEntity
  8
0
100
AcDbLine
 62
253
  6
CONTINUOUS
 10
33.1233252491
 20
-22.3213883311
 11
33.1495078465
 21
-22.4
  0
LINE
  5
39A
100
AcDbEntity
  8
0
100
AcDbLine
 62
253
  6
CONTINUOUS
 10
33.6229446494
 20
-21.821159479
 11
33.6491272468
 21
-21.8997711479
  0
LINE
  5
39B
100
AcDbEntity
  8
0
100
AcDbLine
 62
7
  6
CONTINUOUS
 10
26.9412732553
 20
-22.3213883311
 11
26.95
 21
-22.4
  0
LINE
  5
39C
100
AcDbEntity
  8
0
100
AcDbLine
 62
7
  6
CONTINUOUS
 10
26.0
 20
23.9982478817
 11
26.0
 21
22.3213883311
  0
LINE
  5
39D
100
AcDbEntity
  8
0
100
AcDbLine
 62
7
  6
CONTINUOUS
 10
26.0
 20
-22.3213883311
 11
26.0
 21
-23.9982478817
  0
LINE
  5
39E
100
AcDbEntity
  8
0
100
AcDbLine
 62
7
  6
CONTINUOUS
 10
26.9412732553
 20
-23.9912732553
 11
26.9412732553
 21
-22.3213883311
  0
LINE
  5
39F
100
AcDbEntity
  8
0
100
AcDbLine
 62
7
  6
CONTINUOUS
 10
26.9412732553
 20
22.3213883311
 11
26.9412732553
 21
23.9912732553
  0
LINE
  5
3A0
100
AcDbEntity
  8
0
100
AcDbLine
 62
7
  6
CONTINUOUS
 10
26.95
 20
-22.4
 11
26.95
 21
-24.0
  0
LINE
  5
3A1
100
AcDbEntity
  8
0
100
AcDbLine
 62
7
  6
CONTINUOUS
 10
26.95
 20
22.4
 11
26.95
 21
24.0
  0
LINE
  5
3A2
100
AcDbEntity
  8
0
100
AcDbLine
 62
253
  6
CONTINUOUS
 10
12.3630985787
 20
-24.2369056521
 11
12.35
 21
-24.2500042308
  0
LINE
  5
3A3
100
AcDbEntity
  8
0
100
AcDbLine
 62
253
  6
CONTINUOUS
 10
12.6130943479
 20
-24.4869014213
 11
12.5999957692
 21
-24.5
  0
LINE
  5
3A4
100
AcDbEntity
  8
0
100
AcDbLine
 62
253
  6
CONTINUOUS
 10
12.3630985787
 20
24.2369056521
 11
12.35
 21
24.2500042308
  0
LINE
  5
3A5
100
AcDbEntity
  8
0
100
AcDbLine
 62
253
  6
CONTINUOUS
 10
12.6130943479
 20
24.4869014213
 11
12.5999957692
 21
24.5
  0
LINE
  5
3A6
100
AcDbEntity
  8
0
100
AcDbLine
 62
253
  6
CONTINUOUS
 10
29.7630985787
 20
-23.8443375673
 11
29.7572807489
 21
-23.2669872981
  0
LINE
  5
3A7
100
AcDbEntity
  8
0
100
AcDbLine
 62
253
  6
CONTINUOUS
 10
30.0130943479
 20
-23.6278312164
 11
30.0080037468
 21
-23.1226497308
  0
LINE
  5
3A8
100
AcDbEntity
  8
0
100
AcDbLine
 62
7
  6
CONTINUOUS
 10
29.75
 20
-22.4
 11
29.75
 21
-24.2500042308
  0
LINE
  5
3A9
100
AcDbEntity
  8
0
100
AcDbLine
 62
7
  6
CONTINUOUS
 10
29.75
 20
22.4
 11
29.75
 21
24.2500042308
  0
LINE
  5
3AA
100
AcDbEntity
  8
0
100
AcDbLine
 62
253
  6
CONTINUOUS
 10
29.7572807489
 20
23.2669872981
 11
29.7572807489
 21
22.3344140523
  0
LINE
  5
3AB
100
AcDbEntity
  8
0
100
AcDbLine
 62
253
  6
CONTINUOUS
 10
29.7572807489
 20
-22.3344140523
 11
29.7572807489
 21
-23.2669872981
  0
LINE
  5
3AC
100
AcDbEntity
  8
0
100
AcDbLine
 62
253
  6
CONTINUOUS
 10
29.7630985787
 20
24.2369056521
 11
29.7630985787
 21
23.8443375673
  0
LINE
  5
3AD
100
AcDbEntity
  8
0
100
AcDbLine
 62
253
  6
CONTINUOUS
 10
29.7630985787
 20
-23.8443375673
 11
29.7630985787
 21
-24.2369056521
  0
LINE
  5
3AE
100
AcDbEntity
  8
0
100
AcDbLine
 62
253
  6
CONTINUOUS
 10
30.0072765181
 20
23.1226497308
 11
30.0072765181
 21
22.3213883311
  0
LINE
  5
3AF
100
AcDbEntity
  8
0
100
AcDbLine
 62
253
  6
CONTINUOUS
 10
30.0072765181
 20
-22.3213883311
 11
30.0072765181
 21
-23.1226497308
  0
LINE
  5
3B0
100
AcDbEntity
  8
0
100
AcDbLine
 62
253
  6
CONTINUOUS
 10
30.0130943479
 20
-23.6278312164
 11
30.0130943479
 21
-24.4869014213
  0
LINE
  5
3B1
100
AcDbEntity
  8
0
100
AcDbLine
 62
253
  6
CONTINUOUS
 10
30.0130943479
 20
23.6278312164
 11
30.0130943479
 21
24.4869014213
  0
LINE
  5
3B2
100
AcDbEntity
  8
0
100
AcDbLine
 62
253
  6
CONTINUOUS
 10
29.7572807489
 20
23.2669872981
 11
29.7630985787
 21
23.8443375673
  0
LINE
  5
3B3
100
AcDbEntity
  8
0
100
AcDbLine
 62
253
  6
CONTINUOUS
 10
30.0080037468
 20
23.1226497308
 11
30.0130943479
 21
23.6278312164
  0
LINE
  5
3B4
100
AcDbEntity
  8
0
100
AcDbLine
 62
7
  6
CONTINUOUS
 10
32.65
 20
22.4
 11
32.6427192511
 21
22.3344140523
  0
LINE
  5
3B5
100
AcDbEntity
  8
0
100
AcDbLine
 62
7
  6
CONTINUOUS
 10
18.0587267447
 20
-23.9912732553
 11
18.05
 21
-24.0
  0
LINE
  5
3B6
100
AcDbEntity
  8
0
100
AcDbLine
 62
7
  6
CONTINUOUS
 10
18.05
 20
24.0
 11
18.0587267447
 21
23.9912732553
  0
LINE
  5
3B7
100
AcDbEntity
  8
0
100
AcDbLine
 62
7
  6
CONTINUOUS
 10
32.65
 20
-22.4
 11
32.6427192511
 21
-22.3344140523
  0
LINE
  5
3B8
100
AcDbEntity
  8
0
100
AcDbLine
 62
253
  6
CONTINUOUS
 10
32.3869056521
 20
23.6278312164
 11
32.3919962532
 21
23.1226497308
  0
LINE
  5
3B9
100
AcDbEntity
  8
0
100
AcDbLine
 62
253
  6
CONTINUOUS
 10
32.6369014213
 20
23.8443375673
 11
32.6427192511
 21
23.2669872981
  0
LINE
  5
3BA
100
AcDbEntity
  8
DRAFT
100
AcDbLine
 62
7
  6
CONTINUOUS
 10
33.6229446494
 20
-16.6
 11
33.595044505
 21
0.0
  0
LINE
  5
3BB
100
AcDbEntity
  8
0
100
AcDbLine
 62
253
  6
CONTINUOUS
 10
32.3869056521
 20
-23.6278312164
 11
32.3869056521
 21
-24.4869014213
  0
LINE
  5
3BC
100
AcDbEntity
  8
0
100
AcDbLine
 62
253
  6
CONTINUOUS
 10
32.3869056521
 20
23.6278312164
 11
32.3869056521
 21
24.4869014213
  0
LINE
  5
3BD
100
AcDbEntity
  8
0
100
AcDbLine
 62
253
  6
CONTINUOUS
 10
32.3927234819
 20
-23.1226497308
 11
32.3927234819
 21
-22.3213883311
  0
LINE
  5
3BE
100
AcDbEntity
  8
0
100
AcDbLine
 62
253
  6
CONTINUOUS
 10
32.3927234819
 20
22.3213883311
 11
32.3927234819
 21
23.1226497308
  0
LINE
  5
3BF
100
AcDbEntity
  8
0
100
AcDbLine
 62
253
  6
CONTINUOUS
 10
32.6369014213
 20
-24.2369056521
 11
32.6369014213
 21
-23.8443375673
  0
LINE
  5
3C0
100
AcDbEntity
  8
0
100
AcDbLine
 62
253
  6
CONTINUOUS
 10
32.6369014213
 20
23.8443375673
 11
32.6369014213
 21
24.2369056521
  0
LINE
  5
3C1
100
AcDbEntity
  8
0
100
AcDbLine
 62
253
  6
CONTINUOUS
 10
32.6427192511
 20
-23.2669872981
 11
32.6427192511
 21
-22.3344140523
  0
LINE
  5
3C2
100
AcDbEntity
  8
0
100
AcDbLine
 62
253
  6
CONTINUOUS
 10
32.6427192511
 20
22.3344140523
 11
32.6427192511
 21
23.2669872981
  0
LINE
  5
3C3
100
AcDbEntity
  8
0
100
AcDbLine
 62
7
  6
CONTINUOUS
 10
32.65
 20
-22.4
 11
32.65
 21
-24.2500042308
  0
LINE
  5
3C4
100
AcDbEntity
  8
0
100
AcDbLine
 62
7
  6
CONTINUOUS
 10
32.65
 20
22.4
 11
32.65
 21
24.2500042308
  0
LINE
  5
3C5
100
AcDbEntity
  8
RACCORDO
100
AcDbLine
 62
7
  6
CONTINUOUS
 10
33.5
 20
-21.6001713375
 11
33.5
 21
21.6001713375
  0
LINE
  5
3C6
100
AcDbEntity
  8
DRAFT
100
AcDbLine
 62
7
  6
CONTINUOUS
 10
33.6229446494
 20
21.821159479
 11
33.6229446494
 21
16.6
  0
LINE
  5
3C7
100
AcDbEntity
  8
DRAFT
100
AcDbLine
 62
7
  6
CONTINUOUS
 10
33.6229446494
 20
-16.6
 11
33.6229446494
 21
-21.821159479
  0
LINE
  5
3C8
100
AcDbEntity
  8
0
100
AcDbLine
 62
7
  6
CONTINUOUS
 10
33.6491272468
 20
21.8997711479
 11
33.6491272468
 21
-21.8997711479
  0
LINE
  5
3C9
100
AcDbEntity
  8
0
100
AcDbLine
 62
7
  6
CONTINUOUS
 10
33.6504363434
 20
21.900016923
 11
33.6504363434
 21
-21.900016923
  0
LINE
  5
3CA
100
AcDbEntity
  8
DRAFT
100
AcDbLine
 62
7
  6
CONTINUOUS
 10
33.595044505
 20
0.0
 11
33.6229446494
 21
16.6
  0
LINE
  5
3CB
100
AcDbEntity
  8
0
100
AcDbLine
 62
253
  6
CONTINUOUS
 10
32.3919962532
 20
-23.1226497308
 11
32.3869056521
 21
-23.6278312164
  0
LINE
  5
3CC
100
AcDbEntity
  8
0
100
AcDbLine
 62
253
  6
CONTINUOUS
 10
32.6427192511
 20
-23.2669872981
 11
32.6369014213
 21
-23.8443375673
  0
LINE
  5
3CD
100
AcDbEntity
  8
0
100
AcDbLine
 62
7
  6
CONTINUOUS
 10
29.75
 20
-22.4
 11
29.7572807489
 21
-22.3344140523
  0
LWPOLYLINE
  5
3CE
100
AcDbEntity
  8
0
100
AcDbPolyline
 62
7
  6
CONTINUOUS
 90
10
 70
0
 43
0.3500000006
 10
45.7483960876
 20
0.4285709152
 10
44.8912536163
 20
1.2857133865
 10
44.034111145
 20
1.5000001373
 10
43.1769686737
 20
1.5000001373
 10
42.7483951721
 20
1.0714289017
 10
42.7483951721
 20
0.4285709152
 10
43.1769686737
 20
-0.0000003204
 10
44.034111145
 20
-0.0000003204
 10
44.4626801147
 20
0.4285709152
 10
44.4626801147
 20
1.3571423035
  0
LINE
  5
3CF
100
AcDbEntity
  8
0
100
AcDbLine
 62
7
  6
CONTINUOUS
 10
29.75
 20
22.4
 11
29.7572807489
 21
22.3344140523
  0
LWPOLYLINE
  5
3D0
100
AcDbEntity
  8
0
100
AcDbPolyline
 62
7
  6
CONTINUOUS
 90
6
 70
0
 43
0.3500000006
 10
0.7508398976
 20
35.8444998779
 10
1.8222685533
 20
35.8444998779
 10
2.0365541711
 20
36.0587888947
 10
2.0365541711
 20
37.1302158508
 10
1.6079827938
 20
37.5587848206
 10
1.1794113457
 20
37.5587848206
  0
LINE
  5
3D1
100
AcDbEntity
  8
0
100
AcDbLine
 62
253
  6
CONTINUOUS
 10
29.7630985787
 20
-24.2369056521
 11
29.75
 21
-24.2500042308
  0
LINE
  5
3D2
100
AcDbEntity
  8
0
100
AcDbLine
 62
253
  6
CONTINUOUS
 10
30.0130943479
 20
-24.4869014213
 11
29.9999957692
 21
-24.5
  0
LINE
  5
3D3
100
AcDbEntity
  8
0
100
AcDbLine
 62
253
  6
CONTINUOUS
 10
29.7630985787
 20
24.2369056521
 11
29.75
 21
24.2500042308
  0
LINE
  5
3D4
100
AcDbEntity
  8
0
100
AcDbLine
 62
253
  6
CONTINUOUS
 10
30.0130943479
 20
24.4869014213
 11
29.9999957692
 21
24.5
  0
LWPOLYLINE
  5
3D5
100
AcDbEntity
  8
0
100
AcDbPolyline
 62
7
  6
CONTINUOUS
 90
3
 70
0
 43
0.3500000006
 10
45.1055381012
 20
-0.8571427917
 10
45.1055381012
 20
-2.3571432495
 10
42.7483951721
 20
-1.7142852631
  0
LWPOLYLINE
  5
3D6
100
AcDbEntity
  8
0
100
AcDbPolyline
 62
7
  6
CONTINUOUS
 90
5
 70
0
 43
0.3500000006
 10
-55.6346086578
 20
47.5587878723
 10
-55.2774663391
 20
47.7730723572
 10
-55.2774663391
 20
48.4159303436
 10
-55.6346086578
 20
48.8444993134
 10
-56.4917511292
 20
48.8444993134
  0
LINE
  5
3D7
100
AcDbEntity
  8
0
100
AcDbLine
 62
7
  6
CONTINUOUS
 10
-59.4846015333
 20
-24.5
 11
-58.7331471004
 21
-24.495628166
  0
LINE
  5
3D8
100
AcDbEntity
  8
0
100
AcDbLine
 62
253
  6
CONTINUOUS
 10
-59.4846015333
 20
-24.2500042308
 11
-58.7331471004
 21
-24.2456323968
  0
LINE
  5
3D9
100
AcDbEntity
  8
0
100
AcDbLine
 62
7
  6
CONTINUOUS
 10
-53.9816926676
 20
-23.9679850128
 11
-58.4846015333
 21
-23.9941821702
  0
LINE
  5
3DA
100
AcDbEntity
  8
0
100
AcDbLine
 62
253
  6
CONTINUOUS
 10
-58.4846015333
 20
-24.2456323968
 11
-58.7331471004
 21
-24.2456323968
  0
LINE
  5
3DB
100
AcDbEntity
  8
0
100
AcDbLine
 62
253
  6
CONTINUOUS
 10
-61.9846015333
 20
-24.2369056521
 11
-61.7360559661
 21
-24.2369056521
  0
LINE
  5
3DC
100
AcDbEntity
  8
0
100
AcDbLine
 62
253
  6
CONTINUOUS
 10
-61.9846015333
 20
-23.8443375673
 11
-61.7360559661
 21
-23.8443375673
  0
LINE
  5
3DD
100
AcDbEntity
  8
0
100
AcDbLine
 62
253
  6
CONTINUOUS
 10
-58.4846015333
 20
-23.8443375673
 11
-58.7331471004
 21
-23.8443375673
  0
LINE
  5
3DE
100
AcDbEntity
  8
0
100
AcDbLine
 62
7
  6
CONTINUOUS
 10
-61.7360559661
 20
-24.4869014213
 11
-59.4846015333
 21
-24.5
  0
LINE
  5
3DF
100
AcDbEntity
  8
0
100
AcDbLine
 62
253
  6
CONTINUOUS
 10
-61.7360559661
 20
-24.2369056521
 11
-59.4846015333
 21
-24.2500042308
  0
LWPOLYLINE
  5
3E0
100
AcDbEntity
  8
0
100
AcDbPolyline
 62
7
  6
CONTINUOUS
 90
3
 70
0
 43
0.3500000006
 10
-54.6988882599
 20
37.9873583221
 10
-53.8417457886
 20
38.8445007935
 10
-53.8417457886
 20
35.8444998779
  0
LINE
  5
3E1
100
AcDbEntity
  8
0
100
AcDbLine
 62
7
  6
CONTINUOUS
 10
-48.4787838019
 20
-22.3359700255
 11
-59.4846015333
 21
-22.4
  0
LINE
  5
3E2
100
AcDbEntity
  8
0
100
AcDbLine
 62
253
  6
CONTINUOUS
 10
-59.4846015333
 20
-21.900016923
 11
-58.4846015333
 21
-21.8941990932
  0
LINE
  5
3E3
100
AcDbEntity
  8
RACCORDO
100
AcDbLine
 62
7
  6
CONTINUOUS
 10
-63.0846015333
 20
-22.1
 11
-68.0755211452
 21
-21.9693081705
  0
LINE
  5
3E4
100
AcDbEntity
  8
0
100
AcDbLine
 62
7
  6
CONTINUOUS
 10
-60.9846015333
 20
-22.3213883311
 11
-59.4846015333
 21
-22.4
  0
LINE
  5
3E5
100
AcDbEntity
  8
0
100
AcDbLine
 62
253
  6
CONTINUOUS
 10
-60.9846015333
 20
-21.821159479
 11
-59.4846015333
 21
-21.8997711479
  0
LWPOLYLINE
  5
3E6
100
AcDbEntity
  8
0
100
AcDbPolyline
 62
7
  6
CONTINUOUS
 90
3
 70
0
 43
0.3500000006
 10
-52.9846033173
 20
37.9873583221
 10
-52.1274608459
 20
38.8445007935
 10
-52.1274608459
 20
35.8444998779
  0
LINE
  5
3E7
100
AcDbEntity
  8
0
100
AcDbLine
 62
253
  6
CONTINUOUS
 10
-59.4846015333
 20
23.4104851482
 11
-58.7331471004
 21
23.8443375673
  0
LINE
  5
3E8
100
AcDbEntity
  8
RACCORDO
100
AcDbLine
 62
253
  6
CONTINUOUS
 10
-68.8627867209
 20
-20.8301110804
 11
-68.3764499779
 21
-20.8090933502
  0
LINE
  5
3E9
100
AcDbEntity
  8
0
100
AcDbLine
 62
7
  6
CONTINUOUS
 10
-47.4846015333
 20
-20.9
 11
-57.4846015333
 21
-20.9
  0
LINE
  5
3EA
100
AcDbEntity
  8
0
100
AcDbLine
 62
7
  6
CONTINUOUS
 10
-47.97587533
 20
-21.5834304982
 11
-57.4846015333
 21
-21.4174550649
  0
LINE
  5
3EB
100
AcDbEntity
  8
RACCORDO
100
AcDbLine
 62
253
  6
CONTINUOUS
 10
-63.0846015333
 20
-21.6001713375
 11
-67.6947935487
 21
-21.479449211
  0
LINE
  5
3EC
100
AcDbEntity
  8
0
100
AcDbLine
 62
253
  6
CONTINUOUS
 10
-58.7331471004
 20
-23.8443375673
 11
-59.4846015333
 21
-23.4104851482
  0
LINE
  5
3ED
100
AcDbEntity
  8
0
100
AcDbLine
 62
7
  6
CONTINUOUS
 10
-59.4846015333
 20
23.1226497308
 11
-58.6096015333
 21
23.6278312164
  0
LINE
  5
3EE
100
AcDbEntity
  8
RACCORDO
100
AcDbLine
 62
253
  6
CONTINUOUS
 10
-47.681111052
 20
-19.0166572575
 11
-47.4846015333
 21
-19.0166572575
  0
LINE
  5
3EF
100
AcDbEntity
  8
RACCORDO
100
AcDbLine
 62
7
  6
CONTINUOUS
 10
-47.6828562262
 20
-19.7942654032
 11
-57.4846015333
 21
-19.7087268678
  0
LINE
  5
3F0
100
AcDbEntity
  8
0
100
AcDbLine
 62
7
  6
CONTINUOUS
 10
-58.4846015333
 20
-18.5082905244
 11
-57.4846015333
 21
-18.5170173922
  0
LINE
  5
3F1
100
AcDbEntity
  8
0
100
AcDbLine
 62
7
  6
CONTINUOUS
 10
-58.6096015333
 20
-23.6278312164
 11
-59.4846015333
 21
-23.1226497308
  0
LINE
  5
3F2
100
AcDbEntity
  8
RACCORDO
100
AcDbLine
 62
7
  6
CONTINUOUS
 10
-60.9846015333
 20
-17.4
 11
-63.0846015333
 21
-17.3633443637
  0
LINE
  5
3F3
100
AcDbEntity
  8
RACCORDO
100
AcDbLine
 62
253
  6
CONTINUOUS
 10
-61.0038770746
 20
-16.399815849
 11
-63.0846015333
 21
-16.3634966685
  0
LINE
  5
3F4
100
AcDbEntity
  8
0
100
AcDbLine
 62
7
  6
CONTINUOUS
 10
-69.4840040147
 20
-15.4999999969
 11
-69.4826035878
 21
-15.4999954037
  0
LWPOLYLINE
  5
3F5
100
AcDbEntity
  8
0
100
AcDbPolyline
 62
7
  6
CONTINUOUS
 90
3
 70
0
 43
0.3500000006
 10
-57.4917514343
 20
46.1302140656
 10
-57.5631826172
 20
45.9159295807
 10
-57.706040451
 20
45.630213913
  0
LINE
  5
3F6
100
AcDbEntity
  8
RACCORDO
100
AcDbLine
 62
7
  6
CONTINUOUS
 10
-57.4846015333
 20
14.9602976573
 11
-47.6161975041
 21
18.5521029837
  0
LINE
  5
3F7
100
AcDbEntity
  8
RACCORDO
100
AcDbLine
 62
7
  6
CONTINUOUS
 10
-47.6161975041
 20
-18.5521029837
 11
-57.4846015333
 21
-14.9602976573
  0
LWPOLYLINE
  5
3F8
100
AcDbEntity
  8
0
100
AcDbPolyline
 62
7
  6
CONTINUOUS
 90
3
 70
0
 10
-69.4841791045
 20
-15.5000005725
 10
-69.404654895
 20
-17.4302575693
 10
-69.2417556826
 20
-20.8322351443
  0
LWPOLYLINE
  5
3F9
100
AcDbEntity
  8
0
100
AcDbPolyline
 62
7
  6
CONTINUOUS
 90
10
 70
0
 10
-69.2417556826
 20
20.8322351444
 10
-69.4049453317
 20
17.4235976143
 10
-69.5416351615
 20
13.9397999012
 10
-69.6479566674
 20
10.4549432575
 10
-69.7238988758
 20
6.9692923196
 10
-69.7694533386
 20
3.4831117774
 10
-69.7846187892
 20
-0.0033334705
 10
-69.7693952283
 20
-3.4897784388
 10
-69.7237826566
 20
-6.9759581423
 10
-69.7142980658
 20
-7.5000004823
  0
LWPOLYLINE
  5
3FA
100
AcDbEntity
  8
0
100
AcDbPolyline
 62
7
  6
CONTINUOUS
 90
13
 70
0
 10
-69.7142980649
 20
-7.5000004823
 10
-69.7819514285
 20
-8.1161364164
 10
-69.8383241152
 20
-8.773613655
 10
-69.878671751
 20
-9.4354922953
 10
-69.9027307417
 20
-10.1016292191
 10
-69.9102209051
 20
-10.7715728259
 10
-69.9008828982
 20
-11.4445619224
 10
-69.8744949165
 20
-12.120090509
 10
-69.8308723215
 20
-12.7978227586
 10
-69.7698427446
 20
-13.477233909
 10
-69.6912335039
 20
-14.1577675066
 10
-69.5948739173
 20
-14.838835368
 10
-69.4841791043
 20
-15.5000005725
  0
LINE
  5
3FB
100
AcDbEntity
  8
DRAFT
100
AcDbLine
 62
7
  6
CONTINUOUS
 10
-60.9846015333
 20
-16.6
 11
-62.5829997333
 21
0.0
  0
LINE
  5
3FC
100
AcDbEntity
  8
RACCORDO
100
AcDbLine
 62
7
  6
CONTINUOUS
 10
-63.0846015333
 20
-22.1
 11
-63.0846015333
 21
22.1
  0
LINE
  5
3FD
100
AcDbEntity
  8
DRAFT
100
AcDbLine
 62
7
  6
CONTINUOUS
 10
-62.5829997333
 20
0.0
 11
-60.9846015333
 21
16.6
  0
LINE
  5
3FE
100
AcDbEntity
  8
0
100
AcDbLine
 62
7
  6
CONTINUOUS
 10
-61.9846015333
 20
-24.2369056521
 11
-61.9846015333
 21
-23.8443375673
  0
LINE
  5
3FF
100
AcDbEntity
  8
0
100
AcDbLine
 62
7
  6
CONTINUOUS
 10
-61.9846015333
 20
23.8443375673
 11
-61.9846015333
 21
24.2369056521
  0
LINE
  5
400
100
AcDbEntity
  8
0
100
AcDbLine
 62
253
  6
CONTINUOUS
 10
-61.7360559661
 20
-24.2369056521
 11
-61.7360559661
 21
-23.8443375673
  0
LINE
  5
401
100
AcDbEntity
  8
0
100
AcDbLine
 62
253
  6
CONTINUOUS
 10
-61.7360559661
 20
23.8443375673
 11
-61.7360559661
 21
24.2369056521
  0
LINE
  5
402
100
AcDbEntity
  8
DRAFT
100
AcDbLine
 62
7
  6
CONTINUOUS
 10
-60.9846015333
 20
21.821159479
 11
-60.9846015333
 21
16.6
  0
LINE
  5
403
100
AcDbEntity
  8
DRAFT
100
AcDbLine
 62
7
  6
CONTINUOUS
 10
-60.9846015333
 20
-16.6
 11
-60.9846015333
 21
-21.821159479
  0
LINE
  5
404
100
AcDbEntity
  8
0
100
AcDbLine
 62
7
  6
CONTINUOUS
 10
-60.9846015333
 20
-21.821159479
 11
-60.9846015333
 21
-23.1226497308
  0
LINE
  5
405
100
AcDbEntity
  8
0
100
AcDbLine
 62
7
  6
CONTINUOUS
 10
-60.9846015333
 20
21.821159479
 11
-60.9846015333
 21
23.1226497308
  0
LINE
  5
406
100
AcDbEntity
  8
0
100
AcDbLine
 62
253
  6
CONTINUOUS
 10
-60.7360559661
 20
-23.2669872981
 11
-60.7360559661
 21
-22.3344140523
  0
LINE
  5
407
100
AcDbEntity
  8
0
100
AcDbLine
 62
253
  6
CONTINUOUS
 10
-60.7360559661
 20
22.3344140523
 11
-60.7360559661
 21
23.2669872981
  0
LINE
  5
408
100
AcDbEntity
  8
0
100
AcDbLine
 62
7
  6
CONTINUOUS
 10
-59.4846015333
 20
-24.2500042308
 11
-59.4846015333
 21
24.2500042308
  0
LINE
  5
409
100
AcDbEntity
  8
0
100
AcDbLine
 62
253
  6
CONTINUOUS
 10
-58.7331471004
 20
24.2456323968
 11
-58.7331471004
 21
23.8443375673
  0
LINE
  5
40A
100
AcDbEntity
  8
0
100
AcDbLine
 62
253
  6
CONTINUOUS
 10
-58.7331471004
 20
-23.8443375673
 11
-58.7331471004
 21
-24.2456323968
  0
LINE
  5
40B
100
AcDbEntity
  8
0
100
AcDbLine
 62
7
  6
CONTINUOUS
 10
-58.4846015333
 20
24.2456323968
 11
-58.4846015333
 21
23.8443375673
  0
LINE
  5
40C
100
AcDbEntity
  8
0
100
AcDbLine
 62
7
  6
CONTINUOUS
 10
-58.4846015333
 20
22.3941821702
 11
-58.4846015333
 21
18.5082905244
  0
LINE
  5
40D
100
AcDbEntity
  8
0
100
AcDbLine
 62
7
  6
CONTINUOUS
 10
-58.4846015333
 20
-18.5082905244
 11
-58.4846015333
 21
-22.3941821702
  0
LINE
  5
40E
100
AcDbEntity
  8
0
100
AcDbLine
 62
7
  6
CONTINUOUS
 10
-58.4846015333
 20
-23.8443375673
 11
-58.4846015333
 21
-24.2456323968
  0
LINE
  5
40F
100
AcDbEntity
  8
0
100
AcDbLine
 62
7
  6
CONTINUOUS
 10
-57.4846015333
 20
21.4174550649
 11
-57.4846015333
 21
-21.4174550649
  0
LINE
  5
410
100
AcDbEntity
  8
0
100
AcDbLine
 62
7
  6
CONTINUOUS
 10
-53.9846015333
 20
-23.4243617711
 11
-53.9846015333
 21
-22.8756382289
  0
LINE
  5
411
100
AcDbEntity
  8
0
100
AcDbLine
 62
7
  6
CONTINUOUS
 10
-53.9846015333
 20
22.8756382289
 11
-53.9846015333
 21
23.4243617711
  0
LINE
  5
412
100
AcDbEntity
  8
0
100
AcDbLine
 62
253
  6
CONTINUOUS
 10
-53.9408093706
 20
23.9660720289
 11
-53.9408093706
 21
22.3677471607
  0
LINE
  5
413
100
AcDbEntity
  8
0
100
AcDbLine
 62
253
  6
CONTINUOUS
 10
-53.9408093706
 20
-22.3677471607
 11
-53.9408093706
 21
-23.9660720289
  0
LINE
  5
414
100
AcDbEntity
  8
0
100
AcDbLine
 62
7
  6
CONTINUOUS
 10
-53.4846015333
 20
23.4679934743
 11
-53.4846015333
 21
22.3650935624
  0
LINE
  5
415
100
AcDbEntity
  8
0
100
AcDbLine
 62
7
  6
CONTINUOUS
 10
-53.4846015333
 20
-22.3650935624
 11
-53.4846015333
 21
-23.4679934743
  0
LINE
  5
416
100
AcDbEntity
  8
0
100
AcDbLine
 62
253
  6
CONTINUOUS
 10
-47.97587533
 20
21.5834304982
 11
-47.97587533
 21
20.9
  0
LINE
  5
417
100
AcDbEntity
  8
0
100
AcDbLine
 62
253
  6
CONTINUOUS
 10
-47.97587533
 20
-20.9
 11
-47.97587533
 21
-21.5834304982
  0
LINE
  5
418
100
AcDbEntity
  8
RACCORDO
100
AcDbLine
 62
253
  6
CONTINUOUS
 10
-47.6828562262
 20
20.9
 11
-47.6828562262
 21
19.7942654032
  0
LINE
  5
419
100
AcDbEntity
  8
RACCORDO
100
AcDbLine
 62
253
  6
CONTINUOUS
 10
-47.6828562262
 20
-19.7942654032
 11
-47.6828562262
 21
-20.9
  0
LINE
  5
41A
100
AcDbEntity
  8
RACCORDO
100
AcDbLine
 62
253
  6
CONTINUOUS
 10
-47.681111052
 20
-19.7942654032
 11
-47.681111052
 21
-19.0166572575
  0
LINE
  5
41B
100
AcDbEntity
  8
RACCORDO
100
AcDbLine
 62
253
  6
CONTINUOUS
 10
-47.681111052
 20
19.0166572575
 11
-47.681111052
 21
19.7942654032
  0
LINE
  5
41C
100
AcDbEntity
  8
0
100
AcDbLine
 62
7
  6
CONTINUOUS
 10
-47.4846015333
 20
21.3359869487
 11
-47.4846015333
 21
20.9
  0
LINE
  5
41D
100
AcDbEntity
  8
0
100
AcDbLine
 62
7
  6
CONTINUOUS
 10
-47.4846015333
 20
-20.9
 11
-47.4846015333
 21
-21.3359869487
  0
LINE
  5
41E
100
AcDbEntity
  8
RACCORDO
100
AcDbLine
 62
7
  6
CONTINUOUS
 10
-47.4846015333
 20
-20.9
 11
-47.4846015333
 21
-18.7400415081
  0
LINE
  5
41F
100
AcDbEntity
  8
RACCORDO
100
AcDbLine
 62
7
  6
CONTINUOUS
 10
-47.4846015333
 20
18.7400415081
 11
-47.4846015333
 21
20.9
  0
LINE
  5
420
100
AcDbEntity
  8
RACCORDO
100
AcDbLine
 62
253
  6
CONTINUOUS
 10
-61.0038770746
 20
16.399815849
 11
-63.0846015333
 21
16.3634966685
  0
LINE
  5
421
100
AcDbEntity
  8
RACCORDO
100
AcDbLine
 62
7
  6
CONTINUOUS
 10
-60.9846015333
 20
17.4
 11
-63.0846015333
 21
17.3633443637
  0
LINE
  5
422
100
AcDbEntity
  8
0
100
AcDbLine
 62
7
  6
CONTINUOUS
 10
-60.9846015333
 20
-23.1226497308
 11
-61.8596015333
 21
-23.6278312164
  0
LINE
  5
423
100
AcDbEntity
  8
0
100
AcDbLine
 62
253
  6
CONTINUOUS
 10
-60.7360559661
 20
-23.2669872981
 11
-61.7360559661
 21
-23.8443375673
  0
LINE
  5
424
100
AcDbEntity
  8
0
100
AcDbLine
 62
7
  6
CONTINUOUS
 10
-58.4846015333
 20
18.5082905244
 11
-57.4846015333
 21
18.5170173922
  0
LINE
  5
425
100
AcDbEntity
  8
RACCORDO
100
AcDbLine
 62
7
  6
CONTINUOUS
 10
-47.6828562262
 20
19.7942654032
 11
-57.4846015333
 21
19.7087268678
  0
LINE
  5
426
100
AcDbEntity
  8
RACCORDO
100
AcDbLine
 62
253
  6
CONTINUOUS
 10
-47.681111052
 20
19.0166572575
 11
-47.4846015333
 21
19.0166572575
  0
LINE
  5
427
100
AcDbEntity
  8
0
100
AcDbLine
 62
7
  6
CONTINUOUS
 10
-61.8596015333
 20
23.6278312164
 11
-60.9846015333
 21
23.1226497308
  0
LINE
  5
428
100
AcDbEntity
  8
0
100
AcDbLine
 62
253
  6
CONTINUOUS
 10
-61.7360559661
 20
23.8443375673
 11
-60.7360559661
 21
23.2669872981
  0
LINE
  5
429
100
AcDbEntity
  8
0
100
AcDbLine
 62
253
  6
CONTINUOUS
 10
-59.4846015333
 20
21.8997711479
 11
-60.9846015333
 21
21.821159479
  0
LINE
  5
42A
100
AcDbEntity
  8
RACCORDO
100
AcDbLine
 62
253
  6
CONTINUOUS
 10
-67.6947935522
 20
21.4794492109
 11
-63.0846015333
 21
21.6001713375
  0
LINE
  5
42B
100
AcDbEntity
  8
RACCORDO
100
AcDbLine
 62
7
  6
CONTINUOUS
 10
-68.075521642
 20
21.9693081575
 11
-63.0846015333
 21
22.1
  0
LINE
  5
42C
100
AcDbEntity
  8
0
100
AcDbLine
 62
7
  6
CONTINUOUS
 10
-47.97587533
 20
21.5834304982
 11
-57.4846015333
 21
21.4174550649
  0
LINE
  5
42D
100
AcDbEntity
  8
0
100
AcDbLine
 62
7
  6
CONTINUOUS
 10
-47.4846015333
 20
20.9
 11
-57.4846015333
 21
20.9
  0
LINE
  5
42E
100
AcDbEntity
  8
0
100
AcDbLine
 62
253
  6
CONTINUOUS
 10
-58.4846015333
 20
21.8941990932
 11
-59.4846015333
 21
21.900016923
  0
LINE
  5
42F
100
AcDbEntity
  8
RACCORDO
100
AcDbLine
 62
253
  6
CONTINUOUS
 10
-68.862777919
 20
20.8301107087
 11
-68.3764499798
 21
20.8090933501
  0
LINE
  5
430
100
AcDbEntity
  8
0
100
AcDbLine
 62
7
  6
CONTINUOUS
 10
-59.4846015333
 20
22.4
 11
-60.9846015333
 21
22.3213883311
  0
LINE
  5
431
100
AcDbEntity
  8
0
100
AcDbLine
 62
253
  6
CONTINUOUS
 10
-61.9846015333
 20
23.8443375673
 11
-61.7360559661
 21
23.8443375673
  0
LINE
  5
432
100
AcDbEntity
  8
0
100
AcDbLine
 62
253
  6
CONTINUOUS
 10
-58.4846015333
 20
23.8443375673
 11
-58.7331471004
 21
23.8443375673
  0
LINE
  5
433
100
AcDbEntity
  8
0
100
AcDbLine
 62
253
  6
CONTINUOUS
 10
-61.9846015333
 20
24.2369056521
 11
-61.7360559661
 21
24.2369056521
  0
LINE
  5
434
100
AcDbEntity
  8
0
100
AcDbLine
 62
7
  6
CONTINUOUS
 10
-48.4787838019
 20
22.3359700255
 11
-59.4846015333
 21
22.4
  0
LINE
  5
435
100
AcDbEntity
  8
0
100
AcDbLine
 62
7
  6
CONTINUOUS
 10
-53.9816926676
 20
23.9679850128
 11
-58.4846015333
 21
23.9941821702
  0
LWPOLYLINE
  5
436
100
AcDbEntity
  8
0
100
AcDbPolyline
 62
7
  6
CONTINUOUS
 90
10
 70
0
 43
0.3500000006
 10
-57.5631826172
 20
46.3445030823
 10
-57.4917514343
 20
46.2016452484
 10
-57.4917514343
 20
46.1302140656
 10
-57.6346092682
 20
45.9873562317
 10
-57.706040451
 20
45.9873562317
 10
-57.7774671021
 20
46.0587874146
 10
-57.7774671021
 20
46.1302140656
 10
-57.706040451
 20
46.2730718994
 10
-57.6346092682
 20
46.3445030823
 10
-57.5631826172
 20
46.3445030823
  0
LINE
  5
437
100
AcDbEntity
  8
0
100
AcDbLine
 62
253
  6
CONTINUOUS
 10
-61.7360559661
 20
24.2369056521
 11
-59.4846015333
 21
24.2500042308
  0
LINE
  5
438
100
AcDbEntity
  8
0
100
AcDbLine
 62
7
  6
CONTINUOUS
 10
-61.7360559661
 20
24.4869014213
 11
-59.4846015333
 21
24.5
  0
LINE
  5
439
100
AcDbEntity
  8
0
100
AcDbLine
 62
253
  6
CONTINUOUS
 10
-58.4846015333
 20
24.2456323968
 11
-58.7331471004
 21
24.2456323968
  0
LINE
  5
43A
100
AcDbEntity
  8
0
100
AcDbLine
 62
253
  6
CONTINUOUS
 10
-59.4846015333
 20
24.2500042308
 11
-58.7331471004
 21
24.2456323968
  0
LINE
  5
43B
100
AcDbEntity
  8
0
100
AcDbLine
 62
7
  6
CONTINUOUS
 10
-59.4846015333
 20
24.5
 11
-58.7331471004
 21
24.495628166
  0
LWPOLYLINE
  5
43C
100
AcDbEntity
  8
0
100
AcDbPolyline
 62
7
  6
CONTINUOUS
 90
6
 70
0
 43
0.3500000006
 10
-56.4917511292
 20
45.8445029297
 10
-55.420324173
 20
45.8445029297
 10
-55.2060396881
 20
46.0587874146
 10
-55.2060396881
 20
47.1302143707
 10
-55.6346086578
 20
47.5587878723
 10
-56.0631821594
 20
47.5587878723
  0
LWPOLYLINE
  5
43D
100
AcDbEntity
  8
0
100
AcDbPolyline
 62
7
  6
CONTINUOUS
 90
7
 70
0
 43
0.3500000006
 10
-59.063183075
 20
45.8445029297
 10
-60.5631835327
 20
45.8445029297
 10
-59.063183075
 20
47.987356842
 10
-59.063183075
 20
48.4159303436
 10
-59.4917520447
 20
48.8444993134
 10
-60.1346100311
 20
48.8444993134
 10
-60.5631835327
 20
48.2016458588
  0
LWPOLYLINE
  5
43E
100
AcDbEntity
  8
0
100
AcDbPolyline
 62
7
  6
CONTINUOUS
 90
7
 70
0
 43
0.3500000006
 10
-61.420326004
 20
45.8445029297
 10
-62.9203264618
 20
45.8445029297
 10
-61.420326004
 20
47.987356842
 10
-61.420326004
 20
48.4159303436
 10
-61.8488949738
 20
48.8444993134
 10
-62.4917529602
 20
48.8444993134
 10
-62.9203264618
 20
48.2016458588
  0
ARC
  5
43F
100
AcDbEntity
  8
0
100
AcDbCircle
 62
7
  6
CONTINUOUS
 10
-1.9981113672
 20
-11.566144948
 40
4.0661777564
100
AcDbArc
 50
90.0266191016
 51
93.0015521318
  0
ARC
  5
440
100
AcDbEntity
  8
0
100
AcDbCircle
 62
7
  6
CONTINUOUS
 10
-1.9982113664
 20
-11.4345587985
 40
4.0654719052
100
AcDbArc
 50
266.9997016552
 51
269.9748005681
  0
ARC
  5
441
100
AcDbEntity
  8
0
100
AcDbCircle
 62
7
  6
CONTINUOUS
 10
-1.9997301404
 20
-11.496749171
 40
4.0032553802
100
AcDbArc
 50
266.4555939657
 51
266.9748210433
  0
ARC
  5
442
100
AcDbEntity
  8
0
100
AcDbCircle
 62
7
  6
CONTINUOUS
 10
-1.9997344039
 20
-11.5031991634
 40
4.0032036187
100
AcDbArc
 50
93.0255286579
 51
93.5000880079
  0
ARC
  5
443
100
AcDbEntity
  8
DRAFT
100
AcDbCircle
 62
7
  6
CONTINUOUS
 10
-2.0
 20
-11.5
 40
4.0
100
AcDbArc
 50
89.9992346971
 51
269.9990921602
  0
ARC
  5
444
100
AcDbEntity
  8
0
100
AcDbCircle
 62
7
  6
CONTINUOUS
 10
-2.0000035162
 20
-11.4999973807
 40
3.9999964839
100
AcDbArc
 50
180.0000375194
 51
266.4566258872
  0
ARC
  5
445
100
AcDbEntity
  8
0
100
AcDbCircle
 62
7
  6
CONTINUOUS
 10
-2.0000041377
 20
-11.5000018994
 40
3.9999958519
100
AcDbArc
 50
93.4990274988
 51
179.8882098801
  0
ARC
  5
446
100
AcDbEntity
  8
RACCORDO
100
AcDbCircle
 62
253
  6
CONTINUOUS
 10
-32.87901557
 20
-21.47901557
 40
0.5002656609
100
AcDbArc
 50
180.0496655124
 51
269.9503344876
  0
ARC
  5
447
100
AcDbEntity
  8
0
100
AcDbCircle
 62
7
  6
CONTINUOUS
 10
-26.5
 20
-23.15
 40
0.5
100
AcDbArc
 50
154.1580672368
 51
205.8419327632
  0
ARC
  5
448
100
AcDbEntity
  8
0
100
AcDbCircle
 62
7
  6
CONTINUOUS
 10
-18.5
 20
-23.15
 40
0.5
100
AcDbArc
 50
334.1580672368
 51
25.8419327632
  0
ARC
  5
449
100
AcDbEntity
  8
0
100
AcDbCircle
 62
7
  6
CONTINUOUS
 10
-11.8495502697
 20
-21.9000113415
 40
0.4999888836
100
AcDbArc
 50
269.9456294642
 51
336.4226461915
  0
ARC
  5
44A
100
AcDbEntity
  8
0
100
AcDbCircle
 62
7
  6
CONTINUOUS
 10
-33.1504528417
 20
-21.9000167264
 40
0.4999835017
100
AcDbArc
 50
180.0000225334
 51
270.0547276814
  0
ARC
  5
44B
100
AcDbEntity
  8
0
100
AcDbCircle
 62
7
  6
CONTINUOUS
 10
-11.8505556502
 20
-21.9005076525
 40
0.4994968435
100
AcDbArc
 50
270.0609006181
 51
336.4604742603
  0
ARC
  5
44C
100
AcDbEntity
  8
0
100
AcDbCircle
 62
253
  6
CONTINUOUS
 10
-12.6131051967
 20
-24.2368948033
 40
0.2500066182
100
AcDbArc
 50
270.0024862874
 51
359.9975137126
  0
ARC
  5
44D
100
AcDbEntity
  8
0
100
AcDbCircle
 62
253
  6
CONTINUOUS
 10
-14.9868948033
 20
-24.2368948033
 40
0.2500066182
100
AcDbArc
 50
180.0024862874
 51
269.9975137126
  0
ARC
  5
44E
100
AcDbEntity
  8
0
100
AcDbCircle
 62
253
  6
CONTINUOUS
 10
-32.3868948038
 20
-24.2368948038
 40
0.2500066177
100
AcDbArc
 50
180.0024861811
 51
269.9975138189
  0
ARC
  5
44F
100
AcDbEntity
  8
0
100
AcDbCircle
 62
253
  6
CONTINUOUS
 10
-30.0131051962
 20
-24.2368948038
 40
0.2500066177
100
AcDbArc
 50
270.0024861811
 51
359.9975138189
  0
ARC
  5
450
100
AcDbEntity
  8
0
100
AcDbCircle
 62
7
  6
CONTINUOUS
 10
-12.5999946513
 20
-24.2500053487
 40
0.2499946513
100
AcDbArc
 50
269.9997437926
 51
0.0002562074
  0
ARC
  5
451
100
AcDbEntity
  8
0
100
AcDbCircle
 62
7
  6
CONTINUOUS
 10
-15.0000053487
 20
-24.2500053487
 40
0.2499946513
100
AcDbArc
 50
179.9997437926
 51
270.0002562074
  0
ARC
  5
452
100
AcDbEntity
  8
0
100
AcDbCircle
 62
7
  6
CONTINUOUS
 10
-32.4000053487
 20
-24.2500053487
 40
0.2499946513
100
AcDbArc
 50
179.9997437926
 51
270.0002562074
  0
ARC
  5
453
100
AcDbEntity
  8
0
100
AcDbCircle
 62
7
  6
CONTINUOUS
 10
-29.9999946513
 20
-24.2500053487
 40
0.2499946513
100
AcDbArc
 50
269.9997437926
 51
0.0002562074
  0
ARC
  5
454
100
AcDbEntity
  8
0
100
AcDbCircle
 62
7
  6
CONTINUOUS
 10
-23.6999988192
 20
-23.7982490665
 40
0.1999988152
100
AcDbArc
 50
269.9996617127
 51
359.4995522505
  0
ARC
  5
455
100
AcDbEntity
  8
0
100
AcDbCircle
 62
253
  6
CONTINUOUS
 10
-21.3000011811
 20
-23.7982490669
 40
0.1999988149
100
AcDbArc
 50
180.5004468359
 51
270.0003383609
  0
ARC
  5
456
100
AcDbEntity
  8
0
100
AcDbCircle
 62
7
  6
CONTINUOUS
 10
-21.300117554
 20
-23.7999934169
 40
0.1998824461
100
AcDbArc
 50
180.0009168221
 51
269.999564761
  0
ARC
  5
457
100
AcDbEntity
  8
0
100
AcDbCircle
 62
7
  6
CONTINUOUS
 10
-23.699882446
 20
-23.7999934169
 40
0.1998824461
100
AcDbArc
 50
270.002881872
 51
359.9990831779
  0
ARC
  5
458
100
AcDbEntity
  8
0
100
AcDbCircle
 62
7
  6
CONTINUOUS
 10
-23.6994294463
 20
-23.7982511033
 40
0.1994294463
100
AcDbArc
 50
359.4987086158
 51
359.9999531427
  0
ARC
  5
459
100
AcDbEntity
  8
0
100
AcDbCircle
 62
253
  6
CONTINUOUS
 10
-21.3005729711
 20
-23.7982511029
 40
0.1994270289
100
AcDbArc
 50
180.0000469729
 51
180.5012967611
  0
ARC
  5
45A
100
AcDbEntity
  8
RACCORDO
100
AcDbCircle
 62
253
  6
CONTINUOUS
 10
-18908.9320317006
 20
-0.0000000222
 40
18875.582073964
100
AcDbArc
 50
359.9368351418
 51
0.0631648583
  0
ARC
  5
45B
100
AcDbEntity
  8
RACCORDO
100
AcDbCircle
 62
253
  6
CONTINUOUS
 10
-32.8790155696
 20
21.4790155696
 40
0.5002656614
100
AcDbArc
 50
90.0496655696
 51
179.9503344304
  0
ARC
  5
45C
100
AcDbEntity
  8
0
100
AcDbCircle
 62
7
  6
CONTINUOUS
 10
-11.8495569378
 20
21.9000011555
 40
0.5000001395
100
AcDbArc
 50
23.5781179647
 51
90.0536053219
  0
ARC
  5
45D
100
AcDbEntity
  8
0
100
AcDbCircle
 62
7
  6
CONTINUOUS
 10
-18.5
 20
23.15
 40
0.5
100
AcDbArc
 50
334.1580672368
 51
25.8419327632
  0
ARC
  5
45E
100
AcDbEntity
  8
0
100
AcDbCircle
 62
7
  6
CONTINUOUS
 10
-26.5
 20
23.15
 40
0.5
100
AcDbArc
 50
154.1580672368
 51
205.8419327632
  0
ARC
  5
45F
100
AcDbEntity
  8
0
100
AcDbCircle
 62
7
  6
CONTINUOUS
 10
-33.1504528417
 20
21.9000167264
 40
0.4999835017
100
AcDbArc
 50
89.9452723311
 51
179.9999774666
  0
ARC
  5
460
100
AcDbEntity
  8
0
100
AcDbCircle
 62
7
  6
CONTINUOUS
 10
-11.8505557187
 20
21.9005075481
 40
0.4994968435
100
AcDbArc
 50
23.5395335816
 51
89.9390915521
  0
ARC
  5
461
100
AcDbEntity
  8
0
100
AcDbCircle
 62
253
  6
CONTINUOUS
 10
-12.6131051967
 20
24.2368948033
 40
0.2500066182
100
AcDbArc
 50
0.0024862874
 51
89.9975137126
  0
ARC
  5
462
100
AcDbEntity
  8
0
100
AcDbCircle
 62
253
  6
CONTINUOUS
 10
-14.9868948038
 20
24.2368948038
 40
0.2500066177
100
AcDbArc
 50
90.0024861811
 51
179.9975138189
  0
ARC
  5
463
100
AcDbEntity
  8
0
100
AcDbCircle
 62
253
  6
CONTINUOUS
 10
-30.0131051962
 20
24.2368948038
 40
0.2500066177
100
AcDbArc
 50
0.0024861811
 51
89.9975138189
  0
ARC
  5
464
100
AcDbEntity
  8
0
100
AcDbCircle
 62
253
  6
CONTINUOUS
 10
-32.3868948038
 20
24.2368948038
 40
0.2500066177
100
AcDbArc
 50
90.0024861811
 51
179.9975138189
  0
ARC
  5
465
100
AcDbEntity
  8
0
100
AcDbCircle
 62
7
  6
CONTINUOUS
 10
-12.5999946513
 20
24.2500053487
 40
0.2499946513
100
AcDbArc
 50
359.9997437926
 51
90.0002562074
  0
ARC
  5
466
100
AcDbEntity
  8
0
100
AcDbCircle
 62
7
  6
CONTINUOUS
 10
-15.0000053487
 20
24.2500053487
 40
0.2499946513
100
AcDbArc
 50
89.9997437926
 51
180.0002562074
  0
ARC
  5
467
100
AcDbEntity
  8
0
100
AcDbCircle
 62
7
  6
CONTINUOUS
 10
-29.9999946513
 20
24.2500053487
 40
0.2499946513
100
AcDbArc
 50
359.9997437926
 51
90.0002562074
  0
ARC
  5
468
100
AcDbEntity
  8
0
100
AcDbCircle
 62
7
  6
CONTINUOUS
 10
-32.4000053487
 20
24.2500053487
 40
0.2499946513
100
AcDbArc
 50
89.9997437926
 51
180.0002562074
  0
ARC
  5
469
100
AcDbEntity
  8
0
100
AcDbCircle
 62
7
  6
CONTINUOUS
 10
-21.3000011808
 20
23.7982490665
 40
0.1999988152
100
AcDbArc
 50
89.9996617127
 51
179.4995522505
  0
ARC
  5
46A
100
AcDbEntity
  8
0
100
AcDbCircle
 62
253
  6
CONTINUOUS
 10
-23.6999988189
 20
23.7982490669
 40
0.1999988149
100
AcDbArc
 50
0.5004468359
 51
90.0003383609
  0
ARC
  5
46B
100
AcDbEntity
  8
0
100
AcDbCircle
 62
7
  6
CONTINUOUS
 10
-21.300117554
 20
23.7999934169
 40
0.1998824461
100
AcDbArc
 50
90.0028818721
 51
179.999083178
  0
ARC
  5
46C
100
AcDbEntity
  8
0
100
AcDbCircle
 62
7
  6
CONTINUOUS
 10
-23.699882446
 20
23.7999934169
 40
0.1998824461
100
AcDbArc
 50
0.000916822
 51
89.999564761
  0
ARC
  5
46D
100
AcDbEntity
  8
0
100
AcDbCircle
 62
7
  6
CONTINUOUS
 10
-21.3005705535
 20
23.7982511033
 40
0.1994294465
100
AcDbArc
 50
179.4987086163
 51
179.9999531426
  0
ARC
  5
46E
100
AcDbEntity
  8
0
100
AcDbCircle
 62
253
  6
CONTINUOUS
 10
-23.6994270289
 20
23.7982511029
 40
0.1994270289
100
AcDbArc
 50
0.0000469729
 51
0.5012967611
  0
ARC
  5
46F
100
AcDbEntity
  8
0
100
AcDbCircle
 62
7
  6
CONTINUOUS
 10
1.9981418787
 20
-11.4319257555
 40
4.0681049814
100
AcDbArc
 50
270.0261617964
 51
272.9994546354
  0
ARC
  5
470
100
AcDbEntity
  8
0
100
AcDbCircle
 62
7
  6
CONTINUOUS
 10
1.9980900426
 20
-11.5669452538
 40
4.0669780764
100
AcDbArc
 50
86.9986167789
 51
89.9730857145
  0
ARC
  5
471
100
AcDbEntity
  8
0
100
AcDbCircle
 62
7
  6
CONTINUOUS
 10
1.9997331874
 20
-11.5032207694
 40
4.0032252584
100
AcDbArc
 50
86.4727181535
 51
86.9743468848
  0
ARC
  5
472
100
AcDbEntity
  8
0
100
AcDbCircle
 62
7
  6
CONTINUOUS
 10
1.9997321111
 20
-11.4967825259
 40
4.0032219721
100
AcDbArc
 50
273.0252979147
 51
273.5037585597
  0
ARC
  5
473
100
AcDbEntity
  8
DRAFT
100
AcDbCircle
 62
7
  6
CONTINUOUS
 10
2.0
 20
-11.5
 40
4.0
100
AcDbArc
 50
270.0009080613
 51
90.0007652544
  0
ARC
  5
474
100
AcDbEntity
  8
0
100
AcDbCircle
 62
7
  6
CONTINUOUS
 10
2.0000037808
 20
-11.5000022805
 40
3.9999962192
100
AcDbArc
 50
273.5026926044
 51
86.4737504391
  0
ARC
  5
475
100
AcDbEntity
  8
RACCORDO
100
AcDbCircle
 62
253
  6
CONTINUOUS
 10
32.8790155696
 20
-21.4790155696
 40
0.5002656615
100
AcDbArc
 50
270.0496655787
 51
359.9503344213
  0
ARC
  5
476
100
AcDbEntity
  8
0
100
AcDbCircle
 62
7
  6
CONTINUOUS
 10
11.8495569311
 20
-21.9000011659
 40
0.5000001395
100
AcDbArc
 50
203.5781171788
 51
270.0536060974
  0
ARC
  5
477
100
AcDbEntity
  8
0
100
AcDbCircle
 62
7
  6
CONTINUOUS
 10
18.5
 20
-23.15
 40
0.5
100
AcDbArc
 50
154.1580672368
 51
205.8419327632
  0
ARC
  5
478
100
AcDbEntity
  8
0
100
AcDbCircle
 62
7
  6
CONTINUOUS
 10
26.5
 20
-23.15
 40
0.5
100
AcDbArc
 50
334.1580672368
 51
25.8419327632
  0
ARC
  5
479
100
AcDbEntity
  8
0
100
AcDbCircle
 62
7
  6
CONTINUOUS
 10
33.1504528417
 20
-21.9000167264
 40
0.4999835017
100
AcDbArc
 50
269.9452723311
 51
359.9999774666
  0
ARC
  5
47A
100
AcDbEntity
  8
0
100
AcDbCircle
 62
7
  6
CONTINUOUS
 10
11.8505556525
 20
-21.900507654
 40
0.4994968435
100
AcDbArc
 50
203.5395254781
 51
269.939099136
  0
ARC
  5
47B
100
AcDbEntity
  8
0
100
AcDbCircle
 62
253
  6
CONTINUOUS
 10
32.3868948033
 20
-24.2368948033
 40
0.2500066182
100
AcDbArc
 50
270.0024862874
 51
359.9975137126
  0
ARC
  5
47C
100
AcDbEntity
  8
0
100
AcDbCircle
 62
253
  6
CONTINUOUS
 10
30.0131051967
 20
-24.2368948033
 40
0.2500066182
100
AcDbArc
 50
180.0024862874
 51
269.9975137126
  0
ARC
  5
47D
100
AcDbEntity
  8
0
100
AcDbCircle
 62
253
  6
CONTINUOUS
 10
12.6131051962
 20
-24.2368948038
 40
0.2500066177
100
AcDbArc
 50
180.0024861811
 51
269.9975138189
  0
ARC
  5
47E
100
AcDbEntity
  8
0
100
AcDbCircle
 62
253
  6
CONTINUOUS
 10
14.9868948038
 20
-24.2368948038
 40
0.2500066177
100
AcDbArc
 50
270.0024861811
 51
359.9975138189
  0
ARC
  5
47F
100
AcDbEntity
  8
0
100
AcDbCircle
 62
7
  6
CONTINUOUS
 10
32.4000053487
 20
-24.2500053487
 40
0.2499946513
100
AcDbArc
 50
269.9997437926
 51
0.0002562074
  0
ARC
  5
480
100
AcDbEntity
  8
0
100
AcDbCircle
 62
7
  6
CONTINUOUS
 10
29.9999946513
 20
-24.2500053487
 40
0.2499946513
100
AcDbArc
 50
179.9997437926
 51
270.0002562074
  0
ARC
  5
481
100
AcDbEntity
  8
0
100
AcDbCircle
 62
7
  6
CONTINUOUS
 10
12.5999946513
 20
-24.2500053487
 40
0.2499946513
100
AcDbArc
 50
179.9997437926
 51
270.0002562074
  0
ARC
  5
482
100
AcDbEntity
  8
0
100
AcDbCircle
 62
7
  6
CONTINUOUS
 10
15.0000053487
 20
-24.2500053487
 40
0.2499946513
100
AcDbArc
 50
269.9997437926
 51
0.0002562074
  0
ARC
  5
483
100
AcDbEntity
  8
0
100
AcDbCircle
 62
7
  6
CONTINUOUS
 10
21.3000011808
 20
-23.7982490665
 40
0.1999988152
100
AcDbArc
 50
269.9996617127
 51
359.4995522505
  0
ARC
  5
484
100
AcDbEntity
  8
0
100
AcDbCircle
 62
253
  6
CONTINUOUS
 10
23.6999988189
 20
-23.7982490669
 40
0.1999988149
100
AcDbArc
 50
180.5004468359
 51
270.0003383609
  0
ARC
  5
485
100
AcDbEntity
  8
0
100
AcDbCircle
 62
7
  6
CONTINUOUS
 10
23.699882446
 20
-23.7999934169
 40
0.1998824461
100
AcDbArc
 50
180.0009168221
 51
269.999564761
  0
ARC
  5
486
100
AcDbEntity
  8
0
100
AcDbCircle
 62
7
  6
CONTINUOUS
 10
21.300117554
 20
-23.7999934169
 40
0.1998824461
100
AcDbArc
 50
270.002881872
 51
359.9990831779
  0
ARC
  5
487
100
AcDbEntity
  8
0
100
AcDbCircle
 62
7
  6
CONTINUOUS
 10
21.3005705537
 20
-23.7982511033
 40
0.1994294463
100
AcDbArc
 50
359.4987086158
 51
359.9999531427
  0
ARC
  5
488
100
AcDbEntity
  8
0
100
AcDbCircle
 62
253
  6
CONTINUOUS
 10
23.6994270287
 20
-23.7982511029
 40
0.1994270287
100
AcDbArc
 50
180.0000469728
 51
180.5012967615
  0
ARC
  5
489
100
AcDbEntity
  8
RACCORDO
100
AcDbCircle
 62
253
  6
CONTINUOUS
 10
18908.9320398667
 20
0.0000000227
 40
18875.58208213
100
AcDbArc
 50
179.9368351419
 51
180.0631648583
  0
ARC
  5
48A
100
AcDbEntity
  8
RACCORDO
100
AcDbCircle
 62
253
  6
CONTINUOUS
 10
32.87901557
 20
21.47901557
 40
0.500265661
100
AcDbArc
 50
0.0496655215
 51
89.9503344785
  0
ARC
  5
48B
100
AcDbEntity
  8
0
100
AcDbCircle
 62
7
  6
CONTINUOUS
 10
26.5
 20
23.15
 40
0.5
100
AcDbArc
 50
334.1580672368
 51
25.8419327632
  0
ARC
  5
48C
100
AcDbEntity
  8
0
100
AcDbCircle
 62
7
  6
CONTINUOUS
 10
18.5
 20
23.15
 40
0.5
100
AcDbArc
 50
154.1580672368
 51
205.8419327632
  0
ARC
  5
48D
100
AcDbEntity
  8
0
100
AcDbCircle
 62
7
  6
CONTINUOUS
 10
11.8495502697
 20
21.9000113415
 40
0.4999888836
100
AcDbArc
 50
89.9456294642
 51
156.4226461914
  0
ARC
  5
48E
100
AcDbEntity
  8
0
100
AcDbCircle
 62
7
  6
CONTINUOUS
 10
33.1504528417
 20
21.9000167264
 40
0.4999835017
100
AcDbArc
 50
0.0000225334
 51
90.0547276814
  0
ARC
  5
48F
100
AcDbEntity
  8
0
100
AcDbCircle
 62
7
  6
CONTINUOUS
 10
11.850555721
 20
21.9005075496
 40
0.4994968435
100
AcDbArc
 50
90.0609087188
 51
156.4604666798
  0
ARC
  5
490
100
AcDbEntity
  8
0
100
AcDbCircle
 62
253
  6
CONTINUOUS
 10
32.3868948033
 20
24.2368948033
 40
0.2500066182
100
AcDbArc
 50
0.0024862874
 51
89.9975137126
  0
ARC
  5
491
100
AcDbEntity
  8
0
100
AcDbCircle
 62
253
  6
CONTINUOUS
 10
30.0131051962
 20
24.2368948038
 40
0.2500066177
100
AcDbArc
 50
90.0024861811
 51
179.9975138189
  0
ARC
  5
492
100
AcDbEntity
  8
0
100
AcDbCircle
 62
253
  6
CONTINUOUS
 10
14.9868948038
 20
24.2368948038
 40
0.2500066177
100
AcDbArc
 50
0.0024861811
 51
89.9975138189
  0
ARC
  5
493
100
AcDbEntity
  8
0
100
AcDbCircle
 62
253
  6
CONTINUOUS
 10
12.6131051962
 20
24.2368948038
 40
0.2500066177
100
AcDbArc
 50
90.0024861811
 51
179.9975138189
  0
ARC
  5
494
100
AcDbEntity
  8
0
100
AcDbCircle
 62
7
  6
CONTINUOUS
 10
32.4000053487
 20
24.2500053487
 40
0.2499946513
100
AcDbArc
 50
359.9997437926
 51
90.0002562074
  0
ARC
  5
495
100
AcDbEntity
  8
0
100
AcDbCircle
 62
7
  6
CONTINUOUS
 10
29.9999946513
 20
24.2500053487
 40
0.2499946513
100
AcDbArc
 50
89.9997437926
 51
180.0002562074
  0
ARC
  5
496
100
AcDbEntity
  8
0
100
AcDbCircle
 62
7
  6
CONTINUOUS
 10
15.0000053487
 20
24.2500053487
 40
0.2499946513
100
AcDbArc
 50
359.9997437926
 51
90.0002562074
  0
ARC
  5
497
100
AcDbEntity
  8
0
100
AcDbCircle
 62
7
  6
CONTINUOUS
 10
12.5999946513
 20
24.2500053487
 40
0.2499946513
100
AcDbArc
 50
89.9997437926
 51
180.0002562074
  0
ARC
  5
498
100
AcDbEntity
  8
0
100
AcDbCircle
 62
7
  6
CONTINUOUS
 10
23.6999988192
 20
23.7982490665
 40
0.1999988152
100
AcDbArc
 50
89.9996617127
 51
179.4995522505
  0
ARC
  5
499
100
AcDbEntity
  8
0
100
AcDbCircle
 62
253
  6
CONTINUOUS
 10
21.3000011811
 20
23.7982490669
 40
0.1999988149
100
AcDbArc
 50
0.5004468359
 51
90.0003383609
  0
ARC
  5
49A
100
AcDbEntity
  8
0
100
AcDbCircle
 62
7
  6
CONTINUOUS
 10
23.699882446
 20
23.7999934169
 40
0.1998824461
100
AcDbArc
 50
90.002881872
 51
179.9990831779
  0
ARC
  5
49B
100
AcDbEntity
  8
0
100
AcDbCircle
 62
7
  6
CONTINUOUS
 10
21.300117554
 20
23.7999934169
 40
0.1998824461
100
AcDbArc
 50
0.0009168221
 51
89.999564761
  0
ARC
  5
49C
100
AcDbEntity
  8
0
100
AcDbCircle
 62
7
  6
CONTINUOUS
 10
23.6994294463
 20
23.7982511033
 40
0.1994294463
100
AcDbArc
 50
179.4987086158
 51
179.9999531427
  0
ARC
  5
49D
100
AcDbEntity
  8
0
100
AcDbCircle
 62
253
  6
CONTINUOUS
 10
21.3005729711
 20
23.7982511029
 40
0.1994270289
100
AcDbArc
 50
0.0000469729
 51
0.5012967611
  0
ARC
  5
49E
100
AcDbEntity
  8
0
100
AcDbCircle
 62
7
  6
CONTINUOUS
 10
-135.2509326947
 20
-9.5313086648
 40
65.5705975777
100
AcDbArc
 50
1.5519864088
 51
1.6893358861
  0
ARC
  5
49F
100
AcDbEntity
  8
RACCORDO
100
AcDbCircle
 62
7
  6
CONTINUOUS
 10
-67.6636077073
 20
-20.7794033237
 40
1.200265199
100
AcDbArc
 50
182.4213313236
 51
268.5111652629
  0
ARC
  5
4A0
100
AcDbEntity
  8
RACCORDO
100
AcDbCircle
 62
7
  6
CONTINUOUS
 10
-68.0433841289
 20
-20.7697383569
 40
1.2
100
AcDbArc
 50
182.985352171
 51
268.5
  0
ARC
  5
4A1
100
AcDbEntity
  8
0
100
AcDbCircle
 62
7
  6
CONTINUOUS
 10
-48.4846015333
 20
-21.3359869487
 40
1.0
100
AcDbArc
 50
270.3333333333
 51
360.0
  0
ARC
  5
4A2
100
AcDbEntity
  8
RACCORDO
100
AcDbCircle
 62
253
  6
CONTINUOUS
 10
-67.6767580643
 20
-20.7793192822
 40
0.7003431942
100
AcDbArc
 50
182.4366436746
 51
268.5243758164
  0
ARC
  5
4A3
100
AcDbEntity
  8
0
100
AcDbCircle
 62
7
  6
CONTINUOUS
 10
-53.9846015333
 20
-23.4679934743
 40
0.5
100
AcDbArc
 50
270.3333333333
 51
360.0
  0
ARC
  5
4A4
100
AcDbEntity
  8
0
100
AcDbCircle
 62
7
  6
CONTINUOUS
 10
-61.7346015333
 20
-24.2369056521
 40
0.25
100
AcDbArc
 50
180.0
 51
269.6666666667
  0
ARC
  5
4A5
100
AcDbEntity
  8
0
100
AcDbCircle
 62
7
  6
CONTINUOUS
 10
-58.7346015333
 20
-24.2456323968
 40
0.25
100
AcDbArc
 50
270.3333333333
 51
360.0
  0
ARC
  5
4A6
100
AcDbEntity
  8
0
100
AcDbCircle
 62
7
  6
CONTINUOUS
 10
-58.7346015333
 20
-23.8443375673
 40
0.25
100
AcDbArc
 50
0.0
 51
60.0
  0
ARC
  5
4A7
100
AcDbEntity
  8
0
100
AcDbCircle
 62
7
  6
CONTINUOUS
 10
-61.7346015333
 20
-23.8443375673
 40
0.25
100
AcDbArc
 50
120.0
 51
180.0
  0
ARC
  5
4A8
100
AcDbEntity
  8
RACCORDO
100
AcDbCircle
 62
7
  6
CONTINUOUS
 10
-47.6846015333
 20
-19.9942577878
 40
0.2
100
AcDbArc
 50
0.0
 51
89.5
  0
ARC
  5
4A9
100
AcDbEntity
  8
RACCORDO
100
AcDbCircle
 62
7
  6
CONTINUOUS
 10
-47.6846015333
 20
-18.7400415081
 40
0.2
100
AcDbArc
 50
0.0
 51
69.9999998795
  0
ARC
  5
4AA
100
AcDbEntity
  8
RACCORDO
100
AcDbCircle
 62
253
  6
CONTINUOUS
 10
425.8173536642
 20
-0.0000000004
 40
495.1185058352
100
AcDbArc
 50
177.5887998804
 51
182.4112001195
  0
ARC
  5
4AB
100
AcDbEntity
  8
RACCORDO
100
AcDbCircle
 62
253
  6
CONTINUOUS
 10
425.7099688926
 20
0.0000000227
 40
494.5244257661
100
AcDbArc
 50
177.5883388365
 51
182.4116611688
  0
ARC
  5
4AC
100
AcDbEntity
  8
RACCORDO
100
AcDbCircle
 62
7
  6
CONTINUOUS
 10
-67.6636077108
 20
20.7794033234
 40
1.2002651992
100
AcDbArc
 50
91.4888347327
 51
177.5786686871
  0
ARC
  5
4AD
100
AcDbEntity
  8
RACCORDO
100
AcDbCircle
 62
7
  6
CONTINUOUS
 10
-68.0433841282
 20
20.7697383569
 40
1.2
100
AcDbArc
 50
91.5
 51
177.014647829
  0
ARC
  5
4AE
100
AcDbEntity
  8
0
100
AcDbCircle
 62
7
  6
CONTINUOUS
 10
-48.4846015333
 20
21.3359869487
 40
1.0
100
AcDbArc
 50
0.0
 51
89.6666666667
  0
ARC
  5
4AF
100
AcDbEntity
  8
RACCORDO
100
AcDbCircle
 62
253
  6
CONTINUOUS
 10
-67.6767581297
 20
20.7793193462
 40
0.7003431909
100
AcDbArc
 50
91.4756192548
 51
177.5633613529
  0
ARC
  5
4B0
100
AcDbEntity
  8
0
100
AcDbCircle
 62
7
  6
CONTINUOUS
 10
-53.9846015333
 20
23.4679934743
 40
0.5
100
AcDbArc
 50
0.0
 51
89.6666666667
  0
ARC
  5
4B1
100
AcDbEntity
  8
0
100
AcDbCircle
 62
7
  6
CONTINUOUS
 10
-61.7346015333
 20
24.2369056521
 40
0.25
100
AcDbArc
 50
90.3333333333
 51
180.0
  0
ARC
  5
4B2
100
AcDbEntity
  8
0
100
AcDbCircle
 62
7
  6
CONTINUOUS
 10
-58.7346015333
 20
24.2456323968
 40
0.25
100
AcDbArc
 50
0.0
 51
89.6666666667
  0
ARC
  5
4B3
100
AcDbEntity
  8
0
100
AcDbCircle
 62
7
  6
CONTINUOUS
 10
-61.7346015333
 20
23.8443375673
 40
0.25
100
AcDbArc
 50
180.0
 51
240.0
  0
ARC
  5
4B4
100
AcDbEntity
  8
0
100
AcDbCircle
 62
7
  6
CONTINUOUS
 10
-58.7346015333
 20
23.8443375673
 40
0.25
100
AcDbArc
 50
300.0
 51
360.0
  0
ARC
  5
4B5
100
AcDbEntity
  8
RACCORDO
100
AcDbCircle
 62
7
  6
CONTINUOUS
 10
-47.6846015333
 20
18.7400415081
 40
0.2
100
AcDbArc
 50
290.0000001205
 51
360.0
  0
ARC
  5
4B6
100
AcDbEntity
  8
RACCORDO
100
AcDbCircle
 62
7
  6
CONTINUOUS
 10
-47.6846015333
 20
19.9942577878
 40
0.2
100
AcDbArc
 50
270.5
 51
360.0
  0
ARC
  5
4B7
100
AcDbEntity
  8
0
100
AcDbCircle
 62
7
  6
CONTINUOUS
 10
997.1613036771
 20
19.3405843338
 40
1067.2112292954
100
AcDbArc
 50
181.6559808492
 51
181.8558722684
  0
LINE
  5
4B8
100
AcDbEntity
  8
0
100
AcDbLine
 62
7
  6
CONTINUOUS
 10
-5.999992376
 20
-11.4921974898
 11
-6.0
 21
-11.5
  0
SPLINE
  5
4B9
100
AcDbEntity
  8
0
100
AcDbSpline
 62
253
  6
CONTINUOUS
 70
0
 71
3
 72
11
 73
7
 74
5
 42
0.0000001
 43
0.0000001
 44
0.0000000001
 12
-1.7875164419
 22
7.8518123662
 32
0.0
 13
1.773584499
 23
7.8549710686
 33
0.0
 40
0.0
 40
0.0
 40
0.0
 40
0.0
 40
0.2511912099
 40
0.4994025424
 40
0.7478264322
 40
1.0
 40
1.0
 40
1.0
 40
1.0
 10
-2.2110011609
 20
-15.4944257698
 30
0.0
 10
-2.3606706335
 20
-14.8369903537
 30
0.0
 10
-2.5879258983
 20
-13.5125972806
 30
0.0
 10
-2.702411954
 20
-11.5043104851
 30
0.0
 10
-2.5872254674
 20
-9.4934319842
 30
0.0
 10
-2.3601108023
 20
-8.1658475694
 30
0.0
 10
-2.211027092
 20
-7.505575543
 30
0.0
 11
-2.2110011609
 21
-15.4944257698
 31
0.0
 11
-2.5511304422
 21
-13.5004567207
 31
0.0
 11
-2.6643054467
 21
-11.5048889973
 31
0.0
 11
-2.5508349495
 21
-9.5076236277
 31
0.0
 11
-2.211027092
 21
-7.505575543
 31
0.0
  0
SPLINE
  5
4BA
100
AcDbEntity
  8
0
100
AcDbSpline
 62
253
  6
CONTINUOUS
 70
0
 71
3
 72
11
 73
7
 74
5
 42
0.0000001
 43
0.0000001
 44
0.0000000001
 12
-1.9664917591
 22
7.8344820983
 32
0.0
 13
1.9517700114
 23
7.8381626297
 33
0.0
 40
0.0
 40
0.0
 40
0.0
 40
0.0
 40
0.25142455
 40
0.499404222
 40
0.7475937258
 40
1.0
 40
1.0
 40
1.0
 40
1.0
 10
-1.999999422
 20
-15.5000000127
 30
0.0
 10
-2.1648075238
 20
-14.8434063007
 30
0.0
 10
-2.415543629
 20
-13.518368883
 30
0.0
 10
-2.5420896449
 20
-11.5043274565
 30
0.0
 10
-2.4148244134
 20
-9.487692809
 30
0.0
 10
-2.1642134818
 20
-8.1594671523
 30
0.0
 10
-2.0000004829
 20
-7.5000000104
 30
0.0
 11
-1.999999422
 21
-15.5000000127
 31
0.0
 11
-2.3751476467
 21
-13.5040649119
 31
0.0
 11
-2.5000045217
 21
-11.5049012893
 31
0.0
 11
-2.3748592606
 21
-9.5040574644
 31
0.0
 11
-2.0000004829
 21
-7.5000000104
 31
0.0
  0
LINE
  5
4BB
100
AcDbEntity
  8
0
100
AcDbLine
 62
7
  6
CONTINUOUS
 10
-2.0000005784
 20
-15.4999973029
 11
-1.9584624095
 21
-15.4999974068
  0
LINE
  5
4BC
100
AcDbEntity
  8
0
100
AcDbLine
 62
7
  6
CONTINUOUS
 10
-1.9584624095
 20
-15.4999974068
 11
1.9584242253
 21
-15.4999974069
  0
LINE
  5
4BD
100
AcDbEntity
  8
0
100
AcDbLine
 62
7
  6
CONTINUOUS
 10
1.9584242253
 20
-15.4999974069
 11
2.0000005784
 21
-15.4999973029
  0
LINE
  5
4BE
100
AcDbEntity
  8
0
100
AcDbLine
 62
7
  6
CONTINUOUS
 10
1.9999995166
 20
-7.4999977699
 11
1.9785649243
 21
-7.4999978158
  0
LINE
  5
4BF
100
AcDbEntity
  8
0
100
AcDbLine
 62
7
  6
CONTINUOUS
 10
1.9785649243
 20
-7.4999978158
 11
0.2285168409
 21
-7.5000001355
  0
LINE
  5
4C0
100
AcDbEntity
  8
0
100
AcDbLine
 62
7
  6
CONTINUOUS
 10
0.2285168409
 20
-7.5000001355
 11
0.2163307871
 21
-7.5000001409
  0
LINE
  5
4C1
100
AcDbEntity
  8
0
100
AcDbLine
 62
7
  6
CONTINUOUS
 10
0.2163307871
 20
-7.5000001409
 11
-0.2163585854
 21
-7.5000001408
  0
LINE
  5
4C2
100
AcDbEntity
  8
0
100
AcDbLine
 62
7
  6
CONTINUOUS
 10
-0.2163585854
 20
-7.5000001408
 11
-0.2285331376
 21
-7.5000001355
  0
LINE
  5
4C3
100
AcDbEntity
  8
0
100
AcDbLine
 62
7
  6
CONTINUOUS
 10
-0.2285331376
 20
-7.5000001355
 11
-1.9785808245
 21
-7.4999978157
  0
LINE
  5
4C4
100
AcDbEntity
  8
0
100
AcDbLine
 62
7
  6
CONTINUOUS
 10
-1.9785808245
 20
-7.4999978157
 11
-1.9999995166
 21
-7.4999977699
  0
SPLINE
  5
4C5
100
AcDbEntity
  8
0
100
AcDbSpline
 62
253
  6
CONTINUOUS
 70
0
 71
3
 72
11
 73
7
 74
5
 42
0.0000001
 43
0.0000001
 44
0.0000000001
 12
1.966483184
 22
7.8344824326
 32
0.0
 13
-1.9517531245
 23
7.8381650175
 33
0.0
 40
0.0
 40
0.0
 40
0.0
 40
0.0
 40
0.2514239107
 40
0.4994034021
 40
0.7475931372
 40
1.0
 40
1.0
 40
1.0
 40
1.0
 10
2.0000005789
 20
-15.4999954037
 30
0.0
 10
2.164807543
 20
-14.8434033331
 30
0.0
 10
2.4155416748
 20
-13.5183681026
 30
0.0
 10
2.5420860556
 20
-11.5043286612
 30
0.0
 10
2.4148209638
 20
-9.4876928021
 30
0.0
 10
2.1642114773
 20
-8.1594650091
 30
0.0
 10
1.9999995163
 20
-7.4999961284
 30
0.0
 11
2.0000005789
 21
-15.4999954037
 31
0.0
 11
2.3751457323
 21
-13.5040654307
 31
0.0
 11
2.5000012243
 21
-11.504903622
 31
0.0
 11
2.3748562764
 21
-9.5040583441
 31
0.0
 11
1.9999995163
 21
-7.4999961284
 31
0.0
  0
SPLINE
  5
4C6
100
AcDbEntity
  8
0
100
AcDbSpline
 62
253
  6
CONTINUOUS
 70
0
 71
3
 72
11
 73
7
 74
5
 42
0.0000001
 43
0.0000001
 44
0.0000000001
 12
1.7875042611
 22
7.8518128446
 32
0.0
 13
-1.7735601599
 23
7.8549742704
 33
0.0
 40
0.0
 40
0.0
 40
0.0
 40
0.0
 40
0.2511905357
 40
0.4994016813
 40
0.7478258161
 40
1.0
 40
1.0
 40
1.0
 40
1.0
 10
2.2110096684
 20
-15.4944253244
 30
0.0
 10
2.3606777193
 20
-14.8369916329
 30
0.0
 10
2.5879306682
 20
-13.512600921
 30
0.0
 10
2.702415303
 20
-11.5043163403
 30
0.0
 10
2.587229882
 20
-9.4934366237
 30
0.0
 10
2.36011773
 20
-8.1658499073
 30
0.0
 10
2.2110357013
 20
-7.5055759984
 30
0.0
 11
2.2110096684
 21
-15.4944253244
 31
0.0
 11
2.5511353805
 21
-13.5004617446
 31
0.0
 11
2.6643092055
 21
-11.5048960175
 31
0.0
 11
2.5508399286
 21
-9.5076291597
 31
0.0
 11
2.2110357013
 21
-7.5055759984
 31
0.0
  0
SPLINE
  5
4C7
100
AcDbEntity
  8
0
100
AcDbSpline
 62
7
  6
CONTINUOUS
 70
0
 71
3
 72
15
 73
11
 74
9
 42
0.0000001
 43
0.0000001
 44
0.0000000001
 12
0.3142908459
 22
0.0
 32
0.0
 13
0.0031667975
 23
0.3142748912
 33
0.0
 40
0.0
 40
0.0
 40
0.0
 40
0.0
 40
0.1666133779
 40
0.3262255844
 40
0.4735308137
 40
0.6056575217
 40
0.7220676483
 40
0.8241942131
 40
0.9152281509
 40
1.0
 40
1.0
 40
1.0
 40
1.0
 10
14.9927234819
 20
23.1226497308
 30
0.0
 10
15.0101785017
 20
23.1226497308
 30
0.0
 10
15.0443856929
 20
23.124909705
 30
0.0
 10
15.0932620946
 20
23.1340775763
 30
0.0
 10
15.1371035061
 20
23.1484769636
 30
0.0
 10
15.1743461767
 20
23.1671011817
 30
0.0
 10
15.2040985049
 20
23.1890111222
 30
0.0
 10
15.2258950298
 20
23.2134107396
 30
0.0
 10
15.2393986841
 20
23.239611024
 30
0.0
 10
15.242629766
 20
23.2581067436
 30
0.0
 10
15.2427192511
 20
23.2669872981
 30
0.0
 11
14.9927234819
 21
23.1226497308
 31
0.0
 11
15.0449802175
 21
23.126016189
 31
0.0
 11
15.0942534457
 21
23.1354311576
 31
0.0
 11
15.1381709782
 21
23.1500815293
 31
0.0
 11
15.1751759211
 21
23.1689245842
 31
0.0
 11
15.2044151803
 21
23.1909165769
 31
0.0
 11
15.2254977136
 21
23.215119319
 31
0.0
 11
15.2382790097
 21
23.2407168857
 31
0.0
 11
15.2427192511
 21
23.2669872981
 31
0.0
  0
SPLINE
  5
4C8
100
AcDbEntity
  8
0
100
AcDbSpline
 62
253
  6
CONTINUOUS
 70
0
 71
3
 72
13
 73
9
 74
7
 42
0.0000001
 43
0.0000001
 44
0.0000000001
 12
0.0012265944
 22
-0.3651869709
 32
0.0
 13
0.3651878721
 23
-0.0009199792
 33
0.0
 40
0.0
 40
0.0
 40
0.0
 40
0.0
 40
0.1162394899
 40
0.2339784923
 40
0.3543712679
 40
0.4780982409
 40
0.7345378657
 40
1.0
 40
1.0
 40
1.0
 40
1.0
 10
12.3630985787
 20
23.8443375673
 30
0.0
 10
12.363146105
 20
23.8301878516
 30
0.0
 10
12.3665046396
 20
23.8016148337
 30
0.0
 10
12.3810612265
 20
23.7606544968
 30
0.0
 10
12.4045320998
 20
23.7229827139
 30
0.0
 10
12.4468348266
 20
23.6786209789
 30
0.0
 10
12.5167610945
 20
23.6387867994
 30
0.0
 10
12.5807798306
 20
23.6279126229
 30
0.0
 10
12.6130943479
 20
23.6278312164
 30
0.0
 11
12.3630985787
 21
23.8443375673
 31
0.0
 11
12.3680263068
 21
23.8021751679
 31
0.0
 11
12.3823368095
 21
23.7616295042
 31
0.0
 11
12.4054824773
 21
23.7242490565
 31
0.0
 11
12.4365773793
 21
23.6914667926
 31
0.0
 11
12.5175929316
 21
23.6444922901
 31
0.0
 11
12.6130943479
 21
23.6278312164
 31
0.0
  0
SPLINE
  5
4C9
100
AcDbEntity
  8
0
100
AcDbSpline
 62
7
  6
CONTINUOUS
 70
0
 71
3
 72
15
 73
11
 74
9
 42
0.0000001
 43
0.0000001
 44
0.0000000001
 12
0.0031741039
 22
-0.3149999784
 32
0.0
 13
0.3150159699
 23
0.0
 33
0.0
 40
0.0
 40
0.0
 40
0.0
 40
0.0
 40
0.0847246382
 40
0.1757279367
 40
0.2778501555
 40
0.3942839058
 40
0.5264550939
 40
0.6738071548
 40
0.8334364544
 40
1.0
 40
1.0
 40
1.0
 40
1.0
 10
12.3572807489
 20
23.2669872981
 30
0.0
 10
12.3573703905
 20
23.2580912117
 30
0.0
 10
12.3606131795
 20
23.2395608029
 30
0.0
 10
12.3741645701
 20
23.2133174142
 30
0.0
 10
12.396036015
 20
23.1888844894
 30
0.0
 10
12.425888076
 20
23.1669547435
 30
0.0
 10
12.463250807
 20
23.1483274499
 30
0.0
 10
12.5072234122
 20
23.133953471
 30
0.0
 10
12.5562269929
 20
23.1248150691
 30
0.0
 10
12.5905136879
 20
23.1226497308
 30
0.0
 10
12.6080037468
 20
23.1226497308
 30
0.0
 11
12.3572807489
 21
23.2669872981
 31
0.0
 11
12.3617358026
 21
23.2406721314
 31
0.0
 11
12.3745605835
 21
23.2150332915
 31
0.0
 11
12.3957149112
 21
23.1907967144
 31
0.0
 11
12.4250527761
 21
23.1687830511
 31
0.0
 11
12.4621789369
 21
23.1499360992
 31
0.0
 11
12.5062311591
 21
23.1353054509
 31
0.0
 11
12.5556366974
 21
23.1259378303
 31
0.0
 11
12.6080037468
 21
23.1226497308
 31
0.0
  0
SPLINE
  5
4CA
100
AcDbEntity
  8
0
100
AcDbSpline
 62
253
  6
CONTINUOUS
 70
0
 71
3
 72
13
 73
9
 74
7
 42
0.0000001
 43
0.0000001
 44
0.0000000001
 12
-0.0012265944
 22
-0.3651869708
 32
0.0
 13
-0.3651878719
 23
-0.0009199792
 33
0.0
 40
0.0
 40
0.0
 40
0.0
 40
0.0
 40
0.1162394861
 40
0.2339784844
 40
0.3543712552
 40
0.4780982232
 40
0.7345378384
 40
1.0
 40
1.0
 40
1.0
 40
1.0
 10
15.2369014213
 20
23.8443375673
 30
0.0
 10
15.2368538951
 20
23.830187852
 30
0.0
 10
15.2334953606
 20
23.8016148352
 30
0.0
 10
15.2189387749
 20
23.7606544996
 30
0.0
 10
15.1954679029
 20
23.7229827179
 30
0.0
 10
15.1531651791
 20
23.6786209833
 30
0.0
 10
15.083238911
 20
23.6387868014
 30
0.0
 10
15.0192201727
 20
23.6279126229
 30
0.0
 10
14.9869056521
 20
23.6278312164
 30
0.0
 11
15.2369014213
 21
23.8443375673
 31
0.0
 11
15.2319736935
 21
23.8021751692
 31
0.0
 11
15.2176631919
 21
23.7616295068
 31
0.0
 11
15.1945175256
 21
23.7242490603
 31
0.0
 11
15.1634226257
 21
23.6914667969
 31
0.0
 11
15.0824070779
 21
23.6444922937
 31
0.0
 11
14.9869056521
 21
23.6278312164
 31
0.0
  0
SPLINE
  5
4CB
100
AcDbEntity
  8
0
100
AcDbSpline
 62
253
  6
CONTINUOUS
 70
0
 71
3
 72
13
 73
9
 74
7
 42
0.0000001
 43
0.0000001
 44
0.0000000001
 12
0.0012265944
 22
-0.3651869708
 32
0.0
 13
0.3651878719
 23
-0.0009199792
 33
0.0
 40
0.0
 40
0.0
 40
0.0
 40
0.0
 40
0.1162394861
 40
0.2339784844
 40
0.3543712552
 40
0.4780982232
 40
0.7345378384
 40
1.0
 40
1.0
 40
1.0
 40
1.0
 10
29.7630985787
 20
23.8443375673
 30
0.0
 10
29.7631461049
 20
23.830187852
 30
0.0
 10
29.7665046394
 20
23.8016148352
 30
0.0
 10
29.7810612251
 20
23.7606544996
 30
0.0
 10
29.8045320971
 20
23.7229827179
 30
0.0
 10
29.8468348209
 20
23.6786209833
 30
0.0
 10
29.916761089
 20
23.6387868014
 30
0.0
 10
29.9807798273
 20
23.6279126229
 30
0.0
 10
30.0130943479
 20
23.6278312164
 30
0.0
 11
29.7630985787
 21
23.8443375673
 31
0.0
 11
29.7680263065
 21
23.8021751692
 31
0.0
 11
29.7823368081
 21
23.7616295068
 31
0.0
 11
29.8054824744
 21
23.7242490603
 31
0.0
 11
29.8365773743
 21
23.6914667969
 31
0.0
 11
29.9175929221
 21
23.6444922937
 31
0.0
 11
30.0130943479
 21
23.6278312164
 31
0.0
  0
SPLINE
  5
4CC
100
AcDbEntity
  8
0
100
AcDbSpline
 62
7
  6
CONTINUOUS
 70
0
 71
3
 72
15
 73
11
 74
9
 42
0.0000001
 43
0.0000001
 44
0.0000000001
 12
0.0031741039
 22
-0.3149999784
 32
0.0
 13
0.3150159699
 23
0.0
 33
0.0
 40
0.0
 40
0.0
 40
0.0
 40
0.0
 40
0.0847246382
 40
0.1757279367
 40
0.2778501555
 40
0.3942839058
 40
0.5264550939
 40
0.6738071548
 40
0.8334364544
 40
1.0
 40
1.0
 40
1.0
 40
1.0
 10
29.7572807489
 20
23.2669872981
 30
0.0
 10
29.7573703905
 20
23.2580912117
 30
0.0
 10
29.7606131795
 20
23.2395608029
 30
0.0
 10
29.7741645701
 20
23.2133174142
 30
0.0
 10
29.796036015
 20
23.1888844894
 30
0.0
 10
29.825888076
 20
23.1669547435
 30
0.0
 10
29.863250807
 20
23.1483274499
 30
0.0
 10
29.9072234122
 20
23.133953471
 30
0.0
 10
29.9562269929
 20
23.1248150691
 30
0.0
 10
29.9905136879
 20
23.1226497308
 30
0.0
 10
30.0080037468
 20
23.1226497308
 30
0.0
 11
29.7572807489
 21
23.2669872981
 31
0.0
 11
29.7617358026
 21
23.2406721314
 31
0.0
 11
29.7745605835
 21
23.2150332915
 31
0.0
 11
29.7957149112
 21
23.1907967144
 31
0.0
 11
29.8250527761
 21
23.1687830511
 31
0.0
 11
29.8621789369
 21
23.1499360992
 31
0.0
 11
29.9062311591
 21
23.1353054509
 31
0.0
 11
29.9556366974
 21
23.1259378303
 31
0.0
 11
30.0080037468
 21
23.1226497308
 31
0.0
  0
SPLINE
  5
4CD
100
AcDbEntity
  8
0
100
AcDbSpline
 62
7
  6
CONTINUOUS
 70
0
 71
3
 72
15
 73
11
 74
9
 42
0.0000001
 43
0.0000001
 44
0.0000000001
 12
-0.0031741039
 22
-0.3149999784
 32
0.0
 13
-0.3150159699
 23
0.0
 33
0.0
 40
0.0
 40
0.0
 40
0.0
 40
0.0
 40
0.0847246382
 40
0.1757279367
 40
0.2778501555
 40
0.3942839058
 40
0.5264550939
 40
0.6738071548
 40
0.8334364544
 40
1.0
 40
1.0
 40
1.0
 40
1.0
 10
32.6427192511
 20
23.2669872981
 30
0.0
 10
32.6426296095
 20
23.2580912117
 30
0.0
 10
32.6393868205
 20
23.2395608029
 30
0.0
 10
32.6258354299
 20
23.2133174142
 30
0.0
 10
32.603963985
 20
23.1888844894
 30
0.0
 10
32.574111924
 20
23.1669547435
 30
0.0
 10
32.536749193
 20
23.1483274499
 30
0.0
 10
32.4927765878
 20
23.133953471
 30
0.0
 10
32.4437730071
 20
23.1248150691
 30
0.0
 10
32.4094863121
 20
23.1226497308
 30
0.0
 10
32.3919962532
 20
23.1226497308
 30
0.0
 11
32.6427192511
 21
23.2669872981
 31
0.0
 11
32.6382641974
 21
23.2406721314
 31
0.0
 11
32.6254394165
 21
23.2150332915
 31
0.0
 11
32.6042850888
 21
23.1907967144
 31
0.0
 11
32.5749472239
 21
23.1687830511
 31
0.0
 11
32.5378210631
 21
23.1499360992
 31
0.0
 11
32.4937688409
 21
23.1353054509
 31
0.0
 11
32.4443633026
 21
23.1259378303
 31
0.0
 11
32.3919962532
 21
23.1226497308
 31
0.0
  0
SPLINE
  5
4CE
100
AcDbEntity
  8
0
100
AcDbSpline
 62
253
  6
CONTINUOUS
 70
0
 71
3
 72
13
 73
9
 74
7
 42
0.0000001
 43
0.0000001
 44
0.0000000001
 12
-0.0012265943
 22
-0.3651869702
 32
0.0
 13
-0.3651878714
 23
-0.0009199792
 33
0.0
 40
0.0
 40
0.0
 40
0.0
 40
0.0
 40
0.1162393822
 40
0.2339783947
 40
0.3543711753
 40
0.4780981573
 40
0.7345378061
 40
1.0
 40
1.0
 40
1.0
 40
1.0
 10
32.6369014213
 20
23.8443375673
 30
0.0
 10
32.6368538951
 20
23.8301878647
 30
0.0
 10
32.6334953621
 20
23.8016148597
 30
0.0
 10
32.6189387922
 20
23.7606545287
 30
0.0
 10
32.59546792
 20
23.7229827412
 30
0.0
 10
32.5531651981
 20
23.6786209956
 30
0.0
 10
32.4832389227
 20
23.6387868046
 30
0.0
 10
32.4192201766
 20
23.6279126229
 30
0.0
 10
32.3869056521
 20
23.6278312164
 30
0.0
 11
32.6369014213
 21
23.8443375673
 31
0.0
 11
32.6319737009
 21
23.8021752067
 31
0.0
 11
32.617663207
 21
23.761629536
 31
0.0
 11
32.5945175433
 21
23.7242490838
 31
0.0
 11
32.563422644
 21
23.6914668129
 31
0.0
 11
32.482407089
 21
23.644492298
 31
0.0
 11
32.3869056521
 21
23.6278312164
 31
0.0
  0
SPLINE
  5
4CF
100
AcDbEntity
  8
0
100
AcDbSpline
 62
253
  6
CONTINUOUS
 70
0
 71
3
 72
13
 73
9
 74
7
 42
0.0000001
 43
0.0000001
 44
0.0000000001
 12
-0.0012265944
 22
0.3651869708
 32
0.0
 13
-0.3651878719
 23
0.0009199792
 33
0.0
 40
0.0
 40
0.0
 40
0.0
 40
0.0
 40
0.1162394861
 40
0.2339784844
 40
0.3543712552
 40
0.4780982232
 40
0.7345378384
 40
1.0
 40
1.0
 40
1.0
 40
1.0
 10
32.6369014213
 20
-23.8443375673
 30
0.0
 10
32.6368538951
 20
-23.830187852
 30
0.0
 10
32.6334953606
 20
-23.8016148352
 30
0.0
 10
32.6189387749
 20
-23.7606544996
 30
0.0
 10
32.5954679029
 20
-23.7229827179
 30
0.0
 10
32.5531651791
 20
-23.6786209833
 30
0.0
 10
32.483238911
 20
-23.6387868014
 30
0.0
 10
32.4192201727
 20
-23.6279126229
 30
0.0
 10
32.3869056521
 20
-23.6278312164
 30
0.0
 11
32.6369014213
 21
-23.8443375673
 31
0.0
 11
32.6319736935
 21
-23.8021751692
 31
0.0
 11
32.6176631919
 21
-23.7616295068
 31
0.0
 11
32.5945175256
 21
-23.7242490603
 31
0.0
 11
32.5634226257
 21
-23.6914667969
 31
0.0
 11
32.4824070779
 21
-23.6444922937
 31
0.0
 11
32.3869056521
 21
-23.6278312164
 31
0.0
  0
SPLINE
  5
4D0
100
AcDbEntity
  8
0
100
AcDbSpline
 62
7
  6
CONTINUOUS
 70
0
 71
3
 72
15
 73
11
 74
9
 42
0.0000001
 43
0.0000001
 44
0.0000000001
 12
-0.0031741039
 22
0.3149999784
 32
0.0
 13
-0.3150159699
 23
0.0
 33
0.0
 40
0.0
 40
0.0
 40
0.0
 40
0.0
 40
0.0847246382
 40
0.1757279367
 40
0.2778501555
 40
0.3942839058
 40
0.5264550939
 40
0.6738071548
 40
0.8334364544
 40
1.0
 40
1.0
 40
1.0
 40
1.0
 10
32.6427192511
 20
-23.2669872981
 30
0.0
 10
32.6426296095
 20
-23.2580912117
 30
0.0
 10
32.6393868205
 20
-23.2395608029
 30
0.0
 10
32.6258354299
 20
-23.2133174142
 30
0.0
 10
32.603963985
 20
-23.1888844894
 30
0.0
 10
32.574111924
 20
-23.1669547435
 30
0.0
 10
32.536749193
 20
-23.1483274499
 30
0.0
 10
32.4927765878
 20
-23.133953471
 30
0.0
 10
32.4437730071
 20
-23.1248150691
 30
0.0
 10
32.4094863121
 20
-23.1226497308
 30
0.0
 10
32.3919962532
 20
-23.1226497308
 30
0.0
 11
32.6427192511
 21
-23.2669872981
 31
0.0
 11
32.6382641974
 21
-23.2406721314
 31
0.0
 11
32.6254394165
 21
-23.2150332915
 31
0.0
 11
32.6042850888
 21
-23.1907967144
 31
0.0
 11
32.5749472239
 21
-23.1687830511
 31
0.0
 11
32.5378210631
 21
-23.1499360992
 31
0.0
 11
32.4937688409
 21
-23.1353054509
 31
0.0
 11
32.4443633026
 21
-23.1259378303
 31
0.0
 11
32.3919962532
 21
-23.1226497308
 31
0.0
  0
SPLINE
  5
4D1
100
AcDbEntity
  8
0
100
AcDbSpline
 62
7
  6
CONTINUOUS
 70
0
 71
3
 72
15
 73
11
 74
9
 42
0.0000001
 43
0.0000001
 44
0.0000000001
 12
0.0031741039
 22
0.3149999784
 32
0.0
 13
0.3150159699
 23
-0.0
 33
0.0
 40
0.0
 40
0.0
 40
0.0
 40
0.0
 40
0.0847246382
 40
0.1757279367
 40
0.2778501555
 40
0.3942839058
 40
0.5264550939
 40
0.6738071548
 40
0.8334364544
 40
1.0
 40
1.0
 40
1.0
 40
1.0
 10
29.7572807489
 20
-23.2669872981
 30
0.0
 10
29.7573703905
 20
-23.2580912117
 30
0.0
 10
29.7606131795
 20
-23.2395608029
 30
0.0
 10
29.7741645701
 20
-23.2133174142
 30
0.0
 10
29.796036015
 20
-23.1888844894
 30
0.0
 10
29.825888076
 20
-23.1669547435
 30
0.0
 10
29.863250807
 20
-23.1483274499
 30
0.0
 10
29.9072234122
 20
-23.133953471
 30
0.0
 10
29.9562269929
 20
-23.1248150691
 30
0.0
 10
29.9905136879
 20
-23.1226497308
 30
0.0
 10
30.0080037468
 20
-23.1226497308
 30
0.0
 11
29.7572807489
 21
-23.2669872981
 31
0.0
 11
29.7617358026
 21
-23.2406721314
 31
0.0
 11
29.7745605835
 21
-23.2150332915
 31
0.0
 11
29.7957149112
 21
-23.1907967144
 31
0.0
 11
29.8250527761
 21
-23.1687830511
 31
0.0
 11
29.8621789369
 21
-23.1499360992
 31
0.0
 11
29.9062311591
 21
-23.1353054509
 31
0.0
 11
29.9556366974
 21
-23.1259378303
 31
0.0
 11
30.0080037468
 21
-23.1226497308
 31
0.0
  0
SPLINE
  5
4D2
100
AcDbEntity
  8
0
100
AcDbSpline
 62
253
  6
CONTINUOUS
 70
0
 71
3
 72
13
 73
9
 74
7
 42
0.0000001
 43
0.0000001
 44
0.0000000001
 12
0.0012265943
 22
0.3651869702
 32
0.0
 13
0.3651878714
 23
0.0009199792
 33
0.0
 40
0.0
 40
0.0
 40
0.0
 40
0.0
 40
0.1162393822
 40
0.2339783947
 40
0.3543711753
 40
0.4780981573
 40
0.7345378061
 40
1.0
 40
1.0
 40
1.0
 40
1.0
 10
29.7630985787
 20
-23.8443375673
 30
0.0
 10
29.7631461049
 20
-23.8301878647
 30
0.0
 10
29.7665046379
 20
-23.8016148597
 30
0.0
 10
29.7810612078
 20
-23.7606545287
 30
0.0
 10
29.80453208
 20
-23.7229827412
 30
0.0
 10
29.8468348019
 20
-23.6786209956
 30
0.0
 10
29.9167610773
 20
-23.6387868046
 30
0.0
 10
29.9807798234
 20
-23.6279126229
 30
0.0
 10
30.0130943479
 20
-23.6278312164
 30
0.0
 11
29.7630985787
 21
-23.8443375673
 31
0.0
 11
29.7680262991
 21
-23.8021752067
 31
0.0
 11
29.782336793
 21
-23.761629536
 31
0.0
 11
29.8054824567
 21
-23.7242490838
 31
0.0
 11
29.836577356
 21
-23.6914668129
 31
0.0
 11
29.917592911
 21
-23.644492298
 31
0.0
 11
30.0130943479
 21
-23.6278312164
 31
0.0
  0
SPLINE
  5
4D3
100
AcDbEntity
  8
0
100
AcDbSpline
 62
253
  6
CONTINUOUS
 70
0
 71
3
 72
13
 73
9
 74
7
 42
0.0000001
 43
0.0000001
 44
0.0000000001
 12
-0.0012265944
 22
0.3651869708
 32
0.0
 13
-0.3651878719
 23
0.0009199792
 33
0.0
 40
0.0
 40
0.0
 40
0.0
 40
0.0
 40
0.1162394861
 40
0.2339784844
 40
0.3543712552
 40
0.4780982232
 40
0.7345378384
 40
1.0
 40
1.0
 40
1.0
 40
1.0
 10
15.2369014213
 20
-23.8443375673
 30
0.0
 10
15.2368538951
 20
-23.830187852
 30
0.0
 10
15.2334953606
 20
-23.8016148352
 30
0.0
 10
15.2189387749
 20
-23.7606544996
 30
0.0
 10
15.1954679029
 20
-23.7229827179
 30
0.0
 10
15.1531651791
 20
-23.6786209833
 30
0.0
 10
15.083238911
 20
-23.6387868014
 30
0.0
 10
15.0192201727
 20
-23.6279126229
 30
0.0
 10
14.9869056521
 20
-23.6278312164
 30
0.0
 11
15.2369014213
 21
-23.8443375673
 31
0.0
 11
15.2319736935
 21
-23.8021751692
 31
0.0
 11
15.2176631919
 21
-23.7616295068
 31
0.0
 11
15.1945175256
 21
-23.7242490603
 31
0.0
 11
15.1634226257
 21
-23.6914667969
 31
0.0
 11
15.0824070779
 21
-23.6444922937
 31
0.0
 11
14.9869056521
 21
-23.6278312164
 31
0.0
  0
SPLINE
  5
4D4
100
AcDbEntity
  8
0
100
AcDbSpline
 62
7
  6
CONTINUOUS
 70
0
 71
3
 72
15
 73
11
 74
9
 42
0.0000001
 43
0.0000001
 44
0.0000000001
 12
-0.0031741039
 22
0.3149999784
 32
0.0
 13
-0.3150159699
 23
0.0
 33
0.0
 40
0.0
 40
0.0
 40
0.0
 40
0.0
 40
0.0847246382
 40
0.1757279367
 40
0.2778501555
 40
0.3942839058
 40
0.5264550939
 40
0.6738071548
 40
0.8334364544
 40
1.0
 40
1.0
 40
1.0
 40
1.0
 10
15.2427192511
 20
-23.2669872981
 30
0.0
 10
15.2426296095
 20
-23.2580912117
 30
0.0
 10
15.2393868205
 20
-23.2395608029
 30
0.0
 10
15.2258354299
 20
-23.2133174142
 30
0.0
 10
15.203963985
 20
-23.1888844894
 30
0.0
 10
15.174111924
 20
-23.1669547435
 30
0.0
 10
15.136749193
 20
-23.1483274499
 30
0.0
 10
15.0927765878
 20
-23.133953471
 30
0.0
 10
15.0437730071
 20
-23.1248150691
 30
0.0
 10
15.0094863121
 20
-23.1226497308
 30
0.0
 10
14.9919962532
 20
-23.1226497308
 30
0.0
 11
15.2427192511
 21
-23.2669872981
 31
0.0
 11
15.2382641974
 21
-23.2406721314
 31
0.0
 11
15.2254394165
 21
-23.2150332915
 31
0.0
 11
15.2042850888
 21
-23.1907967144
 31
0.0
 11
15.1749472239
 21
-23.1687830511
 31
0.0
 11
15.1378210631
 21
-23.1499360992
 31
0.0
 11
15.0937688409
 21
-23.1353054509
 31
0.0
 11
15.0443633026
 21
-23.1259378303
 31
0.0
 11
14.9919962532
 21
-23.1226497308
 31
0.0
  0
SPLINE
  5
4D5
100
AcDbEntity
  8
0
100
AcDbSpline
 62
7
  6
CONTINUOUS
 70
0
 71
3
 72
15
 73
11
 74
9
 42
0.0000001
 43
0.0000001
 44
0.0000000001
 12
-0.3142908459
 22
0.0
 32
0.0
 13
-0.0031667975
 23
-0.3142748912
 33
0.0
 40
0.0
 40
0.0
 40
0.0
 40
0.0
 40
0.1666133779
 40
0.3262255844
 40
0.4735308137
 40
0.6056575217
 40
0.7220676483
 40
0.8241942131
 40
0.9152281509
 40
1.0
 40
1.0
 40
1.0
 40
1.0
 10
12.6072765181
 20
-23.1226497308
 30
0.0
 10
12.5898214983
 20
-23.1226497308
 30
0.0
 10
12.5556143071
 20
-23.124909705
 30
0.0
 10
12.5067379054
 20
-23.1340775763
 30
0.0
 10
12.4628964939
 20
-23.1484769636
 30
0.0
 10
12.4256538233
 20
-23.1671011817
 30
0.0
 10
12.3959014951
 20
-23.1890111222
 30
0.0
 10
12.3741049702
 20
-23.2134107396
 30
0.0
 10
12.3606013159
 20
-23.239611024
 30
0.0
 10
12.357370234
 20
-23.2581067436
 30
0.0
 10
12.3572807489
 20
-23.2669872981
 30
0.0
 11
12.6072765181
 21
-23.1226497308
 31
0.0
 11
12.5550197825
 21
-23.126016189
 31
0.0
 11
12.5057465543
 21
-23.1354311576
 31
0.0
 11
12.4618290218
 21
-23.1500815293
 31
0.0
 11
12.4248240789
 21
-23.1689245842
 31
0.0
 11
12.3955848197
 21
-23.1909165769
 31
0.0
 11
12.3745022864
 21
-23.215119319
 31
0.0
 11
12.3617209903
 21
-23.2407168857
 31
0.0
 11
12.3572807489
 21
-23.2669872981
 31
0.0
  0
SPLINE
  5
4D6
100
AcDbEntity
  8
0
100
AcDbSpline
 62
253
  6
CONTINUOUS
 70
0
 71
3
 72
13
 73
9
 74
7
 42
0.0000001
 43
0.0000001
 44
0.0000000001
 12
0.0012265944
 22
0.3651869708
 32
0.0
 13
0.3651878719
 23
0.0009199792
 33
0.0
 40
0.0
 40
0.0
 40
0.0
 40
0.0
 40
0.1162394861
 40
0.2339784844
 40
0.3543712552
 40
0.4780982232
 40
0.7345378384
 40
1.0
 40
1.0
 40
1.0
 40
1.0
 10
12.3630985787
 20
-23.8443375673
 30
0.0
 10
12.3631461049
 20
-23.830187852
 30
0.0
 10
12.3665046394
 20
-23.8016148352
 30
0.0
 10
12.3810612251
 20
-23.7606544996
 30
0.0
 10
12.4045320971
 20
-23.7229827179
 30
0.0
 10
12.4468348209
 20
-23.6786209833
 30
0.0
 10
12.516761089
 20
-23.6387868014
 30
0.0
 10
12.5807798273
 20
-23.6279126229
 30
0.0
 10
12.6130943479
 20
-23.6278312164
 30
0.0
 11
12.3630985787
 21
-23.8443375673
 31
0.0
 11
12.3680263065
 21
-23.8021751692
 31
0.0
 11
12.3823368081
 21
-23.7616295068
 31
0.0
 11
12.4054824744
 21
-23.7242490603
 31
0.0
 11
12.4365773743
 21
-23.6914667969
 31
0.0
 11
12.5175929221
 21
-23.6444922937
 31
0.0
 11
12.6130943479
 21
-23.6278312164
 31
0.0
  0
SPLINE
  5
4D7
100
AcDbEntity
  8
0
100
AcDbSpline
 62
7
  6
CONTINUOUS
 70
0
 71
3
 72
15
 73
11
 74
9
 42
0.0000001
 43
0.0000001
 44
0.0000000001
 12
0.0
 22
-0.7835849489
 32
0.0
 13
-0.7835849489
 23
-0.0
 33
0.0
 40
0.0
 40
0.0
 40
0.0
 40
0.0
 40
0.1250016995
 40
0.2500015929
 40
0.3750019934
 40
0.5000021438
 40
0.6250020315
 40
0.7500016142
 40
0.8750001245
 40
1.0
 40
1.0
 40
1.0
 40
1.0
 10
33.6491272468
 20
-21.8997711479
 30
0.0
 10
33.6491272468
 20
-21.9324209647
 30
0.0
 10
33.6427071378
 20
-21.9979001651
 30
0.0
 10
33.6141710301
 20
-22.0922261856
 30
0.0
 10
33.5678061813
 20
-22.1792278759
 30
0.0
 10
33.505372633
 20
-22.2555146988
 30
0.0
 10
33.4292585201
 20
-22.3181579234
 30
0.0
 10
33.3423705113
 20
-22.3647451103
 30
0.0
 10
33.2480978538
 20
-22.3934475677
 30
0.0
 10
33.1826246089
 20
-22.4
 30
0.0
 10
33.1499752685
 20
-22.4
 30
0.0
 11
33.6491272468
 21
-21.8997711479
 31
0.0
 11
33.6395560502
 21
-21.9972518487
 31
0.0
 11
33.6111996043
 21
-22.0910054062
 31
0.0
 11
33.5651280255
 21
-22.1774421175
 31
0.0
 11
33.503092465
 21
-22.2532408395
 31
0.0
 11
33.4274627432
 21
-22.3154819984
 31
0.0
 11
33.3411394798
 21
-22.3617644365
 31
0.0
 11
33.2474419862
 21
-22.3903018677
 31
0.0
 11
33.1499752685
 21
-22.4
 31
0.0
  0
SPLINE
  5
4D8
100
AcDbEntity
  8
0
100
AcDbSpline
 62
7
  6
CONTINUOUS
 70
0
 71
3
 72
15
 73
11
 74
9
 42
0.0000001
 43
0.0000001
 44
0.0000000001
 12
0.783584949
 22
0.0
 32
0.0
 13
-0.0
 23
-0.783584949
 33
0.0
 40
0.0
 40
0.0
 40
0.0
 40
0.0
 40
0.1249998755
 40
0.2499983858
 40
0.3749979685
 40
0.4999978562
 40
0.6249980066
 40
0.7499984071
 40
0.8749983005
 40
1.0
 40
1.0
 40
1.0
 40
1.0
 10
33.1499752684
 20
22.4
 30
0.0
 10
33.1826246088
 20
22.4
 30
0.0
 10
33.2480978538
 20
22.3934475677
 30
0.0
 10
33.3423705112
 20
22.3647451103
 30
0.0
 10
33.4292585201
 20
22.3181579234
 30
0.0
 10
33.505372633
 20
22.2555146988
 30
0.0
 10
33.5678061812
 20
22.1792278759
 30
0.0
 10
33.6141710301
 20
22.0922261856
 30
0.0
 10
33.6427071378
 20
21.9979001651
 30
0.0
 10
33.6491272468
 20
21.9324209647
 30
0.0
 10
33.6491272468
 20
21.8997711479
 30
0.0
 11
33.1499752684
 21
22.4
 31
0.0
 11
33.2474419861
 21
22.3903018677
 31
0.0
 11
33.3411394797
 21
22.3617644365
 31
0.0
 11
33.4274627432
 21
22.3154819985
 31
0.0
 11
33.503092465
 21
22.2532408395
 31
0.0
 11
33.5651280255
 21
22.1774421175
 31
0.0
 11
33.6111996043
 21
22.0910054062
 31
0.0
 11
33.6395560502
 21
21.9972518487
 31
0.0
 11
33.6491272468
 21
21.8997711479
 31
0.0
  0
SPLINE
  5
4D9
100
AcDbEntity
  8
0
100
AcDbSpline
 62
7
  6
CONTINUOUS
 70
0
 71
3
 72
15
 73
11
 74
9
 42
0.0000001
 43
0.0000001
 44
0.0000000001
 12
0.3142908459
 22
0.0
 32
0.0
 13
0.0031667975
 23
0.3142748912
 33
0.0
 40
0.0
 40
0.0
 40
0.0
 40
0.0
 40
0.1666133779
 40
0.3262255844
 40
0.4735308137
 40
0.6056575217
 40
0.7220676483
 40
0.8241942131
 40
0.9152281509
 40
1.0
 40
1.0
 40
1.0
 40
1.0
 10
-30.0072765181
 20
23.1226497308
 30
0.0
 10
-29.9898214983
 20
23.1226497308
 30
0.0
 10
-29.9556143071
 20
23.124909705
 30
0.0
 10
-29.9067379054
 20
23.1340775763
 30
0.0
 10
-29.8628964939
 20
23.1484769636
 30
0.0
 10
-29.8256538233
 20
23.1671011817
 30
0.0
 10
-29.7959014951
 20
23.1890111222
 30
0.0
 10
-29.7741049702
 20
23.2134107396
 30
0.0
 10
-29.7606013159
 20
23.239611024
 30
0.0
 10
-29.757370234
 20
23.2581067436
 30
0.0
 10
-29.7572807489
 20
23.2669872981
 30
0.0
 11
-30.0072765181
 21
23.1226497308
 31
0.0
 11
-29.9550197825
 21
23.126016189
 31
0.0
 11
-29.9057465543
 21
23.1354311576
 31
0.0
 11
-29.8618290218
 21
23.1500815293
 31
0.0
 11
-29.8248240789
 21
23.1689245842
 31
0.0
 11
-29.7955848197
 21
23.1909165769
 31
0.0
 11
-29.7745022864
 21
23.215119319
 31
0.0
 11
-29.7617209903
 21
23.2407168857
 31
0.0
 11
-29.7572807489
 21
23.2669872981
 31
0.0
  0
SPLINE
  5
4DA
100
AcDbEntity
  8
0
100
AcDbSpline
 62
253
  6
CONTINUOUS
 70
0
 71
3
 72
13
 73
9
 74
7
 42
0.0000001
 43
0.0000001
 44
0.0000000001
 12
0.0012265944
 22
-0.3651869709
 32
0.0
 13
0.3651878721
 23
-0.0009199792
 33
0.0
 40
0.0
 40
0.0
 40
0.0
 40
0.0
 40
0.1162394899
 40
0.2339784923
 40
0.3543712679
 40
0.4780982409
 40
0.7345378657
 40
1.0
 40
1.0
 40
1.0
 40
1.0
 10
-32.6369014213
 20
23.8443375673
 30
0.0
 10
-32.636853895
 20
23.8301878516
 30
0.0
 10
-32.6334953604
 20
23.8016148337
 30
0.0
 10
-32.6189387735
 20
23.7606544968
 30
0.0
 10
-32.5954679002
 20
23.7229827139
 30
0.0
 10
-32.5531651734
 20
23.6786209789
 30
0.0
 10
-32.4832389055
 20
23.6387867994
 30
0.0
 10
-32.4192201694
 20
23.6279126229
 30
0.0
 10
-32.3869056521
 20
23.6278312164
 30
0.0
 11
-32.6369014213
 21
23.8443375673
 31
0.0
 11
-32.6319736932
 21
23.8021751679
 31
0.0
 11
-32.6176631905
 21
23.7616295042
 31
0.0
 11
-32.5945175227
 21
23.7242490565
 31
0.0
 11
-32.5634226207
 21
23.6914667926
 31
0.0
 11
-32.4824070684
 21
23.6444922901
 31
0.0
 11
-32.3869056521
 21
23.6278312164
 31
0.0
  0
SPLINE
  5
4DB
100
AcDbEntity
  8
0
100
AcDbSpline
 62
7
  6
CONTINUOUS
 70
0
 71
3
 72
15
 73
11
 74
9
 42
0.0000001
 43
0.0000001
 44
0.0000000001
 12
0.0031741039
 22
-0.3149999784
 32
0.0
 13
0.3150159699
 23
0.0
 33
0.0
 40
0.0
 40
0.0
 40
0.0
 40
0.0
 40
0.0847246382
 40
0.1757279367
 40
0.2778501555
 40
0.3942839058
 40
0.5264550939
 40
0.6738071548
 40
0.8334364544
 40
1.0
 40
1.0
 40
1.0
 40
1.0
 10
-32.6427192511
 20
23.2669872981
 30
0.0
 10
-32.6426296095
 20
23.2580912117
 30
0.0
 10
-32.6393868205
 20
23.2395608029
 30
0.0
 10
-32.6258354299
 20
23.2133174142
 30
0.0
 10
-32.603963985
 20
23.1888844894
 30
0.0
 10
-32.574111924
 20
23.1669547435
 30
0.0
 10
-32.536749193
 20
23.1483274499
 30
0.0
 10
-32.4927765878
 20
23.133953471
 30
0.0
 10
-32.4437730071
 20
23.1248150691
 30
0.0
 10
-32.4094863121
 20
23.1226497308
 30
0.0
 10
-32.3919962532
 20
23.1226497308
 30
0.0
 11
-32.6427192511
 21
23.2669872981
 31
0.0
 11
-32.6382641974
 21
23.2406721314
 31
0.0
 11
-32.6254394165
 21
23.2150332915
 31
0.0
 11
-32.6042850888
 21
23.1907967144
 31
0.0
 11
-32.5749472239
 21
23.1687830511
 31
0.0
 11
-32.5378210631
 21
23.1499360992
 31
0.0
 11
-32.4937688409
 21
23.1353054509
 31
0.0
 11
-32.4443633026
 21
23.1259378303
 31
0.0
 11
-32.3919962532
 21
23.1226497308
 31
0.0
  0
SPLINE
  5
4DC
100
AcDbEntity
  8
0
100
AcDbSpline
 62
253
  6
CONTINUOUS
 70
0
 71
3
 72
13
 73
9
 74
7
 42
0.0000001
 43
0.0000001
 44
0.0000000001
 12
-0.0012265944
 22
-0.3651869708
 32
0.0
 13
-0.3651878719
 23
-0.0009199792
 33
0.0
 40
0.0
 40
0.0
 40
0.0
 40
0.0
 40
0.1162394861
 40
0.2339784844
 40
0.3543712552
 40
0.4780982232
 40
0.7345378384
 40
1.0
 40
1.0
 40
1.0
 40
1.0
 10
-29.7630985787
 20
23.8443375673
 30
0.0
 10
-29.7631461049
 20
23.830187852
 30
0.0
 10
-29.7665046394
 20
23.8016148352
 30
0.0
 10
-29.7810612251
 20
23.7606544996
 30
0.0
 10
-29.8045320971
 20
23.7229827179
 30
0.0
 10
-29.8468348209
 20
23.6786209833
 30
0.0
 10
-29.916761089
 20
23.6387868014
 30
0.0
 10
-29.9807798273
 20
23.6279126229
 30
0.0
 10
-30.0130943479
 20
23.6278312164
 30
0.0
 11
-29.7630985787
 21
23.8443375673
 31
0.0
 11
-29.7680263065
 21
23.8021751692
 31
0.0
 11
-29.7823368081
 21
23.7616295068
 31
0.0
 11
-29.8054824744
 21
23.7242490603
 31
0.0
 11
-29.8365773743
 21
23.6914667969
 31
0.0
 11
-29.9175929221
 21
23.6444922937
 31
0.0
 11
-30.0130943479
 21
23.6278312164
 31
0.0
  0
SPLINE
  5
4DD
100
AcDbEntity
  8
0
100
AcDbSpline
 62
253
  6
CONTINUOUS
 70
0
 71
3
 72
13
 73
9
 74
7
 42
0.0000001
 43
0.0000001
 44
0.0000000001
 12
0.0012265944
 22
-0.3651869708
 32
0.0
 13
0.3651878719
 23
-0.0009199792
 33
0.0
 40
0.0
 40
0.0
 40
0.0
 40
0.0
 40
0.1162394861
 40
0.2339784844
 40
0.3543712552
 40
0.4780982232
 40
0.7345378384
 40
1.0
 40
1.0
 40
1.0
 40
1.0
 10
-15.2369014213
 20
23.8443375673
 30
0.0
 10
-15.2368538951
 20
23.830187852
 30
0.0
 10
-15.2334953606
 20
23.8016148352
 30
0.0
 10
-15.2189387749
 20
23.7606544996
 30
0.0
 10
-15.1954679029
 20
23.7229827179
 30
0.0
 10
-15.1531651791
 20
23.6786209833
 30
0.0
 10
-15.083238911
 20
23.6387868014
 30
0.0
 10
-15.0192201727
 20
23.6279126229
 30
0.0
 10
-14.9869056521
 20
23.6278312164
 30
0.0
 11
-15.2369014213
 21
23.8443375673
 31
0.0
 11
-15.2319736935
 21
23.8021751692
 31
0.0
 11
-15.2176631919
 21
23.7616295068
 31
0.0
 11
-15.1945175256
 21
23.7242490603
 31
0.0
 11
-15.1634226257
 21
23.6914667969
 31
0.0
 11
-15.0824070779
 21
23.6444922937
 31
0.0
 11
-14.9869056521
 21
23.6278312164
 31
0.0
  0
SPLINE
  5
4DE
100
AcDbEntity
  8
0
100
AcDbSpline
 62
7
  6
CONTINUOUS
 70
0
 71
3
 72
15
 73
11
 74
9
 42
0.0000001
 43
0.0000001
 44
0.0000000001
 12
0.0031741039
 22
-0.3149999784
 32
0.0
 13
0.3150159699
 23
0.0
 33
0.0
 40
0.0
 40
0.0
 40
0.0
 40
0.0
 40
0.0847246382
 40
0.1757279367
 40
0.2778501555
 40
0.3942839058
 40
0.5264550939
 40
0.6738071548
 40
0.8334364544
 40
1.0
 40
1.0
 40
1.0
 40
1.0
 10
-15.2427192511
 20
23.2669872981
 30
0.0
 10
-15.2426296095
 20
23.2580912117
 30
0.0
 10
-15.2393868205
 20
23.2395608029
 30
0.0
 10
-15.2258354299
 20
23.2133174142
 30
0.0
 10
-15.203963985
 20
23.1888844894
 30
0.0
 10
-15.174111924
 20
23.1669547435
 30
0.0
 10
-15.136749193
 20
23.1483274499
 30
0.0
 10
-15.0927765878
 20
23.133953471
 30
0.0
 10
-15.0437730071
 20
23.1248150691
 30
0.0
 10
-15.0094863121
 20
23.1226497308
 30
0.0
 10
-14.9919962532
 20
23.1226497308
 30
0.0
 11
-15.2427192511
 21
23.2669872981
 31
0.0
 11
-15.2382641974
 21
23.2406721314
 31
0.0
 11
-15.2254394165
 21
23.2150332915
 31
0.0
 11
-15.2042850888
 21
23.1907967144
 31
0.0
 11
-15.1749472239
 21
23.1687830511
 31
0.0
 11
-15.1378210631
 21
23.1499360992
 31
0.0
 11
-15.0937688409
 21
23.1353054509
 31
0.0
 11
-15.0443633026
 21
23.1259378303
 31
0.0
 11
-14.9919962532
 21
23.1226497308
 31
0.0
  0
SPLINE
  5
4DF
100
AcDbEntity
  8
0
100
AcDbSpline
 62
7
  6
CONTINUOUS
 70
0
 71
3
 72
15
 73
11
 74
9
 42
0.0000001
 43
0.0000001
 44
0.0000000001
 12
-0.0031741039
 22
-0.3149999784
 32
0.0
 13
-0.3150159699
 23
0.0
 33
0.0
 40
0.0
 40
0.0
 40
0.0
 40
0.0
 40
0.0847246382
 40
0.1757279367
 40
0.2778501555
 40
0.3942839058
 40
0.5264550939
 40
0.6738071548
 40
0.8334364544
 40
1.0
 40
1.0
 40
1.0
 40
1.0
 10
-12.3572807489
 20
23.2669872981
 30
0.0
 10
-12.3573703905
 20
23.2580912117
 30
0.0
 10
-12.3606131795
 20
23.2395608029
 30
0.0
 10
-12.3741645701
 20
23.2133174142
 30
0.0
 10
-12.396036015
 20
23.1888844894
 30
0.0
 10
-12.425888076
 20
23.1669547435
 30
0.0
 10
-12.463250807
 20
23.1483274499
 30
0.0
 10
-12.5072234122
 20
23.133953471
 30
0.0
 10
-12.5562269929
 20
23.1248150691
 30
0.0
 10
-12.5905136879
 20
23.1226497308
 30
0.0
 10
-12.6080037468
 20
23.1226497308
 30
0.0
 11
-12.3572807489
 21
23.2669872981
 31
0.0
 11
-12.3617358026
 21
23.2406721314
 31
0.0
 11
-12.3745605835
 21
23.2150332915
 31
0.0
 11
-12.3957149112
 21
23.1907967144
 31
0.0
 11
-12.4250527761
 21
23.1687830511
 31
0.0
 11
-12.4621789369
 21
23.1499360992
 31
0.0
 11
-12.5062311591
 21
23.1353054509
 31
0.0
 11
-12.5556366974
 21
23.1259378303
 31
0.0
 11
-12.6080037468
 21
23.1226497308
 31
0.0
  0
SPLINE
  5
4E0
100
AcDbEntity
  8
0
100
AcDbSpline
 62
253
  6
CONTINUOUS
 70
0
 71
3
 72
13
 73
9
 74
7
 42
0.0000001
 43
0.0000001
 44
0.0000000001
 12
-0.0012265943
 22
-0.3651869702
 32
0.0
 13
-0.3651878714
 23
-0.0009199792
 33
0.0
 40
0.0
 40
0.0
 40
0.0
 40
0.0
 40
0.1162393822
 40
0.2339783947
 40
0.3543711753
 40
0.4780981573
 40
0.7345378061
 40
1.0
 40
1.0
 40
1.0
 40
1.0
 10
-12.3630985787
 20
23.8443375673
 30
0.0
 10
-12.3631461049
 20
23.8301878647
 30
0.0
 10
-12.3665046379
 20
23.8016148597
 30
0.0
 10
-12.3810612078
 20
23.7606545287
 30
0.0
 10
-12.40453208
 20
23.7229827412
 30
0.0
 10
-12.4468348019
 20
23.6786209956
 30
0.0
 10
-12.5167610773
 20
23.6387868046
 30
0.0
 10
-12.5807798234
 20
23.6279126229
 30
0.0
 10
-12.6130943479
 20
23.6278312164
 30
0.0
 11
-12.3630985787
 21
23.8443375673
 31
0.0
 11
-12.3680262991
 21
23.8021752067
 31
0.0
 11
-12.382336793
 21
23.761629536
 31
0.0
 11
-12.4054824567
 21
23.7242490838
 31
0.0
 11
-12.436577356
 21
23.6914668129
 31
0.0
 11
-12.517592911
 21
23.644492298
 31
0.0
 11
-12.6130943479
 21
23.6278312164
 31
0.0
  0
SPLINE
  5
4E1
100
AcDbEntity
  8
0
100
AcDbSpline
 62
253
  6
CONTINUOUS
 70
0
 71
3
 72
13
 73
9
 74
7
 42
0.0000001
 43
0.0000001
 44
0.0000000001
 12
-0.0012265944
 22
0.3651869708
 32
0.0
 13
-0.3651878719
 23
0.0009199792
 33
0.0
 40
0.0
 40
0.0
 40
0.0
 40
0.0
 40
0.1162394861
 40
0.2339784844
 40
0.3543712552
 40
0.4780982232
 40
0.7345378384
 40
1.0
 40
1.0
 40
1.0
 40
1.0
 10
-12.3630985787
 20
-23.8443375673
 30
0.0
 10
-12.3631461049
 20
-23.830187852
 30
0.0
 10
-12.3665046394
 20
-23.8016148352
 30
0.0
 10
-12.3810612251
 20
-23.7606544996
 30
0.0
 10
-12.4045320971
 20
-23.7229827179
 30
0.0
 10
-12.4468348209
 20
-23.6786209833
 30
0.0
 10
-12.516761089
 20
-23.6387868014
 30
0.0
 10
-12.5807798273
 20
-23.6279126229
 30
0.0
 10
-12.6130943479
 20
-23.6278312164
 30
0.0
 11
-12.3630985787
 21
-23.8443375673
 31
0.0
 11
-12.3680263065
 21
-23.8021751692
 31
0.0
 11
-12.3823368081
 21
-23.7616295068
 31
0.0
 11
-12.4054824744
 21
-23.7242490603
 31
0.0
 11
-12.4365773743
 21
-23.6914667969
 31
0.0
 11
-12.5175929221
 21
-23.6444922937
 31
0.0
 11
-12.6130943479
 21
-23.6278312164
 31
0.0
  0
SPLINE
  5
4E2
100
AcDbEntity
  8
0
100
AcDbSpline
 62
7
  6
CONTINUOUS
 70
0
 71
3
 72
15
 73
11
 74
9
 42
0.0000001
 43
0.0000001
 44
0.0000000001
 12
-0.0031741039
 22
0.3149999784
 32
0.0
 13
-0.3150159699
 23
0.0
 33
0.0
 40
0.0
 40
0.0
 40
0.0
 40
0.0
 40
0.0847246382
 40
0.1757279367
 40
0.2778501555
 40
0.3942839058
 40
0.5264550939
 40
0.6738071548
 40
0.8334364544
 40
1.0
 40
1.0
 40
1.0
 40
1.0
 10
-12.3572807489
 20
-23.2669872981
 30
0.0
 10
-12.3573703905
 20
-23.2580912117
 30
0.0
 10
-12.3606131795
 20
-23.2395608029
 30
0.0
 10
-12.3741645701
 20
-23.2133174142
 30
0.0
 10
-12.396036015
 20
-23.1888844894
 30
0.0
 10
-12.425888076
 20
-23.1669547435
 30
0.0
 10
-12.463250807
 20
-23.1483274499
 30
0.0
 10
-12.5072234122
 20
-23.133953471
 30
0.0
 10
-12.5562269929
 20
-23.1248150691
 30
0.0
 10
-12.5905136879
 20
-23.1226497308
 30
0.0
 10
-12.6080037468
 20
-23.1226497308
 30
0.0
 11
-12.3572807489
 21
-23.2669872981
 31
0.0
 11
-12.3617358026
 21
-23.2406721314
 31
0.0
 11
-12.3745605835
 21
-23.2150332915
 31
0.0
 11
-12.3957149112
 21
-23.1907967144
 31
0.0
 11
-12.4250527761
 21
-23.1687830511
 31
0.0
 11
-12.4621789369
 21
-23.1499360992
 31
0.0
 11
-12.5062311591
 21
-23.1353054509
 31
0.0
 11
-12.5556366974
 21
-23.1259378303
 31
0.0
 11
-12.6080037468
 21
-23.1226497308
 31
0.0
  0
SPLINE
  5
4E3
100
AcDbEntity
  8
0
100
AcDbSpline
 62
7
  6
CONTINUOUS
 70
0
 71
3
 72
15
 73
11
 74
9
 42
0.0000001
 43
0.0000001
 44
0.0000000001
 12
0.0031741039
 22
0.3149999784
 32
0.0
 13
0.3150159699
 23
0.0
 33
0.0
 40
0.0
 40
0.0
 40
0.0
 40
0.0
 40
0.0847246382
 40
0.1757279367
 40
0.2778501555
 40
0.3942839058
 40
0.5264550939
 40
0.6738071548
 40
0.8334364544
 40
1.0
 40
1.0
 40
1.0
 40
1.0
 10
-15.2427192511
 20
-23.2669872981
 30
0.0
 10
-15.2426296095
 20
-23.2580912117
 30
0.0
 10
-15.2393868205
 20
-23.2395608029
 30
0.0
 10
-15.2258354299
 20
-23.2133174142
 30
0.0
 10
-15.203963985
 20
-23.1888844894
 30
0.0
 10
-15.174111924
 20
-23.1669547435
 30
0.0
 10
-15.136749193
 20
-23.1483274499
 30
0.0
 10
-15.0927765878
 20
-23.133953471
 30
0.0
 10
-15.0437730071
 20
-23.1248150691
 30
0.0
 10
-15.0094863121
 20
-23.1226497308
 30
0.0
 10
-14.9919962532
 20
-23.1226497308
 30
0.0
 11
-15.2427192511
 21
-23.2669872981
 31
0.0
 11
-15.2382641974
 21
-23.2406721314
 31
0.0
 11
-15.2254394165
 21
-23.2150332915
 31
0.0
 11
-15.2042850888
 21
-23.1907967144
 31
0.0
 11
-15.1749472239
 21
-23.1687830511
 31
0.0
 11
-15.1378210631
 21
-23.1499360992
 31
0.0
 11
-15.0937688409
 21
-23.1353054509
 31
0.0
 11
-15.0443633026
 21
-23.1259378303
 31
0.0
 11
-14.9919962532
 21
-23.1226497308
 31
0.0
  0
SPLINE
  5
4E4
100
AcDbEntity
  8
0
100
AcDbSpline
 62
253
  6
CONTINUOUS
 70
0
 71
3
 72
13
 73
9
 74
7
 42
0.0000001
 43
0.0000001
 44
0.0000000001
 12
0.0012265943
 22
0.3651869702
 32
0.0
 13
0.3651878714
 23
0.0009199792
 33
0.0
 40
0.0
 40
0.0
 40
0.0
 40
0.0
 40
0.1162393822
 40
0.2339783947
 40
0.3543711753
 40
0.4780981573
 40
0.7345378061
 40
1.0
 40
1.0
 40
1.0
 40
1.0
 10
-15.2369014213
 20
-23.8443375673
 30
0.0
 10
-15.2368538951
 20
-23.8301878647
 30
0.0
 10
-15.2334953621
 20
-23.8016148597
 30
0.0
 10
-15.2189387922
 20
-23.7606545287
 30
0.0
 10
-15.19546792
 20
-23.7229827412
 30
0.0
 10
-15.1531651981
 20
-23.6786209956
 30
0.0
 10
-15.0832389227
 20
-23.6387868046
 30
0.0
 10
-15.0192201766
 20
-23.6279126229
 30
0.0
 10
-14.9869056521
 20
-23.6278312164
 30
0.0
 11
-15.2369014213
 21
-23.8443375673
 31
0.0
 11
-15.2319737009
 21
-23.8021752067
 31
0.0
 11
-15.217663207
 21
-23.761629536
 31
0.0
 11
-15.1945175433
 21
-23.7242490838
 31
0.0
 11
-15.163422644
 21
-23.6914668129
 31
0.0
 11
-15.082407089
 21
-23.644492298
 31
0.0
 11
-14.9869056521
 21
-23.6278312164
 31
0.0
  0
SPLINE
  5
4E5
100
AcDbEntity
  8
0
100
AcDbSpline
 62
253
  6
CONTINUOUS
 70
0
 71
3
 72
13
 73
9
 74
7
 42
0.0000001
 43
0.0000001
 44
0.0000000001
 12
-0.0012265944
 22
0.3651869708
 32
0.0
 13
-0.3651878719
 23
0.0009199792
 33
0.0
 40
0.0
 40
0.0
 40
0.0
 40
0.0
 40
0.1162394861
 40
0.2339784844
 40
0.3543712552
 40
0.4780982232
 40
0.7345378384
 40
1.0
 40
1.0
 40
1.0
 40
1.0
 10
-29.7630985787
 20
-23.8443375673
 30
0.0
 10
-29.7631461049
 20
-23.830187852
 30
0.0
 10
-29.7665046394
 20
-23.8016148352
 30
0.0
 10
-29.7810612251
 20
-23.7606544996
 30
0.0
 10
-29.8045320971
 20
-23.7229827179
 30
0.0
 10
-29.8468348209
 20
-23.6786209833
 30
0.0
 10
-29.916761089
 20
-23.6387868014
 30
0.0
 10
-29.9807798273
 20
-23.6279126229
 30
0.0
 10
-30.0130943479
 20
-23.6278312164
 30
0.0
 11
-29.7630985787
 21
-23.8443375673
 31
0.0
 11
-29.7680263065
 21
-23.8021751692
 31
0.0
 11
-29.7823368081
 21
-23.7616295068
 31
0.0
 11
-29.8054824744
 21
-23.7242490603
 31
0.0
 11
-29.8365773743
 21
-23.6914667969
 31
0.0
 11
-29.9175929221
 21
-23.6444922937
 31
0.0
 11
-30.0130943479
 21
-23.6278312164
 31
0.0
  0
SPLINE
  5
4E6
100
AcDbEntity
  8
0
100
AcDbSpline
 62
7
  6
CONTINUOUS
 70
0
 71
3
 72
15
 73
11
 74
9
 42
0.0000001
 43
0.0000001
 44
0.0000000001
 12
-0.0031741039
 22
0.3149999784
 32
0.0
 13
-0.3150159699
 23
0.0
 33
0.0
 40
0.0
 40
0.0
 40
0.0
 40
0.0
 40
0.0847246382
 40
0.1757279367
 40
0.2778501555
 40
0.3942839058
 40
0.5264550939
 40
0.6738071548
 40
0.8334364544
 40
1.0
 40
1.0
 40
1.0
 40
1.0
 10
-29.7572807489
 20
-23.2669872981
 30
0.0
 10
-29.7573703905
 20
-23.2580912117
 30
0.0
 10
-29.7606131795
 20
-23.2395608029
 30
0.0
 10
-29.7741645701
 20
-23.2133174142
 30
0.0
 10
-29.796036015
 20
-23.1888844894
 30
0.0
 10
-29.825888076
 20
-23.1669547435
 30
0.0
 10
-29.863250807
 20
-23.1483274499
 30
0.0
 10
-29.9072234122
 20
-23.133953471
 30
0.0
 10
-29.9562269929
 20
-23.1248150691
 30
0.0
 10
-29.9905136879
 20
-23.1226497308
 30
0.0
 10
-30.0080037468
 20
-23.1226497308
 30
0.0
 11
-29.7572807489
 21
-23.2669872981
 31
0.0
 11
-29.7617358026
 21
-23.2406721314
 31
0.0
 11
-29.7745605835
 21
-23.2150332915
 31
0.0
 11
-29.7957149112
 21
-23.1907967144
 31
0.0
 11
-29.8250527761
 21
-23.1687830511
 31
0.0
 11
-29.8621789369
 21
-23.1499360992
 31
0.0
 11
-29.9062311591
 21
-23.1353054509
 31
0.0
 11
-29.9556366974
 21
-23.1259378303
 31
0.0
 11
-30.0080037468
 21
-23.1226497308
 31
0.0
  0
SPLINE
  5
4E7
100
AcDbEntity
  8
0
100
AcDbSpline
 62
7
  6
CONTINUOUS
 70
0
 71
3
 72
15
 73
11
 74
9
 42
0.0000001
 43
0.0000001
 44
0.0000000001
 12
-0.3142908459
 22
0.0
 32
0.0
 13
-0.0031667975
 23
-0.3142748912
 33
0.0
 40
0.0
 40
0.0
 40
0.0
 40
0.0
 40
0.1666133779
 40
0.3262255844
 40
0.4735308137
 40
0.6056575217
 40
0.7220676483
 40
0.8241942131
 40
0.9152281509
 40
1.0
 40
1.0
 40
1.0
 40
1.0
 10
-32.3927234819
 20
-23.1226497308
 30
0.0
 10
-32.4101785017
 20
-23.1226497308
 30
0.0
 10
-32.4443856929
 20
-23.124909705
 30
0.0
 10
-32.4932620946
 20
-23.1340775763
 30
0.0
 10
-32.5371035061
 20
-23.1484769636
 30
0.0
 10
-32.5743461767
 20
-23.1671011817
 30
0.0
 10
-32.6040985049
 20
-23.1890111222
 30
0.0
 10
-32.6258950298
 20
-23.2134107396
 30
0.0
 10
-32.6393986841
 20
-23.239611024
 30
0.0
 10
-32.642629766
 20
-23.2581067436
 30
0.0
 10
-32.6427192511
 20
-23.2669872981
 30
0.0
 11
-32.3927234819
 21
-23.1226497308
 31
0.0
 11
-32.4449802175
 21
-23.126016189
 31
0.0
 11
-32.4942534457
 21
-23.1354311576
 31
0.0
 11
-32.5381709782
 21
-23.1500815293
 31
0.0
 11
-32.5751759211
 21
-23.1689245842
 31
0.0
 11
-32.6044151803
 21
-23.1909165769
 31
0.0
 11
-32.6254977136
 21
-23.215119319
 31
0.0
 11
-32.6382790097
 21
-23.2407168857
 31
0.0
 11
-32.6427192511
 21
-23.2669872981
 31
0.0
  0
SPLINE
  5
4E8
100
AcDbEntity
  8
0
100
AcDbSpline
 62
253
  6
CONTINUOUS
 70
0
 71
3
 72
13
 73
9
 74
7
 42
0.0000001
 43
0.0000001
 44
0.0000000001
 12
0.0012265944
 22
0.3651869708
 32
0.0
 13
0.3651878719
 23
0.0009199792
 33
0.0
 40
0.0
 40
0.0
 40
0.0
 40
0.0
 40
0.1162394861
 40
0.2339784844
 40
0.3543712552
 40
0.4780982232
 40
0.7345378384
 40
1.0
 40
1.0
 40
1.0
 40
1.0
 10
-32.6369014213
 20
-23.8443375673
 30
0.0
 10
-32.6368538951
 20
-23.830187852
 30
0.0
 10
-32.6334953606
 20
-23.8016148352
 30
0.0
 10
-32.6189387749
 20
-23.7606544996
 30
0.0
 10
-32.5954679029
 20
-23.7229827179
 30
0.0
 10
-32.5531651791
 20
-23.6786209833
 30
0.0
 10
-32.483238911
 20
-23.6387868014
 30
0.0
 10
-32.4192201727
 20
-23.6279126229
 30
0.0
 10
-32.3869056521
 20
-23.6278312164
 30
0.0
 11
-32.6369014213
 21
-23.8443375673
 31
0.0
 11
-32.6319736935
 21
-23.8021751692
 31
0.0
 11
-32.6176631919
 21
-23.7616295068
 31
0.0
 11
-32.5945175256
 21
-23.7242490603
 31
0.0
 11
-32.5634226257
 21
-23.6914667969
 31
0.0
 11
-32.4824070779
 21
-23.6444922937
 31
0.0
 11
-32.3869056521
 21
-23.6278312164
 31
0.0
  0
SPLINE
  5
4E9
100
AcDbEntity
  8
0
100
AcDbSpline
 62
7
  6
CONTINUOUS
 70
0
 71
3
 72
15
 73
11
 74
9
 42
0.0000001
 43
0.0000001
 44
0.0000000001
 12
-0.783584949
 22
0.0
 32
0.0
 13
-0.0
 23
0.783584949
 33
0.0
 40
0.0
 40
0.0
 40
0.0
 40
0.0
 40
0.1249998755
 40
0.2499983858
 40
0.3749979685
 40
0.4999978562
 40
0.6249980066
 40
0.7499984071
 40
0.8749983005
 40
1.0
 40
1.0
 40
1.0
 40
1.0
 10
-33.1499752684
 20
-22.4
 30
0.0
 10
-33.1826246088
 20
-22.4
 30
0.0
 10
-33.2480978538
 20
-22.3934475677
 30
0.0
 10
-33.3423705112
 20
-22.3647451103
 30
0.0
 10
-33.4292585201
 20
-22.3181579234
 30
0.0
 10
-33.505372633
 20
-22.2555146988
 30
0.0
 10
-33.5678061812
 20
-22.1792278759
 30
0.0
 10
-33.6141710301
 20
-22.0922261856
 30
0.0
 10
-33.6427071378
 20
-21.9979001651
 30
0.0
 10
-33.6491272468
 20
-21.9324209647
 30
0.0
 10
-33.6491272468
 20
-21.8997711479
 30
0.0
 11
-33.1499752684
 21
-22.4
 31
0.0
 11
-33.2474419861
 21
-22.3903018677
 31
0.0
 11
-33.3411394797
 21
-22.3617644365
 31
0.0
 11
-33.4274627432
 21
-22.3154819985
 31
0.0
 11
-33.503092465
 21
-22.2532408395
 31
0.0
 11
-33.5651280255
 21
-22.1774421175
 31
0.0
 11
-33.6111996043
 21
-22.0910054062
 31
0.0
 11
-33.6395560502
 21
-21.9972518487
 31
0.0
 11
-33.6491272468
 21
-21.8997711479
 31
0.0
  0
SPLINE
  5
4EA
100
AcDbEntity
  8
0
100
AcDbSpline
 62
7
  6
CONTINUOUS
 70
0
 71
3
 72
15
 73
11
 74
9
 42
0.0000001
 43
0.0000001
 44
0.0000000001
 12
0.0
 22
0.7835849489
 32
0.0
 13
0.7835849489
 23
0.0
 33
0.0
 40
0.0
 40
0.0
 40
0.0
 40
0.0
 40
0.1250016995
 40
0.2500015929
 40
0.3750019934
 40
0.5000021438
 40
0.6250020315
 40
0.7500016142
 40
0.8750001245
 40
1.0
 40
1.0
 40
1.0
 40
1.0
 10
-33.6491272468
 20
21.8997711479
 30
0.0
 10
-33.6491272468
 20
21.9324209647
 30
0.0
 10
-33.6427071378
 20
21.9979001651
 30
0.0
 10
-33.6141710301
 20
22.0922261856
 30
0.0
 10
-33.5678061813
 20
22.1792278759
 30
0.0
 10
-33.505372633
 20
22.2555146988
 30
0.0
 10
-33.4292585201
 20
22.3181579234
 30
0.0
 10
-33.3423705113
 20
22.3647451103
 30
0.0
 10
-33.2480978538
 20
22.3934475677
 30
0.0
 10
-33.1826246089
 20
22.4
 30
0.0
 10
-33.1499752685
 20
22.4
 30
0.0
 11
-33.6491272468
 21
21.8997711479
 31
0.0
 11
-33.6395560502
 21
21.9972518487
 31
0.0
 11
-33.6111996043
 21
22.0910054062
 31
0.0
 11
-33.5651280255
 21
22.1774421175
 31
0.0
 11
-33.503092465
 21
22.2532408395
 31
0.0
 11
-33.4274627432
 21
22.3154819984
 31
0.0
 11
-33.3411394798
 21
22.3617644365
 31
0.0
 11
-33.2474419862
 21
22.3903018677
 31
0.0
 11
-33.1499752685
 21
22.4
 31
0.0
  0
LINE
  5
4EB
100
AcDbEntity
  8
DRAFT
100
AcDbLine
 62
7
  6
CONTINUOUS
 10
2.0000633949
 20
-15.4999954194
 11
-2.0000633794
 21
-15.4999954194
  0
LINE
  5
4EC
100
AcDbEntity
  8
DRAFT
100
AcDbLine
 62
7
  6
CONTINUOUS
 10
-1.9999465719
 20
-7.499996142
 11
1.9999465752
 21
-7.499996142
  0
SPLINE
  5
4ED
100
AcDbEntity
  8
RACCORDO
100
AcDbSpline
 62
253
  6
CONTINUOUS
 70
0
 71
3
 72
18
 73
14
 74
12
 42
0.0000001
 43
0.0000001
 44
0.0000000001
 12
0.4896393661
 22
0.0010136933
 32
0.0
 13
0.2584405577
 23
0.4158800483
 33
0.0
 40
0.0
 40
0.0
 40
0.0
 40
0.0
 40
0.1924297644
 40
0.3774287559
 40
0.5477738769
 40
0.6975526926
 40
0.821467662
 40
0.8722503974
 40
0.9150023596
 40
0.9493366664
 40
0.9749535815
 40
0.9917621842
 40
1.0
 40
1.0
 40
1.0
 40
1.0
 10
32.8731190705
 20
-20.8301110804
 30
0.0
 10
32.9045261332
 20
-20.8300460588
 30
0.0
 10
32.9661273449
 20
-20.8296745072
 30
0.0
 10
33.0555230455
 20
-20.828403488
 30
0.0
 10
33.1379459032
 20
-20.8264693769
 30
0.0
 10
33.2103731878
 20
-20.8239448935
 30
0.0
 10
33.2632792591
 20
-20.8213250324
 30
0.0
 10
33.2986746699
 20
-20.8188895297
 30
0.0
 10
33.3194991375
 20
-20.8171221262
 30
0.0
 10
33.3360863947
 20
-20.8152762792
 30
0.0
 10
33.3486723196
 20
-20.8134899769
 30
0.0
 10
33.3563803785
 20
-20.8116019403
 30
0.0
 10
33.3607184098
 20
-20.8102353313
 30
0.0
 10
33.3614280717
 20
-20.8090933502
 30
0.0
 11
32.8731190705
 21
-20.8301110804
 31
0.0
 11
32.9673387061
 21
-20.8295361274
 31
0.0
 11
33.0579121879
 21
-20.8282241814
 31
0.0
 11
33.1412960182
 21
-20.8262223668
 31
0.0
 11
33.2145869534
 21
-20.8236020457
 31
0.0
 11
33.2751793077
 21
-20.8204597803
 31
0.0
 11
33.2999841589
 21
-20.8187272991
 31
0.0
 11
33.3208379843
 21
-20.8169073647
 31
0.0
 11
33.3375426499
 21
-20.8150154146
 31
0.0
 11
33.3499337112
 21
-20.8130685248
 31
0.0
 11
33.3579218883
 21
-20.8110874277
 31
0.0
 11
33.3614280717
 21
-20.8090933502
 31
0.0
  0
SPLINE
  5
4EE
100
AcDbEntity
  8
RACCORDO
100
AcDbSpline
 62
253
  6
CONTINUOUS
 70
0
 71
3
 72
18
 73
14
 74
12
 42
0.0000001
 43
0.0000001
 44
0.0000000001
 12
0.489639442
 22
-0.0010136693
 32
0.0
 13
0.2585240543
 23
-0.4158282386
 33
0.0
 40
0.0
 40
0.0
 40
0.0
 40
0.0
 40
0.1924278371
 40
0.3774252366
 40
0.5477693385
 40
0.6975478299
 40
0.8214631893
 40
0.8722463736
 40
0.9149989353
 40
0.9493339769
 40
0.9749517417
 40
0.9917612793
 40
1.0
 40
1.0
 40
1.0
 40
1.0
 10
32.8731188684
 20
20.8301107087
 30
0.0
 10
32.9045256213
 20
20.8300456893
 30
0.0
 10
32.9661262681
 20
20.8296741481
 30
0.0
 10
33.0555212424
 20
20.8284031613
 30
0.0
 10
33.137943634
 20
20.8264690954
 30
0.0
 10
33.2103707776
 20
20.8239446649
 30
0.0
 10
33.2632769395
 20
20.8213248546
 30
0.0
 10
33.2986726005
 20
20.8188893961
 30
0.0
 10
33.3194973519
 20
20.817122021
 30
0.0
 10
33.3360850085
 20
20.8152761906
 30
0.0
 10
33.3486712697
 20
20.8134899216
 30
0.0
 10
33.3563799351
 20
20.811601855
 30
0.0
 10
33.3607181024
 20
20.8102353143
 30
0.0
 10
33.3614280716
 20
20.8090933501
 30
0.0
 11
32.8731188684
 21
20.8301107087
 31
0.0
 11
32.9673375749
 21
20.8295357723
 31
0.0
 11
33.0579102917
 21
20.8282238607
 31
0.0
 11
33.1412936369
 21
20.8262220943
 31
0.0
 11
33.2145844266
 21
20.82360183
 31
0.0
 11
33.2751769846
 21
20.8204596244
 31
0.0
 11
33.2999820621
 21
20.8187271727
 31
0.0
 11
33.3208361879
 21
20.8169072669
 31
0.0
 11
33.3375412213
 21
20.815015344
 31
0.0
 11
33.3499327098
 21
20.8130684797
 31
0.0
 11
33.3579213655
 21
20.8110874061
 31
0.0
 11
33.3614280716
 21
20.8090933501
 31
0.0
  0
SPLINE
  5
4EF
100
AcDbEntity
  8
RACCORDO
100
AcDbSpline
 62
253
  6
CONTINUOUS
 70
0
 71
3
 72
18
 73
14
 74
12
 42
0.0000001
 43
0.0000001
 44
0.0000000001
 12
-0.4896393661
 22
-0.0010136933
 32
0.0
 13
-0.25844056
 23
-0.4158800468
 33
0.0
 40
0.0
 40
0.0
 40
0.0
 40
0.0
 40
0.1924297643
 40
0.3774287558
 40
0.5477738768
 40
0.6975526925
 40
0.8214676619
 40
0.8722503973
 40
0.9150023595
 40
0.9493366663
 40
0.9749535814
 40
0.9917621842
 40
1.0
 40
1.0
 40
1.0
 40
1.0
 10
-32.8731190706
 20
20.8301110804
 30
0.0
 10
-32.9045261332
 20
20.8300460588
 30
0.0
 10
-32.9661273449
 20
20.8296745072
 30
0.0
 10
-33.0555230455
 20
20.828403488
 30
0.0
 10
-33.1379459031
 20
20.8264693768
 30
0.0
 10
-33.2103731877
 20
20.8239448935
 30
0.0
 10
-33.2632792591
 20
20.8213250324
 30
0.0
 10
-33.2986746699
 20
20.8188895297
 30
0.0
 10
-33.3194991375
 20
20.8171221262
 30
0.0
 10
-33.3360863946
 20
20.8152762792
 30
0.0
 10
-33.3486723196
 20
20.8134899769
 30
0.0
 10
-33.3563803785
 20
20.8116019403
 30
0.0
 10
-33.3607184098
 20
20.8102353313
 30
0.0
 10
-33.3614280717
 20
20.8090933502
 30
0.0
 11
-32.8731190706
 21
20.8301110804
 31
0.0
 11
-32.9673387061
 21
20.8295361274
 31
0.0
 11
-33.0579121879
 21
20.8282241814
 31
0.0
 11
-33.1412960182
 21
20.8262223668
 31
0.0
 11
-33.2145869534
 21
20.8236020457
 31
0.0
 11
-33.2751793076
 21
20.8204597803
 31
0.0
 11
-33.2999841588
 21
20.8187272991
 31
0.0
 11
-33.3208379842
 21
20.8169073647
 31
0.0
 11
-33.3375426499
 21
20.8150154146
 31
0.0
 11
-33.3499337112
 21
20.8130685248
 31
0.0
 11
-33.3579218882
 21
20.8110874277
 31
0.0
 11
-33.3614280717
 21
20.8090933502
 31
0.0
  0
SPLINE
  5
4F0
100
AcDbEntity
  8
RACCORDO
100
AcDbSpline
 62
253
  6
CONTINUOUS
 70
0
 71
3
 72
18
 73
14
 74
12
 42
0.0000001
 43
0.0000001
 44
0.0000000001
 12
-0.489639442
 22
0.0010136693
 32
0.0
 13
-0.2585240537
 23
0.4158282389
 33
0.0
 40
0.0
 40
0.0
 40
0.0
 40
0.0
 40
0.1924278371
 40
0.3774252367
 40
0.5477693385
 40
0.6975478299
 40
0.8214631893
 40
0.8722463736
 40
0.9149989354
 40
0.9493339769
 40
0.9749517418
 40
0.9917612793
 40
1.0
 40
1.0
 40
1.0
 40
1.0
 10
-32.8731188684
 20
-20.8301107087
 30
0.0
 10
-32.9045256213
 20
-20.8300456893
 30
0.0
 10
-32.9661262682
 20
-20.8296741481
 30
0.0
 10
-33.0555212424
 20
-20.8284031613
 30
0.0
 10
-33.1379436341
 20
-20.8264690954
 30
0.0
 10
-33.2103707777
 20
-20.8239446649
 30
0.0
 10
-33.2632769396
 20
-20.8213248546
 30
0.0
 10
-33.2986726005
 20
-20.8188893961
 30
0.0
 10
-33.3194973519
 20
-20.817122021
 30
0.0
 10
-33.3360850085
 20
-20.8152761906
 30
0.0
 10
-33.3486712697
 20
-20.8134899216
 30
0.0
 10
-33.3563799351
 20
-20.811601855
 30
0.0
 10
-33.3607181024
 20
-20.8102353143
 30
0.0
 10
-33.3614280716
 20
-20.8090933501
 30
0.0
 11
-32.8731188684
 21
-20.8301107087
 31
0.0
 11
-32.9673375749
 21
-20.8295357723
 31
0.0
 11
-33.0579102918
 21
-20.8282238607
 31
0.0
 11
-33.1412936369
 21
-20.8262220943
 31
0.0
 11
-33.2145844267
 21
-20.82360183
 31
0.0
 11
-33.2751769847
 21
-20.8204596244
 31
0.0
 11
-33.2999820621
 21
-20.8187271727
 31
0.0
 11
-33.3208361879
 21
-20.8169072669
 31
0.0
 11
-33.3375412213
 21
-20.8150153439
 31
0.0
 11
-33.3499327098
 21
-20.8130684797
 31
0.0
 11
-33.3579213655
 21
-20.8110874061
 31
0.0
 11
-33.3614280716
 21
-20.8090933501
 31
0.0
  0
SPLINE
  5
4F1
100
AcDbEntity
  8
RACCORDO
100
AcDbSpline
 62
253
  6
CONTINUOUS
 70
0
 71
3
 72
18
 73
14
 74
12
 42
0.0000001
 43
0.0000001
 44
0.0000000001
 12
-0.2424536614
 22
1.1233576607
 32
0.0
 13
0.0000077076
 23
1.1492241782
 33
0.0
 40
0.0
 40
0.0
 40
0.0
 40
0.0
 40
0.0071865272
 40
0.0234853256
 40
0.0487770214
 40
0.0828280481
 40
0.1253521926
 40
0.17596405
 40
0.2996280409
 40
0.4494786826
 40
0.6202500342
 40
0.8059355272
 40
1.0
 40
1.0
 40
1.0
 40
1.0
 10
32.879449211
 20
-21.9792778735
 30
0.0
 10
32.878868411
 20
-21.97658686
 30
0.0
 10
32.8788447947
 20
-21.9675106999
 30
0.0
 10
32.8779384784
 20
-21.9489058117
 30
0.0
 10
32.8775508891
 20
-21.9198974366
 30
0.0
 10
32.8769071547
 20
-21.8808944807
 30
0.0
 10
32.8763868627
 20
-21.8321695666
 30
0.0
 10
32.8756266204
 20
-21.7491249139
 30
0.0
 10
32.8748396018
 20
-21.6249609809
 30
0.0
 10
32.8740880423
 20
-21.4547684994
 30
0.0
 10
32.8735340277
 20
-21.2608154054
 30
0.0
 10
32.8731921482
 20
-21.0499249039
 30
0.0
 10
32.8731185696
 20
-20.9044522588
 30
0.0
 10
32.8731190682
 20
-20.8301110641
 30
0.0
 11
32.879449211
 21
-21.9792778735
 31
0.0
 11
32.8788153084
 21
-21.9710433057
 31
0.0
 11
32.8781915261
 21
-21.9523227221
 31
0.0
 11
32.8775828873
 21
-21.9232632669
 31
0.0
 11
32.8769944442
 21
-21.8841354283
 31
0.0
 11
32.8764312886
 21
-21.8352688981
 31
0.0
 11
32.8758986415
 21
-21.7771069669
 31
0.0
 11
32.874944366
 21
-21.6349925224
 31
0.0
 11
32.8741652708
 21
-21.4627823042
 31
0.0
 11
32.8735890623
 21
-21.2665285839
 31
0.0
 11
32.8732361439
 21
-21.0531346176
 31
0.0
 11
32.8731190682
 21
-20.8301110641
 31
0.0
  0
SPLINE
  5
4F2
100
AcDbEntity
  8
RACCORDO
100
AcDbSpline
 62
253
  6
CONTINUOUS
 70
0
 71
3
 72
18
 73
14
 74
12
 42
0.0000001
 43
0.0000001
 44
0.0000000001
 12
0.0000077079
 22
-1.149224178
 32
0.0
 13
-0.2424534882
 23
-1.1233576979
 33
0.0
 40
0.0
 40
0.0
 40
0.0
 40
0.0
 40
0.1940644728
 40
0.3797499659
 40
0.5505213174
 40
0.7003719591
 40
0.8240359501
 40
0.8746478075
 40
0.917171952
 40
0.9512229786
 40
0.9765146745
 40
0.9928134728
 40
1.0
 40
1.0
 40
1.0
 40
1.0
 10
-32.8731190717
 20
-20.830111064
 30
0.0
 10
-32.8731185731
 20
-20.9044522588
 30
0.0
 10
-32.8731921539
 20
-21.0499249039
 30
0.0
 10
-32.8735340322
 20
-21.2608154054
 30
0.0
 10
-32.8740880465
 20
-21.4547684994
 30
0.0
 10
-32.8748396053
 20
-21.6249609808
 30
0.0
 10
-32.8756266232
 20
-21.7491249138
 30
0.0
 10
-32.876386865
 20
-21.8321695665
 30
0.0
 10
-32.8769071565
 20
-21.8808944807
 30
0.0
 10
-32.8775508904
 20
-21.9198974365
 30
0.0
 10
-32.8779384794
 20
-21.9489058116
 30
0.0
 10
-32.8788447951
 20
-21.9675106999
 30
0.0
 10
-32.8788684114
 20
-21.9765868598
 30
0.0
 10
-32.8794492109
 20
-21.9792778734
 30
0.0
 11
-32.8731190717
 21
-20.830111064
 31
0.0
 11
-32.8732361489
 21
-21.0531346176
 31
0.0
 11
-32.873589067
 21
-21.2665285838
 31
0.0
 11
-32.8741652749
 21
-21.4627823041
 31
0.0
 11
-32.8749443694
 21
-21.6349925223
 31
0.0
 11
-32.8758986441
 21
-21.7771069668
 31
0.0
 11
-32.8764312908
 21
-21.8352688981
 31
0.0
 11
-32.876994446
 21
-21.8841354282
 31
0.0
 11
-32.8775828886
 21
-21.9232632668
 31
0.0
 11
-32.878191527
 21
-21.952322722
 31
0.0
 11
-32.8788153088
 21
-21.9710433056
 31
0.0
 11
-32.8794492109
 21
-21.9792778734
 31
0.0
  0
SPLINE
  5
4F3
100
AcDbEntity
  8
RACCORDO
100
AcDbSpline
 62
253
  6
CONTINUOUS
 70
0
 71
3
 72
18
 73
14
 74
12
 42
0.0000001
 43
0.0000001
 44
0.0000000001
 12
-0.0000077079
 22
1.1492241785
 32
0.0
 13
0.2424534909
 23
1.1233576979
 33
0.0
 40
0.0
 40
0.0
 40
0.0
 40
0.0
 40
0.1940644728
 40
0.3797499658
 40
0.5505213174
 40
0.7003719591
 40
0.8240359501
 40
0.8746478074
 40
0.917171952
 40
0.9512229786
 40
0.9765146745
 40
0.9928134728
 40
1.0
 40
1.0
 40
1.0
 40
1.0
 10
32.8731190716
 20
20.8301110635
 30
0.0
 10
32.873118573
 20
20.9044522583
 30
0.0
 10
32.8731921538
 20
21.0499249034
 30
0.0
 10
32.8735340322
 20
21.2608154051
 30
0.0
 10
32.8740880465
 20
21.4547684991
 30
0.0
 10
32.8748396053
 20
21.6249609807
 30
0.0
 10
32.8756266232
 20
21.7491249137
 30
0.0
 10
32.876386865
 20
21.8321695665
 30
0.0
 10
32.8769071565
 20
21.8808944806
 30
0.0
 10
32.8775508904
 20
21.9198974365
 30
0.0
 10
32.8779384794
 20
21.9489058116
 30
0.0
 10
32.8788447951
 20
21.9675106999
 30
0.0
 10
32.8788684113
 20
21.9765868598
 30
0.0
 10
32.8794492109
 20
21.9792778734
 30
0.0
 11
32.8731190716
 21
20.8301110635
 31
0.0
 11
32.8732361488
 21
21.0531346171
 31
0.0
 11
32.8735890669
 21
21.2665285835
 31
0.0
 11
32.8741652749
 21
21.4627823039
 31
0.0
 11
32.8749443694
 21
21.6349925221
 31
0.0
 11
32.8758986441
 21
21.7771069667
 31
0.0
 11
32.8764312908
 21
21.835268898
 31
0.0
 11
32.8769944459
 21
21.8841354282
 31
0.0
 11
32.8775828886
 21
21.9232632667
 31
0.0
 11
32.8781915269
 21
21.952322722
 31
0.0
 11
32.8788153088
 21
21.9710433056
 31
0.0
 11
32.8794492109
 21
21.9792778734
 31
0.0
  0
SPLINE
  5
4F4
100
AcDbEntity
  8
RACCORDO
100
AcDbSpline
 62
253
  6
CONTINUOUS
 70
0
 71
3
 72
18
 73
14
 74
12
 42
0.0000001
 43
0.0000001
 44
0.0000000001
 12
0.242453656
 22
-1.1233576624
 32
0.0
 13
-0.0000077076
 23
-1.1492241787
 33
0.0
 40
0.0
 40
0.0
 40
0.0
 40
0.0
 40
0.0071865272
 40
0.0234853256
 40
0.0487770214
 40
0.0828280481
 40
0.1253521926
 40
0.17596405
 40
0.299628041
 40
0.4494786827
 40
0.6202500342
 40
0.8059355272
 40
1.0
 40
1.0
 40
1.0
 40
1.0
 10
-32.879449211
 20
21.9792778735
 30
0.0
 10
-32.878868411
 20
21.97658686
 30
0.0
 10
-32.8788447948
 20
21.9675106999
 30
0.0
 10
-32.8779384785
 20
21.9489058117
 30
0.0
 10
-32.8775508891
 20
21.9198974366
 30
0.0
 10
-32.8769071548
 20
21.8808944807
 30
0.0
 10
-32.8763868628
 20
21.8321695665
 30
0.0
 10
-32.8756266205
 20
21.7491249138
 30
0.0
 10
-32.8748396019
 20
21.6249609807
 30
0.0
 10
-32.8740880424
 20
21.4547684991
 30
0.0
 10
-32.8735340278
 20
21.2608154051
 30
0.0
 10
-32.8731921483
 20
21.0499249035
 30
0.0
 10
-32.8731185697
 20
20.9044522583
 30
0.0
 10
-32.8731190683
 20
20.8301110636
 30
0.0
 11
-32.879449211
 21
21.9792778735
 31
0.0
 11
-32.8788153085
 21
21.9710433057
 31
0.0
 11
-32.8781915261
 21
21.9523227221
 31
0.0
 11
-32.8775828873
 21
21.9232632668
 31
0.0
 11
-32.8769944442
 21
21.8841354283
 31
0.0
 11
-32.8764312886
 21
21.8352688981
 31
0.0
 11
-32.8758986415
 21
21.7771069668
 31
0.0
 11
-32.8749443661
 21
21.6349925222
 31
0.0
 11
-32.874165271
 21
21.4627823039
 31
0.0
 11
-32.8735890625
 21
21.2665285835
 31
0.0
 11
-32.873236144
 21
21.0531346172
 31
0.0
 11
-32.8731190683
 21
20.8301110636
 31
0.0
  0
SPLINE
  5
4F5
100
AcDbEntity
  8
RACCORDO
100
AcDbSpline
 62
253
  6
CONTINUOUS
 70
0
 71
3
 72
20
 73
16
 74
14
 42
0.0000001
 43
0.0000001
 44
0.0000000001
 12
0.0007419525
 22
0.6711112862
 32
0.0
 13
0.4734458461
 23
0.4756468645
 33
0.0
 40
0.0
 40
0.0
 40
0.0
 40
0.0
 40
0.1939284434
 40
0.3794720348
 40
0.5500990507
 40
0.6998111559
 40
0.7651490808
 40
0.8233672365
 40
0.8739462818
 40
0.9164616971
 40
0.950538659
 40
0.9759036655
 40
0.9923589785
 40
0.997249964
 40
1.0
 40
1.0
 40
1.0
 40
1.0
 10
33.3614280716
 20
20.8090933501
 30
0.0
 10
33.3614760335
 20
20.8524758724
 30
0.0
 10
33.3617750289
 20
20.9373651285
 30
0.0
 10
33.3628370538
 20
21.0604204276
 30
0.0
 10
33.3644669802
 20
21.1735773389
 30
0.0
 10
33.3663122504
 20
21.2598360377
 30
0.0
 10
33.3680823808
 20
21.3209421761
 30
0.0
 10
33.3694471492
 20
21.3598724654
 30
0.0
 10
33.370892407
 20
21.3936936795
 30
0.0
 10
33.3724112215
 20
21.4220956557
 30
0.0
 10
33.373950263
 20
21.444871432
 30
0.0
 10
33.3755573081
 20
21.461733631
 30
0.0
 10
33.3769043745
 20
21.4721784091
 30
0.0
 10
33.3782150345
 20
21.4773440022
 30
0.0
 10
33.3788438757
 20
21.4790131956
 30
0.0
 10
33.3792778734
 20
21.4794492109
 30
0.0
 11
33.3614280716
 21
20.8090933501
 31
0.0
 11
33.361894883
 21
20.9392401595
 31
0.0
 11
33.3629906689
 21
21.0637558122
 31
0.0
 11
33.3646763771
 21
21.17825319
 31
0.0
 11
33.3668924062
 21
21.2787022936
 31
0.0
 11
33.3681754824
 21
21.3225325631
 31
0.0
 11
33.369560418
 21
21.3615788948
 31
0.0
 11
33.3710351472
 21
21.3954910333
 31
0.0
 11
33.3725863864
 21
21.4239814263
 31
0.0
 11
33.3742005269
 21
21.4467938393
 31
0.0
 11
33.3758638708
 21
21.4637351318
 31
0.0
 11
33.3775620248
 21
21.4746471398
 31
0.0
 11
33.37841885
 21
21.4778157333
 31
0.0
 11
33.3792778734
 21
21.4794492109
 31
0.0
  0
SPLINE
  5
4F6
100
AcDbEntity
  8
RACCORDO
100
AcDbSpline
 62
253
  6
CONTINUOUS
 70
0
 71
3
 72
20
 73
16
 74
14
 42
0.0000001
 43
0.0000001
 44
0.0000000001
 12
-0.4734458542
 22
0.4756468563
 32
0.0
 13
-0.0007419525
 23
0.6711112861
 33
0.0
 40
0.0
 40
0.0
 40
0.0
 40
0.0
 40
0.0027500359
 40
0.0076410215
 40
0.0240963346
 40
0.0494613411
 40
0.0835383029
 40
0.1260537183
 40
0.1766327637
 40
0.2348509194
 40
0.3001888444
 40
0.4499009496
 40
0.6205279656
 40
0.806071557
 40
1.0
 40
1.0
 40
1.0
 40
1.0
 10
33.3792778735
 20
-21.479449211
 30
0.0
 10
33.3788438758
 20
-21.4790131957
 30
0.0
 10
33.3782150346
 20
-21.4773440023
 30
0.0
 10
33.3769043746
 20
-21.4721784092
 30
0.0
 10
33.3755573082
 20
-21.4617336311
 30
0.0
 10
33.3739502631
 20
-21.4448714321
 30
0.0
 10
33.3724112215
 20
-21.4220956557
 30
0.0
 10
33.3708924071
 20
-21.3936936796
 30
0.0
 10
33.3694471493
 20
-21.3598724654
 30
0.0
 10
33.3680823808
 20
-21.3209421761
 30
0.0
 10
33.3663122505
 20
-21.2598360377
 30
0.0
 10
33.3644669803
 20
-21.1735773389
 30
0.0
 10
33.3628370539
 20
-21.0604204275
 30
0.0
 10
33.361775029
 20
-20.9373651286
 30
0.0
 10
33.3614760336
 20
-20.8524758725
 30
0.0
 10
33.3614280717
 20
-20.8090933502
 30
0.0
 11
33.3792778735
 21
-21.479449211
 31
0.0
 11
33.3784188501
 21
-21.4778157334
 31
0.0
 11
33.3775620249
 21
-21.4746471399
 31
0.0
 11
33.3758638709
 21
-21.4637351318
 31
0.0
 11
33.374200527
 21
-21.4467938393
 31
0.0
 11
33.3725863865
 21
-21.4239814263
 31
0.0
 11
33.3710351473
 21
-21.3954910333
 31
0.0
 11
33.3695604181
 21
-21.3615788948
 31
0.0
 11
33.3681754825
 21
-21.3225325631
 31
0.0
 11
33.3668924063
 21
-21.2787022936
 31
0.0
 11
33.3646763772
 21
-21.1782531899
 31
0.0
 11
33.362990669
 21
-21.0637558122
 31
0.0
 11
33.3618948831
 21
-20.9392401594
 31
0.0
 11
33.3614280717
 21
-20.8090933502
 31
0.0
  0
SPLINE
  5
4F7
100
AcDbEntity
  8
RACCORDO
100
AcDbSpline
 62
253
  6
CONTINUOUS
 70
0
 71
3
 72
20
 73
16
 74
14
 42
0.0000001
 43
0.0000001
 44
0.0000000001
 12
-0.0007419525
 22
-0.6711112862
 32
0.0
 13
-0.4734458461
 23
-0.4756468645
 33
0.0
 40
0.0
 40
0.0
 40
0.0
 40
0.0
 40
0.1939284434
 40
0.3794720348
 40
0.5500990507
 40
0.6998111559
 40
0.7651490808
 40
0.8233672365
 40
0.8739462818
 40
0.9164616972
 40
0.950538659
 40
0.9759036655
 40
0.9923589785
 40
0.997249964
 40
1.0
 40
1.0
 40
1.0
 40
1.0
 10
-33.3614280716
 20
-20.8090933501
 30
0.0
 10
-33.3614760335
 20
-20.8524758724
 30
0.0
 10
-33.3617750289
 20
-20.9373651285
 30
0.0
 10
-33.3628370538
 20
-21.0604204276
 30
0.0
 10
-33.3644669802
 20
-21.1735773389
 30
0.0
 10
-33.3663122504
 20
-21.2598360377
 30
0.0
 10
-33.3680823807
 20
-21.3209421761
 30
0.0
 10
-33.3694471492
 20
-21.3598724654
 30
0.0
 10
-33.370892407
 20
-21.3936936795
 30
0.0
 10
-33.3724112215
 20
-21.4220956557
 30
0.0
 10
-33.373950263
 20
-21.444871432
 30
0.0
 10
-33.3755573081
 20
-21.461733631
 30
0.0
 10
-33.3769043745
 20
-21.4721784091
 30
0.0
 10
-33.3782150345
 20
-21.4773440022
 30
0.0
 10
-33.3788438757
 20
-21.4790131956
 30
0.0
 10
-33.3792778734
 20
-21.4794492109
 30
0.0
 11
-33.3614280716
 21
-20.8090933501
 31
0.0
 11
-33.361894883
 21
-20.9392401595
 31
0.0
 11
-33.3629906689
 21
-21.0637558122
 31
0.0
 11
-33.3646763771
 21
-21.17825319
 31
0.0
 11
-33.3668924062
 21
-21.2787022936
 31
0.0
 11
-33.3681754824
 21
-21.3225325631
 31
0.0
 11
-33.369560418
 21
-21.3615788948
 31
0.0
 11
-33.3710351472
 21
-21.3954910333
 31
0.0
 11
-33.3725863864
 21
-21.4239814263
 31
0.0
 11
-33.3742005269
 21
-21.4467938393
 31
0.0
 11
-33.3758638708
 21
-21.4637351318
 31
0.0
 11
-33.3775620248
 21
-21.4746471398
 31
0.0
 11
-33.37841885
 21
-21.4778157333
 31
0.0
 11
-33.3792778734
 21
-21.4794492109
 31
0.0
  0
SPLINE
  5
4F8
100
AcDbEntity
  8
RACCORDO
100
AcDbSpline
 62
253
  6
CONTINUOUS
 70
0
 71
3
 72
20
 73
16
 74
14
 42
0.0000001
 43
0.0000001
 44
0.0000000001
 12
0.4734458542
 22
-0.4756468563
 32
0.0
 13
0.0007419525
 23
-0.6711112861
 33
0.0
 40
0.0
 40
0.0
 40
0.0
 40
0.0
 40
0.0027500359
 40
0.0076410215
 40
0.0240963346
 40
0.0494613411
 40
0.0835383029
 40
0.1260537183
 40
0.1766327637
 40
0.2348509194
 40
0.3001888443
 40
0.4499009496
 40
0.6205279656
 40
0.806071557
 40
1.0
 40
1.0
 40
1.0
 40
1.0
 10
-33.3792778735
 20
21.479449211
 30
0.0
 10
-33.3788438758
 20
21.4790131957
 30
0.0
 10
-33.3782150346
 20
21.4773440023
 30
0.0
 10
-33.3769043746
 20
21.4721784092
 30
0.0
 10
-33.3755573082
 20
21.4617336311
 30
0.0
 10
-33.3739502631
 20
21.4448714321
 30
0.0
 10
-33.3724112215
 20
21.4220956557
 30
0.0
 10
-33.3708924071
 20
21.3936936796
 30
0.0
 10
-33.3694471493
 20
21.3598724654
 30
0.0
 10
-33.3680823808
 20
21.3209421761
 30
0.0
 10
-33.3663122505
 20
21.2598360377
 30
0.0
 10
-33.3644669803
 20
21.1735773389
 30
0.0
 10
-33.3628370539
 20
21.0604204275
 30
0.0
 10
-33.361775029
 20
20.9373651286
 30
0.0
 10
-33.3614760336
 20
20.8524758725
 30
0.0
 10
-33.3614280717
 20
20.8090933502
 30
0.0
 11
-33.3792778735
 21
21.479449211
 31
0.0
 11
-33.3784188501
 21
21.4778157334
 31
0.0
 11
-33.3775620249
 21
21.4746471399
 31
0.0
 11
-33.3758638709
 21
21.4637351318
 31
0.0
 11
-33.374200527
 21
21.4467938393
 31
0.0
 11
-33.3725863865
 21
21.4239814263
 31
0.0
 11
-33.3710351473
 21
21.3954910333
 31
0.0
 11
-33.3695604181
 21
21.3615788948
 31
0.0
 11
-33.3681754825
 21
21.3225325631
 31
0.0
 11
-33.3668924063
 21
21.2787022936
 31
0.0
 11
-33.3646763772
 21
21.1782531899
 31
0.0
 11
-33.362990669
 21
21.0637558122
 31
0.0
 11
-33.3618948831
 21
20.9392401594
 31
0.0
 11
-33.3614280717
 21
20.8090933502
 31
0.0
  0
SPLINE
  5
4F9
100
AcDbEntity
  8
RACCORDO
100
AcDbSpline
 62
253
  6
CONTINUOUS
 70
0
 71
3
 72
9
 73
5
 74
3
 42
0.0000001
 43
0.0000001
 44
0.0000000001
 12
65.7588886342
 22
0.0398033383
 32
0.0
 13
65.7588886343
 23
-0.0398033211
 33
0.0
 40
0.0
 40
0.0
 40
0.0
 40
0.0
 40
0.2499831614
 40
1.0
 40
1.0
 40
1.0
 40
1.0
 10
-32.879449211
 20
-21.9792778735
 30
0.0
 10
-27.3999109213
 20
-21.9759611521
 30
0.0
 10
-5.4802794944
 20
-21.9660102724
 30
0.0
 10
16.439357956
 20
-21.9693268198
 30
0.0
 10
32.879449211
 20
-21.9792778735
 30
0.0
 11
-32.879449211
 21
-21.9792778735
 31
0.0
 11
-16.4408330243
 21
-21.9718151499
 31
0.0
 11
32.879449211
 21
-21.9792778735
 31
0.0
  0
SPLINE
  5
4FA
100
AcDbEntity
  8
RACCORDO
100
AcDbSpline
 62
253
  6
CONTINUOUS
 70
0
 71
3
 72
9
 73
5
 74
3
 42
0.0000001
 43
0.0000001
 44
0.0000000001
 12
-65.7588886342
 22
-0.039803338
 32
0.0
 13
-65.7588886342
 23
0.0398033217
 33
0.0
 40
0.0
 40
0.0
 40
0.0
 40
0.0
 40
0.2499831614
 40
1.0
 40
1.0
 40
1.0
 40
1.0
 10
32.879449211
 20
21.9792778735
 30
0.0
 10
27.3999109209
 20
21.9759611521
 30
0.0
 10
5.480279494
 20
21.9660102723
 30
0.0
 10
-16.4393579564
 20
21.9693268196
 30
0.0
 10
-32.879449211
 20
21.9792778735
 30
0.0
 11
32.879449211
 21
21.9792778735
 31
0.0
 11
16.4408330231
 21
21.9718151498
 31
0.0
 11
-32.879449211
 21
21.9792778735
 31
0.0
  0
SPLINE
  5
4FB
100
AcDbEntity
  8
RACCORDO
100
AcDbSpline
 62
253
  6
CONTINUOUS
 70
0
 71
3
 72
9
 73
5
 74
3
 42
0.0000001
 43
0.0000001
 44
0.0000000001
 12
0.0331327894
 22
-41.6602114213
 32
0.0
 13
-0.0331327907
 23
-41.6602114213
 33
0.0
 40
0.0
 40
0.0
 40
0.0
 40
0.0
 40
0.2499438439
 40
1.0
 40
1.0
 40
1.0
 40
1.0
 10
-32.8731190706
 20
20.8301110633
 30
0.0
 10
-32.870358625
 20
17.3592066028
 30
0.0
 10
-32.8620754951
 20
3.4724674039
 30
0.0
 10
-32.8648352543
 20
-10.4142783837
 30
0.0
 10
-32.8731190722
 20
-20.8301110636
 30
0.0
 11
-32.8731190706
 21
20.8301110633
 31
0.0
 11
-32.8669078609
 21
10.4173962412
 31
0.0
 11
-32.8731190722
 21
-20.8301110636
 31
0.0
  0
LINE
  5
4FC
100
AcDbEntity
  8
RACCORDO
100
AcDbLine
 62
253
  6
CONTINUOUS
 10
32.8731177664
 20
20.8314926358
 11
-32.8731177648
 21
20.8314926358
  0
SPLINE
  5
4FD
100
AcDbEntity
  8
RACCORDO
100
AcDbSpline
 62
253
  6
CONTINUOUS
 70
0
 71
3
 72
9
 73
5
 74
3
 42
0.0000001
 43
0.0000001
 44
0.0000000001
 12
-0.0331327907
 22
41.6602114213
 32
0.0
 13
0.0331327894
 23
41.6602114213
 33
0.0
 40
0.0
 40
0.0
 40
0.0
 40
0.0
 40
0.2499438439
 40
1.0
 40
1.0
 40
1.0
 40
1.0
 10
32.8731190706
 20
-20.8301110638
 30
0.0
 10
32.8703586249
 20
-17.3592066033
 30
0.0
 10
32.8620754954
 20
-3.4724674044
 30
0.0
 10
32.8648352546
 20
10.4142783832
 30
0.0
 10
32.8731190722
 20
20.8301110631
 30
0.0
 11
32.8731190706
 21
-20.8301110638
 31
0.0
 11
32.8669078609
 21
-10.4173962417
 31
0.0
 11
32.8731190722
 21
20.8301110631
 31
0.0
  0
LINE
  5
4FE
100
AcDbEntity
  8
RACCORDO
100
AcDbLine
 62
253
  6
CONTINUOUS
 10
-32.8731177664
 20
-20.8314926383
 11
32.8731177648
 21
-20.8314926383
  0
LINE
  5
4FF
100
AcDbEntity
  8
0
100
AcDbLine
 62
7
  6
CONTINUOUS
 10
-69.7125579435
 20
-7.4999977699
 11
-69.7142980295
 21
-7.5000001835
  0
SPLINE
  5
500
100
AcDbEntity
  8
0
100
AcDbSpline
 62
253
  6
CONTINUOUS
 70
0
 71
3
 72
11
 73
7
 74
5
 42
0.0000001
 43
0.0000001
 44
0.0000000001
 12
-1.3553257328
 22
7.9131714184
 32
0.0
 13
0.8987294571
 23
7.9779367697
 33
0.0
 40
0.0
 40
0.0
 40
0.0
 40
0.0
 40
0.2508796981
 40
0.5004037388
 40
0.7496304112
 40
1.0
 40
1.0
 40
1.0
 40
1.0
 10
-69.4826035878
 20
-15.4999954037
 30
0.0
 10
-69.5959448247
 20
-14.8382440514
 30
0.0
 10
-69.7761966868
 20
-13.5099764194
 30
0.0
 10
-69.9050539041
 20
-11.5063810761
 30
0.0
 10
-69.891340726
 20
-9.5000526561
 30
0.0
 10
-69.7875625994
 20
-8.1658070445
 30
0.0
 10
-69.7125577579
 20
-7.4999961284
 30
0.0
 11
-69.4826035878
 21
-15.4999954037
 31
0.0
 11
-69.7529983673
 21
-13.5040654307
 31
0.0
 11
-69.8813611306
 21
-11.504903622
 31
0.0
 11
-69.867811603
 21
-9.5040583441
 31
0.0
 11
-69.7125577579
 21
-7.4999961284
 31
0.0
  0
SPLINE
  5
501
100
AcDbEntity
  8
0
100
AcDbSpline
 62
7
  6
CONTINUOUS
 70
0
 71
3
 72
11
 73
7
 74
5
 42
0.0000001
 43
0.0000001
 44
0.0000000001
 12
0.0055807348
 22
0.0000159025
 32
0.0
 13
-0.0000322273
 23
0.0055806645
 33
0.0
 40
0.0
 40
0.0
 40
0.0
 40
0.0
 40
0.0588132811
 40
0.2381880383
 40
0.5486468308
 40
1.0
 40
1.0
 40
1.0
 40
1.0
 10
-69.4825975968
 20
-15.5000303128
 30
0.0
 10
-69.4824881896
 20
-15.500030001
 30
0.0
 10
-69.4825992924
 20
-15.4993351251
 30
0.0
 10
-69.4824124545
 20
-15.4985658305
 30
0.0
 10
-69.4824866062
 20
-15.4966623607
 30
0.0
 10
-69.4824586598
 20
-15.4952971836
 30
0.0
 10
-69.4824635084
 20
-15.4944575668
 30
0.0
 11
-69.4825975968
 21
-15.5000303128
 31
0.0
 11
-69.4825313373
 21
-15.4997088477
 31
0.0
 11
-69.4824846384
 21
-15.4987088906
 31
0.0
 11
-69.4824608966
 21
-15.496976458
 31
0.0
 11
-69.4824635084
 21
-15.4944575668
 31
0.0
  0
SPLINE
  5
502
100
AcDbEntity
  8
0
100
AcDbSpline
 62
7
  6
CONTINUOUS
 70
0
 71
3
 72
11
 73
7
 74
5
 42
0.0000001
 43
0.0000001
 44
0.0000000001
 12
-0.0003087036
 22
0.0055990239
 32
0.0
 13
-0.0056075277
 23
-0.0000003286
 33
0.0
 40
0.0
 40
0.0
 40
0.0
 40
0.0
 40
0.4502725033
 40
0.760471155
 40
0.9402248107
 40
1.0
 40
1.0
 40
1.0
 40
1.0
 10
-69.7120634693
 20
-7.5055459693
 30
0.0
 10
-69.7121098029
 20
-7.5047056071
 30
0.0
 10
-69.712219752
 20
-7.5033364834
 30
0.0
 10
-69.7122695889
 20
-7.5014368664
 30
0.0
 10
-69.7125000917
 20
-7.5006563789
 30
0.0
 10
-69.7124428027
 20
-7.4999676196
 30
0.0
 10
-69.712554533
 20
-7.4999676261
 30
0.0
 11
-69.7120634693
 21
-7.5055459693
 31
0.0
 11
-69.7122155896
 21
-7.5030256404
 31
0.0
 11
-69.7123484416
 21
-7.5012912736
 31
0.0
 11
-69.7124615734
 21
-7.5002896689
 31
0.0
 11
-69.712554533
 21
-7.4999676261
 31
0.0
  0
SPLINE
  5
503
100
AcDbEntity
  8
0
100
AcDbSpline
 62
253
  6
CONTINUOUS
 70
0
 71
3
 72
11
 73
7
 74
5
 42
0.0000001
 43
0.0000001
 44
0.0000000001
 12
-1.3457809286
 22
7.9031362052
 32
0.0
 13
0.8899069056
 23
7.9673555139
 33
0.0
 40
0.0
 40
0.0
 40
0.0
 40
0.0
 40
0.2509690901
 40
0.5003981255
 40
0.7495355514
 40
1.0
 40
1.0
 40
1.0
 40
1.0
 10
-69.4824690784
 20
-15.4944253244
 30
0.0
 10
-69.5950522168
 20
-14.8332776902
 30
0.0
 10
-69.7742007424
 20
-13.5068325389
 30
0.0
 10
-69.9024432223
 20
-11.5063517163
 30
0.0
 10
-69.8891543552
 20
-9.5031516706
 30
0.0
 10
-69.7863635788
 20
-8.1707557669
 30
0.0
 10
-69.712066898
 20
-7.5055759984
 30
0.0
 11
-69.4824690784
 21
-15.4944253244
 31
0.0
 11
-69.7512248374
 21
-13.5004617446
 31
0.0
 11
-69.8789285829
 21
-11.5048960175
 31
0.0
 11
-69.8658206923
 21
-9.5076291597
 31
0.0
 11
-69.712066898
 21
-7.5055759984
 31
0.0
  0
LINE
  5
504
100
AcDbEntity
  8
0
100
AcDbLine
 62
7
  6
CONTINUOUS
 10
-69.4846994485
 20
-15.4018108113
 11
-69.4894266417
 21
-15.2440534118
  0
LINE
  5
505
100
AcDbEntity
  8
0
100
AcDbLine
 62
7
  6
CONTINUOUS
 10
-69.4894266417
 20
-15.2440534118
 11
-69.4901250708
 21
-15.2214972653
  0
SPLINE
  5
506
100
AcDbEntity
  8
0
100
AcDbSpline
 62
7
  6
CONTINUOUS
 70
0
 71
3
 72
10
 73
6
 74
4
 42
0.0000001
 43
0.0000001
 44
0.0000000001
 12
-0.1063518792
 22
3.7213221902
 32
0.0
 13
-0.1006512121
 23
3.7214807401
 33
0.0
 40
0.0
 40
0.0
 40
0.0
 40
0.0
 40
0.6048977288
 40
0.839669247
 40
1.0
 40
1.0
 40
1.0
 40
1.0
 10
-69.6042124005
 20
-11.5
 30
0.0
 10
-69.6256564039
 20
-10.7496602197
 30
0.0
 10
-69.6538896098
 20
-9.7080560846
 30
0.0
 10
-69.6858421623
 20
-8.4675205746
 30
0.0
 10
-69.6983831058
 20
-7.9773796953
 30
0.0
 10
-69.7037622673
 20
-7.7784904254
 30
0.0
 11
-69.6042124005
 21
-11.5
 31
0.0
 11
-69.6656063566
 21
-9.248898611
 31
0.0
 11
-69.6881912235
 21
-8.3751732858
 31
0.0
 11
-69.7037622673
 21
-7.7784904254
 31
0.0
  0
LINE
  5
507
100
AcDbEntity
  8
0
100
AcDbLine
 62
7
  6
CONTINUOUS
 10
-69.7037622673
 20
-7.7784904254
 11
-69.7043888871
 21
-7.7553971908
  0
LINE
  5
508
100
AcDbEntity
  8
DRAFT
100
AcDbLine
 62
7
  6
CONTINUOUS
 10
-69.4826031817
 20
-15.4999954194
 11
-69.4841595182
 21
-15.5000005085
  0
SPLINE
  5
509
100
AcDbEntity
  8
DRAFT
100
AcDbSpline
 62
7
  6
CONTINUOUS
 70
0
 71
3
 72
57
 73
53
 74
51
 42
0.0000001
 43
0.0000001
 44
0.0000000001
 12
8.0031230373
 22
0.0615648559
 32
0.0
 13
-8.0029532069
 23
-0.0806755926
 33
0.0
 40
0.0
 40
0.0
 40
0.0
 40
0.0
 40
0.0000393438
 40
0.0001530941
 40
0.0003419502
 40
0.0006059521
 40
0.0013592266
 40
0.0024124552
 40
0.0037650846
 40
0.0054165412
 40
0.0073662019
 40
0.0096128274
 40
0.0149901026
 40
0.021534558
 40
0.0292320483
 40
0.0380637055
 40
0.0480070242
 40
0.0590393166
 40
0.0842619707
 40
0.1134883821
 40
0.1464367278
 40
0.1827909763
 40
0.2221985263
 40
0.2642807806
 40
0.3086340096
 40
0.4024305057
 40
0.4999848727
 40
0.5975415737
 40
0.6913465916
 40
0.7357065123
 40
0.7777958901
 40
0.8172106907
 40
0.8535711805
 40
0.8865232545
 40
0.9157507451
 40
0.9409723767
 40
0.9520036793
 40
0.9619458466
 40
0.9707763002
 40
0.9784726425
 40
0.9850160457
 40
0.9903923243
 40
0.9926384579
 40
0.994587623
 40
0.9962385688
 40
0.9975906567
 40
0.9986432951
 40
0.9993959099
 40
0.9996595457
 40
0.9998480014
 40
0.9999612956
 40
1.0
 40
1.0
 40
1.0
 40
1.0
 10
-69.7125580335
 20
-7.5000000004
 30
0.0
 10
-69.7124530758
 20
-7.499999193
 30
0.0
 10
-69.7124949073
 20
-7.5006273582
 30
0.0
 10
-69.7122959175
 20
-7.5013220057
 30
0.0
 10
-69.7122421768
 20
-7.5029491649
 30
0.0
 10
-69.7120099785
 20
-7.5060882903
 30
0.0
 10
-69.7117703129
 20
-7.5116596494
 30
0.0
 10
-69.7114053201
 20
-7.5200541729
 30
0.0
 10
-69.7110041557
 20
-7.5308807605
 30
0.0
 10
-69.7105414835
 20
-7.5440846099
 30
0.0
 10
-69.7100279367
 20
-7.5596779213
 30
0.0
 10
-69.7092218373
 20
-7.5852048956
 30
0.0
 10
-69.7080919453
 20
-7.6229864978
 30
0.0
 10
-69.7065943469
 20
-7.6753048382
 30
0.0
 10
-69.7048887723
 20
-7.7368367053
 30
0.0
 10
-69.7029766415
 20
-7.8074336939
 30
0.0
 10
-69.7008597488
 20
-7.8869249499
 30
0.0
 10
-69.6976199843
 20
-8.0101294742
 30
0.0
 10
-69.6930912747
 20
-8.1847610577
 30
0.0
 10
-69.6870923498
 20
-8.4178415141
 30
0.0
 10
-69.6803369591
 20
-8.6806090547
 30
0.0
 10
-69.6728549965
 20
-8.970527995
 30
0.0
 10
-69.6646830683
 20
-9.2848045573
 30
0.0
 10
-69.6558653751
 20
-9.6204111047
 30
0.0
 10
-69.6430761726
 20
-10.1010614554
 30
0.0
 10
-69.62598255
 20
-10.7296373753
 30
0.0
 10
-69.6043356817
 20
-11.5000771776
 30
0.0
 10
-69.5819455086
 20
-12.2705184871
 30
0.0
 10
-69.5630757659
 20
-12.899090447
 30
0.0
 10
-69.5483254024
 20
-13.3797442325
 30
0.0
 10
-69.537891749
 20
-13.7153606574
 30
0.0
 10
-69.5280121505
 20
-14.0296432
 30
0.0
 10
-69.5188173166
 20
-14.3195588365
 30
0.0
 10
-69.5104334154
 20
-14.5823089516
 30
0.0
 10
-69.5029800889
 20
-14.8153575363
 30
0.0
 10
-69.4974103753
 20
-14.9899565253
 30
0.0
 10
-69.4935131167
 20
-15.1131335591
 30
0.0
 10
-69.4910194774
 20
-15.1926049608
 30
0.0
 10
-69.4888311485
 20
-15.2631845762
 30
0.0
 10
-69.4869568619
 20
-15.3247024517
 30
0.0
 10
-69.4854044112
 20
-15.3770106505
 30
0.0
 10
-69.4843258816
 20
-15.4147869895
 30
0.0
 10
-69.4836353146
 20
-15.4403120198
 30
0.0
 10
-69.4832322664
 20
-15.4559046592
 30
0.0
 10
-69.482916468
 20
-15.46910847
 30
0.0
 10
-69.4826758637
 20
-15.4799360786
 30
0.0
 10
-69.4825413008
 20
-15.4883310088
 30
0.0
 10
-69.4824427413
 20
-15.4939057743
 30
0.0
 10
-69.4824849865
 20
-15.4970448084
 30
0.0
 10
-69.4824316091
 20
-15.4986763843
 30
0.0
 10
-69.4825927553
 20
-15.4993654873
 30
0.0
 10
-69.4824997543
 20
-15.4999989587
 30
0.0
 10
-69.4826030042
 20
-15.4999999995
 30
0.0
 11
-69.7125580335
 21
-7.5000000004
 31
0.0
 11
-69.7124659298
 21
-7.5003011116
 31
0.0
 11
-69.7123604505
 21
-7.501205365
 31
0.0
 11
-69.7122416118
 21
-7.5027121693
 31
0.0
 11
-69.71210943
 21
-7.5048209332
 31
0.0
 11
-69.7118051013
 21
-7.5108419738
 31
0.0
 11
-69.7114475939
 21
-7.5192637559
 31
0.0
 11
-69.7110370371
 21
-7.5300815485
 31
0.0
 11
-69.7105735604
 21
-7.5432906208
 31
0.0
 11
-69.7100572943
 21
-7.5588859143
 31
0.0
 11
-69.7094883879
 21
-7.576857464
 31
0.0
 11
-69.7081933063
 21
-7.6198742414
 31
0.0
 11
-69.7066896225
 21
-7.6722302845
 31
0.0
 11
-69.7049786593
 21
-7.7338123054
 31
0.0
 11
-69.7030619712
 21
-7.8044692437
 31
0.0
 11
-69.7009412912
 21
-7.8840209402
 31
0.0
 11
-69.6986183643
 21
-7.972285784
 31
0.0
 11
-69.6933742593
 21
-8.1740836331
 31
0.0
 11
-69.687348882
 21
-8.4079155025
 31
0.0
 11
-69.6805663654
 21
-8.6715257279
 31
0.0
 11
-69.6730560615
 21
-8.9623849144
 31
0.0
 11
-69.6648547547
 21
-9.2776710681
 31
0.0
 11
-69.6560062512
 21
-9.6143542358
 31
0.0
 11
-69.6465624103
 21
-9.9692034424
 31
0.0
 11
-69.6261444973
 21
-10.7196128267
 31
0.0
 11
-69.6042104751
 21
-11.5000673713
 31
0.0
 11
-69.5815277512
 21
-12.2805192024
 31
0.0
 11
-69.5590042818
 21
-13.0309365743
 31
0.0
 11
-69.5481153523
 21
-13.3857979574
 31
0.0
 11
-69.5376499238
 21
-13.7224917843
 31
0.0
 11
-69.5277408339
 21
-14.0377869428
 31
0.0
 11
-69.5185192826
 21
-14.3286468815
 31
0.0
 11
-69.5101131005
 21
-14.5922401808
 31
0.0
 11
-69.5026419
 21
-14.8260389625
 31
0.0
 11
-69.4962155351
 21
-15.027794434
 31
0.0
 11
-69.4934252758
 21
-15.1160378153
 31
0.0
 11
-69.4909316904
 21
-15.1955694761
 31
0.0
 11
-69.4887441445
 21
-15.2662089105
 31
0.0
 11
-69.4868719327
 21
-15.327777048
 31
0.0
 11
-69.48532284
 21
-15.3801233418
 31
0.0
 11
-69.4841026888
 21
-15.4231343303
 31
0.0
 11
-69.4836177447
 21
-15.4411044039
 31
0.0
 11
-69.4832171649
 21
-15.4566991294
 31
0.0
 11
-69.4829014435
 21
-15.4699084706
 31
0.0
 11
-69.4826707993
 21
-15.4807272578
 31
0.0
 11
-69.482525433
 21
-15.4891506478
 31
0.0
 11
-69.4824655447
 21
-15.495173797
 31
0.0
 11
-69.4824677175
 21
-15.4972837677
 31
0.0
 11
-69.482491335
 21
-15.498791862
 31
0.0
 11
-69.4825364222
 21
-15.4996974744
 31
0.0
 11
-69.4826030042
 21
-15.4999999995
 31
0.0
  0
LINE
  5
50A
100
AcDbEntity
  8
DRAFT
100
AcDbLine
 62
7
  6
CONTINUOUS
 10
-69.714276859
 20
-7.5000004294
 11
-69.7125581058
 21
-7.499996142
  0
SPLINE
  5
50B
100
AcDbEntity
  8
RACCORDO
100
AcDbSpline
 62
253
  6
CONTINUOUS
 70
0
 71
3
 72
20
 73
16
 74
14
 42
0.0000001
 43
0.0000001
 44
0.0000000001
 12
-0.500208795
 22
0.0130984283
 32
0.0
 13
0.0130894687
 23
0.5002090296
 33
0.0
 40
0.0
 40
0.0
 40
0.0
 40
0.0
 40
0.0017601602
 40
0.0055960833
 40
0.0201987728
 40
0.0441136285
 40
0.077217926
 40
0.119181152
 40
0.1695848728
 40
0.2279973449
 40
0.2938475934
 40
0.4451452565
 40
0.6177669135
 40
0.8053187346
 40
1.0
 40
1.0
 40
1.0
 40
1.0
 10
-67.6947935487
 20
-21.9792778735
 30
0.0
 10
-67.6950870312
 20
-21.9792701884
 30
0.0
 10
-67.6956711566
 20
-21.9782691641
 30
0.0
 10
-67.6964202451
 20
-21.9752219735
 30
0.0
 10
-67.6973554597
 20
-21.9679733103
 30
0.0
 10
-67.6981680784
 20
-21.9561886213
 30
0.0
 10
-67.6989110624
 20
-21.9396358736
 30
0.0
 10
-67.6994852469
 20
-21.918737755
 30
0.0
 10
-67.6999079652
 20
-21.8935840654
 30
0.0
 10
-67.7001583751
 20
-21.8644542957
 30
0.0
 10
-67.7002673305
 20
-21.8184914747
 30
0.0
 10
-67.6999185298
 20
-21.7534811135
 30
0.0
 10
-67.6988522597
 20
-21.668177014
 30
0.0
 10
-67.6971483344
 20
-21.5756461824
 30
0.0
 10
-67.6956429735
 20
-21.5119096533
 30
0.0
 10
-67.6947935487
 20
-21.479449211
 30
0.0
 11
-67.6947935487
 21
-21.9792778735
 31
0.0
 11
-67.6954172294
 21
-21.9786559877
 31
0.0
 11
-67.6960089765
 21
-21.9768300608
 31
0.0
 11
-67.6970904044
 21
-21.9696036324
 31
0.0
 11
-67.6980253016
 21
-21.9576736864
 31
0.0
 11
-67.6988017908
 21
-21.9411271587
 31
0.0
 11
-67.6994128266
 21
-21.9201384812
 31
0.0
 11
-67.699853529
 21
-21.8949213048
 31
0.0
 11
-67.7001192036
 21
-21.8656940641
 31
0.0
 11
-67.7002077791
 21
-21.8327440185
 31
0.0
 11
-67.6998535291
 21
-21.7570384829
 31
0.0
 11
-67.6988017913
 21
-21.6706684161
 31
0.0
 11
-67.6970904051
 21
-21.5768367922
 31
0.0
 11
-67.6947935487
 21
-21.479449211
 31
0.0
  0
LINE
  5
50C
100
AcDbEntity
  8
RACCORDO
100
AcDbLine
 62
253
  6
CONTINUOUS
 10
-68.8627286093
 20
20.8314926358
 11
-69.2417729863
 21
20.8319033448
  0
LINE
  5
50D
100
AcDbEntity
  8
RACCORDO
100
AcDbLine
 62
253
  6
CONTINUOUS
 10
-69.2417729862
 20
-20.8319033473
 11
-68.8627286092
 21
-20.8314926383
  0
SPLINE
  5
50E
100
AcDbEntity
  8
RACCORDO
100
AcDbSpline
 62
253
  6
CONTINUOUS
 70
0
 71
3
 72
20
 73
16
 74
14
 42
0.0000001
 43
0.0000001
 44
0.0000000001
 12
-0.5002087944
 22
-0.0130984283
 32
0.0
 13
0.0130894589
 23
-0.5002090292
 33
0.0
 40
0.0
 40
0.0
 40
0.0
 40
0.0
 40
0.0017601594
 40
0.0055960813
 40
0.0201987681
 40
0.044113621
 40
0.0772179151
 40
0.1191811352
 40
0.1695848513
 40
0.2279973213
 40
0.2938475655
 40
0.445145223
 40
0.6177668847
 40
0.8053187253
 40
1.0
 40
1.0
 40
1.0
 40
1.0
 10
-67.6947935522
 20
21.9792778734
 30
0.0
 10
-67.6950870346
 20
21.9792701883
 30
0.0
 10
-67.6956711595
 20
21.9782691641
 30
0.0
 10
-67.6964202475
 20
21.9752219743
 30
0.0
 10
-67.6973554615
 20
21.967973312
 30
0.0
 10
-67.6981680795
 20
21.9561886246
 30
0.0
 10
-67.6989110627
 20
21.9396358789
 30
0.0
 10
-67.6994852469
 20
21.9187377626
 30
0.0
 10
-67.6999079649
 20
21.8935840751
 30
0.0
 10
-67.7001583745
 20
21.8644543074
 30
0.0
 10
-67.70026733
 20
21.8184914884
 30
0.0
 10
-67.6999185297
 20
21.7534811282
 30
0.0
 10
-67.6988522605
 20
21.6681770256
 30
0.0
 10
-67.6971483362
 20
21.5756461886
 30
0.0
 10
-67.6956429763
 20
21.5119096547
 30
0.0
 10
-67.6947935522
 20
21.4794492109
 30
0.0
 11
-67.6947935522
 21
21.9792778734
 31
0.0
 11
-67.6954172325
 21
21.9786559878
 31
0.0
 11
-67.6960089792
 21
21.9768300613
 31
0.0
 11
-67.6970904063
 21
21.9696036343
 31
0.0
 11
-67.6980253027
 21
21.9576736896
 31
0.0
 11
-67.6988017913
 21
21.9411271636
 31
0.0
 11
-67.6994128266
 21
21.9201384891
 31
0.0
 11
-67.6998535287
 21
21.894921315
 31
0.0
 11
-67.7001192031
 21
21.8656940754
 31
0.0
 11
-67.7002077786
 21
21.832744032
 31
0.0
 11
-67.699853529
 21
21.7570384993
 31
0.0
 11
-67.698801792
 21
21.6706684302
 31
0.0
 11
-67.6970904069
 21
21.5768367966
 31
0.0
 11
-67.6947935522
 21
21.4794492109
 31
0.0
  0
SPLINE
  5
50F
100
AcDbEntity
  8
0
100
AcDbSpline
 62
7
  6
CONTINUOUS
 70
0
 71
3
 72
13
 73
9
 74
7
 42
0.0000001
 43
0.0000001
 44
0.0000000001
 12
-0.2489101548
 22
-0.143711993
 32
0.0
 13
-0.244355276
 23
-0.1513687366
 33
0.0
 40
0.0
 40
0.0
 40
0.0
 40
0.0
 40
0.3612210663
 40
0.682170423
 40
0.812667465
 40
0.9137049675
 40
0.9780318448
 40
1.0
 40
1.0
 40
1.0
 40
1.0
 10
-60.7360559661
 20
23.2669872981
 30
0.0
 10
-60.7660264966
 20
23.249683365
 30
0.0
 10
-60.8226138721
 20
23.2169831279
 30
0.0
 10
-60.8899781631
 20
23.1779450624
 30
0.0
 10
-60.9357571315
 20
23.1513733071
 30
0.0
 10
-60.9602236107
 20
23.1370619739
 30
0.0
 10
-60.9757511978
 20
23.1280587384
 30
0.0
 10
-60.9828121884
 20
23.1237581614
 30
0.0
 10
-60.9846015333
 20
23.1226497308
 30
0.0
 11
-60.7360559661
 21
23.2669872981
 31
0.0
 11
-60.8259431755
 21
23.2150332915
 31
0.0
 11
-60.9057578671
 21
23.1687830511
 31
0.0
 11
-60.9381860554
 21
23.1499360992
 31
0.0
 11
-60.9632712814
 21
23.1353054509
 31
0.0
 11
-60.9792112006
 21
23.1259378303
 31
0.0
 11
-60.9846015333
 21
23.1226497308
 31
0.0
  0
SPLINE
  5
510
100
AcDbEntity
  8
0
100
AcDbSpline
 62
253
  6
CONTINUOUS
 70
0
 71
3
 72
26
 73
22
 74
20
 42
0.0000001
 43
0.0000001
 44
0.0000000001
 12
-0.124641584
 22
-0.2158928633
 32
0.0
 13
0.2158910366
 23
-0.1246447481
 33
0.0
 40
0.0
 40
0.0
 40
0.0
 40
0.0
 40
0.1952371571
 40
0.3828765725
 40
0.5557521165
 40
0.6345528919
 40
0.7072369656
 40
0.7731083045
 40
0.8315338818
 40
0.8819524705
 40
0.9238825345
 40
0.9415345162
 40
0.9569212041
 40
0.9700029814
 40
0.9807505693
 40
0.9891391953
 40
0.9951465425
 40
0.9972538056
 40
0.9987627805
 40
0.9996743239
 40
1.0
 40
1.0
 40
1.0
 40
1.0
 10
-61.7360559661
 20
23.8443375673
 30
0.0
 10
-61.7441675223
 20
23.8302874643
 30
0.0
 10
-61.7600615945
 20
23.8027262996
 30
0.0
 10
-61.7830916706
 20
23.7626974834
 30
0.0
 10
-61.8012610029
 20
23.7310346506
 30
0.0
 10
-61.8146506644
 20
23.7076424988
 30
0.0
 10
-61.8236103048
 20
23.6919598928
 30
0.0
 10
-61.8317162021
 20
23.6777394869
 30
0.0
 10
-61.8388906982
 20
23.6651178186
 30
0.0
 10
-61.8450649985
 20
23.6542160512
 30
0.0
 10
-61.8495528948
 20
23.6462528792
 30
0.0
 10
-61.8525974364
 20
23.6408180126
 30
0.0
 10
-61.8544635614
 20
23.6374702745
 30
0.0
 10
-61.8560413558
 20
23.6346199041
 30
0.0
 10
-61.8573306324
 20
23.6322710394
 30
0.0
 10
-61.8583194456
 20
23.6304369747
 30
0.0
 10
-61.8589693526
 20
23.6292158937
 30
0.0
 10
-61.8593169971
 20
23.6285132656
 30
0.0
 10
-61.8595005675
 20
23.6281552613
 30
0.0
 10
-61.859553599
 20
23.627979116
 30
0.0
 10
-61.8596249701
 20
23.6278447476
 30
0.0
 10
-61.8596015333
 20
23.6278312164
 30
0.0
 11
-61.7360559661
 21
23.8443375673
 31
0.0
 11
-61.7603697477
 21
23.8021752067
 31
0.0
 11
-61.7836955456
 21
23.761629536
 31
0.0
 11
-61.8051425022
 21
23.7242490838
 31
0.0
 11
-61.8149007366
 21
23.7071999878
 31
0.0
 11
-61.8238884503
 21
23.6914668129
 31
0.0
 11
-61.8320195707
 21
23.6772002365
 31
0.0
 11
-61.8392159447
 21
23.664537377
 31
0.0
 11
-61.8454084301
 21
23.6535998967
 31
0.0
 11
-61.8505378644
 21
23.644492298
 31
0.0
 11
-61.8526880282
 21
23.6406529246
 31
0.0
 11
-61.8545549215
 21
23.6373021623
 31
0.0
 11
-61.8561337162
 21
23.6344486549
 31
0.0
 11
-61.8574208631
 21
23.632098827
 31
0.0
 11
-61.8584133568
 21
23.6302581591
 31
0.0
 11
-61.8591084581
 21
23.6289316804
 31
0.0
 11
-61.859344036
 21
23.6284621459
 31
0.0
 11
-61.8595048159
 21
23.6281220652
 31
0.0
 11
-61.8595906856
 21
23.627911676
 31
0.0
 11
-61.8596015333
 21
23.6278312164
 31
0.0
  0
SPLINE
  5
511
100
AcDbEntity
  8
0
100
AcDbSpline
 62
253
  6
CONTINUOUS
 70
0
 71
3
 72
26
 73
22
 74
20
 42
0.0000001
 43
0.0000001
 44
0.0000000001
 12
0.124641584
 22
-0.2158928633
 32
0.0
 13
-0.2158910366
 23
-0.1246447481
 33
0.0
 40
0.0
 40
0.0
 40
0.0
 40
0.0
 40
0.1952373303
 40
0.3828767077
 40
0.5557522251
 40
0.6345529812
 40
0.7072370395
 40
0.7731083627
 40
0.8315339236
 40
0.8819525002
 40
0.9238825542
 40
0.9415345305
 40
0.9569212142
 40
0.9700029891
 40
0.9807505739
 40
0.9891391978
 40
0.995146544
 40
0.9972538066
 40
0.998762781
 40
0.999674324
 40
1.0
 40
1.0
 40
1.0
 40
1.0
 10
-58.7331471004
 20
23.8443375673
 30
0.0
 10
-58.7250355371
 20
23.8302874519
 30
0.0
 10
-58.7091414592
 20
23.8027262774
 30
0.0
 10
-58.6861113787
 20
23.7626974533
 30
0.0
 10
-58.6679420498
 20
23.7310346265
 30
0.0
 10
-58.6545523909
 20
23.7076424792
 30
0.0
 10
-58.6455927526
 20
23.6919598769
 30
0.0
 10
-58.6374868573
 20
23.6777394743
 30
0.0
 10
-58.630312363
 20
23.6651178092
 30
0.0
 10
-58.6241380643
 20
23.6542160446
 30
0.0
 10
-58.6196501691
 20
23.6462528745
 30
0.0
 10
-58.6166056284
 20
23.6408180094
 30
0.0
 10
-58.6147395038
 20
23.6374702721
 30
0.0
 10
-58.6131617098
 20
23.6346199025
 30
0.0
 10
-58.6118724336
 20
23.6322710383
 30
0.0
 10
-58.6108836206
 20
23.630436974
 30
0.0
 10
-58.6102337137
 20
23.6292158934
 30
0.0
 10
-58.6098860693
 20
23.6285132654
 30
0.0
 10
-58.609702499
 20
23.6281552612
 30
0.0
 10
-58.6096494675
 20
23.627979116
 30
0.0
 10
-58.6095780964
 20
23.6278447476
 30
0.0
 10
-58.6096015333
 20
23.6278312164
 30
0.0
 11
-58.7331471004
 21
23.8443375673
 31
0.0
 11
-58.7088332972
 21
23.8021751692
 31
0.0
 11
-58.6855075042
 21
23.7616295068
 31
0.0
 11
-58.6640605509
 21
23.7242490603
 31
0.0
 11
-58.6543023189
 21
23.7071999685
 31
0.0
 11
-58.6453146071
 21
23.6914667969
 31
0.0
 11
-58.6371834886
 21
23.6772002239
 31
0.0
 11
-58.6299871167
 21
23.6645373679
 31
0.0
 11
-58.6237946327
 21
23.6535998903
 31
0.0
 11
-58.6186651997
 21
23.6444922937
 31
0.0
 11
-58.6165150366
 21
23.6406529215
 31
0.0
 11
-58.6146481438
 21
23.6373021601
 31
0.0
 11
-58.6130693494
 21
23.6344486533
 31
0.0
 11
-58.6117822029
 21
23.632098826
 31
0.0
 11
-58.6107897094
 21
23.6302581585
 31
0.0
 11
-58.6100946082
 21
23.6289316801
 31
0.0
 11
-58.6098590304
 21
23.6284621457
 31
0.0
 11
-58.6096982506
 21
23.628122065
 31
0.0
 11
-58.6096123809
 21
23.627911676
 31
0.0
 11
-58.6096015333
 21
23.6278312164
 31
0.0
  0
SPLINE
  5
512
100
AcDbEntity
  8
0
100
AcDbSpline
 62
253
  6
CONTINUOUS
 70
0
 71
3
 72
26
 73
22
 74
20
 42
0.0000001
 43
0.0000001
 44
0.0000000001
 12
0.124641584
 22
0.2158928634
 32
0.0
 13
-0.2158910366
 23
0.1246447481
 33
0.0
 40
0.0
 40
0.0
 40
0.0
 40
0.0
 40
0.1952373367
 40
0.3828767197
 40
0.5557522426
 40
0.6345529999
 40
0.7072370592
 40
0.7731083831
 40
0.8315339428
 40
0.8819525183
 40
0.923882571
 40
0.941534545
 40
0.956921227
 40
0.9700030008
 40
0.9807505828
 40
0.9891392048
 40
0.9951465495
 40
0.9972538103
 40
0.9987627829
 40
0.9996743245
 40
1.0
 40
1.0
 40
1.0
 40
1.0
 10
-58.7331471004
 20
-23.8443375673
 30
0.0
 10
-58.7250355368
 20
-23.8302874514
 30
0.0
 10
-58.7091414584
 20
-23.8027262761
 30
0.0
 10
-58.6861113772
 20
-23.7626974507
 30
0.0
 10
-58.6679420478
 20
-23.7310346231
 30
0.0
 10
-58.6545523886
 20
-23.7076424751
 30
0.0
 10
-58.6455927502
 20
-23.6919598726
 30
0.0
 10
-58.6374868549
 20
-23.67773947
 30
0.0
 10
-58.6303123606
 20
-23.665117805
 30
0.0
 10
-58.6241380621
 20
-23.6542160407
 30
0.0
 10
-58.6196501671
 20
-23.646252871
 30
0.0
 10
-58.6166056266
 20
-23.6408180062
 30
0.0
 10
-58.6147395022
 20
-23.6374702693
 30
0.0
 10
-58.6131617085
 20
-23.6346199
 30
0.0
 10
-58.6118724325
 20
-23.6322710363
 30
0.0
 10
-58.6108836198
 20
-23.6304369725
 30
0.0
 10
-58.6102337131
 20
-23.6292158922
 30
0.0
 10
-58.6098860688
 20
-23.6285132646
 30
0.0
 10
-58.6097024988
 20
-23.6281552608
 30
0.0
 10
-58.6096494673
 20
-23.6279791158
 30
0.0
 10
-58.6095780965
 20
-23.6278447476
 30
0.0
 10
-58.6096015333
 20
-23.6278312164
 30
0.0
 11
-58.7331471004
 21
-23.8443375673
 31
0.0
 11
-58.7088332965
 21
-23.8021751679
 31
0.0
 11
-58.6855075027
 21
-23.7616295042
 31
0.0
 11
-58.6640605487
 21
-23.7242490565
 31
0.0
 11
-58.6543023165
 21
-23.7071999644
 31
0.0
 11
-58.6453146047
 21
-23.6914667926
 31
0.0
 11
-58.6371834861
 21
-23.6772002194
 31
0.0
 11
-58.6299871143
 21
-23.6645373638
 31
0.0
 11
-58.6237946305
 21
-23.6535998863
 31
0.0
 11
-58.6186651977
 21
-23.6444922901
 31
0.0
 11
-58.6165150348
 21
-23.6406529184
 31
0.0
 11
-58.6146481422
 21
-23.6373021573
 31
0.0
 11
-58.6130693479
 21
-23.6344486507
 31
0.0
 11
-58.6117822019
 21
-23.632098824
 31
0.0
 11
-58.6107897086
 21
-23.630258157
 31
0.0
 11
-58.6100946075
 21
-23.6289316788
 31
0.0
 11
-58.6098590299
 21
-23.6284621448
 31
0.0
 11
-58.6096982504
 21
-23.6281220646
 31
0.0
 11
-58.6096123808
 21
-23.6279116759
 31
0.0
 11
-58.6096015333
 21
-23.6278312164
 31
0.0
  0
LINE
  5
513
100
AcDbEntity
  8
RACCORDO
100
AcDbLine
 62
253
  6
CONTINUOUS
 10
-47.6161975044
 20
18.5521029846
 11
-47.6811110568
 21
19.0166572575
  0
SPLINE
  5
514
100
AcDbEntity
  8
0
100
AcDbSpline
 62
253
  6
CONTINUOUS
 70
0
 71
3
 72
26
 73
22
 74
20
 42
0.0000001
 43
0.0000001
 44
0.0000000001
 12
-0.124641584
 22
0.2158928633
 32
0.0
 13
0.2158910366
 23
0.1246447481
 33
0.0
 40
0.0
 40
0.0
 40
0.0
 40
0.0
 40
0.1952373303
 40
0.3828767077
 40
0.5557522251
 40
0.6345529812
 40
0.7072370395
 40
0.7731083627
 40
0.8315339236
 40
0.8819525002
 40
0.9238825542
 40
0.9415345305
 40
0.9569212142
 40
0.9700029891
 40
0.9807505739
 40
0.9891391978
 40
0.995146544
 40
0.9972538066
 40
0.998762781
 40
0.999674324
 40
1.0
 40
1.0
 40
1.0
 40
1.0
 10
-61.7360559661
 20
-23.8443375673
 30
0.0
 10
-61.7441675295
 20
-23.8302874519
 30
0.0
 10
-61.7600616074
 20
-23.8027262774
 30
0.0
 10
-61.7830916878
 20
-23.7626974533
 30
0.0
 10
-61.8012610167
 20
-23.7310346265
 30
0.0
 10
-61.8146506756
 20
-23.7076424792
 30
0.0
 10
-61.8236103139
 20
-23.6919598769
 30
0.0
 10
-61.8317162092
 20
-23.6777394743
 30
0.0
 10
-61.8388907035
 20
-23.6651178092
 30
0.0
 10
-61.8450650022
 20
-23.6542160446
 30
0.0
 10
-61.8495528974
 20
-23.6462528745
 30
0.0
 10
-61.8525974382
 20
-23.6408180094
 30
0.0
 10
-61.8544635627
 20
-23.6374702721
 30
0.0
 10
-61.8560413567
 20
-23.6346199025
 30
0.0
 10
-61.857330633
 20
-23.6322710383
 30
0.0
 10
-61.8583194459
 20
-23.630436974
 30
0.0
 10
-61.8589693528
 20
-23.6292158934
 30
0.0
 10
-61.8593169973
 20
-23.6285132654
 30
0.0
 10
-61.8595005675
 20
-23.6281552612
 30
0.0
 10
-61.859553599
 20
-23.627979116
 30
0.0
 10
-61.8596249701
 20
-23.6278447476
 30
0.0
 10
-61.8596015333
 20
-23.6278312164
 30
0.0
 11
-61.7360559661
 21
-23.8443375673
 31
0.0
 11
-61.7603697693
 21
-23.8021751692
 31
0.0
 11
-61.7836955624
 21
-23.7616295068
 31
0.0
 11
-61.8051425156
 21
-23.7242490603
 31
0.0
 11
-61.8149007477
 21
-23.7071999685
 31
0.0
 11
-61.8238884594
 21
-23.6914667969
 31
0.0
 11
-61.8320195779
 21
-23.6772002239
 31
0.0
 11
-61.8392159498
 21
-23.6645373679
 31
0.0
 11
-61.8454084338
 21
-23.6535998903
 31
0.0
 11
-61.8505378668
 21
-23.6444922937
 31
0.0
 11
-61.8526880299
 21
-23.6406529215
 31
0.0
 11
-61.8545549228
 21
-23.6373021601
 31
0.0
 11
-61.8561337172
 21
-23.6344486533
 31
0.0
 11
-61.8574208636
 21
-23.632098826
 31
0.0
 11
-61.8584133571
 21
-23.6302581585
 31
0.0
 11
-61.8591084583
 21
-23.6289316801
 31
0.0
 11
-61.8593440361
 21
-23.6284621457
 31
0.0
 11
-61.8595048159
 21
-23.628122065
 31
0.0
 11
-61.8595906856
 21
-23.627911676
 31
0.0
 11
-61.8596015333
 21
-23.6278312164
 31
0.0
  0
SPLINE
  5
515
100
AcDbEntity
  8
0
100
AcDbSpline
 62
7
  6
CONTINUOUS
 70
0
 71
3
 72
13
 73
9
 74
7
 42
0.0000001
 43
0.0000001
 44
0.0000000001
 12
-0.2489101548
 22
0.143711993
 32
0.0
 13
-0.244355276
 23
0.1513687366
 33
0.0
 40
0.0
 40
0.0
 40
0.0
 40
0.0
 40
0.3612210663
 40
0.682170423
 40
0.812667465
 40
0.9137049675
 40
0.9780318448
 40
1.0
 40
1.0
 40
1.0
 40
1.0
 10
-60.7360559661
 20
-23.2669872981
 30
0.0
 10
-60.7660264966
 20
-23.249683365
 30
0.0
 10
-60.8226138721
 20
-23.2169831279
 30
0.0
 10
-60.8899781631
 20
-23.1779450624
 30
0.0
 10
-60.9357571315
 20
-23.1513733071
 30
0.0
 10
-60.9602236107
 20
-23.1370619739
 30
0.0
 10
-60.9757511978
 20
-23.1280587384
 30
0.0
 10
-60.9828121884
 20
-23.1237581614
 30
0.0
 10
-60.9846015333
 20
-23.1226497308
 30
0.0
 11
-60.7360559661
 21
-23.2669872981
 31
0.0
 11
-60.8259431755
 21
-23.2150332915
 31
0.0
 11
-60.9057578671
 21
-23.1687830511
 31
0.0
 11
-60.9381860554
 21
-23.1499360992
 31
0.0
 11
-60.9632712814
 21
-23.1353054509
 31
0.0
 11
-60.9792112006
 21
-23.1259378303
 31
0.0
 11
-60.9846015333
 21
-23.1226497308
 31
0.0
  0
LINE
  5
516
100
AcDbEntity
  8
RACCORDO
100
AcDbLine
 62
253
  6
CONTINUOUS
 10
-47.6811110568
 20
-19.0166572575
 11
-47.6161975044
 21
-18.5521029846
  0
SPLINE
  5
517
100
AcDbEntity
  8
0
100
AcDbSpline
 62
253
  6
CONTINUOUS
 70
0
 71
3
 72
26
 73
22
 74
20
 42
0.0000001
 43
0.0000001
 44
0.0000000001
 12
0.0014544634
 22
-0.2500094792
 32
0.0
 13
-0.2500094789
 23
-0.0014545126
 33
0.0
 40
0.0
 40
0.0
 40
0.0
 40
0.0
 40
0.195080196
 40
0.3826515393
 40
0.5555245815
 40
0.6343411269
 40
0.7070484192
 40
0.7729476609
 40
0.831403253
 40
0.881851676
 40
0.9238093952
 40
0.9414738478
 40
0.9568718917
 40
0.9699637695
 40
0.9807201068
 40
0.9891161374
 40
0.9951296516
 40
0.997239688
 40
0.9987514623
 40
0.9996664469
 40
1.0
 40
1.0
 40
1.0
 40
1.0
 10
-58.7331471004
 20
-24.2456323968
 30
0.0
 10
-58.7330525214
 20
-24.2618896962
 30
0.0
 10
-58.7328849167
 20
-24.2937786412
 30
0.0
 10
-58.7326956703
 20
-24.3400745182
 30
0.0
 10
-58.7325936859
 20
-24.3766814763
 30
0.0
 10
-58.7325521415
 20
-24.403716003
 30
0.0
 10
-58.7325414533
 20
-24.4218355876
 30
0.0
 10
-58.7325502273
 20
-24.4382583307
 30
0.0
 10
-58.73257821
 20
-24.4528260562
 30
0.0
 10
-58.7326250457
 20
-24.46539845
 30
0.0
 10
-58.7326814884
 20
-24.4745714119
 30
0.0
 10
-58.732738524
 20
-24.4808230755
 30
0.0
 10
-58.73278299
 20
-24.4846694877
 30
0.0
 10
-58.7328318261
 20
-24.4879390802
 30
0.0
 10
-58.7328834877
 20
-24.4906278529
 30
0.0
 10
-58.7329406397
 20
-24.492719004
 30
0.0
 10
-58.7329896115
 20
-24.4941060198
 30
0.0
 10
-58.7330406621
 20
-24.4948925842
 30
0.0
 10
-58.7330656203
 20
-24.4952943483
 30
0.0
 10
-58.7331060656
 20
-24.495477879
 30
0.0
 10
-58.7331193033
 20
-24.4956280043
 30
0.0
 10
-58.7331471004
 20
-24.495628166
 30
0.0
 11
-58.7331471004
 21
-24.2456323968
 31
0.0
 11
-58.7328913092
 21
-24.2944044496
 31
0.0
 11
-58.7327012528
 21
-24.3412994718
 31
0.0
 11
-58.7325842099
 21
-24.384519944
 31
0.0
 11
-58.7325545941
 21
-24.4042251386
 31
0.0
 11
-58.7325446916
 21
-24.4224029558
 31
0.0
 11
-58.7325545942
 21
-24.4388786668
 31
0.0
 11
-58.73258421
 21
-24.4534933362
 31
0.0
 11
-58.7326332543
 21
-24.4661060382
 31
0.0
 11
-58.7327012531
 21
-24.4765958229
 31
0.0
 11
-58.7327421644
 21
-24.4810119887
 31
0.0
 11
-58.7327875498
 21
-24.4848614432
 31
0.0
 11
-58.7328373042
 21
-24.488134214
 31
0.0
 11
-58.7328913097
 21
-24.4908229035
 31
0.0
 11
-58.7329494429
 21
-24.4929212211
 31
0.0
 11
-58.7330115723
 21
-24.4944233978
 31
0.0
 11
-58.7330440814
 21
-24.4949499332
 31
0.0
 11
-58.7330775217
 21
-24.4953264153
 31
0.0
 11
-58.7331118694
 21
-24.4955525807
 31
0.0
 11
-58.7331471004
 21
-24.495628166
 31
0.0
  0
LINE
  5
518
100
AcDbEntity
  8
0
100
AcDbLine
 62
7
  6
CONTINUOUS
 10
-59.4846015333
 20
-24.2500042308
 11
-59.4846015333
 21
-24.5
  0
LINE
  5
519
100
AcDbEntity
  8
RACCORDO
100
AcDbLine
 62
253
  6
CONTINUOUS
 10
-47.681111052
 20
19.0166572575
 11
-57.4846015333
 21
15.629521819
  0
LINE
  5
51A
100
AcDbEntity
  8
RACCORDO
100
AcDbLine
 62
253
  6
CONTINUOUS
 10
-57.4846015333
 20
-15.629521819
 11
-47.681111052
 21
-19.0166572575
  0
SPLINE
  5
51B
100
AcDbEntity
  8
0
100
AcDbSpline
 62
253
  6
CONTINUOUS
 70
0
 71
3
 72
26
 73
22
 74
20
 42
0.0000001
 43
0.0000001
 44
0.0000000001
 12
-0.0014544634
 22
-0.2500094792
 32
0.0
 13
0.2500094789
 23
-0.0014545126
 33
0.0
 40
0.0
 40
0.0
 40
0.0
 40
0.0
 40
0.195080196
 40
0.3826515393
 40
0.5555245815
 40
0.6343411269
 40
0.7070484192
 40
0.7729476609
 40
0.831403253
 40
0.881851676
 40
0.9238093952
 40
0.9414738478
 40
0.9568718917
 40
0.9699637695
 40
0.9807201068
 40
0.9891161374
 40
0.9951296516
 40
0.997239688
 40
0.9987514623
 40
0.9996664469
 40
1.0
 40
1.0
 40
1.0
 40
1.0
 10
-61.7360559661
 20
-24.2369056521
 30
0.0
 10
-61.7361505451
 20
-24.2531629515
 30
0.0
 10
-61.7363181499
 20
-24.2850518965
 30
0.0
 10
-61.7365073963
 20
-24.3313477735
 30
0.0
 10
-61.7366093807
 20
-24.3679547315
 30
0.0
 10
-61.736650925
 20
-24.3949892583
 30
0.0
 10
-61.7366616133
 20
-24.4131088428
 30
0.0
 10
-61.7366528392
 20
-24.429531586
 30
0.0
 10
-61.7366248565
 20
-24.4440993115
 30
0.0
 10
-61.7365780208
 20
-24.4566717053
 30
0.0
 10
-61.7365215781
 20
-24.4658446672
 30
0.0
 10
-61.7364645425
 20
-24.4720963307
 30
0.0
 10
-61.7364200765
 20
-24.4759427429
 30
0.0
 10
-61.7363712404
 20
-24.4792123355
 30
0.0
 10
-61.7363195788
 20
-24.4819011082
 30
0.0
 10
-61.7362624268
 20
-24.4839922593
 30
0.0
 10
-61.736213455
 20
-24.4853792751
 30
0.0
 10
-61.7361624044
 20
-24.4861658394
 30
0.0
 10
-61.7361374462
 20
-24.4865676036
 30
0.0
 10
-61.736097001
 20
-24.4867511343
 30
0.0
 10
-61.7360837633
 20
-24.4869012596
 30
0.0
 10
-61.7360559661
 20
-24.4869014213
 30
0.0
 11
-61.7360559661
 21
-24.2369056521
 31
0.0
 11
-61.7363117573
 21
-24.2856777048
 31
0.0
 11
-61.7365018137
 21
-24.3325727271
 31
0.0
 11
-61.7366188567
 21
-24.3757931993
 31
0.0
 11
-61.7366484724
 21
-24.3954983939
 31
0.0
 11
-61.7366583749
 21
-24.4136762111
 31
0.0
 11
-61.7366484723
 21
-24.430151922
 31
0.0
 11
-61.7366188565
 21
-24.4447665915
 31
0.0
 11
-61.7365698122
 21
-24.4573792935
 31
0.0
 11
-61.7365018135
 21
-24.4678690781
 31
0.0
 11
-61.7364609022
 21
-24.472285244
 31
0.0
 11
-61.7364155167
 21
-24.4761346985
 31
0.0
 11
-61.7363657623
 21
-24.4794074693
 31
0.0
 11
-61.7363117569
 21
-24.4820961588
 31
0.0
 11
-61.7362536236
 21
-24.4841944764
 31
0.0
 11
-61.7361914942
 21
-24.4856966531
 31
0.0
 11
-61.7361589851
 21
-24.4862231885
 31
0.0
 11
-61.7361255448
 21
-24.4865996706
 31
0.0
 11
-61.7360911972
 21
-24.486825836
 31
0.0
 11
-61.7360559661
 21
-24.4869014213
 31
0.0
  0
SPLINE
  5
51C
100
AcDbEntity
  8
0
100
AcDbSpline
 62
253
  6
CONTINUOUS
 70
0
 71
3
 72
26
 73
22
 74
20
 42
0.0000001
 43
0.0000001
 44
0.0000000001
 12
0.2500094789
 22
-0.0014545126
 32
0.0
 13
-0.0014544634
 23
-0.2500094792
 33
0.0
 40
0.0
 40
0.0
 40
0.0
 40
0.0
 40
0.0003335531
 40
0.0012485377
 40
0.002760312
 40
0.0048703484
 40
0.0108838626
 40
0.0192798932
 40
0.0300362305
 40
0.0431281083
 40
0.0585261522
 40
0.0761906048
 40
0.118148324
 40
0.168596747
 40
0.2270523391
 40
0.2929515808
 40
0.3656588731
 40
0.4444754185
 40
0.6173484607
 40
0.804919804
 40
1.0
 40
1.0
 40
1.0
 40
1.0
 10
-58.7331471004
 20
24.495628166
 30
0.0
 10
-58.7331193033
 20
24.4956280043
 30
0.0
 10
-58.7331060656
 20
24.495477879
 30
0.0
 10
-58.7330656203
 20
24.4952943483
 30
0.0
 10
-58.7330406621
 20
24.4948925842
 30
0.0
 10
-58.7329896115
 20
24.4941060198
 30
0.0
 10
-58.7329406397
 20
24.492719004
 30
0.0
 10
-58.7328834877
 20
24.4906278529
 30
0.0
 10
-58.7328318261
 20
24.4879390802
 30
0.0
 10
-58.73278299
 20
24.4846694877
 30
0.0
 10
-58.732738524
 20
24.4808230755
 30
0.0
 10
-58.7326814884
 20
24.4745714119
 30
0.0
 10
-58.7326250457
 20
24.46539845
 30
0.0
 10
-58.73257821
 20
24.4528260562
 30
0.0
 10
-58.7325502273
 20
24.4382583307
 30
0.0
 10
-58.7325414533
 20
24.4218355876
 30
0.0
 10
-58.7325521415
 20
24.403716003
 30
0.0
 10
-58.7325936859
 20
24.3766814763
 30
0.0
 10
-58.7326956703
 20
24.3400745182
 30
0.0
 10
-58.7328849167
 20
24.2937786412
 30
0.0
 10
-58.7330525214
 20
24.2618896962
 30
0.0
 10
-58.7331471004
 20
24.2456323968
 30
0.0
 11
-58.7331471004
 21
24.495628166
 31
0.0
 11
-58.7331118694
 21
24.4955525807
 31
0.0
 11
-58.7330775217
 21
24.4953264153
 31
0.0
 11
-58.7330440814
 21
24.4949499332
 31
0.0
 11
-58.7330115723
 21
24.4944233978
 31
0.0
 11
-58.7329494429
 21
24.4929212211
 31
0.0
 11
-58.7328913097
 21
24.4908229035
 31
0.0
 11
-58.7328373042
 21
24.488134214
 31
0.0
 11
-58.7327875498
 21
24.4848614432
 31
0.0
 11
-58.7327421644
 21
24.4810119887
 31
0.0
 11
-58.7327012531
 21
24.4765958229
 31
0.0
 11
-58.7326332543
 21
24.4661060382
 31
0.0
 11
-58.73258421
 21
24.4534933362
 31
0.0
 11
-58.7325545942
 21
24.4388786668
 31
0.0
 11
-58.7325446916
 21
24.4224029558
 31
0.0
 11
-58.7325545941
 21
24.4042251386
 31
0.0
 11
-58.7325842099
 21
24.384519944
 31
0.0
 11
-58.7327012528
 21
24.3412994718
 31
0.0
 11
-58.7328913092
 21
24.2944044496
 31
0.0
 11
-58.7331471004
 21
24.2456323968
 31
0.0
  0
LINE
  5
51D
100
AcDbEntity
  8
0
100
AcDbLine
 62
7
  6
CONTINUOUS
 10
-59.4846015333
 20
24.5
 11
-59.4846015333
 21
24.2500042308
  0
SPLINE
  5
51E
100
AcDbEntity
  8
0
100
AcDbSpline
 62
253
  6
CONTINUOUS
 70
0
 71
3
 72
26
 73
22
 74
20
 42
0.0000001
 43
0.0000001
 44
0.0000000001
 12
-0.2500094789
 22
-0.0014545126
 32
0.0
 13
0.0014544634
 23
-0.2500094792
 33
0.0
 40
0.0
 40
0.0
 40
0.0
 40
0.0
 40
0.0003335531
 40
0.0012485377
 40
0.002760312
 40
0.0048703484
 40
0.0108838626
 40
0.0192798932
 40
0.0300362305
 40
0.0431281083
 40
0.0585261522
 40
0.0761906048
 40
0.118148324
 40
0.168596747
 40
0.2270523391
 40
0.2929515808
 40
0.3656588731
 40
0.4444754185
 40
0.6173484607
 40
0.804919804
 40
1.0
 40
1.0
 40
1.0
 40
1.0
 10
-61.7360559661
 20
24.4869014213
 30
0.0
 10
-61.7360837633
 20
24.4869012596
 30
0.0
 10
-61.736097001
 20
24.4867511343
 30
0.0
 10
-61.7361374462
 20
24.4865676036
 30
0.0
 10
-61.7361624044
 20
24.4861658394
 30
0.0
 10
-61.736213455
 20
24.4853792751
 30
0.0
 10
-61.7362624268
 20
24.4839922593
 30
0.0
 10
-61.7363195788
 20
24.4819011082
 30
0.0
 10
-61.7363712404
 20
24.4792123355
 30
0.0
 10
-61.7364200765
 20
24.4759427429
 30
0.0
 10
-61.7364645425
 20
24.4720963307
 30
0.0
 10
-61.7365215781
 20
24.4658446672
 30
0.0
 10
-61.7365780208
 20
24.4566717053
 30
0.0
 10
-61.7366248565
 20
24.4440993115
 30
0.0
 10
-61.7366528392
 20
24.429531586
 30
0.0
 10
-61.7366616133
 20
24.4131088428
 30
0.0
 10
-61.736650925
 20
24.3949892583
 30
0.0
 10
-61.7366093807
 20
24.3679547315
 30
0.0
 10
-61.7365073963
 20
24.3313477735
 30
0.0
 10
-61.7363181499
 20
24.2850518965
 30
0.0
 10
-61.7361505451
 20
24.2531629515
 30
0.0
 10
-61.7360559661
 20
24.2369056521
 30
0.0
 11
-61.7360559661
 21
24.4869014213
 31
0.0
 11
-61.7360911972
 21
24.486825836
 31
0.0
 11
-61.7361255448
 21
24.4865996706
 31
0.0
 11
-61.7361589851
 21
24.4862231885
 31
0.0
 11
-61.7361914942
 21
24.4856966531
 31
0.0
 11
-61.7362536236
 21
24.4841944764
 31
0.0
 11
-61.7363117569
 21
24.4820961588
 31
0.0
 11
-61.7363657623
 21
24.4794074693
 31
0.0
 11
-61.7364155167
 21
24.4761346985
 31
0.0
 11
-61.7364609022
 21
24.472285244
 31
0.0
 11
-61.7365018135
 21
24.4678690781
 31
0.0
 11
-61.7365698122
 21
24.4573792935
 31
0.0
 11
-61.7366188565
 21
24.4447665915
 31
0.0
 11
-61.7366484723
 21
24.430151922
 31
0.0
 11
-61.7366583749
 21
24.4136762111
 31
0.0
 11
-61.7366484724
 21
24.3954983939
 31
0.0
 11
-61.7366188567
 21
24.3757931993
 31
0.0
 11
-61.7365018137
 21
24.3325727271
 31
0.0
 11
-61.7363117573
 21
24.2856777048
 31
0.0
 11
-61.7360559661
 21
24.2369056521
 31
0.0
  0
ELLIPSE
  5
51F
100
AcDbEntity
  8
0
100
AcDbEllipse
 62
7
  6
CONTINUOUS
 10
23.7
 20
22.3842776662
 30
0.0
 11
0.2
 21
0.0
 31
0.0
 40
0.0524077793
 41
-3.1415926536
 42
-1.5707963268
  0
ELLIPSE
  5
520
100
AcDbEntity
  8
0
100
AcDbEllipse
 62
7
  6
CONTINUOUS
 10
21.3
 20
22.3842776662
 30
0.0
 11
0.2
 21
0.0
 31
0.0
 40
0.0524077793
 41
-1.5707963268
 42
0.0
  0
ELLIPSE
  5
521
100
AcDbEntity
  8
0
100
AcDbEllipse
 62
7
  6
CONTINUOUS
 10
23.7
 20
-22.3842776662
 30
0.0
 11
0.2
 21
0.0
 31
0.0
 40
0.0524077793
 41
1.5707963268
 42
3.1415926536
  0
ELLIPSE
  5
522
100
AcDbEntity
  8
0
100
AcDbEllipse
 62
7
  6
CONTINUOUS
 10
21.3
 20
-22.3842776662
 30
0.0
 11
0.2
 21
-0.0
 31
0.0
 40
0.0524077793
 41
0.0
 42
1.5707963268
  0
ELLIPSE
  5
523
100
AcDbEntity
  8
0
100
AcDbEllipse
 62
7
  6
CONTINUOUS
 10
32.3927234819
 20
22.3344902759
 30
0.0
 11
0.25
 21
0.0
 31
0.0
 40
0.0524077793
 41
-1.5707963268
 42
-0.0058177642
  0
ELLIPSE
  5
524
100
AcDbEntity
  8
0
100
AcDbEllipse
 62
7
  6
CONTINUOUS
 10
30.0072765181
 20
22.3344902759
 30
0.0
 11
0.25
 21
0.0
 31
0.0
 40
0.0524077793
 41
-3.1357748894
 42
-1.5707963268
  0
ELLIPSE
  5
525
100
AcDbEntity
  8
0
100
AcDbEllipse
 62
7
  6
CONTINUOUS
 10
12.6072765181
 20
22.3344902759
 30
0.0
 11
0.25
 21
-0.0
 31
0.0
 40
0.0524077793
 41
-3.1357748894
 42
-1.5707963268
  0
ELLIPSE
  5
526
100
AcDbEntity
  8
0
100
AcDbEllipse
 62
7
  6
CONTINUOUS
 10
14.9927234819
 20
22.3344902759
 30
0.0
 11
0.25
 21
0.0
 31
0.0
 40
0.0524077793
 41
-1.5707963268
 42
-0.0058177642
  0
ELLIPSE
  5
527
100
AcDbEntity
  8
0
100
AcDbEllipse
 62
7
  6
CONTINUOUS
 10
32.3927234819
 20
-22.3344902759
 30
0.0
 11
0.25
 21
0.0
 31
0.0
 40
0.0524077793
 41
0.0058177642
 42
1.5707963268
  0
ELLIPSE
  5
528
100
AcDbEntity
  8
0
100
AcDbEllipse
 62
7
  6
CONTINUOUS
 10
30.0072765181
 20
-22.3344902759
 30
0.0
 11
0.25
 21
0.0
 31
0.0
 40
0.0524077793
 41
1.5707963268
 42
3.1357748894
  0
ELLIPSE
  5
529
100
AcDbEntity
  8
0
100
AcDbEllipse
 62
7
  6
CONTINUOUS
 10
14.9927234819
 20
-22.3344902759
 30
0.0
 11
0.25
 21
0.0
 31
0.0
 40
0.0524077793
 41
0.0058177642
 42
1.5707963268
  0
ELLIPSE
  5
52A
100
AcDbEntity
  8
0
100
AcDbEllipse
 62
7
  6
CONTINUOUS
 10
12.6072765181
 20
-22.3344902759
 30
0.0
 11
0.25
 21
0.0
 31
0.0
 40
0.0524077793
 41
1.5707963268
 42
3.1357748894
  0
ELLIPSE
  5
52B
100
AcDbEntity
  8
0
100
AcDbEllipse
 62
7
  6
CONTINUOUS
 10
33.1228684853
 20
-21.8207021581
 30
0.0
 11
-0.1582391023
 21
0.4751033573
 31
0.0
 40
0.9984778551
 41
-3.4626430032
 42
-1.8927600658
  0
ELLIPSE
  5
52C
100
AcDbEntity
  8
0
100
AcDbEllipse
 62
7
  6
CONTINUOUS
 10
11.8771315147
 20
-21.8207021581
 30
0.0
 11
-0.1582391023
 21
-0.4751033573
 31
0.0
 40
0.9984778551
 41
-0.6578562559
 42
0.3210503496
  0
ELLIPSE
  5
52D
100
AcDbEntity
  8
0
100
AcDbEllipse
 62
7
  6
CONTINUOUS
 10
11.8771315147
 20
21.8207021581
 30
0.0
 11
-0.1582391023
 21
0.4751033573
 31
0.0
 40
0.9984778551
 41
-0.3210503496
 42
0.6578562559
  0
ELLIPSE
  5
52E
100
AcDbEntity
  8
0
100
AcDbEllipse
 62
7
  6
CONTINUOUS
 10
33.1228684853
 20
21.8207021581
 30
0.0
 11
0.1582391023
 21
0.4751033573
 31
0.0
 40
0.9984778551
 41
-1.2488325878
 42
0.3210503496
  0
ELLIPSE
  5
52F
100
AcDbEntity
  8
0
100
AcDbEllipse
 62
7
  6
CONTINUOUS
 10
-21.3
 20
22.3842776662
 30
0.0
 11
0.2
 21
0.0
 31
0.0
 40
0.0524077793
 41
-3.1415926536
 42
-1.5707963268
  0
ELLIPSE
  5
530
100
AcDbEntity
  8
0
100
AcDbEllipse
 62
7
  6
CONTINUOUS
 10
-23.7
 20
22.3842776662
 30
0.0
 11
0.2
 21
-0.0
 31
0.0
 40
0.0524077793
 41
-1.5707963268
 42
0.0
  0
ELLIPSE
  5
531
100
AcDbEntity
  8
0
100
AcDbEllipse
 62
7
  6
CONTINUOUS
 10
-21.3
 20
-22.3842776662
 30
0.0
 11
0.2
 21
0.0
 31
0.0
 40
0.0524077793
 41
1.5707963268
 42
3.1415926536
  0
ELLIPSE
  5
532
100
AcDbEntity
  8
0
100
AcDbEllipse
 62
7
  6
CONTINUOUS
 10
-23.7
 20
-22.3842776662
 30
0.0
 11
0.2
 21
-0.0
 31
0.0
 40
0.0524077793
 41
0.0
 42
1.5707963268
  0
ELLIPSE
  5
533
100
AcDbEntity
  8
0
100
AcDbEllipse
 62
7
  6
CONTINUOUS
 10
-12.6072765181
 20
22.3344902759
 30
0.0
 11
0.25
 21
0.0
 31
0.0
 40
0.0524077793
 41
-1.5707963268
 42
-0.0058177642
  0
ELLIPSE
  5
534
100
AcDbEntity
  8
0
100
AcDbEllipse
 62
7
  6
CONTINUOUS
 10
-14.9927234819
 20
22.3344902759
 30
0.0
 11
0.25
 21
-0.0
 31
0.0
 40
0.0524077793
 41
-3.1357748894
 42
-1.5707963268
  0
ELLIPSE
  5
535
100
AcDbEntity
  8
0
100
AcDbEllipse
 62
7
  6
CONTINUOUS
 10
-32.3927234819
 20
22.3344902759
 30
0.0
 11
0.25
 21
0.0
 31
0.0
 40
0.0524077793
 41
-3.1357748894
 42
-1.5707963268
  0
ELLIPSE
  5
536
100
AcDbEntity
  8
0
100
AcDbEllipse
 62
7
  6
CONTINUOUS
 10
-30.0072765181
 20
22.3344902759
 30
0.0
 11
0.25
 21
0.0
 31
0.0
 40
0.0524077793
 41
-1.5707963268
 42
-0.0058177642
  0
ELLIPSE
  5
537
100
AcDbEntity
  8
0
100
AcDbEllipse
 62
7
  6
CONTINUOUS
 10
-12.6072765181
 20
-22.3344902759
 30
0.0
 11
0.25
 21
-0.0
 31
0.0
 40
0.0524077793
 41
0.0058177642
 42
1.5707963268
  0
ELLIPSE
  5
538
100
AcDbEntity
  8
0
100
AcDbEllipse
 62
7
  6
CONTINUOUS
 10
-14.9927234819
 20
-22.3344902759
 30
0.0
 11
0.25
 21
0.0
 31
0.0
 40
0.0524077793
 41
1.5707963268
 42
3.1357748894
  0
ELLIPSE
  5
539
100
AcDbEntity
  8
0
100
AcDbEllipse
 62
7
  6
CONTINUOUS
 10
-30.0072765181
 20
-22.3344902759
 30
0.0
 11
0.25
 21
0.0
 31
0.0
 40
0.0524077793
 41
0.0058177642
 42
1.5707963268
  0
ELLIPSE
  5
53A
100
AcDbEntity
  8
0
100
AcDbEllipse
 62
7
  6
CONTINUOUS
 10
-32.3927234819
 20
-22.3344902759
 30
0.0
 11
0.25
 21
0.0
 31
0.0
 40
0.0524077793
 41
1.5707963268
 42
3.1357748894
  0
ELLIPSE
  5
53B
100
AcDbEntity
  8
0
100
AcDbEllipse
 62
7
  6
CONTINUOUS
 10
-11.8771315147
 20
-21.8207021581
 30
0.0
 11
-0.1582391023
 21
0.4751033573
 31
0.0
 40
0.9984778551
 41
-3.4626430032
 42
-2.4837363977
  0
ELLIPSE
  5
53C
100
AcDbEntity
  8
0
100
AcDbEllipse
 62
7
  6
CONTINUOUS
 10
-33.1228684853
 20
-21.8207021581
 30
0.0
 11
-0.1582391023
 21
-0.4751033573
 31
0.0
 40
0.9984778551
 41
-1.2488325878
 42
0.3210503496
  0
ELLIPSE
  5
53D
100
AcDbEntity
  8
0
100
AcDbEllipse
 62
7
  6
CONTINUOUS
 10
-33.1228684853
 20
21.8207021581
 30
0.0
 11
-0.1582391023
 21
0.4751033573
 31
0.0
 40
0.9984778551
 41
-0.3210503496
 42
1.2488325878
  0
ELLIPSE
  5
53E
100
AcDbEntity
  8
0
100
AcDbEllipse
 62
7
  6
CONTINUOUS
 10
-11.8771315147
 20
21.8207021581
 30
0.0
 11
0.1582391023
 21
0.4751033573
 31
0.0
 40
0.9984778551
 41
-0.6578562559
 42
0.3210503496
  0
ELLIPSE
  5
53F
100
AcDbEntity
  8
RACCORDO
100
AcDbEllipse
 62
7
  6
CONTINUOUS
 10
-32.9998286038
 20
-21.5998286038
 30
0.0
 11
0.35379574
 21
0.35379574
 31
0.0
 40
0.999315002
 41
-3.9266482007
 42
-2.3565371065
  0
ELLIPSE
  5
540
100
AcDbEntity
  8
RACCORDO
100
AcDbEllipse
 62
7
  6
CONTINUOUS
 10
32.9998286038
 20
-21.5998286038
 30
0.0
 11
0.35379574
 21
-0.35379574
 31
0.0
 40
0.999315002
 41
-0.7850555471
 42
0.7850555471
  0
ELLIPSE
  5
541
100
AcDbEntity
  8
RACCORDO
100
AcDbEllipse
 62
7
  6
CONTINUOUS
 10
32.9998286038
 20
21.5998286038
 30
0.0
 11
0.35379574
 21
0.35379574
 31
0.0
 40
0.999315002
 41
-0.7850555471
 42
0.7850555471
  0
ELLIPSE
  5
542
100
AcDbEntity
  8
RACCORDO
100
AcDbEllipse
 62
7
  6
CONTINUOUS
 10
-32.9998286038
 20
21.5998286038
 30
0.0
 11
-0.35379574
 21
0.35379574
 31
0.0
 40
0.999315002
 41
-0.7850555471
 42
0.7850555471
  0
ELLIPSE
  5
543
100
AcDbEntity
  8
0
100
AcDbEllipse
 62
7
  6
CONTINUOUS
 10
17.8638281428
 20
-23.15
 30
0.0
 11
85.9426996401
 21
0.0
 31
0.0
 40
0.0058178298
 41
-2.6791240519
 42
-2.5607560384
  0
ELLIPSE
  5
544
100
AcDbEntity
  8
0
100
AcDbEllipse
 62
7
  6
CONTINUOUS
 10
17.8638281428
 20
-23.15
 30
0.0
 11
85.9426996401
 21
-0.0
 31
0.0
 40
0.0058178298
 41
2.5607560384
 42
2.6905658418
  0
ELLIPSE
  5
545
100
AcDbEntity
  8
0
100
AcDbEllipse
 62
7
  6
CONTINUOUS
 10
-47.9846015333
 20
22.0833543458
 30
0.0
 11
0.0800911215
 21
0.4935437288
 31
0.0
 40
1.0
 41
-2.9632640839
 42
-2.0647162451
  0
ELLIPSE
  5
546
100
AcDbEntity
  8
0
100
AcDbEllipse
 62
7
  6
CONTINUOUS
 10
17.8638281428
 20
23.15
 30
0.0
 11
85.9426996401
 21
0.0
 31
0.0
 40
0.0058178298
 41
-2.6905658418
 42
-2.5607560384
  0
ELLIPSE
  5
547
100
AcDbEntity
  8
0
100
AcDbEllipse
 62
7
  6
CONTINUOUS
 10
17.8638281428
 20
23.15
 30
0.0
 11
85.9426996401
 21
0.0
 31
0.0
 40
0.0058178298
 41
2.5607560384
 42
2.6791240518
  0
ELLIPSE
  5
548
100
AcDbEntity
  8
0
100
AcDbEllipse
 62
7
  6
CONTINUOUS
 10
-47.9846015333
 20
-22.0833543458
 30
0.0
 11
0.48835942
 21
-0.1072617217
 31
0.0
 40
1.0
 41
0.8709990832
 42
1.7695469221
  0
ENDSEC
  0
SECTION
  2
OBJECTS
  0
DICTIONARY
  5
C
100
AcDbDictionary
280
0
281
1
  3
ACAD_GROUP
350
D
  3
ACAD_MLINESTYLE
350
17
  3
ACAD_LAYOUT
350
1A
  3
ACAD_PLOTSETTINGS
350
19
  3
ACAD_PLOTSTYLENAME
350
E
  0
DICTIONARY
  5
D
102
{ACAD_REACTORS
330
C
102
}
100
AcDbDictionary
280
0
281
1
  0
ACDBDICTIONARYWDFLT
  5
E
102
{ACAD_REACTORS
330
C
102
}
100
AcDbDictionary
281
1
  3
Normal
350
F
100
AcDbDictionaryWithDefault
340
F
  0
DICTIONARY
  5
17
102
{ACAD_REACTORS
330
C
102
}
100
AcDbDictionary
280
0
281
1
  3
Standard
350
18
  0
DICTIONARY
  5
19
102
{ACAD_REACTORS
330
C
102
}
100
AcDbDictionary
281
1
  0
DICTIONARY
  5
1A
102
{ACAD_REACTORS
330
C
102
}
100
AcDbDictionary
281
1
  3
Model
350
549
  3
Layout1
350
54A
  0
ACDBPLACEHOLDER
  5
F
102
{ACAD_REACTORS
330
E
102
}
  0
MLINESTYLE
  5
18
102
{ACAD_REACTORS
330
17
102
}
100
AcDbMlineStyle
  2
STANDARD
 70
0
  3

 62
256
 51
90.0
 52
90.0
 71
2
 49
0.5
 62
256
  6
BYLAYER
 49
-0.5
 62
256
  6
BYLAYER
  0
LAYOUT
  5
549
102
{ACAD_REACTORS
330
1A
102
}
100
AcDbPlotSettings
  1

  2
none_device
  4
ISO_A4_(297.00_x_210.00_MM)
  6

 40
0.0
 41
0.0
 42
0.0
 43
0.0
 44
297.0
 45
210.0
 46
0.0
 47
0.0
 48
0.0
 49
0.0
140
0.0
141
0.0
142
1.0
143
1.0
 70
1024
 72
1
 73
0
 74
0
  7

 75
0
147
1.0
148
0.0
149
0.0
100
AcDbLayout
  1
Model
 70
0
 71
0
 10
0.0
 20
0.0
 11
297.0
 21
210.0
 12
0.0
 22
0.0
 32
0.0
 14
0.0
 24
0.0
 34
0.0
 15
0.0
 25
0.0
 35
0.0
146
0.0
 13
0.0
 23
0.0
 33
0.0
 16
1.0
 26
0.0
 36
0.0
 17
0.0
 27
1.0
 37
0.0
 76
0
330
219
345
0
346
0
  0
LAYOUT
  5
54A
102
{ACAD_REACTORS
330
1A
102
}
100
AcDbPlotSettings
  1

  2
none_device
  4
ISO_A4_(297.00_x_210.00_MM)
  6

 40
0.0
 41
0.0
 42
0.0
 43
0.0
 44
297.0
 45
210.0
 46
0.0
 47
0.0
 48
0.0
 49
0.0
140
0.0
141
0.0
142
1.0
143
1.0
 70
0
 72
1
 73
0
 74
0
  7

 75
0
147
1.0
148
0.0
149
0.0
100
AcDbLayout
  1
Layout1
 70
0
 71
1
 10
0.0
 20
0.0
 11
297.0
 21
210.0
 12
0.0
 22
0.0
 32
0.0
 14
0.0
 24
0.0
 34
0.0
 15
0.0
 25
0.0
 35
0.0
146
0.0
 13
0.0
 23
0.0
 33
0.0
 16
1.0
 26
0.0
 36
0.0
 17
0.0
 27
1.0
 37
0.0
 76
0
330
21A
345
0
346
0
  0
ENDSEC
  0
EOF
