  0
SECTION
  2
HEADER
  9
$ACADVER
  1
AC1015
  9
$DWGCODEPAGE
  3
ANSI_1252
  9
$EXTMAX
 10
297.0
 20
210.0
 30
0.0
  9
$EXTMIN
 10
0.0
 20
0.0
 30
0.0
  9
$LIMMIN
 10
0.0
 20
0.0
  9
$LIMMAX
 10
297.0
 20
210.0
  9
$VIEWCTR
 10
148.5
 20
105.0
  9
$VIEWSIZE
 40
210.0
  9
$CLAYER
  8
0
  9
$LTSCALE
 40
16.335
  9
$CELTYPE
  6
BYLAYER
  9
$DIMSCALE
 40
1.0
  9
$DIMASZ
 40
3.0
  9
$DIMEXO
 40
1.85625
  9
$DIMDLI
 40
11.286
  9
$DIMEXE
 40
5.346
  9
$DIMCEN
 40
2.673
  9
$DIMLFAC
 40
1.0
  9
$DIMBLK
  1
_FILLED
  9
$DIMTXT
 40
3.0
  9
$DIMTOL
 70
1
  9
$DIMLIM
 70
0
  9
$DIMTFAC
 40
1.0
  9
$DIMTP
 40
0.01
  9
$DIMTM
 40
0.01
  9
$PDMODE
 70
3
  9
$PDSIZE
 40
3.0
  9
$HANDSEED
  5
2A7
  9
$TILEMODE
 70
1
  9
$MEASUREMENT
 70
1
  9
$INSUNITS
 70
4
  0
ENDSEC
  0
SECTION
  2
CLASSES
  0
CLASS
  1
ACDBDICTIONARYWDFLT
  2
AcDbDictionaryWithDefault
  3
AutoCAD 2000
 90
0
280
0
281
0
  0
CLASS
  1
ACDBPLACEHOLDER
  2
AcDbPlaceHolder
  3
AutoCAD 2000
 90
0
280
0
281
0
  0
CLASS
  1
LAYOUT
  2
AcDbLayout
  3
AutoCAD 2000
 90
0
280
0
281
0
  0
ENDSEC
  0
SECTION
  2
TABLES
  0
TABLE
  2
VPORT
  5
8
100
AcDbSymbolTable
 70
2
  0
VPORT
  5
1F4
100
AcDbSymbolTableRecord
100
AcDbViewportTableRecord
  2
*ACTIVE
 70
0
 10
0.0
 20
0.0
 11
1.0
 21
1.0
 12
148.5
 22
105.0
 13
0.0
 23
0.0
 14
1.0
 24
1.0
 15
0.0
 25
0.0
 16
0.0
 26
0.0
 36
1.0
 17
0.0
 27
0.0
 37
0.0
 40
210.0
 41
1.4142857143
 42
50.0
 43
0.0
 44
0.0
 50
0.0
 51
0.0
 71
0
 72
100
 73
1
 74
1
 75
0
 76
0
 77
0
 78
0
  0
ENDTAB
  0
TABLE
  2
LTYPE
  5
5
100
AcDbSymbolTable
 70
6
  0
LTYPE
  5
14
100
AcDbSymbolTableRecord
100
AcDbLinetypeTableRecord
  2
BYBLOCK
 70
0
  3

 72
65
 73
0
 40
0.0
  0
LTYPE
  5
15
100
AcDbSymbolTableRecord
100
AcDbLinetypeTableRecord
  2
BYLAYER
 70
0
  3

 72
65
 73
0
 40
0.0
  0
LTYPE
  5
16
100
AcDbSymbolTableRecord
100
AcDbLinetypeTableRecord
  2
CONTINUOUS
 70
64
  3
Solid line
 72
65
 73
0
 40
0.0
  0
LTYPE
  5
1F5
100
AcDbSymbolTableRecord
100
AcDbLinetypeTableRecord
  2
CENTER
 70
64
  3
____ _ ____ _ ____ _ ____ _ ____ _ ____ _ ____
 72
65
 73
4
 40
0.6
 49
0.375
 74
0
 49
-0.075
 74
0
 49
0.075
 74
0
 49
-0.075
 74
0
  0
LTYPE
  5
1F6
100
AcDbSymbolTableRecord
100
AcDbLinetypeTableRecord
  2
HIDDEN
 70
64
  3
- - - - - - - - - - - - - - - - - - - -
 72
65
 73
2
 40
0.2
 49
0.1
 74
0
 49
-0.1
 74
0
  0
LTYPE
  5
1F7
100
AcDbSymbolTableRecord
100
AcDbLinetypeTableRecord
  2
PHANTOM
 70
64
  3
_____ _ _ _____ _ _ _____ _ _ _____
 72
65
 73
6
 40
0.8
 49
0.45
 74
0
 49
-0.05
 74
0
 49
0.1
 74
0
 49
-0.05
 74
0
 49
0.1
 74
0
 49
-0.05
 74
0
  0
LTYPE
  5
1F8
100
AcDbSymbolTableRecord
100
AcDbLinetypeTableRecord
  2
DOT
 70
64
  3
. . . . . . . . . . . . . . . . . . . .
 72
65
 73
2
 40
0.2
 49
0.1
 74
0
 49
-0.1
 74
0
  0
LTYPE
  5
1F9
100
AcDbSymbolTableRecord
100
AcDbLinetypeTableRecord
  2
DASHED
 70
64
  3
- - - - - - - - - - - - - - - - - - - -
 72
65
 73
2
 40
0.2
 49
0.1
 74
0
 49
-0.1
 74
0
  0
ENDTAB
  0
TABLE
  2
LAYER
  5
2
100
AcDbSymbolTable
 70
36
  0
LAYER
  5
10
100
AcDbSymbolTableRecord
100
AcDbLayerTableRecord
  2
0
 70
0
 62
7
  6
CONTINUOUS
370
-3
390
F
  0
LAYER
  5
1FA
100
AcDbSymbolTableRecord
100
AcDbLayerTableRecord
  2
DEFAULT_1
 70
0
 62
7
  6
CENTER
370
-3
390
F
  0
LAYER
  5
1FB
100
AcDbSymbolTableRecord
100
AcDbLayerTableRecord
  2
DEFAULT_2
 70
0
 62
7
  6
HIDDEN
370
-3
390
F
  0
LAYER
  5
1FC
100
AcDbSymbolTableRecord
100
AcDbLayerTableRecord
  2
DEFAULT_3
 70
0
 62
7
  6
PHANTOM
370
-3
390
F
  0
LAYER
  5
1FD
100
AcDbSymbolTableRecord
100
AcDbLayerTableRecord
  2
ASSI
 70
0
 62
7
  6
CONTINUOUS
370
-3
390
F
  0
LAYER
  5
1FE
100
AcDbSymbolTableRecord
100
AcDbLayerTableRecord
  2
COORDINATE
 70
0
 62
7
  6
CONTINUOUS
370
-3
390
F
  0
LAYER
  5
1FF
100
AcDbSymbolTableRecord
100
AcDbLayerTableRecord
  2
COPY_PUBLISH
 70
0
 62
7
  6
CONTINUOUS
370
-3
390
F
  0
LAYER
  5
200
100
AcDbSymbolTableRecord
100
AcDbLayerTableRecord
  2
COSMETIC
 70
0
 62
7
  6
CONTINUOUS
370
-3
390
F
  0
LAYER
  5
201
100
AcDbSymbolTableRecord
100
AcDbLayerTableRecord
  2
COSMETICI
 70
0
 62
7
  6
CONTINUOUS
370
-3
390
F
  0
LAYER
  5
202
100
AcDbSymbolTableRecord
100
AcDbLayerTableRecord
  2
CURVE
 70
0
 62
7
  6
CONTINUOUS
370
-3
390
F
  0
LAYER
  5
203
100
AcDbSymbolTableRecord
100
AcDbLayerTableRecord
  2
DRAFT
 70
0
 62
7
  6
CONTINUOUS
370
-3
390
F
  0
LAYER
  5
204
100
AcDbSymbolTableRecord
100
AcDbLayerTableRecord
  2
IMPORT_IGES
 70
0
 62
7
  6
CONTINUOUS
370
-3
390
F
  0
LAYER
  5
205
100
AcDbSymbolTableRecord
100
AcDbLayerTableRecord
  2
INTFCLR_11
 70
0
 62
7
  6
CONTINUOUS
370
-3
390
F
  0
LAYER
  5
206
100
AcDbSymbolTableRecord
100
AcDbLayerTableRecord
  2
INTF_1
 70
0
 62
7
  6
CONTINUOUS
370
-3
390
F
  0
LAYER
  5
207
100
AcDbSymbolTableRecord
100
AcDbLayerTableRecord
  2
INTF_3
 70
0
 62
7
  6
CONTINUOUS
370
-3
390
F
  0
LAYER
  5
208
100
AcDbSymbolTableRecord
100
AcDbLayerTableRecord
  2
INTF_6
 70
0
 62
7
  6
CONTINUOUS
370
-3
390
F
  0
LAYER
  5
209
100
AcDbSymbolTableRecord
100
AcDbLayerTableRecord
  2
NOTE
 70
0
 62
7
  6
CONTINUOUS
370
-3
390
F
  0
LAYER
  5
20A
100
AcDbSymbolTableRecord
100
AcDbLayerTableRecord
  2
PIANI
 70
0
 62
7
  6
CONTINUOUS
370
-3
390
F
  0
LAYER
  5
20B
100
AcDbSymbolTableRecord
100
AcDbLayerTableRecord
  2
PUNTI
 70
0
 62
7
  6
CONTINUOUS
370
-3
390
F
  0
LAYER
  5
20C
100
AcDbSymbolTableRecord
100
AcDbLayerTableRecord
  2
RACCORDO
 70
0
 62
7
  6
CONTINUOUS
370
-3
390
F
  0
LAYER
  5
20D
100
AcDbSymbolTableRecord
100
AcDbLayerTableRecord
  2
SIMBOLI
 70
0
 62
7
  6
CONTINUOUS
370
-3
390
F
  0
LAYER
  5
20E
100
AcDbSymbolTableRecord
100
AcDbLayerTableRecord
  2
SMUSSO
 70
0
 62
7
  6
CONTINUOUS
370
-3
390
F
  0
LAYER
  5
20F
100
AcDbSymbolTableRecord
100
AcDbLayerTableRecord
  2
SNAPLINE
 70
0
 62
7
  6
CONTINUOUS
370
-3
390
F
  0
LAYER
  5
210
100
AcDbSymbolTableRecord
100
AcDbLayerTableRecord
  2
SUPERFICI
 70
0
 62
7
  6
CONTINUOUS
370
-3
390
F
  0
LAYER
  5
211
100
AcDbSymbolTableRecord
100
AcDbLayerTableRecord
  2
TRASH
 70
0
 62
7
  6
CONTINUOUS
370
-3
390
F
  0
LAYER
  5
212
100
AcDbSymbolTableRecord
100
AcDbLayerTableRecord
  2
XSEC_DATUMS
 70
0
 62
7
  6
CONTINUOUS
370
-3
390
F
  0
LAYER
  5
213
100
AcDbSymbolTableRecord
100
AcDbLayerTableRecord
  2
___SHELL
 70
0
 62
7
  6
CONTINUOUS
370
-3
390
F
  0
ENDTAB
  0
TABLE
  2
STYLE
  5
3
100
AcDbSymbolTable
 70
1
  0
STYLE
  5
11
100
AcDbSymbolTableRecord
100
AcDbTextStyleTableRecord
  2
STANDARD
 70
0
 40
0.0
 41
0.8
 50
0.0
 71
0
 42
0.2
  3
txt
  4

  0
STYLE
  5
214
100
AcDbSymbolTableRecord
100
AcDbTextStyleTableRecord
  2
TEXTSTYLE_1
 70
0
 40
0.0
 41
0.8
 50
0.0
 71
0
 42
0.2
  3
gdt
  4

  0
ENDTAB
  0
TABLE
  2
VIEW
  5
6
100
AcDbSymbolTable
 70
0
  0
ENDTAB
  0
TABLE
  2
UCS
  5
7
100
AcDbSymbolTable
 70
0
  0
ENDTAB
  0
TABLE
  2
APPID
  5
9
100
AcDbSymbolTable
 70
1
  0
APPID
  5
215
100
AcDbSymbolTableRecord
100
AcDbRegAppTableRecord
  2
ACAD
 70
0
  0
ENDTAB
  0
TABLE
  2
BLOCK_RECORD
  5
1
100
AcDbSymbolTable
 70
0
  0
BLOCK_RECORD
  5
216
100
AcDbSymbolTableRecord
100
AcDbBlockTableRecord
  2
*Model_Space
  0
BLOCK_RECORD
  5
217
100
AcDbSymbolTableRecord
100
AcDbBlockTableRecord
  2
*Paper_Space
  0
BLOCK_RECORD
  5
218
100
AcDbSymbolTableRecord
100
AcDbBlockTableRecord
  2
_FILLED
  0
BLOCK_RECORD
  5
219
100
AcDbSymbolTableRecord
100
AcDbBlockTableRecord
  2
*D0
  0
BLOCK_RECORD
  5
21A
100
AcDbSymbolTableRecord
100
AcDbBlockTableRecord
  2
*D1
  0
BLOCK_RECORD
  5
21B
100
AcDbSymbolTableRecord
100
AcDbBlockTableRecord
  2
*D2
  0
ENDTAB
  0
TABLE
  2
DIMSTYLE
  5
A
100
AcDbSymbolTable
 70
1
100
AcDbDimStyleTable
 71
0
  0
DIMSTYLE
105
21C
100
AcDbSymbolTableRecord
100
AcDbDimStyleTableRecord
  2
STANDARD
 70
0
  3

  4

 40
1.0
 41
3.0
 42
0.0625
 43
0.38
 44
0.18
 45
0.0
 46
0.0
 47
0.01
 48
0.01
140
3.0
141
0.09
142
0.0
143
25.4
144
1.0
145
0.0
146
1.0
147
0.09
 71
1.0
 72
0.0
 73
0
 74
0
 75
0
 76
0
 77
1
 78
8
170
0
171
2
172
0
173
0
174
0
175
0
176
0
177
0
178
0
270
2
271
2
272
2
273
2
274
2
275
0
280
0
281
0
282
0
283
1
284
8
285
0
286
0
287
3
288
0
340
11
341
218
342
218
343
218
344
218
  0
DIMSTYLE
105
21D
100
AcDbSymbolTableRecord
100
AcDbDimStyleTableRecord
  2
DIMSTYLE_1
 70
0
  3

  4

 40
1.0
 41
3.0
 42
0.0625
 43
0.38
 44
0.18
 45
0.0
 46
0.0
 47
0.0
 48
0.0
140
3.0
141
0.09
142
0.0
143
25.4
144
1.0
145
0.0
146
1.0
147
0.09
 71
0.0
 72
0.0
 73
0
 74
0
 75
0
 76
0
 77
1
 78
8
170
0
171
2
172
0
173
0
174
0
175
0
176
0
177
0
178
0
270
2
271
2
272
2
273
2
274
2
275
0
280
0
281
0
282
0
283
1
284
8
285
0
286
0
287
3
288
0
340
11
341
218
342
218
343
218
344
218
  0
ENDTAB
  0
ENDSEC
  0
SECTION
  2
BLOCKS
  0
BLOCK
  5
20
100
AcDbEntity
  8
0
100
AcDbBlockBegin
  2
*Model_Space
 70
0
 10
0.0
 20
0.0
 30
0.0
  3
*Model_Space
  1

  0
ENDBLK
  5
21
100
AcDbEntity
  8
0
100
AcDbBlockEnd
  0
BLOCK
  5
1C
100
AcDbEntity
  8
0
100
AcDbBlockBegin
  2
*Paper_Space
 70
0
 10
0.0
 20
0.0
 30
0.0
  3
*Paper_Space
  1

  0
ENDBLK
  5
1D
100
AcDbEntity
  8
0
100
AcDbBlockEnd
  0
BLOCK
  5
21E
100
AcDbEntity
  8
0
100
AcDbBlockBegin
  2
_FILLED
 70
64
 10
0.0
 20
0.0
  3
_FILLED
  1

  0
SOLID
  5
21F
100
AcDbEntity
  8
0
  6
BYBLOCK
 62
0
100
AcDbTrace
 10
0.0
 20
0.0
 11
-1.0
 21
0.3166666667
 12
-1.0
 22
-0.3166666667
 13
-1.0
 23
-0.3166666667
  0
ENDBLK
  5
220
100
AcDbEntity
  8
0
  6
BYBLOCK
 62
0
100
AcDbBlockEnd
  0
BLOCK
  5
221
100
AcDbEntity
  8
0
100
AcDbBlockBegin
 62
7
  6
CONTINUOUS
  2
*D0
 70
65
 10
0.0
 20
0.0
  3
*D0
  1

  0
LINE
  5
222
100
AcDbEntity
  8
0
100
AcDbLine
 62
7
  6
CONTINUOUS
 10
-23.8006235751
 20
22.1001713375
 11
-23.8006235751
 21
31.6
  0
LINE
  5
223
100
AcDbEntity
  8
0
100
AcDbLine
 62
7
  6
CONTINUOUS
 10
-30.500640841
 20
0.500000219
 11
-30.500640841
 21
31.6
  0
LINE
  5
224
100
AcDbEntity
  8
0
100
AcDbLine
 62
7
  6
CONTINUOUS
 10
-23.8006235751
 20
30.1
 11
-19.8006235751
 21
30.1
  0
LINE
  5
225
100
AcDbEntity
  8
0
100
AcDbLine
 62
7
  6
CONTINUOUS
 10
-19.8006235751
 20
30.1
 11
-27.150632208
 21
30.1
  0
LINE
  5
226
100
AcDbEntity
  8
0
100
AcDbLine
 62
7
  6
CONTINUOUS
 10
-30.500640841
 20
30.1
 11
-34.500640841
 21
30.1
  0
LINE
  5
227
100
AcDbEntity
  8
0
100
AcDbLine
 62
7
  6
CONTINUOUS
 10
-34.500640841
 20
30.1
 11
-27.150632208
 21
30.1
  0
INSERT
  5
228
100
AcDbEntity
  8
0
100
AcDbBlockReference
 62
7
  6
CONTINUOUS
  2
_FILLED
 10
-23.8006235751
 20
30.1
 41
3.0
 42
3.0
 43
3.0
 50
180.0
  0
INSERT
  5
229
100
AcDbEntity
  8
0
100
AcDbBlockReference
 62
7
  6
CONTINUOUS
  2
_FILLED
 10
-30.500640841
 20
30.1
 41
3.0
 42
3.0
 43
3.0
  0
ENDBLK
  5
22A
100
AcDbEntity
  8
0
  6
BYBLOCK
 62
0
100
AcDbBlockEnd
  0
BLOCK
  5
22B
100
AcDbEntity
  8
0
100
AcDbBlockBegin
 62
7
  6
CONTINUOUS
  2
*D1
 70
65
 10
0.0
 20
0.0
  3
*D1
  1

  0
LINE
  5
22C
100
AcDbEntity
  8
0
100
AcDbLine
 62
7
  6
CONTINUOUS
 10
11.0
 20
22.1001713375
 11
11.0
 21
31.6
  0
LINE
  5
22D
100
AcDbEntity
  8
0
100
AcDbLine
 62
7
  6
CONTINUOUS
 10
-11.0
 20
22.1001713375
 11
-11.0
 21
31.6
  0
LINE
  5
22E
100
AcDbEntity
  8
0
100
AcDbLine
 62
7
  6
CONTINUOUS
 10
11.0
 20
30.1
 11
-0.0
 21
30.1
  0
LINE
  5
22F
100
AcDbEntity
  8
0
100
AcDbLine
 62
7
  6
CONTINUOUS
 10
-11.0
 20
30.1
 11
-0.0
 21
30.1
  0
INSERT
  5
230
100
AcDbEntity
  8
0
100
AcDbBlockReference
 62
7
  6
CONTINUOUS
  2
_FILLED
 10
11.0
 20
30.1
 41
3.0
 42
3.0
 43
3.0
  0
INSERT
  5
231
100
AcDbEntity
  8
0
100
AcDbBlockReference
 62
7
  6
CONTINUOUS
  2
_FILLED
 10
-11.0
 20
30.1
 41
3.0
 42
3.0
 43
3.0
 50
180.0
  0
ENDBLK
  5
232
100
AcDbEntity
  8
0
  6
BYBLOCK
 62
0
100
AcDbBlockEnd
  0
BLOCK
  5
233
100
AcDbEntity
  8
0
100
AcDbBlockBegin
 62
7
  6
CONTINUOUS
  2
*D2
 70
65
 10
0.0
 20
0.0
  3
*D2
  1

  0
LINE
  5
234
100
AcDbEntity
  8
0
100
AcDbLine
 62
7
  6
CONTINUOUS
 10
11.0001713375
 20
22.1
 11
20.5
 21
22.1
  0
LINE
  5
235
100
AcDbEntity
  8
0
100
AcDbLine
 62
7
  6
CONTINUOUS
 10
11.0001713375
 20
-22.1
 11
20.5
 21
-22.1
  0
LINE
  5
236
100
AcDbEntity
  8
0
100
AcDbLine
 62
7
  6
CONTINUOUS
 10
19.0
 20
22.1
 11
19.0
 21
0.0
  0
LINE
  5
237
100
AcDbEntity
  8
0
100
AcDbLine
 62
7
  6
CONTINUOUS
 10
19.0
 20
-22.1
 11
19.0
 21
0.0
  0
INSERT
  5
238
100
AcDbEntity
  8
0
100
AcDbBlockReference
 62
7
  6
CONTINUOUS
  2
_FILLED
 10
19.0
 20
22.1
 41
3.0
 42
3.0
 43
3.0
 50
90.0
  0
INSERT
  5
239
100
AcDbEntity
  8
0
100
AcDbBlockReference
 62
7
  6
CONTINUOUS
  2
_FILLED
 10
19.0
 20
-22.1
 41
3.0
 42
3.0
 43
3.0
 50
270.0
  0
ENDBLK
  5
23A
100
AcDbEntity
  8
0
  6
BYBLOCK
 62
0
100
AcDbBlockEnd
  0
ENDSEC
  0
SECTION
  2
ENTITIES
  0
DIMENSION
  5
23B
100
AcDbEntity
  8
0
100
AcDbDimension
 62
7
  6
CONTINUOUS
  2
*D0
 10
-30.500640841
 20
30.1
 11
-30.3649179223
 21
30.85
 70
160
 71
2
 42
6.7000172659
  3
DIMSTYLE_1
100
AcDbAlignedDimension
 13
-23.8006235751
 23
22.1001713375
 14
-30.500640841
 24
0.500000219
 50
180.0
100
AcDbRotatedDimension
  0
DIMENSION
  5
23C
100
AcDbEntity
  8
0
100
AcDbDimension
 62
7
  6
CONTINUOUS
  2
*D1
 10
-11.0
 20
30.1
 11
-2.3571428571
 21
30.85
 70
160
 71
2
 42
22.0
  3
DIMSTYLE_1
100
AcDbAlignedDimension
 13
11.0
 23
22.1001713375
 14
-11.0
 24
22.1001713375
 50
180.0
100
AcDbRotatedDimension
  0
DIMENSION
  5
23D
100
AcDbEntity
  8
0
100
AcDbDimension
 62
7
  6
CONTINUOUS
  2
*D2
 10
19.0
 20
-22.1
 11
18.25
 21
-4.3928571429
 70
160
 71
2
 42
44.2
  3
DIMSTYLE_1
100
AcDbAlignedDimension
 13
11.0001713375
 23
22.1
 14
11.0001713375
 24
-22.1
 50
270.0
100
AcDbRotatedDimension
  0
LINE
  5
23E
100
AcDbEntity
  8
RACCORDO
100
AcDbLine
 62
7
  6
CONTINUOUS
 10
-10.5001713375
 20
-22.1
 11
10.5001713375
 21
-22.1
  0
LINE
  5
23F
100
AcDbEntity
  8
RACCORDO
100
AcDbLine
 62
7
  6
CONTINUOUS
 10
-11.0
 20
-21.6001713375
 11
-11.0
 21
21.6001713375
  0
LINE
  5
240
100
AcDbEntity
  8
RACCORDO
100
AcDbLine
 62
253
  6
CONTINUOUS
 10
-10.3945930837
 20
20.8300973546
 11
-10.3945930842
 21
-20.8300973581
  0
LINE
  5
241
100
AcDbEntity
  8
RACCORDO
100
AcDbLine
 62
253
  6
CONTINUOUS
 10
10.3787579845
 20
21.978586647
 11
10.5001713375
 21
22.1
  0
LINE
  5
242
100
AcDbEntity
  8
RACCORDO
100
AcDbLine
 62
253
  6
CONTINUOUS
 10
10.5001713375
 20
-22.1
 11
10.3787579832
 21
-21.9785866456
  0
LINE
  5
243
100
AcDbEntity
  8
RACCORDO
100
AcDbLine
 62
253
  6
CONTINUOUS
 10
10.878586647
 20
21.4787579845
 11
11.0
 21
21.6001713375
  0
LINE
  5
244
100
AcDbEntity
  8
RACCORDO
100
AcDbLine
 62
253
  6
CONTINUOUS
 10
11.0
 20
-21.6001713375
 11
10.8785866456
 21
-21.4787579832
  0
LWPOLYLINE
  5
245
100
AcDbEntity
  8
0
100
AcDbPolyline
 62
7
  6
CONTINUOUS
 90
2
 70
0
 43
0.3500000006
 10
18.2499999046
 20
-3.3928568802
 10
16.7499994469
 20
-3.3928568802
  0
LINE
  5
246
100
AcDbEntity
  8
0
100
AcDbLine
 62
253
  6
CONTINUOUS
 10
-2.0001908922
 20
-15.4999575527
 11
-2.0001926989
 21
-15.4912284775
  0
LINE
  5
247
100
AcDbEntity
  8
0
100
AcDbLine
 62
253
  6
CONTINUOUS
 10
-1.9998391981
 20
-7.5000000032
 11
-1.9998420069
 21
-7.5087330353
  0
LWPOLYLINE
  5
248
100
AcDbEntity
  8
0
100
AcDbPolyline
 62
7
  6
CONTINUOUS
 90
2
 70
0
 43
0.3500000006
 10
18.2499999046
 20
-1.0357139511
 10
16.7499994469
 20
-1.0357139511
  0
LINE
  5
249
100
AcDbEntity
  8
0
100
AcDbLine
 62
253
  6
CONTINUOUS
 10
1.999839222
 20
-7.4999642938
 11
1.9998420302
 21
-7.5086973258
  0
LINE
  5
24A
100
AcDbEntity
  8
0
100
AcDbLine
 62
253
  6
CONTINUOUS
 10
2.0001909248
 20
-15.500000011
 11
2.0001927319
 21
-15.491270936
  0
LWPOLYLINE
  5
24B
100
AcDbEntity
  8
0
100
AcDbPolyline
 62
7
  6
CONTINUOUS
 90
3
 70
0
 43
0.3500000006
 10
17.9642853699
 20
1.0357133102
 10
18.1785709877
 20
0.9642866592
 10
18.4642855225
 20
0.8214288254
  0
LINE
  5
24C
100
AcDbEntity
  8
RACCORDO
100
AcDbLine
 62
253
  6
CONTINUOUS
 10
-10.878586647
 20
-21.4787579845
 11
-11.0
 21
-21.6001713375
  0
LINE
  5
24D
100
AcDbEntity
  8
RACCORDO
100
AcDbLine
 62
253
  6
CONTINUOUS
 10
-10.3787579845
 20
-21.978586647
 11
-10.5001713375
 21
-22.1
  0
LWPOLYLINE
  5
24E
100
AcDbEntity
  8
0
100
AcDbPolyline
 62
7
  6
CONTINUOUS
 90
10
 70
0
 43
0.3500000006
 10
17.749999752
 20
0.9642866592
 10
17.8928575859
 20
1.0357133102
 10
17.9642853699
 20
1.0357133102
 10
18.1071432037
 20
0.8928577423
 10
18.1071432037
 20
0.8214288254
 10
18.0357142868
 20
0.7499999084
 10
17.9642853699
 20
0.7499999084
 10
17.821428669
 20
0.8214288254
 10
17.749999752
 20
0.8928577423
 10
17.749999752
 20
0.9642866592
  0
LINE
  5
24F
100
AcDbEntity
  8
RACCORDO
100
AcDbLine
 62
253
  6
CONTINUOUS
 10
-11.0
 20
21.6001713375
 11
-10.8785866456
 21
21.4787579832
  0
LINE
  5
250
100
AcDbEntity
  8
RACCORDO
100
AcDbLine
 62
253
  6
CONTINUOUS
 10
-10.5001713375
 20
22.1
 11
-10.3787579832
 21
21.9785866456
  0
LINE
  5
251
100
AcDbEntity
  8
RACCORDO
100
AcDbLine
 62
253
  6
CONTINUOUS
 10
10.3945930837
 20
-20.8300973553
 11
10.3945930842
 21
20.8300973573
  0
LINE
  5
252
100
AcDbEntity
  8
RACCORDO
100
AcDbLine
 62
7
  6
CONTINUOUS
 10
11.0
 20
-21.6001713375
 11
11.0
 21
21.6001713375
  0
LWPOLYLINE
  5
253
100
AcDbEntity
  8
0
100
AcDbPolyline
 62
7
  6
CONTINUOUS
 90
3
 70
0
 43
0.3500000006
 10
17.6071430511
 20
-0.5357137985
 10
17.6071430511
 20
-2.0357142563
 10
15.2500001221
 20
-1.3928574028
  0
LWPOLYLINE
  5
254
100
AcDbEntity
  8
0
100
AcDbPolyline
 62
7
  6
CONTINUOUS
 90
3
 70
0
 43
0.3500000006
 10
17.6071430511
 20
-2.8928567276
 10
17.6071430511
 20
-4.3928571854
 10
15.2500001221
 20
-3.7500003319
  0
LWPOLYLINE
  5
255
100
AcDbEntity
  8
0
100
AcDbPolyline
 62
7
  6
CONTINUOUS
 90
7
 70
0
 43
0.3500000006
 10
18.2499999046
 20
3.5357140732
 10
18.2499999046
 20
2.0357136154
 10
16.1071425934
 20
3.5357140732
 10
15.6785713577
 20
3.5357140732
 10
15.2500001221
 20
3.1071428375
 10
15.2500001221
 20
2.4642848511
 10
15.8928569756
 20
2.0357136154
  0
LINE
  5
256
100
AcDbEntity
  8
RACCORDO
100
AcDbLine
 62
7
  6
CONTINUOUS
 10
-10.5001713375
 20
22.1
 11
10.5001713375
 21
22.1
  0
LWPOLYLINE
  5
257
100
AcDbEntity
  8
0
100
AcDbPolyline
 62
7
  6
CONTINUOUS
 90
7
 70
0
 43
0.3500000006
 10
1.5000000329
 20
30.8500000305
 10
-0.0
 20
30.8500000305
 10
1.5000000329
 20
32.9928584747
 10
1.5000000329
 20
33.4214274445
 10
1.0714285848
 20
33.850000946
 10
0.4285714127
 20
33.850000946
 10
-0.0
 20
33.2071429596
  0
LWPOLYLINE
  5
258
100
AcDbEntity
  8
0
100
AcDbPolyline
 62
7
  6
CONTINUOUS
 90
7
 70
0
 43
0.3500000006
 10
-0.8571428254
 20
30.8500000305
 10
-2.3571427875
 20
30.8500000305
 10
-0.8571428254
 20
32.9928584747
 10
-0.8571428254
 20
33.4214274445
 10
-1.2857142735
 20
33.850000946
 10
-1.9285714102
 20
33.850000946
 10
-2.3571427875
 20
33.2071429596
  0
LWPOLYLINE
  5
259
100
AcDbEntity
  8
0
100
AcDbPolyline
 62
7
  6
CONTINUOUS
 90
10
 70
0
 43
0.3500000006
 10
-29.2934898605
 20
33.850000946
 10
-29.9363455811
 20
33.2071429596
 10
-30.3649168167
 20
32.3500004883
 10
-30.3649168167
 20
31.2785735321
 10
-29.9363455811
 20
30.8500000305
 10
-29.2934898605
 20
30.8500000305
 10
-28.8649186249
 20
31.2785735321
 10
-28.8649186249
 20
32.1357160034
 10
-29.2934898605
 20
32.5642849731
 10
-30.2220612488
 20
32.5642849731
  0
LINE
  5
25A
100
AcDbEntity
  8
RACCORDO
100
AcDbLine
 62
253
  6
CONTINUOUS
 10
-29.6063980695
 20
-20.8300973788
 11
-29.1210830901
 21
-20.8087575806
  0
LINE
  5
25B
100
AcDbEntity
  8
RACCORDO
100
AcDbLine
 62
7
  6
CONTINUOUS
 10
-23.8006235751
 20
-22.1
 11
-28.7908218986
 21
-21.9693270581
  0
LINE
  5
25C
100
AcDbEntity
  8
RACCORDO
100
AcDbLine
 62
253
  6
CONTINUOUS
 10
-23.8006235751
 20
-21.6001713375
 11
-28.4372125162
 21
-21.4787579832
  0
LWPOLYLINE
  5
25D
100
AcDbEntity
  8
0
100
AcDbPolyline
 62
7
  6
CONTINUOUS
 90
3
 70
0
 43
0.3500000006
 10
-27.2934892502
 20
31.1357156982
 10
-27.3649181671
 20
30.9214266815
 10
-27.507776001
 20
30.6357155457
  0
LWPOLYLINE
  5
25E
100
AcDbEntity
  8
0
100
AcDbPolyline
 62
7
  6
CONTINUOUS
 90
3
 70
0
 10
-30.2002009629
 20
-15.5000053029
 10
-30.120677332
 20
-17.4302485115
 10
-29.9577777237
 20
-20.8322351581
  0
LWPOLYLINE
  5
25F
100
AcDbEntity
  8
0
100
AcDbPolyline
 62
7
  6
CONTINUOUS
 90
10
 70
0
 10
-29.9577777237
 20
20.8322351581
 10
-30.1209677687
 20
17.4235885523
 10
-30.2576574562
 20
13.9397926488
 10
-30.3639788515
 20
10.4549378163
 10
-30.4399209809
 20
6.9692886907
 10
-30.4854753963
 20
3.4831099617
 10
-30.5006408311
 20
-0.0033334725
 10
-30.485417286
 20
-3.4897766272
 10
-30.4398047616
 20
-6.9759545175
 10
-30.4303200329
 20
-7.500004467
  0
LWPOLYLINE
  5
260
100
AcDbEntity
  8
0
100
AcDbPolyline
 62
7
  6
CONTINUOUS
 90
4
 70
0
 43
0.3500000006
 10
-26.293488945
 20
33.2071429596
 10
-26.293488945
 20
33.850000946
 10
-24.7934884872
 20
33.850000946
 10
-25.6506332245
 20
30.8500000305
  0
LINE
  5
261
100
AcDbEntity
  8
RACCORDO
100
AcDbLine
 62
7
  6
CONTINUOUS
 10
-23.8006235751
 20
-22.1
 11
-23.8006235751
 21
22.1
  0
LWPOLYLINE
  5
262
100
AcDbEntity
  8
0
100
AcDbPolyline
 62
7
  6
CONTINUOUS
 90
10
 70
0
 43
0.3500000006
 10
-27.3649181671
 20
31.3500001831
 10
-27.2934892502
 20
31.2071423492
 10
-27.2934892502
 20
31.1357156982
 10
-27.436347084
 20
30.9928578644
 10
-27.507776001
 20
30.9928578644
 10
-27.579202652
 20
31.0642845154
 10
-27.579202652
 20
31.1357156982
 10
-27.507776001
 20
31.2785735321
 10
-27.436347084
 20
31.3500001831
 10
-27.3649181671
 20
31.3500001831
  0
LINE
  5
263
100
AcDbEntity
  8
RACCORDO
100
AcDbLine
 62
253
  6
CONTINUOUS
 10
-28.4372124635
 20
21.4787579845
 11
-23.8006235751
 21
21.6001713375
  0
LINE
  5
264
100
AcDbEntity
  8
RACCORDO
100
AcDbLine
 62
7
  6
CONTINUOUS
 10
-28.7908218834
 20
21.9693270585
 11
-23.8006235751
 21
22.1
  0
LINE
  5
265
100
AcDbEntity
  8
RACCORDO
100
AcDbLine
 62
253
  6
CONTINUOUS
 10
-29.6063846953
 20
20.8300968077
 11
-29.1210830623
 21
20.8087575834
  0
ARC
  5
266
100
AcDbEntity
  8
RACCORDO
100
AcDbCircle
 62
253
  6
CONTINUOUS
 10
-18539.6611579524
 20
0.0000003223
 40
18528.8121637149
100
AcDbArc
 50
359.9356540373
 51
0.0643459607
  0
ARC
  5
267
100
AcDbEntity
  8
RACCORDO
100
AcDbCircle
 62
253
  6
CONTINUOUS
 10
18539.6611454801
 20
-0.0000003223
 40
18528.8121512426
100
AcDbArc
 50
179.9356540373
 51
180.0643459607
  0
ARC
  5
268
100
AcDbEntity
  8
RACCORDO
100
AcDbCircle
 62
253
  6
CONTINUOUS
 10
-0.0000003861
 20
5837.2316941562
 40
5815.2623692333
100
AcDbArc
 50
269.8977416177
 51
270.1022583899
  0
ARC
  5
269
100
AcDbEntity
  8
RACCORDO
100
AcDbCircle
 62
253
  6
CONTINUOUS
 10
0.0000003849
 20
-5837.2316933906
 40
5815.2623684677
100
AcDbArc
 50
89.8977416177
 51
90.1022583899
  0
ARC
  5
26A
100
AcDbEntity
  8
0
100
AcDbCircle
 62
7
  6
CONTINUOUS
 10
1.9999903251
 20
-11.4999999946
 40
3.9999916512
100
AcDbArc
 50
270.0028731918
 51
90.0021642285
  0
ARC
  5
26B
100
AcDbEntity
  8
0
100
AcDbCircle
 62
7
  6
CONTINUOUS
 10
-1.9999903326
 20
-11.4999999951
 40
3.9999916456
100
AcDbArc
 50
89.997835157
 51
269.9971273223
  0
ARC
  5
26C
100
AcDbEntity
  8
0
100
AcDbCircle
 62
7
  6
CONTINUOUS
 10
-1.9999867938
 20
-11.5000019775
 40
3.9912689506
100
AcDbArc
 50
89.9979215436
 51
269.9970443014
  0
ARC
  5
26D
100
AcDbEntity
  8
0
100
AcDbCircle
 62
7
  6
CONTINUOUS
 10
1.9999980273
 20
-11.4999966446
 40
3.9912600503
100
AcDbArc
 50
270.0027951916
 51
90.0022392198
  0
ARC
  5
26E
100
AcDbEntity
  8
DRAFT
100
AcDbCircle
 62
7
  6
CONTINUOUS
 10
1.9999806998
 20
-11.4999983456
 40
3.5000022405
100
AcDbArc
 50
270.0003159489
 51
89.9982272939
  0
ARC
  5
26F
100
AcDbEntity
  8
DRAFT
100
AcDbCircle
 62
7
  6
CONTINUOUS
 10
-1.9999835989
 20
-11.4999994243
 40
3.5000000011
100
AcDbArc
 50
90.0017254545
 51
269.9997315105
  0
ARC
  5
270
100
AcDbEntity
  8
0
100
AcDbCircle
 62
7
  6
CONTINUOUS
 10
-1.9999159352
 20
-11.5014355835
 40
3.4985644175
100
AcDbArc
 50
93.4188226841
 51
269.998623276
  0
ARC
  5
271
100
AcDbEntity
  8
0
100
AcDbCircle
 62
7
  6
CONTINUOUS
 10
1.9999153929
 20
-11.5014701624
 40
3.4985298386
100
AcDbArc
 50
270.0013856196
 51
86.578840899
  0
ARC
  5
272
100
AcDbEntity
  8
0
100
AcDbCircle
 62
7
  6
CONTINUOUS
 10
-1.9999104716
 20
-11.4980409839
 40
3.4980409873
100
AcDbArc
 50
90.0029242006
 51
93.4215769715
  0
ARC
  5
273
100
AcDbEntity
  8
0
100
AcDbCircle
 62
7
  6
CONTINUOUS
 10
1.9999077772
 20
-11.4978112641
 40
3.4978112676
100
AcDbArc
 50
86.5758373353
 51
89.997031679
  0
ARC
  5
274
100
AcDbEntity
  8
RACCORDO
100
AcDbCircle
 62
253
  6
CONTINUOUS
 10
-10.3783243406
 20
21.4783243406
 40
0.5002656627
100
AcDbArc
 50
90.0496657116
 51
179.9503342884
  0
ARC
  5
275
100
AcDbEntity
  8
RACCORDO
100
AcDbCircle
 62
253
  6
CONTINUOUS
 10
10.3783243405
 20
-21.4783243405
 40
0.5002656627
100
AcDbArc
 50
270.0496657161
 51
359.9503342839
  0
ARC
  5
276
100
AcDbEntity
  8
RACCORDO
100
AcDbCircle
 62
253
  6
CONTINUOUS
 10
10.3783243438
 20
21.4783243438
 40
0.5002656608
100
AcDbArc
 50
0.0496654999
 51
89.9503345001
  0
ARC
  5
277
100
AcDbEntity
  8
RACCORDO
100
AcDbCircle
 62
253
  6
CONTINUOUS
 10
-10.3783243438
 20
-21.4783243438
 40
0.5002656608
100
AcDbArc
 50
180.0496655005
 51
269.9503344995
  0
ARC
  5
278
100
AcDbEntity
  8
RACCORDO
100
AcDbCircle
 62
253
  6
CONTINUOUS
 10
456.6547837056
 20
-0.0000000004
 40
486.7071294526
100
AcDbArc
 50
177.547105361
 51
182.4528946387
  0
ARC
  5
279
100
AcDbEntity
  8
RACCORDO
100
AcDbCircle
 62
253
  6
CONTINUOUS
 10
455.8637688676
 20
-0.0000003222
 40
485.4310569041
100
AcDbArc
 50
177.5431744091
 51
182.4568255145
  0
ARC
  5
27A
100
AcDbEntity
  8
RACCORDO
100
AcDbCircle
 62
253
  6
CONTINUOUS
 10
-28.4066042643
 20
-20.7779450195
 40
1.2009812539
100
AcDbArc
 50
182.4889517494
 51
268.5396609239
  0
ARC
  5
27B
100
AcDbEntity
  8
RACCORDO
100
AcDbCircle
 62
253
  6
CONTINUOUS
 10
-28.4066045619
 20
20.7779453801
 40
1.2009812526
100
AcDbArc
 50
91.4603228061
 51
177.5110647193
  0
ARC
  5
27C
100
AcDbEntity
  8
RACCORDO
100
AcDbCircle
 62
7
  6
CONTINUOUS
 10
-28.7594060052
 20
-20.7697383612
 40
1.2
100
AcDbArc
 50
182.985352211
 51
268.5
  0
ARC
  5
27D
100
AcDbEntity
  8
RACCORDO
100
AcDbCircle
 62
7
  6
CONTINUOUS
 10
-28.7594060053
 20
20.7697383612
 40
1.2
100
AcDbArc
 50
91.5
 51
177.0146477891
  0
LINE
  5
27E
100
AcDbEntity
  8
0
100
AcDbLine
 62
7
  6
CONTINUOUS
 10
1.9999999566
 20
-15.0000690087
 11
0.6666900253
 21
-15.0
  0
LINE
  5
27F
100
AcDbEntity
  8
0
100
AcDbLine
 62
7
  6
CONTINUOUS
 10
0.6666900253
 20
-15.0
 11
-0.6666895881
 21
-15.0
  0
LINE
  5
280
100
AcDbEntity
  8
0
100
AcDbLine
 62
7
  6
CONTINUOUS
 10
-0.6666895881
 20
-15.0
 11
-1.9999999566
 21
-15.0000690087
  0
LINE
  5
281
100
AcDbEntity
  8
0
100
AcDbLine
 62
7
  6
CONTINUOUS
 10
-2.0000889814
 20
-8.0000226944
 11
-0.6667208924
 21
-8.0000000002
  0
LINE
  5
282
100
AcDbEntity
  8
0
100
AcDbLine
 62
7
  6
CONTINUOUS
 10
-0.6667208924
 20
-8.0000000002
 11
0.6667208934
 21
-8.0000000002
  0
LINE
  5
283
100
AcDbEntity
  8
0
100
AcDbLine
 62
7
  6
CONTINUOUS
 10
0.6667208934
 20
-8.0000000002
 11
2.0000889687
 21
-8.0000226944
  0
LINE
  5
284
100
AcDbEntity
  8
DRAFT
100
AcDbLine
 62
7
  6
CONTINUOUS
 10
-2.0000889931
 20
-8.0000226944
 11
2.0000889803
 21
-8.0000226944
  0
LINE
  5
285
100
AcDbEntity
  8
DRAFT
100
AcDbLine
 62
7
  6
CONTINUOUS
 10
1.9999999566
 20
-15.0000690093
 11
-1.9999999566
 21
-15.0000690093
  0
SPLINE
  5
286
100
AcDbEntity
  8
RACCORDO
100
AcDbSpline
 62
253
  6
CONTINUOUS
 70
0
 71
3
 72
18
 73
14
 74
12
 42
0.0000001
 43
0.0000001
 44
0.0000000001
 12
0.4674639429
 22
-0.0018790028
 32
0.0
 13
0.2435841548
 23
-0.3989897594
 33
0.0
 40
0.0
 40
0.0
 40
0.0
 40
0.0
 40
0.1943347861
 40
0.3803391683
 40
0.5506966731
 40
0.6998112628
 40
0.8227571128
 40
0.8731596077
 40
0.9155628311
 40
0.9495619138
 40
0.9749676911
 40
0.9916998175
 40
1.0
 40
1.0
 40
1.0
 40
1.0
 10
10.3945921873
 20
20.8300968077
 30
0.0
 10
10.4248736891
 20
20.8299750891
 30
0.0
 10
10.4841380574
 20
20.8295022617
 30
0.0
 10
10.5699385408
 20
20.8281176766
 30
0.0
 10
10.6486798718
 20
20.8260983091
 30
0.0
 10
10.7175693031
 20
20.8235336495
 30
0.0
 10
10.7677582905
 20
20.8208946896
 30
0.0
 10
10.8012789759
 20
20.818466658
 30
0.0
 10
10.8209865771
 20
20.8167076084
 30
0.0
 10
10.836678003
 20
20.8148745417
 30
0.0
 10
10.848576641
 20
20.8130909598
 30
0.0
 10
10.8559021543
 20
20.8112429391
 30
0.0
 10
10.8600049341
 20
20.8098614793
 30
0.0
 10
10.8606788651
 20
20.8087575834
 30
0.0
 11
10.3945921873
 21
20.8300968077
 31
0.0
 11
10.4854344845
 21
20.8293656939
 31
0.0
 11
10.5723737507
 21
20.8279345784
 31
0.0
 11
10.6519830907
 21
20.8258497514
 31
0.0
 11
10.7216384666
 21
20.8231868776
 31
0.0
 11
10.7790250989
 21
20.8200333072
 31
0.0
 11
10.8025231619
 21
20.8183049643
 31
0.0
 11
10.8222623792
 21
20.8164937599
 31
0.0
 11
10.8380443395
 21
20.814614336
 31
0.0
 11
10.849763022
 21
20.8126853725
 31
0.0
 11
10.8573355046
 21
20.8107265586
 31
0.0
 11
10.8606788651
 21
20.8087575834
 31
0.0
  0
SPLINE
  5
287
100
AcDbEntity
  8
RACCORDO
100
AcDbSpline
 62
253
  6
CONTINUOUS
 70
0
 71
3
 72
18
 73
14
 74
12
 42
0.0000001
 43
0.0000001
 44
0.0000000001
 12
-0.4674632459
 22
-0.0018790562
 32
0.0
 13
-0.243462836
 23
-0.3990629833
 33
0.0
 40
0.0
 40
0.0
 40
0.0
 40
0.0
 40
0.1943378524
 40
0.3803447223
 40
0.5507037638
 40
0.6998188142
 40
0.8227640196
 40
0.8731658116
 40
0.9155681026
 40
0.9495660467
 40
0.9749705112
 40
0.9917011984
 40
1.0
 40
1.0
 40
1.0
 40
1.0
 10
-10.3945930836
 20
20.8300973788
 30
0.0
 10
-10.424875018
 20
20.8299756549
 30
0.0
 10
-10.4841401635
 20
20.829502808
 30
0.0
 10
-10.5699416229
 20
20.82811817
 30
0.0
 10
-10.6486835346
 20
20.8260987304
 30
0.0
 10
-10.7175730688
 20
20.8235339895
 30
0.0
 10
-10.7677618446
 20
20.8208949522
 30
0.0
 10
-10.8012821104
 20
20.8184668546
 30
0.0
 10
-10.8209892629
 20
20.8167077619
 30
0.0
 10
-10.8366800825
 20
20.8148746724
 30
0.0
 10
-10.848578198
 20
20.8130910365
 30
0.0
 10
-10.8559028289
 20
20.8112430685
 30
0.0
 10
-10.8600053812
 20
20.8098614954
 30
0.0
 10
-10.8606788644
 20
20.8087575806
 30
0.0
 11
-10.3945930836
 21
20.8300973788
 31
0.0
 11
-10.4854366786
 21
20.829366234
 31
0.0
 11
-10.5723769774
 21
20.827935062
 31
0.0
 11
-10.6519869152
 21
20.8258501589
 31
0.0
 11
-10.7216423993
 21
20.8231871976
 31
0.0
 11
-10.779028639
 21
20.820033537
 31
0.0
 11
-10.8025263341
 21
20.8183051498
 31
0.0
 11
-10.8222650801
 21
20.8164939026
 31
0.0
 11
-10.8380464757
 21
20.8146144382
 31
0.0
 11
-10.8497645121
 21
20.8126854367
 31
0.0
 11
-10.8573362786
 21
20.8107265877
 31
0.0
 11
-10.8606788644
 21
20.8087575806
 31
0.0
  0
SPLINE
  5
288
100
AcDbEntity
  8
RACCORDO
100
AcDbSpline
 62
253
  6
CONTINUOUS
 70
0
 71
3
 72
18
 73
14
 74
12
 42
0.0000001
 43
0.0000001
 44
0.0000000001
 12
-0.4674639429
 22
0.0018790028
 32
0.0
 13
-0.2435841541
 23
0.3989897598
 33
0.0
 40
0.0
 40
0.0
 40
0.0
 40
0.0
 40
0.1943347861
 40
0.3803391683
 40
0.5506966732
 40
0.6998112628
 40
0.8227571129
 40
0.8731596077
 40
0.9155628311
 40
0.9495619138
 40
0.9749676911
 40
0.9916998175
 40
1.0
 40
1.0
 40
1.0
 40
1.0
 10
-10.3945921873
 20
-20.8300968077
 30
0.0
 10
-10.4248736891
 20
-20.8299750891
 30
0.0
 10
-10.4841380575
 20
-20.8295022617
 30
0.0
 10
-10.5699385408
 20
-20.8281176766
 30
0.0
 10
-10.6486798719
 20
-20.8260983091
 30
0.0
 10
-10.7175693031
 20
-20.8235336495
 30
0.0
 10
-10.7677582905
 20
-20.8208946896
 30
0.0
 10
-10.8012789759
 20
-20.8184666579
 30
0.0
 10
-10.8209865771
 20
-20.8167076083
 30
0.0
 10
-10.836678003
 20
-20.8148745417
 30
0.0
 10
-10.848576641
 20
-20.8130909597
 30
0.0
 10
-10.8559021543
 20
-20.8112429391
 30
0.0
 10
-10.8600049341
 20
-20.8098614793
 30
0.0
 10
-10.8606788651
 20
-20.8087575834
 30
0.0
 11
-10.3945921873
 21
-20.8300968077
 31
0.0
 11
-10.4854344845
 21
-20.8293656939
 31
0.0
 11
-10.5723737508
 21
-20.8279345784
 31
0.0
 11
-10.6519830908
 21
-20.8258497514
 31
0.0
 11
-10.7216384666
 21
-20.8231868775
 31
0.0
 11
-10.7790250989
 21
-20.8200333072
 31
0.0
 11
-10.8025231619
 21
-20.8183049643
 31
0.0
 11
-10.8222623792
 21
-20.8164937599
 31
0.0
 11
-10.8380443395
 21
-20.814614336
 31
0.0
 11
-10.849763022
 21
-20.8126853725
 31
0.0
 11
-10.8573355046
 21
-20.8107265586
 31
0.0
 11
-10.8606788651
 21
-20.8087575834
 31
0.0
  0
SPLINE
  5
289
100
AcDbEntity
  8
RACCORDO
100
AcDbSpline
 62
253
  6
CONTINUOUS
 70
0
 71
3
 72
21
 73
17
 74
15
 42
0.0000001
 43
0.0000001
 44
0.0000000001
 12
0.5092882247
 22
1.029766455
 32
0.0
 13
0.0014442248
 23
1.1488217276
 33
0.0
 40
0.0
 40
0.0
 40
0.0
 40
0.0
 40
0.0025180147
 40
0.0072873239
 40
0.0143192945
 40
0.02360685
 40
0.0488920223
 40
0.0829235478
 40
0.1254109579
 40
0.1759900663
 40
0.2342086352
 40
0.2995741338
 40
0.4493742288
 40
0.6201195451
 40
0.8058696729
 40
1.0
 40
1.0
 40
1.0
 40
1.0
 10
10.3787579832
 20
-21.9785866456
 30
0.0
 10
10.3791854482
 20
-21.9777223233
 30
0.0
 10
10.3796389567
 20
-21.9749120125
 30
0.0
 10
10.3803760997
 20
-21.9695166417
 30
0.0
 10
10.3810384257
 20
-21.9614466459
 30
0.0
 10
10.3821066235
 20
-21.9455613284
 30
0.0
 10
10.3833017479
 20
-21.9193068777
 30
0.0
 10
10.3846541033
 20
-21.8803492463
 30
0.0
 10
10.385957616
 20
-21.8316936913
 30
0.0
 10
10.3872146894
 20
-21.7737744943
 30
0.0
 10
10.3884054297
 20
-21.707090605
 30
0.0
 10
10.3899621431
 20
-21.6024121692
 30
0.0
 10
10.3916088731
 20
-21.4546397536
 30
0.0
 10
10.3931057968
 20
-21.2607640297
 30
0.0
 10
10.3941425742
 20
-21.0499092168
 30
0.0
 10
10.3944996418
 20
-20.9044377367
 30
0.0
 10
10.3945930977
 20
-20.8300973574
 30
0.0
 11
10.3787579832
 21
-21.9785866456
 31
0.0
 11
10.3794894968
 21
-21.9757879132
 31
0.0
 11
10.3802209315
 21
-21.9703578639
 31
0.0
 11
10.380950219
 21
-21.9623123625
 31
0.0
 11
10.3816752912
 21
-21.9516672736
 31
0.0
 11
10.3831047949
 21
-21.9226542906
 31
0.0
 11
10.3844959472
 21
-21.8835828622
 31
0.0
 11
10.3858368691
 21
-21.8347907861
 31
0.0
 11
10.3871165896
 21
-21.7766984553
 31
0.0
 11
10.3883252274
 21
-21.7098265671
 31
0.0
 11
10.389453014
 21
-21.634741672
 31
0.0
 11
10.3914277542
 21
-21.4626592623
 31
0.0
 11
10.3929736258
 21
-21.2665092696
 31
0.0
 11
10.3940411495
 21
-21.0531179884
 31
0.0
 11
10.3945930977
 21
-20.8300973574
 31
0.0
  0
SPLINE
  5
28A
100
AcDbEntity
  8
RACCORDO
100
AcDbSpline
 62
253
  6
CONTINUOUS
 70
0
 71
3
 72
21
 73
17
 74
15
 42
0.0000001
 43
0.0000001
 44
0.0000000001
 12
0.0014442233
 22
-1.1488217283
 32
0.0
 13
0.5092880171
 23
-1.0297665584
 33
0.0
 40
0.0
 40
0.0
 40
0.0
 40
0.0
 40
0.1941303269
 40
0.3798804547
 40
0.5506257709
 40
0.700425866
 40
0.7657913647
 40
0.8240099336
 40
0.8745890421
 40
0.9170764523
 40
0.9511079779
 40
0.9763931501
 40
0.9856807055
 40
0.9927126761
 40
0.9974819853
 40
1.0
 40
1.0
 40
1.0
 40
1.0
 10
-10.3945930925
 20
-20.8300973579
 30
0.0
 10
-10.3944996367
 20
-20.9044377371
 30
0.0
 10
-10.3941425697
 20
-21.0499092173
 30
0.0
 10
-10.3931057927
 20
-21.2607640302
 30
0.0
 10
-10.3916088696
 20
-21.4546397541
 30
0.0
 10
-10.3899621402
 20
-21.6024121699
 30
0.0
 10
-10.3884054273
 20
-21.7070906058
 30
0.0
 10
-10.3872146875
 20
-21.7737744952
 30
0.0
 10
-10.3859576147
 20
-21.8316936924
 30
0.0
 10
-10.3846541025
 20
-21.8803492475
 30
0.0
 10
-10.3833017475
 20
-21.9193068789
 30
0.0
 10
-10.3821066235
 20
-21.9455613297
 30
0.0
 10
-10.3810384261
 20
-21.9614466471
 30
0.0
 10
-10.3803761004
 20
-21.9695166429
 30
0.0
 10
-10.3796389577
 20
-21.9749120138
 30
0.0
 10
-10.3791854494
 20
-21.9777223246
 30
0.0
 10
-10.3787579845
 20
-21.978586647
 30
0.0
 11
-10.3945930925
 21
-20.8300973579
 31
0.0
 11
-10.394041145
 21
-21.0531179888
 31
0.0
 11
-10.3929736217
 21
-21.26650927
 31
0.0
 11
-10.3914277508
 21
-21.4626592628
 31
0.0
 11
-10.3894530112
 21
-21.6347416727
 31
0.0
 11
-10.3883252251
 21
-21.7098265679
 31
0.0
 11
-10.3871165878
 21
-21.7766984562
 31
0.0
 11
-10.3858368679
 21
-21.8347907871
 31
0.0
 11
-10.3844959464
 21
-21.8835828634
 31
0.0
 11
-10.3831047945
 21
-21.9226542919
 31
0.0
 11
-10.3816752913
 21
-21.9516672748
 31
0.0
 11
-10.3809502195
 21
-21.9623123638
 31
0.0
 11
-10.3802209323
 21
-21.9703578651
 31
0.0
 11
-10.3794894979
 21
-21.9757879144
 31
0.0
 11
-10.3787579845
 21
-21.978586647
 31
0.0
  0
SPLINE
  5
28B
100
AcDbEntity
  8
RACCORDO
100
AcDbSpline
 62
253
  6
CONTINUOUS
 70
0
 71
3
 72
21
 73
17
 74
15
 42
0.0000001
 43
0.0000001
 44
0.0000000001
 12
-0.0014442232
 22
1.148821729
 32
0.0
 13
-0.5092880165
 23
1.0297665595
 33
0.0
 40
0.0
 40
0.0
 40
0.0
 40
0.0
 40
0.1941303269
 40
0.3798804546
 40
0.5506257709
 40
0.7004258659
 40
0.7657913647
 40
0.8240099336
 40
0.874589042
 40
0.9170764522
 40
0.9511079779
 40
0.9763931501
 40
0.9856807055
 40
0.9927126761
 40
0.9974819853
 40
1.0
 40
1.0
 40
1.0
 40
1.0
 10
10.3945930925
 20
20.8300973571
 30
0.0
 10
10.3944996367
 20
20.9044377364
 30
0.0
 10
10.3941425697
 20
21.0499092166
 30
0.0
 10
10.3931057927
 20
21.2607640297
 30
0.0
 10
10.3916088696
 20
21.4546397538
 30
0.0
 10
10.3899621402
 20
21.6024121696
 30
0.0
 10
10.3884054273
 20
21.7070906056
 30
0.0
 10
10.3872146875
 20
21.773774495
 30
0.0
 10
10.3859576147
 20
21.8316936923
 30
0.0
 10
10.3846541025
 20
21.8803492474
 30
0.0
 10
10.3833017475
 20
21.9193068789
 30
0.0
 10
10.3821066235
 20
21.9455613297
 30
0.0
 10
10.3810384261
 20
21.9614466471
 30
0.0
 10
10.3803761004
 20
21.9695166429
 30
0.0
 10
10.3796389577
 20
21.9749120138
 30
0.0
 10
10.3791854494
 20
21.9777223246
 30
0.0
 10
10.3787579845
 20
21.978586647
 30
0.0
 11
10.3945930925
 21
20.8300973571
 31
0.0
 11
10.394041145
 21
21.0531179882
 31
0.0
 11
10.3929736217
 21
21.2665092695
 31
0.0
 11
10.3914277507
 21
21.4626592625
 31
0.0
 11
10.3894530112
 21
21.6347416724
 31
0.0
 11
10.3883252251
 21
21.7098265677
 31
0.0
 11
10.3871165878
 21
21.7766984561
 31
0.0
 11
10.3858368679
 21
21.834790787
 31
0.0
 11
10.3844959464
 21
21.8835828633
 31
0.0
 11
10.3831047945
 21
21.9226542919
 31
0.0
 11
10.3816752913
 21
21.9516672748
 31
0.0
 11
10.3809502195
 21
21.9623123637
 31
0.0
 11
10.3802209323
 21
21.9703578651
 31
0.0
 11
10.3794894979
 21
21.9757879144
 31
0.0
 11
10.3787579845
 21
21.978586647
 31
0.0
  0
SPLINE
  5
28C
100
AcDbEntity
  8
RACCORDO
100
AcDbSpline
 62
253
  6
CONTINUOUS
 70
0
 71
3
 72
21
 73
17
 74
15
 42
0.0000001
 43
0.0000001
 44
0.0000000001
 12
-0.5092882244
 22
-1.0297664559
 32
0.0
 13
-0.0014442248
 23
-1.1488217284
 33
0.0
 40
0.0
 40
0.0
 40
0.0
 40
0.0
 40
0.0025180147
 40
0.0072873239
 40
0.0143192945
 40
0.02360685
 40
0.0488920223
 40
0.0829235478
 40
0.1254109579
 40
0.1759900663
 40
0.2342086352
 40
0.2995741339
 40
0.4493742288
 40
0.6201195451
 40
0.805869673
 40
1.0
 40
1.0
 40
1.0
 40
1.0
 10
-10.3787579832
 20
21.9785866456
 30
0.0
 10
-10.3791854482
 20
21.9777223233
 30
0.0
 10
-10.3796389567
 20
21.9749120125
 30
0.0
 10
-10.3803760997
 20
21.9695166417
 30
0.0
 10
-10.3810384257
 20
21.9614466459
 30
0.0
 10
-10.3821066235
 20
21.9455613284
 30
0.0
 10
-10.3833017479
 20
21.9193068777
 30
0.0
 10
-10.3846541033
 20
21.8803492463
 30
0.0
 10
-10.385957616
 20
21.8316936912
 30
0.0
 10
-10.3872146894
 20
21.7737744941
 30
0.0
 10
-10.3884054297
 20
21.7070906048
 30
0.0
 10
-10.3899621431
 20
21.6024121689
 30
0.0
 10
-10.3916088731
 20
21.4546397532
 30
0.0
 10
-10.3931057968
 20
21.2607640292
 30
0.0
 10
-10.3941425742
 20
21.0499092162
 30
0.0
 10
-10.3944996418
 20
20.904437736
 30
0.0
 10
-10.3945930977
 20
20.8300973567
 30
0.0
 11
-10.3787579832
 21
21.9785866456
 31
0.0
 11
-10.3794894968
 21
21.9757879132
 31
0.0
 11
-10.3802209315
 21
21.9703578639
 31
0.0
 11
-10.380950219
 21
21.9623123625
 31
0.0
 11
-10.3816752912
 21
21.9516672735
 31
0.0
 11
-10.3831047949
 21
21.9226542906
 31
0.0
 11
-10.3844959472
 21
21.8835828621
 31
0.0
 11
-10.3858368691
 21
21.834790786
 31
0.0
 11
-10.3871165896
 21
21.7766984551
 31
0.0
 11
-10.3883252274
 21
21.7098265669
 31
0.0
 11
-10.3894530139
 21
21.6347416717
 31
0.0
 11
-10.3914277542
 21
21.462659262
 31
0.0
 11
-10.3929736258
 21
21.2665092691
 31
0.0
 11
-10.3940411495
 21
21.0531179878
 31
0.0
 11
-10.3945930977
 21
20.8300973567
 31
0.0
  0
SPLINE
  5
28D
100
AcDbEntity
  8
RACCORDO
100
AcDbSpline
 62
253
  6
CONTINUOUS
 70
0
 71
3
 72
18
 73
14
 74
12
 42
0.0000001
 43
0.0000001
 44
0.0000000001
 12
0.4674632459
 22
0.0018790562
 32
0.0
 13
0.2434628339
 23
0.3990629846
 33
0.0
 40
0.0
 40
0.0
 40
0.0
 40
0.0
 40
0.1943378524
 40
0.3803447224
 40
0.5507037639
 40
0.6998188143
 40
0.8227640197
 40
0.8731658117
 40
0.9155681027
 40
0.9495660468
 40
0.9749705113
 40
0.9917011984
 40
1.0
 40
1.0
 40
1.0
 40
1.0
 10
10.3945930836
 20
-20.8300973788
 30
0.0
 10
10.424875018
 20
-20.8299756549
 30
0.0
 10
10.4841401635
 20
-20.829502808
 30
0.0
 10
10.5699416229
 20
-20.82811817
 30
0.0
 10
10.6486835347
 20
-20.8260987304
 30
0.0
 10
10.7175730689
 20
-20.8235339895
 30
0.0
 10
10.7677618446
 20
-20.8208949522
 30
0.0
 10
10.8012821104
 20
-20.8184668546
 30
0.0
 10
10.8209892629
 20
-20.8167077619
 30
0.0
 10
10.8366800825
 20
-20.8148746724
 30
0.0
 10
10.848578198
 20
-20.8130910365
 30
0.0
 10
10.855902829
 20
-20.8112430685
 30
0.0
 10
10.8600053812
 20
-20.8098614954
 30
0.0
 10
10.8606788644
 20
-20.8087575806
 30
0.0
 11
10.3945930836
 21
-20.8300973788
 31
0.0
 11
10.4854366786
 21
-20.829366234
 31
0.0
 11
10.5723769774
 21
-20.827935062
 31
0.0
 11
10.6519869152
 21
-20.8258501589
 31
0.0
 11
10.7216423993
 21
-20.8231871976
 31
0.0
 11
10.7790286391
 21
-20.820033537
 31
0.0
 11
10.8025263341
 21
-20.8183051498
 31
0.0
 11
10.8222650801
 21
-20.8164939026
 31
0.0
 11
10.8380464757
 21
-20.8146144382
 31
0.0
 11
10.8497645121
 21
-20.8126854367
 31
0.0
 11
10.8573362786
 21
-20.8107265877
 31
0.0
 11
10.8606788644
 21
-20.8087575806
 31
0.0
  0
SPLINE
  5
28E
100
AcDbEntity
  8
RACCORDO
100
AcDbSpline
 62
253
  6
CONTINUOUS
 70
0
 71
3
 72
19
 73
15
 74
13
 42
0.0000001
 43
0.0000001
 44
0.0000000001
 12
0.0007567078
 22
0.6707313451
 32
0.0
 13
0.4724844619
 23
0.4760667424
 33
0.0
 40
0.0
 40
0.0
 40
0.0
 40
0.0
 40
0.1942382553
 40
0.380029375
 40
0.5507240058
 40
0.7003850708
 40
0.7656594899
 40
0.8237826739
 40
0.8742740964
 40
0.9166951157
 40
0.9506932746
 40
0.9759919201
 40
0.9924056629
 40
1.0
 40
1.0
 40
1.0
 40
1.0
 10
10.8606788652
 20
20.8087575834
 30
0.0
 10
10.860727859
 20
20.8521848121
 30
0.0
 10
10.8610298312
 20
20.9371505824
 30
0.0
 10
10.8620987372
 20
21.0602760206
 30
0.0
 10
10.8637385
 20
21.1734273653
 30
0.0
 10
10.8655914484
 20
21.2596276443
 30
0.0
 10
10.8673694676
 20
21.3206502025
 30
0.0
 10
10.8687352662
 20
21.3595079131
 30
0.0
 10
10.870196232
 20
21.3932334723
 30
0.0
 10
10.8716827344
 20
21.4216019944
 30
0.0
 10
10.8733207253
 20
21.444200461
 30
0.0
 10
10.8746997421
 20
21.4612760291
 30
0.0
 10
10.8765836634
 20
21.4717717474
 30
0.0
 10
10.8773905783
 20
21.4775528474
 30
0.0
 10
10.878586647
 20
21.4787579845
 30
0.0
 11
10.8606788652
 21
20.8087575834
 31
0.0
 11
10.8611503463
 21
20.9390384994
 31
0.0
 11
10.8622537991
 21
21.0636496208
 31
0.0
 11
10.8639490071
 21
21.1781273822
 31
0.0
 11
10.86617476
 21
21.278485135
 31
0.0
 11
10.8674624025
 21
21.3222478225
 31
0.0
 11
10.8688517731
 21
21.3612081233
 31
0.0
 11
10.8703302716
 21
21.3950420357
 31
0.0
 11
10.8718847753
 21
21.4234526652
 31
0.0
 11
10.8735019667
 21
21.4461988941
 31
0.0
 11
10.8751683542
 21
21.4630854782
 31
0.0
 11
10.876869039
 21
21.4739625444
 31
0.0
 11
10.878586647
 21
21.4787579845
 31
0.0
  0
LINE
  5
28F
100
AcDbEntity
  8
0
100
AcDbLine
 62
7
  6
CONTINUOUS
 10
2.0001909336
 20
-15.4999575683
 11
-2.0001909052
 21
-15.4999575683
  0
LINE
  5
290
100
AcDbEntity
  8
0
100
AcDbLine
 62
7
  6
CONTINUOUS
 10
-1.9998392074
 20
-7.4999642713
 11
1.9998392428
 21
-7.4999642713
  0
LINE
  5
291
100
AcDbEntity
  8
RACCORDO
100
AcDbLine
 62
253
  6
CONTINUOUS
 10
10.3945894185
 20
20.8314008262
 11
-10.3945894179
 21
20.8314008262
  0
LINE
  5
292
100
AcDbEntity
  8
RACCORDO
100
AcDbLine
 62
253
  6
CONTINUOUS
 10
-10.3945894184
 20
-20.8314008366
 11
10.3945894179
 21
-20.8314008366
  0
SPLINE
  5
293
100
AcDbEntity
  8
RACCORDO
100
AcDbSpline
 62
253
  6
CONTINUOUS
 70
0
 71
3
 72
19
 73
15
 74
13
 42
0.0000001
 43
0.0000001
 44
0.0000000001
 12
-0.4724845154
 22
0.4760666913
 32
0.0
 13
-0.0007567077
 23
0.6707313465
 33
0.0
 40
0.0
 40
0.0
 40
0.0
 40
0.0
 40
0.0075943369
 40
0.0240080799
 40
0.0493067253
 40
0.0833048835
 40
0.1257259022
 40
0.1762173243
 40
0.234340508
 40
0.2996149266
 40
0.4492759906
 40
0.6199706198
 40
0.8057617399
 40
1.0
 40
1.0
 40
1.0
 40
1.0
 10
10.8785866456
 20
-21.4787579832
 30
0.0
 10
10.8773905768
 20
-21.4775528462
 30
0.0
 10
10.8765836621
 20
-21.4717717459
 30
0.0
 10
10.8746997406
 20
-21.4612760279
 30
0.0
 10
10.8733207239
 20
-21.4442004597
 30
0.0
 10
10.871682733
 20
-21.4216019934
 30
0.0
 10
10.8701962306
 20
-21.3932334716
 30
0.0
 10
10.8687352648
 20
-21.3595079126
 30
0.0
 10
10.8673694662
 20
-21.3206502023
 30
0.0
 10
10.865591447
 20
-21.2596276443
 30
0.0
 10
10.8637384987
 20
-21.1734273659
 30
0.0
 10
10.8620987357
 20
-21.0602760214
 30
0.0
 10
10.8610298296
 20
-20.9371505821
 30
0.0
 10
10.8607278583
 20
-20.8521848105
 30
0.0
 10
10.8606788644
 20
-20.8087575806
 30
0.0
 11
10.8785866456
 21
-21.4787579832
 31
0.0
 11
10.8768690377
 21
-21.4739625431
 31
0.0
 11
10.8751683528
 21
-21.4630854768
 31
0.0
 11
10.8735019653
 21
-21.4461988928
 31
0.0
 11
10.8718847739
 21
-21.4234526642
 31
0.0
 11
10.8703302702
 21
-21.3950420351
 31
0.0
 11
10.8688517717
 21
-21.3612081228
 31
0.0
 11
10.8674624012
 21
-21.3222478222
 31
0.0
 11
10.8661747586
 21
-21.2784851349
 31
0.0
 11
10.8639490057
 21
-21.1781273826
 31
0.0
 11
10.8622537976
 21
-21.063649622
 31
0.0
 11
10.861150345
 21
-20.9390385001
 31
0.0
 11
10.8606788644
 21
-20.8087575806
 31
0.0
  0
SPLINE
  5
294
100
AcDbEntity
  8
RACCORDO
100
AcDbSpline
 62
253
  6
CONTINUOUS
 70
0
 71
3
 72
19
 73
15
 74
13
 42
0.0000001
 43
0.0000001
 44
0.0000000001
 12
-0.0007567078
 22
-0.6707313451
 32
0.0
 13
-0.4724844619
 23
-0.4760667424
 33
0.0
 40
0.0
 40
0.0
 40
0.0
 40
0.0
 40
0.1942382553
 40
0.380029375
 40
0.5507240058
 40
0.7003850708
 40
0.7656594899
 40
0.823782674
 40
0.8742740964
 40
0.9166951157
 40
0.9506932746
 40
0.9759919201
 40
0.9924056629
 40
1.0
 40
1.0
 40
1.0
 40
1.0
 10
-10.8606788652
 20
-20.8087575834
 30
0.0
 10
-10.860727859
 20
-20.8521848121
 30
0.0
 10
-10.8610298312
 20
-20.9371505824
 30
0.0
 10
-10.8620987372
 20
-21.0602760206
 30
0.0
 10
-10.8637385
 20
-21.1734273653
 30
0.0
 10
-10.8655914484
 20
-21.2596276443
 30
0.0
 10
-10.8673694676
 20
-21.3206502025
 30
0.0
 10
-10.8687352662
 20
-21.3595079131
 30
0.0
 10
-10.870196232
 20
-21.3932334723
 30
0.0
 10
-10.8716827344
 20
-21.4216019944
 30
0.0
 10
-10.8733207253
 20
-21.444200461
 30
0.0
 10
-10.874699742
 20
-21.4612760291
 30
0.0
 10
-10.8765836634
 20
-21.4717717474
 30
0.0
 10
-10.8773905783
 20
-21.4775528474
 30
0.0
 10
-10.878586647
 20
-21.4787579845
 30
0.0
 11
-10.8606788652
 21
-20.8087575834
 31
0.0
 11
-10.8611503463
 21
-20.9390384994
 31
0.0
 11
-10.8622537991
 21
-21.0636496208
 31
0.0
 11
-10.8639490071
 21
-21.1781273822
 31
0.0
 11
-10.86617476
 21
-21.278485135
 31
0.0
 11
-10.8674624025
 21
-21.3222478225
 31
0.0
 11
-10.8688517731
 21
-21.3612081233
 31
0.0
 11
-10.8703302716
 21
-21.3950420357
 31
0.0
 11
-10.8718847753
 21
-21.4234526652
 31
0.0
 11
-10.8735019667
 21
-21.4461988941
 31
0.0
 11
-10.8751683542
 21
-21.4630854782
 31
0.0
 11
-10.876869039
 21
-21.4739625444
 31
0.0
 11
-10.878586647
 21
-21.4787579845
 31
0.0
  0
SPLINE
  5
295
100
AcDbEntity
  8
RACCORDO
100
AcDbSpline
 62
253
  6
CONTINUOUS
 70
0
 71
3
 72
19
 73
15
 74
13
 42
0.0000001
 43
0.0000001
 44
0.0000000001
 12
0.4724845154
 22
-0.4760666913
 32
0.0
 13
0.0007567077
 23
-0.6707313465
 33
0.0
 40
0.0
 40
0.0
 40
0.0
 40
0.0
 40
0.0075943369
 40
0.0240080799
 40
0.0493067253
 40
0.0833048835
 40
0.1257259022
 40
0.1762173243
 40
0.234340508
 40
0.2996149266
 40
0.4492759906
 40
0.6199706198
 40
0.8057617399
 40
1.0
 40
1.0
 40
1.0
 40
1.0
 10
-10.8785866456
 20
21.4787579832
 30
0.0
 10
-10.8773905768
 20
21.4775528462
 30
0.0
 10
-10.8765836621
 20
21.4717717459
 30
0.0
 10
-10.8746997406
 20
21.4612760279
 30
0.0
 10
-10.8733207239
 20
21.4442004597
 30
0.0
 10
-10.871682733
 20
21.4216019934
 30
0.0
 10
-10.8701962306
 20
21.3932334716
 30
0.0
 10
-10.8687352648
 20
21.3595079126
 30
0.0
 10
-10.8673694662
 20
21.3206502023
 30
0.0
 10
-10.865591447
 20
21.2596276443
 30
0.0
 10
-10.8637384987
 20
21.1734273659
 30
0.0
 10
-10.8620987357
 20
21.0602760214
 30
0.0
 10
-10.8610298296
 20
20.9371505821
 30
0.0
 10
-10.8607278583
 20
20.8521848105
 30
0.0
 10
-10.8606788644
 20
20.8087575806
 30
0.0
 11
-10.8785866456
 21
21.4787579832
 31
0.0
 11
-10.8768690377
 21
21.4739625431
 31
0.0
 11
-10.8751683528
 21
21.4630854768
 31
0.0
 11
-10.8735019653
 21
21.4461988928
 31
0.0
 11
-10.8718847739
 21
21.4234526642
 31
0.0
 11
-10.8703302702
 21
21.3950420351
 31
0.0
 11
-10.8688517717
 21
21.3612081228
 31
0.0
 11
-10.8674624012
 21
21.3222478222
 31
0.0
 11
-10.8661747586
 21
21.2784851349
 31
0.0
 11
-10.8639490057
 21
21.1781273826
 31
0.0
 11
-10.8622537976
 21
21.063649622
 31
0.0
 11
-10.861150345
 21
20.9390385001
 31
0.0
 11
-10.8606788644
 21
20.8087575806
 31
0.0
  0
LINE
  5
296
100
AcDbEntity
  8
0
100
AcDbLine
 62
7
  6
CONTINUOUS
 10
-2.0001926417
 20
-15.4913455422
 11
2.0001926649
 21
-15.4913455422
  0
LINE
  5
297
100
AcDbEntity
  8
0
100
AcDbLine
 62
7
  6
CONTINUOUS
 10
1.9998420353
 20
-7.5087527255
 11
-1.9998420005
 21
-7.5087527255
  0
LINE
  5
298
100
AcDbEntity
  8
0
100
AcDbLine
 62
7
  6
CONTINUOUS
 10
-30.1855972694
 20
-15.4999575683
 11
-30.2002009629
 21
-15.5000053029
  0
SPLINE
  5
299
100
AcDbEntity
  8
0
100
AcDbSpline
 62
7
  6
CONTINUOUS
 70
0
 71
3
 72
47
 73
43
 74
41
 42
0.0000001
 43
0.0000001
 44
0.0000000001
 12
8.0104082881
 22
0.0199758421
 32
0.0
 13
-8.0103904053
 23
-0.0261826611
 33
0.0
 40
0.0
 40
0.0
 40
0.0
 40
0.0
 40
0.0002541758
 40
0.0007557685
 40
0.0026218834
 40
0.0056715235
 40
0.0099114729
 40
0.015336017
 40
0.0219248183
 40
0.0296553086
 40
0.0385047782
 40
0.05949163
 40
0.0847693507
 40
0.1140942943
 40
0.147033135
 40
0.1832967757
 40
0.2227485271
 40
0.2649380091
 40
0.309196246
 40
0.4028849334
 40
0.5003397404
 40
0.5977774651
 40
0.6914146913
 40
0.7356417319
 40
0.7778009758
 40
0.8172159197
 40
0.8534344425
 40
0.8863272301
 40
0.9156052358
 40
0.9408280053
 40
0.9518343274
 40
0.9617528675
 40
0.9705707831
 40
0.9782700329
 40
0.9848278144
 40
0.9902213995
 40
0.9944302307
 40
0.9974485535
 40
0.9985129386
 40
0.9992834232
 40
0.9997671114
 40
1.0
 40
1.0
 40
1.0
 40
1.0
 10
-30.4141999343
 20
-7.5000000032
 30
0.0
 10
-30.4135212503
 20
-7.4999983108
 30
0.0
 10
-30.4119392232
 20
-7.5017834762
 30
0.0
 10
-30.4094768847
 20
-7.5080350237
 30
0.0
 10
-30.4060026051
 20
-7.5224130198
 30
0.0
 10
-30.4019142334
 20
-7.5463451529
 30
0.0
 10
-30.3971837185
 20
-7.5800424124
 30
0.0
 10
-30.3920194457
 20
-7.6231049519
 30
0.0
 10
-30.3864023947
 20
-7.6755352581
 30
0.0
 10
-30.380391649
 20
-7.7371036383
 30
0.0
 10
-30.3713602194
 20
-7.8370071925
 30
0.0
 10
-30.3594197545
 20
-7.9836862165
 30
0.0
 10
-30.3446418689
 20
-8.1849811405
 30
0.0
 10
-30.3289960775
 20
-8.4182066397
 30
0.0
 10
-30.3127845771
 20
-8.6807902499
 30
0.0
 10
-30.2963086113
 20
-8.9704455854
 30
0.0
 10
-30.2798430984
 20
-9.2848387213
 30
0.0
 10
-30.2636554337
 20
-9.6206194702
 30
0.0
 10
-30.2424301705
 20
-10.1011422902
 30
0.0
 10
-30.2185141468
 20
-10.7292505511
 30
0.0
 10
-30.1948485599
 20
-11.4994473562
 30
0.0
 10
-30.1768322878
 20
-12.2696591915
 30
0.0
 10
-30.1664353424
 20
-12.8978688979
 30
0.0
 10
-30.1610446244
 20
-13.3785282737
 30
0.0
 10
-30.158431348
 20
-13.714426235
 30
0.0
 10
-30.1570779322
 20
-14.0289475419
 30
0.0
 10
-30.1569086199
 20
-14.3187289668
 30
0.0
 10
-30.1578025128
 20
-14.5814419208
 30
0.0
 10
-30.1596275011
 20
-14.8147889796
 30
0.0
 10
-30.161912185
 20
-14.9896887528
 30
0.0
 10
-30.1641928312
 20
-15.1128887206
 30
0.0
 10
-30.1659942988
 20
-15.192286201
 30
0.0
 10
-30.1679506073
 20
-15.2628461998
 30
0.0
 10
-30.170048334
 20
-15.3244256716
 30
0.0
 10
-30.1722703535
 20
-15.376845783
 30
0.0
 10
-30.1746020197
 20
-15.4199442513
 30
0.0
 10
-30.1770021266
 20
-15.4535343484
 30
0.0
 10
-30.1792488921
 20
-15.4756198199
 30
0.0
 10
-30.1811546459
 20
-15.4883707861
 30
0.0
 10
-30.1825540855
 20
-15.4945338332
 30
0.0
 10
-30.1836025932
 20
-15.4981178593
 30
0.0
 10
-30.1849737924
 20
-15.4999979629
 30
0.0
 10
-30.1855956353
 20
-15.4999999954
 30
0.0
 11
-30.4141999343
 21
-7.5000000032
 31
0.0
 11
-30.4125557911
 21
-7.5012009723
 31
0.0
 11
-30.410790021
 21
-7.5048101521
 31
0.0
 11
-30.4068996186
 21
-7.519243415
 31
0.0
 11
-30.4025407643
 21
-7.5432803333
 31
0.0
 11
-30.397725529
 21
-7.5769010912
 31
0.0
 11
-30.3924707932
 21
-7.6200351427
 31
0.0
 11
-30.3868031863
 21
-7.6725091094
 31
0.0
 11
-30.380750517
 21
-7.7341371738
 31
0.0
 11
-30.3743405284
 21
-7.8047348555
 31
0.0
 11
-30.3605507084
 21
-7.9722821084
 31
0.0
 11
-30.3456294396
 21
-8.1742170751
 31
0.0
 11
-30.3298379021
 21
-8.4085911818
 31
0.0
 11
-30.3135339011
 21
-8.6719413579
 31
0.0
 11
-30.2970002201
 21
-8.9619579229
 31
0.0
 11
-30.2804365573
 21
-9.2775491729
 31
0.0
 11
-30.2641427118
 21
-9.6151121847
 31
0.0
 11
-30.2484849938
 21
-9.9692939044
 31
0.0
 11
-30.2197963695
 21
-10.71923234
 31
0.0
 11
-30.1958005959
 21
-11.4995186829
 31
0.0
 11
-30.1775020856
 21
-12.2798225425
 31
0.0
 11
-30.1651578309
 21
-13.029795704
 31
0.0
 11
-30.1611903732
 21
-13.3840512414
 31
0.0
 11
-30.1585766112
 21
-13.7217549337
 31
0.0
 11
-30.1572451656
 21
-14.0374829018
 31
0.0
 11
-30.157105488
 21
-14.3276089251
 31
0.0
 11
-30.1580406555
 21
-14.5910927434
 31
0.0
 11
-30.1599322928
 21
-14.8256146231
 31
0.0
 11
-30.1626634011
 21
-15.0276414737
 31
0.0
 11
-30.1643111262
 21
-15.1157914834
 31
0.0
 11
-30.1661314995
 21
-15.1952224292
 31
0.0
 11
-30.1681129811
 21
-15.2658299552
 31
0.0
 11
-30.1702442711
 21
-15.3274674448
 31
0.0
 11
-30.1725142927
 21
-15.3799490452
 31
0.0
 11
-30.1749119776
 21
-15.4230874165
 31
0.0
 11
-30.1774265721
 21
-15.4567080717
 31
0.0
 11
-30.1800499386
 21
-15.4807434031
 31
0.0
 11
-30.1814002732
 21
-15.4891619799
 31
0.0
 11
-30.1827752367
 21
-15.4951787908
 31
0.0
 11
-30.1841739754
 21
-15.4987920559
 31
0.0
 11
-30.1855956353
 21
-15.4999999954
 31
0.0
  0
LINE
  5
29A
100
AcDbEntity
  8
0
100
AcDbLine
 62
7
  6
CONTINUOUS
 10
-30.4303200329
 20
-7.500004467
 11
-30.4142005999
 21
-7.4999642713
  0
SPLINE
  5
29B
100
AcDbEntity
  8
RACCORDO
100
AcDbSpline
 62
253
  6
CONTINUOUS
 70
0
 71
3
 72
11
 73
7
 74
5
 42
0.0000001
 43
0.0000001
 44
0.0000000001
 12
-1.047085009
 22
0.0276267642
 32
0.0
 13
-0.0450860355
 23
1.0464786207
 33
0.0
 40
0.0
 40
0.0
 40
0.0
 40
0.0
 40
0.2499800914
 40
0.4999662597
 40
0.7499719373
 40
1.0
 40
1.0
 40
1.0
 40
1.0
 10
-28.4372125162
 20
-21.4787579832
 30
0.0
 10
-28.5244626516
 20
-21.4764559361
 30
0.0
 10
-28.699831351
 20
-21.4387651332
 30
0.0
 10
-28.9227948383
 20
-21.2903446704
 30
0.0
 10
-29.0762501027
 20
-21.0707257303
 30
0.0
 10
-29.1173254987
 20
-20.8959739213
 30
0.0
 10
-29.1210830901
 20
-20.8087575806
 30
0.0
 11
-28.4372125162
 21
-21.4787579832
 31
0.0
 11
-28.6931466711
 21
-21.4234526642
 31
0.0
 11
-28.9112033583
 21
-21.2784851349
 31
0.0
 11
-29.0609388179
 21
-21.063649622
 31
0.0
 11
-29.1210830901
 21
-20.8087575806
 31
0.0
  0
SPLINE
  5
29C
100
AcDbEntity
  8
RACCORDO
100
AcDbSpline
 62
253
  6
CONTINUOUS
 70
0
 71
3
 72
11
 73
7
 74
5
 42
0.0000001
 43
0.0000001
 44
0.0000000001
 12
0.0450860439
 22
1.0464786225
 32
0.0
 13
1.047085011
 23
0.0276267704
 33
0.0
 40
0.0
 40
0.0
 40
0.0
 40
0.0
 40
0.2500280646
 40
0.5000337412
 40
0.750019909
 40
1.0
 40
1.0
 40
1.0
 40
1.0
 10
-29.1210830623
 20
20.8087575834
 30
0.0
 10
-29.1173254702
 20
20.8959739249
 30
0.0
 10
-29.0762500341
 20
21.0707257247
 30
0.0
 10
-28.922794789
 20
21.2903446715
 30
0.0
 10
-28.6998312974
 20
21.4387651342
 30
0.0
 10
-28.5244625989
 20
21.476455937
 30
0.0
 10
-28.4372124635
 20
21.4787579845
 30
0.0
 11
-29.1210830623
 21
20.8087575834
 31
0.0
 11
-29.0609387621
 21
21.0636496208
 31
0.0
 11
-28.911203305
 21
21.278485135
 31
0.0
 11
-28.6931466184
 21
21.4234526652
 31
0.0
 11
-28.4372124635
 21
21.4787579845
 31
0.0
  0
SPLINE
  5
29D
100
AcDbEntity
  8
RACCORDO
100
AcDbSpline
 62
253
  6
CONTINUOUS
 70
0
 71
3
 72
20
 73
16
 74
14
 42
0.0000001
 43
0.0000001
 44
0.0000000001
 12
-0.5002087974
 22
0.0130984283
 32
0.0
 13
0.0130895049
 23
0.500209031
 33
0.0
 40
0.0
 40
0.0
 40
0.0
 40
0.0
 40
0.0017601623
 40
0.0055960866
 40
0.020198778
 40
0.0441136351
 40
0.077217934
 40
0.1191811623
 40
0.169584885
 40
0.2279973577
 40
0.2938476078
 40
0.4451452725
 40
0.6177669269
 40
0.8053187392
 40
1.0
 40
1.0
 40
1.0
 40
1.0
 10
-28.4372125162
 20
-21.9785866456
 30
0.0
 10
-28.4375059991
 20
-21.9785789605
 30
0.0
 10
-28.4380901259
 20
-21.9775779369
 30
0.0
 10
-28.4388392162
 20
-21.9745307448
 30
0.0
 10
-28.4397744331
 20
-21.967282082
 30
0.0
 10
-28.4405870538
 20
-21.9554973918
 30
0.0
 10
-28.4413300398
 20
-21.9389446435
 30
0.0
 10
-28.4419042261
 20
-21.9180465238
 30
0.0
 10
-28.4423269459
 20
-21.8928928333
 30
0.0
 10
-28.4425773566
 20
-21.8637630628
 30
0.0
 10
-28.4426863124
 20
-21.817800241
 30
0.0
 10
-28.4423375109
 20
-21.7527898794
 30
0.0
 10
-28.441271238
 20
-21.6674857811
 30
0.0
 10
-28.4395673082
 20
-21.5749549519
 30
0.0
 10
-28.4380619433
 20
-21.5112184248
 30
0.0
 10
-28.4372125162
 20
-21.4787579832
 30
0.0
 11
-28.4372125162
 21
-21.9785866456
 31
0.0
 11
-28.4378361983
 21
-21.9779647598
 31
0.0
 11
-28.4384279467
 21
-21.9761388326
 31
0.0
 11
-28.4395093771
 21
-21.9689124037
 31
0.0
 11
-28.4404442766
 21
-21.9569824571
 31
0.0
 11
-28.441220768
 21
-21.9404359287
 31
0.0
 11
-28.4418318056
 21
-21.91944725
 31
0.0
 11
-28.4422725094
 21
-21.8942300725
 31
0.0
 11
-28.442538185
 21
-21.8650028314
 31
0.0
 11
-28.4426267608
 21
-21.8320527848
 31
0.0
 11
-28.44227251
 21
-21.7563472481
 31
0.0
 11
-28.4412207694
 21
-21.6699771823
 31
0.0
 11
-28.4395093788
 21
-21.5761455623
 31
0.0
 11
-28.4372125162
 21
-21.4787579832
 31
0.0
  0
SPLINE
  5
29E
100
AcDbEntity
  8
RACCORDO
100
AcDbSpline
 62
253
  6
CONTINUOUS
 70
0
 71
3
 72
20
 73
16
 74
14
 42
0.0000001
 43
0.0000001
 44
0.0000000001
 12
-0.5002087938
 22
-0.0130984282
 32
0.0
 13
0.0130894589
 23
-0.5002090286
 33
0.0
 40
0.0
 40
0.0
 40
0.0
 40
0.0
 40
0.0017601587
 40
0.0055960804
 40
0.0201987669
 40
0.0441136198
 40
0.0772179139
 40
0.1191811341
 40
0.1695848503
 40
0.2279973203
 40
0.2938475646
 40
0.4451452224
 40
0.6177668843
 40
0.8053187251
 40
1.0
 40
1.0
 40
1.0
 40
1.0
 10
-28.4372124635
 20
21.978586647
 30
0.0
 10
-28.4375059458
 20
21.9785789619
 30
0.0
 10
-28.4380900702
 20
21.9775779375
 30
0.0
 10
-28.4388391577
 20
21.9745307481
 30
0.0
 10
-28.4397743711
 20
21.9672820855
 30
0.0
 10
-28.4405869888
 20
21.9554973983
 30
0.0
 10
-28.4413299721
 20
21.9389446525
 30
0.0
 10
-28.4419041565
 20
21.9180465363
 30
0.0
 10
-28.4423268748
 20
21.8928928488
 30
0.0
 10
-28.4425772847
 20
21.8637630811
 30
0.0
 10
-28.4426862405
 20
21.8178002621
 30
0.0
 10
-28.4423374404
 20
21.7527899018
 30
0.0
 10
-28.4412711716
 20
21.6674857993
 30
0.0
 10
-28.4395672475
 20
21.5749549622
 30
0.0
 10
-28.4380618877
 20
21.5112184283
 30
0.0
 10
-28.4372124635
 20
21.4787579845
 30
0.0
 11
-28.4372124635
 21
21.978586647
 31
0.0
 11
-28.4378361434
 21
21.9779647614
 31
0.0
 11
-28.4384278896
 21
21.976138835
 31
0.0
 11
-28.4395093161
 21
21.968912408
 31
0.0
 11
-28.4404442122
 21
21.9569824633
 31
0.0
 11
-28.4412207007
 21
21.9404359373
 31
0.0
 11
-28.4418317362
 21
21.9194472627
 31
0.0
 11
-28.4422724385
 21
21.8942300887
 31
0.0
 11
-28.4425381132
 21
21.8650028491
 31
0.0
 11
-28.4426266889
 21
21.8320528057
 31
0.0
 11
-28.4422724398
 21
21.7563472729
 31
0.0
 11
-28.4412207031
 21
21.6699772039
 31
0.0
 11
-28.4395093182
 21
21.5761455703
 31
0.0
 11
-28.4372124635
 21
21.4787579845
 31
0.0
  0
LINE
  5
29F
100
AcDbEntity
  8
RACCORDO
100
AcDbLine
 62
253
  6
CONTINUOUS
 10
-29.9578013734
 20
-20.8317816726
 11
-29.6063425086
 21
-20.8314008366
  0
LINE
  5
2A0
100
AcDbEntity
  8
RACCORDO
100
AcDbLine
 62
253
  6
CONTINUOUS
 10
-29.606342509
 20
20.8314008262
 11
-29.9578013739
 21
20.8317816622
  0
ELLIPSE
  5
2A1
100
AcDbEntity
  8
RACCORDO
100
AcDbEllipse
 62
7
  6
CONTINUOUS
 10
-10.4998286038
 20
-21.5998286038
 30
0.0
 11
0.35379574
 21
0.35379574
 31
0.0
 40
0.999315002
 41
-3.9266482006
 42
-2.3565371065
  0
ELLIPSE
  5
2A2
100
AcDbEntity
  8
RACCORDO
100
AcDbEllipse
 62
7
  6
CONTINUOUS
 10
10.4998286038
 20
-21.5998286038
 30
0.0
 11
0.35379574
 21
-0.35379574
 31
0.0
 40
0.999315002
 41
-0.7850555471
 42
0.7850555471
  0
ELLIPSE
  5
2A3
100
AcDbEntity
  8
RACCORDO
100
AcDbEllipse
 62
7
  6
CONTINUOUS
 10
10.4998286038
 20
21.5998286038
 30
0.0
 11
0.35379574
 21
0.35379574
 31
0.0
 40
0.999315002
 41
-0.7850555471
 42
0.7850555471
  0
ELLIPSE
  5
2A4
100
AcDbEntity
  8
RACCORDO
100
AcDbEllipse
 62
7
  6
CONTINUOUS
 10
-10.4998286038
 20
21.5998286038
 30
0.0
 11
0.35379574
 21
-0.35379574
 31
0.0
 40
0.999315002
 41
2.3565371065
 42
3.9266482006
  0
ENDSEC
  0
SECTION
  2
OBJECTS
  0
DICTIONARY
  5
C
100
AcDbDictionary
280
0
281
1
  3
ACAD_GROUP
350
D
  3
ACAD_MLINESTYLE
350
17
  3
ACAD_LAYOUT
350
1A
  3
ACAD_PLOTSETTINGS
350
19
  3
ACAD_PLOTSTYLENAME
350
E
  0
DICTIONARY
  5
D
102
{ACAD_REACTORS
330
C
102
}
100
AcDbDictionary
280
0
281
1
  0
ACDBDICTIONARYWDFLT
  5
E
102
{ACAD_REACTORS
330
C
102
}
100
AcDbDictionary
281
1
  3
Normal
350
F
100
AcDbDictionaryWithDefault
340
F
  0
DICTIONARY
  5
17
102
{ACAD_REACTORS
330
C
102
}
100
AcDbDictionary
280
0
281
1
  3
Standard
350
18
  0
DICTIONARY
  5
19
102
{ACAD_REACTORS
330
C
102
}
100
AcDbDictionary
281
1
  0
DICTIONARY
  5
1A
102
{ACAD_REACTORS
330
C
102
}
100
AcDbDictionary
281
1
  3
Model
350
2A5
  3
Layout1
350
2A6
  0
ACDBPLACEHOLDER
  5
F
102
{ACAD_REACTORS
330
E
102
}
  0
MLINESTYLE
  5
18
102
{ACAD_REACTORS
330
17
102
}
100
AcDbMlineStyle
  2
STANDARD
 70
0
  3

 62
256
 51
90.0
 52
90.0
 71
2
 49
0.5
 62
256
  6
BYLAYER
 49
-0.5
 62
256
  6
BYLAYER
  0
LAYOUT
  5
2A5
102
{ACAD_REACTORS
330
1A
102
}
100
AcDbPlotSettings
  1

  2
none_device
  4
ISO_A4_(297.00_x_210.00_MM)
  6

 40
0.0
 41
0.0
 42
0.0
 43
0.0
 44
297.0
 45
210.0
 46
0.0
 47
0.0
 48
0.0
 49
0.0
140
0.0
141
0.0
142
1.0
143
1.0
 70
1024
 72
1
 73
0
 74
0
  7

 75
0
147
1.0
148
0.0
149
0.0
100
AcDbLayout
  1
Model
 70
0
 71
0
 10
0.0
 20
0.0
 11
297.0
 21
210.0
 12
0.0
 22
0.0
 32
0.0
 14
0.0
 24
0.0
 34
0.0
 15
0.0
 25
0.0
 35
0.0
146
0.0
 13
0.0
 23
0.0
 33
0.0
 16
1.0
 26
0.0
 36
0.0
 17
0.0
 27
1.0
 37
0.0
 76
0
330
216
345
0
346
0
  0
LAYOUT
  5
2A6
102
{ACAD_REACTORS
330
1A
102
}
100
AcDbPlotSettings
  1

  2
none_device
  4
ISO_A4_(297.00_x_210.00_MM)
  6

 40
0.0
 41
0.0
 42
0.0
 43
0.0
 44
297.0
 45
210.0
 46
0.0
 47
0.0
 48
0.0
 49
0.0
140
0.0
141
0.0
142
1.0
143
1.0
 70
0
 72
1
 73
0
 74
0
  7

 75
0
147
1.0
148
0.0
149
0.0
100
AcDbLayout
  1
Layout1
 70
0
 71
1
 10
0.0
 20
0.0
 11
297.0
 21
210.0
 12
0.0
 22
0.0
 32
0.0
 14
0.0
 24
0.0
 34
0.0
 15
0.0
 25
0.0
 35
0.0
146
0.0
 13
0.0
 23
0.0
 33
0.0
 16
1.0
 26
0.0
 36
0.0
 17
0.0
 27
1.0
 37
0.0
 76
0
330
217
345
0
346
0
  0
ENDSEC
  0
EOF
