  0
SECTION
  2
HEADER
  9
$ACADVER
  1
AC1021
  9
$DWGCODEPAGE
  3
ANSI_1252
  9
$EXTMAX
 10
297.0
 20
210.0
 30
0.0
  9
$EXTMIN
 10
0.0
 20
0.0
 30
0.0
  9
$LIMMIN
 10
0.0
 20
0.0
  9
$LIMMAX
 10
297.0
 20
210.0
  9
$VIEWCTR
 10
148.5
 20
105.0
  9
$VIEWSIZE
 40
210.0
  9
$CLAYER
  8
0
  9
$LTSCALE
 40
16.335
  9
$CELTYPE
  6
BYLAYER
  9
$DIMSCALE
 40
1.0
  9
$DIMASZ
 40
3.0
  9
$DIMEXO
 40
1.85625
  9
$DIMDLI
 40
11.286
  9
$DIMEXE
 40
5.346
  9
$DIMCEN
 40
2.673
  9
$DIMLFAC
 40
1.0
  9
$DIMBLK
  1
_FILLED
  9
$DIMTXT
 40
3.0
  9
$DIMTOL
 70
1
  9
$DIMLIM
 70
0
  9
$DIMTFAC
 40
1.0
  9
$DIMTP
 40
0.01
  9
$DIMTM
 40
0.01
  9
$PDMODE
 70
3
  9
$PDSIZE
 40
3.0
  9
$HANDSEED
  5
4AB
  9
$TILEMODE
 70
1
  9
$MEASUREMENT
 70
1
  9
$INSUNITS
 70
4
  0
ENDSEC
  0
SECTION
  2
CLASSES
  0
CLASS
  1
ACDBDICTIONARYWDFLT
  2
AcDbDictionaryWithDefault
  3
AutoCAD 2000
 90
0
 91
1
280
0
281
0
  0
CLASS
  1
ACDBPLACEHOLDER
  2
AcDbPlaceHolder
  3
AutoCAD 2000
 90
0
 91
1
280
0
281
0
  0
CLASS
  1
LAYOUT
  2
AcDbLayout
  3
AutoCAD 2000
 90
0
 91
0
280
0
281
0
  0
ENDSEC
  0
SECTION
  2
TABLES
  0
TABLE
  2
VPORT
  5
8
100
AcDbSymbolTable
 70
2
  0
VPORT
  5
1F4
100
AcDbSymbolTableRecord
100
AcDbViewportTableRecord
  2
*ACTIVE
 70
0
 10
0.0
 20
0.0
 11
1.0
 21
1.0
 12
148.5
 22
105.0
 13
0.0
 23
0.0
 14
1.0
 24
1.0
 15
0.0
 25
0.0
 16
0.0
 26
0.0
 36
1.0
 17
0.0
 27
0.0
 37
0.0
 40
210.0
 41
1.4142857143
 42
50.0
 43
0.0
 44
0.0
 50
0.0
 51
0.0
 71
0
 72
100
 73
1
 74
1
 75
0
 76
0
 77
0
 78
0
  0
ENDTAB
  0
TABLE
  2
LTYPE
  5
5
100
AcDbSymbolTable
 70
6
  0
LTYPE
  5
14
100
AcDbSymbolTableRecord
100
AcDbLinetypeTableRecord
  2
BYBLOCK
 70
0
  3

 72
65
 73
0
 40
0.0
  0
LTYPE
  5
15
100
AcDbSymbolTableRecord
100
AcDbLinetypeTableRecord
  2
BYLAYER
 70
0
  3

 72
65
 73
0
 40
0.0
  0
LTYPE
  5
16
100
AcDbSymbolTableRecord
100
AcDbLinetypeTableRecord
  2
CONTINUOUS
 70
64
  3
Solid line
 72
65
 73
0
 40
0.0
  0
LTYPE
  5
1F5
100
AcDbSymbolTableRecord
100
AcDbLinetypeTableRecord
  2
CENTER
 70
64
  3
____ _ ____ _ ____ _ ____ _ ____ _ ____ _ ____
 72
65
 73
4
 40
0.6
 49
0.375
 74
0
 49
-0.075
 74
0
 49
0.075
 74
0
 49
-0.075
 74
0
  0
LTYPE
  5
1F6
100
AcDbSymbolTableRecord
100
AcDbLinetypeTableRecord
  2
HIDDEN
 70
64
  3
- - - - - - - - - - - - - - - - - - - -
 72
65
 73
2
 40
0.2
 49
0.1
 74
0
 49
-0.1
 74
0
  0
LTYPE
  5
1F7
100
AcDbSymbolTableRecord
100
AcDbLinetypeTableRecord
  2
PHANTOM
 70
64
  3
_____ _ _ _____ _ _ _____ _ _ _____
 72
65
 73
6
 40
0.8
 49
0.45
 74
0
 49
-0.05
 74
0
 49
0.1
 74
0
 49
-0.05
 74
0
 49
0.1
 74
0
 49
-0.05
 74
0
  0
LTYPE
  5
1F8
100
AcDbSymbolTableRecord
100
AcDbLinetypeTableRecord
  2
DOT
 70
64
  3
. . . . . . . . . . . . . . . . . . . .
 72
65
 73
2
 40
0.2
 49
0.1
 74
0
 49
-0.1
 74
0
  0
LTYPE
  5
1F9
100
AcDbSymbolTableRecord
100
AcDbLinetypeTableRecord
  2
DASHED
 70
64
  3
- - - - - - - - - - - - - - - - - - - -
 72
65
 73
2
 40
0.2
 49
0.1
 74
0
 49
-0.1
 74
0
  0
ENDTAB
  0
TABLE
  2
LAYER
  5
2
100
AcDbSymbolTable
 70
36
  0
LAYER
  5
10
100
AcDbSymbolTableRecord
100
AcDbLayerTableRecord
  2
0
 70
0
 62
7
  6
CONTINUOUS
370
-3
390
F
  0
LAYER
  5
1FA
100
AcDbSymbolTableRecord
100
AcDbLayerTableRecord
  2
DEFAULT_1
 70
0
 62
7
  6
CENTER
370
-3
390
F
  0
LAYER
  5
1FB
100
AcDbSymbolTableRecord
100
AcDbLayerTableRecord
  2
DEFAULT_2
 70
0
 62
7
  6
HIDDEN
370
-3
390
F
  0
LAYER
  5
1FC
100
AcDbSymbolTableRecord
100
AcDbLayerTableRecord
  2
DEFAULT_3
 70
0
 62
7
  6
PHANTOM
370
-3
390
F
  0
LAYER
  5
1FD
100
AcDbSymbolTableRecord
100
AcDbLayerTableRecord
  2
ASSI
 70
0
 62
7
  6
CONTINUOUS
370
-3
390
F
  0
LAYER
  5
1FE
100
AcDbSymbolTableRecord
100
AcDbLayerTableRecord
  2
COORDINATE
 70
0
 62
7
  6
CONTINUOUS
370
-3
390
F
  0
LAYER
  5
1FF
100
AcDbSymbolTableRecord
100
AcDbLayerTableRecord
  2
COORD_ORIGINE
 70
0
 62
7
  6
CONTINUOUS
370
-3
390
F
  0
LAYER
  5
200
100
AcDbSymbolTableRecord
100
AcDbLayerTableRecord
  2
COPY_PUBLISH
 70
0
 62
7
  6
CONTINUOUS
370
-3
390
F
  0
LAYER
  5
201
100
AcDbSymbolTableRecord
100
AcDbLayerTableRecord
  2
COSMETIC
 70
0
 62
7
  6
CONTINUOUS
370
-3
390
F
  0
LAYER
  5
202
100
AcDbSymbolTableRecord
100
AcDbLayerTableRecord
  2
COSMETICI
 70
0
 62
7
  6
CONTINUOUS
370
-3
390
F
  0
LAYER
  5
203
100
AcDbSymbolTableRecord
100
AcDbLayerTableRecord
  2
CURVE
 70
0
 62
7
  6
CONTINUOUS
370
-3
390
F
  0
LAYER
  5
204
100
AcDbSymbolTableRecord
100
AcDbLayerTableRecord
  2
DRAFT
 70
0
 62
7
  6
CONTINUOUS
370
-3
390
F
  0
LAYER
  5
205
100
AcDbSymbolTableRecord
100
AcDbLayerTableRecord
  2
IMPORT
 70
0
 62
7
  6
CONTINUOUS
370
-3
390
F
  0
LAYER
  5
206
100
AcDbSymbolTableRecord
100
AcDbLayerTableRecord
  2
IMPORT_IGES
 70
0
 62
7
  6
CONTINUOUS
370
-3
390
F
  0
LAYER
  5
207
100
AcDbSymbolTableRecord
100
AcDbLayerTableRecord
  2
INTFCLR_11
 70
0
 62
7
  6
CONTINUOUS
370
-3
390
F
  0
LAYER
  5
208
100
AcDbSymbolTableRecord
100
AcDbLayerTableRecord
  2
INTF_1
 70
0
 62
7
  6
CONTINUOUS
370
-3
390
F
  0
LAYER
  5
209
100
AcDbSymbolTableRecord
100
AcDbLayerTableRecord
  2
INTF_3
 70
0
 62
7
  6
CONTINUOUS
370
-3
390
F
  0
LAYER
  5
20A
100
AcDbSymbolTableRecord
100
AcDbLayerTableRecord
  2
NOTE
 70
0
 62
7
  6
CONTINUOUS
370
-3
390
F
  0
LAYER
  5
20B
100
AcDbSymbolTableRecord
100
AcDbLayerTableRecord
  2
PIANI
 70
0
 62
7
  6
CONTINUOUS
370
-3
390
F
  0
LAYER
  5
20C
100
AcDbSymbolTableRecord
100
AcDbLayerTableRecord
  2
PIANI_ORIGINE
 70
0
 62
7
  6
CONTINUOUS
370
-3
390
F
  0
LAYER
  5
20D
100
AcDbSymbolTableRecord
100
AcDbLayerTableRecord
  2
PIANI_RIFERIMENTO
 70
0
 62
7
  6
CONTINUOUS
370
-3
390
F
  0
LAYER
  5
20E
100
AcDbSymbolTableRecord
100
AcDbLayerTableRecord
  2
PUNTI
 70
0
 62
7
  6
CONTINUOUS
370
-3
390
F
  0
LAYER
  5
20F
100
AcDbSymbolTableRecord
100
AcDbLayerTableRecord
  2
RACCORDO
 70
0
 62
7
  6
CONTINUOUS
370
-3
390
F
  0
LAYER
  5
210
100
AcDbSymbolTableRecord
100
AcDbLayerTableRecord
  2
SIMBOLI
 70
0
 62
7
  6
CONTINUOUS
370
-3
390
F
  0
LAYER
  5
211
100
AcDbSymbolTableRecord
100
AcDbLayerTableRecord
  2
SMUSSO
 70
0
 62
7
  6
CONTINUOUS
370
-3
390
F
  0
LAYER
  5
212
100
AcDbSymbolTableRecord
100
AcDbLayerTableRecord
  2
SNAPLINE
 70
0
 62
7
  6
CONTINUOUS
370
-3
390
F
  0
LAYER
  5
213
100
AcDbSymbolTableRecord
100
AcDbLayerTableRecord
  2
SUPERFICI
 70
0
 62
7
  6
CONTINUOUS
370
-3
390
F
  0
LAYER
  5
214
100
AcDbSymbolTableRecord
100
AcDbLayerTableRecord
  2
TRASH
 70
0
 62
7
  6
CONTINUOUS
370
-3
390
F
  0
LAYER
  5
215
100
AcDbSymbolTableRecord
100
AcDbLayerTableRecord
  2
XSEC_DATUMS
 70
0
 62
7
  6
CONTINUOUS
370
-3
390
F
  0
LAYER
  5
216
100
AcDbSymbolTableRecord
100
AcDbLayerTableRecord
  2
___SHELL
 70
0
 62
7
  6
CONTINUOUS
370
-3
390
F
  0
ENDTAB
  0
TABLE
  2
STYLE
  5
3
100
AcDbSymbolTable
 70
1
  0
STYLE
  5
11
100
AcDbSymbolTableRecord
100
AcDbTextStyleTableRecord
  2
STANDARD
 70
0
 40
0.0
 41
0.8
 50
0.0
 71
0
 42
0.2
  3
txt
  4

  0
STYLE
  5
217
100
AcDbSymbolTableRecord
100
AcDbTextStyleTableRecord
  2
TEXTSTYLE_1
 70
0
 40
0.0
 41
0.8
 50
0.0
 71
0
 42
0.2
  3
gdt
  4

  0
ENDTAB
  0
TABLE
  2
VIEW
  5
6
100
AcDbSymbolTable
 70
0
  0
ENDTAB
  0
TABLE
  2
UCS
  5
7
100
AcDbSymbolTable
 70
0
  0
ENDTAB
  0
TABLE
  2
APPID
  5
9
100
AcDbSymbolTable
 70
1
  0
APPID
  5
218
100
AcDbSymbolTableRecord
100
AcDbRegAppTableRecord
  2
ACAD
 70
0
  0
ENDTAB
  0
TABLE
  2
BLOCK_RECORD
  5
1
100
AcDbSymbolTable
 70
0
  0
BLOCK_RECORD
  5
219
100
AcDbSymbolTableRecord
100
AcDbBlockTableRecord
  2
*Model_Space
  0
BLOCK_RECORD
  5
21A
100
AcDbSymbolTableRecord
100
AcDbBlockTableRecord
  2
*Paper_Space
  0
BLOCK_RECORD
  5
21B
100
AcDbSymbolTableRecord
100
AcDbBlockTableRecord
  2
_FILLED
  0
BLOCK_RECORD
  5
21C
100
AcDbSymbolTableRecord
100
AcDbBlockTableRecord
  2
*D0
  0
BLOCK_RECORD
  5
21D
100
AcDbSymbolTableRecord
100
AcDbBlockTableRecord
  2
*D1
  0
BLOCK_RECORD
  5
21E
100
AcDbSymbolTableRecord
100
AcDbBlockTableRecord
  2
*D2
  0
BLOCK_RECORD
  5
21F
100
AcDbSymbolTableRecord
100
AcDbBlockTableRecord
  2
*D3
  0
ENDTAB
  0
TABLE
  2
DIMSTYLE
  5
A
100
AcDbSymbolTable
 70
1
100
AcDbDimStyleTable
 71
0
  0
DIMSTYLE
105
220
100
AcDbSymbolTableRecord
100
AcDbDimStyleTableRecord
  2
STANDARD
 70
0
  3

  4

 40
1.0
 41
3.0
 42
0.0625
 43
0.38
 44
0.18
 45
0.0
 46
0.0
 47
0.01
 48
0.01
140
3.0
141
0.09
142
0.0
143
25.4
144
1.0
145
0.0
146
1.0
147
0.09
 71
1.0
 72
0.0
 73
0
 74
0
 75
0
 76
0
 77
1
 78
8
170
0
171
2
172
0
173
0
174
0
175
0
176
0
177
0
178
0
270
2
271
2
272
2
273
2
274
2
275
0
280
0
281
0
282
0
283
1
284
8
285
0
286
0
287
3
288
0
340
11
341
21B
342
21B
343
21B
344
21B
  0
DIMSTYLE
105
221
100
AcDbSymbolTableRecord
100
AcDbDimStyleTableRecord
  2
DIMSTYLE_1
 70
0
  3

  4

 40
1.0
 41
3.0
 42
0.0625
 43
0.38
 44
0.18
 45
0.0
 46
0.0
 47
0.0
 48
0.0
140
3.0
141
0.09
142
0.0
143
25.4
144
1.0
145
0.0
146
1.0
147
0.09
 71
0.0
 72
0.0
 73
0
 74
0
 75
0
 76
0
 77
1
 78
8
170
0
171
2
172
0
173
0
174
0
175
0
176
0
177
0
178
0
270
2
271
2
272
2
273
2
274
2
275
0
280
0
281
0
282
0
283
1
284
8
285
0
286
0
287
3
288
0
340
11
341
21B
342
21B
343
21B
344
21B
  0
DIMSTYLE
105
222
100
AcDbSymbolTableRecord
100
AcDbDimStyleTableRecord
  2
DIMSTYLE_2
 70
0
  3

  4

 40
1.0
 41
3.0
 42
0.0625
 43
0.38
 44
0.18
 45
0.0
 46
0.0
 47
0.0
 48
0.0
140
3.0
141
0.09
142
0.0
143
25.4
144
1.0
145
0.0
146
1.0
147
0.09
 71
0.0
 72
0.0
 73
0
 74
0
 75
0
 76
0
 77
1
 78
8
170
0
171
2
172
0
173
0
174
0
175
0
176
0
177
0
178
0
270
2
271
1
272
1
273
2
274
2
275
0
280
0
281
0
282
0
283
1
284
8
285
0
286
0
287
3
288
0
340
11
341
21B
342
21B
343
21B
344
21B
  0
ENDTAB
  0
ENDSEC
  0
SECTION
  2
BLOCKS
  0
BLOCK
  5
20
100
AcDbEntity
  8
0
100
AcDbBlockBegin
  2
*Model_Space
 70
0
 10
0.0
 20
0.0
 30
0.0
  3
*Model_Space
  1

  0
ENDBLK
  5
21
100
AcDbEntity
  8
0
100
AcDbBlockEnd
  0
BLOCK
  5
1C
100
AcDbEntity
  8
0
100
AcDbBlockBegin
  2
*Paper_Space
 70
0
 10
0.0
 20
0.0
 30
0.0
  3
*Paper_Space
  1

  0
ENDBLK
  5
1D
100
AcDbEntity
  8
0
100
AcDbBlockEnd
  0
BLOCK
  5
223
100
AcDbEntity
  8
0
100
AcDbBlockBegin
  2
_FILLED
 70
64
 10
0.0
 20
0.0
  3
_FILLED
  1

  0
SOLID
  5
224
100
AcDbEntity
  8
0
  6
BYBLOCK
 62
0
100
AcDbTrace
 10
0.0
 20
0.0
 11
-1.0
 21
0.3166666667
 12
-1.0
 22
-0.3166666667
 13
-1.0
 23
-0.3166666667
  0
ENDBLK
  5
225
100
AcDbEntity
  8
0
  6
BYBLOCK
 62
0
100
AcDbBlockEnd
  0
BLOCK
  5
226
100
AcDbEntity
  8
0
100
AcDbBlockBegin
 62
7
  6
CONTINUOUS
  2
*D0
 70
65
 10
0.0
 20
0.0
  3
*D0
  1

  0
MTEXT
  5
227
100
AcDbEntity
  8
0
100
AcDbMText
 62
7
  6
CONTINUOUS
  7
STANDARD
 71
2
 72
1
 10
189.2342851042
 20
101.1823382277
 30
0.0
 11
0.0
 21
1.0
 31
0.0
 44
0.9
  1
49
 40
3.0
 41
4.7142857143
  0
LINE
  5
228
100
AcDbEntity
  8
0
100
AcDbLine
 62
7
  6
CONTINUOUS
 10
179.4876942646
 20
125.6823382277
 11
194.4842851042
 21
125.6823382277
  0
LINE
  5
229
100
AcDbEntity
  8
0
100
AcDbLine
 62
7
  6
CONTINUOUS
 10
179.4876942646
 20
76.6823382277
 11
194.4842851042
 21
76.6823382277
  0
LINE
  5
22A
100
AcDbEntity
  8
0
100
AcDbLine
 62
7
  6
CONTINUOUS
 10
192.9842851042
 20
125.6823382277
 11
192.9842851042
 21
101.1823382277
  0
LINE
  5
22B
100
AcDbEntity
  8
0
100
AcDbLine
 62
7
  6
CONTINUOUS
 10
192.9842851042
 20
76.6823382277
 11
192.9842851042
 21
101.1823382277
  0
INSERT
  5
22C
100
AcDbEntity
  8
0
100
AcDbBlockReference
 62
7
  6
CONTINUOUS
  2
_FILLED
 10
192.9842851042
 20
125.6823382277
 41
3.0
 42
3.0
 43
3.0
 50
90.0
  0
INSERT
  5
22D
100
AcDbEntity
  8
0
100
AcDbBlockReference
 62
7
  6
CONTINUOUS
  2
_FILLED
 10
192.9842851042
 20
76.6823382277
 41
3.0
 42
3.0
 43
3.0
 50
270.0
  0
ENDBLK
  5
22E
100
AcDbEntity
  8
0
  6
BYBLOCK
 62
0
100
AcDbBlockEnd
  0
BLOCK
  5
22F
100
AcDbEntity
  8
0
100
AcDbBlockBegin
 62
7
  6
CONTINUOUS
  2
*D1
 70
65
 10
0.0
 20
0.0
  3
*D1
  1

  0
MTEXT
  5
230
100
AcDbEntity
  8
0
100
AcDbMText
 62
7
  6
CONTINUOUS
  7
STANDARD
 71
2
 72
1
 10
156.270158782
 20
140.0268563507
 30
0.0
 11
1.0
 21
0.0
 31
0.0
 44
0.9
  1
44,6
 40
3.0
 41
8.7857142857
  0
LINE
  5
231
100
AcDbEntity
  8
0
100
AcDbLine
 62
7
  6
CONTINUOUS
 10
180.2381263772
 20
123.5823551507
 11
180.2381263772
 21
137.7768563507
  0
LINE
  5
232
100
AcDbEntity
  8
0
100
AcDbLine
 62
7
  6
CONTINUOUS
 10
135.6876900338
 20
123.2825095652
 11
135.6876900338
 21
137.7768563507
  0
LINE
  5
233
100
AcDbEntity
  8
0
100
AcDbLine
 62
7
  6
CONTINUOUS
 10
180.2381263772
 20
136.2768563507
 11
157.9629082055
 21
136.2768563507
  0
LINE
  5
234
100
AcDbEntity
  8
0
100
AcDbLine
 62
7
  6
CONTINUOUS
 10
135.6876900338
 20
136.2768563507
 11
157.9629082055
 21
136.2768563507
  0
INSERT
  5
235
100
AcDbEntity
  8
0
100
AcDbBlockReference
 62
7
  6
CONTINUOUS
  2
_FILLED
 10
180.2381263772
 20
136.2768563507
 41
3.0
 42
3.0
 43
3.0
  0
INSERT
  5
236
100
AcDbEntity
  8
0
100
AcDbBlockReference
 62
7
  6
CONTINUOUS
  2
_FILLED
 10
135.6876900338
 20
136.2768563507
 41
3.0
 42
3.0
 43
3.0
 50
180.0
  0
ENDBLK
  5
237
100
AcDbEntity
  8
0
  6
BYBLOCK
 62
0
100
AcDbBlockEnd
  0
BLOCK
  5
238
100
AcDbEntity
  8
0
100
AcDbBlockBegin
 62
7
  6
CONTINUOUS
  2
*D2
 70
65
 10
0.0
 20
0.0
  3
*D2
  1

  0
MTEXT
  5
239
100
AcDbEntity
  8
0
100
AcDbMText
 62
7
  6
CONTINUOUS
  7
STANDARD
 71
2
 72
1
 10
117.0341522797
 20
140.0268563507
 30
0.0
 11
1.0
 21
0.0
 31
0.0
 44
0.9
  1
11
 40
3.0
 41
3.4285714286
  0
LINE
  5
23A
100
AcDbEntity
  8
0
100
AcDbLine
 62
7
  6
CONTINUOUS
 10
122.5341522797
 20
122.5823382277
 11
122.5341522797
 21
137.7768563507
  0
LINE
  5
23B
100
AcDbEntity
  8
0
100
AcDbLine
 62
7
  6
CONTINUOUS
 10
111.5341522797
 20
125.9279706244
 11
111.5341522797
 21
137.7768563507
  0
LINE
  5
23C
100
AcDbEntity
  8
0
100
AcDbLine
 62
7
  6
CONTINUOUS
 10
122.5341522797
 20
136.2768563507
 11
126.5341522797
 21
136.2768563507
  0
LINE
  5
23D
100
AcDbEntity
  8
0
100
AcDbLine
 62
7
  6
CONTINUOUS
 10
126.5341522797
 20
136.2768563507
 11
117.0341522797
 21
136.2768563507
  0
LINE
  5
23E
100
AcDbEntity
  8
0
100
AcDbLine
 62
7
  6
CONTINUOUS
 10
111.5341522797
 20
136.2768563507
 11
107.5341522797
 21
136.2768563507
  0
LINE
  5
23F
100
AcDbEntity
  8
0
100
AcDbLine
 62
7
  6
CONTINUOUS
 10
107.5341522797
 20
136.2768563507
 11
117.0341522797
 21
136.2768563507
  0
INSERT
  5
240
100
AcDbEntity
  8
0
100
AcDbBlockReference
 62
7
  6
CONTINUOUS
  2
_FILLED
 10
122.5341522797
 20
136.2768563507
 41
3.0
 42
3.0
 43
3.0
 50
180.0
  0
INSERT
  5
241
100
AcDbEntity
  8
0
100
AcDbBlockReference
 62
7
  6
CONTINUOUS
  2
_FILLED
 10
111.5341522797
 20
136.2768563507
 41
3.0
 42
3.0
 43
3.0
  0
ENDBLK
  5
242
100
AcDbEntity
  8
0
  6
BYBLOCK
 62
0
100
AcDbBlockEnd
  0
BLOCK
  5
243
100
AcDbEntity
  8
0
100
AcDbBlockBegin
 62
7
  6
CONTINUOUS
  2
*D3
 70
65
 10
0.0
 20
0.0
  3
*D3
  1

  0
MTEXT
  5
244
100
AcDbEntity
  8
0
100
AcDbMText
 62
7
  6
CONTINUOUS
  7
STANDARD
 71
2
 72
1
 10
111.3841436448
 20
150.0268563507
 30
0.0
 11
1.0
 21
0.0
 31
0.0
 44
0.9
  1
22,3
 40
3.0
 41
8.5714285714
  0
LINE
  5
245
100
AcDbEntity
  8
0
100
AcDbLine
 62
7
  6
CONTINUOUS
 10
122.5341522797
 20
122.5823382277
 11
122.5341522797
 21
147.7768563507
  0
LINE
  5
246
100
AcDbEntity
  8
0
100
AcDbLine
 62
7
  6
CONTINUOUS
 10
100.2341350098
 20
101.6823382277
 11
100.2341350098
 21
147.7768563507
  0
LINE
  5
247
100
AcDbEntity
  8
0
100
AcDbLine
 62
7
  6
CONTINUOUS
 10
122.5341522797
 20
146.2768563507
 11
111.3841436448
 21
146.2768563507
  0
LINE
  5
248
100
AcDbEntity
  8
0
100
AcDbLine
 62
7
  6
CONTINUOUS
 10
100.2341350098
 20
146.2768563507
 11
111.3841436448
 21
146.2768563507
  0
INSERT
  5
249
100
AcDbEntity
  8
0
100
AcDbBlockReference
 62
7
  6
CONTINUOUS
  2
_FILLED
 10
122.5341522797
 20
146.2768563507
 41
3.0
 42
3.0
 43
3.0
  0
INSERT
  5
24A
100
AcDbEntity
  8
0
100
AcDbBlockReference
 62
7
  6
CONTINUOUS
  2
_FILLED
 10
100.2341350098
 20
146.2768563507
 41
3.0
 42
3.0
 43
3.0
 50
180.0
  0
ENDBLK
  5
24B
100
AcDbEntity
  8
0
  6
BYBLOCK
 62
0
100
AcDbBlockEnd
  0
ENDSEC
  0
SECTION
  2
ENTITIES
  0
DIMENSION
  5
24C
100
AcDbEntity
  8
0
100
AcDbDimension
 62
7
  6
CONTINUOUS
  2
*D0
 10
192.9842851042
 20
76.6823382277
 11
191.790458628
 21
99.0750603777
 70
160
 71
2
 42
49.0
  3
DIMSTYLE_1
100
AcDbAlignedDimension
 13
179.4876942646
 23
125.6823382277
 14
179.4876942646
 24
76.6823382277
 50
270.0
100
AcDbRotatedDimension
  0
DIMENSION
  5
24D
100
AcDbEntity
  8
0
100
AcDbDimension
 62
7
  6
CONTINUOUS
  2
*D1
 10
135.6876900338
 20
136.2768563507
 11
151.8773016391
 21
138.5268563507
 70
160
 71
2
 42
44.5504363434
  3
DIMSTYLE_2
100
AcDbAlignedDimension
 13
180.2381263772
 23
123.5823551507
 14
135.6876900338
 24
123.2825095652
 50
180.0
100
AcDbRotatedDimension
  0
DIMENSION
  5
24E
100
AcDbEntity
  8
0
100
AcDbDimension
 62
7
  6
CONTINUOUS
  2
*D2
 10
111.5341522797
 20
136.2768563507
 11
115.3198665654
 21
138.5268563507
 70
160
 71
2
 42
11.0
  3
DIMSTYLE_1
100
AcDbAlignedDimension
 13
122.5341522797
 23
122.5823382277
 14
111.5341522797
 24
125.9279706244
 50
180.0
100
AcDbRotatedDimension
  0
DIMENSION
  5
24F
100
AcDbEntity
  8
0
100
AcDbDimension
 62
7
  6
CONTINUOUS
  2
*D3
 10
100.2341350098
 20
146.2768563507
 11
107.0984293591
 21
148.5268563507
 70
160
 71
2
 42
22.3000172699
  3
DIMSTYLE_1
100
AcDbAlignedDimension
 13
122.5341522797
 23
122.5823382277
 14
100.2341350098
 24
101.6823382277
 50
180.0
100
AcDbRotatedDimension
  0
LINE
  5
250
100
AcDbEntity
  8
0
100
AcDbLine
 62
7
  6
CONTINUOUS
 10
179.8664344666
 20
78.7993532193
 11
179.8482903644
 21
78.7948518665
  0
LINE
  5
251
100
AcDbEntity
  8
0
100
AcDbLine
 62
7
  6
CONTINUOUS
 10
179.8493366663
 20
78.7948607649
 11
179.8675006467
 21
78.7993653744
  0
LINE
  5
252
100
AcDbEntity
  8
0
100
AcDbLine
 62
7
  6
CONTINUOUS
 10
179.8493366663
 20
78.7948607649
 11
179.8299505392
 21
78.7910353914
  0
LINE
  5
253
100
AcDbEntity
  8
0
100
AcDbLine
 62
7
  6
CONTINUOUS
 10
179.8310117163
 20
78.7910415417
 11
179.8114440326
 21
78.7878989404
  0
LINE
  5
254
100
AcDbEntity
  8
0
100
AcDbLine
 62
7
  6
CONTINUOUS
 10
179.7929448546
 20
78.7854593181
 11
179.8125202492
 21
78.7879028338
  0
LWPOLYLINE
  5
255
100
AcDbEntity
  8
0
100
AcDbPolyline
 62
7
  6
CONTINUOUS
 90
33
 70
0
 10
167.9051213731
 20
77.1830993177
 10
167.9137955488
 20
77.1840493208
 10
167.9224200248
 20
77.1853767912
 10
167.9309783836
 20
77.1870792012
 10
167.9394543339
 20
77.1891533093
 10
167.9478317414
 20
77.1915951668
 10
167.9560946589
 20
77.1944001248
 10
167.9642273576
 20
77.1975628428
 10
167.9722143564
 20
77.2010772999
 10
167.9800404517
 20
77.2049368055
 10
167.9876907462
 20
77.2091340117
 10
167.9951506771
 20
77.2136609283
 10
168.0024060445
 20
77.2185089376
 10
168.0094430374
 20
77.2236688098
 10
168.0162482609
 20
77.2291307225
 10
168.0228087613
 20
77.2348842783
 10
168.0291120507
 20
77.2409185234
 10
168.0351461309
 20
77.2472219713
 10
168.0408995162
 20
77.2537826227
 10
168.0463612555
 20
77.2605879876
 10
168.0515209525
 20
77.2676251117
 10
168.0563687862
 20
77.2748805995
 10
168.0608955293
 20
77.2823406384
 10
168.0650925655
 20
77.289991028
 10
168.0689519064
 20
77.2978172057
 10
168.0724662064
 20
77.305804273
 10
168.0756287765
 20
77.3139370262
 10
168.0784335974
 20
77.3221999849
 10
168.0808753309
 20
77.3305774193
 10
168.0829493297
 20
77.339053383
 10
168.0846516466
 20
77.3476117422
 10
168.085979042
 20
77.3562362054
 10
168.0869289898
 20
77.3649103558
  0
LINE
  5
256
100
AcDbEntity
  8
0
100
AcDbLine
 62
7
  6
CONTINUOUS
 10
179.7745110085
 20
78.7837221259
 11
179.7939328188
 21
78.785461466
  0
LINE
  5
257
100
AcDbEntity
  8
0
100
AcDbLine
 62
7
  6
CONTINUOUS
 10
179.7560844911
 20
78.7826817624
 11
179.7752729432
 21
78.7837230465
  0
LWPOLYLINE
  5
258
100
AcDbEntity
  8
RACCORDO
100
AcDbPolyline
 62
253
  6
CONTINUOUS
 90
16
 70
0
 10
179.3669580444
 20
79.2032415545
 10
179.4191823756
 20
79.206013142
 10
179.4708349396
 20
79.2142259774
 10
179.5213503029
 20
79.2277901333
 10
179.5701755004
 20
79.2465571098
 10
179.61677604
 20
79.2703214427
 10
179.6606417613
 20
79.2988229375
 10
179.7012924881
 20
79.3317495546
 10
179.738283261
 20
79.3687408307
 10
179.7712091696
 20
79.4093917913
 10
179.7997098149
 20
79.4532574076
 10
179.8234732577
 20
79.4998574864
 10
179.8422394154
 20
79.5486819141
 10
179.8558029033
 20
79.5991962272
 10
179.864015286
 20
79.6508474611
 10
179.8667867069
 20
79.703070217
  0
LWPOLYLINE
  5
259
100
AcDbEntity
  8
0
100
AcDbPolyline
 62
7
  6
CONTINUOUS
 90
33
 70
0
 10
167.8876900338
 20
77.1840903459
 10
167.8972078027
 20
77.1843169403
 10
167.9067040191
 20
77.1849962112
 10
167.9161571644
 20
77.1861266217
 10
167.9255458238
 20
77.1877056133
 10
167.934848716
 20
77.1897296097
 10
167.9440447419
 20
77.192194021
 10
167.953113058
 20
77.1950932605
 10
167.9620331212
 20
77.1984207593
 10
167.9707847164
 20
77.2021689754
 10
167.9793480148
 20
77.2063294156
 10
167.9877036103
 20
77.2108926507
 10
167.9958325629
 20
77.215848335
 10
168.0037164514
 20
77.2211852357
 10
168.0113374146
 20
77.2268912589
 10
168.0186781841
 20
77.2329534727
 10
168.0257221326
 20
77.2393581434
 10
168.0324532949
 20
77.2460907523
 10
168.0388564055
 20
77.2531360253
 10
168.0449169421
 20
77.2604779724
 10
168.0506211958
 20
77.2680999745
 10
168.0559562794
 20
77.2759848103
 10
168.0609101448
 20
77.2841146908
 10
168.0654715133
 20
77.2924711251
 10
168.0696299639
 20
77.3010349994
 10
168.0733760499
 20
77.3097867825
 10
168.0767013636
 20
77.3187067461
 10
168.0795984438
 20
77.3277748415
 10
168.0820610846
 20
77.3369720011
 10
168.0840832072
 20
77.346275944
 10
168.0856596052
 20
77.3556612431
 10
168.0867871867
 20
77.3651050886
 10
168.0874642986
 20
77.3745874845
  0
LWPOLYLINE
  5
25A
100
AcDbEntity
  8
0
100
AcDbPolyline
 62
7
  6
CONTINUOUS
 90
3
 70
0
 10
167.8876900338
 20
77.1823382277
 10
167.8964140097
 20
77.182528591
 10
167.9051213731
 20
77.1830993177
  0
LINE
  5
25B
100
AcDbEntity
  8
0
100
AcDbLine
 62
7
  6
CONTINUOUS
 10
179.7376653023
 20
78.7823382277
 11
179.7565171044
 21
78.7826819671
  0
LWPOLYLINE
  5
25C
100
AcDbEntity
  8
0
100
AcDbPolyline
 62
7
  6
CONTINUOUS
 90
46
 70
0
 10
176.5949665519
 20
78.0596884968
 10
176.5854448416
 20
78.0595483566
 10
176.5759512617
 20
78.0592031481
 10
176.5664994538
 20
78.0586528711
 10
176.5570903061
 20
78.0578927796
 10
176.5477498687
 20
78.0569276198
 10
176.538528515
 20
78.0557716301
 10
176.529451139
 20
78.0544243893
 10
176.5205157815
 20
78.0528863186
 10
176.5117310612
 20
78.0511729208
 10
176.5031073193
 20
78.0492839259
 10
176.4946542475
 20
78.0472196037
 10
176.4863788659
 20
78.0449962665
 10
176.4782900252
 20
78.0426137689
 10
176.4703959547
 20
78.0400722562
 10
176.4627022042
 20
78.0373884763
 10
176.4552162105
 20
78.034562385
 10
176.4479448332
 20
78.0315940265
 10
176.4408923135
 20
78.0285002816
 10
176.4340647541
 20
78.0252811745
 10
176.4274677649
 20
78.0219366811
 10
176.4211044961
 20
78.0184836092
 10
176.4149798223
 20
78.0149220271
 10
176.4090982004
 20
78.0112518665
 10
176.4034618811
 20
78.0074897307
 10
176.3980746136
 20
78.0036357144
 10
176.3929397895
 20
77.9996897228
 10
176.3880589085
 20
77.9956680744
 10
176.383434688
 20
77.9915708803
 10
176.3790695305
 20
77.9873980294
 10
176.3749642869
 20
77.9831655076
 10
176.3711207242
 20
77.9788734377
 10
176.3675403209
 20
77.9745216969
 10
176.3642233386
 20
77.9701259028
 10
176.3611706619
 20
77.9656861902
 10
176.3583829019
 20
77.9612024244
 10
176.3558597576
 20
77.9566898192
 10
176.3536012898
 20
77.9521485259
 10
176.3516072908
 20
77.9475783932
 10
176.3498769009
 20
77.9429941809
 10
176.3484094072
 20
77.9383960618
 10
176.3472038315
 20
77.9337838631
 10
176.3462587527
 20
77.9291718264
 10
176.3455727043
 20
77.9245646988
 10
176.3451440387
 20
77.9199577332
 10
176.3449707827
 20
77.9153509295
  0
LINE
  5
25D
100
AcDbEntity
  8
0
100
AcDbLine
 62
7
  6
CONTINUOUS
 10
159.187685803
 20
76.6823382277
 11
161.5876942646
 21
76.6823382277
  0
LINE
  5
25E
100
AcDbEntity
  8
0
100
AcDbLine
 62
7
  6
CONTINUOUS
 10
176.587685803
 20
76.6823382277
 11
178.9876942646
 21
76.6823382277
  0
LINE
  5
25F
100
AcDbEntity
  8
0
100
AcDbLine
 62
253
  6
CONTINUOUS
 10
159.2007843817
 20
76.6954368064
 11
161.5745956859
 21
76.6954368064
  0
LINE
  5
260
100
AcDbEntity
  8
0
100
AcDbLine
 62
253
  6
CONTINUOUS
 10
176.6007843817
 20
76.6954368064
 11
178.9745956859
 21
76.6954368064
  0
LINE
  5
261
100
AcDbEntity
  8
0
100
AcDbLine
 62
253
  6
CONTINUOUS
 10
158.9507886125
 20
76.9454325756
 11
161.8245914551
 21
76.9454325756
  0
LINE
  5
262
100
AcDbEntity
  8
0
100
AcDbLine
 62
253
  6
CONTINUOUS
 10
176.3507886125
 20
76.9454325756
 11
179.2245914551
 21
76.9454325756
  0
LINE
  5
263
100
AcDbEntity
  8
0
100
AcDbLine
 62
7
  6
CONTINUOUS
 10
173.5376900338
 20
77.1823382277
 11
170.2876900338
 21
77.1823382277
  0
LINE
  5
264
100
AcDbEntity
  8
0
100
AcDbLine
 62
7
  6
CONTINUOUS
 10
167.8876900338
 20
77.1823382277
 11
164.6376900338
 21
77.1823382277
  0
LINE
  5
265
100
AcDbEntity
  8
0
100
AcDbLine
 62
253
  6
CONTINUOUS
 10
165.5876900338
 20
77.1840903459
 11
167.8876900338
 21
77.1840903459
  0
LINE
  5
266
100
AcDbEntity
  8
0
100
AcDbLine
 62
253
  6
CONTINUOUS
 10
170.2876900338
 20
77.1840903459
 11
172.5876900338
 21
77.1840903459
  0
LINE
  5
267
100
AcDbEntity
  8
0
100
AcDbLine
 62
7
  6
CONTINUOUS
 10
173.5289632891
 20
77.1910649724
 11
172.5876900338
 21
77.1910649724
  0
LINE
  5
268
100
AcDbEntity
  8
0
100
AcDbLine
 62
7
  6
CONTINUOUS
 10
165.5876900338
 20
77.1910649724
 11
164.6464167785
 21
77.1910649724
  0
LINE
  5
269
100
AcDbEntity
  8
0
100
AcDbLine
 62
253
  6
CONTINUOUS
 10
158.9507886125
 20
77.3380006604
 11
161.8245914551
 21
77.3380006604
  0
LINE
  5
26A
100
AcDbEntity
  8
0
100
AcDbLine
 62
253
  6
CONTINUOUS
 10
176.3507886125
 20
77.3380006604
 11
179.2245914551
 21
77.3380006604
  0
LINE
  5
26B
100
AcDbEntity
  8
0
100
AcDbLine
 62
253
  6
CONTINUOUS
 10
165.5876900338
 20
77.3840869613
 11
168.0876900338
 21
77.3840869613
  0
LINE
  5
26C
100
AcDbEntity
  8
0
100
AcDbLine
 62
253
  6
CONTINUOUS
 10
170.0876900338
 20
77.3840869613
 11
172.5876900338
 21
77.3840869613
  0
LINE
  5
26D
100
AcDbEntity
  8
0
100
AcDbLine
 62
253
  6
CONTINUOUS
 10
178.9745956859
 20
77.5545070113
 11
176.6007843817
 21
77.5545070113
  0
LINE
  5
26E
100
AcDbEntity
  8
0
100
AcDbLine
 62
253
  6
CONTINUOUS
 10
161.5745956859
 20
77.5545070113
 11
159.2007843817
 21
77.5545070113
  0
LINE
  5
26F
100
AcDbEntity
  8
0
100
AcDbLine
 62
7
  6
CONTINUOUS
 10
178.9804135157
 20
78.0596884968
 11
176.5949665519
 21
78.0596884968
  0
LINE
  5
270
100
AcDbEntity
  8
0
100
AcDbLine
 62
7
  6
CONTINUOUS
 10
159.1949665519
 20
78.0596884968
 11
161.5804135157
 21
78.0596884968
  0
LWPOLYLINE
  5
271
100
AcDbEntity
  8
0
100
AcDbPolyline
 62
7
  6
CONTINUOUS
 90
36
 70
0
 10
170.2876900338
 20
77.1823382277
 10
170.2789660579
 20
77.182528591
 10
170.2702586945
 20
77.1830993177
 10
170.2615845187
 20
77.1840493208
 10
170.2529600428
 20
77.1853767912
 10
170.244401684
 20
77.1870792012
 10
170.2359257336
 20
77.1891533093
 10
170.2275483262
 20
77.1915951668
 10
170.2192854086
 20
77.1944001248
 10
170.21115271
 20
77.1975628428
 10
170.2031657112
 20
77.2010772999
 10
170.1953396158
 20
77.2049368055
 10
170.1876893214
 20
77.2091340117
 10
170.1802293904
 20
77.2136609283
 10
170.1729740231
 20
77.2185089376
 10
170.1659370302
 20
77.2236688098
 10
170.1591318067
 20
77.2291307225
 10
170.1525713063
 20
77.2348842783
 10
170.1462680169
 20
77.2409185234
 10
170.1402339367
 20
77.2472219713
 10
170.1344805513
 20
77.2537826227
 10
170.1290188121
 20
77.2605879876
 10
170.1238591151
 20
77.2676251117
 10
170.1190112813
 20
77.2748805995
 10
170.1144845383
 20
77.2823406384
 10
170.110287502
 20
77.289991028
 10
170.1064281612
 20
77.2978172057
 10
170.1029138612
 20
77.305804273
 10
170.0997512911
 20
77.3139370262
 10
170.0969464702
 20
77.3221999849
 10
170.0945047367
 20
77.3305774193
 10
170.0924307379
 20
77.339053383
 10
170.0907284209
 20
77.3476117422
 10
170.0894010255
 20
77.3562362054
 10
170.0884510777
 20
77.3649103558
 10
170.0878803853
 20
77.3736176828
  0
LWPOLYLINE
  5
272
100
AcDbEntity
  8
0
100
AcDbPolyline
 62
7
  6
CONTINUOUS
 90
34
 70
0
 10
159.187685803
 20
76.6823382277
 10
159.1757905178
 20
76.6826213779
 10
159.1639221782
 20
76.6834701934
 10
159.1521076676
 20
76.6848827535
 10
159.1403737463
 20
76.6868558599
 10
159.128746995
 20
76.6893850459
 10
159.1172537548
 20
76.6924645859
 10
159.10592006
 20
76.6960875063
 10
159.0947715845
 20
76.7002456019
 10
159.0838335875
 20
76.7049294555
 10
159.0731308462
 20
76.7101284588
 10
159.0626876055
 20
76.715830836
 10
159.0525275279
 20
76.7220236695
 10
159.0426736287
 20
76.7286929322
 10
159.0331482299
 20
76.7358235169
 10
159.0239729147
 20
76.7433992688
 10
159.0151684677
 20
76.7514030272
 10
159.0067548333
 20
76.7598166616
 10
158.9987510749
 20
76.7686211086
 10
158.9911753231
 20
76.7777964238
 10
158.9840447383
 20
76.7873218225
 10
158.9773754756
 20
76.7971757217
 10
158.9711826421
 20
76.8073357994
 10
158.965480265
 20
76.8177790401
 10
158.9602812616
 20
76.8284817814
 10
158.955597408
 20
76.8394197784
 10
158.9514393124
 20
76.8505682539
 10
158.9478163921
 20
76.8619019486
 10
158.9447368521
 20
76.8733951888
 10
158.9422076661
 20
76.8850219402
 10
158.9402345596
 20
76.8967558615
 10
158.9388219995
 20
76.9085703721
 10
158.937973184
 20
76.9204387116
 10
158.9376900338
 20
76.9323339969
  0
LWPOLYLINE
  5
273
100
AcDbEntity
  8
0
100
AcDbPolyline
 62
253
  6
CONTINUOUS
 90
34
 70
0
 10
159.2007843817
 20
76.6954368064
 10
159.1889089102
 20
76.695719426
 10
159.1770551676
 20
76.6965663278
 10
159.1652499921
 20
76.6979763238
 10
159.1535184975
 20
76.6999472698
 10
159.1418890622
 20
76.7024752597
 10
159.1303930966
 20
76.7055538383
 10
159.1190583315
 20
76.709175448
 10
159.1079087195
 20
76.7133323024
 10
159.0969693184
 20
76.7180150761
 10
159.0862647836
 20
76.7232132614
 10
159.0758195301
 20
76.7289150499
 10
159.0656574545
 20
76.7351074123
 10
159.0558016698
 20
76.7417762495
 10
159.0462744083
 20
76.7489065028
 10
159.0370971951
 20
76.7564820637
 10
159.0282908035
 20
76.7644857953
 10
159.0198752173
 20
76.7728995469
 10
159.0118695231
 20
76.7817042425
 10
159.0042918666
 20
76.7908799295
 10
158.9971594156
 20
76.8004058237
 10
158.9904883355
 20
76.8102603398
 10
158.9842937432
 20
76.8204211519
 10
158.9785896779
 20
76.8308652372
 10
158.9733890703
 20
76.8415689236
 10
158.968703706
 20
76.8525079571
 10
158.9645442017
 20
76.8636575535
 10
158.9609199845
 20
76.874992446
 10
158.9578392659
 20
76.886486957
 10
158.9553090289
 20
76.8981150364
 10
158.9533350103
 20
76.9098503161
 10
158.9519216815
 20
76.9216661984
 10
158.9510722414
 20
76.9335359166
 10
158.9507886125
 20
76.9454325756
  0
LWPOLYLINE
  5
274
100
AcDbEntity
  8
0
100
AcDbPolyline
 62
7
  6
CONTINUOUS
 90
34
 70
0
 10
176.587685803
 20
76.6823382277
 10
176.5757905178
 20
76.6826213779
 10
176.5639221782
 20
76.6834701934
 10
176.5521076676
 20
76.6848827535
 10
176.5403737463
 20
76.6868558599
 10
176.528746995
 20
76.6893850459
 10
176.5172537548
 20
76.6924645859
 10
176.50592006
 20
76.6960875063
 10
176.4947715845
 20
76.7002456019
 10
176.4838335875
 20
76.7049294555
 10
176.4731308462
 20
76.7101284588
 10
176.4626876055
 20
76.715830836
 10
176.4525275279
 20
76.7220236695
 10
176.4426736287
 20
76.7286929322
 10
176.4331482299
 20
76.7358235169
 10
176.4239729147
 20
76.7433992688
 10
176.4151684677
 20
76.7514030272
 10
176.4067548333
 20
76.7598166616
 10
176.3987510749
 20
76.7686211086
 10
176.3911753231
 20
76.7777964238
 10
176.3840447383
 20
76.7873218225
 10
176.3773754756
 20
76.7971757217
 10
176.3711826421
 20
76.8073357994
 10
176.365480265
 20
76.8177790401
 10
176.3602812616
 20
76.8284817814
 10
176.355597408
 20
76.8394197784
 10
176.3514393124
 20
76.8505682539
 10
176.3478163921
 20
76.8619019486
 10
176.3447368521
 20
76.8733951888
 10
176.3422076661
 20
76.8850219402
 10
176.3402345596
 20
76.8967558615
 10
176.3388219995
 20
76.9085703721
 10
176.337973184
 20
76.9204387116
 10
176.3376900338
 20
76.9323339969
  0
LWPOLYLINE
  5
275
100
AcDbEntity
  8
0
100
AcDbPolyline
 62
253
  6
CONTINUOUS
 90
34
 70
0
 10
176.6007843817
 20
76.6954368064
 10
176.5888893602
 20
76.6957203572
 10
176.5770212835
 20
76.6965695621
 10
176.5652070356
 20
76.6979824975
 10
176.5534733784
 20
76.6999559628
 10
176.5418468911
 20
76.7024854876
 10
176.5303539105
 20
76.705565342
 10
176.5190204707
 20
76.7091885494
 10
176.5078722445
 20
76.7133469024
 10
176.496934485
 20
76.7180309815
 10
176.4862319689
 20
76.7232301761
 10
176.4757889396
 20
76.728932709
 10
176.465629053
 20
76.7351256625
 10
176.4557753235
 20
76.7417950084
 10
176.4462500721
 20
76.7489256389
 10
176.4370748754
 20
76.7565014017
 10
176.4282705174
 20
76.7645051359
 10
176.419856942
 20
76.7729187113
 10
176.4118532078
 20
76.7817230693
 10
176.4042774451
 20
76.7908982659
 10
176.3971468145
 20
76.8004235174
 10
176.3904774687
 20
76.8102772469
 10
176.3842845151
 20
76.8204371335
 10
176.3785819823
 20
76.8308801628
 10
176.3733827876
 20
76.8415826789
 10
176.3686987085
 20
76.8525204383
 10
176.3645403555
 20
76.8636686646
 10
176.3609171481
 20
76.8750021044
 10
176.3578372937
 20
76.886495085
 10
176.3553077689
 20
76.8981215722
 10
176.3533343036
 20
76.9098552295
 10
176.3519213682
 20
76.9216694774
 10
176.3510721633
 20
76.933537554
 10
176.3507886125
 20
76.9454325756
  0
LWPOLYLINE
  5
276
100
AcDbEntity
  8
0
100
AcDbPolyline
 62
253
  6
CONTINUOUS
 90
33
 70
0
 10
170.2876900338
 20
77.1840903459
 10
170.2781736506
 20
77.1843168742
 10
170.2686788251
 20
77.1849959461
 10
170.2592270661
 20
77.1861260231
 10
170.2498397849
 20
77.1877045453
 10
170.2405382467
 20
77.1897279368
 10
170.2313435224
 20
77.1921916141
 10
170.2222764411
 20
77.195089996
 10
170.2133575427
 20
77.1984165169
 10
170.2046070312
 20
77.202163641
 10
170.1960447294
 20
77.2063228799
 10
170.1876900338
 20
77.2108848117
 10
170.1795618703
 20
77.215839102
 10
170.1716786519
 20
77.2211745279
 10
170.1640582365
 20
77.2268790028
 10
170.156717887
 20
77.2329396043
 10
170.1496742315
 20
77.2393426032
 10
170.1429432262
 20
77.2460734946
 10
170.1365401189
 20
77.253117031
 10
170.1304794148
 20
77.2604572563
 10
170.1247748434
 20
77.2680775426
 10
170.1194393272
 20
77.2759606277
 10
170.114484953
 20
77.2840886536
 10
170.1099229441
 20
77.2924432079
 10
170.1057636347
 20
77.3010053647
 10
170.1020164472
 20
77.3097557281
 10
170.09868987
 20
77.3186744756
 10
170.0957914391
 20
77.3277414035
 10
170.0933277201
 20
77.3369359721
 10
170.0913042943
 20
77.346237353
 10
170.0897257454
 20
77.3556244753
 10
170.0885956493
 20
77.3650760743
 10
170.0879165659
 20
77.3745707392
  0
LWPOLYLINE
  5
277
100
AcDbEntity
  8
RACCORDO
100
AcDbPolyline
 62
253
  6
CONTINUOUS
 90
16
 70
0
 10
136.3084220277
 20
79.2032415591
 10
136.2561984016
 20
79.2060130719
 10
136.2045464499
 20
79.2142257009
 10
136.1540315889
 20
79.2277895453
 10
136.1052067878
 20
79.2465561262
 10
136.058606515
 20
79.2703200122
 10
136.0147408881
 20
79.2988210682
 10
135.9740900891
 20
79.3317473026
 10
135.9370991085
 20
79.3687382832
 10
135.9041728741
 20
79.4093890823
 10
135.8756718182
 20
79.4532547092
 10
135.8519079323
 20
79.499854982
 10
135.8331413514
 20
79.548679783
 10
135.8195775071
 20
79.5991946439
 10
135.8113648781
 20
79.6508465956
 10
135.8085933652
 20
79.7030702216
  0
LINE
  5
278
100
AcDbEntity
  8
RACCORDO
100
AcDbLine
 62
253
  6
CONTINUOUS
 10
135.8195142899
 20
122.5104599919
 11
135.8214535454
 21
122.442651737
  0
LINE
  5
279
100
AcDbEntity
  8
RACCORDO
100
AcDbLine
 62
253
  6
CONTINUOUS
 10
135.8214535454
 20
122.442651737
 11
135.8231149727
 21
122.365220973
  0
LINE
  5
27A
100
AcDbEntity
  8
RACCORDO
100
AcDbLine
 62
253
  6
CONTINUOUS
 10
136.3084220231
 20
123.1614349008
 11
136.3085196254
 21
123.1561130625
  0
LINE
  5
27B
100
AcDbEntity
  8
RACCORDO
100
AcDbLine
 62
253
  6
CONTINUOUS
 10
135.8231149727
 20
122.365220973
 11
135.8244732421
 21
122.2793583227
  0
LINE
  5
27C
100
AcDbEntity
  8
RACCORDO
100
AcDbLine
 62
253
  6
CONTINUOUS
 10
135.8244732421
 20
122.2793583227
 11
135.825872425
 21
122.1390888524
  0
LINE
  5
27D
100
AcDbEntity
  8
RACCORDO
100
AcDbLine
 62
253
  6
CONTINUOUS
 10
135.825872425
 20
122.1390888524
 11
135.8264545173
 21
121.9913561982
  0
LINE
  5
27E
100
AcDbEntity
  8
RACCORDO
100
AcDbLine
 62
253
  6
CONTINUOUS
 10
136.3085196254
 20
123.1561130625
 11
136.3088091525
 21
123.0394364769
  0
LWPOLYLINE
  5
27F
100
AcDbEntity
  8
RACCORDO
100
AcDbPolyline
 62
253
  6
CONTINUOUS
 90
9
 70
0
 10
135.8264545173
 20
121.9913561982
 10
135.8310076148
 20
117.3685328868
 10
135.8344224379
 20
112.7450081094
 10
135.8366989867
 20
108.1207818662
 10
135.8378372609
 20
103.4953865037
 10
135.8378372608
 20
98.8692896753
 10
135.8366989866
 20
94.2438943413
 10
135.8344224384
 20
89.6196681551
 10
135.8310076161
 20
84.9961434633
  0
LWPOLYLINE
  5
280
100
AcDbEntity
  8
RACCORDO
100
AcDbPolyline
 62
253
  6
CONTINUOUS
 90
9
 70
0
 10
136.3116993761
 20
117.3856234699
 10
136.3137015465
 20
112.7572686365
 10
136.3150363268
 20
108.1278063015
 10
136.315703717
 20
103.4975898978
 10
136.3157037169
 20
98.8670849417
 10
136.3150363264
 20
94.2368687006
 10
136.3137015456
 20
89.6074066905
 10
136.3116993746
 20
84.9790523444
 10
136.3090991821
 20
80.0158880413
  0
LINE
  5
281
100
AcDbEntity
  8
RACCORDO
100
AcDbLine
 62
253
  6
CONTINUOUS
 10
136.3088091525
 20
123.0394364769
 11
136.3090675029
 21
122.6535972738
  0
LINE
  5
282
100
AcDbEntity
  8
RACCORDO
100
AcDbLine
 62
7
  6
CONTINUOUS
 10
135.6876900338
 20
79.5821668901
 11
135.6876900338
 21
122.7825095652
  0
LINE
  5
283
100
AcDbEntity
  8
RACCORDO
100
AcDbLine
 62
253
  6
CONTINUOUS
 10
136.3090675029
 20
122.6535972738
 11
136.3090498241
 21
122.0980374145
  0
LINE
  5
284
100
AcDbEntity
  8
RACCORDO
100
AcDbLine
 62
253
  6
CONTINUOUS
 10
136.3090498241
 20
122.0980374145
 11
136.3116993761
 21
117.3856234699
  0
LWPOLYLINE
  5
285
100
AcDbEntity
  8
RACCORDO
100
AcDbPolyline
 62
253
  6
CONTINUOUS
 90
3
 70
0
 10
136.3090991821
 20
80.0158880413
 10
136.309067489
 20
79.7110791859
 10
136.3090503614
 20
79.6427676409
  0
LINE
  5
286
100
AcDbEntity
  8
RACCORDO
100
AcDbLine
 62
253
  6
CONTINUOUS
 10
136.3090503614
 20
79.6427676409
 11
136.3086881418
 21
79.260953671
  0
LINE
  5
287
100
AcDbEntity
  8
RACCORDO
100
AcDbLine
 62
253
  6
CONTINUOUS
 10
135.8310076161
 20
84.9961434633
 11
135.8261572479
 21
80.2740025843
  0
LWPOLYLINE
  5
288
100
AcDbEntity
  8
RACCORDO
100
AcDbPolyline
 62
253
  6
CONTINUOUS
 90
3
 70
0
 10
136.3086881418
 20
79.260953671
 10
136.3085196284
 20
79.2085633976
 10
136.3084220277
 20
79.2032415591
  0
LINE
  5
289
100
AcDbEntity
  8
RACCORDO
100
AcDbLine
 62
253
  6
CONTINUOUS
 10
135.8261572479
 20
80.2740025843
 11
135.8250256681
 21
80.1307208472
  0
LINE
  5
28A
100
AcDbEntity
  8
RACCORDO
100
AcDbLine
 62
253
  6
CONTINUOUS
 10
135.8250256681
 20
80.1307208472
 11
135.8238359353
 21
80.041578788
  0
LINE
  5
28B
100
AcDbEntity
  8
RACCORDO
100
AcDbLine
 62
253
  6
CONTINUOUS
 10
135.8238359353
 20
80.041578788
 11
135.8223212471
 21
79.9595931178
  0
LWPOLYLINE
  5
28C
100
AcDbEntity
  8
RACCORDO
100
AcDbPolyline
 62
253
  6
CONTINUOUS
 90
12
 70
0
 10
135.8223212471
 20
79.9595931178
 10
135.8205130807
 20
79.88671726
 10
135.8195142946
 20
79.8542164688
 10
135.8184563054
 20
79.8245677244
 10
135.8173399995
 20
79.7977256525
 10
135.8161824927
 20
79.7740998724
 10
135.8149825676
 20
79.7537393803
 10
135.8137414415
 20
79.73659518
 10
135.8124798815
 20
79.722929901
 10
135.81120481
 20
79.7128310865
 10
135.8099093046
 20
79.7062111934
 10
135.8085933652
 20
79.7030702216
  0
LWPOLYLINE
  5
28D
100
AcDbEntity
  8
0
100
AcDbPolyline
 62
7
  6
CONTINUOUS
 90
24
 70
0
 10
158.2909681802
 20
123.5601418591
 10
158.2721382075
 20
123.5542917536
 10
158.2546718715
 20
123.5478174081
 10
158.2374592485
 20
123.5406939851
 10
158.2205164317
 20
123.5329261187
 10
158.2038165819
 20
123.5245004564
 10
158.1873865382
 20
123.5154303509
 10
158.1713229111
 20
123.5057604942
 10
158.1556261151
 20
123.4954816106
 10
158.1402957358
 20
123.4846029759
 10
158.1254271405
 20
123.4731971094
 10
158.1110417931
 20
123.4612765026
 10
158.0971182298
 20
123.448828664
 10
158.0836874254
 20
123.4358886386
 10
158.0707482027
 20
123.4224579085
 10
158.0583017389
 20
123.4085349916
 10
158.0463825408
 20
123.3941504865
 10
158.0349780939
 20
123.3792830916
 10
158.0241009126
 20
123.3639541085
 10
158.0138230473
 20
123.348258041
 10
158.0041534395
 20
123.3321939587
 10
157.9950831477
 20
123.315762792
 10
157.9866573972
 20
123.2990618364
 10
157.9789907295
 20
123.2823382277
  0
LINE
  5
28E
100
AcDbEntity
  8
0
100
AcDbLine
 62
7
  6
CONTINUOUS
 10
158.308945601
 20
123.565323236
 11
158.2898819576
 21
123.5601259561
  0
LWPOLYLINE
  5
28F
100
AcDbEntity
  8
RACCORDO
100
AcDbPolyline
 62
253
  6
CONTINUOUS
 90
14
 70
0
 10
179.4659382831
 20
80.3528972036
 10
179.5142078364
 20
80.353551099
 10
179.5608053251
 20
80.3544051949
 10
179.6052588602
 20
80.3554508421
 10
179.6471182647
 20
80.3566774514
 10
179.6859596319
 20
80.3580726009
 10
179.7213896184
 20
80.3596221621
 10
179.7530494279
 20
80.3613104427
 10
179.7806184441
 20
80.3631203457
 10
179.803817478
 20
80.3650335423
 10
179.8224115947
 20
80.3670306578
 10
179.8362124934
 20
80.3690914675
 10
179.8450804135
 20
80.3711951017
 10
179.8489255503
 20
80.3733202572
  0
LINE
  5
290
100
AcDbEntity
  8
RACCORDO
100
AcDbLine
 62
253
  6
CONTINUOUS
 10
179.3663502519
 20
80.3522144078
 11
179.4659382831
 21
80.3528972036
  0
LINE
  5
291
100
AcDbEntity
  8
RACCORDO
100
AcDbLine
 62
253
  6
CONTINUOUS
 10
136.3084220273
 20
79.2032415587
 11
140.7878377408
 21
79.2068833118
  0
LINE
  5
292
100
AcDbEntity
  8
RACCORDO
100
AcDbLine
 62
253
  6
CONTINUOUS
 10
140.7878377408
 20
79.2068833118
 11
145.2535189933
 21
79.2096753812
  0
LINE
  5
293
100
AcDbEntity
  8
RACCORDO
100
AcDbLine
 62
253
  6
CONTINUOUS
 10
145.2535189933
 20
79.2096753812
 11
149.7150156637
 21
79.2116206393
  0
LINE
  5
294
100
AcDbEntity
  8
0
100
AcDbLine
 62
7
  6
CONTINUOUS
 10
170.0876900338
 20
78.7823382277
 11
168.0876900338
 21
78.7823382277
  0
LINE
  5
295
100
AcDbEntity
  8
0
100
AcDbLine
 62
7
  6
CONTINUOUS
 10
158.4372473443
 20
78.7823382277
 11
158.9376900338
 21
78.7823382277
  0
LINE
  5
296
100
AcDbEntity
  8
0
100
AcDbLine
 62
7
  6
CONTINUOUS
 10
161.8376900338
 20
78.7823382277
 11
164.6376900338
 21
78.7823382277
  0
LINE
  5
297
100
AcDbEntity
  8
0
100
AcDbLine
 62
7
  6
CONTINUOUS
 10
173.5376900338
 20
78.7823382277
 11
176.3376900338
 21
78.7823382277
  0
LINE
  5
298
100
AcDbEntity
  8
0
100
AcDbLine
 62
7
  6
CONTINUOUS
 10
179.2376900338
 20
78.7823382277
 11
179.7381327233
 21
78.7823382277
  0
LINE
  5
299
100
AcDbEntity
  8
0
100
AcDbLine
 62
7
  6
CONTINUOUS
 10
165.5876900338
 20
78.8085421173
 11
167.8876900338
 21
78.8085421173
  0
LINE
  5
29A
100
AcDbEntity
  8
0
100
AcDbLine
 62
7
  6
CONTINUOUS
 10
170.2876900338
 20
78.8085421173
 11
172.5876900338
 21
78.8085421173
  0
LINE
  5
29B
100
AcDbEntity
  8
0
100
AcDbLine
 62
7
  6
CONTINUOUS
 10
158.4643647847
 20
78.8609498966
 11
159.1949665519
 21
78.8609498966
  0
LINE
  5
29C
100
AcDbEntity
  8
0
100
AcDbLine
 62
7
  6
CONTINUOUS
 10
161.5804135157
 20
78.8609498966
 11
164.6464167785
 21
78.8609498966
  0
LINE
  5
29D
100
AcDbEntity
  8
0
100
AcDbLine
 62
7
  6
CONTINUOUS
 10
165.5876900338
 20
78.8609498966
 11
172.5876900338
 21
78.8609498966
  0
LINE
  5
29E
100
AcDbEntity
  8
0
100
AcDbLine
 62
7
  6
CONTINUOUS
 10
173.5289632891
 20
78.8609498966
 11
176.5949665519
 21
78.8609498966
  0
LINE
  5
29F
100
AcDbEntity
  8
0
100
AcDbLine
 62
7
  6
CONTINUOUS
 10
178.9804135157
 20
78.8609498966
 11
179.7110152829
 21
78.8609498966
  0
LINE
  5
2A0
100
AcDbEntity
  8
RACCORDO
100
AcDbLine
 62
7
  6
CONTINUOUS
 10
136.1875186963
 20
79.0823382277
 11
179.4878613713
 21
79.0823382277
  0
LINE
  5
2A1
100
AcDbEntity
  8
RACCORDO
100
AcDbLine
 62
253
  6
CONTINUOUS
 10
149.7150156637
 20
79.2116206393
 11
156.4686511983
 21
79.212971581
  0
LINE
  5
2A2
100
AcDbEntity
  8
RACCORDO
100
AcDbLine
 62
253
  6
CONTINUOUS
 10
161.0973548259
 20
80.3501494716
 11
179.366350252
 21
80.3522144298
  0
LINE
  5
2A3
100
AcDbEntity
  8
RACCORDO
100
AcDbLine
 62
253
  6
CONTINUOUS
 10
156.4686511983
 20
79.212971581
 11
161.0945975169
 21
79.2127991122
  0
LINE
  5
2A4
100
AcDbEntity
  8
RACCORDO
100
AcDbLine
 62
253
  6
CONTINUOUS
 10
136.3090298136
 20
80.3522144385
 11
145.2545323461
 21
80.3508241254
  0
LWPOLYLINE
  5
2A5
100
AcDbEntity
  8
RACCORDO
100
AcDbPolyline
 62
253
  6
CONTINUOUS
 90
3
 70
0
 10
145.2545323461
 20
80.3508241254
 10
149.7163545618
 20
80.3504035596
 10
161.0973548259
 20
80.3501494716
  0
LINE
  5
2A6
100
AcDbEntity
  8
RACCORDO
100
AcDbLine
 62
253
  6
CONTINUOUS
 10
161.0945975169
 20
79.2127991122
 11
165.9306131289
 21
79.2116302146
  0
LWPOLYLINE
  5
2A7
100
AcDbEntity
  8
RACCORDO
100
AcDbPolyline
 62
253
  6
CONTINUOUS
 90
3
 70
0
 10
165.9306131289
 20
79.2116302146
 10
171.0345024625
 20
79.2093407337
 10
173.7253352318
 20
79.2076521409
  0
LINE
  5
2A8
100
AcDbEntity
  8
RACCORDO
100
AcDbLine
 62
253
  6
CONTINUOUS
 10
173.7253352318
 20
79.2076521409
 11
179.3669580444
 21
79.2032415545
  0
LWPOLYLINE
  5
2A9
100
AcDbEntity
  8
RACCORDO
100
AcDbPolyline
 62
253
  6
CONTINUOUS
 90
15
 70
0
 10
136.3090302624
 20
80.3522149745
 10
136.2094432592
 20
80.3528977449
 10
136.161174164
 20
80.3535516183
 10
136.1145770759
 20
80.3544056863
 10
136.0701238696
 20
80.3554513003
 10
136.0282647093
 20
80.3566778719
 10
135.9894234902
 20
80.35807298
 10
135.9539935455
 20
80.3596224967
 10
135.9223336638
 20
80.3613107306
 10
135.894764455
 20
80.3631205854
 10
135.8715651043
 20
80.3650337333
 10
135.8529705446
 20
80.3670308003
 10
135.8391690773
 20
80.3690915629
 10
135.8303004658
 20
80.3711951522
 10
135.8264545197
 20
80.3733202659
  0
LINE
  5
2AA
100
AcDbEntity
  8
0
100
AcDbLine
 62
7
  6
CONTINUOUS
 10
158.4188629633
 20
78.7826819671
 11
158.4377147654
 21
78.7823382277
  0
LINE
  5
2AB
100
AcDbEntity
  8
0
100
AcDbLine
 62
7
  6
CONTINUOUS
 10
158.4192955766
 20
78.7826817624
 11
158.4001071244
 21
78.7837230465
  0
LINE
  5
2AC
100
AcDbEntity
  8
0
100
AcDbLine
 62
7
  6
CONTINUOUS
 10
158.4008690592
 20
78.7837221259
 11
158.3814472488
 21
78.785461466
  0
LINE
  5
2AD
100
AcDbEntity
  8
0
100
AcDbLine
 62
7
  6
CONTINUOUS
 10
158.3824352132
 20
78.785459318
 11
158.3628598184
 21
78.7879028338
  0
LINE
  5
2AE
100
AcDbEntity
  8
0
100
AcDbLine
 62
7
  6
CONTINUOUS
 10
158.3443683513
 20
78.7910415417
 11
158.3639360352
 21
78.7878989403
  0
LINE
  5
2AF
100
AcDbEntity
  8
0
100
AcDbLine
 62
7
  6
CONTINUOUS
 10
158.3260434012
 20
78.7948607649
 11
158.3454295286
 21
78.7910353913
  0
LINE
  5
2B0
100
AcDbEntity
  8
0
100
AcDbLine
 62
7
  6
CONTINUOUS
 10
158.3270897033
 20
78.7948518664
 11
158.3078794209
 21
78.7993653744
  0
LINE
  5
2B1
100
AcDbEntity
  8
0
100
AcDbLine
 62
7
  6
CONTINUOUS
 10
158.3089456012
 20
78.7993532192
 11
158.2898819576
 21
78.8045504992
  0
LINE
  5
2B2
100
AcDbEntity
  8
0
100
AcDbLine
 62
7
  6
CONTINUOUS
 10
158.2909681804
 20
78.8045345961
 11
158.2721382075
 21
78.8103847017
  0
LWPOLYLINE
  5
2B3
100
AcDbEntity
  8
0
100
AcDbPolyline
 62
7
  6
CONTINUOUS
 90
23
 70
0
 10
158.2732443259
 20
78.8103646317
 10
158.255797772
 20
78.8168343438
 10
158.2386047843
 20
78.8239527145
 10
158.2216810453
 20
78.8317153246
 10
158.2049997481
 20
78.8401354544
 10
158.1885876995
 20
78.8491998237
 10
158.1725410025
 20
78.858864172
 10
158.1568599817
 20
78.8691377665
 10
158.1415443125
 20
78.88001134
 10
158.126689124
 20
78.8914128303
 10
158.1123157155
 20
78.9033298652
 10
158.0984027878
 20
78.9157748169
 10
158.0849815725
 20
78.9287127397
 10
158.0720510587
 20
78.9421419474
 10
158.0596122573
 20
78.9560641262
 10
158.047699433
 20
78.9704493886
 10
158.0362999129
 20
78.9853191643
 10
158.0254263698
 20
79.0006520236
 10
158.0151510864
 20
79.0163537894
 10
158.0054829423
 20
79.0324255077
 10
157.9964130578
 20
79.0488661326
 10
157.9879870771
 20
79.065578349
 10
157.9803088585
 20
79.0823382277
  0
LINE
  5
2B4
100
AcDbEntity
  8
RACCORDO
100
AcDbLine
 62
7
  6
CONTINUOUS
 10
180.2106346831
 20
84.5823382277
 11
179.9876900338
 21
84.5823382277
  0
LINE
  5
2B5
100
AcDbEntity
  8
0
100
AcDbLine
 62
7
  6
CONTINUOUS
 10
148.5876925685
 20
85.6736090644
 11
144.5876936657
 21
85.6736080309
  0
LINE
  5
2B6
100
AcDbEntity
  8
0
100
AcDbLine
 62
7
  6
CONTINUOUS
 10
148.5876900338
 20
85.6823382277
 11
144.5876900338
 21
85.6823382277
  0
LWPOLYLINE
  5
2B7
100
AcDbEntity
  8
0
100
AcDbPolyline
 62
7
  6
CONTINUOUS
 90
55
 70
0
 10
144.5876936657
 20
85.6736080309
 10
144.3536390622
 20
85.6805451189
 10
144.1218745391
 20
85.700798006
 10
143.8924000745
 20
85.7343667949
 10
143.6644505484
 20
85.7814480665
 10
143.4387910447
 20
85.8418455767
 10
143.2177167922
 20
85.9149702302
 10
143.0012727051
 20
86.0009553244
 10
142.7894137077
 20
86.0996680696
 10
142.5842999399
 20
86.210120227
 10
142.3860008711
 20
86.3324340718
 10
142.1944467716
 20
86.4664879156
 10
142.0115888931
 20
86.6109275136
 10
141.8375152017
 20
86.7658637827
 10
141.6721374039
 20
86.9311863779
 10
141.5171422952
 20
87.105209053
 10
141.3726402538
 20
87.2880198706
 10
141.2385205513
 20
87.4795312491
 10
141.1161382825
 20
87.6777933304
 10
141.0056156058
 20
87.8828737791
 10
140.9068300405
 20
88.0947052757
 10
140.8207697112
 20
88.3111353167
 10
140.747565684
 20
88.5322045186
 10
140.6870866463
 20
88.7578724578
 10
140.6399271667
 20
88.9858648938
 10
140.6062196558
 20
89.2161973169
 10
140.5858315696
 20
89.4488542847
 10
140.5789600719
 20
89.6815149836
 10
140.5857361262
 20
89.9141796606
 10
140.606028769
 20
90.1468479914
 10
140.639642306
 20
90.3771981397
 10
140.6867083028
 20
90.605212521
 10
140.7470953269
 20
90.8309085383
 10
140.820213215
 20
91.0520166832
 10
140.9061931431
 20
91.2684977516
 10
141.0049041814
 20
91.4803906815
 10
141.1153630193
 20
91.6855430411
 10
141.2376924872
 20
91.8838884876
 10
141.3717700772
 20
92.0754930319
 10
141.5162444594
 20
92.258402655
 10
141.6712281113
 20
92.4325299349
 10
141.836608906
 20
92.5979619185
 10
142.0106985677
 20
92.7530061957
 10
142.1935860498
 20
92.8975512996
 10
142.3851827267
 20
93.0317083048
 10
142.5835338868
 20
93.1541185442
 10
142.7887102353
 20
93.2646590842
 10
143.0006413278
 20
93.3634524813
 10
143.2171606389
 20
93.4495082615
 10
143.438314532
 20
93.5226945585
 10
143.6640568053
 20
93.5831429116
 10
143.8920819816
 20
93.6302579381
 10
144.1216215606
 20
93.6638410893
 10
144.3534440781
 20
93.6840906703
 10
144.5875495561
 20
93.6910065941
  0
LWPOLYLINE
  5
2B8
100
AcDbEntity
  8
0
100
AcDbPolyline
 62
7
  6
CONTINUOUS
 90
55
 70
0
 10
144.5876900338
 20
85.6823382277
 10
144.3541543795
 20
85.6892585323
 10
144.1228986164
 20
85.7094666291
 10
143.893922855
 20
85.7429627755
 10
143.6664622975
 20
85.7899433172
 10
143.4412819387
 20
85.850212556
 10
143.2206764942
 20
85.9231827375
 10
143.0046924942
 20
86.0089867938
 10
142.7932833741
 20
86.107492634
 10
142.5886040536
 20
86.217714966
 10
142.3907220433
 20
86.3397775431
 10
142.1995695733
 20
86.4735575
 10
142.0170984989
 20
86.6176995365
 10
141.8433993642
 20
86.7723120132
 10
141.6783811717
 20
86.9372873617
 10
141.5237233494
 20
87.1109462376
 10
141.3795338114
 20
87.2933785937
 10
141.2457040618
 20
87.4844950614
 10
141.1235888412
 20
87.6823471111
 10
141.0133108736
 20
87.8870008743
 10
140.9147468136
 20
88.0983905316
 10
140.828882278
 20
88.3143693967
 10
140.7558475445
 20
88.5349797815
 10
140.6955117706
 20
88.7601794028
 10
140.6484689221
 20
88.987694451
 10
140.6148518776
 20
89.2175392798
 10
140.5945273357
 20
89.4496993132
 10
140.5876900628
 20
89.6818571383
 10
140.5944707957
 20
89.914011851
 10
140.6147385761
 20
90.1461639445
 10
140.6482957246
 20
90.3759979277
 10
140.6952734443
 20
90.6034960605
 10
140.7555405378
 20
90.8286755555
 10
140.8285058284
 20
91.0492732174
 10
140.9142985301
 20
91.2652476082
 10
141.0127896521
 20
91.4766395922
 10
141.1230008014
 20
91.6813093371
 10
141.2450557715
 20
91.8791937403
 10
141.378831166
 20
92.070355347
 10
141.5229778694
 20
92.2528427455
 10
141.6776061032
 20
92.4265668594
 10
141.8426061494
 20
92.5916162738
 10
142.0162990066
 20
92.7463060533
 10
142.1987761808
 20
92.890527552
 10
142.3899466967
 20
93.0243890262
 10
142.5878578104
 20
93.1465309054
 10
142.7925783787
 20
93.2568294172
 10
143.0040400278
 20
93.3554080675
 10
143.2200841074
 20
93.441278234
 10
143.4407587809
 20
93.5143091935
 10
143.6660162612
 20
93.574631536
 10
143.893553881
 20
93.6216486487
 10
144.1226041419
 20
93.6551616641
 10
144.3539347648
 20
93.6753694533
 10
144.5875458533
 20
93.6822720473
  0
LWPOLYLINE
  5
2B9
100
AcDbEntity
  8
DRAFT
100
AcDbPolyline
 62
7
  6
CONTINUOUS
 90
52
 70
0
 10
144.5880690329
 20
86.4823382501
 10
144.3889998097
 20
86.4886156975
 10
144.192139235
 20
86.5069153863
 10
143.9974873804
 20
86.5372375031
 10
143.804226496
 20
86.5798365549
 10
143.6131744574
 20
86.6344585092
 10
143.4267847003
 20
86.7003407787
 10
143.2453339564
 20
86.7775110918
 10
143.0685454189
 20
86.8659423265
 10
142.8980420999
 20
86.9647896116
 10
142.7336240323
 20
87.0743642796
 10
142.5754909665
 20
87.1943556483
 10
142.425865383
 20
87.3229857459
 10
142.2851554845
 20
87.4600567712
 10
142.1529526885
 20
87.6057670502
 10
142.0302542183
 20
87.7589326827
 10
141.916894049
 20
87.9200048594
 10
141.8130377766
 20
88.088532811
 10
141.7201800178
 20
88.2619795307
 10
141.6386641506
 20
88.4399370745
 10
141.5681463534
 20
88.6228135241
 10
141.5090904404
 20
88.8092957368
 10
141.4614762067
 20
88.9999233652
 10
141.425323482
 20
89.1941567733
 10
141.4011561716
 20
89.3890637104
 10
141.3891490235
 20
89.5841157677
 10
141.3891270548
 20
89.779841103
 10
141.4010896356
 20
89.9748921571
 10
141.4252112695
 20
90.1697960055
 10
141.4613173575
 20
90.3640252686
 10
141.5088836918
 20
90.5546505801
 10
141.5678904072
 20
90.7411328291
 10
141.6383574674
 20
90.9240106797
 10
141.7198204841
 20
91.101971329
 10
141.8126223098
 20
91.2754212486
 10
141.9164203184
 20
91.4439535479
 10
142.0297219607
 20
91.6050353263
 10
142.1523592866
 20
91.7582148034
 10
142.2845005913
 20
91.9039433358
 10
142.425157729
 20
92.0410426964
 10
142.5747436693
 20
92.1697148074
 10
142.7328458353
 20
92.2897574077
 10
142.8972377578
 20
92.3993859987
 10
143.0677134801
 20
92.4982866577
 10
143.2444793326
 20
92.5867730579
 10
143.4259272427
 20
92.664002114
 10
143.6123425432
 20
92.7299499829
 10
143.8034402218
 20
92.7846403738
 10
143.9967566235
 20
92.8273015655
 10
144.1914705811
 20
92.8576763174
 10
144.3884034585
 20
92.8760218626
 10
144.587555349
 20
92.8823382248
  0
LWPOLYLINE
  5
2BA
100
AcDbEntity
  8
0
100
AcDbPolyline
 62
7
  6
CONTINUOUS
 90
4
 70
0
 10
144.0002045687
 20
86.5367283746
 10
144.1947299208
 20
86.5065487476
 10
144.3914658513
 20
86.4883465009
 10
144.5904122889
 20
86.482121449
  0
LINE
  5
2BB
100
AcDbEntity
  8
0
100
AcDbLine
 62
253
  6
CONTINUOUS
 10
144.5876936657
 20
85.6736080309
 11
144.5876900338
 21
85.6823382277
  0
LINE
  5
2BC
100
AcDbEntity
  8
0
100
AcDbLine
 62
253
  6
CONTINUOUS
 10
144.5875495841
 20
93.6910727314
 11
144.5875458814
 21
93.6823381848
  0
LINE
  5
2BD
100
AcDbEntity
  8
0
100
AcDbLine
 62
253
  6
CONTINUOUS
 10
161.5745956859
 20
125.6692396489
 11
161.5876942646
 21
125.6823382277
  0
LINE
  5
2BE
100
AcDbEntity
  8
0
100
AcDbLine
 62
253
  6
CONTINUOUS
 10
161.8245914551
 20
125.4192438797
 11
161.8376900338
 21
125.4323424584
  0
LWPOLYLINE
  5
2BF
100
AcDbEntity
  8
0
100
AcDbPolyline
 62
7
  6
CONTINUOUS
 90
51
 70
0
 10
148.5899544839
 20
86.4825237436
 10
148.7870480263
 20
86.4886155201
 10
148.9824062552
 20
86.5067369679
 10
149.1760290201
 20
86.5368880764
 10
149.3688648381
 20
86.5793152661
 10
149.5599648948
 20
86.633772221
 10
149.7464830242
 20
86.6995199036
 10
149.9280350352
 20
86.7765956583
 10
150.1050047976
 20
86.8649625185
 10
150.275698226
 20
86.9637700458
 10
150.4403026853
 20
87.0733379177
 10
150.5986305359
 20
87.1933470286
 10
150.7484252087
 20
87.3219887718
 10
150.8892572045
 20
87.4590464397
 10
151.0215558368
 20
87.6047373712
 10
151.1443527942
 20
87.757903988
 10
151.2578239308
 20
87.9189985789
 10
151.3617932934
 20
88.0875694976
 10
151.4547649081
 20
88.2611031536
 10
151.5364013989
 20
88.4391935329
 10
151.6070401545
 20
88.6222471056
 10
151.6661973944
 20
88.808968865
 10
151.7138947209
 20
88.9999310605
 10
151.7501106099
 20
89.194561796
 10
151.7742966315
 20
89.3898496617
 10
151.7862668366
 20
89.5852415386
 10
151.7862073271
 20
89.7812905838
 10
151.7741277786
 20
89.976644613
 10
151.7498470521
 20
90.1718462637
 10
151.7135464677
 20
90.3663528303
 10
151.6657794032
 20
90.5571839353
 10
151.6065743077
 20
90.7437675928
 10
151.5359029315
 20
90.926675459
 10
151.4542336065
 20
91.1046424625
 10
151.3612224663
 20
91.2780911597
 10
151.2572135817
 20
91.4465986326
 10
151.1437071764
 20
91.6076314817
 10
151.0208833712
 20
91.7607286819
 10
150.8885622267
 20
91.906350782
 10
150.7477038519
 20
92.0433466531
 10
150.5978668969
 20
92.1719405071
 10
150.4394928842
 20
92.2919076987
 10
150.2748661929
 20
92.4014237663
 10
150.1041889981
 20
92.5001579816
 10
149.9272592394
 20
92.5884406612
 10
149.7457548914
 20
92.665438889
 10
149.5593884212
 20
92.7311111079
 10
149.3684474344
 20
92.7854985607
 10
149.1754725546
 20
92.8278925425
 10
148.9813106372
 20
92.8580567485
 10
148.7851148085
 20
92.8762272791
  0
LINE
  5
2C0
100
AcDbEntity
  8
0
100
AcDbLine
 62
7
  6
CONTINUOUS
 10
144.5904122889
 20
86.482121449
 11
148.5899544839
 21
86.4825237436
  0
LINE
  5
2C1
100
AcDbEntity
  8
DRAFT
100
AcDbLine
 62
7
  6
CONTINUOUS
 10
148.5879547338
 20
86.4823382386
 11
144.5880690329
 21
86.4823382501
  0
LINE
  5
2C2
100
AcDbEntity
  8
0
100
AcDbLine
 62
253
  6
CONTINUOUS
 10
161.5745956859
 20
76.6954368064
 11
161.5876942646
 21
76.6823382277
  0
LINE
  5
2C3
100
AcDbEntity
  8
0
100
AcDbLine
 62
253
  6
CONTINUOUS
 10
161.8245914551
 20
76.9454325756
 11
161.8376900338
 21
76.9323339969
  0
LWPOLYLINE
  5
2C4
100
AcDbEntity
  8
RACCORDO
100
AcDbPolyline
 62
253
  6
CONTINUOUS
 90
10
 70
0
 10
135.8085933606
 20
122.6616062384
 10
135.8099092999
 20
122.6584652666
 10
135.8112048053
 20
122.6518453734
 10
135.8124798768
 20
122.641746559
 10
135.8137414368
 20
122.6280812801
 10
135.8149825629
 20
122.6109370799
 10
135.816182488
 20
122.590576588
 10
135.8173399948
 20
122.5669508079
 10
135.8184563007
 20
122.5401087362
 10
135.8195142899
 20
122.5104599919
  0
LINE
  5
2C5
100
AcDbEntity
  8
0
100
AcDbLine
 62
253
  6
CONTINUOUS
 10
148.5876925685
 20
85.6736090644
 11
148.5876900338
 21
85.6823382277
  0
LINE
  5
2C6
100
AcDbEntity
  8
0
100
AcDbLine
 62
253
  6
CONTINUOUS
 10
148.587591936
 20
93.6911279294
 11
148.5875893519
 21
93.6823947277
  0
LWPOLYLINE
  5
2C7
100
AcDbEntity
  8
0
100
AcDbPolyline
 62
7
  6
CONTINUOUS
 90
23
 70
0
 10
157.9803088585
 20
123.2823382277
 10
157.9879870771
 20
123.2990981063
 10
157.9964130578
 20
123.3158103226
 10
158.0054829422
 20
123.3322509475
 10
158.0151510864
 20
123.3483226659
 10
158.0254263698
 20
123.3640244317
 10
158.0362999128
 20
123.3793572909
 10
158.0476994329
 20
123.3942270667
 10
158.0596122573
 20
123.408612329
 10
158.0720510587
 20
123.4225345078
 10
158.0849815725
 20
123.4359637156
 10
158.0984027877
 20
123.4489016383
 10
158.1123157154
 20
123.46134659
 10
158.1266891239
 20
123.4732636249
 10
158.1415443124
 20
123.4846651152
 10
158.1568599816
 20
123.4955386887
 10
158.1725410024
 20
123.5058122832
 10
158.1885876994
 20
123.5154766315
 10
158.204999748
 20
123.5245410008
 10
158.2216810452
 20
123.5329611307
 10
158.2386047842
 20
123.5407237408
 10
158.2557977718
 20
123.5478421115
 10
158.2732443258
 20
123.5543118236
  0
LWPOLYLINE
  5
2C8
100
AcDbEntity
  8
0
100
AcDbPolyline
 62
7
  6
CONTINUOUS
 90
49
 70
0
 10
144.5867232829
 20
92.8822610522
 10
144.3890543112
 20
92.8761286987
 10
144.1932432574
 20
92.857967357
 10
143.9992900354
 20
92.8277770028
 10
143.80628488
 20
92.785315285
 10
143.6151373746
 20
92.7308245596
 10
143.4285764023
 20
92.6650318973
 10
143.2469433277
 20
92.5878941853
 10
143.0698964676
 20
92.4994546697
 10
142.899140062
 20
92.4005699957
 10
142.7344884865
 20
92.2909196827
 10
142.5761269905
 20
92.1708244615
 10
142.4263160889
 20
92.0421028147
 10
142.2854874616
 20
91.9049724704
 10
142.1532090345
 20
91.7592160397
 10
142.0304456872
 20
91.6059993327
 10
141.9170233865
 20
91.4448730353
 10
141.8131158196
 20
91.2762868857
 10
141.7202094816
 20
91.1027552413
 10
141.6386415126
 20
90.9246868657
 10
141.5680745452
 20
90.7416734158
 10
141.5089833698
 20
90.5550035341
 10
141.4613446649
 20
90.3641082473
 10
141.425181652
 20
90.1695569801
 10
141.4010390119
 20
89.9743458726
 10
141.3891004125
 20
89.779025509
 10
141.3891822825
 20
89.5830456092
 10
141.4012785214
 20
89.3877508903
 10
141.4255702824
 20
89.1925954784
 10
141.4618766486
 20
88.9981254991
 10
141.5096484757
 20
88.8073235093
 10
141.568858318
 20
88.6207608707
 10
141.6395339978
 20
88.4378661995
 10
141.7212093122
 20
88.2599077584
 10
141.8142292639
 20
88.0864621231
 10
141.9182492942
 20
87.9179525791
 10
142.0317688535
 20
87.7569172815
 10
142.1546086284
 20
87.603817197
 10
142.2869483609
 20
87.4581909354
 10
142.4278260483
 20
87.3211929501
 10
142.5776834182
 20
87.1925989122
 10
142.7360791246
 20
87.0726326272
 10
142.9007264741
 20
86.96312063
 10
143.0714233414
 20
86.8643935876
 10
143.2483720665
 20
86.7761201796
 10
143.4298925426
 20
86.6991338806
 10
143.6162117699
 20
86.6334817601
 10
143.8071028178
 20
86.5791161415
 10
144.0002045687
 20
86.5367283746
  0
LINE
  5
2C9
100
AcDbEntity
  8
0
100
AcDbLine
 62
7
  6
CONTINUOUS
 10
148.5868850588
 20
92.8824040624
 11
144.5867232829
 21
92.8822610522
  0
LINE
  5
2CA
100
AcDbEntity
  8
DRAFT
100
AcDbLine
 62
7
  6
CONTINUOUS
 10
144.587555349
 20
92.8823382248
 11
148.5875959166
 21
92.8824040833
  0
LINE
  5
2CB
100
AcDbEntity
  8
0
100
AcDbLine
 62
7
  6
CONTINUOUS
 10
144.5875458533
 20
93.6822720473
 11
148.5875893519
 21
93.6823947277
  0
LINE
  5
2CC
100
AcDbEntity
  8
0
100
AcDbLine
 62
7
  6
CONTINUOUS
 10
144.5875495561
 20
93.6910065941
 11
148.587591936
 21
93.6911279294
  0
LWPOLYLINE
  5
2CD
100
AcDbEntity
  8
0
100
AcDbPolyline
 62
7
  6
CONTINUOUS
 90
55
 70
0
 10
148.5875893519
 20
93.6823947277
 10
148.8211508614
 20
93.6754528086
 10
149.0524269839
 20
93.6552280889
 10
149.2814177189
 20
93.6217206507
 10
149.5088870702
 20
93.5747366674
 10
149.7340710321
 20
93.5144701958
 10
149.9546775505
 20
93.4415031726
 10
150.1706598761
 20
93.3557018626
 10
150.3820646691
 20
93.2572003614
 10
150.586739921
 20
93.1469823682
 10
150.7846182221
 20
93.0249250584
 10
150.975766835
 20
92.8911517299
 10
151.1582357022
 20
92.7470152565
 10
151.3319346152
 20
92.5924072637
 10
151.4969535951
 20
92.4274366829
 10
151.6516128819
 20
92.2537823042
 10
151.7958037703
 20
92.0713546513
 10
151.9296347506
 20
91.8802437956
 10
152.0517518228
 20
91.6823977657
 10
152.1620312174
 20
91.4777533058
 10
152.26059647
 20
91.266374243
 10
152.3464645161
 20
91.050399102
 10
152.4195064239
 20
90.8297847383
 10
152.4798508807
 20
90.6045747717
 10
152.5269012416
 20
90.3770377001
 10
152.5605252939
 20
90.1471573424
 10
152.5808550071
 20
89.9149501831
 10
152.587690014
 20
89.6827335071
 10
152.5808991803
 20
89.4505058908
 10
152.5606134173
 20
89.218268825
 10
152.5270254476
 20
88.9883437299
 10
152.4800018062
 20
88.7607448977
 10
152.4196757815
 20
88.5354578252
 10
152.3466402629
 20
88.3147604952
 10
152.2607638514
 20
88.0986945609
 10
152.1621778476
 20
87.8872178736
 10
152.0518692429
 20
87.6824824865
 10
151.9297133419
 20
87.4845535762
 10
151.7958348497
 20
87.2933652305
 10
151.6515949203
 20
87.1108726848
 10
151.4968846903
 20
86.9371669682
 10
151.3318131608
 20
86.7721561702
 10
151.1580683425
 20
86.6175209981
 10
150.9755614101
 20
86.4733713774
 10
150.7843814554
 20
86.3395964888
 10
150.5864834137
 20
86.2175458794
 10
150.3818021123
 20
86.1073431681
 10
150.170403096
 20
86.0088639776
 10
149.954437402
 20
85.9230858932
 10
149.7338579855
 20
85.8501400572
 10
149.5087123232
 20
85.789894836
 10
149.2812932272
 20
85.7429337411
 10
149.0523651028
 20
85.7094512372
 10
148.8211639667
 20
85.6892527269
 10
148.5876900338
 20
85.6823382277
  0
LWPOLYLINE
  5
2CE
100
AcDbEntity
  8
0
100
AcDbPolyline
 62
7
  6
CONTINUOUS
 90
55
 70
0
 10
148.587591936
 20
93.6911279294
 10
148.8216533236
 20
93.6841710531
 10
149.0534239575
 20
93.6639040161
 10
149.2829037737
 20
93.6303268086
 10
149.5108575215
 20
93.58324529
 10
149.7365203369
 20
93.5228536659
 10
149.9575977086
 20
93.449734479
 10
150.1740443843
 20
93.3637529937
 10
150.385905452
 20
93.2650441641
 10
150.5910218621
 20
93.1545950855
 10
150.7893240838
 20
93.0322839649
 10
150.9808814661
 20
92.8982329596
 10
151.1637432459
 20
92.7537950908
 10
151.3378212787
 20
92.5988598588
 10
151.5032035318
 20
92.4335382465
 10
151.6582033901
 20
92.259515469
 10
151.8027101496
 20
92.0767039962
 10
151.9368343591
 20
91.8851919138
 10
152.0592212745
 20
91.6869277916
 10
152.1697483119
 20
91.4818460057
 10
152.2685379333
 20
91.2700127459
 10
152.3546029636
 20
91.0535741878
 10
152.4278134794
 20
90.8324887855
 10
152.4882993211
 20
90.6067985885
 10
152.5354629662
 20
90.378775007
 10
152.5691723584
 20
90.1484012304
 10
152.5895595122
 20
89.9156944374
 10
152.5964230198
 20
89.682976824
 10
152.5896314823
 20
89.4502468175
 10
152.5693162986
 20
89.2175061607
 10
152.5356702669
 20
88.9870817961
 10
152.4885603159
 20
88.7589894531
 10
152.4281195587
 20
88.5332133312
 10
152.354940079
 20
88.3120328377
 10
152.2688894285
 20
88.095487472
 10
152.1701001386
 20
87.88353741
 10
152.0595617683
 20
87.6783428385
 10
151.9371508009
 20
87.4799713627
 10
151.8029908751
 20
87.2883548277
 10
151.658442283
 20
87.1054495751
 10
151.5033935141
 20
86.9313442401
 10
151.3379562342
 20
86.7659494848
 10
151.1638254917
 20
86.6109545366
 10
150.9809140178
 20
86.4664715852
 10
150.7893092585
 20
86.3323876901
 10
150.5909683147
 20
86.2100542902
 10
150.3858232324
 20
86.0995941778
 10
150.1739421473
 20
86.0008838834
 10
149.9574862607
 20
85.9149054216
 10
149.7364098643
 20
85.8417913831
 10
149.5107588305
 20
85.7814086843
 10
149.282831683
 20
85.7343408493
 10
149.053394623
 20
85.7007823024
 10
148.8216815636
 20
85.6805383865
 10
148.5876925685
 20
85.6736090644
  0
LINE
  5
2CF
100
AcDbEntity
  8
0
100
AcDbLine
 62
7
  6
CONTINUOUS
 10
148.7851148085
 20
92.8762272791
 11
148.5868850588
 21
92.8824040624
  0
LWPOLYLINE
  5
2D0
100
AcDbEntity
  8
DRAFT
100
AcDbPolyline
 62
7
  6
CONTINUOUS
 90
52
 70
0
 10
148.5875959166
 20
92.8824040833
 10
148.786659512
 20
92.8760798468
 10
148.9835115763
 20
92.8577418676
 10
149.1781521167
 20
92.8273902185
 10
149.3713983882
 20
92.7847733544
 10
149.5624331492
 20
92.7301430263
 10
149.7488046242
 20
92.6642542765
 10
149.9302359853
 20
92.5870776523
 10
150.1070039851
 20
92.4986429205
 10
150.2774871615
 20
92.3997939632
 10
150.4418851626
 20
92.2902203489
 10
150.5999982248
 20
92.1702329193
 10
150.7496057174
 20
92.0416074444
 10
150.8902993837
 20
91.9045422058
 10
151.0224873091
 20
91.7588393564
 10
151.1451733388
 20
91.6056804268
 10
151.258523408
 20
91.4446148539
 10
151.3623713999
 20
91.2760936761
 10
151.455223058
 20
91.1026507343
 10
151.5367351184
 20
90.9246939368
 10
151.6072506406
 20
90.741815736
 10
151.6663048387
 20
90.5553266713
 10
151.7139181981
 20
90.3646871927
 10
151.7500700343
 20
90.1704371737
 10
151.7742338095
 20
89.9755061318
 10
151.7862348721
 20
89.7804204148
 10
151.7862476933
 20
89.5846537421
 10
151.7742694323
 20
89.3895565125
 10
151.7501244212
 20
89.194599532
 10
151.7139881759
 20
89.0003119549
 10
151.6663846605
 20
88.8096315168
 10
151.6073325536
 20
88.6230973345
 10
151.5368130978
 20
88.4401699446
 10
151.4552941419
 20
88.2621690303
 10
151.36243093
 20
88.0886876117
 10
151.2585682049
 20
87.920132216
 10
151.1452081093
 20
87.759042643
 10
151.0225195858
 20
87.6058732197
 10
150.8903337907
 20
87.4601689776
 10
150.7496462361
 20
87.3231056623
 10
150.6000463623
 20
87.1944827927
 10
150.4419449144
 20
87.0745002186
 10
150.2775693998
 20
86.9649341397
 10
150.1071280379
 20
86.8660978918
 10
149.9304128828
 20
86.7776775686
 10
149.7490272171
 20
86.7005085148
 10
149.5626867924
 20
86.6346133127
 10
149.3716761779
 20
86.5799690016
 10
149.1784518766
 20
86.5373426725
 10
148.9838328206
 20
86.5069899888
 10
148.7870003871
 20
86.488655175
 10
148.5879547338
 20
86.4823382386
  0
LWPOLYLINE
  5
2D1
100
AcDbEntity
  8
0
100
AcDbPolyline
 62
7
  6
CONTINUOUS
 90
23
 70
0
 10
157.9789907295
 20
79.0823382277
 10
157.9866573972
 20
79.0656146189
 10
157.9950831477
 20
79.0489136633
 10
158.0041534395
 20
79.0324824966
 10
158.0138230473
 20
79.0164184143
 10
158.0241009126
 20
79.0007223468
 10
158.0349780939
 20
78.9853933637
 10
158.0463825408
 20
78.9705259688
 10
158.0583017389
 20
78.9561414637
 10
158.0707482027
 20
78.9422185468
 10
158.0836874254
 20
78.9287878167
 10
158.0971182298
 20
78.9158477913
 10
158.1110417931
 20
78.9033999527
 10
158.1254271405
 20
78.8914793459
 10
158.1402957358
 20
78.8800734794
 10
158.1556261151
 20
78.8691948447
 10
158.1713229111
 20
78.8589159611
 10
158.1873865382
 20
78.8492461044
 10
158.2038165819
 20
78.8401759989
 10
158.2205164317
 20
78.8317503366
 10
158.2374592485
 20
78.8239824702
 10
158.2546718715
 20
78.8168590472
 10
158.2721382075
 20
78.8103847017
  0
LINE
  5
2D2
100
AcDbEntity
  8
0
100
AcDbLine
 62
7
  6
CONTINUOUS
 10
173.5289632891
 20
125.1736114829
 11
173.5376900338
 21
125.1823382277
  0
LINE
  5
2D3
100
AcDbEntity
  8
0
100
AcDbLine
 62
7
  6
CONTINUOUS
 10
173.5376900338
 20
77.1823382277
 11
173.5289632891
 21
77.1910649724
  0
LINE
  5
2D4
100
AcDbEntity
  8
0
100
AcDbLine
 62
253
  6
CONTINUOUS
 10
178.9745956859
 20
125.6692396489
 11
178.9876942646
 21
125.6823382277
  0
LINE
  5
2D5
100
AcDbEntity
  8
0
100
AcDbLine
 62
253
  6
CONTINUOUS
 10
178.9745956859
 20
76.6954368064
 11
178.9876942646
 21
76.6823382277
  0
LINE
  5
2D6
100
AcDbEntity
  8
0
100
AcDbLine
 62
253
  6
CONTINUOUS
 10
179.2245914551
 20
125.4192438797
 11
179.2376900338
 21
125.4323424584
  0
LINE
  5
2D7
100
AcDbEntity
  8
RACCORDO
100
AcDbLine
 62
253
  6
CONTINUOUS
 10
135.8085933652
 20
79.7030702216
 11
135.6876900338
 21
79.5821668901
  0
LINE
  5
2D8
100
AcDbEntity
  8
RACCORDO
100
AcDbLine
 62
253
  6
CONTINUOUS
 10
179.3669580402
 20
123.1614348966
 11
179.4878613713
 21
123.2823382277
  0
LINE
  5
2D9
100
AcDbEntity
  8
RACCORDO
100
AcDbLine
 62
253
  6
CONTINUOUS
 10
136.3084220273
 20
79.2032415587
 11
136.1875186963
 21
79.0823382277
  0
LINE
  5
2DA
100
AcDbEntity
  8
DRAFT
100
AcDbLine
 62
7
  6
CONTINUOUS
 10
179.9876900338
 20
101.1823382277
 11
180.1827345388
 21
101.1823382277
  0
LINE
  5
2DB
100
AcDbEntity
  8
0
100
AcDbLine
 62
253
  6
CONTINUOUS
 10
179.2245914551
 20
76.9454325756
 11
179.2376900338
 21
76.9323339969
  0
LINE
  5
2DC
100
AcDbEntity
  8
RACCORDO
100
AcDbLine
 62
253
  6
CONTINUOUS
 10
135.6876900338
 20
122.7825095652
 11
135.8085933606
 21
122.6616062384
  0
LINE
  5
2DD
100
AcDbEntity
  8
RACCORDO
100
AcDbLine
 62
253
  6
CONTINUOUS
 10
179.4878613713
 20
79.0823382277
 11
179.3669580444
 21
79.2032415545
  0
LINE
  5
2DE
100
AcDbEntity
  8
RACCORDO
100
AcDbLine
 62
253
  6
CONTINUOUS
 10
136.1875186963
 20
123.2823382277
 11
136.3084220231
 21
123.1614349009
  0
LWPOLYLINE
  5
2DF
100
AcDbEntity
  8
0
100
AcDbPolyline
 62
7
  6
CONTINUOUS
 90
46
 70
0
 10
158.9449707827
 20
124.4493255258
 10
158.945143034
 20
124.4447468715
 10
158.9455691098
 20
124.440151564
 10
158.9462513274
 20
124.435546715
 10
158.9471917286
 20
124.4309422441
 10
158.9483920953
 20
124.4263428578
 10
158.9498540343
 20
124.4217480545
 10
158.951578835
 20
124.4171656325
 10
158.9535675192
 20
124.4126031751
 10
158.9558210394
 20
124.4080600615
 10
158.9583398697
 20
124.4035444238
 10
158.9611242081
 20
124.3990641825
 10
158.9641743435
 20
124.394618603
 10
158.967489876
 20
124.3902161094
 10
158.9710701255
 20
124.3858649131
 10
158.9749147142
 20
124.3815641695
 10
158.9790223223
 20
124.3773225361
 10
158.9833913254
 20
124.3731484827
 10
158.9880206369
 20
124.3690411007
 10
158.9929079548
 20
124.36500923
 10
158.9980506432
 20
124.3610615469
 10
159.0034468424
 20
124.3571971227
 10
159.0090932035
 20
124.3534249144
 10
159.0149859999
 20
124.3497537488
 10
159.0211224971
 20
124.3461827284
 10
159.0274982274
 20
124.3427208479
 10
159.0341082865
 20
124.3393770143
 10
159.0409489236
 20
124.3361504134
 10
159.0480144731
 20
124.3330499783
 10
159.0552987615
 20
124.3300846062
 10
159.0627968468
 20
124.3272536114
 10
159.0705017808
 20
124.3245657411
 10
159.0784060339
 20
124.3220297657
 10
159.0865032848
 20
124.3196451567
 10
159.0947851866
 20
124.3174203329
 10
159.1032428122
 20
124.3153637781
 10
159.1118683901
 20
124.3134751043
 10
159.1206521256
 20
124.3117622234
 10
159.1295836311
 20
124.3102331697
 10
159.1386536064
 20
124.3088876885
 10
159.1478374939
 20
124.3077352257
 10
159.1571365221
 20
124.3067800672
 10
159.1665801833
 20
124.3060179787
 10
159.1761701545
 20
124.3054563621
 10
159.185879375
 20
124.30510969
 10
159.1956937806
 20
124.3049879585
  0
LWPOLYLINE
  5
2E0
100
AcDbEntity
  8
0
100
AcDbPolyline
 62
253
  6
CONTINUOUS
 90
34
 70
0
 10
158.9507886125
 20
125.0266757949
 10
158.9511052632
 20
125.0163930274
 10
158.951985425
 20
125.0061334675
 10
158.9534271113
 20
124.9959202704
 10
158.9554270683
 20
124.9857764866
 10
158.9579807823
 20
124.9757250102
 10
158.9610824897
 20
124.9657885268
 10
158.9647251901
 20
124.9559894622
 10
158.9689006622
 20
124.9463499326
 10
158.9735994821
 20
124.9368916937
 10
158.9788110449
 20
124.9276360922
 10
158.9845235884
 20
124.9186040175
 10
158.9907242198
 20
124.9098158544
 10
158.9973989446
 20
124.9012914372
 10
159.0045326982
 20
124.8930500052
 10
159.0121093803
 20
124.8851101586
 10
159.0201118908
 20
124.8774898174
 10
159.0285221684
 20
124.8702061801
 10
159.0373212316
 20
124.8632756854
 10
159.0464892215
 20
124.8567139752
 10
159.0560054465
 20
124.8505358588
 10
159.065848429
 20
124.8447552798
 10
159.0759959539
 20
124.8393852846
 10
159.086425119
 20
124.8344379931
 10
159.0971123862
 20
124.8299245709
 10
159.1080336349
 20
124.8258552046
 10
159.1191642166
 20
124.8222390785
 10
159.1304790102
 20
124.819084354
 10
159.1419524788
 20
124.8163981512
 10
159.1535587276
 20
124.8141865326
 10
159.1652715619
 20
124.8124544896
 10
159.1770645465
 20
124.8112059315
 10
159.1889110654
 20
124.8104436762
 10
159.2007843817
 20
124.810169444
  0
LINE
  5
2E1
100
AcDbEntity
  8
0
100
AcDbLine
 62
253
  6
CONTINUOUS
 10
158.9507886125
 20
77.3380006604
 11
158.9449707827
 21
77.9153509295
  0
LINE
  5
2E2
100
AcDbEntity
  8
0
100
AcDbLine
 62
253
  6
CONTINUOUS
 10
159.2007843817
 20
77.5545070113
 11
159.1956937806
 21
78.0596884968
  0
LINE
  5
2E3
100
AcDbEntity
  8
0
100
AcDbLine
 62
7
  6
CONTINUOUS
 10
158.9376900338
 20
76.9323339969
 11
158.9376900338
 21
78.7823382277
  0
LINE
  5
2E4
100
AcDbEntity
  8
0
100
AcDbLine
 62
7
  6
CONTINUOUS
 10
158.9376900338
 20
123.5823382277
 11
158.9376900338
 21
125.4323424584
  0
LINE
  5
2E5
100
AcDbEntity
  8
0
100
AcDbLine
 62
253
  6
CONTINUOUS
 10
158.9449707827
 20
124.4493255258
 11
158.9449707827
 21
123.51675228
  0
LINE
  5
2E6
100
AcDbEntity
  8
0
100
AcDbLine
 62
253
  6
CONTINUOUS
 10
158.9449707827
 20
78.8479241753
 11
158.9449707827
 21
77.9153509295
  0
LINE
  5
2E7
100
AcDbEntity
  8
0
100
AcDbLine
 62
253
  6
CONTINUOUS
 10
158.9507886125
 20
125.4192438797
 11
158.9507886125
 21
125.0266757949
  0
LINE
  5
2E8
100
AcDbEntity
  8
0
100
AcDbLine
 62
253
  6
CONTINUOUS
 10
158.9507886125
 20
77.3380006604
 11
158.9507886125
 21
76.9454325756
  0
LINE
  5
2E9
100
AcDbEntity
  8
0
100
AcDbLine
 62
253
  6
CONTINUOUS
 10
159.1949665519
 20
124.3049879585
 11
159.1949665519
 21
123.5037265587
  0
LINE
  5
2EA
100
AcDbEntity
  8
0
100
AcDbLine
 62
253
  6
CONTINUOUS
 10
159.1949665519
 20
78.8609498966
 11
159.1949665519
 21
78.0596884968
  0
LINE
  5
2EB
100
AcDbEntity
  8
0
100
AcDbLine
 62
253
  6
CONTINUOUS
 10
159.2007843817
 20
76.6954368064
 11
159.2007843817
 21
77.5545070113
  0
LINE
  5
2EC
100
AcDbEntity
  8
0
100
AcDbLine
 62
253
  6
CONTINUOUS
 10
159.2007843817
 20
124.810169444
 11
159.2007843817
 21
125.6692396489
  0
LINE
  5
2ED
100
AcDbEntity
  8
0
100
AcDbLine
 62
253
  6
CONTINUOUS
 10
158.9449707827
 20
124.4493255258
 11
158.9507886125
 21
125.0266757949
  0
LINE
  5
2EE
100
AcDbEntity
  8
0
100
AcDbLine
 62
253
  6
CONTINUOUS
 10
159.1956937806
 20
124.3049879585
 11
159.2007843817
 21
124.810169444
  0
LWPOLYLINE
  5
2EF
100
AcDbEntity
  8
0
100
AcDbPolyline
 62
7
  6
CONTINUOUS
 90
34
 70
0
 10
158.9376900338
 20
125.4323424584
 10
158.937973184
 20
125.4442377437
 10
158.9388219995
 20
125.4561060832
 10
158.9402345596
 20
125.4679205938
 10
158.9422076661
 20
125.4796545151
 10
158.9447368521
 20
125.4912812665
 10
158.9478163921
 20
125.5027745067
 10
158.9514393124
 20
125.5141082014
 10
158.955597408
 20
125.5252566769
 10
158.9602812616
 20
125.536194674
 10
158.965480265
 20
125.5468974152
 10
158.9711826421
 20
125.5573406559
 10
158.9773754756
 20
125.5675007336
 10
158.9840447383
 20
125.5773546328
 10
158.9911753231
 20
125.5868800315
 10
158.9987510749
 20
125.5960553467
 10
159.0067548333
 20
125.6048597937
 10
159.0151684677
 20
125.6132734281
 10
159.0239729147
 20
125.6212771865
 10
159.0331482299
 20
125.6288529384
 10
159.0426736287
 20
125.6359835231
 10
159.0525275279
 20
125.6426527858
 10
159.0626876055
 20
125.6488456193
 10
159.0731308462
 20
125.6545479965
 10
159.0838335875
 20
125.6597469998
 10
159.0947715845
 20
125.6644308534
 10
159.10592006
 20
125.668588949
 10
159.1172537548
 20
125.6722118694
 10
159.128746995
 20
125.6752914094
 10
159.1403737463
 20
125.6778205954
 10
159.1521076676
 20
125.6797937018
 10
159.1639221782
 20
125.6812062619
 10
159.1757905178
 20
125.6820550774
 10
159.187685803
 20
125.6823382277
  0
LWPOLYLINE
  5
2F0
100
AcDbEntity
  8
0
100
AcDbPolyline
 62
253
  6
CONTINUOUS
 90
34
 70
0
 10
158.9507886125
 20
125.4192438797
 10
158.9510722414
 20
125.4311405387
 10
158.9519216815
 20
125.4430102569
 10
158.9533350103
 20
125.4548261392
 10
158.9553090289
 20
125.4665614189
 10
158.9578392659
 20
125.4781894983
 10
158.9609199845
 20
125.4896840093
 10
158.9645442017
 20
125.5010189018
 10
158.968703706
 20
125.5121684982
 10
158.9733890703
 20
125.5231075317
 10
158.9785896779
 20
125.5338112181
 10
158.9842937432
 20
125.5442553034
 10
158.9904883355
 20
125.5544161155
 10
158.9971594156
 20
125.5642706316
 10
159.0042918666
 20
125.5737965259
 10
159.0118695231
 20
125.5829722128
 10
159.0198752173
 20
125.5917769084
 10
159.0282908035
 20
125.60019066
 10
159.0370971951
 20
125.6081943916
 10
159.0462744083
 20
125.6157699525
 10
159.0558016698
 20
125.6229002058
 10
159.0656574545
 20
125.629569043
 10
159.0758195301
 20
125.6357614054
 10
159.0862647836
 20
125.6414631939
 10
159.0969693184
 20
125.6466613792
 10
159.1079087195
 20
125.6513441529
 10
159.1190583315
 20
125.6555010073
 10
159.1303930966
 20
125.659122617
 10
159.1418890622
 20
125.6622011956
 10
159.1535184975
 20
125.6647291855
 10
159.1652499921
 20
125.6667001315
 10
159.1770551676
 20
125.6681101275
 10
159.1889089102
 20
125.6689570293
 10
159.2007843817
 20
125.6692396489
  0
LWPOLYLINE
  5
2F1
100
AcDbEntity
  8
0
100
AcDbPolyline
 62
253
  6
CONTINUOUS
 90
34
 70
0
 10
158.9507886125
 20
77.3380006604
 10
158.9511047397
 20
77.3482744381
 10
158.951983652
 20
77.3585273486
 10
158.9534237435
 20
77.3687362584
 10
158.9554223094
 20
77.3788788577
 10
158.9579751253
 20
77.3889314474
 10
158.9610760454
 20
77.398869068
 10
158.9647177534
 20
77.4086685003
 10
158.9688922588
 20
77.418308436
 10
158.9735902394
 20
77.4277673066
 10
158.978801196
 20
77.4370238736
 10
158.9845133371
 20
77.446057102
 10
158.9907136694
 20
77.4548464133
 10
158.9973881454
 20
77.4633719051
 10
159.0045217432
 20
77.4716143989
 10
159.0120983773
 20
77.4795553063
 10
159.0201009595
 20
77.4871767109
 10
159.0285114178
 20
77.4944613952
 10
159.0373107502
 20
77.5013928985
 10
159.0464790871
 20
77.5079555695
 10
159.0559957389
 20
77.5141345996
 10
159.0658392239
 20
77.5199160408
 10
159.0759873227
 20
77.5252868428
 10
159.0864171276
 20
77.5302348817
 10
159.097105095
 20
77.5347489883
 10
159.1080271116
 20
77.5388189771
 10
159.1191585108
 20
77.5424356555
 10
159.1304741252
 20
77.5455908491
 10
159.1419483831
 20
77.5482774349
 10
159.1535554088
 20
77.5504893615
 10
159.1652690425
 20
77.5522216462
 10
159.1770628574
 20
77.5534703801
 10
159.188910218
 20
77.5542327421
 10
159.2007843817
 20
77.5545070113
  0
LWPOLYLINE
  5
2F2
100
AcDbEntity
  8
0
100
AcDbPolyline
 62
7
  6
CONTINUOUS
 90
46
 70
0
 10
158.9449707827
 20
77.9153509295
 10
158.945143034
 20
77.9199295838
 10
158.9455691098
 20
77.9245248913
 10
158.9462513274
 20
77.9291297403
 10
158.9471917286
 20
77.9337342112
 10
158.9483920953
 20
77.9383335975
 10
158.9498540343
 20
77.9429284008
 10
158.951578835
 20
77.9475108228
 10
158.9535675192
 20
77.9520732802
 10
158.9558210394
 20
77.9566163938
 10
158.9583398697
 20
77.9611320315
 10
158.9611242081
 20
77.9656122728
 10
158.9641743435
 20
77.9700578523
 10
158.967489876
 20
77.9744603459
 10
158.9710701255
 20
77.9788115422
 10
158.9749147142
 20
77.9831122858
 10
158.9790223223
 20
77.9873539192
 10
158.9833913254
 20
77.9915279726
 10
158.9880206369
 20
77.9956353546
 10
158.9929079548
 20
77.9996672253
 10
158.9980506432
 20
78.0036149084
 10
159.0034468424
 20
78.0074793326
 10
159.0090932035
 20
78.0112515409
 10
159.0149859999
 20
78.0149227065
 10
159.0211224971
 20
78.0184937269
 10
159.0274982274
 20
78.0219556074
 10
159.0341082865
 20
78.025299441
 10
159.0409489236
 20
78.0285260419
 10
159.0480144731
 20
78.031626477
 10
159.0552987615
 20
78.0345918491
 10
159.0627968468
 20
78.0374228439
 10
159.0705017808
 20
78.0401107142
 10
159.0784060339
 20
78.0426466896
 10
159.0865032848
 20
78.0450312986
 10
159.0947851866
 20
78.0472561224
 10
159.1032428122
 20
78.0493126772
 10
159.1118683901
 20
78.051201351
 10
159.1206521256
 20
78.0529142319
 10
159.1295836311
 20
78.0544432856
 10
159.1386536064
 20
78.0557887668
 10
159.1478374939
 20
78.0569412296
 10
159.1571365221
 20
78.0578963881
 10
159.1665801833
 20
78.0586584766
 10
159.1761701545
 20
78.0592200932
 10
159.185879375
 20
78.0595667653
 10
159.1956937806
 20
78.0596884968
  0
LINE
  5
2F3
100
AcDbEntity
  8
0
100
AcDbLine
 62
7
  6
CONTINUOUS
 10
161.8376900338
 20
123.5823382277
 11
161.8304092849
 21
123.51675228
  0
LINE
  5
2F4
100
AcDbEntity
  8
RACCORDO
100
AcDbLine
 62
253
  6
CONTINUOUS
 10
179.8667867023
 20
122.6616062337
 11
179.9876900338
 21
122.7825095652
  0
LINE
  5
2F5
100
AcDbEntity
  8
RACCORDO
100
AcDbLine
 62
253
  6
CONTINUOUS
 10
179.9876900338
 20
79.5821668901
 11
179.8667867069
 21
79.703070217
  0
LINE
  5
2F6
100
AcDbEntity
  8
0
100
AcDbLine
 62
7
  6
CONTINUOUS
 10
161.8376900338
 20
78.7823382277
 11
161.8304092849
 21
78.8479241753
  0
LWPOLYLINE
  5
2F7
100
AcDbEntity
  8
0
100
AcDbPolyline
 62
7
  6
CONTINUOUS
 90
46
 70
0
 10
161.8304092849
 20
77.9153509295
 10
161.8302370336
 20
77.9199295838
 10
161.8298109577
 20
77.9245248913
 10
161.8291287402
 20
77.9291297403
 10
161.8281883389
 20
77.9337342112
 10
161.8269879723
 20
77.9383335975
 10
161.8255260333
 20
77.9429284008
 10
161.8238012326
 20
77.9475108228
 10
161.8218125484
 20
77.9520732802
 10
161.8195590282
 20
77.9566163938
 10
161.8170401979
 20
77.9611320315
 10
161.8142558595
 20
77.9656122728
 10
161.8112057241
 20
77.9700578523
 10
161.8078901916
 20
77.9744603459
 10
161.8043099421
 20
77.9788115422
 10
161.8004653534
 20
77.9831122858
 10
161.7963577453
 20
77.9873539192
 10
161.7919887422
 20
77.9915279726
 10
161.7873594307
 20
77.9956353546
 10
161.7824721127
 20
77.9996672253
 10
161.7773294243
 20
78.0036149084
 10
161.7719332252
 20
78.0074793326
 10
161.7662868641
 20
78.0112515409
 10
161.7603940677
 20
78.0149227065
 10
161.7542575705
 20
78.0184937269
 10
161.7478818401
 20
78.0219556074
 10
161.7412717811
 20
78.025299441
 10
161.734431144
 20
78.0285260419
 10
161.7273655945
 20
78.031626477
 10
161.7200813061
 20
78.0345918491
 10
161.7125832207
 20
78.0374228439
 10
161.7048782868
 20
78.0401107142
 10
161.6969740337
 20
78.0426466896
 10
161.6888767828
 20
78.0450312986
 10
161.680594881
 20
78.0472561224
 10
161.6721372553
 20
78.0493126772
 10
161.6635116775
 20
78.051201351
 10
161.654727942
 20
78.0529142319
 10
161.6457964365
 20
78.0544432856
 10
161.6367264611
 20
78.0557887668
 10
161.6275425737
 20
78.0569412296
 10
161.6182435454
 20
78.0578963881
 10
161.6087998843
 20
78.0586584766
 10
161.5992099131
 20
78.0592200932
 10
161.5895006926
 20
78.0595667653
 10
161.5796862869
 20
78.0596884968
  0
LWPOLYLINE
  5
2F8
100
AcDbEntity
  8
0
100
AcDbPolyline
 62
253
  6
CONTINUOUS
 90
34
 70
0
 10
161.8245914551
 20
77.3380006604
 10
161.8242748043
 20
77.3482834279
 10
161.8233946426
 20
77.3585429878
 10
161.8219529563
 20
77.3687561849
 10
161.8199529992
 20
77.3788999687
 10
161.8173992852
 20
77.3889514451
 10
161.8142975778
 20
77.3988879285
 10
161.8106548774
 20
77.4086869931
 10
161.8064794054
 20
77.4183265227
 10
161.8017805855
 20
77.4277847616
 10
161.7965690226
 20
77.4370403631
 10
161.7908564791
 20
77.4460724378
 10
161.7846558478
 20
77.4548606009
 10
161.777981123
 20
77.4633850181
 10
161.7708473694
 20
77.4716264501
 10
161.7632706872
 20
77.4795662967
 10
161.7552681768
 20
77.4871866379
 10
161.7468578992
 20
77.4944702752
 10
161.738058836
 20
77.5014007699
 10
161.728890846
 20
77.5079624801
 10
161.7193746211
 20
77.5141405965
 10
161.7095316386
 20
77.5199211756
 10
161.6993841136
 20
77.5252911707
 10
161.6889549486
 20
77.5302384622
 10
161.6782676814
 20
77.5347518844
 10
161.6673464327
 20
77.5388212507
 10
161.656215851
 20
77.5424373768
 10
161.6449010574
 20
77.5455921013
 10
161.6334275887
 20
77.5482783041
 10
161.62182134
 20
77.5504899227
 10
161.6101085057
 20
77.5522219657
 10
161.598315521
 20
77.5534705238
 10
161.5864690021
 20
77.5542327791
 10
161.5745956859
 20
77.5545070113
  0
LINE
  5
2F9
100
AcDbEntity
  8
0
100
AcDbLine
 62
253
  6
CONTINUOUS
 10
161.5745956859
 20
124.810169444
 11
161.5796862869
 21
124.3049879585
  0
LINE
  5
2FA
100
AcDbEntity
  8
0
100
AcDbLine
 62
253
  6
CONTINUOUS
 10
161.8245914551
 20
125.0266757949
 11
161.8304092849
 21
124.4493255258
  0
LINE
  5
2FB
100
AcDbEntity
  8
0
100
AcDbLine
 62
253
  6
CONTINUOUS
 10
161.5745956859
 20
76.6954368064
 11
161.5745956859
 21
77.5545070113
  0
LINE
  5
2FC
100
AcDbEntity
  8
0
100
AcDbLine
 62
253
  6
CONTINUOUS
 10
161.5745956859
 20
124.810169444
 11
161.5745956859
 21
125.6692396489
  0
LINE
  5
2FD
100
AcDbEntity
  8
0
100
AcDbLine
 62
253
  6
CONTINUOUS
 10
161.5804135157
 20
78.0596884968
 11
161.5804135157
 21
78.8609498966
  0
LINE
  5
2FE
100
AcDbEntity
  8
0
100
AcDbLine
 62
253
  6
CONTINUOUS
 10
161.5804135157
 20
123.5037265587
 11
161.5804135157
 21
124.3049879585
  0
LINE
  5
2FF
100
AcDbEntity
  8
0
100
AcDbLine
 62
253
  6
CONTINUOUS
 10
161.8245914551
 20
76.9454325756
 11
161.8245914551
 21
77.3380006604
  0
LINE
  5
300
100
AcDbEntity
  8
0
100
AcDbLine
 62
253
  6
CONTINUOUS
 10
161.8245914551
 20
125.0266757949
 11
161.8245914551
 21
125.4192438797
  0
LINE
  5
301
100
AcDbEntity
  8
0
100
AcDbLine
 62
253
  6
CONTINUOUS
 10
161.8304092849
 20
77.9153509295
 11
161.8304092849
 21
78.8479241753
  0
LINE
  5
302
100
AcDbEntity
  8
0
100
AcDbLine
 62
253
  6
CONTINUOUS
 10
161.8304092849
 20
123.51675228
 11
161.8304092849
 21
124.4493255258
  0
LINE
  5
303
100
AcDbEntity
  8
0
100
AcDbLine
 62
7
  6
CONTINUOUS
 10
161.8376900338
 20
76.9323339969
 11
161.8376900338
 21
78.7823382277
  0
LINE
  5
304
100
AcDbEntity
  8
0
100
AcDbLine
 62
7
  6
CONTINUOUS
 10
161.8376900338
 20
123.5823382277
 11
161.8376900338
 21
125.4323424584
  0
LINE
  5
305
100
AcDbEntity
  8
0
100
AcDbLine
 62
253
  6
CONTINUOUS
 10
161.5796862869
 20
78.0596884968
 11
161.5745956859
 21
77.5545070113
  0
LINE
  5
306
100
AcDbEntity
  8
0
100
AcDbLine
 62
253
  6
CONTINUOUS
 10
161.8304092849
 20
77.9153509295
 11
161.8245914551
 21
77.3380006604
  0
LWPOLYLINE
  5
307
100
AcDbEntity
  8
0
100
AcDbPolyline
 62
253
  6
CONTINUOUS
 90
34
 70
0
 10
161.8245914551
 20
76.9454325756
 10
161.8243079043
 20
76.933537554
 10
161.8234586993
 20
76.9216694774
 10
161.8220457639
 20
76.9098552295
 10
161.8200722986
 20
76.8981215722
 10
161.8175427739
 20
76.886495085
 10
161.8144629195
 20
76.8750021044
 10
161.8108397121
 20
76.8636686646
 10
161.806681359
 20
76.8525204383
 10
161.8019972799
 20
76.8415826789
 10
161.7967980853
 20
76.8308801628
 10
161.7910955524
 20
76.8204371335
 10
161.7849025989
 20
76.8102772469
 10
161.7782332531
 20
76.8004235174
 10
161.7711026225
 20
76.7908982659
 10
161.7635268597
 20
76.7817230693
 10
161.7555231255
 20
76.7729187113
 10
161.7471095501
 20
76.7645051359
 10
161.7383051922
 20
76.7565014017
 10
161.7291299955
 20
76.7489256389
 10
161.719604744
 20
76.7417950084
 10
161.7097510145
 20
76.7351256625
 10
161.6995911279
 20
76.728932709
 10
161.6891480987
 20
76.7232301761
 10
161.6784455825
 20
76.7180309815
 10
161.6675078231
 20
76.7133469024
 10
161.6563595969
 20
76.7091885494
 10
161.645026157
 20
76.705565342
 10
161.6335331764
 20
76.7024854876
 10
161.6219066892
 20
76.6999559628
 10
161.610173032
 20
76.6979824975
 10
161.598358784
 20
76.6965695621
 10
161.5864907074
 20
76.6957203572
 10
161.5745956859
 20
76.6954368064
  0
LWPOLYLINE
  5
308
100
AcDbEntity
  8
0
100
AcDbPolyline
 62
7
  6
CONTINUOUS
 90
34
 70
0
 10
161.8376900338
 20
76.9323339969
 10
161.8374068835
 20
76.9204387116
 10
161.836558068
 20
76.9085703721
 10
161.8351455079
 20
76.8967558615
 10
161.8331724015
 20
76.8850219402
 10
161.8306432155
 20
76.8733951888
 10
161.8275636755
 20
76.8619019486
 10
161.8239407551
 20
76.8505682539
 10
161.8197826596
 20
76.8394197784
 10
161.815098806
 20
76.8284817814
 10
161.8098998026
 20
76.8177790401
 10
161.8041974254
 20
76.8073357994
 10
161.7980045919
 20
76.7971757217
 10
161.7913353293
 20
76.7873218225
 10
161.7842047445
 20
76.7777964238
 10
161.7766289926
 20
76.7686211086
 10
161.7686252343
 20
76.7598166616
 10
161.7602115999
 20
76.7514030272
 10
161.7514071528
 20
76.7433992688
 10
161.7422318376
 20
76.7358235169
 10
161.7327064389
 20
76.7286929322
 10
161.7228525397
 20
76.7220236695
 10
161.7126924621
 20
76.715830836
 10
161.7022492214
 20
76.7101284588
 10
161.6915464801
 20
76.7049294555
 10
161.6806084831
 20
76.7002456019
 10
161.6694600076
 20
76.6960875063
 10
161.6581263128
 20
76.6924645859
 10
161.6466330726
 20
76.6893850459
 10
161.6350063213
 20
76.6868558599
 10
161.6232723999
 20
76.6848827535
 10
161.6114578894
 20
76.6834701934
 10
161.5995895498
 20
76.6826213779
 10
161.5876942646
 20
76.6823382277
  0
LWPOLYLINE
  5
309
100
AcDbEntity
  8
0
100
AcDbPolyline
 62
253
  6
CONTINUOUS
 90
34
 70
0
 10
161.8245914551
 20
125.0266757949
 10
161.8242753279
 20
125.0164020172
 10
161.8233964156
 20
125.0061491067
 10
161.8219563241
 20
124.9959401969
 10
161.8199577581
 20
124.9857975976
 10
161.8174049423
 20
124.9757450079
 10
161.8143040221
 20
124.9658073873
 10
161.8106623141
 20
124.956007955
 10
161.8064878087
 20
124.9463680193
 10
161.8017898281
 20
124.9369091487
 10
161.7965788716
 20
124.9276525817
 10
161.7908667304
 20
124.9186193533
 10
161.7846663982
 20
124.909830042
 10
161.7779919221
 20
124.9013045502
 10
161.7708583243
 20
124.8930620564
 10
161.7632816903
 20
124.885121149
 10
161.7552791081
 20
124.8774997444
 10
161.7468686498
 20
124.8702150601
 10
161.7380693174
 20
124.8632835568
 10
161.7289009805
 20
124.8567208858
 10
161.7193843287
 20
124.8505418557
 10
161.7095408436
 20
124.8447604145
 10
161.6993927449
 20
124.8393896125
 10
161.68896294
 20
124.8344415736
 10
161.6782749726
 20
124.829927467
 10
161.6673529559
 20
124.8258574782
 10
161.6562215568
 20
124.8222407998
 10
161.6449059424
 20
124.8190856062
 10
161.6334316845
 20
124.8163990204
 10
161.6218246588
 20
124.8141870938
 10
161.6101110251
 20
124.8124548091
 10
161.5983172102
 20
124.8112060752
 10
161.5864698496
 20
124.8104437132
 10
161.5745956859
 20
124.810169444
  0
LWPOLYLINE
  5
30A
100
AcDbEntity
  8
0
100
AcDbPolyline
 62
7
  6
CONTINUOUS
 90
46
 70
0
 10
161.8304092849
 20
124.4493255258
 10
161.8302370336
 20
124.4447468715
 10
161.8298109577
 20
124.440151564
 10
161.8291287402
 20
124.435546715
 10
161.8281883389
 20
124.4309422441
 10
161.8269879723
 20
124.4263428578
 10
161.8255260333
 20
124.4217480545
 10
161.8238012326
 20
124.4171656325
 10
161.8218125484
 20
124.4126031751
 10
161.8195590282
 20
124.4080600615
 10
161.8170401979
 20
124.4035444238
 10
161.8142558595
 20
124.3990641825
 10
161.8112057241
 20
124.394618603
 10
161.8078901916
 20
124.3902161094
 10
161.8043099421
 20
124.3858649131
 10
161.8004653534
 20
124.3815641695
 10
161.7963577453
 20
124.3773225361
 10
161.7919887422
 20
124.3731484827
 10
161.7873594307
 20
124.3690411007
 10
161.7824721127
 20
124.36500923
 10
161.7773294243
 20
124.3610615469
 10
161.7719332252
 20
124.3571971227
 10
161.7662868641
 20
124.3534249144
 10
161.7603940677
 20
124.3497537488
 10
161.7542575705
 20
124.3461827284
 10
161.7478818401
 20
124.3427208479
 10
161.7412717811
 20
124.3393770143
 10
161.734431144
 20
124.3361504134
 10
161.7273655945
 20
124.3330499783
 10
161.7200813061
 20
124.3300846062
 10
161.7125832207
 20
124.3272536114
 10
161.7048782868
 20
124.3245657411
 10
161.6969740337
 20
124.3220297657
 10
161.6888767828
 20
124.3196451567
 10
161.680594881
 20
124.3174203329
 10
161.6721372553
 20
124.3153637781
 10
161.6635116775
 20
124.3134751043
 10
161.654727942
 20
124.3117622234
 10
161.6457964365
 20
124.3102331697
 10
161.6367264611
 20
124.3088876885
 10
161.6275425737
 20
124.3077352257
 10
161.6182435454
 20
124.3067800672
 10
161.6087998843
 20
124.3060179787
 10
161.5992099131
 20
124.3054563621
 10
161.5895006926
 20
124.30510969
 10
161.5796862869
 20
124.3049879585
  0
LINE
  5
30B
100
AcDbEntity
  8
0
100
AcDbLine
 62
7
  6
CONTINUOUS
 10
158.9376900338
 20
78.7823382277
 11
158.9449707827
 21
78.8479241753
  0
LINE
  5
30C
100
AcDbEntity
  8
0
100
AcDbLine
 62
7
  6
CONTINUOUS
 10
158.9376900338
 20
123.5823382277
 11
158.9449707827
 21
123.51675228
  0
LINE
  5
30D
100
AcDbEntity
  8
0
100
AcDbLine
 62
7
  6
CONTINUOUS
 10
164.6376900338
 20
77.1823382277
 11
164.6376900338
 21
78.7823382277
  0
LINE
  5
30E
100
AcDbEntity
  8
0
100
AcDbLine
 62
7
  6
CONTINUOUS
 10
164.6376900338
 20
123.5823382277
 11
164.6376900338
 21
125.1823382277
  0
LINE
  5
30F
100
AcDbEntity
  8
0
100
AcDbLine
 62
7
  6
CONTINUOUS
 10
164.6464167785
 20
125.1736114829
 11
164.6464167785
 21
123.5037265587
  0
LINE
  5
310
100
AcDbEntity
  8
0
100
AcDbLine
 62
7
  6
CONTINUOUS
 10
164.6464167785
 20
78.8609498966
 11
164.6464167785
 21
77.1910649724
  0
LINE
  5
311
100
AcDbEntity
  8
0
100
AcDbLine
 62
7
  6
CONTINUOUS
 10
165.5876900338
 20
77.1840903459
 11
165.5876900338
 21
78.8609498966
  0
LINE
  5
312
100
AcDbEntity
  8
0
100
AcDbLine
 62
7
  6
CONTINUOUS
 10
165.5876900338
 20
123.5037265587
 11
165.5876900338
 21
125.1805861094
  0
LINE
  5
313
100
AcDbEntity
  8
0
100
AcDbLine
 62
253
  6
CONTINUOUS
 10
158.4381821873
 20
78.7823382277
 11
158.4643647847
 21
78.8609498966
  0
LINE
  5
314
100
AcDbEntity
  8
0
100
AcDbLine
 62
253
  6
CONTINUOUS
 10
158.4643647847
 20
123.5037265587
 11
158.4381821873
 21
123.5823382277
  0
LINE
  5
315
100
AcDbEntity
  8
0
100
AcDbLine
 62
253
  6
CONTINUOUS
 10
167.8876900338
 20
77.1823382277
 11
167.8876900338
 21
78.8085421173
  0
LINE
  5
316
100
AcDbEntity
  8
0
100
AcDbLine
 62
253
  6
CONTINUOUS
 10
167.8876900338
 20
123.556134338
 11
167.8876900338
 21
125.1823382277
  0
LINE
  5
317
100
AcDbEntity
  8
0
100
AcDbLine
 62
7
  6
CONTINUOUS
 10
168.0876900338
 20
77.3823416123
 11
168.0876900338
 21
78.7980605614
  0
LINE
  5
318
100
AcDbEntity
  8
0
100
AcDbLine
 62
7
  6
CONTINUOUS
 10
168.0876900338
 20
123.5666158939
 11
168.0876900338
 21
124.982334843
  0
LINE
  5
319
100
AcDbEntity
  8
0
100
AcDbLine
 62
7
  6
CONTINUOUS
 10
164.6376900338
 20
78.7823382277
 11
164.6464167785
 21
78.8609498966
  0
LINE
  5
31A
100
AcDbEntity
  8
0
100
AcDbLine
 62
7
  6
CONTINUOUS
 10
164.6464167785
 20
123.5037265587
 11
164.6376900338
 21
123.5823382277
  0
LINE
  5
31B
100
AcDbEntity
  8
0
100
AcDbLine
 62
253
  6
CONTINUOUS
 10
168.0876900338
 20
124.982334843
 11
168.0876900338
 21
124.980589494
  0
LINE
  5
31C
100
AcDbEntity
  8
0
100
AcDbLine
 62
253
  6
CONTINUOUS
 10
170.0876900338
 20
77.3823416123
 11
170.0876900338
 21
77.3840869613
  0
LINE
  5
31D
100
AcDbEntity
  8
0
100
AcDbLine
 62
7
  6
CONTINUOUS
 10
168.0874996823
 20
124.9910587725
 11
168.0876900338
 21
124.982334843
  0
LINE
  5
31E
100
AcDbEntity
  8
0
100
AcDbLine
 62
7
  6
CONTINUOUS
 10
170.0878803853
 20
77.3736176828
 11
170.0876900338
 21
77.3823416123
  0
LINE
  5
31F
100
AcDbEntity
  8
0
100
AcDbLine
 62
7
  6
CONTINUOUS
 10
170.0876900338
 20
124.982334843
 11
170.0876900338
 21
123.5666158939
  0
LINE
  5
320
100
AcDbEntity
  8
0
100
AcDbLine
 62
7
  6
CONTINUOUS
 10
170.0876900338
 20
78.7980605614
 11
170.0876900338
 21
77.3823416123
  0
LINE
  5
321
100
AcDbEntity
  8
0
100
AcDbLine
 62
253
  6
CONTINUOUS
 10
170.2876900338
 20
78.8085421173
 11
170.2876900338
 21
77.1823382277
  0
LINE
  5
322
100
AcDbEntity
  8
0
100
AcDbLine
 62
253
  6
CONTINUOUS
 10
170.2876900338
 20
123.556134338
 11
170.2876900338
 21
125.1823382277
  0
LINE
  5
323
100
AcDbEntity
  8
0
100
AcDbLine
 62
7
  6
CONTINUOUS
 10
168.0874996823
 20
77.3736176828
 11
168.0876900338
 21
77.3840869613
  0
LINE
  5
324
100
AcDbEntity
  8
0
100
AcDbLine
 62
7
  6
CONTINUOUS
 10
170.0878803853
 20
124.9910587725
 11
170.0876900338
 21
124.980589494
  0
LINE
  5
325
100
AcDbEntity
  8
0
100
AcDbLine
 62
7
  6
CONTINUOUS
 10
170.0884510777
 20
124.9997660995
 11
170.0878803853
 21
124.9910587725
  0
LINE
  5
326
100
AcDbEntity
  8
0
100
AcDbLine
 62
7
  6
CONTINUOUS
 10
168.0869289898
 20
77.3649103558
 11
168.0874996823
 21
77.3736176828
  0
LWPOLYLINE
  5
327
100
AcDbEntity
  8
RACCORDO
100
AcDbPolyline
 62
253
  6
CONTINUOUS
 90
10
 70
0
 10
179.8667867069
 20
79.703070217
 10
179.8654707676
 20
79.7062111888
 10
179.8641752622
 20
79.7128310819
 10
179.8629001907
 20
79.7229298963
 10
179.8616386307
 20
79.7365951752
 10
179.8603975046
 20
79.7537393755
 10
179.8591975795
 20
79.7740998673
 10
179.8580400727
 20
79.7977256474
 10
179.8569237669
 20
79.8245677192
 10
179.8558657776
 20
79.8542164635
  0
LINE
  5
328
100
AcDbEntity
  8
0
100
AcDbLine
 62
7
  6
CONTINUOUS
 10
172.5876900338
 20
125.1805861094
 11
172.5876900338
 21
123.5037265587
  0
LINE
  5
329
100
AcDbEntity
  8
0
100
AcDbLine
 62
7
  6
CONTINUOUS
 10
172.5876900338
 20
78.8609498966
 11
172.5876900338
 21
77.1840903459
  0
LINE
  5
32A
100
AcDbEntity
  8
0
100
AcDbLine
 62
7
  6
CONTINUOUS
 10
173.5376900338
 20
123.5823382277
 11
173.5289632891
 21
123.5037265587
  0
LINE
  5
32B
100
AcDbEntity
  8
0
100
AcDbLine
 62
253
  6
CONTINUOUS
 10
179.7371978803
 20
123.5823382277
 11
179.7110152829
 21
123.5037265587
  0
LINE
  5
32C
100
AcDbEntity
  8
0
100
AcDbLine
 62
253
  6
CONTINUOUS
 10
180.2368172805
 20
123.0821093756
 11
180.2106346831
 21
123.0034977067
  0
LINE
  5
32D
100
AcDbEntity
  8
0
100
AcDbLine
 62
253
  6
CONTINUOUS
 10
179.7110152829
 20
78.8609498966
 11
179.7371978803
 21
78.7823382277
  0
LINE
  5
32E
100
AcDbEntity
  8
0
100
AcDbLine
 62
253
  6
CONTINUOUS
 10
180.2106346831
 20
79.3611787486
 11
180.2368172805
 21
79.2825670797
  0
LINE
  5
32F
100
AcDbEntity
  8
0
100
AcDbLine
 62
7
  6
CONTINUOUS
 10
173.5289632891
 20
78.8609498966
 11
173.5376900338
 21
78.7823382277
  0
LINE
  5
330
100
AcDbEntity
  8
0
100
AcDbLine
 62
7
  6
CONTINUOUS
 10
173.5289632891
 20
77.1910649724
 11
173.5289632891
 21
78.8609498966
  0
LINE
  5
331
100
AcDbEntity
  8
0
100
AcDbLine
 62
7
  6
CONTINUOUS
 10
173.5289632891
 20
123.5037265587
 11
173.5289632891
 21
125.1736114829
  0
LINE
  5
332
100
AcDbEntity
  8
0
100
AcDbLine
 62
7
  6
CONTINUOUS
 10
173.5376900338
 20
78.7823382277
 11
173.5376900338
 21
77.1823382277
  0
LINE
  5
333
100
AcDbEntity
  8
0
100
AcDbLine
 62
7
  6
CONTINUOUS
 10
173.5376900338
 20
123.5823382277
 11
173.5376900338
 21
125.1823382277
  0
LWPOLYLINE
  5
334
100
AcDbEntity
  8
0
100
AcDbPolyline
 62
7
  6
CONTINUOUS
 90
34
 70
0
 10
176.3376900338
 20
125.4323424584
 10
176.337973184
 20
125.4442377437
 10
176.3388219995
 20
125.4561060832
 10
176.3402345596
 20
125.4679205938
 10
176.3422076661
 20
125.4796545151
 10
176.3447368521
 20
125.4912812665
 10
176.3478163921
 20
125.5027745067
 10
176.3514393124
 20
125.5141082014
 10
176.355597408
 20
125.5252566769
 10
176.3602812616
 20
125.536194674
 10
176.365480265
 20
125.5468974152
 10
176.3711826421
 20
125.5573406559
 10
176.3773754756
 20
125.5675007336
 10
176.3840447383
 20
125.5773546328
 10
176.3911753231
 20
125.5868800315
 10
176.3987510749
 20
125.5960553467
 10
176.4067548333
 20
125.6048597937
 10
176.4151684677
 20
125.6132734281
 10
176.4239729147
 20
125.6212771865
 10
176.4331482299
 20
125.6288529384
 10
176.4426736287
 20
125.6359835231
 10
176.4525275279
 20
125.6426527858
 10
176.4626876055
 20
125.6488456193
 10
176.4731308462
 20
125.6545479965
 10
176.4838335875
 20
125.6597469998
 10
176.4947715845
 20
125.6644308534
 10
176.50592006
 20
125.668588949
 10
176.5172537548
 20
125.6722118694
 10
176.528746995
 20
125.6752914094
 10
176.5403737463
 20
125.6778205954
 10
176.5521076676
 20
125.6797937018
 10
176.5639221782
 20
125.6812062619
 10
176.5757905178
 20
125.6820550774
 10
176.587685803
 20
125.6823382277
  0
LWPOLYLINE
  5
335
100
AcDbEntity
  8
0
100
AcDbPolyline
 62
253
  6
CONTINUOUS
 90
34
 70
0
 10
176.3507886125
 20
125.4192438797
 10
176.3510721633
 20
125.4311389013
 10
176.3519213682
 20
125.4430069779
 10
176.3533343036
 20
125.4548212258
 10
176.3553077689
 20
125.4665548831
 10
176.3578372937
 20
125.4781813703
 10
176.3609171481
 20
125.4896743509
 10
176.3645403555
 20
125.5010077907
 10
176.3686987085
 20
125.512156017
 10
176.3733827876
 20
125.5230937764
 10
176.3785819823
 20
125.5337962925
 10
176.3842845151
 20
125.5442393218
 10
176.3904774687
 20
125.5543992084
 10
176.3971468145
 20
125.5642529379
 10
176.4042774451
 20
125.5737781894
 10
176.4118532078
 20
125.582953386
 10
176.419856942
 20
125.591757744
 10
176.4282705174
 20
125.6001713194
 10
176.4370748754
 20
125.6081750536
 10
176.4462500721
 20
125.6157508164
 10
176.4557753235
 20
125.6228814469
 10
176.465629053
 20
125.6295507928
 10
176.4757889396
 20
125.6357437463
 10
176.4862319689
 20
125.6414462792
 10
176.496934485
 20
125.6466454738
 10
176.5078722445
 20
125.6513295529
 10
176.5190204707
 20
125.6554879059
 10
176.5303539105
 20
125.6591111133
 10
176.5418468911
 20
125.6621909677
 10
176.5534733784
 20
125.6647204925
 10
176.5652070356
 20
125.6666939578
 10
176.5770212835
 20
125.6681068932
 10
176.5888893602
 20
125.6689560981
 10
176.6007843817
 20
125.6692396489
  0
LINE
  5
336
100
AcDbEntity
  8
0
100
AcDbLine
 62
253
  6
CONTINUOUS
 10
158.9507886125
 20
76.9454325756
 11
158.9376900338
 21
76.9323339969
  0
LINE
  5
337
100
AcDbEntity
  8
RACCORDO
100
AcDbLine
 62
7
  6
CONTINUOUS
 10
179.9876900338
 20
117.7823382277
 11
180.2106346831
 21
117.7823382277
  0
LINE
  5
338
100
AcDbEntity
  8
0
100
AcDbLine
 62
253
  6
CONTINUOUS
 10
158.9507886125
 20
125.4192438797
 11
158.9376900338
 21
125.4323424584
  0
LWPOLYLINE
  5
339
100
AcDbEntity
  8
0
100
AcDbPolyline
 62
7
  6
CONTINUOUS
 90
46
 70
0
 10
176.3449707827
 20
124.4493255258
 10
176.345143034
 20
124.4447468715
 10
176.3455691098
 20
124.440151564
 10
176.3462513274
 20
124.435546715
 10
176.3471917286
 20
124.4309422441
 10
176.3483920953
 20
124.4263428578
 10
176.3498540343
 20
124.4217480545
 10
176.351578835
 20
124.4171656325
 10
176.3535675192
 20
124.4126031751
 10
176.3558210394
 20
124.4080600615
 10
176.3583398697
 20
124.4035444238
 10
176.3611242081
 20
124.3990641825
 10
176.3641743435
 20
124.394618603
 10
176.367489876
 20
124.3902161094
 10
176.3710701255
 20
124.3858649131
 10
176.3749147142
 20
124.3815641695
 10
176.3790223223
 20
124.3773225361
 10
176.3833913254
 20
124.3731484827
 10
176.3880206369
 20
124.3690411007
 10
176.3929079548
 20
124.36500923
 10
176.3980506432
 20
124.3610615469
 10
176.4034468424
 20
124.3571971227
 10
176.4090932035
 20
124.3534249144
 10
176.4149859999
 20
124.3497537488
 10
176.4211224971
 20
124.3461827284
 10
176.4274982274
 20
124.3427208479
 10
176.4341082865
 20
124.3393770143
 10
176.4409489236
 20
124.3361504134
 10
176.4480144731
 20
124.3330499783
 10
176.4552987615
 20
124.3300846062
 10
176.4627968468
 20
124.3272536114
 10
176.4705017808
 20
124.3245657411
 10
176.4784060339
 20
124.3220297657
 10
176.4865032848
 20
124.3196451567
 10
176.4947851866
 20
124.3174203329
 10
176.5032428122
 20
124.3153637781
 10
176.5118683901
 20
124.3134751043
 10
176.5206521256
 20
124.3117622234
 10
176.5295836311
 20
124.3102331697
 10
176.5386536064
 20
124.3088876885
 10
176.5478374939
 20
124.3077352257
 10
176.5571365221
 20
124.3067800672
 10
176.5665801833
 20
124.3060179787
 10
176.5761701545
 20
124.3054563621
 10
176.585879375
 20
124.30510969
 10
176.5956937806
 20
124.3049879585
  0
LWPOLYLINE
  5
33A
100
AcDbEntity
  8
0
100
AcDbPolyline
 62
7
  6
CONTINUOUS
 90
46
 70
0
 10
179.2304092849
 20
77.9153509295
 10
179.2302370336
 20
77.9199295838
 10
179.2298109577
 20
77.9245248913
 10
179.2291287402
 20
77.9291297403
 10
179.2281883389
 20
77.9337342112
 10
179.2269879723
 20
77.9383335975
 10
179.2255260333
 20
77.9429284008
 10
179.2238012326
 20
77.9475108228
 10
179.2218125484
 20
77.9520732802
 10
179.2195590282
 20
77.9566163938
 10
179.2170401979
 20
77.9611320315
 10
179.2142558595
 20
77.9656122728
 10
179.2112057241
 20
77.9700578523
 10
179.2078901916
 20
77.9744603459
 10
179.2043099421
 20
77.9788115422
 10
179.2004653534
 20
77.9831122858
 10
179.1963577453
 20
77.9873539192
 10
179.1919887422
 20
77.9915279726
 10
179.1873594307
 20
77.9956353546
 10
179.1824721127
 20
77.9996672253
 10
179.1773294243
 20
78.0036149084
 10
179.1719332252
 20
78.0074793326
 10
179.1662868641
 20
78.0112515409
 10
179.1603940677
 20
78.0149227065
 10
179.1542575705
 20
78.0184937269
 10
179.1478818401
 20
78.0219556074
 10
179.1412717811
 20
78.025299441
 10
179.134431144
 20
78.0285260419
 10
179.1273655945
 20
78.031626477
 10
179.1200813061
 20
78.0345918491
 10
179.1125832207
 20
78.0374228439
 10
179.1048782868
 20
78.0401107142
 10
179.0969740337
 20
78.0426466896
 10
179.0888767828
 20
78.0450312986
 10
179.080594881
 20
78.0472561224
 10
179.0721372553
 20
78.0493126772
 10
179.0635116775
 20
78.051201351
 10
179.054727942
 20
78.0529142319
 10
179.0457964365
 20
78.0544432856
 10
179.0367264611
 20
78.0557887668
 10
179.0275425737
 20
78.0569412296
 10
179.0182435454
 20
78.0578963881
 10
179.0087998843
 20
78.0586584766
 10
178.9992099131
 20
78.0592200932
 10
178.9895006926
 20
78.0595667653
 10
178.9796862869
 20
78.0596884968
  0
LWPOLYLINE
  5
33B
100
AcDbEntity
  8
0
100
AcDbPolyline
 62
253
  6
CONTINUOUS
 90
34
 70
0
 10
176.3507886125
 20
125.0266757949
 10
176.3511052632
 20
125.0163930274
 10
176.351985425
 20
125.0061334675
 10
176.3534271113
 20
124.9959202704
 10
176.3554270683
 20
124.9857764866
 10
176.3579807823
 20
124.9757250102
 10
176.3610824897
 20
124.9657885268
 10
176.3647251901
 20
124.9559894622
 10
176.3689006622
 20
124.9463499326
 10
176.3735994821
 20
124.9368916937
 10
176.3788110449
 20
124.9276360922
 10
176.3845235884
 20
124.9186040175
 10
176.3907242198
 20
124.9098158544
 10
176.3973989446
 20
124.9012914372
 10
176.4045326982
 20
124.8930500052
 10
176.4121093803
 20
124.8851101586
 10
176.4201118908
 20
124.8774898174
 10
176.4285221684
 20
124.8702061801
 10
176.4373212316
 20
124.8632756854
 10
176.4464892215
 20
124.8567139752
 10
176.4560054465
 20
124.8505358588
 10
176.465848429
 20
124.8447552798
 10
176.4759959539
 20
124.8393852846
 10
176.486425119
 20
124.8344379931
 10
176.4971123862
 20
124.8299245709
 10
176.5080336349
 20
124.8258552046
 10
176.5191642166
 20
124.8222390785
 10
176.5304790102
 20
124.819084354
 10
176.5419524788
 20
124.8163981512
 10
176.5535587276
 20
124.8141865326
 10
176.5652715619
 20
124.8124544896
 10
176.5770645465
 20
124.8112059315
 10
176.5889110654
 20
124.8104436762
 10
176.6007843817
 20
124.810169444
  0
LWPOLYLINE
  5
33C
100
AcDbEntity
  8
0
100
AcDbPolyline
 62
253
  6
CONTINUOUS
 90
34
 70
0
 10
179.2245914551
 20
77.3380006604
 10
179.2242747931
 20
77.3482836214
 10
179.2233945988
 20
77.3585433736
 10
179.221952859
 20
77.3687567604
 10
179.2199528289
 20
77.3789007242
 10
179.217399022
 20
77.3889523756
 10
179.2142971966
 20
77.3988890442
 10
179.2106543459
 20
77.4086883147
 10
179.2064786929
 20
77.4183280559
 10
179.2017796707
 20
77.427786489
 10
179.1965678906
 20
77.4370422582
 10
179.1908551129
 20
77.4460744814
 10
179.1846542298
 20
77.4548627765
 10
179.1779792361
 20
77.4633873091
 10
179.1708451986
 20
77.4716288379
 10
179.1632682191
 20
77.4795687618
 10
179.1552653995
 20
77.4871891599
 10
179.1468548024
 20
77.494472833
 10
179.1380554098
 20
77.5014033426
 10
179.1288870839
 20
77.5079650452
 10
179.1193705164
 20
77.514143132
 10
179.1095271803
 20
77.5199236623
 10
179.0993792789
 20
77.5252935948
 10
179.088949728
 20
77.5302408011
 10
179.0782621003
 20
77.5347541011
 10
179.0673405405
 20
77.5388233042
 10
179.0562096807
 20
77.542439238
 10
179.0448946171
 20
77.5455937519
 10
179.0334205951
 20
77.5482797882
 10
179.0218137977
 20
77.5504911982
 10
179.0101012888
 20
77.5522228807
 10
178.9983098119
 20
77.5534710093
 10
178.9864657011
 20
77.5542329233
 10
178.9745956859
 20
77.5545070113
  0
LINE
  5
33D
100
AcDbEntity
  8
0
100
AcDbLine
 62
253
  6
CONTINUOUS
 10
176.3507886125
 20
77.3380006604
 11
176.3449707827
 21
77.9153509295
  0
LINE
  5
33E
100
AcDbEntity
  8
0
100
AcDbLine
 62
253
  6
CONTINUOUS
 10
176.6007843817
 20
77.5545070113
 11
176.5956937806
 21
78.0596884968
  0
LINE
  5
33F
100
AcDbEntity
  8
0
100
AcDbLine
 62
7
  6
CONTINUOUS
 10
176.3376900338
 20
76.9323339969
 11
176.3376900338
 21
78.7823382277
  0
LINE
  5
340
100
AcDbEntity
  8
0
100
AcDbLine
 62
7
  6
CONTINUOUS
 10
176.3376900338
 20
123.5823382277
 11
176.3376900338
 21
125.4323424584
  0
LINE
  5
341
100
AcDbEntity
  8
0
100
AcDbLine
 62
253
  6
CONTINUOUS
 10
176.3449707827
 20
124.4493255258
 11
176.3449707827
 21
123.51675228
  0
LINE
  5
342
100
AcDbEntity
  8
0
100
AcDbLine
 62
253
  6
CONTINUOUS
 10
176.3449707827
 20
78.8479241753
 11
176.3449707827
 21
77.9153509295
  0
LINE
  5
343
100
AcDbEntity
  8
0
100
AcDbLine
 62
253
  6
CONTINUOUS
 10
176.3507886125
 20
125.4192438797
 11
176.3507886125
 21
125.0266757949
  0
LINE
  5
344
100
AcDbEntity
  8
0
100
AcDbLine
 62
253
  6
CONTINUOUS
 10
176.3507886125
 20
77.3380006604
 11
176.3507886125
 21
76.9454325756
  0
LINE
  5
345
100
AcDbEntity
  8
0
100
AcDbLine
 62
253
  6
CONTINUOUS
 10
176.5949665519
 20
124.3049879585
 11
176.5949665519
 21
123.5037265587
  0
LINE
  5
346
100
AcDbEntity
  8
0
100
AcDbLine
 62
253
  6
CONTINUOUS
 10
176.5949665519
 20
78.8609498966
 11
176.5949665519
 21
78.0596884968
  0
LINE
  5
347
100
AcDbEntity
  8
0
100
AcDbLine
 62
253
  6
CONTINUOUS
 10
176.6007843817
 20
76.6954368064
 11
176.6007843817
 21
77.5545070113
  0
LINE
  5
348
100
AcDbEntity
  8
0
100
AcDbLine
 62
253
  6
CONTINUOUS
 10
176.6007843817
 20
124.810169444
 11
176.6007843817
 21
125.6692396489
  0
LINE
  5
349
100
AcDbEntity
  8
0
100
AcDbLine
 62
253
  6
CONTINUOUS
 10
176.3449707827
 20
124.4493255258
 11
176.3507886125
 21
125.0266757949
  0
LINE
  5
34A
100
AcDbEntity
  8
0
100
AcDbLine
 62
253
  6
CONTINUOUS
 10
176.5956937806
 20
124.3049879585
 11
176.6007843817
 21
124.810169444
  0
LWPOLYLINE
  5
34B
100
AcDbEntity
  8
0
100
AcDbPolyline
 62
253
  6
CONTINUOUS
 90
34
 70
0
 10
176.3507886125
 20
77.3380006604
 10
176.3511052632
 20
77.3482834279
 10
176.351985425
 20
77.3585429878
 10
176.3534271113
 20
77.3687561849
 10
176.3554270683
 20
77.3788999687
 10
176.3579807823
 20
77.3889514451
 10
176.3610824897
 20
77.3988879285
 10
176.3647251901
 20
77.4086869931
 10
176.3689006622
 20
77.4183265227
 10
176.3735994821
 20
77.4277847616
 10
176.3788110449
 20
77.4370403631
 10
176.3845235884
 20
77.4460724378
 10
176.3907242198
 20
77.4548606009
 10
176.3973989446
 20
77.4633850181
 10
176.4045326982
 20
77.4716264501
 10
176.4121093803
 20
77.4795662967
 10
176.4201118908
 20
77.4871866379
 10
176.4285221684
 20
77.4944702752
 10
176.4373212316
 20
77.5014007699
 10
176.4464892215
 20
77.5079624801
 10
176.4560054465
 20
77.5141405965
 10
176.465848429
 20
77.5199211756
 10
176.4759959539
 20
77.5252911707
 10
176.486425119
 20
77.5302384622
 10
176.4971123862
 20
77.5347518844
 10
176.5080336349
 20
77.5388212507
 10
176.5191642166
 20
77.5424373768
 10
176.5304790102
 20
77.5455921013
 10
176.5419524788
 20
77.5482783041
 10
176.5535587276
 20
77.5504899227
 10
176.5652715619
 20
77.5522219657
 10
176.5770645465
 20
77.5534705238
 10
176.5889110654
 20
77.5542327791
 10
176.6007843817
 20
77.5545070113
  0
LWPOLYLINE
  5
34C
100
AcDbEntity
  8
0
100
AcDbPolyline
 62
253
  6
CONTINUOUS
 90
34
 70
0
 10
179.2245914551
 20
125.0266757949
 10
179.2242748043
 20
125.0163930274
 10
179.2233946426
 20
125.0061334675
 10
179.2219529563
 20
124.9959202704
 10
179.2199529992
 20
124.9857764866
 10
179.2173992852
 20
124.9757250102
 10
179.2142975778
 20
124.9657885268
 10
179.2106548774
 20
124.9559894622
 10
179.2064794054
 20
124.9463499326
 10
179.2017805855
 20
124.9368916937
 10
179.1965690226
 20
124.9276360922
 10
179.1908564791
 20
124.9186040175
 10
179.1846558478
 20
124.9098158544
 10
179.177981123
 20
124.9012914372
 10
179.1708473694
 20
124.8930500052
 10
179.1632706872
 20
124.8851101586
 10
179.1552681768
 20
124.8774898174
 10
179.1468578992
 20
124.8702061801
 10
179.138058836
 20
124.8632756854
 10
179.128890846
 20
124.8567139752
 10
179.1193746211
 20
124.8505358588
 10
179.1095316386
 20
124.8447552798
 10
179.0993841136
 20
124.8393852846
 10
179.0889549486
 20
124.8344379931
 10
179.0782676814
 20
124.8299245709
 10
179.0673464327
 20
124.8258552046
 10
179.056215851
 20
124.8222390785
 10
179.0449010574
 20
124.819084354
 10
179.0334275887
 20
124.8163981512
 10
179.02182134
 20
124.8141865326
 10
179.0101085057
 20
124.8124544896
 10
178.998315521
 20
124.8112059315
 10
178.9864690021
 20
124.8104436762
 10
178.9745956859
 20
124.810169444
  0
LINE
  5
34D
100
AcDbEntity
  8
0
100
AcDbLine
 62
7
  6
CONTINUOUS
 10
179.2376900338
 20
123.5823382277
 11
179.2304092849
 21
123.51675228
  0
LINE
  5
34E
100
AcDbEntity
  8
0
100
AcDbLine
 62
253
  6
CONTINUOUS
 10
159.2007843817
 20
76.6954368064
 11
159.187685803
 21
76.6823382277
  0
LINE
  5
34F
100
AcDbEntity
  8
0
100
AcDbLine
 62
253
  6
CONTINUOUS
 10
159.2007843817
 20
125.6692396489
 11
159.187685803
 21
125.6823382277
  0
LINE
  5
350
100
AcDbEntity
  8
0
100
AcDbLine
 62
7
  6
CONTINUOUS
 10
179.2376900338
 20
78.7823382277
 11
179.2304092849
 21
78.8479241753
  0
LINE
  5
351
100
AcDbEntity
  8
RACCORDO
100
AcDbLine
 62
253
  6
CONTINUOUS
 10
179.8558657776
 20
79.8542164635
 11
179.8539265221
 21
79.9220247184
  0
LINE
  5
352
100
AcDbEntity
  8
RACCORDO
100
AcDbLine
 62
253
  6
CONTINUOUS
 10
179.8539265221
 20
79.9220247184
 11
179.8522650948
 21
79.9994554823
  0
LINE
  5
353
100
AcDbEntity
  8
RACCORDO
100
AcDbLine
 62
253
  6
CONTINUOUS
 10
179.3669580444
 20
79.2032415545
 11
179.3668604422
 21
79.2085633929
  0
LWPOLYLINE
  5
354
100
AcDbEntity
  8
0
100
AcDbPolyline
 62
7
  6
CONTINUOUS
 90
34
 70
0
 10
180.2381263772
 20
123.0823551507
 10
180.2377825377
 20
123.1009982214
 10
180.2367415691
 20
123.1195966769
 10
180.2350034712
 20
123.1381505172
 10
180.2325626042
 20
123.15670045
 10
180.229424608
 20
123.1752057676
 10
180.2256064024
 20
123.1935443467
 10
180.2211034026
 20
123.2117039328
 10
180.2159201933
 20
123.2296967805
 10
180.2100874481
 20
123.2474375306
 10
180.2036137266
 20
123.2649036272
 10
180.1964904692
 20
123.2821176263
 10
180.1887226704
 20
123.2990618364
 10
180.1802969199
 20
123.315762792
 10
180.1712266281
 20
123.3321939587
 10
180.1615570203
 20
123.348258041
 10
180.151279155
 20
123.3639541085
 10
180.1404019737
 20
123.3792830916
 10
180.1289975268
 20
123.3941504865
 10
180.1170783287
 20
123.4085349916
 10
180.1046318649
 20
123.4224579085
 10
180.0916926422
 20
123.4358886386
 10
180.0782618378
 20
123.448828664
 10
180.0643382744
 20
123.4612765026
 10
180.0499529271
 20
123.4731971094
 10
180.0350843317
 20
123.4846029759
 10
180.0197539524
 20
123.4954816106
 10
180.0040571564
 20
123.5057604942
 10
179.9879935294
 20
123.5154303509
 10
179.9715634857
 20
123.5245004564
 10
179.9548636358
 20
123.5329261187
 10
179.937920819
 20
123.5406939851
 10
179.9207081961
 20
123.5478174081
 10
179.9032418601
 20
123.5542917536
  0
LINE
  5
355
100
AcDbEntity
  8
RACCORDO
100
AcDbLine
 62
253
  6
CONTINUOUS
 10
179.8522650948
 20
79.9994554823
 11
179.8509068254
 21
80.0853181327
  0
LINE
  5
356
100
AcDbEntity
  8
0
100
AcDbLine
 62
253
  6
CONTINUOUS
 10
178.9745956859
 20
124.810169444
 11
178.9796862869
 21
124.3049879585
  0
LINE
  5
357
100
AcDbEntity
  8
0
100
AcDbLine
 62
253
  6
CONTINUOUS
 10
179.2245914551
 20
125.0266757949
 11
179.2304092849
 21
124.4493255258
  0
LINE
  5
358
100
AcDbEntity
  8
RACCORDO
100
AcDbLine
 62
253
  6
CONTINUOUS
 10
179.8509068254
 20
80.0853181327
 11
179.8495076425
 21
80.2255876029
  0
LINE
  5
359
100
AcDbEntity
  8
RACCORDO
100
AcDbLine
 62
253
  6
CONTINUOUS
 10
179.8495076425
 20
80.2255876029
 11
179.8489255503
 21
80.3733202572
  0
LINE
  5
35A
100
AcDbEntity
  8
DRAFT
100
AcDbLine
 62
7
  6
CONTINUOUS
 10
180.1827345388
 20
101.1823382277
 11
180.2106346831
 21
84.5823382277
  0
LINE
  5
35B
100
AcDbEntity
  8
RACCORDO
100
AcDbLine
 62
253
  6
CONTINUOUS
 10
179.3668604422
 20
79.2085633929
 11
179.3665709154
 21
79.3252399784
  0
LWPOLYLINE
  5
35C
100
AcDbEntity
  8
RACCORDO
100
AcDbPolyline
 62
253
  6
CONTINUOUS
 90
9
 70
0
 10
179.8489255503
 20
80.3733202572
 10
179.8443724528
 20
84.9961434529
 10
179.8409576297
 20
89.6196681434
 10
179.838681081
 20
94.2438943288
 10
179.8375428067
 20
98.8692896623
 10
179.8375428067
 20
103.4953864907
 10
179.8386810809
 20
108.1207818536
 10
179.8409576291
 20
112.7450080977
 10
179.8443724514
 20
117.3685328763
  0
LWPOLYLINE
  5
35D
100
AcDbEntity
  8
RACCORDO
100
AcDbPolyline
 62
253
  6
CONTINUOUS
 90
9
 70
0
 10
179.3636806919
 20
84.979052334
 10
179.3616785215
 20
89.6074066789
 10
179.3603437412
 20
94.2368686881
 10
179.3596763508
 20
98.8670849288
 10
179.3596763505
 20
103.4975898848
 10
179.3603437408
 20
108.1278062889
 10
179.3616785216
 20
112.7572686248
 10
179.3636806927
 20
117.3856234594
 10
179.3663502539
 20
122.0124620162
  0
LINE
  5
35E
100
AcDbEntity
  8
0
100
AcDbLine
 62
253
  6
CONTINUOUS
 10
178.9745956859
 20
76.6954368064
 11
178.9745956859
 21
77.5545070113
  0
LINE
  5
35F
100
AcDbEntity
  8
0
100
AcDbLine
 62
253
  6
CONTINUOUS
 10
178.9745956859
 20
124.810169444
 11
178.9745956859
 21
125.6692396489
  0
LINE
  5
360
100
AcDbEntity
  8
0
100
AcDbLine
 62
253
  6
CONTINUOUS
 10
178.9804135157
 20
78.0596884968
 11
178.9804135157
 21
78.8609498966
  0
LINE
  5
361
100
AcDbEntity
  8
0
100
AcDbLine
 62
253
  6
CONTINUOUS
 10
178.9804135157
 20
123.5037265587
 11
178.9804135157
 21
124.3049879585
  0
LINE
  5
362
100
AcDbEntity
  8
0
100
AcDbLine
 62
253
  6
CONTINUOUS
 10
179.2245914551
 20
76.9454325756
 11
179.2245914551
 21
77.3380006604
  0
LINE
  5
363
100
AcDbEntity
  8
0
100
AcDbLine
 62
253
  6
CONTINUOUS
 10
179.2245914551
 20
125.0266757949
 11
179.2245914551
 21
125.4192438797
  0
LINE
  5
364
100
AcDbEntity
  8
0
100
AcDbLine
 62
253
  6
CONTINUOUS
 10
179.2304092849
 20
77.9153509295
 11
179.2304092849
 21
78.8479241753
  0
LINE
  5
365
100
AcDbEntity
  8
0
100
AcDbLine
 62
253
  6
CONTINUOUS
 10
179.2304092849
 20
123.51675228
 11
179.2304092849
 21
124.4493255258
  0
LINE
  5
366
100
AcDbEntity
  8
0
100
AcDbLine
 62
7
  6
CONTINUOUS
 10
179.2376900338
 20
76.9323339969
 11
179.2376900338
 21
78.7823382277
  0
LINE
  5
367
100
AcDbEntity
  8
0
100
AcDbLine
 62
7
  6
CONTINUOUS
 10
179.2376900338
 20
123.5823382277
 11
179.2376900338
 21
125.4323424584
  0
LINE
  5
368
100
AcDbEntity
  8
RACCORDO
100
AcDbLine
 62
253
  6
CONTINUOUS
 10
179.3665709154
 20
79.3252399784
 11
179.3662825584
 21
79.8579358993
  0
LINE
  5
369
100
AcDbEntity
  8
RACCORDO
100
AcDbLine
 62
7
  6
CONTINUOUS
 10
179.9876900338
 20
79.5821668901
 11
179.9876900338
 21
122.7825095652
  0
LINE
  5
36A
100
AcDbEntity
  8
DRAFT
100
AcDbLine
 62
7
  6
CONTINUOUS
 10
180.2106346831
 20
79.3611787486
 11
180.2106346831
 21
84.5823382277
  0
LINE
  5
36B
100
AcDbEntity
  8
DRAFT
100
AcDbLine
 62
7
  6
CONTINUOUS
 10
180.2106346831
 20
117.7823382277
 11
180.2106346831
 21
123.0034977067
  0
LINE
  5
36C
100
AcDbEntity
  8
0
100
AcDbLine
 62
7
  6
CONTINUOUS
 10
180.2368172805
 20
79.2825670797
 11
180.2368172805
 21
123.0821093756
  0
LINE
  5
36D
100
AcDbEntity
  8
0
100
AcDbLine
 62
7
  6
CONTINUOUS
 10
180.2381263772
 20
79.2823213046
 11
180.2381263772
 21
123.0823551507
  0
LINE
  5
36E
100
AcDbEntity
  8
RACCORDO
100
AcDbLine
 62
253
  6
CONTINUOUS
 10
179.366350258
 20
122.0124620183
 11
179.3663125785
 21
122.6535972693
  0
LINE
  5
36F
100
AcDbEntity
  8
RACCORDO
100
AcDbLine
 62
253
  6
CONTINUOUS
 10
179.3662825584
 20
79.8579358993
 11
179.3636806919
 21
84.979052334
  0
LINE
  5
370
100
AcDbEntity
  8
RACCORDO
100
AcDbLine
 62
253
  6
CONTINUOUS
 10
179.3663125785
 20
122.6535972693
 11
179.3663942436
 21
122.8465470263
  0
LINE
  5
371
100
AcDbEntity
  8
RACCORDO
100
AcDbLine
 62
253
  6
CONTINUOUS
 10
179.3663942436
 20
122.8465470263
 11
179.3665239351
 21
122.9989307755
  0
LINE
  5
372
100
AcDbEntity
  8
DRAFT
100
AcDbLine
 62
7
  6
CONTINUOUS
 10
180.2106346831
 20
117.7823382277
 11
180.1827345388
 21
101.1823382277
  0
LWPOLYLINE
  5
373
100
AcDbEntity
  8
RACCORDO
100
AcDbPolyline
 62
253
  6
CONTINUOUS
 90
4
 70
0
 10
179.3665239351
 20
122.9989307755
 10
179.3667960151
 20
123.1446741444
 10
179.3668604391
 20
123.1561130576
 10
179.3669580398
 20
123.1614348962
  0
LINE
  5
374
100
AcDbEntity
  8
RACCORDO
100
AcDbLine
 62
253
  6
CONTINUOUS
 10
179.8443724514
 20
117.3685328763
 11
179.8492228197
 21
122.0906738709
  0
LINE
  5
375
100
AcDbEntity
  8
RACCORDO
100
AcDbLine
 62
253
  6
CONTINUOUS
 10
179.8492228197
 20
122.0906738709
 11
179.8503543994
 21
122.2339556081
  0
LINE
  5
376
100
AcDbEntity
  8
0
100
AcDbLine
 62
253
  6
CONTINUOUS
 10
178.9796862869
 20
78.0596884968
 11
178.9745956859
 21
77.5545070113
  0
LINE
  5
377
100
AcDbEntity
  8
0
100
AcDbLine
 62
253
  6
CONTINUOUS
 10
179.2304092849
 20
77.9153509295
 11
179.2245914551
 21
77.3380006604
  0
LINE
  5
378
100
AcDbEntity
  8
RACCORDO
100
AcDbLine
 62
253
  6
CONTINUOUS
 10
179.8503543994
 20
122.2339556081
 11
179.8515441322
 21
122.3230976672
  0
LWPOLYLINE
  5
379
100
AcDbEntity
  8
0
100
AcDbPolyline
 62
7
  6
CONTINUOUS
 90
34
 70
0
 10
180.2368172805
 20
79.2825670797
 10
180.2364728391
 20
79.2638898582
 10
180.2354308609
 20
79.2452591626
 10
180.2336913459
 20
79.2266749929
 10
180.2312485207
 20
79.2080966007
 10
180.2281081588
 20
79.1895647344
 10
180.2242875802
 20
79.1712016397
 10
180.2197822331
 20
79.1530196734
 10
180.2145966693
 20
79.1350064788
 10
180.2087618656
 20
79.1172472315
 10
180.2022863685
 20
79.099764442
 10
180.1951616314
 20
79.0825355998
 10
180.1873929905
 20
79.065578349
 10
180.1789670098
 20
79.0488661327
 10
180.1698971253
 20
79.0324255078
 10
180.1602289812
 20
79.0163537894
 10
180.1499536978
 20
79.0006520236
 10
180.1390801547
 20
78.9853191644
 10
180.1276806347
 20
78.9704493886
 10
180.1157678103
 20
78.9560641263
 10
180.1033290089
 20
78.9421419475
 10
180.0903984951
 20
78.9287127397
 10
180.0769772798
 20
78.915774817
 10
180.0630643522
 20
78.9033298653
 10
180.0486909437
 20
78.8914128304
 10
180.0338357552
 20
78.8800113401
 10
180.018520086
 20
78.8691377666
 10
180.0028390651
 20
78.8588641721
 10
179.9867923682
 20
78.8491998238
 10
179.9703803196
 20
78.8401354545
 10
179.9536990224
 20
78.8317153246
 10
179.9367752834
 20
78.8239527145
 10
179.9195822957
 20
78.8168343438
 10
179.9021357418
 20
78.8103646317
  0
LINE
  5
37A
100
AcDbEntity
  8
RACCORDO
100
AcDbLine
 62
253
  6
CONTINUOUS
 10
179.8515441322
 20
122.3230976672
 11
179.8530588205
 21
122.4050833375
  0
LWPOLYLINE
  5
37B
100
AcDbEntity
  8
0
100
AcDbPolyline
 62
253
  6
CONTINUOUS
 90
34
 70
0
 10
179.2245914551
 20
76.9454325756
 10
179.2243079043
 20
76.933537554
 10
179.2234586993
 20
76.9216694774
 10
179.2220457639
 20
76.9098552295
 10
179.2200722986
 20
76.8981215722
 10
179.2175427739
 20
76.886495085
 10
179.2144629195
 20
76.8750021044
 10
179.2108397121
 20
76.8636686646
 10
179.206681359
 20
76.8525204383
 10
179.2019972799
 20
76.8415826789
 10
179.1967980853
 20
76.8308801628
 10
179.1910955524
 20
76.8204371335
 10
179.1849025989
 20
76.8102772469
 10
179.1782332531
 20
76.8004235174
 10
179.1711026225
 20
76.7908982659
 10
179.1635268597
 20
76.7817230693
 10
179.1555231255
 20
76.7729187113
 10
179.1471095501
 20
76.7645051359
 10
179.1383051922
 20
76.7565014017
 10
179.1291299955
 20
76.7489256389
 10
179.119604744
 20
76.7417950084
 10
179.1097510145
 20
76.7351256625
 10
179.0995911279
 20
76.728932709
 10
179.0891480987
 20
76.7232301761
 10
179.0784455825
 20
76.7180309815
 10
179.0675078231
 20
76.7133469024
 10
179.0563595969
 20
76.7091885494
 10
179.045026157
 20
76.705565342
 10
179.0335331764
 20
76.7024854876
 10
179.0219066892
 20
76.6999559628
 10
179.010173032
 20
76.6979824975
 10
178.998358784
 20
76.6965695621
 10
178.9864907074
 20
76.6957203572
 10
178.9745956859
 20
76.6954368064
  0
LWPOLYLINE
  5
37C
100
AcDbEntity
  8
0
100
AcDbPolyline
 62
7
  6
CONTINUOUS
 90
34
 70
0
 10
179.2376900338
 20
76.9323339969
 10
179.2374068835
 20
76.9204387116
 10
179.236558068
 20
76.9085703721
 10
179.2351455079
 20
76.8967558615
 10
179.2331724015
 20
76.8850219402
 10
179.2306432155
 20
76.8733951888
 10
179.2275636755
 20
76.8619019486
 10
179.2239407551
 20
76.8505682539
 10
179.2197826596
 20
76.8394197784
 10
179.215098806
 20
76.8284817814
 10
179.2098998026
 20
76.8177790401
 10
179.2041974254
 20
76.8073357994
 10
179.1980045919
 20
76.7971757217
 10
179.1913353293
 20
76.7873218225
 10
179.1842047445
 20
76.7777964238
 10
179.1766289926
 20
76.7686211086
 10
179.1686252343
 20
76.7598166616
 10
179.1602115999
 20
76.7514030272
 10
179.1514071528
 20
76.7433992688
 10
179.1422318376
 20
76.7358235169
 10
179.1327064389
 20
76.7286929322
 10
179.1228525397
 20
76.7220236695
 10
179.1126924621
 20
76.715830836
 10
179.1022492214
 20
76.7101284588
 10
179.0915464801
 20
76.7049294555
 10
179.0806084831
 20
76.7002456019
 10
179.0694600076
 20
76.6960875063
 10
179.0581263128
 20
76.6924645859
 10
179.0466330726
 20
76.6893850459
 10
179.0350063213
 20
76.6868558599
 10
179.0232723999
 20
76.6848827535
 10
179.0114578894
 20
76.6834701934
 10
178.9995895498
 20
76.6826213779
 10
178.9876942646
 20
76.6823382277
  0
LWPOLYLINE
  5
37D
100
AcDbEntity
  8
RACCORDO
100
AcDbPolyline
 62
253
  6
CONTINUOUS
 90
12
 70
0
 10
179.8530588205
 20
122.4050833375
 10
179.8548669869
 20
122.4779591952
 10
179.8558657729
 20
122.5104599865
 10
179.8569237622
 20
122.5401087309
 10
179.858040068
 20
122.5669508027
 10
179.8591975749
 20
122.5905765829
 10
179.8603974999
 20
122.6109370749
 10
179.861638626
 20
122.6280812753
 10
179.862900186
 20
122.6417465543
 10
179.8641752576
 20
122.6518453688
 10
179.865470763
 20
122.6584652619
 10
179.8667867023
 20
122.6616062337
  0
LINE
  5
37E
100
AcDbEntity
  8
0
100
AcDbLine
 62
7
  6
CONTINUOUS
 10
176.3376900338
 20
78.7823382277
 11
176.3449707827
 21
78.8479241753
  0
LINE
  5
37F
100
AcDbEntity
  8
0
100
AcDbLine
 62
7
  6
CONTINUOUS
 10
164.6376900338
 20
77.1823382277
 11
164.6464167785
 21
77.1910649724
  0
LINE
  5
380
100
AcDbEntity
  8
0
100
AcDbLine
 62
7
  6
CONTINUOUS
 10
158.3270897031
 20
123.5698245888
 11
158.3078794209
 21
123.5653110809
  0
LINE
  5
381
100
AcDbEntity
  8
0
100
AcDbLine
 62
7
  6
CONTINUOUS
 10
158.3260434012
 20
123.5698156904
 11
158.3454295284
 21
123.5736410639
  0
LINE
  5
382
100
AcDbEntity
  8
0
100
AcDbLine
 62
7
  6
CONTINUOUS
 10
158.3443683513
 20
123.5736349136
 11
158.363936035
 21
123.5767775149
  0
LINE
  5
383
100
AcDbEntity
  8
0
100
AcDbLine
 62
7
  6
CONTINUOUS
 10
158.382435213
 20
123.5792171373
 11
158.3628598184
 21
123.5767736215
  0
LWPOLYLINE
  5
384
100
AcDbEntity
  8
0
100
AcDbPolyline
 62
7
  6
CONTINUOUS
 90
33
 70
0
 10
170.2702586945
 20
125.1815771376
 10
170.2615845187
 20
125.1806271346
 10
170.2529600428
 20
125.1792996641
 10
170.244401684
 20
125.1775972541
 10
170.2359257336
 20
125.175523146
 10
170.2275483262
 20
125.1730812885
 10
170.2192854086
 20
125.1702763305
 10
170.21115271
 20
125.1671136125
 10
170.2031657112
 20
125.1635991554
 10
170.1953396158
 20
125.1597396498
 10
170.1876893214
 20
125.1555424436
 10
170.1802293904
 20
125.151015527
 10
170.1729740231
 20
125.1461675177
 10
170.1659370302
 20
125.1410076455
 10
170.1591318067
 20
125.1355457328
 10
170.1525713063
 20
125.129792177
 10
170.1462680169
 20
125.1237579319
 10
170.1402339367
 20
125.117454484
 10
170.1344805513
 20
125.1108938326
 10
170.1290188121
 20
125.1040884677
 10
170.1238591151
 20
125.0970513436
 10
170.1190112813
 20
125.0897958558
 10
170.1144845383
 20
125.0823358169
 10
170.110287502
 20
125.0746854273
 10
170.1064281612
 20
125.0668592496
 10
170.1029138612
 20
125.0588721823
 10
170.0997512911
 20
125.0507394291
 10
170.0969464702
 20
125.0424764704
 10
170.0945047367
 20
125.034099036
 10
170.0924307379
 20
125.0256230723
 10
170.0907284209
 20
125.0170647131
 10
170.0894010255
 20
125.0084402499
 10
170.0884510777
 20
124.9997660995
  0
LINE
  5
385
100
AcDbEntity
  8
0
100
AcDbLine
 62
7
  6
CONTINUOUS
 10
158.400869059
 20
123.5809543294
 11
158.3814472488
 21
123.5792149893
  0
LINE
  5
386
100
AcDbEntity
  8
0
100
AcDbLine
 62
7
  6
CONTINUOUS
 10
158.4192955765
 20
123.5819946929
 11
158.4001071244
 21
123.5809534088
  0
LWPOLYLINE
  5
387
100
AcDbEntity
  8
RACCORDO
100
AcDbPolyline
 62
253
  6
CONTINUOUS
 90
16
 70
0
 10
136.3084220231
 20
123.1614349008
 10
136.2561976919
 20
123.1586633134
 10
136.2045451279
 20
123.150450478
 10
136.1540297646
 20
123.1368863221
 10
136.1052045671
 20
123.1181193456
 10
136.0586040275
 20
123.0943550127
 10
136.0147383062
 20
123.0658535179
 10
135.9740875794
 20
123.0329269007
 10
135.9370968065
 20
122.9959356247
 10
135.9041708979
 20
122.9552846641
 10
135.8756702526
 20
122.9114190477
 10
135.8519068098
 20
122.864818969
 10
135.8331406521
 20
122.8159945413
 10
135.8195771642
 20
122.7654802281
 10
135.8113647815
 20
122.7138289943
 10
135.8085933606
 20
122.6616062384
  0
LINE
  5
388
100
AcDbEntity
  8
0
100
AcDbLine
 62
7
  6
CONTINUOUS
 10
158.4377147653
 20
123.5823382277
 11
158.4188629632
 21
123.5819944882
  0
LWPOLYLINE
  5
389
100
AcDbEntity
  8
0
100
AcDbPolyline
 62
7
  6
CONTINUOUS
 90
46
 70
0
 10
178.9804135157
 20
124.3049879585
 10
178.989935226
 20
124.3051280987
 10
178.9994288059
 20
124.3054733072
 10
179.0088806137
 20
124.3060235842
 10
179.0182897615
 20
124.3067836757
 10
179.0276301988
 20
124.3077488355
 10
179.0368515526
 20
124.3089048252
 10
179.0459289285
 20
124.310252066
 10
179.0548642861
 20
124.3117901367
 10
179.0636490063
 20
124.3135035345
 10
179.0722727483
 20
124.3153925294
 10
179.0807258201
 20
124.3174568516
 10
179.0890012016
 20
124.3196801888
 10
179.0970900423
 20
124.3220626864
 10
179.1049841129
 20
124.3246041991
 10
179.1126778633
 20
124.327287979
 10
179.1201638571
 20
124.3301140703
 10
179.1274352344
 20
124.3330824288
 10
179.1344877541
 20
124.3361761737
 10
179.1413153134
 20
124.3393952808
 10
179.1479123027
 20
124.3427397742
 10
179.1542755715
 20
124.3461928462
 10
179.1604002452
 20
124.3497544282
 10
179.1662818672
 20
124.3534245888
 10
179.1719181865
 20
124.3571867246
 10
179.1773054539
 20
124.3610407409
 10
179.182440278
 20
124.3649867325
 10
179.1873211591
 20
124.3690083809
 10
179.1919453796
 20
124.373105575
 10
179.1963105371
 20
124.3772784259
 10
179.2004157806
 20
124.3815109477
 10
179.2042593433
 20
124.3858030176
 10
179.2078397467
 20
124.3901547584
 10
179.211156729
 20
124.3945505525
 10
179.2142094056
 20
124.3989902651
 10
179.2169971657
 20
124.4034740309
 10
179.2195203099
 20
124.4079866361
 10
179.2217787778
 20
124.4125279294
 10
179.2237727768
 20
124.4170980621
 10
179.2255031666
 20
124.4216822744
 10
179.2269706604
 20
124.4262803935
 10
179.2281762361
 20
124.4308925922
 10
179.2291213149
 20
124.4355046289
 10
179.2298073633
 20
124.4401117565
 10
179.2302360289
 20
124.4447187221
 10
179.2304092849
 20
124.4493255258
  0
LWPOLYLINE
  5
38A
100
AcDbEntity
  8
RACCORDO
100
AcDbPolyline
 62
253
  6
CONTINUOUS
 90
14
 70
0
 10
136.2094417845
 20
122.0117792519
 10
136.1611722311
 20
122.0111253565
 10
136.1145747424
 20
122.0102712605
 10
136.0701212071
 20
122.0092256133
 10
136.0282618026
 20
122.0079990041
 10
135.9894204354
 20
122.0066038546
 10
135.9539904488
 20
122.0050542934
 10
135.9223306393
 20
122.0033660127
 10
135.8947616231
 20
122.0015561097
 10
135.8715625893
 20
121.9996429131
 10
135.8529684726
 20
121.9976457976
 10
135.8391675739
 20
121.995584988
 10
135.8302996539
 20
121.9934813537
 10
135.8264545173
 20
121.9913561982
  0
LINE
  5
38B
100
AcDbEntity
  8
RACCORDO
100
AcDbLine
 62
253
  6
CONTINUOUS
 10
136.3090298159
 20
122.0124620476
 11
136.2094417845
 21
122.0117792519
  0
LINE
  5
38C
100
AcDbEntity
  8
RACCORDO
100
AcDbLine
 62
253
  6
CONTINUOUS
 10
179.3669580402
 20
123.1614348966
 11
174.8874551236
 21
123.1577930931
  0
LINE
  5
38D
100
AcDbEntity
  8
RACCORDO
100
AcDbLine
 62
253
  6
CONTINUOUS
 10
174.8874551236
 20
123.1577930931
 11
170.4218278189
 21
123.155001048
  0
LINE
  5
38E
100
AcDbEntity
  8
RACCORDO
100
AcDbLine
 62
253
  6
CONTINUOUS
 10
170.4218278189
 20
123.155001048
 11
165.9604911189
 21
123.1530558593
  0
LINE
  5
38F
100
AcDbEntity
  8
RACCORDO
100
AcDbLine
 62
253
  6
CONTINUOUS
 10
165.9604911189
 20
123.1530558593
 11
161.4797313467
 21
123.1519385816
  0
LINE
  5
390
100
AcDbEntity
  8
RACCORDO
100
AcDbLine
 62
253
  6
CONTINUOUS
 10
149.7423106948
 20
122.0142747033
 11
136.3090298158
 21
122.0124620251
  0
LINE
  5
391
100
AcDbEntity
  8
RACCORDO
100
AcDbLine
 62
253
  6
CONTINUOUS
 10
161.4797313467
 20
123.1519385816
 11
156.9085372315
 21
123.1516809401
  0
LINE
  5
392
100
AcDbEntity
  8
RACCORDO
100
AcDbLine
 62
7
  6
CONTINUOUS
 10
136.1875186963
 20
123.2823382277
 11
179.4878613713
 21
123.2823382277
  0
LINE
  5
393
100
AcDbEntity
  8
0
100
AcDbLine
 62
7
  6
CONTINUOUS
 10
158.4643647847
 20
123.5037265587
 11
159.1949665519
 21
123.5037265587
  0
LINE
  5
394
100
AcDbEntity
  8
0
100
AcDbLine
 62
7
  6
CONTINUOUS
 10
161.5804135157
 20
123.5037265587
 11
164.6464167785
 21
123.5037265587
  0
LINE
  5
395
100
AcDbEntity
  8
0
100
AcDbLine
 62
7
  6
CONTINUOUS
 10
165.5876900338
 20
123.5037265587
 11
172.5876900338
 21
123.5037265587
  0
LINE
  5
396
100
AcDbEntity
  8
0
100
AcDbLine
 62
7
  6
CONTINUOUS
 10
173.5289632891
 20
123.5037265587
 11
176.5949665519
 21
123.5037265587
  0
LINE
  5
397
100
AcDbEntity
  8
0
100
AcDbLine
 62
7
  6
CONTINUOUS
 10
178.9804135157
 20
123.5037265587
 11
179.7110152829
 21
123.5037265587
  0
LINE
  5
398
100
AcDbEntity
  8
0
100
AcDbLine
 62
7
  6
CONTINUOUS
 10
165.5876900338
 20
123.556134338
 11
167.8876900338
 21
123.556134338
  0
LINE
  5
399
100
AcDbEntity
  8
0
100
AcDbLine
 62
7
  6
CONTINUOUS
 10
170.2876900338
 20
123.556134338
 11
172.5876900338
 21
123.556134338
  0
LINE
  5
39A
100
AcDbEntity
  8
0
100
AcDbLine
 62
7
  6
CONTINUOUS
 10
170.0876900338
 20
123.5823382277
 11
168.0876900338
 21
123.5823382277
  0
LINE
  5
39B
100
AcDbEntity
  8
0
100
AcDbLine
 62
7
  6
CONTINUOUS
 10
158.4381821873
 20
123.5823382277
 11
158.9376900338
 21
123.5823382277
  0
LINE
  5
39C
100
AcDbEntity
  8
0
100
AcDbLine
 62
7
  6
CONTINUOUS
 10
161.8376900338
 20
123.5823382277
 11
164.6376900338
 21
123.5823382277
  0
LINE
  5
39D
100
AcDbEntity
  8
0
100
AcDbLine
 62
7
  6
CONTINUOUS
 10
173.5376900338
 20
123.5823382277
 11
176.3376900338
 21
123.5823382277
  0
LINE
  5
39E
100
AcDbEntity
  8
0
100
AcDbLine
 62
7
  6
CONTINUOUS
 10
179.2376900338
 20
123.5823382277
 11
179.7371978803
 21
123.5823382277
  0
LINE
  5
39F
100
AcDbEntity
  8
0
100
AcDbLine
 62
7
  6
CONTINUOUS
 10
178.9804135157
 20
124.3049879585
 11
176.5949665519
 21
124.3049879585
  0
LINE
  5
3A0
100
AcDbEntity
  8
0
100
AcDbLine
 62
7
  6
CONTINUOUS
 10
159.1949665519
 20
124.3049879585
 11
161.5804135157
 21
124.3049879585
  0
LINE
  5
3A1
100
AcDbEntity
  8
RACCORDO
100
AcDbLine
 62
253
  6
CONTINUOUS
 10
174.8867310778
 20
122.0132490448
 11
149.7423106948
 21
122.0142747033
  0
LINE
  5
3A2
100
AcDbEntity
  8
RACCORDO
100
AcDbLine
 62
253
  6
CONTINUOUS
 10
179.3663502539
 20
122.0124620162
 11
174.8867310778
 21
122.0132490448
  0
LINE
  5
3A3
100
AcDbEntity
  8
RACCORDO
100
AcDbLine
 62
253
  6
CONTINUOUS
 10
156.9085372315
 20
123.1516809401
 11
149.7452695494
 21
123.1530460551
  0
LINE
  5
3A4
100
AcDbEntity
  8
RACCORDO
100
AcDbLine
 62
253
  6
CONTINUOUS
 10
149.7452695494
 20
123.1530460551
 11
144.6414339364
 21
123.155335412
  0
LINE
  5
3A5
100
AcDbEntity
  8
RACCORDO
100
AcDbLine
 62
253
  6
CONTINUOUS
 10
144.6414339364
 20
123.155335412
 11
136.3084220231
 21
123.1614349009
  0
LWPOLYLINE
  5
3A6
100
AcDbEntity
  8
RACCORDO
100
AcDbPolyline
 62
253
  6
CONTINUOUS
 90
15
 70
0
 10
179.3663498052
 20
122.0124614808
 10
179.4659368084
 20
122.0117787104
 10
179.5142059035
 20
122.011124837
 10
179.5608029917
 20
122.010270769
 10
179.605256198
 20
122.009225155
 10
179.6471153583
 20
122.0079985834
 10
179.6859565775
 20
122.0066034753
 10
179.7213865221
 20
122.0050539586
 10
179.7530464039
 20
122.0033657247
 10
179.7806156126
 20
122.0015558699
 10
179.8038149633
 20
121.999642722
 10
179.822409523
 20
121.9976456549
 10
179.8362109903
 20
121.9955848924
 10
179.8450796018
 20
121.9934813031
 10
179.8489255478
 20
121.9913561894
  0
LINE
  5
3A7
100
AcDbEntity
  8
0
100
AcDbLine
 62
7
  6
CONTINUOUS
 10
179.7565171043
 20
123.5819944882
 11
179.7376653022
 21
123.5823382277
  0
LWPOLYLINE
  5
3A8
100
AcDbEntity
  8
RACCORDO
100
AcDbPolyline
 62
253
  6
CONTINUOUS
 90
16
 70
0
 10
179.3669580398
 20
123.1614348962
 10
179.4191816659
 20
123.1586633834
 10
179.4708336177
 20
123.1504507544
 10
179.5213484787
 20
123.13688691
 10
179.5701732798
 20
123.1181203291
 10
179.6167735525
 20
123.094356443
 10
179.6606391795
 20
123.0658553871
 10
179.7012899785
 20
123.0329291527
 10
179.7382809591
 20
122.9959381721
 10
179.7712071934
 20
122.955287373
 10
179.7997082493
 20
122.911421746
 10
179.8234721353
 20
122.8648214733
 10
179.8422387161
 20
122.8159966722
 10
179.8558025605
 20
122.7654818113
 10
179.8640151895
 20
122.7138298597
 10
179.8667867023
 20
122.6616062337
  0
LINE
  5
3A9
100
AcDbEntity
  8
0
100
AcDbLine
 62
7
  6
CONTINUOUS
 10
164.6376900338
 20
125.1823382277
 11
164.6464167785
 21
125.1736114829
  0
LINE
  5
3AA
100
AcDbEntity
  8
0
100
AcDbLine
 62
7
  6
CONTINUOUS
 10
176.3376900338
 20
123.5823382277
 11
176.3449707827
 21
123.51675228
  0
LWPOLYLINE
  5
3AB
100
AcDbEntity
  8
0
100
AcDbPolyline
 62
7
  6
CONTINUOUS
 90
33
 70
0
 10
170.2876900338
 20
125.1805861094
 10
170.2781722649
 20
125.180359515
 10
170.2686760485
 20
125.1796802441
 10
170.2592229032
 20
125.1785498336
 10
170.2498342437
 20
125.176970842
 10
170.2405313515
 20
125.1749468456
 10
170.2313353257
 20
125.1724824343
 10
170.2222670095
 20
125.1695831948
 10
170.2133469464
 20
125.1662556961
 10
170.2045953511
 20
125.1625074799
 10
170.1960320528
 20
125.1583470397
 10
170.1876764572
 20
125.1537838046
 10
170.1795475047
 20
125.1488281203
 10
170.1716636161
 20
125.1434912196
 10
170.164042653
 20
125.1377851964
 10
170.1567018835
 20
125.1317229826
 10
170.149657935
 20
125.1253183119
 10
170.1429267727
 20
125.118585703
 10
170.1365236621
 20
125.11154043
 10
170.1304631254
 20
125.1041984829
 10
170.1247588718
 20
125.0965764808
 10
170.1194237882
 20
125.088691645
 10
170.1144699228
 20
125.0805617645
 10
170.1099085543
 20
125.0722053302
 10
170.1057501037
 20
125.0636414559
 10
170.1020040177
 20
125.0548896728
 10
170.098678704
 20
125.0459697092
 10
170.0957816238
 20
125.0369016138
 10
170.093318983
 20
125.0277044542
 10
170.0912968603
 20
125.0184005113
 10
170.0897204624
 20
125.0090152122
 10
170.0885928808
 20
124.9995713667
 10
170.087915769
 20
124.9900889708
  0
LWPOLYLINE
  5
3AC
100
AcDbEntity
  8
0
100
AcDbPolyline
 62
7
  6
CONTINUOUS
 90
3
 70
0
 10
170.2876900338
 20
125.1823382277
 10
170.2789660579
 20
125.1821478643
 10
170.2702586945
 20
125.1815771376
  0
LINE
  5
3AD
100
AcDbEntity
  8
0
100
AcDbLine
 62
253
  6
CONTINUOUS
 10
159.2007843817
 20
124.810169444
 11
161.5745956859
 21
124.810169444
  0
LINE
  5
3AE
100
AcDbEntity
  8
0
100
AcDbLine
 62
253
  6
CONTINUOUS
 10
176.6007843817
 20
124.810169444
 11
178.9745956859
 21
124.810169444
  0
LINE
  5
3AF
100
AcDbEntity
  8
0
100
AcDbLine
 62
253
  6
CONTINUOUS
 10
172.5876900338
 20
124.980589494
 11
170.0876900338
 21
124.980589494
  0
LINE
  5
3B0
100
AcDbEntity
  8
0
100
AcDbLine
 62
253
  6
CONTINUOUS
 10
165.5876900338
 20
124.980589494
 11
168.0876900338
 21
124.980589494
  0
LINE
  5
3B1
100
AcDbEntity
  8
0
100
AcDbLine
 62
253
  6
CONTINUOUS
 10
158.9507886125
 20
125.0266757949
 11
161.8245914551
 21
125.0266757949
  0
LINE
  5
3B2
100
AcDbEntity
  8
0
100
AcDbLine
 62
253
  6
CONTINUOUS
 10
176.3507886125
 20
125.0266757949
 11
179.2245914551
 21
125.0266757949
  0
LINE
  5
3B3
100
AcDbEntity
  8
0
100
AcDbLine
 62
7
  6
CONTINUOUS
 10
164.6464167785
 20
125.1736114829
 11
165.5876900338
 21
125.1736114829
  0
LINE
  5
3B4
100
AcDbEntity
  8
0
100
AcDbLine
 62
7
  6
CONTINUOUS
 10
172.5876900338
 20
125.1736114829
 11
173.5289632891
 21
125.1736114829
  0
LINE
  5
3B5
100
AcDbEntity
  8
0
100
AcDbLine
 62
253
  6
CONTINUOUS
 10
172.5876900338
 20
125.1805861094
 11
170.2876900338
 21
125.1805861094
  0
LINE
  5
3B6
100
AcDbEntity
  8
0
100
AcDbLine
 62
253
  6
CONTINUOUS
 10
167.8876900338
 20
125.1805861094
 11
165.5876900338
 21
125.1805861094
  0
LINE
  5
3B7
100
AcDbEntity
  8
0
100
AcDbLine
 62
7
  6
CONTINUOUS
 10
164.6376900338
 20
125.1823382277
 11
167.8876900338
 21
125.1823382277
  0
LINE
  5
3B8
100
AcDbEntity
  8
0
100
AcDbLine
 62
7
  6
CONTINUOUS
 10
170.2876900338
 20
125.1823382277
 11
173.5376900338
 21
125.1823382277
  0
LINE
  5
3B9
100
AcDbEntity
  8
0
100
AcDbLine
 62
253
  6
CONTINUOUS
 10
158.9507886125
 20
125.4192438797
 11
161.8245914551
 21
125.4192438797
  0
LINE
  5
3BA
100
AcDbEntity
  8
0
100
AcDbLine
 62
253
  6
CONTINUOUS
 10
176.3507886125
 20
125.4192438797
 11
179.2245914551
 21
125.4192438797
  0
LINE
  5
3BB
100
AcDbEntity
  8
0
100
AcDbLine
 62
253
  6
CONTINUOUS
 10
178.9745956859
 20
125.6692396489
 11
176.6007843817
 21
125.6692396489
  0
LINE
  5
3BC
100
AcDbEntity
  8
0
100
AcDbLine
 62
253
  6
CONTINUOUS
 10
161.5745956859
 20
125.6692396489
 11
159.2007843817
 21
125.6692396489
  0
LINE
  5
3BD
100
AcDbEntity
  8
0
100
AcDbLine
 62
7
  6
CONTINUOUS
 10
178.9876942646
 20
125.6823382277
 11
176.587685803
 21
125.6823382277
  0
LINE
  5
3BE
100
AcDbEntity
  8
0
100
AcDbLine
 62
7
  6
CONTINUOUS
 10
161.5876942646
 20
125.6823382277
 11
159.187685803
 21
125.6823382277
  0
LWPOLYLINE
  5
3BF
100
AcDbEntity
  8
0
100
AcDbPolyline
 62
7
  6
CONTINUOUS
 90
36
 70
0
 10
167.8876900338
 20
125.1823382277
 10
167.8964140097
 20
125.1821478643
 10
167.9051213731
 20
125.1815771376
 10
167.9137955488
 20
125.1806271346
 10
167.9224200248
 20
125.1792996641
 10
167.9309783836
 20
125.1775972541
 10
167.9394543339
 20
125.175523146
 10
167.9478317414
 20
125.1730812885
 10
167.9560946589
 20
125.1702763305
 10
167.9642273576
 20
125.1671136125
 10
167.9722143564
 20
125.1635991554
 10
167.9800404517
 20
125.1597396498
 10
167.9876907462
 20
125.1555424436
 10
167.9951506771
 20
125.151015527
 10
168.0024060445
 20
125.1461675177
 10
168.0094430374
 20
125.1410076455
 10
168.0162482609
 20
125.1355457328
 10
168.0228087613
 20
125.129792177
 10
168.0291120507
 20
125.1237579319
 10
168.0351461309
 20
125.117454484
 10
168.0408995162
 20
125.1108938326
 10
168.0463612555
 20
125.1040884677
 10
168.0515209525
 20
125.0970513436
 10
168.0563687862
 20
125.0897958558
 10
168.0608955293
 20
125.0823358169
 10
168.0650925655
 20
125.0746854273
 10
168.0689519064
 20
125.0668592496
 10
168.0724662064
 20
125.0588721823
 10
168.0756287765
 20
125.0507394291
 10
168.0784335974
 20
125.0424764704
 10
168.0808753309
 20
125.034099036
 10
168.0829493297
 20
125.0256230723
 10
168.0846516466
 20
125.0170647131
 10
168.085979042
 20
125.0084402499
 10
168.0869289898
 20
124.9997660995
 10
168.0874996823
 20
124.9910587725
  0
LWPOLYLINE
  5
3C0
100
AcDbEntity
  8
0
100
AcDbPolyline
 62
253
  6
CONTINUOUS
 90
33
 70
0
 10
167.8876900338
 20
125.1805861094
 10
167.8972064169
 20
125.1803595811
 10
167.9067012424
 20
125.1796805092
 10
167.9161530014
 20
125.1785504322
 10
167.9255402827
 20
125.17697191
 10
167.9348418209
 20
125.1749485185
 10
167.9440365452
 20
125.1724848412
 10
167.9531036264
 20
125.1695864593
 10
167.9620225249
 20
125.1662599384
 10
167.9707730364
 20
125.1625128143
 10
167.9793353381
 20
125.1583535754
 10
167.9876900338
 20
125.1537916436
 10
167.9958181973
 20
125.1488373533
 10
168.0037014157
 20
125.1435019274
 10
168.011321831
 20
125.1377974525
 10
168.0186621806
 20
125.131736851
 10
168.0257058361
 20
125.1253338521
 10
168.0324368414
 20
125.1186029607
 10
168.0388399487
 20
125.1115594244
 10
168.0449006527
 20
125.104219199
 10
168.0506052242
 20
125.0965989127
 10
168.0559407403
 20
125.0887158276
 10
168.0608951145
 20
125.0805878017
 10
168.0654571235
 20
125.0722332474
 10
168.0696164329
 20
125.0636710906
 10
168.0733636204
 20
125.0549207272
 10
168.0766901975
 20
125.0460019797
 10
168.0795886285
 20
125.0369350518
 10
168.0820523474
 20
125.0277404832
 10
168.0840757732
 20
125.0184391023
 10
168.0856543222
 20
125.00905198
 10
168.0867844183
 20
124.999600381
 10
168.0874635016
 20
124.9901057161
  0
LWPOLYLINE
  5
3C1
100
AcDbEntity
  8
0
100
AcDbPolyline
 62
253
  6
CONTINUOUS
 90
34
 70
0
 10
161.5745956859
 20
125.6692396489
 10
161.5864711574
 20
125.6689570293
 10
161.5983248999
 20
125.6681101275
 10
161.6101300754
 20
125.6667001315
 10
161.6218615701
 20
125.6647291855
 10
161.6334910053
 20
125.6622011956
 10
161.644986971
 20
125.659122617
 10
161.6563217361
 20
125.6555010073
 10
161.667471348
 20
125.6513441529
 10
161.6784107492
 20
125.6466613792
 10
161.689115284
 20
125.6414631939
 10
161.6995605375
 20
125.6357614054
 10
161.7097226131
 20
125.629569043
 10
161.7195783978
 20
125.6229002058
 10
161.7291056592
 20
125.6157699525
 10
161.7382828725
 20
125.6081943916
 10
161.7470892641
 20
125.60019066
 10
161.7555048503
 20
125.5917769084
 10
161.7635105444
 20
125.5829722128
 10
161.771088201
 20
125.5737965259
 10
161.778220652
 20
125.5642706316
 10
161.7848917321
 20
125.5544161155
 10
161.7910863244
 20
125.5442553034
 10
161.7967903897
 20
125.5338112181
 10
161.8019909973
 20
125.5231075317
 10
161.8066763616
 20
125.5121684982
 10
161.8108358659
 20
125.5010189018
 10
161.814460083
 20
125.4896840093
 10
161.8175408017
 20
125.4781894983
 10
161.8200710387
 20
125.4665614189
 10
161.8220450573
 20
125.4548261392
 10
161.8234583861
 20
125.4430102569
 10
161.8243078262
 20
125.4311405387
 10
161.8245914551
 20
125.4192438797
  0
LWPOLYLINE
  5
3C2
100
AcDbEntity
  8
0
100
AcDbPolyline
 62
7
  6
CONTINUOUS
 90
34
 70
0
 10
161.5876942646
 20
125.6823382277
 10
161.5995895498
 20
125.6820550774
 10
161.6114578894
 20
125.6812062619
 10
161.6232723999
 20
125.6797937018
 10
161.6350063213
 20
125.6778205954
 10
161.6466330726
 20
125.6752914094
 10
161.6581263128
 20
125.6722118694
 10
161.6694600076
 20
125.668588949
 10
161.6806084831
 20
125.6644308534
 10
161.6915464801
 20
125.6597469998
 10
161.7022492214
 20
125.6545479965
 10
161.7126924621
 20
125.6488456193
 10
161.7228525397
 20
125.6426527858
 10
161.7327064389
 20
125.6359835231
 10
161.7422318376
 20
125.6288529384
 10
161.7514071528
 20
125.6212771865
 10
161.7602115999
 20
125.6132734281
 10
161.7686252343
 20
125.6048597937
 10
161.7766289926
 20
125.5960553467
 10
161.7842047445
 20
125.5868800315
 10
161.7913353293
 20
125.5773546328
 10
161.7980045919
 20
125.5675007336
 10
161.8041974254
 20
125.5573406559
 10
161.8098998026
 20
125.5468974152
 10
161.815098806
 20
125.536194674
 10
161.8197826596
 20
125.5252566769
 10
161.8239407551
 20
125.5141082014
 10
161.8275636755
 20
125.5027745067
 10
161.8306432155
 20
125.4912812665
 10
161.8331724015
 20
125.4796545151
 10
161.8351455079
 20
125.4679205938
 10
161.836558068
 20
125.4561060832
 10
161.8374068835
 20
125.4442377437
 10
161.8376900338
 20
125.4323424584
  0
LWPOLYLINE
  5
3C3
100
AcDbEntity
  8
0
100
AcDbPolyline
 62
253
  6
CONTINUOUS
 90
34
 70
0
 10
178.9745956859
 20
125.6692396489
 10
178.9864907074
 20
125.6689560981
 10
178.998358784
 20
125.6681068932
 10
179.010173032
 20
125.6666939578
 10
179.0219066892
 20
125.6647204925
 10
179.0335331764
 20
125.6621909677
 10
179.045026157
 20
125.6591111133
 10
179.0563595969
 20
125.6554879059
 10
179.0675078231
 20
125.6513295529
 10
179.0784455825
 20
125.6466454738
 10
179.0891480987
 20
125.6414462792
 10
179.0995911279
 20
125.6357437463
 10
179.1097510145
 20
125.6295507928
 10
179.119604744
 20
125.6228814469
 10
179.1291299955
 20
125.6157508164
 10
179.1383051922
 20
125.6081750536
 10
179.1471095501
 20
125.6001713194
 10
179.1555231255
 20
125.591757744
 10
179.1635268597
 20
125.582953386
 10
179.1711026225
 20
125.5737781894
 10
179.1782332531
 20
125.5642529379
 10
179.1849025989
 20
125.5543992084
 10
179.1910955524
 20
125.5442393218
 10
179.1967980853
 20
125.5337962925
 10
179.2019972799
 20
125.5230937764
 10
179.206681359
 20
125.512156017
 10
179.2108397121
 20
125.5010077907
 10
179.2144629195
 20
125.4896743509
 10
179.2175427739
 20
125.4781813703
 10
179.2200722986
 20
125.4665548831
 10
179.2220457639
 20
125.4548212258
 10
179.2234586993
 20
125.4430069779
 10
179.2243079043
 20
125.4311389013
 10
179.2245914551
 20
125.4192438797
  0
LWPOLYLINE
  5
3C4
100
AcDbEntity
  8
0
100
AcDbPolyline
 62
7
  6
CONTINUOUS
 90
34
 70
0
 10
178.9876942646
 20
125.6823382277
 10
178.9995895498
 20
125.6820550774
 10
179.0114578894
 20
125.6812062619
 10
179.0232723999
 20
125.6797937018
 10
179.0350063213
 20
125.6778205954
 10
179.0466330726
 20
125.6752914094
 10
179.0581263128
 20
125.6722118694
 10
179.0694600076
 20
125.668588949
 10
179.0806084831
 20
125.6644308534
 10
179.0915464801
 20
125.6597469998
 10
179.1022492214
 20
125.6545479965
 10
179.1126924621
 20
125.6488456193
 10
179.1228525397
 20
125.6426527858
 10
179.1327064389
 20
125.6359835231
 10
179.1422318376
 20
125.6288529384
 10
179.1514071528
 20
125.6212771865
 10
179.1602115999
 20
125.6132734281
 10
179.1686252343
 20
125.6048597937
 10
179.1766289926
 20
125.5960553467
 10
179.1842047445
 20
125.5868800315
 10
179.1913353293
 20
125.5773546328
 10
179.1980045919
 20
125.5675007336
 10
179.2041974254
 20
125.5573406559
 10
179.2098998026
 20
125.5468974152
 10
179.215098806
 20
125.536194674
 10
179.2197826596
 20
125.5252566769
 10
179.2239407551
 20
125.5141082014
 10
179.2275636755
 20
125.5027745067
 10
179.2306432155
 20
125.4912812665
 10
179.2331724015
 20
125.4796545151
 10
179.2351455079
 20
125.4679205938
 10
179.236558068
 20
125.4561060832
 10
179.2374068835
 20
125.4442377437
 10
179.2376900338
 20
125.4323424584
  0
LINE
  5
3C5
100
AcDbEntity
  8
0
100
AcDbLine
 62
7
  6
CONTINUOUS
 10
179.756084491
 20
123.5819946929
 11
179.7752729432
 21
123.5809534088
  0
LINE
  5
3C6
100
AcDbEntity
  8
0
100
AcDbLine
 62
7
  6
CONTINUOUS
 10
179.7745110083
 20
123.5809543294
 11
179.7939328188
 21
123.5792149893
  0
LINE
  5
3C7
100
AcDbEntity
  8
0
100
AcDbLine
 62
7
  6
CONTINUOUS
 10
179.7929448544
 20
123.5792171373
 11
179.8125202492
 21
123.5767736215
  0
LINE
  5
3C8
100
AcDbEntity
  8
0
100
AcDbLine
 62
7
  6
CONTINUOUS
 10
179.8310117163
 20
123.5736349136
 11
179.8114440324
 21
123.576777515
  0
LWPOLYLINE
  5
3C9
100
AcDbEntity
  8
0
100
AcDbPolyline
 62
7
  6
CONTINUOUS
 90
35
 70
0
 10
179.8844118873
 20
78.8045345962
 10
179.9032418601
 20
78.8103847017
 10
179.9207081961
 20
78.8168590472
 10
179.937920819
 20
78.8239824702
 10
179.9548636358
 20
78.8317503366
 10
179.9715634857
 20
78.8401759989
 10
179.9879935294
 20
78.8492461044
 10
180.0040571564
 20
78.8589159611
 10
180.0197539524
 20
78.8691948447
 10
180.0350843317
 20
78.8800734794
 10
180.0499529271
 20
78.8914793459
 10
180.0643382744
 20
78.9033999527
 10
180.0782618378
 20
78.9158477913
 10
180.0916926422
 20
78.9287878167
 10
180.1046318649
 20
78.9422185468
 10
180.1170783287
 20
78.9561414637
 10
180.1289975268
 20
78.9705259688
 10
180.1404019737
 20
78.9853933637
 10
180.151279155
 20
79.0007223468
 10
180.1615570203
 20
79.0164184143
 10
180.1712266281
 20
79.0324824966
 10
180.1802969199
 20
79.0489136633
 10
180.1887226704
 20
79.0656146189
 10
180.1964904692
 20
79.082558829
 10
180.2036137266
 20
79.0997728281
 10
180.2100874481
 20
79.1172389247
 10
180.2159201933
 20
79.1349796748
 10
180.2211034026
 20
79.1529725225
 10
180.2256064024
 20
79.1711321086
 10
180.229424608
 20
79.1894706877
 10
180.2325626042
 20
79.2079760053
 10
180.2350034712
 20
79.2265259381
 10
180.2367415691
 20
79.2450797784
 10
180.2377825377
 20
79.2636782339
 10
180.2381263772
 20
79.2823213046
  0
LINE
  5
3CA
100
AcDbEntity
  8
0
100
AcDbLine
 62
7
  6
CONTINUOUS
 10
179.8664344666
 20
78.7993532193
 11
179.8854981099
 21
78.8045504992
  0
LINE
  5
3CB
100
AcDbEntity
  8
0
100
AcDbLine
 62
7
  6
CONTINUOUS
 10
179.8493366663
 20
123.5698156904
 11
179.829950539
 21
123.573641064
  0
LINE
  5
3CC
100
AcDbEntity
  8
0
100
AcDbLine
 62
7
  6
CONTINUOUS
 10
179.8482903643
 20
123.5698245889
 11
179.8675006467
 21
123.5653110809
  0
LINE
  5
3CD
100
AcDbEntity
  8
0
100
AcDbLine
 62
7
  6
CONTINUOUS
 10
179.8664344664
 20
123.5653232361
 11
179.8854981099
 21
123.5601259561
  0
LINE
  5
3CE
100
AcDbEntity
  8
0
100
AcDbLine
 62
7
  6
CONTINUOUS
 10
179.8844118872
 20
123.5601418592
 11
179.9032418601
 21
123.5542917536
  0
LINE
  5
3CF
100
AcDbEntity
  8
0
100
AcDbLine
 62
253
  6
CONTINUOUS
 10
176.3507886125
 20
76.9454325756
 11
176.3376900338
 21
76.9323339969
  0
LINE
  5
3D0
100
AcDbEntity
  8
0
100
AcDbLine
 62
253
  6
CONTINUOUS
 10
176.6007843817
 20
76.6954368064
 11
176.587685803
 21
76.6823382277
  0
LWPOLYLINE
  5
3D1
100
AcDbEntity
  8
0
100
AcDbPolyline
 62
7
  6
CONTINUOUS
 90
34
 70
0
 10
179.9021357416
 20
123.5543118236
 10
179.9195822956
 20
123.5478421115
 10
179.9367752833
 20
123.5407237408
 10
179.9536990223
 20
123.5329611307
 10
179.9703803195
 20
123.5245410009
 10
179.986792368
 20
123.5154766316
 10
180.002839065
 20
123.5058122833
 10
180.0185200859
 20
123.4955386888
 10
180.0338357551
 20
123.4846651153
 10
180.0486909436
 20
123.473263625
 10
180.0630643521
 20
123.4613465901
 10
180.0769772798
 20
123.4489016384
 10
180.090398495
 20
123.4359637156
 10
180.1033290088
 20
123.4225345079
 10
180.1157678102
 20
123.4086123291
 10
180.1276806346
 20
123.3942270667
 10
180.1390801547
 20
123.379357291
 10
180.1499536978
 20
123.3640244317
 10
180.1602289811
 20
123.3483226659
 10
180.1698971253
 20
123.3322509476
 10
180.1789670098
 20
123.3158103227
 10
180.1873929904
 20
123.2990981063
 10
180.1951616313
 20
123.2821408556
 10
180.2022863685
 20
123.2649120134
 10
180.2087618655
 20
123.2474292238
 10
180.2145966693
 20
123.2296699765
 10
180.2197822331
 20
123.2116567819
 10
180.2242875802
 20
123.1934748156
 10
180.2281081587
 20
123.175111721
 10
180.2312485207
 20
123.1565798547
 10
180.2336913459
 20
123.1380014624
 10
180.2354308609
 20
123.1194172927
 10
180.2364728391
 20
123.1007865971
 10
180.2368172805
 20
123.0821093756
  0
LINE
  5
3D2
100
AcDbEntity
  8
0
100
AcDbLine
 62
253
  6
CONTINUOUS
 10
176.3507886125
 20
125.4192438797
 11
176.3376900338
 21
125.4323424584
  0
LINE
  5
3D3
100
AcDbEntity
  8
0
100
AcDbLine
 62
253
  6
CONTINUOUS
 10
176.6007843817
 20
125.6692396489
 11
176.587685803
 21
125.6823382277
  0
LINE
  5
3D4
100
AcDbEntity
  8
0
100
AcDbLine
 62
7
  6
CONTINUOUS
 10
110.5341522797
 20
76.6823382277
 11
111.2856067126
 21
76.6867100617
  0
LINE
  5
3D5
100
AcDbEntity
  8
0
100
AcDbLine
 62
253
  6
CONTINUOUS
 10
110.5341522797
 20
76.9323339969
 11
111.2856067126
 21
76.9367058309
  0
LINE
  5
3D6
100
AcDbEntity
  8
0
100
AcDbLine
 62
7
  6
CONTINUOUS
 10
116.0370611454
 20
77.2143532149
 11
111.5341522797
 21
77.1881560575
  0
LINE
  5
3D7
100
AcDbEntity
  8
0
100
AcDbLine
 62
253
  6
CONTINUOUS
 10
111.5341522797
 20
76.9367058309
 11
111.2856067126
 21
76.9367058309
  0
LINE
  5
3D8
100
AcDbEntity
  8
0
100
AcDbLine
 62
253
  6
CONTINUOUS
 10
108.0341522797
 20
76.9454325756
 11
108.2826978469
 21
76.9454325756
  0
LINE
  5
3D9
100
AcDbEntity
  8
0
100
AcDbLine
 62
253
  6
CONTINUOUS
 10
111.5341522797
 20
77.3380006604
 11
111.2856067126
 21
77.3380006604
  0
LINE
  5
3DA
100
AcDbEntity
  8
0
100
AcDbLine
 62
253
  6
CONTINUOUS
 10
108.0341522797
 20
77.3380006604
 11
108.2826978469
 21
77.3380006604
  0
LINE
  5
3DB
100
AcDbEntity
  8
0
100
AcDbLine
 62
7
  6
CONTINUOUS
 10
108.2826978469
 20
76.6954368064
 11
110.5341522797
 21
76.6823382277
  0
LINE
  5
3DC
100
AcDbEntity
  8
0
100
AcDbLine
 62
253
  6
CONTINUOUS
 10
108.2826978469
 20
76.9454325756
 11
110.5341522797
 21
76.9323339969
  0
LINE
  5
3DD
100
AcDbEntity
  8
0
100
AcDbLine
 62
7
  6
CONTINUOUS
 10
110.5341522797
 20
78.7823382277
 11
121.5399700111
 21
78.8463682021
  0
LINE
  5
3DE
100
AcDbEntity
  8
0
100
AcDbLine
 62
253
  6
CONTINUOUS
 10
110.5341522797
 20
79.2823213046
 11
111.5341522797
 21
79.2881391344
  0
LINE
  5
3DF
100
AcDbEntity
  8
RACCORDO
100
AcDbLine
 62
7
  6
CONTINUOUS
 10
106.9341522797
 20
79.0823382277
 11
101.9440002004
 21
79.2130099586
  0
LINE
  5
3E0
100
AcDbEntity
  8
0
100
AcDbLine
 62
7
  6
CONTINUOUS
 10
109.0341522797
 20
78.8609498966
 11
110.5341522797
 21
78.7823382277
  0
LINE
  5
3E1
100
AcDbEntity
  8
0
100
AcDbLine
 62
253
  6
CONTINUOUS
 10
109.0341522797
 20
79.3611787486
 11
110.5341522797
 21
79.2825670797
  0
LWPOLYLINE
  5
3E2
100
AcDbEntity
  8
RACCORDO
100
AcDbPolyline
 62
7
  6
CONTINUOUS
 90
22
 70
0
 10
102.3170405031
 20
79.2032415545
 10
102.2312526317
 20
79.2085633929
 10
102.1460794196
 20
79.2200023058
 10
102.0619562414
 20
79.2374969158
 10
101.9793160954
 20
79.2609536654
 10
101.8985772423
 20
79.2902504496
 10
101.8201420359
 20
79.3252399784
 10
101.7444066884
 20
79.3657456744
 10
101.6717630719
 20
79.4115580627
 10
101.6025867648
 20
79.4624400727
 10
101.5372319121
 20
79.5181294238
 10
101.4760303691
 20
79.5783413071
 10
101.4192946437
 20
79.6427676362
 10
101.3673133872
 20
79.7110791815
 10
101.3203520886
 20
79.7829252615
 10
101.2786518245
 20
79.8579358993
 10
101.2424269079
 20
79.9357210974
 10
101.2118576972
 20
80.0158880394
 10
101.1870953459
 20
80.098042476
 10
101.1682675426
 20
80.181770452
 10
101.1554741511
 20
80.2666390405
 10
101.1487826738
 20
80.3522144352
  0
LWPOLYLINE
  5
3E3
100
AcDbEntity
  8
RACCORDO
100
AcDbPolyline
 62
253
  6
CONTINUOUS
 90
22
 70
0
 10
102.3170405031
 20
79.703070217
 10
102.2667868076
 20
79.7062111888
 10
102.2173134515
 20
79.7128310819
 10
102.1686204348
 20
79.7229298963
 10
102.1204434026
 20
79.7365951752
 10
102.0730467098
 20
79.7537393755
 10
102.0272234206
 20
79.7740998673
 10
101.9830200173
 20
79.7977256474
 10
101.9403900176
 20
79.8245677192
 10
101.8999870392
 20
79.8542164635
 10
101.8618449382
 20
79.8867172547
 10
101.8259298585
 20
79.9220247184
 10
101.7927938492
 20
79.9595931123
 10
101.7624825088
 20
79.9994554823
 10
101.7349502388
 20
80.0415787825
 10
101.7106122929
 20
80.0853181327
 10
101.6895161809
 20
80.1307208419
 10
101.6716143929
 20
80.1777396011
 10
101.6571796533
 20
80.2255876029
 10
101.64630287
 20
80.2740025784
 10
101.6388931351
 20
80.3232467964
 10
101.6349504485
 20
80.3733202572
  0
LINE
  5
3E4
100
AcDbEntity
  8
0
100
AcDbLine
 62
7
  6
CONTINUOUS
 10
109.0357783191
 20
124.3060235842
 11
109.0386515978
 21
124.3077488355
  0
LINE
  5
3E5
100
AcDbEntity
  8
0
100
AcDbLine
 62
7
  6
CONTINUOUS
 10
109.0386515978
 20
124.3077488355
 11
109.0985609104
 21
124.3427397742
  0
LINE
  5
3E6
100
AcDbEntity
  8
0
100
AcDbLine
 62
253
  6
CONTINUOUS
 10
110.5341522797
 20
124.5928233759
 11
111.2856067126
 21
125.0266757949
  0
LINE
  5
3E7
100
AcDbEntity
  8
0
100
AcDbLine
 62
7
  6
CONTINUOUS
 10
109.0985609104
 20
124.3427397742
 11
109.2826978469
 21
124.4493255258
  0
LINE
  5
3E8
100
AcDbEntity
  8
RACCORDO
100
AcDbLine
 62
253
  6
CONTINUOUS
 10
101.1487825486
 20
80.3522144078
 11
101.1530406637
 21
80.3524501307
  0
LINE
  5
3E9
100
AcDbEntity
  8
RACCORDO
100
AcDbLine
 62
253
  6
CONTINUOUS
 10
101.1530406637
 20
80.3524501307
 11
101.246907616
 21
80.3566774514
  0
LWPOLYLINE
  5
3EA
100
AcDbEntity
  8
RACCORDO
100
AcDbPolyline
 62
253
  6
CONTINUOUS
 90
3
 70
0
 10
101.246907616
 20
80.3566774514
 10
101.5848263273
 20
80.3711951017
 10
101.6349504485
 20
80.3733202572
  0
LINE
  5
3EB
100
AcDbEntity
  8
RACCORDO
100
AcDbLine
 62
253
  6
CONTINUOUS
 10
100.77699812
 20
80.3501032815
 11
101.1487825461
 21
80.3522144298
  0
LINE
  5
3EC
100
AcDbEntity
  8
0
100
AcDbLine
 62
7
  6
CONTINUOUS
 10
112.5341522797
 20
80.2823382277
 11
122.5341522797
 21
80.2823382277
  0
LINE
  5
3ED
100
AcDbEntity
  8
0
100
AcDbLine
 62
7
  6
CONTINUOUS
 10
122.0428784829
 20
79.5989077295
 11
112.5341522797
 21
79.7648831627
  0
LINE
  5
3EE
100
AcDbEntity
  8
RACCORDO
100
AcDbLine
 62
253
  6
CONTINUOUS
 10
106.9341522797
 20
79.5821668901
 11
102.3170405031
 21
79.703070217
  0
LINE
  5
3EF
100
AcDbEntity
  8
0
100
AcDbLine
 62
253
  6
CONTINUOUS
 10
111.2856067126
 20
77.3380006604
 11
110.5341522797
 21
77.7718530794
  0
LINE
  5
3F0
100
AcDbEntity
  8
0
100
AcDbLine
 62
7
  6
CONTINUOUS
 10
109.2826978469
 20
77.9153509295
 11
109.1655049506
 21
77.9831122858
  0
LINE
  5
3F1
100
AcDbEntity
  8
0
100
AcDbLine
 62
7
  6
CONTINUOUS
 10
109.1655049506
 20
77.9831122858
 11
109.0515852477
 21
78.0493126772
  0
LWPOLYLINE
  5
3F2
100
AcDbEntity
  8
0
100
AcDbPolyline
 62
7
  6
CONTINUOUS
 90
7
 70
0
 10
109.0515852477
 20
78.0493126772
 10
109.0386350995
 20
78.0569412296
 10
109.0370280342
 20
78.0578963881
 10
109.0357690796
 20
78.0586584766
 10
109.0348676576
 20
78.0592200932
 10
109.0343268278
 20
78.0595667653
 10
109.0341522797
 20
78.0596884968
  0
LWPOLYLINE
  5
3F3
100
AcDbEntity
  8
0
100
AcDbPolyline
 62
7
  6
CONTINUOUS
 90
4
 70
0
 10
109.0341522797
 20
124.3049879585
 10
109.0343336715
 20
124.3051280987
 10
109.0348764912
 20
124.3054733072
 10
109.0357783191
 20
124.3060235842
  0
LINE
  5
3F4
100
AcDbEntity
  8
0
100
AcDbLine
 62
7
  6
CONTINUOUS
 10
110.5341522797
 20
124.3049879585
 11
111.4091522797
 21
124.810169444
  0
LINE
  5
3F5
100
AcDbEntity
  8
RACCORDO
100
AcDbLine
 62
253
  6
CONTINUOUS
 10
122.337642761
 20
82.1656809701
 11
122.5341522797
 21
82.1656809701
  0
LINE
  5
3F6
100
AcDbEntity
  8
RACCORDO
100
AcDbLine
 62
7
  6
CONTINUOUS
 10
122.3358975868
 20
81.3880728244
 11
112.5341522797
 21
81.4736113599
  0
LINE
  5
3F7
100
AcDbEntity
  8
0
100
AcDbLine
 62
7
  6
CONTINUOUS
 10
111.5341522797
 20
82.6740477032
 11
112.5341522797
 21
82.6653208355
  0
LINE
  5
3F8
100
AcDbEntity
  8
0
100
AcDbLine
 62
7
  6
CONTINUOUS
 10
111.4091522797
 20
77.5545070113
 11
110.5341522797
 21
78.0596884968
  0
LWPOLYLINE
  5
3F9
100
AcDbEntity
  8
RACCORDO
100
AcDbPolyline
 62
253
  6
CONTINUOUS
 90
11
 70
0
 10
102.3170403275
 20
123.1614348962
 10
102.3157453797
 20
123.1586633834
 10
102.314607882
 20
123.1504507544
 10
102.3136402861
 20
123.13688691
 10
102.3128531839
 20
123.1181203291
 10
102.3122551916
 20
123.094356443
 10
102.3118528557
 20
123.0658553871
 10
102.3116505805
 20
123.0329291527
 10
102.3116505802
 20
122.9959381721
 10
102.3118528547
 20
122.955287373
 10
102.3128531814
 20
122.8648214733
  0
LINE
  5
3FA
100
AcDbEntity
  8
RACCORDO
100
AcDbLine
 62
7
  6
CONTINUOUS
 10
109.0341522797
 20
83.7823382277
 11
106.9341522797
 21
83.818993864
  0
LINE
  5
3FB
100
AcDbEntity
  8
RACCORDO
100
AcDbLine
 62
253
  6
CONTINUOUS
 10
109.0148767384
 20
84.7825223786
 11
106.9341522797
 21
84.8188415592
  0
LWPOLYLINE
  5
3FC
100
AcDbEntity
  8
RACCORDO
100
AcDbPolyline
 62
253
  6
CONTINUOUS
 90
9
 70
0
 10
102.3170405031
 20
79.2032415545
 10
102.3157455349
 20
79.206013142
 10
102.3146080232
 20
79.2142259774
 10
102.3136404195
 20
79.2277901333
 10
102.312853315
 20
79.2465571098
 10
102.3122553257
 20
79.2703214427
 10
102.3118529977
 20
79.2988229375
 10
102.3116507339
 20
79.3317495546
 10
102.3116507468
 20
79.3687408307
  0
LINE
  5
3FD
100
AcDbEntity
  8
RACCORDO
100
AcDbLine
 62
253
  6
CONTINUOUS
 10
112.5341522797
 20
116.8118600467
 11
122.337642761
 21
120.1989954852
  0
LINE
  5
3FE
100
AcDbEntity
  8
RACCORDO
100
AcDbLine
 62
253
  6
CONTINUOUS
 10
122.337642761
 20
82.1656809701
 11
112.5341522797
 21
85.5528164086
  0
LWPOLYLINE
  5
3FF
100
AcDbEntity
  8
0
100
AcDbPolyline
 62
253
  6
CONTINUOUS
 90
6
 70
0
 10
108.1624061515
 20
124.8163981512
 10
108.1611967961
 20
124.8141865326
 10
108.1602649439
 20
124.8124544896
 10
108.1596126981
 20
124.8112059315
 10
108.1592415308
 20
124.8104436762
 10
108.1591522797
 20
124.810169444
  0
LINE
  5
400
100
AcDbEntity
  8
0
100
AcDbLine
 62
253
  6
CONTINUOUS
 10
108.1656458342
 20
124.8222390785
 11
108.1624061515
 21
124.8163981512
  0
LINE
  5
401
100
AcDbEntity
  8
0
100
AcDbLine
 62
253
  6
CONTINUOUS
 10
108.1752940553
 20
124.8393852846
 11
108.1656458342
 21
124.8222390785
  0
LINE
  5
402
100
AcDbEntity
  8
0
100
AcDbLine
 62
253
  6
CONTINUOUS
 10
108.2058616351
 20
124.8930500052
 11
108.1752940553
 21
124.8393852846
  0
LINE
  5
403
100
AcDbEntity
  8
0
100
AcDbLine
 62
253
  6
CONTINUOUS
 10
108.2826978469
 20
125.0266757949
 11
108.2058616351
 21
124.8930500052
  0
LINE
  5
404
100
AcDbEntity
  8
RACCORDO
100
AcDbLine
 62
7
  6
CONTINUOUS
 10
112.5341522797
 20
116.142635885
 11
122.4025563089
 21
119.7344412113
  0
LINE
  5
405
100
AcDbEntity
  8
RACCORDO
100
AcDbLine
 62
7
  6
CONTINUOUS
 10
122.4025563089
 20
82.630235244
 11
112.5341522797
 21
86.2220405703
  0
LINE
  5
406
100
AcDbEntity
  8
0
100
AcDbLine
 62
253
  6
CONTINUOUS
 10
108.2826978469
 20
77.3380006604
 11
108.2013202336
 21
77.4795687618
  0
LINE
  5
407
100
AcDbEntity
  8
0
100
AcDbLine
 62
253
  6
CONTINUOUS
 10
108.2013202336
 20
77.4795687618
 11
108.1752926839
 21
77.5252935948
  0
LINE
  5
408
100
AcDbEntity
  8
0
100
AcDbLine
 62
253
  6
CONTINUOUS
 10
108.1752926839
 20
77.5252935948
 11
108.1656447955
 21
77.542439238
  0
LWPOLYLINE
  5
409
100
AcDbEntity
  8
0
100
AcDbPolyline
 62
253
  6
CONTINUOUS
 90
7
 70
0
 10
108.1656447955
 20
77.542439238
 10
108.1624053354
 20
77.5482797882
 10
108.1611961036
 20
77.5504911982
 10
108.1602644576
 20
77.5522228807
 10
108.159612451
 20
77.5534710093
 10
108.1592414668
 20
77.5542329233
 10
108.1591522797
 20
77.5545070113
  0
LWPOLYLINE
  5
40A
100
AcDbEntity
  8
0
100
AcDbPolyline
 62
7
  6
CONTINUOUS
 90
13
 70
0
 10
100.7769981312
 20
122.0145733874
 10
100.6138081364
 20
118.605927932
 10
100.4771184308
 20
115.1221317986
 10
100.3707970214
 20
111.6372767361
 10
100.294854882
 20
108.1516273802
 10
100.2493004606
 20
104.665448421
 10
100.2341350237
 20
101.1790047563
 10
100.2493585708
 20
97.6925613713
 10
100.2949711012
 20
94.2063832507
 10
100.3709713386
 20
90.7207352924
 10
100.4773508209
 20
87.2358821858
 10
100.614098573
 20
83.7520885666
 10
100.7769981311
 20
80.3501030686
  0
LWPOLYLINE
  5
40B
100
AcDbEntity
  8
RACCORDO
100
AcDbPolyline
 62
7
  6
CONTINUOUS
 90
22
 70
0
 10
101.1487824949
 20
122.0124620183
 10
101.1554739725
 20
122.0980374136
 10
101.1682673644
 20
122.1829060023
 10
101.1870951679
 20
122.2666339781
 10
101.2118575194
 20
122.348788414
 10
101.2424267299
 20
122.428955355
 10
101.2786516464
 20
122.5067405523
 10
101.3203519104
 20
122.5817511897
 10
101.367313209
 20
122.6535972693
 10
101.4192944656
 20
122.7219088144
 10
101.4760301909
 20
122.7863351433
 10
101.5372317337
 20
122.8465470263
 10
101.6025865863
 20
122.9022363773
 10
101.6717628934
 20
122.9531183872
 10
101.7444065099
 20
122.9989307755
 10
101.8201418572
 20
123.0394364714
 10
101.8985770633
 20
123.0744260002
 10
101.9793159158
 20
123.1037227843
 10
102.0619560618
 20
123.1271795341
 10
102.1460792407
 20
123.1446741444
 10
102.2312524542
 20
123.1561130576
 10
102.3170403275
 20
123.1614348962
  0
LWPOLYLINE
  5
40C
100
AcDbEntity
  8
RACCORDO
100
AcDbPolyline
 62
253
  6
CONTINUOUS
 90
10
 70
0
 10
101.1487825461
 20
80.3522144298
 10
100.9748356305
 20
84.979052334
 10
100.8443422511
 20
89.6074066789
 10
100.757329934
 20
94.2368686881
 10
100.7138191841
 20
98.8670849288
 10
100.7138191764
 20
103.4975898848
 10
100.7573299131
 20
108.1278062889
 10
100.8443422241
 20
112.7572686248
 10
100.9748356087
 20
117.3856234594
 10
101.1487825458
 20
122.0124620162
  0
LWPOLYLINE
  5
40D
100
AcDbEntity
  8
RACCORDO
100
AcDbPolyline
 62
253
  6
CONTINUOUS
 90
10
 70
0
 10
101.6349504485
 20
80.3733202572
 10
101.4610746726
 20
84.9961434529
 10
101.3306678403
 20
89.6196681434
 10
101.2437299516
 20
94.2438943288
 10
101.2002610092
 20
98.8692896623
 10
101.2002610103
 20
103.4953864907
 10
101.2437299466
 20
108.1207818536
 10
101.3306678153
 20
112.7450080977
 10
101.4610746192
 20
117.3685328763
 10
101.6349503583
 20
121.9913561894
  0
LWPOLYLINE
  5
40E
100
AcDbEntity
  8
RACCORDO
100
AcDbPolyline
 62
253
  6
CONTINUOUS
 90
22
 70
0
 10
101.6349503583
 20
121.9913561894
 10
101.6388930051
 20
122.0414296517
 10
101.6463027101
 20
122.0906738709
 10
101.6571794734
 20
122.1390888471
 10
101.6716142064
 20
122.1869368491
 10
101.6895159978
 20
122.2339556081
 10
101.7106121133
 20
122.2793583171
 10
101.7349500592
 20
122.3230976672
 10
101.7624823293
 20
122.3652209674
 10
101.7927936697
 20
122.4050833375
 10
101.8259296792
 20
122.4426517314
 10
101.861844759
 20
122.4779591952
 10
101.8999868602
 20
122.5104599865
 10
101.9403898389
 20
122.5401087309
 10
101.9830198389
 20
122.5669508027
 10
102.0272232426
 20
122.5905765829
 10
102.0730465321
 20
122.6109370749
 10
102.1204432253
 20
122.6280812753
 10
102.1686202579
 20
122.6417465543
 10
102.217313275
 20
122.6518453688
 10
102.2667866316
 20
122.6584652619
 10
102.3170403275
 20
122.6616062337
  0
LINE
  5
40F
100
AcDbEntity
  8
RACCORDO
100
AcDbLine
 62
253
  6
CONTINUOUS
 10
102.3146078797
 20
122.7654818113
 11
102.3170403275
 21
122.6616062337
  0
LINE
  5
410
100
AcDbEntity
  8
RACCORDO
100
AcDbLine
 62
253
  6
CONTINUOUS
 10
102.3128531814
 20
122.8648214733
 11
102.3146078797
 21
122.7654818113
  0
LINE
  5
411
100
AcDbEntity
  8
RACCORDO
100
AcDbLine
 62
253
  6
CONTINUOUS
 10
102.3116507468
 20
79.3687408307
 11
102.3122553816
 21
79.4532574076
  0
LINE
  5
412
100
AcDbEntity
  8
RACCORDO
100
AcDbLine
 62
253
  6
CONTINUOUS
 10
102.3122553816
 20
79.4532574076
 11
102.3136404871
 21
79.5486819141
  0
LWPOLYLINE
  5
413
100
AcDbEntity
  8
RACCORDO
100
AcDbPolyline
 62
253
  6
CONTINUOUS
 90
3
 70
0
 10
102.3136404871
 20
79.5486819141
 10
102.3157455706
 20
79.6508474611
 10
102.3170405031
 20
79.703070217
  0
LWPOLYLINE
  5
414
100
AcDbEntity
  8
0
100
AcDbPolyline
 62
253
  6
CONTINUOUS
 90
7
 70
0
 10
108.2826978469
 20
125.6692396489
 10
108.2826302933
 20
125.6689560981
 10
108.2825661874
 20
125.6681068932
 10
108.2825056743
 20
125.6666939578
 10
108.2824488912
 20
125.6647204925
 10
108.2823959666
 20
125.6621909677
 10
108.2823021637
 20
125.6554879059
  0
LINE
  5
415
100
AcDbEntity
  8
DRAFT
100
AcDbLine
 62
7
  6
CONTINUOUS
 10
107.4357540796
 20
101.1823382277
 11
109.0341522797
 21
84.5823382277
  0
LWPOLYLINE
  5
416
100
AcDbEntity
  8
0
100
AcDbPolyline
 62
253
  6
CONTINUOUS
 90
6
 70
0
 10
108.2823959666
 20
76.7024854876
 10
108.2824488912
 20
76.6999559628
 10
108.2825056743
 20
76.6979824975
 10
108.2825661874
 20
76.6965695621
 10
108.2826302933
 20
76.6957203572
 10
108.2826978469
 20
76.6954368064
  0
LINE
  5
417
100
AcDbEntity
  8
0
100
AcDbLine
 62
253
  6
CONTINUOUS
 10
108.2823021637
 20
76.7091885494
 11
108.2823959666
 21
76.7024854876
  0
LINE
  5
418
100
AcDbEntity
  8
RACCORDO
100
AcDbLine
 62
7
  6
CONTINUOUS
 10
106.9341522797
 20
79.0823382277
 11
106.9341522797
 21
123.2823382277
  0
LINE
  5
419
100
AcDbEntity
  8
DRAFT
100
AcDbLine
 62
7
  6
CONTINUOUS
 10
109.0341522797
 20
117.7823382277
 11
107.4357540796
 21
101.1823382277
  0
LINE
  5
41A
100
AcDbEntity
  8
0
100
AcDbLine
 62
253
  6
CONTINUOUS
 10
108.2821930975
 20
76.7232301761
 11
108.2823021637
 21
76.7091885494
  0
LINE
  5
41B
100
AcDbEntity
  8
0
100
AcDbLine
 62
253
  6
CONTINUOUS
 10
108.2821099815
 20
125.5737781894
 11
108.2826978469
 21
125.4192438797
  0
LINE
  5
41C
100
AcDbEntity
  8
0
100
AcDbLine
 62
253
  6
CONTINUOUS
 10
108.2820960184
 20
76.7645051359
 11
108.2821930975
 21
76.7232301761
  0
LINE
  5
41D
100
AcDbEntity
  8
0
100
AcDbLine
 62
7
  6
CONTINUOUS
 10
108.0341522797
 20
76.9454325756
 11
108.0341522797
 21
77.3380006604
  0
LINE
  5
41E
100
AcDbEntity
  8
0
100
AcDbLine
 62
7
  6
CONTINUOUS
 10
108.0341522797
 20
125.0266757949
 11
108.0341522797
 21
125.4192438797
  0
LINE
  5
41F
100
AcDbEntity
  8
0
100
AcDbLine
 62
253
  6
CONTINUOUS
 10
108.2826978469
 20
76.9454325756
 11
108.2826978469
 21
77.3380006604
  0
LINE
  5
420
100
AcDbEntity
  8
0
100
AcDbLine
 62
253
  6
CONTINUOUS
 10
108.2826978469
 20
125.0266757949
 11
108.2826978469
 21
125.4192438797
  0
LINE
  5
421
100
AcDbEntity
  8
0
100
AcDbLine
 62
7
  6
CONTINUOUS
 10
109.0341522797
 20
78.0596884968
 11
109.0341522797
 21
79.3611787486
  0
LINE
  5
422
100
AcDbEntity
  8
DRAFT
100
AcDbLine
 62
7
  6
CONTINUOUS
 10
109.0341522797
 20
79.3611787486
 11
109.0341522797
 21
84.5823382277
  0
LINE
  5
423
100
AcDbEntity
  8
DRAFT
100
AcDbLine
 62
7
  6
CONTINUOUS
 10
109.0341522797
 20
117.7823382277
 11
109.0341522797
 21
123.0034977067
  0
LINE
  5
424
100
AcDbEntity
  8
0
100
AcDbLine
 62
7
  6
CONTINUOUS
 10
109.0341522797
 20
123.0034977067
 11
109.0341522797
 21
124.3049879585
  0
LINE
  5
425
100
AcDbEntity
  8
0
100
AcDbLine
 62
253
  6
CONTINUOUS
 10
109.2826978469
 20
77.9153509295
 11
109.2826978469
 21
78.8479241753
  0
LINE
  5
426
100
AcDbEntity
  8
0
100
AcDbLine
 62
253
  6
CONTINUOUS
 10
109.2826978469
 20
123.51675228
 11
109.2826978469
 21
124.4493255258
  0
LINE
  5
427
100
AcDbEntity
  8
0
100
AcDbLine
 62
253
  6
CONTINUOUS
 10
108.2821424392
 20
125.6295507928
 11
108.2821099815
 21
125.5737781894
  0
LINE
  5
428
100
AcDbEntity
  8
0
100
AcDbLine
 62
253
  6
CONTINUOUS
 10
108.2823959666
 20
76.886495085
 11
108.2820960184
 21
76.7645051359
  0
LINE
  5
429
100
AcDbEntity
  8
0
100
AcDbLine
 62
253
  6
CONTINUOUS
 10
108.2826978469
 20
76.9454325756
 11
108.2823959666
 21
76.886495085
  0
LWPOLYLINE
  5
42A
100
AcDbEntity
  8
0
100
AcDbPolyline
 62
253
  6
CONTINUOUS
 90
3
 70
0
 10
108.2823021637
 20
125.6554879059
 10
108.2822614978
 20
125.6513295529
 10
108.2821424392
 20
125.6295507928
  0
LINE
  5
42B
100
AcDbEntity
  8
0
100
AcDbLine
 62
253
  6
CONTINUOUS
 10
111.285908407
 20
125.6709279404
 11
111.2860022517
 21
125.664227752
  0
LINE
  5
42C
100
AcDbEntity
  8
0
100
AcDbLine
 62
253
  6
CONTINUOUS
 10
111.2860022517
 20
125.664227752
 11
111.2861113694
 21
125.6501899386
  0
LINE
  5
42D
100
AcDbEntity
  8
0
100
AcDbLine
 62
253
  6
CONTINUOUS
 10
111.2856067126
 20
76.9367058309
 11
111.2861946007
 21
76.7821531847
  0
LINE
  5
42E
100
AcDbEntity
  8
0
100
AcDbLine
 62
253
  6
CONTINUOUS
 10
111.2861113694
 20
125.6501899386
 11
111.2862085356
 21
125.6089174047
  0
LINE
  5
42F
100
AcDbEntity
  8
0
100
AcDbLine
 62
7
  6
CONTINUOUS
 10
110.5341522797
 20
76.6823382277
 11
110.5341522797
 21
125.6823382277
  0
LINE
  5
430
100
AcDbEntity
  8
0
100
AcDbLine
 62
253
  6
CONTINUOUS
 10
111.2856067126
 20
125.4279706244
 11
111.2856067126
 21
125.0266757949
  0
LINE
  5
431
100
AcDbEntity
  8
0
100
AcDbLine
 62
253
  6
CONTINUOUS
 10
111.2856067126
 20
77.3380006604
 11
111.2856067126
 21
76.9367058309
  0
LINE
  5
432
100
AcDbEntity
  8
0
100
AcDbLine
 62
7
  6
CONTINUOUS
 10
111.5341522797
 20
125.4279706244
 11
111.5341522797
 21
125.0266757949
  0
LINE
  5
433
100
AcDbEntity
  8
0
100
AcDbLine
 62
7
  6
CONTINUOUS
 10
111.5341522797
 20
77.3380006604
 11
111.5341522797
 21
76.9367058309
  0
LINE
  5
434
100
AcDbEntity
  8
0
100
AcDbLine
 62
7
  6
CONTINUOUS
 10
111.5341522797
 20
78.7881560575
 11
111.5341522797
 21
82.6740477032
  0
LINE
  5
435
100
AcDbEntity
  8
0
100
AcDbLine
 62
7
  6
CONTINUOUS
 10
111.5341522797
 20
119.6906287521
 11
111.5341522797
 21
123.5765203978
  0
LINE
  5
436
100
AcDbEntity
  8
0
100
AcDbLine
 62
253
  6
CONTINUOUS
 10
111.2861946007
 20
76.7821531847
 11
111.2861620612
 21
76.7263806676
  0
LINE
  5
437
100
AcDbEntity
  8
0
100
AcDbLine
 62
253
  6
CONTINUOUS
 10
111.2862085356
 20
125.6089174047
 11
111.2859086286
 21
125.486916243
  0
LINE
  5
438
100
AcDbEntity
  8
0
100
AcDbLine
 62
253
  6
CONTINUOUS
 10
111.2859086286
 20
125.486916243
 11
111.2856067126
 21
125.4279706244
  0
LINE
  5
439
100
AcDbEntity
  8
0
100
AcDbLine
 62
253
  6
CONTINUOUS
 10
111.2861620612
 20
76.7263806676
 11
111.2860429344
 21
76.7046055577
  0
LWPOLYLINE
  5
43A
100
AcDbEntity
  8
0
100
AcDbPolyline
 62
253
  6
CONTINUOUS
 90
8
 70
0
 10
111.2860429344
 20
76.7046055577
 10
111.2859573779
 20
76.6968270936
 10
111.285908407
 20
76.6937485149
 10
111.2858554563
 20
76.691220525
 10
111.2857986711
 20
76.6892495791
 10
111.2857381937
 20
76.6878395831
 10
111.2856741578
 20
76.6869926813
 10
111.2856067126
 20
76.6867100617
  0
LINE
  5
43B
100
AcDbEntity
  8
0
100
AcDbLine
 62
7
  6
CONTINUOUS
 10
112.5341522797
 20
122.5997932926
 11
112.5341522797
 21
79.7648831627
  0
LINE
  5
43C
100
AcDbEntity
  8
0
100
AcDbLine
 62
7
  6
CONTINUOUS
 10
116.0341522797
 20
77.7579764565
 11
116.0341522797
 21
78.3066999988
  0
LINE
  5
43D
100
AcDbEntity
  8
0
100
AcDbLine
 62
7
  6
CONTINUOUS
 10
116.0341522797
 20
124.0579764565
 11
116.0341522797
 21
124.6066999988
  0
LINE
  5
43E
100
AcDbEntity
  8
0
100
AcDbLine
 62
253
  6
CONTINUOUS
 10
116.0779444424
 20
77.2162661988
 11
116.0779444424
 21
78.814591067
  0
LINE
  5
43F
100
AcDbEntity
  8
0
100
AcDbLine
 62
253
  6
CONTINUOUS
 10
116.0779444424
 20
123.5500853883
 11
116.0779444424
 21
125.1484102565
  0
LINE
  5
440
100
AcDbEntity
  8
0
100
AcDbLine
 62
7
  6
CONTINUOUS
 10
116.5341522797
 20
77.7143447533
 11
116.5341522797
 21
78.8172446652
  0
LINE
  5
441
100
AcDbEntity
  8
0
100
AcDbLine
 62
7
  6
CONTINUOUS
 10
116.5341522797
 20
123.5474317901
 11
116.5341522797
 21
124.650331702
  0
LWPOLYLINE
  5
442
100
AcDbEntity
  8
0
100
AcDbPolyline
 62
253
  6
CONTINUOUS
 90
6
 70
0
 10
111.2856067126
 20
125.6779663936
 10
111.2856741578
 20
125.677683774
 10
111.2857381937
 20
125.6768368722
 10
111.2857986711
 20
125.6754268762
 10
111.2858554563
 20
125.6734559303
 10
111.285908407
 20
125.6709279404
  0
LINE
  5
443
100
AcDbEntity
  8
0
100
AcDbLine
 62
253
  6
CONTINUOUS
 10
122.0428784829
 20
79.5989077295
 11
122.0428784829
 21
80.2823382277
  0
LINE
  5
444
100
AcDbEntity
  8
0
100
AcDbLine
 62
253
  6
CONTINUOUS
 10
122.0428784829
 20
122.0823382277
 11
122.0428784829
 21
122.7657687258
  0
LINE
  5
445
100
AcDbEntity
  8
RACCORDO
100
AcDbLine
 62
253
  6
CONTINUOUS
 10
122.3358975868
 20
122.0823382277
 11
122.3358975868
 21
120.9766036309
  0
LINE
  5
446
100
AcDbEntity
  8
RACCORDO
100
AcDbLine
 62
253
  6
CONTINUOUS
 10
122.3358975868
 20
81.3880728244
 11
122.3358975868
 21
80.2823382277
  0
LINE
  5
447
100
AcDbEntity
  8
RACCORDO
100
AcDbLine
 62
253
  6
CONTINUOUS
 10
122.337642761
 20
81.3880728244
 11
122.337642761
 21
82.1656809701
  0
LINE
  5
448
100
AcDbEntity
  8
RACCORDO
100
AcDbLine
 62
253
  6
CONTINUOUS
 10
122.337642761
 20
120.1989954852
 11
122.337642761
 21
120.9766036309
  0
LINE
  5
449
100
AcDbEntity
  8
0
100
AcDbLine
 62
7
  6
CONTINUOUS
 10
122.5341522797
 20
79.846351279
 11
122.5341522797
 21
80.2823382277
  0
LINE
  5
44A
100
AcDbEntity
  8
RACCORDO
100
AcDbLine
 62
7
  6
CONTINUOUS
 10
122.5341522797
 20
80.2823382277
 11
122.5341522797
 21
82.4422967196
  0
LINE
  5
44B
100
AcDbEntity
  8
RACCORDO
100
AcDbLine
 62
7
  6
CONTINUOUS
 10
122.5341522797
 20
119.9223797357
 11
122.5341522797
 21
122.0823382277
  0
LINE
  5
44C
100
AcDbEntity
  8
0
100
AcDbLine
 62
7
  6
CONTINUOUS
 10
122.5341522797
 20
122.0823382277
 11
122.5341522797
 21
122.5183251763
  0
LWPOLYLINE
  5
44D
100
AcDbEntity
  8
0
100
AcDbPolyline
 62
253
  6
CONTINUOUS
 90
6
 70
0
 10
111.4058984079
 20
77.5482783041
 10
111.4071077634
 20
77.5504899227
 10
111.4080396156
 20
77.5522219657
 10
111.4086918613
 20
77.5534705238
 10
111.4090630286
 20
77.5542327791
 10
111.4091522797
 20
77.5545070113
  0
LINE
  5
44E
100
AcDbEntity
  8
0
100
AcDbLine
 62
253
  6
CONTINUOUS
 10
111.4026587252
 20
77.5424373768
 11
111.4058984079
 21
77.5482783041
  0
LINE
  5
44F
100
AcDbEntity
  8
0
100
AcDbLine
 62
253
  6
CONTINUOUS
 10
111.3930105041
 20
77.5252911707
 11
111.4026587252
 21
77.5424373768
  0
LINE
  5
450
100
AcDbEntity
  8
0
100
AcDbLine
 62
253
  6
CONTINUOUS
 10
111.3624429243
 20
77.4716264501
 11
111.3930105041
 21
77.5252911707
  0
LINE
  5
451
100
AcDbEntity
  8
0
100
AcDbLine
 62
253
  6
CONTINUOUS
 10
111.2856067126
 20
77.3380006604
 11
111.3624429243
 21
77.4716264501
  0
LINE
  5
452
100
AcDbEntity
  8
0
100
AcDbLine
 62
253
  6
CONTINUOUS
 10
111.2856067126
 20
125.0266757949
 11
111.3669843259
 21
124.8851076935
  0
LINE
  5
453
100
AcDbEntity
  8
0
100
AcDbLine
 62
253
  6
CONTINUOUS
 10
111.3669843259
 20
124.8851076935
 11
111.3930118756
 21
124.8393828605
  0
LINE
  5
454
100
AcDbEntity
  8
0
100
AcDbLine
 62
253
  6
CONTINUOUS
 10
111.3930118756
 20
124.8393828605
 11
111.4026597639
 21
124.8222372173
  0
LWPOLYLINE
  5
455
100
AcDbEntity
  8
0
100
AcDbPolyline
 62
253
  6
CONTINUOUS
 90
7
 70
0
 10
111.4026597639
 20
124.8222372173
 10
111.4058992241
 20
124.8163966671
 10
111.4071084559
 20
124.8141852571
 10
111.4080401019
 20
124.8124535746
 10
111.4086921085
 20
124.811205446
 10
111.4090630927
 20
124.810443532
 10
111.4091522797
 20
124.810169444
  0
LINE
  5
456
100
AcDbEntity
  8
RACCORDO
100
AcDbLine
 62
253
  6
CONTINUOUS
 10
122.3704388068
 20
82.3999774958
 11
122.4025563086
 21
82.630235243
  0
LINE
  5
457
100
AcDbEntity
  8
RACCORDO
100
AcDbLine
 62
253
  6
CONTINUOUS
 10
122.3531589735
 20
82.2764213665
 11
122.3704388068
 21
82.3999774958
  0
LINE
  5
458
100
AcDbEntity
  8
RACCORDO
100
AcDbLine
 62
253
  6
CONTINUOUS
 10
122.3376427556
 20
82.1656809701
 11
122.3531589735
 21
82.2764213665
  0
LWPOLYLINE
  5
459
100
AcDbEntity
  8
RACCORDO
100
AcDbPolyline
 62
253
  6
CONTINUOUS
 90
3
 70
0
 10
122.4014130317
 20
119.7426516391
 10
122.3999916012
 20
119.752856578
 10
122.3990725272
 20
119.7594580731
  0
LINE
  5
45A
100
AcDbEntity
  8
RACCORDO
100
AcDbLine
 62
253
  6
CONTINUOUS
 10
122.3990725272
 20
119.7594580731
 11
122.3940437835
 21
119.7955310795
  0
LINE
  5
45B
100
AcDbEntity
  8
RACCORDO
100
AcDbLine
 62
253
  6
CONTINUOUS
 10
122.3940437835
 20
119.7955310795
 11
122.3376427556
 21
120.1989954852
  0
LINE
  5
45C
100
AcDbEntity
  8
RACCORDO
100
AcDbLine
 62
253
  6
CONTINUOUS
 10
122.4025563086
 20
119.7344412123
 11
122.4014130317
 21
119.7426516391
  0
LINE
  5
45D
100
AcDbEntity
  8
RACCORDO
100
AcDbLine
 62
253
  6
CONTINUOUS
 10
109.0148767384
 20
117.5821540767
 11
106.9341522797
 21
117.5458348961
  0
LINE
  5
45E
100
AcDbEntity
  8
RACCORDO
100
AcDbLine
 62
7
  6
CONTINUOUS
 10
109.0341522797
 20
118.5823382277
 11
106.9341522797
 21
118.5456825913
  0
LINE
  5
45F
100
AcDbEntity
  8
0
100
AcDbLine
 62
7
  6
CONTINUOUS
 10
109.0341522797
 20
78.0596884968
 11
108.1591522797
 21
77.5545070113
  0
LINE
  5
460
100
AcDbEntity
  8
0
100
AcDbLine
 62
253
  6
CONTINUOUS
 10
109.2826978469
 20
77.9153509295
 11
108.2826978469
 21
77.3380006604
  0
LINE
  5
461
100
AcDbEntity
  8
0
100
AcDbLine
 62
7
  6
CONTINUOUS
 10
111.5341522797
 20
119.6906287521
 11
112.5341522797
 21
119.6993556198
  0
LINE
  5
462
100
AcDbEntity
  8
RACCORDO
100
AcDbLine
 62
7
  6
CONTINUOUS
 10
122.3358975868
 20
120.9766036309
 11
112.5341522797
 21
120.8910650954
  0
LINE
  5
463
100
AcDbEntity
  8
RACCORDO
100
AcDbLine
 62
253
  6
CONTINUOUS
 10
122.337642761
 20
120.1989954852
 11
122.5341522797
 21
120.1989954852
  0
LINE
  5
464
100
AcDbEntity
  8
0
100
AcDbLine
 62
7
  6
CONTINUOUS
 10
108.1591522797
 20
124.810169444
 11
109.0341522797
 21
124.3049879585
  0
LINE
  5
465
100
AcDbEntity
  8
0
100
AcDbLine
 62
253
  6
CONTINUOUS
 10
108.2826978469
 20
125.0266757949
 11
109.2826978469
 21
124.4493255258
  0
LINE
  5
466
100
AcDbEntity
  8
0
100
AcDbLine
 62
253
  6
CONTINUOUS
 10
110.5341522797
 20
123.0821093756
 11
109.0341522797
 21
123.0034977067
  0
LINE
  5
467
100
AcDbEntity
  8
RACCORDO
100
AcDbLine
 62
253
  6
CONTINUOUS
 10
102.3170403275
 20
122.6616062337
 11
106.9341522797
 21
122.7825095652
  0
LINE
  5
468
100
AcDbEntity
  8
RACCORDO
100
AcDbLine
 62
7
  6
CONTINUOUS
 10
101.9440002157
 20
123.1516664971
 11
106.9341522797
 21
123.2823382277
  0
LINE
  5
469
100
AcDbEntity
  8
0
100
AcDbLine
 62
7
  6
CONTINUOUS
 10
122.0428784829
 20
122.7657687258
 11
112.5341522797
 21
122.5997932926
  0
LINE
  5
46A
100
AcDbEntity
  8
0
100
AcDbLine
 62
7
  6
CONTINUOUS
 10
112.5341522797
 20
122.0823382277
 11
122.5341522797
 21
122.0823382277
  0
LINE
  5
46B
100
AcDbEntity
  8
RACCORDO
100
AcDbLine
 62
253
  6
CONTINUOUS
 10
101.1487825458
 20
122.0124620162
 11
100.7769981201
 21
122.0145731742
  0
LINE
  5
46C
100
AcDbEntity
  8
0
100
AcDbLine
 62
253
  6
CONTINUOUS
 10
111.5341522797
 20
123.0765373209
 11
110.5341522797
 21
123.0823551507
  0
LWPOLYLINE
  5
46D
100
AcDbEntity
  8
RACCORDO
100
AcDbPolyline
 62
253
  6
CONTINUOUS
 90
4
 70
0
 10
101.1487956007
 20
122.0124614808
 10
101.153053516
 20
122.0122257674
 10
101.1623240879
 20
122.0117787104
 10
101.6349503584
 20
121.9913561894
  0
LINE
  5
46E
100
AcDbEntity
  8
0
100
AcDbLine
 62
7
  6
CONTINUOUS
 10
110.5341522797
 20
123.5823382277
 11
109.0341522797
 21
123.5037265587
  0
LINE
  5
46F
100
AcDbEntity
  8
0
100
AcDbLine
 62
253
  6
CONTINUOUS
 10
111.5341522797
 20
125.0266757949
 11
111.2856067126
 21
125.0266757949
  0
LINE
  5
470
100
AcDbEntity
  8
0
100
AcDbLine
 62
253
  6
CONTINUOUS
 10
108.0341522797
 20
125.0266757949
 11
108.2826978469
 21
125.0266757949
  0
LINE
  5
471
100
AcDbEntity
  8
0
100
AcDbLine
 62
253
  6
CONTINUOUS
 10
108.0341522797
 20
125.4192438797
 11
108.2826978469
 21
125.4192438797
  0
LINE
  5
472
100
AcDbEntity
  8
0
100
AcDbLine
 62
7
  6
CONTINUOUS
 10
121.5399700111
 20
123.5183082532
 11
110.5341522797
 21
123.5823382277
  0
LINE
  5
473
100
AcDbEntity
  8
0
100
AcDbLine
 62
7
  6
CONTINUOUS
 10
111.5341522797
 20
125.1765203978
 11
116.0370611454
 21
125.1503232404
  0
LINE
  5
474
100
AcDbEntity
  8
0
100
AcDbLine
 62
253
  6
CONTINUOUS
 10
108.2826978469
 20
125.4192438797
 11
110.5341522797
 21
125.4323424584
  0
LINE
  5
475
100
AcDbEntity
  8
0
100
AcDbLine
 62
7
  6
CONTINUOUS
 10
108.2826978469
 20
125.6692396489
 11
110.5341522797
 21
125.6823382277
  0
LINE
  5
476
100
AcDbEntity
  8
0
100
AcDbLine
 62
253
  6
CONTINUOUS
 10
111.5341522797
 20
125.4279706244
 11
111.2856067126
 21
125.4279706244
  0
LINE
  5
477
100
AcDbEntity
  8
0
100
AcDbLine
 62
253
  6
CONTINUOUS
 10
110.5341522797
 20
125.4323424584
 11
111.2856067126
 21
125.4279706244
  0
LINE
  5
478
100
AcDbEntity
  8
0
100
AcDbLine
 62
7
  6
CONTINUOUS
 10
110.5341522797
 20
125.6823382277
 11
111.2856067126
 21
125.6779663936
  0
ARC
  5
479
100
AcDbEntity
  8
0
100
AcDbCircle
 62
7
  6
CONTINUOUS
 10
165.0876900338
 20
78.0323382277
 40
0.5
100
AcDbArc
 50
154.1580672368
 51
205.8419327632
  0
ARC
  5
47A
100
AcDbEntity
  8
0
100
AcDbCircle
 62
7
  6
CONTINUOUS
 10
173.0876900338
 20
78.0323382277
 40
0.5
100
AcDbArc
 50
334.1580672368
 51
25.8419327632
  0
ARC
  5
47B
100
AcDbEntity
  8
0
100
AcDbCircle
 62
7
  6
CONTINUOUS
 10
173.0876900338
 20
124.3323382277
 40
0.5
100
AcDbArc
 50
334.1580672368
 51
25.8419327632
  0
ARC
  5
47C
100
AcDbEntity
  8
0
100
AcDbCircle
 62
7
  6
CONTINUOUS
 10
165.0876900338
 20
124.3323382277
 40
0.5
100
AcDbArc
 50
154.1580672368
 51
205.8419327632
  0
ARC
  5
47D
100
AcDbEntity
  8
RACCORDO
100
AcDbCircle
 62
7
  6
CONTINUOUS
 10
101.9753698704
 20
80.4125998659
 40
1.2
100
AcDbArc
 50
182.985352181
 51
268.5
  0
ARC
  5
47E
100
AcDbEntity
  8
0
100
AcDbCircle
 62
7
  6
CONTINUOUS
 10
108.2841522797
 20
76.9454325756
 40
0.25
100
AcDbArc
 50
180.0
 51
269.6666666667
  0
ARC
  5
47F
100
AcDbEntity
  8
0
100
AcDbCircle
 62
7
  6
CONTINUOUS
 10
111.2841522797
 20
76.9367058309
 40
0.25
100
AcDbArc
 50
270.3333333333
 51
360.0
  0
ARC
  5
480
100
AcDbEntity
  8
0
100
AcDbCircle
 62
7
  6
CONTINUOUS
 10
111.2841522797
 20
77.3380006604
 40
0.25
100
AcDbArc
 50
0.0
 51
60.0
  0
ARC
  5
481
100
AcDbEntity
  8
0
100
AcDbCircle
 62
7
  6
CONTINUOUS
 10
108.2841522797
 20
77.3380006604
 40
0.25
100
AcDbArc
 50
120.0
 51
180.0
  0
ARC
  5
482
100
AcDbEntity
  8
RACCORDO
100
AcDbCircle
 62
7
  6
CONTINUOUS
 10
101.9753698783
 20
121.9520765896
 40
1.2
100
AcDbArc
 50
91.5
 51
177.0146478186
  0
ARC
  5
483
100
AcDbEntity
  8
0
100
AcDbCircle
 62
7
  6
CONTINUOUS
 10
108.2841522797
 20
125.4192438797
 40
0.25
100
AcDbArc
 50
90.3333333333
 51
180.0
  0
ARC
  5
484
100
AcDbEntity
  8
0
100
AcDbCircle
 62
7
  6
CONTINUOUS
 10
111.2841522797
 20
125.4279706244
 40
0.25
100
AcDbArc
 50
0.0
 51
89.6666666667
  0
ARC
  5
485
100
AcDbEntity
  8
0
100
AcDbCircle
 62
7
  6
CONTINUOUS
 10
111.2841522797
 20
125.0266757949
 40
0.25
100
AcDbArc
 50
300.0
 51
360.0
  0
ARC
  5
486
100
AcDbEntity
  8
0
100
AcDbCircle
 62
7
  6
CONTINUOUS
 10
108.2841522797
 20
125.0266757949
 40
0.25
100
AcDbArc
 50
180.0
 51
240.0
  0
ARC
  5
487
100
AcDbEntity
  8
0
100
AcDbCircle
 62
7
  6
CONTINUOUS
 10
121.5341522797
 20
79.846351279
 40
1.0
100
AcDbArc
 50
270.3333333333
 51
360.0
  0
ARC
  5
488
100
AcDbEntity
  8
0
100
AcDbCircle
 62
7
  6
CONTINUOUS
 10
116.0341522797
 20
77.7143447533
 40
0.5
100
AcDbArc
 50
270.3333333333
 51
360.0
  0
ARC
  5
489
100
AcDbEntity
  8
RACCORDO
100
AcDbCircle
 62
7
  6
CONTINUOUS
 10
122.3341522797
 20
81.1880804398
 40
0.2
100
AcDbArc
 50
0.0
 51
89.5
  0
ARC
  5
48A
100
AcDbEntity
  8
RACCORDO
100
AcDbCircle
 62
7
  6
CONTINUOUS
 10
122.3341522797
 20
82.4422967196
 40
0.2
100
AcDbArc
 50
0.0
 51
69.9999998797
  0
ARC
  5
48B
100
AcDbEntity
  8
0
100
AcDbCircle
 62
7
  6
CONTINUOUS
 10
121.5341522797
 20
122.5183251763
 40
1.0
100
AcDbArc
 50
0.0
 51
89.6666666667
  0
ARC
  5
48C
100
AcDbEntity
  8
0
100
AcDbCircle
 62
7
  6
CONTINUOUS
 10
116.0341522797
 20
124.650331702
 40
0.5
100
AcDbArc
 50
0.0
 51
89.6666666667
  0
ARC
  5
48D
100
AcDbEntity
  8
RACCORDO
100
AcDbCircle
 62
7
  6
CONTINUOUS
 10
122.3341522797
 20
119.9223797357
 40
0.2
100
AcDbArc
 50
290.0000001204
 51
360.0
  0
ARC
  5
48E
100
AcDbEntity
  8
RACCORDO
100
AcDbCircle
 62
7
  6
CONTINUOUS
 10
122.3341522797
 20
121.1765960155
 40
0.2
100
AcDbArc
 50
270.5
 51
360.0
  0
ELLIPSE
  5
48F
100
AcDbEntity
  8
0
100
AcDbEllipse
 62
7
  6
CONTINUOUS
 10
167.8876900338
 20
78.7980605614
 30
0.0
 11
0.2
 21
-0.0
 31
0.0
 40
0.0524077793
 41
0.0
 42
1.5707963268
  0
ELLIPSE
  5
490
100
AcDbEntity
  8
0
100
AcDbEllipse
 62
7
  6
CONTINUOUS
 10
170.2876900338
 20
78.7980605614
 30
0.0
 11
0.2
 21
-0.0
 31
0.0
 40
0.0524077793
 41
1.5707963268
 42
3.1415926536
  0
ELLIPSE
  5
491
100
AcDbEntity
  8
0
100
AcDbEllipse
 62
7
  6
CONTINUOUS
 10
167.8876900338
 20
123.5666158939
 30
0.0
 11
0.2
 21
0.0
 31
0.0
 40
0.0524077793
 41
-1.5707963268
 42
-0.0
  0
ELLIPSE
  5
492
100
AcDbEntity
  8
0
100
AcDbEllipse
 62
7
  6
CONTINUOUS
 10
170.2876900338
 20
123.5666158939
 30
0.0
 11
0.2
 21
-0.0
 31
0.0
 40
0.0524077793
 41
3.1415926536
 42
4.7123889804
  0
ELLIPSE
  5
493
100
AcDbEntity
  8
0
100
AcDbEllipse
 62
7
  6
CONTINUOUS
 10
159.1949665519
 20
78.8478479518
 30
0.0
 11
0.25
 21
0.0
 31
0.0
 40
0.0524077793
 41
1.5707963268
 42
3.1357748894
  0
ELLIPSE
  5
494
100
AcDbEntity
  8
0
100
AcDbEllipse
 62
7
  6
CONTINUOUS
 10
161.5804135157
 20
78.8478479518
 30
0.0
 11
0.25
 21
-0.0
 31
0.0
 40
0.0524077793
 41
0.0058177642
 42
1.5707963268
  0
ELLIPSE
  5
495
100
AcDbEntity
  8
0
100
AcDbEllipse
 62
7
  6
CONTINUOUS
 10
178.9804135157
 20
78.8478479518
 30
0.0
 11
0.25
 21
0.0
 31
0.0
 40
0.0524077793
 41
0.0058177642
 42
1.5707963268
  0
ELLIPSE
  5
496
100
AcDbEntity
  8
0
100
AcDbEllipse
 62
7
  6
CONTINUOUS
 10
176.5949665519
 20
78.8478479518
 30
0.0
 11
0.25
 21
-0.0
 31
0.0
 40
0.0524077793
 41
1.5707963268
 42
3.1357748894
  0
ELLIPSE
  5
497
100
AcDbEntity
  8
0
100
AcDbEllipse
 62
7
  6
CONTINUOUS
 10
159.1949665519
 20
123.5168285035
 30
0.0
 11
0.25
 21
-0.0
 31
0.0
 40
0.0524077793
 41
-3.1357748894
 42
-1.5707963268
  0
ELLIPSE
  5
498
100
AcDbEntity
  8
0
100
AcDbEllipse
 62
7
  6
CONTINUOUS
 10
161.5804135157
 20
123.5168285035
 30
0.0
 11
0.25
 21
-0.0
 31
0.0
 40
0.0524077793
 41
-1.5707963268
 42
-0.0058177642
  0
ELLIPSE
  5
499
100
AcDbEntity
  8
0
100
AcDbEllipse
 62
7
  6
CONTINUOUS
 10
176.5949665519
 20
123.5168285035
 30
0.0
 11
0.25
 21
-0.0
 31
0.0
 40
0.0524077793
 41
-3.1357748894
 42
-1.5707963268
  0
ELLIPSE
  5
49A
100
AcDbEntity
  8
0
100
AcDbEllipse
 62
7
  6
CONTINUOUS
 10
178.9804135157
 20
123.5168285035
 30
0.0
 11
0.25
 21
-0.0
 31
0.0
 40
0.0524077793
 41
-1.5707963268
 42
-0.0058177642
  0
ELLIPSE
  5
49B
100
AcDbEntity
  8
0
100
AcDbEllipse
 62
7
  6
CONTINUOUS
 10
158.4648215484
 20
123.0030403857
 30
0.0
 11
-0.1582391023
 21
0.4751033573
 31
0.0
 40
0.9984778551
 41
-0.3210503496
 42
0.6578562559
  0
ELLIPSE
  5
49C
100
AcDbEntity
  8
0
100
AcDbEllipse
 62
7
  6
CONTINUOUS
 10
179.7105585191
 20
123.0030403857
 30
0.0
 11
0.1582391023
 21
0.4751033573
 31
0.0
 40
0.9984778551
 41
-1.2488325878
 42
0.3210503496
  0
ELLIPSE
  5
49D
100
AcDbEntity
  8
0
100
AcDbEllipse
 62
7
  6
CONTINUOUS
 10
179.7105585191
 20
79.3616360696
 30
0.0
 11
-0.1582391023
 21
0.4751033573
 31
0.0
 40
0.9984778551
 41
-3.4626430032
 42
-1.8927600658
  0
ELLIPSE
  5
49E
100
AcDbEntity
  8
0
100
AcDbEllipse
 62
7
  6
CONTINUOUS
 10
158.4648215484
 20
79.3616360696
 30
0.0
 11
-0.1582391023
 21
-0.4751033573
 31
0.0
 40
0.9984778551
 41
-0.6578562559
 42
0.3210503496
  0
ELLIPSE
  5
49F
100
AcDbEntity
  8
RACCORDO
100
AcDbEllipse
 62
7
  6
CONTINUOUS
 10
136.18786143
 20
79.5825096239
 30
0.0
 11
0.35379574
 21
0.35379574
 31
0.0
 40
0.999315002
 41
2.3565371065
 42
3.9266482006
  0
ELLIPSE
  5
4A0
100
AcDbEntity
  8
RACCORDO
100
AcDbEllipse
 62
7
  6
CONTINUOUS
 10
179.4875186375
 20
79.5825096239
 30
0.0
 11
-0.35379574
 21
0.35379574
 31
0.0
 40
0.999315002
 41
-3.9266482007
 42
-2.3565371065
  0
ELLIPSE
  5
4A1
100
AcDbEntity
  8
RACCORDO
100
AcDbEllipse
 62
7
  6
CONTINUOUS
 10
179.4875186375
 20
122.7821668314
 30
0.0
 11
0.35379574
 21
0.35379574
 31
0.0
 40
0.999315002
 41
-0.7850555471
 42
0.785055547
  0
ELLIPSE
  5
4A2
100
AcDbEntity
  8
RACCORDO
100
AcDbEllipse
 62
7
  6
CONTINUOUS
 10
136.18786143
 20
122.7821668314
 30
0.0
 11
0.35379574
 21
-0.35379574
 31
0.0
 40
0.999315002
 41
2.3565371065
 42
3.9266482006
  0
ELLIPSE
  5
4A3
100
AcDbEntity
  8
0
100
AcDbEllipse
 62
7
  6
CONTINUOUS
 10
122.0341522797
 20
123.2656925734
 30
0.0
 11
-0.069088395
 21
0.49520379
 31
0.0
 40
1.0
 41
-3.26275967
 42
-2.3642118312
  0
ELLIPSE
  5
4A4
100
AcDbEntity
  8
0
100
AcDbEllipse
 62
7
  6
CONTINUOUS
 10
122.0341522797
 20
79.0989838819
 30
0.0
 11
0.4999992251
 21
0.0008802776
 31
0.0
 40
1.0
 41
0.6530346394
 42
1.5515824782
  0
ELLIPSE
  5
4A5
100
AcDbEntity
  8
0
100
AcDbEllipse
 62
7
  6
CONTINUOUS
 10
187.8825819558
 20
78.0323382277
 30
0.0
 11
85.9426996401
 21
-0.0
 31
0.0
 40
0.0058178298
 41
-2.6791240519
 42
-2.5607560384
  0
ELLIPSE
  5
4A6
100
AcDbEntity
  8
0
100
AcDbEllipse
 62
7
  6
CONTINUOUS
 10
187.8825819558
 20
78.0323382277
 30
0.0
 11
85.9426996401
 21
-0.0
 31
0.0
 40
0.0058178298
 41
2.5607560384
 42
2.6905658418
  0
ELLIPSE
  5
4A7
100
AcDbEntity
  8
0
100
AcDbEllipse
 62
7
  6
CONTINUOUS
 10
187.8825819558
 20
124.3323382277
 30
0.0
 11
85.9426996401
 21
0.0
 31
0.0
 40
0.0058178298
 41
-2.6905658418
 42
-2.5607560384
  0
ELLIPSE
  5
4A8
100
AcDbEntity
  8
0
100
AcDbEllipse
 62
7
  6
CONTINUOUS
 10
187.8825819558
 20
124.3323382277
 30
0.0
 11
85.9426996401
 21
-0.0
 31
0.0
 40
0.0058178298
 41
2.5607560384
 42
2.6791240518
  0
ENDSEC
  0
SECTION
  2
OBJECTS
  0
DICTIONARY
  5
C
100
AcDbDictionary
280
0
281
1
  3
ACAD_GROUP
350
D
  3
ACAD_MLINESTYLE
350
17
  3
ACAD_LAYOUT
350
1A
  3
ACAD_PLOTSETTINGS
350
19
  3
ACAD_PLOTSTYLENAME
350
E
  0
DICTIONARY
  5
D
102
{ACAD_REACTORS
330
C
102
}
100
AcDbDictionary
280
0
281
1
  0
ACDBDICTIONARYWDFLT
  5
E
102
{ACAD_REACTORS
330
C
102
}
100
AcDbDictionary
281
1
  3
Normal
350
F
100
AcDbDictionaryWithDefault
340
F
  0
DICTIONARY
  5
17
102
{ACAD_REACTORS
330
C
102
}
100
AcDbDictionary
280
0
281
1
  3
Standard
350
18
  0
DICTIONARY
  5
19
102
{ACAD_REACTORS
330
C
102
}
100
AcDbDictionary
281
1
  0
DICTIONARY
  5
1A
102
{ACAD_REACTORS
330
C
102
}
100
AcDbDictionary
281
1
  3
Model
350
4A9
  3
Layout1
350
4AA
  0
ACDBPLACEHOLDER
  5
F
102
{ACAD_REACTORS
330
E
102
}
  0
MLINESTYLE
  5
18
102
{ACAD_REACTORS
330
17
102
}
100
AcDbMlineStyle
  2
STANDARD
 70
0
  3

 62
256
 51
90.0
 52
90.0
 71
2
 49
0.5
 62
256
  6
BYLAYER
 49
-0.5
 62
256
  6
BYLAYER
  0
LAYOUT
  5
4A9
102
{ACAD_REACTORS
330
1A
102
}
100
AcDbPlotSettings
  1

  2
none_device
  4
ISO_A4_(297.00_x_210.00_MM)
  6

 40
0.0
 41
0.0
 42
0.0
 43
0.0
 44
297.0
 45
210.0
 46
0.0
 47
0.0
 48
0.0
 49
0.0
140
0.0
141
0.0
142
1.0
143
1.0
 70
1024
 72
1
 73
0
 74
0
  7

 75
0
147
1.0
148
0.0
149
0.0
100
AcDbLayout
  1
Model
 70
0
 71
0
 10
0.0
 20
0.0
 11
297.0
 21
210.0
 12
0.0
 22
0.0
 32
0.0
 14
0.0
 24
0.0
 34
0.0
 15
0.0
 25
0.0
 35
0.0
146
0.0
 13
0.0
 23
0.0
 33
0.0
 16
1.0
 26
0.0
 36
0.0
 17
0.0
 27
1.0
 37
0.0
 76
0
330
219
345
0
346
0
  0
LAYOUT
  5
4AA
102
{ACAD_REACTORS
330
1A
102
}
100
AcDbPlotSettings
  1

  2
none_device
  4
ISO_A4_(297.00_x_210.00_MM)
  6

 40
0.0
 41
0.0
 42
0.0
 43
0.0
 44
297.0
 45
210.0
 46
0.0
 47
0.0
 48
0.0
 49
0.0
140
0.0
141
0.0
142
1.0
143
1.0
 70
0
 72
1
 73
0
 74
0
  7

 75
0
147
1.0
148
0.0
149
0.0
100
AcDbLayout
  1
Layout1
 70
0
 71
1
 10
0.0
 20
0.0
 11
297.0
 21
210.0
 12
0.0
 22
0.0
 32
0.0
 14
0.0
 24
0.0
 34
0.0
 15
0.0
 25
0.0
 35
0.0
146
0.0
 13
0.0
 23
0.0
 33
0.0
 16
1.0
 26
0.0
 36
0.0
 17
0.0
 27
1.0
 37
0.0
 76
0
330
21A
345
0
346
0
  0
ENDSEC
  0
EOF
