  0
SECTION
  2
HEADER
  9
$ACADVER
  1
AC1021
  9
$DWGCODEPAGE
  3
ANSI_1252
  9
$EXTMAX
 10
297.0
 20
210.0
 30
0.0
  9
$EXTMIN
 10
0.0
 20
0.0
 30
0.0
  9
$LIMMIN
 10
0.0
 20
0.0
  9
$LIMMAX
 10
297.0
 20
210.0
  9
$VIEWCTR
 10
148.5
 20
105.0
  9
$VIEWSIZE
 40
210.0
  9
$CLAYER
  8
0
  9
$LTSCALE
 40
16.335
  9
$CELTYPE
  6
BYLAYER
  9
$DIMSCALE
 40
1.0
  9
$DIMASZ
 40
3.0
  9
$DIMEXO
 40
1.85625
  9
$DIMDLI
 40
11.286
  9
$DIMEXE
 40
5.346
  9
$DIMCEN
 40
2.673
  9
$DIMLFAC
 40
1.0
  9
$DIMBLK
  1
_FILLED
  9
$DIMTXT
 40
3.0
  9
$DIMTOL
 70
1
  9
$DIMLIM
 70
0
  9
$DIMTFAC
 40
1.0
  9
$DIMTP
 40
0.01
  9
$DIMTM
 40
0.01
  9
$PDMODE
 70
3
  9
$PDSIZE
 40
3.0
  9
$HANDSEED
  5
5DD
  9
$TILEMODE
 70
1
  9
$MEASUREMENT
 70
1
  9
$INSUNITS
 70
4
  0
ENDSEC
  0
SECTION
  2
CLASSES
  0
CLASS
  1
ACDBDICTIONARYWDFLT
  2
AcDbDictionaryWithDefault
  3
AutoCAD 2000
 90
0
 91
1
280
0
281
0
  0
CLASS
  1
ACDBPLACEHOLDER
  2
AcDbPlaceHolder
  3
AutoCAD 2000
 90
0
 91
1
280
0
281
0
  0
CLASS
  1
LAYOUT
  2
AcDbLayout
  3
AutoCAD 2000
 90
0
 91
0
280
0
281
0
  0
ENDSEC
  0
SECTION
  2
TABLES
  0
TABLE
  2
VPORT
  5
8
100
AcDbSymbolTable
 70
2
  0
VPORT
  5
1F4
100
AcDbSymbolTableRecord
100
AcDbViewportTableRecord
  2
*ACTIVE
 70
0
 10
0.0
 20
0.0
 11
1.0
 21
1.0
 12
148.5
 22
105.0
 13
0.0
 23
0.0
 14
1.0
 24
1.0
 15
0.0
 25
0.0
 16
0.0
 26
0.0
 36
1.0
 17
0.0
 27
0.0
 37
0.0
 40
210.0
 41
1.4142857143
 42
50.0
 43
0.0
 44
0.0
 50
0.0
 51
0.0
 71
0
 72
100
 73
1
 74
1
 75
0
 76
0
 77
0
 78
0
  0
ENDTAB
  0
TABLE
  2
LTYPE
  5
5
100
AcDbSymbolTable
 70
6
  0
LTYPE
  5
14
100
AcDbSymbolTableRecord
100
AcDbLinetypeTableRecord
  2
BYBLOCK
 70
0
  3

 72
65
 73
0
 40
0.0
  0
LTYPE
  5
15
100
AcDbSymbolTableRecord
100
AcDbLinetypeTableRecord
  2
BYLAYER
 70
0
  3

 72
65
 73
0
 40
0.0
  0
LTYPE
  5
16
100
AcDbSymbolTableRecord
100
AcDbLinetypeTableRecord
  2
CONTINUOUS
 70
64
  3
Solid line
 72
65
 73
0
 40
0.0
  0
LTYPE
  5
1F5
100
AcDbSymbolTableRecord
100
AcDbLinetypeTableRecord
  2
CENTER
 70
64
  3
____ _ ____ _ ____ _ ____ _ ____ _ ____ _ ____
 72
65
 73
4
 40
0.6
 49
0.375
 74
0
 49
-0.075
 74
0
 49
0.075
 74
0
 49
-0.075
 74
0
  0
LTYPE
  5
1F6
100
AcDbSymbolTableRecord
100
AcDbLinetypeTableRecord
  2
HIDDEN
 70
64
  3
- - - - - - - - - - - - - - - - - - - -
 72
65
 73
2
 40
0.2
 49
0.1
 74
0
 49
-0.1
 74
0
  0
LTYPE
  5
1F7
100
AcDbSymbolTableRecord
100
AcDbLinetypeTableRecord
  2
PHANTOM
 70
64
  3
_____ _ _ _____ _ _ _____ _ _ _____
 72
65
 73
6
 40
0.8
 49
0.45
 74
0
 49
-0.05
 74
0
 49
0.1
 74
0
 49
-0.05
 74
0
 49
0.1
 74
0
 49
-0.05
 74
0
  0
LTYPE
  5
1F8
100
AcDbSymbolTableRecord
100
AcDbLinetypeTableRecord
  2
DOT
 70
64
  3
. . . . . . . . . . . . . . . . . . . .
 72
65
 73
2
 40
0.2
 49
0.1
 74
0
 49
-0.1
 74
0
  0
LTYPE
  5
1F9
100
AcDbSymbolTableRecord
100
AcDbLinetypeTableRecord
  2
DASHED
 70
64
  3
- - - - - - - - - - - - - - - - - - - -
 72
65
 73
2
 40
0.2
 49
0.1
 74
0
 49
-0.1
 74
0
  0
ENDTAB
  0
TABLE
  2
LAYER
  5
2
100
AcDbSymbolTable
 70
36
  0
LAYER
  5
10
100
AcDbSymbolTableRecord
100
AcDbLayerTableRecord
  2
0
 70
0
 62
7
  6
CONTINUOUS
370
-3
390
F
  0
LAYER
  5
1FA
100
AcDbSymbolTableRecord
100
AcDbLayerTableRecord
  2
DEFAULT_1
 70
0
 62
7
  6
CENTER
370
-3
390
F
  0
LAYER
  5
1FB
100
AcDbSymbolTableRecord
100
AcDbLayerTableRecord
  2
DEFAULT_2
 70
0
 62
7
  6
HIDDEN
370
-3
390
F
  0
LAYER
  5
1FC
100
AcDbSymbolTableRecord
100
AcDbLayerTableRecord
  2
DEFAULT_3
 70
0
 62
7
  6
PHANTOM
370
-3
390
F
  0
LAYER
  5
1FD
100
AcDbSymbolTableRecord
100
AcDbLayerTableRecord
  2
ASSI
 70
0
 62
7
  6
CONTINUOUS
370
-3
390
F
  0
LAYER
  5
1FE
100
AcDbSymbolTableRecord
100
AcDbLayerTableRecord
  2
COORDINATE
 70
0
 62
7
  6
CONTINUOUS
370
-3
390
F
  0
LAYER
  5
1FF
100
AcDbSymbolTableRecord
100
AcDbLayerTableRecord
  2
COORD_ORIGINE
 70
0
 62
7
  6
CONTINUOUS
370
-3
390
F
  0
LAYER
  5
200
100
AcDbSymbolTableRecord
100
AcDbLayerTableRecord
  2
COPY_PUBLISH
 70
0
 62
7
  6
CONTINUOUS
370
-3
390
F
  0
LAYER
  5
201
100
AcDbSymbolTableRecord
100
AcDbLayerTableRecord
  2
COSMETIC
 70
0
 62
7
  6
CONTINUOUS
370
-3
390
F
  0
LAYER
  5
202
100
AcDbSymbolTableRecord
100
AcDbLayerTableRecord
  2
COSMETICI
 70
0
 62
7
  6
CONTINUOUS
370
-3
390
F
  0
LAYER
  5
203
100
AcDbSymbolTableRecord
100
AcDbLayerTableRecord
  2
CURVE
 70
0
 62
7
  6
CONTINUOUS
370
-3
390
F
  0
LAYER
  5
204
100
AcDbSymbolTableRecord
100
AcDbLayerTableRecord
  2
DRAFT
 70
0
 62
7
  6
CONTINUOUS
370
-3
390
F
  0
LAYER
  5
205
100
AcDbSymbolTableRecord
100
AcDbLayerTableRecord
  2
IMPORT
 70
0
 62
7
  6
CONTINUOUS
370
-3
390
F
  0
LAYER
  5
206
100
AcDbSymbolTableRecord
100
AcDbLayerTableRecord
  2
IMPORT_IGES
 70
0
 62
7
  6
CONTINUOUS
370
-3
390
F
  0
LAYER
  5
207
100
AcDbSymbolTableRecord
100
AcDbLayerTableRecord
  2
INTFCLR_11
 70
0
 62
7
  6
CONTINUOUS
370
-3
390
F
  0
LAYER
  5
208
100
AcDbSymbolTableRecord
100
AcDbLayerTableRecord
  2
INTF_1
 70
0
 62
7
  6
CONTINUOUS
370
-3
390
F
  0
LAYER
  5
209
100
AcDbSymbolTableRecord
100
AcDbLayerTableRecord
  2
INTF_3
 70
0
 62
7
  6
CONTINUOUS
370
-3
390
F
  0
LAYER
  5
20A
100
AcDbSymbolTableRecord
100
AcDbLayerTableRecord
  2
NOTE
 70
0
 62
7
  6
CONTINUOUS
370
-3
390
F
  0
LAYER
  5
20B
100
AcDbSymbolTableRecord
100
AcDbLayerTableRecord
  2
PIANI
 70
0
 62
7
  6
CONTINUOUS
370
-3
390
F
  0
LAYER
  5
20C
100
AcDbSymbolTableRecord
100
AcDbLayerTableRecord
  2
PIANI_ORIGINE
 70
0
 62
7
  6
CONTINUOUS
370
-3
390
F
  0
LAYER
  5
20D
100
AcDbSymbolTableRecord
100
AcDbLayerTableRecord
  2
PIANI_RIFERIMENTO
 70
0
 62
7
  6
CONTINUOUS
370
-3
390
F
  0
LAYER
  5
20E
100
AcDbSymbolTableRecord
100
AcDbLayerTableRecord
  2
PUNTI
 70
0
 62
7
  6
CONTINUOUS
370
-3
390
F
  0
LAYER
  5
20F
100
AcDbSymbolTableRecord
100
AcDbLayerTableRecord
  2
RACCORDO
 70
0
 62
7
  6
CONTINUOUS
370
-3
390
F
  0
LAYER
  5
210
100
AcDbSymbolTableRecord
100
AcDbLayerTableRecord
  2
SIMBOLI
 70
0
 62
7
  6
CONTINUOUS
370
-3
390
F
  0
LAYER
  5
211
100
AcDbSymbolTableRecord
100
AcDbLayerTableRecord
  2
SMUSSO
 70
0
 62
7
  6
CONTINUOUS
370
-3
390
F
  0
LAYER
  5
212
100
AcDbSymbolTableRecord
100
AcDbLayerTableRecord
  2
SNAPLINE
 70
0
 62
7
  6
CONTINUOUS
370
-3
390
F
  0
LAYER
  5
213
100
AcDbSymbolTableRecord
100
AcDbLayerTableRecord
  2
SUPERFICI
 70
0
 62
7
  6
CONTINUOUS
370
-3
390
F
  0
LAYER
  5
214
100
AcDbSymbolTableRecord
100
AcDbLayerTableRecord
  2
TRASH
 70
0
 62
7
  6
CONTINUOUS
370
-3
390
F
  0
LAYER
  5
215
100
AcDbSymbolTableRecord
100
AcDbLayerTableRecord
  2
XSEC_DATUMS
 70
0
 62
7
  6
CONTINUOUS
370
-3
390
F
  0
LAYER
  5
216
100
AcDbSymbolTableRecord
100
AcDbLayerTableRecord
  2
___SHELL
 70
0
 62
7
  6
CONTINUOUS
370
-3
390
F
  0
ENDTAB
  0
TABLE
  2
STYLE
  5
3
100
AcDbSymbolTable
 70
1
  0
STYLE
  5
11
100
AcDbSymbolTableRecord
100
AcDbTextStyleTableRecord
  2
STANDARD
 70
0
 40
0.0
 41
0.8
 50
0.0
 71
0
 42
0.2
  3
txt
  4

  0
STYLE
  5
217
100
AcDbSymbolTableRecord
100
AcDbTextStyleTableRecord
  2
TEXTSTYLE_1
 70
0
 40
0.0
 41
0.8
 50
0.0
 71
0
 42
0.2
  3
gdt
  4

  0
ENDTAB
  0
TABLE
  2
VIEW
  5
6
100
AcDbSymbolTable
 70
0
  0
ENDTAB
  0
TABLE
  2
UCS
  5
7
100
AcDbSymbolTable
 70
0
  0
ENDTAB
  0
TABLE
  2
APPID
  5
9
100
AcDbSymbolTable
 70
1
  0
APPID
  5
218
100
AcDbSymbolTableRecord
100
AcDbRegAppTableRecord
  2
ACAD
 70
0
  0
ENDTAB
  0
TABLE
  2
BLOCK_RECORD
  5
1
100
AcDbSymbolTable
 70
0
  0
BLOCK_RECORD
  5
219
100
AcDbSymbolTableRecord
100
AcDbBlockTableRecord
  2
*Model_Space
  0
BLOCK_RECORD
  5
21A
100
AcDbSymbolTableRecord
100
AcDbBlockTableRecord
  2
*Paper_Space
  0
BLOCK_RECORD
  5
21B
100
AcDbSymbolTableRecord
100
AcDbBlockTableRecord
  2
_FILLED
  0
BLOCK_RECORD
  5
21C
100
AcDbSymbolTableRecord
100
AcDbBlockTableRecord
  2
*D0
  0
BLOCK_RECORD
  5
21D
100
AcDbSymbolTableRecord
100
AcDbBlockTableRecord
  2
*D1
  0
BLOCK_RECORD
  5
21E
100
AcDbSymbolTableRecord
100
AcDbBlockTableRecord
  2
*D2
  0
BLOCK_RECORD
  5
21F
100
AcDbSymbolTableRecord
100
AcDbBlockTableRecord
  2
*D3
  0
ENDTAB
  0
TABLE
  2
DIMSTYLE
  5
A
100
AcDbSymbolTable
 70
1
100
AcDbDimStyleTable
 71
0
  0
DIMSTYLE
105
220
100
AcDbSymbolTableRecord
100
AcDbDimStyleTableRecord
  2
STANDARD
 70
0
  3

  4

 40
1.0
 41
3.0
 42
0.0625
 43
0.38
 44
0.18
 45
0.0
 46
0.0
 47
0.01
 48
0.01
140
3.0
141
0.09
142
0.0
143
25.4
144
1.0
145
0.0
146
1.0
147
0.09
 71
1.0
 72
0.0
 73
0
 74
0
 75
0
 76
0
 77
1
 78
8
170
0
171
2
172
0
173
0
174
0
175
0
176
0
177
0
178
0
270
2
271
2
272
2
273
2
274
2
275
0
280
0
281
0
282
0
283
1
284
8
285
0
286
0
287
3
288
0
340
11
341
21B
342
21B
343
21B
344
21B
  0
DIMSTYLE
105
221
100
AcDbSymbolTableRecord
100
AcDbDimStyleTableRecord
  2
DIMSTYLE_1
 70
0
  3

  4

 40
1.0
 41
3.0
 42
0.0625
 43
0.38
 44
0.18
 45
0.0
 46
0.0
 47
0.0
 48
0.0
140
3.0
141
0.09
142
0.0
143
25.4
144
1.0
145
0.0
146
1.0
147
0.09
 71
0.0
 72
0.0
 73
0
 74
0
 75
0
 76
0
 77
1
 78
8
170
0
171
2
172
0
173
0
174
0
175
0
176
0
177
0
178
0
270
2
271
2
272
2
273
2
274
2
275
0
280
0
281
0
282
0
283
1
284
8
285
0
286
0
287
3
288
0
340
11
341
21B
342
21B
343
21B
344
21B
  0
ENDTAB
  0
ENDSEC
  0
SECTION
  2
BLOCKS
  0
BLOCK
  5
20
100
AcDbEntity
  8
0
100
AcDbBlockBegin
  2
*Model_Space
 70
0
 10
0.0
 20
0.0
 30
0.0
  3
*Model_Space
  1

  0
ENDBLK
  5
21
100
AcDbEntity
  8
0
100
AcDbBlockEnd
  0
BLOCK
  5
1C
100
AcDbEntity
  8
0
100
AcDbBlockBegin
  2
*Paper_Space
 70
0
 10
0.0
 20
0.0
 30
0.0
  3
*Paper_Space
  1

  0
ENDBLK
  5
1D
100
AcDbEntity
  8
0
100
AcDbBlockEnd
  0
BLOCK
  5
222
100
AcDbEntity
  8
0
100
AcDbBlockBegin
  2
_FILLED
 70
64
 10
0.0
 20
0.0
  3
_FILLED
  1

  0
SOLID
  5
223
100
AcDbEntity
  8
0
  6
BYBLOCK
 62
0
100
AcDbTrace
 10
0.0
 20
0.0
 11
-1.0
 21
0.3166666667
 12
-1.0
 22
-0.3166666667
 13
-1.0
 23
-0.3166666667
  0
ENDBLK
  5
224
100
AcDbEntity
  8
0
  6
BYBLOCK
 62
0
100
AcDbBlockEnd
  0
BLOCK
  5
225
100
AcDbEntity
  8
0
100
AcDbBlockBegin
 62
7
  6
CONTINUOUS
  2
*D0
 70
65
 10
0.0
 20
0.0
  3
*D0
  1

  0
MTEXT
  5
226
100
AcDbEntity
  8
0
100
AcDbMText
 62
7
  6
CONTINUOUS
  7
STANDARD
 71
2
 72
1
 10
200.4906410653
 20
98.4554178591
 30
0.0
 11
0.0
 21
1.0
 31
0.0
 44
0.9
  1
49
 40
3.0
 41
4.7142857143
  0
LINE
  5
227
100
AcDbEntity
  8
0
100
AcDbLine
 62
7
  6
CONTINUOUS
 10
190.4983775401
 20
73.9554178591
 11
205.7406410653
 21
73.9554178591
  0
LINE
  5
228
100
AcDbEntity
  8
0
100
AcDbLine
 62
7
  6
CONTINUOUS
 10
190.3021169763
 20
122.9554178591
 11
205.7406410653
 21
122.9554178591
  0
LINE
  5
229
100
AcDbEntity
  8
0
100
AcDbLine
 62
7
  6
CONTINUOUS
 10
204.2406410653
 20
73.9554178591
 11
204.2406410653
 21
98.4554178591
  0
LINE
  5
22A
100
AcDbEntity
  8
0
100
AcDbLine
 62
7
  6
CONTINUOUS
 10
204.2406410653
 20
122.9554178591
 11
204.2406410653
 21
98.4554178591
  0
INSERT
  5
22B
100
AcDbEntity
  8
0
100
AcDbBlockReference
 62
7
  6
CONTINUOUS
  2
_FILLED
 10
204.2406410653
 20
73.9554178591
 41
3.0
 42
3.0
 43
3.0
 50
270.0
  0
INSERT
  5
22C
100
AcDbEntity
  8
0
100
AcDbBlockReference
 62
7
  6
CONTINUOUS
  2
_FILLED
 10
204.2406410653
 20
122.9554178591
 41
3.0
 42
3.0
 43
3.0
 50
90.0
  0
ENDBLK
  5
22D
100
AcDbEntity
  8
0
  6
BYBLOCK
 62
0
100
AcDbBlockEnd
  0
BLOCK
  5
22E
100
AcDbEntity
  8
0
100
AcDbBlockBegin
 62
7
  6
CONTINUOUS
  2
*D1
 70
65
 10
0.0
 20
0.0
  3
*D1
  1

  0
MTEXT
  5
22F
100
AcDbEntity
  8
0
100
AcDbMText
 62
7
  6
CONTINUOUS
  7
STANDARD
 71
2
 72
1
 10
108.2540646638
 20
137.2999191338
 30
0.0
 11
1.0
 21
0.0
 31
0.0
 44
0.9
  1
11
 40
3.0
 41
3.4285714286
  0
LINE
  5
230
100
AcDbEntity
  8
0
100
AcDbLine
 62
7
  6
CONTINUOUS
 10
113.7540646638
 20
119.8836989978
 11
113.7540646638
 21
135.0499191338
  0
LINE
  5
231
100
AcDbEntity
  8
0
100
AcDbLine
 62
7
  6
CONTINUOUS
 10
102.7540646638
 20
122.3116647358
 11
102.7540646638
 21
135.0499191338
  0
LINE
  5
232
100
AcDbEntity
  8
0
100
AcDbLine
 62
7
  6
CONTINUOUS
 10
113.7540646638
 20
133.5499191338
 11
117.7540646638
 21
133.5499191338
  0
LINE
  5
233
100
AcDbEntity
  8
0
100
AcDbLine
 62
7
  6
CONTINUOUS
 10
117.7540646638
 20
133.5499191338
 11
108.2540646638
 21
133.5499191338
  0
LINE
  5
234
100
AcDbEntity
  8
0
100
AcDbLine
 62
7
  6
CONTINUOUS
 10
102.7540646638
 20
133.5499191338
 11
98.7540646638
 21
133.5499191338
  0
LINE
  5
235
100
AcDbEntity
  8
0
100
AcDbLine
 62
7
  6
CONTINUOUS
 10
98.7540646638
 20
133.5499191338
 11
108.2540646638
 21
133.5499191338
  0
INSERT
  5
236
100
AcDbEntity
  8
0
100
AcDbBlockReference
 62
7
  6
CONTINUOUS
  2
_FILLED
 10
113.7540646638
 20
133.5499191338
 41
3.0
 42
3.0
 43
3.0
 50
180.0
  0
INSERT
  5
237
100
AcDbEntity
  8
0
100
AcDbBlockReference
 62
7
  6
CONTINUOUS
  2
_FILLED
 10
102.7540646638
 20
133.5499191338
 41
3.0
 42
3.0
 43
3.0
  0
ENDBLK
  5
238
100
AcDbEntity
  8
0
  6
BYBLOCK
 62
0
100
AcDbBlockEnd
  0
BLOCK
  5
239
100
AcDbEntity
  8
0
100
AcDbBlockBegin
 62
7
  6
CONTINUOUS
  2
*D2
 70
65
 10
0.0
 20
0.0
  3
*D2
  1

  0
MTEXT
  5
23A
100
AcDbEntity
  8
0
100
AcDbMText
 62
7
  6
CONTINUOUS
  7
STANDARD
 71
2
 72
1
 10
102.6040560306
 20
147.2999191338
 30
0.0
 11
1.0
 21
0.0
 31
0.0
 44
0.9
  1
22,3
 40
3.0
 41
8.5714285714
  0
LINE
  5
23B
100
AcDbEntity
  8
0
100
AcDbLine
 62
7
  6
CONTINUOUS
 10
113.7540646638
 20
119.8836989978
 11
113.7540646638
 21
145.0499191338
  0
LINE
  5
23C
100
AcDbEntity
  8
0
100
AcDbLine
 62
7
  6
CONTINUOUS
 10
91.4540473974
 20
98.9554180497
 11
91.4540473974
 21
145.0499191338
  0
LINE
  5
23D
100
AcDbEntity
  8
0
100
AcDbLine
 62
7
  6
CONTINUOUS
 10
113.7540646638
 20
143.5499191338
 11
102.6040560306
 21
143.5499191338
  0
LINE
  5
23E
100
AcDbEntity
  8
0
100
AcDbLine
 62
7
  6
CONTINUOUS
 10
91.4540473974
 20
143.5499191338
 11
102.6040560306
 21
143.5499191338
  0
INSERT
  5
23F
100
AcDbEntity
  8
0
100
AcDbBlockReference
 62
7
  6
CONTINUOUS
  2
_FILLED
 10
113.7540646638
 20
143.5499191338
 41
3.0
 42
3.0
 43
3.0
  0
INSERT
  5
240
100
AcDbEntity
  8
0
100
AcDbBlockReference
 62
7
  6
CONTINUOUS
  2
_FILLED
 10
91.4540473974
 20
143.5499191338
 41
3.0
 42
3.0
 43
3.0
 50
180.0
  0
ENDBLK
  5
241
100
AcDbEntity
  8
0
  6
BYBLOCK
 62
0
100
AcDbBlockEnd
  0
BLOCK
  5
242
100
AcDbEntity
  8
0
100
AcDbBlockBegin
 62
7
  6
CONTINUOUS
  2
*D3
 70
65
 10
0.0
 20
0.0
  3
*D3
  1

  0
MTEXT
  5
243
100
AcDbEntity
  8
0
100
AcDbMText
 62
7
  6
CONTINUOUS
  7
STANDARD
 71
2
 72
1
 10
157.7422449221
 20
137.2999191338
 30
0.0
 11
1.0
 21
0.0
 31
0.0
 44
0.9
  1
67,3
 40
3.0
 41
8.5714285714
  0
LINE
  5
244
100
AcDbEntity
  8
0
100
AcDbLine
 62
7
  6
CONTINUOUS
 10
124.0918085787
 20
120.8554347822
 11
124.0918085787
 21
135.0499191338
  0
LINE
  5
245
100
AcDbEntity
  8
0
100
AcDbLine
 62
7
  6
CONTINUOUS
 10
191.3926812655
 20
120.8554347822
 11
191.3926812655
 21
135.0499191338
  0
LINE
  5
246
100
AcDbEntity
  8
0
100
AcDbLine
 62
7
  6
CONTINUOUS
 10
124.0918085787
 20
133.5499191338
 11
157.7422449221
 21
133.5499191338
  0
LINE
  5
247
100
AcDbEntity
  8
0
100
AcDbLine
 62
7
  6
CONTINUOUS
 10
191.3926812655
 20
133.5499191338
 11
157.7422449221
 21
133.5499191338
  0
INSERT
  5
248
100
AcDbEntity
  8
0
100
AcDbBlockReference
 62
7
  6
CONTINUOUS
  2
_FILLED
 10
124.0918085787
 20
133.5499191338
 41
3.0
 42
3.0
 43
3.0
 50
180.0
  0
INSERT
  5
249
100
AcDbEntity
  8
0
100
AcDbBlockReference
 62
7
  6
CONTINUOUS
  2
_FILLED
 10
191.3926812655
 20
133.5499191338
 41
3.0
 42
3.0
 43
3.0
  0
ENDBLK
  5
24A
100
AcDbEntity
  8
0
  6
BYBLOCK
 62
0
100
AcDbBlockEnd
  0
ENDSEC
  0
SECTION
  2
ENTITIES
  0
DIMENSION
  5
24B
100
AcDbEntity
  8
0
100
AcDbDimension
 62
7
  6
CONTINUOUS
  2
*D0
 10
204.2406410653
 20
122.9554178591
 11
203.046814589
 21
96.3481400092
 70
160
 71
2
 42
49.0
  3
DIMSTYLE_1
100
AcDbAlignedDimension
 13
190.4983775401
 23
73.9554178591
 14
190.3021169763
 24
122.9554178591
 50
90.0
100
AcDbRotatedDimension
  0
DIMENSION
  5
24C
100
AcDbEntity
  8
0
100
AcDbDimension
 62
7
  6
CONTINUOUS
  2
*D1
 10
102.7540646638
 20
133.5499191338
 11
106.5397789495
 21
135.7999191338
 70
160
 71
2
 42
11.0
  3
DIMSTYLE_1
100
AcDbAlignedDimension
 13
113.7540646638
 23
119.8836989978
 14
102.7540646638
 24
122.3116647358
 50
180.0
100
AcDbRotatedDimension
  0
DIMENSION
  5
24D
100
AcDbEntity
  8
0
100
AcDbDimension
 62
7
  6
CONTINUOUS
  2
*D2
 10
91.4540473974
 20
143.5499191338
 11
98.3183417449
 21
145.7999191338
 70
160
 71
2
 42
22.3000172664
  3
DIMSTYLE_1
100
AcDbAlignedDimension
 13
113.7540646638
 23
119.8836989978
 14
91.4540473974
 24
98.9554180497
 50
180.0
100
AcDbRotatedDimension
  0
DIMENSION
  5
24E
100
AcDbEntity
  8
0
100
AcDbDimension
 62
7
  6
CONTINUOUS
  2
*D3
 10
191.3926812655
 20
133.5499191338
 11
153.4565306364
 21
135.7999191338
 70
160
 71
2
 42
67.3008726868
  3
DIMSTYLE_1
100
AcDbAlignedDimension
 13
124.0918085787
 23
120.8554347822
 14
191.3926812655
 24
120.8554347822
100
AcDbRotatedDimension
  0
LINE
  5
24F
100
AcDbEntity
  8
0
100
AcDbLine
 62
253
  6
CONTINUOUS
 10
127.7291505741
 20
122.9423192804
 11
127.7422491529
 21
122.9554178591
  0
LINE
  5
250
100
AcDbEntity
  8
0
100
AcDbLine
 62
253
  6
CONTINUOUS
 10
127.9791463434
 20
122.6923235112
 11
127.9922449221
 21
122.7054220899
  0
LINE
  5
251
100
AcDbEntity
  8
0
100
AcDbLine
 62
253
  6
CONTINUOUS
 10
127.7291505741
 20
73.9685164378
 11
127.7422491529
 21
73.9554178591
  0
LINE
  5
252
100
AcDbEntity
  8
0
100
AcDbLine
 62
253
  6
CONTINUOUS
 10
127.9791463434
 20
74.2185122071
 11
127.9922449221
 21
74.2054136283
  0
LWPOLYLINE
  5
253
100
AcDbEntity
  8
0
100
AcDbPolyline
 62
7
  6
CONTINUOUS
 90
46
 70
0
 10
125.099525671
 20
121.7224051572
 10
125.0996979223
 20
121.717826503
 10
125.1001239981
 20
121.7132311955
 10
125.1008062157
 20
121.7086263465
 10
125.1017466169
 20
121.7040218756
 10
125.1029469836
 20
121.6994224893
 10
125.1044089226
 20
121.694827686
 10
125.1061337233
 20
121.690245264
 10
125.1081224075
 20
121.6856828065
 10
125.1103759277
 20
121.681139693
 10
125.112894758
 20
121.6766240553
 10
125.1156790964
 20
121.6721438139
 10
125.1187292318
 20
121.6676982345
 10
125.1220447643
 20
121.6632957409
 10
125.1256250138
 20
121.6589445446
 10
125.1294696025
 20
121.654643801
 10
125.1335772106
 20
121.6504021675
 10
125.1379462137
 20
121.6462281142
 10
125.1425755252
 20
121.6421207322
 10
125.1474628431
 20
121.6380888615
 10
125.1526055315
 20
121.6341411784
 10
125.1580017307
 20
121.6302767541
 10
125.1636480918
 20
121.6265045459
 10
125.1695408882
 20
121.6228333803
 10
125.1756773854
 20
121.6192623599
 10
125.1820531157
 20
121.6158004793
 10
125.1886631748
 20
121.6124566458
 10
125.1955038119
 20
121.6092300449
 10
125.2025693614
 20
121.6061296098
 10
125.2098536498
 20
121.6031642377
 10
125.2173517351
 20
121.6003332429
 10
125.2250566691
 20
121.5976453725
 10
125.2329609222
 20
121.5951093971
 10
125.2410581731
 20
121.5927247882
 10
125.2493400749
 20
121.5904999644
 10
125.2577977005
 20
121.5884434096
 10
125.2664232784
 20
121.5865547358
 10
125.2752070139
 20
121.5848418549
 10
125.2841385194
 20
121.5833128012
 10
125.2932084947
 20
121.58196732
 10
125.3023923822
 20
121.5808148572
 10
125.3116914104
 20
121.5798596987
 10
125.3211350716
 20
121.5790976101
 10
125.3307250428
 20
121.5785359936
 10
125.3404342633
 20
121.5781893215
 10
125.3502486689
 20
121.5780675899
  0
LWPOLYLINE
  5
254
100
AcDbEntity
  8
0
100
AcDbPolyline
 62
253
  6
CONTINUOUS
 90
34
 70
0
 10
125.1053435008
 20
122.2997554264
 10
125.1056601515
 20
122.2894726589
 10
125.1065403133
 20
122.2792130989
 10
125.1079819996
 20
122.2689999018
 10
125.1099819566
 20
122.2588561181
 10
125.1125356706
 20
122.2488046417
 10
125.115637378
 20
122.2388681582
 10
125.1192800784
 20
122.2290690937
 10
125.1234555505
 20
122.2194295641
 10
125.1281543704
 20
122.2099713252
 10
125.1333659332
 20
122.2007157237
 10
125.1390784767
 20
122.1916836489
 10
125.1452791081
 20
122.1828954858
 10
125.1519538328
 20
122.1743710687
 10
125.1590875865
 20
122.1661296366
 10
125.1666642686
 20
122.1581897901
 10
125.1746667791
 20
122.1505694489
 10
125.1830770567
 20
122.1432858116
 10
125.1918761199
 20
122.1363553169
 10
125.2010441098
 20
122.1297936067
 10
125.2105603348
 20
122.1236154902
 10
125.2204033173
 20
122.1178349112
 10
125.2305508422
 20
122.1124649161
 10
125.2409800073
 20
122.1075176245
 10
125.2516672744
 20
122.1030042024
 10
125.2625885232
 20
122.0989348361
 10
125.2737191049
 20
122.09531871
 10
125.2850338985
 20
122.0921639855
 10
125.2965073671
 20
122.0894777827
 10
125.3081136159
 20
122.087266164
 10
125.3198264502
 20
122.0855341211
 10
125.3316194348
 20
122.084285563
 10
125.3434659537
 20
122.0835233077
 10
125.35533927
 20
122.0832490755
  0
LINE
  5
255
100
AcDbEntity
  8
RACCORDO
100
AcDbLine
 62
253
  6
CONTINUOUS
 10
124.3736209257
 20
119.7914264297
 11
124.3753581139
 21
119.7339099416
  0
LINE
  5
256
100
AcDbEntity
  8
RACCORDO
100
AcDbLine
 62
253
  6
CONTINUOUS
 10
124.3753581139
 20
119.7339099416
 11
124.3768921908
 21
119.668539732
  0
LWPOLYLINE
  5
257
100
AcDbEntity
  8
0
100
AcDbPolyline
 62
7
  6
CONTINUOUS
 90
34
 70
0
 10
124.0918085787
 20
76.5554009361
 10
124.0921524181
 20
76.5367578653
 10
124.0931933868
 20
76.5181594098
 10
124.0949314847
 20
76.4996055695
 10
124.0973723516
 20
76.4810556367
 10
124.1005103478
 20
76.4625503192
 10
124.1043285535
 20
76.44421174
 10
124.1088315533
 20
76.426052154
 10
124.1140147626
 20
76.4080593063
 10
124.1198475078
 20
76.3903185562
 10
124.1263212293
 20
76.3728524596
 10
124.1334444867
 20
76.3556384605
 10
124.1412122855
 20
76.3386942504
 10
124.149638036
 20
76.3219932947
 10
124.1587083278
 20
76.3055621281
 10
124.1683779356
 20
76.2894980458
 10
124.1786558009
 20
76.2738019783
 10
124.1895329822
 20
76.2584729952
 10
124.2009374291
 20
76.2436056003
 10
124.2128566272
 20
76.2292210952
 10
124.225303091
 20
76.2152981783
 10
124.2382423137
 20
76.2018674481
 10
124.2516731181
 20
76.1889274228
 10
124.2655966814
 20
76.1764795842
 10
124.2799820287
 20
76.1645589774
 10
124.2948506241
 20
76.1531531109
 10
124.3101810034
 20
76.1422744762
 10
124.3258777994
 20
76.1319955926
 10
124.3419414265
 20
76.1223257359
 10
124.3583714702
 20
76.1132556303
 10
124.37507132
 20
76.1048299681
 10
124.3920141368
 20
76.0970621017
 10
124.4092267598
 20
76.0899386786
 10
124.4266930958
 20
76.0834643331
  0
LINE
  5
258
100
AcDbEntity
  8
RACCORDO
100
AcDbLine
 62
253
  6
CONTINUOUS
 10
124.3768921908
 20
119.668539732
 11
124.3781976578
 21
119.5965337652
  0
LINE
  5
259
100
AcDbEntity
  8
RACCORDO
100
AcDbLine
 62
253
  6
CONTINUOUS
 10
124.8644592197
 20
120.3894574619
 11
124.8652515037
 21
120.3394748822
  0
LINE
  5
25A
100
AcDbEntity
  8
RACCORDO
100
AcDbLine
 62
253
  6
CONTINUOUS
 10
124.3781976578
 20
119.5965337652
 11
124.3796909292
 21
119.4781514475
  0
LINE
  5
25B
100
AcDbEntity
  8
0
100
AcDbLine
 62
253
  6
CONTINUOUS
 10
125.1053435008
 20
74.6110802918
 11
125.099525671
 21
75.188430561
  0
LINE
  5
25C
100
AcDbEntity
  8
0
100
AcDbLine
 62
253
  6
CONTINUOUS
 10
125.35533927
 20
74.8275866428
 11
125.3502486689
 21
75.3327681283
  0
LINE
  5
25D
100
AcDbEntity
  8
RACCORDO
100
AcDbLine
 62
253
  6
CONTINUOUS
 10
124.8652515037
 20
120.3394748822
 11
124.8666802354
 21
120.1886757241
  0
LINE
  5
25E
100
AcDbEntity
  8
RACCORDO
100
AcDbLine
 62
253
  6
CONTINUOUS
 10
124.3796909292
 20
119.4781514475
 11
124.3805774863
 21
119.3515382546
  0
LINE
  5
25F
100
AcDbEntity
  8
RACCORDO
100
AcDbLine
 62
253
  6
CONTINUOUS
 10
124.8666802354
 20
120.1886757241
 11
124.867843211
 21
119.9784074655
  0
LINE
  5
260
100
AcDbEntity
  8
RACCORDO
100
AcDbLine
 62
253
  6
CONTINUOUS
 10
124.867843211
 20
119.9784074655
 11
124.8687976004
 21
119.6522429612
  0
LINE
  5
261
100
AcDbEntity
  8
DRAFT
100
AcDbLine
 62
7
  6
CONTINUOUS
 10
124.1193002727
 20
115.0554178591
 11
124.1472004171
 21
98.4554178591
  0
LWPOLYLINE
  5
262
100
AcDbEntity
  8
RACCORDO
100
AcDbPolyline
 62
253
  6
CONTINUOUS
 90
9
 70
0
 10
124.3805774863
 20
119.3515382546
 10
124.3853479084
 20
114.6414417198
 10
124.3887462018
 20
110.0177855075
 10
124.3910117308
 20
105.3935425726
 10
124.3921444953
 20
100.7683217772
 10
124.3921444954
 20
96.1425142592
 10
124.3910117309
 20
91.517293432
 10
124.3887462019
 20
86.8930504335
 10
124.3853479084
 20
82.2693941259
  0
LWPOLYLINE
  5
263
100
AcDbEntity
  8
RACCORDO
100
AcDbPolyline
 62
253
  6
CONTINUOUS
 90
9
 70
0
 10
124.8723978907
 20
114.6584576624
 10
124.8748519203
 20
110.0299925682
 10
124.87648794
 20
105.4005385128
 10
124.8773059499
 20
100.7705171267
 10
124.8773059498
 20
96.1403175841
 10
124.8764879397
 20
91.5102962988
 10
124.8748519196
 20
86.8808424449
 10
124.8723978897
 20
82.2523776529
 10
124.8690718282
 20
77.475963111
  0
LINE
  5
264
100
AcDbEntity
  8
RACCORDO
100
AcDbLine
 62
253
  6
CONTINUOUS
 10
124.8687976004
 20
119.6522429612
 11
124.8723978907
 21
114.6584576624
  0
LINE
  5
265
100
AcDbEntity
  8
0
100
AcDbLine
 62
7
  6
CONTINUOUS
 10
124.0918085787
 20
76.5554009361
 11
124.0918085787
 21
120.3554347822
  0
LINE
  5
266
100
AcDbEntity
  8
0
100
AcDbLine
 62
7
  6
CONTINUOUS
 10
124.0931176753
 20
76.5556467112
 11
124.0931176753
 21
120.3551890071
  0
LINE
  5
267
100
AcDbEntity
  8
DRAFT
100
AcDbLine
 62
7
  6
CONTINUOUS
 10
124.1193002727
 20
76.6342583801
 11
124.1193002727
 21
81.8554178591
  0
LINE
  5
268
100
AcDbEntity
  8
DRAFT
100
AcDbLine
 62
7
  6
CONTINUOUS
 10
124.1193002727
 20
115.0554178591
 11
124.1193002727
 21
120.2765773381
  0
LINE
  5
269
100
AcDbEntity
  8
RACCORDO
100
AcDbLine
 62
7
  6
CONTINUOUS
 10
124.2422449221
 20
76.8552465216
 11
124.2422449221
 21
120.0555891966
  0
LINE
  5
26A
100
AcDbEntity
  8
0
100
AcDbLine
 62
7
  6
CONTINUOUS
 10
125.0922449221
 20
74.2054136283
 11
125.0922449221
 21
76.0554178591
  0
LINE
  5
26B
100
AcDbEntity
  8
0
100
AcDbLine
 62
7
  6
CONTINUOUS
 10
125.0922449221
 20
120.8554178591
 11
125.0922449221
 21
122.7054220899
  0
LINE
  5
26C
100
AcDbEntity
  8
0
100
AcDbLine
 62
253
  6
CONTINUOUS
 10
125.099525671
 20
121.7224051572
 11
125.099525671
 21
120.7898319114
  0
LINE
  5
26D
100
AcDbEntity
  8
0
100
AcDbLine
 62
253
  6
CONTINUOUS
 10
125.099525671
 20
76.1210038068
 11
125.099525671
 21
75.188430561
  0
LINE
  5
26E
100
AcDbEntity
  8
0
100
AcDbLine
 62
253
  6
CONTINUOUS
 10
125.1053435008
 20
122.6923235112
 11
125.1053435008
 21
122.2997554264
  0
LINE
  5
26F
100
AcDbEntity
  8
0
100
AcDbLine
 62
253
  6
CONTINUOUS
 10
125.1053435008
 20
74.6110802918
 11
125.1053435008
 21
74.2185122071
  0
LINE
  5
270
100
AcDbEntity
  8
0
100
AcDbLine
 62
253
  6
CONTINUOUS
 10
125.3495214402
 20
121.5780675899
 11
125.3495214402
 21
120.7768061902
  0
LINE
  5
271
100
AcDbEntity
  8
0
100
AcDbLine
 62
253
  6
CONTINUOUS
 10
125.3495214402
 20
76.1340295281
 11
125.3495214402
 21
75.3327681283
  0
LINE
  5
272
100
AcDbEntity
  8
0
100
AcDbLine
 62
253
  6
CONTINUOUS
 10
125.35533927
 20
73.9685164378
 11
125.35533927
 21
74.8275866428
  0
LINE
  5
273
100
AcDbEntity
  8
0
100
AcDbLine
 62
253
  6
CONTINUOUS
 10
125.35533927
 20
122.0832490755
 11
125.35533927
 21
122.9423192804
  0
LINE
  5
274
100
AcDbEntity
  8
DRAFT
100
AcDbLine
 62
7
  6
CONTINUOUS
 10
124.1472004171
 20
98.4554178591
 11
124.1193002727
 21
81.8554178591
  0
LINE
  5
275
100
AcDbEntity
  8
RACCORDO
100
AcDbLine
 62
253
  6
CONTINUOUS
 10
124.8690718282
 20
77.475963111
 11
124.8684888129
 21
77.1213751371
  0
LINE
  5
276
100
AcDbEntity
  8
RACCORDO
100
AcDbLine
 62
253
  6
CONTINUOUS
 10
124.3853479084
 20
82.2693941259
 11
124.3805774864
 21
77.5592974638
  0
LINE
  5
277
100
AcDbEntity
  8
RACCORDO
100
AcDbLine
 62
253
  6
CONTINUOUS
 10
124.8684888129
 20
77.1213751371
 11
124.8673015345
 21
76.8206034163
  0
LINE
  5
278
100
AcDbEntity
  8
RACCORDO
100
AcDbLine
 62
253
  6
CONTINUOUS
 10
124.3805774864
 20
77.5592974638
 11
124.3796909293
 21
77.4326842708
  0
LINE
  5
279
100
AcDbEntity
  8
RACCORDO
100
AcDbLine
 62
253
  6
CONTINUOUS
 10
124.8673015345
 20
76.8206034163
 11
124.8659980357
 21
76.6386417455
  0
LINE
  5
27A
100
AcDbEntity
  8
0
100
AcDbLine
 62
253
  6
CONTINUOUS
 10
125.099525671
 20
121.7224051572
 11
125.1053435008
 21
122.2997554264
  0
LINE
  5
27B
100
AcDbEntity
  8
0
100
AcDbLine
 62
253
  6
CONTINUOUS
 10
125.3502486689
 20
121.5780675899
 11
125.35533927
 21
122.0832490755
  0
LWPOLYLINE
  5
27C
100
AcDbEntity
  8
RACCORDO
100
AcDbPolyline
 62
253
  6
CONTINUOUS
 90
7
 70
0
 10
124.8659980357
 20
76.6386417455
 10
124.8648641378
 20
76.5441523443
 10
124.8644592186
 20
76.5213782567
 10
124.8640541862
 20
76.5031258175
 10
124.8636504027
 20
76.489467757
 10
124.8632331685
 20
76.4804601413
 10
124.8627957112
 20
76.4761399858
  0
LINE
  5
27D
100
AcDbEntity
  8
RACCORDO
100
AcDbLine
 62
253
  6
CONTINUOUS
 10
124.3796909293
 20
77.4326842708
 11
124.3781976579
 21
77.3143019531
  0
LWPOLYLINE
  5
27E
100
AcDbEntity
  8
0
100
AcDbPolyline
 62
7
  6
CONTINUOUS
 90
34
 70
0
 10
124.0931176753
 20
120.3551890071
 10
124.0934621168
 20
120.3738662286
 10
124.094504095
 20
120.3924969242
 10
124.09624361
 20
120.4110810939
 10
124.0986864351
 20
120.4296594861
 10
124.1018267971
 20
120.4481913524
 10
124.1056473756
 20
120.4665544471
 10
124.1101527228
 20
120.4847364133
 10
124.1153382865
 20
120.502749608
 10
124.1211730903
 20
120.5205088553
 10
124.1276485874
 20
120.5379916448
 10
124.1347733245
 20
120.555220487
 10
124.1425419654
 20
120.5721777378
 10
124.1509679461
 20
120.5888899541
 10
124.1600378305
 20
120.605330579
 10
124.1697059747
 20
120.6214022974
 10
124.1799812581
 20
120.6371040632
 10
124.1908548011
 20
120.6524369224
 10
124.2022543212
 20
120.6673066981
 10
124.2141671456
 20
120.6816919605
 10
124.2266059469
 20
120.6956141393
 10
124.2395364608
 20
120.709043347
 10
124.252957676
 20
120.7219812698
 10
124.2668706037
 20
120.7344262215
 10
124.2812440122
 20
120.7463432564
 10
124.2960992006
 20
120.7577447467
 10
124.3114148699
 20
120.7686183202
 10
124.3270958907
 20
120.7788919147
 10
124.3431425877
 20
120.788556263
 10
124.3595546363
 20
120.7976206323
 10
124.3762359335
 20
120.8060407622
 10
124.3931596725
 20
120.8138033723
 10
124.4103526601
 20
120.820921743
 10
124.4277992141
 20
120.827391455
  0
LINE
  5
27F
100
AcDbEntity
  8
RACCORDO
100
AcDbLine
 62
253
  6
CONTINUOUS
 10
124.3781976579
 20
77.3143019531
 11
124.3768921909
 21
77.2422959864
  0
LWPOLYLINE
  5
280
100
AcDbEntity
  8
0
100
AcDbPolyline
 62
7
  6
CONTINUOUS
 90
34
 70
0
 10
125.0922449221
 20
122.7054220899
 10
125.0925280723
 20
122.7173173751
 10
125.0933768878
 20
122.7291857147
 10
125.0947894479
 20
122.7410002253
 10
125.0967625544
 20
122.7527341466
 10
125.0992917404
 20
122.7643608979
 10
125.1023712804
 20
122.7758541381
 10
125.1059942007
 20
122.7871878329
 10
125.1101522963
 20
122.7983363084
 10
125.1148361499
 20
122.8092743054
 10
125.1200351533
 20
122.8199770467
 10
125.1257375304
 20
122.8304202874
 10
125.1319303639
 20
122.840580365
 10
125.1385996266
 20
122.8504342642
 10
125.1457302114
 20
122.859959663
 10
125.1533059632
 20
122.8691349782
 10
125.1613097216
 20
122.8779394252
 10
125.169723356
 20
122.8863530596
 10
125.178527803
 20
122.894356818
 10
125.1877031182
 20
122.9019325698
 10
125.197228517
 20
122.9090631546
 10
125.2070824162
 20
122.9157324173
 10
125.2172424938
 20
122.9219252508
 10
125.2276857345
 20
122.927627628
 10
125.2383884758
 20
122.9328266313
 10
125.2493264728
 20
122.9375104849
 10
125.2604749483
 20
122.9416685805
 10
125.2718086431
 20
122.9452915008
 10
125.2833018833
 20
122.9483710408
 10
125.2949286346
 20
122.9509002268
 10
125.3066625559
 20
122.9528733333
 10
125.3184770665
 20
122.9542858934
 10
125.3303454061
 20
122.9551347089
 10
125.3422406913
 20
122.9554178591
  0
LWPOLYLINE
  5
281
100
AcDbEntity
  8
0
100
AcDbPolyline
 62
253
  6
CONTINUOUS
 90
34
 70
0
 10
125.1053435008
 20
122.6923235112
 10
125.1056271297
 20
122.7042201701
 10
125.1064765698
 20
122.7160898884
 10
125.1078898986
 20
122.7279057707
 10
125.1098639172
 20
122.7396410504
 10
125.1123941542
 20
122.7512691298
 10
125.1154748728
 20
122.7627636408
 10
125.11909909
 20
122.7740985333
 10
125.1232585942
 20
122.7852481297
 10
125.1279439586
 20
122.7961871632
 10
125.1331445662
 20
122.8068908496
 10
125.1388486315
 20
122.8173349348
 10
125.1450432238
 20
122.827495747
 10
125.1517143038
 20
122.8373502631
 10
125.1588467549
 20
122.8468761573
 10
125.1664244114
 20
122.8560518443
 10
125.1744301056
 20
122.8648565399
 10
125.1828456918
 20
122.8732702915
 10
125.1916520834
 20
122.881274023
 10
125.2008292966
 20
122.8888495839
 10
125.2103565581
 20
122.8959798373
 10
125.2202123428
 20
122.9026486745
 10
125.2303744184
 20
122.9088410369
 10
125.2408196719
 20
122.9145428254
 10
125.2515242067
 20
122.9197410107
 10
125.2624636078
 20
122.9244237843
 10
125.2736132198
 20
122.9285806387
 10
125.2849479849
 20
122.9322022485
 10
125.2964439505
 20
122.9352808271
 10
125.3080733858
 20
122.937808817
 10
125.3198048804
 20
122.939779763
 10
125.3316100559
 20
122.941189759
 10
125.3434637985
 20
122.9420366608
 10
125.35533927
 20
122.9423192804
  0
LINE
  5
282
100
AcDbEntity
  8
RACCORDO
100
AcDbLine
 62
253
  6
CONTINUOUS
 10
124.3768921909
 20
77.2422959864
 11
124.375358114
 21
77.1769257768
  0
LWPOLYLINE
  5
283
100
AcDbEntity
  8
0
100
AcDbPolyline
 62
253
  6
CONTINUOUS
 90
34
 70
0
 10
125.1053435008
 20
74.6110802918
 10
125.105659628
 20
74.6213540696
 10
125.1065385403
 20
74.6316069801
 10
125.1079786318
 20
74.6418158899
 10
125.1099771977
 20
74.6519584892
 10
125.1125300136
 20
74.6620110788
 10
125.1156309337
 20
74.6719486995
 10
125.1192726417
 20
74.6817481317
 10
125.1234471471
 20
74.6913880675
 10
125.1281451277
 20
74.7008469381
 10
125.1333560843
 20
74.710103505
 10
125.1390682254
 20
74.7191367335
 10
125.1452685577
 20
74.7279260448
 10
125.1519430337
 20
74.7364515365
 10
125.1590766315
 20
74.7446940304
 10
125.1666532655
 20
74.7526349377
 10
125.1746558478
 20
74.7602563424
 10
125.1830663061
 20
74.7675410267
 10
125.1918656385
 20
74.77447253
 10
125.2010339753
 20
74.781035201
 10
125.2105506272
 20
74.787214231
 10
125.2203941122
 20
74.7929956723
 10
125.230542211
 20
74.7983664742
 10
125.2409720159
 20
74.8033145132
 10
125.2516599833
 20
74.8078286198
 10
125.2625819999
 20
74.8118986086
 10
125.2737133991
 20
74.815515287
 10
125.2850290135
 20
74.8186704806
 10
125.2965032714
 20
74.8213570664
 10
125.3081102971
 20
74.8235689929
 10
125.3198239308
 20
74.8253012777
 10
125.3316177457
 20
74.8265500115
 10
125.3434651063
 20
74.8273123735
 10
125.35533927
 20
74.8275866428
  0
LWPOLYLINE
  5
284
100
AcDbEntity
  8
RACCORDO
100
AcDbPolyline
 62
253
  6
CONTINUOUS
 90
12
 70
0
 10
124.375358114
 20
77.1769257768
 10
124.3736209258
 20
77.1194092887
 10
124.3726871876
 20
77.0939074411
 10
124.3717130947
 20
77.0707143342
 10
124.3706990901
 20
77.0498016008
 10
124.3696570568
 20
77.031412466
 10
124.3685862508
 20
77.0155758209
 10
124.367487416
 20
77.0022627744
 10
124.3663746669
 20
76.9916298787
 10
124.3652527084
 20
76.9837293178
 10
124.3641168357
 20
76.9785089076
 10
124.3629670487
 20
76.9759686482
  0
LWPOLYLINE
  5
285
100
AcDbEntity
  8
0
100
AcDbPolyline
 62
7
  6
CONTINUOUS
 90
46
 70
0
 10
125.099525671
 20
75.188430561
 10
125.0996979223
 20
75.1930092153
 10
125.1001239981
 20
75.1976045228
 10
125.1008062157
 20
75.2022093718
 10
125.1017466169
 20
75.2068138427
 10
125.1029469836
 20
75.211413229
 10
125.1044089226
 20
75.2160080323
 10
125.1061337233
 20
75.2205904543
 10
125.1081224075
 20
75.2251529117
 10
125.1103759277
 20
75.2296960252
 10
125.112894758
 20
75.234211663
 10
125.1156790964
 20
75.2386919043
 10
125.1187292318
 20
75.2431374837
 10
125.1220447643
 20
75.2475399774
 10
125.1256250138
 20
75.2518911737
 10
125.1294696025
 20
75.2561919173
 10
125.1335772106
 20
75.2604335507
 10
125.1379462137
 20
75.2646076041
 10
125.1425755252
 20
75.2687149861
 10
125.1474628431
 20
75.2727468568
 10
125.1526055315
 20
75.2766945399
 10
125.1580017307
 20
75.2805589641
 10
125.1636480918
 20
75.2843311724
 10
125.1695408882
 20
75.2880023379
 10
125.1756773854
 20
75.2915733584
 10
125.1820531157
 20
75.2950352389
 10
125.1886631748
 20
75.2983790725
 10
125.1955038119
 20
75.3016056734
 10
125.2025693614
 20
75.3047061085
 10
125.2098536498
 20
75.3076714805
 10
125.2173517351
 20
75.3105024754
 10
125.2250566691
 20
75.3131903457
 10
125.2329609222
 20
75.3157263211
 10
125.2410581731
 20
75.3181109301
 10
125.2493400749
 20
75.3203357538
 10
125.2577977005
 20
75.3223923086
 10
125.2664232784
 20
75.3242809824
 10
125.2752070139
 20
75.3259938634
 10
125.2841385194
 20
75.327522917
 10
125.2932084947
 20
75.3288683983
 10
125.3023923822
 20
75.3300208611
 10
125.3116914104
 20
75.3309760196
 10
125.3211350716
 20
75.3317381081
 10
125.3307250428
 20
75.3322997247
 10
125.3404342633
 20
75.3326463968
 10
125.3502486689
 20
75.3327681283
  0
LINE
  5
286
100
AcDbEntity
  8
0
100
AcDbLine
 62
7
  6
CONTINUOUS
 10
127.9922449221
 20
120.8554178591
 11
127.9849641732
 21
120.7898319114
  0
LWPOLYLINE
  5
287
100
AcDbEntity
  8
0
100
AcDbPolyline
 62
7
  6
CONTINUOUS
 90
35
 70
0
 10
124.4455230685
 20
120.8332214906
 10
124.4266930958
 20
120.8273713851
 10
124.4092267598
 20
120.8208970396
 10
124.3920141368
 20
120.8137736166
 10
124.37507132
 20
120.8060057502
 10
124.3583714702
 20
120.7975800879
 10
124.3419414265
 20
120.7885099824
 10
124.3258777994
 20
120.7788401256
 10
124.3101810034
 20
120.7685612421
 10
124.2948506241
 20
120.7576826073
 10
124.2799820287
 20
120.7462767408
 10
124.2655966814
 20
120.7343561341
 10
124.2516731181
 20
120.7219082955
 10
124.2382423137
 20
120.7089682701
 10
124.225303091
 20
120.69553754
 10
124.2128566272
 20
120.6816146231
 10
124.2009374291
 20
120.667230118
 10
124.1895329822
 20
120.652362723
 10
124.1786558009
 20
120.6370337399
 10
124.1683779356
 20
120.6213376725
 10
124.1587083278
 20
120.6052735902
 10
124.149638036
 20
120.5888424235
 10
124.1412122855
 20
120.5721414678
 10
124.1334444867
 20
120.5551972578
 10
124.1263212293
 20
120.5379832587
 10
124.1198475078
 20
120.520517162
 10
124.1140147626
 20
120.5027764119
 10
124.1088315533
 20
120.4847835643
 10
124.1043285535
 20
120.4666239782
 10
124.1005103478
 20
120.4482853991
 10
124.0973723516
 20
120.4297800815
 10
124.0949314847
 20
120.4112301487
 10
124.0931933868
 20
120.3926763084
 10
124.0921524181
 20
120.3740778529
 10
124.0918085787
 20
120.3554347822
  0
LINE
  5
288
100
AcDbEntity
  8
0
100
AcDbLine
 62
7
  6
CONTINUOUS
 10
124.4455230687
 20
76.0776142276
 11
124.4266930958
 21
76.0834643331
  0
LWPOLYLINE
  5
289
100
AcDbEntity
  8
0
100
AcDbPolyline
 62
7
  6
CONTINUOUS
 90
34
 70
0
 10
124.4277992142
 20
76.0834442632
 10
124.4103526603
 20
76.0899139752
 10
124.3931596726
 20
76.0970323459
 10
124.3762359336
 20
76.104794956
 10
124.3595546364
 20
76.1132150859
 10
124.3431425878
 20
76.1222794552
 10
124.3270958908
 20
76.1319438035
 10
124.31141487
 20
76.142217398
 10
124.2960992007
 20
76.1530909715
 10
124.2812440123
 20
76.1644924618
 10
124.2668706038
 20
76.1764094967
 10
124.2529576761
 20
76.1888544484
 10
124.2395364608
 20
76.2017923711
 10
124.226605947
 20
76.2152215789
 10
124.2141671456
 20
76.2291437577
 10
124.2022543213
 20
76.2435290201
 10
124.1908548012
 20
76.2583987958
 10
124.1799812581
 20
76.273731655
 10
124.1697059747
 20
76.2894334208
 10
124.1600378306
 20
76.3055051392
 10
124.1509679461
 20
76.3219457641
 10
124.1425419654
 20
76.3386579804
 10
124.1347733245
 20
76.3556152312
 10
124.1276485874
 20
76.3728440734
 10
124.1211730903
 20
76.3903268629
 10
124.1153382865
 20
76.4080861103
 10
124.1101527228
 20
76.4260993049
 10
124.1056473756
 20
76.4442812712
 10
124.1018267971
 20
76.4626443658
 10
124.0986864352
 20
76.4811762321
 10
124.09624361
 20
76.4997546244
 10
124.094504095
 20
76.518338794
 10
124.0934621168
 20
76.5369694896
 10
124.0931176753
 20
76.5556467112
  0
LINE
  5
28A
100
AcDbEntity
  8
0
100
AcDbLine
 62
7
  6
CONTINUOUS
 10
127.9922449221
 20
76.0554178591
 11
127.9849641732
 21
76.1210038068
  0
LWPOLYLINE
  5
28B
100
AcDbEntity
  8
RACCORDO
100
AcDbPolyline
 62
253
  6
CONTINUOUS
 90
5
 70
0
 10
124.8627957111
 20
120.4346957326
 10
124.8632331687
 20
120.4303755771
 10
124.8636504032
 20
120.4213679615
 10
124.864054187
 20
120.407709901
 10
124.8644592197
 20
120.3894574619
  0
LWPOLYLINE
  5
28C
100
AcDbEntity
  8
0
100
AcDbPolyline
 62
7
  6
CONTINUOUS
 90
46
 70
0
 10
127.9849641732
 20
75.188430561
 10
127.9847919219
 20
75.1930092153
 10
127.984365846
 20
75.1976045228
 10
127.9836836285
 20
75.2022093718
 10
127.9827432272
 20
75.2068138427
 10
127.9815428606
 20
75.211413229
 10
127.9800809216
 20
75.2160080323
 10
127.9783561209
 20
75.2205904543
 10
127.9763674367
 20
75.2251529117
 10
127.9741139165
 20
75.2296960252
 10
127.9715950862
 20
75.234211663
 10
127.9688107478
 20
75.2386919043
 10
127.9657606124
 20
75.2431374837
 10
127.9624450799
 20
75.2475399774
 10
127.9588648304
 20
75.2518911737
 10
127.9550202417
 20
75.2561919173
 10
127.9509126336
 20
75.2604335507
 10
127.9465436305
 20
75.2646076041
 10
127.941914319
 20
75.2687149861
 10
127.937027001
 20
75.2727468568
 10
127.9318843126
 20
75.2766945399
 10
127.9264881135
 20
75.2805589641
 10
127.9208417524
 20
75.2843311724
 10
127.914948956
 20
75.2880023379
 10
127.9088124588
 20
75.2915733584
 10
127.9024367284
 20
75.2950352389
 10
127.8958266694
 20
75.2983790725
 10
127.8889860323
 20
75.3016056734
 10
127.8819204828
 20
75.3047061085
 10
127.8746361943
 20
75.3076714805
 10
127.867138109
 20
75.3105024754
 10
127.859433175
 20
75.3131903457
 10
127.851528922
 20
75.3157263211
 10
127.8434316711
 20
75.3181109301
 10
127.8351497693
 20
75.3203357538
 10
127.8266921436
 20
75.3223923086
 10
127.8180665658
 20
75.3242809824
 10
127.8092828303
 20
75.3259938634
 10
127.8003513248
 20
75.327522917
 10
127.7912813494
 20
75.3288683983
 10
127.782097462
 20
75.3300208611
 10
127.7727984337
 20
75.3309760196
 10
127.7633547726
 20
75.3317381081
 10
127.7537648014
 20
75.3322997247
 10
127.7440555809
 20
75.3326463968
 10
127.7342411752
 20
75.3327681283
  0
LWPOLYLINE
  5
28D
100
AcDbEntity
  8
0
100
AcDbPolyline
 62
253
  6
CONTINUOUS
 90
34
 70
0
 10
127.9791463434
 20
74.6110802918
 10
127.9788296926
 20
74.6213630594
 10
127.9779495309
 20
74.6316226193
 10
127.9765078446
 20
74.6418358164
 10
127.9745078875
 20
74.6519796001
 10
127.9719541735
 20
74.6620310765
 10
127.9688524661
 20
74.67196756
 10
127.9652097657
 20
74.6817666245
 10
127.9610342937
 20
74.6914061542
 10
127.9563354738
 20
74.7008643931
 10
127.9511239109
 20
74.7101199946
 10
127.9454113674
 20
74.7191520693
 10
127.939210736
 20
74.7279402324
 10
127.9325360113
 20
74.7364646496
 10
127.9254022576
 20
74.7447060816
 10
127.9178255755
 20
74.7526459281
 10
127.9098230651
 20
74.7602662694
 10
127.9014127875
 20
74.7675499067
 10
127.8926137242
 20
74.7744804013
 10
127.8834457343
 20
74.7810421116
 10
127.8739295094
 20
74.787220228
 10
127.8640865269
 20
74.793000807
 10
127.8539390019
 20
74.7983708022
 10
127.8435098369
 20
74.8033180937
 10
127.8328225697
 20
74.8078315159
 10
127.821901321
 20
74.8119008822
 10
127.8107707393
 20
74.8155170083
 10
127.7994559457
 20
74.8186717327
 10
127.787982477
 20
74.8213579356
 10
127.7763762283
 20
74.8235695542
 10
127.764663394
 20
74.8253015971
 10
127.7528704093
 20
74.8265501552
 10
127.7410238904
 20
74.8273124106
 10
127.7291505741
 20
74.8275866428
  0
LINE
  5
28E
100
AcDbEntity
  8
0
100
AcDbLine
 62
253
  6
CONTINUOUS
 10
127.7291505741
 20
122.0832490755
 11
127.7342411752
 21
121.5780675899
  0
LINE
  5
28F
100
AcDbEntity
  8
0
100
AcDbLine
 62
253
  6
CONTINUOUS
 10
127.9791463434
 20
122.2997554264
 11
127.9849641732
 21
121.7224051572
  0
LINE
  5
290
100
AcDbEntity
  8
0
100
AcDbLine
 62
253
  6
CONTINUOUS
 10
127.7291505741
 20
73.9685164378
 11
127.7291505741
 21
74.8275866428
  0
LINE
  5
291
100
AcDbEntity
  8
0
100
AcDbLine
 62
253
  6
CONTINUOUS
 10
127.7291505741
 20
122.0832490755
 11
127.7291505741
 21
122.9423192804
  0
LINE
  5
292
100
AcDbEntity
  8
0
100
AcDbLine
 62
253
  6
CONTINUOUS
 10
127.734968404
 20
75.3327681283
 11
127.734968404
 21
76.1340295281
  0
LINE
  5
293
100
AcDbEntity
  8
0
100
AcDbLine
 62
253
  6
CONTINUOUS
 10
127.734968404
 20
120.7768061902
 11
127.734968404
 21
121.5780675899
  0
LINE
  5
294
100
AcDbEntity
  8
0
100
AcDbLine
 62
253
  6
CONTINUOUS
 10
127.9791463434
 20
74.2185122071
 11
127.9791463434
 21
74.6110802918
  0
LINE
  5
295
100
AcDbEntity
  8
0
100
AcDbLine
 62
253
  6
CONTINUOUS
 10
127.9791463434
 20
122.2997554264
 11
127.9791463434
 21
122.6923235112
  0
LINE
  5
296
100
AcDbEntity
  8
0
100
AcDbLine
 62
253
  6
CONTINUOUS
 10
127.9849641732
 20
75.188430561
 11
127.9849641732
 21
76.1210038068
  0
LINE
  5
297
100
AcDbEntity
  8
0
100
AcDbLine
 62
253
  6
CONTINUOUS
 10
127.9849641732
 20
120.7898319114
 11
127.9849641732
 21
121.7224051572
  0
LINE
  5
298
100
AcDbEntity
  8
0
100
AcDbLine
 62
7
  6
CONTINUOUS
 10
127.9922449221
 20
74.2054136283
 11
127.9922449221
 21
76.0554178591
  0
LINE
  5
299
100
AcDbEntity
  8
0
100
AcDbLine
 62
7
  6
CONTINUOUS
 10
127.9922449221
 20
120.8554178591
 11
127.9922449221
 21
122.7054220899
  0
LINE
  5
29A
100
AcDbEntity
  8
0
100
AcDbLine
 62
253
  6
CONTINUOUS
 10
127.7342411752
 20
75.3327681283
 11
127.7291505741
 21
74.8275866428
  0
LINE
  5
29B
100
AcDbEntity
  8
0
100
AcDbLine
 62
253
  6
CONTINUOUS
 10
127.9849641732
 20
75.188430561
 11
127.9791463434
 21
74.6110802918
  0
LWPOLYLINE
  5
29C
100
AcDbEntity
  8
0
100
AcDbPolyline
 62
253
  6
CONTINUOUS
 90
34
 70
0
 10
127.9791463434
 20
74.2185122071
 10
127.9788627926
 20
74.2066171855
 10
127.9780135876
 20
74.1947491089
 10
127.9766006522
 20
74.182934861
 10
127.9746271869
 20
74.1712012037
 10
127.9720976621
 20
74.1595747165
 10
127.9690178078
 20
74.1480817359
 10
127.9653946004
 20
74.1367482961
 10
127.9612362473
 20
74.1256000698
 10
127.9565521682
 20
74.1146623104
 10
127.9513529736
 20
74.1039597942
 10
127.9456504407
 20
74.093516765
 10
127.9394574872
 20
74.0833568784
 10
127.9327881414
 20
74.0735031489
 10
127.9256575108
 20
74.0639778974
 10
127.918081748
 20
74.0548027007
 10
127.9100780138
 20
74.0459983428
 10
127.9016644384
 20
74.0375847674
 10
127.8928600805
 20
74.0295810332
 10
127.8836848838
 20
74.0220052704
 10
127.8741596323
 20
74.0148746399
 10
127.8643059028
 20
74.008205294
 10
127.8541460162
 20
74.0020123405
 10
127.843702987
 20
73.9963098076
 10
127.8330004708
 20
73.991110613
 10
127.8220627114
 20
73.9864265339
 10
127.8109144851
 20
73.9822681808
 10
127.7995810453
 20
73.9786449734
 10
127.7880880647
 20
73.9755651191
 10
127.7764615775
 20
73.9730355943
 10
127.7647279202
 20
73.971062129
 10
127.7529136723
 20
73.9696491936
 10
127.7410455957
 20
73.9687999887
 10
127.7291505741
 20
73.9685164378
  0
LWPOLYLINE
  5
29D
100
AcDbEntity
  8
0
100
AcDbPolyline
 62
7
  6
CONTINUOUS
 90
34
 70
0
 10
127.9922449221
 20
74.2054136283
 10
127.9919617718
 20
74.1935183431
 10
127.9911129563
 20
74.1816500036
 10
127.9897003962
 20
74.169835493
 10
127.9877272898
 20
74.1581015716
 10
127.9851981038
 20
74.1464748203
 10
127.9821185638
 20
74.1349815801
 10
127.9784956434
 20
74.1236478853
 10
127.9743375479
 20
74.1124994098
 10
127.9696536943
 20
74.1015614128
 10
127.9644546909
 20
74.0908586715
 10
127.9587523137
 20
74.0804154309
 10
127.9525594802
 20
74.0702553532
 10
127.9458902176
 20
74.060401454
 10
127.9387596328
 20
74.0508760553
 10
127.9311838809
 20
74.0417007401
 10
127.9231801226
 20
74.032896293
 10
127.9147664882
 20
74.0244826586
 10
127.9059620411
 20
74.0164789003
 10
127.8967867259
 20
74.0089031484
 10
127.8872613272
 20
74.0017725636
 10
127.877407428
 20
73.995103301
 10
127.8672473503
 20
73.9889104675
 10
127.8568041097
 20
73.9832080903
 10
127.8461013684
 20
73.9780090869
 10
127.8351633714
 20
73.9733252333
 10
127.8240148959
 20
73.9691671378
 10
127.8126812011
 20
73.9655442174
 10
127.8011879609
 20
73.9624646774
 10
127.7895612096
 20
73.9599354914
 10
127.7778272882
 20
73.957962385
 10
127.7660127776
 20
73.9565498249
 10
127.7541444381
 20
73.9557010094
 10
127.7422491529
 20
73.9554178591
  0
LWPOLYLINE
  5
29E
100
AcDbEntity
  8
0
100
AcDbPolyline
 62
253
  6
CONTINUOUS
 90
34
 70
0
 10
127.9791463434
 20
122.2997554264
 10
127.9788302162
 20
122.2894816486
 10
127.9779513039
 20
122.2792287382
 10
127.9765112124
 20
122.2690198283
 10
127.9745126464
 20
122.258877229
 10
127.9719598305
 20
122.2488246394
 10
127.9688589104
 20
122.2388870188
 10
127.9652172024
 20
122.2290875865
 10
127.961042697
 20
122.2194476507
 10
127.9563447164
 20
122.2099887802
 10
127.9511337599
 20
122.2007322132
 10
127.9454216187
 20
122.1916989847
 10
127.9392212865
 20
122.1829096734
 10
127.9325468104
 20
122.1743841817
 10
127.9254132126
 20
122.1661416878
 10
127.9178365786
 20
122.1582007805
 10
127.9098339964
 20
122.1505793759
 10
127.9014235381
 20
122.1432946916
 10
127.8926242057
 20
122.1363631883
 10
127.8834558688
 20
122.1298005172
 10
127.873939217
 20
122.1236214872
 10
127.8640957319
 20
122.117840046
 10
127.8539476332
 20
122.112469244
 10
127.8435178283
 20
122.107521205
 10
127.8328298609
 20
122.1030070985
 10
127.8219078442
 20
122.0989371096
 10
127.8107764451
 20
122.0953204313
 10
127.7994608307
 20
122.0921652377
 10
127.7879865728
 20
122.0894786519
 10
127.7763795471
 20
122.0872667253
 10
127.7646659134
 20
122.0855344406
 10
127.7528720985
 20
122.0842857067
 10
127.7410247379
 20
122.0835233447
 10
127.7291505741
 20
122.0832490755
  0
LWPOLYLINE
  5
29F
100
AcDbEntity
  8
0
100
AcDbPolyline
 62
7
  6
CONTINUOUS
 90
46
 70
0
 10
127.9849641732
 20
121.7224051572
 10
127.9847919219
 20
121.717826503
 10
127.984365846
 20
121.7132311955
 10
127.9836836285
 20
121.7086263465
 10
127.9827432272
 20
121.7040218756
 10
127.9815428606
 20
121.6994224893
 10
127.9800809216
 20
121.694827686
 10
127.9783561209
 20
121.690245264
 10
127.9763674367
 20
121.6856828065
 10
127.9741139165
 20
121.681139693
 10
127.9715950862
 20
121.6766240553
 10
127.9688107478
 20
121.6721438139
 10
127.9657606124
 20
121.6676982345
 10
127.9624450799
 20
121.6632957409
 10
127.9588648304
 20
121.6589445446
 10
127.9550202417
 20
121.654643801
 10
127.9509126336
 20
121.6504021675
 10
127.9465436305
 20
121.6462281142
 10
127.941914319
 20
121.6421207322
 10
127.937027001
 20
121.6380888615
 10
127.9318843126
 20
121.6341411784
 10
127.9264881135
 20
121.6302767541
 10
127.9208417524
 20
121.6265045459
 10
127.914948956
 20
121.6228333803
 10
127.9088124588
 20
121.6192623599
 10
127.9024367284
 20
121.6158004793
 10
127.8958266694
 20
121.6124566458
 10
127.8889860323
 20
121.6092300449
 10
127.8819204828
 20
121.6061296098
 10
127.8746361943
 20
121.6031642377
 10
127.867138109
 20
121.6003332429
 10
127.859433175
 20
121.5976453725
 10
127.851528922
 20
121.5951093971
 10
127.8434316711
 20
121.5927247882
 10
127.8351497693
 20
121.5904999644
 10
127.8266921436
 20
121.5884434096
 10
127.8180665658
 20
121.5865547358
 10
127.8092828303
 20
121.5848418549
 10
127.8003513248
 20
121.5833128012
 10
127.7912813494
 20
121.58196732
 10
127.782097462
 20
121.5808148572
 10
127.7727984337
 20
121.5798596987
 10
127.7633547726
 20
121.5790976101
 10
127.7537648014
 20
121.5785359936
 10
127.7440555809
 20
121.5781893215
 10
127.7342411752
 20
121.5780675899
  0
LINE
  5
2A0
100
AcDbEntity
  8
0
100
AcDbLine
 62
7
  6
CONTINUOUS
 10
125.0922449221
 20
76.0554178591
 11
125.099525671
 21
76.1210038068
  0
LINE
  5
2A1
100
AcDbEntity
  8
0
100
AcDbLine
 62
7
  6
CONTINUOUS
 10
139.6835181774
 20
122.4466911144
 11
139.6922449221
 21
122.4554178591
  0
LINE
  5
2A2
100
AcDbEntity
  8
0
100
AcDbLine
 62
7
  6
CONTINUOUS
 10
124.4635004893
 20
120.8384028675
 11
124.4444368459
 21
120.8332055875
  0
LINE
  5
2A3
100
AcDbEntity
  8
0
100
AcDbLine
 62
7
  6
CONTINUOUS
 10
191.0209893549
 20
76.0724328508
 11
191.0028452527
 21
76.0679314979
  0
LINE
  5
2A4
100
AcDbEntity
  8
0
100
AcDbLine
 62
7
  6
CONTINUOUS
 10
191.0038915546
 20
76.0679403963
 11
191.022055535
 21
76.0724450059
  0
LINE
  5
2A5
100
AcDbEntity
  8
0
100
AcDbLine
 62
7
  6
CONTINUOUS
 10
191.0038915546
 20
76.0679403963
 11
190.9845054275
 21
76.0641150229
  0
LINE
  5
2A6
100
AcDbEntity
  8
0
100
AcDbLine
 62
7
  6
CONTINUOUS
 10
124.4805982895
 20
76.0679403963
 11
124.4999844169
 21
76.0641150228
  0
LINE
  5
2A7
100
AcDbEntity
  8
0
100
AcDbLine
 62
7
  6
CONTINUOUS
 10
124.4816445916
 20
76.0679314979
 11
124.4624343092
 21
76.0724450059
  0
LINE
  5
2A8
100
AcDbEntity
  8
0
100
AcDbLine
 62
7
  6
CONTINUOUS
 10
124.4635004895
 20
76.0724328507
 11
124.4444368459
 21
76.0776301307
  0
LINE
  5
2A9
100
AcDbEntity
  8
0
100
AcDbLine
 62
7
  6
CONTINUOUS
 10
139.6922449221
 20
74.4554178591
 11
139.6835181774
 21
74.4641446038
  0
LINE
  5
2AA
100
AcDbEntity
  8
0
100
AcDbLine
 62
7
  6
CONTINUOUS
 10
125.0922449221
 20
120.8554178591
 11
125.099525671
 21
120.7898319114
  0
LINE
  5
2AB
100
AcDbEntity
  8
0
100
AcDbLine
 62
7
  6
CONTINUOUS
 10
130.7922449221
 20
74.4554178591
 11
130.7922449221
 21
76.0554178591
  0
LINE
  5
2AC
100
AcDbEntity
  8
0
100
AcDbLine
 62
7
  6
CONTINUOUS
 10
130.7922449221
 20
120.8554178591
 11
130.7922449221
 21
122.4554178591
  0
LINE
  5
2AD
100
AcDbEntity
  8
0
100
AcDbLine
 62
7
  6
CONTINUOUS
 10
130.8009716668
 20
122.4466911144
 11
130.8009716668
 21
120.7768061902
  0
LINE
  5
2AE
100
AcDbEntity
  8
0
100
AcDbLine
 62
7
  6
CONTINUOUS
 10
130.8009716668
 20
76.1340295281
 11
130.8009716668
 21
74.4641446038
  0
LINE
  5
2AF
100
AcDbEntity
  8
0
100
AcDbLine
 62
7
  6
CONTINUOUS
 10
131.7422449221
 20
74.4571699774
 11
131.7422449221
 21
76.1340295281
  0
LINE
  5
2B0
100
AcDbEntity
  8
0
100
AcDbLine
 62
7
  6
CONTINUOUS
 10
131.7422449221
 20
120.7768061902
 11
131.7422449221
 21
122.4536657409
  0
LINE
  5
2B1
100
AcDbEntity
  8
0
100
AcDbLine
 62
253
  6
CONTINUOUS
 10
124.0931176753
 20
76.5556467112
 11
124.1193002727
 21
76.6342583801
  0
LINE
  5
2B2
100
AcDbEntity
  8
0
100
AcDbLine
 62
253
  6
CONTINUOUS
 10
145.1291505741
 20
122.9423192804
 11
145.1422491529
 21
122.9554178591
  0
LINE
  5
2B3
100
AcDbEntity
  8
0
100
AcDbLine
 62
253
  6
CONTINUOUS
 10
145.3791463434
 20
122.6923235112
 11
145.3922449221
 21
122.7054220899
  0
LINE
  5
2B4
100
AcDbEntity
  8
0
100
AcDbLine
 62
7
  6
CONTINUOUS
 10
190.9855666046
 20
76.0641211732
 11
190.9659989209
 21
76.0609785719
  0
LINE
  5
2B5
100
AcDbEntity
  8
0
100
AcDbLine
 62
7
  6
CONTINUOUS
 10
190.9474997429
 20
76.0585389495
 11
190.9670751375
 21
76.0609824653
  0
LWPOLYLINE
  5
2B6
100
AcDbEntity
  8
0
100
AcDbPolyline
 62
7
  6
CONTINUOUS
 90
33
 70
0
 10
179.0596762614
 20
74.4561789492
 10
179.0683504371
 20
74.4571289522
 10
179.0769749131
 20
74.4584564226
 10
179.0855332719
 20
74.4601588327
 10
179.0940092222
 20
74.4622329408
 10
179.1023866297
 20
74.4646747983
 10
179.1106495472
 20
74.4674797563
 10
179.1187822459
 20
74.4706424743
 10
179.1267692447
 20
74.4741569313
 10
179.13459534
 20
74.478016437
 10
179.1422456345
 20
74.4822136431
 10
179.1497055654
 20
74.4867405597
 10
179.1569609328
 20
74.4915885691
 10
179.1639979257
 20
74.4967484413
 10
179.1708031492
 20
74.502210354
 10
179.1773636496
 20
74.5079639098
 10
179.183666939
 20
74.5139981549
 10
179.1897010192
 20
74.5203016028
 10
179.1954544045
 20
74.5268622541
 10
179.2009161438
 20
74.5336676191
 10
179.2060758408
 20
74.5407047432
 10
179.2109236745
 20
74.5479602309
 10
179.2154504176
 20
74.5554202699
 10
179.2196474538
 20
74.5630706595
 10
179.2235067947
 20
74.5708968372
 10
179.2270210946
 20
74.5788839044
 10
179.2301836647
 20
74.5870166577
 10
179.2329884857
 20
74.5952796164
 10
179.2354302192
 20
74.6036570508
 10
179.237504218
 20
74.6121330145
 10
179.2392065349
 20
74.6206913737
 10
179.2405339303
 20
74.6293158369
 10
179.2414838781
 20
74.6379899873
  0
LINE
  5
2B7
100
AcDbEntity
  8
0
100
AcDbLine
 62
7
  6
CONTINUOUS
 10
190.9290658968
 20
76.0568017574
 11
190.9484877071
 21
76.0585410975
  0
LWPOLYLINE
  5
2B8
100
AcDbEntity
  8
0
100
AcDbPolyline
 62
7
  6
CONTINUOUS
 90
34
 70
0
 10
125.3422406913
 20
73.9554178591
 10
125.3303454061
 20
73.9557010094
 10
125.3184770665
 20
73.9565498249
 10
125.3066625559
 20
73.957962385
 10
125.2949286346
 20
73.9599354914
 10
125.2833018833
 20
73.9624646774
 10
125.2718086431
 20
73.9655442174
 10
125.2604749483
 20
73.9691671378
 10
125.2493264728
 20
73.9733252333
 10
125.2383884758
 20
73.9780090869
 10
125.2276857345
 20
73.9832080903
 10
125.2172424938
 20
73.9889104675
 10
125.2070824162
 20
73.995103301
 10
125.197228517
 20
74.0017725636
 10
125.1877031182
 20
74.0089031484
 10
125.178527803
 20
74.0164789003
 10
125.169723356
 20
74.0244826586
 10
125.1613097216
 20
74.032896293
 10
125.1533059632
 20
74.0417007401
 10
125.1457302114
 20
74.0508760553
 10
125.1385996266
 20
74.060401454
 10
125.1319303639
 20
74.0702553532
 10
125.1257375304
 20
74.0804154309
 10
125.1200351533
 20
74.0908586715
 10
125.1148361499
 20
74.1015614128
 10
125.1101522963
 20
74.1124994098
 10
125.1059942007
 20
74.1236478853
 10
125.1023712804
 20
74.1349815801
 10
125.0992917404
 20
74.1464748203
 10
125.0967625544
 20
74.1581015716
 10
125.0947894479
 20
74.169835493
 10
125.0933768878
 20
74.1816500036
 10
125.0925280723
 20
74.1935183431
 10
125.0922449221
 20
74.2054136283
  0
LWPOLYLINE
  5
2B9
100
AcDbEntity
  8
0
100
AcDbPolyline
 62
253
  6
CONTINUOUS
 90
34
 70
0
 10
125.35533927
 20
73.9685164378
 10
125.3434637985
 20
73.9687990575
 10
125.3316100559
 20
73.9696459593
 10
125.3198048804
 20
73.9710559553
 10
125.3080733858
 20
73.9730269012
 10
125.2964439505
 20
73.9755548911
 10
125.2849479849
 20
73.9786334698
 10
125.2736132198
 20
73.9822550795
 10
125.2624636078
 20
73.9864119339
 10
125.2515242067
 20
73.9910947075
 10
125.2408196719
 20
73.9962928929
 10
125.2303744184
 20
74.0019946813
 10
125.2202123428
 20
74.0081870438
 10
125.2103565581
 20
74.014855881
 10
125.2008292966
 20
74.0219861343
 10
125.1916520834
 20
74.0295616952
 10
125.1828456918
 20
74.0375654268
 10
125.1744301056
 20
74.0459791784
 10
125.1664244114
 20
74.0547838739
 10
125.1588467549
 20
74.0639595609
 10
125.1517143038
 20
74.0734854552
 10
125.1450432238
 20
74.0833399713
 10
125.1388486315
 20
74.0935007834
 10
125.1331445662
 20
74.1039448686
 10
125.1279439586
 20
74.1146485551
 10
125.1232585942
 20
74.1255875886
 10
125.11909909
 20
74.1367371849
 10
125.1154748728
 20
74.1480720775
 10
125.1123941542
 20
74.1595665885
 10
125.1098639172
 20
74.1711946678
 10
125.1078898986
 20
74.1829299476
 10
125.1064765698
 20
74.1947458299
 10
125.1056271297
 20
74.2066155481
 10
125.1053435008
 20
74.2185122071
  0
LWPOLYLINE
  5
2BA
100
AcDbEntity
  8
0
100
AcDbPolyline
 62
7
  6
CONTINUOUS
 90
34
 70
0
 10
142.7422406913
 20
73.9554178591
 10
142.7303454061
 20
73.9557010094
 10
142.7184770665
 20
73.9565498249
 10
142.7066625559
 20
73.957962385
 10
142.6949286346
 20
73.9599354914
 10
142.6833018833
 20
73.9624646774
 10
142.6718086431
 20
73.9655442174
 10
142.6604749483
 20
73.9691671378
 10
142.6493264728
 20
73.9733252333
 10
142.6383884758
 20
73.9780090869
 10
142.6276857345
 20
73.9832080903
 10
142.6172424938
 20
73.9889104675
 10
142.6070824162
 20
73.995103301
 10
142.597228517
 20
74.0017725636
 10
142.5877031182
 20
74.0089031484
 10
142.578527803
 20
74.0164789003
 10
142.569723356
 20
74.0244826586
 10
142.5613097216
 20
74.032896293
 10
142.5533059632
 20
74.0417007401
 10
142.5457302114
 20
74.0508760553
 10
142.5385996266
 20
74.060401454
 10
142.5319303639
 20
74.0702553532
 10
142.5257375304
 20
74.0804154309
 10
142.5200351533
 20
74.0908586715
 10
142.5148361499
 20
74.1015614128
 10
142.5101522963
 20
74.1124994098
 10
142.5059942007
 20
74.1236478853
 10
142.5023712804
 20
74.1349815801
 10
142.4992917404
 20
74.1464748203
 10
142.4967625544
 20
74.1581015716
 10
142.4947894479
 20
74.169835493
 10
142.4933768878
 20
74.1816500036
 10
142.4925280723
 20
74.1935183431
 10
142.4922449221
 20
74.2054136283
  0
LWPOLYLINE
  5
2BB
100
AcDbEntity
  8
0
100
AcDbPolyline
 62
253
  6
CONTINUOUS
 90
34
 70
0
 10
142.75533927
 20
73.9685164378
 10
142.7434442485
 20
73.9687999887
 10
142.7315761718
 20
73.9696491936
 10
142.7197619239
 20
73.971062129
 10
142.7080282667
 20
73.9730355943
 10
142.6964017794
 20
73.9755651191
 10
142.6849087988
 20
73.9786449734
 10
142.673575359
 20
73.9822681808
 10
142.6624271328
 20
73.9864265339
 10
142.6514893733
 20
73.991110613
 10
142.6407868572
 20
73.9963098076
 10
142.6303438279
 20
74.0020123405
 10
142.6201839413
 20
74.008205294
 10
142.6103302118
 20
74.0148746399
 10
142.6008049603
 20
74.0220052704
 10
142.5916297637
 20
74.0295810332
 10
142.5828254057
 20
74.0375847674
 10
142.5744118303
 20
74.0459983428
 10
142.5664080961
 20
74.0548027007
 10
142.5588323334
 20
74.0639778974
 10
142.5517017028
 20
74.0735031489
 10
142.545032357
 20
74.0833568784
 10
142.5388394034
 20
74.093516765
 10
142.5331368706
 20
74.1039597942
 10
142.5279376759
 20
74.1146623104
 10
142.5232535968
 20
74.1256000698
 10
142.5190952438
 20
74.1367482961
 10
142.5154720364
 20
74.1480817359
 10
142.512392182
 20
74.1595747165
 10
142.5098626572
 20
74.1712012037
 10
142.5078891919
 20
74.182934861
 10
142.5064762565
 20
74.1947491089
 10
142.5056270516
 20
74.2066171855
 10
142.5053435008
 20
74.2185122071
  0
LINE
  5
2BC
100
AcDbEntity
  8
0
100
AcDbLine
 62
7
  6
CONTINUOUS
 10
124.5554239475
 20
76.0568017574
 11
124.5360021371
 21
76.0585410975
  0
LINE
  5
2BD
100
AcDbEntity
  8
0
100
AcDbLine
 62
7
  6
CONTINUOUS
 10
124.5369901015
 20
76.0585389495
 11
124.5174147067
 21
76.0609824653
  0
LINE
  5
2BE
100
AcDbEntity
  8
0
100
AcDbLine
 62
7
  6
CONTINUOUS
 10
124.4989232396
 20
76.0641211732
 11
124.5184909235
 21
76.0609785718
  0
LINE
  5
2BF
100
AcDbEntity
  8
0
100
AcDbLine
 62
253
  6
CONTINUOUS
 10
145.1291505741
 20
73.9685164378
 11
145.1422491529
 21
73.9554178591
  0
LINE
  5
2C0
100
AcDbEntity
  8
0
100
AcDbLine
 62
253
  6
CONTINUOUS
 10
145.3791463434
 20
74.2185122071
 11
145.3922449221
 21
74.2054136283
  0
LINE
  5
2C1
100
AcDbEntity
  8
0
100
AcDbLine
 62
253
  6
CONTINUOUS
 10
124.1193002727
 20
120.2765773381
 11
124.0931176753
 21
120.3551890071
  0
LINE
  5
2C2
100
AcDbEntity
  8
0
100
AcDbLine
 62
253
  6
CONTINUOUS
 10
134.2422449221
 20
122.2554144744
 11
134.2422449221
 21
122.2536691255
  0
LINE
  5
2C3
100
AcDbEntity
  8
0
100
AcDbLine
 62
253
  6
CONTINUOUS
 10
136.2422449221
 20
74.6554212438
 11
136.2422449221
 21
74.6571665928
  0
LINE
  5
2C4
100
AcDbEntity
  8
0
100
AcDbLine
 62
7
  6
CONTINUOUS
 10
134.2420545706
 20
122.264138404
 11
134.2422449221
 21
122.2554144744
  0
LINE
  5
2C5
100
AcDbEntity
  8
0
100
AcDbLine
 62
7
  6
CONTINUOUS
 10
136.2424352736
 20
74.6466973142
 11
136.2422449221
 21
74.6554212438
  0
LINE
  5
2C6
100
AcDbEntity
  8
0
100
AcDbLine
 62
253
  6
CONTINUOUS
 10
134.0422449221
 20
74.4554178591
 11
134.0422449221
 21
76.0816217488
  0
LINE
  5
2C7
100
AcDbEntity
  8
0
100
AcDbLine
 62
253
  6
CONTINUOUS
 10
134.0422449221
 20
120.8292139695
 11
134.0422449221
 21
122.4554178591
  0
LINE
  5
2C8
100
AcDbEntity
  8
0
100
AcDbLine
 62
7
  6
CONTINUOUS
 10
134.2422449221
 20
74.6554212438
 11
134.2422449221
 21
76.0711401929
  0
LINE
  5
2C9
100
AcDbEntity
  8
0
100
AcDbLine
 62
7
  6
CONTINUOUS
 10
134.2422449221
 20
120.8396955253
 11
134.2422449221
 21
122.2554144744
  0
LINE
  5
2CA
100
AcDbEntity
  8
0
100
AcDbLine
 62
7
  6
CONTINUOUS
 10
134.2420545706
 20
74.6466973142
 11
134.2422449221
 21
74.6571665928
  0
LINE
  5
2CB
100
AcDbEntity
  8
0
100
AcDbLine
 62
7
  6
CONTINUOUS
 10
136.2424352736
 20
122.264138404
 11
136.2422449221
 21
122.2536691255
  0
LINE
  5
2CC
100
AcDbEntity
  8
0
100
AcDbLine
 62
7
  6
CONTINUOUS
 10
136.243005966
 20
122.272845731
 11
136.2424352736
 21
122.264138404
  0
LINE
  5
2CD
100
AcDbEntity
  8
0
100
AcDbLine
 62
7
  6
CONTINUOUS
 10
134.2414838781
 20
74.6379899873
 11
134.2420545706
 21
74.6466973142
  0
LINE
  5
2CE
100
AcDbEntity
  8
0
100
AcDbLine
 62
7
  6
CONTINUOUS
 10
130.7922449221
 20
76.0554178591
 11
130.8009716668
 21
76.1340295281
  0
LINE
  5
2CF
100
AcDbEntity
  8
0
100
AcDbLine
 62
253
  6
CONTINUOUS
 10
124.5927370756
 20
76.0554178591
 11
124.618919673
 21
76.1340295281
  0
LINE
  5
2D0
100
AcDbEntity
  8
0
100
AcDbLine
 62
7
  6
CONTINUOUS
 10
190.9106393794
 20
76.0557613939
 11
190.9298278315
 21
76.056802678
  0
LINE
  5
2D1
100
AcDbEntity
  8
0
100
AcDbLine
 62
7
  6
CONTINUOUS
 10
145.9106393794
 20
76.0557613939
 11
145.9298278315
 21
76.056802678
  0
LWPOLYLINE
  5
2D2
100
AcDbEntity
  8
RACCORDO
100
AcDbPolyline
 62
253
  6
CONTINUOUS
 90
16
 70
0
 10
190.6216941331
 20
76.4761399857
 10
190.6739182504
 20
76.4789115505
 10
190.7255706285
 20
76.4871243232
 10
190.7760858391
 20
76.5006883844
 10
190.8249109159
 20
76.5194552406
 10
190.871511374
 20
76.5432194375
 10
190.9153770661
 20
76.5717207985
 10
190.9560278141
 20
76.6046472985
 10
190.9930186495
 20
76.6416384838
 10
191.0259446567
 20
76.6822893942
 10
191.0544454267
 20
76.7261550127
 10
191.0782090043
 20
76.7727551494
 10
191.0969752912
 20
76.8215796904
 10
191.1105388882
 20
76.872094171
 10
191.1187513464
 20
76.9237456249
 10
191.1215227955
 20
76.9759686481
  0
LWPOLYLINE
  5
2D3
100
AcDbEntity
  8
0
100
AcDbPolyline
 62
7
  6
CONTINUOUS
 90
33
 70
0
 10
179.0422449221
 20
74.4571699774
 10
179.051762691
 20
74.4573965717
 10
179.0612589074
 20
74.4580758427
 10
179.0707120527
 20
74.4592062531
 10
179.0801007121
 20
74.4607852448
 10
179.0894036043
 20
74.4628092412
 10
179.0985996302
 20
74.4652736525
 10
179.1076679463
 20
74.468172892
 10
179.1165880095
 20
74.4715003907
 10
179.1253396047
 20
74.4752486069
 10
179.1339029031
 20
74.4794090471
 10
179.1422584986
 20
74.4839722822
 10
179.1503874512
 20
74.4889279665
 10
179.1582713397
 20
74.4942648671
 10
179.1658923029
 20
74.4999708904
 10
179.1732330724
 20
74.5060331042
 10
179.1802770209
 20
74.5124377749
 10
179.1870081832
 20
74.5191703838
 10
179.1934112938
 20
74.5262156567
 10
179.1994718304
 20
74.5335576039
 10
179.2051760841
 20
74.541179606
 10
179.2105111677
 20
74.5490644418
 10
179.2154650331
 20
74.5571943222
 10
179.2200264016
 20
74.5655507566
 10
179.2241848522
 20
74.5741146309
 10
179.2279309382
 20
74.582866414
 10
179.2312562519
 20
74.5917863776
 10
179.2341533321
 20
74.6008544729
 10
179.2366159729
 20
74.6100516326
 10
179.2386380955
 20
74.6193555755
 10
179.2402144935
 20
74.6287408746
 10
179.241342075
 20
74.6381847201
 10
179.2420191869
 20
74.6476671159
  0
LWPOLYLINE
  5
2D4
100
AcDbEntity
  8
0
100
AcDbPolyline
 62
7
  6
CONTINUOUS
 90
33
 70
0
 10
134.0422449221
 20
74.4571699774
 10
134.051762691
 20
74.4573965717
 10
134.0612589074
 20
74.4580758427
 10
134.0707120527
 20
74.4592062531
 10
134.0801007121
 20
74.4607852448
 10
134.0894036043
 20
74.4628092412
 10
134.0985996302
 20
74.4652736525
 10
134.1076679463
 20
74.468172892
 10
134.1165880095
 20
74.4715003907
 10
134.1253396047
 20
74.4752486069
 10
134.1339029031
 20
74.4794090471
 10
134.1422584986
 20
74.4839722822
 10
134.1503874512
 20
74.4889279665
 10
134.1582713397
 20
74.4942648671
 10
134.1658923029
 20
74.4999708904
 10
134.1732330724
 20
74.5060331042
 10
134.1802770209
 20
74.5124377749
 10
134.1870081832
 20
74.5191703838
 10
134.1934112938
 20
74.5262156567
 10
134.1994718304
 20
74.5335576039
 10
134.2051760841
 20
74.541179606
 10
134.2105111677
 20
74.5490644418
 10
134.2154650331
 20
74.5571943222
 10
134.2200264016
 20
74.5655507566
 10
134.2241848522
 20
74.5741146309
 10
134.2279309382
 20
74.582866414
 10
134.2312562519
 20
74.5917863776
 10
134.2341533321
 20
74.6008544729
 10
134.2366159729
 20
74.6100516326
 10
134.2386380955
 20
74.6193555755
 10
134.2402144935
 20
74.6287408746
 10
134.241342075
 20
74.6381847201
 10
134.2420191869
 20
74.6476671159
  0
LWPOLYLINE
  5
2D5
100
AcDbEntity
  8
0
100
AcDbPolyline
 62
7
  6
CONTINUOUS
 90
3
 70
0
 10
179.0422449221
 20
74.4554178591
 10
179.050968898
 20
74.4556082224
 10
179.0596762614
 20
74.4561789492
  0
LWPOLYLINE
  5
2D6
100
AcDbEntity
  8
0
100
AcDbPolyline
 62
7
  6
CONTINUOUS
 90
3
 70
0
 10
134.0422449221
 20
74.4554178591
 10
134.050968898
 20
74.4556082224
 10
134.0596762614
 20
74.4561789492
  0
LINE
  5
2D7
100
AcDbEntity
  8
0
100
AcDbLine
 62
7
  6
CONTINUOUS
 10
190.8922201906
 20
76.0554178591
 11
190.9110719927
 21
76.0557615985
  0
LINE
  5
2D8
100
AcDbEntity
  8
0
100
AcDbLine
 62
7
  6
CONTINUOUS
 10
145.8922201906
 20
76.0554178591
 11
145.9110719927
 21
76.0557615985
  0
LWPOLYLINE
  5
2D9
100
AcDbEntity
  8
0
100
AcDbPolyline
 62
7
  6
CONTINUOUS
 90
46
 70
0
 10
187.7495214402
 20
75.3327681283
 10
187.7399997299
 20
75.3326279881
 10
187.73050615
 20
75.3322827795
 10
187.7210543421
 20
75.3317325026
 10
187.7116451944
 20
75.3309724111
 10
187.702304757
 20
75.3300072513
 10
187.6930834033
 20
75.3288512616
 10
187.6840060273
 20
75.3275040208
 10
187.6750706698
 20
75.3259659501
 10
187.6662859495
 20
75.3242525523
 10
187.6576622076
 20
75.3223635573
 10
187.6492091358
 20
75.3202992352
 10
187.6409337542
 20
75.3180758979
 10
187.6328449135
 20
75.3156934003
 10
187.624950843
 20
75.3131518876
 10
187.6172570925
 20
75.3104681078
 10
187.6097710988
 20
75.3076420165
 10
187.6024997215
 20
75.304673658
 10
187.5954472018
 20
75.3015799131
 10
187.5886196424
 20
75.298360806
 10
187.5820226532
 20
75.2950163125
 10
187.5756593844
 20
75.2915632406
 10
187.5695347106
 20
75.2880016585
 10
187.5636530887
 20
75.284331498
 10
187.5580167694
 20
75.2805693622
 10
187.5526295019
 20
75.2767153459
 10
187.5474946778
 20
75.2727693543
 10
187.5426137967
 20
75.2687477059
 10
187.5379895763
 20
75.2646505118
 10
187.5336244188
 20
75.2604776609
 10
187.5295191752
 20
75.2562451391
 10
187.5256756125
 20
75.2519530692
 10
187.5220952091
 20
75.2476013283
 10
187.5187782269
 20
75.2432055343
 10
187.5157255502
 20
75.2387658217
 10
187.5129377901
 20
75.2342820559
 10
187.5104146459
 20
75.2297694507
 10
187.5081561781
 20
75.2252281574
 10
187.5061621791
 20
75.2206580247
 10
187.5044317892
 20
75.2160738124
 10
187.5029642955
 20
75.2114756932
 10
187.5017587198
 20
75.2068634946
 10
187.500813641
 20
75.2022514578
 10
187.5001275926
 20
75.1976443303
 10
187.499698927
 20
75.1930373647
 10
187.499525671
 20
75.188430561
  0
LWPOLYLINE
  5
2DA
100
AcDbEntity
  8
0
100
AcDbPolyline
 62
7
  6
CONTINUOUS
 90
46
 70
0
 10
142.7495214402
 20
75.3327681283
 10
142.7399997299
 20
75.3326279881
 10
142.73050615
 20
75.3322827795
 10
142.7210543421
 20
75.3317325026
 10
142.7116451944
 20
75.3309724111
 10
142.702304757
 20
75.3300072513
 10
142.6930834033
 20
75.3288512616
 10
142.6840060273
 20
75.3275040208
 10
142.6750706698
 20
75.3259659501
 10
142.6662859495
 20
75.3242525523
 10
142.6576622076
 20
75.3223635573
 10
142.6492091358
 20
75.3202992352
 10
142.6409337542
 20
75.3180758979
 10
142.6328449135
 20
75.3156934003
 10
142.624950843
 20
75.3131518876
 10
142.6172570925
 20
75.3104681078
 10
142.6097710988
 20
75.3076420165
 10
142.6024997215
 20
75.304673658
 10
142.5954472018
 20
75.3015799131
 10
142.5886196424
 20
75.298360806
 10
142.5820226532
 20
75.2950163125
 10
142.5756593844
 20
75.2915632406
 10
142.5695347106
 20
75.2880016585
 10
142.5636530887
 20
75.284331498
 10
142.5580167694
 20
75.2805693622
 10
142.5526295019
 20
75.2767153459
 10
142.5474946778
 20
75.2727693543
 10
142.5426137967
 20
75.2687477059
 10
142.5379895763
 20
75.2646505118
 10
142.5336244188
 20
75.2604776609
 10
142.5295191752
 20
75.2562451391
 10
142.5256756125
 20
75.2519530692
 10
142.5220952091
 20
75.2476013283
 10
142.5187782269
 20
75.2432055343
 10
142.5157255502
 20
75.2387658217
 10
142.5129377901
 20
75.2342820559
 10
142.5104146459
 20
75.2297694507
 10
142.5081561781
 20
75.2252281574
 10
142.5061621791
 20
75.2206580247
 10
142.5044317892
 20
75.2160738124
 10
142.5029642955
 20
75.2114756932
 10
142.5017587198
 20
75.2068634946
 10
142.500813641
 20
75.2022514578
 10
142.5001275926
 20
75.1976443303
 10
142.499698927
 20
75.1930373647
 10
142.499525671
 20
75.188430561
  0
LINE
  5
2DB
100
AcDbEntity
  8
RACCORDO
100
AcDbLine
 62
253
  6
CONTINUOUS
 10
124.862795711
 20
76.4761399856
 11
136.861555747
 21
76.4820774912
  0
LINE
  5
2DC
100
AcDbEntity
  8
RACCORDO
100
AcDbLine
 62
253
  6
CONTINUOUS
 10
136.861555747
 20
76.4820774912
 11
144.8747838063
 21
76.4845779573
  0
LINE
  5
2DD
100
AcDbEntity
  8
0
100
AcDbLine
 62
7
  6
CONTINUOUS
 10
125.3422406913
 20
73.9554178591
 11
127.7422491529
 21
73.9554178591
  0
LINE
  5
2DE
100
AcDbEntity
  8
0
100
AcDbLine
 62
7
  6
CONTINUOUS
 10
142.7422406913
 20
73.9554178591
 11
145.1422491529
 21
73.9554178591
  0
LINE
  5
2DF
100
AcDbEntity
  8
0
100
AcDbLine
 62
7
  6
CONTINUOUS
 10
170.3422406913
 20
73.9554178591
 11
172.7422491529
 21
73.9554178591
  0
LINE
  5
2E0
100
AcDbEntity
  8
0
100
AcDbLine
 62
7
  6
CONTINUOUS
 10
187.7422406913
 20
73.9554178591
 11
190.1422491529
 21
73.9554178591
  0
LINE
  5
2E1
100
AcDbEntity
  8
0
100
AcDbLine
 62
253
  6
CONTINUOUS
 10
125.35533927
 20
73.9685164378
 11
127.7291505741
 21
73.9685164378
  0
LINE
  5
2E2
100
AcDbEntity
  8
0
100
AcDbLine
 62
253
  6
CONTINUOUS
 10
142.75533927
 20
73.9685164378
 11
145.1291505741
 21
73.9685164378
  0
LINE
  5
2E3
100
AcDbEntity
  8
0
100
AcDbLine
 62
253
  6
CONTINUOUS
 10
170.35533927
 20
73.9685164378
 11
172.7291505741
 21
73.9685164378
  0
LINE
  5
2E4
100
AcDbEntity
  8
0
100
AcDbLine
 62
253
  6
CONTINUOUS
 10
187.75533927
 20
73.9685164378
 11
190.1291505741
 21
73.9685164378
  0
LINE
  5
2E5
100
AcDbEntity
  8
0
100
AcDbLine
 62
253
  6
CONTINUOUS
 10
125.1053435008
 20
74.2185122071
 11
127.9791463434
 21
74.2185122071
  0
LINE
  5
2E6
100
AcDbEntity
  8
0
100
AcDbLine
 62
253
  6
CONTINUOUS
 10
142.5053435008
 20
74.2185122071
 11
145.3791463434
 21
74.2185122071
  0
LINE
  5
2E7
100
AcDbEntity
  8
0
100
AcDbLine
 62
253
  6
CONTINUOUS
 10
170.1053435008
 20
74.2185122071
 11
172.9791463434
 21
74.2185122071
  0
LINE
  5
2E8
100
AcDbEntity
  8
0
100
AcDbLine
 62
253
  6
CONTINUOUS
 10
187.5053435008
 20
74.2185122071
 11
190.3791463434
 21
74.2185122071
  0
LINE
  5
2E9
100
AcDbEntity
  8
0
100
AcDbLine
 62
7
  6
CONTINUOUS
 10
184.6922449221
 20
74.4554178591
 11
181.4422449221
 21
74.4554178591
  0
LINE
  5
2EA
100
AcDbEntity
  8
0
100
AcDbLine
 62
7
  6
CONTINUOUS
 10
179.0422449221
 20
74.4554178591
 11
175.7922449221
 21
74.4554178591
  0
LINE
  5
2EB
100
AcDbEntity
  8
0
100
AcDbLine
 62
7
  6
CONTINUOUS
 10
139.6922449221
 20
74.4554178591
 11
136.4422449221
 21
74.4554178591
  0
LINE
  5
2EC
100
AcDbEntity
  8
0
100
AcDbLine
 62
7
  6
CONTINUOUS
 10
134.0422449221
 20
74.4554178591
 11
130.7922449221
 21
74.4554178591
  0
LINE
  5
2ED
100
AcDbEntity
  8
0
100
AcDbLine
 62
253
  6
CONTINUOUS
 10
131.7422449221
 20
74.4571699774
 11
134.0422449221
 21
74.4571699774
  0
LINE
  5
2EE
100
AcDbEntity
  8
0
100
AcDbLine
 62
253
  6
CONTINUOUS
 10
136.4422449221
 20
74.4571699774
 11
138.7422449221
 21
74.4571699774
  0
LINE
  5
2EF
100
AcDbEntity
  8
0
100
AcDbLine
 62
253
  6
CONTINUOUS
 10
176.7422449221
 20
74.4571699774
 11
179.0422449221
 21
74.4571699774
  0
LINE
  5
2F0
100
AcDbEntity
  8
0
100
AcDbLine
 62
253
  6
CONTINUOUS
 10
181.4422449221
 20
74.4571699774
 11
183.7422449221
 21
74.4571699774
  0
LINE
  5
2F1
100
AcDbEntity
  8
0
100
AcDbLine
 62
7
  6
CONTINUOUS
 10
184.6835181774
 20
74.4641446038
 11
183.7422449221
 21
74.4641446038
  0
LINE
  5
2F2
100
AcDbEntity
  8
0
100
AcDbLine
 62
7
  6
CONTINUOUS
 10
176.7422449221
 20
74.4641446038
 11
175.8009716668
 21
74.4641446038
  0
LINE
  5
2F3
100
AcDbEntity
  8
0
100
AcDbLine
 62
7
  6
CONTINUOUS
 10
139.6835181774
 20
74.4641446038
 11
138.7422449221
 21
74.4641446038
  0
LINE
  5
2F4
100
AcDbEntity
  8
0
100
AcDbLine
 62
7
  6
CONTINUOUS
 10
131.7422449221
 20
74.4641446038
 11
130.8009716668
 21
74.4641446038
  0
LINE
  5
2F5
100
AcDbEntity
  8
0
100
AcDbLine
 62
253
  6
CONTINUOUS
 10
125.1053435008
 20
74.6110802918
 11
127.9791463434
 21
74.6110802918
  0
LINE
  5
2F6
100
AcDbEntity
  8
0
100
AcDbLine
 62
253
  6
CONTINUOUS
 10
142.5053435008
 20
74.6110802918
 11
145.3791463434
 21
74.6110802918
  0
LINE
  5
2F7
100
AcDbEntity
  8
0
100
AcDbLine
 62
253
  6
CONTINUOUS
 10
170.1053435008
 20
74.6110802918
 11
172.9791463434
 21
74.6110802918
  0
LINE
  5
2F8
100
AcDbEntity
  8
0
100
AcDbLine
 62
253
  6
CONTINUOUS
 10
187.5053435008
 20
74.6110802918
 11
190.3791463434
 21
74.6110802918
  0
LINE
  5
2F9
100
AcDbEntity
  8
0
100
AcDbLine
 62
253
  6
CONTINUOUS
 10
131.7422449221
 20
74.6571665928
 11
134.2422449221
 21
74.6571665928
  0
LINE
  5
2FA
100
AcDbEntity
  8
0
100
AcDbLine
 62
253
  6
CONTINUOUS
 10
136.2422449221
 20
74.6571665928
 11
138.7422449221
 21
74.6571665928
  0
LINE
  5
2FB
100
AcDbEntity
  8
0
100
AcDbLine
 62
253
  6
CONTINUOUS
 10
176.7422449221
 20
74.6571665928
 11
179.2422449221
 21
74.6571665928
  0
LINE
  5
2FC
100
AcDbEntity
  8
0
100
AcDbLine
 62
253
  6
CONTINUOUS
 10
181.2422449221
 20
74.6571665928
 11
183.7422449221
 21
74.6571665928
  0
LINE
  5
2FD
100
AcDbEntity
  8
0
100
AcDbLine
 62
253
  6
CONTINUOUS
 10
190.1291505741
 20
74.8275866428
 11
187.75533927
 21
74.8275866428
  0
LINE
  5
2FE
100
AcDbEntity
  8
0
100
AcDbLine
 62
253
  6
CONTINUOUS
 10
172.7291505741
 20
74.8275866428
 11
170.35533927
 21
74.8275866428
  0
LINE
  5
2FF
100
AcDbEntity
  8
0
100
AcDbLine
 62
253
  6
CONTINUOUS
 10
145.1291505741
 20
74.8275866428
 11
142.75533927
 21
74.8275866428
  0
LINE
  5
300
100
AcDbEntity
  8
0
100
AcDbLine
 62
253
  6
CONTINUOUS
 10
127.7291505741
 20
74.8275866428
 11
125.35533927
 21
74.8275866428
  0
LINE
  5
301
100
AcDbEntity
  8
0
100
AcDbLine
 62
7
  6
CONTINUOUS
 10
190.134968404
 20
75.3327681283
 11
187.7495214402
 21
75.3327681283
  0
LINE
  5
302
100
AcDbEntity
  8
0
100
AcDbLine
 62
7
  6
CONTINUOUS
 10
145.134968404
 20
75.3327681283
 11
142.7495214402
 21
75.3327681283
  0
LINE
  5
303
100
AcDbEntity
  8
0
100
AcDbLine
 62
7
  6
CONTINUOUS
 10
125.3495214402
 20
75.3327681283
 11
127.734968404
 21
75.3327681283
  0
LINE
  5
304
100
AcDbEntity
  8
0
100
AcDbLine
 62
7
  6
CONTINUOUS
 10
170.3495214402
 20
75.3327681283
 11
172.734968404
 21
75.3327681283
  0
LINE
  5
305
100
AcDbEntity
  8
0
100
AcDbLine
 62
7
  6
CONTINUOUS
 10
181.2422449221
 20
76.0554178591
 11
179.2422449221
 21
76.0554178591
  0
LINE
  5
306
100
AcDbEntity
  8
0
100
AcDbLine
 62
7
  6
CONTINUOUS
 10
136.2422449221
 20
76.0554178591
 11
134.2422449221
 21
76.0554178591
  0
LINE
  5
307
100
AcDbEntity
  8
0
100
AcDbLine
 62
7
  6
CONTINUOUS
 10
124.5918022326
 20
76.0554178591
 11
125.0922449221
 21
76.0554178591
  0
LINE
  5
308
100
AcDbEntity
  8
0
100
AcDbLine
 62
7
  6
CONTINUOUS
 10
127.9922449221
 20
76.0554178591
 11
130.7922449221
 21
76.0554178591
  0
LINE
  5
309
100
AcDbEntity
  8
0
100
AcDbLine
 62
7
  6
CONTINUOUS
 10
139.6922449221
 20
76.0554178591
 11
142.4922449221
 21
76.0554178591
  0
LINE
  5
30A
100
AcDbEntity
  8
0
100
AcDbLine
 62
7
  6
CONTINUOUS
 10
145.3922449221
 20
76.0554178591
 11
145.8926876116
 21
76.0554178591
  0
LINE
  5
30B
100
AcDbEntity
  8
0
100
AcDbLine
 62
7
  6
CONTINUOUS
 10
169.5918022326
 20
76.0554178591
 11
170.0922449221
 21
76.0554178591
  0
LINE
  5
30C
100
AcDbEntity
  8
0
100
AcDbLine
 62
7
  6
CONTINUOUS
 10
172.9922449221
 20
76.0554178591
 11
175.7922449221
 21
76.0554178591
  0
LINE
  5
30D
100
AcDbEntity
  8
0
100
AcDbLine
 62
7
  6
CONTINUOUS
 10
184.6922449221
 20
76.0554178591
 11
187.4922449221
 21
76.0554178591
  0
LINE
  5
30E
100
AcDbEntity
  8
0
100
AcDbLine
 62
7
  6
CONTINUOUS
 10
190.3922449221
 20
76.0554178591
 11
190.8926876116
 21
76.0554178591
  0
LINE
  5
30F
100
AcDbEntity
  8
0
100
AcDbLine
 62
7
  6
CONTINUOUS
 10
131.7422449221
 20
76.0816217488
 11
134.0422449221
 21
76.0816217488
  0
LINE
  5
310
100
AcDbEntity
  8
0
100
AcDbLine
 62
7
  6
CONTINUOUS
 10
136.4422449221
 20
76.0816217488
 11
138.7422449221
 21
76.0816217488
  0
LINE
  5
311
100
AcDbEntity
  8
0
100
AcDbLine
 62
7
  6
CONTINUOUS
 10
176.7422449221
 20
76.0816217488
 11
179.0422449221
 21
76.0816217488
  0
LINE
  5
312
100
AcDbEntity
  8
0
100
AcDbLine
 62
7
  6
CONTINUOUS
 10
181.4422449221
 20
76.0816217488
 11
183.7422449221
 21
76.0816217488
  0
LINE
  5
313
100
AcDbEntity
  8
0
100
AcDbLine
 62
7
  6
CONTINUOUS
 10
124.618919673
 20
76.1340295281
 11
125.3495214402
 21
76.1340295281
  0
LINE
  5
314
100
AcDbEntity
  8
0
100
AcDbLine
 62
7
  6
CONTINUOUS
 10
127.734968404
 20
76.1340295281
 11
130.8009716668
 21
76.1340295281
  0
LINE
  5
315
100
AcDbEntity
  8
0
100
AcDbLine
 62
7
  6
CONTINUOUS
 10
131.7422449221
 20
76.1340295281
 11
138.7422449221
 21
76.1340295281
  0
LINE
  5
316
100
AcDbEntity
  8
0
100
AcDbLine
 62
7
  6
CONTINUOUS
 10
139.6835181774
 20
76.1340295281
 11
142.7495214402
 21
76.1340295281
  0
LINE
  5
317
100
AcDbEntity
  8
0
100
AcDbLine
 62
7
  6
CONTINUOUS
 10
145.134968404
 20
76.1340295281
 11
145.8655701712
 21
76.1340295281
  0
LINE
  5
318
100
AcDbEntity
  8
0
100
AcDbLine
 62
7
  6
CONTINUOUS
 10
169.618919673
 20
76.1340295281
 11
170.3495214402
 21
76.1340295281
  0
LINE
  5
319
100
AcDbEntity
  8
0
100
AcDbLine
 62
7
  6
CONTINUOUS
 10
172.734968404
 20
76.1340295281
 11
175.8009716668
 21
76.1340295281
  0
LINE
  5
31A
100
AcDbEntity
  8
0
100
AcDbLine
 62
7
  6
CONTINUOUS
 10
176.7422449221
 20
76.1340295281
 11
183.7422449221
 21
76.1340295281
  0
LINE
  5
31B
100
AcDbEntity
  8
0
100
AcDbLine
 62
7
  6
CONTINUOUS
 10
184.6835181774
 20
76.1340295281
 11
187.7495214402
 21
76.1340295281
  0
LINE
  5
31C
100
AcDbEntity
  8
0
100
AcDbLine
 62
7
  6
CONTINUOUS
 10
190.134968404
 20
76.1340295281
 11
190.8655701712
 21
76.1340295281
  0
LINE
  5
31D
100
AcDbEntity
  8
RACCORDO
100
AcDbLine
 62
7
  6
CONTINUOUS
 10
124.7420735846
 20
76.3554178591
 11
190.7424162596
 21
76.3554178591
  0
LWPOLYLINE
  5
31E
100
AcDbEntity
  8
RACCORDO
100
AcDbPolyline
 62
253
  6
CONTINUOUS
 90
3
 70
0
 10
144.8747838063
 20
76.4845779573
 10
153.0798283461
 20
76.4858946064
 10
157.2733808187
 20
76.4861074743
  0
LWPOLYLINE
  5
31F
100
AcDbEntity
  8
RACCORDO
100
AcDbPolyline
 62
253
  6
CONTINUOUS
 90
7
 70
0
 10
157.2733808187
 20
76.4861074743
 10
166.0400651688
 20
76.4854542877
 10
170.6131970463
 20
76.4845882332
 10
175.3536309916
 20
76.4832358123
 10
180.2756833042
 20
76.4813569032
 10
185.3650376847
 20
76.4789916276
 10
190.6216941331
 20
76.4761399857
  0
LINE
  5
320
100
AcDbEntity
  8
0
100
AcDbLine
 62
7
  6
CONTINUOUS
 10
124.5734178516
 20
76.0557615985
 11
124.5922696537
 21
76.0554178591
  0
LINE
  5
321
100
AcDbEntity
  8
0
100
AcDbLine
 62
7
  6
CONTINUOUS
 10
169.5734178516
 20
76.0557615985
 11
169.5922696537
 21
76.0554178591
  0
LWPOLYLINE
  5
322
100
AcDbEntity
  8
0
100
AcDbPolyline
 62
7
  6
CONTINUOUS
 90
36
 70
0
 10
136.4422449221
 20
74.4554178591
 10
136.4335209462
 20
74.4556082224
 10
136.4248135828
 20
74.4561789492
 10
136.416139407
 20
74.4571289522
 10
136.4075149311
 20
74.4584564226
 10
136.3989565723
 20
74.4601588327
 10
136.3904806219
 20
74.4622329408
 10
136.3821032145
 20
74.4646747983
 10
136.3738402969
 20
74.4674797563
 10
136.3657075983
 20
74.4706424743
 10
136.3577205995
 20
74.4741569313
 10
136.3498945041
 20
74.478016437
 10
136.3422442097
 20
74.4822136431
 10
136.3347842787
 20
74.4867405597
 10
136.3275289114
 20
74.4915885691
 10
136.3204919184
 20
74.4967484413
 10
136.313686695
 20
74.502210354
 10
136.3071261945
 20
74.5079639098
 10
136.3008229052
 20
74.5139981549
 10
136.294788825
 20
74.5203016028
 10
136.2890354396
 20
74.5268622541
 10
136.2835737004
 20
74.5336676191
 10
136.2784140034
 20
74.5407047432
 10
136.2735661696
 20
74.5479602309
 10
136.2690394266
 20
74.5554202699
 10
136.2648423903
 20
74.5630706595
 10
136.2609830495
 20
74.5708968372
 10
136.2574687495
 20
74.5788839044
 10
136.2543061794
 20
74.5870166577
 10
136.2515013585
 20
74.5952796164
 10
136.249059625
 20
74.6036570508
 10
136.2469856262
 20
74.6121330145
 10
136.2452833092
 20
74.6206913737
 10
136.2439559138
 20
74.6293158369
 10
136.243005966
 20
74.6379899873
 10
136.2424352736
 20
74.6466973142
  0
LWPOLYLINE
  5
323
100
AcDbEntity
  8
0
100
AcDbPolyline
 62
7
  6
CONTINUOUS
 90
36
 70
0
 10
181.4422449221
 20
74.4554178591
 10
181.4335209462
 20
74.4556082224
 10
181.4248135828
 20
74.4561789492
 10
181.416139407
 20
74.4571289522
 10
181.4075149311
 20
74.4584564226
 10
181.3989565723
 20
74.4601588327
 10
181.3904806219
 20
74.4622329408
 10
181.3821032145
 20
74.4646747983
 10
181.3738402969
 20
74.4674797563
 10
181.3657075983
 20
74.4706424743
 10
181.3577205995
 20
74.4741569313
 10
181.3498945041
 20
74.478016437
 10
181.3422442097
 20
74.4822136431
 10
181.3347842787
 20
74.4867405597
 10
181.3275289114
 20
74.4915885691
 10
181.3204919184
 20
74.4967484413
 10
181.313686695
 20
74.502210354
 10
181.3071261945
 20
74.5079639098
 10
181.3008229052
 20
74.5139981549
 10
181.294788825
 20
74.5203016028
 10
181.2890354396
 20
74.5268622541
 10
181.2835737004
 20
74.5336676191
 10
181.2784140034
 20
74.5407047432
 10
181.2735661696
 20
74.5479602309
 10
181.2690394266
 20
74.5554202699
 10
181.2648423903
 20
74.5630706595
 10
181.2609830495
 20
74.5708968372
 10
181.2574687495
 20
74.5788839044
 10
181.2543061794
 20
74.5870166577
 10
181.2515013585
 20
74.5952796164
 10
181.249059625
 20
74.6036570508
 10
181.2469856262
 20
74.6121330145
 10
181.2452833092
 20
74.6206913737
 10
181.2439559138
 20
74.6293158369
 10
181.243005966
 20
74.6379899873
 10
181.2424352736
 20
74.6466973142
  0
LWPOLYLINE
  5
324
100
AcDbEntity
  8
0
100
AcDbPolyline
 62
253
  6
CONTINUOUS
 90
33
 70
0
 10
136.4422449221
 20
74.4571699774
 10
136.4327285389
 20
74.4573965057
 10
136.4232337134
 20
74.4580755775
 10
136.4137819544
 20
74.4592056546
 10
136.4043946732
 20
74.4607841768
 10
136.395093135
 20
74.4628075683
 10
136.3858984107
 20
74.4652712456
 10
136.3768313294
 20
74.4681696275
 10
136.3679124309
 20
74.4714961483
 10
136.3591619195
 20
74.4752432725
 10
136.3505996177
 20
74.4794025114
 10
136.3422449221
 20
74.4839644432
 10
136.3341167586
 20
74.4889187335
 10
136.3262335402
 20
74.4942541594
 10
136.3186131248
 20
74.4999586343
 10
136.3112727753
 20
74.5060192358
 10
136.3042291198
 20
74.5124222347
 10
136.2974981145
 20
74.5191531261
 10
136.2910950072
 20
74.5261966624
 10
136.2850343031
 20
74.5335368878
 10
136.2793297317
 20
74.5411571741
 10
136.2739942155
 20
74.5490402591
 10
136.2690398413
 20
74.5571682851
 10
136.2644778323
 20
74.5655228393
 10
136.260318523
 20
74.5740849962
 10
136.2565713355
 20
74.5828353596
 10
136.2532447583
 20
74.5917541071
 10
136.2503463274
 20
74.6008210349
 10
136.2478826084
 20
74.6100156036
 10
136.2458591826
 20
74.6193169844
 10
136.2442806337
 20
74.6287041068
 10
136.2431505376
 20
74.6381557058
 10
136.2424714542
 20
74.6476503706
  0
LWPOLYLINE
  5
325
100
AcDbEntity
  8
0
100
AcDbPolyline
 62
7
  6
CONTINUOUS
 90
34
 70
0
 10
170.3422406913
 20
73.9554178591
 10
170.3303454061
 20
73.9557010094
 10
170.3184770665
 20
73.9565498249
 10
170.3066625559
 20
73.957962385
 10
170.2949286346
 20
73.9599354914
 10
170.2833018833
 20
73.9624646774
 10
170.2718086431
 20
73.9655442174
 10
170.2604749483
 20
73.9691671378
 10
170.2493264728
 20
73.9733252333
 10
170.2383884758
 20
73.9780090869
 10
170.2276857345
 20
73.9832080903
 10
170.2172424938
 20
73.9889104675
 10
170.2070824162
 20
73.995103301
 10
170.197228517
 20
74.0017725636
 10
170.1877031182
 20
74.0089031484
 10
170.178527803
 20
74.0164789003
 10
170.169723356
 20
74.0244826586
 10
170.1613097216
 20
74.032896293
 10
170.1533059632
 20
74.0417007401
 10
170.1457302114
 20
74.0508760553
 10
170.1385996266
 20
74.060401454
 10
170.1319303639
 20
74.0702553532
 10
170.1257375304
 20
74.0804154309
 10
170.1200351533
 20
74.0908586715
 10
170.1148361499
 20
74.1015614128
 10
170.1101522963
 20
74.1124994098
 10
170.1059942007
 20
74.1236478853
 10
170.1023712804
 20
74.1349815801
 10
170.0992917404
 20
74.1464748203
 10
170.0967625544
 20
74.1581015716
 10
170.0947894479
 20
74.169835493
 10
170.0933768878
 20
74.1816500036
 10
170.0925280723
 20
74.1935183431
 10
170.0922449221
 20
74.2054136283
  0
LWPOLYLINE
  5
326
100
AcDbEntity
  8
0
100
AcDbPolyline
 62
253
  6
CONTINUOUS
 90
34
 70
0
 10
170.35533927
 20
73.9685164378
 10
170.3434637985
 20
73.9687990575
 10
170.3316100559
 20
73.9696459593
 10
170.3198048804
 20
73.9710559553
 10
170.3080733858
 20
73.9730269012
 10
170.2964439505
 20
73.9755548911
 10
170.2849479849
 20
73.9786334698
 10
170.2736132198
 20
73.9822550795
 10
170.2624636078
 20
73.9864119339
 10
170.2515242067
 20
73.9910947075
 10
170.2408196719
 20
73.9962928929
 10
170.2303744184
 20
74.0019946813
 10
170.2202123428
 20
74.0081870438
 10
170.2103565581
 20
74.014855881
 10
170.2008292966
 20
74.0219861343
 10
170.1916520834
 20
74.0295616952
 10
170.1828456918
 20
74.0375654268
 10
170.1744301056
 20
74.0459791784
 10
170.1664244114
 20
74.0547838739
 10
170.1588467549
 20
74.0639595609
 10
170.1517143038
 20
74.0734854552
 10
170.1450432238
 20
74.0833399713
 10
170.1388486315
 20
74.0935007834
 10
170.1331445662
 20
74.1039448686
 10
170.1279439586
 20
74.1146485551
 10
170.1232585942
 20
74.1255875886
 10
170.11909909
 20
74.1367371849
 10
170.1154748728
 20
74.1480720775
 10
170.1123941542
 20
74.1595665885
 10
170.1098639172
 20
74.1711946678
 10
170.1078898986
 20
74.1829299476
 10
170.1064765698
 20
74.1947458299
 10
170.1056271297
 20
74.2066155481
 10
170.1053435008
 20
74.2185122071
  0
LWPOLYLINE
  5
327
100
AcDbEntity
  8
0
100
AcDbPolyline
 62
7
  6
CONTINUOUS
 90
34
 70
0
 10
187.7422406913
 20
73.9554178591
 10
187.7303454061
 20
73.9557010094
 10
187.7184770665
 20
73.9565498249
 10
187.7066625559
 20
73.957962385
 10
187.6949286346
 20
73.9599354914
 10
187.6833018833
 20
73.9624646774
 10
187.6718086431
 20
73.9655442174
 10
187.6604749483
 20
73.9691671378
 10
187.6493264728
 20
73.9733252333
 10
187.6383884758
 20
73.9780090869
 10
187.6276857345
 20
73.9832080903
 10
187.6172424938
 20
73.9889104675
 10
187.6070824162
 20
73.995103301
 10
187.597228517
 20
74.0017725636
 10
187.5877031182
 20
74.0089031484
 10
187.578527803
 20
74.0164789003
 10
187.569723356
 20
74.0244826586
 10
187.5613097216
 20
74.032896293
 10
187.5533059632
 20
74.0417007401
 10
187.5457302114
 20
74.0508760553
 10
187.5385996266
 20
74.060401454
 10
187.5319303639
 20
74.0702553532
 10
187.5257375304
 20
74.0804154309
 10
187.5200351533
 20
74.0908586715
 10
187.5148361499
 20
74.1015614128
 10
187.5101522963
 20
74.1124994098
 10
187.5059942007
 20
74.1236478853
 10
187.5023712804
 20
74.1349815801
 10
187.4992917404
 20
74.1464748203
 10
187.4967625544
 20
74.1581015716
 10
187.4947894479
 20
74.169835493
 10
187.4933768878
 20
74.1816500036
 10
187.4925280723
 20
74.1935183431
 10
187.4922449221
 20
74.2054136283
  0
LWPOLYLINE
  5
328
100
AcDbEntity
  8
0
100
AcDbPolyline
 62
253
  6
CONTINUOUS
 90
34
 70
0
 10
187.75533927
 20
73.9685164378
 10
187.7434442485
 20
73.9687999887
 10
187.7315761718
 20
73.9696491936
 10
187.7197619239
 20
73.971062129
 10
187.7080282667
 20
73.9730355943
 10
187.6964017794
 20
73.9755651191
 10
187.6849087988
 20
73.9786449734
 10
187.673575359
 20
73.9822681808
 10
187.6624271328
 20
73.9864265339
 10
187.6514893733
 20
73.991110613
 10
187.6407868572
 20
73.9963098076
 10
187.6303438279
 20
74.0020123405
 10
187.6201839413
 20
74.008205294
 10
187.6103302118
 20
74.0148746399
 10
187.6008049603
 20
74.0220052704
 10
187.5916297637
 20
74.0295810332
 10
187.5828254057
 20
74.0375847674
 10
187.5744118303
 20
74.0459983428
 10
187.5664080961
 20
74.0548027007
 10
187.5588323334
 20
74.0639778974
 10
187.5517017028
 20
74.0735031489
 10
187.545032357
 20
74.0833568784
 10
187.5388394034
 20
74.093516765
 10
187.5331368706
 20
74.1039597942
 10
187.5279376759
 20
74.1146623104
 10
187.5232535968
 20
74.1256000698
 10
187.5190952438
 20
74.1367482961
 10
187.5154720364
 20
74.1480817359
 10
187.512392182
 20
74.1595747165
 10
187.5098626572
 20
74.1712012037
 10
187.5078891919
 20
74.182934861
 10
187.5064762565
 20
74.1947491089
 10
187.5056270516
 20
74.2066171855
 10
187.5053435008
 20
74.2185122071
  0
LWPOLYLINE
  5
329
100
AcDbEntity
  8
0
100
AcDbPolyline
 62
253
  6
CONTINUOUS
 90
33
 70
0
 10
181.4422449221
 20
74.4571699774
 10
181.4327285389
 20
74.4573965057
 10
181.4232337134
 20
74.4580755775
 10
181.4137819544
 20
74.4592056546
 10
181.4043946732
 20
74.4607841768
 10
181.395093135
 20
74.4628075683
 10
181.3858984107
 20
74.4652712456
 10
181.3768313294
 20
74.4681696275
 10
181.3679124309
 20
74.4714961483
 10
181.3591619195
 20
74.4752432725
 10
181.3505996177
 20
74.4794025114
 10
181.3422449221
 20
74.4839644432
 10
181.3341167586
 20
74.4889187335
 10
181.3262335402
 20
74.4942541594
 10
181.3186131248
 20
74.4999586343
 10
181.3112727753
 20
74.5060192358
 10
181.3042291198
 20
74.5124222347
 10
181.2974981145
 20
74.5191531261
 10
181.2910950072
 20
74.5261966624
 10
181.2850343031
 20
74.5335368878
 10
181.2793297317
 20
74.5411571741
 10
181.2739942155
 20
74.5490402591
 10
181.2690398413
 20
74.5571682851
 10
181.2644778323
 20
74.5655228393
 10
181.260318523
 20
74.5740849962
 10
181.2565713355
 20
74.5828353596
 10
181.2532447583
 20
74.5917541071
 10
181.2503463274
 20
74.6008210349
 10
181.2478826084
 20
74.6100156036
 10
181.2458591826
 20
74.6193169844
 10
181.2442806337
 20
74.6287041068
 10
181.2431505376
 20
74.6381557058
 10
181.2424714542
 20
74.6476503706
  0
LWPOLYLINE
  5
32A
100
AcDbEntity
  8
RACCORDO
100
AcDbPolyline
 62
253
  6
CONTINUOUS
 90
16
 70
0
 10
124.8627957112
 20
76.4761399858
 10
124.8105720852
 20
76.4789114986
 10
124.7589201335
 20
76.4871241276
 10
124.7084052725
 20
76.500687972
 10
124.6595804714
 20
76.5194545529
 10
124.6129801987
 20
76.5432184389
 10
124.5691145717
 20
76.5717194948
 10
124.5284637727
 20
76.6046457292
 10
124.4914727921
 20
76.6416367098
 10
124.4585465577
 20
76.6822875089
 10
124.4300455018
 20
76.7261531358
 10
124.4062816158
 20
76.7727534086
 10
124.3875150349
 20
76.8215782097
 10
124.3739511906
 20
76.8720930706
 10
124.3657385615
 20
76.9237450222
 10
124.3629670487
 20
76.9759686482
  0
LINE
  5
32B
100
AcDbEntity
  8
0
100
AcDbLine
 62
7
  6
CONTINUOUS
 10
124.5738504649
 20
76.0557613939
 11
124.5546620127
 21
76.056802678
  0
LINE
  5
32C
100
AcDbEntity
  8
0
100
AcDbLine
 62
7
  6
CONTINUOUS
 10
169.5738504649
 20
76.0557613939
 11
169.5546620127
 21
76.056802678
  0
LWPOLYLINE
  5
32D
100
AcDbEntity
  8
RACCORDO
100
AcDbPolyline
 62
253
  6
CONTINUOUS
 90
11
 70
0
 10
124.3629670486
 20
119.9348670701
 10
124.3641168356
 20
119.9323268107
 10
124.3652527083
 20
119.9271064006
 10
124.3663746668
 20
119.9192058397
 10
124.3674874159
 20
119.908572944
 10
124.3685862507
 20
119.8952598975
 10
124.3696570567
 20
119.8794232524
 10
124.37069909
 20
119.8610341176
 10
124.3717130946
 20
119.8401213841
 10
124.3726871875
 20
119.8169282773
 10
124.3736209257
 20
119.7914264297
  0
LINE
  5
32E
100
AcDbEntity
  8
0
100
AcDbLine
 62
253
  6
CONTINUOUS
 10
124.618919673
 20
120.7768061902
 11
124.5927370756
 21
120.8554178591
  0
LINE
  5
32F
100
AcDbEntity
  8
0
100
AcDbLine
 62
7
  6
CONTINUOUS
 10
130.8009716668
 20
120.7768061902
 11
130.7922449221
 21
120.8554178591
  0
LINE
  5
330
100
AcDbEntity
  8
0
100
AcDbLine
 62
7
  6
CONTINUOUS
 10
136.2422449221
 20
122.2554144744
 11
136.2422449221
 21
120.8396955253
  0
LINE
  5
331
100
AcDbEntity
  8
0
100
AcDbLine
 62
7
  6
CONTINUOUS
 10
136.2422449221
 20
76.0711401929
 11
136.2422449221
 21
74.6554212438
  0
LINE
  5
332
100
AcDbEntity
  8
0
100
AcDbLine
 62
253
  6
CONTINUOUS
 10
136.4422449221
 20
76.0816217488
 11
136.4422449221
 21
74.4554178591
  0
LINE
  5
333
100
AcDbEntity
  8
0
100
AcDbLine
 62
253
  6
CONTINUOUS
 10
136.4422449221
 20
120.8292139695
 11
136.4422449221
 21
122.4554178591
  0
LINE
  5
334
100
AcDbEntity
  8
0
100
AcDbLine
 62
7
  6
CONTINUOUS
 10
138.7422449221
 20
122.4536657409
 11
138.7422449221
 21
120.7768061902
  0
LINE
  5
335
100
AcDbEntity
  8
0
100
AcDbLine
 62
7
  6
CONTINUOUS
 10
138.7422449221
 20
76.1340295281
 11
138.7422449221
 21
74.4571699774
  0
LINE
  5
336
100
AcDbEntity
  8
0
100
AcDbLine
 62
7
  6
CONTINUOUS
 10
139.6922449221
 20
120.8554178591
 11
139.6835181774
 21
120.7768061902
  0
LINE
  5
337
100
AcDbEntity
  8
0
100
AcDbLine
 62
7
  6
CONTINUOUS
 10
146.0038915546
 20
76.0679403963
 11
146.022055535
 21
76.0724450059
  0
LINE
  5
338
100
AcDbEntity
  8
0
100
AcDbLine
 62
7
  6
CONTINUOUS
 10
146.0209893549
 20
76.0724328508
 11
146.0028452527
 21
76.0679314979
  0
LINE
  5
339
100
AcDbEntity
  8
0
100
AcDbLine
 62
7
  6
CONTINUOUS
 10
146.0038915546
 20
76.0679403963
 11
145.9845054275
 21
76.0641150229
  0
LINE
  5
33A
100
AcDbEntity
  8
0
100
AcDbLine
 62
7
  6
CONTINUOUS
 10
145.9855666046
 20
76.0641211732
 11
145.9659989209
 21
76.0609785719
  0
LINE
  5
33B
100
AcDbEntity
  8
0
100
AcDbLine
 62
7
  6
CONTINUOUS
 10
145.9474997429
 20
76.0585389495
 11
145.9670751375
 21
76.0609824653
  0
LWPOLYLINE
  5
33C
100
AcDbEntity
  8
0
100
AcDbPolyline
 62
7
  6
CONTINUOUS
 90
33
 70
0
 10
134.0596762614
 20
74.4561789492
 10
134.0683504371
 20
74.4571289522
 10
134.0769749131
 20
74.4584564226
 10
134.0855332719
 20
74.4601588327
 10
134.0940092222
 20
74.4622329408
 10
134.1023866297
 20
74.4646747983
 10
134.1106495472
 20
74.4674797563
 10
134.1187822459
 20
74.4706424743
 10
134.1267692447
 20
74.4741569313
 10
134.13459534
 20
74.478016437
 10
134.1422456345
 20
74.4822136431
 10
134.1497055654
 20
74.4867405597
 10
134.1569609328
 20
74.4915885691
 10
134.1639979257
 20
74.4967484413
 10
134.1708031492
 20
74.502210354
 10
134.1773636496
 20
74.5079639098
 10
134.183666939
 20
74.5139981549
 10
134.1897010192
 20
74.5203016028
 10
134.1954544045
 20
74.5268622541
 10
134.2009161438
 20
74.5336676191
 10
134.2060758408
 20
74.5407047432
 10
134.2109236745
 20
74.5479602309
 10
134.2154504176
 20
74.5554202699
 10
134.2196474538
 20
74.5630706595
 10
134.2235067947
 20
74.5708968372
 10
134.2270210946
 20
74.5788839044
 10
134.2301836647
 20
74.5870166577
 10
134.2329884857
 20
74.5952796164
 10
134.2354302192
 20
74.6036570508
 10
134.237504218
 20
74.6121330145
 10
134.2392065349
 20
74.6206913737
 10
134.2405339303
 20
74.6293158369
 10
134.2414838781
 20
74.6379899873
  0
LINE
  5
33D
100
AcDbEntity
  8
0
100
AcDbLine
 62
7
  6
CONTINUOUS
 10
145.9290658968
 20
76.0568017574
 11
145.9484877071
 21
76.0585410975
  0
LWPOLYLINE
  5
33E
100
AcDbEntity
  8
RACCORDO
100
AcDbPolyline
 62
253
  6
CONTINUOUS
 90
14
 70
0
 10
190.715846355
 20
77.6259463604
 10
190.7646168886
 20
77.6265826136
 10
190.8117344828
 20
77.6274218377
 10
190.8567147109
 20
77.6284554045
 10
190.8990951208
 20
77.6296726877
 10
190.93843999
 20
77.631061172
 10
190.9743448048
 20
77.6326065822
 10
191.0064404196
 20
77.6342930296
 10
191.0343968522
 20
77.6361031753
 10
191.0579266759
 20
77.6380184089
 10
191.0767879753
 20
77.6400190394
 10
191.0907868331
 20
77.6420844979
 10
191.0997793239
 20
77.644193549
 10
191.1036729938
 20
77.6463245089
  0
LINE
  5
33F
100
AcDbEntity
  8
RACCORDO
100
AcDbLine
 62
253
  6
CONTINUOUS
 10
190.6153639926
 20
77.6253067787
 11
190.715846355
 21
77.6259463604
  0
LINE
  5
340
100
AcDbEntity
  8
RACCORDO
100
AcDbLine
 62
253
  6
CONTINUOUS
 10
170.612524075
 20
77.6235039927
 11
190.6153639926
 21
77.6253067953
  0
LINE
  5
341
100
AcDbEntity
  8
RACCORDO
100
AcDbLine
 62
253
  6
CONTINUOUS
 10
157.2748619764
 20
77.6231798817
 11
170.612524075
 21
77.6235039927
  0
LINE
  5
342
100
AcDbEntity
  8
RACCORDO
100
AcDbLine
 62
253
  6
CONTINUOUS
 10
136.8654507113
 20
77.6240387033
 11
157.2748619764
 21
77.6231798817
  0
LWPOLYLINE
  5
343
100
AcDbEntity
  8
RACCORDO
100
AcDbPolyline
 62
253
  6
CONTINUOUS
 90
16
 70
0
 10
136.8654507113
 20
77.6240387033
 10
124.8185660996
 20
77.6255199859
 10
124.7686443875
 20
77.6259467169
 10
124.7198741666
 20
77.6265829563
 10
124.6727568475
 20
77.6274221627
 10
124.6277768473
 20
77.6284557083
 10
124.5853966089
 20
77.6296729669
 10
124.5460518471
 20
77.6310614241
 10
124.5101470686
 20
77.6326068047
 10
124.4780514134
 20
77.6342932208
 10
124.4500948596
 20
77.6361033341
 10
124.4265648306
 20
77.6380185346
 10
124.4077032409
 20
77.6400191321
 10
124.3937040077
 20
77.6420845583
 10
124.3847110585
 20
77.6441935783
 10
124.3808168505
 20
77.6463245091
  0
LINE
  5
344
100
AcDbEntity
  8
0
100
AcDbLine
 62
7
  6
CONTINUOUS
 10
169.5554239475
 20
76.0568017574
 11
169.5360021371
 21
76.0585410975
  0
LINE
  5
345
100
AcDbEntity
  8
0
100
AcDbLine
 62
7
  6
CONTINUOUS
 10
169.5369901015
 20
76.0585389495
 11
169.5174147067
 21
76.0609824653
  0
LINE
  5
346
100
AcDbEntity
  8
0
100
AcDbLine
 62
7
  6
CONTINUOUS
 10
169.4989232396
 20
76.0641211732
 11
169.5184909235
 21
76.0609785718
  0
LINE
  5
347
100
AcDbEntity
  8
0
100
AcDbLine
 62
7
  6
CONTINUOUS
 10
169.4805982895
 20
76.0679403963
 11
169.4999844169
 21
76.0641150228
  0
LINE
  5
348
100
AcDbEntity
  8
0
100
AcDbLine
 62
7
  6
CONTINUOUS
 10
169.4816445916
 20
76.0679314979
 11
169.4624343092
 21
76.0724450059
  0
LINE
  5
349
100
AcDbEntity
  8
0
100
AcDbLine
 62
7
  6
CONTINUOUS
 10
139.6835181774
 20
76.1340295281
 11
139.6922449221
 21
76.0554178591
  0
LINE
  5
34A
100
AcDbEntity
  8
0
100
AcDbLine
 62
253
  6
CONTINUOUS
 10
142.5053435008
 20
74.6110802918
 11
142.499525671
 21
75.188430561
  0
LINE
  5
34B
100
AcDbEntity
  8
0
100
AcDbLine
 62
7
  6
CONTINUOUS
 10
139.6835181774
 20
74.4641446038
 11
139.6835181774
 21
76.1340295281
  0
LINE
  5
34C
100
AcDbEntity
  8
0
100
AcDbLine
 62
7
  6
CONTINUOUS
 10
139.6835181774
 20
120.7768061902
 11
139.6835181774
 21
122.4466911144
  0
LINE
  5
34D
100
AcDbEntity
  8
0
100
AcDbLine
 62
7
  6
CONTINUOUS
 10
139.6922449221
 20
76.0554178591
 11
139.6922449221
 21
74.4554178591
  0
LINE
  5
34E
100
AcDbEntity
  8
0
100
AcDbLine
 62
7
  6
CONTINUOUS
 10
139.6922449221
 20
120.8554178591
 11
139.6922449221
 21
122.4554178591
  0
LINE
  5
34F
100
AcDbEntity
  8
0
100
AcDbLine
 62
253
  6
CONTINUOUS
 10
142.499525671
 20
121.7224051572
 11
142.5053435008
 21
122.2997554264
  0
LWPOLYLINE
  5
350
100
AcDbEntity
  8
0
100
AcDbPolyline
 62
7
  6
CONTINUOUS
 90
34
 70
0
 10
142.4922449221
 20
122.7054220899
 10
142.4925280723
 20
122.7173173751
 10
142.4933768878
 20
122.7291857147
 10
142.4947894479
 20
122.7410002253
 10
142.4967625544
 20
122.7527341466
 10
142.4992917404
 20
122.7643608979
 10
142.5023712804
 20
122.7758541381
 10
142.5059942007
 20
122.7871878329
 10
142.5101522963
 20
122.7983363084
 10
142.5148361499
 20
122.8092743054
 10
142.5200351533
 20
122.8199770467
 10
142.5257375304
 20
122.8304202874
 10
142.5319303639
 20
122.840580365
 10
142.5385996266
 20
122.8504342642
 10
142.5457302114
 20
122.859959663
 10
142.5533059632
 20
122.8691349782
 10
142.5613097216
 20
122.8779394252
 10
142.569723356
 20
122.8863530596
 10
142.578527803
 20
122.894356818
 10
142.5877031182
 20
122.9019325698
 10
142.597228517
 20
122.9090631546
 10
142.6070824162
 20
122.9157324173
 10
142.6172424938
 20
122.9219252508
 10
142.6276857345
 20
122.927627628
 10
142.6383884758
 20
122.9328266313
 10
142.6493264728
 20
122.9375104849
 10
142.6604749483
 20
122.9416685805
 10
142.6718086431
 20
122.9452915008
 10
142.6833018833
 20
122.9483710408
 10
142.6949286346
 20
122.9509002268
 10
142.7066625559
 20
122.9528733333
 10
142.7184770665
 20
122.9542858934
 10
142.7303454061
 20
122.9551347089
 10
142.7422406913
 20
122.9554178591
  0
LWPOLYLINE
  5
351
100
AcDbEntity
  8
0
100
AcDbPolyline
 62
253
  6
CONTINUOUS
 90
34
 70
0
 10
142.5053435008
 20
122.6923235112
 10
142.5056270516
 20
122.7042185327
 10
142.5064762565
 20
122.7160866094
 10
142.5078891919
 20
122.7279008573
 10
142.5098626572
 20
122.7396345145
 10
142.512392182
 20
122.7512610018
 10
142.5154720364
 20
122.7627539824
 10
142.5190952438
 20
122.7740874222
 10
142.5232535968
 20
122.7852356484
 10
142.5279376759
 20
122.7961734079
 10
142.5331368706
 20
122.806875924
 10
142.5388394034
 20
122.8173189533
 10
142.545032357
 20
122.8274788399
 10
142.5517017028
 20
122.8373325694
 10
142.5588323334
 20
122.8468578209
 10
142.5664080961
 20
122.8560330175
 10
142.5744118303
 20
122.8648373755
 10
142.5828254057
 20
122.8732509509
 10
142.5916297637
 20
122.8812546851
 10
142.6008049603
 20
122.8888304479
 10
142.6103302118
 20
122.8959610784
 10
142.6201839413
 20
122.9026304242
 10
142.6303438279
 20
122.9088233778
 10
142.6407868572
 20
122.9145259106
 10
142.6514893733
 20
122.9197251053
 10
142.6624271328
 20
122.9244091844
 10
142.673575359
 20
122.9285675374
 10
142.6849087988
 20
122.9321907448
 10
142.6964017794
 20
122.9352705992
 10
142.7080282667
 20
122.937800124
 10
142.7197619239
 20
122.9397735893
 10
142.7315761718
 20
122.9411865247
 10
142.7434442485
 20
122.9420357296
 10
142.75533927
 20
122.9423192804
  0
LINE
  5
352
100
AcDbEntity
  8
0
100
AcDbLine
 62
253
  6
CONTINUOUS
 10
145.8917527686
 20
120.8554178591
 11
145.8655701712
 21
120.7768061902
  0
LWPOLYLINE
  5
353
100
AcDbEntity
  8
0
100
AcDbPolyline
 62
7
  6
CONTINUOUS
 90
24
 70
0
 10
169.4455230685
 20
120.8332214906
 10
169.4266930958
 20
120.8273713851
 10
169.4092267598
 20
120.8208970396
 10
169.3920141368
 20
120.8137736166
 10
169.37507132
 20
120.8060057502
 10
169.3583714702
 20
120.7975800879
 10
169.3419414265
 20
120.7885099824
 10
169.3258777994
 20
120.7788401256
 10
169.3101810034
 20
120.7685612421
 10
169.2948506241
 20
120.7576826073
 10
169.2799820287
 20
120.7462767408
 10
169.2655966814
 20
120.7343561341
 10
169.2516731181
 20
120.7219082955
 10
169.2382423137
 20
120.7089682701
 10
169.225303091
 20
120.69553754
 10
169.2128566272
 20
120.6816146231
 10
169.2009374291
 20
120.667230118
 10
169.1895329822
 20
120.652362723
 10
169.1786558009
 20
120.6370337399
 10
169.1683779356
 20
120.6213376725
 10
169.1587083278
 20
120.6052735902
 10
169.149638036
 20
120.5888424235
 10
169.1412122855
 20
120.5721414678
 10
169.1335456178
 20
120.5554178591
  0
LINE
  5
354
100
AcDbEntity
  8
0
100
AcDbLine
 62
7
  6
CONTINUOUS
 10
169.4635004893
 20
120.8384028675
 11
169.4444368459
 21
120.8332055875
  0
LWPOLYLINE
  5
355
100
AcDbEntity
  8
0
100
AcDbPolyline
 62
7
  6
CONTINUOUS
 90
58
 70
0
 10
159.7422449221
 20
82.9554178591
 10
159.9620897037
 20
82.9614692692
 10
160.18139047
 20
82.9796016921
 10
160.3994799446
 20
83.0097822273
 10
160.6157566479
 20
83.0519665576
 10
160.829502858
 20
83.1060227265
 10
161.0398819853
 20
83.1717514965
 10
161.2461246398
 20
83.2488970008
 10
161.4477595195
 20
83.3372414625
 10
161.6443943881
 20
83.4366377541
 10
161.8355965687
 20
83.5469242423
 10
162.0205897557
 20
83.6676932246
 10
162.1984908074
 20
83.7983886966
 10
162.3685801056
 20
83.938413772
 10
162.5305805271
 20
84.0874604865
 10
162.684288944
 20
84.2453727864
 10
162.82941079
 20
84.4119246962
 10
162.9652573748
 20
84.5864118642
 10
163.0910938171
 20
84.7679134077
 10
163.2064169465
 20
84.9555492338
 10
163.3111186859
 20
85.1490015944
 10
163.4051181988
 20
85.3481487158
 10
163.4882362775
 20
85.5527365338
 10
163.5600136179
 20
85.7618355359
 10
163.6200424013
 20
85.974276368
 10
163.6681330314
 20
86.1890120775
 10
163.7042972873
 20
86.4057530893
 10
163.7285211897
 20
86.6244342846
 10
163.7407124339
 20
86.8447823651
 10
163.7407209662
 20
87.0657453954
 10
163.7285471553
 20
87.2860892559
 10
163.7043420119
 20
87.5047604203
 10
163.6681986566
 20
87.7214867942
 10
163.6201314231
 20
87.9362065581
 10
163.5601295247
 20
88.148629188
 10
163.4883835212
 20
88.3577064588
 10
163.4053000533
 20
88.562273047
 10
163.3113375459
 20
88.7614016885
 10
163.2066748812
 20
88.9548392827
 10
163.091391827
 20
89.1424656761
 10
162.965595525
 20
89.3239637893
 10
162.829788783
 20
89.4984526053
 10
162.684705012
 20
89.6650114386
 10
162.5310298777
 20
89.8229382515
 10
162.3690557366
 20
89.9720078281
 10
162.1989861022
 20
90.1120616288
 10
162.0210979533
 20
90.2427902384
 10
161.8361085446
 20
90.3635969401
 10
161.6448990516
 20
90.4739251126
 10
161.4482470759
 20
90.573364321
 10
161.2465859859
 20
90.6617513478
 10
161.0403052307
 20
90.7389390156
 10
160.8298789025
 20
90.8047066817
 10
160.6160787466
 20
90.8587968897
 10
160.3997374991
 20
90.9010105495
 10
160.1815730897
 20
90.9312139543
 10
159.9621896741
 20
90.9493610092
 10
159.7422543677
 20
90.9554178591
  0
LINE
  5
356
100
AcDbEntity
  8
RACCORDO
100
AcDbLine
 62
7
  6
CONTINUOUS
 10
191.3651895714
 20
81.8554178591
 11
191.2422449221
 21
81.8554178591
  0
LINE
  5
357
100
AcDbEntity
  8
RACCORDO
100
AcDbLine
 62
7
  6
CONTINUOUS
 10
124.2422449221
 20
81.8554178591
 11
124.1193002727
 21
81.8554178591
  0
LINE
  5
358
100
AcDbEntity
  8
0
100
AcDbLine
 62
7
  6
CONTINUOUS
 10
159.7422446826
 20
82.9466896619
 11
155.7422451615
 21
82.9466896619
  0
LINE
  5
359
100
AcDbEntity
  8
0
100
AcDbLine
 62
7
  6
CONTINUOUS
 10
155.7422449221
 20
82.9554178591
 11
159.7422449221
 21
82.9554178591
  0
LWPOLYLINE
  5
35A
100
AcDbEntity
  8
0
100
AcDbPolyline
 62
7
  6
CONTINUOUS
 90
58
 70
0
 10
155.7422451615
 20
82.9466896619
 10
155.520809497
 20
82.9528694511
 10
155.3012501838
 20
82.9710309009
 10
155.0835672254
 20
83.0011740744
 10
154.8670541234
 20
83.0434731698
 10
154.6524173831
 20
83.0977542425
 10
154.4417765115
 20
83.1634951915
 10
154.2352982323
 20
83.2407474021
 10
154.0328158225
 20
83.3294599475
 10
153.8359486149
 20
83.4289572792
 10
153.6445735983
 20
83.5394458035
 10
153.458813779
 20
83.6607197262
 10
153.2806575116
 20
83.7914851719
 10
153.1103699284
 20
83.931671034
 10
152.9476858855
 20
84.0813490668
 10
152.7937983201
 20
84.2394396202
 10
152.6485934479
 20
84.4062458185
 10
152.5121850385
 20
84.5814651891
 10
152.3861073567
 20
84.7631095632
 10
152.2706370407
 20
84.9509548142
 10
152.1654974355
 20
85.1452255583
 10
152.0713928646
 20
85.3446065889
 10
151.9882854284
 20
85.549471187
 10
151.916213012
 20
85.7594464605
 10
151.855993616
 20
85.9720977569
 10
151.8078253403
 20
86.1870783967
 10
151.7715100747
 20
86.4047351777
 10
151.7472715047
 20
86.6236734721
 10
151.7351844904
 20
86.8442836481
 10
151.735174168
 20
87.0661753413
 10
151.7472396394
 20
87.2867826355
 10
151.7714556926
 20
87.5057142315
 10
151.8077475431
 20
87.7233611804
 10
151.8558899354
 20
87.9383309164
 10
151.9160802054
 20
88.1509692448
 10
151.9881210276
 20
88.3609300478
 10
152.0711951554
 20
88.5657827277
 10
152.1652642656
 20
88.7651540364
 10
152.270366696
 20
88.9594167575
 10
152.3858001922
 20
89.1472592157
 10
152.5118407402
 20
89.3289059114
 10
152.648212371
 20
89.5041318871
 10
152.7933848957
 20
89.670951196
 10
152.9472449121
 20
89.8290616482
 10
153.1099058373
 20
89.978764948
 10
153.2801777088
 20
90.1189809298
 10
153.4583260424
 20
90.249781368
 10
153.6440853339
 20
90.3710940721
 10
153.835469087
 20
90.4816229035
 10
154.0323552456
 20
90.5811619039
 10
154.2348658707
 20
90.6699166816
 10
154.4413806378
 20
90.7472084409
 10
154.652066096
 20
90.8129858155
 10
154.8667556956
 20
90.8672999293
 10
155.0833294588
 20
90.9096257347
 10
155.3010807237
 20
90.9397881696
 10
155.5207161454
 20
90.9579621657
 10
155.7422357206
 20
90.9641476907
  0
LINE
  5
35B
100
AcDbEntity
  8
0
100
AcDbLine
 62
7
  6
CONTINUOUS
 10
169.4635004895
 20
76.0724328507
 11
169.4444368459
 21
76.0776301307
  0
LINE
  5
35C
100
AcDbEntity
  8
0
100
AcDbLine
 62
7
  6
CONTINUOUS
 10
169.4455230687
 20
76.0776142276
 11
169.4266930958
 21
76.0834643331
  0
LWPOLYLINE
  5
35D
100
AcDbEntity
  8
0
100
AcDbPolyline
 62
7
  6
CONTINUOUS
 90
23
 70
0
 10
169.4277992142
 20
76.0834442632
 10
169.4103526603
 20
76.0899139752
 10
169.3931596726
 20
76.0970323459
 10
169.3762359336
 20
76.104794956
 10
169.3595546364
 20
76.1132150859
 10
169.3431425878
 20
76.1222794552
 10
169.3270958908
 20
76.1319438035
 10
169.31141487
 20
76.142217398
 10
169.2960992007
 20
76.1530909715
 10
169.2812440123
 20
76.1644924618
 10
169.2668706038
 20
76.1764094967
 10
169.2529576761
 20
76.1888544484
 10
169.2395364608
 20
76.2017923711
 10
169.226605947
 20
76.2152215789
 10
169.2141671456
 20
76.2291437577
 10
169.2022543213
 20
76.2435290201
 10
169.1908548012
 20
76.2583987958
 10
169.1799812581
 20
76.273731655
 10
169.1697059747
 20
76.2894334208
 10
169.1600378306
 20
76.3055051392
 10
169.1509679461
 20
76.3219457641
 10
169.1425419654
 20
76.3386579804
 10
169.1348637468
 20
76.3554178591
  0
LINE
  5
35E
100
AcDbEntity
  8
0
100
AcDbLine
 62
253
  6
CONTINUOUS
 10
145.8655701712
 20
76.1340295281
 11
145.8917527686
 21
76.0554178591
  0
LWPOLYLINE
  5
35F
100
AcDbEntity
  8
0
100
AcDbPolyline
 62
7
  6
CONTINUOUS
 90
46
 70
0
 10
142.499525671
 20
121.7224051572
 10
142.4996979223
 20
121.717826503
 10
142.5001239981
 20
121.7132311955
 10
142.5008062157
 20
121.7086263465
 10
142.5017466169
 20
121.7040218756
 10
142.5029469836
 20
121.6994224893
 10
142.5044089226
 20
121.694827686
 10
142.5061337233
 20
121.690245264
 10
142.5081224075
 20
121.6856828065
 10
142.5103759277
 20
121.681139693
 10
142.512894758
 20
121.6766240553
 10
142.5156790964
 20
121.6721438139
 10
142.5187292318
 20
121.6676982345
 10
142.5220447643
 20
121.6632957409
 10
142.5256250138
 20
121.6589445446
 10
142.5294696025
 20
121.654643801
 10
142.5335772106
 20
121.6504021675
 10
142.5379462137
 20
121.6462281142
 10
142.5425755252
 20
121.6421207322
 10
142.5474628431
 20
121.6380888615
 10
142.5526055315
 20
121.6341411784
 10
142.5580017307
 20
121.6302767541
 10
142.5636480918
 20
121.6265045459
 10
142.5695408882
 20
121.6228333803
 10
142.5756773854
 20
121.6192623599
 10
142.5820531157
 20
121.6158004793
 10
142.5886631748
 20
121.6124566458
 10
142.5955038119
 20
121.6092300449
 10
142.6025693614
 20
121.6061296098
 10
142.6098536498
 20
121.6031642377
 10
142.6173517351
 20
121.6003332429
 10
142.6250566691
 20
121.5976453725
 10
142.6329609222
 20
121.5951093971
 10
142.6410581731
 20
121.5927247882
 10
142.6493400749
 20
121.5904999644
 10
142.6577977005
 20
121.5884434096
 10
142.6664232784
 20
121.5865547358
 10
142.6752070139
 20
121.5848418549
 10
142.6841385194
 20
121.5833128012
 10
142.6932084947
 20
121.58196732
 10
142.7023923822
 20
121.5808148572
 10
142.7116914104
 20
121.5798596987
 10
142.7211350716
 20
121.5790976101
 10
142.7307250428
 20
121.5785359936
 10
142.7404342633
 20
121.5781893215
 10
142.7502486689
 20
121.5780675899
  0
LWPOLYLINE
  5
360
100
AcDbEntity
  8
0
100
AcDbPolyline
 62
7
  6
CONTINUOUS
 90
46
 70
0
 10
145.3849641732
 20
75.188430561
 10
145.3847919219
 20
75.1930092153
 10
145.384365846
 20
75.1976045228
 10
145.3836836285
 20
75.2022093718
 10
145.3827432272
 20
75.2068138427
 10
145.3815428606
 20
75.211413229
 10
145.3800809216
 20
75.2160080323
 10
145.3783561209
 20
75.2205904543
 10
145.3763674367
 20
75.2251529117
 10
145.3741139165
 20
75.2296960252
 10
145.3715950862
 20
75.234211663
 10
145.3688107478
 20
75.2386919043
 10
145.3657606124
 20
75.2431374837
 10
145.3624450799
 20
75.2475399774
 10
145.3588648304
 20
75.2518911737
 10
145.3550202417
 20
75.2561919173
 10
145.3509126336
 20
75.2604335507
 10
145.3465436305
 20
75.2646076041
 10
145.341914319
 20
75.2687149861
 10
145.337027001
 20
75.2727468568
 10
145.3318843126
 20
75.2766945399
 10
145.3264881135
 20
75.2805589641
 10
145.3208417524
 20
75.2843311724
 10
145.314948956
 20
75.2880023379
 10
145.3088124588
 20
75.2915733584
 10
145.3024367284
 20
75.2950352389
 10
145.2958266694
 20
75.2983790725
 10
145.2889860323
 20
75.3016056734
 10
145.2819204828
 20
75.3047061085
 10
145.2746361943
 20
75.3076714805
 10
145.267138109
 20
75.3105024754
 10
145.259433175
 20
75.3131903457
 10
145.251528922
 20
75.3157263211
 10
145.2434316711
 20
75.3181109301
 10
145.2351497693
 20
75.3203357538
 10
145.2266921436
 20
75.3223923086
 10
145.2180665658
 20
75.3242809824
 10
145.2092828303
 20
75.3259938634
 10
145.2003513248
 20
75.327522917
 10
145.1912813494
 20
75.3288683983
 10
145.182097462
 20
75.3300208611
 10
145.1727984337
 20
75.3309760196
 10
145.1633547726
 20
75.3317381081
 10
145.1537648014
 20
75.3322997247
 10
145.1440555809
 20
75.3326463968
 10
145.1342411752
 20
75.3327681283
  0
LWPOLYLINE
  5
361
100
AcDbEntity
  8
0
100
AcDbPolyline
 62
253
  6
CONTINUOUS
 90
34
 70
0
 10
142.5053435008
 20
122.2997554264
 10
142.5056601515
 20
122.2894726589
 10
142.5065403133
 20
122.2792130989
 10
142.5079819996
 20
122.2689999018
 10
142.5099819566
 20
122.2588561181
 10
142.5125356706
 20
122.2488046417
 10
142.515637378
 20
122.2388681582
 10
142.5192800784
 20
122.2290690937
 10
142.5234555505
 20
122.2194295641
 10
142.5281543704
 20
122.2099713252
 10
142.5333659332
 20
122.2007157237
 10
142.5390784767
 20
122.1916836489
 10
142.5452791081
 20
122.1828954858
 10
142.5519538328
 20
122.1743710687
 10
142.5590875865
 20
122.1661296366
 10
142.5666642686
 20
122.1581897901
 10
142.5746667791
 20
122.1505694489
 10
142.5830770567
 20
122.1432858116
 10
142.5918761199
 20
122.1363553169
 10
142.6010441098
 20
122.1297936067
 10
142.6105603348
 20
122.1236154902
 10
142.6204033173
 20
122.1178349112
 10
142.6305508422
 20
122.1124649161
 10
142.6409800073
 20
122.1075176245
 10
142.6516672744
 20
122.1030042024
 10
142.6625885232
 20
122.0989348361
 10
142.6737191049
 20
122.09531871
 10
142.6850338985
 20
122.0921639855
 10
142.6965073671
 20
122.0894777827
 10
142.7081136159
 20
122.087266164
 10
142.7198264502
 20
122.0855341211
 10
142.7316194348
 20
122.084285563
 10
142.7434659537
 20
122.0835233077
 10
142.75533927
 20
122.0832490755
  0
LWPOLYLINE
  5
362
100
AcDbEntity
  8
0
100
AcDbPolyline
 62
253
  6
CONTINUOUS
 90
34
 70
0
 10
145.3791463434
 20
74.6110802918
 10
145.3788296814
 20
74.6213632529
 10
145.3779494871
 20
74.6316230051
 10
145.3765077473
 20
74.6418363918
 10
145.3745077172
 20
74.6519803556
 10
145.3719539102
 20
74.6620320071
 10
145.3688520849
 20
74.6719686757
 10
145.3652092342
 20
74.6817679462
 10
145.3610335812
 20
74.6914076874
 10
145.356334559
 20
74.7008661205
 10
145.3511227789
 20
74.7101218896
 10
145.3454100012
 20
74.7191541129
 10
145.3392091181
 20
74.727942408
 10
145.3325341244
 20
74.7364669405
 10
145.3254000869
 20
74.7447084694
 10
145.3178231073
 20
74.7526483933
 10
145.3098202878
 20
74.7602687913
 10
145.3014096907
 20
74.7675524645
 10
145.2926102981
 20
74.7744829741
 10
145.2834419722
 20
74.7810446767
 10
145.2739254047
 20
74.7872227635
 10
145.2640820686
 20
74.7930032938
 10
145.2539341672
 20
74.7983732263
 10
145.2435046163
 20
74.8033204326
 10
145.2328169886
 20
74.8078337326
 10
145.2218954287
 20
74.8119029357
 10
145.210764569
 20
74.8155188695
 10
145.1994495054
 20
74.8186733834
 10
145.1879754834
 20
74.8213594196
 10
145.176368686
 20
74.8235708296
 10
145.1646561771
 20
74.8253025122
 10
145.1528647002
 20
74.8265506408
 10
145.1410205894
 20
74.8273125548
 10
145.1291505741
 20
74.8275866428
  0
LINE
  5
363
100
AcDbEntity
  8
0
100
AcDbLine
 62
253
  6
CONTINUOUS
 10
142.75533927
 20
74.8275866428
 11
142.7502486689
 21
75.3327681283
  0
LINE
  5
364
100
AcDbEntity
  8
0
100
AcDbLine
 62
253
  6
CONTINUOUS
 10
145.1291505741
 20
122.0832490755
 11
145.1342411752
 21
121.5780675899
  0
LINE
  5
365
100
AcDbEntity
  8
0
100
AcDbLine
 62
7
  6
CONTINUOUS
 10
142.4922449221
 20
74.2054136283
 11
142.4922449221
 21
76.0554178591
  0
LINE
  5
366
100
AcDbEntity
  8
0
100
AcDbLine
 62
7
  6
CONTINUOUS
 10
142.4922449221
 20
120.8554178591
 11
142.4922449221
 21
122.7054220899
  0
LINE
  5
367
100
AcDbEntity
  8
0
100
AcDbLine
 62
253
  6
CONTINUOUS
 10
142.499525671
 20
121.7224051572
 11
142.499525671
 21
120.7898319114
  0
LINE
  5
368
100
AcDbEntity
  8
0
100
AcDbLine
 62
253
  6
CONTINUOUS
 10
142.499525671
 20
76.1210038068
 11
142.499525671
 21
75.188430561
  0
LINE
  5
369
100
AcDbEntity
  8
0
100
AcDbLine
 62
253
  6
CONTINUOUS
 10
142.5053435008
 20
122.6923235112
 11
142.5053435008
 21
122.2997554264
  0
LINE
  5
36A
100
AcDbEntity
  8
0
100
AcDbLine
 62
253
  6
CONTINUOUS
 10
142.5053435008
 20
74.6110802918
 11
142.5053435008
 21
74.2185122071
  0
LINE
  5
36B
100
AcDbEntity
  8
0
100
AcDbLine
 62
253
  6
CONTINUOUS
 10
142.7495214402
 20
121.5780675899
 11
142.7495214402
 21
120.7768061902
  0
LINE
  5
36C
100
AcDbEntity
  8
0
100
AcDbLine
 62
253
  6
CONTINUOUS
 10
142.7495214402
 20
76.1340295281
 11
142.7495214402
 21
75.3327681283
  0
LINE
  5
36D
100
AcDbEntity
  8
0
100
AcDbLine
 62
253
  6
CONTINUOUS
 10
142.75533927
 20
73.9685164378
 11
142.75533927
 21
74.8275866428
  0
LINE
  5
36E
100
AcDbEntity
  8
0
100
AcDbLine
 62
253
  6
CONTINUOUS
 10
142.75533927
 20
122.0832490755
 11
142.75533927
 21
122.9423192804
  0
LINE
  5
36F
100
AcDbEntity
  8
0
100
AcDbLine
 62
253
  6
CONTINUOUS
 10
145.1291505741
 20
73.9685164378
 11
145.1291505741
 21
74.8275866428
  0
LINE
  5
370
100
AcDbEntity
  8
0
100
AcDbLine
 62
253
  6
CONTINUOUS
 10
145.1291505741
 20
122.0832490755
 11
145.1291505741
 21
122.9423192804
  0
LINE
  5
371
100
AcDbEntity
  8
0
100
AcDbLine
 62
253
  6
CONTINUOUS
 10
145.134968404
 20
75.3327681283
 11
145.134968404
 21
76.1340295281
  0
LINE
  5
372
100
AcDbEntity
  8
0
100
AcDbLine
 62
253
  6
CONTINUOUS
 10
145.134968404
 20
120.7768061902
 11
145.134968404
 21
121.5780675899
  0
LINE
  5
373
100
AcDbEntity
  8
0
100
AcDbLine
 62
253
  6
CONTINUOUS
 10
145.3791463434
 20
74.2185122071
 11
145.3791463434
 21
74.6110802918
  0
LINE
  5
374
100
AcDbEntity
  8
0
100
AcDbLine
 62
253
  6
CONTINUOUS
 10
145.3791463434
 20
122.2997554264
 11
145.3791463434
 21
122.6923235112
  0
LINE
  5
375
100
AcDbEntity
  8
0
100
AcDbLine
 62
253
  6
CONTINUOUS
 10
145.3849641732
 20
75.188430561
 11
145.3849641732
 21
76.1210038068
  0
LINE
  5
376
100
AcDbEntity
  8
0
100
AcDbLine
 62
253
  6
CONTINUOUS
 10
145.3849641732
 20
120.7898319114
 11
145.3849641732
 21
121.7224051572
  0
LINE
  5
377
100
AcDbEntity
  8
0
100
AcDbLine
 62
7
  6
CONTINUOUS
 10
145.3922449221
 20
74.2054136283
 11
145.3922449221
 21
76.0554178591
  0
LINE
  5
378
100
AcDbEntity
  8
0
100
AcDbLine
 62
7
  6
CONTINUOUS
 10
145.3922449221
 20
120.8554178591
 11
145.3922449221
 21
122.7054220899
  0
LINE
  5
379
100
AcDbEntity
  8
0
100
AcDbLine
 62
253
  6
CONTINUOUS
 10
142.7502486689
 20
121.5780675899
 11
142.75533927
 21
122.0832490755
  0
LINE
  5
37A
100
AcDbEntity
  8
0
100
AcDbLine
 62
253
  6
CONTINUOUS
 10
145.1342411752
 20
75.3327681283
 11
145.1291505741
 21
74.8275866428
  0
LWPOLYLINE
  5
37B
100
AcDbEntity
  8
0
100
AcDbPolyline
 62
253
  6
CONTINUOUS
 90
34
 70
0
 10
142.5053435008
 20
74.6110802918
 10
142.5056601515
 20
74.6213630594
 10
142.5065403133
 20
74.6316226193
 10
142.5079819996
 20
74.6418358164
 10
142.5099819566
 20
74.6519796001
 10
142.5125356706
 20
74.6620310765
 10
142.515637378
 20
74.67196756
 10
142.5192800784
 20
74.6817666245
 10
142.5234555505
 20
74.6914061542
 10
142.5281543704
 20
74.7008643931
 10
142.5333659332
 20
74.7101199946
 10
142.5390784767
 20
74.7191520693
 10
142.5452791081
 20
74.7279402324
 10
142.5519538328
 20
74.7364646496
 10
142.5590875865
 20
74.7447060816
 10
142.5666642686
 20
74.7526459281
 10
142.5746667791
 20
74.7602662694
 10
142.5830770567
 20
74.7675499067
 10
142.5918761199
 20
74.7744804013
 10
142.6010441098
 20
74.7810421116
 10
142.6105603348
 20
74.787220228
 10
142.6204033173
 20
74.793000807
 10
142.6305508422
 20
74.7983708022
 10
142.6409800073
 20
74.8033180937
 10
142.6516672744
 20
74.8078315159
 10
142.6625885232
 20
74.8119008822
 10
142.6737191049
 20
74.8155170083
 10
142.6850338985
 20
74.8186717327
 10
142.6965073671
 20
74.8213579356
 10
142.7081136159
 20
74.8235695542
 10
142.7198264502
 20
74.8253015971
 10
142.7316194348
 20
74.8265501552
 10
142.7434659537
 20
74.8273124106
 10
142.75533927
 20
74.8275866428
  0
LWPOLYLINE
  5
37C
100
AcDbEntity
  8
0
100
AcDbPolyline
 62
253
  6
CONTINUOUS
 90
34
 70
0
 10
145.3791463434
 20
122.2997554264
 10
145.3788296926
 20
122.2894726589
 10
145.3779495309
 20
122.2792130989
 10
145.3765078446
 20
122.2689999018
 10
145.3745078875
 20
122.2588561181
 10
145.3719541735
 20
122.2488046417
 10
145.3688524661
 20
122.2388681582
 10
145.3652097657
 20
122.2290690937
 10
145.3610342937
 20
122.2194295641
 10
145.3563354738
 20
122.2099713252
 10
145.3511239109
 20
122.2007157237
 10
145.3454113674
 20
122.1916836489
 10
145.339210736
 20
122.1828954858
 10
145.3325360113
 20
122.1743710687
 10
145.3254022576
 20
122.1661296366
 10
145.3178255755
 20
122.1581897901
 10
145.3098230651
 20
122.1505694489
 10
145.3014127875
 20
122.1432858116
 10
145.2926137242
 20
122.1363553169
 10
145.2834457343
 20
122.1297936067
 10
145.2739295094
 20
122.1236154902
 10
145.2640865269
 20
122.1178349112
 10
145.2539390019
 20
122.1124649161
 10
145.2435098369
 20
122.1075176245
 10
145.2328225697
 20
122.1030042024
 10
145.221901321
 20
122.0989348361
 10
145.2107707393
 20
122.09531871
 10
145.1994559457
 20
122.0921639855
 10
145.187982477
 20
122.0894777827
 10
145.1763762283
 20
122.087266164
 10
145.164663394
 20
122.0855341211
 10
145.1528704093
 20
122.084285563
 10
145.1410238904
 20
122.0835233077
 10
145.1291505741
 20
122.0832490755
  0
LINE
  5
37D
100
AcDbEntity
  8
0
100
AcDbLine
 62
7
  6
CONTINUOUS
 10
145.3922449221
 20
120.8554178591
 11
145.3849641732
 21
120.7898319114
  0
LINE
  5
37E
100
AcDbEntity
  8
0
100
AcDbLine
 62
7
  6
CONTINUOUS
 10
142.4922449221
 20
76.0554178591
 11
142.499525671
 21
76.1210038068
  0
LWPOLYLINE
  5
37F
100
AcDbEntity
  8
DRAFT
100
AcDbPolyline
 62
7
  6
CONTINUOUS
 90
55
 70
0
 10
159.7422449221
 20
83.7554178591
 10
159.9272248269
 20
83.7607783196
 10
160.1116476792
 20
83.7768224363
 10
160.2948653551
 20
83.8034941264
 10
160.4762717672
 20
83.8407301736
 10
160.6553252261
 20
83.8884385115
 10
160.8314758648
 20
83.9465118986
 10
161.0041101434
 20
84.0147618487
 10
161.172555523
 20
84.092890429
 10
161.3361537395
 20
84.180608724
 10
161.4943839919
 20
84.2776853162
 10
161.6468380355
 20
84.3839104514
 10
161.7930916576
 20
84.4990376276
 10
161.9325762141
 20
84.6225953475
 10
162.0646667708
 20
84.7539982113
 10
162.188777561
 20
84.8927135302
 10
162.3045769533
 20
85.0384396537
 10
162.411807449
 20
85.1909128062
 10
162.5101727179
 20
85.3497524856
 10
162.59924051
 20
85.5141867878
 10
162.6785562122
 20
85.6833652902
 10
162.7477310046
 20
85.8565633712
 10
162.8066269811
 20
86.0335084202
 10
162.8551366393
 20
86.2139602813
 10
162.8931237232
 20
86.3973765622
 10
162.920415867
 20
86.5827338586
 10
162.9368459143
 20
86.7690123176
 10
162.9423184361
 20
86.9555321158
 10
162.9368316521
 20
87.1420528738
 10
162.9203951725
 20
87.3283014798
 10
162.8931088815
 20
87.5135739555
 10
162.8551365979
 20
87.6968824598
 10
162.8066420932
 20
87.877264011
 10
162.7477639014
 20
88.0541703239
 10
162.6786210177
 20
88.2273200854
 10
162.5993533734
 20
88.3964292356
 10
162.5103349013
 20
88.5608059348
 10
162.4120094593
 20
88.7196170003
 10
162.3048140585
 20
88.8720787249
 10
162.1890461508
 20
89.0178036763
 10
162.0649592239
 20
89.15652896
 10
161.9328816073
 20
89.2879532205
 10
161.7934053018
 20
89.4115358347
 10
161.6471582593
 20
89.5266882779
 10
161.4947067101
 20
89.6329398651
 10
161.336473005
 20
89.7300439443
 10
161.1728647132
 20
89.8177903613
 10
161.0044019204
 20
89.8959479174
 10
160.831742314
 20
89.9642271285
 10
160.6555622714
 20
90.0223268957
 10
160.4764772551
 20
90.0700573766
 10
160.2950327005
 20
90.1073122847
 10
160.1117686048
 20
90.133999144
 10
159.9272926938
 20
90.1500534142
 10
159.7422537191
 20
90.1554178591
  0
LWPOLYLINE
  5
380
100
AcDbEntity
  8
0
100
AcDbPolyline
 62
7
  6
CONTINUOUS
 90
58
 70
0
 10
159.7422448833
 20
83.7554178591
 10
159.9192260937
 20
83.7603698695
 10
160.0946815163
 20
83.7748990943
 10
160.2686111171
 20
83.7990055819
 10
160.4415355748
 20
83.8328091605
 10
160.6129341455
 20
83.8761901766
 10
160.7812446671
 20
83.9287894929
 10
160.9465022545
 20
83.9907386379
 10
161.108671745
 20
84.0619063996
 10
161.2660855732
 20
84.141539548
 10
161.4185598626
 20
84.2296343626
 10
161.5662784681
 20
84.326194969
 10
161.7081254353
 20
84.4304798998
 10
161.8441885671
 20
84.5426726325
 10
161.9743800634
 20
84.6625901429
 10
162.09732058
 20
84.7889411686
 10
162.2128014257
 20
84.9216136196
 10
162.3210313225
 20
85.0607199997
 10
162.4212570588
 20
85.2053058711
 10
162.5135494793
 20
85.3556500984
 10
162.5978377872
 20
85.5114741905
 10
162.6731563193
 20
85.670987575
 10
162.7393091906
 20
85.8339686064
 10
162.7964923484
 20
86.0006391508
 10
162.8443278828
 20
86.1698737876
 10
162.8827976726
 20
86.3419615481
 10
162.9119199032
 20
86.5166135333
 10
162.9313711247
 20
86.6918373004
 10
162.9410430771
 20
86.86735171
 10
162.9410440786
 20
87.0434378516
 10
162.9313755417
 20
87.218946503
 10
162.9119307556
 20
87.3941547033
 10
162.8828164782
 20
87.5687852896
 10
162.8443543178
 20
87.7408576238
 10
162.7965227054
 20
87.9100922442
 10
162.7393432377
 20
88.0767683509
 10
162.673202262
 20
88.2397431993
 10
162.5979117972
 20
88.3992232323
 10
162.5136598363
 20
88.555001716
 10
162.421396677
 20
88.7053160647
 10
162.3211829999
 20
88.8499036679
 10
162.2129581163
 20
88.9890267888
 10
162.09749026
 20
89.1217100953
 10
161.9745853138
 20
89.2480512884
 10
161.8444373756
 20
89.3679523452
 10
161.7083969928
 20
89.4801443188
 10
161.5665346508
 20
89.5844580055
 10
161.4187798337
 20
89.6810623107
 10
161.2662715819
 20
89.7691954364
 10
161.1088400458
 20
89.8488523896
 10
160.9466550401
 20
89.9200379269
 10
160.7813650976
 20
89.9820048786
 10
160.6129802535
 20
90.0346264515
 10
160.4414904353
 20
90.0780292726
 10
160.268514012
 20
90.111846316
 10
160.0945904277
 20
90.1359552121
 10
159.9191802023
 20
90.1504782488
 10
159.7422833185
 20
90.1554154064
  0
LINE
  5
381
100
AcDbEntity
  8
DRAFT
100
AcDbLine
 62
7
  6
CONTINUOUS
 10
155.7422449221
 20
83.7554178591
 11
159.7422449221
 21
83.7554178591
  0
LINE
  5
382
100
AcDbEntity
  8
0
100
AcDbLine
 62
7
  6
CONTINUOUS
 10
155.7422449481
 20
83.7554178591
 11
159.7422448833
 21
83.7554178591
  0
LINE
  5
383
100
AcDbEntity
  8
0
100
AcDbLine
 62
7
  6
CONTINUOUS
 10
145.3922449221
 20
76.0554178591
 11
145.3849641732
 21
76.1210038068
  0
LINE
  5
384
100
AcDbEntity
  8
0
100
AcDbLine
 62
7
  6
CONTINUOUS
 10
142.4922449221
 20
120.8554178591
 11
142.499525671
 21
120.7898319114
  0
LINE
  5
385
100
AcDbEntity
  8
0
100
AcDbLine
 62
253
  6
CONTINUOUS
 10
145.3791463434
 20
122.2997554264
 11
145.3849641732
 21
121.7224051572
  0
LINE
  5
386
100
AcDbEntity
  8
0
100
AcDbLine
 62
253
  6
CONTINUOUS
 10
145.3849641732
 20
75.188430561
 11
145.3791463434
 21
74.6110802918
  0
LWPOLYLINE
  5
387
100
AcDbEntity
  8
0
100
AcDbPolyline
 62
253
  6
CONTINUOUS
 90
34
 70
0
 10
145.3791463434
 20
74.2185122071
 10
145.3788627926
 20
74.2066171855
 10
145.3780135876
 20
74.1947491089
 10
145.3766006522
 20
74.182934861
 10
145.3746271869
 20
74.1712012037
 10
145.3720976621
 20
74.1595747165
 10
145.3690178078
 20
74.1480817359
 10
145.3653946004
 20
74.1367482961
 10
145.3612362473
 20
74.1256000698
 10
145.3565521682
 20
74.1146623104
 10
145.3513529736
 20
74.1039597942
 10
145.3456504407
 20
74.093516765
 10
145.3394574872
 20
74.0833568784
 10
145.3327881414
 20
74.0735031489
 10
145.3256575108
 20
74.0639778974
 10
145.318081748
 20
74.0548027007
 10
145.3100780138
 20
74.0459983428
 10
145.3016644384
 20
74.0375847674
 10
145.2928600805
 20
74.0295810332
 10
145.2836848838
 20
74.0220052704
 10
145.2741596323
 20
74.0148746399
 10
145.2643059028
 20
74.008205294
 10
145.2541460162
 20
74.0020123405
 10
145.243702987
 20
73.9963098076
 10
145.2330004708
 20
73.991110613
 10
145.2220627114
 20
73.9864265339
 10
145.2109144851
 20
73.9822681808
 10
145.1995810453
 20
73.9786449734
 10
145.1880880647
 20
73.9755651191
 10
145.1764615775
 20
73.9730355943
 10
145.1647279202
 20
73.971062129
 10
145.1529136723
 20
73.9696491936
 10
145.1410455957
 20
73.9687999887
 10
145.1291505741
 20
73.9685164378
  0
LWPOLYLINE
  5
388
100
AcDbEntity
  8
0
100
AcDbPolyline
 62
7
  6
CONTINUOUS
 90
34
 70
0
 10
145.3922449221
 20
74.2054136283
 10
145.3919617718
 20
74.1935183431
 10
145.3911129563
 20
74.1816500036
 10
145.3897003962
 20
74.169835493
 10
145.3877272898
 20
74.1581015716
 10
145.3851981038
 20
74.1464748203
 10
145.3821185638
 20
74.1349815801
 10
145.3784956434
 20
74.1236478853
 10
145.3743375479
 20
74.1124994098
 10
145.3696536943
 20
74.1015614128
 10
145.3644546909
 20
74.0908586715
 10
145.3587523137
 20
74.0804154309
 10
145.3525594802
 20
74.0702553532
 10
145.3458902176
 20
74.060401454
 10
145.3387596328
 20
74.0508760553
 10
145.3311838809
 20
74.0417007401
 10
145.3231801226
 20
74.032896293
 10
145.3147664882
 20
74.0244826586
 10
145.3059620411
 20
74.0164789003
 10
145.2967867259
 20
74.0089031484
 10
145.2872613272
 20
74.0017725636
 10
145.277407428
 20
73.995103301
 10
145.2672473503
 20
73.9889104675
 10
145.2568041097
 20
73.9832080903
 10
145.2461013684
 20
73.9780090869
 10
145.2351633714
 20
73.9733252333
 10
145.2240148959
 20
73.9691671378
 10
145.2126812011
 20
73.9655442174
 10
145.2011879609
 20
73.9624646774
 10
145.1895612096
 20
73.9599354914
 10
145.1778272882
 20
73.957962385
 10
145.1660127776
 20
73.9565498249
 10
145.1541444381
 20
73.9557010094
 10
145.1422491529
 20
73.9554178591
  0
LINE
  5
389
100
AcDbEntity
  8
RACCORDO
100
AcDbLine
 62
253
  6
CONTINUOUS
 10
124.3629670487
 20
76.9759686482
 11
124.2422449221
 21
76.8552465216
  0
LINE
  5
38A
100
AcDbEntity
  8
RACCORDO
100
AcDbLine
 62
253
  6
CONTINUOUS
 10
124.862795711
 20
76.4761399856
 11
124.7420735846
 21
76.3554178591
  0
LINE
  5
38B
100
AcDbEntity
  8
0
100
AcDbLine
 62
253
  6
CONTINUOUS
 10
172.7291505741
 20
122.9423192804
 11
172.7422491529
 21
122.9554178591
  0
LINE
  5
38C
100
AcDbEntity
  8
0
100
AcDbLine
 62
253
  6
CONTINUOUS
 10
172.9791463434
 20
122.6923235112
 11
172.9922449221
 21
122.7054220899
  0
LINE
  5
38D
100
AcDbEntity
  8
0
100
AcDbLine
 62
253
  6
CONTINUOUS
 10
125.1053435008
 20
74.2185122071
 11
125.0922449221
 21
74.2054136283
  0
LWPOLYLINE
  5
38E
100
AcDbEntity
  8
DRAFT
100
AcDbPolyline
 62
7
  6
CONTINUOUS
 90
55
 70
0
 10
155.7422361247
 20
90.1554178591
 10
155.5571951006
 20
90.150053401
 10
155.3727175953
 20
90.1339988902
 10
155.1894515857
 20
90.1073112577
 10
155.0080052664
 20
90.0700552361
 10
154.828920154
 20
90.0223243244
 10
154.6527425673
 20
89.9642255202
 10
154.4800876548
 20
89.8959484547
 10
154.3116299671
 20
89.8177931955
 10
154.148025296
 20
89.7300484417
 10
153.989794106
 20
89.6329462397
 10
153.8373457886
 20
89.5266984366
 10
153.6911040697
 20
89.4115526809
 10
153.5516345347
 20
89.2879787748
 10
153.4195628394
 20
89.1565631777
 10
153.2954784672
 20
89.0178442971
 10
153.1797108215
 20
88.8721248371
 10
153.0725149414
 20
88.7196692724
 10
152.9741886502
 20
88.5608644941
 10
152.8851675574
 20
88.3964910428
 10
152.8058959454
 20
88.2273826469
 10
152.7367489588
 20
88.0542341062
 10
152.6778670131
 20
87.877329277
 10
152.6293682543
 20
87.6969448781
 10
152.5913911199
 20
87.5136275216
 10
152.564100425
 20
87.3283470313
 10
152.5476605778
 20
87.1420960379
 10
152.5421712162
 20
86.9555759572
 10
152.5476414226
 20
86.7690547386
 10
152.5640688903
 20
86.5827755667
 10
152.5913577361
 20
86.3974218756
 10
152.6293410308
 20
86.2140110953
 10
152.6778473187
 20
86.0335607666
 10
152.7367403857
 20
85.8566141994
 10
152.8059120441
 20
85.683415066
 10
152.8852248107
 20
85.5142357869
 10
152.9742909131
 20
85.349798248
 10
153.0726559375
 20
85.1909527899
 10
153.1798861906
 20
85.0384745466
 10
153.2956858762
 20
84.8927441897
 10
153.4197990677
 20
84.7540237724
 10
153.5518951434
 20
84.6226135804
 10
153.6913859599
 20
84.4990483765
 10
153.8376443894
 20
84.3839155745
 10
153.9901011238
 20
84.2776875965
 10
154.1483332988
 20
84.1806099745
 10
154.3119345014
 20
84.0928907597
 10
154.4803843396
 20
84.014760511
 10
154.6530226601
 20
83.9465089428
 10
154.8291751191
 20
83.8884350237
 10
155.0082278713
 20
83.8407274531
 10
155.1896319109
 20
83.8034927737
 10
155.3728470527
 20
83.7768220375
 10
155.557267685
 20
83.7607782701
 10
155.7422449221
 20
83.7554178591
  0
LWPOLYLINE
  5
38F
100
AcDbEntity
  8
0
100
AcDbPolyline
 62
7
  6
CONTINUOUS
 90
58
 70
0
 10
155.7422065483
 20
90.1554154064
 10
155.5652150367
 20
90.1504637005
 10
155.3897438873
 20
90.1359305107
 10
155.2157930825
 20
90.1118158567
 10
155.0428394676
 20
90.0780000469
 10
154.8714061614
 20
90.0346028547
 10
154.7030625579
 20
89.9819835168
 10
154.5377747673
 20
89.9200101967
 10
154.3755766421
 20
89.8488148972
 10
154.2181391912
 20
89.7691526284
 10
154.0656471339
 20
89.6810272859
 10
153.9179157161
 20
89.5844352102
 10
153.7760617404
 20
89.4801200825
 10
153.6399981659
 20
89.3678991604
 10
153.5098120029
 20
89.2479554852
 10
153.3868811374
 20
89.121581399
 10
153.2714145209
 20
88.9888897268
 10
153.1632031827
 20
88.8497679649
 10
153.062998134
 20
88.7051704334
 10
152.9707288084
 20
88.5548200842
 10
152.8864657642
 20
88.3989943138
 10
152.81117171
 20
88.2394790523
 10
152.7450413767
 20
88.076493661
 10
152.6878800454
 20
87.9098190688
 10
152.6400662608
 20
87.7405834806
 10
152.6016186831
 20
87.5685004672
 10
152.5725186797
 20
87.3938567197
 10
152.5530888655
 20
87.2186400244
 10
152.5434370207
 20
87.0431300081
 10
152.5434554122
 20
86.8670471674
 10
152.5531433925
 20
86.6915404802
 10
152.5726080683
 20
86.5163315508
 10
152.6017423911
 20
86.3416988244
 10
152.6402244852
 20
86.1696264165
 10
152.6880754528
 20
86.0003955489
 10
152.745274256
 20
85.833724868
 10
152.8114358079
 20
85.6707545002
 10
152.886749525
 20
85.5112749509
 10
152.9710260532
 20
85.355495493
 10
153.0633121448
 20
85.2051842882
 10
153.1635470048
 20
85.0606051485
 10
153.2717914762
 20
84.9214938898
 10
153.3872747579
 20
84.7888265792
 10
153.5101906457
 20
84.662505712
 10
153.6403453745
 20
84.5426283781
 10
153.7763867892
 20
84.4304624691
 10
153.9182436152
 20
84.3261771949
 10
154.06598713
 20
84.2296028933
 10
154.2184789918
 20
84.1414991053
 10
154.3758881309
 20
84.0618703768
 10
154.5380455955
 20
83.9907117567
 10
154.703306206
 20
83.9287685329
 10
154.871658558
 20
83.8761667172
 10
155.0431140084
 20
83.8327799814
 10
155.2160615075
 20
83.7989751229
 10
155.3899640157
 20
83.7748743484
 10
155.5653585072
 20
83.7603552766
 10
155.7422449481
 20
83.7554178591
  0
LWPOLYLINE
  5
390
100
AcDbEntity
  8
0
100
AcDbPolyline
 62
7
  6
CONTINUOUS
 90
58
 70
0
 10
155.7422354764
 20
90.9554178591
 10
155.5223001391
 20
90.9493610074
 10
155.3029166698
 20
90.9312139448
 10
155.0847521853
 20
90.9010105229
 10
154.8684108352
 20
90.8587968312
 10
154.6546105558
 20
90.8047065729
 10
154.4441841044
 20
90.7389388408
 10
154.2379032302
 20
90.661751093
 10
154.0362420253
 20
90.5733639711
 10
153.839589951
 20
90.4739246569
 10
153.6483803917
 20
90.363596381
 10
153.4633909536
 20
90.2427895884
 10
153.2855028087
 20
90.1120609021
 10
153.1154332026
 20
89.9720070389
 10
152.9534591318
 20
89.8229374393
 10
152.7997841375
 20
89.6650106859
 10
152.6547005488
 20
89.4984519853
 10
152.518894014
 20
89.3239633741
 10
152.3930979624
 20
89.1424655939
 10
152.2778151978
 20
88.9548396929
 10
152.1731528132
 20
88.761402706
 10
152.0791905346
 20
88.562274736
 10
151.9961072514
 20
88.3577089331
 10
151.9243613713
 20
88.1486325546
 10
151.8643594913
 20
87.9362107931
 10
151.816292173
 20
87.7214918455
 10
151.7801486421
 20
87.5047662602
 10
151.7559432312
 20
87.2860957825
 10
151.7437690741
 20
87.0657524725
 10
151.7437772011
 20
86.8447898804
 10
151.7559680015
 20
86.6244421246
 10
151.7801914457
 20
86.4057610953
 10
151.816355249
 20
86.1890200889
 10
151.8644454399
 20
85.9742842856
 10
151.9244738144
 20
85.7618432509
 10
151.9962507938
 20
85.5527439369
 10
152.0793685445
 20
85.3481557799
 10
152.1733677499
 20
85.149008328
 10
152.2780692147
 20
84.9555556177
 10
152.3933920969
 20
84.7679194278
 10
152.5192282791
 20
84.5864175648
 10
152.6550745845
 20
84.4119301239
 10
152.800196182
 20
84.245377912
 10
152.9539043992
 20
84.0874652662
 10
153.1159046392
 20
83.9384182064
 10
153.2859937837
 20
83.7983927819
 10
153.4638947582
 20
83.6676969181
 10
153.6488879675
 20
83.5469275006
 10
153.8400902357
 20
83.4366405756
 10
154.0367252776
 20
83.3372438413
 10
154.2383604552
 20
83.2488989263
 10
154.4446035101
 20
83.1717529872
 10
154.6549831215
 20
83.1060238203
 10
154.8687299099
 20
83.0519672962
 10
155.0850073021
 20
83.0097826605
 10
155.3030975651
 20
82.9796018905
 10
155.5223991964
 20
82.9614693203
 10
155.7422449221
 20
82.9554178591
  0
LINE
  5
391
100
AcDbEntity
  8
DRAFT
100
AcDbLine
 62
7
  6
CONTINUOUS
 10
159.7422537189
 20
90.1554154105
 11
155.7422361249
 21
90.1554154105
  0
LINE
  5
392
100
AcDbEntity
  8
0
100
AcDbLine
 62
7
  6
CONTINUOUS
 10
159.7422833185
 20
90.1554154064
 11
155.7422065483
 21
90.1554154064
  0
LINE
  5
393
100
AcDbEntity
  8
0
100
AcDbLine
 62
7
  6
CONTINUOUS
 10
159.7422543678
 20
90.955415757
 11
155.7422354764
 21
90.955415757
  0
LINE
  5
394
100
AcDbEntity
  8
0
100
AcDbLine
 62
7
  6
CONTINUOUS
 10
155.7422357206
 20
90.9641476907
 11
159.7422541235
 21
90.9641476907
  0
LWPOLYLINE
  5
395
100
AcDbEntity
  8
0
100
AcDbPolyline
 62
7
  6
CONTINUOUS
 90
58
 70
0
 10
159.7422541235
 20
90.9641476907
 10
159.9637736923
 20
90.9579621632
 10
160.1834090979
 20
90.9397881697
 10
160.401160337
 20
90.9096257427
 10
160.6177340578
 20
90.8672999523
 10
160.8324236052
 20
90.8129858586
 10
161.0431090229
 20
90.7472085039
 10
161.249623773
 20
90.6699167611
 10
161.4521343927
 20
90.5811619996
 10
161.6490205437
 20
90.4816230195
 10
161.8404042778
 20
90.3710942177
 10
162.026163548
 20
90.2497815472
 10
162.2043118711
 20
90.1189811358
 10
162.3745837498
 20
89.97876517
 10
162.5372446929
 20
89.8290618793
 10
162.6911047308
 20
89.6709514305
 10
162.8362772775
 20
89.5041321234
 10
162.9726489338
 20
89.3289061439
 10
163.0986895126
 20
89.1472594275
 10
163.2141230498
 20
88.9594169237
 10
163.3192255264
 20
88.7651541402
 10
163.413294675
 20
88.5657827655
 10
163.4963688291
 20
88.3609300171
 10
163.5684096697
 20
88.1509691419
 10
163.6285999504
 20
87.9383307485
 10
163.6767423444
 20
87.7233609547
 10
163.7130341887
 20
87.5057139551
 10
163.7372502314
 20
87.2867823255
 10
163.7493156863
 20
87.0661750191
 10
163.7493053432
 20
86.8442833308
 10
163.7372183126
 20
86.6236731738
 10
163.7129797327
 20
86.4047349141
 10
163.6766644617
 20
86.1870781819
 10
163.6284961879
 20
85.9720975968
 10
163.5682768017
 20
85.7594463606
 10
163.4962044026
 20
85.549471153
 10
163.4130969916
 20
85.3446066191
 10
163.3189924588
 20
85.1452256539
 10
163.2138528995
 20
84.9509549733
 10
163.0983826229
 20
84.7631097675
 10
162.9723049699
 20
84.5814654115
 10
162.8358965825
 20
84.4062460407
 10
162.6906917231
 20
84.2394398331
 10
162.5368041606
 20
84.0813492629
 10
162.3741201113
 20
83.9316712042
 10
162.2038325101
 20
83.791485312
 10
162.0256762045
 20
83.6607198286
 10
161.8399163354
 20
83.5394458638
 10
161.6485412814
 20
83.4289573081
 10
161.4516740658
 20
83.3294599649
 10
161.2491916604
 20
83.2407474187
 10
161.0427133709
 20
83.1634952054
 10
160.8320724509
 20
83.0977542451
 10
160.6174356475
 20
83.043473159
 10
160.4009225106
 20
83.001174056
 10
160.1832395601
 20
82.971030883
 10
159.9636802829
 20
82.9528694393
 10
159.7422446826
 20
82.9466896619
  0
LINE
  5
396
100
AcDbEntity
  8
RACCORDO
100
AcDbLine
 62
253
  6
CONTINUOUS
 10
124.2422449221
 20
120.0555891966
 11
124.3629670486
 21
119.9348670701
  0
LINE
  5
397
100
AcDbEntity
  8
RACCORDO
100
AcDbLine
 62
253
  6
CONTINUOUS
 10
124.7420735846
 20
120.5554178591
 11
124.8627957111
 21
120.4346957326
  0
LINE
  5
398
100
AcDbEntity
  8
0
100
AcDbLine
 62
253
  6
CONTINUOUS
 10
172.7291505741
 20
73.9685164378
 11
172.7422491529
 21
73.9554178591
  0
LINE
  5
399
100
AcDbEntity
  8
0
100
AcDbLine
 62
253
  6
CONTINUOUS
 10
172.9791463434
 20
74.2185122071
 11
172.9922449221
 21
74.2054136283
  0
LINE
  5
39A
100
AcDbEntity
  8
0
100
AcDbLine
 62
253
  6
CONTINUOUS
 10
125.1053435008
 20
122.6923235112
 11
125.0922449221
 21
122.7054220899
  0
LINE
  5
39B
100
AcDbEntity
  8
0
100
AcDbLine
 62
253
  6
CONTINUOUS
 10
125.35533927
 20
73.9685164378
 11
125.3422406913
 21
73.9554178591
  0
LINE
  5
39C
100
AcDbEntity
  8
0
100
AcDbLine
 62
253
  6
CONTINUOUS
 10
125.35533927
 20
122.9423192804
 11
125.3422406913
 21
122.9554178591
  0
LINE
  5
39D
100
AcDbEntity
  8
0
100
AcDbLine
 62
253
  6
CONTINUOUS
 10
155.7422449221
 20
82.9554178591
 11
155.7422451615
 21
82.9466896619
  0
LINE
  5
39E
100
AcDbEntity
  8
0
100
AcDbLine
 62
253
  6
CONTINUOUS
 10
155.7422354764
 20
90.9554178591
 11
155.7422357207
 21
90.9641497928
  0
LWPOLYLINE
  5
39F
100
AcDbEntity
  8
0
100
AcDbPolyline
 62
7
  6
CONTINUOUS
 90
23
 70
0
 10
146.3496260974
 20
76.3554178591
 10
146.3419478787
 20
76.3386579805
 10
146.3335218981
 20
76.3219457642
 10
146.3244520136
 20
76.3055051393
 10
146.3147838695
 20
76.2894334209
 10
146.3045085861
 20
76.2737316551
 10
146.293635043
 20
76.2583987958
 10
146.2822355229
 20
76.2435290201
 10
146.2703226986
 20
76.2291437578
 10
146.2578838972
 20
76.215221579
 10
146.2449533834
 20
76.2017923712
 10
146.2315321681
 20
76.1888544485
 10
146.2176192405
 20
76.1764094968
 10
146.203245832
 20
76.1644924619
 10
146.1883906435
 20
76.1530909716
 10
146.1730749743
 20
76.1422173981
 10
146.1573939534
 20
76.1319438036
 10
146.1413472565
 20
76.1222794553
 10
146.1249352079
 20
76.113215086
 10
146.1082539107
 20
76.1047949561
 10
146.0913301717
 20
76.097032346
 10
146.074137184
 20
76.0899139753
 10
146.0566906301
 20
76.0834442632
  0
LINE
  5
3A0
100
AcDbEntity
  8
0
100
AcDbLine
 62
7
  6
CONTINUOUS
 10
130.7922449221
 20
74.4554178591
 11
130.8009716668
 21
74.4641446038
  0
LINE
  5
3A1
100
AcDbEntity
  8
DRAFT
100
AcDbLine
 62
7
  6
CONTINUOUS
 10
124.1472004171
 20
98.4554178591
 11
124.2422449221
 21
98.4554178591
  0
LINE
  5
3A2
100
AcDbEntity
  8
DRAFT
100
AcDbLine
 62
7
  6
CONTINUOUS
 10
191.2422449221
 20
98.4554178591
 11
191.3372894271
 21
98.4554178591
  0
LINE
  5
3A3
100
AcDbEntity
  8
0
100
AcDbLine
 62
7
  6
CONTINUOUS
 10
130.7922449221
 20
122.4554178591
 11
130.8009716668
 21
122.4466911144
  0
LWPOLYLINE
  5
3A4
100
AcDbEntity
  8
0
100
AcDbPolyline
 62
7
  6
CONTINUOUS
 90
23
 70
0
 10
146.3509442263
 20
120.5554178591
 10
146.3432775587
 20
120.5721414678
 10
146.3348518082
 20
120.5888424235
 10
146.3257815164
 20
120.6052735902
 10
146.3161119086
 20
120.6213376725
 10
146.3058340433
 20
120.6370337399
 10
146.294956862
 20
120.652362723
 10
146.283552415
 20
120.667230118
 10
146.271633217
 20
120.6816146231
 10
146.2591867532
 20
120.69553754
 10
146.2462475305
 20
120.7089682701
 10
146.2328167261
 20
120.7219082955
 10
146.2188931627
 20
120.7343561341
 10
146.2045078154
 20
120.7462767408
 10
146.18963922
 20
120.7576826073
 10
146.1743088407
 20
120.7685612421
 10
146.1586120447
 20
120.7788401256
 10
146.1425484177
 20
120.7885099824
 10
146.126118374
 20
120.7975800879
 10
146.1094185241
 20
120.8060057502
 10
146.0924757073
 20
120.8137736166
 10
146.0752630844
 20
120.8208970396
 10
146.0577967483
 20
120.8273713851
  0
LINE
  5
3A5
100
AcDbEntity
  8
0
100
AcDbLine
 62
253
  6
CONTINUOUS
 10
159.7422543678
 20
90.955415757
 11
159.7422541235
 21
90.9641476907
  0
LINE
  5
3A6
100
AcDbEntity
  8
0
100
AcDbLine
 62
253
  6
CONTINUOUS
 10
159.7422449221
 20
82.9554178591
 11
159.7422446826
 21
82.9466896619
  0
LWPOLYLINE
  5
3A7
100
AcDbEntity
  8
0
100
AcDbPolyline
 62
7
  6
CONTINUOUS
 90
23
 70
0
 10
169.1348637468
 20
120.5554178591
 10
169.1425419654
 20
120.5721777378
 10
169.1509679461
 20
120.5888899541
 10
169.1600378305
 20
120.605330579
 10
169.1697059747
 20
120.6214022974
 10
169.1799812581
 20
120.6371040632
 10
169.1908548011
 20
120.6524369224
 10
169.2022543212
 20
120.6673066981
 10
169.2141671456
 20
120.6816919605
 10
169.2266059469
 20
120.6956141393
 10
169.2395364608
 20
120.709043347
 10
169.252957676
 20
120.7219812698
 10
169.2668706037
 20
120.7344262215
 10
169.2812440122
 20
120.7463432564
 10
169.2960992006
 20
120.7577447467
 10
169.3114148699
 20
120.7686183202
 10
169.3270958907
 20
120.7788919147
 10
169.3431425877
 20
120.788556263
 10
169.3595546363
 20
120.7976206323
 10
169.3762359335
 20
120.8060407622
 10
169.3931596725
 20
120.8138033723
 10
169.4103526601
 20
120.820921743
 10
169.4277992141
 20
120.827391455
  0
LINE
  5
3A8
100
AcDbEntity
  8
0
100
AcDbLine
 62
7
  6
CONTINUOUS
 10
184.6835181774
 20
122.4466911144
 11
184.6922449221
 21
122.4554178591
  0
LINE
  5
3A9
100
AcDbEntity
  8
0
100
AcDbLine
 62
7
  6
CONTINUOUS
 10
184.6922449221
 20
74.4554178591
 11
184.6835181774
 21
74.4641446038
  0
LWPOLYLINE
  5
3AA
100
AcDbEntity
  8
0
100
AcDbPolyline
 62
7
  6
CONTINUOUS
 90
23
 70
0
 10
169.1335456178
 20
76.3554178591
 10
169.1412122855
 20
76.3386942504
 10
169.149638036
 20
76.3219932947
 10
169.1587083278
 20
76.3055621281
 10
169.1683779356
 20
76.2894980458
 10
169.1786558009
 20
76.2738019783
 10
169.1895329822
 20
76.2584729952
 10
169.2009374291
 20
76.2436056003
 10
169.2128566272
 20
76.2292210952
 10
169.225303091
 20
76.2152981783
 10
169.2382423137
 20
76.2018674481
 10
169.2516731181
 20
76.1889274228
 10
169.2655966814
 20
76.1764795842
 10
169.2799820287
 20
76.1645589774
 10
169.2948506241
 20
76.1531531109
 10
169.3101810034
 20
76.1422744762
 10
169.3258777994
 20
76.1319955926
 10
169.3419414265
 20
76.1223257359
 10
169.3583714702
 20
76.1132556303
 10
169.37507132
 20
76.1048299681
 10
169.3920141368
 20
76.0970621017
 10
169.4092267598
 20
76.0899386786
 10
169.4266930958
 20
76.0834643331
  0
LINE
  5
3AB
100
AcDbEntity
  8
0
100
AcDbLine
 62
253
  6
CONTINUOUS
 10
190.1291505741
 20
122.9423192804
 11
190.1422491529
 21
122.9554178591
  0
LINE
  5
3AC
100
AcDbEntity
  8
0
100
AcDbLine
 62
253
  6
CONTINUOUS
 10
190.3791463434
 20
122.6923235112
 11
190.3922449221
 21
122.7054220899
  0
LINE
  5
3AD
100
AcDbEntity
  8
0
100
AcDbLine
 62
253
  6
CONTINUOUS
 10
142.5053435008
 20
74.2185122071
 11
142.4922449221
 21
74.2054136283
  0
LINE
  5
3AE
100
AcDbEntity
  8
0
100
AcDbLine
 62
253
  6
CONTINUOUS
 10
190.1291505741
 20
73.9685164378
 11
190.1422491529
 21
73.9554178591
  0
LINE
  5
3AF
100
AcDbEntity
  8
0
100
AcDbLine
 62
253
  6
CONTINUOUS
 10
190.3791463434
 20
74.2185122071
 11
190.3922449221
 21
74.2054136283
  0
LINE
  5
3B0
100
AcDbEntity
  8
0
100
AcDbLine
 62
253
  6
CONTINUOUS
 10
142.5053435008
 20
122.6923235112
 11
142.4922449221
 21
122.7054220899
  0
LINE
  5
3B1
100
AcDbEntity
  8
0
100
AcDbLine
 62
253
  6
CONTINUOUS
 10
142.75533927
 20
73.9685164378
 11
142.7422406913
 21
73.9554178591
  0
LINE
  5
3B2
100
AcDbEntity
  8
RACCORDO
100
AcDbLine
 62
253
  6
CONTINUOUS
 10
190.6216941331
 20
120.4346957327
 11
190.7424162596
 21
120.5554178591
  0
LINE
  5
3B3
100
AcDbEntity
  8
RACCORDO
100
AcDbLine
 62
253
  6
CONTINUOUS
 10
191.1215227955
 20
119.93486707
 11
191.2422449221
 21
120.0555891966
  0
LINE
  5
3B4
100
AcDbEntity
  8
0
100
AcDbLine
 62
253
  6
CONTINUOUS
 10
142.75533927
 20
122.9423192804
 11
142.7422406913
 21
122.9554178591
  0
LINE
  5
3B5
100
AcDbEntity
  8
RACCORDO
100
AcDbLine
 62
253
  6
CONTINUOUS
 10
190.7424162596
 20
76.3554178591
 11
190.6216941331
 21
76.4761399857
  0
LINE
  5
3B6
100
AcDbEntity
  8
RACCORDO
100
AcDbLine
 62
253
  6
CONTINUOUS
 10
191.2422449221
 20
76.8552465216
 11
191.1215227955
 21
76.9759686481
  0
LINE
  5
3B7
100
AcDbEntity
  8
0
100
AcDbLine
 62
253
  6
CONTINUOUS
 10
170.1053435008
 20
74.6110802918
 11
170.099525671
 21
75.188430561
  0
LINE
  5
3B8
100
AcDbEntity
  8
0
100
AcDbLine
 62
253
  6
CONTINUOUS
 10
170.35533927
 20
74.8275866428
 11
170.3502486689
 21
75.3327681283
  0
LINE
  5
3B9
100
AcDbEntity
  8
0
100
AcDbLine
 62
7
  6
CONTINUOUS
 10
170.0922449221
 20
74.2054136283
 11
170.0922449221
 21
76.0554178591
  0
LINE
  5
3BA
100
AcDbEntity
  8
0
100
AcDbLine
 62
7
  6
CONTINUOUS
 10
170.0922449221
 20
120.8554178591
 11
170.0922449221
 21
122.7054220899
  0
LINE
  5
3BB
100
AcDbEntity
  8
0
100
AcDbLine
 62
253
  6
CONTINUOUS
 10
170.099525671
 20
121.7224051572
 11
170.099525671
 21
120.7898319114
  0
LINE
  5
3BC
100
AcDbEntity
  8
0
100
AcDbLine
 62
253
  6
CONTINUOUS
 10
170.099525671
 20
76.1210038068
 11
170.099525671
 21
75.188430561
  0
LINE
  5
3BD
100
AcDbEntity
  8
0
100
AcDbLine
 62
253
  6
CONTINUOUS
 10
170.1053435008
 20
122.6923235112
 11
170.1053435008
 21
122.2997554264
  0
LINE
  5
3BE
100
AcDbEntity
  8
0
100
AcDbLine
 62
253
  6
CONTINUOUS
 10
170.1053435008
 20
74.6110802918
 11
170.1053435008
 21
74.2185122071
  0
LINE
  5
3BF
100
AcDbEntity
  8
0
100
AcDbLine
 62
253
  6
CONTINUOUS
 10
170.3495214402
 20
121.5780675899
 11
170.3495214402
 21
120.7768061902
  0
LINE
  5
3C0
100
AcDbEntity
  8
0
100
AcDbLine
 62
253
  6
CONTINUOUS
 10
170.3495214402
 20
76.1340295281
 11
170.3495214402
 21
75.3327681283
  0
LINE
  5
3C1
100
AcDbEntity
  8
0
100
AcDbLine
 62
253
  6
CONTINUOUS
 10
170.35533927
 20
73.9685164378
 11
170.35533927
 21
74.8275866428
  0
LINE
  5
3C2
100
AcDbEntity
  8
0
100
AcDbLine
 62
253
  6
CONTINUOUS
 10
170.35533927
 20
122.0832490755
 11
170.35533927
 21
122.9423192804
  0
LINE
  5
3C3
100
AcDbEntity
  8
0
100
AcDbLine
 62
253
  6
CONTINUOUS
 10
170.099525671
 20
121.7224051572
 11
170.1053435008
 21
122.2997554264
  0
LINE
  5
3C4
100
AcDbEntity
  8
0
100
AcDbLine
 62
253
  6
CONTINUOUS
 10
170.3502486689
 20
121.5780675899
 11
170.35533927
 21
122.0832490755
  0
LWPOLYLINE
  5
3C5
100
AcDbEntity
  8
0
100
AcDbPolyline
 62
7
  6
CONTINUOUS
 90
34
 70
0
 10
170.0922449221
 20
122.7054220899
 10
170.0925280723
 20
122.7173173751
 10
170.0933768878
 20
122.7291857147
 10
170.0947894479
 20
122.7410002253
 10
170.0967625544
 20
122.7527341466
 10
170.0992917404
 20
122.7643608979
 10
170.1023712804
 20
122.7758541381
 10
170.1059942007
 20
122.7871878329
 10
170.1101522963
 20
122.7983363084
 10
170.1148361499
 20
122.8092743054
 10
170.1200351533
 20
122.8199770467
 10
170.1257375304
 20
122.8304202874
 10
170.1319303639
 20
122.840580365
 10
170.1385996266
 20
122.8504342642
 10
170.1457302114
 20
122.859959663
 10
170.1533059632
 20
122.8691349782
 10
170.1613097216
 20
122.8779394252
 10
170.169723356
 20
122.8863530596
 10
170.178527803
 20
122.894356818
 10
170.1877031182
 20
122.9019325698
 10
170.197228517
 20
122.9090631546
 10
170.2070824162
 20
122.9157324173
 10
170.2172424938
 20
122.9219252508
 10
170.2276857345
 20
122.927627628
 10
170.2383884758
 20
122.9328266313
 10
170.2493264728
 20
122.9375104849
 10
170.2604749483
 20
122.9416685805
 10
170.2718086431
 20
122.9452915008
 10
170.2833018833
 20
122.9483710408
 10
170.2949286346
 20
122.9509002268
 10
170.3066625559
 20
122.9528733333
 10
170.3184770665
 20
122.9542858934
 10
170.3303454061
 20
122.9551347089
 10
170.3422406913
 20
122.9554178591
  0
LWPOLYLINE
  5
3C6
100
AcDbEntity
  8
0
100
AcDbPolyline
 62
253
  6
CONTINUOUS
 90
34
 70
0
 10
170.1053435008
 20
122.6923235112
 10
170.1056271297
 20
122.7042201701
 10
170.1064765698
 20
122.7160898884
 10
170.1078898986
 20
122.7279057707
 10
170.1098639172
 20
122.7396410504
 10
170.1123941542
 20
122.7512691298
 10
170.1154748728
 20
122.7627636408
 10
170.11909909
 20
122.7740985333
 10
170.1232585942
 20
122.7852481297
 10
170.1279439586
 20
122.7961871632
 10
170.1331445662
 20
122.8068908496
 10
170.1388486315
 20
122.8173349348
 10
170.1450432238
 20
122.827495747
 10
170.1517143038
 20
122.8373502631
 10
170.1588467549
 20
122.8468761573
 10
170.1664244114
 20
122.8560518443
 10
170.1744301056
 20
122.8648565399
 10
170.1828456918
 20
122.8732702915
 10
170.1916520834
 20
122.881274023
 10
170.2008292966
 20
122.8888495839
 10
170.2103565581
 20
122.8959798373
 10
170.2202123428
 20
122.9026486745
 10
170.2303744184
 20
122.9088410369
 10
170.2408196719
 20
122.9145428254
 10
170.2515242067
 20
122.9197410107
 10
170.2624636078
 20
122.9244237843
 10
170.2736132198
 20
122.9285806387
 10
170.2849479849
 20
122.9322022485
 10
170.2964439505
 20
122.9352808271
 10
170.3080733858
 20
122.937808817
 10
170.3198048804
 20
122.939779763
 10
170.3316100559
 20
122.941189759
 10
170.3434637985
 20
122.9420366608
 10
170.35533927
 20
122.9423192804
  0
LINE
  5
3C7
100
AcDbEntity
  8
0
100
AcDbLine
 62
7
  6
CONTINUOUS
 10
172.9922449221
 20
120.8554178591
 11
172.9849641732
 21
120.7898319114
  0
LINE
  5
3C8
100
AcDbEntity
  8
0
100
AcDbLine
 62
7
  6
CONTINUOUS
 10
172.9922449221
 20
76.0554178591
 11
172.9849641732
 21
76.1210038068
  0
LWPOLYLINE
  5
3C9
100
AcDbEntity
  8
0
100
AcDbPolyline
 62
7
  6
CONTINUOUS
 90
46
 70
0
 10
170.099525671
 20
121.7224051572
 10
170.0996979223
 20
121.717826503
 10
170.1001239981
 20
121.7132311955
 10
170.1008062157
 20
121.7086263465
 10
170.1017466169
 20
121.7040218756
 10
170.1029469836
 20
121.6994224893
 10
170.1044089226
 20
121.694827686
 10
170.1061337233
 20
121.690245264
 10
170.1081224075
 20
121.6856828065
 10
170.1103759277
 20
121.681139693
 10
170.112894758
 20
121.6766240553
 10
170.1156790964
 20
121.6721438139
 10
170.1187292318
 20
121.6676982345
 10
170.1220447643
 20
121.6632957409
 10
170.1256250138
 20
121.6589445446
 10
170.1294696025
 20
121.654643801
 10
170.1335772106
 20
121.6504021675
 10
170.1379462137
 20
121.6462281142
 10
170.1425755252
 20
121.6421207322
 10
170.1474628431
 20
121.6380888615
 10
170.1526055315
 20
121.6341411784
 10
170.1580017307
 20
121.6302767541
 10
170.1636480918
 20
121.6265045459
 10
170.1695408882
 20
121.6228333803
 10
170.1756773854
 20
121.6192623599
 10
170.1820531157
 20
121.6158004793
 10
170.1886631748
 20
121.6124566458
 10
170.1955038119
 20
121.6092300449
 10
170.2025693614
 20
121.6061296098
 10
170.2098536498
 20
121.6031642377
 10
170.2173517351
 20
121.6003332429
 10
170.2250566691
 20
121.5976453725
 10
170.2329609222
 20
121.5951093971
 10
170.2410581731
 20
121.5927247882
 10
170.2493400749
 20
121.5904999644
 10
170.2577977005
 20
121.5884434096
 10
170.2664232784
 20
121.5865547358
 10
170.2752070139
 20
121.5848418549
 10
170.2841385194
 20
121.5833128012
 10
170.2932084947
 20
121.58196732
 10
170.3023923822
 20
121.5808148572
 10
170.3116914104
 20
121.5798596987
 10
170.3211350716
 20
121.5790976101
 10
170.3307250428
 20
121.5785359936
 10
170.3404342633
 20
121.5781893215
 10
170.3502486689
 20
121.5780675899
  0
LWPOLYLINE
  5
3CA
100
AcDbEntity
  8
0
100
AcDbPolyline
 62
7
  6
CONTINUOUS
 90
46
 70
0
 10
172.9849641732
 20
75.188430561
 10
172.9847919219
 20
75.1930092153
 10
172.984365846
 20
75.1976045228
 10
172.9836836285
 20
75.2022093718
 10
172.9827432272
 20
75.2068138427
 10
172.9815428606
 20
75.211413229
 10
172.9800809216
 20
75.2160080323
 10
172.9783561209
 20
75.2205904543
 10
172.9763674367
 20
75.2251529117
 10
172.9741139165
 20
75.2296960252
 10
172.9715950862
 20
75.234211663
 10
172.9688107478
 20
75.2386919043
 10
172.9657606124
 20
75.2431374837
 10
172.9624450799
 20
75.2475399774
 10
172.9588648304
 20
75.2518911737
 10
172.9550202417
 20
75.2561919173
 10
172.9509126336
 20
75.2604335507
 10
172.9465436305
 20
75.2646076041
 10
172.941914319
 20
75.2687149861
 10
172.937027001
 20
75.2727468568
 10
172.9318843126
 20
75.2766945399
 10
172.9264881135
 20
75.2805589641
 10
172.9208417524
 20
75.2843311724
 10
172.914948956
 20
75.2880023379
 10
172.9088124588
 20
75.2915733584
 10
172.9024367284
 20
75.2950352389
 10
172.8958266694
 20
75.2983790725
 10
172.8889860323
 20
75.3016056734
 10
172.8819204828
 20
75.3047061085
 10
172.8746361943
 20
75.3076714805
 10
172.867138109
 20
75.3105024754
 10
172.859433175
 20
75.3131903457
 10
172.851528922
 20
75.3157263211
 10
172.8434316711
 20
75.3181109301
 10
172.8351497693
 20
75.3203357538
 10
172.8266921436
 20
75.3223923086
 10
172.8180665658
 20
75.3242809824
 10
172.8092828303
 20
75.3259938634
 10
172.8003513248
 20
75.327522917
 10
172.7912813494
 20
75.3288683983
 10
172.782097462
 20
75.3300208611
 10
172.7727984337
 20
75.3309760196
 10
172.7633547726
 20
75.3317381081
 10
172.7537648014
 20
75.3322997247
 10
172.7440555809
 20
75.3326463968
 10
172.7342411752
 20
75.3327681283
  0
LWPOLYLINE
  5
3CB
100
AcDbEntity
  8
0
100
AcDbPolyline
 62
253
  6
CONTINUOUS
 90
34
 70
0
 10
170.1053435008
 20
122.2997554264
 10
170.1056601515
 20
122.2894726589
 10
170.1065403133
 20
122.2792130989
 10
170.1079819996
 20
122.2689999018
 10
170.1099819566
 20
122.2588561181
 10
170.1125356706
 20
122.2488046417
 10
170.115637378
 20
122.2388681582
 10
170.1192800784
 20
122.2290690937
 10
170.1234555505
 20
122.2194295641
 10
170.1281543704
 20
122.2099713252
 10
170.1333659332
 20
122.2007157237
 10
170.1390784767
 20
122.1916836489
 10
170.1452791081
 20
122.1828954858
 10
170.1519538328
 20
122.1743710687
 10
170.1590875865
 20
122.1661296366
 10
170.1666642686
 20
122.1581897901
 10
170.1746667791
 20
122.1505694489
 10
170.1830770567
 20
122.1432858116
 10
170.1918761199
 20
122.1363553169
 10
170.2010441098
 20
122.1297936067
 10
170.2105603348
 20
122.1236154902
 10
170.2204033173
 20
122.1178349112
 10
170.2305508422
 20
122.1124649161
 10
170.2409800073
 20
122.1075176245
 10
170.2516672744
 20
122.1030042024
 10
170.2625885232
 20
122.0989348361
 10
170.2737191049
 20
122.09531871
 10
170.2850338985
 20
122.0921639855
 10
170.2965073671
 20
122.0894777827
 10
170.3081136159
 20
122.087266164
 10
170.3198264502
 20
122.0855341211
 10
170.3316194348
 20
122.084285563
 10
170.3434659537
 20
122.0835233077
 10
170.35533927
 20
122.0832490755
  0
LWPOLYLINE
  5
3CC
100
AcDbEntity
  8
0
100
AcDbPolyline
 62
253
  6
CONTINUOUS
 90
34
 70
0
 10
172.9791463434
 20
74.6110802918
 10
172.9788296926
 20
74.6213630594
 10
172.9779495309
 20
74.6316226193
 10
172.9765078446
 20
74.6418358164
 10
172.9745078875
 20
74.6519796001
 10
172.9719541735
 20
74.6620310765
 10
172.9688524661
 20
74.67196756
 10
172.9652097657
 20
74.6817666245
 10
172.9610342937
 20
74.6914061542
 10
172.9563354738
 20
74.7008643931
 10
172.9511239109
 20
74.7101199946
 10
172.9454113674
 20
74.7191520693
 10
172.939210736
 20
74.7279402324
 10
172.9325360113
 20
74.7364646496
 10
172.9254022576
 20
74.7447060816
 10
172.9178255755
 20
74.7526459281
 10
172.9098230651
 20
74.7602662694
 10
172.9014127875
 20
74.7675499067
 10
172.8926137242
 20
74.7744804013
 10
172.8834457343
 20
74.7810421116
 10
172.8739295094
 20
74.787220228
 10
172.8640865269
 20
74.793000807
 10
172.8539390019
 20
74.7983708022
 10
172.8435098369
 20
74.8033180937
 10
172.8328225697
 20
74.8078315159
 10
172.821901321
 20
74.8119008822
 10
172.8107707393
 20
74.8155170083
 10
172.7994559457
 20
74.8186717327
 10
172.787982477
 20
74.8213579356
 10
172.7763762283
 20
74.8235695542
 10
172.764663394
 20
74.8253015971
 10
172.7528704093
 20
74.8265501552
 10
172.7410238904
 20
74.8273124106
 10
172.7291505741
 20
74.8275866428
  0
LINE
  5
3CD
100
AcDbEntity
  8
0
100
AcDbLine
 62
253
  6
CONTINUOUS
 10
172.7291505741
 20
122.0832490755
 11
172.7342411752
 21
121.5780675899
  0
LINE
  5
3CE
100
AcDbEntity
  8
0
100
AcDbLine
 62
253
  6
CONTINUOUS
 10
172.9791463434
 20
122.2997554264
 11
172.9849641732
 21
121.7224051572
  0
LINE
  5
3CF
100
AcDbEntity
  8
0
100
AcDbLine
 62
253
  6
CONTINUOUS
 10
172.7291505741
 20
73.9685164378
 11
172.7291505741
 21
74.8275866428
  0
LINE
  5
3D0
100
AcDbEntity
  8
0
100
AcDbLine
 62
253
  6
CONTINUOUS
 10
172.7291505741
 20
122.0832490755
 11
172.7291505741
 21
122.9423192804
  0
LINE
  5
3D1
100
AcDbEntity
  8
0
100
AcDbLine
 62
253
  6
CONTINUOUS
 10
172.734968404
 20
75.3327681283
 11
172.734968404
 21
76.1340295281
  0
LINE
  5
3D2
100
AcDbEntity
  8
0
100
AcDbLine
 62
253
  6
CONTINUOUS
 10
172.734968404
 20
120.7768061902
 11
172.734968404
 21
121.5780675899
  0
LINE
  5
3D3
100
AcDbEntity
  8
0
100
AcDbLine
 62
253
  6
CONTINUOUS
 10
172.9791463434
 20
74.2185122071
 11
172.9791463434
 21
74.6110802918
  0
LINE
  5
3D4
100
AcDbEntity
  8
0
100
AcDbLine
 62
253
  6
CONTINUOUS
 10
172.9791463434
 20
122.2997554264
 11
172.9791463434
 21
122.6923235112
  0
LINE
  5
3D5
100
AcDbEntity
  8
0
100
AcDbLine
 62
253
  6
CONTINUOUS
 10
172.9849641732
 20
75.188430561
 11
172.9849641732
 21
76.1210038068
  0
LINE
  5
3D6
100
AcDbEntity
  8
0
100
AcDbLine
 62
253
  6
CONTINUOUS
 10
172.9849641732
 20
120.7898319114
 11
172.9849641732
 21
121.7224051572
  0
LINE
  5
3D7
100
AcDbEntity
  8
0
100
AcDbLine
 62
7
  6
CONTINUOUS
 10
172.9922449221
 20
74.2054136283
 11
172.9922449221
 21
76.0554178591
  0
LINE
  5
3D8
100
AcDbEntity
  8
0
100
AcDbLine
 62
7
  6
CONTINUOUS
 10
172.9922449221
 20
120.8554178591
 11
172.9922449221
 21
122.7054220899
  0
LINE
  5
3D9
100
AcDbEntity
  8
0
100
AcDbLine
 62
253
  6
CONTINUOUS
 10
172.7342411752
 20
75.3327681283
 11
172.7291505741
 21
74.8275866428
  0
LINE
  5
3DA
100
AcDbEntity
  8
0
100
AcDbLine
 62
253
  6
CONTINUOUS
 10
172.9849641732
 20
75.188430561
 11
172.9791463434
 21
74.6110802918
  0
LWPOLYLINE
  5
3DB
100
AcDbEntity
  8
0
100
AcDbPolyline
 62
253
  6
CONTINUOUS
 90
34
 70
0
 10
172.9791463434
 20
74.2185122071
 10
172.9788627926
 20
74.2066171855
 10
172.9780135876
 20
74.1947491089
 10
172.9766006522
 20
74.182934861
 10
172.9746271869
 20
74.1712012037
 10
172.9720976621
 20
74.1595747165
 10
172.9690178078
 20
74.1480817359
 10
172.9653946004
 20
74.1367482961
 10
172.9612362473
 20
74.1256000698
 10
172.9565521682
 20
74.1146623104
 10
172.9513529736
 20
74.1039597942
 10
172.9456504407
 20
74.093516765
 10
172.9394574872
 20
74.0833568784
 10
172.9327881414
 20
74.0735031489
 10
172.9256575108
 20
74.0639778974
 10
172.918081748
 20
74.0548027007
 10
172.9100780138
 20
74.0459983428
 10
172.9016644384
 20
74.0375847674
 10
172.8928600805
 20
74.0295810332
 10
172.8836848838
 20
74.0220052704
 10
172.8741596323
 20
74.0148746399
 10
172.8643059028
 20
74.008205294
 10
172.8541460162
 20
74.0020123405
 10
172.843702987
 20
73.9963098076
 10
172.8330004708
 20
73.991110613
 10
172.8220627114
 20
73.9864265339
 10
172.8109144851
 20
73.9822681808
 10
172.7995810453
 20
73.9786449734
 10
172.7880880647
 20
73.9755651191
 10
172.7764615775
 20
73.9730355943
 10
172.7647279202
 20
73.971062129
 10
172.7529136723
 20
73.9696491936
 10
172.7410455957
 20
73.9687999887
 10
172.7291505741
 20
73.9685164378
  0
LWPOLYLINE
  5
3DC
100
AcDbEntity
  8
0
100
AcDbPolyline
 62
7
  6
CONTINUOUS
 90
34
 70
0
 10
172.9922449221
 20
74.2054136283
 10
172.9919617718
 20
74.1935183431
 10
172.9911129563
 20
74.1816500036
 10
172.9897003962
 20
74.169835493
 10
172.9877272898
 20
74.1581015716
 10
172.9851981038
 20
74.1464748203
 10
172.9821185638
 20
74.1349815801
 10
172.9784956434
 20
74.1236478853
 10
172.9743375479
 20
74.1124994098
 10
172.9696536943
 20
74.1015614128
 10
172.9644546909
 20
74.0908586715
 10
172.9587523137
 20
74.0804154309
 10
172.9525594802
 20
74.0702553532
 10
172.9458902176
 20
74.060401454
 10
172.9387596328
 20
74.0508760553
 10
172.9311838809
 20
74.0417007401
 10
172.9231801226
 20
74.032896293
 10
172.9147664882
 20
74.0244826586
 10
172.9059620411
 20
74.0164789003
 10
172.8967867259
 20
74.0089031484
 10
172.8872613272
 20
74.0017725636
 10
172.877407428
 20
73.995103301
 10
172.8672473503
 20
73.9889104675
 10
172.8568041097
 20
73.9832080903
 10
172.8461013684
 20
73.9780090869
 10
172.8351633714
 20
73.9733252333
 10
172.8240148959
 20
73.9691671378
 10
172.8126812011
 20
73.9655442174
 10
172.8011879609
 20
73.9624646774
 10
172.7895612096
 20
73.9599354914
 10
172.7778272882
 20
73.957962385
 10
172.7660127776
 20
73.9565498249
 10
172.7541444381
 20
73.9557010094
 10
172.7422491529
 20
73.9554178591
  0
LWPOLYLINE
  5
3DD
100
AcDbEntity
  8
0
100
AcDbPolyline
 62
253
  6
CONTINUOUS
 90
34
 70
0
 10
170.1053435008
 20
74.6110802918
 10
170.105659628
 20
74.6213540696
 10
170.1065385403
 20
74.6316069801
 10
170.1079786318
 20
74.6418158899
 10
170.1099771977
 20
74.6519584892
 10
170.1125300136
 20
74.6620110788
 10
170.1156309337
 20
74.6719486995
 10
170.1192726417
 20
74.6817481317
 10
170.1234471471
 20
74.6913880675
 10
170.1281451277
 20
74.7008469381
 10
170.1333560843
 20
74.710103505
 10
170.1390682254
 20
74.7191367335
 10
170.1452685577
 20
74.7279260448
 10
170.1519430337
 20
74.7364515365
 10
170.1590766315
 20
74.7446940304
 10
170.1666532655
 20
74.7526349377
 10
170.1746558478
 20
74.7602563424
 10
170.1830663061
 20
74.7675410267
 10
170.1918656385
 20
74.77447253
 10
170.2010339753
 20
74.781035201
 10
170.2105506272
 20
74.787214231
 10
170.2203941122
 20
74.7929956723
 10
170.230542211
 20
74.7983664742
 10
170.2409720159
 20
74.8033145132
 10
170.2516599833
 20
74.8078286198
 10
170.2625819999
 20
74.8118986086
 10
170.2737133991
 20
74.815515287
 10
170.2850290135
 20
74.8186704806
 10
170.2965032714
 20
74.8213570664
 10
170.3081102971
 20
74.8235689929
 10
170.3198239308
 20
74.8253012777
 10
170.3316177457
 20
74.8265500115
 10
170.3434651063
 20
74.8273123735
 10
170.35533927
 20
74.8275866428
  0
LWPOLYLINE
  5
3DE
100
AcDbEntity
  8
0
100
AcDbPolyline
 62
253
  6
CONTINUOUS
 90
34
 70
0
 10
172.9791463434
 20
122.2997554264
 10
172.9788302162
 20
122.2894816486
 10
172.9779513039
 20
122.2792287382
 10
172.9765112124
 20
122.2690198283
 10
172.9745126464
 20
122.258877229
 10
172.9719598305
 20
122.2488246394
 10
172.9688589104
 20
122.2388870188
 10
172.9652172024
 20
122.2290875865
 10
172.961042697
 20
122.2194476507
 10
172.9563447164
 20
122.2099887802
 10
172.9511337599
 20
122.2007322132
 10
172.9454216187
 20
122.1916989847
 10
172.9392212865
 20
122.1829096734
 10
172.9325468104
 20
122.1743841817
 10
172.9254132126
 20
122.1661416878
 10
172.9178365786
 20
122.1582007805
 10
172.9098339964
 20
122.1505793759
 10
172.9014235381
 20
122.1432946916
 10
172.8926242057
 20
122.1363631883
 10
172.8834558688
 20
122.1298005172
 10
172.873939217
 20
122.1236214872
 10
172.8640957319
 20
122.117840046
 10
172.8539476332
 20
122.112469244
 10
172.8435178283
 20
122.107521205
 10
172.8328298609
 20
122.1030070985
 10
172.8219078442
 20
122.0989371096
 10
172.8107764451
 20
122.0953204313
 10
172.7994608307
 20
122.0921652377
 10
172.7879865728
 20
122.0894786519
 10
172.7763795471
 20
122.0872667253
 10
172.7646659134
 20
122.0855344406
 10
172.7528720985
 20
122.0842857067
 10
172.7410247379
 20
122.0835233447
 10
172.7291505741
 20
122.0832490755
  0
LWPOLYLINE
  5
3DF
100
AcDbEntity
  8
0
100
AcDbPolyline
 62
7
  6
CONTINUOUS
 90
46
 70
0
 10
170.099525671
 20
75.188430561
 10
170.0996979223
 20
75.1930092153
 10
170.1001239981
 20
75.1976045228
 10
170.1008062157
 20
75.2022093718
 10
170.1017466169
 20
75.2068138427
 10
170.1029469836
 20
75.211413229
 10
170.1044089226
 20
75.2160080323
 10
170.1061337233
 20
75.2205904543
 10
170.1081224075
 20
75.2251529117
 10
170.1103759277
 20
75.2296960252
 10
170.112894758
 20
75.234211663
 10
170.1156790964
 20
75.2386919043
 10
170.1187292318
 20
75.2431374837
 10
170.1220447643
 20
75.2475399774
 10
170.1256250138
 20
75.2518911737
 10
170.1294696025
 20
75.2561919173
 10
170.1335772106
 20
75.2604335507
 10
170.1379462137
 20
75.2646076041
 10
170.1425755252
 20
75.2687149861
 10
170.1474628431
 20
75.2727468568
 10
170.1526055315
 20
75.2766945399
 10
170.1580017307
 20
75.2805589641
 10
170.1636480918
 20
75.2843311724
 10
170.1695408882
 20
75.2880023379
 10
170.1756773854
 20
75.2915733584
 10
170.1820531157
 20
75.2950352389
 10
170.1886631748
 20
75.2983790725
 10
170.1955038119
 20
75.3016056734
 10
170.2025693614
 20
75.3047061085
 10
170.2098536498
 20
75.3076714805
 10
170.2173517351
 20
75.3105024754
 10
170.2250566691
 20
75.3131903457
 10
170.2329609222
 20
75.3157263211
 10
170.2410581731
 20
75.3181109301
 10
170.2493400749
 20
75.3203357538
 10
170.2577977005
 20
75.3223923086
 10
170.2664232784
 20
75.3242809824
 10
170.2752070139
 20
75.3259938634
 10
170.2841385194
 20
75.327522917
 10
170.2932084947
 20
75.3288683983
 10
170.3023923822
 20
75.3300208611
 10
170.3116914104
 20
75.3309760196
 10
170.3211350716
 20
75.3317381081
 10
170.3307250428
 20
75.3322997247
 10
170.3404342633
 20
75.3326463968
 10
170.3502486689
 20
75.3327681283
  0
LWPOLYLINE
  5
3E0
100
AcDbEntity
  8
0
100
AcDbPolyline
 62
7
  6
CONTINUOUS
 90
46
 70
0
 10
172.9849641732
 20
121.7224051572
 10
172.9847919219
 20
121.717826503
 10
172.984365846
 20
121.7132311955
 10
172.9836836285
 20
121.7086263465
 10
172.9827432272
 20
121.7040218756
 10
172.9815428606
 20
121.6994224893
 10
172.9800809216
 20
121.694827686
 10
172.9783561209
 20
121.690245264
 10
172.9763674367
 20
121.6856828065
 10
172.9741139165
 20
121.681139693
 10
172.9715950862
 20
121.6766240553
 10
172.9688107478
 20
121.6721438139
 10
172.9657606124
 20
121.6676982345
 10
172.9624450799
 20
121.6632957409
 10
172.9588648304
 20
121.6589445446
 10
172.9550202417
 20
121.654643801
 10
172.9509126336
 20
121.6504021675
 10
172.9465436305
 20
121.6462281142
 10
172.941914319
 20
121.6421207322
 10
172.937027001
 20
121.6380888615
 10
172.9318843126
 20
121.6341411784
 10
172.9264881135
 20
121.6302767541
 10
172.9208417524
 20
121.6265045459
 10
172.914948956
 20
121.6228333803
 10
172.9088124588
 20
121.6192623599
 10
172.9024367284
 20
121.6158004793
 10
172.8958266694
 20
121.6124566458
 10
172.8889860323
 20
121.6092300449
 10
172.8819204828
 20
121.6061296098
 10
172.8746361943
 20
121.6031642377
 10
172.867138109
 20
121.6003332429
 10
172.859433175
 20
121.5976453725
 10
172.851528922
 20
121.5951093971
 10
172.8434316711
 20
121.5927247882
 10
172.8351497693
 20
121.5904999644
 10
172.8266921436
 20
121.5884434096
 10
172.8180665658
 20
121.5865547358
 10
172.8092828303
 20
121.5848418549
 10
172.8003513248
 20
121.5833128012
 10
172.7912813494
 20
121.58196732
 10
172.782097462
 20
121.5808148572
 10
172.7727984337
 20
121.5798596987
 10
172.7633547726
 20
121.5790976101
 10
172.7537648014
 20
121.5785359936
 10
172.7440555809
 20
121.5781893215
 10
172.7342411752
 20
121.5780675899
  0
LINE
  5
3E1
100
AcDbEntity
  8
0
100
AcDbLine
 62
7
  6
CONTINUOUS
 10
170.0922449221
 20
76.0554178591
 11
170.099525671
 21
76.1210038068
  0
LINE
  5
3E2
100
AcDbEntity
  8
0
100
AcDbLine
 62
7
  6
CONTINUOUS
 10
170.0922449221
 20
120.8554178591
 11
170.099525671
 21
120.7898319114
  0
LINE
  5
3E3
100
AcDbEntity
  8
0
100
AcDbLine
 62
7
  6
CONTINUOUS
 10
175.7922449221
 20
74.4554178591
 11
175.7922449221
 21
76.0554178591
  0
LINE
  5
3E4
100
AcDbEntity
  8
0
100
AcDbLine
 62
7
  6
CONTINUOUS
 10
175.7922449221
 20
120.8554178591
 11
175.7922449221
 21
122.4554178591
  0
LINE
  5
3E5
100
AcDbEntity
  8
0
100
AcDbLine
 62
7
  6
CONTINUOUS
 10
175.8009716668
 20
122.4466911144
 11
175.8009716668
 21
120.7768061902
  0
LINE
  5
3E6
100
AcDbEntity
  8
0
100
AcDbLine
 62
7
  6
CONTINUOUS
 10
175.8009716668
 20
76.1340295281
 11
175.8009716668
 21
74.4641446038
  0
LINE
  5
3E7
100
AcDbEntity
  8
0
100
AcDbLine
 62
7
  6
CONTINUOUS
 10
176.7422449221
 20
74.4571699774
 11
176.7422449221
 21
76.1340295281
  0
LINE
  5
3E8
100
AcDbEntity
  8
0
100
AcDbLine
 62
7
  6
CONTINUOUS
 10
176.7422449221
 20
120.7768061902
 11
176.7422449221
 21
122.4536657409
  0
LINE
  5
3E9
100
AcDbEntity
  8
0
100
AcDbLine
 62
253
  6
CONTINUOUS
 10
169.5927370756
 20
76.0554178591
 11
169.618919673
 21
76.1340295281
  0
LWPOLYLINE
  5
3EA
100
AcDbEntity
  8
0
100
AcDbPolyline
 62
7
  6
CONTINUOUS
 90
24
 70
0
 10
146.0389667756
 20
76.0776142277
 10
146.0577967483
 20
76.0834643331
 10
146.0752630844
 20
76.0899386786
 10
146.0924757073
 20
76.0970621017
 10
146.1094185241
 20
76.1048299681
 10
146.126118374
 20
76.1132556303
 10
146.1425484177
 20
76.1223257359
 10
146.1586120447
 20
76.1319955926
 10
146.1743088407
 20
76.1422744762
 10
146.18963922
 20
76.1531531109
 10
146.2045078154
 20
76.1645589774
 10
146.2188931627
 20
76.1764795842
 10
146.2328167261
 20
76.1889274228
 10
146.2462475305
 20
76.2018674481
 10
146.2591867532
 20
76.2152981783
 10
146.271633217
 20
76.2292210952
 10
146.283552415
 20
76.2436056003
 10
146.294956862
 20
76.2584729952
 10
146.3058340433
 20
76.2738019783
 10
146.3161119086
 20
76.2894980458
 10
146.3257815164
 20
76.3055621281
 10
146.3348518082
 20
76.3219932947
 10
146.3432775587
 20
76.3386942504
 10
146.3509442263
 20
76.3554178591
  0
LINE
  5
3EB
100
AcDbEntity
  8
0
100
AcDbLine
 62
7
  6
CONTINUOUS
 10
146.0209893549
 20
76.0724328508
 11
146.0400529982
 21
76.0776301307
  0
LINE
  5
3EC
100
AcDbEntity
  8
0
100
AcDbLine
 62
7
  6
CONTINUOUS
 10
169.4635004893
 20
120.8384028675
 11
169.4816445914
 21
120.8429042203
  0
LINE
  5
3ED
100
AcDbEntity
  8
0
100
AcDbLine
 62
7
  6
CONTINUOUS
 10
169.4805982895
 20
120.8428953219
 11
169.4624343092
 21
120.8383907124
  0
LINE
  5
3EE
100
AcDbEntity
  8
RACCORDO
100
AcDbLine
 62
7
  6
CONTINUOUS
 10
124.1193002727
 20
115.0554178591
 11
124.2422449221
 21
115.0554178591
  0
LINE
  5
3EF
100
AcDbEntity
  8
RACCORDO
100
AcDbLine
 62
7
  6
CONTINUOUS
 10
191.2422449221
 20
115.0554178591
 11
191.3651895714
 21
115.0554178591
  0
LINE
  5
3F0
100
AcDbEntity
  8
0
100
AcDbLine
 62
7
  6
CONTINUOUS
 10
146.0028452526
 20
120.8429042204
 11
146.022055535
 21
120.8383907124
  0
LINE
  5
3F1
100
AcDbEntity
  8
0
100
AcDbLine
 62
7
  6
CONTINUOUS
 10
146.0209893547
 20
120.8384028675
 11
146.0400529982
 21
120.8332055875
  0
LINE
  5
3F2
100
AcDbEntity
  8
0
100
AcDbLine
 62
7
  6
CONTINUOUS
 10
146.0389667755
 20
120.8332214906
 11
146.0577967483
 21
120.8273713851
  0
LWPOLYLINE
  5
3F3
100
AcDbEntity
  8
0
100
AcDbPolyline
 62
7
  6
CONTINUOUS
 90
23
 70
0
 10
146.0566906299
 20
120.8273914551
 10
146.0741371839
 20
120.820921743
 10
146.0913301715
 20
120.8138033723
 10
146.1082539106
 20
120.8060407622
 10
146.1249352078
 20
120.7976206323
 10
146.1413472563
 20
120.788556263
 10
146.1573939533
 20
120.7788919148
 10
146.1730749742
 20
120.7686183202
 10
146.1883906434
 20
120.7577447467
 10
146.2032458319
 20
120.7463432565
 10
146.2176192404
 20
120.7344262216
 10
146.2315321681
 20
120.7219812699
 10
146.2449533833
 20
120.7090433471
 10
146.2578838971
 20
120.6956141394
 10
146.2703226985
 20
120.6816919606
 10
146.2822355229
 20
120.6673066982
 10
146.293635043
 20
120.6524369225
 10
146.304508586
 20
120.6371040632
 10
146.3147838694
 20
120.6214022974
 10
146.3244520136
 20
120.6053305791
 10
146.3335218981
 20
120.5888899542
 10
146.3419478787
 20
120.5721777378
 10
146.3496260974
 20
120.5554178591
  0
LINE
  5
3F4
100
AcDbEntity
  8
0
100
AcDbLine
 62
253
  6
CONTINUOUS
 10
169.618919673
 20
120.7768061902
 11
169.5927370756
 21
120.8554178591
  0
LINE
  5
3F5
100
AcDbEntity
  8
0
100
AcDbLine
 62
253
  6
CONTINUOUS
 10
179.2422449221
 20
122.2554144744
 11
179.2422449221
 21
122.2536691255
  0
LINE
  5
3F6
100
AcDbEntity
  8
0
100
AcDbLine
 62
7
  6
CONTINUOUS
 10
179.2420545706
 20
122.264138404
 11
179.2422449221
 21
122.2554144744
  0
LINE
  5
3F7
100
AcDbEntity
  8
0
100
AcDbLine
 62
253
  6
CONTINUOUS
 10
179.0422449221
 20
74.4554178591
 11
179.0422449221
 21
76.0816217488
  0
LINE
  5
3F8
100
AcDbEntity
  8
0
100
AcDbLine
 62
253
  6
CONTINUOUS
 10
179.0422449221
 20
120.8292139695
 11
179.0422449221
 21
122.4554178591
  0
LINE
  5
3F9
100
AcDbEntity
  8
0
100
AcDbLine
 62
7
  6
CONTINUOUS
 10
179.2422449221
 20
74.6554212438
 11
179.2422449221
 21
76.0711401929
  0
LINE
  5
3FA
100
AcDbEntity
  8
0
100
AcDbLine
 62
7
  6
CONTINUOUS
 10
179.2422449221
 20
120.8396955253
 11
179.2422449221
 21
122.2554144744
  0
LINE
  5
3FB
100
AcDbEntity
  8
0
100
AcDbLine
 62
7
  6
CONTINUOUS
 10
179.2420545706
 20
74.6466973142
 11
179.2422449221
 21
74.6571665928
  0
LINE
  5
3FC
100
AcDbEntity
  8
0
100
AcDbLine
 62
7
  6
CONTINUOUS
 10
181.243005966
 20
122.272845731
 11
181.2424352736
 21
122.264138404
  0
LINE
  5
3FD
100
AcDbEntity
  8
0
100
AcDbLine
 62
7
  6
CONTINUOUS
 10
175.7922449221
 20
76.0554178591
 11
175.8009716668
 21
76.1340295281
  0
LINE
  5
3FE
100
AcDbEntity
  8
0
100
AcDbLine
 62
7
  6
CONTINUOUS
 10
169.4805982895
 20
120.8428953219
 11
169.4999844167
 21
120.8467206954
  0
LINE
  5
3FF
100
AcDbEntity
  8
0
100
AcDbLine
 62
7
  6
CONTINUOUS
 10
169.4989232396
 20
120.8467145451
 11
169.5184909233
 21
120.8498571464
  0
LINE
  5
400
100
AcDbEntity
  8
0
100
AcDbLine
 62
7
  6
CONTINUOUS
 10
169.5369901013
 20
120.8522967687
 11
169.5174147067
 21
120.8498532529
  0
LWPOLYLINE
  5
401
100
AcDbEntity
  8
0
100
AcDbPolyline
 62
7
  6
CONTINUOUS
 90
33
 70
0
 10
181.4248135828
 20
122.4546567691
 10
181.416139407
 20
122.453706766
 10
181.4075149311
 20
122.4523792956
 10
181.3989565723
 20
122.4506768856
 10
181.3904806219
 20
122.4486027774
 10
181.3821032145
 20
122.4461609199
 10
181.3738402969
 20
122.443355962
 10
181.3657075983
 20
122.440193244
 10
181.3577205995
 20
122.4366787869
 10
181.3498945041
 20
122.4328192812
 10
181.3422442097
 20
122.4286220751
 10
181.3347842787
 20
122.4240951585
 10
181.3275289114
 20
122.4192471492
 10
181.3204919184
 20
122.4140872769
 10
181.313686695
 20
122.4086253642
 10
181.3071261945
 20
122.4028718085
 10
181.3008229052
 20
122.3968375633
 10
181.294788825
 20
122.3905341155
 10
181.2890354396
 20
122.3839734641
 10
181.2835737004
 20
122.3771680992
 10
181.2784140034
 20
122.3701309751
 10
181.2735661696
 20
122.3628754873
 10
181.2690394266
 20
122.3554154484
 10
181.2648423903
 20
122.3477650587
 10
181.2609830495
 20
122.339938881
 10
181.2574687495
 20
122.3319518138
 10
181.2543061794
 20
122.3238190605
 10
181.2515013585
 20
122.3155561019
 10
181.249059625
 20
122.3071786675
 10
181.2469856262
 20
122.2987027038
 10
181.2452833092
 20
122.2901443445
 10
181.2439559138
 20
122.2815198814
 10
181.243005966
 20
122.272845731
  0
LINE
  5
402
100
AcDbEntity
  8
0
100
AcDbLine
 62
7
  6
CONTINUOUS
 10
169.5554239473
 20
120.8540339609
 11
169.5360021371
 21
120.8522946207
  0
LINE
  5
403
100
AcDbEntity
  8
0
100
AcDbLine
 62
7
  6
CONTINUOUS
 10
169.5738504648
 20
120.8550743243
 11
169.5546620127
 21
120.8540330402
  0
LINE
  5
404
100
AcDbEntity
  8
0
100
AcDbLine
 62
7
  6
CONTINUOUS
 10
169.5922696535
 20
120.8554178591
 11
169.5734178515
 21
120.8550741197
  0
LWPOLYLINE
  5
405
100
AcDbEntity
  8
RACCORDO
100
AcDbPolyline
 62
253
  6
CONTINUOUS
 90
14
 70
0
 10
124.7686434892
 20
119.2848893578
 10
124.7198729556
 20
119.2842531047
 10
124.6727553614
 20
119.2834138805
 10
124.6277751333
 20
119.2823803137
 10
124.5853947233
 20
119.2811630306
 10
124.5460498542
 20
119.2797745462
 10
124.5101450394
 20
119.278229136
 10
124.4780494246
 20
119.2765426887
 10
124.4500929921
 20
119.274732543
 10
124.4265631683
 20
119.2728173093
 10
124.4077018689
 20
119.2708166788
 10
124.3937030111
 20
119.2687512203
 10
124.3847105203
 20
119.2666421693
 10
124.3808168504
 20
119.2645112094
  0
LINE
  5
406
100
AcDbEntity
  8
RACCORDO
100
AcDbLine
 62
253
  6
CONTINUOUS
 10
124.8691258515
 20
119.2855289395
 11
124.7686434892
 21
119.2848893578
  0
LINE
  5
407
100
AcDbEntity
  8
RACCORDO
100
AcDbLine
 62
253
  6
CONTINUOUS
 10
190.6216941331
 20
120.4346957327
 11
186.631826461
 21
120.432423642
  0
LINE
  5
408
100
AcDbEntity
  8
RACCORDO
100
AcDbLine
 62
253
  6
CONTINUOUS
 10
186.631826461
 20
120.432423642
 11
178.6228351345
 21
120.428758189
  0
LINE
  5
409
100
AcDbEntity
  8
RACCORDO
100
AcDbLine
 62
253
  6
CONTINUOUS
 10
178.6228351345
 20
120.428758189
 11
170.6095503724
 21
120.4262577278
  0
LINE
  5
40A
100
AcDbEntity
  8
RACCORDO
100
AcDbLine
 62
253
  6
CONTINUOUS
 10
140.1321813391
 20
119.2870440601
 11
124.8691258515
 21
119.2855289224
  0
LWPOLYLINE
  5
40B
100
AcDbEntity
  8
RACCORDO
100
AcDbPolyline
 62
253
  6
CONTINUOUS
 90
3
 70
0
 10
170.6095503724
 20
120.4262577278
 10
162.4045451285
 20
120.4249410908
 10
158.2110582626
 20
120.4247282297
  0
LINE
  5
40C
100
AcDbEntity
  8
RACCORDO
100
AcDbLine
 62
7
  6
CONTINUOUS
 10
124.7420735846
 20
120.5554178591
 11
190.7424162596
 21
120.5554178591
  0
LINE
  5
40D
100
AcDbEntity
  8
0
100
AcDbLine
 62
7
  6
CONTINUOUS
 10
124.618919673
 20
120.7768061902
 11
125.3495214402
 21
120.7768061902
  0
LINE
  5
40E
100
AcDbEntity
  8
0
100
AcDbLine
 62
7
  6
CONTINUOUS
 10
127.734968404
 20
120.7768061902
 11
130.8009716668
 21
120.7768061902
  0
LINE
  5
40F
100
AcDbEntity
  8
0
100
AcDbLine
 62
7
  6
CONTINUOUS
 10
131.7422449221
 20
120.7768061902
 11
138.7422449221
 21
120.7768061902
  0
LINE
  5
410
100
AcDbEntity
  8
0
100
AcDbLine
 62
7
  6
CONTINUOUS
 10
139.6835181774
 20
120.7768061902
 11
142.7495214402
 21
120.7768061902
  0
LINE
  5
411
100
AcDbEntity
  8
0
100
AcDbLine
 62
7
  6
CONTINUOUS
 10
145.134968404
 20
120.7768061902
 11
145.8655701712
 21
120.7768061902
  0
LINE
  5
412
100
AcDbEntity
  8
0
100
AcDbLine
 62
7
  6
CONTINUOUS
 10
169.618919673
 20
120.7768061902
 11
170.3495214402
 21
120.7768061902
  0
LINE
  5
413
100
AcDbEntity
  8
0
100
AcDbLine
 62
7
  6
CONTINUOUS
 10
172.734968404
 20
120.7768061902
 11
175.8009716668
 21
120.7768061902
  0
LINE
  5
414
100
AcDbEntity
  8
0
100
AcDbLine
 62
7
  6
CONTINUOUS
 10
176.7422449221
 20
120.7768061902
 11
183.7422449221
 21
120.7768061902
  0
LINE
  5
415
100
AcDbEntity
  8
0
100
AcDbLine
 62
7
  6
CONTINUOUS
 10
184.6835181774
 20
120.7768061902
 11
187.7495214402
 21
120.7768061902
  0
LINE
  5
416
100
AcDbEntity
  8
0
100
AcDbLine
 62
7
  6
CONTINUOUS
 10
190.134968404
 20
120.7768061902
 11
190.8655701712
 21
120.7768061902
  0
LINE
  5
417
100
AcDbEntity
  8
0
100
AcDbLine
 62
7
  6
CONTINUOUS
 10
131.7422449221
 20
120.8292139695
 11
134.0422449221
 21
120.8292139695
  0
LINE
  5
418
100
AcDbEntity
  8
0
100
AcDbLine
 62
7
  6
CONTINUOUS
 10
136.4422449221
 20
120.8292139695
 11
138.7422449221
 21
120.8292139695
  0
LINE
  5
419
100
AcDbEntity
  8
0
100
AcDbLine
 62
7
  6
CONTINUOUS
 10
176.7422449221
 20
120.8292139695
 11
179.0422449221
 21
120.8292139695
  0
LINE
  5
41A
100
AcDbEntity
  8
0
100
AcDbLine
 62
7
  6
CONTINUOUS
 10
181.4422449221
 20
120.8292139695
 11
183.7422449221
 21
120.8292139695
  0
LINE
  5
41B
100
AcDbEntity
  8
RACCORDO
100
AcDbLine
 62
253
  6
CONTINUOUS
 10
178.6189409086
 20
119.2867970229
 11
140.1321813391
 21
119.2870440601
  0
LWPOLYLINE
  5
41C
100
AcDbEntity
  8
RACCORDO
100
AcDbPolyline
 62
253
  6
CONTINUOUS
 90
7
 70
0
 10
158.2110582626
 20
120.4247282297
 10
149.444284103
 20
120.4253814747
 10
144.8709968093
 20
120.4262475808
 10
140.1304862135
 20
120.4276000268
 10
135.2084793481
 20
120.4294789222
 10
130.1192491806
 20
120.4318441575
 10
124.8627957111
 20
120.4346957326
  0
LWPOLYLINE
  5
41D
100
AcDbEntity
  8
RACCORDO
100
AcDbPolyline
 62
253
  6
CONTINUOUS
 90
16
 70
0
 10
178.6189409086
 20
119.2867970229
 10
190.6659237445
 20
119.2853157324
 10
190.7158454566
 20
119.2848890013
 10
190.7646156775
 20
119.284252762
 10
190.8117329966
 20
119.2834135555
 10
190.8567129969
 20
119.28238001
 10
190.8990932352
 20
119.2811627513
 10
190.938437997
 20
119.2797742942
 10
190.9743427755
 20
119.2782289135
 10
191.0064384307
 20
119.2765424975
 10
191.0343949846
 20
119.2747323842
 10
191.0579250135
 20
119.2728171836
 10
191.0767866033
 20
119.2708165861
 10
191.0907858364
 20
119.26875116
 10
191.0997787856
 20
119.26664214
 10
191.1036729937
 20
119.2645112092
  0
LINE
  5
41E
100
AcDbEntity
  8
0
100
AcDbLine
 62
7
  6
CONTINUOUS
 10
145.9110719926
 20
120.8550741197
 11
145.8922201905
 21
120.8554178591
  0
LINE
  5
41F
100
AcDbEntity
  8
0
100
AcDbLine
 62
7
  6
CONTINUOUS
 10
145.9106393792
 20
120.8550743243
 11
145.9298278315
 21
120.8540330402
  0
LINE
  5
420
100
AcDbEntity
  8
0
100
AcDbLine
 62
7
  6
CONTINUOUS
 10
145.9290658966
 20
120.8540339609
 11
145.9484877071
 21
120.8522946207
  0
LINE
  5
421
100
AcDbEntity
  8
0
100
AcDbLine
 62
7
  6
CONTINUOUS
 10
145.9474997427
 20
120.8522967687
 11
145.9670751375
 21
120.8498532529
  0
LINE
  5
422
100
AcDbEntity
  8
0
100
AcDbLine
 62
7
  6
CONTINUOUS
 10
145.9855666046
 20
120.8467145451
 11
145.9659989207
 21
120.8498571464
  0
LINE
  5
423
100
AcDbEntity
  8
0
100
AcDbLine
 62
7
  6
CONTINUOUS
 10
146.0038915546
 20
120.8428953219
 11
145.9845054273
 21
120.8467206954
  0
LWPOLYLINE
  5
424
100
AcDbEntity
  8
RACCORDO
100
AcDbPolyline
 62
253
  6
CONTINUOUS
 90
11
 70
0
 10
191.1215227955
 20
76.9759686481
 10
191.1203730086
 20
76.9785089075
 10
191.1192371358
 20
76.9837293177
 10
191.1181151774
 20
76.9916298786
 10
191.1170024283
 20
77.0022627743
 10
191.1159035935
 20
77.0155758208
 10
191.1148327874
 20
77.0314124659
 10
191.1137907541
 20
77.0498016007
 10
191.1127767496
 20
77.0707143341
 10
191.1118026567
 20
77.093907441
 10
191.1108689185
 20
77.1194092886
  0
LINE
  5
425
100
AcDbEntity
  8
0
100
AcDbLine
 62
7
  6
CONTINUOUS
 10
175.8009716668
 20
120.7768061902
 11
175.7922449221
 21
120.8554178591
  0
LINE
  5
426
100
AcDbEntity
  8
0
100
AcDbLine
 62
253
  6
CONTINUOUS
 10
181.2422449221
 20
74.6554212438
 11
181.2422449221
 21
74.6571665928
  0
LINE
  5
427
100
AcDbEntity
  8
0
100
AcDbLine
 62
7
  6
CONTINUOUS
 10
181.2424352736
 20
74.6466973142
 11
181.2422449221
 21
74.6554212438
  0
LINE
  5
428
100
AcDbEntity
  8
0
100
AcDbLine
 62
7
  6
CONTINUOUS
 10
181.2422449221
 20
122.2554144744
 11
181.2422449221
 21
120.8396955253
  0
LINE
  5
429
100
AcDbEntity
  8
0
100
AcDbLine
 62
7
  6
CONTINUOUS
 10
181.2422449221
 20
76.0711401929
 11
181.2422449221
 21
74.6554212438
  0
LINE
  5
42A
100
AcDbEntity
  8
0
100
AcDbLine
 62
253
  6
CONTINUOUS
 10
181.4422449221
 20
76.0816217488
 11
181.4422449221
 21
74.4554178591
  0
LINE
  5
42B
100
AcDbEntity
  8
0
100
AcDbLine
 62
253
  6
CONTINUOUS
 10
181.4422449221
 20
120.8292139695
 11
181.4422449221
 21
122.4554178591
  0
LINE
  5
42C
100
AcDbEntity
  8
0
100
AcDbLine
 62
7
  6
CONTINUOUS
 10
181.2424352736
 20
122.264138404
 11
181.2422449221
 21
122.2536691255
  0
LINE
  5
42D
100
AcDbEntity
  8
0
100
AcDbLine
 62
7
  6
CONTINUOUS
 10
179.2414838781
 20
74.6379899873
 11
179.2420545706
 21
74.6466973142
  0
LINE
  5
42E
100
AcDbEntity
  8
0
100
AcDbLine
 62
7
  6
CONTINUOUS
 10
184.6922449221
 20
120.8554178591
 11
184.6835181774
 21
120.7768061902
  0
LINE
  5
42F
100
AcDbEntity
  8
0
100
AcDbLine
 62
253
  6
CONTINUOUS
 10
190.8917527686
 20
120.8554178591
 11
190.8655701712
 21
120.7768061902
  0
LINE
  5
430
100
AcDbEntity
  8
0
100
AcDbLine
 62
253
  6
CONTINUOUS
 10
191.3913721688
 20
120.3551890071
 11
191.3651895714
 21
120.2765773381
  0
LINE
  5
431
100
AcDbEntity
  8
0
100
AcDbLine
 62
7
  6
CONTINUOUS
 10
124.5554239473
 20
120.8540339609
 11
124.5360021371
 21
120.8522946207
  0
LINE
  5
432
100
AcDbEntity
  8
0
100
AcDbLine
 62
7
  6
CONTINUOUS
 10
124.5738504648
 20
120.8550743243
 11
124.5546620127
 21
120.8540330402
  0
LWPOLYLINE
  5
433
100
AcDbEntity
  8
RACCORDO
100
AcDbPolyline
 62
253
  6
CONTINUOUS
 90
16
 70
0
 10
124.8627957111
 20
120.4346957326
 10
124.8105715938
 20
120.4319241678
 10
124.7589192157
 20
120.4237113951
 10
124.7084040051
 20
120.4101473338
 10
124.6595789283
 20
120.3913804776
 10
124.6129784701
 20
120.3676162807
 10
124.5691127781
 20
120.3391149198
 10
124.52846203
 20
120.3061884197
 10
124.4914711947
 20
120.2691972345
 10
124.4585451874
 20
120.228546324
 10
124.4300444175
 20
120.1846807056
 10
124.4062808399
 20
120.1380805688
 10
124.387514553
 20
120.0892560279
 10
124.373950956
 20
120.0387415473
 10
124.3657384977
 20
119.9870900933
 10
124.3629670486
 20
119.9348670701
  0
LWPOLYLINE
  5
434
100
AcDbEntity
  8
0
100
AcDbPolyline
 62
7
  6
CONTINUOUS
 90
33
 70
0
 10
181.4422449221
 20
122.4536657409
 10
181.4327271532
 20
122.4534391465
 10
181.4232309368
 20
122.4527598756
 10
181.4137777915
 20
122.4516294651
 10
181.404389132
 20
122.4500504734
 10
181.3950862398
 20
122.4480264771
 10
181.385890214
 20
122.4455620658
 10
181.3768218978
 20
122.4426628262
 10
181.3679018347
 20
122.4393353275
 10
181.3591502394
 20
122.4355871113
 10
181.3505869411
 20
122.4314266711
 10
181.3422313455
 20
122.4268634361
 10
181.334102393
 20
122.4219077518
 10
181.3262185044
 20
122.4165708511
 10
181.3185975413
 20
122.4108648279
 10
181.3112567718
 20
122.4048026141
 10
181.3042128232
 20
122.3983979433
 10
181.297481661
 20
122.3916653345
 10
181.2910785503
 20
122.3846200615
 10
181.2850180137
 20
122.3772781144
 10
181.2793137601
 20
122.3696561123
 10
181.2739786765
 20
122.3617712765
 10
181.2690248111
 20
122.353641396
 10
181.2644634426
 20
122.3452849617
 10
181.260304992
 20
122.3367210873
 10
181.256558906
 20
122.3279693043
 10
181.2532335923
 20
122.3190493406
 10
181.2503365121
 20
122.3099812453
 10
181.2478738713
 20
122.3007840856
 10
181.2458517486
 20
122.2914801428
 10
181.2442753507
 20
122.2820948437
 10
181.2431477691
 20
122.2726509981
 10
181.2424706573
 20
122.2631686023
  0
LWPOLYLINE
  5
435
100
AcDbEntity
  8
0
100
AcDbPolyline
 62
7
  6
CONTINUOUS
 90
33
 70
0
 10
136.4422449221
 20
122.4536657409
 10
136.4327271532
 20
122.4534391465
 10
136.4232309368
 20
122.4527598756
 10
136.4137777915
 20
122.4516294651
 10
136.404389132
 20
122.4500504734
 10
136.3950862398
 20
122.4480264771
 10
136.385890214
 20
122.4455620658
 10
136.3768218978
 20
122.4426628262
 10
136.3679018347
 20
122.4393353275
 10
136.3591502394
 20
122.4355871113
 10
136.3505869411
 20
122.4314266711
 10
136.3422313455
 20
122.4268634361
 10
136.334102393
 20
122.4219077518
 10
136.3262185044
 20
122.4165708511
 10
136.3185975413
 20
122.4108648279
 10
136.3112567718
 20
122.4048026141
 10
136.3042128232
 20
122.3983979433
 10
136.297481661
 20
122.3916653345
 10
136.2910785503
 20
122.3846200615
 10
136.2850180137
 20
122.3772781144
 10
136.2793137601
 20
122.3696561123
 10
136.2739786765
 20
122.3617712765
 10
136.2690248111
 20
122.353641396
 10
136.2644634426
 20
122.3452849617
 10
136.260304992
 20
122.3367210873
 10
136.256558906
 20
122.3279693043
 10
136.2532335923
 20
122.3190493406
 10
136.2503365121
 20
122.3099812453
 10
136.2478738713
 20
122.3007840856
 10
136.2458517486
 20
122.2914801428
 10
136.2442753507
 20
122.2820948437
 10
136.2431477691
 20
122.2726509981
 10
136.2424706573
 20
122.2631686023
  0
LWPOLYLINE
  5
436
100
AcDbEntity
  8
0
100
AcDbPolyline
 62
7
  6
CONTINUOUS
 90
3
 70
0
 10
181.4422449221
 20
122.4554178591
 10
181.4335209462
 20
122.4552274958
 10
181.4248135828
 20
122.4546567691
  0
LWPOLYLINE
  5
437
100
AcDbEntity
  8
0
100
AcDbPolyline
 62
7
  6
CONTINUOUS
 90
3
 70
0
 10
136.4422449221
 20
122.4554178591
 10
136.4335209462
 20
122.4552274958
 10
136.4248135828
 20
122.4546567691
  0
LINE
  5
438
100
AcDbEntity
  8
0
100
AcDbLine
 62
7
  6
CONTINUOUS
 10
124.5922696535
 20
120.8554178591
 11
124.5734178515
 21
120.8550741197
  0
LWPOLYLINE
  5
439
100
AcDbEntity
  8
0
100
AcDbPolyline
 62
7
  6
CONTINUOUS
 90
46
 70
0
 10
190.134968404
 20
121.5780675899
 10
190.1444901143
 20
121.5782077301
 10
190.1539836942
 20
121.5785529387
 10
190.163435502
 20
121.5791032156
 10
190.1728446498
 20
121.5798633071
 10
190.1821850871
 20
121.580828467
 10
190.1914064409
 20
121.5819844567
 10
190.2004838168
 20
121.5833316975
 10
190.2094191744
 20
121.5848697681
 10
190.2182038946
 20
121.586583166
 10
190.2268276366
 20
121.5884721609
 10
190.2352807084
 20
121.5905364831
 10
190.2435560899
 20
121.5927598203
 10
190.2516449306
 20
121.5951423179
 10
190.2595390012
 20
121.5976838306
 10
190.2672327516
 20
121.6003676105
 10
190.2747187454
 20
121.6031937018
 10
190.2819901226
 20
121.6061620603
 10
190.2890426424
 20
121.6092558052
 10
190.2958702017
 20
121.6124749122
 10
190.302467191
 20
121.6158194057
 10
190.3088304597
 20
121.6192724776
 10
190.3149551335
 20
121.6228340597
 10
190.3208367554
 20
121.6265042202
 10
190.3264730748
 20
121.6302663561
 10
190.3318603422
 20
121.6341203724
 10
190.3369951663
 20
121.638066364
 10
190.3418760474
 20
121.6420880123
 10
190.3465002679
 20
121.6461852065
 10
190.3508654254
 20
121.6503580574
 10
190.3549706689
 20
121.6545905791
 10
190.3588142316
 20
121.6588826491
 10
190.362394635
 20
121.6632343899
 10
190.3657116173
 20
121.6676301839
 10
190.3687642939
 20
121.6720698965
 10
190.371552054
 20
121.6765536623
 10
190.3740751982
 20
121.6810662675
 10
190.376333666
 20
121.6856075609
 10
190.3783276651
 20
121.6901776936
 10
190.3800580549
 20
121.6947619059
 10
190.3815255487
 20
121.699360025
 10
190.3827311244
 20
121.7039722237
 10
190.3836762032
 20
121.7085842604
 10
190.3843622515
 20
121.713191388
 10
190.3847909172
 20
121.7177983536
 10
190.3849641732
 20
121.7224051572
  0
LWPOLYLINE
  5
43A
100
AcDbEntity
  8
0
100
AcDbPolyline
 62
7
  6
CONTINUOUS
 90
46
 70
0
 10
145.134968404
 20
121.5780675899
 10
145.1444901143
 20
121.5782077301
 10
145.1539836942
 20
121.5785529387
 10
145.163435502
 20
121.5791032156
 10
145.1728446498
 20
121.5798633071
 10
145.1821850871
 20
121.580828467
 10
145.1914064409
 20
121.5819844567
 10
145.2004838168
 20
121.5833316975
 10
145.2094191744
 20
121.5848697681
 10
145.2182038946
 20
121.586583166
 10
145.2268276366
 20
121.5884721609
 10
145.2352807084
 20
121.5905364831
 10
145.2435560899
 20
121.5927598203
 10
145.2516449306
 20
121.5951423179
 10
145.2595390012
 20
121.5976838306
 10
145.2672327516
 20
121.6003676105
 10
145.2747187454
 20
121.6031937018
 10
145.2819901226
 20
121.6061620603
 10
145.2890426424
 20
121.6092558052
 10
145.2958702017
 20
121.6124749122
 10
145.302467191
 20
121.6158194057
 10
145.3088304597
 20
121.6192724776
 10
145.3149551335
 20
121.6228340597
 10
145.3208367554
 20
121.6265042202
 10
145.3264730748
 20
121.6302663561
 10
145.3318603422
 20
121.6341203724
 10
145.3369951663
 20
121.638066364
 10
145.3418760474
 20
121.6420880123
 10
145.3465002679
 20
121.6461852065
 10
145.3508654254
 20
121.6503580574
 10
145.3549706689
 20
121.6545905791
 10
145.3588142316
 20
121.6588826491
 10
145.362394635
 20
121.6632343899
 10
145.3657116173
 20
121.6676301839
 10
145.3687642939
 20
121.6720698965
 10
145.371552054
 20
121.6765536623
 10
145.3740751982
 20
121.6810662675
 10
145.376333666
 20
121.6856075609
 10
145.3783276651
 20
121.6901776936
 10
145.3800580549
 20
121.6947619059
 10
145.3815255487
 20
121.699360025
 10
145.3827311244
 20
121.7039722237
 10
145.3836762032
 20
121.7085842604
 10
145.3843622515
 20
121.713191388
 10
145.3847909172
 20
121.7177983536
 10
145.3849641732
 20
121.7224051572
  0
LINE
  5
43B
100
AcDbEntity
  8
0
100
AcDbLine
 62
7
  6
CONTINUOUS
 10
181.2422449221
 20
120.8554178591
 11
179.2422449221
 21
120.8554178591
  0
LINE
  5
43C
100
AcDbEntity
  8
0
100
AcDbLine
 62
7
  6
CONTINUOUS
 10
136.2422449221
 20
120.8554178591
 11
134.2422449221
 21
120.8554178591
  0
LINE
  5
43D
100
AcDbEntity
  8
0
100
AcDbLine
 62
7
  6
CONTINUOUS
 10
124.5927370756
 20
120.8554178591
 11
125.0922449221
 21
120.8554178591
  0
LINE
  5
43E
100
AcDbEntity
  8
0
100
AcDbLine
 62
7
  6
CONTINUOUS
 10
127.9922449221
 20
120.8554178591
 11
130.7922449221
 21
120.8554178591
  0
LINE
  5
43F
100
AcDbEntity
  8
0
100
AcDbLine
 62
7
  6
CONTINUOUS
 10
139.6922449221
 20
120.8554178591
 11
142.4922449221
 21
120.8554178591
  0
LINE
  5
440
100
AcDbEntity
  8
0
100
AcDbLine
 62
7
  6
CONTINUOUS
 10
145.3922449221
 20
120.8554178591
 11
145.8917527686
 21
120.8554178591
  0
LINE
  5
441
100
AcDbEntity
  8
0
100
AcDbLine
 62
7
  6
CONTINUOUS
 10
169.5927370756
 20
120.8554178591
 11
170.0922449221
 21
120.8554178591
  0
LINE
  5
442
100
AcDbEntity
  8
0
100
AcDbLine
 62
7
  6
CONTINUOUS
 10
172.9922449221
 20
120.8554178591
 11
175.7922449221
 21
120.8554178591
  0
LINE
  5
443
100
AcDbEntity
  8
0
100
AcDbLine
 62
7
  6
CONTINUOUS
 10
184.6922449221
 20
120.8554178591
 11
187.4922449221
 21
120.8554178591
  0
LINE
  5
444
100
AcDbEntity
  8
0
100
AcDbLine
 62
7
  6
CONTINUOUS
 10
190.3922449221
 20
120.8554178591
 11
190.8917527686
 21
120.8554178591
  0
LINE
  5
445
100
AcDbEntity
  8
0
100
AcDbLine
 62
7
  6
CONTINUOUS
 10
190.134968404
 20
121.5780675899
 11
187.7495214402
 21
121.5780675899
  0
LINE
  5
446
100
AcDbEntity
  8
0
100
AcDbLine
 62
7
  6
CONTINUOUS
 10
145.134968404
 20
121.5780675899
 11
142.7495214402
 21
121.5780675899
  0
LINE
  5
447
100
AcDbEntity
  8
0
100
AcDbLine
 62
7
  6
CONTINUOUS
 10
125.3495214402
 20
121.5780675899
 11
127.734968404
 21
121.5780675899
  0
LINE
  5
448
100
AcDbEntity
  8
0
100
AcDbLine
 62
7
  6
CONTINUOUS
 10
170.3495214402
 20
121.5780675899
 11
172.734968404
 21
121.5780675899
  0
LINE
  5
449
100
AcDbEntity
  8
0
100
AcDbLine
 62
253
  6
CONTINUOUS
 10
125.35533927
 20
122.0832490755
 11
127.7291505741
 21
122.0832490755
  0
LINE
  5
44A
100
AcDbEntity
  8
0
100
AcDbLine
 62
253
  6
CONTINUOUS
 10
142.75533927
 20
122.0832490755
 11
145.1291505741
 21
122.0832490755
  0
LINE
  5
44B
100
AcDbEntity
  8
0
100
AcDbLine
 62
253
  6
CONTINUOUS
 10
170.35533927
 20
122.0832490755
 11
172.7291505741
 21
122.0832490755
  0
LINE
  5
44C
100
AcDbEntity
  8
0
100
AcDbLine
 62
253
  6
CONTINUOUS
 10
187.75533927
 20
122.0832490755
 11
190.1291505741
 21
122.0832490755
  0
LINE
  5
44D
100
AcDbEntity
  8
0
100
AcDbLine
 62
253
  6
CONTINUOUS
 10
183.7422449221
 20
122.2536691255
 11
181.2422449221
 21
122.2536691255
  0
LINE
  5
44E
100
AcDbEntity
  8
0
100
AcDbLine
 62
253
  6
CONTINUOUS
 10
138.7422449221
 20
122.2536691255
 11
136.2422449221
 21
122.2536691255
  0
LINE
  5
44F
100
AcDbEntity
  8
0
100
AcDbLine
 62
253
  6
CONTINUOUS
 10
131.7422449221
 20
122.2536691255
 11
134.2422449221
 21
122.2536691255
  0
LINE
  5
450
100
AcDbEntity
  8
0
100
AcDbLine
 62
253
  6
CONTINUOUS
 10
176.7422449221
 20
122.2536691255
 11
179.2422449221
 21
122.2536691255
  0
LINE
  5
451
100
AcDbEntity
  8
0
100
AcDbLine
 62
253
  6
CONTINUOUS
 10
125.1053435008
 20
122.2997554264
 11
127.9791463434
 21
122.2997554264
  0
LINE
  5
452
100
AcDbEntity
  8
0
100
AcDbLine
 62
253
  6
CONTINUOUS
 10
142.5053435008
 20
122.2997554264
 11
145.3791463434
 21
122.2997554264
  0
LINE
  5
453
100
AcDbEntity
  8
0
100
AcDbLine
 62
253
  6
CONTINUOUS
 10
170.1053435008
 20
122.2997554264
 11
172.9791463434
 21
122.2997554264
  0
LINE
  5
454
100
AcDbEntity
  8
0
100
AcDbLine
 62
253
  6
CONTINUOUS
 10
187.5053435008
 20
122.2997554264
 11
190.3791463434
 21
122.2997554264
  0
LINE
  5
455
100
AcDbEntity
  8
0
100
AcDbLine
 62
7
  6
CONTINUOUS
 10
130.8009716668
 20
122.4466911144
 11
131.7422449221
 21
122.4466911144
  0
LINE
  5
456
100
AcDbEntity
  8
0
100
AcDbLine
 62
7
  6
CONTINUOUS
 10
138.7422449221
 20
122.4466911144
 11
139.6835181774
 21
122.4466911144
  0
LINE
  5
457
100
AcDbEntity
  8
0
100
AcDbLine
 62
7
  6
CONTINUOUS
 10
175.8009716668
 20
122.4466911144
 11
176.7422449221
 21
122.4466911144
  0
LINE
  5
458
100
AcDbEntity
  8
0
100
AcDbLine
 62
7
  6
CONTINUOUS
 10
183.7422449221
 20
122.4466911144
 11
184.6835181774
 21
122.4466911144
  0
LINE
  5
459
100
AcDbEntity
  8
0
100
AcDbLine
 62
253
  6
CONTINUOUS
 10
183.7422449221
 20
122.4536657409
 11
181.4422449221
 21
122.4536657409
  0
LINE
  5
45A
100
AcDbEntity
  8
0
100
AcDbLine
 62
253
  6
CONTINUOUS
 10
179.0422449221
 20
122.4536657409
 11
176.7422449221
 21
122.4536657409
  0
LINE
  5
45B
100
AcDbEntity
  8
0
100
AcDbLine
 62
253
  6
CONTINUOUS
 10
138.7422449221
 20
122.4536657409
 11
136.4422449221
 21
122.4536657409
  0
LINE
  5
45C
100
AcDbEntity
  8
0
100
AcDbLine
 62
253
  6
CONTINUOUS
 10
134.0422449221
 20
122.4536657409
 11
131.7422449221
 21
122.4536657409
  0
LINE
  5
45D
100
AcDbEntity
  8
0
100
AcDbLine
 62
7
  6
CONTINUOUS
 10
130.7922449221
 20
122.4554178591
 11
134.0422449221
 21
122.4554178591
  0
LINE
  5
45E
100
AcDbEntity
  8
0
100
AcDbLine
 62
7
  6
CONTINUOUS
 10
136.4422449221
 20
122.4554178591
 11
139.6922449221
 21
122.4554178591
  0
LINE
  5
45F
100
AcDbEntity
  8
0
100
AcDbLine
 62
7
  6
CONTINUOUS
 10
175.7922449221
 20
122.4554178591
 11
179.0422449221
 21
122.4554178591
  0
LINE
  5
460
100
AcDbEntity
  8
0
100
AcDbLine
 62
7
  6
CONTINUOUS
 10
181.4422449221
 20
122.4554178591
 11
184.6922449221
 21
122.4554178591
  0
LINE
  5
461
100
AcDbEntity
  8
0
100
AcDbLine
 62
253
  6
CONTINUOUS
 10
125.1053435008
 20
122.6923235112
 11
127.9791463434
 21
122.6923235112
  0
LINE
  5
462
100
AcDbEntity
  8
0
100
AcDbLine
 62
253
  6
CONTINUOUS
 10
142.5053435008
 20
122.6923235112
 11
145.3791463434
 21
122.6923235112
  0
LINE
  5
463
100
AcDbEntity
  8
0
100
AcDbLine
 62
253
  6
CONTINUOUS
 10
170.1053435008
 20
122.6923235112
 11
172.9791463434
 21
122.6923235112
  0
LINE
  5
464
100
AcDbEntity
  8
0
100
AcDbLine
 62
253
  6
CONTINUOUS
 10
187.5053435008
 20
122.6923235112
 11
190.3791463434
 21
122.6923235112
  0
LINE
  5
465
100
AcDbEntity
  8
0
100
AcDbLine
 62
253
  6
CONTINUOUS
 10
190.1291505741
 20
122.9423192804
 11
187.75533927
 21
122.9423192804
  0
LINE
  5
466
100
AcDbEntity
  8
0
100
AcDbLine
 62
253
  6
CONTINUOUS
 10
172.7291505741
 20
122.9423192804
 11
170.35533927
 21
122.9423192804
  0
LINE
  5
467
100
AcDbEntity
  8
0
100
AcDbLine
 62
253
  6
CONTINUOUS
 10
145.1291505741
 20
122.9423192804
 11
142.75533927
 21
122.9423192804
  0
LINE
  5
468
100
AcDbEntity
  8
0
100
AcDbLine
 62
253
  6
CONTINUOUS
 10
127.7291505741
 20
122.9423192804
 11
125.35533927
 21
122.9423192804
  0
LINE
  5
469
100
AcDbEntity
  8
0
100
AcDbLine
 62
7
  6
CONTINUOUS
 10
190.1422491529
 20
122.9554178591
 11
187.7422406913
 21
122.9554178591
  0
LINE
  5
46A
100
AcDbEntity
  8
0
100
AcDbLine
 62
7
  6
CONTINUOUS
 10
172.7422491529
 20
122.9554178591
 11
170.3422406913
 21
122.9554178591
  0
LINE
  5
46B
100
AcDbEntity
  8
0
100
AcDbLine
 62
7
  6
CONTINUOUS
 10
145.1422491529
 20
122.9554178591
 11
142.7422406913
 21
122.9554178591
  0
LINE
  5
46C
100
AcDbEntity
  8
0
100
AcDbLine
 62
7
  6
CONTINUOUS
 10
127.7422491529
 20
122.9554178591
 11
125.3422406913
 21
122.9554178591
  0
LINE
  5
46D
100
AcDbEntity
  8
0
100
AcDbLine
 62
7
  6
CONTINUOUS
 10
190.9110719926
 20
120.8550741197
 11
190.8922201905
 21
120.8554178591
  0
LWPOLYLINE
  5
46E
100
AcDbEntity
  8
0
100
AcDbPolyline
 62
7
  6
CONTINUOUS
 90
36
 70
0
 10
134.0422449221
 20
122.4554178591
 10
134.050968898
 20
122.4552274958
 10
134.0596762614
 20
122.4546567691
 10
134.0683504371
 20
122.453706766
 10
134.0769749131
 20
122.4523792956
 10
134.0855332719
 20
122.4506768856
 10
134.0940092222
 20
122.4486027774
 10
134.1023866297
 20
122.4461609199
 10
134.1106495472
 20
122.443355962
 10
134.1187822459
 20
122.440193244
 10
134.1267692447
 20
122.4366787869
 10
134.13459534
 20
122.4328192812
 10
134.1422456345
 20
122.4286220751
 10
134.1497055654
 20
122.4240951585
 10
134.1569609328
 20
122.4192471492
 10
134.1639979257
 20
122.4140872769
 10
134.1708031492
 20
122.4086253642
 10
134.1773636496
 20
122.4028718085
 10
134.183666939
 20
122.3968375633
 10
134.1897010192
 20
122.3905341155
 10
134.1954544045
 20
122.3839734641
 10
134.2009161438
 20
122.3771680992
 10
134.2060758408
 20
122.3701309751
 10
134.2109236745
 20
122.3628754873
 10
134.2154504176
 20
122.3554154484
 10
134.2196474538
 20
122.3477650587
 10
134.2235067947
 20
122.339938881
 10
134.2270210946
 20
122.3319518138
 10
134.2301836647
 20
122.3238190605
 10
134.2329884857
 20
122.3155561019
 10
134.2354302192
 20
122.3071786675
 10
134.237504218
 20
122.2987027038
 10
134.2392065349
 20
122.2901443445
 10
134.2405339303
 20
122.2815198814
 10
134.2414838781
 20
122.272845731
 10
134.2420545706
 20
122.264138404
  0
LWPOLYLINE
  5
46F
100
AcDbEntity
  8
0
100
AcDbPolyline
 62
7
  6
CONTINUOUS
 90
36
 70
0
 10
179.0422449221
 20
122.4554178591
 10
179.050968898
 20
122.4552274958
 10
179.0596762614
 20
122.4546567691
 10
179.0683504371
 20
122.453706766
 10
179.0769749131
 20
122.4523792956
 10
179.0855332719
 20
122.4506768856
 10
179.0940092222
 20
122.4486027774
 10
179.1023866297
 20
122.4461609199
 10
179.1106495472
 20
122.443355962
 10
179.1187822459
 20
122.440193244
 10
179.1267692447
 20
122.4366787869
 10
179.13459534
 20
122.4328192812
 10
179.1422456345
 20
122.4286220751
 10
179.1497055654
 20
122.4240951585
 10
179.1569609328
 20
122.4192471492
 10
179.1639979257
 20
122.4140872769
 10
179.1708031492
 20
122.4086253642
 10
179.1773636496
 20
122.4028718085
 10
179.183666939
 20
122.3968375633
 10
179.1897010192
 20
122.3905341155
 10
179.1954544045
 20
122.3839734641
 10
179.2009161438
 20
122.3771680992
 10
179.2060758408
 20
122.3701309751
 10
179.2109236745
 20
122.3628754873
 10
179.2154504176
 20
122.3554154484
 10
179.2196474538
 20
122.3477650587
 10
179.2235067947
 20
122.339938881
 10
179.2270210946
 20
122.3319518138
 10
179.2301836647
 20
122.3238190605
 10
179.2329884857
 20
122.3155561019
 10
179.2354302192
 20
122.3071786675
 10
179.237504218
 20
122.2987027038
 10
179.2392065349
 20
122.2901443445
 10
179.2405339303
 20
122.2815198814
 10
179.2414838781
 20
122.272845731
 10
179.2420545706
 20
122.264138404
  0
LWPOLYLINE
  5
470
100
AcDbEntity
  8
0
100
AcDbPolyline
 62
253
  6
CONTINUOUS
 90
33
 70
0
 10
134.0422449221
 20
122.4536657409
 10
134.0517613052
 20
122.4534392125
 10
134.0612561307
 20
122.4527601407
 10
134.0707078897
 20
122.4516300637
 10
134.080095171
 20
122.4500515415
 10
134.0893967092
 20
122.4480281499
 10
134.0985914334
 20
122.4455644727
 10
134.1076585147
 20
122.4426660908
 10
134.1165774132
 20
122.4393395699
 10
134.1253279247
 20
122.4355924458
 10
134.1338902264
 20
122.4314332069
 10
134.1422449221
 20
122.4268712751
 10
134.1503730856
 20
122.4219169847
 10
134.158256304
 20
122.4165815589
 10
134.1658767193
 20
122.4108770839
 10
134.1732170689
 20
122.4048164824
 10
134.1802607244
 20
122.3984134835
 10
134.1869917297
 20
122.3916825921
 10
134.1933948369
 20
122.3846390558
 10
134.199455541
 20
122.3772988305
 10
134.2051601125
 20
122.3696785441
 10
134.2104956286
 20
122.3617954591
 10
134.2154500028
 20
122.3536674332
 10
134.2200120118
 20
122.3453128789
 10
134.2241713211
 20
122.3367507221
 10
134.2279185087
 20
122.3280003587
 10
134.2312450858
 20
122.3190816112
 10
134.2341435168
 20
122.3100146833
 10
134.2366072357
 20
122.3008201146
 10
134.2386306615
 20
122.2915187338
 10
134.2402092105
 20
122.2821316115
 10
134.2413393066
 20
122.2726800124
 10
134.2420183899
 20
122.2631853476
  0
LWPOLYLINE
  5
471
100
AcDbEntity
  8
0
100
AcDbPolyline
 62
253
  6
CONTINUOUS
 90
34
 70
0
 10
127.7291505741
 20
122.9423192804
 10
127.7410260457
 20
122.9420366608
 10
127.7528797882
 20
122.941189759
 10
127.7646849637
 20
122.939779763
 10
127.7764164584
 20
122.937808817
 10
127.7880458936
 20
122.9352808271
 10
127.7995418593
 20
122.9322022485
 10
127.8108766244
 20
122.9285806387
 10
127.8220262363
 20
122.9244237843
 10
127.8329656375
 20
122.9197410107
 10
127.8436701723
 20
122.9145428254
 10
127.8541154258
 20
122.9088410369
 10
127.8642775014
 20
122.9026486745
 10
127.8741332861
 20
122.8959798373
 10
127.8836605475
 20
122.8888495839
 10
127.8928377608
 20
122.881274023
 10
127.9016441523
 20
122.8732702915
 10
127.9100597386
 20
122.8648565399
 10
127.9180654327
 20
122.8560518443
 10
127.9256430893
 20
122.8468761573
 10
127.9327755403
 20
122.8373502631
 10
127.9394466204
 20
122.827495747
 10
127.9456412127
 20
122.8173349348
 10
127.951345278
 20
122.8068908496
 10
127.9565458856
 20
122.7961871632
 10
127.9612312499
 20
122.7852481297
 10
127.9653907542
 20
122.7740985333
 10
127.9690149713
 20
122.7627636408
 10
127.9720956899
 20
122.7512691298
 10
127.974625927
 20
122.7396410504
 10
127.9765999456
 20
122.7279057707
 10
127.9780132744
 20
122.7160898884
 10
127.9788627145
 20
122.7042201701
 10
127.9791463434
 20
122.6923235112
  0
LWPOLYLINE
  5
472
100
AcDbEntity
  8
0
100
AcDbPolyline
 62
7
  6
CONTINUOUS
 90
34
 70
0
 10
127.7422491529
 20
122.9554178591
 10
127.7541444381
 20
122.9551347089
 10
127.7660127776
 20
122.9542858934
 10
127.7778272882
 20
122.9528733333
 10
127.7895612096
 20
122.9509002268
 10
127.8011879609
 20
122.9483710408
 10
127.8126812011
 20
122.9452915008
 10
127.8240148959
 20
122.9416685805
 10
127.8351633714
 20
122.9375104849
 10
127.8461013684
 20
122.9328266313
 10
127.8568041097
 20
122.927627628
 10
127.8672473503
 20
122.9219252508
 10
127.877407428
 20
122.9157324173
 10
127.8872613272
 20
122.9090631546
 10
127.8967867259
 20
122.9019325698
 10
127.9059620411
 20
122.894356818
 10
127.9147664882
 20
122.8863530596
 10
127.9231801226
 20
122.8779394252
 10
127.9311838809
 20
122.8691349782
 10
127.9387596328
 20
122.859959663
 10
127.9458902176
 20
122.8504342642
 10
127.9525594802
 20
122.840580365
 10
127.9587523137
 20
122.8304202874
 10
127.9644546909
 20
122.8199770467
 10
127.9696536943
 20
122.8092743054
 10
127.9743375479
 20
122.7983363084
 10
127.9784956434
 20
122.7871878329
 10
127.9821185638
 20
122.7758541381
 10
127.9851981038
 20
122.7643608979
 10
127.9877272898
 20
122.7527341466
 10
127.9897003962
 20
122.7410002253
 10
127.9911129563
 20
122.7291857147
 10
127.9919617718
 20
122.7173173751
 10
127.9922449221
 20
122.7054220899
  0
LWPOLYLINE
  5
473
100
AcDbEntity
  8
0
100
AcDbPolyline
 62
253
  6
CONTINUOUS
 90
34
 70
0
 10
145.1291505741
 20
122.9423192804
 10
145.1410455957
 20
122.9420357296
 10
145.1529136723
 20
122.9411865247
 10
145.1647279202
 20
122.9397735893
 10
145.1764615775
 20
122.937800124
 10
145.1880880647
 20
122.9352705992
 10
145.1995810453
 20
122.9321907448
 10
145.2109144851
 20
122.9285675374
 10
145.2220627114
 20
122.9244091844
 10
145.2330004708
 20
122.9197251053
 10
145.243702987
 20
122.9145259106
 10
145.2541460162
 20
122.9088233778
 10
145.2643059028
 20
122.9026304242
 10
145.2741596323
 20
122.8959610784
 10
145.2836848838
 20
122.8888304479
 10
145.2928600805
 20
122.8812546851
 10
145.3016644384
 20
122.8732509509
 10
145.3100780138
 20
122.8648373755
 10
145.318081748
 20
122.8560330175
 10
145.3256575108
 20
122.8468578209
 10
145.3327881414
 20
122.8373325694
 10
145.3394574872
 20
122.8274788399
 10
145.3456504407
 20
122.8173189533
 10
145.3513529736
 20
122.806875924
 10
145.3565521682
 20
122.7961734079
 10
145.3612362473
 20
122.7852356484
 10
145.3653946004
 20
122.7740874222
 10
145.3690178078
 20
122.7627539824
 10
145.3720976621
 20
122.7512610018
 10
145.3746271869
 20
122.7396345145
 10
145.3766006522
 20
122.7279008573
 10
145.3780135876
 20
122.7160866094
 10
145.3788627926
 20
122.7042185327
 10
145.3791463434
 20
122.6923235112
  0
LWPOLYLINE
  5
474
100
AcDbEntity
  8
0
100
AcDbPolyline
 62
7
  6
CONTINUOUS
 90
34
 70
0
 10
145.1422491529
 20
122.9554178591
 10
145.1541444381
 20
122.9551347089
 10
145.1660127776
 20
122.9542858934
 10
145.1778272882
 20
122.9528733333
 10
145.1895612096
 20
122.9509002268
 10
145.2011879609
 20
122.9483710408
 10
145.2126812011
 20
122.9452915008
 10
145.2240148959
 20
122.9416685805
 10
145.2351633714
 20
122.9375104849
 10
145.2461013684
 20
122.9328266313
 10
145.2568041097
 20
122.927627628
 10
145.2672473503
 20
122.9219252508
 10
145.277407428
 20
122.9157324173
 10
145.2872613272
 20
122.9090631546
 10
145.2967867259
 20
122.9019325698
 10
145.3059620411
 20
122.894356818
 10
145.3147664882
 20
122.8863530596
 10
145.3231801226
 20
122.8779394252
 10
145.3311838809
 20
122.8691349782
 10
145.3387596328
 20
122.859959663
 10
145.3458902176
 20
122.8504342642
 10
145.3525594802
 20
122.840580365
 10
145.3587523137
 20
122.8304202874
 10
145.3644546909
 20
122.8199770467
 10
145.3696536943
 20
122.8092743054
 10
145.3743375479
 20
122.7983363084
 10
145.3784956434
 20
122.7871878329
 10
145.3821185638
 20
122.7758541381
 10
145.3851981038
 20
122.7643608979
 10
145.3877272898
 20
122.7527341466
 10
145.3897003962
 20
122.7410002253
 10
145.3911129563
 20
122.7291857147
 10
145.3919617718
 20
122.7173173751
 10
145.3922449221
 20
122.7054220899
  0
LWPOLYLINE
  5
475
100
AcDbEntity
  8
0
100
AcDbPolyline
 62
253
  6
CONTINUOUS
 90
33
 70
0
 10
179.0422449221
 20
122.4536657409
 10
179.0517613052
 20
122.4534392125
 10
179.0612561307
 20
122.4527601407
 10
179.0707078897
 20
122.4516300637
 10
179.080095171
 20
122.4500515415
 10
179.0893967092
 20
122.4480281499
 10
179.0985914334
 20
122.4455644727
 10
179.1076585147
 20
122.4426660908
 10
179.1165774132
 20
122.4393395699
 10
179.1253279247
 20
122.4355924458
 10
179.1338902264
 20
122.4314332069
 10
179.1422449221
 20
122.4268712751
 10
179.1503730856
 20
122.4219169847
 10
179.158256304
 20
122.4165815589
 10
179.1658767193
 20
122.4108770839
 10
179.1732170689
 20
122.4048164824
 10
179.1802607244
 20
122.3984134835
 10
179.1869917297
 20
122.3916825921
 10
179.1933948369
 20
122.3846390558
 10
179.199455541
 20
122.3772988305
 10
179.2051601125
 20
122.3696785441
 10
179.2104956286
 20
122.3617954591
 10
179.2154500028
 20
122.3536674332
 10
179.2200120118
 20
122.3453128789
 10
179.2241713211
 20
122.3367507221
 10
179.2279185087
 20
122.3280003587
 10
179.2312450858
 20
122.3190816112
 10
179.2341435168
 20
122.3100146833
 10
179.2366072357
 20
122.3008201146
 10
179.2386306615
 20
122.2915187338
 10
179.2402092105
 20
122.2821316115
 10
179.2413393066
 20
122.2726800124
 10
179.2420183899
 20
122.2631853476
  0
LWPOLYLINE
  5
476
100
AcDbEntity
  8
0
100
AcDbPolyline
 62
253
  6
CONTINUOUS
 90
34
 70
0
 10
172.7291505741
 20
122.9423192804
 10
172.7410260457
 20
122.9420366608
 10
172.7528797882
 20
122.941189759
 10
172.7646849637
 20
122.939779763
 10
172.7764164584
 20
122.937808817
 10
172.7880458936
 20
122.9352808271
 10
172.7995418593
 20
122.9322022485
 10
172.8108766244
 20
122.9285806387
 10
172.8220262363
 20
122.9244237843
 10
172.8329656375
 20
122.9197410107
 10
172.8436701723
 20
122.9145428254
 10
172.8541154258
 20
122.9088410369
 10
172.8642775014
 20
122.9026486745
 10
172.8741332861
 20
122.8959798373
 10
172.8836605475
 20
122.8888495839
 10
172.8928377608
 20
122.881274023
 10
172.9016441523
 20
122.8732702915
 10
172.9100597386
 20
122.8648565399
 10
172.9180654327
 20
122.8560518443
 10
172.9256430893
 20
122.8468761573
 10
172.9327755403
 20
122.8373502631
 10
172.9394466204
 20
122.827495747
 10
172.9456412127
 20
122.8173349348
 10
172.951345278
 20
122.8068908496
 10
172.9565458856
 20
122.7961871632
 10
172.9612312499
 20
122.7852481297
 10
172.9653907542
 20
122.7740985333
 10
172.9690149713
 20
122.7627636408
 10
172.9720956899
 20
122.7512691298
 10
172.974625927
 20
122.7396410504
 10
172.9765999456
 20
122.7279057707
 10
172.9780132744
 20
122.7160898884
 10
172.9788627145
 20
122.7042201701
 10
172.9791463434
 20
122.6923235112
  0
LWPOLYLINE
  5
477
100
AcDbEntity
  8
0
100
AcDbPolyline
 62
7
  6
CONTINUOUS
 90
34
 70
0
 10
172.7422491529
 20
122.9554178591
 10
172.7541444381
 20
122.9551347089
 10
172.7660127776
 20
122.9542858934
 10
172.7778272882
 20
122.9528733333
 10
172.7895612096
 20
122.9509002268
 10
172.8011879609
 20
122.9483710408
 10
172.8126812011
 20
122.9452915008
 10
172.8240148959
 20
122.9416685805
 10
172.8351633714
 20
122.9375104849
 10
172.8461013684
 20
122.9328266313
 10
172.8568041097
 20
122.927627628
 10
172.8672473503
 20
122.9219252508
 10
172.877407428
 20
122.9157324173
 10
172.8872613272
 20
122.9090631546
 10
172.8967867259
 20
122.9019325698
 10
172.9059620411
 20
122.894356818
 10
172.9147664882
 20
122.8863530596
 10
172.9231801226
 20
122.8779394252
 10
172.9311838809
 20
122.8691349782
 10
172.9387596328
 20
122.859959663
 10
172.9458902176
 20
122.8504342642
 10
172.9525594802
 20
122.840580365
 10
172.9587523137
 20
122.8304202874
 10
172.9644546909
 20
122.8199770467
 10
172.9696536943
 20
122.8092743054
 10
172.9743375479
 20
122.7983363084
 10
172.9784956434
 20
122.7871878329
 10
172.9821185638
 20
122.7758541381
 10
172.9851981038
 20
122.7643608979
 10
172.9877272898
 20
122.7527341466
 10
172.9897003962
 20
122.7410002253
 10
172.9911129563
 20
122.7291857147
 10
172.9919617718
 20
122.7173173751
 10
172.9922449221
 20
122.7054220899
  0
LWPOLYLINE
  5
478
100
AcDbEntity
  8
0
100
AcDbPolyline
 62
253
  6
CONTINUOUS
 90
34
 70
0
 10
190.1291505741
 20
122.9423192804
 10
190.1410455957
 20
122.9420357296
 10
190.1529136723
 20
122.9411865247
 10
190.1647279202
 20
122.9397735893
 10
190.1764615775
 20
122.937800124
 10
190.1880880647
 20
122.9352705992
 10
190.1995810453
 20
122.9321907448
 10
190.2109144851
 20
122.9285675374
 10
190.2220627114
 20
122.9244091844
 10
190.2330004708
 20
122.9197251053
 10
190.243702987
 20
122.9145259106
 10
190.2541460162
 20
122.9088233778
 10
190.2643059028
 20
122.9026304242
 10
190.2741596323
 20
122.8959610784
 10
190.2836848838
 20
122.8888304479
 10
190.2928600805
 20
122.8812546851
 10
190.3016644384
 20
122.8732509509
 10
190.3100780138
 20
122.8648373755
 10
190.318081748
 20
122.8560330175
 10
190.3256575108
 20
122.8468578209
 10
190.3327881414
 20
122.8373325694
 10
190.3394574872
 20
122.8274788399
 10
190.3456504407
 20
122.8173189533
 10
190.3513529736
 20
122.806875924
 10
190.3565521682
 20
122.7961734079
 10
190.3612362473
 20
122.7852356484
 10
190.3653946004
 20
122.7740874222
 10
190.3690178078
 20
122.7627539824
 10
190.3720976621
 20
122.7512610018
 10
190.3746271869
 20
122.7396345145
 10
190.3766006522
 20
122.7279008573
 10
190.3780135876
 20
122.7160866094
 10
190.3788627926
 20
122.7042185327
 10
190.3791463434
 20
122.6923235112
  0
LWPOLYLINE
  5
479
100
AcDbEntity
  8
0
100
AcDbPolyline
 62
7
  6
CONTINUOUS
 90
34
 70
0
 10
190.1422491529
 20
122.9554178591
 10
190.1541444381
 20
122.9551347089
 10
190.1660127776
 20
122.9542858934
 10
190.1778272882
 20
122.9528733333
 10
190.1895612096
 20
122.9509002268
 10
190.2011879609
 20
122.9483710408
 10
190.2126812011
 20
122.9452915008
 10
190.2240148959
 20
122.9416685805
 10
190.2351633714
 20
122.9375104849
 10
190.2461013684
 20
122.9328266313
 10
190.2568041097
 20
122.927627628
 10
190.2672473503
 20
122.9219252508
 10
190.277407428
 20
122.9157324173
 10
190.2872613272
 20
122.9090631546
 10
190.2967867259
 20
122.9019325698
 10
190.3059620411
 20
122.894356818
 10
190.3147664882
 20
122.8863530596
 10
190.3231801226
 20
122.8779394252
 10
190.3311838809
 20
122.8691349782
 10
190.3387596328
 20
122.859959663
 10
190.3458902176
 20
122.8504342642
 10
190.3525594802
 20
122.840580365
 10
190.3587523137
 20
122.8304202874
 10
190.3644546909
 20
122.8199770467
 10
190.3696536943
 20
122.8092743054
 10
190.3743375479
 20
122.7983363084
 10
190.3784956434
 20
122.7871878329
 10
190.3821185638
 20
122.7758541381
 10
190.3851981038
 20
122.7643608979
 10
190.3877272898
 20
122.7527341466
 10
190.3897003962
 20
122.7410002253
 10
190.3911129563
 20
122.7291857147
 10
190.3919617718
 20
122.7173173751
 10
190.3922449221
 20
122.7054220899
  0
LWPOLYLINE
  5
47A
100
AcDbEntity
  8
RACCORDO
100
AcDbPolyline
 62
253
  6
CONTINUOUS
 90
16
 70
0
 10
190.621694133
 20
120.4346957325
 10
190.673917759
 20
120.4319242197
 10
190.7255697107
 20
120.4237115906
 10
190.7760845716
 20
120.4101477463
 10
190.8249093728
 20
120.3913811654
 10
190.8715096455
 20
120.3676172794
 10
190.9153752724
 20
120.3391162235
 10
190.9560260715
 20
120.306189989
 10
190.9930170521
 20
120.2691990084
 10
191.0259432865
 20
120.2285482094
 10
191.0544443424
 20
120.1846825824
 10
191.0782082284
 20
120.1380823097
 10
191.0969748092
 20
120.0892575086
 10
191.1105386536
 20
120.0387426477
 10
191.1187512826
 20
119.987090696
 10
191.1215227955
 20
119.93486707
  0
LINE
  5
47B
100
AcDbEntity
  8
0
100
AcDbLine
 62
7
  6
CONTINUOUS
 10
190.9106393792
 20
120.8550743243
 11
190.9298278315
 21
120.8540330402
  0
LINE
  5
47C
100
AcDbEntity
  8
0
100
AcDbLine
 62
7
  6
CONTINUOUS
 10
190.9290658966
 20
120.8540339609
 11
190.9484877071
 21
120.8522946207
  0
LINE
  5
47D
100
AcDbEntity
  8
0
100
AcDbLine
 62
253
  6
CONTINUOUS
 10
190.8655701712
 20
76.1340295281
 11
190.8917527686
 21
76.0554178591
  0
LINE
  5
47E
100
AcDbEntity
  8
0
100
AcDbLine
 62
253
  6
CONTINUOUS
 10
191.3651895714
 20
76.6342583801
 11
191.3913721688
 21
76.5556467112
  0
LINE
  5
47F
100
AcDbEntity
  8
0
100
AcDbLine
 62
7
  6
CONTINUOUS
 10
184.6835181774
 20
76.1340295281
 11
184.6922449221
 21
76.0554178591
  0
LINE
  5
480
100
AcDbEntity
  8
0
100
AcDbLine
 62
7
  6
CONTINUOUS
 10
183.7422449221
 20
122.4536657409
 11
183.7422449221
 21
120.7768061902
  0
LINE
  5
481
100
AcDbEntity
  8
0
100
AcDbLine
 62
7
  6
CONTINUOUS
 10
183.7422449221
 20
76.1340295281
 11
183.7422449221
 21
74.4571699774
  0
LINE
  5
482
100
AcDbEntity
  8
0
100
AcDbLine
 62
7
  6
CONTINUOUS
 10
184.6835181774
 20
74.4641446038
 11
184.6835181774
 21
76.1340295281
  0
LINE
  5
483
100
AcDbEntity
  8
0
100
AcDbLine
 62
7
  6
CONTINUOUS
 10
184.6835181774
 20
120.7768061902
 11
184.6835181774
 21
122.4466911144
  0
LINE
  5
484
100
AcDbEntity
  8
0
100
AcDbLine
 62
7
  6
CONTINUOUS
 10
184.6922449221
 20
76.0554178591
 11
184.6922449221
 21
74.4554178591
  0
LINE
  5
485
100
AcDbEntity
  8
0
100
AcDbLine
 62
7
  6
CONTINUOUS
 10
184.6922449221
 20
120.8554178591
 11
184.6922449221
 21
122.4554178591
  0
LINE
  5
486
100
AcDbEntity
  8
0
100
AcDbLine
 62
253
  6
CONTINUOUS
 10
170.1053435008
 20
74.2185122071
 11
170.0922449221
 21
74.2054136283
  0
LINE
  5
487
100
AcDbEntity
  8
0
100
AcDbLine
 62
253
  6
CONTINUOUS
 10
170.35533927
 20
73.9685164378
 11
170.3422406913
 21
73.9554178591
  0
LINE
  5
488
100
AcDbEntity
  8
0
100
AcDbLine
 62
7
  6
CONTINUOUS
 10
124.4989232396
 20
120.8467145451
 11
124.5184909233
 21
120.8498571464
  0
LINE
  5
489
100
AcDbEntity
  8
0
100
AcDbLine
 62
7
  6
CONTINUOUS
 10
124.5369901013
 20
120.8522967687
 11
124.5174147067
 21
120.8498532529
  0
LWPOLYLINE
  5
48A
100
AcDbEntity
  8
0
100
AcDbPolyline
 62
7
  6
CONTINUOUS
 90
33
 70
0
 10
136.4248135828
 20
122.4546567691
 10
136.416139407
 20
122.453706766
 10
136.4075149311
 20
122.4523792956
 10
136.3989565723
 20
122.4506768856
 10
136.3904806219
 20
122.4486027774
 10
136.3821032145
 20
122.4461609199
 10
136.3738402969
 20
122.443355962
 10
136.3657075983
 20
122.440193244
 10
136.3577205995
 20
122.4366787869
 10
136.3498945041
 20
122.4328192812
 10
136.3422442097
 20
122.4286220751
 10
136.3347842787
 20
122.4240951585
 10
136.3275289114
 20
122.4192471492
 10
136.3204919184
 20
122.4140872769
 10
136.313686695
 20
122.4086253642
 10
136.3071261945
 20
122.4028718085
 10
136.3008229052
 20
122.3968375633
 10
136.294788825
 20
122.3905341155
 10
136.2890354396
 20
122.3839734641
 10
136.2835737004
 20
122.3771680992
 10
136.2784140034
 20
122.3701309751
 10
136.2735661696
 20
122.3628754873
 10
136.2690394266
 20
122.3554154484
 10
136.2648423903
 20
122.3477650587
 10
136.2609830495
 20
122.339938881
 10
136.2574687495
 20
122.3319518138
 10
136.2543061794
 20
122.3238190605
 10
136.2515013585
 20
122.3155561019
 10
136.249059625
 20
122.3071786675
 10
136.2469856262
 20
122.2987027038
 10
136.2452833092
 20
122.2901443445
 10
136.2439559138
 20
122.2815198814
 10
136.243005966
 20
122.272845731
  0
LINE
  5
48B
100
AcDbEntity
  8
0
100
AcDbLine
 62
7
  6
CONTINUOUS
 10
190.9474997427
 20
120.8522967687
 11
190.9670751375
 21
120.8498532529
  0
LINE
  5
48C
100
AcDbEntity
  8
0
100
AcDbLine
 62
7
  6
CONTINUOUS
 10
190.9855666046
 20
120.8467145451
 11
190.9659989207
 21
120.8498571464
  0
LINE
  5
48D
100
AcDbEntity
  8
0
100
AcDbLine
 62
253
  6
CONTINUOUS
 10
170.1053435008
 20
122.6923235112
 11
170.0922449221
 21
122.7054220899
  0
LINE
  5
48E
100
AcDbEntity
  8
0
100
AcDbLine
 62
253
  6
CONTINUOUS
 10
170.35533927
 20
122.9423192804
 11
170.3422406913
 21
122.9554178591
  0
LWPOLYLINE
  5
48F
100
AcDbEntity
  8
RACCORDO
100
AcDbPolyline
 62
253
  6
CONTINUOUS
 90
5
 70
0
 10
190.6216941331
 20
76.4761399857
 10
190.6212566754
 20
76.4804601412
 10
190.6208394409
 20
76.4894677568
 10
190.6204356572
 20
76.5031258172
 10
190.6200306244
 20
76.5213782563
  0
LWPOLYLINE
  5
490
100
AcDbEntity
  8
0
100
AcDbPolyline
 62
7
  6
CONTINUOUS
 90
46
 70
0
 10
187.499525671
 20
121.7224051572
 10
187.4996979223
 20
121.717826503
 10
187.5001239981
 20
121.7132311955
 10
187.5008062157
 20
121.7086263465
 10
187.5017466169
 20
121.7040218756
 10
187.5029469836
 20
121.6994224893
 10
187.5044089226
 20
121.694827686
 10
187.5061337233
 20
121.690245264
 10
187.5081224075
 20
121.6856828065
 10
187.5103759277
 20
121.681139693
 10
187.512894758
 20
121.6766240553
 10
187.5156790964
 20
121.6721438139
 10
187.5187292318
 20
121.6676982345
 10
187.5220447643
 20
121.6632957409
 10
187.5256250138
 20
121.6589445446
 10
187.5294696025
 20
121.654643801
 10
187.5335772106
 20
121.6504021675
 10
187.5379462137
 20
121.6462281142
 10
187.5425755252
 20
121.6421207322
 10
187.5474628431
 20
121.6380888615
 10
187.5526055315
 20
121.6341411784
 10
187.5580017307
 20
121.6302767541
 10
187.5636480918
 20
121.6265045459
 10
187.5695408882
 20
121.6228333803
 10
187.5756773854
 20
121.6192623599
 10
187.5820531157
 20
121.6158004793
 10
187.5886631748
 20
121.6124566458
 10
187.5955038119
 20
121.6092300449
 10
187.6025693614
 20
121.6061296098
 10
187.6098536498
 20
121.6031642377
 10
187.6173517351
 20
121.6003332429
 10
187.6250566691
 20
121.5976453725
 10
187.6329609222
 20
121.5951093971
 10
187.6410581731
 20
121.5927247882
 10
187.6493400749
 20
121.5904999644
 10
187.6577977005
 20
121.5884434096
 10
187.6664232784
 20
121.5865547358
 10
187.6752070139
 20
121.5848418549
 10
187.6841385194
 20
121.5833128012
 10
187.6932084947
 20
121.58196732
 10
187.7023923822
 20
121.5808148572
 10
187.7116914104
 20
121.5798596987
 10
187.7211350716
 20
121.5790976101
 10
187.7307250428
 20
121.5785359936
 10
187.7404342633
 20
121.5781893215
 10
187.7502486689
 20
121.5780675899
  0
LWPOLYLINE
  5
491
100
AcDbEntity
  8
0
100
AcDbPolyline
 62
7
  6
CONTINUOUS
 90
46
 70
0
 10
190.3849641732
 20
75.188430561
 10
190.3847919219
 20
75.1930092153
 10
190.384365846
 20
75.1976045228
 10
190.3836836285
 20
75.2022093718
 10
190.3827432272
 20
75.2068138427
 10
190.3815428606
 20
75.211413229
 10
190.3800809216
 20
75.2160080323
 10
190.3783561209
 20
75.2205904543
 10
190.3763674367
 20
75.2251529117
 10
190.3741139165
 20
75.2296960252
 10
190.3715950862
 20
75.234211663
 10
190.3688107478
 20
75.2386919043
 10
190.3657606124
 20
75.2431374837
 10
190.3624450799
 20
75.2475399774
 10
190.3588648304
 20
75.2518911737
 10
190.3550202417
 20
75.2561919173
 10
190.3509126336
 20
75.2604335507
 10
190.3465436305
 20
75.2646076041
 10
190.341914319
 20
75.2687149861
 10
190.337027001
 20
75.2727468568
 10
190.3318843126
 20
75.2766945399
 10
190.3264881135
 20
75.2805589641
 10
190.3208417524
 20
75.2843311724
 10
190.314948956
 20
75.2880023379
 10
190.3088124588
 20
75.2915733584
 10
190.3024367284
 20
75.2950352389
 10
190.2958266694
 20
75.2983790725
 10
190.2889860323
 20
75.3016056734
 10
190.2819204828
 20
75.3047061085
 10
190.2746361943
 20
75.3076714805
 10
190.267138109
 20
75.3105024754
 10
190.259433175
 20
75.3131903457
 10
190.251528922
 20
75.3157263211
 10
190.2434316711
 20
75.3181109301
 10
190.2351497693
 20
75.3203357538
 10
190.2266921436
 20
75.3223923086
 10
190.2180665658
 20
75.3242809824
 10
190.2092828303
 20
75.3259938634
 10
190.2003513248
 20
75.327522917
 10
190.1912813494
 20
75.3288683983
 10
190.182097462
 20
75.3300208611
 10
190.1727984337
 20
75.3309760196
 10
190.1633547726
 20
75.3317381081
 10
190.1537648014
 20
75.3322997247
 10
190.1440555809
 20
75.3326463968
 10
190.1342411752
 20
75.3327681283
  0
LWPOLYLINE
  5
492
100
AcDbEntity
  8
0
100
AcDbPolyline
 62
253
  6
CONTINUOUS
 90
34
 70
0
 10
187.5053435008
 20
122.2997554264
 10
187.5056601515
 20
122.2894726589
 10
187.5065403133
 20
122.2792130989
 10
187.5079819996
 20
122.2689999018
 10
187.5099819566
 20
122.2588561181
 10
187.5125356706
 20
122.2488046417
 10
187.515637378
 20
122.2388681582
 10
187.5192800784
 20
122.2290690937
 10
187.5234555505
 20
122.2194295641
 10
187.5281543704
 20
122.2099713252
 10
187.5333659332
 20
122.2007157237
 10
187.5390784767
 20
122.1916836489
 10
187.5452791081
 20
122.1828954858
 10
187.5519538328
 20
122.1743710687
 10
187.5590875865
 20
122.1661296366
 10
187.5666642686
 20
122.1581897901
 10
187.5746667791
 20
122.1505694489
 10
187.5830770567
 20
122.1432858116
 10
187.5918761199
 20
122.1363553169
 10
187.6010441098
 20
122.1297936067
 10
187.6105603348
 20
122.1236154902
 10
187.6204033173
 20
122.1178349112
 10
187.6305508422
 20
122.1124649161
 10
187.6409800073
 20
122.1075176245
 10
187.6516672744
 20
122.1030042024
 10
187.6625885232
 20
122.0989348361
 10
187.6737191049
 20
122.09531871
 10
187.6850338985
 20
122.0921639855
 10
187.6965073671
 20
122.0894777827
 10
187.7081136159
 20
122.087266164
 10
187.7198264502
 20
122.0855341211
 10
187.7316194348
 20
122.084285563
 10
187.7434659537
 20
122.0835233077
 10
187.75533927
 20
122.0832490755
  0
LINE
  5
493
100
AcDbEntity
  8
0
100
AcDbLine
 62
253
  6
CONTINUOUS
 10
187.5053435008
 20
74.6110802918
 11
187.499525671
 21
75.188430561
  0
LINE
  5
494
100
AcDbEntity
  8
0
100
AcDbLine
 62
253
  6
CONTINUOUS
 10
187.75533927
 20
74.8275866428
 11
187.7502486689
 21
75.3327681283
  0
LINE
  5
495
100
AcDbEntity
  8
0
100
AcDbLine
 62
7
  6
CONTINUOUS
 10
187.4922449221
 20
74.2054136283
 11
187.4922449221
 21
76.0554178591
  0
LINE
  5
496
100
AcDbEntity
  8
0
100
AcDbLine
 62
7
  6
CONTINUOUS
 10
187.4922449221
 20
120.8554178591
 11
187.4922449221
 21
122.7054220899
  0
LINE
  5
497
100
AcDbEntity
  8
0
100
AcDbLine
 62
253
  6
CONTINUOUS
 10
187.499525671
 20
121.7224051572
 11
187.499525671
 21
120.7898319114
  0
LINE
  5
498
100
AcDbEntity
  8
0
100
AcDbLine
 62
253
  6
CONTINUOUS
 10
187.499525671
 20
76.1210038068
 11
187.499525671
 21
75.188430561
  0
LINE
  5
499
100
AcDbEntity
  8
0
100
AcDbLine
 62
253
  6
CONTINUOUS
 10
187.5053435008
 20
122.6923235112
 11
187.5053435008
 21
122.2997554264
  0
LINE
  5
49A
100
AcDbEntity
  8
0
100
AcDbLine
 62
253
  6
CONTINUOUS
 10
187.5053435008
 20
74.6110802918
 11
187.5053435008
 21
74.2185122071
  0
LINE
  5
49B
100
AcDbEntity
  8
0
100
AcDbLine
 62
253
  6
CONTINUOUS
 10
187.7495214402
 20
121.5780675899
 11
187.7495214402
 21
120.7768061902
  0
LINE
  5
49C
100
AcDbEntity
  8
0
100
AcDbLine
 62
253
  6
CONTINUOUS
 10
187.7495214402
 20
76.1340295281
 11
187.7495214402
 21
75.3327681283
  0
LINE
  5
49D
100
AcDbEntity
  8
0
100
AcDbLine
 62
253
  6
CONTINUOUS
 10
187.75533927
 20
73.9685164378
 11
187.75533927
 21
74.8275866428
  0
LINE
  5
49E
100
AcDbEntity
  8
0
100
AcDbLine
 62
253
  6
CONTINUOUS
 10
187.75533927
 20
122.0832490755
 11
187.75533927
 21
122.9423192804
  0
LINE
  5
49F
100
AcDbEntity
  8
0
100
AcDbLine
 62
253
  6
CONTINUOUS
 10
187.499525671
 20
121.7224051572
 11
187.5053435008
 21
122.2997554264
  0
LINE
  5
4A0
100
AcDbEntity
  8
0
100
AcDbLine
 62
253
  6
CONTINUOUS
 10
187.7502486689
 20
121.5780675899
 11
187.75533927
 21
122.0832490755
  0
LWPOLYLINE
  5
4A1
100
AcDbEntity
  8
0
100
AcDbPolyline
 62
7
  6
CONTINUOUS
 90
34
 70
0
 10
187.4922449221
 20
122.7054220899
 10
187.4925280723
 20
122.7173173751
 10
187.4933768878
 20
122.7291857147
 10
187.4947894479
 20
122.7410002253
 10
187.4967625544
 20
122.7527341466
 10
187.4992917404
 20
122.7643608979
 10
187.5023712804
 20
122.7758541381
 10
187.5059942007
 20
122.7871878329
 10
187.5101522963
 20
122.7983363084
 10
187.5148361499
 20
122.8092743054
 10
187.5200351533
 20
122.8199770467
 10
187.5257375304
 20
122.8304202874
 10
187.5319303639
 20
122.840580365
 10
187.5385996266
 20
122.8504342642
 10
187.5457302114
 20
122.859959663
 10
187.5533059632
 20
122.8691349782
 10
187.5613097216
 20
122.8779394252
 10
187.569723356
 20
122.8863530596
 10
187.578527803
 20
122.894356818
 10
187.5877031182
 20
122.9019325698
 10
187.597228517
 20
122.9090631546
 10
187.6070824162
 20
122.9157324173
 10
187.6172424938
 20
122.9219252508
 10
187.6276857345
 20
122.927627628
 10
187.6383884758
 20
122.9328266313
 10
187.6493264728
 20
122.9375104849
 10
187.6604749483
 20
122.9416685805
 10
187.6718086431
 20
122.9452915008
 10
187.6833018833
 20
122.9483710408
 10
187.6949286346
 20
122.9509002268
 10
187.7066625559
 20
122.9528733333
 10
187.7184770665
 20
122.9542858934
 10
187.7303454061
 20
122.9551347089
 10
187.7422406913
 20
122.9554178591
  0
LWPOLYLINE
  5
4A2
100
AcDbEntity
  8
0
100
AcDbPolyline
 62
253
  6
CONTINUOUS
 90
34
 70
0
 10
187.5053435008
 20
122.6923235112
 10
187.5056270516
 20
122.7042185327
 10
187.5064762565
 20
122.7160866094
 10
187.5078891919
 20
122.7279008573
 10
187.5098626572
 20
122.7396345145
 10
187.512392182
 20
122.7512610018
 10
187.5154720364
 20
122.7627539824
 10
187.5190952438
 20
122.7740874222
 10
187.5232535968
 20
122.7852356484
 10
187.5279376759
 20
122.7961734079
 10
187.5331368706
 20
122.806875924
 10
187.5388394034
 20
122.8173189533
 10
187.545032357
 20
122.8274788399
 10
187.5517017028
 20
122.8373325694
 10
187.5588323334
 20
122.8468578209
 10
187.5664080961
 20
122.8560330175
 10
187.5744118303
 20
122.8648373755
 10
187.5828254057
 20
122.8732509509
 10
187.5916297637
 20
122.8812546851
 10
187.6008049603
 20
122.8888304479
 10
187.6103302118
 20
122.8959610784
 10
187.6201839413
 20
122.9026304242
 10
187.6303438279
 20
122.9088233778
 10
187.6407868572
 20
122.9145259106
 10
187.6514893733
 20
122.9197251053
 10
187.6624271328
 20
122.9244091844
 10
187.673575359
 20
122.9285675374
 10
187.6849087988
 20
122.9321907448
 10
187.6964017794
 20
122.9352705992
 10
187.7080282667
 20
122.937800124
 10
187.7197619239
 20
122.9397735893
 10
187.7315761718
 20
122.9411865247
 10
187.7434442485
 20
122.9420357296
 10
187.75533927
 20
122.9423192804
  0
LWPOLYLINE
  5
4A3
100
AcDbEntity
  8
0
100
AcDbPolyline
 62
253
  6
CONTINUOUS
 90
34
 70
0
 10
187.5053435008
 20
74.6110802918
 10
187.5056601515
 20
74.6213630594
 10
187.5065403133
 20
74.6316226193
 10
187.5079819996
 20
74.6418358164
 10
187.5099819566
 20
74.6519796001
 10
187.5125356706
 20
74.6620310765
 10
187.515637378
 20
74.67196756
 10
187.5192800784
 20
74.6817666245
 10
187.5234555505
 20
74.6914061542
 10
187.5281543704
 20
74.7008643931
 10
187.5333659332
 20
74.7101199946
 10
187.5390784767
 20
74.7191520693
 10
187.5452791081
 20
74.7279402324
 10
187.5519538328
 20
74.7364646496
 10
187.5590875865
 20
74.7447060816
 10
187.5666642686
 20
74.7526459281
 10
187.5746667791
 20
74.7602662694
 10
187.5830770567
 20
74.7675499067
 10
187.5918761199
 20
74.7744804013
 10
187.6010441098
 20
74.7810421116
 10
187.6105603348
 20
74.787220228
 10
187.6204033173
 20
74.793000807
 10
187.6305508422
 20
74.7983708022
 10
187.6409800073
 20
74.8033180937
 10
187.6516672744
 20
74.8078315159
 10
187.6625885232
 20
74.8119008822
 10
187.6737191049
 20
74.8155170083
 10
187.6850338985
 20
74.8186717327
 10
187.6965073671
 20
74.8213579356
 10
187.7081136159
 20
74.8235695542
 10
187.7198264502
 20
74.8253015971
 10
187.7316194348
 20
74.8265501552
 10
187.7434659537
 20
74.8273124106
 10
187.75533927
 20
74.8275866428
  0
LINE
  5
4A4
100
AcDbEntity
  8
0
100
AcDbLine
 62
7
  6
CONTINUOUS
 10
190.3922449221
 20
120.8554178591
 11
190.3849641732
 21
120.7898319114
  0
LINE
  5
4A5
100
AcDbEntity
  8
0
100
AcDbLine
 62
7
  6
CONTINUOUS
 10
175.7922449221
 20
74.4554178591
 11
175.8009716668
 21
74.4641446038
  0
LWPOLYLINE
  5
4A6
100
AcDbEntity
  8
0
100
AcDbPolyline
 62
7
  6
CONTINUOUS
 90
35
 70
0
 10
191.0389667756
 20
76.0776142277
 10
191.0577967483
 20
76.0834643331
 10
191.0752630844
 20
76.0899386786
 10
191.0924757073
 20
76.0970621017
 10
191.1094185241
 20
76.1048299681
 10
191.126118374
 20
76.1132556303
 10
191.1425484177
 20
76.1223257359
 10
191.1586120447
 20
76.1319955926
 10
191.1743088407
 20
76.1422744762
 10
191.18963922
 20
76.1531531109
 10
191.2045078154
 20
76.1645589774
 10
191.2188931627
 20
76.1764795842
 10
191.2328167261
 20
76.1889274228
 10
191.2462475305
 20
76.2018674481
 10
191.2591867532
 20
76.2152981783
 10
191.271633217
 20
76.2292210952
 10
191.283552415
 20
76.2436056003
 10
191.294956862
 20
76.2584729952
 10
191.3058340433
 20
76.2738019783
 10
191.3161119086
 20
76.2894980458
 10
191.3257815164
 20
76.3055621281
 10
191.3348518082
 20
76.3219932947
 10
191.3432775587
 20
76.3386942504
 10
191.3510453575
 20
76.3556384605
 10
191.3581686149
 20
76.3728524596
 10
191.3646423364
 20
76.3903185562
 10
191.3704750816
 20
76.4080593063
 10
191.3756582909
 20
76.426052154
 10
191.3801612907
 20
76.44421174
 10
191.3839794963
 20
76.4625503192
 10
191.3871174925
 20
76.4810556367
 10
191.3895583595
 20
76.4996055695
 10
191.3912964574
 20
76.5181594098
 10
191.392337426
 20
76.5367578653
 10
191.3926812655
 20
76.5554009361
  0
LINE
  5
4A7
100
AcDbEntity
  8
0
100
AcDbLine
 62
7
  6
CONTINUOUS
 10
191.0209893549
 20
76.0724328508
 11
191.0400529982
 21
76.0776301307
  0
LINE
  5
4A8
100
AcDbEntity
  8
0
100
AcDbLine
 62
7
  6
CONTINUOUS
 10
124.4805982895
 20
120.8428953219
 11
124.4624343092
 21
120.8383907124
  0
LINE
  5
4A9
100
AcDbEntity
  8
0
100
AcDbLine
 62
7
  6
CONTINUOUS
 10
124.4635004893
 20
120.8384028675
 11
124.4816445914
 21
120.8429042203
  0
LINE
  5
4AA
100
AcDbEntity
  8
0
100
AcDbLine
 62
7
  6
CONTINUOUS
 10
124.4805982895
 20
120.8428953219
 11
124.4999844167
 21
120.8467206954
  0
LINE
  5
4AB
100
AcDbEntity
  8
0
100
AcDbLine
 62
7
  6
CONTINUOUS
 10
191.0038915546
 20
120.8428953219
 11
190.9845054273
 21
120.8467206954
  0
LINE
  5
4AC
100
AcDbEntity
  8
0
100
AcDbLine
 62
7
  6
CONTINUOUS
 10
191.0028452526
 20
120.8429042204
 11
191.022055535
 21
120.8383907124
  0
LINE
  5
4AD
100
AcDbEntity
  8
0
100
AcDbLine
 62
7
  6
CONTINUOUS
 10
191.0209893547
 20
120.8384028675
 11
191.0400529982
 21
120.8332055875
  0
LINE
  5
4AE
100
AcDbEntity
  8
0
100
AcDbLine
 62
7
  6
CONTINUOUS
 10
191.0389667755
 20
120.8332214906
 11
191.0577967483
 21
120.8273713851
  0
LINE
  5
4AF
100
AcDbEntity
  8
0
100
AcDbLine
 62
7
  6
CONTINUOUS
 10
175.7922449221
 20
122.4554178591
 11
175.8009716668
 21
122.4466911144
  0
LINE
  5
4B0
100
AcDbEntity
  8
0
100
AcDbLine
 62
7
  6
CONTINUOUS
 10
190.3922449221
 20
76.0554178591
 11
190.3849641732
 21
76.1210038068
  0
LWPOLYLINE
  5
4B1
100
AcDbEntity
  8
0
100
AcDbPolyline
 62
253
  6
CONTINUOUS
 90
34
 70
0
 10
190.3791463434
 20
74.6110802918
 10
190.3788296814
 20
74.6213632529
 10
190.3779494871
 20
74.6316230051
 10
190.3765077473
 20
74.6418363918
 10
190.3745077172
 20
74.6519803556
 10
190.3719539102
 20
74.6620320071
 10
190.3688520849
 20
74.6719686757
 10
190.3652092342
 20
74.6817679462
 10
190.3610335812
 20
74.6914076874
 10
190.356334559
 20
74.7008661205
 10
190.3511227789
 20
74.7101218896
 10
190.3454100012
 20
74.7191541129
 10
190.3392091181
 20
74.727942408
 10
190.3325341244
 20
74.7364669405
 10
190.3254000869
 20
74.7447084694
 10
190.3178231073
 20
74.7526483933
 10
190.3098202878
 20
74.7602687913
 10
190.3014096907
 20
74.7675524645
 10
190.2926102981
 20
74.7744829741
 10
190.2834419722
 20
74.7810446767
 10
190.2739254047
 20
74.7872227635
 10
190.2640820686
 20
74.7930032938
 10
190.2539341672
 20
74.7983732263
 10
190.2435046163
 20
74.8033204326
 10
190.2328169886
 20
74.8078337326
 10
190.2218954287
 20
74.8119029357
 10
190.210764569
 20
74.8155188695
 10
190.1994495054
 20
74.8186733834
 10
190.1879754834
 20
74.8213594196
 10
190.176368686
 20
74.8235708296
 10
190.1646561771
 20
74.8253025122
 10
190.1528647002
 20
74.8265506408
 10
190.1410205894
 20
74.8273125548
 10
190.1291505741
 20
74.8275866428
  0
LINE
  5
4B2
100
AcDbEntity
  8
RACCORDO
100
AcDbLine
 62
253
  6
CONTINUOUS
 10
191.1108689185
 20
77.1194092886
 11
191.1091317303
 21
77.1769257767
  0
LINE
  5
4B3
100
AcDbEntity
  8
RACCORDO
100
AcDbLine
 62
253
  6
CONTINUOUS
 10
191.1091317303
 20
77.1769257767
 11
191.1075976534
 21
77.2422959863
  0
LWPOLYLINE
  5
4B4
100
AcDbEntity
  8
0
100
AcDbPolyline
 62
7
  6
CONTINUOUS
 90
34
 70
0
 10
191.3926812655
 20
120.3554347822
 10
191.392337426
 20
120.3740778529
 10
191.3912964574
 20
120.3926763084
 10
191.3895583595
 20
120.4112301487
 10
191.3871174925
 20
120.4297800815
 10
191.3839794963
 20
120.4482853991
 10
191.3801612907
 20
120.4666239782
 10
191.3756582909
 20
120.4847835643
 10
191.3704750816
 20
120.5027764119
 10
191.3646423364
 20
120.520517162
 10
191.3581686149
 20
120.5379832587
 10
191.3510453575
 20
120.5551972578
 10
191.3432775587
 20
120.5721414678
 10
191.3348518082
 20
120.5888424235
 10
191.3257815164
 20
120.6052735902
 10
191.3161119086
 20
120.6213376725
 10
191.3058340433
 20
120.6370337399
 10
191.294956862
 20
120.652362723
 10
191.283552415
 20
120.667230118
 10
191.271633217
 20
120.6816146231
 10
191.2591867532
 20
120.69553754
 10
191.2462475305
 20
120.7089682701
 10
191.2328167261
 20
120.7219082955
 10
191.2188931627
 20
120.7343561341
 10
191.2045078154
 20
120.7462767408
 10
191.18963922
 20
120.7576826073
 10
191.1743088407
 20
120.7685612421
 10
191.1586120447
 20
120.7788401256
 10
191.1425484177
 20
120.7885099824
 10
191.126118374
 20
120.7975800879
 10
191.1094185241
 20
120.8060057502
 10
191.0924757073
 20
120.8137736166
 10
191.0752630844
 20
120.8208970396
 10
191.0577967483
 20
120.8273713851
  0
LINE
  5
4B5
100
AcDbEntity
  8
RACCORDO
100
AcDbLine
 62
253
  6
CONTINUOUS
 10
191.1075976534
 20
77.2422959863
 11
191.1062921864
 21
77.314301953
  0
LINE
  5
4B6
100
AcDbEntity
  8
RACCORDO
100
AcDbLine
 62
253
  6
CONTINUOUS
 10
190.6200306244
 20
76.5213782563
 11
190.6192383404
 21
76.5713608361
  0
LINE
  5
4B7
100
AcDbEntity
  8
RACCORDO
100
AcDbLine
 62
253
  6
CONTINUOUS
 10
191.1062921864
 20
77.314301953
 11
191.104798915
 21
77.4326842707
  0
LINE
  5
4B8
100
AcDbEntity
  8
0
100
AcDbLine
 62
253
  6
CONTINUOUS
 10
190.1291505741
 20
122.0832490755
 11
190.1342411752
 21
121.5780675899
  0
LINE
  5
4B9
100
AcDbEntity
  8
0
100
AcDbLine
 62
253
  6
CONTINUOUS
 10
190.3791463434
 20
122.2997554264
 11
190.3849641732
 21
121.7224051572
  0
LINE
  5
4BA
100
AcDbEntity
  8
RACCORDO
100
AcDbLine
 62
253
  6
CONTINUOUS
 10
190.6192383404
 20
76.5713608361
 11
190.6178096086
 21
76.7221599942
  0
LINE
  5
4BB
100
AcDbEntity
  8
RACCORDO
100
AcDbLine
 62
253
  6
CONTINUOUS
 10
191.104798915
 20
77.4326842707
 11
191.1039123578
 21
77.5592974637
  0
LINE
  5
4BC
100
AcDbEntity
  8
RACCORDO
100
AcDbLine
 62
253
  6
CONTINUOUS
 10
190.6178096086
 20
76.7221599942
 11
190.616646633
 21
76.9324282527
  0
LINE
  5
4BD
100
AcDbEntity
  8
RACCORDO
100
AcDbLine
 62
253
  6
CONTINUOUS
 10
190.616646633
 20
76.9324282527
 11
190.6156922436
 21
77.2585927571
  0
LINE
  5
4BE
100
AcDbEntity
  8
DRAFT
100
AcDbLine
 62
7
  6
CONTINUOUS
 10
191.3372894271
 20
98.4554178591
 11
191.3651895714
 21
81.8554178591
  0
LWPOLYLINE
  5
4BF
100
AcDbEntity
  8
RACCORDO
100
AcDbPolyline
 62
253
  6
CONTINUOUS
 90
9
 70
0
 10
191.1039123578
 20
77.5592974637
 10
191.0991419357
 20
82.2693941256
 10
191.0957436422
 20
86.8930504332
 10
191.0934781132
 20
91.5172934317
 10
191.0923453488
 20
96.1425142589
 10
191.0923453488
 20
100.7683217769
 10
191.0934781133
 20
105.3935425723
 10
191.0957436423
 20
110.0177855073
 10
191.0991419358
 20
114.6414417195
  0
LWPOLYLINE
  5
4C0
100
AcDbEntity
  8
RACCORDO
100
AcDbPolyline
 62
253
  6
CONTINUOUS
 90
9
 70
0
 10
190.6120919536
 20
82.2523776527
 10
190.6096379242
 20
86.8808424446
 10
190.6080019045
 20
91.5102962986
 10
190.6071838944
 20
96.1403175838
 10
190.6071838942
 20
100.7705171264
 10
190.6080019042
 20
105.4005385125
 10
190.6096379242
 20
110.029992568
 10
190.6120919543
 20
114.6584576622
 10
190.6154180159
 20
119.4348726072
  0
LINE
  5
4C1
100
AcDbEntity
  8
RACCORDO
100
AcDbLine
 62
253
  6
CONTINUOUS
 10
190.6156922436
 20
77.2585927571
 11
190.6120919536
 21
82.2523776527
  0
LINE
  5
4C2
100
AcDbEntity
  8
0
100
AcDbLine
 62
253
  6
CONTINUOUS
 10
190.1291505741
 20
73.9685164378
 11
190.1291505741
 21
74.8275866428
  0
LINE
  5
4C3
100
AcDbEntity
  8
0
100
AcDbLine
 62
253
  6
CONTINUOUS
 10
190.1291505741
 20
122.0832490755
 11
190.1291505741
 21
122.9423192804
  0
LINE
  5
4C4
100
AcDbEntity
  8
0
100
AcDbLine
 62
253
  6
CONTINUOUS
 10
190.134968404
 20
75.3327681283
 11
190.134968404
 21
76.1340295281
  0
LINE
  5
4C5
100
AcDbEntity
  8
0
100
AcDbLine
 62
253
  6
CONTINUOUS
 10
190.134968404
 20
120.7768061902
 11
190.134968404
 21
121.5780675899
  0
LINE
  5
4C6
100
AcDbEntity
  8
0
100
AcDbLine
 62
253
  6
CONTINUOUS
 10
190.3791463434
 20
74.2185122071
 11
190.3791463434
 21
74.6110802918
  0
LINE
  5
4C7
100
AcDbEntity
  8
0
100
AcDbLine
 62
253
  6
CONTINUOUS
 10
190.3791463434
 20
122.2997554264
 11
190.3791463434
 21
122.6923235112
  0
LINE
  5
4C8
100
AcDbEntity
  8
0
100
AcDbLine
 62
253
  6
CONTINUOUS
 10
190.3849641732
 20
75.188430561
 11
190.3849641732
 21
76.1210038068
  0
LINE
  5
4C9
100
AcDbEntity
  8
0
100
AcDbLine
 62
253
  6
CONTINUOUS
 10
190.3849641732
 20
120.7898319114
 11
190.3849641732
 21
121.7224051572
  0
LINE
  5
4CA
100
AcDbEntity
  8
0
100
AcDbLine
 62
7
  6
CONTINUOUS
 10
190.3922449221
 20
74.2054136283
 11
190.3922449221
 21
76.0554178591
  0
LINE
  5
4CB
100
AcDbEntity
  8
0
100
AcDbLine
 62
7
  6
CONTINUOUS
 10
190.3922449221
 20
120.8554178591
 11
190.3922449221
 21
122.7054220899
  0
LINE
  5
4CC
100
AcDbEntity
  8
RACCORDO
100
AcDbLine
 62
7
  6
CONTINUOUS
 10
191.2422449221
 20
76.8552465216
 11
191.2422449221
 21
120.0555891966
  0
LINE
  5
4CD
100
AcDbEntity
  8
DRAFT
100
AcDbLine
 62
7
  6
CONTINUOUS
 10
191.3651895714
 20
76.6342583801
 11
191.3651895714
 21
81.8554178591
  0
LINE
  5
4CE
100
AcDbEntity
  8
DRAFT
100
AcDbLine
 62
7
  6
CONTINUOUS
 10
191.3651895714
 20
115.0554178591
 11
191.3651895714
 21
120.2765773381
  0
LINE
  5
4CF
100
AcDbEntity
  8
0
100
AcDbLine
 62
7
  6
CONTINUOUS
 10
191.3913721688
 20
76.5556467112
 11
191.3913721688
 21
120.3551890071
  0
LINE
  5
4D0
100
AcDbEntity
  8
0
100
AcDbLine
 62
7
  6
CONTINUOUS
 10
191.3926812655
 20
76.5554009361
 11
191.3926812655
 21
120.3554347822
  0
LINE
  5
4D1
100
AcDbEntity
  8
DRAFT
100
AcDbLine
 62
7
  6
CONTINUOUS
 10
191.3651895714
 20
115.0554178591
 11
191.3372894271
 21
98.4554178591
  0
LINE
  5
4D2
100
AcDbEntity
  8
RACCORDO
100
AcDbLine
 62
253
  6
CONTINUOUS
 10
190.6154180159
 20
119.4348726072
 11
190.6160010312
 21
119.7894605811
  0
LINE
  5
4D3
100
AcDbEntity
  8
RACCORDO
100
AcDbLine
 62
253
  6
CONTINUOUS
 10
191.0991419358
 20
114.6414417195
 11
191.1039123577
 21
119.3515382544
  0
LINE
  5
4D4
100
AcDbEntity
  8
RACCORDO
100
AcDbLine
 62
253
  6
CONTINUOUS
 10
190.6160010312
 20
119.7894605811
 11
190.6171883096
 21
120.090232302
  0
LINE
  5
4D5
100
AcDbEntity
  8
RACCORDO
100
AcDbLine
 62
253
  6
CONTINUOUS
 10
190.6171883096
 20
120.090232302
 11
190.6184918084
 21
120.2721939728
  0
LINE
  5
4D6
100
AcDbEntity
  8
RACCORDO
100
AcDbLine
 62
253
  6
CONTINUOUS
 10
191.1039123577
 20
119.3515382544
 11
191.1047989149
 21
119.4781514474
  0
LINE
  5
4D7
100
AcDbEntity
  8
0
100
AcDbLine
 62
253
  6
CONTINUOUS
 10
190.1342411752
 20
75.3327681283
 11
190.1291505741
 21
74.8275866428
  0
LINE
  5
4D8
100
AcDbEntity
  8
0
100
AcDbLine
 62
253
  6
CONTINUOUS
 10
190.3849641732
 20
75.188430561
 11
190.3791463434
 21
74.6110802918
  0
LWPOLYLINE
  5
4D9
100
AcDbEntity
  8
RACCORDO
100
AcDbPolyline
 62
253
  6
CONTINUOUS
 90
7
 70
0
 10
190.6184918084
 20
120.2721939728
 10
190.6196257064
 20
120.366683374
 10
190.6200306255
 20
120.3894574616
 10
190.620435658
 20
120.4077099007
 10
190.6208394415
 20
120.4213679613
 10
190.6212566756
 20
120.430375577
 10
190.621694133
 20
120.4346957325
  0
LINE
  5
4DA
100
AcDbEntity
  8
RACCORDO
100
AcDbLine
 62
253
  6
CONTINUOUS
 10
191.1047989149
 20
119.4781514474
 11
191.1062921863
 21
119.5965337651
  0
LWPOLYLINE
  5
4DB
100
AcDbEntity
  8
0
100
AcDbPolyline
 62
7
  6
CONTINUOUS
 90
34
 70
0
 10
191.3913721688
 20
76.5556467112
 10
191.3910277274
 20
76.5369694896
 10
191.3899857492
 20
76.518338794
 10
191.3882462342
 20
76.4997546244
 10
191.385803409
 20
76.4811762321
 10
191.382663047
 20
76.4626443658
 10
191.3788424685
 20
76.4442812712
 10
191.3743371214
 20
76.4260993049
 10
191.3691515576
 20
76.4080861103
 10
191.3633167539
 20
76.390326863
 10
191.3568412568
 20
76.3728440735
 10
191.3497165197
 20
76.3556152313
 10
191.3419478787
 20
76.3386579805
 10
191.3335218981
 20
76.3219457642
 10
191.3244520136
 20
76.3055051393
 10
191.3147838695
 20
76.2894334209
 10
191.3045085861
 20
76.2737316551
 10
191.293635043
 20
76.2583987958
 10
191.2822355229
 20
76.2435290201
 10
191.2703226986
 20
76.2291437578
 10
191.2578838972
 20
76.215221579
 10
191.2449533834
 20
76.2017923712
 10
191.2315321681
 20
76.1888544485
 10
191.2176192405
 20
76.1764094968
 10
191.203245832
 20
76.1644924619
 10
191.1883906435
 20
76.1530909716
 10
191.1730749743
 20
76.1422173981
 10
191.1573939534
 20
76.1319438036
 10
191.1413472565
 20
76.1222794553
 10
191.1249352079
 20
76.113215086
 10
191.1082539107
 20
76.1047949561
 10
191.0913301717
 20
76.097032346
 10
191.074137184
 20
76.0899139753
 10
191.0566906301
 20
76.0834442632
  0
LINE
  5
4DC
100
AcDbEntity
  8
RACCORDO
100
AcDbLine
 62
253
  6
CONTINUOUS
 10
191.1062921863
 20
119.5965337651
 11
191.1075976533
 21
119.6685397319
  0
LWPOLYLINE
  5
4DD
100
AcDbEntity
  8
0
100
AcDbPolyline
 62
253
  6
CONTINUOUS
 90
34
 70
0
 10
190.3791463434
 20
74.2185122071
 10
190.3788627926
 20
74.2066171855
 10
190.3780135876
 20
74.1947491089
 10
190.3766006522
 20
74.182934861
 10
190.3746271869
 20
74.1712012037
 10
190.3720976621
 20
74.1595747165
 10
190.3690178078
 20
74.1480817359
 10
190.3653946004
 20
74.1367482961
 10
190.3612362473
 20
74.1256000698
 10
190.3565521682
 20
74.1146623104
 10
190.3513529736
 20
74.1039597942
 10
190.3456504407
 20
74.093516765
 10
190.3394574872
 20
74.0833568784
 10
190.3327881414
 20
74.0735031489
 10
190.3256575108
 20
74.0639778974
 10
190.318081748
 20
74.0548027007
 10
190.3100780138
 20
74.0459983428
 10
190.3016644384
 20
74.0375847674
 10
190.2928600805
 20
74.0295810332
 10
190.2836848838
 20
74.0220052704
 10
190.2741596323
 20
74.0148746399
 10
190.2643059028
 20
74.008205294
 10
190.2541460162
 20
74.0020123405
 10
190.243702987
 20
73.9963098076
 10
190.2330004708
 20
73.991110613
 10
190.2220627114
 20
73.9864265339
 10
190.2109144851
 20
73.9822681808
 10
190.1995810453
 20
73.9786449734
 10
190.1880880647
 20
73.9755651191
 10
190.1764615775
 20
73.9730355943
 10
190.1647279202
 20
73.971062129
 10
190.1529136723
 20
73.9696491936
 10
190.1410455957
 20
73.9687999887
 10
190.1291505741
 20
73.9685164378
  0
LWPOLYLINE
  5
4DE
100
AcDbEntity
  8
0
100
AcDbPolyline
 62
7
  6
CONTINUOUS
 90
34
 70
0
 10
190.3922449221
 20
74.2054136283
 10
190.3919617718
 20
74.1935183431
 10
190.3911129563
 20
74.1816500036
 10
190.3897003962
 20
74.169835493
 10
190.3877272898
 20
74.1581015716
 10
190.3851981038
 20
74.1464748203
 10
190.3821185638
 20
74.1349815801
 10
190.3784956434
 20
74.1236478853
 10
190.3743375479
 20
74.1124994098
 10
190.3696536943
 20
74.1015614128
 10
190.3644546909
 20
74.0908586715
 10
190.3587523137
 20
74.0804154309
 10
190.3525594802
 20
74.0702553532
 10
190.3458902176
 20
74.060401454
 10
190.3387596328
 20
74.0508760553
 10
190.3311838809
 20
74.0417007401
 10
190.3231801226
 20
74.032896293
 10
190.3147664882
 20
74.0244826586
 10
190.3059620411
 20
74.0164789003
 10
190.2967867259
 20
74.0089031484
 10
190.2872613272
 20
74.0017725636
 10
190.277407428
 20
73.995103301
 10
190.2672473503
 20
73.9889104675
 10
190.2568041097
 20
73.9832080903
 10
190.2461013684
 20
73.9780090869
 10
190.2351633714
 20
73.9733252333
 10
190.2240148959
 20
73.9691671378
 10
190.2126812011
 20
73.9655442174
 10
190.2011879609
 20
73.9624646774
 10
190.1895612096
 20
73.9599354914
 10
190.1778272882
 20
73.957962385
 10
190.1660127776
 20
73.9565498249
 10
190.1541444381
 20
73.9557010094
 10
190.1422491529
 20
73.9554178591
  0
LINE
  5
4DF
100
AcDbEntity
  8
RACCORDO
100
AcDbLine
 62
253
  6
CONTINUOUS
 10
191.1075976533
 20
119.6685397319
 11
191.1091317302
 21
119.7339099414
  0
LWPOLYLINE
  5
4E0
100
AcDbEntity
  8
0
100
AcDbPolyline
 62
253
  6
CONTINUOUS
 90
34
 70
0
 10
190.3791463434
 20
122.2997554264
 10
190.3788296926
 20
122.2894726589
 10
190.3779495309
 20
122.2792130989
 10
190.3765078446
 20
122.2689999018
 10
190.3745078875
 20
122.2588561181
 10
190.3719541735
 20
122.2488046417
 10
190.3688524661
 20
122.2388681582
 10
190.3652097657
 20
122.2290690937
 10
190.3610342937
 20
122.2194295641
 10
190.3563354738
 20
122.2099713252
 10
190.3511239109
 20
122.2007157237
 10
190.3454113674
 20
122.1916836489
 10
190.339210736
 20
122.1828954858
 10
190.3325360113
 20
122.1743710687
 10
190.3254022576
 20
122.1661296366
 10
190.3178255755
 20
122.1581897901
 10
190.3098230651
 20
122.1505694489
 10
190.3014127875
 20
122.1432858116
 10
190.2926137242
 20
122.1363553169
 10
190.2834457343
 20
122.1297936067
 10
190.2739295094
 20
122.1236154902
 10
190.2640865269
 20
122.1178349112
 10
190.2539390019
 20
122.1124649161
 10
190.2435098369
 20
122.1075176245
 10
190.2328225697
 20
122.1030042024
 10
190.221901321
 20
122.0989348361
 10
190.2107707393
 20
122.09531871
 10
190.1994559457
 20
122.0921639855
 10
190.187982477
 20
122.0894777827
 10
190.1763762283
 20
122.087266164
 10
190.164663394
 20
122.0855341211
 10
190.1528704093
 20
122.084285563
 10
190.1410238904
 20
122.0835233077
 10
190.1291505741
 20
122.0832490755
  0
LWPOLYLINE
  5
4E1
100
AcDbEntity
  8
RACCORDO
100
AcDbPolyline
 62
253
  6
CONTINUOUS
 90
12
 70
0
 10
191.1091317302
 20
119.7339099414
 10
191.1108689184
 20
119.7914264296
 10
191.1118026566
 20
119.8169282772
 10
191.1127767495
 20
119.840121384
 10
191.113790754
 20
119.8610341175
 10
191.1148327873
 20
119.8794232523
 10
191.1159035934
 20
119.8952598974
 10
191.1170024282
 20
119.9085729439
 10
191.1181151773
 20
119.9192058396
 10
191.1192371357
 20
119.9271064005
 10
191.1203730085
 20
119.9323268106
 10
191.1215227955
 20
119.93486707
  0
LINE
  5
4E2
100
AcDbEntity
  8
0
100
AcDbLine
 62
7
  6
CONTINUOUS
 10
187.4922449221
 20
76.0554178591
 11
187.499525671
 21
76.1210038068
  0
LWPOLYLINE
  5
4E3
100
AcDbEntity
  8
0
100
AcDbPolyline
 62
7
  6
CONTINUOUS
 90
34
 70
0
 10
191.0566906299
 20
120.8273914551
 10
191.0741371839
 20
120.820921743
 10
191.0913301715
 20
120.8138033723
 10
191.1082539106
 20
120.8060407622
 10
191.1249352078
 20
120.7976206323
 10
191.1413472563
 20
120.788556263
 10
191.1573939533
 20
120.7788919148
 10
191.1730749742
 20
120.7686183202
 10
191.1883906434
 20
120.7577447467
 10
191.2032458319
 20
120.7463432565
 10
191.2176192404
 20
120.7344262216
 10
191.2315321681
 20
120.7219812699
 10
191.2449533833
 20
120.7090433471
 10
191.2578838971
 20
120.6956141394
 10
191.2703226985
 20
120.6816919606
 10
191.2822355229
 20
120.6673066982
 10
191.293635043
 20
120.6524369225
 10
191.304508586
 20
120.6371040632
 10
191.3147838694
 20
120.6214022974
 10
191.3244520136
 20
120.6053305791
 10
191.3335218981
 20
120.5888899542
 10
191.3419478787
 20
120.5721777378
 10
191.3497165196
 20
120.555220487
 10
191.3568412568
 20
120.5379916448
 10
191.3633167538
 20
120.5205088553
 10
191.3691515576
 20
120.502749608
 10
191.3743371214
 20
120.4847364134
 10
191.3788424685
 20
120.4665544471
 10
191.382663047
 20
120.4481913525
 10
191.385803409
 20
120.4296594861
 10
191.3882462342
 20
120.4110810939
 10
191.3899857492
 20
120.3924969242
 10
191.3910277274
 20
120.3738662286
 10
191.3913721688
 20
120.3551890071
  0
LINE
  5
4E4
100
AcDbEntity
  8
0
100
AcDbLine
 62
7
  6
CONTINUOUS
 10
187.4922449221
 20
120.8554178591
 11
187.499525671
 21
120.7898319114
  0
LINE
  5
4E5
100
AcDbEntity
  8
0
100
AcDbLine
 62
253
  6
CONTINUOUS
 10
187.5053435008
 20
74.2185122071
 11
187.4922449221
 21
74.2054136283
  0
LINE
  5
4E6
100
AcDbEntity
  8
0
100
AcDbLine
 62
253
  6
CONTINUOUS
 10
187.75533927
 20
73.9685164378
 11
187.7422406913
 21
73.9554178591
  0
LINE
  5
4E7
100
AcDbEntity
  8
0
100
AcDbLine
 62
253
  6
CONTINUOUS
 10
187.5053435008
 20
122.6923235112
 11
187.4922449221
 21
122.7054220899
  0
LINE
  5
4E8
100
AcDbEntity
  8
0
100
AcDbLine
 62
253
  6
CONTINUOUS
 10
187.75533927
 20
122.9423192804
 11
187.7422406913
 21
122.9554178591
  0
LINE
  5
4E9
100
AcDbEntity
  8
0
100
AcDbLine
 62
7
  6
CONTINUOUS
 10
101.7540646638
 20
73.9554178591
 11
102.5055190966
 21
73.9597896931
  0
LINE
  5
4EA
100
AcDbEntity
  8
0
100
AcDbLine
 62
253
  6
CONTINUOUS
 10
101.7540646638
 20
74.2054136283
 11
102.5055190966
 21
74.2097854623
  0
LINE
  5
4EB
100
AcDbEntity
  8
0
100
AcDbLine
 62
7
  6
CONTINUOUS
 10
107.2569735294
 20
74.4874328464
 11
102.7540646638
 21
74.4612356889
  0
LINE
  5
4EC
100
AcDbEntity
  8
0
100
AcDbLine
 62
253
  6
CONTINUOUS
 10
102.7540646638
 20
74.2097854623
 11
102.5055190966
 21
74.2097854623
  0
LINE
  5
4ED
100
AcDbEntity
  8
0
100
AcDbLine
 62
253
  6
CONTINUOUS
 10
99.2540646638
 20
74.2185122071
 11
99.5026102309
 21
74.2185122071
  0
LINE
  5
4EE
100
AcDbEntity
  8
0
100
AcDbLine
 62
253
  6
CONTINUOUS
 10
102.7540646638
 20
74.6110802918
 11
102.5055190966
 21
74.6110802918
  0
LINE
  5
4EF
100
AcDbEntity
  8
0
100
AcDbLine
 62
253
  6
CONTINUOUS
 10
99.2540646638
 20
74.6110802918
 11
99.5026102309
 21
74.6110802918
  0
LINE
  5
4F0
100
AcDbEntity
  8
0
100
AcDbLine
 62
7
  6
CONTINUOUS
 10
99.5026102309
 20
73.9685164378
 11
101.7540646638
 21
73.9554178591
  0
LINE
  5
4F1
100
AcDbEntity
  8
0
100
AcDbLine
 62
253
  6
CONTINUOUS
 10
99.5026102309
 20
74.2185122071
 11
101.7540646638
 21
74.2054136283
  0
LINE
  5
4F2
100
AcDbEntity
  8
0
100
AcDbLine
 62
7
  6
CONTINUOUS
 10
101.7540646638
 20
76.0554178591
 11
112.7598823951
 21
76.1194478336
  0
LINE
  5
4F3
100
AcDbEntity
  8
0
100
AcDbLine
 62
253
  6
CONTINUOUS
 10
101.7540646638
 20
76.5554009361
 11
102.7540646638
 21
76.5612187659
  0
LINE
  5
4F4
100
AcDbEntity
  8
RACCORDO
100
AcDbLine
 62
7
  6
CONTINUOUS
 10
98.1540646638
 20
76.3554178591
 11
93.1631450518
 21
76.4861096886
  0
LINE
  5
4F5
100
AcDbEntity
  8
0
100
AcDbLine
 62
7
  6
CONTINUOUS
 10
100.2540646638
 20
76.1340295281
 11
101.7540646638
 21
76.0554178591
  0
LINE
  5
4F6
100
AcDbEntity
  8
0
100
AcDbLine
 62
253
  6
CONTINUOUS
 10
100.2540646638
 20
76.6342583801
 11
101.7540646638
 21
76.5556467112
  0
LWPOLYLINE
  5
4F7
100
AcDbEntity
  8
RACCORDO
100
AcDbPolyline
 62
7
  6
CONTINUOUS
 90
25
 70
0
 10
93.5438726483
 20
76.4761399857
 10
93.4688076233
 20
76.4804601412
 10
93.3941697124
 20
76.4894677568
 10
93.3202512382
 20
76.5031258172
 10
93.247344325
 20
76.5213782563
 10
93.1757312607
 20
76.5441523439
 10
93.1056839702
 20
76.5713608361
 10
93.0374732329
 20
76.6028989327
 10
92.97136996
 20
76.6386417453
 10
92.9076357887
 20
76.6784477429
 10
92.8465208208
 20
76.7221599942
 10
92.7882633105
 20
76.7696072956
 10
92.7330914959
 20
76.8206034163
 10
92.6812212293
 20
76.874948106
 10
92.6328551251
 20
76.9324282527
 10
92.5881822623
 20
76.9928188284
 10
92.5473768657
 20
77.0558837406
 10
92.5105988497
 20
77.1213751376
 10
92.4779929193
 20
77.1890346223
 10
92.4496876417
 20
77.2585927571
 10
92.4257910707
 20
77.3297808184
 10
92.4063936503
 20
77.40233094
 10
92.3915721219
 20
77.4759631122
 10
92.3813869566
 20
77.5503855345
 10
92.375879467
 20
77.6253067951
  0
LWPOLYLINE
  5
4F8
100
AcDbEntity
  8
RACCORDO
100
AcDbPolyline
 62
253
  6
CONTINUOUS
 90
25
 70
0
 10
93.5438726483
 20
76.9759686481
 10
93.4999640551
 20
76.9785089075
 10
93.4565868257
 20
76.9837293177
 10
93.4137409601
 20
76.9916298786
 10
93.3712467875
 20
77.0022627743
 10
93.3292839787
 20
77.0155758208
 10
93.2883915463
 20
77.0314124659
 10
93.2485978994
 20
77.0498016007
 10
93.2098746289
 20
77.0707143341
 10
93.1726755208
 20
77.093907441
 10
93.1370174974
 20
77.1194092886
 10
93.1028836364
 20
77.1471915096
 10
93.0706769564
 20
77.1769257767
 10
93.0404213494
 20
77.2086348584
 10
93.0120929235
 20
77.2422959863
 10
92.9860230218
 20
77.2775125274
 10
92.9622391506
 20
77.314301953
 10
92.9407138036
 20
77.3526467919
 10
92.9216958057
 20
77.3920979976
 10
92.905213416
 20
77.4326842707
 10
92.8912383754
 20
77.4743769106
 10
92.8799347307
 20
77.5166407691
 10
92.8713571642
 20
77.5592974637
 10
92.8654509937
 20
77.6025253769
 10
92.8622162191
 20
77.6463245089
  0
LINE
  5
4F9
100
AcDbEntity
  8
0
100
AcDbLine
 62
7
  6
CONTINUOUS
 10
100.2556907031
 20
121.5791032156
 11
100.2585639818
 21
121.580828467
  0
LINE
  5
4FA
100
AcDbEntity
  8
0
100
AcDbLine
 62
7
  6
CONTINUOUS
 10
100.2585639818
 20
121.580828467
 11
100.3184732945
 21
121.6158194057
  0
LINE
  5
4FB
100
AcDbEntity
  8
0
100
AcDbLine
 62
253
  6
CONTINUOUS
 10
101.7540646638
 20
121.8659030073
 11
102.5055190966
 21
122.2997554264
  0
LINE
  5
4FC
100
AcDbEntity
  8
0
100
AcDbLine
 62
7
  6
CONTINUOUS
 10
100.3184732945
 20
121.6158194057
 11
100.5026102309
 21
121.7224051572
  0
LINE
  5
4FD
100
AcDbEntity
  8
RACCORDO
100
AcDbLine
 62
253
  6
CONTINUOUS
 10
92.3758794761
 20
77.6253067787
 11
92.3796100001
 21
77.6255196197
  0
LINE
  5
4FE
100
AcDbEntity
  8
RACCORDO
100
AcDbLine
 62
253
  6
CONTINUOUS
 10
92.3796100001
 20
77.6255196197
 11
92.4443322323
 21
77.6284554045
  0
LINE
  5
4FF
100
AcDbEntity
  8
RACCORDO
100
AcDbLine
 62
253
  6
CONTINUOUS
 10
92.4443322323
 20
77.6284554045
 11
92.8622162191
 21
77.6463245089
  0
LINE
  5
500
100
AcDbEntity
  8
RACCORDO
100
AcDbLine
 62
253
  6
CONTINUOUS
 10
91.9969106862
 20
77.6231794217
 11
92.375879474
 21
77.6253067953
  0
LINE
  5
501
100
AcDbEntity
  8
0
100
AcDbLine
 62
7
  6
CONTINUOUS
 10
103.7540646638
 20
77.5554178591
 11
113.7540646638
 21
77.5554178591
  0
LINE
  5
502
100
AcDbEntity
  8
0
100
AcDbLine
 62
7
  6
CONTINUOUS
 10
113.262790867
 20
76.8719873609
 11
103.7540646638
 21
77.0379627942
  0
LINE
  5
503
100
AcDbEntity
  8
RACCORDO
100
AcDbLine
 62
253
  6
CONTINUOUS
 10
98.1540646638
 20
76.8552465216
 11
93.5438726483
 21
76.9759686481
  0
LINE
  5
504
100
AcDbEntity
  8
0
100
AcDbLine
 62
253
  6
CONTINUOUS
 10
102.5055190966
 20
74.6110802918
 11
101.7540646638
 21
75.0449327109
  0
LINE
  5
505
100
AcDbEntity
  8
0
100
AcDbLine
 62
7
  6
CONTINUOUS
 10
100.5026102309
 20
75.188430561
 11
100.3854173346
 21
75.2561919173
  0
LINE
  5
506
100
AcDbEntity
  8
0
100
AcDbLine
 62
7
  6
CONTINUOUS
 10
100.3854173346
 20
75.2561919173
 11
100.2714976318
 21
75.3223923086
  0
LWPOLYLINE
  5
507
100
AcDbEntity
  8
0
100
AcDbPolyline
 62
7
  6
CONTINUOUS
 90
7
 70
0
 10
100.2714976318
 20
75.3223923086
 10
100.2585474835
 20
75.3300208611
 10
100.2569404183
 20
75.3309760196
 10
100.2556814637
 20
75.3317381081
 10
100.2547800416
 20
75.3322997247
 10
100.2542392119
 20
75.3326463968
 10
100.2540646638
 20
75.3327681283
  0
LWPOLYLINE
  5
508
100
AcDbEntity
  8
0
100
AcDbPolyline
 62
7
  6
CONTINUOUS
 90
4
 70
0
 10
100.2540646638
 20
121.5780675899
 10
100.2542460555
 20
121.5782077301
 10
100.2547888753
 20
121.5785529387
 10
100.2556907031
 20
121.5791032156
  0
LINE
  5
509
100
AcDbEntity
  8
0
100
AcDbLine
 62
7
  6
CONTINUOUS
 10
101.7540646638
 20
121.5780675899
 11
102.6290646638
 21
122.0832490755
  0
LINE
  5
50A
100
AcDbEntity
  8
RACCORDO
100
AcDbLine
 62
253
  6
CONTINUOUS
 10
113.5575551451
 20
79.4387606016
 11
113.7540646638
 21
79.4387606016
  0
LINE
  5
50B
100
AcDbEntity
  8
RACCORDO
100
AcDbLine
 62
7
  6
CONTINUOUS
 10
113.5558099709
 20
78.6611524559
 11
103.7540646638
 21
78.7466909913
  0
LINE
  5
50C
100
AcDbEntity
  8
0
100
AcDbLine
 62
7
  6
CONTINUOUS
 10
102.7540646638
 20
79.9471273347
 11
103.7540646638
 21
79.9384004669
  0
LINE
  5
50D
100
AcDbEntity
  8
0
100
AcDbLine
 62
7
  6
CONTINUOUS
 10
102.6290646638
 20
74.8275866428
 11
101.7540646638
 21
75.3327681283
  0
LWPOLYLINE
  5
50E
100
AcDbEntity
  8
RACCORDO
100
AcDbPolyline
 62
253
  6
CONTINUOUS
 90
11
 70
0
 10
93.5438726449
 20
120.4346957325
 10
93.5425776961
 20
120.4319242197
 10
93.5414401977
 20
120.4237115906
 10
93.5404726014
 20
120.4101477463
 10
93.5396854992
 20
120.3913811654
 10
93.5390875073
 20
120.3676172794
 10
93.5386851717
 20
120.3391162235
 10
93.5384828967
 20
120.306189989
 10
93.5384828966
 20
120.2691990084
 10
93.5386851714
 20
120.2285482094
 10
93.5396854985
 20
120.1380823097
  0
LINE
  5
50F
100
AcDbEntity
  8
RACCORDO
100
AcDbLine
 62
7
  6
CONTINUOUS
 10
100.2540646638
 20
81.0554178591
 11
98.1540646638
 21
81.0920734955
  0
LINE
  5
510
100
AcDbEntity
  8
RACCORDO
100
AcDbLine
 62
253
  6
CONTINUOUS
 10
100.2347891224
 20
82.0556020101
 11
98.1540646638
 21
82.0919211906
  0
LWPOLYLINE
  5
511
100
AcDbEntity
  8
RACCORDO
100
AcDbPolyline
 62
253
  6
CONTINUOUS
 90
9
 70
0
 10
93.5438726483
 20
76.4761399857
 10
93.5425776872
 20
76.4789115505
 10
93.5414401806
 20
76.4871243232
 10
93.5404725802
 20
76.5006883844
 10
93.5396854774
 20
76.5194552406
 10
93.5390874882
 20
76.5432194375
 10
93.5386851585
 20
76.5717207985
 10
93.5384828917
 20
76.6046472985
 10
93.5384829008
 20
76.6416384838
  0
LINE
  5
512
100
AcDbEntity
  8
RACCORDO
100
AcDbLine
 62
253
  6
CONTINUOUS
 10
103.7540646638
 20
114.0849396781
 11
113.5575551451
 21
117.4720751166
  0
LINE
  5
513
100
AcDbEntity
  8
RACCORDO
100
AcDbLine
 62
253
  6
CONTINUOUS
 10
113.5575551451
 20
79.4387606016
 11
103.7540646638
 21
82.8258960401
  0
LWPOLYLINE
  5
514
100
AcDbEntity
  8
0
100
AcDbPolyline
 62
253
  6
CONTINUOUS
 90
6
 70
0
 10
99.3823185355
 20
122.0894777827
 10
99.3811091801
 20
122.087266164
 10
99.3801773279
 20
122.0855341211
 10
99.3795250822
 20
122.084285563
 10
99.3791539149
 20
122.0835233077
 10
99.3790646638
 20
122.0832490755
  0
LINE
  5
515
100
AcDbEntity
  8
0
100
AcDbLine
 62
253
  6
CONTINUOUS
 10
99.3855582183
 20
122.09531871
 11
99.3823185355
 21
122.0894777827
  0
LINE
  5
516
100
AcDbEntity
  8
0
100
AcDbLine
 62
253
  6
CONTINUOUS
 10
99.3952064394
 20
122.1124649161
 11
99.3855582183
 21
122.09531871
  0
LINE
  5
517
100
AcDbEntity
  8
0
100
AcDbLine
 62
253
  6
CONTINUOUS
 10
99.4257740192
 20
122.1661296366
 11
99.3952064394
 21
122.1124649161
  0
LINE
  5
518
100
AcDbEntity
  8
0
100
AcDbLine
 62
253
  6
CONTINUOUS
 10
99.5026102309
 20
122.2997554264
 11
99.4257740192
 21
122.1661296366
  0
LINE
  5
519
100
AcDbEntity
  8
RACCORDO
100
AcDbLine
 62
7
  6
CONTINUOUS
 10
103.7540646638
 20
113.4157155165
 11
113.622468693
 21
117.0075208428
  0
LINE
  5
51A
100
AcDbEntity
  8
RACCORDO
100
AcDbLine
 62
7
  6
CONTINUOUS
 10
113.622468693
 20
79.9033148754
 11
103.7540646638
 21
83.4951202018
  0
LINE
  5
51B
100
AcDbEntity
  8
0
100
AcDbLine
 62
253
  6
CONTINUOUS
 10
99.5026102309
 20
74.6110802918
 11
99.4212326176
 21
74.7526483933
  0
LINE
  5
51C
100
AcDbEntity
  8
0
100
AcDbLine
 62
253
  6
CONTINUOUS
 10
99.4212326176
 20
74.7526483933
 11
99.3952050679
 21
74.7983732263
  0
LINE
  5
51D
100
AcDbEntity
  8
0
100
AcDbLine
 62
253
  6
CONTINUOUS
 10
99.3952050679
 20
74.7983732263
 11
99.3855571796
 21
74.8155188695
  0
LWPOLYLINE
  5
51E
100
AcDbEntity
  8
0
100
AcDbPolyline
 62
253
  6
CONTINUOUS
 90
7
 70
0
 10
99.3855571796
 20
74.8155188695
 10
99.3823177194
 20
74.8213594196
 10
99.3811084876
 20
74.8235708296
 10
99.3801768416
 20
74.8253025122
 10
99.379524835
 20
74.8265506408
 10
99.3791538508
 20
74.8273125548
 10
99.3790646638
 20
74.8275866428
  0
LWPOLYLINE
  5
51F
100
AcDbEntity
  8
0
100
AcDbPolyline
 62
7
  6
CONTINUOUS
 90
3
 70
0
 10
91.5259447617
 20
90.9641476907
 10
91.5264674283
 20
90.9579621632
 10
91.5272537285
 20
90.9397881697
  0
LWPOLYLINE
  5
520
100
AcDbEntity
  8
0
100
AcDbPolyline
 62
7
  6
CONTINUOUS
 90
3
 70
0
 10
91.7548256473
 20
82.946689668
 10
91.834011302
 20
81.0251602898
 10
91.9969105144
 20
77.6231827148
  0
LWPOLYLINE
  5
521
100
AcDbEntity
  8
0
100
AcDbPolyline
 62
7
  6
CONTINUOUS
 90
10
 70
0
 10
91.9969105144
 20
119.2876530035
 10
91.8337208653
 20
115.8790154734
 10
91.6970310356
 20
112.3952177603
 10
91.5907095296
 20
108.9103611167
 10
91.5147673212
 20
105.4247101787
 10
91.4692128584
 20
101.9385296365
 10
91.4540474078
 20
98.4520843886
 10
91.4692709687
 20
94.9656394203
 10
91.5148835405
 20
91.4794597168
 10
91.5242044507
 20
90.964150048
  0
LWPOLYLINE
  5
522
100
AcDbEntity
  8
RACCORDO
100
AcDbPolyline
 62
7
  6
CONTINUOUS
 90
25
 70
0
 10
92.3758794632
 20
119.2855289227
 10
92.3813869529
 20
119.3604501843
 10
92.3915721184
 20
119.4348726072
 10
92.406393647
 20
119.5085047797
 10
92.4257910674
 20
119.5810549012
 10
92.4496876384
 20
119.6522429621
 10
92.4779929159
 20
119.7218010965
 10
92.5105988463
 20
119.7894605811
 10
92.5473768624
 20
119.854951978
 10
92.5881822589
 20
119.9180168902
 10
92.6328551217
 20
119.9784074657
 10
92.6812212258
 20
120.0358876123
 10
92.7330914923
 20
120.090232302
 10
92.7882633069
 20
120.1412284226
 10
92.8465208171
 20
120.1886757239
 10
92.907635785
 20
120.2323879752
 10
92.9713699562
 20
120.2721939728
 10
93.0374732291
 20
120.3079367853
 10
93.1056839662
 20
120.3394748819
 10
93.1757312565
 20
120.366683374
 10
93.2473443205
 20
120.3894574616
 10
93.3202512336
 20
120.4077099007
 10
93.394169708
 20
120.4213679613
 10
93.4688076193
 20
120.430375577
 10
93.5438726449
 20
120.4346957325
  0
LWPOLYLINE
  5
523
100
AcDbEntity
  8
RACCORDO
100
AcDbPolyline
 62
253
  6
CONTINUOUS
 90
10
 70
0
 10
92.375879474
 20
77.6253067953
 10
92.2027276364
 20
82.2523776527
 10
92.0728380611
 20
86.8808424446
 10
91.986232942
 20
91.5102962986
 10
91.9429285217
 20
96.1403175838
 10
91.942928517
 20
100.7705171264
 10
91.9862329292
 20
105.4005385125
 10
92.0728380446
 20
110.029992568
 10
92.2027276232
 20
114.6584576622
 10
92.375879474
 20
119.2855289222
  0
LWPOLYLINE
  5
524
100
AcDbEntity
  8
RACCORDO
100
AcDbPolyline
 62
253
  6
CONTINUOUS
 90
10
 70
0
 10
92.8622162191
 20
77.6463245089
 10
92.6891820948
 20
82.2693941256
 10
92.5594065018
 20
86.8930504332
 10
92.4728894401
 20
91.5172934317
 10
92.4296309101
 20
96.1425142589
 10
92.4296309114
 20
100.7683217769
 10
92.4728894429
 20
105.3935425723
 10
92.5594065042
 20
110.0177855073
 10
92.6891820956
 20
114.6414417195
 10
92.8622162172
 20
119.2645112092
  0
LINE
  5
525
100
AcDbEntity
  8
0
100
AcDbLine
 62
7
  6
CONTINUOUS
 10
91.5272537285
 20
90.9397881697
 11
91.5296250291
 21
90.8672999523
  0
LINE
  5
526
100
AcDbEntity
  8
0
100
AcDbLine
 62
7
  6
CONTINUOUS
 10
91.6632003955
 20
85.9720975968
 11
91.7507795221
 21
83.1634952054
  0
LINE
  5
527
100
AcDbEntity
  8
0
100
AcDbLine
 62
7
  6
CONTINUOUS
 10
91.6250951059
 20
87.2867823255
 11
91.6632003955
 21
85.9720975968
  0
LWPOLYLINE
  5
528
100
AcDbEntity
  8
0
100
AcDbPolyline
 62
7
  6
CONTINUOUS
 90
5
 70
0
 10
91.7507795221
 20
83.1634952054
 10
91.7555025434
 20
83.001174056
 10
91.7562302057
 20
82.971030883
 10
91.7565301487
 20
82.9528694393
 10
91.7564014282
 20
82.9466896619
  0
LINE
  5
529
100
AcDbEntity
  8
0
100
AcDbLine
 62
7
  6
CONTINUOUS
 10
91.5296250291
 20
90.8672999523
 11
91.5375321085
 21
90.5811619996
  0
LINE
  5
52A
100
AcDbEntity
  8
0
100
AcDbLine
 62
7
  6
CONTINUOUS
 10
91.5795848658
 20
88.9594169237
 11
91.6250951059
 21
87.2867823255
  0
LINE
  5
52B
100
AcDbEntity
  8
0
100
AcDbLine
 62
7
  6
CONTINUOUS
 10
91.5375321085
 20
90.5811619996
 11
91.5795848658
 21
88.9594169237
  0
LWPOLYLINE
  5
52C
100
AcDbEntity
  8
RACCORDO
100
AcDbPolyline
 62
253
  6
CONTINUOUS
 90
25
 70
0
 10
92.8622162172
 20
119.2645112092
 10
92.8654509909
 20
119.3083103412
 10
92.8713571608
 20
119.3515382544
 10
92.8799347268
 20
119.394194949
 10
92.8912383714
 20
119.4364588076
 10
92.9052134121
 20
119.4781514474
 10
92.9216958019
 20
119.5187377205
 10
92.9407137998
 20
119.5581889262
 10
92.9622391468
 20
119.5965337651
 10
92.986023018
 20
119.6333231908
 10
93.0120929197
 20
119.6685397319
 10
93.0404213456
 20
119.7022008597
 10
93.0706769527
 20
119.7339099414
 10
93.1028836326
 20
119.7636442085
 10
93.1370174937
 20
119.7914264296
 10
93.1726755171
 20
119.8169282772
 10
93.2098746252
 20
119.840121384
 10
93.2485978958
 20
119.8610341175
 10
93.2883915427
 20
119.8794232523
 10
93.3292839751
 20
119.8952598974
 10
93.3712467839
 20
119.9085729439
 10
93.4137409565
 20
119.9192058396
 10
93.4565868222
 20
119.9271064005
 10
93.4999640516
 20
119.9323268106
 10
93.5438726449
 20
119.93486707
  0
LINE
  5
52D
100
AcDbEntity
  8
RACCORDO
100
AcDbLine
 62
253
  6
CONTINUOUS
 10
93.5414401971
 20
120.0387426477
 11
93.5438726449
 21
119.93486707
  0
LINE
  5
52E
100
AcDbEntity
  8
RACCORDO
100
AcDbLine
 62
253
  6
CONTINUOUS
 10
93.5396854985
 20
120.1380823097
 11
93.5414401971
 21
120.0387426477
  0
LINE
  5
52F
100
AcDbEntity
  8
RACCORDO
100
AcDbLine
 62
253
  6
CONTINUOUS
 10
93.5384829008
 20
76.6416384838
 11
93.5390875275
 21
76.7261550127
  0
LINE
  5
530
100
AcDbEntity
  8
RACCORDO
100
AcDbLine
 62
253
  6
CONTINUOUS
 10
93.5390875275
 20
76.7261550127
 11
93.5404726278
 21
76.8215796904
  0
LWPOLYLINE
  5
531
100
AcDbEntity
  8
RACCORDO
100
AcDbPolyline
 62
253
  6
CONTINUOUS
 90
3
 70
0
 10
93.5404726278
 20
76.8215796904
 10
93.5425777123
 20
76.9237456249
 10
93.5438726483
 20
76.9759686481
  0
LWPOLYLINE
  5
532
100
AcDbEntity
  8
0
100
AcDbPolyline
 62
253
  6
CONTINUOUS
 90
7
 70
0
 10
99.5026102309
 20
122.9423192804
 10
99.5025426774
 20
122.9420357296
 10
99.5024785714
 20
122.9411865247
 10
99.5024180584
 20
122.9397735893
 10
99.5023612752
 20
122.937800124
 10
99.5023083507
 20
122.9352705992
 10
99.5022145477
 20
122.9285675374
  0
LINE
  5
533
100
AcDbEntity
  8
DRAFT
100
AcDbLine
 62
7
  6
CONTINUOUS
 10
98.6556664637
 20
98.4554178591
 11
100.2540646638
 21
81.8554178591
  0
LWPOLYLINE
  5
534
100
AcDbEntity
  8
0
100
AcDbPolyline
 62
253
  6
CONTINUOUS
 90
6
 70
0
 10
99.5023083507
 20
73.9755651191
 10
99.5023612752
 20
73.9730355943
 10
99.5024180584
 20
73.971062129
 10
99.5024785714
 20
73.9696491936
 10
99.5025426774
 20
73.9687999887
 10
99.5026102309
 20
73.9685164378
  0
LINE
  5
535
100
AcDbEntity
  8
0
100
AcDbLine
 62
253
  6
CONTINUOUS
 10
99.5022145477
 20
73.9822681808
 11
99.5023083507
 21
73.9755651191
  0
LINE
  5
536
100
AcDbEntity
  8
RACCORDO
100
AcDbLine
 62
7
  6
CONTINUOUS
 10
98.1540646638
 20
76.3554178591
 11
98.1540646638
 21
120.5554178591
  0
LINE
  5
537
100
AcDbEntity
  8
DRAFT
100
AcDbLine
 62
7
  6
CONTINUOUS
 10
100.2540646638
 20
115.0554178591
 11
98.6556664637
 21
98.4554178591
  0
LINE
  5
538
100
AcDbEntity
  8
0
100
AcDbLine
 62
253
  6
CONTINUOUS
 10
99.5021054816
 20
73.9963098076
 11
99.5022145477
 21
73.9822681808
  0
LINE
  5
539
100
AcDbEntity
  8
0
100
AcDbLine
 62
253
  6
CONTINUOUS
 10
99.5020223655
 20
122.8468578209
 11
99.5026102309
 21
122.6923235112
  0
LINE
  5
53A
100
AcDbEntity
  8
0
100
AcDbLine
 62
253
  6
CONTINUOUS
 10
99.5020084024
 20
74.0375847674
 11
99.5021054816
 21
73.9963098076
  0
LINE
  5
53B
100
AcDbEntity
  8
0
100
AcDbLine
 62
7
  6
CONTINUOUS
 10
99.2540646638
 20
74.2185122071
 11
99.2540646638
 21
74.6110802918
  0
LINE
  5
53C
100
AcDbEntity
  8
0
100
AcDbLine
 62
7
  6
CONTINUOUS
 10
99.2540646638
 20
122.2997554264
 11
99.2540646638
 21
122.6923235112
  0
LINE
  5
53D
100
AcDbEntity
  8
0
100
AcDbLine
 62
253
  6
CONTINUOUS
 10
99.5026102309
 20
74.2185122071
 11
99.5026102309
 21
74.6110802918
  0
LINE
  5
53E
100
AcDbEntity
  8
0
100
AcDbLine
 62
253
  6
CONTINUOUS
 10
99.5026102309
 20
122.2997554264
 11
99.5026102309
 21
122.6923235112
  0
LINE
  5
53F
100
AcDbEntity
  8
0
100
AcDbLine
 62
7
  6
CONTINUOUS
 10
100.2540646638
 20
75.3327681283
 11
100.2540646638
 21
76.6342583801
  0
LINE
  5
540
100
AcDbEntity
  8
DRAFT
100
AcDbLine
 62
7
  6
CONTINUOUS
 10
100.2540646638
 20
76.6342583801
 11
100.2540646638
 21
81.8554178591
  0
LINE
  5
541
100
AcDbEntity
  8
DRAFT
100
AcDbLine
 62
7
  6
CONTINUOUS
 10
100.2540646638
 20
115.0554178591
 11
100.2540646638
 21
120.2765773381
  0
LINE
  5
542
100
AcDbEntity
  8
0
100
AcDbLine
 62
7
  6
CONTINUOUS
 10
100.2540646638
 20
120.2765773381
 11
100.2540646638
 21
121.5780675899
  0
LINE
  5
543
100
AcDbEntity
  8
0
100
AcDbLine
 62
253
  6
CONTINUOUS
 10
100.5026102309
 20
75.188430561
 11
100.5026102309
 21
76.1210038068
  0
LINE
  5
544
100
AcDbEntity
  8
0
100
AcDbLine
 62
253
  6
CONTINUOUS
 10
100.5026102309
 20
120.7898319114
 11
100.5026102309
 21
121.7224051572
  0
LINE
  5
545
100
AcDbEntity
  8
0
100
AcDbLine
 62
253
  6
CONTINUOUS
 10
99.5020548232
 20
122.9026304242
 11
99.5020223655
 21
122.8468578209
  0
LINE
  5
546
100
AcDbEntity
  8
0
100
AcDbLine
 62
253
  6
CONTINUOUS
 10
99.5023083507
 20
74.1595747165
 11
99.5020084024
 21
74.0375847674
  0
LINE
  5
547
100
AcDbEntity
  8
0
100
AcDbLine
 62
253
  6
CONTINUOUS
 10
99.5026102309
 20
74.2185122071
 11
99.5023083507
 21
74.1595747165
  0
LWPOLYLINE
  5
548
100
AcDbEntity
  8
0
100
AcDbPolyline
 62
253
  6
CONTINUOUS
 90
3
 70
0
 10
99.5022145477
 20
122.9285675374
 10
99.5021738818
 20
122.9244091844
 10
99.5020548232
 20
122.9026304242
  0
LINE
  5
549
100
AcDbEntity
  8
0
100
AcDbLine
 62
253
  6
CONTINUOUS
 10
102.505820791
 20
122.9440075718
 11
102.5059146358
 21
122.9373073835
  0
LINE
  5
54A
100
AcDbEntity
  8
0
100
AcDbLine
 62
253
  6
CONTINUOUS
 10
102.5059146358
 20
122.9373073835
 11
102.5060237535
 21
122.9232695701
  0
LINE
  5
54B
100
AcDbEntity
  8
0
100
AcDbLine
 62
253
  6
CONTINUOUS
 10
102.5055190966
 20
74.2097854623
 11
102.5061069848
 21
74.0552328162
  0
LINE
  5
54C
100
AcDbEntity
  8
0
100
AcDbLine
 62
253
  6
CONTINUOUS
 10
102.5060237535
 20
122.9232695701
 11
102.5061209196
 21
122.8819970362
  0
LINE
  5
54D
100
AcDbEntity
  8
0
100
AcDbLine
 62
7
  6
CONTINUOUS
 10
101.7540646638
 20
73.9554178591
 11
101.7540646638
 21
122.9554178591
  0
LINE
  5
54E
100
AcDbEntity
  8
0
100
AcDbLine
 62
253
  6
CONTINUOUS
 10
102.5055190966
 20
122.7010502559
 11
102.5055190966
 21
122.2997554264
  0
LINE
  5
54F
100
AcDbEntity
  8
0
100
AcDbLine
 62
253
  6
CONTINUOUS
 10
102.5055190966
 20
74.6110802918
 11
102.5055190966
 21
74.2097854623
  0
LINE
  5
550
100
AcDbEntity
  8
0
100
AcDbLine
 62
7
  6
CONTINUOUS
 10
102.7540646638
 20
122.7010502559
 11
102.7540646638
 21
122.2997554264
  0
LINE
  5
551
100
AcDbEntity
  8
0
100
AcDbLine
 62
7
  6
CONTINUOUS
 10
102.7540646638
 20
74.6110802918
 11
102.7540646638
 21
74.2097854623
  0
LINE
  5
552
100
AcDbEntity
  8
0
100
AcDbLine
 62
7
  6
CONTINUOUS
 10
102.7540646638
 20
76.0612356889
 11
102.7540646638
 21
79.9471273347
  0
LINE
  5
553
100
AcDbEntity
  8
0
100
AcDbLine
 62
7
  6
CONTINUOUS
 10
102.7540646638
 20
116.9637083835
 11
102.7540646638
 21
120.8496000293
  0
LINE
  5
554
100
AcDbEntity
  8
0
100
AcDbLine
 62
253
  6
CONTINUOUS
 10
102.5061069848
 20
74.0552328162
 11
102.5060744452
 21
73.999460299
  0
LINE
  5
555
100
AcDbEntity
  8
0
100
AcDbLine
 62
253
  6
CONTINUOUS
 10
102.5061209196
 20
122.8819970362
 11
102.5058210127
 21
122.7599958745
  0
LINE
  5
556
100
AcDbEntity
  8
0
100
AcDbLine
 62
253
  6
CONTINUOUS
 10
102.5058210127
 20
122.7599958745
 11
102.5055190966
 21
122.7010502559
  0
LINE
  5
557
100
AcDbEntity
  8
0
100
AcDbLine
 62
253
  6
CONTINUOUS
 10
102.5060744452
 20
73.999460299
 11
102.5059553185
 21
73.9776851892
  0
LWPOLYLINE
  5
558
100
AcDbEntity
  8
0
100
AcDbPolyline
 62
253
  6
CONTINUOUS
 90
8
 70
0
 10
102.5059553185
 20
73.9776851892
 10
102.505869762
 20
73.9699067251
 10
102.505820791
 20
73.9668281464
 10
102.5057678404
 20
73.9643001565
 10
102.5057110552
 20
73.9623292105
 10
102.5056505778
 20
73.9609192146
 10
102.5055865418
 20
73.9600723128
 10
102.5055190966
 20
73.9597896931
  0
LINE
  5
559
100
AcDbEntity
  8
0
100
AcDbLine
 62
7
  6
CONTINUOUS
 10
103.7540646638
 20
119.8728729241
 11
103.7540646638
 21
77.0379627942
  0
LINE
  5
55A
100
AcDbEntity
  8
0
100
AcDbLine
 62
7
  6
CONTINUOUS
 10
107.2540646638
 20
75.031056088
 11
107.2540646638
 21
75.5797796303
  0
LINE
  5
55B
100
AcDbEntity
  8
0
100
AcDbLine
 62
7
  6
CONTINUOUS
 10
107.2540646638
 20
121.331056088
 11
107.2540646638
 21
121.8797796303
  0
LINE
  5
55C
100
AcDbEntity
  8
0
100
AcDbLine
 62
253
  6
CONTINUOUS
 10
107.2978568264
 20
74.4893458303
 11
107.2978568264
 21
76.0876706984
  0
LINE
  5
55D
100
AcDbEntity
  8
0
100
AcDbLine
 62
253
  6
CONTINUOUS
 10
107.2978568264
 20
120.8231650198
 11
107.2978568264
 21
122.421489888
  0
LINE
  5
55E
100
AcDbEntity
  8
0
100
AcDbLine
 62
7
  6
CONTINUOUS
 10
107.7540646638
 20
74.9874243848
 11
107.7540646638
 21
76.0903242967
  0
LINE
  5
55F
100
AcDbEntity
  8
0
100
AcDbLine
 62
7
  6
CONTINUOUS
 10
107.7540646638
 20
120.8205114215
 11
107.7540646638
 21
121.9234113335
  0
LWPOLYLINE
  5
560
100
AcDbEntity
  8
0
100
AcDbPolyline
 62
253
  6
CONTINUOUS
 90
6
 70
0
 10
102.5055190966
 20
122.9510460251
 10
102.5055865418
 20
122.9507634055
 10
102.5056505778
 20
122.9499165037
 10
102.5057110552
 20
122.9485065077
 10
102.5057678404
 20
122.9465355617
 10
102.505820791
 20
122.9440075718
  0
LINE
  5
561
100
AcDbEntity
  8
0
100
AcDbLine
 62
253
  6
CONTINUOUS
 10
113.262790867
 20
76.8719873609
 11
113.262790867
 21
77.5554178591
  0
LINE
  5
562
100
AcDbEntity
  8
0
100
AcDbLine
 62
253
  6
CONTINUOUS
 10
113.262790867
 20
119.3554178591
 11
113.262790867
 21
120.0388483573
  0
LINE
  5
563
100
AcDbEntity
  8
RACCORDO
100
AcDbLine
 62
253
  6
CONTINUOUS
 10
113.5558099709
 20
119.3554178591
 11
113.5558099709
 21
118.2496832623
  0
LINE
  5
564
100
AcDbEntity
  8
RACCORDO
100
AcDbLine
 62
253
  6
CONTINUOUS
 10
113.5558099709
 20
78.6611524559
 11
113.5558099709
 21
77.5554178591
  0
LINE
  5
565
100
AcDbEntity
  8
RACCORDO
100
AcDbLine
 62
253
  6
CONTINUOUS
 10
113.5575551451
 20
78.6611524559
 11
113.5575551451
 21
79.4387606016
  0
LINE
  5
566
100
AcDbEntity
  8
RACCORDO
100
AcDbLine
 62
253
  6
CONTINUOUS
 10
113.5575551451
 20
117.4720751166
 11
113.5575551451
 21
118.2496832623
  0
LINE
  5
567
100
AcDbEntity
  8
0
100
AcDbLine
 62
7
  6
CONTINUOUS
 10
113.7540646638
 20
77.1194309105
 11
113.7540646638
 21
77.5554178591
  0
LINE
  5
568
100
AcDbEntity
  8
RACCORDO
100
AcDbLine
 62
7
  6
CONTINUOUS
 10
113.7540646638
 20
77.5554178591
 11
113.7540646638
 21
79.7153763511
  0
LINE
  5
569
100
AcDbEntity
  8
RACCORDO
100
AcDbLine
 62
7
  6
CONTINUOUS
 10
113.7540646638
 20
117.1954593672
 11
113.7540646638
 21
119.3554178591
  0
LINE
  5
56A
100
AcDbEntity
  8
0
100
AcDbLine
 62
7
  6
CONTINUOUS
 10
113.7540646638
 20
119.3554178591
 11
113.7540646638
 21
119.7914048078
  0
LWPOLYLINE
  5
56B
100
AcDbEntity
  8
0
100
AcDbPolyline
 62
253
  6
CONTINUOUS
 90
6
 70
0
 10
102.625810792
 20
74.8213579356
 10
102.6270201474
 20
74.8235695542
 10
102.6279519996
 20
74.8253015971
 10
102.6286042454
 20
74.8265501552
 10
102.6289754127
 20
74.8273124106
 10
102.6290646638
 20
74.8275866428
  0
LINE
  5
56C
100
AcDbEntity
  8
0
100
AcDbLine
 62
253
  6
CONTINUOUS
 10
102.6225711093
 20
74.8155170083
 11
102.625810792
 21
74.8213579356
  0
LINE
  5
56D
100
AcDbEntity
  8
0
100
AcDbLine
 62
253
  6
CONTINUOUS
 10
102.6129228882
 20
74.7983708022
 11
102.6225711093
 21
74.8155170083
  0
LINE
  5
56E
100
AcDbEntity
  8
0
100
AcDbLine
 62
253
  6
CONTINUOUS
 10
102.5823553084
 20
74.7447060816
 11
102.6129228882
 21
74.7983708022
  0
LINE
  5
56F
100
AcDbEntity
  8
0
100
AcDbLine
 62
253
  6
CONTINUOUS
 10
102.5055190966
 20
74.6110802918
 11
102.5823553084
 21
74.7447060816
  0
LINE
  5
570
100
AcDbEntity
  8
0
100
AcDbLine
 62
253
  6
CONTINUOUS
 10
102.5055190966
 20
122.2997554264
 11
102.5868967099
 21
122.158187325
  0
LINE
  5
571
100
AcDbEntity
  8
0
100
AcDbLine
 62
253
  6
CONTINUOUS
 10
102.5868967099
 20
122.158187325
 11
102.6129242596
 21
122.112462492
  0
LINE
  5
572
100
AcDbEntity
  8
0
100
AcDbLine
 62
253
  6
CONTINUOUS
 10
102.6129242596
 20
122.112462492
 11
102.6225721479
 21
122.0953168488
  0
LWPOLYLINE
  5
573
100
AcDbEntity
  8
0
100
AcDbPolyline
 62
253
  6
CONTINUOUS
 90
7
 70
0
 10
102.6225721479
 20
122.0953168488
 10
102.6258116081
 20
122.0894762986
 10
102.6270208399
 20
122.0872648886
 10
102.6279524859
 20
122.0855332061
 10
102.6286044925
 20
122.0842850774
 10
102.6289754767
 20
122.0835231635
 10
102.6290646638
 20
122.0832490755
  0
LINE
  5
574
100
AcDbEntity
  8
RACCORDO
100
AcDbLine
 62
253
  6
CONTINUOUS
 10
113.5903511908
 20
79.6730571273
 11
113.6224686926
 21
79.9033148745
  0
LINE
  5
575
100
AcDbEntity
  8
RACCORDO
100
AcDbLine
 62
253
  6
CONTINUOUS
 10
113.5730713575
 20
79.549500998
 11
113.5903511908
 21
79.6730571273
  0
LINE
  5
576
100
AcDbEntity
  8
RACCORDO
100
AcDbLine
 62
253
  6
CONTINUOUS
 10
113.5575551396
 20
79.4387606016
 11
113.5730713575
 21
79.549500998
  0
LWPOLYLINE
  5
577
100
AcDbEntity
  8
RACCORDO
100
AcDbPolyline
 62
253
  6
CONTINUOUS
 90
3
 70
0
 10
113.6213254158
 20
117.0157312705
 10
113.6199039853
 20
117.0259362094
 10
113.6189849112
 20
117.0325377046
  0
LINE
  5
578
100
AcDbEntity
  8
RACCORDO
100
AcDbLine
 62
253
  6
CONTINUOUS
 10
113.6189849112
 20
117.0325377046
 11
113.6139561676
 21
117.0686107109
  0
LINE
  5
579
100
AcDbEntity
  8
RACCORDO
100
AcDbLine
 62
253
  6
CONTINUOUS
 10
113.6139561676
 20
117.0686107109
 11
113.5575551396
 21
117.4720751167
  0
LINE
  5
57A
100
AcDbEntity
  8
RACCORDO
100
AcDbLine
 62
253
  6
CONTINUOUS
 10
113.6224686926
 20
117.0075208437
 11
113.6213254158
 21
117.0157312705
  0
LINE
  5
57B
100
AcDbEntity
  8
RACCORDO
100
AcDbLine
 62
253
  6
CONTINUOUS
 10
100.2347891224
 20
114.8552337081
 11
98.1540646638
 21
114.8189145276
  0
LINE
  5
57C
100
AcDbEntity
  8
RACCORDO
100
AcDbLine
 62
7
  6
CONTINUOUS
 10
100.2540646638
 20
115.8554178591
 11
98.1540646638
 21
115.8187622228
  0
LINE
  5
57D
100
AcDbEntity
  8
0
100
AcDbLine
 62
7
  6
CONTINUOUS
 10
100.2540646638
 20
75.3327681283
 11
99.3790646638
 21
74.8275866428
  0
LINE
  5
57E
100
AcDbEntity
  8
0
100
AcDbLine
 62
253
  6
CONTINUOUS
 10
100.5026102309
 20
75.188430561
 11
99.5026102309
 21
74.6110802918
  0
LINE
  5
57F
100
AcDbEntity
  8
0
100
AcDbLine
 62
7
  6
CONTINUOUS
 10
102.7540646638
 20
116.9637083835
 11
103.7540646638
 21
116.9724352513
  0
LINE
  5
580
100
AcDbEntity
  8
RACCORDO
100
AcDbLine
 62
7
  6
CONTINUOUS
 10
113.5558099709
 20
118.2496832623
 11
103.7540646638
 21
118.1641447269
  0
LINE
  5
581
100
AcDbEntity
  8
RACCORDO
100
AcDbLine
 62
253
  6
CONTINUOUS
 10
113.5575551451
 20
117.4720751166
 11
113.7540646638
 21
117.4720751166
  0
LINE
  5
582
100
AcDbEntity
  8
0
100
AcDbLine
 62
7
  6
CONTINUOUS
 10
99.3790646638
 20
122.0832490755
 11
100.2540646638
 21
121.5780675899
  0
LINE
  5
583
100
AcDbEntity
  8
0
100
AcDbLine
 62
253
  6
CONTINUOUS
 10
99.5026102309
 20
122.2997554264
 11
100.5026102309
 21
121.7224051572
  0
LINE
  5
584
100
AcDbEntity
  8
0
100
AcDbLine
 62
253
  6
CONTINUOUS
 10
101.7540646638
 20
120.3551890071
 11
100.2540646638
 21
120.2765773381
  0
LINE
  5
585
100
AcDbEntity
  8
RACCORDO
100
AcDbLine
 62
253
  6
CONTINUOUS
 10
93.5438726449
 20
119.93486707
 11
98.1540646638
 21
120.0555891966
  0
LINE
  5
586
100
AcDbEntity
  8
RACCORDO
100
AcDbLine
 62
7
  6
CONTINUOUS
 10
93.163144555
 20
120.4247260166
 11
98.1540646638
 21
120.5554178591
  0
LINE
  5
587
100
AcDbEntity
  8
0
100
AcDbLine
 62
7
  6
CONTINUOUS
 10
113.262790867
 20
120.0388483573
 11
103.7540646638
 21
119.8728729241
  0
LINE
  5
588
100
AcDbEntity
  8
0
100
AcDbLine
 62
7
  6
CONTINUOUS
 10
103.7540646638
 20
119.3554178591
 11
113.7540646638
 21
119.3554178591
  0
LINE
  5
589
100
AcDbEntity
  8
RACCORDO
100
AcDbLine
 62
253
  6
CONTINUOUS
 10
92.375879474
 20
119.2855289222
 11
91.9969106863
 21
119.2876562988
  0
LINE
  5
58A
100
AcDbEntity
  8
0
100
AcDbLine
 62
253
  6
CONTINUOUS
 10
102.7540646638
 20
120.3496169524
 11
101.7540646638
 21
120.3554347822
  0
LWPOLYLINE
  5
58B
100
AcDbEntity
  8
RACCORDO
100
AcDbPolyline
 62
253
  6
CONTINUOUS
 90
4
 70
0
 10
92.3758882781
 20
119.2855285679
 10
92.3796186834
 20
119.2853157324
 10
92.3884453374
 20
119.2848890013
 10
92.8622162172
 20
119.2645112092
  0
LINE
  5
58C
100
AcDbEntity
  8
0
100
AcDbLine
 62
7
  6
CONTINUOUS
 10
101.7540646638
 20
120.8554178591
 11
100.2540646638
 21
120.7768061902
  0
LINE
  5
58D
100
AcDbEntity
  8
0
100
AcDbLine
 62
253
  6
CONTINUOUS
 10
102.7540646638
 20
122.2997554264
 11
102.5055190966
 21
122.2997554264
  0
LINE
  5
58E
100
AcDbEntity
  8
0
100
AcDbLine
 62
253
  6
CONTINUOUS
 10
99.2540646638
 20
122.2997554264
 11
99.5026102309
 21
122.2997554264
  0
LINE
  5
58F
100
AcDbEntity
  8
0
100
AcDbLine
 62
253
  6
CONTINUOUS
 10
99.2540646638
 20
122.6923235112
 11
99.5026102309
 21
122.6923235112
  0
LINE
  5
590
100
AcDbEntity
  8
0
100
AcDbLine
 62
7
  6
CONTINUOUS
 10
112.7598823951
 20
120.7913878846
 11
101.7540646638
 21
120.8554178591
  0
LINE
  5
591
100
AcDbEntity
  8
0
100
AcDbLine
 62
7
  6
CONTINUOUS
 10
102.7540646638
 20
122.4496000293
 11
107.2569735294
 21
122.4234028719
  0
LINE
  5
592
100
AcDbEntity
  8
0
100
AcDbLine
 62
253
  6
CONTINUOUS
 10
99.5026102309
 20
122.6923235112
 11
101.7540646638
 21
122.7054220899
  0
LINE
  5
593
100
AcDbEntity
  8
0
100
AcDbLine
 62
7
  6
CONTINUOUS
 10
99.5026102309
 20
122.9423192804
 11
101.7540646638
 21
122.9554178591
  0
LINE
  5
594
100
AcDbEntity
  8
0
100
AcDbLine
 62
253
  6
CONTINUOUS
 10
102.7540646638
 20
122.7010502559
 11
102.5055190966
 21
122.7010502559
  0
LINE
  5
595
100
AcDbEntity
  8
0
100
AcDbLine
 62
253
  6
CONTINUOUS
 10
101.7540646638
 20
122.7054220899
 11
102.5055190966
 21
122.7010502559
  0
LINE
  5
596
100
AcDbEntity
  8
0
100
AcDbLine
 62
7
  6
CONTINUOUS
 10
101.7540646638
 20
122.9554178591
 11
102.5055190966
 21
122.9510460251
  0
ARC
  5
597
100
AcDbEntity
  8
0
100
AcDbCircle
 62
7
  6
CONTINUOUS
 10
176.2422449221
 20
75.3054178591
 40
0.5
100
AcDbArc
 50
154.1580672368
 51
205.8419327632
  0
ARC
  5
598
100
AcDbEntity
  8
0
100
AcDbCircle
 62
7
  6
CONTINUOUS
 10
184.2422449221
 20
75.3054178591
 40
0.5
100
AcDbArc
 50
334.1580672368
 51
25.8419327632
  0
ARC
  5
599
100
AcDbEntity
  8
0
100
AcDbCircle
 62
7
  6
CONTINUOUS
 10
184.2422449221
 20
121.6054178591
 40
0.5
100
AcDbArc
 50
334.1580672368
 51
25.8419327632
  0
ARC
  5
59A
100
AcDbEntity
  8
0
100
AcDbCircle
 62
7
  6
CONTINUOUS
 10
176.2422449221
 20
121.6054178591
 40
0.5
100
AcDbArc
 50
154.1580672368
 51
205.8419327632
  0
ARC
  5
59B
100
AcDbEntity
  8
0
100
AcDbCircle
 62
7
  6
CONTINUOUS
 10
131.2422449221
 20
75.3054178591
 40
0.5
100
AcDbArc
 50
154.1580672368
 51
205.8419327632
  0
ARC
  5
59C
100
AcDbEntity
  8
0
100
AcDbCircle
 62
7
  6
CONTINUOUS
 10
139.2422449221
 20
75.3054178591
 40
0.5
100
AcDbArc
 50
334.1580672368
 51
25.8419327632
  0
ARC
  5
59D
100
AcDbEntity
  8
0
100
AcDbCircle
 62
7
  6
CONTINUOUS
 10
139.2422449221
 20
121.6054178591
 40
0.5
100
AcDbArc
 50
334.1580672368
 51
25.8419327632
  0
ARC
  5
59E
100
AcDbEntity
  8
0
100
AcDbCircle
 62
7
  6
CONTINUOUS
 10
131.2422449221
 20
121.6054178591
 40
0.5
100
AcDbArc
 50
154.1580672368
 51
205.8419327632
  0
ARC
  5
59F
100
AcDbEntity
  8
RACCORDO
100
AcDbCircle
 62
7
  6
CONTINUOUS
 10
93.1952820681
 20
77.6856795022
 40
1.2
100
AcDbArc
 50
182.985352171
 51
268.5
  0
ARC
  5
5A0
100
AcDbEntity
  8
0
100
AcDbCircle
 62
7
  6
CONTINUOUS
 10
99.5040646638
 20
74.2185122071
 40
0.25
100
AcDbArc
 50
180.0
 51
269.6666666667
  0
ARC
  5
5A1
100
AcDbEntity
  8
0
100
AcDbCircle
 62
7
  6
CONTINUOUS
 10
102.5040646638
 20
74.2097854623
 40
0.25
100
AcDbArc
 50
270.3333333333
 51
360.0
  0
ARC
  5
5A2
100
AcDbEntity
  8
0
100
AcDbCircle
 62
7
  6
CONTINUOUS
 10
102.5040646638
 20
74.6110802918
 40
0.25
100
AcDbArc
 50
0.0
 51
60.0
  0
ARC
  5
5A3
100
AcDbEntity
  8
0
100
AcDbCircle
 62
7
  6
CONTINUOUS
 10
99.5040646638
 20
74.6110802918
 40
0.25
100
AcDbArc
 50
120.0
 51
180.0
  0
ARC
  5
5A4
100
AcDbEntity
  8
RACCORDO
100
AcDbCircle
 62
7
  6
CONTINUOUS
 10
93.1952820688
 20
119.225156216
 40
1.2
100
AcDbArc
 50
91.5
 51
177.014647829
  0
ARC
  5
5A5
100
AcDbEntity
  8
0
100
AcDbCircle
 62
7
  6
CONTINUOUS
 10
99.5040646638
 20
122.6923235112
 40
0.25
100
AcDbArc
 50
90.3333333333
 51
180.0
  0
ARC
  5
5A6
100
AcDbEntity
  8
0
100
AcDbCircle
 62
7
  6
CONTINUOUS
 10
102.5040646638
 20
122.7010502559
 40
0.25
100
AcDbArc
 50
0.0
 51
89.6666666667
  0
ARC
  5
5A7
100
AcDbEntity
  8
0
100
AcDbCircle
 62
7
  6
CONTINUOUS
 10
102.5040646638
 20
122.2997554264
 40
0.25
100
AcDbArc
 50
300.0
 51
360.0
  0
ARC
  5
5A8
100
AcDbEntity
  8
0
100
AcDbCircle
 62
7
  6
CONTINUOUS
 10
99.5040646638
 20
122.2997554264
 40
0.25
100
AcDbArc
 50
180.0
 51
240.0
  0
ARC
  5
5A9
100
AcDbEntity
  8
0
100
AcDbCircle
 62
7
  6
CONTINUOUS
 10
112.7540646638
 20
77.1194309105
 40
1.0
100
AcDbArc
 50
270.3333333333
 51
360.0
  0
ARC
  5
5AA
100
AcDbEntity
  8
0
100
AcDbCircle
 62
7
  6
CONTINUOUS
 10
107.2540646638
 20
74.9874243848
 40
0.5
100
AcDbArc
 50
270.3333333333
 51
360.0
  0
ARC
  5
5AB
100
AcDbEntity
  8
RACCORDO
100
AcDbCircle
 62
7
  6
CONTINUOUS
 10
113.5540646638
 20
78.4611600713
 40
0.2
100
AcDbArc
 50
0.0
 51
89.5
  0
ARC
  5
5AC
100
AcDbEntity
  8
RACCORDO
100
AcDbCircle
 62
7
  6
CONTINUOUS
 10
113.5540646638
 20
79.715376351
 40
0.2
100
AcDbArc
 50
0.0
 51
69.9999998797
  0
ARC
  5
5AD
100
AcDbEntity
  8
0
100
AcDbCircle
 62
7
  6
CONTINUOUS
 10
112.7540646638
 20
119.7914048078
 40
1.0
100
AcDbArc
 50
0.0
 51
89.6666666667
  0
ARC
  5
5AE
100
AcDbEntity
  8
0
100
AcDbCircle
 62
7
  6
CONTINUOUS
 10
107.2540646638
 20
121.9234113335
 40
0.5
100
AcDbArc
 50
0.0
 51
89.6666666667
  0
ARC
  5
5AF
100
AcDbEntity
  8
RACCORDO
100
AcDbCircle
 62
7
  6
CONTINUOUS
 10
113.5540646638
 20
117.1954593672
 40
0.2
100
AcDbArc
 50
290.0000001204
 51
360.0
  0
ARC
  5
5B0
100
AcDbEntity
  8
RACCORDO
100
AcDbCircle
 62
7
  6
CONTINUOUS
 10
113.5540646638
 20
118.4496756469
 40
0.2
100
AcDbArc
 50
270.5
 51
360.0
  0
ELLIPSE
  5
5B1
100
AcDbEntity
  8
0
100
AcDbEllipse
 62
7
  6
CONTINUOUS
 10
179.0422449221
 20
76.0711401929
 30
0.0
 11
0.2
 21
-0.0
 31
0.0
 40
0.0524077793
 41
0.0
 42
1.5707963268
  0
ELLIPSE
  5
5B2
100
AcDbEntity
  8
0
100
AcDbEllipse
 62
7
  6
CONTINUOUS
 10
181.4422449221
 20
76.0711401929
 30
0.0
 11
0.2
 21
-0.0
 31
0.0
 40
0.0524077793
 41
1.5707963268
 42
3.1415926536
  0
ELLIPSE
  5
5B3
100
AcDbEntity
  8
0
100
AcDbEllipse
 62
7
  6
CONTINUOUS
 10
179.0422449221
 20
120.8396955253
 30
0.0
 11
0.2
 21
-0.0
 31
0.0
 40
0.0524077793
 41
-1.5707963268
 42
-0.0
  0
ELLIPSE
  5
5B4
100
AcDbEntity
  8
0
100
AcDbEllipse
 62
7
  6
CONTINUOUS
 10
181.4422449221
 20
120.8396955253
 30
0.0
 11
0.2
 21
-0.0
 31
0.0
 40
0.0524077793
 41
3.1415926536
 42
4.7123889804
  0
ELLIPSE
  5
5B5
100
AcDbEntity
  8
0
100
AcDbEllipse
 62
7
  6
CONTINUOUS
 10
170.3495214402
 20
76.1209275832
 30
0.0
 11
0.25
 21
-0.0
 31
0.0
 40
0.0524077793
 41
1.5707963268
 42
3.1357748894
  0
ELLIPSE
  5
5B6
100
AcDbEntity
  8
0
100
AcDbEllipse
 62
7
  6
CONTINUOUS
 10
172.734968404
 20
76.1209275832
 30
0.0
 11
0.25
 21
0.0
 31
0.0
 40
0.0524077793
 41
0.0058177642
 42
1.5707963268
  0
ELLIPSE
  5
5B7
100
AcDbEntity
  8
0
100
AcDbEllipse
 62
7
  6
CONTINUOUS
 10
190.134968404
 20
76.1209275832
 30
0.0
 11
0.25
 21
-0.0
 31
0.0
 40
0.0524077793
 41
0.0058177642
 42
1.5707963268
  0
ELLIPSE
  5
5B8
100
AcDbEntity
  8
0
100
AcDbEllipse
 62
7
  6
CONTINUOUS
 10
187.7495214402
 20
76.1209275832
 30
0.0
 11
0.25
 21
-0.0
 31
0.0
 40
0.0524077793
 41
1.5707963268
 42
3.1357748894
  0
ELLIPSE
  5
5B9
100
AcDbEntity
  8
0
100
AcDbEllipse
 62
7
  6
CONTINUOUS
 10
170.3495214402
 20
120.789908135
 30
0.0
 11
0.25
 21
-0.0
 31
0.0
 40
0.0524077793
 41
-3.1357748894
 42
-1.5707963268
  0
ELLIPSE
  5
5BA
100
AcDbEntity
  8
0
100
AcDbEllipse
 62
7
  6
CONTINUOUS
 10
172.734968404
 20
120.789908135
 30
0.0
 11
0.25
 21
0.0
 31
0.0
 40
0.0524077793
 41
-1.5707963268
 42
-0.0058177642
  0
ELLIPSE
  5
5BB
100
AcDbEntity
  8
0
100
AcDbEllipse
 62
7
  6
CONTINUOUS
 10
187.7495214402
 20
120.789908135
 30
0.0
 11
0.25
 21
-0.0
 31
0.0
 40
0.0524077793
 41
-3.1357748894
 42
-1.5707963268
  0
ELLIPSE
  5
5BC
100
AcDbEntity
  8
0
100
AcDbEllipse
 62
7
  6
CONTINUOUS
 10
190.134968404
 20
120.789908135
 30
0.0
 11
0.25
 21
0.0
 31
0.0
 40
0.0524077793
 41
-1.5707963268
 42
-0.0058177642
  0
ELLIPSE
  5
5BD
100
AcDbEntity
  8
0
100
AcDbEllipse
 62
7
  6
CONTINUOUS
 10
169.6193764367
 20
120.2761200172
 30
0.0
 11
-0.1582391023
 21
0.4751033573
 31
0.0
 40
0.9984778551
 41
-0.3210503496
 42
0.6578562559
  0
ELLIPSE
  5
5BE
100
AcDbEntity
  8
0
100
AcDbEllipse
 62
7
  6
CONTINUOUS
 10
190.8651134074
 20
120.2761200172
 30
0.0
 11
0.1582391023
 21
0.4751033573
 31
0.0
 40
0.9984778551
 41
-1.2488325878
 42
0.3210503496
  0
ELLIPSE
  5
5BF
100
AcDbEntity
  8
0
100
AcDbEllipse
 62
7
  6
CONTINUOUS
 10
190.8651134074
 20
76.6347157011
 30
0.0
 11
-0.1582391024
 21
0.4751033573
 31
0.0
 40
0.9984778551
 41
-3.4626430032
 42
-1.8927600658
  0
ELLIPSE
  5
5C0
100
AcDbEntity
  8
0
100
AcDbEllipse
 62
7
  6
CONTINUOUS
 10
169.6193764367
 20
76.6347157011
 30
0.0
 11
-0.1582391023
 21
-0.4751033573
 31
0.0
 40
0.9984778551
 41
-0.6578562559
 42
0.3210503496
  0
ELLIPSE
  5
5C1
100
AcDbEntity
  8
0
100
AcDbEllipse
 62
7
  6
CONTINUOUS
 10
134.0422449221
 20
76.0711401929
 30
0.0
 11
0.2
 21
-0.0
 31
0.0
 40
0.0524077793
 41
0.0
 42
1.5707963268
  0
ELLIPSE
  5
5C2
100
AcDbEntity
  8
0
100
AcDbEllipse
 62
7
  6
CONTINUOUS
 10
136.4422449221
 20
76.0711401929
 30
0.0
 11
0.2
 21
0.0
 31
0.0
 40
0.0524077793
 41
1.5707963268
 42
3.1415926536
  0
ELLIPSE
  5
5C3
100
AcDbEntity
  8
0
100
AcDbEllipse
 62
7
  6
CONTINUOUS
 10
134.0422449221
 20
120.8396955253
 30
0.0
 11
0.2
 21
0.0
 31
0.0
 40
0.0524077793
 41
-1.5707963268
 42
-0.0
  0
ELLIPSE
  5
5C4
100
AcDbEntity
  8
0
100
AcDbEllipse
 62
7
  6
CONTINUOUS
 10
136.4422449221
 20
120.8396955253
 30
0.0
 11
0.2
 21
-0.0
 31
0.0
 40
0.0524077793
 41
3.1415926536
 42
4.7123889804
  0
ELLIPSE
  5
5C5
100
AcDbEntity
  8
0
100
AcDbEllipse
 62
7
  6
CONTINUOUS
 10
125.3495214402
 20
76.1209275832
 30
0.0
 11
0.25
 21
-0.0
 31
0.0
 40
0.0524077793
 41
1.5707963268
 42
3.1357748894
  0
ELLIPSE
  5
5C6
100
AcDbEntity
  8
0
100
AcDbEllipse
 62
7
  6
CONTINUOUS
 10
127.734968404
 20
76.1209275832
 30
0.0
 11
0.25
 21
-0.0
 31
0.0
 40
0.0524077793
 41
0.0058177642
 42
1.5707963268
  0
ELLIPSE
  5
5C7
100
AcDbEntity
  8
0
100
AcDbEllipse
 62
7
  6
CONTINUOUS
 10
145.134968404
 20
76.1209275832
 30
0.0
 11
0.25
 21
0.0
 31
0.0
 40
0.0524077793
 41
0.0058177642
 42
1.5707963268
  0
ELLIPSE
  5
5C8
100
AcDbEntity
  8
0
100
AcDbEllipse
 62
7
  6
CONTINUOUS
 10
142.7495214402
 20
76.1209275832
 30
0.0
 11
0.25
 21
-0.0
 31
0.0
 40
0.0524077793
 41
1.5707963268
 42
3.1357748894
  0
ELLIPSE
  5
5C9
100
AcDbEntity
  8
0
100
AcDbEllipse
 62
7
  6
CONTINUOUS
 10
125.3495214402
 20
120.789908135
 30
0.0
 11
0.25
 21
-0.0
 31
0.0
 40
0.0524077793
 41
-3.1357748894
 42
-1.5707963268
  0
ELLIPSE
  5
5CA
100
AcDbEntity
  8
0
100
AcDbEllipse
 62
7
  6
CONTINUOUS
 10
127.734968404
 20
120.789908135
 30
0.0
 11
0.25
 21
-0.0
 31
0.0
 40
0.0524077793
 41
-1.5707963268
 42
-0.0058177642
  0
ELLIPSE
  5
5CB
100
AcDbEntity
  8
0
100
AcDbEllipse
 62
7
  6
CONTINUOUS
 10
142.7495214402
 20
120.789908135
 30
0.0
 11
0.25
 21
-0.0
 31
0.0
 40
0.0524077793
 41
-3.1357748894
 42
-1.5707963268
  0
ELLIPSE
  5
5CC
100
AcDbEntity
  8
0
100
AcDbEllipse
 62
7
  6
CONTINUOUS
 10
145.134968404
 20
120.789908135
 30
0.0
 11
0.25
 21
0.0
 31
0.0
 40
0.0524077793
 41
-1.5707963268
 42
-0.0058177642
  0
ELLIPSE
  5
5CD
100
AcDbEntity
  8
0
100
AcDbEllipse
 62
7
  6
CONTINUOUS
 10
124.6193764367
 20
120.2761200172
 30
0.0
 11
-0.1582391023
 21
0.4751033573
 31
0.0
 40
0.9984778551
 41
-0.3210503496
 42
1.2488325878
  0
ELLIPSE
  5
5CE
100
AcDbEntity
  8
0
100
AcDbEllipse
 62
7
  6
CONTINUOUS
 10
145.8651134074
 20
120.2761200172
 30
0.0
 11
0.1582391023
 21
0.4751033573
 31
0.0
 40
0.9984778551
 41
-0.6578562559
 42
0.3210503496
  0
ELLIPSE
  5
5CF
100
AcDbEntity
  8
0
100
AcDbEllipse
 62
7
  6
CONTINUOUS
 10
145.8651134074
 20
76.6347157011
 30
0.0
 11
-0.1582391024
 21
0.4751033573
 31
0.0
 40
0.9984778551
 41
-3.4626430032
 42
-2.4837363977
  0
ELLIPSE
  5
5D0
100
AcDbEntity
  8
0
100
AcDbEllipse
 62
7
  6
CONTINUOUS
 10
124.6193764367
 20
76.6347157011
 30
0.0
 11
-0.1582391023
 21
-0.4751033573
 31
0.0
 40
0.9984778551
 41
-1.2488325878
 42
0.3210503496
  0
ELLIPSE
  5
5D1
100
AcDbEntity
  8
RACCORDO
100
AcDbEllipse
 62
7
  6
CONTINUOUS
 10
124.7424163183
 20
76.8555892554
 30
0.0
 11
0.35379574
 21
0.35379574
 31
0.0
 40
0.999315002
 41
2.3565371065
 42
3.9266482006
  0
ELLIPSE
  5
5D2
100
AcDbEntity
  8
RACCORDO
100
AcDbEllipse
 62
7
  6
CONTINUOUS
 10
190.7420735258
 20
76.8555892554
 30
0.0
 11
-0.35379574
 21
0.35379574
 31
0.0
 40
0.999315002
 41
-3.9266482006
 42
-2.3565371065
  0
ELLIPSE
  5
5D3
100
AcDbEntity
  8
RACCORDO
100
AcDbEllipse
 62
7
  6
CONTINUOUS
 10
190.7420735258
 20
120.0552464629
 30
0.0
 11
0.35379574
 21
0.35379574
 31
0.0
 40
0.999315002
 41
-0.7850555471
 42
0.785055547
  0
ELLIPSE
  5
5D4
100
AcDbEntity
  8
RACCORDO
100
AcDbEllipse
 62
7
  6
CONTINUOUS
 10
124.7424163183
 20
120.0552464629
 30
0.0
 11
0.35379574
 21
-0.35379574
 31
0.0
 40
0.999315002
 41
2.3565371065
 42
3.9266482006
  0
ELLIPSE
  5
5D5
100
AcDbEntity
  8
0
100
AcDbEllipse
 62
7
  6
CONTINUOUS
 10
113.2540646638
 20
120.5387722049
 30
0.0
 11
-0.1255455246
 21
0.4839817365
 31
0.0
 40
1.0
 41
-3.3779466112
 42
-2.4793987724
  0
ELLIPSE
  5
5D6
100
AcDbEntity
  8
0
100
AcDbEllipse
 62
7
  6
CONTINUOUS
 10
113.2540646638
 20
76.3720635134
 30
0.0
 11
0.4999992305
 21
0.0008771889
 31
0.0
 40
1.0
 41
0.6530408167
 42
1.5515886555
  0
ELLIPSE
  5
5D7
100
AcDbEntity
  8
0
100
AcDbEllipse
 62
7
  6
CONTINUOUS
 10
179.1024943398
 20
75.3054178591
 30
0.0
 11
85.9426996401
 21
-0.0
 31
0.0
 40
0.0058178298
 41
-2.6791240519
 42
-2.5607560384
  0
ELLIPSE
  5
5D8
100
AcDbEntity
  8
0
100
AcDbEllipse
 62
7
  6
CONTINUOUS
 10
179.1024943398
 20
75.3054178591
 30
0.0
 11
85.9426996401
 21
0.0
 31
0.0
 40
0.0058178298
 41
2.5607560384
 42
2.6905658418
  0
ELLIPSE
  5
5D9
100
AcDbEntity
  8
0
100
AcDbEllipse
 62
7
  6
CONTINUOUS
 10
179.1024943398
 20
121.6054178591
 30
0.0
 11
85.9426996401
 21
-0.0
 31
0.0
 40
0.0058178298
 41
-2.6905658418
 42
-2.5607560384
  0
ELLIPSE
  5
5DA
100
AcDbEntity
  8
0
100
AcDbEllipse
 62
7
  6
CONTINUOUS
 10
179.1024943398
 20
121.6054178591
 30
0.0
 11
85.9426996401
 21
-0.0
 31
0.0
 40
0.0058178298
 41
2.5607560384
 42
2.6791240518
  0
ENDSEC
  0
SECTION
  2
OBJECTS
  0
DICTIONARY
  5
C
100
AcDbDictionary
280
0
281
1
  3
ACAD_GROUP
350
D
  3
ACAD_MLINESTYLE
350
17
  3
ACAD_LAYOUT
350
1A
  3
ACAD_PLOTSETTINGS
350
19
  3
ACAD_PLOTSTYLENAME
350
E
  0
DICTIONARY
  5
D
102
{ACAD_REACTORS
330
C
102
}
100
AcDbDictionary
280
0
281
1
  0
ACDBDICTIONARYWDFLT
  5
E
102
{ACAD_REACTORS
330
C
102
}
100
AcDbDictionary
281
1
  3
Normal
350
F
100
AcDbDictionaryWithDefault
340
F
  0
DICTIONARY
  5
17
102
{ACAD_REACTORS
330
C
102
}
100
AcDbDictionary
280
0
281
1
  3
Standard
350
18
  0
DICTIONARY
  5
19
102
{ACAD_REACTORS
330
C
102
}
100
AcDbDictionary
281
1
  0
DICTIONARY
  5
1A
102
{ACAD_REACTORS
330
C
102
}
100
AcDbDictionary
281
1
  3
Model
350
5DB
  3
Layout1
350
5DC
  0
ACDBPLACEHOLDER
  5
F
102
{ACAD_REACTORS
330
E
102
}
  0
MLINESTYLE
  5
18
102
{ACAD_REACTORS
330
17
102
}
100
AcDbMlineStyle
  2
STANDARD
 70
0
  3

 62
256
 51
90.0
 52
90.0
 71
2
 49
0.5
 62
256
  6
BYLAYER
 49
-0.5
 62
256
  6
BYLAYER
  0
LAYOUT
  5
5DB
102
{ACAD_REACTORS
330
1A
102
}
100
AcDbPlotSettings
  1

  2
none_device
  4
ISO_A4_(297.00_x_210.00_MM)
  6

 40
0.0
 41
0.0
 42
0.0
 43
0.0
 44
297.0
 45
210.0
 46
0.0
 47
0.0
 48
0.0
 49
0.0
140
0.0
141
0.0
142
1.0
143
1.0
 70
1024
 72
1
 73
0
 74
0
  7

 75
0
147
1.0
148
0.0
149
0.0
100
AcDbLayout
  1
Model
 70
0
 71
0
 10
0.0
 20
0.0
 11
297.0
 21
210.0
 12
0.0
 22
0.0
 32
0.0
 14
0.0
 24
0.0
 34
0.0
 15
0.0
 25
0.0
 35
0.0
146
0.0
 13
0.0
 23
0.0
 33
0.0
 16
1.0
 26
0.0
 36
0.0
 17
0.0
 27
1.0
 37
0.0
 76
0
330
219
345
0
346
0
  0
LAYOUT
  5
5DC
102
{ACAD_REACTORS
330
1A
102
}
100
AcDbPlotSettings
  1

  2
none_device
  4
ISO_A4_(297.00_x_210.00_MM)
  6

 40
0.0
 41
0.0
 42
0.0
 43
0.0
 44
297.0
 45
210.0
 46
0.0
 47
0.0
 48
0.0
 49
0.0
140
0.0
141
0.0
142
1.0
143
1.0
 70
0
 72
1
 73
0
 74
0
  7

 75
0
147
1.0
148
0.0
149
0.0
100
AcDbLayout
  1
Layout1
 70
0
 71
1
 10
0.0
 20
0.0
 11
297.0
 21
210.0
 12
0.0
 22
0.0
 32
0.0
 14
0.0
 24
0.0
 34
0.0
 15
0.0
 25
0.0
 35
0.0
146
0.0
 13
0.0
 23
0.0
 33
0.0
 16
1.0
 26
0.0
 36
0.0
 17
0.0
 27
1.0
 37
0.0
 76
0
330
21A
345
0
346
0
  0
ENDSEC
  0
EOF
