  0
SECTION
  2
HEADER
  9
$ACADVER
  1
AC1015
  9
$DWGCODEPAGE
  3
ANSI_1252
  9
$EXTMAX
 10
297.0
 20
210.0
 30
0.0
  9
$EXTMIN
 10
0.0
 20
0.0
 30
0.0
  9
$LIMMIN
 10
0.0
 20
0.0
  9
$LIMMAX
 10
297.0
 20
210.0
  9
$VIEWCTR
 10
148.5
 20
105.0
  9
$VIEWSIZE
 40
210.0
  9
$CLAYER
  8
0
  9
$LTSCALE
 40
16.335
  9
$CELTYPE
  6
BYLAYER
  9
$DIMSCALE
 40
1.0
  9
$DIMASZ
 40
3.0
  9
$DIMEXO
 40
1.85625
  9
$DIMDLI
 40
11.286
  9
$DIMEXE
 40
5.346
  9
$DIMCEN
 40
2.673
  9
$DIMLFAC
 40
1.0
  9
$DIMBLK
  1
_FILLED
  9
$DIMTXT
 40
3.0
  9
$DIMTOL
 70
1
  9
$DIMLIM
 70
0
  9
$DIMTFAC
 40
1.0
  9
$DIMTP
 40
0.01
  9
$DIMTM
 40
0.01
  9
$PDMODE
 70
3
  9
$PDSIZE
 40
3.0
  9
$HANDSEED
  5
4A6
  9
$TILEMODE
 70
1
  9
$MEASUREMENT
 70
1
  9
$INSUNITS
 70
4
  0
ENDSEC
  0
SECTION
  2
CLASSES
  0
CLASS
  1
ACDBDICTIONARYWDFLT
  2
AcDbDictionaryWithDefault
  3
AutoCAD 2000
 90
0
280
0
281
0
  0
CLASS
  1
ACDBPLACEHOLDER
  2
AcDbPlaceHolder
  3
AutoCAD 2000
 90
0
280
0
281
0
  0
CLASS
  1
LAYOUT
  2
AcDbLayout
  3
AutoCAD 2000
 90
0
280
0
281
0
  0
ENDSEC
  0
SECTION
  2
TABLES
  0
TABLE
  2
VPORT
  5
8
100
AcDbSymbolTable
 70
2
  0
VPORT
  5
1F4
100
AcDbSymbolTableRecord
100
AcDbViewportTableRecord
  2
*ACTIVE
 70
0
 10
0.0
 20
0.0
 11
1.0
 21
1.0
 12
148.5
 22
105.0
 13
0.0
 23
0.0
 14
1.0
 24
1.0
 15
0.0
 25
0.0
 16
0.0
 26
0.0
 36
1.0
 17
0.0
 27
0.0
 37
0.0
 40
210.0
 41
1.4142857143
 42
50.0
 43
0.0
 44
0.0
 50
0.0
 51
0.0
 71
0
 72
100
 73
1
 74
1
 75
0
 76
0
 77
0
 78
0
  0
ENDTAB
  0
TABLE
  2
LTYPE
  5
5
100
AcDbSymbolTable
 70
6
  0
LTYPE
  5
14
100
AcDbSymbolTableRecord
100
AcDbLinetypeTableRecord
  2
BYBLOCK
 70
0
  3

 72
65
 73
0
 40
0.0
  0
LTYPE
  5
15
100
AcDbSymbolTableRecord
100
AcDbLinetypeTableRecord
  2
BYLAYER
 70
0
  3

 72
65
 73
0
 40
0.0
  0
LTYPE
  5
16
100
AcDbSymbolTableRecord
100
AcDbLinetypeTableRecord
  2
CONTINUOUS
 70
64
  3
Solid line
 72
65
 73
0
 40
0.0
  0
LTYPE
  5
1F5
100
AcDbSymbolTableRecord
100
AcDbLinetypeTableRecord
  2
CENTER
 70
64
  3
____ _ ____ _ ____ _ ____ _ ____ _ ____ _ ____
 72
65
 73
4
 40
0.6
 49
0.375
 74
0
 49
-0.075
 74
0
 49
0.075
 74
0
 49
-0.075
 74
0
  0
LTYPE
  5
1F6
100
AcDbSymbolTableRecord
100
AcDbLinetypeTableRecord
  2
HIDDEN
 70
64
  3
- - - - - - - - - - - - - - - - - - - -
 72
65
 73
2
 40
0.2
 49
0.1
 74
0
 49
-0.1
 74
0
  0
LTYPE
  5
1F7
100
AcDbSymbolTableRecord
100
AcDbLinetypeTableRecord
  2
PHANTOM
 70
64
  3
_____ _ _ _____ _ _ _____ _ _ _____
 72
65
 73
6
 40
0.8
 49
0.45
 74
0
 49
-0.05
 74
0
 49
0.1
 74
0
 49
-0.05
 74
0
 49
0.1
 74
0
 49
-0.05
 74
0
  0
LTYPE
  5
1F8
100
AcDbSymbolTableRecord
100
AcDbLinetypeTableRecord
  2
DOT
 70
64
  3
. . . . . . . . . . . . . . . . . . . .
 72
65
 73
2
 40
0.2
 49
0.1
 74
0
 49
-0.1
 74
0
  0
LTYPE
  5
1F9
100
AcDbSymbolTableRecord
100
AcDbLinetypeTableRecord
  2
DASHED
 70
64
  3
- - - - - - - - - - - - - - - - - - - -
 72
65
 73
2
 40
0.2
 49
0.1
 74
0
 49
-0.1
 74
0
  0
ENDTAB
  0
TABLE
  2
LAYER
  5
2
100
AcDbSymbolTable
 70
36
  0
LAYER
  5
10
100
AcDbSymbolTableRecord
100
AcDbLayerTableRecord
  2
0
 70
0
 62
7
  6
CONTINUOUS
370
-3
390
F
  0
LAYER
  5
1FA
100
AcDbSymbolTableRecord
100
AcDbLayerTableRecord
  2
DEFAULT_1
 70
0
 62
7
  6
CENTER
370
-3
390
F
  0
LAYER
  5
1FB
100
AcDbSymbolTableRecord
100
AcDbLayerTableRecord
  2
DEFAULT_2
 70
0
 62
7
  6
HIDDEN
370
-3
390
F
  0
LAYER
  5
1FC
100
AcDbSymbolTableRecord
100
AcDbLayerTableRecord
  2
DEFAULT_3
 70
0
 62
7
  6
PHANTOM
370
-3
390
F
  0
LAYER
  5
1FD
100
AcDbSymbolTableRecord
100
AcDbLayerTableRecord
  2
ASSI
 70
0
 62
7
  6
CONTINUOUS
370
-3
390
F
  0
LAYER
  5
1FE
100
AcDbSymbolTableRecord
100
AcDbLayerTableRecord
  2
COORDINATE
 70
0
 62
7
  6
CONTINUOUS
370
-3
390
F
  0
LAYER
  5
1FF
100
AcDbSymbolTableRecord
100
AcDbLayerTableRecord
  2
COPY_PUBLISH
 70
0
 62
7
  6
CONTINUOUS
370
-3
390
F
  0
LAYER
  5
200
100
AcDbSymbolTableRecord
100
AcDbLayerTableRecord
  2
COSMETIC
 70
0
 62
7
  6
CONTINUOUS
370
-3
390
F
  0
LAYER
  5
201
100
AcDbSymbolTableRecord
100
AcDbLayerTableRecord
  2
CURVE
 70
0
 62
7
  6
CONTINUOUS
370
-3
390
F
  0
LAYER
  5
202
100
AcDbSymbolTableRecord
100
AcDbLayerTableRecord
  2
DRAFT
 70
0
 62
7
  6
CONTINUOUS
370
-3
390
F
  0
LAYER
  5
203
100
AcDbSymbolTableRecord
100
AcDbLayerTableRecord
  2
IMPORT_IGES
 70
0
 62
7
  6
CONTINUOUS
370
-3
390
F
  0
LAYER
  5
204
100
AcDbSymbolTableRecord
100
AcDbLayerTableRecord
  2
INTFCLR_1
 70
0
 62
7
  6
CONTINUOUS
370
-3
390
F
  0
LAYER
  5
205
100
AcDbSymbolTableRecord
100
AcDbLayerTableRecord
  2
INTF_1
 70
0
 62
7
  6
CONTINUOUS
370
-3
390
F
  0
LAYER
  5
206
100
AcDbSymbolTableRecord
100
AcDbLayerTableRecord
  2
INTF_15
 70
0
 62
7
  6
CONTINUOUS
370
-3
390
F
  0
LAYER
  5
207
100
AcDbSymbolTableRecord
100
AcDbLayerTableRecord
  2
INTF_16
 70
0
 62
7
  6
CONTINUOUS
370
-3
390
F
  0
LAYER
  5
208
100
AcDbSymbolTableRecord
100
AcDbLayerTableRecord
  2
NOTE
 70
0
 62
7
  6
CONTINUOUS
370
-3
390
F
  0
LAYER
  5
209
100
AcDbSymbolTableRecord
100
AcDbLayerTableRecord
  2
PIANI
 70
0
 62
7
  6
CONTINUOUS
370
-3
390
F
  0
LAYER
  5
20A
100
AcDbSymbolTableRecord
100
AcDbLayerTableRecord
  2
PUNTI
 70
0
 62
7
  6
CONTINUOUS
370
-3
390
F
  0
LAYER
  5
20B
100
AcDbSymbolTableRecord
100
AcDbLayerTableRecord
  2
RACCORDO
 70
0
 62
7
  6
CONTINUOUS
370
-3
390
F
  0
LAYER
  5
20C
100
AcDbSymbolTableRecord
100
AcDbLayerTableRecord
  2
SNAPLINE
 70
0
 62
7
  6
CONTINUOUS
370
-3
390
F
  0
LAYER
  5
20D
100
AcDbSymbolTableRecord
100
AcDbLayerTableRecord
  2
SUPERFICI
 70
0
 62
7
  6
CONTINUOUS
370
-3
390
F
  0
LAYER
  5
20E
100
AcDbSymbolTableRecord
100
AcDbLayerTableRecord
  2
SUPERFICI_SKEL
 70
0
 62
7
  6
CONTINUOUS
370
-3
390
F
  0
LAYER
  5
20F
100
AcDbSymbolTableRecord
100
AcDbLayerTableRecord
  2
TRASH
 70
0
 62
7
  6
CONTINUOUS
370
-3
390
F
  0
ENDTAB
  0
TABLE
  2
STYLE
  5
3
100
AcDbSymbolTable
 70
1
  0
STYLE
  5
11
100
AcDbSymbolTableRecord
100
AcDbTextStyleTableRecord
  2
STANDARD
 70
0
 40
0.0
 41
0.8
 50
0.0
 71
0
 42
0.2
  3
txt
  4

  0
STYLE
  5
210
100
AcDbSymbolTableRecord
100
AcDbTextStyleTableRecord
  2
TEXTSTYLE_1
 70
0
 40
0.0
 41
0.8
 50
0.0
 71
0
 42
0.2
  3
gdt
  4

  0
ENDTAB
  0
TABLE
  2
VIEW
  5
6
100
AcDbSymbolTable
 70
0
  0
ENDTAB
  0
TABLE
  2
UCS
  5
7
100
AcDbSymbolTable
 70
0
  0
ENDTAB
  0
TABLE
  2
APPID
  5
9
100
AcDbSymbolTable
 70
1
  0
APPID
  5
211
100
AcDbSymbolTableRecord
100
AcDbRegAppTableRecord
  2
ACAD
 70
0
  0
ENDTAB
  0
TABLE
  2
BLOCK_RECORD
  5
1
100
AcDbSymbolTable
 70
0
  0
BLOCK_RECORD
  5
212
100
AcDbSymbolTableRecord
100
AcDbBlockTableRecord
  2
*Model_Space
  0
BLOCK_RECORD
  5
213
100
AcDbSymbolTableRecord
100
AcDbBlockTableRecord
  2
*Paper_Space
  0
BLOCK_RECORD
  5
214
100
AcDbSymbolTableRecord
100
AcDbBlockTableRecord
  2
_FILLED
  0
BLOCK_RECORD
  5
215
100
AcDbSymbolTableRecord
100
AcDbBlockTableRecord
  2
*D0
  0
BLOCK_RECORD
  5
216
100
AcDbSymbolTableRecord
100
AcDbBlockTableRecord
  2
*D1
  0
BLOCK_RECORD
  5
217
100
AcDbSymbolTableRecord
100
AcDbBlockTableRecord
  2
*D2
  0
BLOCK_RECORD
  5
218
100
AcDbSymbolTableRecord
100
AcDbBlockTableRecord
  2
*D3
  0
ENDTAB
  0
TABLE
  2
DIMSTYLE
  5
A
100
AcDbSymbolTable
 70
1
100
AcDbDimStyleTable
 71
0
  0
DIMSTYLE
105
219
100
AcDbSymbolTableRecord
100
AcDbDimStyleTableRecord
  2
STANDARD
 70
0
  3

  4

 40
1.0
 41
3.0
 42
0.0625
 43
0.38
 44
0.18
 45
0.0
 46
0.0
 47
0.01
 48
0.01
140
3.0
141
0.09
142
0.0
143
25.4
144
1.0
145
0.0
146
1.0
147
0.09
 71
1.0
 72
0.0
 73
0
 74
0
 75
0
 76
0
 77
1
 78
8
170
0
171
2
172
0
173
0
174
0
175
0
176
0
177
0
178
0
270
2
271
2
272
2
273
2
274
2
275
0
280
0
281
0
282
0
283
1
284
8
285
0
286
0
287
3
288
0
340
11
341
214
342
214
343
214
344
214
  0
DIMSTYLE
105
21A
100
AcDbSymbolTableRecord
100
AcDbDimStyleTableRecord
  2
DIMSTYLE_1
 70
0
  3

  4

 40
1.0
 41
3.0
 42
0.0625
 43
0.38
 44
0.18
 45
0.0
 46
0.0
 47
0.0
 48
0.0
140
3.0
141
0.09
142
0.0
143
25.4
144
1.0
145
0.0
146
1.0
147
0.09
 71
0.0
 72
0.0
 73
0
 74
0
 75
0
 76
0
 77
1
 78
8
170
0
171
2
172
0
173
0
174
0
175
0
176
0
177
0
178
0
270
2
271
2
272
2
273
2
274
2
275
0
280
0
281
0
282
0
283
1
284
8
285
0
286
0
287
3
288
0
340
11
341
214
342
214
343
214
344
214
  0
ENDTAB
  0
ENDSEC
  0
SECTION
  2
BLOCKS
  0
BLOCK
  5
20
100
AcDbEntity
  8
0
100
AcDbBlockBegin
  2
*Model_Space
 70
0
 10
0.0
 20
0.0
 30
0.0
  3
*Model_Space
  1

  0
ENDBLK
  5
21
100
AcDbEntity
  8
0
100
AcDbBlockEnd
  0
BLOCK
  5
1C
100
AcDbEntity
  8
0
100
AcDbBlockBegin
  2
*Paper_Space
 70
0
 10
0.0
 20
0.0
 30
0.0
  3
*Paper_Space
  1

  0
ENDBLK
  5
1D
100
AcDbEntity
  8
0
100
AcDbBlockEnd
  0
BLOCK
  5
21B
100
AcDbEntity
  8
0
100
AcDbBlockBegin
  2
_FILLED
 70
64
 10
0.0
 20
0.0
  3
_FILLED
  1

  0
SOLID
  5
21C
100
AcDbEntity
  8
0
  6
BYBLOCK
 62
0
100
AcDbTrace
 10
0.0
 20
0.0
 11
-1.0
 21
0.3166666667
 12
-1.0
 22
-0.3166666667
 13
-1.0
 23
-0.3166666667
  0
ENDBLK
  5
21D
100
AcDbEntity
  8
0
  6
BYBLOCK
 62
0
100
AcDbBlockEnd
  0
BLOCK
  5
21E
100
AcDbEntity
  8
0
100
AcDbBlockBegin
 62
7
  6
CONTINUOUS
  2
*D0
 70
65
 10
0.0
 20
0.0
  3
*D0
  1

  0
LINE
  5
21F
100
AcDbEntity
  8
0
100
AcDbLine
 62
7
  6
CONTINUOUS
 10
-30.6620283084
 20
20.9226497308
 11
-30.6620283084
 21
36.8934565064
  0
LINE
  5
220
100
AcDbEntity
  8
0
100
AcDbLine
 62
7
  6
CONTINUOUS
 10
-20.6620283084
 20
21.4872686779
 11
-20.6620283084
 21
36.8934565064
  0
LINE
  5
221
100
AcDbEntity
  8
0
100
AcDbLine
 62
7
  6
CONTINUOUS
 10
-30.6620283084
 20
35.3934565064
 11
-34.6620283084
 21
35.3934565064
  0
LINE
  5
222
100
AcDbEntity
  8
0
100
AcDbLine
 62
7
  6
CONTINUOUS
 10
-34.6620283084
 20
35.3934565064
 11
-25.6620283084
 21
35.3934565064
  0
LINE
  5
223
100
AcDbEntity
  8
0
100
AcDbLine
 62
7
  6
CONTINUOUS
 10
-20.6620283084
 20
35.3934565064
 11
-16.6620283084
 21
35.3934565064
  0
LINE
  5
224
100
AcDbEntity
  8
0
100
AcDbLine
 62
7
  6
CONTINUOUS
 10
-16.6620283084
 20
35.3934565064
 11
-25.6620283084
 21
35.3934565064
  0
INSERT
  5
225
100
AcDbEntity
  8
0
100
AcDbBlockReference
 62
7
  6
CONTINUOUS
  2
_FILLED
 10
-30.6620283084
 20
35.3934565064
 41
3.0
 42
3.0
 43
3.0
  0
INSERT
  5
226
100
AcDbEntity
  8
0
100
AcDbBlockReference
 62
7
  6
CONTINUOUS
  2
_FILLED
 10
-20.6620283084
 20
35.3934565064
 41
3.0
 42
3.0
 43
3.0
 50
180.0
  0
ENDBLK
  5
227
100
AcDbEntity
  8
0
  6
BYBLOCK
 62
0
100
AcDbBlockEnd
  0
BLOCK
  5
228
100
AcDbEntity
  8
0
100
AcDbBlockBegin
 62
7
  6
CONTINUOUS
  2
*D1
 70
65
 10
0.0
 20
0.0
  3
*D1
  1

  0
LINE
  5
229
100
AcDbEntity
  8
0
100
AcDbLine
 62
7
  6
CONTINUOUS
 10
-20.6620283084
 20
21.4872686779
 11
-20.6620283084
 21
46.8934565064
  0
LINE
  5
22A
100
AcDbEntity
  8
0
100
AcDbLine
 62
7
  6
CONTINUOUS
 10
-40.8620465357
 20
0.5
 11
-40.8620465357
 21
46.8934565064
  0
LINE
  5
22B
100
AcDbEntity
  8
0
100
AcDbLine
 62
7
  6
CONTINUOUS
 10
-20.6620283084
 20
45.3934565064
 11
-30.762037422
 21
45.3934565064
  0
LINE
  5
22C
100
AcDbEntity
  8
0
100
AcDbLine
 62
7
  6
CONTINUOUS
 10
-40.8620465357
 20
45.3934565064
 11
-30.762037422
 21
45.3934565064
  0
INSERT
  5
22D
100
AcDbEntity
  8
0
100
AcDbBlockReference
 62
7
  6
CONTINUOUS
  2
_FILLED
 10
-20.6620283084
 20
45.3934565064
 41
3.0
 42
3.0
 43
3.0
  0
INSERT
  5
22E
100
AcDbEntity
  8
0
100
AcDbBlockReference
 62
7
  6
CONTINUOUS
  2
_FILLED
 10
-40.8620465357
 20
45.3934565064
 41
3.0
 42
3.0
 43
3.0
 50
180.0
  0
ENDBLK
  5
22F
100
AcDbEntity
  8
0
  6
BYBLOCK
 62
0
100
AcDbBlockEnd
  0
BLOCK
  5
230
100
AcDbEntity
  8
0
100
AcDbBlockBegin
 62
7
  6
CONTINUOUS
  2
*D2
 70
65
 10
0.0
 20
0.0
  3
*D2
  1

  0
LINE
  5
231
100
AcDbEntity
  8
0
100
AcDbLine
 62
7
  6
CONTINUOUS
 10
-11.1
 20
22.4000761524
 11
-11.1
 21
36.8934565064
  0
LINE
  5
232
100
AcDbEntity
  8
0
100
AcDbLine
 62
7
  6
CONTINUOUS
 10
11.1
 20
22.4000761524
 11
11.1
 21
36.8934565064
  0
LINE
  5
233
100
AcDbEntity
  8
0
100
AcDbLine
 62
7
  6
CONTINUOUS
 10
-11.1
 20
35.3934565064
 11
0.0
 21
35.3934565064
  0
LINE
  5
234
100
AcDbEntity
  8
0
100
AcDbLine
 62
7
  6
CONTINUOUS
 10
11.1
 20
35.3934565064
 11
0.0
 21
35.3934565064
  0
INSERT
  5
235
100
AcDbEntity
  8
0
100
AcDbBlockReference
 62
7
  6
CONTINUOUS
  2
_FILLED
 10
-11.1
 20
35.3934565064
 41
3.0
 42
3.0
 43
3.0
 50
180.0
  0
INSERT
  5
236
100
AcDbEntity
  8
0
100
AcDbBlockReference
 62
7
  6
CONTINUOUS
  2
_FILLED
 10
11.1
 20
35.3934565064
 41
3.0
 42
3.0
 43
3.0
  0
ENDBLK
  5
237
100
AcDbEntity
  8
0
  6
BYBLOCK
 62
0
100
AcDbBlockEnd
  0
BLOCK
  5
238
100
AcDbEntity
  8
0
100
AcDbBlockBegin
 62
7
  6
CONTINUOUS
  2
*D3
 70
65
 10
0.0
 20
0.0
  3
*D3
  1

  0
LINE
  5
239
100
AcDbEntity
  8
0
100
AcDbLine
 62
7
  6
CONTINUOUS
 10
10.900030461
 20
24.5
 11
25.582034942
 21
24.5
  0
LINE
  5
23A
100
AcDbEntity
  8
0
100
AcDbLine
 62
7
  6
CONTINUOUS
 10
7.899969539
 20
-24.5
 11
25.582034942
 21
-24.5
  0
LINE
  5
23B
100
AcDbEntity
  8
0
100
AcDbLine
 62
7
  6
CONTINUOUS
 10
24.082034942
 20
24.5
 11
24.082034942
 21
-0.0
  0
LINE
  5
23C
100
AcDbEntity
  8
0
100
AcDbLine
 62
7
  6
CONTINUOUS
 10
24.082034942
 20
-24.5
 11
24.082034942
 21
-0.0
  0
INSERT
  5
23D
100
AcDbEntity
  8
0
100
AcDbBlockReference
 62
7
  6
CONTINUOUS
  2
_FILLED
 10
24.082034942
 20
24.5
 41
3.0
 42
3.0
 43
3.0
 50
90.0
  0
INSERT
  5
23E
100
AcDbEntity
  8
0
100
AcDbBlockReference
 62
7
  6
CONTINUOUS
  2
_FILLED
 10
24.082034942
 20
-24.5
 41
3.0
 42
3.0
 43
3.0
 50
270.0
  0
ENDBLK
  5
23F
100
AcDbEntity
  8
0
  6
BYBLOCK
 62
0
100
AcDbBlockEnd
  0
ENDSEC
  0
SECTION
  2
ENTITIES
  0
DIMENSION
  5
240
100
AcDbEntity
  8
0
100
AcDbDimension
 62
7
  6
CONTINUOUS
  2
*D0
 10
-20.6620283084
 20
35.3934565064
 11
-27.6977425941
 21
36.1434565064
 70
160
 71
2
 42
10.0
  3
DIMSTYLE_1
100
AcDbAlignedDimension
 13
-30.6620283084
 23
20.9226497308
 14
-20.6620283084
 24
21.4872686779
100
AcDbRotatedDimension
  0
DIMENSION
  5
241
100
AcDbEntity
  8
0
100
AcDbDimension
 62
7
  6
CONTINUOUS
  2
*D1
 10
-40.8620465357
 20
45.3934565064
 11
-35.1548945649
 21
46.1434565064
 70
160
 71
2
 42
20.2000182273
  3
DIMSTYLE_1
100
AcDbAlignedDimension
 13
-20.6620283084
 23
21.4872686779
 14
-40.8620465357
 24
0.5
 50
180.0
100
AcDbRotatedDimension
  0
DIMENSION
  5
242
100
AcDbEntity
  8
0
100
AcDbDimension
 62
7
  6
CONTINUOUS
  2
*D2
 10
11.1
 20
35.3934565064
 11
-4.3928571429
 21
36.1434565064
 70
160
 71
2
 42
22.2
  3
DIMSTYLE_1
100
AcDbAlignedDimension
 13
-11.1
 23
22.4000761524
 14
11.1
 24
22.4000761524
100
AcDbRotatedDimension
  0
DIMENSION
  5
243
100
AcDbEntity
  8
0
100
AcDbDimension
 62
7
  6
CONTINUOUS
  2
*D3
 10
24.082034942
 20
-24.5
 11
23.332034942
 21
-2.3571428571
 70
160
 71
2
 42
49.0
  3
DIMSTYLE_1
100
AcDbAlignedDimension
 13
10.900030461
 23
24.5
 14
7.899969539
 24
-24.5
 50
270.0
100
AcDbRotatedDimension
  0
LINE
  5
244
100
AcDbEntity
  8
0
100
AcDbLine
 62
7
  6
CONTINUOUS
 10
-10.400030461
 20
-24.5
 11
-7.399969539
 21
-24.5
  0
LINE
  5
245
100
AcDbEntity
  8
0
100
AcDbLine
 62
7
  6
CONTINUOUS
 10
7.399969539
 20
-24.5
 11
10.400030461
 21
-24.5
  0
LINE
  5
246
100
AcDbEntity
  8
0
100
AcDbLine
 62
253
  6
CONTINUOUS
 10
10.3606803565
 20
-24.4606498956
 11
7.4393195933
 21
-24.4606499457
  0
LINE
  5
247
100
AcDbEntity
  8
0
100
AcDbLine
 62
253
  6
CONTINUOUS
 10
-7.4393196435
 20
-24.4606498956
 11
-10.3606804067
 21
-24.4606499457
  0
LINE
  5
248
100
AcDbEntity
  8
0
100
AcDbLine
 62
253
  6
CONTINUOUS
 10
7.2402075759
 20
-24.2106880219
 11
10.5597924241
 21
-24.2106880219
  0
LINE
  5
249
100
AcDbEntity
  8
0
100
AcDbLine
 62
253
  6
CONTINUOUS
 10
-7.2402075759
 20
-24.2106880219
 11
-10.5597924241
 21
-24.2106880219
  0
LINE
  5
24A
100
AcDbEntity
  8
0
100
AcDbLine
 62
7
  6
CONTINUOUS
 10
-4.2000380762
 20
-24.0
 11
-1.0499619238
 21
-24.0
  0
LINE
  5
24B
100
AcDbEntity
  8
0
100
AcDbLine
 62
7
  6
CONTINUOUS
 10
1.0499619238
 20
-24.0
 11
4.2000380762
 21
-24.0
  0
LINE
  5
24C
100
AcDbEntity
  8
0
100
AcDbLine
 62
253
  6
CONTINUOUS
 10
-4.1947406302
 20
-23.9947025539
 11
-1.0552593698
 21
-23.9947025539
  0
LINE
  5
24D
100
AcDbEntity
  8
0
100
AcDbLine
 62
253
  6
CONTINUOUS
 10
1.0552593698
 20
-23.9947025539
 11
4.1947406302
 21
-23.9947025539
  0
LINE
  5
24E
100
AcDbEntity
  8
0
100
AcDbLine
 62
253
  6
CONTINUOUS
 10
9.0368706193
 20
-23.8443375673
 11
10.5597924241
 21
-23.8443375673
  0
LINE
  5
24F
100
AcDbEntity
  8
0
100
AcDbLine
 62
253
  6
CONTINUOUS
 10
-9.0368706193
 20
-23.8443375673
 11
-10.5597924241
 21
-23.8443375673
  0
LINE
  5
250
100
AcDbEntity
  8
0
100
AcDbLine
 62
253
  6
CONTINUOUS
 10
-7.2402075759
 20
-23.8443375673
 11
-8.7631293807
 21
-23.8443375673
  0
LINE
  5
251
100
AcDbEntity
  8
0
100
AcDbLine
 62
253
  6
CONTINUOUS
 10
8.7631293807
 20
-23.8443375673
 11
7.2402075759
 21
-23.8443375673
  0
LINE
  5
252
100
AcDbEntity
  8
0
100
AcDbLine
 62
253
  6
CONTINUOUS
 10
-4.1947406302
 20
-23.7947330149
 11
-1.0552593698
 21
-23.7947330149
  0
LINE
  5
253
100
AcDbEntity
  8
0
100
AcDbLine
 62
253
  6
CONTINUOUS
 10
1.0552593698
 20
-23.7947330149
 11
4.1947406302
 21
-23.7947330149
  0
LINE
  5
254
100
AcDbEntity
  8
0
100
AcDbLine
 62
253
  6
CONTINUOUS
 10
-1.0052669851
 20
-23.7447406302
 11
-0.8052974461
 21
-23.7447406302
  0
LINE
  5
255
100
AcDbEntity
  8
0
100
AcDbLine
 62
253
  6
CONTINUOUS
 10
1.0052669851
 20
-23.7447406302
 11
0.8052974461
 21
-23.7447406302
  0
LINE
  5
256
100
AcDbEntity
  8
0
100
AcDbLine
 62
253
  6
CONTINUOUS
 10
4.2447330149
 20
-23.7447406302
 11
4.4447025539
 21
-23.7447406302
  0
LINE
  5
257
100
AcDbEntity
  8
0
100
AcDbLine
 62
253
  6
CONTINUOUS
 10
-4.2447330149
 20
-23.7447406302
 11
-4.4447025539
 21
-23.7447406302
  0
LINE
  5
258
100
AcDbEntity
  8
0
100
AcDbLine
 62
253
  6
CONTINUOUS
 10
10.3602592617
 20
-23.6278312164
 11
9.2533769702
 21
-23.6278312164
  0
LINE
  5
259
100
AcDbEntity
  8
0
100
AcDbLine
 62
253
  6
CONTINUOUS
 10
8.5466230298
 20
-23.6278312164
 11
7.4397407383
 21
-23.6278312164
  0
LINE
  5
25A
100
AcDbEntity
  8
0
100
AcDbLine
 62
253
  6
CONTINUOUS
 10
-7.4397407383
 20
-23.6278312164
 11
-8.5466230298
 21
-23.6278312164
  0
LINE
  5
25B
100
AcDbEntity
  8
0
100
AcDbLine
 62
253
  6
CONTINUOUS
 10
-9.2533769702
 20
-23.6278312164
 11
-10.3602592617
 21
-23.6278312164
  0
LINE
  5
25C
100
AcDbEntity
  8
0
100
AcDbLine
 62
7
  6
CONTINUOUS
 10
-10.3281430868
 20
-23.1226497308
 11
-9.3
 21
-23.1226497308
  0
LINE
  5
25D
100
AcDbEntity
  8
0
100
AcDbLine
 62
7
  6
CONTINUOUS
 10
-8.5
 20
-23.1226497308
 11
-7.4718569132
 21
-23.1226497308
  0
LINE
  5
25E
100
AcDbEntity
  8
0
100
AcDbLine
 62
7
  6
CONTINUOUS
 10
7.4718569132
 20
-23.1226497308
 11
8.5
 21
-23.1226497308
  0
LINE
  5
25F
100
AcDbEntity
  8
0
100
AcDbLine
 62
7
  6
CONTINUOUS
 10
9.3
 20
-23.1226497308
 11
10.3281430868
 21
-23.1226497308
  0
LINE
  5
260
100
AcDbEntity
  8
0
100
AcDbLine
 62
253
  6
CONTINUOUS
 10
-7.4393195933
 20
24.4606499457
 11
-7.399969539
 21
24.5
  0
LINE
  5
261
100
AcDbEntity
  8
0
100
AcDbLine
 62
253
  6
CONTINUOUS
 10
-7.2393500543
 20
24.2606804067
 11
-7.2
 21
24.300030461
  0
LINE
  5
262
100
AcDbEntity
  8
0
100
AcDbLine
 62
7
  6
CONTINUOUS
 10
-7.2
 20
-22.4
 11
-4.45
 21
-22.4
  0
LINE
  5
263
100
AcDbEntity
  8
0
100
AcDbLine
 62
7
  6
CONTINUOUS
 10
-0.8
 20
-22.4
 11
0.8
 21
-22.4
  0
LINE
  5
264
100
AcDbEntity
  8
0
100
AcDbLine
 62
7
  6
CONTINUOUS
 10
4.45
 20
-22.4
 11
7.2
 21
-22.4
  0
LINE
  5
265
100
AcDbEntity
  8
0
100
AcDbLine
 62
7
  6
CONTINUOUS
 10
4.2447330149
 20
-22.3737961104
 11
1.0052669851
 21
-22.3737961104
  0
LINE
  5
266
100
AcDbEntity
  8
0
100
AcDbLine
 62
7
  6
CONTINUOUS
 10
-1.0052669851
 20
-22.3737961104
 11
-4.2447330149
 21
-22.3737961104
  0
LINE
  5
267
100
AcDbEntity
  8
0
100
AcDbLine
 62
7
  6
CONTINUOUS
 10
-10.3281430868
 20
-22.3213883311
 11
-9.3
 21
-22.3213883311
  0
LINE
  5
268
100
AcDbEntity
  8
0
100
AcDbLine
 62
7
  6
CONTINUOUS
 10
-8.5
 20
-22.3213883311
 11
-7.4718569132
 21
-22.3213883311
  0
LINE
  5
269
100
AcDbEntity
  8
0
100
AcDbLine
 62
7
  6
CONTINUOUS
 10
7.4718569132
 20
-22.3213883311
 11
8.5
 21
-22.3213883311
  0
LINE
  5
26A
100
AcDbEntity
  8
0
100
AcDbLine
 62
7
  6
CONTINUOUS
 10
9.3
 20
-22.3213883311
 11
10.3281430868
 21
-22.3213883311
  0
LINE
  5
26B
100
AcDbEntity
  8
0
100
AcDbLine
 62
7
  6
CONTINUOUS
 10
9.0368706193
 20
-22.2689805518
 11
8.7631293807
 21
-22.2689805518
  0
LINE
  5
26C
100
AcDbEntity
  8
0
100
AcDbLine
 62
7
  6
CONTINUOUS
 10
-8.7631293807
 20
-22.2689805518
 11
-9.0368706193
 21
-22.2689805518
  0
LINE
  5
26D
100
AcDbEntity
  8
0
100
AcDbLine
 62
253
  6
CONTINUOUS
 10
-7.399969539
 20
-24.5
 11
-7.4393196435
 21
-24.4606498956
  0
LINE
  5
26E
100
AcDbEntity
  8
0
100
AcDbLine
 62
253
  6
CONTINUOUS
 10
-7.2
 20
-24.300030461
 11
-7.2393500543
 21
-24.2606804067
  0
LINE
  5
26F
100
AcDbEntity
  8
0
100
AcDbLine
 62
253
  6
CONTINUOUS
 10
-1.0552593698
 20
23.9947025539
 11
-1.0499619238
 21
24.0
  0
LINE
  5
270
100
AcDbEntity
  8
0
100
AcDbLine
 62
253
  6
CONTINUOUS
 10
-0.8052974461
 20
23.7447406302
 11
-0.8
 21
23.7500380762
  0
LINE
  5
271
100
AcDbEntity
  8
0
100
AcDbLine
 62
253
  6
CONTINUOUS
 10
-1.0499619238
 20
-24.0
 11
-1.0552593698
 21
-23.9947025539
  0
LINE
  5
272
100
AcDbEntity
  8
0
100
AcDbLine
 62
253
  6
CONTINUOUS
 10
-0.8
 20
-23.7500380762
 11
-0.8052974461
 21
-23.7447406302
  0
LINE
  5
273
100
AcDbEntity
  8
0
100
AcDbLine
 62
7
  6
CONTINUOUS
 10
-8.5
 20
22.3213883311
 11
-8.5131674569
 21
22.2818538361
  0
LINE
  5
274
100
AcDbEntity
  8
0
100
AcDbLine
 62
7
  6
CONTINUOUS
 10
-8.5
 20
-22.3213883311
 11
-8.5131674569
 21
-22.2818538361
  0
LINE
  5
275
100
AcDbEntity
  8
0
100
AcDbLine
 62
7
  6
CONTINUOUS
 10
-7.2218949894
 20
22.3342616154
 11
-7.2
 21
22.4
  0
LINE
  5
276
100
AcDbEntity
  8
0
100
AcDbLine
 62
253
  6
CONTINUOUS
 10
4.1947406302
 20
23.9947025539
 11
4.2000380762
 21
24.0
  0
LINE
  5
277
100
AcDbEntity
  8
0
100
AcDbLine
 62
253
  6
CONTINUOUS
 10
4.4447025539
 20
23.7447406302
 11
4.45
 21
23.7500380762
  0
LINE
  5
278
100
AcDbEntity
  8
0
100
AcDbLine
 62
253
  6
CONTINUOUS
 10
4.2000380762
 20
-24.0
 11
4.1947406302
 21
-23.9947025539
  0
LINE
  5
279
100
AcDbEntity
  8
0
100
AcDbLine
 62
253
  6
CONTINUOUS
 10
4.45
 20
-23.7500380762
 11
4.4447025539
 21
-23.7447406302
  0
LINE
  5
27A
100
AcDbEntity
  8
0
100
AcDbLine
 62
7
  6
CONTINUOUS
 10
-7.2
 20
-22.4
 11
-7.2218949894
 21
-22.3342616154
  0
LINE
  5
27B
100
AcDbEntity
  8
0
100
AcDbLine
 62
7
  6
CONTINUOUS
 10
-11.1
 20
-21.0
 11
-11.1261859216
 21
-20.4226497308
  0
LINE
  5
27C
100
AcDbEntity
  8
0
100
AcDbLine
 62
253
  6
CONTINUOUS
 10
-10.5781050106
 20
-23.2097560788
 11
-10.5602288007
 21
-23.8010362971
  0
LINE
  5
27D
100
AcDbEntity
  8
0
100
AcDbLine
 62
253
  6
CONTINUOUS
 10
-10.3756118279
 20
-23.1200239821
 11
-10.3602592617
 21
-23.6278312164
  0
LINE
  5
27E
100
AcDbEntity
  8
0
100
AcDbLine
 62
7
  6
CONTINUOUS
 10
-11.1261859216
 20
-20.4226497308
 11
-11.1261859216
 21
20.4226497308
  0
LINE
  5
27F
100
AcDbEntity
  8
0
100
AcDbLine
 62
7
  6
CONTINUOUS
 10
-11.1
 20
21.9000761524
 11
-11.1
 21
21.0
  0
LINE
  5
280
100
AcDbEntity
  8
0
100
AcDbLine
 62
7
  6
CONTINUOUS
 10
-11.1
 20
-21.9000761524
 11
-11.1
 21
-21.0
  0
LINE
  5
281
100
AcDbEntity
  8
0
100
AcDbLine
 62
7
  6
CONTINUOUS
 10
-10.6
 20
-24.300030461
 11
-10.6000000646
 21
-22.3999999296
  0
LINE
  5
282
100
AcDbEntity
  8
0
100
AcDbLine
 62
7
  6
CONTINUOUS
 10
-10.6
 20
22.3999997358
 11
-10.6
 21
24.300030461
  0
LINE
  5
283
100
AcDbEntity
  8
0
100
AcDbLine
 62
253
  6
CONTINUOUS
 10
-10.5781050106
 20
-23.2097560788
 11
-10.5781050106
 21
-22.3341525772
  0
LINE
  5
284
100
AcDbEntity
  8
0
100
AcDbLine
 62
253
  6
CONTINUOUS
 10
-10.5781050106
 20
22.3341525772
 11
-10.5781050106
 21
23.2097560788
  0
LINE
  5
285
100
AcDbEntity
  8
0
100
AcDbLine
 62
253
  6
CONTINUOUS
 10
-10.5597924241
 20
-23.8443375673
 11
-10.5597924241
 21
-24.2106880219
  0
LINE
  5
286
100
AcDbEntity
  8
0
100
AcDbLine
 62
253
  6
CONTINUOUS
 10
-10.5597924241
 20
23.8443375673
 11
-10.5597924241
 21
24.2106880219
  0
LINE
  5
287
100
AcDbEntity
  8
0
100
AcDbLine
 62
253
  6
CONTINUOUS
 10
-10.4288985768
 20
-20.8772674193
 11
-10.4288985753
 21
20.8772674139
  0
LINE
  5
288
100
AcDbEntity
  8
0
100
AcDbLine
 62
253
  6
CONTINUOUS
 10
-10.3598228851
 20
-23.8443354982
 11
-10.3598228851
 21
-24.2106880219
  0
LINE
  5
289
100
AcDbEntity
  8
0
100
AcDbLine
 62
253
  6
CONTINUOUS
 10
-10.3598228851
 20
23.844357602
 11
-10.3598228851
 21
24.2106880219
  0
LINE
  5
28A
100
AcDbEntity
  8
0
100
AcDbLine
 62
253
  6
CONTINUOUS
 10
-10.3281430868
 20
-23.1226497308
 11
-10.3281430868
 21
-22.3213883311
  0
LINE
  5
28B
100
AcDbEntity
  8
0
100
AcDbLine
 62
253
  6
CONTINUOUS
 10
-10.3281430868
 20
22.3213883311
 11
-10.3281430868
 21
23.1226497308
  0
LINE
  5
28C
100
AcDbEntity
  8
0
100
AcDbLine
 62
253
  6
CONTINUOUS
 10
-10.5781050106
 20
23.2097560788
 11
-10.5602288007
 21
23.8010362971
  0
LINE
  5
28D
100
AcDbEntity
  8
0
100
AcDbLine
 62
253
  6
CONTINUOUS
 10
-10.3756118279
 20
23.1200239821
 11
-10.3602579838
 21
23.6278734826
  0
LINE
  5
28E
100
AcDbEntity
  8
0
100
AcDbLine
 62
7
  6
CONTINUOUS
 10
-11.1261859216
 20
20.4226497308
 11
-11.1
 21
21.0
  0
LWPOLYLINE
  5
28F
100
AcDbEntity
  8
0
100
AcDbPolyline
 62
7
  6
CONTINUOUS
 90
3
 70
0
 43
0.3500000006
 10
1.035714268
 20
36.4291687775
 10
0.9642857051
 20
36.2148842926
 10
0.8214285793
 20
35.9291686249
  0
LINE
  5
290
100
AcDbEntity
  8
0
100
AcDbLine
 62
7
  6
CONTINUOUS
 10
-9.3
 20
-23.1226497308
 11
-9.2868325431
 21
-23.5581814706
  0
LINE
  5
291
100
AcDbEntity
  8
0
100
AcDbLine
 62
7
  6
CONTINUOUS
 10
-9.3
 20
23.1226497308
 11
-9.3
 21
22.3213883311
  0
LINE
  5
292
100
AcDbEntity
  8
0
100
AcDbLine
 62
7
  6
CONTINUOUS
 10
-9.3
 20
-22.3213883311
 11
-9.3
 21
-23.1226497308
  0
LINE
  5
293
100
AcDbEntity
  8
0
100
AcDbLine
 62
253
  6
CONTINUOUS
 10
-9.2868325431
 20
-23.5581814706
 11
-9.2868325431
 21
-22.2818538361
  0
LINE
  5
294
100
AcDbEntity
  8
0
100
AcDbLine
 62
253
  6
CONTINUOUS
 10
-9.2868325431
 20
22.2818538361
 11
-9.2868325431
 21
23.5581814706
  0
LINE
  5
295
100
AcDbEntity
  8
0
100
AcDbLine
 62
253
  6
CONTINUOUS
 10
-9.0368706193
 20
-23.8443375673
 11
-9.0368706193
 21
-22.2689805518
  0
LINE
  5
296
100
AcDbEntity
  8
0
100
AcDbLine
 62
253
  6
CONTINUOUS
 10
-9.0368706193
 20
22.2689805518
 11
-9.0368706193
 21
23.8443375673
  0
LINE
  5
297
100
AcDbEntity
  8
0
100
AcDbLine
 62
253
  6
CONTINUOUS
 10
-8.7631293807
 20
-23.8443375673
 11
-8.7631293807
 21
-22.2689805518
  0
LINE
  5
298
100
AcDbEntity
  8
0
100
AcDbLine
 62
253
  6
CONTINUOUS
 10
-8.7631293807
 20
22.2689805518
 11
-8.7631293807
 21
23.8443375673
  0
LINE
  5
299
100
AcDbEntity
  8
0
100
AcDbLine
 62
253
  6
CONTINUOUS
 10
-8.5131674569
 20
-23.5581814706
 11
-8.5131674569
 21
-22.2818538361
  0
LINE
  5
29A
100
AcDbEntity
  8
0
100
AcDbLine
 62
253
  6
CONTINUOUS
 10
-8.5131674569
 20
22.2818538361
 11
-8.5131674569
 21
23.5581814706
  0
LINE
  5
29B
100
AcDbEntity
  8
0
100
AcDbLine
 62
7
  6
CONTINUOUS
 10
-8.5
 20
23.1226497308
 11
-8.5
 21
22.3213883311
  0
LINE
  5
29C
100
AcDbEntity
  8
0
100
AcDbLine
 62
7
  6
CONTINUOUS
 10
-8.5
 20
-22.3213883311
 11
-8.5
 21
-23.1226497308
  0
LINE
  5
29D
100
AcDbEntity
  8
0
100
AcDbLine
 62
7
  6
CONTINUOUS
 10
-9.2868325431
 20
23.5581814706
 11
-9.3
 21
23.1226497308
  0
LINE
  5
29E
100
AcDbEntity
  8
0
100
AcDbLine
 62
253
  6
CONTINUOUS
 10
10.400030461
 20
24.5
 11
10.3606804067
 21
24.4606499457
  0
LINE
  5
29F
100
AcDbEntity
  8
0
100
AcDbLine
 62
253
  6
CONTINUOUS
 10
10.6
 20
24.300030461
 11
10.5606499457
 21
24.2606804067
  0
LINE
  5
2A0
100
AcDbEntity
  8
0
100
AcDbLine
 62
253
  6
CONTINUOUS
 10
10.400030461
 20
-24.5
 11
10.3606803565
 21
-24.4606498956
  0
LINE
  5
2A1
100
AcDbEntity
  8
0
100
AcDbLine
 62
253
  6
CONTINUOUS
 10
10.6
 20
-24.300030461
 11
10.5606499457
 21
-24.2606804067
  0
LINE
  5
2A2
100
AcDbEntity
  8
0
100
AcDbLine
 62
7
  6
CONTINUOUS
 10
-8.5131674569
 20
23.5581814706
 11
-8.5
 21
23.1226497308
  0
LINE
  5
2A3
100
AcDbEntity
  8
0
100
AcDbLine
 62
253
  6
CONTINUOUS
 10
-7.4243881721
 20
23.1200239821
 11
-7.4397407631
 21
23.6278320349
  0
LINE
  5
2A4
100
AcDbEntity
  8
0
100
AcDbLine
 62
253
  6
CONTINUOUS
 10
-7.2218949894
 20
23.2097560788
 11
-7.2397711993
 21
23.8010362971
  0
LINE
  5
2A5
100
AcDbEntity
  8
0
100
AcDbLine
 62
253
  6
CONTINUOUS
 10
-7.4718569132
 20
-23.1226497308
 11
-7.4718569132
 21
-22.3213883311
  0
LINE
  5
2A6
100
AcDbEntity
  8
0
100
AcDbLine
 62
253
  6
CONTINUOUS
 10
-7.4718569132
 20
22.3213883311
 11
-7.4718569132
 21
23.1226497308
  0
LINE
  5
2A7
100
AcDbEntity
  8
0
100
AcDbLine
 62
253
  6
CONTINUOUS
 10
-7.4401771149
 20
-24.2106880219
 11
-7.4401771149
 21
-23.8443359174
  0
LINE
  5
2A8
100
AcDbEntity
  8
0
100
AcDbLine
 62
253
  6
CONTINUOUS
 10
-7.4401771149
 20
23.8443375673
 11
-7.4401771149
 21
24.2106909083
  0
LINE
  5
2A9
100
AcDbEntity
  8
0
100
AcDbLine
 62
253
  6
CONTINUOUS
 10
-7.2402075759
 20
-24.2106880219
 11
-7.2402075759
 21
-23.8443375673
  0
LINE
  5
2AA
100
AcDbEntity
  8
0
100
AcDbLine
 62
253
  6
CONTINUOUS
 10
-7.2402075759
 20
23.8443375673
 11
-7.2402075759
 21
24.2106880219
  0
LINE
  5
2AB
100
AcDbEntity
  8
0
100
AcDbLine
 62
253
  6
CONTINUOUS
 10
-7.2218949894
 20
23.2097560788
 11
-7.2218949894
 21
22.3342616154
  0
LINE
  5
2AC
100
AcDbEntity
  8
0
100
AcDbLine
 62
253
  6
CONTINUOUS
 10
-7.2218949894
 20
-22.3342616154
 11
-7.2218949894
 21
-23.2097560788
  0
LINE
  5
2AD
100
AcDbEntity
  8
0
100
AcDbLine
 62
7
  6
CONTINUOUS
 10
-7.2
 20
-24.300030461
 11
-7.2
 21
-22.4
  0
LINE
  5
2AE
100
AcDbEntity
  8
0
100
AcDbLine
 62
7
  6
CONTINUOUS
 10
-7.2
 20
22.4
 11
-7.2
 21
24.300030461
  0
LINE
  5
2AF
100
AcDbEntity
  8
0
100
AcDbLine
 62
7
  6
CONTINUOUS
 10
-8.5
 20
-23.1226497308
 11
-8.5131674569
 21
-23.5581814706
  0
LINE
  5
2B0
100
AcDbEntity
  8
0
100
AcDbLine
 62
253
  6
CONTINUOUS
 10
-7.4397407383
 20
-23.6278312164
 11
-7.4243881721
 21
-23.1200239821
  0
LINE
  5
2B1
100
AcDbEntity
  8
0
100
AcDbLine
 62
253
  6
CONTINUOUS
 10
-7.2397711993
 20
-23.8010362971
 11
-7.2218949894
 21
-23.2097560788
  0
LINE
  5
2B2
100
AcDbEntity
  8
0
100
AcDbLine
 62
7
  6
CONTINUOUS
 10
-0.8052974461
 20
22.3840947378
 11
-0.8
 21
22.4
  0
LINE
  5
2B3
100
AcDbEntity
  8
0
100
AcDbLine
 62
7
  6
CONTINUOUS
 10
-0.8
 20
-22.4
 11
-0.8052974461
 21
-22.3840947378
  0
LINE
  5
2B4
100
AcDbEntity
  8
0
100
AcDbLine
 62
7
  6
CONTINUOUS
 10
-4.45
 20
-22.4
 11
-4.45
 21
-23.7500380762
  0
LINE
  5
2B5
100
AcDbEntity
  8
0
100
AcDbLine
 62
7
  6
CONTINUOUS
 10
-4.45
 20
22.4
 11
-4.45
 21
23.7500380762
  0
LINE
  5
2B6
100
AcDbEntity
  8
0
100
AcDbLine
 62
253
  6
CONTINUOUS
 10
-4.4447025539
 20
23.7447406302
 11
-4.4447025539
 21
22.3840947378
  0
LINE
  5
2B7
100
AcDbEntity
  8
0
100
AcDbLine
 62
253
  6
CONTINUOUS
 10
-4.4447025539
 20
-22.3840947378
 11
-4.4447025539
 21
-23.7447406302
  0
LINE
  5
2B8
100
AcDbEntity
  8
0
100
AcDbLine
 62
253
  6
CONTINUOUS
 10
-4.2447330149
 20
23.7447406302
 11
-4.2447330149
 21
22.3737961104
  0
LINE
  5
2B9
100
AcDbEntity
  8
0
100
AcDbLine
 62
253
  6
CONTINUOUS
 10
-4.2447330149
 20
-22.3737961104
 11
-4.2447330149
 21
-23.7447406302
  0
LINE
  5
2BA
100
AcDbEntity
  8
0
100
AcDbLine
 62
253
  6
CONTINUOUS
 10
-4.1947406302
 20
-23.7947330149
 11
-4.1947406302
 21
-23.9947025539
  0
LINE
  5
2BB
100
AcDbEntity
  8
0
100
AcDbLine
 62
253
  6
CONTINUOUS
 10
-4.1947406302
 20
23.7947330149
 11
-4.1947406302
 21
23.9947025539
  0
LINE
  5
2BC
100
AcDbEntity
  8
0
100
AcDbLine
 62
7
  6
CONTINUOUS
 10
4.45
 20
22.4
 11
4.4447025539
 21
22.3840947378
  0
LINE
  5
2BD
100
AcDbEntity
  8
0
100
AcDbLine
 62
7
  6
CONTINUOUS
 10
4.45
 20
-22.4
 11
4.4447025539
 21
-22.3840947378
  0
LINE
  5
2BE
100
AcDbEntity
  8
0
100
AcDbLine
 62
253
  6
CONTINUOUS
 10
-1.0552593698
 20
-23.7947330149
 11
-1.0552593698
 21
-23.9947025539
  0
LINE
  5
2BF
100
AcDbEntity
  8
0
100
AcDbLine
 62
253
  6
CONTINUOUS
 10
-1.0552593698
 20
23.7947330149
 11
-1.0552593698
 21
23.9947025539
  0
LINE
  5
2C0
100
AcDbEntity
  8
0
100
AcDbLine
 62
253
  6
CONTINUOUS
 10
-1.0052669851
 20
-23.7447406302
 11
-1.0052669851
 21
-22.3737961104
  0
LINE
  5
2C1
100
AcDbEntity
  8
0
100
AcDbLine
 62
253
  6
CONTINUOUS
 10
-1.0052669851
 20
22.3737961104
 11
-1.0052669851
 21
23.7447406302
  0
LINE
  5
2C2
100
AcDbEntity
  8
0
100
AcDbLine
 62
253
  6
CONTINUOUS
 10
-0.8052974461
 20
-23.7447406302
 11
-0.8052974461
 21
-22.3840947378
  0
LINE
  5
2C3
100
AcDbEntity
  8
0
100
AcDbLine
 62
253
  6
CONTINUOUS
 10
-0.8052974461
 20
22.3840947378
 11
-0.8052974461
 21
23.7447406302
  0
LINE
  5
2C4
100
AcDbEntity
  8
0
100
AcDbLine
 62
7
  6
CONTINUOUS
 10
-0.8
 20
-23.7500380762
 11
-0.8
 21
-22.4
  0
LINE
  5
2C5
100
AcDbEntity
  8
0
100
AcDbLine
 62
7
  6
CONTINUOUS
 10
-0.8
 20
22.4
 11
-0.8
 21
23.7500380762
  0
LINE
  5
2C6
100
AcDbEntity
  8
0
100
AcDbLine
 62
7
  6
CONTINUOUS
 10
-9.3
 20
-22.3213883311
 11
-9.2868325431
 21
-22.2818538361
  0
LINE
  5
2C7
100
AcDbEntity
  8
0
100
AcDbLine
 62
253
  6
CONTINUOUS
 10
10.4128373368
 20
22.0243894438
 11
10.5657454716
 21
22.3304155561
  0
LINE
  5
2C8
100
AcDbEntity
  8
0
100
AcDbLine
 62
253
  6
CONTINUOUS
 10
-11.1
 20
-21.8999997649
 11
-10.9126659988
 21
-21.5250746755
  0
LINE
  5
2C9
100
AcDbEntity
  8
0
100
AcDbLine
 62
253
  6
CONTINUOUS
 10
11.1
 20
21.8999997649
 11
10.9126659988
 21
21.5250746755
  0
LWPOLYLINE
  5
2CA
100
AcDbEntity
  8
0
100
AcDbPolyline
 62
7
  6
CONTINUOUS
 90
2
 70
0
 43
0.3500000006
 10
23.3320360336
 20
-1.3571429443
 10
21.8320355759
 20
-1.3571429443
  0
LINE
  5
2CB
100
AcDbEntity
  8
0
100
AcDbLine
 62
253
  6
CONTINUOUS
 10
10.4128373357
 20
-22.0243894416
 11
10.5657454716
 21
-22.3304155561
  0
LINE
  5
2CC
100
AcDbEntity
  8
0
100
AcDbLine
 62
253
  6
CONTINUOUS
 10
-10.9126659982
 20
21.5250746743
 11
-11.1
 21
21.8999997649
  0
LINE
  5
2CD
100
AcDbEntity
  8
0
100
AcDbLine
 62
253
  6
CONTINUOUS
 10
10.9126659982
 20
-21.5250746743
 11
11.1
 21
-21.8999997649
  0
LINE
  5
2CE
100
AcDbEntity
  8
0
100
AcDbLine
 62
7
  6
CONTINUOUS
 10
-9.3
 20
22.3213883311
 11
-9.2868325431
 21
22.2818538361
  0
LINE
  5
2CF
100
AcDbEntity
  8
0
100
AcDbLine
 62
7
  6
CONTINUOUS
 10
0.8
 20
-23.7500380762
 11
0.8
 21
-22.4
  0
LINE
  5
2D0
100
AcDbEntity
  8
0
100
AcDbLine
 62
7
  6
CONTINUOUS
 10
0.8
 20
22.4
 11
0.8
 21
23.7500380762
  0
LINE
  5
2D1
100
AcDbEntity
  8
0
100
AcDbLine
 62
253
  6
CONTINUOUS
 10
0.8052974461
 20
23.7447406302
 11
0.8052974461
 21
22.3840947378
  0
LINE
  5
2D2
100
AcDbEntity
  8
0
100
AcDbLine
 62
253
  6
CONTINUOUS
 10
0.8052974461
 20
-22.3840947378
 11
0.8052974461
 21
-23.7447406302
  0
LINE
  5
2D3
100
AcDbEntity
  8
0
100
AcDbLine
 62
253
  6
CONTINUOUS
 10
1.0052669851
 20
23.7447406302
 11
1.0052669851
 21
22.3737961104
  0
LINE
  5
2D4
100
AcDbEntity
  8
0
100
AcDbLine
 62
253
  6
CONTINUOUS
 10
1.0052669851
 20
-22.3737961104
 11
1.0052669851
 21
-23.7447406302
  0
LINE
  5
2D5
100
AcDbEntity
  8
0
100
AcDbLine
 62
253
  6
CONTINUOUS
 10
1.0552593698
 20
-23.7947330149
 11
1.0552593698
 21
-23.9947025539
  0
LINE
  5
2D6
100
AcDbEntity
  8
0
100
AcDbLine
 62
253
  6
CONTINUOUS
 10
1.0552593698
 20
23.7947330149
 11
1.0552593698
 21
23.9947025539
  0
LINE
  5
2D7
100
AcDbEntity
  8
0
100
AcDbLine
 62
7
  6
CONTINUOUS
 10
9.3
 20
22.3213883311
 11
9.2868325431
 21
22.2818538361
  0
LINE
  5
2D8
100
AcDbEntity
  8
0
100
AcDbLine
 62
253
  6
CONTINUOUS
 10
-10.5657454716
 20
-22.3304155561
 11
-10.4128373368
 21
-22.0243894438
  0
LINE
  5
2D9
100
AcDbEntity
  8
0
100
AcDbLine
 62
253
  6
CONTINUOUS
 10
-10.5657454716
 20
22.3304155561
 11
-10.4128373357
 21
22.0243894416
  0
LINE
  5
2DA
100
AcDbEntity
  8
0
100
AcDbLine
 62
7
  6
CONTINUOUS
 10
9.3
 20
-22.3213883311
 11
9.2868325431
 21
-22.2818538361
  0
LINE
  5
2DB
100
AcDbEntity
  8
0
100
AcDbLine
 62
253
  6
CONTINUOUS
 10
4.1947406302
 20
-23.7947330149
 11
4.1947406302
 21
-23.9947025539
  0
LINE
  5
2DC
100
AcDbEntity
  8
0
100
AcDbLine
 62
253
  6
CONTINUOUS
 10
4.1947406302
 20
23.7947330149
 11
4.1947406302
 21
23.9947025539
  0
LINE
  5
2DD
100
AcDbEntity
  8
0
100
AcDbLine
 62
253
  6
CONTINUOUS
 10
4.2447330149
 20
-23.7447406302
 11
4.2447330149
 21
-22.3737961104
  0
LINE
  5
2DE
100
AcDbEntity
  8
0
100
AcDbLine
 62
253
  6
CONTINUOUS
 10
4.2447330149
 20
22.3737961104
 11
4.2447330149
 21
23.7447406302
  0
LINE
  5
2DF
100
AcDbEntity
  8
0
100
AcDbLine
 62
253
  6
CONTINUOUS
 10
4.4447025539
 20
-23.7447406302
 11
4.4447025539
 21
-22.3840947378
  0
LINE
  5
2E0
100
AcDbEntity
  8
0
100
AcDbLine
 62
253
  6
CONTINUOUS
 10
4.4447025539
 20
22.3840947378
 11
4.4447025539
 21
23.7447406302
  0
LINE
  5
2E1
100
AcDbEntity
  8
0
100
AcDbLine
 62
7
  6
CONTINUOUS
 10
4.45
 20
-22.4
 11
4.45
 21
-23.7500380762
  0
LINE
  5
2E2
100
AcDbEntity
  8
0
100
AcDbLine
 62
7
  6
CONTINUOUS
 10
4.45
 20
22.4
 11
4.45
 21
23.7500380762
  0
LINE
  5
2E3
100
AcDbEntity
  8
0
100
AcDbLine
 62
7
  6
CONTINUOUS
 10
-4.45
 20
-22.4
 11
-4.4447025539
 21
-22.3840947378
  0
LINE
  5
2E4
100
AcDbEntity
  8
0
100
AcDbLine
 62
7
  6
CONTINUOUS
 10
-4.45
 20
22.4
 11
-4.4447025539
 21
22.3840947378
  0
LINE
  5
2E5
100
AcDbEntity
  8
0
100
AcDbLine
 62
253
  6
CONTINUOUS
 10
7.2218949894
 20
-23.2097560788
 11
7.2397711993
 21
-23.8010362971
  0
LINE
  5
2E6
100
AcDbEntity
  8
0
100
AcDbLine
 62
253
  6
CONTINUOUS
 10
7.2397711993
 20
23.8010362971
 11
7.2218949894
 21
23.2097560788
  0
LINE
  5
2E7
100
AcDbEntity
  8
0
100
AcDbLine
 62
253
  6
CONTINUOUS
 10
7.4243881721
 20
-23.1200239821
 11
7.4397407383
 21
-23.6278312164
  0
LINE
  5
2E8
100
AcDbEntity
  8
0
100
AcDbLine
 62
7
  6
CONTINUOUS
 10
8.5
 20
-23.1226497308
 11
8.5131674569
 21
-23.5581814706
  0
LINE
  5
2E9
100
AcDbEntity
  8
0
100
AcDbLine
 62
7
  6
CONTINUOUS
 10
7.2
 20
-22.4
 11
7.2
 21
-24.300030461
  0
LINE
  5
2EA
100
AcDbEntity
  8
0
100
AcDbLine
 62
7
  6
CONTINUOUS
 10
7.2
 20
22.4
 11
7.2
 21
24.300030461
  0
LINE
  5
2EB
100
AcDbEntity
  8
0
100
AcDbLine
 62
253
  6
CONTINUOUS
 10
7.2218949894
 20
-23.2097560788
 11
7.2218949894
 21
-22.3342616154
  0
LINE
  5
2EC
100
AcDbEntity
  8
0
100
AcDbLine
 62
253
  6
CONTINUOUS
 10
7.2218949894
 20
22.3342616154
 11
7.2218949894
 21
23.2097560788
  0
LINE
  5
2ED
100
AcDbEntity
  8
0
100
AcDbLine
 62
253
  6
CONTINUOUS
 10
7.2402075759
 20
24.2106880219
 11
7.2402075759
 21
23.8443375673
  0
LINE
  5
2EE
100
AcDbEntity
  8
0
100
AcDbLine
 62
253
  6
CONTINUOUS
 10
7.2402075759
 20
-23.8443375673
 11
7.2402075759
 21
-24.2106880219
  0
LINE
  5
2EF
100
AcDbEntity
  8
0
100
AcDbLine
 62
253
  6
CONTINUOUS
 10
7.4401771149
 20
24.2106880219
 11
7.4401771149
 21
23.8443375673
  0
LINE
  5
2F0
100
AcDbEntity
  8
0
100
AcDbLine
 62
253
  6
CONTINUOUS
 10
7.4401771149
 20
-23.8443354982
 11
7.4401771149
 21
-24.2106880219
  0
LINE
  5
2F1
100
AcDbEntity
  8
0
100
AcDbLine
 62
253
  6
CONTINUOUS
 10
7.4718569132
 20
23.1226497308
 11
7.4718569132
 21
22.3213883311
  0
LINE
  5
2F2
100
AcDbEntity
  8
0
100
AcDbLine
 62
253
  6
CONTINUOUS
 10
7.4718569132
 20
-22.3213883311
 11
7.4718569132
 21
-23.1226497308
  0
LINE
  5
2F3
100
AcDbEntity
  8
0
100
AcDbLine
 62
7
  6
CONTINUOUS
 10
8.5
 20
23.1226497308
 11
8.5
 21
22.3213883311
  0
LINE
  5
2F4
100
AcDbEntity
  8
0
100
AcDbLine
 62
7
  6
CONTINUOUS
 10
8.5
 20
-22.3213883311
 11
8.5
 21
-23.1226497308
  0
LINE
  5
2F5
100
AcDbEntity
  8
0
100
AcDbLine
 62
253
  6
CONTINUOUS
 10
8.5131674569
 20
-23.5581814706
 11
8.5131674569
 21
-22.2818538361
  0
LINE
  5
2F6
100
AcDbEntity
  8
0
100
AcDbLine
 62
253
  6
CONTINUOUS
 10
8.5131674569
 20
22.2818538361
 11
8.5131674569
 21
23.5581814706
  0
LINE
  5
2F7
100
AcDbEntity
  8
0
100
AcDbLine
 62
253
  6
CONTINUOUS
 10
7.4397407692
 20
23.6278322392
 11
7.4243881721
 21
23.1200239821
  0
LINE
  5
2F8
100
AcDbEntity
  8
0
100
AcDbLine
 62
7
  6
CONTINUOUS
 10
8.5131674569
 20
23.5581814706
 11
8.5
 21
23.1226497308
  0
LINE
  5
2F9
100
AcDbEntity
  8
0
100
AcDbLine
 62
7
  6
CONTINUOUS
 10
0.8
 20
-22.4
 11
0.8052974461
 21
-22.3840947378
  0
LINE
  5
2FA
100
AcDbEntity
  8
0
100
AcDbLine
 62
7
  6
CONTINUOUS
 10
0.8052974461
 20
22.3840947378
 11
0.8
 21
22.4
  0
LINE
  5
2FB
100
AcDbEntity
  8
0
100
AcDbLine
 62
7
  6
CONTINUOUS
 10
9.2868325431
 20
23.5581814706
 11
9.3
 21
23.1226497308
  0
LINE
  5
2FC
100
AcDbEntity
  8
0
100
AcDbLine
 62
253
  6
CONTINUOUS
 10
8.7631293807
 20
-23.8443375673
 11
8.7631293807
 21
-22.2689805518
  0
LINE
  5
2FD
100
AcDbEntity
  8
0
100
AcDbLine
 62
253
  6
CONTINUOUS
 10
8.7631293807
 20
22.2689805518
 11
8.7631293807
 21
23.8443375673
  0
LINE
  5
2FE
100
AcDbEntity
  8
0
100
AcDbLine
 62
253
  6
CONTINUOUS
 10
9.0368706193
 20
-23.8443375673
 11
9.0368706193
 21
-22.2689805518
  0
LINE
  5
2FF
100
AcDbEntity
  8
0
100
AcDbLine
 62
253
  6
CONTINUOUS
 10
9.0368706193
 20
22.2689805518
 11
9.0368706193
 21
23.8443375673
  0
LINE
  5
300
100
AcDbEntity
  8
0
100
AcDbLine
 62
253
  6
CONTINUOUS
 10
9.2868325431
 20
-23.5581814706
 11
9.2868325431
 21
-22.2818538361
  0
LINE
  5
301
100
AcDbEntity
  8
0
100
AcDbLine
 62
253
  6
CONTINUOUS
 10
9.2868325431
 20
22.2818538361
 11
9.2868325431
 21
23.5581814706
  0
LINE
  5
302
100
AcDbEntity
  8
0
100
AcDbLine
 62
7
  6
CONTINUOUS
 10
9.3
 20
23.1226497308
 11
9.3
 21
22.3213883311
  0
LINE
  5
303
100
AcDbEntity
  8
0
100
AcDbLine
 62
7
  6
CONTINUOUS
 10
9.3
 20
-22.3213883311
 11
9.3
 21
-23.1226497308
  0
LINE
  5
304
100
AcDbEntity
  8
0
100
AcDbLine
 62
253
  6
CONTINUOUS
 10
10.3281430868
 20
23.1226497308
 11
10.3281430868
 21
22.3213883311
  0
LINE
  5
305
100
AcDbEntity
  8
0
100
AcDbLine
 62
253
  6
CONTINUOUS
 10
10.3281430868
 20
-22.3213883311
 11
10.3281430868
 21
-23.1226497308
  0
LINE
  5
306
100
AcDbEntity
  8
0
100
AcDbLine
 62
253
  6
CONTINUOUS
 10
10.3598228851
 20
24.2106880219
 11
10.3598228851
 21
23.8443575944
  0
LINE
  5
307
100
AcDbEntity
  8
0
100
AcDbLine
 62
253
  6
CONTINUOUS
 10
10.3598228851
 20
-24.2106880219
 11
10.3598228851
 21
-23.8443359174
  0
LINE
  5
308
100
AcDbEntity
  8
0
100
AcDbLine
 62
253
  6
CONTINUOUS
 10
10.4288985767
 20
20.8772674161
 11
10.4288985753
 21
-20.8772674171
  0
LINE
  5
309
100
AcDbEntity
  8
0
100
AcDbLine
 62
253
  6
CONTINUOUS
 10
10.5597924241
 20
24.2106880219
 11
10.5597924241
 21
23.8443375673
  0
LINE
  5
30A
100
AcDbEntity
  8
0
100
AcDbLine
 62
253
  6
CONTINUOUS
 10
10.5597924241
 20
-24.2106880219
 11
10.5597924241
 21
-23.8443375673
  0
LINE
  5
30B
100
AcDbEntity
  8
0
100
AcDbLine
 62
253
  6
CONTINUOUS
 10
10.5781050106
 20
23.2097560788
 11
10.5781050106
 21
22.3341525772
  0
LINE
  5
30C
100
AcDbEntity
  8
0
100
AcDbLine
 62
253
  6
CONTINUOUS
 10
10.5781050106
 20
-22.3341525772
 11
10.5781050106
 21
-23.2097560788
  0
LINE
  5
30D
100
AcDbEntity
  8
0
100
AcDbLine
 62
7
  6
CONTINUOUS
 10
10.6
 20
-24.300030461
 11
10.6
 21
-22.3999997358
  0
LINE
  5
30E
100
AcDbEntity
  8
0
100
AcDbLine
 62
7
  6
CONTINUOUS
 10
10.6000000646
 20
22.3999999296
 11
10.6
 21
24.300030461
  0
LINE
  5
30F
100
AcDbEntity
  8
0
100
AcDbLine
 62
7
  6
CONTINUOUS
 10
9.3
 20
-23.1226497308
 11
9.2868325431
 21
-23.5581814706
  0
LINE
  5
310
100
AcDbEntity
  8
0
100
AcDbLine
 62
253
  6
CONTINUOUS
 10
-10.5606499457
 20
-24.2606804067
 11
-10.6
 21
-24.300030461
  0
LINE
  5
311
100
AcDbEntity
  8
0
100
AcDbLine
 62
253
  6
CONTINUOUS
 10
-10.3606804067
 20
-24.4606499457
 11
-10.400030461
 21
-24.5
  0
LINE
  5
312
100
AcDbEntity
  8
0
100
AcDbLine
 62
253
  6
CONTINUOUS
 10
-10.5606499457
 20
24.2606804067
 11
-10.6
 21
24.300030461
  0
LINE
  5
313
100
AcDbEntity
  8
0
100
AcDbLine
 62
253
  6
CONTINUOUS
 10
-10.3606804067
 20
24.4606499457
 11
-10.400030461
 21
24.5
  0
LINE
  5
314
100
AcDbEntity
  8
0
100
AcDbLine
 62
7
  6
CONTINUOUS
 10
11.1261859216
 20
20.4226497308
 11
11.1
 21
21.0
  0
LINE
  5
315
100
AcDbEntity
  8
0
100
AcDbLine
 62
253
  6
CONTINUOUS
 10
10.360257984
 20
23.6278734767
 11
10.3756118279
 21
23.1200239821
  0
LINE
  5
316
100
AcDbEntity
  8
0
100
AcDbLine
 62
253
  6
CONTINUOUS
 10
10.5602288007
 20
23.8010362971
 11
10.5781050106
 21
23.2097560788
  0
LINE
  5
317
100
AcDbEntity
  8
0
100
AcDbLine
 62
7
  6
CONTINUOUS
 10
11.1
 20
21.9000761524
 11
11.1
 21
21.0
  0
LINE
  5
318
100
AcDbEntity
  8
0
100
AcDbLine
 62
7
  6
CONTINUOUS
 10
11.1
 20
-21.9000761524
 11
11.1
 21
-21.0
  0
LINE
  5
319
100
AcDbEntity
  8
0
100
AcDbLine
 62
7
  6
CONTINUOUS
 10
11.1261859216
 20
-20.4226497308
 11
11.1261859216
 21
20.4226497308
  0
LINE
  5
31A
100
AcDbEntity
  8
0
100
AcDbLine
 62
253
  6
CONTINUOUS
 10
10.3602592617
 20
-23.6278312164
 11
10.3756118279
 21
-23.1200239821
  0
LINE
  5
31B
100
AcDbEntity
  8
0
100
AcDbLine
 62
253
  6
CONTINUOUS
 10
10.5602288007
 20
-23.8010362971
 11
10.5781050106
 21
-23.2097560788
  0
LINE
  5
31C
100
AcDbEntity
  8
0
100
AcDbLine
 62
7
  6
CONTINUOUS
 10
11.1
 20
-21.0
 11
11.1261859216
 21
-20.4226497308
  0
LINE
  5
31D
100
AcDbEntity
  8
0
100
AcDbLine
 62
7
  6
CONTINUOUS
 10
7.2
 20
-22.4
 11
7.2218949894
 21
-22.3342616154
  0
LINE
  5
31E
100
AcDbEntity
  8
0
100
AcDbLine
 62
253
  6
CONTINUOUS
 10
-4.4447025539
 20
-23.7447406302
 11
-4.45
 21
-23.7500380762
  0
LINE
  5
31F
100
AcDbEntity
  8
0
100
AcDbLine
 62
253
  6
CONTINUOUS
 10
-4.1947406302
 20
-23.9947025539
 11
-4.2000380762
 21
-24.0
  0
LINE
  5
320
100
AcDbEntity
  8
0
100
AcDbLine
 62
253
  6
CONTINUOUS
 10
-4.45
 20
23.7500380762
 11
-4.4447025539
 21
23.7447406302
  0
LINE
  5
321
100
AcDbEntity
  8
0
100
AcDbLine
 62
253
  6
CONTINUOUS
 10
-4.2000380762
 20
24.0
 11
-4.1947406302
 21
23.9947025539
  0
LINE
  5
322
100
AcDbEntity
  8
0
100
AcDbLine
 62
7
  6
CONTINUOUS
 10
7.2218949894
 20
22.3342616154
 11
7.2
 21
22.4
  0
LINE
  5
323
100
AcDbEntity
  8
0
100
AcDbLine
 62
7
  6
CONTINUOUS
 10
8.5
 20
-22.3213883311
 11
8.5131674569
 21
-22.2818538361
  0
LWPOLYLINE
  5
324
100
AcDbEntity
  8
0
100
AcDbPolyline
 62
7
  6
CONTINUOUS
 90
10
 70
0
 43
0.3500000006
 10
23.3320360336
 20
0.4285709152
 10
22.4748912964
 20
1.2857133865
 10
21.6177488251
 20
1.5000001373
 10
20.7606063538
 20
1.5000001373
 10
20.3320351181
 20
1.0714289017
 10
20.3320351181
 20
0.4285709152
 10
20.7606063538
 20
-0.0000003204
 10
21.6177488251
 20
-0.0000003204
 10
22.0463200607
 20
0.4285709152
 10
22.0463200607
 20
1.3571423035
  0
LINE
  5
325
100
AcDbEntity
  8
0
100
AcDbLine
 62
7
  6
CONTINUOUS
 10
8.5
 20
22.3213883311
 11
8.5131674569
 21
22.2818538361
  0
LINE
  5
326
100
AcDbEntity
  8
0
100
AcDbLine
 62
253
  6
CONTINUOUS
 10
0.8052974461
 20
-23.7447406302
 11
0.8
 21
-23.7500380762
  0
LINE
  5
327
100
AcDbEntity
  8
0
100
AcDbLine
 62
253
  6
CONTINUOUS
 10
1.0552593698
 20
-23.9947025539
 11
1.0499619238
 21
-24.0
  0
LINE
  5
328
100
AcDbEntity
  8
0
100
AcDbLine
 62
253
  6
CONTINUOUS
 10
0.8
 20
23.7500380762
 11
0.8052974461
 21
23.7447406302
  0
LINE
  5
329
100
AcDbEntity
  8
0
100
AcDbLine
 62
253
  6
CONTINUOUS
 10
1.0499619238
 20
24.0
 11
1.0552593698
 21
23.9947025539
  0
LWPOLYLINE
  5
32A
100
AcDbEntity
  8
0
100
AcDbPolyline
 62
7
  6
CONTINUOUS
 90
10
 70
0
 43
0.3500000006
 10
0.9642857051
 20
36.6434577942
 10
1.035714268
 20
36.5005999603
 10
1.035714268
 20
36.4291687775
 10
0.8928571422
 20
36.2863154755
 10
0.8214285793
 20
36.2863154755
 10
0.7500000165
 20
36.3577421265
 10
0.7500000165
 20
36.4291687775
 10
0.8214285793
 20
36.5720266113
 10
0.8928571422
 20
36.6434577942
 10
0.9642857051
 20
36.6434577942
  0
LWPOLYLINE
  5
32B
100
AcDbEntity
  8
0
100
AcDbPolyline
 62
7
  6
CONTINUOUS
 90
3
 70
0
 43
0.3500000006
 10
22.6891780472
 20
-0.8571427917
 10
22.6891780472
 20
-2.3571432495
 10
20.3320351181
 20
-1.7142852631
  0
LINE
  5
32C
100
AcDbEntity
  8
0
100
AcDbLine
 62
253
  6
CONTINUOUS
 10
7.2393500543
 20
-24.2606804067
 11
7.2
 21
-24.300030461
  0
LINE
  5
32D
100
AcDbEntity
  8
0
100
AcDbLine
 62
253
  6
CONTINUOUS
 10
7.4393195933
 20
-24.4606499457
 11
7.399969539
 21
-24.5
  0
LINE
  5
32E
100
AcDbEntity
  8
0
100
AcDbLine
 62
7
  6
CONTINUOUS
 10
9.0368706193
 20
22.2689805518
 11
8.7631293807
 21
22.2689805518
  0
LINE
  5
32F
100
AcDbEntity
  8
0
100
AcDbLine
 62
7
  6
CONTINUOUS
 10
-8.7631293807
 20
22.2689805518
 11
-9.0368706193
 21
22.2689805518
  0
LINE
  5
330
100
AcDbEntity
  8
0
100
AcDbLine
 62
7
  6
CONTINUOUS
 10
-10.3281430868
 20
22.3213883311
 11
-9.3
 21
22.3213883311
  0
LINE
  5
331
100
AcDbEntity
  8
0
100
AcDbLine
 62
7
  6
CONTINUOUS
 10
-8.5
 20
22.3213883311
 11
-7.4718569132
 21
22.3213883311
  0
LINE
  5
332
100
AcDbEntity
  8
0
100
AcDbLine
 62
7
  6
CONTINUOUS
 10
7.4718569132
 20
22.3213883311
 11
8.5
 21
22.3213883311
  0
LINE
  5
333
100
AcDbEntity
  8
0
100
AcDbLine
 62
7
  6
CONTINUOUS
 10
9.3
 20
22.3213883311
 11
10.3281430868
 21
22.3213883311
  0
LINE
  5
334
100
AcDbEntity
  8
0
100
AcDbLine
 62
7
  6
CONTINUOUS
 10
4.2447330149
 20
22.3737961104
 11
1.0052669851
 21
22.3737961104
  0
LINE
  5
335
100
AcDbEntity
  8
0
100
AcDbLine
 62
7
  6
CONTINUOUS
 10
-1.0052669851
 20
22.3737961104
 11
-4.2447330149
 21
22.3737961104
  0
LINE
  5
336
100
AcDbEntity
  8
0
100
AcDbLine
 62
7
  6
CONTINUOUS
 10
-7.2
 20
22.4
 11
-4.45
 21
22.4
  0
LINE
  5
337
100
AcDbEntity
  8
0
100
AcDbLine
 62
7
  6
CONTINUOUS
 10
-0.8
 20
22.4
 11
0.8
 21
22.4
  0
LINE
  5
338
100
AcDbEntity
  8
0
100
AcDbLine
 62
7
  6
CONTINUOUS
 10
4.45
 20
22.4
 11
7.2
 21
22.4
  0
LINE
  5
339
100
AcDbEntity
  8
0
100
AcDbLine
 62
7
  6
CONTINUOUS
 10
-10.3281430868
 20
23.1226497308
 11
-9.3
 21
23.1226497308
  0
LINE
  5
33A
100
AcDbEntity
  8
0
100
AcDbLine
 62
7
  6
CONTINUOUS
 10
-8.5
 20
23.1226497308
 11
-7.4718569132
 21
23.1226497308
  0
LINE
  5
33B
100
AcDbEntity
  8
0
100
AcDbLine
 62
7
  6
CONTINUOUS
 10
7.4718569132
 20
23.1226497308
 11
8.5
 21
23.1226497308
  0
LINE
  5
33C
100
AcDbEntity
  8
0
100
AcDbLine
 62
7
  6
CONTINUOUS
 10
9.3
 20
23.1226497308
 11
10.3281430868
 21
23.1226497308
  0
LINE
  5
33D
100
AcDbEntity
  8
0
100
AcDbLine
 62
253
  6
CONTINUOUS
 10
7.2
 20
24.300030461
 11
7.2393500543
 21
24.2606804067
  0
LINE
  5
33E
100
AcDbEntity
  8
0
100
AcDbLine
 62
253
  6
CONTINUOUS
 10
7.399969539
 20
24.5
 11
7.4393195933
 21
24.4606499457
  0
LINE
  5
33F
100
AcDbEntity
  8
0
100
AcDbLine
 62
253
  6
CONTINUOUS
 10
-10.3602579838
 20
23.6278734826
 11
-9.2533769702
 21
23.6278312163
  0
LINE
  5
340
100
AcDbEntity
  8
0
100
AcDbLine
 62
253
  6
CONTINUOUS
 10
9.2533769702
 20
23.6278312163
 11
10.360257984
 21
23.6278734767
  0
LINE
  5
341
100
AcDbEntity
  8
0
100
AcDbLine
 62
253
  6
CONTINUOUS
 10
-8.5466230298
 20
23.6278312163
 11
-7.4397407631
 21
23.6278320349
  0
LINE
  5
342
100
AcDbEntity
  8
0
100
AcDbLine
 62
253
  6
CONTINUOUS
 10
7.4397407692
 20
23.6278322392
 11
8.5466230298
 21
23.6278312163
  0
LINE
  5
343
100
AcDbEntity
  8
0
100
AcDbLine
 62
253
  6
CONTINUOUS
 10
-1.0052669851
 20
23.7447406302
 11
-0.8052974461
 21
23.7447406302
  0
LINE
  5
344
100
AcDbEntity
  8
0
100
AcDbLine
 62
253
  6
CONTINUOUS
 10
1.0052669851
 20
23.7447406302
 11
0.8052974461
 21
23.7447406302
  0
LINE
  5
345
100
AcDbEntity
  8
0
100
AcDbLine
 62
253
  6
CONTINUOUS
 10
-4.2447330149
 20
23.7447406302
 11
-4.4447025539
 21
23.7447406302
  0
LINE
  5
346
100
AcDbEntity
  8
0
100
AcDbLine
 62
253
  6
CONTINUOUS
 10
4.2447330149
 20
23.7447406302
 11
4.4447025539
 21
23.7447406302
  0
LINE
  5
347
100
AcDbEntity
  8
0
100
AcDbLine
 62
253
  6
CONTINUOUS
 10
4.1947406302
 20
23.7947330149
 11
1.0552593698
 21
23.7947330149
  0
LINE
  5
348
100
AcDbEntity
  8
0
100
AcDbLine
 62
253
  6
CONTINUOUS
 10
-1.0552593698
 20
23.7947330149
 11
-4.1947406302
 21
23.7947330149
  0
LINE
  5
349
100
AcDbEntity
  8
0
100
AcDbLine
 62
253
  6
CONTINUOUS
 10
-10.5597924241
 20
23.8443375673
 11
-9.0368706193
 21
23.8443375673
  0
LINE
  5
34A
100
AcDbEntity
  8
0
100
AcDbLine
 62
253
  6
CONTINUOUS
 10
10.5597924241
 20
23.8443375673
 11
9.0368706193
 21
23.8443375673
  0
LINE
  5
34B
100
AcDbEntity
  8
0
100
AcDbLine
 62
253
  6
CONTINUOUS
 10
8.7631293807
 20
23.8443375673
 11
7.2402075759
 21
23.8443375673
  0
LINE
  5
34C
100
AcDbEntity
  8
0
100
AcDbLine
 62
253
  6
CONTINUOUS
 10
-7.2402075759
 20
23.8443375673
 11
-8.7631293807
 21
23.8443375673
  0
LINE
  5
34D
100
AcDbEntity
  8
0
100
AcDbLine
 62
253
  6
CONTINUOUS
 10
4.1947406302
 20
23.9947025539
 11
1.0552593698
 21
23.9947025539
  0
LINE
  5
34E
100
AcDbEntity
  8
0
100
AcDbLine
 62
253
  6
CONTINUOUS
 10
-1.0552593698
 20
23.9947025539
 11
-4.1947406302
 21
23.9947025539
  0
LINE
  5
34F
100
AcDbEntity
  8
0
100
AcDbLine
 62
7
  6
CONTINUOUS
 10
-4.2000380762
 20
24.0
 11
-1.0499619238
 21
24.0
  0
LINE
  5
350
100
AcDbEntity
  8
0
100
AcDbLine
 62
7
  6
CONTINUOUS
 10
1.0499619238
 20
24.0
 11
4.2000380762
 21
24.0
  0
LINE
  5
351
100
AcDbEntity
  8
0
100
AcDbLine
 62
253
  6
CONTINUOUS
 10
10.5597924241
 20
24.2106880219
 11
7.2402075759
 21
24.2106880219
  0
LINE
  5
352
100
AcDbEntity
  8
0
100
AcDbLine
 62
253
  6
CONTINUOUS
 10
-7.2402075759
 20
24.2106880219
 11
-10.5597924241
 21
24.2106880219
  0
LINE
  5
353
100
AcDbEntity
  8
0
100
AcDbLine
 62
253
  6
CONTINUOUS
 10
10.3606804067
 20
24.4606499457
 11
7.4393195933
 21
24.4606499457
  0
LINE
  5
354
100
AcDbEntity
  8
0
100
AcDbLine
 62
253
  6
CONTINUOUS
 10
-7.4393195933
 20
24.4606499457
 11
-10.3606804067
 21
24.4606499457
  0
LINE
  5
355
100
AcDbEntity
  8
0
100
AcDbLine
 62
7
  6
CONTINUOUS
 10
-10.400030461
 20
24.5
 11
-7.399969539
 21
24.5
  0
LINE
  5
356
100
AcDbEntity
  8
0
100
AcDbLine
 62
7
  6
CONTINUOUS
 10
7.399969539
 20
24.5
 11
10.400030461
 21
24.5
  0
LWPOLYLINE
  5
357
100
AcDbEntity
  8
0
100
AcDbPolyline
 62
7
  6
CONTINUOUS
 90
7
 70
0
 43
0.3500000006
 10
3.5357143936
 20
36.1434576416
 10
2.0357142191
 20
36.1434576416
 10
3.5357143936
 20
38.286311554
 10
3.5357143936
 20
38.7148850555
 10
3.1071428747
 20
39.1434585571
 10
2.464285738
 20
39.1434585571
 10
2.0357142191
 20
38.5006005707
  0
LWPOLYLINE
  5
358
100
AcDbEntity
  8
0
100
AcDbPolyline
 62
7
  6
CONTINUOUS
 90
7
 70
0
 43
0.3500000006
 10
-0.5357142924
 20
36.1434576416
 10
-2.0357142191
 20
36.1434576416
 10
-0.5357142924
 20
38.286311554
 10
-0.5357142924
 20
38.7148850555
 10
-0.9642857051
 20
39.1434585571
 10
-1.6071428418
 20
39.1434585571
 10
-2.0357142191
 20
38.5006005707
  0
LWPOLYLINE
  5
359
100
AcDbEntity
  8
0
100
AcDbPolyline
 62
7
  6
CONTINUOUS
 90
7
 70
0
 43
0.3500000006
 10
-2.8928572569
 20
36.1434576416
 10
-4.3928571482
 20
36.1434576416
 10
-2.8928572569
 20
38.286311554
 10
-2.8928572569
 20
38.7148850555
 10
-3.3214284925
 20
39.1434585571
 10
-3.9642856293
 20
39.1434585571
 10
-4.3928571482
 20
38.5006005707
  0
LWPOLYLINE
  5
35A
100
AcDbEntity
  8
0
100
AcDbPolyline
 62
7
  6
CONTINUOUS
 90
3
 70
0
 43
0.3500000006
 10
-27.6977425232
 20
38.286311554
 10
-26.8406000519
 20
39.1434585571
 10
-26.8406000519
 20
36.1434576416
  0
LINE
  5
35B
100
AcDbEntity
  8
0
100
AcDbLine
 62
7
  6
CONTINUOUS
 10
-31.6620283084
 20
-24.5
 11
-30.9076652068
 21
-24.4868325431
  0
LINE
  5
35C
100
AcDbEntity
  8
0
100
AcDbLine
 62
253
  6
CONTINUOUS
 10
-31.6620283084
 20
-24.300030461
 11
-30.9076652068
 21
-24.2868630041
  0
LINE
  5
35D
100
AcDbEntity
  8
0
100
AcDbLine
 62
7
  6
CONTINUOUS
 10
-25.9076687199
 20
-23.8995572798
 11
-30.6620283084
 21
-23.9825449351
  0
LINE
  5
35E
100
AcDbEntity
  8
0
100
AcDbLine
 62
253
  6
CONTINUOUS
 10
-26.0408653493
 20
-23.6519203118
 11
-30.6620283084
 21
-23.7325830113
  0
LINE
  5
35F
100
AcDbEntity
  8
0
100
AcDbLine
 62
253
  6
CONTINUOUS
 10
-30.8585378271
 20
-24.2368706193
 11
-30.6620283084
 21
-24.2368706193
  0
LINE
  5
360
100
AcDbEntity
  8
0
100
AcDbLine
 62
253
  6
CONTINUOUS
 10
-34.1620283084
 20
-24.2106880219
 11
-33.9655187897
 21
-24.2106880219
  0
LINE
  5
361
100
AcDbEntity
  8
0
100
AcDbLine
 62
253
  6
CONTINUOUS
 10
-34.1620283084
 20
-23.8443375673
 11
-33.9655187897
 21
-23.8443375673
  0
LINE
  5
362
100
AcDbEntity
  8
0
100
AcDbLine
 62
253
  6
CONTINUOUS
 10
-30.8585378271
 20
-23.8443375673
 11
-30.6620283084
 21
-23.8443375672
  0
LINE
  5
363
100
AcDbEntity
  8
0
100
AcDbLine
 62
7
  6
CONTINUOUS
 10
-31.6620283084
 20
-24.5
 11
-33.9163942809
 21
-24.4606498956
  0
LINE
  5
364
100
AcDbEntity
  8
0
100
AcDbLine
 62
253
  6
CONTINUOUS
 10
-31.6620283084
 20
-24.300030461
 11
-33.91639141
 21
-24.2606804067
  0
LINE
  5
365
100
AcDbEntity
  8
0
100
AcDbLine
 62
7
  6
CONTINUOUS
 10
-21.644575902
 20
-22.2251447178
 11
-31.6620283038
 21
-22.3999999999
  0
LINE
  5
366
100
AcDbEntity
  8
0
100
AcDbLine
 62
253
  6
CONTINUOUS
 10
-31.6620283084
 20
-21.9000761524
 11
-30.6620283084
 21
-21.8826210875
  0
LINE
  5
367
100
AcDbEntity
  8
0
100
AcDbLine
 62
7
  6
CONTINUOUS
 10
-20.6890300413
 20
-21.4561094406
 11
-30.6620283084
 21
-21.4051134101
  0
LINE
  5
368
100
AcDbEntity
  8
0
100
AcDbLine
 62
7
  6
CONTINUOUS
 10
-39.1816437014
 20
-22.0059136562
 11
-32.9897785931
 21
-22.3304155561
  0
LINE
  5
369
100
AcDbEntity
  8
0
100
AcDbLine
 62
7
  6
CONTINUOUS
 10
-31.8710789288
 20
-22.3890441212
 11
-31.6620371036
 21
-22.3999995391
  0
LINE
  5
36A
100
AcDbEntity
  8
0
100
AcDbLine
 62
253
  6
CONTINUOUS
 10
-38.81602521
 20
-21.5250746743
 11
-31.6620283084
 21
-21.8999997649
  0
LINE
  5
36B
100
AcDbEntity
  8
0
100
AcDbLine
 62
253
  6
CONTINUOUS
 10
-31.6620283084
 20
23.3515746082
 11
-30.8835378271
 21
23.8010362971
  0
LINE
  5
36C
100
AcDbEntity
  8
0
100
AcDbLine
 62
7
  6
CONTINUOUS
 10
-31.6620283084
 20
23.1226497308
 11
-30.7870452921
 21
23.6278214108
  0
LINE
  5
36D
100
AcDbEntity
  8
0
100
AcDbLine
 62
253
  6
CONTINUOUS
 10
-39.481516952
 20
-20.8558253568
 11
-39.966832108
 21
-20.8772669682
  0
LINE
  5
36E
100
AcDbEntity
  8
0
100
AcDbLine
 62
7
  6
CONTINUOUS
 10
-20.6620283084
 20
-20.9872686779
 11
-30.6620283084
 21
-20.9
  0
LINE
  5
36F
100
AcDbEntity
  8
0
100
AcDbLine
 62
253
  6
CONTINUOUS
 10
-30.8835378271
 20
-23.8010362971
 11
-31.6620283084
 21
-23.3515746082
  0
LINE
  5
370
100
AcDbEntity
  8
0
100
AcDbLine
 62
7
  6
CONTINUOUS
 10
-30.7869551113
 20
-23.6278734767
 11
-31.6620283084
 21
-23.1226497308
  0
LINE
  5
371
100
AcDbEntity
  8
RACCORDO
100
AcDbLine
 62
253
  6
CONTINUOUS
 10
-20.9594103478
 20
-19.0001037691
 11
-20.6620283084
 21
-19.0001037674
  0
LWPOLYLINE
  5
372
100
AcDbEntity
  8
0
100
AcDbPolyline
 62
7
  6
CONTINUOUS
 90
3
 70
0
 43
0.3500000006
 10
-29.7263233109
 20
46.4291718292
 10
-29.7977522278
 20
46.2148828125
 10
-29.9406077957
 20
45.9291716766
  0
LINE
  5
373
100
AcDbEntity
  8
RACCORDO
100
AcDbLine
 62
253
  6
CONTINUOUS
 10
-30.6620283084
 20
15.3285981293
 11
-21.0910063191
 21
18.8121652449
  0
LINE
  5
374
100
AcDbEntity
  8
RACCORDO
100
AcDbLine
 62
7
  6
CONTINUOUS
 10
-30.6620283084
 20
15.0102976573
 11
-20.9909502616
 21
18.5302821996
  0
LINE
  5
375
100
AcDbEntity
  8
RACCORDO
100
AcDbLine
 62
253
  6
CONTINUOUS
 10
-21.0910063191
 20
-18.8121652449
 11
-30.6620283084
 21
-15.3285981293
  0
LINE
  5
376
100
AcDbEntity
  8
RACCORDO
100
AcDbLine
 62
7
  6
CONTINUOUS
 10
-20.9910182367
 20
-18.5302574587
 11
-30.6620283084
 21
-15.0102976573
  0
LWPOLYLINE
  5
377
100
AcDbEntity
  8
0
100
AcDbPolyline
 62
7
  6
CONTINUOUS
 90
13
 70
0
 10
-40.3172023686
 20
20.8701690372
 10
-40.4807174744
 20
17.461511065
 10
-40.6180032856
 20
13.970141072
 10
-40.7247884671
 20
10.4777052159
 10
-40.8010618257
 20
6.9844698588
 10
-40.8468149071
 20
3.4907014234
 10
-40.8620465218
 20
-0.003333455
 10
-40.8467566705
 20
-3.4973680538
 10
-40.8009453539
 20
-6.9911356503
 10
-40.7246137707
 20
-10.4843696095
 10
-40.6177703896
 20
-13.9768035091
 10
-40.4804264056
 20
-17.4681709873
 10
-40.3172023686
 20
-20.8701690373
  0
LINE
  5
378
100
AcDbEntity
  8
0
100
AcDbLine
 62
7
  6
CONTINUOUS
 10
-34.1620283084
 20
-24.2106880219
 11
-34.1620283084
 21
-22.2689805518
  0
LINE
  5
379
100
AcDbEntity
  8
0
100
AcDbLine
 62
7
  6
CONTINUOUS
 10
-34.1620283084
 20
22.2689805518
 11
-34.1620283084
 21
24.2106880219
  0
LINE
  5
37A
100
AcDbEntity
  8
0
100
AcDbLine
 62
253
  6
CONTINUOUS
 10
-33.9655187897
 20
24.2106880219
 11
-33.9655187897
 21
23.8443375673
  0
LINE
  5
37B
100
AcDbEntity
  8
0
100
AcDbLine
 62
253
  6
CONTINUOUS
 10
-33.9655187897
 20
-24.2106880219
 11
-33.9655187897
 21
-23.8443375673
  0
LINE
  5
37C
100
AcDbEntity
  8
0
100
AcDbLine
 62
253
  6
CONTINUOUS
 10
-33.91639141
 20
-23.5581814706
 11
-33.91639141
 21
-22.2818538361
  0
LINE
  5
37D
100
AcDbEntity
  8
0
100
AcDbLine
 62
253
  6
CONTINUOUS
 10
-33.91639141
 20
22.2818538361
 11
-33.91639141
 21
23.5581814706
  0
LINE
  5
37E
100
AcDbEntity
  8
0
100
AcDbLine
 62
7
  6
CONTINUOUS
 10
-33.1620283084
 20
23.1226497308
 11
-33.1620283084
 21
22.3213883311
  0
LINE
  5
37F
100
AcDbEntity
  8
0
100
AcDbLine
 62
7
  6
CONTINUOUS
 10
-33.1620283084
 20
-22.3213883311
 11
-33.1620283084
 21
-23.1226497308
  0
LINE
  5
380
100
AcDbEntity
  8
0
100
AcDbLine
 62
253
  6
CONTINUOUS
 10
-32.91639141
 20
23.2097560788
 11
-32.91639141
 21
22.3341525772
  0
LINE
  5
381
100
AcDbEntity
  8
0
100
AcDbLine
 62
253
  6
CONTINUOUS
 10
-32.91639141
 20
-22.3341525772
 11
-32.91639141
 21
-23.2097560788
  0
LWPOLYLINE
  5
382
100
AcDbEntity
  8
0
100
AcDbPolyline
 62
7
  6
CONTINUOUS
 90
13
 70
0
 43
0.3500000006
 10
-32.7977508774
 20
47.0005986328
 10
-32.7977508774
 20
48.2863146057
 10
-32.5834663925
 20
48.7148835754
 10
-32.1548951569
 20
49.143457077
 10
-31.9406084061
 20
49.143457077
 10
-31.5120371704
 20
48.7148835754
 10
-31.2977526855
 20
48.2863146057
 10
-31.2977526855
 20
47.0005986328
 10
-31.5120371704
 20
46.5720296631
 10
-31.9406084061
 20
46.1434561615
 10
-32.1548951569
 20
46.1434561615
 10
-32.5834663925
 20
46.5720296631
 10
-32.7977508774
 20
47.0005986328
  0
LINE
  5
383
100
AcDbEntity
  8
0
100
AcDbLine
 62
7
  6
CONTINUOUS
 10
-31.6620283084
 20
21.9000761524
 11
-31.6620283084
 21
21.0
  0
LINE
  5
384
100
AcDbEntity
  8
0
100
AcDbLine
 62
7
  6
CONTINUOUS
 10
-31.6620283084
 20
-24.300030461
 11
-31.6620283084
 21
-22.3999997358
  0
LINE
  5
385
100
AcDbEntity
  8
0
100
AcDbLine
 62
7
  6
CONTINUOUS
 10
-31.6620283084
 20
-21.9000761524
 11
-31.6620283084
 21
-21.0
  0
LINE
  5
386
100
AcDbEntity
  8
0
100
AcDbLine
 62
7
  6
CONTINUOUS
 10
-31.6620283084
 20
22.3999999296
 11
-31.6620283084
 21
24.300030461
  0
LINE
  5
387
100
AcDbEntity
  8
0
100
AcDbLine
 62
253
  6
CONTINUOUS
 10
-30.9076652068
 20
-23.5581814706
 11
-30.9076652068
 21
-22.3868325431
  0
LINE
  5
388
100
AcDbEntity
  8
0
100
AcDbLine
 62
253
  6
CONTINUOUS
 10
-30.9076652068
 20
22.3868325431
 11
-30.9076652068
 21
23.5581814706
  0
LINE
  5
389
100
AcDbEntity
  8
0
100
AcDbLine
 62
253
  6
CONTINUOUS
 10
-30.8585378271
 20
-24.2368706193
 11
-30.8585378271
 21
-23.8443375673
  0
LINE
  5
38A
100
AcDbEntity
  8
0
100
AcDbLine
 62
253
  6
CONTINUOUS
 10
-30.8585378271
 20
23.8443375673
 11
-30.8585378271
 21
24.2368706193
  0
LINE
  5
38B
100
AcDbEntity
  8
0
100
AcDbLine
 62
7
  6
CONTINUOUS
 10
-30.6620283084
 20
-24.2368706193
 11
-30.6620283084
 21
24.2368706193
  0
LINE
  5
38C
100
AcDbEntity
  8
0
100
AcDbLine
 62
7
  6
CONTINUOUS
 10
-26.1620283084
 20
23.5393800954
 11
-26.1620283084
 21
22.8606199046
  0
LINE
  5
38D
100
AcDbEntity
  8
0
100
AcDbLine
 62
7
  6
CONTINUOUS
 10
-26.1620283084
 20
-22.8606199046
 11
-26.1620283084
 21
-23.5393800954
  0
LINE
  5
38E
100
AcDbEntity
  8
0
100
AcDbLine
 62
253
  6
CONTINUOUS
 10
-26.0409677282
 20
-22.3018840226
 11
-26.0408653493
 21
-23.6519203118
  0
LWPOLYLINE
  5
38F
100
AcDbEntity
  8
0
100
AcDbPolyline
 62
7
  6
CONTINUOUS
 90
13
 70
0
 43
0.3500000006
 10
-25.9834575806
 20
37.0006001129
 10
-25.9834575806
 20
38.286311554
 10
-25.7691708298
 20
38.7148850555
 10
-25.3405995941
 20
39.1434585571
 10
-25.1263151093
 20
39.1434585571
 10
-24.6977416077
 20
38.7148850555
 10
-24.4834571228
 20
38.286311554
 10
-24.4834571228
 20
37.0006001129
 10
-24.6977416077
 20
36.5720266113
 10
-25.1263151093
 20
36.1434576416
 10
-25.3405995941
 20
36.1434576416
 10
-25.7691708298
 20
36.5720266113
 10
-25.9834575806
 20
37.0006001129
  0
LINE
  5
390
100
AcDbEntity
  8
0
100
AcDbLine
 62
7
  6
CONTINUOUS
 10
-25.6620283084
 20
23.6495955845
 11
-25.6620283084
 21
22.2952696108
  0
LINE
  5
391
100
AcDbEntity
  8
0
100
AcDbLine
 62
7
  6
CONTINUOUS
 10
-25.6620283084
 20
-22.2952696108
 11
-25.6620283084
 21
-23.6495955845
  0
LINE
  5
392
100
AcDbEntity
  8
0
100
AcDbLine
 62
253
  6
CONTINUOUS
 10
-26.0408653494
 20
23.6519203118
 11
-26.0409677282
 21
22.3018840226
  0
LINE
  5
393
100
AcDbEntity
  8
RACCORDO
100
AcDbLine
 62
253
  6
CONTINUOUS
 10
-20.9594103478
 20
-20.9846734642
 11
-20.9594103478
 21
-19.0001037691
  0
LINE
  5
394
100
AcDbEntity
  8
RACCORDO
100
AcDbLine
 62
253
  6
CONTINUOUS
 10
-20.9594103478
 20
19.0001037691
 11
-20.9594103478
 21
20.9846734642
  0
LINE
  5
395
100
AcDbEntity
  8
0
100
AcDbLine
 62
7
  6
CONTINUOUS
 10
-20.6620283084
 20
-21.2252970227
 11
-20.6620283084
 21
-20.9872686779
  0
LINE
  5
396
100
AcDbEntity
  8
RACCORDO
100
AcDbLine
 62
7
  6
CONTINUOUS
 10
-20.6620283084
 20
-20.9872686779
 11
-20.6620283084
 21
-19.0000303104
  0
LINE
  5
397
100
AcDbEntity
  8
RACCORDO
100
AcDbLine
 62
7
  6
CONTINUOUS
 10
-20.6620283084
 20
19.0001037691
 11
-20.6620283084
 21
20.9872686779
  0
LINE
  5
398
100
AcDbEntity
  8
0
100
AcDbLine
 62
7
  6
CONTINUOUS
 10
-20.6620283084
 20
20.9872686779
 11
-20.6620283084
 21
21.2252970227
  0
LINE
  5
399
100
AcDbEntity
  8
0
100
AcDbLine
 62
7
  6
CONTINUOUS
 10
-31.6620283084
 20
-21.0
 11
-30.6620283084
 21
-20.4226497308
  0
LINE
  5
39A
100
AcDbEntity
  8
0
100
AcDbLine
 62
7
  6
CONTINUOUS
 10
-30.6620283084
 20
20.4226497308
 11
-31.6620283084
 21
21.0
  0
LINE
  5
39B
100
AcDbEntity
  8
0
100
AcDbLine
 62
7
  6
CONTINUOUS
 10
-34.0370283084
 20
-23.6278312164
 11
-33.1574803783
 21
-23.1200239821
  0
LINE
  5
39C
100
AcDbEntity
  8
0
100
AcDbLine
 62
253
  6
CONTINUOUS
 10
-33.9405187897
 20
-23.8010362971
 11
-32.91639141
 21
-23.2097560788
  0
LINE
  5
39D
100
AcDbEntity
  8
RACCORDO
100
AcDbLine
 62
253
  6
CONTINUOUS
 10
-20.9594103478
 20
19.0001037691
 11
-20.6620283084
 21
19.0001037691
  0
LINE
  5
39E
100
AcDbEntity
  8
0
100
AcDbLine
 62
7
  6
CONTINUOUS
 10
-34.0371015055
 20
23.6278734767
 11
-33.1574803783
 21
23.1200239821
  0
LINE
  5
39F
100
AcDbEntity
  8
0
100
AcDbLine
 62
253
  6
CONTINUOUS
 10
-33.9405187897
 20
23.8010362971
 11
-32.91639141
 21
23.2097560788
  0
LINE
  5
3A0
100
AcDbEntity
  8
0
100
AcDbLine
 62
7
  6
CONTINUOUS
 10
-20.6620283084
 20
20.9872686779
 11
-30.6620283084
 21
20.9
  0
LINE
  5
3A1
100
AcDbEntity
  8
0
100
AcDbLine
 62
7
  6
CONTINUOUS
 10
-20.6890300413
 20
21.4561094406
 11
-30.6620283084
 21
21.4051134101
  0
LINE
  5
3A2
100
AcDbEntity
  8
0
100
AcDbLine
 62
253
  6
CONTINUOUS
 10
-39.481516939
 20
20.855825359
 11
-39.9668447506
 21
20.8772675172
  0
LINE
  5
3A3
100
AcDbEntity
  8
0
100
AcDbLine
 62
253
  6
CONTINUOUS
 10
-31.6620283084
 20
21.8999997649
 11
-38.8160251865
 21
21.5250746755
  0
LINE
  5
3A4
100
AcDbEntity
  8
0
100
AcDbLine
 62
7
  6
CONTINUOUS
 10
-39.1816436861
 20
22.005913657
 11
-32.9897785931
 21
22.3304155561
  0
LINE
  5
3A5
100
AcDbEntity
  8
0
100
AcDbLine
 62
7
  6
CONTINUOUS
 10
-31.6620334164
 20
22.3999997323
 11
-31.8710758466
 21
22.3890442828
  0
LINE
  5
3A6
100
AcDbEntity
  8
0
100
AcDbLine
 62
253
  6
CONTINUOUS
 10
-30.6620283084
 20
21.8826210875
 11
-31.6620283084
 21
21.9000761524
  0
LINE
  5
3A7
100
AcDbEntity
  8
0
100
AcDbLine
 62
7
  6
CONTINUOUS
 10
-21.644575902
 20
22.2251447178
 11
-31.6620250369
 21
22.3999999429
  0
LWPOLYLINE
  5
3A8
100
AcDbEntity
  8
0
100
AcDbPolyline
 62
7
  6
CONTINUOUS
 90
10
 70
0
 43
0.3500000006
 10
-29.7977522278
 20
46.6434563141
 10
-29.7263233109
 20
46.5005984802
 10
-29.7263233109
 20
46.4291718292
 10
-29.8691811447
 20
46.2863139954
 10
-29.9406077957
 20
46.2863139954
 10
-30.0120367126
 20
46.3577406464
 10
-30.0120367126
 20
46.4291718292
 10
-29.9406077957
 20
46.5720296631
 10
-29.8691811447
 20
46.6434563141
 10
-29.7977522278
 20
46.6434563141
  0
LINE
  5
3A9
100
AcDbEntity
  8
0
100
AcDbLine
 62
253
  6
CONTINUOUS
 10
-31.6620283084
 20
24.300030461
 11
-33.91639141
 21
24.2606804067
  0
LINE
  5
3AA
100
AcDbEntity
  8
0
100
AcDbLine
 62
7
  6
CONTINUOUS
 10
-31.6620283084
 20
24.5
 11
-33.91639141
 21
24.4606499457
  0
LINE
  5
3AB
100
AcDbEntity
  8
0
100
AcDbLine
 62
253
  6
CONTINUOUS
 10
-30.8585378271
 20
23.8443375673
 11
-30.6620283084
 21
23.8443375673
  0
LINE
  5
3AC
100
AcDbEntity
  8
0
100
AcDbLine
 62
253
  6
CONTINUOUS
 10
-33.9655187897
 20
23.8443375673
 11
-34.1620283084
 21
23.8443375672
  0
LINE
  5
3AD
100
AcDbEntity
  8
0
100
AcDbLine
 62
253
  6
CONTINUOUS
 10
-33.9655187897
 20
24.2106880219
 11
-34.1620283084
 21
24.2106880219
  0
LINE
  5
3AE
100
AcDbEntity
  8
0
100
AcDbLine
 62
253
  6
CONTINUOUS
 10
-30.8585378271
 20
24.2368706193
 11
-30.6620283084
 21
24.2368706193
  0
LINE
  5
3AF
100
AcDbEntity
  8
0
100
AcDbLine
 62
253
  6
CONTINUOUS
 10
-30.6620283084
 20
23.7325830113
 11
-26.0408653494
 21
23.6519203118
  0
LINE
  5
3B0
100
AcDbEntity
  8
0
100
AcDbLine
 62
7
  6
CONTINUOUS
 10
-30.6620283084
 20
23.9825449351
 11
-25.9076687199
 21
23.8995572798
  0
LINE
  5
3B1
100
AcDbEntity
  8
0
100
AcDbLine
 62
253
  6
CONTINUOUS
 10
-30.9076652068
 20
24.286863004
 11
-31.6620283084
 21
24.300030461
  0
LINE
  5
3B2
100
AcDbEntity
  8
0
100
AcDbLine
 62
7
  6
CONTINUOUS
 10
-30.9076652068
 20
24.4868325431
 11
-31.6620283084
 21
24.5
  0
LWPOLYLINE
  5
3B3
100
AcDbEntity
  8
0
100
AcDbPolyline
 62
7
  6
CONTINUOUS
 90
7
 70
0
 43
0.3500000006
 10
-27.2263225479
 20
46.1434561615
 10
-28.7263230057
 20
46.1434561615
 10
-27.2263225479
 20
48.2863146057
 10
-27.2263225479
 20
48.7148835754
 10
-27.6548937836
 20
49.143457077
 10
-28.29775177
 20
49.143457077
 10
-28.7263230057
 20
48.5005990906
  0
LWPOLYLINE
  5
3B4
100
AcDbEntity
  8
0
100
AcDbPolyline
 62
7
  6
CONTINUOUS
 90
7
 70
0
 43
0.3500000006
 10
-33.6548956146
 20
46.1434561615
 10
-35.1548938065
 20
46.1434561615
 10
-33.6548956146
 20
48.2863146057
 10
-33.6548956146
 20
48.7148835754
 10
-34.0834668503
 20
49.143457077
 10
-34.7263225708
 20
49.143457077
 10
-35.1548938065
 20
48.5005990906
  0
ARC
  5
3B5
100
AcDbEntity
  8
0
100
AcDbCircle
 62
253
  6
CONTINUOUS
 10
-18493.5874195344
 20
0.0000001494
 40
18482.7039468784
100
AcDbArc
 50
359.9353476073
 51
0.0646523918
  0
ARC
  5
3B6
100
AcDbEntity
  8
0
100
AcDbCircle
 62
253
  6
CONTINUOUS
 10
0.0000007891
 20
-7678.3646767748
 40
7657.4945110252
100
AcDbArc
 50
89.9219676864
 51
90.0780323254
  0
ARC
  5
3B7
100
AcDbEntity
  8
0
100
AcDbCircle
 62
253
  6
CONTINUOUS
 10
0.0000003032
 20
-2955.8523689836
 40
2933.8464582726
100
AcDbArc
 50
89.7966448225
 51
90.2033551894
  0
ARC
  5
3B8
100
AcDbEntity
  8
0
100
AcDbCircle
 62
253
  6
CONTINUOUS
 10
-45.2364366215
 20
-23.8063786102
 40
34.8766343905
100
AcDbArc
 50
359.9376439284
 51
0.2933212156
  0
ARC
  5
3B9
100
AcDbEntity
  8
0
100
AcDbCircle
 62
253
  6
CONTINUOUS
 10
-27.4364366194
 20
-23.8063786102
 40
34.8766343884
100
AcDbArc
 50
359.9376439283
 51
0.2933212156
  0
ARC
  5
3BA
100
AcDbEntity
  8
0
100
AcDbCircle
 62
253
  6
CONTINUOUS
 10
-10.4122730963
 20
-21.5239600845
 40
0.5004157458
100
AcDbArc
 50
180.127622223
 51
269.9353983446
  0
ARC
  5
3BB
100
AcDbEntity
  8
0
100
AcDbCircle
 62
7
  6
CONTINUOUS
 10
-4.0
 20
-23.2
 40
0.5
100
AcDbArc
 50
154.1580672368
 51
205.8419327632
  0
ARC
  5
3BC
100
AcDbEntity
  8
0
100
AcDbCircle
 62
7
  6
CONTINUOUS
 10
-10.6001587126
 20
-21.9001678853
 40
0.4998378818
100
AcDbArc
 50
179.9894848489
 51
270.0181858326
  0
ARC
  5
3BD
100
AcDbEntity
  8
0
100
AcDbCircle
 62
253
  6
CONTINUOUS
 10
-4.1946686714
 20
-23.7446686714
 40
0.2500338929
100
AcDbArc
 50
180.0164895
 51
269.9835104999
  0
ARC
  5
3BE
100
AcDbEntity
  8
0
100
AcDbCircle
 62
253
  6
CONTINUOUS
 10
-1.0553310762
 20
-23.7446689238
 40
0.2500336404
100
AcDbArc
 50
270.0164316724
 51
359.9835683276
  0
ARC
  5
3BF
100
AcDbEntity
  8
0
100
AcDbCircle
 62
7
  6
CONTINUOUS
 10
-1.0499604239
 20
-23.7500395761
 40
0.2499612619
100
AcDbArc
 50
269.9996562035
 51
0.0003437965
  0
ARC
  5
3C0
100
AcDbEntity
  8
0
100
AcDbCircle
 62
7
  6
CONTINUOUS
 10
-4.200039576
 20
-23.750039576
 40
0.2499612619
100
AcDbArc
 50
179.9996562095
 51
270.0003437905
  0
ARC
  5
3C1
100
AcDbEntity
  8
0
100
AcDbCircle
 62
253
  6
CONTINUOUS
 10
-10.3606072331
 20
-24.2606072331
 40
0.2000430909
100
AcDbArc
 50
180.020958193
 51
269.979041807
  0
ARC
  5
3C2
100
AcDbEntity
  8
0
100
AcDbCircle
 62
253
  6
CONTINUOUS
 10
-7.4393927669
 20
-24.2606072331
 40
0.2000430909
100
AcDbArc
 50
270.0209581896
 51
359.9790418103
  0
ARC
  5
3C3
100
AcDbEntity
  8
0
100
AcDbCircle
 62
7
  6
CONTINUOUS
 10
-10.4000426585
 20
-24.3000426585
 40
0.1999569277
100
AcDbArc
 50
179.9965049109
 51
270.0034950891
  0
ARC
  5
3C4
100
AcDbEntity
  8
0
100
AcDbCircle
 62
7
  6
CONTINUOUS
 10
-7.3999572982
 20
-24.3000427018
 40
0.1999569277
100
AcDbArc
 50
269.9964925066
 51
0.0035074934
  0
ARC
  5
3C5
100
AcDbEntity
  8
0
100
AcDbCircle
 62
253
  6
CONTINUOUS
 10
-4.1947431237
 20
-23.7447431237
 40
0.0499898913
100
AcDbArc
 50
179.9971420351
 51
270.0028579648
  0
ARC
  5
3C6
100
AcDbEntity
  8
0
100
AcDbCircle
 62
253
  6
CONTINUOUS
 10
-1.0552567843
 20
-23.7447432157
 40
0.0499897993
100
AcDbArc
 50
269.9970365487
 51
0.0029634513
  0
ARC
  5
3C7
100
AcDbEntity
  8
0
100
AcDbCircle
 62
253
  6
CONTINUOUS
 10
-0.0000007846
 20
7678.3690567157
 40
7657.4988909651
100
AcDbArc
 50
269.921967731
 51
270.0780322807
  0
ARC
  5
3C8
100
AcDbEntity
  8
0
100
AcDbCircle
 62
253
  6
CONTINUOUS
 10
-0.000000302
 20
2955.8523650118
 40
2933.8464543007
100
AcDbArc
 50
269.7966448222
 51
270.2033551896
  0
ARC
  5
3C9
100
AcDbEntity
  8
0
100
AcDbCircle
 62
253
  6
CONTINUOUS
 10
-45.2337280792
 20
23.806377655
 40
34.8739258874
100
AcDbArc
 50
359.7067270348
 51
0.0623987992
  0
ARC
  5
3CA
100
AcDbEntity
  8
0
100
AcDbCircle
 62
253
  6
CONTINUOUS
 10
-10.412273096
 20
21.523960083
 40
0.5004157457
100
AcDbArc
 50
90.0646016093
 51
179.8723777514
  0
ARC
  5
3CB
100
AcDbEntity
  8
0
100
AcDbCircle
 62
7
  6
CONTINUOUS
 10
-4.0
 20
23.2
 40
0.5
100
AcDbArc
 50
154.1580672368
 51
205.8419327632
  0
ARC
  5
3CC
100
AcDbEntity
  8
0
100
AcDbCircle
 62
7
  6
CONTINUOUS
 10
-10.6001595972
 20
21.9001682196
 40
0.4998372685
100
AcDbArc
 50
89.9817053385
 51
180.0193096519
  0
ARC
  5
3CD
100
AcDbEntity
  8
0
100
AcDbCircle
 62
253
  6
CONTINUOUS
 10
-1.0553313286
 20
23.7446686714
 40
0.2500338929
100
AcDbArc
 50
0.0164895
 51
89.9835105
  0
ARC
  5
3CE
100
AcDbEntity
  8
0
100
AcDbCircle
 62
253
  6
CONTINUOUS
 10
-4.1946689238
 20
23.7446689238
 40
0.2500336404
100
AcDbArc
 50
90.0164316724
 51
179.9835683276
  0
ARC
  5
3CF
100
AcDbEntity
  8
0
100
AcDbCircle
 62
7
  6
CONTINUOUS
 10
-1.0499674725
 20
23.7500325275
 40
0.2499699324
100
AcDbArc
 50
0.0012718308
 51
89.9987281692
  0
ARC
  5
3D0
100
AcDbEntity
  8
0
100
AcDbCircle
 62
7
  6
CONTINUOUS
 10
-4.2000325275
 20
23.7500325275
 40
0.2499699324
100
AcDbArc
 50
90.0012718308
 51
179.9987281692
  0
ARC
  5
3D1
100
AcDbEntity
  8
0
100
AcDbCircle
 62
253
  6
CONTINUOUS
 10
-10.3606072331
 20
24.2606072331
 40
0.2000430909
100
AcDbArc
 50
90.0209581929
 51
179.9790418072
  0
ARC
  5
3D2
100
AcDbEntity
  8
0
100
AcDbCircle
 62
253
  6
CONTINUOUS
 10
-7.4393927177
 20
24.2606072823
 40
0.2000430909
100
AcDbArc
 50
0.020944126
 51
89.979055874
  0
ARC
  5
3D3
100
AcDbEntity
  8
0
100
AcDbCircle
 62
7
  6
CONTINUOUS
 10
-10.4000427018
 20
24.3000427018
 40
0.1999569277
100
AcDbArc
 50
89.9964925066
 51
180.0035074933
  0
ARC
  5
3D4
100
AcDbEntity
  8
0
100
AcDbCircle
 62
7
  6
CONTINUOUS
 10
-7.3999572982
 20
24.3000427018
 40
0.1999569277
100
AcDbArc
 50
359.9964925066
 51
90.0035074934
  0
ARC
  5
3D5
100
AcDbEntity
  8
0
100
AcDbCircle
 62
253
  6
CONTINUOUS
 10
-1.0552568763
 20
23.7447431237
 40
0.0499898913
100
AcDbArc
 50
359.9971420351
 51
90.0028579649
  0
ARC
  5
3D6
100
AcDbEntity
  8
0
100
AcDbCircle
 62
253
  6
CONTINUOUS
 10
-4.1947432157
 20
23.7447432157
 40
0.0499897993
100
AcDbArc
 50
89.9970365488
 51
180.0029634513
  0
ARC
  5
3D7
100
AcDbEntity
  8
0
100
AcDbCircle
 62
253
  6
CONTINUOUS
 10
18493.5879924869
 20
-0.0000001503
 40
18482.7045198305
100
AcDbArc
 50
179.9353476093
 51
180.0646523897
  0
ARC
  5
3D8
100
AcDbEntity
  8
0
100
AcDbCircle
 62
253
  6
CONTINUOUS
 10
10.4122730987
 20
-21.5239600803
 40
0.5004157457
100
AcDbArc
 50
270.064601301
 51
359.8723774375
  0
ARC
  5
3D9
100
AcDbEntity
  8
0
100
AcDbCircle
 62
7
  6
CONTINUOUS
 10
4.0
 20
-23.2
 40
0.5
100
AcDbArc
 50
334.1580672368
 51
25.8419327632
  0
ARC
  5
3DA
100
AcDbEntity
  8
0
100
AcDbCircle
 62
7
  6
CONTINUOUS
 10
10.6001595963
 20
-21.9001682204
 40
0.4998372687
100
AcDbArc
 50
269.981705447
 51
0.0193097442
  0
ARC
  5
3DB
100
AcDbEntity
  8
0
100
AcDbCircle
 62
253
  6
CONTINUOUS
 10
1.0553313286
 20
-23.7446686714
 40
0.2500338929
100
AcDbArc
 50
180.0164895
 51
269.9835104999
  0
ARC
  5
3DC
100
AcDbEntity
  8
0
100
AcDbCircle
 62
253
  6
CONTINUOUS
 10
4.1946689238
 20
-23.7446689238
 40
0.2500336404
100
AcDbArc
 50
270.0164316724
 51
359.9835683276
  0
ARC
  5
3DD
100
AcDbEntity
  8
0
100
AcDbCircle
 62
7
  6
CONTINUOUS
 10
4.2000325275
 20
-23.7500325275
 40
0.2499699324
100
AcDbArc
 50
270.0012718308
 51
359.9987281692
  0
ARC
  5
3DE
100
AcDbEntity
  8
0
100
AcDbCircle
 62
7
  6
CONTINUOUS
 10
1.049960424
 20
-23.750039576
 40
0.2499612619
100
AcDbArc
 50
179.999656209
 51
270.000343791
  0
ARC
  5
3DF
100
AcDbEntity
  8
0
100
AcDbCircle
 62
253
  6
CONTINUOUS
 10
10.3606072331
 20
-24.2606072331
 40
0.2000430909
100
AcDbArc
 50
270.0209581896
 51
359.9790418104
  0
ARC
  5
3E0
100
AcDbEntity
  8
0
100
AcDbCircle
 62
253
  6
CONTINUOUS
 10
7.4393927669
 20
-24.2606072331
 40
0.2000430909
100
AcDbArc
 50
180.020958193
 51
269.979041807
  0
ARC
  5
3E1
100
AcDbEntity
  8
0
100
AcDbCircle
 62
7
  6
CONTINUOUS
 10
7.3999573415
 20
-24.3000426585
 40
0.1999569277
100
AcDbArc
 50
179.9965049109
 51
270.0034950891
  0
ARC
  5
3E2
100
AcDbEntity
  8
0
100
AcDbCircle
 62
7
  6
CONTINUOUS
 10
10.4000427018
 20
-24.3000427018
 40
0.1999569277
100
AcDbArc
 50
269.9964925066
 51
0.0035074934
  0
ARC
  5
3E3
100
AcDbEntity
  8
0
100
AcDbCircle
 62
253
  6
CONTINUOUS
 10
1.0552568763
 20
-23.7447431237
 40
0.0499898913
100
AcDbArc
 50
179.9971420352
 51
270.0028579648
  0
ARC
  5
3E4
100
AcDbEntity
  8
0
100
AcDbCircle
 62
253
  6
CONTINUOUS
 10
4.1947432157
 20
-23.7447432157
 40
0.0499897993
100
AcDbArc
 50
269.9970365487
 51
0.0029634512
  0
ARC
  5
3E5
100
AcDbEntity
  8
0
100
AcDbCircle
 62
253
  6
CONTINUOUS
 10
27.4210802261
 20
23.8063480255
 40
34.8612780404
100
AcDbArc
 50
179.9375627928
 51
180.2933988113
  0
ARC
  5
3E6
100
AcDbEntity
  8
0
100
AcDbCircle
 62
253
  6
CONTINUOUS
 10
10.4122730991
 20
21.5239600819
 40
0.5004157457
100
AcDbArc
 50
0.1276225239
 51
89.935398666
  0
ARC
  5
3E7
100
AcDbEntity
  8
0
100
AcDbCircle
 62
7
  6
CONTINUOUS
 10
4.0
 20
23.2
 40
0.5
100
AcDbArc
 50
334.1580672368
 51
25.8419327632
  0
ARC
  5
3E8
100
AcDbEntity
  8
0
100
AcDbCircle
 62
7
  6
CONTINUOUS
 10
10.6001587152
 20
21.9001678828
 40
0.4998378818
100
AcDbArc
 50
359.9894851372
 51
90.0181861259
  0
ARC
  5
3E9
100
AcDbEntity
  8
0
100
AcDbCircle
 62
253
  6
CONTINUOUS
 10
4.1946686714
 20
23.7446686714
 40
0.2500338929
100
AcDbArc
 50
0.0164895
 51
89.9835105
  0
ARC
  5
3EA
100
AcDbEntity
  8
0
100
AcDbCircle
 62
253
  6
CONTINUOUS
 10
1.0553310762
 20
23.7446689238
 40
0.2500336404
100
AcDbArc
 50
90.0164316724
 51
179.9835683276
  0
ARC
  5
3EB
100
AcDbEntity
  8
0
100
AcDbCircle
 62
7
  6
CONTINUOUS
 10
4.2000325275
 20
23.7500325275
 40
0.2499699324
100
AcDbArc
 50
0.0012718308
 51
89.9987281692
  0
ARC
  5
3EC
100
AcDbEntity
  8
0
100
AcDbCircle
 62
7
  6
CONTINUOUS
 10
1.0499604239
 20
23.7500395761
 40
0.2499612619
100
AcDbArc
 50
89.9996562033
 51
180.0003437967
  0
ARC
  5
3ED
100
AcDbEntity
  8
0
100
AcDbCircle
 62
253
  6
CONTINUOUS
 10
7.4393927177
 20
24.2606072823
 40
0.2000430909
100
AcDbArc
 50
90.0209441219
 51
179.9790558781
  0
ARC
  5
3EE
100
AcDbEntity
  8
0
100
AcDbCircle
 62
253
  6
CONTINUOUS
 10
10.3606072823
 20
24.2606072823
 40
0.2000430909
100
AcDbArc
 50
0.0209441271
 51
89.979055873
  0
ARC
  5
3EF
100
AcDbEntity
  8
0
100
AcDbCircle
 62
7
  6
CONTINUOUS
 10
7.3999573415
 20
24.3000426585
 40
0.1999569277
100
AcDbArc
 50
89.9965049109
 51
180.0034950891
  0
ARC
  5
3F0
100
AcDbEntity
  8
0
100
AcDbCircle
 62
7
  6
CONTINUOUS
 10
10.4000427018
 20
24.3000427018
 40
0.1999569277
100
AcDbArc
 50
359.9964925067
 51
90.0035074934
  0
ARC
  5
3F1
100
AcDbEntity
  8
0
100
AcDbCircle
 62
253
  6
CONTINUOUS
 10
4.1947431237
 20
23.7447431237
 40
0.0499898913
100
AcDbArc
 50
359.9971420352
 51
90.0028579648
  0
ARC
  5
3F2
100
AcDbEntity
  8
0
100
AcDbCircle
 62
253
  6
CONTINUOUS
 10
1.0552567843
 20
23.7447432157
 40
0.0499897993
100
AcDbArc
 50
89.9970365487
 51
180.0029634513
  0
ARC
  5
3F3
100
AcDbEntity
  8
0
100
AcDbCircle
 62
7
  6
CONTINUOUS
 10
-38.7670462797
 20
-20.8249565047
 40
1.2009897416
100
AcDbArc
 50
182.4965004622
 51
267.0381682264
  0
ARC
  5
3F4
100
AcDbEntity
  8
0
100
AcDbCircle
 62
7
  6
CONTINUOUS
 10
-39.1188367618
 20
-20.8075584132
 40
1.2
100
AcDbArc
 50
182.9907948827
 51
267.0
  0
ARC
  5
3F5
100
AcDbEntity
  8
0
100
AcDbCircle
 62
7
  6
CONTINUOUS
 10
-21.6620283084
 20
-21.2252970227
 40
1.0
100
AcDbArc
 50
271.0
 51
360.0
  0
ARC
  5
3F6
100
AcDbEntity
  8
RACCORDO
100
AcDbCircle
 62
7
  6
CONTINUOUS
 10
-21.1620283084
 20
-19.0001037691
 40
0.5
100
AcDbArc
 50
0.0084177507
 51
70.0
  0
ARC
  5
3F7
100
AcDbEntity
  8
0
100
AcDbCircle
 62
7
  6
CONTINUOUS
 10
-25.912031837
 20
-23.6495953562
 40
0.25
100
AcDbArc
 50
271.0
 51
359.9999478349
  0
ARC
  5
3F8
100
AcDbEntity
  8
0
100
AcDbCircle
 62
7
  6
CONTINUOUS
 10
-30.9120283084
 20
-24.2368706193
 40
0.25
100
AcDbArc
 50
271.0
 51
360.0
  0
ARC
  5
3F9
100
AcDbEntity
  8
0
100
AcDbCircle
 62
7
  6
CONTINUOUS
 10
-33.9120283084
 20
-24.2106880219
 40
0.25
100
AcDbArc
 50
180.0
 51
268.99934193
  0
ARC
  5
3FA
100
AcDbEntity
  8
0
100
AcDbCircle
 62
7
  6
CONTINUOUS
 10
-30.9120283084
 20
-23.8443375673
 40
0.25
100
AcDbArc
 50
359.995410117
 51
59.9806292498
  0
ARC
  5
3FB
100
AcDbEntity
  8
0
100
AcDbCircle
 62
7
  6
CONTINUOUS
 10
-33.9120283084
 20
-23.8443375673
 40
0.25
100
AcDbArc
 50
120.0
 51
179.9996218734
  0
ARC
  5
3FC
100
AcDbEntity
  8
RACCORDO
100
AcDbCircle
 62
253
  6
CONTINUOUS
 10
-21.1594396905
 20
-19.0001243151
 40
0.2000293438
100
AcDbArc
 50
0.0058851433
 51
69.9941148567
  0
ARC
  5
3FD
100
AcDbEntity
  8
0
100
AcDbCircle
 62
253
  6
CONTINUOUS
 10
-33.9155178883
 20
-23.8443380877
 40
0.0500009014
100
AcDbArc
 50
120.0005963382
 51
179.9994036618
  0
ARC
  5
3FE
100
AcDbEntity
  8
0
100
AcDbCircle
 62
253
  6
CONTINUOUS
 10
-30.9085384814
 20
-24.2368699763
 40
0.0500006543
100
AcDbArc
 50
271.0007368045
 51
359.9992631955
  0
ARC
  5
3FF
100
AcDbEntity
  8
0
100
AcDbCircle
 62
253
  6
CONTINUOUS
 10
-33.9155181641
 20
-24.2106874071
 40
0.0500006256
100
AcDbArc
 50
180.0007044686
 51
268.9992955313
  0
ARC
  5
400
100
AcDbEntity
  8
0
100
AcDbCircle
 62
253
  6
CONTINUOUS
 10
-30.9085360862
 20
-23.8443365622
 40
0.0499982591
100
AcDbArc
 50
359.9988481766
 51
60.0011518234
  0
ARC
  5
401
100
AcDbEntity
  8
0
100
AcDbCircle
 62
7
  6
CONTINUOUS
 10
-38.7670462492
 20
20.8249565133
 40
1.2009897402
100
AcDbArc
 50
92.961832128
 51
177.5035000579
  0
ARC
  5
402
100
AcDbEntity
  8
0
100
AcDbCircle
 62
7
  6
CONTINUOUS
 10
-39.1188367626
 20
20.8075584132
 40
1.2
100
AcDbArc
 50
93.0
 51
177.0092051175
  0
ARC
  5
403
100
AcDbEntity
  8
0
100
AcDbCircle
 62
7
  6
CONTINUOUS
 10
-21.6620283084
 20
21.2252970227
 40
1.0
100
AcDbArc
 50
0.0
 51
89.0
  0
ARC
  5
404
100
AcDbEntity
  8
RACCORDO
100
AcDbCircle
 62
7
  6
CONTINUOUS
 10
-21.1620283084
 20
19.0001037691
 40
0.5
100
AcDbArc
 50
290.0082892843
 51
360.0
  0
ARC
  5
405
100
AcDbEntity
  8
0
100
AcDbCircle
 62
7
  6
CONTINUOUS
 10
-25.912031837
 20
23.6495953562
 40
0.25
100
AcDbArc
 50
0.0000521651
 51
89.0
  0
ARC
  5
406
100
AcDbEntity
  8
0
100
AcDbCircle
 62
7
  6
CONTINUOUS
 10
-30.9120283084
 20
24.2368706193
 40
0.25
100
AcDbArc
 50
0.0
 51
89.0
  0
ARC
  5
407
100
AcDbEntity
  8
0
100
AcDbCircle
 62
7
  6
CONTINUOUS
 10
-33.9120283084
 20
24.2106880219
 40
0.25
100
AcDbArc
 50
91.0
 51
180.0
  0
ARC
  5
408
100
AcDbEntity
  8
0
100
AcDbCircle
 62
7
  6
CONTINUOUS
 10
-33.9120283084
 20
23.8443375673
 40
0.25
100
AcDbArc
 50
179.995410117
 51
239.9806292494
  0
ARC
  5
409
100
AcDbEntity
  8
0
100
AcDbCircle
 62
7
  6
CONTINUOUS
 10
-30.9120283084
 20
23.8443375673
 40
0.25
100
AcDbArc
 50
299.9955054653
 51
359.9800998866
  0
ARC
  5
40A
100
AcDbEntity
  8
RACCORDO
100
AcDbCircle
 62
253
  6
CONTINUOUS
 10
-21.1594396909
 20
19.0001243154
 40
0.2000293442
100
AcDbArc
 50
290.0058852193
 51
359.9941147807
  0
ARC
  5
40B
100
AcDbEntity
  8
0
100
AcDbCircle
 62
253
  6
CONTINUOUS
 10
-33.9155181354
 20
24.2106873789
 40
0.0500006543
100
AcDbArc
 50
91.0007368045
 51
179.9992631955
  0
ARC
  5
40C
100
AcDbEntity
  8
0
100
AcDbCircle
 62
253
  6
CONTINUOUS
 10
-30.9085384813
 20
24.2368699765
 40
0.0500006542
100
AcDbArc
 50
0.0007366221
 51
88.9992633779
  0
ARC
  5
40D
100
AcDbEntity
  8
0
100
AcDbCircle
 62
253
  6
CONTINUOUS
 10
-30.9085360895
 20
23.8443365641
 40
0.0499982624
100
AcDbArc
 50
299.9988503634
 51
0.0011496366
  0
ARC
  5
40E
100
AcDbEntity
  8
0
100
AcDbCircle
 62
253
  6
CONTINUOUS
 10
-33.9155205306
 20
23.8443365622
 40
0.0499982591
100
AcDbArc
 50
179.9988481766
 51
240.0011518234
  0
ARC
  5
40F
100
AcDbEntity
  8
0
100
AcDbCircle
 62
253
  6
CONTINUOUS
 10
444.2989458802
 20
-0.0000001502
 40
484.2298025351
100
AcDbArc
 50
177.5315015143
 51
182.4684984499
  0
ARC
  5
410
100
AcDbEntity
  8
0
100
AcDbCircle
 62
253
  6
CONTINUOUS
 10
445.0697724686
 20
-0.0000000011
 40
485.4857159186
100
AcDbArc
 50
177.5353584049
 51
182.464641595
  0
SPLINE
  5
411
100
AcDbEntity
  8
0
100
AcDbSpline
 62
253
  6
CONTINUOUS
 70
0
 71
3
 72
11
 73
7
 74
5
 42
0.0000001
 43
0.0000001
 44
0.0000000001
 12
0.290824418
 22
-0.002198128
 32
0.0
 13
0.0029298796
 23
-0.2908179665
 33
0.0
 40
0.0
 40
0.0
 40
0.0
 40
0.0
 40
0.2659011522
 40
0.5231711191
 40
0.7669316794
 40
1.0
 40
1.0
 40
1.0
 40
1.0
 10
10.3602592617
 20
-23.6278312164
 30
0.0
 10
10.386036111
 20
-23.6280260446
 30
0.0
 10
10.4371213496
 20
-23.6369744365
 30
0.0
 10
10.5030412853
 20
-23.6746347862
 30
0.0
 10
10.5485995189
 20
-23.7317691273
 30
0.0
 10
10.56000118
 20
-23.7784428121
 30
0.0
 10
10.5602288007
 20
-23.8010362971
 30
0.0
 11
10.3602592617
 21
-23.6278312164
 31
0.0
 11
10.4363839661
 21
-23.6414468187
 31
0.0
 11
10.5010461455
 21
-23.6790927066
 31
0.0
 11
10.5445092519
 21
-23.7351003269
 31
0.0
 11
10.5602288007
 21
-23.8010362971
 31
0.0
  0
SPLINE
  5
412
100
AcDbEntity
  8
0
100
AcDbSpline
 62
7
  6
CONTINUOUS
 70
0
 71
3
 72
12
 73
8
 74
6
 42
0.0000001
 43
0.0000001
 44
0.0000000001
 12
0.2395313719
 22
0.0267450115
 32
0.0
 13
0.0092279883
 23
-0.2408431399
 33
0.0
 40
0.0
 40
0.0
 40
0.0
 40
0.0
 40
0.3427699806
 40
0.6247717413
 40
0.7395922376
 40
0.8383871706
 40
1.0
 40
1.0
 40
1.0
 40
1.0
 10
10.3756118279
 20
-23.1200239821
 30
0.0
 10
10.4029798825
 20
-23.1169681865
 30
0.0
 10
10.4538062759
 20
-23.1179167719
 30
0.0
 10
10.5118238086
 20
-23.1346172361
 30
0.0
 10
10.5460303979
 20
-23.1555548802
 30
0.0
 10
10.5681158726
 20
-23.1761495846
 30
0.0
 10
10.5776078902
 20
-23.1967816317
 30
0.0
 10
10.5781050106
 20
-23.2097560788
 30
0.0
 11
10.3756118279
 21
-23.1200239821
 31
0.0
 11
10.4582032806
 21
-23.1219699089
 31
0.0
 11
10.5230491524
 21
-23.1423332433
 31
0.0
 11
10.5465094436
 21
-23.1570120079
 31
0.0
 11
10.5635785992
 21
-23.173614219
 31
0.0
 11
10.5781050106
 21
-23.2097560788
 31
0.0
  0
SPLINE
  5
413
100
AcDbEntity
  8
0
100
AcDbSpline
 62
253
  6
CONTINUOUS
 70
0
 71
3
 72
11
 73
7
 74
5
 42
0.0000001
 43
0.0000001
 44
0.0000000001
 12
0.0029298744
 22
-0.2908179843
 32
0.0
 13
0.2908244364
 23
-0.0021980406
 33
0.0
 40
0.0
 40
0.0
 40
0.0
 40
0.0
 40
0.2330683041
 40
0.4768288064
 40
0.7340987915
 40
1.0
 40
1.0
 40
1.0
 40
1.0
 10
-10.5602288007
 20
23.8010362971
 30
0.0
 10
-10.5600011804
 20
23.7784428123
 30
0.0
 10
-10.5485995333
 20
23.7317691306
 30
0.0
 10
-10.5030413131
 20
23.674634778
 30
0.0
 10
-10.4371213698
 20
23.636974425
 30
0.0
 10
-10.386036118
 20
23.6280260394
 30
0.0
 10
-10.3602592616
 20
23.6278312189
 30
0.0
 11
-10.5602288007
 21
23.8010362971
 31
0.0
 11
-10.5445092636
 21
23.7351003247
 31
0.0
 11
-10.5010461765
 21
23.6790927054
 31
0.0
 11
-10.4363839892
 21
23.6414468114
 31
0.0
 11
-10.3602592616
 21
23.6278312189
 31
0.0
  0
SPLINE
  5
414
100
AcDbEntity
  8
0
100
AcDbSpline
 62
7
  6
CONTINUOUS
 70
0
 71
3
 72
12
 73
8
 74
6
 42
0.0000001
 43
0.0000001
 44
0.0000000001
 12
-0.239530293
 22
-0.0267448911
 32
0.0
 13
-0.0092279467
 23
0.240842055
 33
0.0
 40
0.0
 40
0.0
 40
0.0
 40
0.0
 40
0.3426117859
 40
0.624591816
 40
0.7395308789
 40
0.838274356
 40
1.0
 40
1.0
 40
1.0
 40
1.0
 10
-10.3756118279
 20
23.1200239821
 30
0.0
 10
-10.4029671284
 20
23.1169696105
 30
0.0
 10
-10.4537786213
 20
23.1179165861
 30
0.0
 10
-10.5117911135
 20
23.1346097426
 30
0.0
 10
-10.5460071127
 20
23.1555385338
 30
0.0
 10
-10.5681115785
 20
23.1761339157
 30
0.0
 10
-10.5776075454
 20
23.1967726333
 30
0.0
 10
-10.5781050106
 20
23.2097560788
 30
0.0
 11
-10.3756118279
 21
23.1200239821
 31
0.0
 11
-10.4581648674
 21
23.1219657681
 31
0.0
 11
-10.5230087511
 21
23.142316927
 31
0.0
 11
-10.5464976004
 21
23.1570036873
 31
0.0
 11
-10.5635637077
 21
23.1735910893
 31
0.0
 11
-10.5781050106
 21
23.2097560788
 31
0.0
  0
SPLINE
  5
415
100
AcDbEntity
  8
0
100
AcDbSpline
 62
253
  6
CONTINUOUS
 70
0
 71
3
 72
14
 73
10
 74
8
 42
0.0000001
 43
0.0000001
 44
0.0000000001
 12
0.0000000171
 22
0.0500143994
 32
0.0
 13
-0.0353375939
 23
0.035393426
 33
0.0
 40
0.0
 40
0.0
 40
0.0
 40
0.0
 40
0.3784749852
 40
0.5499132458
 40
0.7006959891
 40
0.8251541655
 40
0.9186156704
 40
0.977592881
 40
1.0
 40
1.0
 40
1.0
 40
1.0
 10
-10.5597924241
 20
24.2106880219
 30
0.0
 10
-10.5597924219
 20
24.2169977549
 30
0.0
 10
-10.5598169557
 20
24.2261683378
 30
0.0
 10
-10.5599321352
 20
24.2378430555
 30
0.0
 10
-10.5600094488
 20
24.2453046342
 30
0.0
 10
-10.560201171
 20
24.2514070111
 30
0.0
 10
-10.5601702682
 20
24.2561262614
 30
0.0
 10
-10.5606213671
 20
24.2588411085
 30
0.0
 10
-10.5603860078
 20
24.2604160518
 30
0.0
 10
-10.5606499457
 20
24.2606804067
 30
0.0
 11
-10.5597924241
 21
24.2106880219
 31
0.0
 11
-10.5598573892
 21
24.2296171095
 31
0.0
 11
-10.5599363247
 21
24.2381911278
 31
0.0
 11
-10.5600426603
 21
24.2457316864
 31
0.0
 11
-10.5601723949
 21
24.2519550352
 31
0.0
 11
-10.560320653
 21
24.2566271045
 31
0.0
 11
-10.5604818507
 21
24.2595724064
 31
0.0
 11
-10.5606499457
 21
24.2606804067
 31
0.0
  0
SPLINE
  5
416
100
AcDbEntity
  8
0
100
AcDbSpline
 62
253
  6
CONTINUOUS
 70
0
 71
3
 72
9
 73
5
 74
3
 42
0.0000001
 43
0.0000001
 44
0.0000000001
 12
0.0013110427
 22
0.0432843983
 32
0.0
 13
0.0000001007
 23
0.0433042489
 33
0.0
 40
0.0
 40
0.0
 40
0.0
 40
0.0
 40
0.1834520378
 40
1.0
 40
1.0
 40
1.0
 40
1.0
 10
-10.5602288007
 20
23.8010362971
 30
0.0
 10
-10.5601486296
 20
23.8036831675
 30
0.0
 10
-10.5598533105
 20
23.8181153116
 30
0.0
 10
-10.5597924515
 20
23.8325509019
 30
0.0
 10
-10.5597924241
 20
23.8443375673
 30
0.0
 11
-10.5602288007
 21
23.8010362971
 31
0.0
 11
-10.5600481665
 21
23.8089784959
 31
0.0
 11
-10.5597924241
 21
23.8443375673
 31
0.0
  0
SPLINE
  5
417
100
AcDbEntity
  8
0
100
AcDbSpline
 62
253
  6
CONTINUOUS
 70
0
 71
3
 72
9
 73
5
 74
3
 42
0.0000001
 43
0.0000001
 44
0.0000000001
 12
0.0013086734
 22
-0.0432844709
 32
0.0
 13
-0.0000000099
 23
-0.0433042498
 33
0.0
 40
0.0
 40
0.0
 40
0.0
 40
0.0
 40
0.183482616
 40
1.0
 40
1.0
 40
1.0
 40
1.0
 10
-10.5602288007
 20
-23.8010362971
 30
0.0
 10
-10.5601487611
 20
-23.8036836131
 30
0.0
 10
-10.5598528223
 20
-23.8181157399
 30
0.0
 10
-10.5597924214
 20
-23.8325513431
 30
0.0
 10
-10.5597924241
 20
-23.8443375673
 30
0.0
 11
-10.5602288007
 21
-23.8010362971
 31
0.0
 11
-10.5600480914
 21
-23.8089798189
 31
0.0
 11
-10.5597924241
 21
-23.8443375673
 31
0.0
  0
SPLINE
  5
418
100
AcDbEntity
  8
0
100
AcDbSpline
 62
253
  6
CONTINUOUS
 70
0
 71
3
 72
14
 73
10
 74
8
 42
0.0000001
 43
0.0000001
 44
0.0000000001
 12
0.0000000046
 22
-0.0500143989
 32
0.0
 13
-0.0353848633
 23
-0.0353461674
 33
0.0
 40
0.0
 40
0.0
 40
0.0
 40
0.0
 40
0.3784712214
 40
0.5499084536
 40
0.7006913151
 40
0.8251503658
 40
0.9186144536
 40
0.9775916124
 40
1.0
 40
1.0
 40
1.0
 40
1.0
 10
-10.5597924241
 20
-24.2106880219
 30
0.0
 10
-10.5597924235
 20
-24.2169976921
 30
0.0
 10
-10.5598169457
 20
-24.2261682045
 30
0.0
 10
-10.5599321477
 20
-24.2378428211
 30
0.0
 10
-10.5600094021
 20
-24.2453044543
 30
0.0
 10
-10.5602012854
 20
-24.2514067356
 30
0.0
 10
-10.5601699902
 20
-24.2561264203
 30
0.0
 10
-10.5606218197
 20
-24.2588406228
 30
0.0
 10
-10.5603856398
 20
-24.2604163898
 30
0.0
 10
-10.5606499457
 20
-24.2606804067
 30
0.0
 11
-10.5597924241
 21
-24.2106880219
 31
0.0
 11
-10.5598573884
 21
-24.2296169211
 31
0.0
 11
-10.5599363226
 21
-24.2381908879
 31
0.0
 11
-10.5600426566
 21
-24.2457314523
 31
0.0
 11
-10.5601723906
 21
-24.2519548449
 31
0.0
 11
-10.5603206492
 21
-24.2566270433
 31
0.0
 11
-10.5604818492
 21
-24.2595723425
 31
0.0
 11
-10.5606499457
 21
-24.2606804067
 31
0.0
  0
SPLINE
  5
419
100
AcDbEntity
  8
0
100
AcDbSpline
 62
253
  6
CONTINUOUS
 70
0
 71
3
 72
11
 73
7
 74
5
 42
0.0000001
 43
0.0000001
 44
0.0000000001
 12
0.290824418
 22
0.0021981279
 32
0.0
 13
0.0029298796
 23
0.2908179665
 33
0.0
 40
0.0
 40
0.0
 40
0.0
 40
0.0
 40
0.2659011524
 40
0.5231711195
 40
0.7669316796
 40
1.0
 40
1.0
 40
1.0
 40
1.0
 10
-7.4397407383
 20
23.6278312163
 30
0.0
 10
-7.413963889
 20
23.6280260446
 30
0.0
 10
-7.3628786503
 20
23.6369744365
 30
0.0
 10
-7.2969587147
 20
23.6746347863
 30
0.0
 10
-7.2514004811
 20
23.7317691274
 30
0.0
 10
-7.23999882
 20
23.7784428121
 30
0.0
 10
-7.2397711993
 20
23.8010362971
 30
0.0
 11
-7.4397407383
 21
23.6278312163
 31
0.0
 11
-7.3636160338
 21
23.6414468187
 31
0.0
 11
-7.2989538544
 21
23.6790927066
 31
0.0
 11
-7.2554907481
 21
23.7351003269
 31
0.0
 11
-7.2397711993
 21
23.8010362971
 31
0.0
  0
SPLINE
  5
41A
100
AcDbEntity
  8
0
100
AcDbSpline
 62
7
  6
CONTINUOUS
 70
0
 71
3
 72
12
 73
8
 74
6
 42
0.0000001
 43
0.0000001
 44
0.0000000001
 12
-0.0092279883
 22
-0.240843142
 32
0.0
 13
-0.2395313741
 23
0.0267450118
 33
0.0
 40
0.0
 40
0.0
 40
0.0
 40
0.0
 40
0.1616125329
 40
0.2604072651
 40
0.3752276894
 40
0.6572297246
 40
1.0
 40
1.0
 40
1.0
 40
1.0
 10
-7.2218949894
 20
23.2097560788
 30
0.0
 10
-7.2223921089
 20
23.1967816554
 30
0.0
 10
-7.2318840845
 20
23.1761496414
 30
0.0
 10
-7.2539695122
 20
23.1555549509
 30
0.0
 10
-7.2881760839
 20
23.1346172782
 30
0.0
 10
-7.3461936529
 20
23.1179167767
 30
0.0
 10
-7.3970200937
 20
23.1169681838
 30
0.0
 10
-7.4243881721
 20
23.1200239821
 30
0.0
 11
-7.2218949894
 21
23.2097560788
 31
0.0
 11
-7.2364213503
 21
23.1736142754
 31
0.0
 11
-7.2534904582
 21
23.1570120842
 31
0.0
 11
-7.2769507227
 21
23.1423333093
 31
0.0
 11
-7.3417966479
 21
23.1219699222
 31
0.0
 11
-7.4243881721
 21
23.1200239821
 31
0.0
  0
SPLINE
  5
41B
100
AcDbEntity
  8
0
100
AcDbSpline
 62
7
  6
CONTINUOUS
 70
0
 71
3
 72
12
 73
8
 74
6
 42
0.0000001
 43
0.0000001
 44
0.0000000001
 12
-0.2395313741
 22
-0.0267450118
 32
0.0
 13
-0.0092279883
 23
0.240843142
 33
0.0
 40
0.0
 40
0.0
 40
0.0
 40
0.0
 40
0.3427702754
 40
0.6247723106
 40
0.7395927349
 40
0.8383874671
 40
1.0
 40
1.0
 40
1.0
 40
1.0
 10
7.4243881721
 20
23.1200239821
 30
0.0
 10
7.3970200937
 20
23.1169681838
 30
0.0
 10
7.3461936529
 20
23.1179167767
 30
0.0
 10
7.2881760839
 20
23.1346172782
 30
0.0
 10
7.2539695122
 20
23.1555549509
 30
0.0
 10
7.2318840845
 20
23.1761496414
 30
0.0
 10
7.2223921089
 20
23.1967816554
 30
0.0
 10
7.2218949894
 20
23.2097560788
 30
0.0
 11
7.4243881721
 21
23.1200239821
 31
0.0
 11
7.3417966479
 21
23.1219699222
 31
0.0
 11
7.2769507227
 21
23.1423333093
 31
0.0
 11
7.2534904582
 21
23.1570120842
 31
0.0
 11
7.2364213503
 21
23.1736142754
 31
0.0
 11
7.2218949894
 21
23.2097560788
 31
0.0
  0
SPLINE
  5
41C
100
AcDbEntity
  8
0
100
AcDbSpline
 62
253
  6
CONTINUOUS
 70
0
 71
3
 72
11
 73
7
 74
5
 42
0.0000001
 43
0.0000001
 44
0.0000000001
 12
-0.290824418
 22
0.002198128
 32
0.0
 13
-0.0029298796
 23
0.2908179665
 33
0.0
 40
0.0
 40
0.0
 40
0.0
 40
0.0
 40
0.2659011522
 40
0.5231711191
 40
0.7669316794
 40
1.0
 40
1.0
 40
1.0
 40
1.0
 10
7.4397407383
 20
23.6278312163
 30
0.0
 10
7.413963889
 20
23.6280260446
 30
0.0
 10
7.3628786504
 20
23.6369744364
 30
0.0
 10
7.2969587147
 20
23.6746347862
 30
0.0
 10
7.2514004811
 20
23.7317691273
 30
0.0
 10
7.23999882
 20
23.7784428121
 30
0.0
 10
7.2397711993
 20
23.8010362971
 30
0.0
 11
7.4397407383
 21
23.6278312163
 31
0.0
 11
7.3636160339
 21
23.6414468187
 31
0.0
 11
7.2989538545
 21
23.6790927066
 31
0.0
 11
7.2554907481
 21
23.7351003269
 31
0.0
 11
7.2397711993
 21
23.8010362971
 31
0.0
  0
SPLINE
  5
41D
100
AcDbEntity
  8
0
100
AcDbSpline
 62
7
  6
CONTINUOUS
 70
0
 71
3
 72
12
 73
8
 74
6
 42
0.0000001
 43
0.0000001
 44
0.0000000001
 12
-0.0092279467
 22
-0.240842055
 32
0.0
 13
-0.239530293
 23
0.0267448911
 33
0.0
 40
0.0
 40
0.0
 40
0.0
 40
0.0
 40
0.161725644
 40
0.2604691211
 40
0.375408184
 40
0.6573882141
 40
1.0
 40
1.0
 40
1.0
 40
1.0
 10
10.5781050106
 20
23.2097560788
 30
0.0
 10
10.5776075454
 20
23.1967726333
 30
0.0
 10
10.5681115785
 20
23.1761339157
 30
0.0
 10
10.5460071127
 20
23.1555385338
 30
0.0
 10
10.5117911135
 20
23.1346097426
 30
0.0
 10
10.4537786213
 20
23.1179165861
 30
0.0
 10
10.4029671284
 20
23.1169696105
 30
0.0
 10
10.3756118279
 20
23.1200239821
 30
0.0
 11
10.5781050106
 21
23.2097560788
 31
0.0
 11
10.5635637077
 21
23.1735910893
 31
0.0
 11
10.5464976004
 21
23.1570036873
 31
0.0
 11
10.5230087511
 21
23.142316927
 31
0.0
 11
10.4581648674
 21
23.1219657681
 31
0.0
 11
10.3756118279
 21
23.1200239821
 31
0.0
  0
SPLINE
  5
41E
100
AcDbEntity
  8
0
100
AcDbSpline
 62
253
  6
CONTINUOUS
 70
0
 71
3
 72
11
 73
7
 74
5
 42
0.0000001
 43
0.0000001
 44
0.0000000001
 12
-0.0029298796
 22
-0.290817965
 32
0.0
 13
-0.2908244163
 23
-0.0021981479
 33
0.0
 40
0.0
 40
0.0
 40
0.0
 40
0.0
 40
0.2330683208
 40
0.4768288792
 40
0.7340988449
 40
1.0
 40
1.0
 40
1.0
 40
1.0
 10
10.5602288007
 20
23.8010362971
 30
0.0
 10
10.56000118
 20
23.7784428122
 30
0.0
 10
10.548599519
 20
23.7317691278
 30
0.0
 10
10.5030412852
 20
23.6746347873
 30
0.0
 10
10.4371213487
 20
23.6369744403
 30
0.0
 10
10.3860361111
 20
23.6280260464
 30
0.0
 10
10.3602592617
 20
23.6278312163
 30
0.0
 11
10.5602288007
 21
23.8010362971
 31
0.0
 11
10.5445092519
 21
23.7351003272
 31
0.0
 11
10.5010461455
 21
23.6790927081
 31
0.0
 11
10.436383966
 21
23.6414468218
 31
0.0
 11
10.3602592617
 21
23.6278312163
 31
0.0
  0
SPLINE
  5
41F
100
AcDbEntity
  8
0
100
AcDbSpline
 62
253
  6
CONTINUOUS
 70
0
 71
3
 72
14
 73
10
 74
8
 42
0.0000001
 43
0.0000001
 44
0.0000000001
 12
0.0000001187
 22
0.249966339
 32
0.0
 13
-0.0492103035
 23
0.2450745124
 33
0.0
 40
0.0
 40
0.0
 40
0.0
 40
0.0
 40
0.3786102122
 40
0.550110195
 40
0.7009447699
 40
0.8254366722
 40
0.9189016359
 40
0.9778261742
 40
1.0
 40
1.0
 40
1.0
 40
1.0
 10
-10.3598228851
 20
24.2106880219
 30
0.0
 10
-10.3598228701
 20
24.2422346248
 30
0.0
 10
-10.3598446772
 20
24.2880719113
 30
0.0
 10
-10.3599666072
 20
24.3464737612
 30
0.0
 10
-10.3600278441
 20
24.3837095509
 30
0.0
 10
-10.360264598
 20
24.4144226807
 30
0.0
 10
-10.3601246162
 20
24.437529277
 30
0.0
 10
-10.3607794385
 20
24.4520049509
 30
0.0
 10
-10.3603166798
 20
24.4588385325
 30
0.0
 10
-10.3606804067
 20
24.4606499457
 30
0.0
 11
-10.3598228851
 21
24.2106880219
 31
0.0
 11
-10.3598878852
 21
24.3053278082
 31
0.0
 11
-10.3599668347
 21
24.3481969584
 31
0.0
 11
-10.3600731778
 21
24.3859003749
 31
0.0
 11
-10.3602029186
 21
24.4170188895
 31
0.0
 11
-10.3603511722
 21
24.4403815139
 31
0.0
 11
-10.3605123963
 21
24.4551097826
 31
0.0
 11
-10.3606804067
 21
24.4606499457
 31
0.0
  0
SPLINE
  5
420
100
AcDbEntity
  8
0
100
AcDbSpline
 62
253
  6
CONTINUOUS
 70
0
 71
3
 72
14
 73
10
 74
8
 42
0.0000001
 43
0.0000001
 44
0.0000000001
 12
-0.000000161
 22
0.2499634559
 32
0.0
 13
0.0491541604
 23
0.2450828386
 33
0.0
 40
0.0
 40
0.0
 40
0.0
 40
0.0
 40
0.3786143138
 40
0.5501135625
 40
0.7009463438
 40
0.8254370374
 40
0.9189018018
 40
0.9778262026
 40
1.0
 40
1.0
 40
1.0
 40
1.0
 10
-7.4401771142
 20
24.2106909083
 30
0.0
 10
-7.4401771345
 20
24.2422374891
 30
0.0
 10
-7.4401552953
 20
24.2880745251
 30
0.0
 10
-7.4400334224
 20
24.3464758383
 30
0.0
 10
-7.4399721039
 20
24.3837108733
 30
0.0
 10
-7.4397356579
 20
24.4144234213
 30
0.0
 10
-7.4398749976
 20
24.4375295282
 30
0.0
 10
-7.4392214149
 20
24.4520051812
 30
0.0
 10
-7.4396829048
 20
24.4588384733
 30
0.0
 10
-7.4393195933
 20
24.4606499457
 30
0.0
 11
-7.4401771142
 21
24.2106909083
 31
0.0
 11
-7.440112111
 21
24.3053306283
 31
0.0
 11
-7.4400331722
 21
24.3481991005
 31
0.0
 11
-7.4399268498
 21
24.3859016338
 31
0.0
 11
-7.439797139
 21
24.4170194875
 31
0.0
 11
-7.4396489015
 21
24.4403817927
 31
0.0
 11
-7.4394877441
 21
24.4551098579
 31
0.0
 11
-7.4393195933
 21
24.4606499457
 31
0.0
  0
LINE
  5
421
100
AcDbEntity
  8
0
100
AcDbLine
 62
7
  6
CONTINUOUS
 10
-9.2533769702
 20
23.6278312163
 11
-9.0368706193
 21
23.8443375673
  0
SPLINE
  5
422
100
AcDbEntity
  8
0
100
AcDbSpline
 62
253
  6
CONTINUOUS
 70
0
 71
3
 72
14
 73
10
 74
8
 42
0.0000001
 43
0.0000001
 44
0.0000000001
 12
0.0491604488
 22
-0.24508452
 32
0.0
 13
-0.000000147
 23
-0.2499663411
 33
0.0
 40
0.0
 40
0.0
 40
0.0
 40
0.0
 40
0.0221560382
 40
0.0810435912
 40
0.1744700487
 40
0.2989316111
 40
0.4497491635
 40
0.6212572333
 40
1.0
 40
1.0
 40
1.0
 40
1.0
 10
7.4393195933
 20
24.4606499457
 30
0.0
 10
7.4396826603
 20
24.4588399117
 30
0.0
 10
7.4392213667
 20
24.4520111243
 30
0.0
 10
7.439874892
 20
24.4375430292
 30
0.0
 10
7.4397354858
 20
24.4144453451
 30
0.0
 10
7.4399720145
 20
24.3837393343
 30
0.0
 10
7.4400333236
 20
24.3465068283
 30
0.0
 10
7.4401552882
 20
24.2880946738
 30
0.0
 10
7.4401771335
 20
24.2422456698
 30
0.0
 10
7.4401771149
 20
24.2106880219
 30
0.0
 11
7.4393195933
 21
24.4606499457
 31
0.0
 11
7.4394876047
 21
24.4551142309
 31
0.0
 11
7.4396487695
 21
24.4403952071
 31
0.0
 11
7.4397969934
 21
24.4170422077
 31
0.0
 11
7.4399267291
 21
24.3859312768
 31
0.0
 11
7.4400330776
 21
24.3482321151
 31
0.0
 11
7.440112058
 21
24.3053609432
 31
0.0
 11
7.4401771149
 21
24.2106880219
 31
0.0
  0
SPLINE
  5
423
100
AcDbEntity
  8
0
100
AcDbSpline
 62
253
  6
CONTINUOUS
 70
0
 71
3
 72
14
 73
10
 74
8
 42
0.0000001
 43
0.0000001
 44
0.0000000001
 12
-0.0491708119
 22
-0.2450824418
 32
0.0
 13
0.0000001167
 23
-0.2499663418
 33
0.0
 40
0.0
 40
0.0
 40
0.0
 40
0.0
 40
0.022160649
 40
0.0810578314
 40
0.1744935263
 40
0.2989595177
 40
0.4497755697
 40
0.6212777996
 40
1.0
 40
1.0
 40
1.0
 40
1.0
 10
10.3606804067
 20
24.4606499457
 30
0.0
 10
10.3603171876
 20
24.4588395504
 30
0.0
 10
10.3607787119
 20
24.4520095284
 30
0.0
 10
10.3601249997
 20
24.4375395164
 30
0.0
 10
10.360264479
 20
24.4144398729
 30
0.0
 10
10.3600279381
 20
24.3837328546
 30
0.0
 10
10.3599666453
 20
24.3465005892
 30
0.0
 10
10.3598447
 20
24.2880907604
 30
0.0
 10
10.3598228703
 20
24.2422439562
 30
0.0
 10
10.3598228851
 20
24.2106880219
 30
0.0
 11
10.3606804067
 21
24.4606499457
 31
0.0
 11
10.3605123492
 21
24.4551130792
 31
0.0
 11
10.3603511779
 21
24.4403916482
 31
0.0
 11
10.3602029514
 21
24.4170363398
 31
0.0
 11
10.3600732243
 21
24.3859243017
 31
0.0
 11
10.3599668889
 21
24.3482255148
 31
0.0
 11
10.3598879236
 21
24.3053558025
 31
0.0
 11
10.3598228851
 21
24.2106880219
 31
0.0
  0
SPLINE
  5
424
100
AcDbEntity
  8
0
100
AcDbSpline
 62
253
  6
CONTINUOUS
 70
0
 71
3
 72
9
 73
5
 74
3
 42
0.0000001
 43
0.0000001
 44
0.0000000001
 12
0.0000000894
 22
-0.2165058795
 32
0.0
 13
-0.0013063451
 23
-0.2165019383
 33
0.0
 40
0.0
 40
0.0
 40
0.0
 40
0.0
 40
0.2987948397
 40
1.0
 40
1.0
 40
1.0
 40
1.0
 10
7.4401771149
 20
23.8443375673
 30
0.0
 10
7.4401771239
 20
23.8227739541
 30
0.0
 10
7.4401340442
 20
23.7506054227
 30
0.0
 10
7.4400460828
 20
23.6784363314
 30
0.0
 10
7.4397407442
 20
23.6278322392
 30
0.0
 11
7.4401771149
 21
23.8443375673
 31
0.0
 11
7.4401473729
 21
23.7796467346
 31
0.0
 11
7.4397407442
 21
23.6278322392
 31
0.0
  0
LINE
  5
425
100
AcDbEntity
  8
0
100
AcDbLine
 62
7
  6
CONTINUOUS
 10
8.5466230298
 20
23.6278312163
 11
8.7631293807
 21
23.8443375673
  0
LINE
  5
426
100
AcDbEntity
  8
0
100
AcDbLine
 62
7
  6
CONTINUOUS
 10
8.7631293807
 20
-23.8443375673
 11
8.5466230298
 21
-23.6278312164
  0
SPLINE
  5
427
100
AcDbEntity
  8
0
100
AcDbSpline
 62
253
  6
CONTINUOUS
 70
0
 71
3
 72
18
 73
14
 74
12
 42
0.0000001
 43
0.0000001
 44
0.0000000001
 12
0.0007594238
 22
-0.6698588972
 32
0.0
 13
0.2988795282
 23
-0.5994852346
 33
0.0
 40
0.0
 40
0.0
 40
0.0
 40
0.0
 40
0.1911308635
 40
0.3742063506
 40
0.5429018838
 40
0.6915546455
 40
0.8151476268
 40
0.8662337678
 40
0.9095956099
 40
0.9448847149
 40
0.971822076
 40
0.9902037888
 40
1.0
 40
1.0
 40
1.0
 40
1.0
 10
10.8952394837
 20
-20.8558253568
 30
0.0
 10
10.8952878668
 20
-20.89850226
 30
0.0
 10
10.8955815972
 20
-20.9820573697
 30
0.0
 10
10.8966189487
 20
-21.1032759924
 30
0.0
 10
10.8982062655
 20
-21.2150036244
 30
0.0
 10
10.9002852413
 20
-21.3134378075
 30
0.0
 10
10.9024549799
 20
-21.3856047369
 30
0.0
 10
10.9044727281
 20
-21.4342458908
 30
0.0
 10
10.9059417554
 20
-21.4631847568
 30
0.0
 10
10.907497159
 20
-21.4866920271
 30
0.0
 10
10.9089705365
 20
-21.5046780836
 30
0.0
 10
10.9106369053
 20
-21.5167865346
 30
0.0
 10
10.9116900359
 20
-21.5231171129
 30
0.0
 10
10.9126659982
 20
-21.5250746743
 30
0.0
 11
10.8952394837
 21
-20.8558253568
 31
0.0
 11
10.8956978248
 21
-20.9838553282
 31
0.0
 11
10.8967665912
 21
-21.1064854936
 31
0.0
 11
10.8984082007
 21
-21.2194758454
 31
0.0
 11
10.9005653818
 21
-21.3190289155
 31
0.0
 11
10.9031639573
 21
-21.4017780353
 31
0.0
 11
10.9046013829
 21
-21.4359683607
 31
0.0
 11
10.9061146298
 21
-21.46497525
 31
0.0
 11
10.9076911809
 21
-21.4885613546
 31
0.0
 11
10.9093183507
 21
-21.5065320811
 31
0.0
 11
10.9109820996
 21
-21.5187323226
 31
0.0
 11
10.9126659982
 21
-21.5250746743
 31
0.0
  0
SPLINE
  5
428
100
AcDbEntity
  8
0
100
AcDbSpline
 62
253
  6
CONTINUOUS
 70
0
 71
3
 72
18
 73
14
 74
12
 42
0.0000001
 43
0.0000001
 44
0.0000000001
 12
-0.2988795543
 22
-0.5994852205
 32
0.0
 13
-0.0007594237
 23
-0.6698588963
 33
0.0
 40
0.0
 40
0.0
 40
0.0
 40
0.0
 40
0.0097962112
 40
0.0281779245
 40
0.0551152857
 40
0.0904043905
 40
0.1337662328
 40
0.1848523741
 40
0.3084453561
 40
0.457098118
 40
0.6257936519
 40
0.8088691389
 40
1.0
 40
1.0
 40
1.0
 40
1.0
 10
10.9126659988
 20
21.5250746755
 30
0.0
 10
10.9116900364
 20
21.5231171142
 30
0.0
 10
10.910636906
 20
21.5167865357
 30
0.0
 10
10.9089705371
 20
21.5046780847
 30
0.0
 10
10.9074971596
 20
21.486692028
 30
0.0
 10
10.905941756
 20
21.4631847577
 30
0.0
 10
10.9044727288
 20
21.4342458918
 30
0.0
 10
10.9024549805
 20
21.3856047376
 30
0.0
 10
10.9002852419
 20
21.3134378081
 30
0.0
 10
10.8982062661
 20
21.2150036247
 30
0.0
 10
10.8966189493
 20
21.1032759927
 30
0.0
 10
10.8955815979
 20
20.9820573705
 30
0.0
 10
10.8952878671
 20
20.8985022615
 30
0.0
 10
10.895239484
 20
20.855825359
 30
0.0
 11
10.9126659988
 21
21.5250746755
 31
0.0
 11
10.9109821002
 21
21.5187323239
 31
0.0
 11
10.9093183514
 21
21.506532082
 31
0.0
 11
10.9076911815
 21
21.4885613555
 31
0.0
 11
10.9061146304
 21
21.464975251
 31
0.0
 11
10.9046013835
 21
21.4359683617
 31
0.0
 11
10.9031639579
 21
21.4017780361
 31
0.0
 11
10.9005653825
 21
21.3190289159
 31
0.0
 11
10.8984082013
 21
21.2194758458
 31
0.0
 11
10.8967665919
 21
21.1064854937
 31
0.0
 11
10.8956978254
 21
20.9838553285
 31
0.0
 11
10.895239484
 21
20.855825359
 31
0.0
  0
SPLINE
  5
429
100
AcDbEntity
  8
0
100
AcDbSpline
 62
253
  6
CONTINUOUS
 70
0
 71
3
 72
18
 73
14
 74
12
 42
0.0000001
 43
0.0000001
 44
0.0000000001
 12
-0.0007594238
 22
0.6698588972
 32
0.0
 13
-0.2988795282
 23
0.5994852346
 33
0.0
 40
0.0
 40
0.0
 40
0.0
 40
0.0
 40
0.1911308635
 40
0.3742063506
 40
0.5429018838
 40
0.6915546454
 40
0.8151476268
 40
0.8662337678
 40
0.9095956099
 40
0.9448847149
 40
0.971822076
 40
0.9902037888
 40
1.0
 40
1.0
 40
1.0
 40
1.0
 10
-10.8952394837
 20
20.8558253568
 30
0.0
 10
-10.8952878668
 20
20.89850226
 30
0.0
 10
-10.8955815972
 20
20.9820573697
 30
0.0
 10
-10.8966189487
 20
21.1032759924
 30
0.0
 10
-10.8982062655
 20
21.2150036244
 30
0.0
 10
-10.9002852413
 20
21.3134378076
 30
0.0
 10
-10.9024549799
 20
21.3856047369
 30
0.0
 10
-10.9044727282
 20
21.4342458908
 30
0.0
 10
-10.9059417554
 20
21.4631847568
 30
0.0
 10
-10.907497159
 20
21.4866920271
 30
0.0
 10
-10.9089705365
 20
21.5046780836
 30
0.0
 10
-10.9106369053
 20
21.5167865346
 30
0.0
 10
-10.9116900359
 20
21.5231171129
 30
0.0
 10
-10.9126659982
 20
21.5250746743
 30
0.0
 11
-10.8952394837
 21
20.8558253568
 31
0.0
 11
-10.8956978248
 21
20.9838553282
 31
0.0
 11
-10.8967665912
 21
21.1064854936
 31
0.0
 11
-10.8984082007
 21
21.2194758454
 31
0.0
 11
-10.9005653818
 21
21.3190289155
 31
0.0
 11
-10.9031639573
 21
21.4017780353
 31
0.0
 11
-10.9046013829
 21
21.4359683607
 31
0.0
 11
-10.9061146298
 21
21.46497525
 31
0.0
 11
-10.9076911809
 21
21.4885613546
 31
0.0
 11
-10.9093183507
 21
21.5065320811
 31
0.0
 11
-10.9109820996
 21
21.5187323226
 31
0.0
 11
-10.9126659982
 21
21.5250746743
 31
0.0
  0
SPLINE
  5
42A
100
AcDbEntity
  8
0
100
AcDbSpline
 62
253
  6
CONTINUOUS
 70
0
 71
3
 72
18
 73
14
 74
12
 42
0.0000001
 43
0.0000001
 44
0.0000000001
 12
0.2988795543
 22
0.5994852205
 32
0.0
 13
0.0007594237
 23
0.6698588963
 33
0.0
 40
0.0
 40
0.0
 40
0.0
 40
0.0
 40
0.0097962112
 40
0.0281779245
 40
0.0551152857
 40
0.0904043905
 40
0.1337662328
 40
0.1848523741
 40
0.3084453561
 40
0.457098118
 40
0.6257936519
 40
0.8088691389
 40
1.0
 40
1.0
 40
1.0
 40
1.0
 10
-10.9126659988
 20
-21.5250746755
 30
0.0
 10
-10.9116900364
 20
-21.5231171142
 30
0.0
 10
-10.910636906
 20
-21.5167865357
 30
0.0
 10
-10.9089705371
 20
-21.5046780847
 30
0.0
 10
-10.9074971596
 20
-21.4866920281
 30
0.0
 10
-10.905941756
 20
-21.4631847577
 30
0.0
 10
-10.9044727288
 20
-21.4342458918
 30
0.0
 10
-10.9024549805
 20
-21.3856047376
 30
0.0
 10
-10.9002852419
 20
-21.3134378081
 30
0.0
 10
-10.8982062661
 20
-21.2150036247
 30
0.0
 10
-10.8966189493
 20
-21.1032759927
 30
0.0
 10
-10.8955815979
 20
-20.9820573705
 30
0.0
 10
-10.8952878671
 20
-20.8985022615
 30
0.0
 10
-10.895239484
 20
-20.855825359
 30
0.0
 11
-10.9126659988
 21
-21.5250746755
 31
0.0
 11
-10.9109821002
 21
-21.5187323239
 31
0.0
 11
-10.9093183514
 21
-21.506532082
 31
0.0
 11
-10.9076911815
 21
-21.4885613555
 31
0.0
 11
-10.9061146304
 21
-21.464975251
 31
0.0
 11
-10.9046013835
 21
-21.4359683617
 31
0.0
 11
-10.9031639579
 21
-21.4017780361
 31
0.0
 11
-10.9005653825
 21
-21.319028916
 31
0.0
 11
-10.8984082013
 21
-21.2194758458
 31
0.0
 11
-10.8967665919
 21
-21.1064854937
 31
0.0
 11
-10.8956978254
 21
-20.9838553285
 31
0.0
 11
-10.895239484
 21
-20.855825359
 31
0.0
  0
SPLINE
  5
42B
100
AcDbEntity
  8
0
100
AcDbSpline
 62
253
  6
CONTINUOUS
 70
0
 71
3
 72
14
 73
10
 74
8
 42
0.0000001
 43
0.0000001
 44
0.0000000001
 12
-0.0490895383
 22
0.2450986842
 32
0.0
 13
0.0000000528
 23
0.2499662933
 33
0.0
 40
0.0
 40
0.0
 40
0.0
 40
0.0
 40
0.0221590326
 40
0.0810497444
 40
0.174478782
 40
0.2989411458
 40
0.4497578551
 40
0.6212639873
 40
1.0
 40
1.0
 40
1.0
 40
1.0
 10
10.3606803967
 20
-24.4606498956
 30
0.0
 10
10.3603178045
 20
-24.4588395123
 30
0.0
 10
10.3607777811
 20
-24.4520104499
 30
0.0
 10
10.3601254638
 20
-24.4375414157
 30
0.0
 10
10.360264199
 20
-24.4144433067
 30
0.0
 10
10.3600279746
 20
-24.3837370419
 30
0.0
 10
10.3599665865
 20
-24.3465047253
 30
0.0
 10
10.3598447054
 20
-24.288093369
 30
0.0
 10
10.3598228784
 20
-24.242245101
 30
0.0
 10
10.3598228851
 20
-24.2106880219
 30
0.0
 11
10.3606803967
 21
-24.4606498956
 31
0.0
 11
10.3605122879
 21
-24.4551134359
 31
0.0
 11
10.3603511279
 21
-24.4403936252
 31
0.0
 11
10.3602028969
 21
-24.4170399854
 31
0.0
 11
10.3600731807
 21
-24.3859288601
 31
0.0
 11
10.3599668567
 21
-24.3482299163
 31
0.0
 11
10.359887906
 21
-24.3053592368
 31
0.0
 11
10.3598228851
 21
-24.2106880219
 31
0.0
  0
SPLINE
  5
42C
100
AcDbEntity
  8
0
100
AcDbSpline
 62
253
  6
CONTINUOUS
 70
0
 71
3
 72
14
 73
10
 74
8
 42
0.0000001
 43
0.0000001
 44
0.0000000001
 12
0.0000000316
 22
-0.2499663453
 32
0.0
 13
-0.0490876294
 23
-0.2450991195
 33
0.0
 40
0.0
 40
0.0
 40
0.0
 40
0.0
 40
0.3786066962
 40
0.5501057471
 40
0.7009402767
 40
0.825433203
 40
0.9188999329
 40
0.9778256633
 40
1.0
 40
1.0
 40
1.0
 40
1.0
 10
7.4401771149
 20
-24.2106880219
 30
0.0
 10
7.4401771189
 20
-24.2422343326
 30
0.0
 10
7.4401553059
 20
-24.2880712445
 30
0.0
 10
7.4400335203
 20
-24.3464727342
 30
0.0
 10
7.4399721152
 20
-24.3837084986
 30
0.0
 10
7.4397359763
 20
-24.4144219427
 30
0.0
 10
7.439874624
 20
-24.4375286671
 30
0.0
 10
7.4392222916
 20
-24.4520050132
 30
0.0
 10
7.4396824219
 20
-24.4588383089
 30
0.0
 10
7.4393195933
 20
-24.4606499457
 30
0.0
 11
7.4401771149
 21
-24.2106880219
 31
0.0
 11
7.4401121523
 21
-24.3053269318
 31
0.0
 11
7.4400332441
 21
-24.3481958501
 31
0.0
 11
7.4399269413
 21
-24.3858992563
 31
0.0
 11
7.4397972463
 21
-24.4170180279
 31
0.0
 11
7.4396489957
 21
-24.4403810944
 31
0.0
 11
7.4394878595
 21
-24.4551096624
 31
0.0
 11
7.4393195933
 21
-24.4606499457
 31
0.0
  0
SPLINE
  5
42D
100
AcDbEntity
  8
0
100
AcDbSpline
 62
253
  6
CONTINUOUS
 70
0
 71
3
 72
14
 73
10
 74
8
 42
0.0000001
 43
0.0000001
 44
0.0000000001
 12
0.0000000316
 22
-0.2499663453
 32
0.0
 13
-0.0490876294
 23
-0.2450991195
 33
0.0
 40
0.0
 40
0.0
 40
0.0
 40
0.0
 40
0.3786066962
 40
0.5501057471
 40
0.7009402767
 40
0.825433203
 40
0.9188999329
 40
0.9778256633
 40
1.0
 40
1.0
 40
1.0
 40
1.0
 10
-10.3598228851
 20
-24.2106880219
 30
0.0
 10
-10.3598228811
 20
-24.2422343326
 30
0.0
 10
-10.3598446941
 20
-24.2880712445
 30
0.0
 10
-10.3599664797
 20
-24.3464727342
 30
0.0
 10
-10.3600278848
 20
-24.3837084986
 30
0.0
 10
-10.3602640237
 20
-24.4144219427
 30
0.0
 10
-10.360125376
 20
-24.4375286671
 30
0.0
 10
-10.3607777084
 20
-24.4520050132
 30
0.0
 10
-10.3603175781
 20
-24.4588383089
 30
0.0
 10
-10.3606804067
 20
-24.4606499457
 30
0.0
 11
-10.3598228851
 21
-24.2106880219
 31
0.0
 11
-10.3598878477
 21
-24.3053269318
 31
0.0
 11
-10.3599667559
 21
-24.3481958501
 31
0.0
 11
-10.3600730587
 21
-24.3858992563
 31
0.0
 11
-10.3602027537
 21
-24.4170180279
 31
0.0
 11
-10.3603510043
 21
-24.4403810944
 31
0.0
 11
-10.3605121405
 21
-24.4551096624
 31
0.0
 11
-10.3606804067
 21
-24.4606499457
 31
0.0
  0
SPLINE
  5
42E
100
AcDbEntity
  8
0
100
AcDbSpline
 62
253
  6
CONTINUOUS
 70
0
 71
3
 72
14
 73
10
 74
8
 42
0.0000001
 43
0.0000001
 44
0.0000000001
 12
-0.0490895383
 22
0.2450986842
 32
0.0
 13
0.0000000528
 23
0.2499662933
 33
0.0
 40
0.0
 40
0.0
 40
0.0
 40
0.0
 40
0.0221590326
 40
0.0810497444
 40
0.174478782
 40
0.2989411458
 40
0.4497578551
 40
0.6212639873
 40
1.0
 40
1.0
 40
1.0
 40
1.0
 10
-7.4393196033
 20
-24.4606498956
 30
0.0
 10
-7.4396821955
 20
-24.4588395123
 30
0.0
 10
-7.4392222189
 20
-24.4520104499
 30
0.0
 10
-7.4398745362
 20
-24.4375414157
 30
0.0
 10
-7.439735801
 20
-24.4144433067
 30
0.0
 10
-7.4399720254
 20
-24.3837370419
 30
0.0
 10
-7.4400334135
 20
-24.3465047253
 30
0.0
 10
-7.4401552946
 20
-24.288093369
 30
0.0
 10
-7.4401771216
 20
-24.242245101
 30
0.0
 10
-7.4401771149
 20
-24.2106880219
 30
0.0
 11
-7.4393196033
 21
-24.4606498956
 31
0.0
 11
-7.4394877121
 21
-24.4551134359
 31
0.0
 11
-7.4396488721
 21
-24.4403936252
 31
0.0
 11
-7.4397971031
 21
-24.4170399854
 31
0.0
 11
-7.4399268193
 21
-24.3859288601
 31
0.0
 11
-7.4400331433
 21
-24.3482299163
 31
0.0
 11
-7.440112094
 21
-24.3053592368
 31
0.0
 11
-7.4401771149
 21
-24.2106880219
 31
0.0
  0
LINE
  5
42F
100
AcDbEntity
  8
0
100
AcDbLine
 62
7
  6
CONTINUOUS
 10
-9.2533769702
 20
-23.6278312164
 11
-9.0368706193
 21
-23.8443375673
  0
SPLINE
  5
430
100
AcDbEntity
  8
0
100
AcDbSpline
 62
7
  6
CONTINUOUS
 70
0
 71
3
 72
10
 73
6
 74
4
 42
0.0000001
 43
0.0000001
 44
0.0000000001
 12
0.0041283229
 22
0.0124381884
 32
0.0
 13
0.0129404911
 23
0.0020725037
 33
0.0
 40
0.0
 40
0.0
 40
0.0
 40
0.0
 40
0.1072856673
 40
0.3046525266
 40
1.0
 40
1.0
 40
1.0
 40
1.0
 10
-10.5781050106
 20
-22.3341525772
 30
0.0
 10
-10.577957374
 20
-22.3337077641
 30
0.0
 10
-10.5767124954
 20
-22.3328984493
 30
0.0
 10
-10.5726796591
 20
-22.3315558063
 30
0.0
 10
-10.5687448508
 20
-22.3308959262
 30
0.0
 10
-10.5657454716
 20
-22.3304155561
 30
0.0
 11
-10.5781050106
 21
-22.3341525772
 31
0.0
 11
-10.5770826044
 21
-22.3331873917
 31
0.0
 11
-10.5746715766
 21
-22.3322507485
 31
0.0
 11
-10.5657454716
 21
-22.3304155561
 31
0.0
  0
SPLINE
  5
431
100
AcDbEntity
  8
0
100
AcDbSpline
 62
7
  6
CONTINUOUS
 70
0
 71
3
 72
10
 73
6
 74
4
 42
0.0000001
 43
0.0000001
 44
0.0000000001
 12
0.0129404911
 22
-0.0020725037
 32
0.0
 13
0.0041283229
 23
-0.0124381884
 33
0.0
 40
0.0
 40
0.0
 40
0.0
 40
0.0
 40
0.6953474734
 40
0.8927143327
 40
1.0
 40
1.0
 40
1.0
 40
1.0
 10
10.5657454716
 20
-22.3304155561
 30
0.0
 10
10.5687448508
 20
-22.3308959262
 30
0.0
 10
10.5726796591
 20
-22.3315558063
 30
0.0
 10
10.5767124954
 20
-22.3328984493
 30
0.0
 10
10.577957374
 20
-22.3337077641
 30
0.0
 10
10.5781050106
 20
-22.3341525772
 30
0.0
 11
10.5657454716
 21
-22.3304155561
 31
0.0
 11
10.5746715766
 21
-22.3322507485
 31
0.0
 11
10.5770826044
 21
-22.3331873917
 31
0.0
 11
10.5781050106
 21
-22.3341525772
 31
0.0
  0
SPLINE
  5
432
100
AcDbEntity
  8
0
100
AcDbSpline
 62
7
  6
CONTINUOUS
 70
0
 71
3
 72
10
 73
6
 74
4
 42
0.0000001
 43
0.0000001
 44
0.0000000001
 12
-0.0129404911
 22
0.0020725037
 32
0.0
 13
-0.0041283229
 23
0.0124381884
 33
0.0
 40
0.0
 40
0.0
 40
0.0
 40
0.0
 40
0.6953474734
 40
0.8927143327
 40
1.0
 40
1.0
 40
1.0
 40
1.0
 10
-10.5657454716
 20
22.3304155561
 30
0.0
 10
-10.5687448508
 20
22.3308959262
 30
0.0
 10
-10.5726796591
 20
22.3315558063
 30
0.0
 10
-10.5767124954
 20
22.3328984493
 30
0.0
 10
-10.577957374
 20
22.3337077641
 30
0.0
 10
-10.5781050106
 20
22.3341525772
 30
0.0
 11
-10.5657454716
 21
22.3304155561
 31
0.0
 11
-10.5746715766
 21
22.3322507485
 31
0.0
 11
-10.5770826044
 21
22.3331873917
 31
0.0
 11
-10.5781050106
 21
22.3341525772
 31
0.0
  0
SPLINE
  5
433
100
AcDbEntity
  8
0
100
AcDbSpline
 62
7
  6
CONTINUOUS
 70
0
 71
3
 72
10
 73
6
 74
4
 42
0.0000001
 43
0.0000001
 44
0.0000000001
 12
-0.0041283229
 22
-0.0124381884
 32
0.0
 13
-0.0129404911
 23
-0.0020725037
 33
0.0
 40
0.0
 40
0.0
 40
0.0
 40
0.0
 40
0.1072856673
 40
0.3046525266
 40
1.0
 40
1.0
 40
1.0
 40
1.0
 10
10.5781050106
 20
22.3341525772
 30
0.0
 10
10.577957374
 20
22.3337077641
 30
0.0
 10
10.5767124954
 20
22.3328984493
 30
0.0
 10
10.5726796591
 20
22.3315558063
 30
0.0
 10
10.5687448508
 20
22.3308959262
 30
0.0
 10
10.5657454716
 20
22.3304155561
 30
0.0
 11
10.5781050106
 21
22.3341525772
 31
0.0
 11
10.5770826044
 21
22.3331873917
 31
0.0
 11
10.5746715766
 21
22.3322507485
 31
0.0
 11
10.5657454716
 21
22.3304155561
 31
0.0
  0
LINE
  5
434
100
AcDbEntity
  8
0
100
AcDbLine
 62
7
  6
CONTINUOUS
 10
-8.5466230298
 20
23.6278312163
 11
-8.7631293807
 21
23.8443375673
  0
LINE
  5
435
100
AcDbEntity
  8
0
100
AcDbLine
 62
7
  6
CONTINUOUS
 10
9.2533769702
 20
23.6278312163
 11
9.0368706193
 21
23.8443375673
  0
SPLINE
  5
436
100
AcDbEntity
  8
0
100
AcDbSpline
 62
253
  6
CONTINUOUS
 70
0
 71
3
 72
9
 73
5
 74
3
 42
0.0000001
 43
0.0000001
 44
0.0000000001
 12
0.0000009928
 22
-0.2164846565
 32
0.0
 13
0.0013081016
 23
-0.2164807044
 33
0.0
 40
0.0
 40
0.0
 40
0.0
 40
0.0
 40
0.2986608327
 40
1.0
 40
1.0
 40
1.0
 40
1.0
 10
10.359822873
 20
23.8443575944
 30
0.0
 10
10.3598229719
 20
23.8228057652
 30
0.0
 10
10.3598655964
 20
23.7506443085
 30
0.0
 10
10.3599532289
 20
23.6784822881
 30
0.0
 10
10.3602590366
 20
23.6278734891
 30
0.0
 11
10.359822873
 21
23.8443575944
 31
0.0
 11
10.3598524471
 21
23.7797021134
 31
0.0
 11
10.3602590366
 21
23.6278734891
 31
0.0
  0
LINE
  5
437
100
AcDbEntity
  8
0
100
AcDbLine
 62
7
  6
CONTINUOUS
 10
9.0368706193
 20
-23.8443375673
 11
9.2533769702
 21
-23.6278312164
  0
SPLINE
  5
438
100
AcDbEntity
  8
0
100
AcDbSpline
 62
253
  6
CONTINUOUS
 70
0
 71
3
 72
9
 73
5
 74
3
 42
0.0000001
 43
0.0000001
 44
0.0000000001
 12
-0.0000000798
 22
0.2165052525
 32
0.0
 13
0.0013107489
 23
0.2165012847
 33
0.0
 40
0.0
 40
0.0
 40
0.0
 40
0.0
 40
0.2988002074
 40
1.0
 40
1.0
 40
1.0
 40
1.0
 10
10.3598228854
 20
-23.8443359174
 30
0.0
 10
10.3598228775
 20
-23.8227719793
 30
0.0
 10
10.3598662022
 20
-23.7506036583
 30
0.0
 10
10.3599528961
 20
-23.6784347683
 30
0.0
 10
10.3602592617
 20
-23.6278312164
 30
0.0
 11
10.3598228854
 21
-23.8443359174
 31
0.0
 11
10.3598526404
 21
-23.7796441099
 31
0.0
 11
10.3602592617
 21
-23.6278312164
 31
0.0
  0
LINE
  5
439
100
AcDbEntity
  8
0
100
AcDbLine
 62
7
  6
CONTINUOUS
 10
-8.7631293807
 20
-23.8443375673
 11
-8.5466230298
 21
-23.6278312164
  0
SPLINE
  5
43A
100
AcDbEntity
  8
0
100
AcDbSpline
 62
253
  6
CONTINUOUS
 70
0
 71
3
 72
18
 73
14
 74
12
 42
0.0000001
 43
0.0000001
 44
0.0000000001
 12
-0.2727050518
 22
1.1145131131
 32
0.0
 13
-0.0022672771
 23
1.1473893776
 33
0.0
 40
0.0
 40
0.0
 40
0.0
 40
0.0
 40
0.0095615452
 40
0.0278628161
 40
0.054787677
 40
0.0901064155
 40
0.1335285593
 40
0.184694872
 40
0.3084560765
 40
0.457229314
 40
0.6259613415
 40
0.8089850935
 40
1.0
 40
1.0
 40
1.0
 40
1.0
 10
-10.4128373364
 20
-22.0243894429
 30
0.0
 10
-10.4137064969
 20
-22.020837287
 30
0.0
 10
-10.4145250942
 20
-22.0101493918
 30
0.0
 10
-10.415998042
 20
-21.9892902833
 30
0.0
 10
-10.4172430498
 20
-21.9584853892
 30
0.0
 10
-10.4186036881
 20
-21.9181043617
 30
0.0
 10
-10.419887643
 20
-21.8684322358
 30
0.0
 10
-10.4216755559
 20
-21.784941951
 30
0.0
 10
-10.4236382377
 20
-21.6611518486
 30
0.0
 10
-10.4255862807
 20
-21.4923947406
 30
0.0
 10
-10.4271580557
 20
-21.3009664745
 30
0.0
 10
-10.4283055454
 20
-21.0933793157
 30
0.0
 10
-10.4287542205
 20
-20.9503235765
 30
0.0
 10
-10.4288985818
 20
-20.8772674183
 30
0.0
 11
-10.4128373364
 21
-22.0243894429
 31
0.0
 11
-10.4142601386
 21
-22.0135112586
 31
0.0
 11
-10.415681571
 21
-21.9925606983
 31
0.0
 11
-10.417083248
 21
-21.9616991531
 31
0.0
 11
-10.418451924
 21
-21.921197848
 31
0.0
 11
-10.4197773086
 21
-21.8713932765
 31
0.0
 11
-10.4210493233
 21
-21.81269926
 31
0.0
 11
-10.4233939297
 21
-21.6707160487
 31
0.0
 11
-10.4254093277
 21
-21.5000267809
 31
0.0
 11
-10.4270301262
 21
-21.3064318515
 31
0.0
 11
-10.4282067432
 21
-21.0964352289
 31
0.0
 11
-10.4288985818
 21
-20.8772674183
 31
0.0
  0
SPLINE
  5
43B
100
AcDbEntity
  8
0
100
AcDbSpline
 62
253
  6
CONTINUOUS
 70
0
 71
3
 72
18
 73
14
 74
12
 42
0.0000001
 43
0.0000001
 44
0.0000000001
 12
-0.0022672758
 22
-1.1473893775
 32
0.0
 13
-0.2727050083
 23
-1.1145131235
 33
0.0
 40
0.0
 40
0.0
 40
0.0
 40
0.0
 40
0.1910149067
 40
0.3740386588
 40
0.5427706864
 40
0.6915439239
 40
0.8153051282
 40
0.8664714409
 40
0.9098935846
 40
0.9452123231
 40
0.9721371839
 40
0.9904384548
 40
1.0
 40
1.0
 40
1.0
 40
1.0
 10
10.4288985818
 20
-20.8772674172
 30
0.0
 10
10.4287542206
 20
-20.9503235755
 30
0.0
 10
10.4283055437
 20
-21.0933793149
 30
0.0
 10
10.4271580541
 20
-21.3009664737
 30
0.0
 10
10.4255862797
 20
-21.4923947398
 30
0.0
 10
10.4236382366
 20
-21.6611518478
 30
0.0
 10
10.4216755549
 20
-21.78494195
 30
0.0
 10
10.4198876423
 20
-21.8684322348
 30
0.0
 10
10.4186036874
 20
-21.9181043606
 30
0.0
 10
10.4172430491
 20
-21.9584853881
 30
0.0
 10
10.4159980412
 20
-21.989290282
 30
0.0
 10
10.4145250935
 20
-22.0101493906
 30
0.0
 10
10.4137064962
 20
-22.0208372857
 30
0.0
 10
10.4128373357
 20
-22.0243894416
 30
0.0
 11
10.4288985818
 21
-20.8772674172
 31
0.0
 11
10.4282067419
 21
-21.0964352281
 31
0.0
 11
10.4270301247
 21
-21.3064318508
 31
0.0
 11
10.4254093266
 21
-21.5000267802
 31
0.0
 11
10.4233939286
 21
-21.6707160479
 31
0.0
 11
10.4210493224
 21
-21.8126992591
 31
0.0
 11
10.4197773078
 21
-21.8713932755
 31
0.0
 11
10.4184519233
 21
-21.9211978469
 31
0.0
 11
10.4170832472
 21
-21.961699152
 31
0.0
 11
10.4156815702
 21
-21.9925606971
 31
0.0
 11
10.4142601379
 21
-22.0135112572
 31
0.0
 11
10.4128373357
 21
-22.0243894416
 31
0.0
  0
SPLINE
  5
43C
100
AcDbEntity
  8
0
100
AcDbSpline
 62
253
  6
CONTINUOUS
 70
0
 71
3
 72
18
 73
14
 74
12
 42
0.0000001
 43
0.0000001
 44
0.0000000001
 12
0.0022672757
 22
1.1473893806
 32
0.0
 13
0.2727050096
 23
1.1145131265
 33
0.0
 40
0.0
 40
0.0
 40
0.0
 40
0.0
 40
0.1910149066
 40
0.3740386587
 40
0.5427706862
 40
0.6915439237
 40
0.8153051281
 40
0.8664714408
 40
0.9098935846
 40
0.9452123231
 40
0.9721371839
 40
0.9904384548
 40
1.0
 40
1.0
 40
1.0
 40
1.0
 10
-10.4288985817
 20
20.8772674141
 30
0.0
 10
-10.4287542206
 20
20.9503235725
 30
0.0
 10
-10.4283055437
 20
21.0933793122
 30
0.0
 10
-10.4271580542
 20
21.3009664716
 30
0.0
 10
-10.4255862797
 20
21.4923947382
 30
0.0
 10
-10.4236382366
 20
21.6611518467
 30
0.0
 10
-10.4216755549
 20
21.7849419493
 30
0.0
 10
-10.4198876423
 20
21.8684322343
 30
0.0
 10
-10.4186036874
 20
21.9181043603
 30
0.0
 10
-10.4172430491
 20
21.9584853879
 30
0.0
 10
-10.4159980412
 20
21.9892902819
 30
0.0
 10
-10.4145250935
 20
22.0101493905
 30
0.0
 10
-10.4137064962
 20
22.0208372857
 30
0.0
 10
-10.4128373357
 20
22.0243894416
 30
0.0
 11
-10.4288985817
 21
20.8772674141
 31
0.0
 11
-10.4282067419
 21
21.0964352254
 31
0.0
 11
-10.4270301247
 21
21.3064318486
 31
0.0
 11
-10.4254093266
 21
21.5000267786
 31
0.0
 11
-10.4233939287
 21
21.6707160468
 31
0.0
 11
-10.4210493225
 21
21.8126992584
 31
0.0
 11
-10.4197773078
 21
21.871393275
 31
0.0
 11
-10.4184519234
 21
21.9211978466
 31
0.0
 11
-10.4170832473
 21
21.9616991518
 31
0.0
 11
-10.4156815702
 21
21.992560697
 31
0.0
 11
-10.4142601379
 21
22.0135112572
 31
0.0
 11
-10.4128373357
 21
22.0243894416
 31
0.0
  0
SPLINE
  5
43D
100
AcDbEntity
  8
0
100
AcDbSpline
 62
253
  6
CONTINUOUS
 70
0
 71
3
 72
18
 73
14
 74
12
 42
0.0000001
 43
0.0000001
 44
0.0000000001
 12
0.2727050513
 22
-1.1145131164
 32
0.0
 13
0.0022672769
 23
-1.1473893808
 33
0.0
 40
0.0
 40
0.0
 40
0.0
 40
0.0
 40
0.0095615452
 40
0.0278628161
 40
0.054787677
 40
0.0901064156
 40
0.1335285593
 40
0.1846948721
 40
0.3084560766
 40
0.4572293142
 40
0.6259613417
 40
0.8089850936
 40
1.0
 40
1.0
 40
1.0
 40
1.0
 10
10.4128373364
 20
22.0243894429
 30
0.0
 10
10.4137064969
 20
22.020837287
 30
0.0
 10
10.4145250942
 20
22.0101493918
 30
0.0
 10
10.415998042
 20
21.9892902832
 30
0.0
 10
10.4172430498
 20
21.958485389
 30
0.0
 10
10.4186036881
 20
21.9181043613
 30
0.0
 10
10.419887643
 20
21.8684322353
 30
0.0
 10
10.4216755559
 20
21.7849419502
 30
0.0
 10
10.4236382376
 20
21.6611518475
 30
0.0
 10
10.4255862807
 20
21.4923947389
 30
0.0
 10
10.4271580556
 20
21.3009664723
 30
0.0
 10
10.4283055453
 20
21.0933793131
 30
0.0
 10
10.4287542205
 20
20.9503235735
 30
0.0
 10
10.4288985817
 20
20.8772674151
 30
0.0
 11
10.4128373364
 21
22.0243894429
 31
0.0
 11
10.4142601386
 21
22.0135112586
 31
0.0
 11
10.415681571
 21
21.9925606982
 31
0.0
 11
10.417083248
 21
21.9616991529
 31
0.0
 11
10.418451924
 21
21.9211978477
 31
0.0
 11
10.4197773086
 21
21.871393276
 31
0.0
 11
10.4210493233
 21
21.8126992593
 31
0.0
 11
10.4233939297
 21
21.6707160476
 31
0.0
 11
10.4254093277
 21
21.5000267793
 31
0.0
 11
10.4270301261
 21
21.3064318494
 31
0.0
 11
10.4282067431
 21
21.0964352262
 31
0.0
 11
10.4288985817
 21
20.8772674151
 31
0.0
  0
SPLINE
  5
43E
100
AcDbEntity
  8
0
100
AcDbSpline
 62
253
  6
CONTINUOUS
 70
0
 71
3
 72
18
 73
14
 74
12
 42
0.0000001
 43
0.0000001
 44
0.0000000001
 12
0.2428766571
 22
0.3997365241
 32
0.0
 13
0.4677337168
 23
0.0018786729
 33
0.0
 40
0.0
 40
0.0
 40
0.0
 40
0.0
 40
0.0083067707
 40
0.0250304712
 40
0.0504440753
 40
0.0844758323
 40
0.1268511227
 40
0.1772112865
 40
0.3002621425
 40
0.449404043
 40
0.6196662501
 40
0.8054813009
 40
1.0
 40
1.0
 40
1.0
 40
1.0
 10
-10.8952394836
 20
20.8558253568
 30
0.0
 10
-10.8945669767
 20
20.8569321967
 30
0.0
 10
-10.8904690459
 20
20.8583302222
 30
0.0
 10
-10.8831375767
 20
20.860184565
 30
0.0
 10
-10.8712292347
 20
20.8619782344
 30
0.0
 10
-10.8555265481
 20
20.8638137759
 30
0.0
 10
-10.8358145067
 20
20.865582919
 30
0.0
 10
-10.8022698415
 20
20.8680252064
 30
0.0
 10
-10.7520382296
 20
20.8706728847
 30
0.0
 10
-10.6831038551
 20
20.873254958
 30
0.0
 10
-10.6043572846
 20
20.8752792226
 30
0.0
 10
-10.5185231377
 20
20.8766735107
 30
0.0
 10
-10.4592253823
 20
20.8771451559
 30
0.0
 10
-10.4288977309
 20
20.8772669682
 30
0.0
 11
-10.8952394836
 21
20.8558253568
 31
0.0
 11
-10.8918977126
 21
20.8578074787
 31
0.0
 11
-10.8843275276
 21
20.8597774287
 31
0.0
 11
-10.8725996579
 21
20.8617153025
 31
0.0
 11
-10.8567938952
 21
20.8636016526
 31
0.0
 11
-10.8370570053
 21
20.8654204077
 31
0.0
 11
-10.8135657709
 21
20.8671570094
 31
0.0
 11
-10.7560976205
 21
20.8703267267
 31
0.0
 11
-10.6863897691
 21
20.8730043271
 31
0.0
 11
-10.6067792481
 21
20.8750968736
 31
0.0
 11
-10.5198784678
 21
20.8765341586
 31
0.0
 11
-10.4288977309
 21
20.8772669682
 31
0.0
  0
SPLINE
  5
43F
100
AcDbEntity
  8
0
100
AcDbSpline
 62
253
  6
CONTINUOUS
 70
0
 71
3
 72
18
 73
14
 74
12
 42
0.0000001
 43
0.0000001
 44
0.0000000001
 12
0.2427608349
 22
-0.3998061115
 32
0.0
 13
0.4677330651
 23
-0.0018787182
 33
0.0
 40
0.0
 40
0.0
 40
0.0
 40
0.0
 40
0.0083054546
 40
0.0250277847
 40
0.0504401409
 40
0.0844708176
 40
0.1268452235
 40
0.1772047211
 40
0.3002549777
 40
0.4493973171
 40
0.6196609898
 40
0.8054783856
 40
1.0
 40
1.0
 40
1.0
 40
1.0
 10
-10.895239484
 20
-20.855825359
 30
0.0
 10
-10.8945674043
 20
-20.8569322162
 30
0.0
 10
-10.8904696933
 20
-20.8583303524
 30
0.0
 10
-10.8831390626
 20
-20.8601846432
 30
0.0
 10
-10.8712312182
 20
-20.8619783654
 30
0.0
 10
-10.8555291071
 20
-20.8638139283
 30
0.0
 10
-10.8358174912
 20
-20.865583113
 30
0.0
 10
-10.8022732216
 20
-20.8680254635
 30
0.0
 10
-10.7520418073
 20
-20.8706732153
 30
0.0
 10
-10.6831073303
 20
-20.873255366
 30
0.0
 10
-10.6043602078
 20
-20.8752796991
 30
0.0
 10
-10.5185251326
 20
-20.8766740377
 30
0.0
 10
-10.4592266397
 20
-20.8771457005
 30
0.0
 10
-10.428898576
 20
-20.8772675176
 30
0.0
 11
-10.895239484
 21
-20.855825359
 31
0.0
 11
-10.8918984533
 21
-20.8578075116
 31
0.0
 11
-10.8843289507
 21
-20.8597774954
 31
0.0
 11
-10.8726016954
 21
-20.8617154057
 31
0.0
 11
-10.8567964686
 21
-20.8636017948
 31
0.0
 11
-10.8370600256
 21
-20.8654205908
 31
0.0
 11
-10.8135691397
 21
-20.8671572349
 31
0.0
 11
-10.7561013552
 21
-20.8703270384
 31
0.0
 11
-10.6863933988
 21
-20.8730047219
 31
0.0
 11
-10.6067823049
 21
-20.8750973408
 31
0.0
 11
-10.5198805495
 21
-20.8765346794
 31
0.0
 11
-10.428898576
 21
-20.8772675176
 31
0.0
  0
SPLINE
  5
440
100
AcDbEntity
  8
0
100
AcDbSpline
 62
253
  6
CONTINUOUS
 70
0
 71
3
 72
18
 73
14
 74
12
 42
0.0000001
 43
0.0000001
 44
0.0000000001
 12
-0.2428766561
 22
-0.3997365248
 32
0.0
 13
-0.4677337169
 23
-0.0018786729
 33
0.0
 40
0.0
 40
0.0
 40
0.0
 40
0.0
 40
0.0083067707
 40
0.0250304711
 40
0.0504440753
 40
0.0844758323
 40
0.1268511227
 40
0.1772112864
 40
0.3002621424
 40
0.449404043
 40
0.6196662501
 40
0.8054813008
 40
1.0
 40
1.0
 40
1.0
 40
1.0
 10
10.8952394836
 20
-20.8558253568
 30
0.0
 10
10.8945669767
 20
-20.8569321967
 30
0.0
 10
10.8904690459
 20
-20.8583302222
 30
0.0
 10
10.8831375767
 20
-20.860184565
 30
0.0
 10
10.8712292347
 20
-20.8619782344
 30
0.0
 10
10.8555265482
 20
-20.8638137759
 30
0.0
 10
10.8358145067
 20
-20.865582919
 30
0.0
 10
10.8022698415
 20
-20.8680252064
 30
0.0
 10
10.7520382296
 20
-20.8706728847
 30
0.0
 10
10.6831038551
 20
-20.873254958
 30
0.0
 10
10.6043572847
 20
-20.8752792226
 30
0.0
 10
10.5185231377
 20
-20.8766735107
 30
0.0
 10
10.4592253823
 20
-20.8771451559
 30
0.0
 10
10.4288977309
 20
-20.8772669682
 30
0.0
 11
10.8952394836
 21
-20.8558253568
 31
0.0
 11
10.8918977126
 21
-20.8578074787
 31
0.0
 11
10.8843275276
 21
-20.8597774286
 31
0.0
 11
10.8725996579
 21
-20.8617153025
 31
0.0
 11
10.8567938952
 21
-20.8636016526
 31
0.0
 11
10.8370570053
 21
-20.8654204077
 31
0.0
 11
10.8135657709
 21
-20.8671570094
 31
0.0
 11
10.7560976206
 21
-20.8703267267
 31
0.0
 11
10.6863897691
 21
-20.8730043271
 31
0.0
 11
10.6067792481
 21
-20.8750968736
 31
0.0
 11
10.5198784678
 21
-20.8765341586
 31
0.0
 11
10.4288977309
 21
-20.8772669682
 31
0.0
  0
SPLINE
  5
441
100
AcDbEntity
  8
0
100
AcDbSpline
 62
253
  6
CONTINUOUS
 70
0
 71
3
 72
18
 73
14
 74
12
 42
0.0000001
 43
0.0000001
 44
0.0000000001
 12
-0.242760945
 22
0.3998060451
 32
0.0
 13
-0.4677330655
 23
0.0018787179
 33
0.0
 40
0.0
 40
0.0
 40
0.0
 40
0.0
 40
0.0083054559
 40
0.0250277872
 40
0.0504401445
 40
0.084470822
 40
0.1268452286
 40
0.1772047265
 40
0.3002549833
 40
0.4493973222
 40
0.6196609936
 40
0.8054783876
 40
1.0
 40
1.0
 40
1.0
 40
1.0
 10
10.895239484
 20
20.855825359
 30
0.0
 10
10.8945674039
 20
20.8569322161
 30
0.0
 10
10.8904696927
 20
20.8583303523
 30
0.0
 10
10.8831390612
 20
20.8601846432
 30
0.0
 10
10.8712312165
 20
20.8619783653
 30
0.0
 10
10.8555291049
 20
20.8638139283
 30
0.0
 10
10.8358174887
 20
20.8655831129
 30
0.0
 10
10.8022732188
 20
20.8680254634
 30
0.0
 10
10.7520418045
 20
20.8706732152
 30
0.0
 10
10.6831073277
 20
20.8732553658
 30
0.0
 10
10.6043602057
 20
20.8752796988
 30
0.0
 10
10.5185251312
 20
20.8766740374
 30
0.0
 10
10.4592266388
 20
20.8771457001
 30
0.0
 10
10.4288985755
 20
20.8772675172
 30
0.0
 11
10.895239484
 21
20.855825359
 31
0.0
 11
10.8918984526
 21
20.8578075116
 31
0.0
 11
10.8843289494
 21
20.8597774954
 31
0.0
 11
10.8726016936
 21
20.8617154057
 31
0.0
 11
10.8567964664
 21
20.8636017948
 31
0.0
 11
10.8370600231
 21
20.8654205908
 31
0.0
 11
10.8135691369
 21
20.8671572348
 31
0.0
 11
10.7561013523
 21
20.8703270383
 31
0.0
 11
10.6863933961
 21
20.8730047217
 31
0.0
 11
10.6067823027
 21
20.8750973406
 31
0.0
 11
10.5198805481
 21
20.8765346791
 31
0.0
 11
10.4288985755
 21
20.8772675172
 31
0.0
  0
SPLINE
  5
442
100
AcDbEntity
  8
0
100
AcDbSpline
 62
253
  6
CONTINUOUS
 70
0
 71
3
 72
9
 73
5
 74
3
 42
0.0000001
 43
0.0000001
 44
0.0000000001
 12
-0.0000000798
 22
0.2165052525
 32
0.0
 13
0.0013107489
 23
0.2165012847
 33
0.0
 40
0.0
 40
0.0
 40
0.0
 40
0.0
 40
0.2988002074
 40
1.0
 40
1.0
 40
1.0
 40
1.0
 10
-7.4401771146
 20
-23.8443359174
 30
0.0
 10
-7.4401771225
 20
-23.8227719793
 30
0.0
 10
-7.4401337978
 20
-23.7506036583
 30
0.0
 10
-7.4400471039
 20
-23.6784347683
 30
0.0
 10
-7.4397407383
 20
-23.6278312164
 30
0.0
 11
-7.4401771146
 21
-23.8443359174
 31
0.0
 11
-7.4401473596
 21
-23.7796441099
 31
0.0
 11
-7.4397407383
 21
-23.6278312164
 31
0.0
  0
SPLINE
  5
443
100
AcDbEntity
  8
0
100
AcDbSpline
 62
253
  6
CONTINUOUS
 70
0
 71
3
 72
9
 73
5
 74
3
 42
0.0000001
 43
0.0000001
 44
0.0000000001
 12
0.0000001007
 22
-0.0433040262
 32
0.0
 13
0.0013110356
 23
-0.0432841757
 33
0.0
 40
0.0
 40
0.0
 40
0.0
 40
0.0
 40
0.2986840764
 40
1.0
 40
1.0
 40
1.0
 40
1.0
 10
10.5597924241
 20
23.8443375673
 30
0.0
 10
10.5597924341
 20
23.8400261596
 30
0.0
 10
10.5598358786
 20
23.8255919674
 30
0.0
 10
10.5599223173
 20
23.8111549243
 30
0.0
 10
10.5602288007
 20
23.8010362971
 30
0.0
 11
10.5597924241
 21
23.8443375673
 31
0.0
 11
10.5598222221
 21
23.8314033786
 31
0.0
 11
10.5602288007
 21
23.8010362971
 31
0.0
  0
SPLINE
  5
444
100
AcDbEntity
  8
0
100
AcDbSpline
 62
253
  6
CONTINUOUS
 70
0
 71
3
 72
14
 73
10
 74
8
 42
0.0000001
 43
0.0000001
 44
0.0000000001
 12
-0.0353766991
 22
-0.0353543411
 32
0.0
 13
0.0000000128
 23
-0.0500144006
 33
0.0
 40
0.0
 40
0.0
 40
0.0
 40
0.0
 40
0.0223938169
 40
0.081343507
 40
0.1747762356
 40
0.2992083366
 40
0.4499726905
 40
0.6214130518
 40
1.0
 40
1.0
 40
1.0
 40
1.0
 10
10.5606499457
 20
24.2606804067
 30
0.0
 10
10.5603858726
 20
24.2604165004
 30
0.0
 10
10.5606216722
 20
24.2588417086
 30
0.0
 10
10.560170184
 20
24.2561285164
 30
0.0
 10
10.5602013375
 20
24.251410359
 30
0.0
 10
10.5600094952
 20
24.2453093253
 30
0.0
 10
10.5599322062
 20
24.2378484074
 30
0.0
 10
10.5598169586
 20
24.2261721156
 30
0.0
 10
10.5597924225
 20
24.2169996217
 30
0.0
 10
10.5597924241
 20
24.2106880219
 30
0.0
 11
10.5606499457
 21
24.2606804067
 31
0.0
 11
10.5604819067
 21
24.2595730708
 31
0.0
 11
10.5603207388
 21
24.2566291457
 31
0.0
 11
10.5601724864
 21
24.2519585161
 31
0.0
 11
10.5600427434
 21
24.2457364717
 31
0.0
 11
10.5599363903
 21
24.2381968329
 31
0.0
 11
10.5598574287
 21
24.2296227096
 31
0.0
 11
10.5597924241
 21
24.2106880219
 31
0.0
  0
SPLINE
  5
445
100
AcDbEntity
  8
0
100
AcDbSpline
 62
253
  6
CONTINUOUS
 70
0
 71
3
 72
14
 73
10
 74
8
 42
0.0000001
 43
0.0000001
 44
0.0000000001
 12
-0.0353890363
 22
0.0353419927
 32
0.0
 13
0.0000000042
 23
0.0500144013
 33
0.0
 40
0.0
 40
0.0
 40
0.0
 40
0.0
 40
0.0223894862
 40
0.0813317476
 40
0.1747573579
 40
0.2991859872
 40
0.4499515839
 40
0.6213967272
 40
1.0
 40
1.0
 40
1.0
 40
1.0
 10
10.5606499457
 20
-24.2606804067
 30
0.0
 10
10.5603858316
 20
-24.2604166436
 30
0.0
 10
10.5606217648
 20
-24.2588418797
 30
0.0
 10
10.5601701519
 20
-24.2561291622
 30
0.0
 10
10.5602013848
 20
-24.2514112136
 30
0.0
 10
10.560009501
 20
-24.2453103762
 30
0.0
 10
10.5599322209
 20
-24.2378494005
 30
0.0
 10
10.5598169581
 20
-24.2261727427
 30
0.0
 10
10.5597924236
 20
-24.2169998939
 30
0.0
 10
10.5597924241
 20
-24.2106880219
 30
0.0
 11
10.5606499457
 21
-24.2606804067
 31
0.0
 11
10.5604819223
 21
-24.2595732875
 31
0.0
 11
10.5603207614
 21
-24.2566297341
 31
0.0
 11
10.56017251
 21
-24.2519594605
 31
0.0
 11
10.5600427623
 21
-24.2457375898
 31
0.0
 11
10.5599364026
 21
-24.2381978889
 31
0.0
 11
10.5598574347
 21
-24.2296235263
 31
0.0
 11
10.5597924241
 21
-24.2106880219
 31
0.0
  0
SPLINE
  5
446
100
AcDbEntity
  8
0
100
AcDbSpline
 62
253
  6
CONTINUOUS
 70
0
 71
3
 72
9
 73
5
 74
3
 42
0.0000001
 43
0.0000001
 44
0.0000000001
 12
-0.0000000101
 22
0.0433040274
 32
0.0
 13
0.0013086635
 23
0.0432842487
 33
0.0
 40
0.0
 40
0.0
 40
0.0
 40
0.0
 40
0.2987936565
 40
1.0
 40
1.0
 40
1.0
 40
1.0
 10
10.5597924241
 20
-23.8443375673
 30
0.0
 10
10.5597924231
 20
-23.8400245777
 30
0.0
 10
10.5598355707
 20
-23.825590381
 30
0.0
 10
10.5599229197
 20
-23.8111533604
 30
0.0
 10
10.5602288007
 20
-23.8010362971
 30
0.0
 11
10.5597924241
 21
-23.8443375673
 31
0.0
 11
10.5598221538
 21
-23.8313986328
 31
0.0
 11
10.5602288007
 21
-23.8010362971
 31
0.0
  0
SPLINE
  5
447
100
AcDbEntity
  8
0
100
AcDbSpline
 62
253
  6
CONTINUOUS
 70
0
 71
3
 72
11
 73
7
 74
5
 42
0.0000001
 43
0.0000001
 44
0.0000000001
 12
-0.290824418
 22
-0.0021981279
 32
0.0
 13
-0.0029298796
 23
-0.2908179665
 33
0.0
 40
0.0
 40
0.0
 40
0.0
 40
0.0
 40
0.2659011537
 40
0.5231711216
 40
0.7669316808
 40
1.0
 40
1.0
 40
1.0
 40
1.0
 10
-10.3602592617
 20
-23.6278312164
 30
0.0
 10
-10.3860361111
 20
-23.6280260446
 30
0.0
 10
-10.43712135
 20
-23.6369744366
 30
0.0
 10
-10.5030412857
 20
-23.6746347866
 30
0.0
 10
-10.5485995191
 20
-23.7317691277
 30
0.0
 10
-10.56000118
 20
-23.7784428122
 30
0.0
 10
-10.5602288007
 20
-23.8010362971
 30
0.0
 11
-10.3602592617
 21
-23.6278312164
 31
0.0
 11
-10.4363839665
 21
-23.6414468189
 31
0.0
 11
-10.5010461461
 21
-23.6790927071
 31
0.0
 11
-10.5445092521
 21
-23.7351003272
 31
0.0
 11
-10.5602288007
 21
-23.8010362971
 31
0.0
  0
SPLINE
  5
448
100
AcDbEntity
  8
0
100
AcDbSpline
 62
7
  6
CONTINUOUS
 70
0
 71
3
 72
12
 73
8
 74
6
 42
0.0000001
 43
0.0000001
 44
0.0000000001
 12
0.0092279883
 22
0.2408431399
 32
0.0
 13
0.2395313719
 23
-0.0267450115
 33
0.0
 40
0.0
 40
0.0
 40
0.0
 40
0.0
 40
0.1616128294
 40
0.2604077624
 40
0.3752282587
 40
0.6572300194
 40
1.0
 40
1.0
 40
1.0
 40
1.0
 10
-10.5781050106
 20
-23.2097560788
 30
0.0
 10
-10.5776078902
 20
-23.1967816317
 30
0.0
 10
-10.5681158726
 20
-23.1761495846
 30
0.0
 10
-10.5460303979
 20
-23.1555548802
 30
0.0
 10
-10.5118238086
 20
-23.1346172361
 30
0.0
 10
-10.4538062759
 20
-23.1179167719
 30
0.0
 10
-10.4029798825
 20
-23.1169681865
 30
0.0
 10
-10.3756118279
 20
-23.1200239821
 30
0.0
 11
-10.5781050106
 21
-23.2097560788
 31
0.0
 11
-10.5635785992
 21
-23.173614219
 31
0.0
 11
-10.5465094436
 21
-23.1570120079
 31
0.0
 11
-10.5230491523
 21
-23.1423332433
 31
0.0
 11
-10.4582032806
 21
-23.1219699089
 31
0.0
 11
-10.3756118279
 21
-23.1200239821
 31
0.0
  0
SPLINE
  5
449
100
AcDbEntity
  8
0
100
AcDbSpline
 62
253
  6
CONTINUOUS
 70
0
 71
3
 72
14
 73
10
 74
8
 42
0.0000001
 43
0.0000001
 44
0.0000000001
 12
0.0353708696
 22
-0.0353601741
 32
0.0
 13
-0.0000000167
 23
-0.0500144012
 33
0.0
 40
0.0
 40
0.0
 40
0.0
 40
0.0
 40
0.0223888774
 40
0.0813291623
 40
0.1747527001
 40
0.2991804371
 40
0.4499462781
 40
0.6213924665
 40
1.0
 40
1.0
 40
1.0
 40
1.0
 10
7.2393500543
 20
24.2606804067
 30
0.0
 10
7.2396140257
 20
24.2604165151
 30
0.0
 10
7.2393784057
 20
24.258842107
 30
0.0
 10
7.2398297402
 20
24.2561291905
 30
0.0
 10
7.2397986534
 20
24.2514114703
 30
0.0
 10
7.2399904795
 20
24.2453106189
 30
0.0
 10
7.2400677821
 20
24.2378496576
 30
0.0
 10
7.2401830383
 20
24.2261728985
 30
0.0
 10
7.240207578
 20
24.2169999649
 30
0.0
 10
7.2402075759
 20
24.2106880219
 30
0.0
 11
7.2393500543
 21
24.2606804067
 31
0.0
 11
7.2395180735
 21
24.2595733176
 31
0.0
 11
7.2396792327
 21
24.2566298631
 31
0.0
 11
7.2398274841
 21
24.2519596933
 31
0.0
 11
7.2399572333
 21
24.2457378673
 31
0.0
 11
7.240063595
 21
24.2381981542
 31
0.0
 11
7.2401425644
 21
24.2296237394
 31
0.0
 11
7.2402075759
 21
24.2106880219
 31
0.0
  0
SPLINE
  5
44A
100
AcDbEntity
  8
0
100
AcDbSpline
 62
253
  6
CONTINUOUS
 70
0
 71
3
 72
9
 73
5
 74
3
 42
0.0000001
 43
0.0000001
 44
0.0000000001
 12
0.0000000129
 22
-0.0433040273
 32
0.0
 13
-0.0013086547
 23
-0.043284249
 33
0.0
 40
0.0
 40
0.0
 40
0.0
 40
0.0
 40
0.29878921
 40
1.0
 40
1.0
 40
1.0
 40
1.0
 10
7.2402075759
 20
23.8443375673
 30
0.0
 10
7.2402075772
 20
23.8400246419
 30
0.0
 10
7.2401644286
 20
23.8255904452
 30
0.0
 10
7.2400770802
 20
23.8111534246
 30
0.0
 10
7.2397711993
 20
23.8010362971
 30
0.0
 11
7.2402075759
 21
23.8443375673
 31
0.0
 11
7.2401778466
 21
23.8313988253
 31
0.0
 11
7.2397711993
 21
23.8010362971
 31
0.0
  0
SPLINE
  5
44B
100
AcDbEntity
  8
0
100
AcDbSpline
 62
253
  6
CONTINUOUS
 70
0
 71
3
 72
9
 73
5
 74
3
 42
0.0000001
 43
0.0000001
 44
0.0000000001
 12
0.0013086734
 22
-0.0432844709
 32
0.0
 13
-0.0000000099
 23
-0.0433042498
 33
0.0
 40
0.0
 40
0.0
 40
0.0
 40
0.0
 40
0.183482616
 40
1.0
 40
1.0
 40
1.0
 40
1.0
 10
7.2397711993
 20
-23.8010362971
 30
0.0
 10
7.2398512389
 20
-23.8036836131
 30
0.0
 10
7.2401471777
 20
-23.8181157399
 30
0.0
 10
7.2402075786
 20
-23.8325513431
 30
0.0
 10
7.2402075759
 20
-23.8443375673
 30
0.0
 11
7.2397711993
 21
-23.8010362971
 31
0.0
 11
7.2399519086
 21
-23.8089798189
 31
0.0
 11
7.2402075759
 21
-23.8443375673
 31
0.0
  0
SPLINE
  5
44C
100
AcDbEntity
  8
0
100
AcDbSpline
 62
253
  6
CONTINUOUS
 70
0
 71
3
 72
14
 73
10
 74
8
 42
0.0000001
 43
0.0000001
 44
0.0000000001
 12
0.0000000046
 22
-0.0500143989
 32
0.0
 13
-0.0353848633
 23
-0.0353461674
 33
0.0
 40
0.0
 40
0.0
 40
0.0
 40
0.0
 40
0.3784712214
 40
0.5499084536
 40
0.7006913151
 40
0.8251503658
 40
0.9186144536
 40
0.9775916124
 40
1.0
 40
1.0
 40
1.0
 40
1.0
 10
7.2402075759
 20
-24.2106880219
 30
0.0
 10
7.2402075765
 20
-24.2169976921
 30
0.0
 10
7.2401830543
 20
-24.2261682045
 30
0.0
 10
7.2400678523
 20
-24.2378428211
 30
0.0
 10
7.2399905979
 20
-24.2453044543
 30
0.0
 10
7.2397987146
 20
-24.2514067356
 30
0.0
 10
7.2398300098
 20
-24.2561264203
 30
0.0
 10
7.2393781803
 20
-24.2588406228
 30
0.0
 10
7.2396143602
 20
-24.2604163898
 30
0.0
 10
7.2393500543
 20
-24.2606804067
 30
0.0
 11
7.2402075759
 21
-24.2106880219
 31
0.0
 11
7.2401426116
 21
-24.2296169211
 31
0.0
 11
7.2400636774
 21
-24.2381908879
 31
0.0
 11
7.2399573434
 21
-24.2457314523
 31
0.0
 11
7.2398276094
 21
-24.2519548449
 31
0.0
 11
7.2396793508
 21
-24.2566270433
 31
0.0
 11
7.2395181508
 21
-24.2595723425
 31
0.0
 11
7.2393500543
 21
-24.2606804067
 31
0.0
  0
SPLINE
  5
44D
100
AcDbEntity
  8
0
100
AcDbSpline
 62
253
  6
CONTINUOUS
 70
0
 71
3
 72
11
 73
7
 74
5
 42
0.0000001
 43
0.0000001
 44
0.0000000001
 12
-0.290824418
 22
-0.0021981279
 32
0.0
 13
-0.0029298796
 23
-0.2908179665
 33
0.0
 40
0.0
 40
0.0
 40
0.0
 40
0.0
 40
0.2659011537
 40
0.5231711216
 40
0.7669316808
 40
1.0
 40
1.0
 40
1.0
 40
1.0
 10
7.4397407383
 20
-23.6278312164
 30
0.0
 10
7.4139638889
 20
-23.6280260446
 30
0.0
 10
7.36287865
 20
-23.6369744366
 30
0.0
 10
7.2969587143
 20
-23.6746347866
 30
0.0
 10
7.2514004809
 20
-23.7317691277
 30
0.0
 10
7.23999882
 20
-23.7784428122
 30
0.0
 10
7.2397711993
 20
-23.8010362971
 30
0.0
 11
7.4397407383
 21
-23.6278312164
 31
0.0
 11
7.3636160335
 21
-23.6414468189
 31
0.0
 11
7.2989538539
 21
-23.6790927071
 31
0.0
 11
7.2554907479
 21
-23.7351003272
 31
0.0
 11
7.2397711993
 21
-23.8010362971
 31
0.0
  0
SPLINE
  5
44E
100
AcDbEntity
  8
0
100
AcDbSpline
 62
7
  6
CONTINUOUS
 70
0
 71
3
 72
12
 73
8
 74
6
 42
0.0000001
 43
0.0000001
 44
0.0000000001
 12
0.0092279883
 22
0.240843142
 32
0.0
 13
0.2395313741
 23
-0.0267450118
 33
0.0
 40
0.0
 40
0.0
 40
0.0
 40
0.0
 40
0.1616125329
 40
0.2604072651
 40
0.3752276894
 40
0.6572297246
 40
1.0
 40
1.0
 40
1.0
 40
1.0
 10
7.2218949894
 20
-23.2097560788
 30
0.0
 10
7.2223921089
 20
-23.1967816554
 30
0.0
 10
7.2318840845
 20
-23.1761496414
 30
0.0
 10
7.2539695122
 20
-23.1555549509
 30
0.0
 10
7.2881760839
 20
-23.1346172782
 30
0.0
 10
7.3461936529
 20
-23.1179167767
 30
0.0
 10
7.3970200937
 20
-23.1169681838
 30
0.0
 10
7.4243881721
 20
-23.1200239821
 30
0.0
 11
7.2218949894
 21
-23.2097560788
 31
0.0
 11
7.2364213503
 21
-23.1736142754
 31
0.0
 11
7.2534904582
 21
-23.1570120843
 31
0.0
 11
7.2769507227
 21
-23.1423333093
 31
0.0
 11
7.3417966479
 21
-23.1219699222
 31
0.0
 11
7.4243881721
 21
-23.1200239821
 31
0.0
  0
SPLINE
  5
44F
100
AcDbEntity
  8
0
100
AcDbSpline
 62
253
  6
CONTINUOUS
 70
0
 71
3
 72
9
 73
5
 74
3
 42
0.0000001
 43
0.0000001
 44
0.0000000001
 12
-0.0013086622
 22
0.0432844713
 32
0.0
 13
0.0000000121
 23
0.0433042498
 33
0.0
 40
0.0
 40
0.0
 40
0.0
 40
0.0
 40
0.183485244
 40
1.0
 40
1.0
 40
1.0
 40
1.0
 10
-7.2397711993
 20
23.8010362971
 30
0.0
 10
-7.2398512394
 20
23.803683651
 30
0.0
 10
-7.2401471813
 20
23.8181157778
 30
0.0
 10
-7.2402075792
 20
23.832551381
 30
0.0
 10
-7.2402075759
 20
23.8443375673
 30
0.0
 11
-7.2397711993
 21
23.8010362971
 31
0.0
 11
-7.2399519113
 21
23.8089799327
 31
0.0
 11
-7.2402075759
 21
23.8443375673
 31
0.0
  0
SPLINE
  5
450
100
AcDbEntity
  8
0
100
AcDbSpline
 62
253
  6
CONTINUOUS
 70
0
 71
3
 72
14
 73
10
 74
8
 42
0.0000001
 43
0.0000001
 44
0.0000000001
 12
-0.0000000203
 22
0.0500143983
 32
0.0
 13
0.0353703802
 23
0.0353606595
 33
0.0
 40
0.0
 40
0.0
 40
0.0
 40
0.0
 40
0.3784780211
 40
0.5499153469
 40
0.7006964619
 40
0.8251532518
 40
0.9186155577
 40
0.9775909287
 40
1.0
 40
1.0
 40
1.0
 40
1.0
 10
-7.2402075759
 20
24.2106880219
 30
0.0
 10
-7.2402075785
 20
24.2169978054
 30
0.0
 10
-7.240183051
 20
24.2261684298
 30
0.0
 10
-7.2400678527
 20
24.237843139
 30
0.0
 10
-7.2399905813
 20
24.2453046899
 30
0.0
 10
-7.239798743
 20
24.2514069226
 30
0.0
 10
-7.2398299289
 20
24.256126393
 30
0.0
 10
-7.2393783081
 20
24.2588407675
 30
0.0
 10
-7.2396142601
 20
24.2604162735
 30
0.0
 10
-7.2393500543
 20
24.2606804067
 30
0.0
 11
-7.2402075759
 21
24.2106880219
 31
0.0
 11
-7.2401426094
 21
24.2296172609
 31
0.0
 11
-7.2400636735
 21
24.2381912323
 31
0.0
 11
-7.2399573386
 21
24.2457317093
 31
0.0
 11
-7.2398276049
 21
24.2519549887
 31
0.0
 11
-7.2396793471
 21
24.256627098
 31
0.0
 11
-7.2395181488
 21
24.2595723076
 31
0.0
 11
-7.2393500543
 21
24.2606804067
 31
0.0
  0
SPLINE
  5
451
100
AcDbEntity
  8
0
100
AcDbSpline
 62
7
  6
CONTINUOUS
 70
0
 71
3
 72
12
 73
8
 74
6
 42
0.0000001
 43
0.0000001
 44
0.0000000001
 12
0.2395313741
 22
0.0267450118
 32
0.0
 13
0.0092279883
 23
-0.240843142
 33
0.0
 40
0.0
 40
0.0
 40
0.0
 40
0.0
 40
0.3427702754
 40
0.6247723106
 40
0.7395927349
 40
0.8383874671
 40
1.0
 40
1.0
 40
1.0
 40
1.0
 10
-7.4243881721
 20
-23.1200239821
 30
0.0
 10
-7.3970200937
 20
-23.1169681838
 30
0.0
 10
-7.3461936529
 20
-23.1179167767
 30
0.0
 10
-7.2881760839
 20
-23.1346172782
 30
0.0
 10
-7.2539695122
 20
-23.1555549509
 30
0.0
 10
-7.2318840845
 20
-23.1761496414
 30
0.0
 10
-7.2223921089
 20
-23.1967816554
 30
0.0
 10
-7.2218949894
 20
-23.2097560788
 30
0.0
 11
-7.4243881721
 21
-23.1200239821
 31
0.0
 11
-7.3417966479
 21
-23.1219699222
 31
0.0
 11
-7.2769507227
 21
-23.1423333093
 31
0.0
 11
-7.2534904582
 21
-23.1570120843
 31
0.0
 11
-7.2364213503
 21
-23.1736142754
 31
0.0
 11
-7.2218949894
 21
-23.2097560788
 31
0.0
  0
SPLINE
  5
452
100
AcDbEntity
  8
0
100
AcDbSpline
 62
253
  6
CONTINUOUS
 70
0
 71
3
 72
14
 73
10
 74
8
 42
0.0000001
 43
0.0000001
 44
0.0000000001
 12
-0.0353890363
 22
0.0353419927
 32
0.0
 13
0.0000000042
 23
0.0500144013
 33
0.0
 40
0.0
 40
0.0
 40
0.0
 40
0.0
 40
0.0223894862
 40
0.0813317476
 40
0.1747573579
 40
0.2991859872
 40
0.4499515839
 40
0.6213967272
 40
1.0
 40
1.0
 40
1.0
 40
1.0
 10
-7.2393500543
 20
-24.2606804067
 30
0.0
 10
-7.2396141684
 20
-24.2604166436
 30
0.0
 10
-7.2393782352
 20
-24.2588418797
 30
0.0
 10
-7.2398298481
 20
-24.2561291622
 30
0.0
 10
-7.2397986152
 20
-24.2514112136
 30
0.0
 10
-7.239990499
 20
-24.2453103762
 30
0.0
 10
-7.2400677791
 20
-24.2378494005
 30
0.0
 10
-7.2401830419
 20
-24.2261727427
 30
0.0
 10
-7.2402075764
 20
-24.2169998939
 30
0.0
 10
-7.2402075759
 20
-24.2106880219
 30
0.0
 11
-7.2393500543
 21
-24.2606804067
 31
0.0
 11
-7.2395180777
 21
-24.2595732875
 31
0.0
 11
-7.2396792386
 21
-24.2566297341
 31
0.0
 11
-7.23982749
 21
-24.2519594605
 31
0.0
 11
-7.2399572377
 21
-24.2457375898
 31
0.0
 11
-7.2400635974
 21
-24.2381978889
 31
0.0
 11
-7.2401425653
 21
-24.2296235263
 31
0.0
 11
-7.2402075759
 21
-24.2106880219
 31
0.0
  0
SPLINE
  5
453
100
AcDbEntity
  8
0
100
AcDbSpline
 62
253
  6
CONTINUOUS
 70
0
 71
3
 72
9
 73
5
 74
3
 42
0.0000001
 43
0.0000001
 44
0.0000000001
 12
-0.0000000101
 22
0.0433040274
 32
0.0
 13
0.0013086635
 23
0.0432842487
 33
0.0
 40
0.0
 40
0.0
 40
0.0
 40
0.0
 40
0.2987936565
 40
1.0
 40
1.0
 40
1.0
 40
1.0
 10
-7.2402075759
 20
-23.8443375673
 30
0.0
 10
-7.2402075769
 20
-23.8400245777
 30
0.0
 10
-7.2401644293
 20
-23.825590381
 30
0.0
 10
-7.2400770803
 20
-23.8111533604
 30
0.0
 10
-7.2397711993
 20
-23.8010362971
 30
0.0
 11
-7.2402075759
 21
-23.8443375673
 31
0.0
 11
-7.2401778462
 21
-23.8313986328
 31
0.0
 11
-7.2397711993
 21
-23.8010362971
 31
0.0
  0
SPLINE
  5
454
100
AcDbEntity
  8
0
100
AcDbSpline
 62
253
  6
CONTINUOUS
 70
0
 71
3
 72
11
 73
7
 74
5
 42
0.0000001
 43
0.0000001
 44
0.0000000001
 12
0.290824418
 22
-0.002198128
 32
0.0
 13
0.0029298796
 23
-0.2908179665
 33
0.0
 40
0.0
 40
0.0
 40
0.0
 40
0.0
 40
0.2659011522
 40
0.5231711191
 40
0.7669316794
 40
1.0
 40
1.0
 40
1.0
 40
1.0
 10
-7.4397407383
 20
-23.6278312164
 30
0.0
 10
-7.413963889
 20
-23.6280260446
 30
0.0
 10
-7.3628786504
 20
-23.6369744365
 30
0.0
 10
-7.2969587147
 20
-23.6746347862
 30
0.0
 10
-7.2514004811
 20
-23.7317691273
 30
0.0
 10
-7.23999882
 20
-23.7784428121
 30
0.0
 10
-7.2397711993
 20
-23.8010362971
 30
0.0
 11
-7.4397407383
 21
-23.6278312164
 31
0.0
 11
-7.3636160339
 21
-23.6414468187
 31
0.0
 11
-7.2989538545
 21
-23.6790927066
 31
0.0
 11
-7.2554907481
 21
-23.7351003269
 31
0.0
 11
-7.2397711993
 21
-23.8010362971
 31
0.0
  0
SPLINE
  5
455
100
AcDbEntity
  8
0
100
AcDbSpline
 62
253
  6
CONTINUOUS
 70
0
 71
3
 72
20
 73
16
 74
14
 42
0.0000001
 43
0.0000001
 44
0.0000000001
 12
-0.0261520065
 22
-0.4993521831
 32
0.0
 13
0.4993512462
 23
-0.0261698899
 33
0.0
 40
0.0
 40
0.0
 40
0.0
 40
0.0
 40
0.1947181026
 40
0.3822854044
 40
0.5549071402
 40
0.7061951091
 40
0.7720385247
 40
0.830443712
 40
0.8808402511
 40
0.9227968418
 40
0.9558954823
 40
0.9798059931
 40
0.9944057637
 40
0.9982407178
 40
1.0
 40
1.0
 40
1.0
 40
1.0
 10
-38.81602521
 20
-21.5250746743
 30
0.0
 10
-38.817722633
 20
-21.5574856441
 30
0.0
 10
-38.8208932677
 20
-21.6211259383
 30
0.0
 10
-38.8250156273
 20
-21.7135257025
 30
0.0
 10
-38.8283121734
 20
-21.7987150799
 30
0.0
 10
-38.830361451
 20
-21.8636466436
 30
0.0
 10
-38.8314553511
 20
-21.9095610225
 30
0.0
 10
-38.8319675898
 20
-21.9386637962
 30
0.0
 10
-38.8322038005
 20
-21.9637991363
 30
0.0
 10
-38.8321774728
 20
-21.9846874946
 30
0.0
 10
-38.8318689622
 20
-22.0012399335
 30
0.0
 10
-38.8313661786
 20
-22.0130314938
 30
0.0
 10
-38.830622358
 20
-22.0202960669
 30
0.0
 10
-38.8299543622
 20
-22.0233588182
 30
0.0
 10
-38.8293975472
 20
-22.0243740949
 30
0.0
 10
-38.829104714
 20
-22.0243894416
 30
0.0
 11
-38.81602521
 21
-21.5250746743
 31
0.0
 11
-38.8208667872
 21
-21.6223203891
 31
0.0
 11
-38.8250305671
 21
-21.7160184216
 31
0.0
 11
-38.8283404497
 21
-21.8022721121
 31
0.0
 11
-38.8306749589
 21
-21.8778855934
 31
0.0
 11
-38.8314486961
 21
-21.9108006135
 31
0.0
 11
-38.8319482458
 21
-21.9400010679
 31
0.0
 11
-38.8321681637
 21
-21.9652002188
 31
0.0
 11
-38.8321074213
 21
-21.9861799588
 31
0.0
 11
-38.8317653002
 21
-22.0027269517
 31
0.0
 11
-38.8311442667
 21
-22.0146669406
 31
0.0
 11
-38.8302538934
 21
-22.0219128599
 31
0.0
 11
-38.8297109961
 21
-22.0237520222
 31
0.0
 11
-38.829104714
 21
-22.0243894416
 31
0.0
  0
SPLINE
  5
456
100
AcDbEntity
  8
0
100
AcDbSpline
 62
253
  6
CONTINUOUS
 70
0
 71
3
 72
20
 73
16
 74
14
 42
0.0000001
 43
0.0000001
 44
0.0000000001
 12
-0.0261519982
 22
0.4993521834
 32
0.0
 13
0.4993512461
 23
0.0261698899
 33
0.0
 40
0.0
 40
0.0
 40
0.0
 40
0.0
 40
0.1947180835
 40
0.3822853444
 40
0.5549070707
 40
0.7061950516
 40
0.7720384768
 40
0.8304436687
 40
0.880840218
 40
0.922796821
 40
0.9558954685
 40
0.9798059849
 40
0.9944057611
 40
0.9982407171
 40
1.0
 40
1.0
 40
1.0
 40
1.0
 10
-38.8160251865
 20
21.5250746755
 30
0.0
 10
-38.8177226088
 20
21.5574856422
 30
0.0
 10
-38.8208932423
 20
21.6211259264
 30
0.0
 10
-38.8250156003
 20
21.713525679
 30
0.0
 10
-38.8283121459
 20
21.7987150501
 30
0.0
 10
-38.8303614234
 20
21.8636466158
 30
0.0
 10
-38.8314553242
 20
21.909560999
 30
0.0
 10
-38.8319675632
 20
21.9386637768
 30
0.0
 10
-38.8322037745
 20
21.9637991214
 30
0.0
 10
-38.8321774475
 20
21.9846874846
 30
0.0
 10
-38.8318689372
 20
22.0012399277
 30
0.0
 10
-38.8313661534
 20
22.0130314909
 30
0.0
 10
-38.8306223329
 20
22.0202960665
 30
0.0
 10
-38.829954337
 20
22.0233588189
 30
0.0
 10
-38.8293975219
 20
22.0243740962
 30
0.0
 10
-38.8291046886
 20
22.024389443
 30
0.0
 11
-38.8160251865
 21
21.5250746755
 31
0.0
 11
-38.8208667619
 21
21.6223203808
 31
0.0
 11
-38.82503054
 21
21.7160183929
 31
0.0
 11
-38.828340422
 21
21.8022720787
 31
0.0
 11
-38.8306749315
 21
21.877885566
 31
0.0
 11
-38.8314486693
 21
21.9108005909
 31
0.0
 11
-38.8319482193
 21
21.9400010475
 31
0.0
 11
-38.8321681378
 21
21.9652002035
 31
0.0
 11
-38.832107396
 21
21.9861799497
 31
0.0
 11
-38.8317652751
 21
22.0027269461
 31
0.0
 11
-38.8311442416
 21
22.0146669377
 31
0.0
 11
-38.8302538682
 21
22.0219128599
 31
0.0
 11
-38.8297109708
 21
22.0237520232
 31
0.0
 11
-38.8291046886
 21
22.024389443
 31
0.0
  0
LINE
  5
457
100
AcDbEntity
  8
0
100
AcDbLine
 62
253
  6
CONTINUOUS
 10
-40.3172023287
 20
-20.8701690322
 11
-39.966844774
 21
-20.8772674171
  0
LINE
  5
458
100
AcDbEntity
  8
0
100
AcDbLine
 62
253
  6
CONTINUOUS
 10
-39.966844774
 20
20.8772674161
 11
-40.3172023288
 21
20.8701690321
  0
SPLINE
  5
459
100
AcDbEntity
  8
RACCORDO
100
AcDbSpline
 62
253
  6
CONTINUOUS
 70
0
 71
3
 72
21
 73
17
 74
15
 42
0.0000001
 43
0.0000001
 44
0.0000000001
 12
0.1023086618
 22
0.2811121455
 32
0.0
 13
-0.2811096414
 23
0.102315542
 33
0.0
 40
0.0
 40
0.0
 40
0.0
 40
0.0
 40
0.1948168508
 40
0.3828505084
 40
0.5557799218
 40
0.707184547
 40
0.772991263
 40
0.8313916736
 40
0.8818470385
 40
0.923818796
 40
0.9568284664
 40
0.9806372567
 40
0.9890362382
 40
0.9950700166
 40
0.9987209625
 40
1.0
 40
1.0
 40
1.0
 40
1.0
 10
-21.0910063191
 20
-18.8121652449
 30
0.0
 10
-21.084362502
 20
-18.7939101173
 30
0.0
 10
-21.0713351249
 20
-18.7580249482
 30
0.0
 10
-21.0525072218
 20
-18.7059004398
 30
0.0
 10
-21.0352401121
 20
-18.657815095
 30
0.0
 10
-21.0221729119
 20
-18.6211712934
 30
0.0
 10
-21.013005749
 20
-18.5952626553
 30
0.0
 10
-21.0072272288
 20
-18.5788309876
 30
0.0
 10
-21.0022770898
 20
-18.5646330543
 30
0.0
 10
-20.9981895235
 20
-18.5527998108
 30
0.0
 10
-20.9950494945
 20
-18.5434930721
 30
0.0
 10
-20.9929646555
 20
-18.5372690257
 30
0.0
 10
-20.991887575
 20
-18.5336954139
 30
0.0
 10
-20.9912719709
 20
-18.5318572802
 30
0.0
 10
-20.9911836495
 20
-18.5309935128
 30
0.0
 10
-20.9908983868
 20
-18.5303010805
 30
0.0
 10
-20.9910182367
 20
-18.5302574587
 30
0.0
 11
-21.0910063191
 21
-18.8121652449
 31
0.0
 11
-21.0711192581
 21
-18.7573837269
 31
0.0
 11
-21.052012774
 21
-18.7044776936
 31
0.0
 11
-21.0345338056
 21
-18.6557880682
 31
0.0
 11
-21.0193304608
 21
-18.6131231521
 31
0.0
 11
-21.0127655858
 21
-18.594563902
 31
0.0
 11
-21.0069726488
 21
-18.5780817619
 31
0.0
 11
-21.0020050821
 21
-18.563828878
 31
0.0
 11
-20.9979163177
 21
-18.5519573965
 31
0.0
 11
-20.9947535427
 21
-18.5426027298
 31
0.0
 11
-20.9925389634
 21
-18.5358333555
 31
0.0
 11
-20.991792235
 21
-18.5334343229
 31
0.0
 11
-20.991288541
 21
-18.5317010172
 31
0.0
 11
-20.9910298765
 21
-18.5306399065
 31
0.0
 11
-20.9910182367
 21
-18.5302574587
 31
0.0
  0
SPLINE
  5
45A
100
AcDbEntity
  8
RACCORDO
100
AcDbSpline
 62
253
  6
CONTINUOUS
 70
0
 71
3
 72
21
 73
17
 74
15
 42
0.0000001
 43
0.0000001
 44
0.0000000001
 12
0.1023085885
 22
-0.28111217
 32
0.0
 13
-0.2811096394
 23
-0.1023155414
 33
0.0
 40
0.0
 40
0.0
 40
0.0
 40
0.0
 40
0.1948168361
 40
0.3828504552
 40
0.5557798491
 40
0.7071844818
 40
0.7729912068
 40
0.8313916323
 40
0.8818470118
 40
0.9238187777
 40
0.9568284536
 40
0.9806372517
 40
0.9890362368
 40
0.995070018
 40
0.9987209652
 40
1.0
 40
1.0
 40
1.0
 40
1.0
 10
-21.0910063191
 20
18.8121652449
 30
0.0
 10
-21.0843625072
 20
18.7939101171
 30
0.0
 10
-21.0713351401
 20
18.7580249503
 30
0.0
 10
-21.0525072482
 20
18.705900446
 30
0.0
 10
-21.0352401455
 20
18.6578151044
 30
0.0
 10
-21.0221729467
 20
18.6211713029
 30
0.0
 10
-21.0130057816
 20
18.5952626624
 30
0.0
 10
-21.0072272584
 20
18.5788309919
 30
0.0
 10
-21.0022771156
 20
18.564633056
 30
0.0
 10
-20.998189545
 20
18.552799811
 30
0.0
 10
-20.995049512
 20
18.5434930717
 30
0.0
 10
-20.9929646675
 20
18.5372690249
 30
0.0
 10
-20.9918875843
 20
18.5336954132
 30
0.0
 10
-20.9912719745
 20
18.5318572792
 30
0.0
 10
-20.9911836553
 20
18.5309935129
 30
0.0
 10
-20.9908983854
 20
18.530301081
 30
0.0
 10
-20.9910182351
 20
18.5302574593
 30
0.0
 11
-21.0910063191
 21
18.8121652449
 31
0.0
 11
-21.0711192721
 21
18.7573837269
 31
0.0
 11
-21.0520128008
 21
18.7044777017
 31
0.0
 11
-21.0345338395
 21
18.6557880803
 31
0.0
 11
-21.0193304951
 21
18.6131231619
 31
0.0
 11
-21.0127656184
 21
18.5945639097
 31
0.0
 11
-21.0069726782
 21
18.5780817662
 31
0.0
 11
-21.0020051073
 21
18.5638288793
 31
0.0
 11
-20.9979163387
 21
18.5519573966
 31
0.0
 11
-20.9947535591
 21
18.5426027299
 31
0.0
 11
-20.9925389743
 21
18.5358333549
 31
0.0
 11
-20.9917922429
 21
18.5334343221
 31
0.0
 11
-20.9912885458
 21
18.5317010165
 31
0.0
 11
-20.9910298781
 21
18.5306399062
 31
0.0
 11
-20.9910182351
 21
18.5302574593
 31
0.0
  0
LINE
  5
45B
100
AcDbEntity
  8
0
100
AcDbLine
 62
253
  6
CONTINUOUS
 10
-25.6620283084
 20
-23.6495955841
 11
-26.0408653495
 21
-23.6519214817
  0
SPLINE
  5
45C
100
AcDbEntity
  8
0
100
AcDbSpline
 62
253
  6
CONTINUOUS
 70
0
 71
3
 72
11
 73
7
 74
5
 42
0.0000001
 43
0.0000001
 44
0.0000000001
 12
0.0445214711
 22
-1.0283394222
 32
0.0
 13
1.0278859145
 23
-0.053987734
 33
0.0
 40
0.0
 40
0.0
 40
0.0
 40
0.0
 40
0.2500282611
 40
0.5000348528
 40
0.7500211407
 40
1.0
 40
1.0
 40
1.0
 40
1.0
 10
-39.481516952
 20
-20.8558253568
 30
0.0
 10
-39.47780641
 20
-20.941529996
 30
0.0
 10
-39.4380129022
 20
-21.1132118894
 30
0.0
 10
-39.289463854
 20
-21.3303262024
 30
0.0
 10
-39.0729473505
 20
-21.4796143255
 30
0.0
 10
-38.9016751261
 20
-21.5205760769
 30
0.0
 10
-38.81602521
 20
-21.5250746743
 30
0.0
 11
-39.481516952
 21
-20.8558253568
 31
0.0
 11
-39.4231990684
 21
-21.1064854936
 31
0.0
 11
-39.2781291069
 21
-21.3190289155
 31
0.0
 11
-39.0662118779
 21
-21.46497525
 31
0.0
 11
-38.81602521
 21
-21.5250746743
 31
0.0
  0
SPLINE
  5
45D
100
AcDbEntity
  8
0
100
AcDbSpline
 62
253
  6
CONTINUOUS
 70
0
 71
3
 72
11
 73
7
 74
5
 42
0.0000001
 43
0.0000001
 44
0.0000000001
 12
-1.0278859147
 22
-0.053987728
 32
0.0
 13
-0.0445214629
 23
-1.0283394224
 33
0.0
 40
0.0
 40
0.0
 40
0.0
 40
0.0
 40
0.2499788592
 40
0.4999651467
 40
0.7499717379
 40
1.0
 40
1.0
 40
1.0
 40
1.0
 10
-38.8160251865
 20
21.5250746755
 30
0.0
 10
-38.9016751026
 20
21.5205760786
 30
0.0
 10
-39.0729473262
 20
21.4796143263
 30
0.0
 10
-39.2894638314
 20
21.3303262034
 30
0.0
 10
-39.4380128697
 20
21.1132118874
 30
0.0
 10
-39.4778063976
 20
20.9415299985
 30
0.0
 10
-39.481516939
 20
20.855825359
 30
0.0
 11
-38.8160251865
 21
21.5250746755
 31
0.0
 11
-39.0662118542
 21
21.464975251
 31
0.0
 11
-39.2781290823
 21
21.3190289159
 31
0.0
 11
-39.4231990423
 21
21.1064854937
 31
0.0
 11
-39.481516939
 21
20.855825359
 31
0.0
  0
SPLINE
  5
45E
100
AcDbEntity
  8
0
100
AcDbSpline
 62
253
  6
CONTINUOUS
 70
0
 71
3
 72
18
 73
14
 74
12
 42
0.0000001
 43
0.0000001
 44
0.0000000001
 12
0.2500335838
 22
-0.0043643524
 32
0.0
 13
-0.0043629074
 23
-0.250033609
 33
0.0
 40
0.0
 40
0.0
 40
0.0
 40
0.0
 40
0.0051355613
 40
0.019648866
 40
0.0435088922
 40
0.0765565991
 40
0.1185582428
 40
0.1690365531
 40
0.2932666469
 40
0.4446559495
 40
0.617516771
 40
0.8054114394
 40
1.0
 40
1.0
 40
1.0
 40
1.0
 10
-26.0409677282
 20
23.9018840226
 30
0.0
 10
-26.0405397073
 20
23.9018765515
 30
0.0
 10
-26.0406350874
 20
23.8994020624
 30
0.0
 10
-26.039989586
 20
23.8965842296
 30
0.0
 10
-26.0398997525
 20
23.8901912385
 30
0.0
 10
-26.0395715852
 20
23.8821439033
 30
0.0
 10
-26.0394104113
 20
23.8716079845
 30
0.0
 10
-26.0391953477
 20
23.8535787088
 30
0.0
 10
-26.0391282461
 20
23.82637444
 30
0.0
 10
-26.0392572407
 20
23.7889992205
 30
0.0
 10
-26.0396142529
 20
23.7463067099
 30
0.0
 10
-26.0401831471
 20
23.7000190711
 30
0.0
 10
-26.0406847337
 20
23.6681399921
 30
0.0
 10
-26.0409677243
 20
23.6519220987
 30
0.0
 11
-26.0409677282
 21
23.9018840226
 31
0.0
 11
-26.0405631361
 21
23.9006651605
 31
0.0
 11
-26.0402027876
 21
23.8970537274
 31
0.0
 11
-26.0398907001
 21
23.8910951782
 31
0.0
 11
-26.0396308911
 21
23.8828349678
 31
0.0
 11
-26.039426857
 21
23.8723335285
 31
0.0
 11
-26.0392800119
 21
23.8597111872
 31
0.0
 11
-26.0391614622
 21
23.8286449863
 31
0.0
 11
-26.039280007
 21
23.790786996
 31
0.0
 11
-26.0396308833
 21
23.7475608256
 31
0.0
 11
-26.0402027804
 21
23.7005771725
 31
0.0
 11
-26.0409677243
 21
23.6519220987
 31
0.0
  0
SPLINE
  5
45F
100
AcDbEntity
  8
0
100
AcDbSpline
 62
7
  6
CONTINUOUS
 70
0
 71
3
 72
10
 73
6
 74
4
 42
0.0000001
 43
0.0000001
 44
0.0000000001
 12
0.0380339309
 22
0.0219589002
 32
0.0
 13
0.041841455
 23
-0.0133441314
 33
0.0
 40
0.0
 40
0.0
 40
0.0
 40
0.0
 40
0.1562586273
 40
0.3725053574
 40
1.0
 40
1.0
 40
1.0
 40
1.0
 10
-33.1574803783
 20
-23.1200239821
 30
0.0
 10
-33.155499335
 20
-23.1188802263
 30
0.0
 10
-33.149941213
 20
-23.1177807851
 30
0.0
 10
-33.1353431336
 20
-23.1189267989
 30
0.0
 10
-33.1233614246
 20
-23.1224191514
 30
0.0
 10
-33.1146096616
 20
-23.1252102751
 30
0.0
 11
-33.1574803783
 21
-23.1200239821
 31
0.0
 11
-33.1508574519
 21
-23.1182264185
 31
0.0
 11
-33.1413685879
 21
-23.1186213903
 31
0.0
 11
-33.1146096616
 21
-23.1252102751
 31
0.0
  0
SPLINE
  5
460
100
AcDbEntity
  8
0
100
AcDbSpline
 62
7
  6
CONTINUOUS
 70
0
 71
3
 72
10
 73
6
 74
4
 42
0.0000001
 43
0.0000001
 44
0.0000000001
 12
0.2053840236
 22
-0.0655013408
 32
0.0
 13
0.1961778969
 23
-0.0893714471
 33
0.0
 40
0.0
 40
0.0
 40
0.0
 40
0.0
 40
0.2009386342
 40
0.4447871076
 40
1.0
 40
1.0
 40
1.0
 40
1.0
 10
-33.1146096616
 20
-23.1252102751
 30
0.0
 10
-33.1008531332
 20
-23.129597525
 30
0.0
 10
-33.0709753821
 20
-23.1410494792
 30
0.0
 10
-33.0048819943
 20
-23.1692343311
 30
0.0
 10
-32.9526982425
 20
-23.1932160189
 30
0.0
 10
-32.91639141
 20
-23.2097560788
 30
0.0
 11
-33.1146096616
 21
-23.1252102751
 31
0.0
 11
-33.0739557885
 21
-23.1401659737
 31
0.0
 11
-33.0255196937
 21
-23.1605945622
 31
0.0
 11
-32.91639141
 21
-23.2097560788
 31
0.0
  0
SPLINE
  5
461
100
AcDbEntity
  8
0
100
AcDbSpline
 62
253
  6
CONTINUOUS
 70
0
 71
3
 72
18
 73
14
 74
12
 42
0.0000001
 43
0.0000001
 44
0.0000000001
 12
0.2500335902
 22
0.0043643526
 32
0.0
 13
-0.0043630448
 23
0.2500336131
 33
0.0
 40
0.0
 40
0.0
 40
0.0
 40
0.0
 40
0.0051355831
 40
0.0196489049
 40
0.0435089465
 40
0.0765566628
 40
0.1185583186
 40
0.1690366499
 40
0.2932667741
 40
0.4446560781
 40
0.6175168616
 40
0.8054114672
 40
1.0
 40
1.0
 40
1.0
 40
1.0
 10
-26.0409677282
 20
-23.9018840226
 30
0.0
 10
-26.0405397054
 20
-23.9018765514
 30
0.0
 10
-26.0406350614
 20
-23.8994020655
 30
0.0
 10
-26.0399895658
 20
-23.8965842225
 30
0.0
 10
-26.0398997153
 20
-23.890191232
 30
0.0
 10
-26.0395715445
 20
-23.8821438919
 30
0.0
 10
-26.0394103638
 20
-23.87160797
 30
0.0
 10
-26.0391952956
 20
-23.8535786883
 30
0.0
 10
-26.0391281922
 20
-23.8263744146
 30
0.0
 10
-26.0392571921
 20
-23.7889991946
 30
0.0
 10
-26.0396142154
 20
-23.7463066912
 30
0.0
 10
-26.0401831267
 20
-23.7000190622
 30
0.0
 10
-26.0406847287
 20
-23.6681399901
 30
0.0
 10
-26.0409677282
 20
-23.6519220988
 30
0.0
 11
-26.0409677282
 21
-23.9018840226
 31
0.0
 11
-26.0405631234
 21
-23.9006651589
 31
0.0
 11
-26.0402027639
 21
-23.8970537225
 31
0.0
 11
-26.0398906671
 21
-23.8910951698
 31
0.0
 11
-26.0396308505
 21
-23.8828349571
 31
0.0
 11
-26.0394268106
 21
-23.8723335146
 31
0.0
 11
-26.0392799616
 21
-23.8597111678
 31
0.0
 11
-26.0391614094
 21
-23.8286449585
 31
0.0
 11
-26.0392799588
 21
-23.7907869669
 31
0.0
 11
-26.0396308463
 21
-23.747560805
 31
0.0
 11
-26.0402027607
 21
-23.7005771665
 31
0.0
 11
-26.0409677282
 21
-23.6519220988
 31
0.0
  0
LINE
  5
462
100
AcDbEntity
  8
0
100
AcDbLine
 62
253
  6
CONTINUOUS
 10
-26.0408653495
 20
23.6519214817
 11
-25.6620283084
 21
23.6495955841
  0
SPLINE
  5
463
100
AcDbEntity
  8
0
100
AcDbSpline
 62
253
  6
CONTINUOUS
 70
0
 71
3
 72
18
 73
14
 74
12
 42
0.0000001
 43
0.0000001
 44
0.0000000001
 12
-0.1717708875
 22
-0.0991719681
 32
0.0
 13
0.0991493107
 23
-0.1717839667
 33
0.0
 40
0.0
 40
0.0
 40
0.0
 40
0.0
 40
0.0050557424
 40
0.0195143832
 40
0.0433121005
 40
0.0762867901
 40
0.1182059192
 40
0.1685971851
 40
0.2926641405
 40
0.4439494969
 40
0.6168293837
 40
0.8049344776
 40
1.0
 40
1.0
 40
1.0
 40
1.0
 10
-34.0370283084
 20
-23.6278312164
 30
0.0
 10
-34.0373177849
 20
-23.6279983457
 30
0.0
 10
-34.036217255
 20
-23.6296479184
 30
0.0
 10
-34.0356105568
 20
-23.6318305804
 30
0.0
 10
-34.0331522296
 20
-23.6362675588
 30
0.0
 10
-34.0302714051
 20
-23.6419465885
 30
0.0
 10
-34.026300227
 20
-23.6492846669
 30
0.0
 10
-34.0194837463
 20
-23.6618302795
 30
0.0
 10
-34.0090306882
 20
-23.6806802162
 30
0.0
 10
-33.9945330924
 20
-23.7065184145
 30
0.0
 10
-33.9778320562
 20
-23.7359857363
 30
0.0
 10
-33.9595970868
 20
-23.7679068829
 30
0.0
 10
-33.9469656604
 20
-23.7898665874
 30
0.0
 10
-33.9405187897
 20
-23.8010362971
 30
0.0
 11
-34.0370283084
 21
-23.6278312164
 31
0.0
 11
-34.0368030607
 21
-23.6288083667
 31
0.0
 11
-34.0356293281
 21
-23.6314249552
 31
0.0
 11
-34.0335220332
 21
-23.6356485749
 31
0.0
 11
-34.0304960984
 21
-23.6414468187
 31
0.0
 11
-34.0265724698
 21
-23.6487771987
 31
0.0
 11
-34.0217961876
 21
-23.6575569023
 31
0.0
 11
-34.0098899174
 21
-23.6790927066
 31
0.0
 11
-33.9952133249
 21
-23.7052650137
 31
0.0
 11
-33.9783125541
 21
-23.7351003269
 31
0.0
 11
-33.9598094794
 21
-23.7674984035
 31
0.0
 11
-33.9405187897
 21
-23.8010362971
 31
0.0
  0
LINE
  5
464
100
AcDbEntity
  8
0
100
AcDbLine
 62
7
  6
CONTINUOUS
 10
-31.6620283084
 20
-24.5
 11
-31.6620283084
 21
-24.300030461
  0
SPLINE
  5
465
100
AcDbEntity
  8
0
100
AcDbSpline
 62
253
  6
CONTINUOUS
 70
0
 71
3
 72
18
 73
14
 74
12
 42
0.0000001
 43
0.0000001
 44
0.0000000001
 12
-0.2000268721
 22
0.003491482
 32
0.0
 13
0.0034904184
 23
0.2000268907
 33
0.0
 40
0.0
 40
0.0
 40
0.0
 40
0.0
 40
0.0051355832
 40
0.0196489053
 40
0.0435089474
 40
0.0765566639
 40
0.1185583201
 40
0.1690366522
 40
0.2932667776
 40
0.4446560819
 40
0.6175168643
 40
0.8054114679
 40
1.0
 40
1.0
 40
1.0
 40
1.0
 10
-33.91639141
 20
-24.4606499457
 30
0.0
 10
-33.9167338282
 20
-24.4606439688
 30
0.0
 10
-33.9166575434
 20
-24.4586643799
 30
0.0
 10
-33.9171739397
 20
-24.4564101055
 30
0.0
 10
-33.9172458199
 20
-24.451295713
 30
0.0
 10
-33.9175083563
 20
-24.4448578409
 30
0.0
 10
-33.9176373007
 20
-24.4364291033
 30
0.0
 10
-33.9178093548
 20
-24.4220056777
 30
0.0
 10
-33.9178630366
 20
-24.4002422586
 30
0.0
 10
-33.9177598353
 20
-24.3703420826
 30
0.0
 10
-33.9174742159
 20
-24.3361880801
 30
0.0
 10
-33.9170190882
 20
-24.2991579772
 30
0.0
 10
-33.9166178085
 20
-24.2736547197
 30
0.0
 10
-33.91639141
 20
-24.2606804067
 30
0.0
 11
-33.91639141
 21
-24.4606499457
 31
0.0
 11
-33.9167150938
 21
-24.4596748547
 31
0.0
 11
-33.9170033813
 21
-24.4567857055
 31
0.0
 11
-33.9172530585
 21
-24.4520188632
 31
0.0
 11
-33.9174609116
 21
-24.445410693
 31
0.0
 11
-33.9176241432
 21
-24.4370095389
 31
0.0
 11
-33.9177416221
 21
-24.4269116614
 31
0.0
 11
-33.9178364629
 21
-24.4020586937
 31
0.0
 11
-33.9177416221
 21
-24.3717723003
 31
0.0
 11
-33.9174609116
 21
-24.337191371
 31
0.0
 11
-33.9170033812
 21
-24.2996044607
 31
0.0
 11
-33.91639141
 21
-24.2606804067
 31
0.0
  0
SPLINE
  5
466
100
AcDbEntity
  8
0
100
AcDbSpline
 62
253
  6
CONTINUOUS
 70
0
 71
3
 72
18
 73
14
 74
12
 42
0.0000001
 43
0.0000001
 44
0.0000000001
 12
0.0034904191
 22
-0.2000268907
 32
0.0
 13
-0.2000268721
 23
-0.003491482
 33
0.0
 40
0.0
 40
0.0
 40
0.0
 40
0.0
 40
0.1945885314
 40
0.3824831333
 40
0.5553439147
 40
0.7067332193
 40
0.8309633457
 40
0.8814416784
 40
0.9234433349
 40
0.9564910517
 40
0.9803510941
 40
0.9948644166
 40
1.0
 40
1.0
 40
1.0
 40
1.0
 10
-30.9076652068
 20
-24.2868630041
 30
0.0
 10
-30.9074388083
 20
-24.299837317
 30
0.0
 10
-30.9070375284
 20
-24.3253405743
 30
0.0
 10
-30.9065824007
 20
-24.3623706771
 30
0.0
 10
-30.9062967813
 20
-24.3965246794
 30
0.0
 10
-30.9061935799
 20
-24.4264248554
 30
0.0
 10
-30.9062472618
 20
-24.4481882747
 30
0.0
 10
-30.9064193159
 20
-24.4626117003
 30
0.0
 10
-30.9065482603
 20
-24.471040438
 30
0.0
 10
-30.9068107967
 20
-24.4774783102
 30
0.0
 10
-30.906882677
 20
-24.4825927028
 30
0.0
 10
-30.9073990733
 20
-24.4848469772
 30
0.0
 10
-30.9073227886
 20
-24.4868265662
 30
0.0
 10
-30.9076652068
 20
-24.4868325431
 30
0.0
 11
-30.9076652068
 21
-24.2868630041
 31
0.0
 11
-30.9070532354
 21
-24.3257870579
 31
0.0
 11
-30.906595705
 21
-24.363373968
 31
0.0
 11
-30.9063149944
 21
-24.3979548971
 31
0.0
 11
-30.9062201536
 21
-24.4282412904
 31
0.0
 11
-30.9063149944
 21
-24.4530942583
 31
0.0
 11
-30.9064324734
 21
-24.463192136
 31
0.0
 11
-30.906595705
 21
-24.4715932902
 31
0.0
 11
-30.9068035582
 21
-24.4782014605
 31
0.0
 11
-30.9070532354
 21
-24.4829683028
 31
0.0
 11
-30.9073415229
 21
-24.4858574521
 31
0.0
 11
-30.9076652068
 21
-24.4868325431
 31
0.0
  0
SPLINE
  5
467
100
AcDbEntity
  8
0
100
AcDbSpline
 62
253
  6
CONTINUOUS
 70
0
 71
3
 72
18
 73
14
 74
12
 42
0.0000001
 43
0.0000001
 44
0.0000000001
 12
0.0991493105
 22
0.1717839679
 32
0.0
 13
-0.1717708882
 23
0.0991719686
 33
0.0
 40
0.0
 40
0.0
 40
0.0
 40
0.0
 40
0.1950655215
 40
0.3831706145
 40
0.5560505005
 40
0.7073358561
 40
0.8314028107
 40
0.8817940763
 40
0.9237132052
 40
0.9566878947
 40
0.9804856123
 40
0.9949442541
 40
1.0
 40
1.0
 40
1.0
 40
1.0
 10
-30.8835378271
 20
-23.8010362971
 30
0.0
 10
-30.8770909565
 20
-23.7898665874
 30
0.0
 10
-30.8644595299
 20
-23.767906883
 30
0.0
 10
-30.8462245602
 20
-23.7359857366
 30
0.0
 10
-30.8295235233
 20
-23.7065184152
 30
0.0
 10
-30.8150259263
 20
-23.6806802175
 30
0.0
 10
-30.8045728665
 20
-23.6618302818
 30
0.0
 10
-30.7977563846
 20
-23.6492846699
 30
0.0
 10
-30.7937852066
 20
-23.6419465916
 30
0.0
 10
-30.7909043815
 20
-23.6362675617
 30
0.0
 10
-30.7884460572
 20
-23.6318305825
 30
0.0
 10
-30.7878393568
 20
-23.62964792
 30
0.0
 10
-30.7867388317
 20
-23.6279983458
 30
0.0
 10
-30.7870283084
 20
-23.6278312164
 30
0.0
 11
-30.8835378271
 21
-23.8010362971
 31
0.0
 11
-30.8642471373
 21
-23.7674984036
 31
0.0
 11
-30.8457440622
 21
-23.7351003272
 31
0.0
 11
-30.8288432906
 21
-23.7052650144
 31
0.0
 11
-30.8141666968
 21
-23.6790927081
 31
0.0
 11
-30.8022604248
 21
-23.6575569048
 31
0.0
 11
-30.797484142
 21
-23.6487772016
 31
0.0
 11
-30.7935605131
 21
-23.6414468218
 31
0.0
 11
-30.7905345788
 21
-23.6356485777
 31
0.0
 11
-30.788427285
 21
-23.6314249574
 31
0.0
 11
-30.787253554
 21
-23.6288083679
 31
0.0
 11
-30.7870283084
 21
-23.6278312164
 31
0.0
  0
LINE
  5
468
100
AcDbEntity
  8
0
100
AcDbLine
 62
7
  6
CONTINUOUS
 10
-31.6620283084
 20
24.5
 11
-31.6620283084
 21
24.300030461
  0
SPLINE
  5
469
100
AcDbEntity
  8
0
100
AcDbSpline
 62
253
  6
CONTINUOUS
 70
0
 71
3
 72
18
 73
14
 74
12
 42
0.0000001
 43
0.0000001
 44
0.0000000001
 12
0.0034904189
 22
0.2000268907
 32
0.0
 13
-0.2000268721
 23
0.003491482
 33
0.0
 40
0.0
 40
0.0
 40
0.0
 40
0.0
 40
0.1945885329
 40
0.3824831386
 40
0.5553439222
 40
0.7067332262
 40
0.8309633503
 40
0.8814416816
 40
0.9234433374
 40
0.9564910536
 40
0.9803510952
 40
0.9948644169
 40
1.0
 40
1.0
 40
1.0
 40
1.0
 10
-30.9076652068
 20
24.286863004
 30
0.0
 10
-30.9074388083
 20
24.2998373171
 30
0.0
 10
-30.9070375285
 20
24.3253405748
 30
0.0
 10
-30.9065824007
 20
24.362370678
 30
0.0
 10
-30.9062967813
 20
24.3965246807
 30
0.0
 10
-30.90619358
 20
24.4264248567
 30
0.0
 10
-30.9062472619
 20
24.4481882757
 30
0.0
 10
-30.906419316
 20
24.462611701
 30
0.0
 10
-30.9065482603
 20
24.4710404385
 30
0.0
 10
-30.9068107968
 20
24.4774783106
 30
0.0
 10
-30.906882677
 20
24.482592703
 30
0.0
 10
-30.9073990733
 20
24.4848469774
 30
0.0
 10
-30.9073227886
 20
24.4868265661
 30
0.0
 10
-30.9076652068
 20
24.4868325431
 30
0.0
 11
-30.9076652068
 21
24.286863004
 31
0.0
 11
-30.9070532355
 21
24.3257870582
 31
0.0
 11
-30.9065957051
 21
24.363373969
 31
0.0
 11
-30.9063149945
 21
24.3979548986
 31
0.0
 11
-30.9062201537
 21
24.4282412918
 31
0.0
 11
-30.9063149945
 21
24.4530942593
 31
0.0
 11
-30.9064324734
 21
24.4631921367
 31
0.0
 11
-30.9065957051
 21
24.4715932907
 31
0.0
 11
-30.9068035582
 21
24.4782014608
 31
0.0
 11
-30.9070532355
 21
24.482968303
 31
0.0
 11
-30.9073415229
 21
24.4858574521
 31
0.0
 11
-30.9076652068
 21
24.4868325431
 31
0.0
  0
SPLINE
  5
46A
100
AcDbEntity
  8
0
100
AcDbSpline
 62
253
  6
CONTINUOUS
 70
0
 71
3
 72
18
 73
14
 74
12
 42
0.0000001
 43
0.0000001
 44
0.0000000001
 12
0.0991495294
 22
-0.1717838506
 32
0.0
 13
-0.171770895
 23
-0.0991719725
 33
0.0
 40
0.0
 40
0.0
 40
0.0
 40
0.0
 40
0.1950655165
 40
0.383170609
 40
0.5560504914
 40
0.7073358397
 40
0.8314027862
 40
0.8817940482
 40
0.9237131757
 40
0.9566878654
 40
0.9804855845
 40
0.9949442316
 40
1.0
 40
1.0
 40
1.0
 40
1.0
 10
-30.8835378271
 20
23.8010362971
 30
0.0
 10
-30.8770909424
 20
23.7898665953
 30
0.0
 10
-30.8644594918
 20
23.767906904
 30
0.0
 10
-30.8462244969
 20
23.7359857709
 30
0.0
 10
-30.8295234462
 20
23.7065184567
 30
0.0
 10
-30.8150258468
 20
23.6806802604
 30
0.0
 10
-30.8045727961
 20
23.6618303204
 30
0.0
 10
-30.797756325
 20
23.6492847025
 30
0.0
 10
-30.7937851585
 20
23.6419466188
 30
0.0
 10
-30.7909043379
 20
23.6362675841
 30
0.0
 10
-30.7884460366
 20
23.6318305973
 30
0.0
 10
-30.7878393239
 20
23.6296479309
 30
0.0
 10
-30.7867388303
 20
23.6279983466
 30
0.0
 10
-30.7870283083
 20
23.6278312164
 30
0.0
 11
-30.8835378271
 21
23.8010362971
 31
0.0
 11
-30.8642471006
 21
23.7674984241
 31
0.0
 11
-30.8457439999
 21
23.7351003607
 31
0.0
 11
-30.8288432147
 21
23.7052650549
 31
0.0
 11
-30.8141666198
 21
23.6790927495
 31
0.0
 11
-30.8022603584
 21
23.6575569411
 31
0.0
 11
-30.797484084
 21
23.6487772336
 31
0.0
 11
-30.7935604648
 21
23.6414468486
 31
0.0
 11
-30.790534541
 21
23.6356485987
 31
0.0
 11
-30.7884272586
 21
23.6314249721
 31
0.0
 11
-30.7872535402
 21
23.6288083758
 31
0.0
 11
-30.7870283083
 21
23.6278312164
 31
0.0
  0
SPLINE
  5
46B
100
AcDbEntity
  8
0
100
AcDbSpline
 62
253
  6
CONTINUOUS
 70
0
 71
3
 72
18
 73
14
 74
12
 42
0.0000001
 43
0.0000001
 44
0.0000000001
 12
-0.0034904191
 22
0.2000268907
 32
0.0
 13
0.2000268721
 23
0.003491482
 33
0.0
 40
0.0
 40
0.0
 40
0.0
 40
0.0
 40
0.1945885314
 40
0.3824831333
 40
0.5553439147
 40
0.7067332193
 40
0.8309633457
 40
0.8814416784
 40
0.9234433349
 40
0.9564910517
 40
0.9803510941
 40
0.9948644166
 40
1.0
 40
1.0
 40
1.0
 40
1.0
 10
-33.91639141
 20
24.2606804067
 30
0.0
 10
-33.9166178085
 20
24.2736547196
 30
0.0
 10
-33.9170190884
 20
24.2991579769
 30
0.0
 10
-33.9174742161
 20
24.3361880797
 30
0.0
 10
-33.9177598355
 20
24.370342082
 30
0.0
 10
-33.9178630369
 20
24.400242258
 30
0.0
 10
-33.917809355
 20
24.4220056773
 30
0.0
 10
-33.9176373009
 20
24.436429103
 30
0.0
 10
-33.9175083565
 20
24.4448578406
 30
0.0
 10
-33.9172458201
 20
24.4512957128
 30
0.0
 10
-33.9171739398
 20
24.4564101054
 30
0.0
 10
-33.9166575435
 20
24.4586643799
 30
0.0
 10
-33.9167338282
 20
24.4606439688
 30
0.0
 10
-33.91639141
 20
24.4606499457
 30
0.0
 11
-33.91639141
 21
24.2606804067
 31
0.0
 11
-33.9170033814
 21
24.2996044605
 31
0.0
 11
-33.9174609118
 21
24.3371913706
 31
0.0
 11
-33.9177416224
 21
24.3717722997
 31
0.0
 11
-33.9178364632
 21
24.402058693
 31
0.0
 11
-33.9177416224
 21
24.4269116609
 31
0.0
 11
-33.9176241434
 21
24.4370095386
 31
0.0
 11
-33.9174609118
 21
24.4454106928
 31
0.0
 11
-33.9172530586
 21
24.4520188631
 31
0.0
 11
-33.9170033814
 21
24.4567857054
 31
0.0
 11
-33.9167150939
 21
24.4596748547
 31
0.0
 11
-33.91639141
 21
24.4606499457
 31
0.0
  0
SPLINE
  5
46C
100
AcDbEntity
  8
0
100
AcDbSpline
 62
7
  6
CONTINUOUS
 70
0
 71
3
 72
13
 73
9
 74
7
 42
0.0000001
 43
0.0000001
 44
0.0000000001
 12
-0.236060454
 22
-0.1075404758
 32
0.0
 13
-0.2246488791
 23
0.1297010908
 33
0.0
 40
0.0
 40
0.0
 40
0.0
 40
0.0
 40
0.3376350271
 40
0.6419204642
 40
0.7700441436
 40
0.875061718
 40
0.9520696691
 40
1.0
 40
1.0
 40
1.0
 40
1.0
 10
-32.91639141
 20
23.2097560788
 30
0.0
 10
-32.9429588359
 20
23.1976529349
 30
0.0
 10
-32.9934345235
 20
23.174602179
 30
0.0
 10
-33.0544291234
 20
23.1477591479
 30
0.0
 10
-33.0976229393
 20
23.1307783849
 30
0.0
 10
-33.1232162096
 20
23.1222302901
 30
0.0
 10
-33.1423014812
 20
23.117818407
 30
0.0
 10
-33.1538912133
 20
23.1179517767
 30
0.0
 10
-33.1574803783
 20
23.1200239821
 30
0.0
 11
-32.91639141
 21
23.2097560788
 31
0.0
 11
-32.9961593323
 21
23.1735910893
 31
0.0
 11
-33.0686316425
 21
23.142316927
 31
0.0
 11
-33.0996312321
 21
23.1303324359
 31
0.0
 11
-33.1255563912
 21
23.1219657681
 31
0.0
 11
-33.1451784431
 21
23.1182218562
 31
0.0
 11
-33.1574803783
 21
23.1200239821
 31
0.0
  0
SPLINE
  5
46D
100
AcDbEntity
  8
0
100
AcDbSpline
 62
253
  6
CONTINUOUS
 70
0
 71
3
 72
18
 73
14
 74
12
 42
0.0000001
 43
0.0000001
 44
0.0000000001
 12
-0.0991493105
 22
-0.1717839679
 32
0.0
 13
0.1717708882
 23
-0.0991719686
 33
0.0
 40
0.0
 40
0.0
 40
0.0
 40
0.0
 40
0.1950655215
 40
0.3831706145
 40
0.5560505005
 40
0.7073358561
 40
0.8314028107
 40
0.8817940763
 40
0.9237132052
 40
0.9566878947
 40
0.9804856123
 40
0.9949442541
 40
1.0
 40
1.0
 40
1.0
 40
1.0
 10
-33.9405187897
 20
23.8010362971
 30
0.0
 10
-33.9469656603
 20
23.7898665873
 30
0.0
 10
-33.9595970869
 20
23.767906883
 30
0.0
 10
-33.9778320566
 20
23.7359857366
 30
0.0
 10
-33.9945330935
 20
23.7065184152
 30
0.0
 10
-34.0090306905
 20
23.6806802175
 30
0.0
 10
-34.0194837503
 20
23.6618302818
 30
0.0
 10
-34.0263002322
 20
23.6492846699
 30
0.0
 10
-34.0302714102
 20
23.6419465916
 30
0.0
 10
-34.0331522353
 20
23.6362675617
 30
0.0
 10
-34.0356105596
 20
23.6318305825
 30
0.0
 10
-34.03621726
 20
23.62964792
 30
0.0
 10
-34.0373177851
 20
23.6279983458
 30
0.0
 10
-34.0370283084
 20
23.6278312163
 30
0.0
 11
-33.9405187897
 21
23.8010362971
 31
0.0
 11
-33.9598094795
 21
23.7674984036
 31
0.0
 11
-33.9783125546
 21
23.7351003272
 31
0.0
 11
-33.9952133262
 21
23.7052650144
 31
0.0
 11
-34.00988992
 21
23.6790927081
 31
0.0
 11
-34.021796192
 21
23.6575569048
 31
0.0
 11
-34.0265724748
 21
23.6487772016
 31
0.0
 11
-34.0304961037
 21
23.6414468218
 31
0.0
 11
-34.033522038
 21
23.6356485777
 31
0.0
 11
-34.0356293318
 21
23.6314249574
 31
0.0
 11
-34.0368030628
 21
23.6288083679
 31
0.0
 11
-34.0370283084
 21
23.6278312163
 31
0.0
  0
SPLINE
  5
46E
100
AcDbEntity
  8
0
100
AcDbSpline
 62
7
  6
CONTINUOUS
 70
0
 71
3
 72
21
 73
17
 74
15
 42
0.0000001
 43
0.0000001
 44
0.0000000001
 12
-0.4993233323
 22
-0.026574891
 32
0.0
 13
0.0
 23
-0.5000300141
 33
0.0
 40
0.0
 40
0.0
 40
0.0
 40
0.0
 40
0.0013706659
 40
0.0050557091
 40
0.0111101809
 40
0.0195275933
 40
0.0433925914
 40
0.0764939753
 40
0.1184819239
 40
0.1689260801
 40
0.2273866984
 40
0.2932927234
 40
0.4447336277
 40
0.6175244721
 40
0.805214679
 40
1.0
 40
1.0
 40
1.0
 40
1.0
 10
-31.6620310094
 20
22.3999998542
 30
0.0
 10
-31.6622591445
 20
22.3999877125
 30
0.0
 10
-31.6623700453
 20
22.3987963099
 30
0.0
 10
-31.6626690643
 20
22.3972905791
 30
0.0
 10
-31.6628333288
 20
22.394086348
 30
0.0
 10
-31.6631468336
 20
22.3878134771
 30
0.0
 10
-31.6633746146
 20
22.376835704
 30
0.0
 10
-31.6635794136
 20
22.3603825154
 30
0.0
 10
-31.6636804854
 20
22.339444165
 30
0.0
 10
-31.6637064648
 20
22.3142991413
 30
0.0
 10
-31.6636556663
 20
22.2851605164
 30
0.0
 10
-31.6634904593
 20
22.2391908303
 30
0.0
 10
-31.6631106017
 20
22.1741646027
 30
0.0
 10
-31.6625185119
 20
22.0888413619
 30
0.0
 10
-31.6621119451
 20
21.9962921078
 30
0.0
 10
-31.6620283084
 20
21.9325423214
 30
0.0
 10
-31.6620283084
 20
21.9000761524
 30
0.0
 11
-31.6620310094
 21
22.3999998542
 31
0.0
 11
-31.6623211276
 21
22.3993789122
 31
0.0
 11
-31.662580382
 21
22.3975546094
 31
0.0
 11
-31.6628097495
 21
22.3945358931
 31
0.0
 11
-31.6630102069
 21
22.3903317105
 31
0.0
 11
-31.6633282992
 21
22.3784027355
 31
0.0
 11
-31.6635425702
 21
22.361852437
 31
0.0
 11
-31.6636616042
 21
22.3408575399
 31
0.0
 11
-31.6636942719
 21
22.3156339689
 31
0.0
 11
-31.6636493548
 21
22.2864019396
 31
0.0
 11
-31.6635342067
 21
22.2534471502
 31
0.0
 11
-31.6631184481
 21
22.177723294
 31
0.0
 11
-31.6625708953
 21
22.0913244207
 31
0.0
 11
-31.6621644384
 21
21.9974745641
 31
0.0
 11
-31.6620283084
 21
21.9000761524
 31
0.0
  0
SPLINE
  5
46F
100
AcDbEntity
  8
0
100
AcDbSpline
 62
7
  6
CONTINUOUS
 70
0
 71
3
 72
21
 73
17
 74
15
 42
0.0000001
 43
0.0000001
 44
0.0000000001
 12
-0.4993991576
 22
0.0265778679
 32
0.0
 13
0.0
 23
0.5001058905
 33
0.0
 40
0.0
 40
0.0
 40
0.0
 40
0.0
 40
0.0013704397
 40
0.0050554296
 40
0.0111099771
 40
0.0195275861
 40
0.0433933362
 40
0.0764959336
 40
0.1184854348
 40
0.1689313225
 40
0.227393711
 40
0.2933013958
 40
0.4447444245
 40
0.6175349462
 40
0.8052222556
 40
1.0
 40
1.0
 40
1.0
 40
1.0
 10
-31.6620347059
 20
-22.3999996605
 30
0.0
 10
-31.6622628381
 20
-22.3999875194
 30
0.0
 10
-31.6623732578
 20
-22.3987957602
 30
0.0
 10
-31.6626719808
 20
-22.3972899465
 30
0.0
 10
-31.6628354903
 20
-22.3940850454
 30
0.0
 10
-31.6631479692
 20
-22.3878110658
 30
0.0
 10
-31.6633745602
 20
-22.3768311993
 30
0.0
 10
-31.6635789304
 20
-22.3603749461
 30
0.0
 10
-31.6636800905
 20
-22.3394326613
 30
0.0
 10
-31.6637063909
 20
-22.3142829826
 30
0.0
 10
-31.663655746
 20
-22.2851390742
 30
0.0
 10
-31.6634904417
 20
-22.2391614871
 30
0.0
 10
-31.6631102761
 20
-22.1741248165
 30
0.0
 10
-31.6625181342
 20
-22.0887888109
 30
0.0
 10
-31.6621118131
 20
-21.9962273113
 30
0.0
 10
-31.6620283084
 20
-21.9324695973
 30
0.0
 10
-31.6620283084
 20
-21.8999997649
 30
0.0
 11
-31.6620347059
 21
-22.3999996605
 31
0.0
 11
-31.6623245785
 21
-22.3993786137
 31
0.0
 11
-31.6625833362
 21
-22.397553985
 31
0.0
 11
-31.6628120457
 21
-22.3945347201
 31
0.0
 11
-31.6630117736
 21
-22.390329765
 31
0.0
 11
-31.663328551
 21
-22.3783985673
 31
0.0
 11
-31.6635421989
 21
-22.361845142
 31
0.0
 11
-31.6636612306
 21
-22.3408462825
 31
0.0
 11
-31.6636941518
 21
-22.3156180183
 31
0.0
 11
-31.6636493939
 21
-22.2863806678
 31
0.0
 11
-31.6635342096
 21
-22.2534200476
 31
0.0
 11
-31.6631181843
 21
-22.1776836395
 31
0.0
 11
-31.6625705605
 21
-22.091271817
 31
0.0
 11
-31.6621642916
 21
-21.9974091673
 31
0.0
 11
-31.6620283084
 21
-21.8999997649
 31
0.0
  0
LINE
  5
470
100
AcDbEntity
  8
0
100
AcDbLine
 62
7
  6
CONTINUOUS
 10
-32.9897785931
 20
-22.3304155561
 11
-32.91639141
 21
-22.3341525772
  0
LINE
  5
471
100
AcDbEntity
  8
0
100
AcDbLine
 62
7
  6
CONTINUOUS
 10
-32.91639141
 20
22.3341525772
 11
-32.9897785931
 21
22.3304155561
  0
ELLIPSE
  5
472
100
AcDbEntity
  8
0
100
AcDbEllipse
 62
7
  6
CONTINUOUS
 10
-1.0052669851
 20
22.3842776662
 30
0.0
 11
0.2
 21
-0.0
 31
0.0
 40
0.0524077793
 41
-1.5707963268
 42
-0.0174532925
  0
ELLIPSE
  5
473
100
AcDbEntity
  8
0
100
AcDbEllipse
 62
7
  6
CONTINUOUS
 10
-9.0368706193
 20
22.2820824966
 30
0.0
 11
0.25
 21
-0.0
 31
0.0
 40
0.0524077793
 41
-3.1241393611
 42
-1.5707963268
  0
ELLIPSE
  5
474
100
AcDbEntity
  8
0
100
AcDbEllipse
 62
7
  6
CONTINUOUS
 10
-4.2447330149
 20
22.3842776662
 30
0.0
 11
0.2
 21
-0.0
 31
0.0
 40
0.0524077793
 41
-3.1241393611
 42
-1.5707963268
  0
ELLIPSE
  5
475
100
AcDbEntity
  8
0
100
AcDbEllipse
 62
7
  6
CONTINUOUS
 10
4.2447330149
 20
22.3842776662
 30
0.0
 11
0.2
 21
0.0
 31
0.0
 40
0.0524077793
 41
-1.5707963268
 42
-0.0174532925
  0
ELLIPSE
  5
476
100
AcDbEntity
  8
0
100
AcDbEllipse
 62
7
  6
CONTINUOUS
 10
8.7631293807
 20
22.2820824966
 30
0.0
 11
0.25
 21
-0.0
 31
0.0
 40
0.0524077793
 41
-3.1241393611
 42
-1.5707963268
  0
ELLIPSE
  5
477
100
AcDbEntity
  8
0
100
AcDbEllipse
 62
7
  6
CONTINUOUS
 10
8.7631293807
 20
-22.2820824966
 30
0.0
 11
0.25
 21
-0.0
 31
0.0
 40
0.0524077793
 41
1.5707963268
 42
3.1241393611
  0
ELLIPSE
  5
478
100
AcDbEntity
  8
0
100
AcDbEllipse
 62
7
  6
CONTINUOUS
 10
8.7631293807
 20
-23.5556624327
 30
0.0
 11
0.25
 21
0.0
 31
0.0
 40
0.5773502692
 41
-3.1241393611
 42
-2.617993878
  0
ELLIPSE
  5
479
100
AcDbEntity
  8
0
100
AcDbEllipse
 62
7
  6
CONTINUOUS
 10
1.0052669851
 20
22.3842776662
 30
0.0
 11
0.2
 21
0.0
 31
0.0
 40
0.0524077793
 41
-3.1241393611
 42
-1.5707963268
  0
ELLIPSE
  5
47A
100
AcDbEntity
  8
0
100
AcDbEllipse
 62
7
  6
CONTINUOUS
 10
-4.2447330149
 20
-22.3842776662
 30
0.0
 11
0.2
 21
-0.0
 31
0.0
 40
0.0524077793
 41
1.5707963268
 42
3.1241393611
  0
ELLIPSE
  5
47B
100
AcDbEntity
  8
0
100
AcDbEllipse
 62
7
  6
CONTINUOUS
 10
-9.0368706193
 20
-23.5556624327
 30
0.0
 11
0.25
 21
0.0
 31
0.0
 40
0.5773502692
 41
-3.1241393611
 42
-2.617993878
  0
ELLIPSE
  5
47C
100
AcDbEntity
  8
0
100
AcDbEllipse
 62
7
  6
CONTINUOUS
 10
-9.0368706193
 20
-22.2820824966
 30
0.0
 11
0.25
 21
0.0
 31
0.0
 40
0.0524077793
 41
1.5707963268
 42
3.1241393611
  0
ELLIPSE
  5
47D
100
AcDbEntity
  8
0
100
AcDbEllipse
 62
7
  6
CONTINUOUS
 10
-10.3281430868
 20
-22.3344902759
 30
0.0
 11
0.25
 21
0.0
 31
0.0
 40
0.0524077793
 41
1.5707963268
 42
2.8253464262
  0
ELLIPSE
  5
47E
100
AcDbEntity
  8
0
100
AcDbEllipse
 62
7
  6
CONTINUOUS
 10
-10.3281430868
 20
-22.9783121635
 30
0.0
 11
0.25
 21
0.0
 31
0.0
 40
0.5773502692
 41
-1.7618311193
 42
-1.5707963268
  0
ELLIPSE
  5
47F
100
AcDbEntity
  8
0
100
AcDbEllipse
 62
7
  6
CONTINUOUS
 10
-7.4718569132
 20
-22.3344902759
 30
0.0
 11
0.25
 21
-0.0
 31
0.0
 40
0.0524077793
 41
0.0174532925
 42
1.5707963268
  0
ELLIPSE
  5
480
100
AcDbEntity
  8
0
100
AcDbEllipse
 62
7
  6
CONTINUOUS
 10
-7.4718569132
 20
-22.9783121635
 30
0.0
 11
0.25
 21
0.0
 31
0.0
 40
0.5773502692
 41
-1.5707963268
 42
-1.3797615343
  0
ELLIPSE
  5
481
100
AcDbEntity
  8
0
100
AcDbEllipse
 62
7
  6
CONTINUOUS
 10
7.4718569132
 20
-22.3344902759
 30
0.0
 11
0.25
 21
-0.0
 31
0.0
 40
0.0524077793
 41
1.5707963268
 42
3.1241393611
  0
ELLIPSE
  5
482
100
AcDbEntity
  8
0
100
AcDbEllipse
 62
7
  6
CONTINUOUS
 10
7.4718569132
 20
-22.9783121635
 30
0.0
 11
0.25
 21
-0.0
 31
0.0
 40
0.5773502692
 41
-1.7618311193
 42
-1.5707963268
  0
ELLIPSE
  5
483
100
AcDbEntity
  8
0
100
AcDbEllipse
 62
7
  6
CONTINUOUS
 10
10.3281430868
 20
-22.3344902759
 30
0.0
 11
0.25
 21
0.0
 31
0.0
 40
0.0524077793
 41
0.3162462274
 42
1.5707963268
  0
ELLIPSE
  5
484
100
AcDbEntity
  8
0
100
AcDbEllipse
 62
7
  6
CONTINUOUS
 10
10.3281430868
 20
-22.9783121635
 30
0.0
 11
0.25
 21
0.0
 31
0.0
 40
0.5773502692
 41
-1.5707963268
 42
-1.3797615343
  0
ELLIPSE
  5
485
100
AcDbEntity
  8
0
100
AcDbEllipse
 62
7
  6
CONTINUOUS
 10
-7.4718569132
 20
22.3344902759
 30
0.0
 11
0.25
 21
0.0
 31
0.0
 40
0.0524077793
 41
-1.5707963268
 42
-0.0174532925
  0
ELLIPSE
  5
486
100
AcDbEntity
  8
0
100
AcDbEllipse
 62
7
  6
CONTINUOUS
 10
-7.4718569132
 20
22.9783121635
 30
0.0
 11
0.25
 21
0.0
 31
0.0
 40
0.5773502692
 41
1.3797615343
 42
1.5707963268
  0
ELLIPSE
  5
487
100
AcDbEntity
  8
0
100
AcDbEllipse
 62
7
  6
CONTINUOUS
 10
-10.3281430868
 20
22.3344902759
 30
0.0
 11
0.25
 21
-0.0
 31
0.0
 40
0.0524077793
 41
-2.8253464262
 42
-1.5707963268
  0
ELLIPSE
  5
488
100
AcDbEntity
  8
0
100
AcDbEllipse
 62
7
  6
CONTINUOUS
 10
-10.3281430868
 20
22.9783121635
 30
0.0
 11
0.25
 21
0.0
 31
0.0
 40
0.5773502692
 41
1.5707963268
 42
1.7618311193
  0
ELLIPSE
  5
489
100
AcDbEntity
  8
0
100
AcDbEllipse
 62
7
  6
CONTINUOUS
 10
7.4718569132
 20
22.3344902759
 30
0.0
 11
0.25
 21
0.0
 31
0.0
 40
0.0524077793
 41
-3.1241393611
 42
-1.5707963268
  0
ELLIPSE
  5
48A
100
AcDbEntity
  8
0
100
AcDbEllipse
 62
7
  6
CONTINUOUS
 10
7.4718569132
 20
22.9783121635
 30
0.0
 11
0.25
 21
0.0
 31
0.0
 40
0.5773502692
 41
1.5707963268
 42
1.7618311193
  0
ELLIPSE
  5
48B
100
AcDbEntity
  8
0
100
AcDbEllipse
 62
7
  6
CONTINUOUS
 10
10.3281430868
 20
22.3344902759
 30
0.0
 11
0.25
 21
0.0
 31
0.0
 40
0.0524077793
 41
-1.5707963268
 42
-0.3162462274
  0
ELLIPSE
  5
48C
100
AcDbEntity
  8
0
100
AcDbEllipse
 62
7
  6
CONTINUOUS
 10
10.3281430868
 20
22.9783121635
 30
0.0
 11
0.25
 21
0.0
 31
0.0
 40
0.5773502692
 41
1.3797615343
 42
1.5707963268
  0
ELLIPSE
  5
48D
100
AcDbEntity
  8
0
100
AcDbEllipse
 62
7
  6
CONTINUOUS
 10
-8.7631293807
 20
22.2820824966
 30
0.0
 11
0.25
 21
0.0
 31
0.0
 40
0.0524077793
 41
-1.5707963268
 42
-0.0174532925
  0
ELLIPSE
  5
48E
100
AcDbEntity
  8
0
100
AcDbEllipse
 62
7
  6
CONTINUOUS
 10
-8.7631293807
 20
23.5556624327
 30
0.0
 11
0.25
 21
0.0
 31
0.0
 40
0.5773502692
 41
0.0174532925
 42
0.5235987756
  0
ELLIPSE
  5
48F
100
AcDbEntity
  8
0
100
AcDbEllipse
 62
7
  6
CONTINUOUS
 10
9.0368706193
 20
23.5556624327
 30
0.0
 11
0.25
 21
-0.0
 31
0.0
 40
0.5773502692
 41
0.0174532925
 42
0.5235987756
  0
ELLIPSE
  5
490
100
AcDbEntity
  8
0
100
AcDbEllipse
 62
7
  6
CONTINUOUS
 10
9.0368706193
 20
22.2820824966
 30
0.0
 11
0.25
 21
0.0
 31
0.0
 40
0.0524077793
 41
-1.5707963268
 42
-0.0174532925
  0
ELLIPSE
  5
491
100
AcDbEntity
  8
0
100
AcDbEllipse
 62
7
  6
CONTINUOUS
 10
9.0368706193
 20
-22.2820824966
 30
0.0
 11
0.25
 21
0.0
 31
0.0
 40
0.0524077793
 41
0.0174532925
 42
1.5707963268
  0
ELLIPSE
  5
492
100
AcDbEntity
  8
0
100
AcDbEllipse
 62
7
  6
CONTINUOUS
 10
-10.600342662
 20
21.9003426489
 30
0.0
 11
-0.9888246763
 21
3.0427267403
 31
0.0
 40
0.0489125227
 41
-1.4436485256
 42
-1.4217508691
  0
ELLIPSE
  5
493
100
AcDbEntity
  8
0
100
AcDbEllipse
 62
7
  6
CONTINUOUS
 10
-10.600342662
 20
-21.9003426489
 30
0.0
 11
0.9888246763
 21
3.0427267403
 31
0.0
 40
0.0489125227
 41
-1.7198418491
 42
-1.697944128
  0
ELLIPSE
  5
494
100
AcDbEntity
  8
0
100
AcDbEllipse
 62
7
  6
CONTINUOUS
 10
-1.0052669851
 20
-22.3842776662
 30
0.0
 11
0.2
 21
-0.0
 31
0.0
 40
0.0524077793
 41
0.0174532925
 42
1.5707963268
  0
ELLIPSE
  5
495
100
AcDbEntity
  8
0
100
AcDbEllipse
 62
7
  6
CONTINUOUS
 10
10.600342662
 20
-21.9003426489
 30
0.0
 11
-0.9888246763
 21
3.0427267403
 31
0.0
 40
0.0489125227
 41
-4.5852411792
 42
-4.5633435227
  0
ELLIPSE
  5
496
100
AcDbEntity
  8
0
100
AcDbEllipse
 62
7
  6
CONTINUOUS
 10
10.600342662
 20
21.9003426489
 30
0.0
 11
0.9888246763
 21
3.0427267403
 31
0.0
 40
0.0489125227
 41
1.4217508045
 42
1.4436485256
  0
ELLIPSE
  5
497
100
AcDbEntity
  8
0
100
AcDbEllipse
 62
7
  6
CONTINUOUS
 10
-8.7631293807
 20
-22.2820824966
 30
0.0
 11
0.25
 21
0.0
 31
0.0
 40
0.0524077793
 41
0.0174532925
 42
1.5707963268
  0
ELLIPSE
  5
498
100
AcDbEntity
  8
0
100
AcDbEllipse
 62
7
  6
CONTINUOUS
 10
1.0052669851
 20
-22.3842776662
 30
0.0
 11
0.2
 21
0.0
 31
0.0
 40
0.0524077793
 41
1.5707963268
 42
3.1241393611
  0
ELLIPSE
  5
499
100
AcDbEntity
  8
0
100
AcDbEllipse
 62
7
  6
CONTINUOUS
 10
-8.7631293807
 20
-23.5556624327
 30
0.0
 11
0.25
 21
0.0
 31
0.0
 40
0.5773502692
 41
-0.5235987756
 42
-0.0174532925
  0
ELLIPSE
  5
49A
100
AcDbEntity
  8
0
100
AcDbEllipse
 62
7
  6
CONTINUOUS
 10
9.0368706193
 20
-23.5556624327
 30
0.0
 11
0.25
 21
0.0
 31
0.0
 40
0.5773502692
 41
-0.5235987756
 42
-0.0174532925
  0
ELLIPSE
  5
49B
100
AcDbEntity
  8
0
100
AcDbEllipse
 62
7
  6
CONTINUOUS
 10
8.7631293807
 20
23.5556624327
 30
0.0
 11
0.25
 21
0.0
 31
0.0
 40
0.5773502692
 41
2.617993878
 42
3.1241393611
  0
ELLIPSE
  5
49C
100
AcDbEntity
  8
0
100
AcDbEllipse
 62
7
  6
CONTINUOUS
 10
-9.0368706193
 20
23.5556624327
 30
0.0
 11
0.25
 21
0.0
 31
0.0
 40
0.5773502692
 41
2.617993878
 42
3.1241393611
  0
ELLIPSE
  5
49D
100
AcDbEntity
  8
0
100
AcDbEllipse
 62
7
  6
CONTINUOUS
 10
4.2447330149
 20
-22.3842776662
 30
0.0
 11
0.2
 21
-0.0
 31
0.0
 40
0.0524077793
 41
0.0174532925
 42
1.5707963268
  0
ELLIPSE
  5
49E
100
AcDbEntity
  8
0
100
AcDbEllipse
 62
7
  6
CONTINUOUS
 10
-31.6423972169
 20
21.9003426489
 30
0.0
 11
57.2877742299
 21
3.0018677586
 31
0.0
 40
0.0087159045
 41
1.5706822257
 42
1.5925799468
  0
ELLIPSE
  5
49F
100
AcDbEntity
  8
0
100
AcDbEllipse
 62
7
  6
CONTINUOUS
 10
-31.6423972169
 20
-21.9003426489
 30
0.0
 11
57.2877742299
 21
-3.0018677586
 31
0.0
 40
0.0087159045
 41
4.6906053604
 42
4.7125030169
  0
ELLIPSE
  5
4A0
100
AcDbEntity
  8
0
100
AcDbEllipse
 62
7
  6
CONTINUOUS
 10
-8.5143252053
 20
-23.2
 30
0.0
 11
26.3304431995
 21
0.0
 31
0.0
 40
0.017367588
 41
-2.5701928713
 42
-2.3053277814
  0
ELLIPSE
  5
4A1
100
AcDbEntity
  8
0
100
AcDbEllipse
 62
7
  6
CONTINUOUS
 10
-8.5143252053
 20
-23.2
 30
0.0
 11
26.3304431995
 21
-0.0
 31
0.0
 40
0.017367588
 41
2.3053277814
 42
2.5701928713
  0
ELLIPSE
  5
4A2
100
AcDbEntity
  8
0
100
AcDbEllipse
 62
7
  6
CONTINUOUS
 10
-8.5143252053
 20
23.2
 30
0.0
 11
26.3304431995
 21
0.0
 31
0.0
 40
0.017367588
 41
-2.5701928713
 42
-2.3053277814
  0
ELLIPSE
  5
4A3
100
AcDbEntity
  8
0
100
AcDbEllipse
 62
7
  6
CONTINUOUS
 10
-8.5143252053
 20
23.2
 30
0.0
 11
26.3304431995
 21
-0.0
 31
0.0
 40
0.017367588
 41
2.3053277814
 42
2.5701928713
  0
ENDSEC
  0
SECTION
  2
OBJECTS
  0
DICTIONARY
  5
C
100
AcDbDictionary
280
0
281
1
  3
ACAD_GROUP
350
D
  3
ACAD_MLINESTYLE
350
17
  3
ACAD_LAYOUT
350
1A
  3
ACAD_PLOTSETTINGS
350
19
  3
ACAD_PLOTSTYLENAME
350
E
  0
DICTIONARY
  5
D
102
{ACAD_REACTORS
330
C
102
}
100
AcDbDictionary
280
0
281
1
  0
ACDBDICTIONARYWDFLT
  5
E
102
{ACAD_REACTORS
330
C
102
}
100
AcDbDictionary
281
1
  3
Normal
350
F
100
AcDbDictionaryWithDefault
340
F
  0
DICTIONARY
  5
17
102
{ACAD_REACTORS
330
C
102
}
100
AcDbDictionary
280
0
281
1
  3
Standard
350
18
  0
DICTIONARY
  5
19
102
{ACAD_REACTORS
330
C
102
}
100
AcDbDictionary
281
1
  0
DICTIONARY
  5
1A
102
{ACAD_REACTORS
330
C
102
}
100
AcDbDictionary
281
1
  3
Model
350
4A4
  3
Layout1
350
4A5
  0
ACDBPLACEHOLDER
  5
F
102
{ACAD_REACTORS
330
E
102
}
  0
MLINESTYLE
  5
18
102
{ACAD_REACTORS
330
17
102
}
100
AcDbMlineStyle
  2
STANDARD
 70
0
  3

 62
256
 51
90.0
 52
90.0
 71
2
 49
0.5
 62
256
  6
BYLAYER
 49
-0.5
 62
256
  6
BYLAYER
  0
LAYOUT
  5
4A4
102
{ACAD_REACTORS
330
1A
102
}
100
AcDbPlotSettings
  1

  2
none_device
  4
ISO_A4_(297.00_x_210.00_MM)
  6

 40
0.0
 41
0.0
 42
0.0
 43
0.0
 44
297.0
 45
210.0
 46
0.0
 47
0.0
 48
0.0
 49
0.0
140
0.0
141
0.0
142
1.0
143
1.0
 70
1024
 72
1
 73
0
 74
0
  7

 75
0
147
1.0
148
0.0
149
0.0
100
AcDbLayout
  1
Model
 70
0
 71
0
 10
0.0
 20
0.0
 11
297.0
 21
210.0
 12
0.0
 22
0.0
 32
0.0
 14
0.0
 24
0.0
 34
0.0
 15
0.0
 25
0.0
 35
0.0
146
0.0
 13
0.0
 23
0.0
 33
0.0
 16
1.0
 26
0.0
 36
0.0
 17
0.0
 27
1.0
 37
0.0
 76
0
330
212
345
0
346
0
  0
LAYOUT
  5
4A5
102
{ACAD_REACTORS
330
1A
102
}
100
AcDbPlotSettings
  1

  2
none_device
  4
ISO_A4_(297.00_x_210.00_MM)
  6

 40
0.0
 41
0.0
 42
0.0
 43
0.0
 44
297.0
 45
210.0
 46
0.0
 47
0.0
 48
0.0
 49
0.0
140
0.0
141
0.0
142
1.0
143
1.0
 70
0
 72
1
 73
0
 74
0
  7

 75
0
147
1.0
148
0.0
149
0.0
100
AcDbLayout
  1
Layout1
 70
0
 71
1
 10
0.0
 20
0.0
 11
297.0
 21
210.0
 12
0.0
 22
0.0
 32
0.0
 14
0.0
 24
0.0
 34
0.0
 15
0.0
 25
0.0
 35
0.0
146
0.0
 13
0.0
 23
0.0
 33
0.0
 16
1.0
 26
0.0
 36
0.0
 17
0.0
 27
1.0
 37
0.0
 76
0
330
213
345
0
346
0
  0
ENDSEC
  0
EOF
