  0
SECTION
  2
HEADER
  9
$ACADVER
  1
AC1021
  9
$DWGCODEPAGE
  3
ANSI_1252
  9
$EXTMAX
 10
297.0
 20
210.0
 30
0.0
  9
$EXTMIN
 10
0.0
 20
0.0
 30
0.0
  9
$LIMMIN
 10
0.0
 20
0.0
  9
$LIMMAX
 10
297.0
 20
210.0
  9
$VIEWCTR
 10
148.5
 20
105.0
  9
$VIEWSIZE
 40
210.0
  9
$CLAYER
  8
0
  9
$LTSCALE
 40
16.335
  9
$CELTYPE
  6
BYLAYER
  9
$DIMSCALE
 40
1.0
  9
$DIMASZ
 40
3.0
  9
$DIMEXO
 40
0.5
  9
$DIMDLI
 40
11.286
  9
$DIMEXE
 40
1.5
  9
$DIMCEN
 40
2.673
  9
$DIMLFAC
 40
1.0
  9
$DIMBLK
  1
_FILLED
  9
$DIMALT
 70
0
  9
$DIMALTF
 40
25.4
  9
$DIMTXT
 40
3.0
  9
$DIMTOL
 70
1
  9
$DIMLIM
 70
0
  9
$DIMTFAC
 40
1.0
  9
$DIMTP
 40
0.01
  9
$DIMTM
 40
0.01
  9
$DIMGAP
 40
0.625
  9
$DIMDSEP
 70
44
  9
$AUNITS
 70
0
  9
$PDMODE
 70
3
  9
$PDSIZE
 40
3.0
  9
$HANDSEED
  5
6D1
  9
$TILEMODE
 70
1
  9
$MEASUREMENT
 70
1
  9
$INSUNITS
 70
4
  0
ENDSEC
  0
SECTION
  2
CLASSES
  0
CLASS
  1
ACDBDICTIONARYWDFLT
  2
AcDbDictionaryWithDefault
  3
AutoCAD 2000
 90
0
 91
1
280
0
281
0
  0
CLASS
  1
ACDBPLACEHOLDER
  2
AcDbPlaceHolder
  3
AutoCAD 2000
 90
0
 91
1
280
0
281
0
  0
CLASS
  1
LAYOUT
  2
AcDbLayout
  3
AutoCAD 2000
 90
0
 91
0
280
0
281
0
  0
ENDSEC
  0
SECTION
  2
TABLES
  0
TABLE
  2
VPORT
  5
8
100
AcDbSymbolTable
 70
2
  0
VPORT
  5
1F4
100
AcDbSymbolTableRecord
100
AcDbViewportTableRecord
  2
*ACTIVE
 70
0
 10
0.0
 20
0.0
 11
1.0
 21
1.0
 12
148.5
 22
105.0
 13
0.0
 23
0.0
 14
1.0
 24
1.0
 15
0.0
 25
0.0
 16
0.0
 26
0.0
 36
1.0
 17
0.0
 27
0.0
 37
0.0
 40
210.0
 41
1.4142857143
 42
50.0
 43
0.0
 44
0.0
 50
0.0
 51
0.0
 71
0
 72
100
 73
1
 74
1
 75
0
 76
0
 77
0
 78
0
  0
ENDTAB
  0
TABLE
  2
LTYPE
  5
5
100
AcDbSymbolTable
 70
6
  0
LTYPE
  5
14
100
AcDbSymbolTableRecord
100
AcDbLinetypeTableRecord
  2
BYBLOCK
 70
0
  3

 72
65
 73
0
 40
0.0
  0
LTYPE
  5
15
100
AcDbSymbolTableRecord
100
AcDbLinetypeTableRecord
  2
BYLAYER
 70
0
  3

 72
65
 73
0
 40
0.0
  0
LTYPE
  5
16
100
AcDbSymbolTableRecord
100
AcDbLinetypeTableRecord
  2
CONTINUOUS
 70
64
  3
Solid line
 72
65
 73
0
 40
0.0
  0
LTYPE
  5
1F5
100
AcDbSymbolTableRecord
100
AcDbLinetypeTableRecord
  2
CENTER
 70
64
  3
____ _ ____ _ ____ _ ____ _ ____ _ ____ _ ____
 72
65
 73
4
 40
0.6
 49
0.375
 74
0
 49
-0.075
 74
0
 49
0.075
 74
0
 49
-0.075
 74
0
  0
LTYPE
  5
1F6
100
AcDbSymbolTableRecord
100
AcDbLinetypeTableRecord
  2
HIDDEN
 70
64
  3
- - - - - - - - - - - - - - - - - - - -
 72
65
 73
2
 40
0.2
 49
0.1
 74
0
 49
-0.1
 74
0
  0
LTYPE
  5
1F7
100
AcDbSymbolTableRecord
100
AcDbLinetypeTableRecord
  2
PHANTOM
 70
64
  3
_____ _ _ _____ _ _ _____ _ _ _____
 72
65
 73
6
 40
0.8
 49
0.45
 74
0
 49
-0.05
 74
0
 49
0.1
 74
0
 49
-0.05
 74
0
 49
0.1
 74
0
 49
-0.05
 74
0
  0
LTYPE
  5
1F8
100
AcDbSymbolTableRecord
100
AcDbLinetypeTableRecord
  2
DOT
 70
64
  3
. . . . . . . . . . . . . . . . . . . .
 72
65
 73
2
 40
0.2
 49
0.1
 74
0
 49
-0.1
 74
0
  0
LTYPE
  5
1F9
100
AcDbSymbolTableRecord
100
AcDbLinetypeTableRecord
  2
DASHED
 70
64
  3
- - - - - - - - - - - - - - - - - - - -
 72
65
 73
2
 40
0.2
 49
0.1
 74
0
 49
-0.1
 74
0
  0
ENDTAB
  0
TABLE
  2
LAYER
  5
2
100
AcDbSymbolTable
 70
36
  0
LAYER
  5
10
100
AcDbSymbolTableRecord
100
AcDbLayerTableRecord
  2
0
 70
0
 62
7
  6
CONTINUOUS
370
-3
390
F
  0
LAYER
  5
1FA
100
AcDbSymbolTableRecord
100
AcDbLayerTableRecord
  2
DEFAULT_1
 70
0
 62
7
  6
CENTER
370
-3
390
F
  0
LAYER
  5
1FB
100
AcDbSymbolTableRecord
100
AcDbLayerTableRecord
  2
DEFAULT_2
 70
0
 62
7
  6
HIDDEN
370
-3
390
F
  0
LAYER
  5
1FC
100
AcDbSymbolTableRecord
100
AcDbLayerTableRecord
  2
DEFAULT_3
 70
0
 62
7
  6
PHANTOM
370
-3
390
F
  0
LAYER
  5
1FD
100
AcDbSymbolTableRecord
100
AcDbLayerTableRecord
  2
ASSI
 70
0
 62
7
  6
CONTINUOUS
370
-3
390
F
  0
LAYER
  5
1FE
100
AcDbSymbolTableRecord
100
AcDbLayerTableRecord
  2
COORDINATE
 70
0
 62
7
  6
CONTINUOUS
370
-3
390
F
  0
LAYER
  5
1FF
100
AcDbSymbolTableRecord
100
AcDbLayerTableRecord
  2
COPY_PUBLISH
 70
0
 62
7
  6
CONTINUOUS
370
-3
390
F
  0
LAYER
  5
200
100
AcDbSymbolTableRecord
100
AcDbLayerTableRecord
  2
COSMETICI
 70
0
 62
7
  6
CONTINUOUS
370
-3
390
F
  0
LAYER
  5
201
100
AcDbSymbolTableRecord
100
AcDbLayerTableRecord
  2
CURVE
 70
0
 62
7
  6
CONTINUOUS
370
-3
390
F
  0
LAYER
  5
202
100
AcDbSymbolTableRecord
100
AcDbLayerTableRecord
  2
DRAFT
 70
0
 62
7
  6
CONTINUOUS
370
-3
390
F
  0
LAYER
  5
203
100
AcDbSymbolTableRecord
100
AcDbLayerTableRecord
  2
IMPORT_IGES
 70
0
 62
7
  6
CONTINUOUS
370
-3
390
F
  0
LAYER
  5
204
100
AcDbSymbolTableRecord
100
AcDbLayerTableRecord
  2
INTF_1
 70
0
 62
7
  6
CONTINUOUS
370
-3
390
F
  0
LAYER
  5
205
100
AcDbSymbolTableRecord
100
AcDbLayerTableRecord
  2
INTF_11
 70
0
 62
7
  6
CONTINUOUS
370
-3
390
F
  0
LAYER
  5
206
100
AcDbSymbolTableRecord
100
AcDbLayerTableRecord
  2
INTF_7
 70
0
 62
7
  6
CONTINUOUS
370
-3
390
F
  0
LAYER
  5
207
100
AcDbSymbolTableRecord
100
AcDbLayerTableRecord
  2
INTF_CYAN
 70
0
 62
7
  6
CONTINUOUS
370
-3
390
F
  0
LAYER
  5
208
100
AcDbSymbolTableRecord
100
AcDbLayerTableRecord
  2
NOTE
 70
0
 62
7
  6
CONTINUOUS
370
-3
390
F
  0
LAYER
  5
209
100
AcDbSymbolTableRecord
100
AcDbLayerTableRecord
  2
PIANI
 70
0
 62
7
  6
CONTINUOUS
370
-3
390
F
  0
LAYER
  5
20A
100
AcDbSymbolTableRecord
100
AcDbLayerTableRecord
  2
PUNTI
 70
0
 62
7
  6
CONTINUOUS
370
-3
390
F
  0
LAYER
  5
20B
100
AcDbSymbolTableRecord
100
AcDbLayerTableRecord
  2
RACCORDO
 70
0
 62
7
  6
CONTINUOUS
370
-3
390
F
  0
LAYER
  5
20C
100
AcDbSymbolTableRecord
100
AcDbLayerTableRecord
  2
RGB__255__255__255__
 70
0
 62
7
  6
CONTINUOUS
370
-3
390
F
  0
LAYER
  5
20D
100
AcDbSymbolTableRecord
100
AcDbLayerTableRecord
  2
RGB____0____0____0__
 70
0
 62
7
  6
CONTINUOUS
370
-3
390
F
  0
LAYER
  5
20E
100
AcDbSymbolTableRecord
100
AcDbLayerTableRecord
  2
SIMBOLI
 70
0
 62
7
  6
CONTINUOUS
370
-3
390
F
  0
LAYER
  5
20F
100
AcDbSymbolTableRecord
100
AcDbLayerTableRecord
  2
SMUSSO
 70
0
 62
7
  6
CONTINUOUS
370
-3
390
F
  0
LAYER
  5
210
100
AcDbSymbolTableRecord
100
AcDbLayerTableRecord
  2
SNAPLINE
 70
0
 62
7
  6
CONTINUOUS
370
-3
390
F
  0
LAYER
  5
211
100
AcDbSymbolTableRecord
100
AcDbLayerTableRecord
  2
SUPERFICI
 70
0
 62
7
  6
CONTINUOUS
370
-3
390
F
  0
LAYER
  5
212
100
AcDbSymbolTableRecord
100
AcDbLayerTableRecord
  2
TRASH
 70
0
 62
7
  6
CONTINUOUS
370
-3
390
F
  0
ENDTAB
  0
TABLE
  2
STYLE
  5
3
100
AcDbSymbolTable
 70
1
  0
STYLE
  5
11
100
AcDbSymbolTableRecord
100
AcDbTextStyleTableRecord
  2
STANDARD
 70
0
 40
0.0
 41
0.8
 50
0.0
 71
0
 42
0.2
  3
txt
  4

  0
STYLE
  5
213
100
AcDbSymbolTableRecord
100
AcDbTextStyleTableRecord
  2
TEXTSTYLE_1
 70
0
 40
0.0
 41
0.8
 50
0.0
 71
0
 42
0.2
  3
gdt
  4

  0
ENDTAB
  0
TABLE
  2
VIEW
  5
6
100
AcDbSymbolTable
 70
0
  0
ENDTAB
  0
TABLE
  2
UCS
  5
7
100
AcDbSymbolTable
 70
0
  0
ENDTAB
  0
TABLE
  2
APPID
  5
9
100
AcDbSymbolTable
 70
1
  0
APPID
  5
214
100
AcDbSymbolTableRecord
100
AcDbRegAppTableRecord
  2
ACAD
 70
0
  0
ENDTAB
  0
TABLE
  2
BLOCK_RECORD
  5
1
100
AcDbSymbolTable
 70
0
  0
BLOCK_RECORD
  5
215
100
AcDbSymbolTableRecord
100
AcDbBlockTableRecord
  2
*Model_Space
  0
BLOCK_RECORD
  5
216
100
AcDbSymbolTableRecord
100
AcDbBlockTableRecord
  2
*Paper_Space
  0
BLOCK_RECORD
  5
217
100
AcDbSymbolTableRecord
100
AcDbBlockTableRecord
  2
_FILLED
  0
BLOCK_RECORD
  5
218
100
AcDbSymbolTableRecord
100
AcDbBlockTableRecord
  2
*D0
  0
BLOCK_RECORD
  5
219
100
AcDbSymbolTableRecord
100
AcDbBlockTableRecord
  2
*D1
  0
BLOCK_RECORD
  5
21A
100
AcDbSymbolTableRecord
100
AcDbBlockTableRecord
  2
*D2
  0
BLOCK_RECORD
  5
21B
100
AcDbSymbolTableRecord
100
AcDbBlockTableRecord
  2
*D3
  0
ENDTAB
  0
TABLE
  2
DIMSTYLE
  5
A
100
AcDbSymbolTable
 70
1
100
AcDbDimStyleTable
 71
0
  0
DIMSTYLE
105
21C
100
AcDbSymbolTableRecord
100
AcDbDimStyleTableRecord
  2
STANDARD
 70
0
  3

  4

 40
1.0
 41
3.0
 42
0.5
 43
0.38
 44
1.5
 45
0.0
 46
0.0
 47
0.01
 48
0.01
140
3.0
141
0.09
142
0.0
143
25.4
144
1.0
145
0.0
146
1.0
147
0.625
 71
1.0
 72
0.0
 73
0
 74
0
 75
0
 76
0
 77
1
 78
8
170
0
171
1
172
0
173
0
174
0
175
0
176
0
177
0
178
0
270
2
271
2
272
2
273
2
274
2
275
0
280
0
281
0
282
0
283
1
284
8
285
0
286
0
287
3
288
0
340
11
278
44
341
217
342
217
343
217
344
217
  0
DIMSTYLE
105
21D
100
AcDbSymbolTableRecord
100
AcDbDimStyleTableRecord
  2
DIMSTYLE_1
 70
0
  3

  4

 40
1.0
 41
3.0
 42
0.5
 43
0.38
 44
1.5
 45
0.0
 46
0.0
 47
0.0
 48
0.0
140
3.0
141
0.09
142
0.0
143
25.4
144
1.0
145
0.0
146
1.0
147
0.75
 71
0.0
 72
0.0
 73
0
 74
0
 75
0
 76
0
 77
1
 78
8
170
0
171
1
172
0
173
0
174
0
175
0
176
0
177
0
178
0
270
2
271
2
272
2
273
2
274
2
275
0
280
0
281
0
282
0
283
1
284
8
285
0
286
0
287
3
288
0
340
11
278
44
341
217
342
217
343
217
344
217
  0
ENDTAB
  0
ENDSEC
  0
SECTION
  2
BLOCKS
  0
BLOCK
  5
20
100
AcDbEntity
  8
0
100
AcDbBlockBegin
  2
*Model_Space
 70
0
 10
0.0
 20
0.0
 30
0.0
  3
*Model_Space
  1

  0
ENDBLK
  5
21
100
AcDbEntity
  8
0
100
AcDbBlockEnd
  0
BLOCK
  5
1C
100
AcDbEntity
  8
0
100
AcDbBlockBegin
  2
*Paper_Space
 70
0
 10
0.0
 20
0.0
 30
0.0
  3
*Paper_Space
  1

  0
ENDBLK
  5
1D
100
AcDbEntity
  8
0
100
AcDbBlockEnd
  0
BLOCK
  5
21E
100
AcDbEntity
  8
0
100
AcDbBlockBegin
  2
_FILLED
 70
64
 10
0.0
 20
0.0
  3
_FILLED
  1

  0
SOLID
  5
21F
100
AcDbEntity
  8
0
  6
BYBLOCK
 62
0
100
AcDbTrace
 10
0.0
 20
0.0
 11
-1.0
 21
0.3166666667
 12
-1.0
 22
-0.3166666667
 13
-1.0
 23
-0.3166666667
  0
ENDBLK
  5
220
100
AcDbEntity
  8
0
  6
BYBLOCK
 62
0
100
AcDbBlockEnd
  0
BLOCK
  5
221
100
AcDbEntity
  8
0
100
AcDbBlockBegin
 62
7
  6
CONTINUOUS
  2
*D0
 70
65
 10
0.0
 20
0.0
  3
*D0
  1

  0
MTEXT
  5
222
100
AcDbEntity
  8
0
100
AcDbMText
 62
7
  6
CONTINUOUS
  7
STANDARD
 71
2
 72
1
 10
0.0
 20
36.25
 30
0.0
 11
1.0
 21
0.0
 31
0.0
 44
0.9
  1
44,75
 40
3.0
 41
16.3928571429
  0
LINE
  5
223
100
AcDbEntity
  8
0
100
AcDbLine
 62
7
  6
CONTINUOUS
 10
22.3761859216
 20
20.9226497308
 11
22.3761859216
 21
34.0
  0
LINE
  5
224
100
AcDbEntity
  8
0
100
AcDbLine
 62
7
  6
CONTINUOUS
 10
-22.3761859216
 20
20.9226497308
 11
-22.3761859216
 21
34.0
  0
LINE
  5
225
100
AcDbEntity
  8
0
100
AcDbLine
 62
7
  6
CONTINUOUS
 10
22.3761859216
 20
32.5
 11
0.0
 21
32.5
  0
LINE
  5
226
100
AcDbEntity
  8
0
100
AcDbLine
 62
7
  6
CONTINUOUS
 10
-22.3761859216
 20
32.5
 11
0.0
 21
32.5
  0
INSERT
  5
227
100
AcDbEntity
  8
0
100
AcDbBlockReference
 62
7
  6
CONTINUOUS
  2
_FILLED
 10
22.3761859216
 20
32.5
 41
3.0
 42
3.0
 43
3.0
  0
INSERT
  5
228
100
AcDbEntity
  8
0
100
AcDbBlockReference
 62
7
  6
CONTINUOUS
  2
_FILLED
 10
-22.3761859216
 20
32.5
 41
3.0
 42
3.0
 43
3.0
 50
180.0
  0
ENDBLK
  5
229
100
AcDbEntity
  8
0
  6
BYBLOCK
 62
0
100
AcDbBlockEnd
  0
BLOCK
  5
22A
100
AcDbEntity
  8
0
100
AcDbBlockBegin
 62
7
  6
CONTINUOUS
  2
*D1
 70
65
 10
0.0
 20
0.0
  3
*D1
  1

  0
MTEXT
  5
22B
100
AcDbEntity
  8
0
100
AcDbMText
 62
7
  6
CONTINUOUS
  7
STANDARD
 71
2
 72
1
 10
-35.3793022145
 20
36.25
 30
0.0
 11
1.0
 21
0.0
 31
0.0
 44
0.9
  1
11
 40
3.0
 41
5.1428571429
  0
LINE
  5
22C
100
AcDbEntity
  8
0
100
AcDbLine
 62
7
  6
CONTINUOUS
 10
-40.8793022145
 20
24.800030461
 11
-40.8793022145
 21
34.0
  0
LINE
  5
22D
100
AcDbEntity
  8
0
100
AcDbLine
 62
7
  6
CONTINUOUS
 10
-29.8793022145
 20
21.4872686779
 11
-29.8793022145
 21
34.0
  0
LINE
  5
22E
100
AcDbEntity
  8
0
100
AcDbLine
 62
7
  6
CONTINUOUS
 10
-40.8793022145
 20
32.5
 11
-35.3793022145
 21
32.5
  0
LINE
  5
22F
100
AcDbEntity
  8
0
100
AcDbLine
 62
7
  6
CONTINUOUS
 10
-29.8793022145
 20
32.5
 11
-35.3793022145
 21
32.5
  0
INSERT
  5
230
100
AcDbEntity
  8
0
100
AcDbBlockReference
 62
7
  6
CONTINUOUS
  2
_FILLED
 10
-40.8793022145
 20
32.5
 41
3.0
 42
3.0
 43
3.0
 50
180.0
  0
INSERT
  5
231
100
AcDbEntity
  8
0
100
AcDbBlockReference
 62
7
  6
CONTINUOUS
  2
_FILLED
 10
-29.8793022145
 20
32.5
 41
3.0
 42
3.0
 43
3.0
 50
0.0
  0
ENDBLK
  5
232
100
AcDbEntity
  8
0
  6
BYBLOCK
 62
0
100
AcDbBlockEnd
  0
BLOCK
  5
233
100
AcDbEntity
  8
0
100
AcDbBlockBegin
 62
7
  6
CONTINUOUS
  2
*D2
 70
65
 10
0.0
 20
0.0
  3
*D2
  1

  0
MTEXT
  5
234
100
AcDbEntity
  8
0
100
AcDbMText
 62
7
  6
CONTINUOUS
  7
STANDARD
 71
2
 72
1
 10
-39.9793113281
 20
46.25
 30
0.0
 11
1.0
 21
0.0
 31
0.0
 44
0.9
  1
20,2
 40
3.0
 41
13.1785714286
  0
LINE
  5
235
100
AcDbEntity
  8
0
100
AcDbLine
 62
7
  6
CONTINUOUS
 10
-29.8793022145
 20
21.4872686779
 11
-29.8793022145
 21
44.0
  0
LINE
  5
236
100
AcDbEntity
  8
0
100
AcDbLine
 62
7
  6
CONTINUOUS
 10
-50.0793204418
 20
0.5
 11
-50.0793204418
 21
44.0
  0
LINE
  5
237
100
AcDbEntity
  8
0
100
AcDbLine
 62
7
  6
CONTINUOUS
 10
-29.8793022145
 20
42.5
 11
-39.9793113281
 21
42.5
  0
LINE
  5
238
100
AcDbEntity
  8
0
100
AcDbLine
 62
7
  6
CONTINUOUS
 10
-50.0793204418
 20
42.5
 11
-39.9793113281
 21
42.5
  0
INSERT
  5
239
100
AcDbEntity
  8
0
100
AcDbBlockReference
 62
7
  6
CONTINUOUS
  2
_FILLED
 10
-29.8793022145
 20
42.5
 41
3.0
 42
3.0
 43
3.0
 50
0.0
  0
INSERT
  5
23A
100
AcDbEntity
  8
0
100
AcDbBlockReference
 62
7
  6
CONTINUOUS
  2
_FILLED
 10
-50.0793204418
 20
42.5
 41
3.0
 42
3.0
 43
3.0
 50
180.0
  0
ENDBLK
  5
23B
100
AcDbEntity
  8
0
  6
BYBLOCK
 62
0
100
AcDbBlockEnd
  0
BLOCK
  5
23C
100
AcDbEntity
  8
0
100
AcDbBlockBegin
 62
7
  6
CONTINUOUS
  2
*D3
 70
65
 10
0.0
 20
0.0
  3
*D3
  1

  0
MTEXT
  5
23D
100
AcDbEntity
  8
0
100
AcDbMText
 62
7
  6
CONTINUOUS
  7
STANDARD
 71
2
 72
1
 10
26.6261859216
 20
0.0
 30
0.0
 11
0.0
 21
1.0
 31
0.0
 44
0.9
  1
49
 40
3.0
 41
7.0714285714
  0
LINE
  5
23E
100
AcDbEntity
  8
0
100
AcDbLine
 62
7
  6
CONTINUOUS
 10
22.150030461
 20
24.5
 11
31.8761859216
 21
24.5
  0
LINE
  5
23F
100
AcDbEntity
  8
0
100
AcDbLine
 62
7
  6
CONTINUOUS
 10
22.150030461
 20
-24.5
 11
31.8761859216
 21
-24.5
  0
LINE
  5
240
100
AcDbEntity
  8
0
100
AcDbLine
 62
7
  6
CONTINUOUS
 10
30.3761859216
 20
24.5
 11
30.3761859216
 21
0.0
  0
LINE
  5
241
100
AcDbEntity
  8
0
100
AcDbLine
 62
7
  6
CONTINUOUS
 10
30.3761859216
 20
-24.5
 11
30.3761859216
 21
0.0
  0
INSERT
  5
242
100
AcDbEntity
  8
0
100
AcDbBlockReference
 62
7
  6
CONTINUOUS
  2
_FILLED
 10
30.3761859216
 20
24.5
 41
3.0
 42
3.0
 43
3.0
 50
90.0
  0
INSERT
  5
243
100
AcDbEntity
  8
0
100
AcDbBlockReference
 62
7
  6
CONTINUOUS
  2
_FILLED
 10
30.3761859216
 20
-24.5
 41
3.0
 42
3.0
 43
3.0
 50
270.0
  0
ENDBLK
  5
244
100
AcDbEntity
  8
0
  6
BYBLOCK
 62
0
100
AcDbBlockEnd
  0
ENDSEC
  0
SECTION
  2
ENTITIES
  0
DIMENSION
  5
245
100
AcDbEntity
  8
0
100
AcDbDimension
 62
7
  6
CONTINUOUS
  2
*D0
 10
-22.3761859216
 20
32.5
 11
-0.4285713773
 21
32.5
 70
160
 71
2
 42
44.7523718431
  3
DIMSTYLE_1
100
AcDbAlignedDimension
 13
22.3761859216
 23
20.4226497308
 14
-22.3761859216
 24
20.4226497308
 50
180.0
100
AcDbRotatedDimension
  0
DIMENSION
  5
246
100
AcDbEntity
  8
0
100
AcDbDimension
 62
7
  6
CONTINUOUS
  2
*D1
 10
-29.8793022145
 20
32.5
 11
-35.807873703
 21
32.5
 70
160
 71
2
 42
11.0
  3
DIMSTYLE_1
100
AcDbAlignedDimension
 13
-40.8793022145
 23
24.300030461
 14
-29.8793022145
 24
20.9872686779
100
AcDbRotatedDimension
  0
DIMENSION
  5
247
100
AcDbEntity
  8
0
100
AcDbDimension
 62
7
  6
CONTINUOUS
  2
*D2
 10
-50.0793204418
 20
42.5
 11
-40.4078830376
 21
42.5
 70
160
 71
2
 42
20.2000182273
  3
DIMSTYLE_1
100
AcDbAlignedDimension
 13
-29.8793022145
 23
20.9872686779
 14
-50.0793204418
 24
0.0
 50
180.0
100
AcDbRotatedDimension
  0
DIMENSION
  5
248
100
AcDbEntity
  8
0
100
AcDbDimension
 62
7
  6
CONTINUOUS
  2
*D3
 10
30.3761859216
 20
-24.5
 11
30.3761859216
 21
-0.4285720267
 70
160
 71
2
 42
49.0
  3
DIMSTYLE_1
100
AcDbAlignedDimension
 13
21.650030461
 23
24.5
 14
21.650030461
 24
-24.5
 50
270.0
100
AcDbRotatedDimension
  0
LWPOLYLINE
  5
249
100
AcDbEntity
  8
0
100
AcDbPolyline
 62
7
  6
CONTINUOUS
 90
6
 70
0
 10
-20.5033769702
 20
23.6278312164
 10
-20.4898115433
 20
23.6418841347
 10
-20.474703113
 20
23.6568894062
 10
-20.4583611558
 20
23.6728470308
 10
-20.4411615849
 20
23.6899070152
 10
-20.4233076959
 20
23.7079193528
  0
LINE
  5
24A
100
AcDbEntity
  8
0
100
AcDbLine
 62
7
  6
CONTINUOUS
 10
-20.3067523025
 20
23.8242182101
 11
-20.2868706193
 21
23.8443375673
  0
LINE
  5
24B
100
AcDbEntity
  8
0
100
AcDbLine
 62
7
  6
CONTINUOUS
 10
-20.4233076959
 20
23.7079193528
 11
-20.3067523025
 21
23.8242182101
  0
LWPOLYLINE
  5
24C
100
AcDbEntity
  8
0
100
AcDbPolyline
 62
7
  6
CONTINUOUS
 90
6
 70
0
 10
-20.5033769702
 20
-23.6278312164
 10
-20.4893240519
 20
-23.6413966433
 10
-20.4743187804
 20
-23.6565050736
 10
-20.4583611558
 20
-23.6728470308
 10
-20.4413011713
 20
-23.6900466017
 10
-20.4232888338
 20
-23.7079004907
  0
LINE
  5
24D
100
AcDbEntity
  8
0
100
AcDbLine
 62
7
  6
CONTINUOUS
 10
-20.3069899765
 20
-23.8244558841
 11
-20.2868706193
 21
-23.8443375673
  0
LINE
  5
24E
100
AcDbEntity
  8
0
100
AcDbLine
 62
7
  6
CONTINUOUS
 10
-20.4232888338
 20
-23.7079004907
 11
-20.3069899765
 21
-23.8244558841
  0
LINE
  5
24F
100
AcDbEntity
  8
0
100
AcDbLine
 62
253
  6
CONTINUOUS
 10
-18.6893195933
 20
24.4606499457
 11
-18.649969539
 21
24.5
  0
LINE
  5
250
100
AcDbEntity
  8
0
100
AcDbLine
 62
253
  6
CONTINUOUS
 10
-18.4893500543
 20
24.2606804067
 11
-18.45
 21
24.300030461
  0
LWPOLYLINE
  5
251
100
AcDbEntity
  8
0
100
AcDbPolyline
 62
253
  6
CONTINUOUS
 90
14
 70
0
 10
-22.1458525721
 20
20.8567491349
 10
-22.1420059885
 20
20.8588820726
 10
-22.1331357019
 20
20.8609934023
 10
-22.1193315576
 20
20.8630617388
 10
-22.1007333751
 20
20.8650661322
 10
-22.0775295319
 20
20.8669862805
 10
-22.049955055
 20
20.8688027348
 10
-22.018289241
 20
20.8704970966
 10
-21.9828528267
 20
20.8720522041
 10
-21.9440047405
 20
20.8734523059
 10
-21.9021384671
 20
20.8746832206
 10
-21.8576780619
 20
20.8757324805
 10
-21.8110738554
 20
20.8765894582
 10
-21.7627978927
 20
20.8772454737
  0
LWPOLYLINE
  5
252
100
AcDbEntity
  8
0
100
AcDbPolyline
 62
253
  6
CONTINUOUS
 90
15
 70
0
 10
-22.145852567
 20
-20.8567491054
 10
-22.1420067748
 20
-20.8588820832
 10
-22.1331371648
 20
-20.8609934561
 10
-22.1193335775
 20
-20.8630618378
 10
-22.1007358295
 20
-20.8650662779
 10
-22.0775322978
 20
-20.8669864731
 10
-22.0499580112
 20
-20.868802974
 10
-22.0182922701
 20
-20.870497381
 10
-21.9828558173
 20
-20.8720525316
 10
-21.9440075891
 20
-20.8734526735
 10
-21.9021410797
 20
-20.8746836247
 10
-21.8576803558
 20
-20.875732917
 10
-21.8110757605
 20
-20.8765899219
 10
-21.7627993525
 20
-20.877245959
 10
-21.6631990492
 20
-20.8779306521
  0
LINE
  5
253
100
AcDbEntity
  8
0
100
AcDbLine
 62
253
  6
CONTINUOUS
 10
-18.649969539
 20
-24.5
 11
-18.689319642
 21
-24.4606498971
  0
LINE
  5
254
100
AcDbEntity
  8
0
100
AcDbLine
 62
253
  6
CONTINUOUS
 10
-18.45
 20
-24.300030461
 11
-18.4893500543
 21
-24.2606804067
  0
LWPOLYLINE
  5
255
100
AcDbEntity
  8
0
100
AcDbPolyline
 62
253
  6
CONTINUOUS
 90
11
 70
0
 10
-18.4893500543
 20
-24.2606804067
 10
-18.4893908651
 20
-24.2606014902
 10
-18.4894325302
 20
-24.2603874805
 10
-18.4894750498
 20
-24.2600383775
 10
-18.4895186667
 20
-24.2595608589
 10
-18.4895631381
 20
-24.2589482471
 10
-18.4896077347
 20
-24.2581805094
 10
-18.4896524834
 20
-24.2572530754
 10
-18.4896973572
 20
-24.2561705156
 10
-18.4897415469
 20
-24.2549265087
 10
-18.4897850502
 20
-24.2535159675
  0
LINE
  5
256
100
AcDbEntity
  8
0
100
AcDbLine
 62
7
  6
CONTINUOUS
 10
-19.75
 20
22.3213883311
 11
-19.7631674569
 21
22.2818538361
  0
LINE
  5
257
100
AcDbEntity
  8
0
100
AcDbLine
 62
7
  6
CONTINUOUS
 10
-18.4718949894
 20
22.3342616154
 11
-18.45
 21
22.4
  0
LINE
  5
258
100
AcDbEntity
  8
0
100
AcDbLine
 62
253
  6
CONTINUOUS
 10
-12.3044018482
 20
23.9955600755
 11
-12.2999619238
 21
24.0
  0
LINE
  5
259
100
AcDbEntity
  8
0
100
AcDbLine
 62
253
  6
CONTINUOUS
 10
-12.0544399245
 20
23.7455981518
 11
-12.05
 21
23.7500380762
  0
LWPOLYLINE
  5
25A
100
AcDbEntity
  8
0
100
AcDbPolyline
 62
7
  6
CONTINUOUS
 90
16
 70
0
 10
21.6256118279
 20
-23.1200239821
 10
21.6450369191
 20
-23.1185067539
 10
21.6645830178
 20
-23.1181640019
 10
21.6840493488
 20
-23.1190441086
 10
21.7032984279
 20
-23.121185675
 10
21.7220206643
 20
-23.1246030369
 10
21.7397735837
 20
-23.1292182361
 10
21.7562534502
 20
-23.1348681662
 10
21.7714037136
 20
-23.1414972273
 10
21.7851633854
 20
-23.1491378456
 10
21.7973753825
 20
-23.1576972142
 10
21.8077902427
 20
-23.1670305911
 10
21.816202926
 20
-23.1770851947
 10
21.8224642075
 20
-23.187711389
 10
21.8264637702
 20
-23.1986733423
 10
21.8281050106
 20
-23.2097560788
  0
LWPOLYLINE
  5
25B
100
AcDbEntity
  8
0
100
AcDbPolyline
 62
253
  6
CONTINUOUS
 90
13
 70
0
 10
21.6106804067
 20
-24.4606499457
 10
21.63677665
 20
-24.4589318909
 10
21.66242655
 20
-24.4538230091
 10
21.6871913995
 20
-24.4454106817
 10
21.7106476294
 20
-24.4338387909
 10
21.7323940524
 20
-24.419305259
 10
21.7520587249
 20
-24.402058664
 10
21.7693053095
 20
-24.3823939867
 10
21.7838388279
 20
-24.3606475653
 10
21.7954107051
 20
-24.337191343
 10
21.8038230207
 20
-24.3124265067
 10
21.8089318941
 20
-24.2867766258
 10
21.8106499457
 20
-24.2606804067
  0
LWPOLYLINE
  5
25C
100
AcDbEntity
  8
0
100
AcDbPolyline
 62
253
  6
CONTINUOUS
 90
13
 70
0
 10
3.8106804067
 20
-24.4606499457
 10
3.83677665
 20
-24.4589318909
 10
3.86242655
 20
-24.4538230091
 10
3.8871913995
 20
-24.4454106817
 10
3.9106476294
 20
-24.4338387909
 10
3.9323940524
 20
-24.419305259
 10
3.9520587249
 20
-24.402058664
 10
3.9693053095
 20
-24.3823939867
 10
3.9838388279
 20
-24.3606475653
 10
3.9954107051
 20
-24.337191343
 10
4.0038230207
 20
-24.3124265067
 10
4.0089318941
 20
-24.2867766258
 10
4.0106499457
 20
-24.2606804067
  0
LWPOLYLINE
  5
25D
100
AcDbEntity
  8
0
100
AcDbPolyline
 62
253
  6
CONTINUOUS
 90
13
 70
0
 10
-0.8893195933
 20
-24.4606499457
 10
-0.86322335
 20
-24.4589318909
 10
-0.83757345
 20
-24.4538230091
 10
-0.8128086005
 20
-24.4454106817
 10
-0.7893523706
 20
-24.4338387909
 10
-0.7676059476
 20
-24.419305259
 10
-0.7479412751
 20
-24.402058664
 10
-0.7306946905
 20
-24.3823939867
 10
-0.7161611721
 20
-24.3606475653
 10
-0.7045892949
 20
-24.337191343
 10
-0.6961769793
 20
-24.3124265067
 10
-0.6910681059
 20
-24.2867766258
 10
-0.6893500543
 20
-24.2606804067
  0
LWPOLYLINE
  5
25E
100
AcDbEntity
  8
0
100
AcDbPolyline
 62
253
  6
CONTINUOUS
 90
13
 70
0
 10
18.6897407383
 20
-23.6278312164
 10
18.6637826564
 20
-23.6294928142
 10
18.6382638123
 20
-23.6340570955
 10
18.6136160096
 20
-23.6414468275
 10
18.5902563129
 20
-23.6515369684
 10
18.5685799908
 20
-23.6641567825
 10
18.548953828
 20
-23.6790927295
 10
18.5317099177
 20
-23.6960920778
 10
18.5171400425
 20
-23.7148671817
 10
18.5054907377
 20
-23.7351003483
 10
18.4969591201
 20
-23.7564492132
 10
18.4916895521
 20
-23.7785525325
 10
18.4897711993
 20
-23.8010362971
  0
LWPOLYLINE
  5
25F
100
AcDbEntity
  8
0
100
AcDbPolyline
 62
253
  6
CONTINUOUS
 90
16
 70
0
 10
15.4455981518
 20
-23.9955600755
 10
15.4717212428
 20
-23.9941833315
 10
15.497558238
 20
-23.9900840903
 10
15.5228261713
 20
-23.9833072455
 10
15.5472483104
 20
-23.9739270152
 10
15.5705571824
 20
-23.9620461308
 10
15.5924975041
 20
-23.9477947136
 10
15.6128289865
 20
-23.931328845
 10
15.6313289594
 20
-23.9128288594
 10
15.6477948078
 20
-23.8924973746
 10
15.6620461976
 20
-23.8705570668
 10
15.6739270543
 20
-23.8472482227
 10
15.6833072648
 20
-23.8228261119
 10
15.6900840982
 20
-23.7975582011
 10
15.6941833333
 20
-23.7717212259
 10
15.6955600755
 20
-23.7455981518
  0
LWPOLYLINE
  5
260
100
AcDbEntity
  8
0
100
AcDbPolyline
 62
253
  6
CONTINUOUS
 90
16
 70
0
 10
10.1955981518
 20
-23.9955600755
 10
10.2217212428
 20
-23.9941833315
 10
10.247558238
 20
-23.9900840903
 10
10.2728261713
 20
-23.9833072455
 10
10.2972483104
 20
-23.9739270152
 10
10.3205571824
 20
-23.9620461308
 10
10.3424975041
 20
-23.9477947136
 10
10.3628289865
 20
-23.931328845
 10
10.3813289594
 20
-23.9128288594
 10
10.3977948078
 20
-23.8924973746
 10
10.4120461976
 20
-23.8705570668
 10
10.4239270543
 20
-23.8472482227
 10
10.4333072648
 20
-23.8228261119
 10
10.4400840982
 20
-23.7975582011
 10
10.4441833333
 20
-23.7717212259
 10
10.4455600755
 20
-23.7455981518
  0
LWPOLYLINE
  5
261
100
AcDbEntity
  8
0
100
AcDbPolyline
 62
7
  6
CONTINUOUS
 90
16
 70
0
 10
21.650030461
 20
-24.5
 10
21.6707847865
 20
-24.4989204702
 10
21.6913984138
 20
-24.4956754535
 10
21.7116428676
 20
-24.4902738515
 10
21.7313607905
 20
-24.4827171281
 10
21.7502459569
 20
-24.4730804259
 10
21.7678836728
 20
-24.4615865149
 10
21.7839720091
 20
-24.448521388
 10
21.798521388
 20
-24.4339720091
 10
21.8115865149
 20
-24.4178836728
 10
21.8230804259
 20
-24.4002459569
 10
21.8327171281
 20
-24.3813607905
 10
21.8402738515
 20
-24.3616428676
 10
21.8456754535
 20
-24.3413984138
 10
21.8489204702
 20
-24.3207847865
 10
21.85
 20
-24.300030461
  0
LWPOLYLINE
  5
262
100
AcDbEntity
  8
0
100
AcDbPolyline
 62
7
  6
CONTINUOUS
 90
16
 70
0
 10
-0.849969539
 20
-24.5
 10
-0.8292152135
 20
-24.4989204702
 10
-0.8086015862
 20
-24.4956754535
 10
-0.7883571324
 20
-24.4902738515
 10
-0.7686392095
 20
-24.4827171281
 10
-0.7497540431
 20
-24.4730804259
 10
-0.7321163272
 20
-24.4615865149
 10
-0.7160279909
 20
-24.448521388
 10
-0.701478612
 20
-24.4339720091
 10
-0.6884134851
 20
-24.4178836728
 10
-0.6769195741
 20
-24.4002459569
 10
-0.6672828719
 20
-24.3813607905
 10
-0.6597261485
 20
-24.3616428676
 10
-0.6543245465
 20
-24.3413984138
 10
-0.6510795298
 20
-24.3207847865
 10
-0.65
 20
-24.300030461
  0
LINE
  5
263
100
AcDbEntity
  8
0
100
AcDbLine
 62
7
  6
CONTINUOUS
 10
-21.650030461
 20
-24.5
 11
-18.649969539
 21
-24.5
  0
LINE
  5
264
100
AcDbEntity
  8
0
100
AcDbLine
 62
7
  6
CONTINUOUS
 10
-3.850030461
 20
-24.5
 11
-0.849969539
 21
-24.5
  0
LINE
  5
265
100
AcDbEntity
  8
0
100
AcDbLine
 62
7
  6
CONTINUOUS
 10
0.849969539
 20
-24.5
 11
3.850030461
 21
-24.5
  0
LINE
  5
266
100
AcDbEntity
  8
0
100
AcDbLine
 62
7
  6
CONTINUOUS
 10
18.649969539
 20
-24.5
 11
21.650030461
 21
-24.5
  0
LINE
  5
267
100
AcDbEntity
  8
0
100
AcDbLine
 62
253
  6
CONTINUOUS
 10
21.610680358
 20
-24.4606498971
 11
18.6893195933
 21
-24.4606499457
  0
LINE
  5
268
100
AcDbEntity
  8
0
100
AcDbLine
 62
253
  6
CONTINUOUS
 10
3.810680358
 20
-24.4606498971
 11
0.8893195933
 21
-24.4606499457
  0
LINE
  5
269
100
AcDbEntity
  8
0
100
AcDbLine
 62
253
  6
CONTINUOUS
 10
-0.889319642
 20
-24.4606498971
 11
-3.8106804067
 21
-24.4606499457
  0
LINE
  5
26A
100
AcDbEntity
  8
0
100
AcDbLine
 62
253
  6
CONTINUOUS
 10
-18.689319642
 20
-24.4606498971
 11
-21.6106804067
 21
-24.4606499457
  0
LINE
  5
26B
100
AcDbEntity
  8
0
100
AcDbLine
 62
253
  6
CONTINUOUS
 10
0.6902075759
 20
-24.2106880219
 11
4.0097924241
 21
-24.2106880219
  0
LINE
  5
26C
100
AcDbEntity
  8
0
100
AcDbLine
 62
253
  6
CONTINUOUS
 10
-0.6902075759
 20
-24.2106880219
 11
-4.0097924241
 21
-24.2106880219
  0
LINE
  5
26D
100
AcDbEntity
  8
0
100
AcDbLine
 62
253
  6
CONTINUOUS
 10
18.4902075759
 20
-24.2106880219
 11
21.8097924241
 21
-24.2106880219
  0
LINE
  5
26E
100
AcDbEntity
  8
0
100
AcDbLine
 62
253
  6
CONTINUOUS
 10
-18.4902075759
 20
-24.2106880219
 11
-21.8097924241
 21
-24.2106880219
  0
LWPOLYLINE
  5
26F
100
AcDbEntity
  8
0
100
AcDbPolyline
 62
7
  6
CONTINUOUS
 90
16
 70
0
 10
-21.650030461
 20
-24.5
 10
-21.6707847865
 20
-24.4989204702
 10
-21.6913984138
 20
-24.4956754535
 10
-21.7116428676
 20
-24.4902738515
 10
-21.7313607905
 20
-24.4827171281
 10
-21.7502459569
 20
-24.4730804259
 10
-21.7678836728
 20
-24.4615865149
 10
-21.7839720091
 20
-24.448521388
 10
-21.798521388
 20
-24.4339720091
 10
-21.8115865149
 20
-24.4178836728
 10
-21.8230804259
 20
-24.4002459569
 10
-21.8327171281
 20
-24.3813607905
 10
-21.8402738515
 20
-24.3616428676
 10
-21.8456754535
 20
-24.3413984138
 10
-21.8489204702
 20
-24.3207847865
 10
-21.85
 20
-24.300030461
  0
LWPOLYLINE
  5
270
100
AcDbEntity
  8
0
100
AcDbPolyline
 62
7
  6
CONTINUOUS
 90
16
 70
0
 10
-15.4500380762
 20
-24.0
 10
-15.4759809831
 20
-23.9986505878
 10
-15.5017480173
 20
-23.9945943169
 10
-15.5270535846
 20
-23.9878423144
 10
-15.5517009881
 20
-23.9783964102
 10
-15.5753074461
 20
-23.9663505324
 10
-15.597354591
 20
-23.9519831437
 10
-15.6174650114
 20
-23.935651735
 10
-15.635651735
 20
-23.9174650114
 10
-15.6519831437
 20
-23.897354591
 10
-15.6663505324
 20
-23.8753074461
 10
-15.6783964102
 20
-23.8517009881
 10
-15.6878423144
 20
-23.8270535846
 10
-15.6945943169
 20
-23.8017480173
 10
-15.6986505878
 20
-23.7759809831
 10
-15.7
 20
-23.7500380762
  0
LWPOLYLINE
  5
271
100
AcDbEntity
  8
0
100
AcDbPolyline
 62
7
  6
CONTINUOUS
 90
16
 70
0
 10
0.849969539
 20
-24.5
 10
0.8292152135
 20
-24.4989204702
 10
0.8086015862
 20
-24.4956754535
 10
0.7883571324
 20
-24.4902738515
 10
0.7686392095
 20
-24.4827171281
 10
0.7497540431
 20
-24.4730804259
 10
0.7321163272
 20
-24.4615865149
 10
0.7160279909
 20
-24.448521388
 10
0.701478612
 20
-24.4339720091
 10
0.6884134851
 20
-24.4178836728
 10
0.6769195741
 20
-24.4002459569
 10
0.6672828719
 20
-24.3813607905
 10
0.6597261485
 20
-24.3616428676
 10
0.6543245465
 20
-24.3413984138
 10
0.6510795298
 20
-24.3207847865
 10
0.65
 20
-24.300030461
  0
LWPOLYLINE
  5
272
100
AcDbEntity
  8
0
100
AcDbPolyline
 62
253
  6
CONTINUOUS
 90
13
 70
0
 10
-18.6897407383
 20
-23.6278312164
 10
-18.6637826667
 20
-23.629492813
 10
-18.6382638308
 20
-23.6340570911
 10
-18.6136160339
 20
-23.6414468187
 10
-18.5902563405
 20
-23.6515369545
 10
-18.5685800193
 20
-23.6641567636
 10
-18.5489538545
 20
-23.6790927066
 10
-18.5317099398
 20
-23.696092053
 10
-18.5171400588
 20
-23.7148671574
 10
-18.5054907481
 20
-23.7351003269
 10
-18.4969591253
 20
-23.7564491967
 10
-18.4916895536
 20
-23.7785525233
 10
-18.4897711993
 20
-23.8010362971
  0
LWPOLYLINE
  5
273
100
AcDbEntity
  8
0
100
AcDbPolyline
 62
253
  6
CONTINUOUS
 90
13
 70
0
 10
-21.6106804067
 20
-24.4606499457
 10
-21.6367766381
 20
-24.4589318924
 10
-21.6624265287
 20
-24.4538230148
 10
-21.6871913716
 20
-24.4454106933
 10
-21.7106475977
 20
-24.4338388092
 10
-21.7323940197
 20
-24.4193052842
 10
-21.7520586944
 20
-24.4020586944
 10
-21.7693052842
 20
-24.3823940197
 10
-21.7838388092
 20
-24.3606475977
 10
-21.7954106933
 20
-24.3371913716
 10
-21.8038230148
 20
-24.3124265287
 10
-21.8089318924
 20
-24.2867766381
 10
-21.8106499457
 20
-24.2606804067
  0
LWPOLYLINE
  5
274
100
AcDbEntity
  8
0
100
AcDbPolyline
 62
253
  6
CONTINUOUS
 90
13
 70
0
 10
-3.8106804067
 20
-24.4606499457
 10
-3.8367766381
 20
-24.4589318924
 10
-3.8624265287
 20
-24.4538230148
 10
-3.8871913716
 20
-24.4454106933
 10
-3.9106475977
 20
-24.4338388092
 10
-3.9323940197
 20
-24.4193052842
 10
-3.9520586944
 20
-24.4020586944
 10
-3.9693052842
 20
-24.3823940197
 10
-3.9838388092
 20
-24.3606475977
 10
-3.9954106933
 20
-24.3371913716
 10
-4.0038230148
 20
-24.3124265287
 10
-4.0089318924
 20
-24.2867766381
 10
-4.0106499457
 20
-24.2606804067
  0
LWPOLYLINE
  5
275
100
AcDbEntity
  8
0
100
AcDbPolyline
 62
253
  6
CONTINUOUS
 90
13
 70
0
 10
0.8893195933
 20
-24.4606499457
 10
0.8632233619
 20
-24.4589318924
 10
0.8375734713
 20
-24.4538230148
 10
0.8128086284
 20
-24.4454106933
 10
0.7893524023
 20
-24.4338388092
 10
0.7676059803
 20
-24.4193052842
 10
0.7479413056
 20
-24.4020586944
 10
0.7306947158
 20
-24.3823940197
 10
0.7161611908
 20
-24.3606475977
 10
0.7045893067
 20
-24.3371913716
 10
0.6961769852
 20
-24.3124265287
 10
0.6910681076
 20
-24.2867766381
 10
0.6893500543
 20
-24.2606804067
  0
LINE
  5
276
100
AcDbEntity
  8
0
100
AcDbLine
 62
253
  6
CONTINUOUS
 10
-12.2999619238
 20
-24.0
 11
-12.3044018482
 21
-23.9955600755
  0
LINE
  5
277
100
AcDbEntity
  8
0
100
AcDbLine
 62
253
  6
CONTINUOUS
 10
-12.05
 20
-23.7500380762
 11
-12.0544399245
 21
-23.7455981518
  0
LINE
  5
278
100
AcDbEntity
  8
0
100
AcDbLine
 62
7
  6
CONTINUOUS
 10
-19.75
 20
-22.3213883311
 11
-19.7631674569
 21
-22.2818538361
  0
LINE
  5
279
100
AcDbEntity
  8
0
100
AcDbLine
 62
7
  6
CONTINUOUS
 10
-18.45
 20
-22.4
 11
-18.4718949894
 21
-22.3342616154
  0
LWPOLYLINE
  5
27A
100
AcDbEntity
  8
0
100
AcDbPolyline
 62
253
  6
CONTINUOUS
 90
16
 70
0
 10
-22.1632335419
 20
-21.5262105404
 10
-22.1604288223
 20
-21.5783565308
 10
-22.1521883247
 20
-21.6299324066
 10
-22.1386021147
 20
-21.6803740912
 10
-22.1198187277
 20
-21.729129894
 10
-22.0960435374
 20
-21.7756665701
 10
-22.0675365019
 20
-21.8194751486
 10
-22.0346093336
 20
-21.8600764729
 10
-21.9976221161
 20
-21.8970264257
 10
-21.9569793587
 20
-21.9299208163
 10
-21.9131255292
 20
-21.9583998336
 10
-21.866540252
 20
-21.9821519328
 10
-21.8177330966
 20
-22.0009172511
 10
-21.7672379023
 20
-22.0144905061
 10
-21.7156069265
 20
-22.0227232182
 10
-21.6634048794
 20
-22.0255253079
  0
LINE
  5
27B
100
AcDbEntity
  8
0
100
AcDbLine
 62
7
  6
CONTINUOUS
 10
-22.35
 20
-21.0
 11
-22.3761859216
 21
-20.4226497308
  0
LINE
  5
27C
100
AcDbEntity
  8
0
100
AcDbLine
 62
253
  6
CONTINUOUS
 10
-21.6256118279
 20
-23.1200239821
 11
-21.6102592617
 21
-23.6278312164
  0
LINE
  5
27D
100
AcDbEntity
  8
0
100
AcDbLine
 62
253
  6
CONTINUOUS
 10
-21.8281050106
 20
-23.2097560788
 11
-21.8101677384
 21
-23.8032415964
  0
LINE
  5
27E
100
AcDbEntity
  8
0
100
AcDbLine
 62
253
  6
CONTINUOUS
 10
-21.8101677384
 20
-23.8032415964
 11
-21.8100770651
 21
-23.8073925323
  0
LINE
  5
27F
100
AcDbEntity
  8
0
100
AcDbLine
 62
253
  6
CONTINUOUS
 10
-21.8100770651
 20
-23.8073925323
 11
-21.8099912008
 21
-23.8125697289
  0
LINE
  5
280
100
AcDbEntity
  8
0
100
AcDbLine
 62
253
  6
CONTINUOUS
 10
-22.1472383175
 20
21.0953364247
 11
-22.1483910212
 21
21.183281192
  0
LINE
  5
281
100
AcDbEntity
  8
0
100
AcDbLine
 62
253
  6
CONTINUOUS
 10
-21.8099912008
 20
-23.8125697289
 11
-21.8098934234
 21
-23.8209894879
  0
LINE
  5
282
100
AcDbEntity
  8
0
100
AcDbLine
 62
253
  6
CONTINUOUS
 10
-22.1461417748
 20
20.9543382782
 11
-22.1472383175
 21
21.0953364247
  0
LINE
  5
283
100
AcDbEntity
  8
0
100
AcDbLine
 62
253
  6
CONTINUOUS
 10
-21.8098934234
 20
-23.8209894879
 11
-21.8098132805
 21
-23.8334767205
  0
LINE
  5
284
100
AcDbEntity
  8
0
100
AcDbLine
 62
253
  6
CONTINUOUS
 10
-21.8098132805
 20
-23.8334767205
 11
-21.8097938336
 21
-23.8415720623
  0
LINE
  5
285
100
AcDbEntity
  8
0
100
AcDbLine
 62
253
  6
CONTINUOUS
 10
-22.1378377759
 20
11.5891999788
 11
-22.1461417748
 21
20.9543382782
  0
LINE
  5
286
100
AcDbEntity
  8
0
100
AcDbLine
 62
253
  6
CONTINUOUS
 10
-22.1344028645
 20
2.3183559313
 11
-22.1378377759
 21
11.5891999788
  0
LINE
  5
287
100
AcDbEntity
  8
0
100
AcDbLine
 62
7
  6
CONTINUOUS
 10
-22.3761859216
 20
-20.4226497308
 11
-22.3761859216
 21
20.4226497308
  0
LINE
  5
288
100
AcDbEntity
  8
0
100
AcDbLine
 62
7
  6
CONTINUOUS
 10
-22.35
 20
21.9000761524
 11
-22.35
 21
21.0
  0
LINE
  5
289
100
AcDbEntity
  8
0
100
AcDbLine
 62
7
  6
CONTINUOUS
 10
-22.35
 20
-21.9000761524
 11
-22.35
 21
-21.0
  0
LINE
  5
28A
100
AcDbEntity
  8
0
100
AcDbLine
 62
7
  6
CONTINUOUS
 10
-21.85
 20
-24.300030461
 11
-21.8500000646
 21
-22.3999999296
  0
LINE
  5
28B
100
AcDbEntity
  8
0
100
AcDbLine
 62
7
  6
CONTINUOUS
 10
-21.85
 20
22.3999997358
 11
-21.85
 21
24.300030461
  0
LINE
  5
28C
100
AcDbEntity
  8
0
100
AcDbLine
 62
253
  6
CONTINUOUS
 10
-21.8281050106
 20
-23.2097560788
 11
-21.8281050106
 21
-22.3341525772
  0
LINE
  5
28D
100
AcDbEntity
  8
0
100
AcDbLine
 62
253
  6
CONTINUOUS
 10
-21.8281050106
 20
22.3341525772
 11
-21.8281050106
 21
23.2097560788
  0
LINE
  5
28E
100
AcDbEntity
  8
0
100
AcDbLine
 62
253
  6
CONTINUOUS
 10
-22.1355478365
 20
-6.9543705145
 11
-22.1344028645
 21
2.3183559313
  0
LINE
  5
28F
100
AcDbEntity
  8
0
100
AcDbLine
 62
253
  6
CONTINUOUS
 10
-22.141272687
 20
-16.2233293864
 11
-22.1355478365
 21
-6.9543705145
  0
LINE
  5
290
100
AcDbEntity
  8
0
100
AcDbLine
 62
253
  6
CONTINUOUS
 10
-21.8098221152
 20
23.8314110003
 11
-21.8097924241
 21
23.8443375673
  0
LINE
  5
291
100
AcDbEntity
  8
0
100
AcDbLine
 62
253
  6
CONTINUOUS
 10
-22.1461417656
 20
-20.9543382548
 11
-22.141272687
 21
-16.2233293864
  0
LINE
  5
292
100
AcDbEntity
  8
0
100
AcDbLine
 62
253
  6
CONTINUOUS
 10
-21.8099091644
 20
23.8193571752
 11
-21.8098221152
 21
23.8314110003
  0
LINE
  5
293
100
AcDbEntity
  8
0
100
AcDbLine
 62
253
  6
CONTINUOUS
 10
-22.147238307
 20
-21.095336403
 11
-22.1461417656
 21
-20.9543382548
  0
LINE
  5
294
100
AcDbEntity
  8
0
100
AcDbLine
 62
253
  6
CONTINUOUS
 10
-21.8099965503
 20
23.8122087949
 11
-21.8099091644
 21
23.8193571752
  0
LINE
  5
295
100
AcDbEntity
  8
0
100
AcDbLine
 62
253
  6
CONTINUOUS
 10
-22.1483910109
 20
-21.1832811699
 11
-22.147238307
 21
-21.095336403
  0
LWPOLYLINE
  5
296
100
AcDbEntity
  8
0
100
AcDbPolyline
 62
253
  6
CONTINUOUS
 90
3
 70
0
 10
-21.8101637677
 20
23.8034224493
 10
-21.8101034388
 20
23.8060755324
 10
-21.8099965503
 20
23.8122087949
  0
LINE
  5
297
100
AcDbEntity
  8
0
100
AcDbLine
 62
253
  6
CONTINUOUS
 10
-21.8281050106
 20
23.2097560788
 11
-21.8101637677
 21
23.8034224493
  0
LINE
  5
298
100
AcDbEntity
  8
0
100
AcDbLine
 62
253
  6
CONTINUOUS
 10
-21.6256118279
 20
23.1200239821
 11
-21.610259009
 21
23.6278395725
  0
LINE
  5
299
100
AcDbEntity
  8
0
100
AcDbLine
 62
7
  6
CONTINUOUS
 10
-22.3761859216
 20
20.4226497308
 11
-22.35
 21
21.0
  0
LWPOLYLINE
  5
29A
100
AcDbEntity
  8
0
100
AcDbPolyline
 62
253
  6
CONTINUOUS
 90
16
 70
0
 10
-22.163233552
 20
21.5262105606
 10
-22.1604286929
 20
21.5783578605
 10
-22.152187823
 20
21.6299348188
 10
-22.1386010737
 20
21.6803773322
 10
-22.1198170449
 20
21.7291337045
 10
-22.09604118
 20
21.7756706812
 10
-22.0675335184
 20
21.8194792818
 10
-22.0346058519
 20
21.8600803661
 10
-21.9976183146
 20
21.897029875
 10
-21.9569754437
 20
21.9299236872
 10
-21.9131217553
 20
21.958402039
 10
-21.8665368826
 20
21.9821534592
 10
-21.8177303301
 20
22.0009181754
 10
-21.7672359012
 20
22.0144909556
 10
-21.7156058596
 20
22.0227233528
 10
-21.6634048895
 20
22.025525328
  0
LWPOLYLINE
  5
29B
100
AcDbEntity
  8
0
100
AcDbPolyline
 62
253
  6
CONTINUOUS
 90
13
 70
0
 10
-21.8106499457
 20
24.2606804067
 10
-21.8089318924
 20
24.2867766381
 10
-21.8038230148
 20
24.3124265287
 10
-21.7954106933
 20
24.3371913716
 10
-21.7838388092
 20
24.3606475977
 10
-21.7693052842
 20
24.3823940197
 10
-21.7520586944
 20
24.4020586944
 10
-21.7323940197
 20
24.4193052842
 10
-21.7106475977
 20
24.4338388092
 10
-21.6871913716
 20
24.4454106933
 10
-21.6624265287
 20
24.4538230148
 10
-21.6367766381
 20
24.4589318924
 10
-21.6106804067
 20
24.4606499457
  0
LINE
  5
29C
100
AcDbEntity
  8
0
100
AcDbLine
 62
253
  6
CONTINUOUS
 10
-7.0544018482
 20
23.9955600755
 11
-7.0499619238
 21
24.0
  0
LWPOLYLINE
  5
29D
100
AcDbEntity
  8
0
100
AcDbPolyline
 62
7
  6
CONTINUOUS
 90
16
 70
0
 10
3.8256118279
 20
-23.1200239821
 10
3.8450366015
 20
-23.1185067845
 10
3.8645825298
 20
-23.1181640071
 10
3.8840488369
 20
-23.1190440682
 10
3.9032981214
 20
-23.1211856161
 10
3.9220206744
 20
-23.1246030251
 10
3.9397737466
 20
-23.1292182849
 10
3.9562535003
 20
-23.1348681954
 10
3.9714035588
 20
-23.1414971582
 10
3.9851630868
 20
-23.1491376597
 10
3.997375011
 20
-23.1576969207
 10
4.0077898535
 20
-23.1670301929
 10
4.0162026121
 20
-23.177084755
 10
4.0224640264
 20
-23.1877110063
 10
4.0264637111
 20
-23.1986731069
 10
4.0281050106
 20
-23.2097560788
  0
LWPOLYLINE
  5
29E
100
AcDbEntity
  8
0
100
AcDbPolyline
 62
7
  6
CONTINUOUS
 90
16
 70
0
 10
-0.8743881721
 20
-23.1200239821
 10
-0.8549630809
 20
-23.1185067539
 10
-0.8354169822
 20
-23.1181640019
 10
-0.8159506512
 20
-23.1190441086
 10
-0.7967015721
 20
-23.121185675
 10
-0.7779793357
 20
-23.1246030369
 10
-0.7602264163
 20
-23.1292182361
 10
-0.7437465498
 20
-23.1348681662
 10
-0.7285962864
 20
-23.1414972273
 10
-0.7148366146
 20
-23.1491378456
 10
-0.7026246176
 20
-23.1576972142
 10
-0.6922097573
 20
-23.1670305911
 10
-0.683797074
 20
-23.1770851947
 10
-0.6775357925
 20
-23.187711389
 10
-0.6735362298
 20
-23.1986733423
 10
-0.6718949894
 20
-23.2097560788
  0
LWPOLYLINE
  5
29F
100
AcDbEntity
  8
0
100
AcDbPolyline
 62
253
  6
CONTINUOUS
 90
13
 70
0
 10
-18.6893195933
 20
-24.4606499457
 10
-18.66322335
 20
-24.4589318909
 10
-18.63757345
 20
-24.4538230091
 10
-18.6128086005
 20
-24.4454106817
 10
-18.5893523706
 20
-24.4338387909
 10
-18.5676059476
 20
-24.419305259
 10
-18.5479412751
 20
-24.402058664
 10
-18.5306946905
 20
-24.3823939867
 10
-18.5161611721
 20
-24.3606475653
 10
-18.5045892949
 20
-24.337191343
 10
-18.4961769793
 20
-24.3124265067
 10
-18.4910681059
 20
-24.2867766258
 10
-18.4893500543
 20
-24.2606804067
  0
LWPOLYLINE
  5
2A0
100
AcDbEntity
  8
0
100
AcDbPolyline
 62
253
  6
CONTINUOUS
 90
13
 70
0
 10
0.8897407383
 20
-23.6278312164
 10
0.8637826564
 20
-23.6294928142
 10
0.8382638123
 20
-23.6340570955
 10
0.8136160096
 20
-23.6414468275
 10
0.7902563129
 20
-23.6515369684
 10
0.7685799908
 20
-23.6641567825
 10
0.748953828
 20
-23.6790927295
 10
0.7317099177
 20
-23.6960920778
 10
0.7171400425
 20
-23.7148671817
 10
0.7054907377
 20
-23.7351003483
 10
0.6969591201
 20
-23.7564492132
 10
0.6916895521
 20
-23.7785525325
 10
0.6897711993
 20
-23.8010362971
  0
LWPOLYLINE
  5
2A1
100
AcDbEntity
  8
0
100
AcDbPolyline
 62
253
  6
CONTINUOUS
 90
13
 70
0
 10
-3.8102592617
 20
-23.6278312164
 10
-3.8362173436
 20
-23.6294928142
 10
-3.8617361877
 20
-23.6340570955
 10
-3.8863839904
 20
-23.6414468275
 10
-3.9097436871
 20
-23.6515369684
 10
-3.9314200092
 20
-23.6641567825
 10
-3.951046172
 20
-23.6790927295
 10
-3.9682900823
 20
-23.6960920778
 10
-3.9828599575
 20
-23.7148671817
 10
-3.9945092623
 20
-23.7351003483
 10
-4.0030408799
 20
-23.7564492132
 10
-4.0083104479
 20
-23.7785525325
 10
-4.0102288007
 20
-23.8010362971
  0
LWPOLYLINE
  5
2A2
100
AcDbEntity
  8
0
100
AcDbPolyline
 62
253
  6
CONTINUOUS
 90
13
 70
0
 10
-21.6102592617
 20
-23.6278312164
 10
-21.6362173436
 20
-23.6294928142
 10
-21.6617361877
 20
-23.6340570955
 10
-21.6863839904
 20
-23.6414468275
 10
-21.7097436871
 20
-23.6515369684
 10
-21.7314200092
 20
-23.6641567825
 10
-21.751046172
 20
-23.6790927295
 10
-21.7682900823
 20
-23.6960920778
 10
-21.7828599575
 20
-23.7148671817
 10
-21.7945092623
 20
-23.7351003483
 10
-21.8030408799
 20
-23.7564492132
 10
-21.8083104479
 20
-23.7785525325
 10
-21.8102288007
 20
-23.8010362971
  0
LWPOLYLINE
  5
2A3
100
AcDbEntity
  8
0
100
AcDbPolyline
 62
253
  6
CONTINUOUS
 90
16
 70
0
 10
-7.0544018482
 20
-23.9955600755
 10
-7.0282787572
 20
-23.9941833315
 10
-7.002441762
 20
-23.9900840903
 10
-6.9771738287
 20
-23.9833072455
 10
-6.9527516896
 20
-23.9739270152
 10
-6.9294428176
 20
-23.9620461308
 10
-6.9075024959
 20
-23.9477947136
 10
-6.8871710135
 20
-23.931328845
 10
-6.8686710406
 20
-23.9128288594
 10
-6.8522051922
 20
-23.8924973746
 10
-6.8379538024
 20
-23.8705570668
 10
-6.8260729457
 20
-23.8472482227
 10
-6.8166927352
 20
-23.8228261119
 10
-6.8099159018
 20
-23.7975582011
 10
-6.8058166667
 20
-23.7717212259
 10
-6.8044399245
 20
-23.7455981518
  0
LWPOLYLINE
  5
2A4
100
AcDbEntity
  8
0
100
AcDbPolyline
 62
253
  6
CONTINUOUS
 90
16
 70
0
 10
-12.3044018482
 20
-23.9955600755
 10
-12.2782787572
 20
-23.9941833315
 10
-12.252441762
 20
-23.9900840903
 10
-12.2271738287
 20
-23.9833072455
 10
-12.2027516896
 20
-23.9739270152
 10
-12.1794428176
 20
-23.9620461308
 10
-12.1575024959
 20
-23.9477947136
 10
-12.1371710135
 20
-23.931328845
 10
-12.1186710406
 20
-23.9128288594
 10
-12.1022051922
 20
-23.8924973746
 10
-12.0879538024
 20
-23.8705570668
 10
-12.0760729457
 20
-23.8472482227
 10
-12.0666927352
 20
-23.8228261119
 10
-12.0599159018
 20
-23.7975582011
 10
-12.0558166667
 20
-23.7717212259
 10
-12.0544399245
 20
-23.7455981518
  0
LWPOLYLINE
  5
2A5
100
AcDbEntity
  8
0
100
AcDbPolyline
 62
7
  6
CONTINUOUS
 90
16
 70
0
 10
-7.0499619238
 20
-24.0
 10
-7.0240190169
 20
-23.9986505878
 10
-6.9982519827
 20
-23.9945943169
 10
-6.9729464154
 20
-23.9878423144
 10
-6.9482990119
 20
-23.9783964102
 10
-6.9246925539
 20
-23.9663505324
 10
-6.902645409
 20
-23.9519831437
 10
-6.8825349886
 20
-23.935651735
 10
-6.864348265
 20
-23.9174650114
 10
-6.8480168563
 20
-23.897354591
 10
-6.8336494676
 20
-23.8753074461
 10
-6.8216035898
 20
-23.8517009881
 10
-6.8121576856
 20
-23.8270535846
 10
-6.8054056831
 20
-23.8017480173
 10
-6.8013494122
 20
-23.7759809831
 10
-6.8
 20
-23.7500380762
  0
LWPOLYLINE
  5
2A6
100
AcDbEntity
  8
0
100
AcDbPolyline
 62
7
  6
CONTINUOUS
 90
19
 70
0
 10
21.85
 20
-22.3999997358
 10
21.8930916243
 20
-22.3981567964
 10
21.9361079064
 20
-22.3925627732
 10
21.9787168678
 20
-22.3831960379
 10
22.0207361893
 20
-22.3700085713
 10
22.0616569716
 20
-22.3530685037
 10
22.1007024339
 20
-22.3326961103
 10
22.1373981014
 20
-22.3092486335
 10
22.171723667
 20
-22.282854265
 10
22.2036318653
 20
-22.2535904109
 10
22.2328832257
 20
-22.2216792103
 10
22.2592611602
 20
-22.1873591234
 10
22.2826934596
 20
-22.1506724919
 10
22.3030539929
 20
-22.1116397351
 10
22.3199864328
 20
-22.0707349562
 10
22.3331715324
 20
-22.0287272978
 10
22.3425410715
 20
-21.986122062
 10
22.3481433117
 20
-21.9431026395
 10
22.35
 20
-21.8999997649
  0
LINE
  5
2A7
100
AcDbEntity
  8
0
100
AcDbLine
 62
253
  6
CONTINUOUS
 10
-21.6634048796
 20
-22.0255253083
 11
-14.9060725938
 21
-22.0151993747
  0
LINE
  5
2A8
100
AcDbEntity
  8
0
100
AcDbLine
 62
253
  6
CONTINUOUS
 10
-14.9060725938
 20
-22.0151993747
 11
-8.1753222612
 21
-22.0087070828
  0
LINE
  5
2A9
100
AcDbEntity
  8
0
100
AcDbLine
 62
253
  6
CONTINUOUS
 10
-8.1753222612
 20
-22.0087070828
 11
-1.3790628706
 21
-22.0059933416
  0
LINE
  5
2AA
100
AcDbEntity
  8
0
100
AcDbLine
 62
253
  6
CONTINUOUS
 10
-15.4455981518
 20
-23.9955600755
 11
-12.3044018482
 21
-23.9955600755
  0
LINE
  5
2AB
100
AcDbEntity
  8
0
100
AcDbLine
 62
253
  6
CONTINUOUS
 10
-10.1955981518
 20
-23.9955600755
 11
-7.0544018482
 21
-23.9955600755
  0
LINE
  5
2AC
100
AcDbEntity
  8
0
100
AcDbLine
 62
253
  6
CONTINUOUS
 10
7.0544018482
 20
-23.9955600755
 11
10.1955981518
 21
-23.9955600755
  0
LINE
  5
2AD
100
AcDbEntity
  8
0
100
AcDbLine
 62
253
  6
CONTINUOUS
 10
12.3044018482
 20
-23.9955600755
 11
15.4455981518
 21
-23.9955600755
  0
LINE
  5
2AE
100
AcDbEntity
  8
0
100
AcDbLine
 62
253
  6
CONTINUOUS
 10
-0.6902075759
 20
-23.8443375673
 11
-2.2131293807
 21
-23.8443375673
  0
LINE
  5
2AF
100
AcDbEntity
  8
0
100
AcDbLine
 62
253
  6
CONTINUOUS
 10
2.4868706193
 20
-23.8443375673
 11
4.0097924241
 21
-23.8443375673
  0
LINE
  5
2B0
100
AcDbEntity
  8
0
100
AcDbLine
 62
253
  6
CONTINUOUS
 10
-2.4868706193
 20
-23.8443375673
 11
-4.0097924241
 21
-23.8443375673
  0
LINE
  5
2B1
100
AcDbEntity
  8
0
100
AcDbLine
 62
253
  6
CONTINUOUS
 10
20.2868706193
 20
-23.8443375673
 11
21.8097924241
 21
-23.8443375673
  0
LINE
  5
2B2
100
AcDbEntity
  8
0
100
AcDbLine
 62
253
  6
CONTINUOUS
 10
-20.2868706193
 20
-23.8443375673
 11
-21.8097924241
 21
-23.8443375673
  0
LINE
  5
2B3
100
AcDbEntity
  8
0
100
AcDbLine
 62
253
  6
CONTINUOUS
 10
2.2131293807
 20
-23.8443375673
 11
0.6902075759
 21
-23.8443375673
  0
LINE
  5
2B4
100
AcDbEntity
  8
0
100
AcDbLine
 62
253
  6
CONTINUOUS
 10
-18.4902075759
 20
-23.8443375673
 11
-20.0131293807
 21
-23.8443375673
  0
LINE
  5
2B5
100
AcDbEntity
  8
0
100
AcDbLine
 62
253
  6
CONTINUOUS
 10
20.0131293807
 20
-23.8443375673
 11
18.4902075759
 21
-23.8443375673
  0
LINE
  5
2B6
100
AcDbEntity
  8
0
100
AcDbLine
 62
253
  6
CONTINUOUS
 10
6.8044399245
 20
-23.7455981518
 11
10.4455600755
 21
-23.7455981518
  0
LINE
  5
2B7
100
AcDbEntity
  8
0
100
AcDbLine
 62
253
  6
CONTINUOUS
 10
-6.8044399245
 20
-23.7455981518
 11
-10.4455600755
 21
-23.7455981518
  0
LINE
  5
2B8
100
AcDbEntity
  8
0
100
AcDbLine
 62
253
  6
CONTINUOUS
 10
-12.0544399245
 20
-23.7455981518
 11
-15.6955600755
 21
-23.7455981518
  0
LINE
  5
2B9
100
AcDbEntity
  8
0
100
AcDbLine
 62
253
  6
CONTINUOUS
 10
12.0544399245
 20
-23.7455981518
 11
15.6955600755
 21
-23.7455981518
  0
LINE
  5
2BA
100
AcDbEntity
  8
0
100
AcDbLine
 62
253
  6
CONTINUOUS
 10
21.6102592617
 20
-23.6278312164
 11
20.5033769702
 21
-23.6278312164
  0
LINE
  5
2BB
100
AcDbEntity
  8
0
100
AcDbLine
 62
253
  6
CONTINUOUS
 10
19.7966230298
 20
-23.6278312164
 11
18.6897407383
 21
-23.6278312164
  0
LINE
  5
2BC
100
AcDbEntity
  8
0
100
AcDbLine
 62
253
  6
CONTINUOUS
 10
3.8102592617
 20
-23.6278312164
 11
2.7033769702
 21
-23.6278312164
  0
LINE
  5
2BD
100
AcDbEntity
  8
0
100
AcDbLine
 62
253
  6
CONTINUOUS
 10
1.9966230298
 20
-23.6278312164
 11
0.8897407383
 21
-23.6278312164
  0
LINE
  5
2BE
100
AcDbEntity
  8
0
100
AcDbLine
 62
253
  6
CONTINUOUS
 10
-0.8897407383
 20
-23.6278312164
 11
-1.9966230298
 21
-23.6278312164
  0
LINE
  5
2BF
100
AcDbEntity
  8
0
100
AcDbLine
 62
253
  6
CONTINUOUS
 10
-2.7033769702
 20
-23.6278312164
 11
-3.8102592617
 21
-23.6278312164
  0
LINE
  5
2C0
100
AcDbEntity
  8
0
100
AcDbLine
 62
253
  6
CONTINUOUS
 10
-18.6897407383
 20
-23.6278312164
 11
-19.7966230298
 21
-23.6278312164
  0
LINE
  5
2C1
100
AcDbEntity
  8
0
100
AcDbLine
 62
253
  6
CONTINUOUS
 10
-20.5033769702
 20
-23.6278312164
 11
-21.6102592617
 21
-23.6278312164
  0
LINE
  5
2C2
100
AcDbEntity
  8
0
100
AcDbLine
 62
7
  6
CONTINUOUS
 10
-21.5781430868
 20
-23.1226497308
 11
-20.55
 21
-23.1226497308
  0
LINE
  5
2C3
100
AcDbEntity
  8
0
100
AcDbLine
 62
7
  6
CONTINUOUS
 10
-19.75
 20
-23.1226497308
 11
-18.7218569132
 21
-23.1226497308
  0
LINE
  5
2C4
100
AcDbEntity
  8
0
100
AcDbLine
 62
7
  6
CONTINUOUS
 10
-3.7781430868
 20
-23.1226497308
 11
-2.75
 21
-23.1226497308
  0
LINE
  5
2C5
100
AcDbEntity
  8
0
100
AcDbLine
 62
7
  6
CONTINUOUS
 10
-1.95
 20
-23.1226497308
 11
-0.9218569132
 21
-23.1226497308
  0
LINE
  5
2C6
100
AcDbEntity
  8
0
100
AcDbLine
 62
7
  6
CONTINUOUS
 10
0.9218569132
 20
-23.1226497308
 11
1.95
 21
-23.1226497308
  0
LINE
  5
2C7
100
AcDbEntity
  8
0
100
AcDbLine
 62
7
  6
CONTINUOUS
 10
2.75
 20
-23.1226497308
 11
3.7781430868
 21
-23.1226497308
  0
LINE
  5
2C8
100
AcDbEntity
  8
0
100
AcDbLine
 62
7
  6
CONTINUOUS
 10
18.7218569132
 20
-23.1226497308
 11
19.75
 21
-23.1226497308
  0
LINE
  5
2C9
100
AcDbEntity
  8
0
100
AcDbLine
 62
7
  6
CONTINUOUS
 10
20.55
 20
-23.1226497308
 11
21.5781430868
 21
-23.1226497308
  0
LINE
  5
2CA
100
AcDbEntity
  8
0
100
AcDbLine
 62
7
  6
CONTINUOUS
 10
-18.45
 20
-22.4
 11
-15.7
 21
-22.4
  0
LINE
  5
2CB
100
AcDbEntity
  8
0
100
AcDbLine
 62
7
  6
CONTINUOUS
 10
-12.05
 20
-22.4
 11
-10.45
 21
-22.4
  0
LINE
  5
2CC
100
AcDbEntity
  8
0
100
AcDbLine
 62
7
  6
CONTINUOUS
 10
-6.8
 20
-22.4
 11
-4.05
 21
-22.4
  0
LINE
  5
2CD
100
AcDbEntity
  8
0
100
AcDbLine
 62
7
  6
CONTINUOUS
 10
-0.65
 20
-22.4
 11
0.65
 21
-22.4
  0
LINE
  5
2CE
100
AcDbEntity
  8
0
100
AcDbLine
 62
7
  6
CONTINUOUS
 10
4.05
 20
-22.4
 11
6.8
 21
-22.4
  0
LINE
  5
2CF
100
AcDbEntity
  8
0
100
AcDbLine
 62
7
  6
CONTINUOUS
 10
10.45
 20
-22.4
 11
12.05
 21
-22.4
  0
LINE
  5
2D0
100
AcDbEntity
  8
0
100
AcDbLine
 62
7
  6
CONTINUOUS
 10
15.7
 20
-22.4
 11
18.45
 21
-22.4
  0
LINE
  5
2D1
100
AcDbEntity
  8
0
100
AcDbLine
 62
7
  6
CONTINUOUS
 10
15.4455981518
 20
-22.3737961104
 11
12.3044018482
 21
-22.3737961104
  0
LINE
  5
2D2
100
AcDbEntity
  8
0
100
AcDbLine
 62
7
  6
CONTINUOUS
 10
10.1955981518
 20
-22.3737961104
 11
7.0544018482
 21
-22.3737961104
  0
LINE
  5
2D3
100
AcDbEntity
  8
0
100
AcDbLine
 62
7
  6
CONTINUOUS
 10
-7.0544018482
 20
-22.3737961104
 11
-10.1955981518
 21
-22.3737961104
  0
LINE
  5
2D4
100
AcDbEntity
  8
0
100
AcDbLine
 62
7
  6
CONTINUOUS
 10
-12.3044018482
 20
-22.3737961104
 11
-15.4455981518
 21
-22.3737961104
  0
LINE
  5
2D5
100
AcDbEntity
  8
0
100
AcDbLine
 62
7
  6
CONTINUOUS
 10
-21.5781430868
 20
-22.3213883311
 11
-20.55
 21
-22.3213883311
  0
LINE
  5
2D6
100
AcDbEntity
  8
0
100
AcDbLine
 62
7
  6
CONTINUOUS
 10
-19.75
 20
-22.3213883311
 11
-18.7218569132
 21
-22.3213883311
  0
LINE
  5
2D7
100
AcDbEntity
  8
0
100
AcDbLine
 62
7
  6
CONTINUOUS
 10
-3.7781430868
 20
-22.3213883311
 11
-2.75
 21
-22.3213883311
  0
LINE
  5
2D8
100
AcDbEntity
  8
0
100
AcDbLine
 62
7
  6
CONTINUOUS
 10
-1.95
 20
-22.3213883311
 11
-0.9218569132
 21
-22.3213883311
  0
LINE
  5
2D9
100
AcDbEntity
  8
0
100
AcDbLine
 62
7
  6
CONTINUOUS
 10
0.9218569132
 20
-22.3213883311
 11
1.95
 21
-22.3213883311
  0
LINE
  5
2DA
100
AcDbEntity
  8
0
100
AcDbLine
 62
7
  6
CONTINUOUS
 10
2.75
 20
-22.3213883311
 11
3.7781430868
 21
-22.3213883311
  0
LINE
  5
2DB
100
AcDbEntity
  8
0
100
AcDbLine
 62
7
  6
CONTINUOUS
 10
18.7218569132
 20
-22.3213883311
 11
19.75
 21
-22.3213883311
  0
LINE
  5
2DC
100
AcDbEntity
  8
0
100
AcDbLine
 62
7
  6
CONTINUOUS
 10
20.55
 20
-22.3213883311
 11
21.5781430868
 21
-22.3213883311
  0
LINE
  5
2DD
100
AcDbEntity
  8
0
100
AcDbLine
 62
7
  6
CONTINUOUS
 10
20.2868706193
 20
-22.2689805518
 11
20.0131293807
 21
-22.2689805518
  0
LINE
  5
2DE
100
AcDbEntity
  8
0
100
AcDbLine
 62
7
  6
CONTINUOUS
 10
2.4868706193
 20
-22.2689805518
 11
2.2131293807
 21
-22.2689805518
  0
LINE
  5
2DF
100
AcDbEntity
  8
0
100
AcDbLine
 62
7
  6
CONTINUOUS
 10
-2.2131293807
 20
-22.2689805518
 11
-2.4868706193
 21
-22.2689805518
  0
LINE
  5
2E0
100
AcDbEntity
  8
0
100
AcDbLine
 62
7
  6
CONTINUOUS
 10
-20.0131293807
 20
-22.2689805518
 11
-20.2868706193
 21
-22.2689805518
  0
LINE
  5
2E1
100
AcDbEntity
  8
0
100
AcDbLine
 62
253
  6
CONTINUOUS
 10
-1.3790628706
 20
-22.0059933416
 11
5.6860284948
 21
-22.0072650606
  0
LINE
  5
2E2
100
AcDbEntity
  8
0
100
AcDbLine
 62
253
  6
CONTINUOUS
 10
5.6860284948
 20
-22.0072650606
 11
13.2901806358
 21
-22.0132953693
  0
LINE
  5
2E3
100
AcDbEntity
  8
0
100
AcDbLine
 62
253
  6
CONTINUOUS
 10
13.2901806358
 20
-22.0132953693
 11
21.6634048895
 21
-22.0255253279
  0
LWPOLYLINE
  5
2E4
100
AcDbEntity
  8
0
100
AcDbPolyline
 62
7
  6
CONTINUOUS
 90
19
 70
0
 10
-21.8500000646
 20
-22.3999999296
 10
-21.893087363
 20
-22.3981561164
 10
-21.9360989521
 20
-22.392563459
 10
-21.9787030582
 20
-22.3831997117
 10
-22.0207173804
 20
-22.3700158257
 10
-22.0616331967
 20
-22.3530797118
 10
-22.1006741885
 20
-22.3327124691
 10
-22.1373647088
 20
-22.3092721538
 10
-22.1716858887
 20
-22.282885844
 10
-22.2035941169
 20
-22.2536281654
 10
-22.2328500341
 20
-22.2217186093
 10
-22.2592345718
 20
-22.1873963179
 10
-22.2826744617
 20
-22.1507052997
 10
-22.3030428752
 20
-22.1116631807
 10
-22.3199812455
 20
-22.0707466641
 10
-22.333169191
 20
-22.0287360949
 10
-22.3425397442
 20
-21.9861417101
 10
-22.3481423919
 20
-21.9431445024
 10
-22.35
 20
-21.9000761524
  0
LWPOLYLINE
  5
2E5
100
AcDbEntity
  8
0
100
AcDbPolyline
 62
253
  6
CONTINUOUS
 90
13
 70
0
 10
-0.8897407383
 20
-23.6278312164
 10
-0.8637826667
 20
-23.629492813
 10
-0.8382638308
 20
-23.6340570911
 10
-0.8136160339
 20
-23.6414468187
 10
-0.7902563405
 20
-23.6515369545
 10
-0.7685800193
 20
-23.6641567636
 10
-0.7489538545
 20
-23.6790927066
 10
-0.7317099398
 20
-23.696092053
 10
-0.7171400588
 20
-23.7148671574
 10
-0.7054907481
 20
-23.7351003269
 10
-0.6969591253
 20
-23.7564491967
 10
-0.6916895536
 20
-23.7785525233
 10
-0.6897711993
 20
-23.8010362971
  0
LWPOLYLINE
  5
2E6
100
AcDbEntity
  8
0
100
AcDbPolyline
 62
253
  6
CONTINUOUS
 90
13
 70
0
 10
3.8102592617
 20
-23.6278312164
 10
3.8362173333
 20
-23.629492813
 10
3.8617361692
 20
-23.6340570911
 10
3.8863839661
 20
-23.6414468187
 10
3.9097436595
 20
-23.6515369545
 10
3.9314199807
 20
-23.6641567636
 10
3.9510461455
 20
-23.6790927066
 10
3.9682900602
 20
-23.696092053
 10
3.9828599412
 20
-23.7148671574
 10
3.9945092519
 20
-23.7351003269
 10
4.0030408747
 20
-23.7564491967
 10
4.0083104464
 20
-23.7785525233
 10
4.0102288007
 20
-23.8010362971
  0
LWPOLYLINE
  5
2E7
100
AcDbEntity
  8
0
100
AcDbPolyline
 62
253
  6
CONTINUOUS
 90
13
 70
0
 10
21.6102592617
 20
-23.6278312164
 10
21.6362173333
 20
-23.629492813
 10
21.6617361692
 20
-23.6340570911
 10
21.6863839661
 20
-23.6414468187
 10
21.7097436595
 20
-23.6515369545
 10
21.7314199807
 20
-23.6641567636
 10
21.7510461455
 20
-23.6790927066
 10
21.7682900602
 20
-23.696092053
 10
21.7828599412
 20
-23.7148671574
 10
21.7945092519
 20
-23.7351003269
 10
21.8030408747
 20
-23.7564491967
 10
21.8083104464
 20
-23.7785525233
 10
21.8102288007
 20
-23.8010362971
  0
LWPOLYLINE
  5
2E8
100
AcDbEntity
  8
0
100
AcDbPolyline
 62
253
  6
CONTINUOUS
 90
13
 70
0
 10
18.6893195933
 20
-24.4606499457
 10
18.6632233619
 20
-24.4589318924
 10
18.6375734713
 20
-24.4538230148
 10
18.6128086284
 20
-24.4454106933
 10
18.5893524023
 20
-24.4338388092
 10
18.5676059803
 20
-24.4193052842
 10
18.5479413056
 20
-24.4020586944
 10
18.5306947158
 20
-24.3823940197
 10
18.5161611908
 20
-24.3606475977
 10
18.5045893067
 20
-24.3371913716
 10
18.4961769852
 20
-24.3124265287
 10
18.4910681076
 20
-24.2867766381
 10
18.4893500543
 20
-24.2606804067
  0
LINE
  5
2E9
100
AcDbEntity
  8
0
100
AcDbLine
 62
253
  6
CONTINUOUS
 10
-7.0499619238
 20
-24.0
 11
-7.0544018482
 21
-23.9955600755
  0
LWPOLYLINE
  5
2EA
100
AcDbEntity
  8
0
100
AcDbPolyline
 62
253
  6
CONTINUOUS
 90
4
 70
0
 10
-18.689319603
 20
-24.460649897
 10
-18.6893604342
 20
-24.4601760916
 10
-18.6894021143
 20
-24.4591225867
 10
-18.6894446434
 20
-24.4574410389
  0
LWPOLYLINE
  5
2EB
100
AcDbEntity
  8
0
100
AcDbPolyline
 62
253
  6
CONTINUOUS
 90
13
 70
0
 10
-21.8102288007
 20
23.8010362971
 10
-21.80831044
 20
23.7785524849
 10
-21.8030408522
 20
23.7564491282
 10
-21.7945092071
 20
23.7351002378
 10
-21.7828598713
 20
23.7148670569
 10
-21.768289966
 20
23.6960919507
 10
-21.7510460325
 20
23.6790926125
 10
-21.7314198594
 20
23.6641566862
 10
-21.7097435419
 20
23.6515368983
 10
-21.6863838629
 20
23.6414467836
 10
-21.6617360904
 20
23.6340570741
 10
-21.6362172893
 20
23.6294928086
 10
-21.6102592617
 20
23.6278312163
  0
LWPOLYLINE
  5
2EC
100
AcDbEntity
  8
0
100
AcDbPolyline
 62
253
  6
CONTINUOUS
 90
10
 70
0
 10
-22.1525822073
 20
21.3693058407
 10
-22.1536097214
 20
21.3990411614
 10
-22.154694487
 20
21.4260966478
 10
-22.1558204907
 20
21.4500771108
 10
-22.1569889477
 20
21.4709390974
 10
-22.1581986427
 20
21.4887260608
 10
-22.1594299166
 20
21.5031731717
 10
-22.1606762162
 20
21.5141921538
 10
-22.1619440947
 20
21.5218712834
 10
-22.163233552
 20
21.5262105606
  0
LINE
  5
2ED
100
AcDbEntity
  8
0
100
AcDbLine
 62
7
  6
CONTINUOUS
 10
-20.55
 20
-23.1226497308
 11
-20.5368325431
 21
-23.5581814706
  0
LWPOLYLINE
  5
2EE
100
AcDbEntity
  8
0
100
AcDbPolyline
 62
253
  6
CONTINUOUS
 90
7
 70
0
 10
-21.8101449309
 20
24.2508329384
 10
-21.810219942
 20
24.2536814063
 10
-21.8103004836
 20
24.2561026103
 10
-21.8103840093
 20
24.2580206976
 10
-21.8104696706
 20
24.2594103839
 10
-21.810558316
 20
24.2602969536
 10
-21.8106499457
 20
24.2606804067
  0
LINE
  5
2EF
100
AcDbEntity
  8
0
100
AcDbLine
 62
253
  6
CONTINUOUS
 10
-22.1507005685
 20
21.3017117082
 11
-22.1525822073
 21
21.3693058407
  0
LWPOLYLINE
  5
2F0
100
AcDbEntity
  8
0
100
AcDbPolyline
 62
253
  6
CONTINUOUS
 90
3
 70
0
 10
-21.6105008069
 20
24.4544107637
 10
-21.6105891783
 20
24.4588598509
 10
-21.6106804067
 20
24.4606499457
  0
LINE
  5
2F1
100
AcDbEntity
  8
0
100
AcDbLine
 62
253
  6
CONTINUOUS
 10
-21.8100118548
 20
24.2438266124
 11
-21.8101449309
 21
24.2508329384
  0
LWPOLYLINE
  5
2F2
100
AcDbEntity
  8
0
100
AcDbPolyline
 62
253
  6
CONTINUOUS
 90
3
 70
0
 10
-22.1483910212
 20
21.183281192
 10
-22.149089698
 20
21.2249279584
 10
-22.1507005685
 20
21.3017117082
  0
LINE
  5
2F3
100
AcDbEntity
  8
0
100
AcDbLine
 62
253
  6
CONTINUOUS
 10
-21.6633096
 20
22.018144292
 11
-21.6634048895
 21
22.025525328
  0
LINE
  5
2F4
100
AcDbEntity
  8
0
100
AcDbLine
 62
253
  6
CONTINUOUS
 10
-21.8099071807
 20
24.2354529965
 11
-21.8100118548
 21
24.2438266124
  0
LINE
  5
2F5
100
AcDbEntity
  8
0
100
AcDbLine
 62
253
  6
CONTINUOUS
 10
-21.6103317289
 20
24.4377541411
 11
-21.6105008069
 21
24.4544107637
  0
LINE
  5
2F6
100
AcDbEntity
  8
0
100
AcDbLine
 62
253
  6
CONTINUOUS
 10
-21.8098114451
 20
24.2210431797
 11
-21.8099071807
 21
24.2354529965
  0
LINE
  5
2F7
100
AcDbEntity
  8
0
100
AcDbLine
 62
253
  6
CONTINUOUS
 10
-21.6099866653
 20
24.3562184296
 11
-21.6103317289
 21
24.4377541411
  0
LINE
  5
2F8
100
AcDbEntity
  8
0
100
AcDbLine
 62
253
  6
CONTINUOUS
 10
-21.6102592617
 20
-23.6278312164
 11
-21.6098853303
 21
-23.7514885464
  0
LINE
  5
2F9
100
AcDbEntity
  8
0
100
AcDbLine
 62
253
  6
CONTINUOUS
 10
-21.6571022107
 20
6.9614044013
 11
-21.6631990429
 21
20.8779306575
  0
LINE
  5
2FA
100
AcDbEntity
  8
0
100
AcDbLine
 62
253
  6
CONTINUOUS
 10
-21.8097924241
 20
23.8443375673
 11
-21.8098114451
 21
24.2210431797
  0
LINE
  5
2FB
100
AcDbEntity
  8
0
100
AcDbLine
 62
253
  6
CONTINUOUS
 10
-21.5781430868
 20
-23.1226497308
 11
-21.5781430868
 21
-22.3213883311
  0
LINE
  5
2FC
100
AcDbEntity
  8
0
100
AcDbLine
 62
253
  6
CONTINUOUS
 10
-21.5781430868
 20
22.3213883311
 11
-21.5781430868
 21
23.1226497308
  0
LINE
  5
2FD
100
AcDbEntity
  8
0
100
AcDbLine
 62
7
  6
CONTINUOUS
 10
-20.55
 20
23.1226497308
 11
-20.55
 21
22.3213883311
  0
LINE
  5
2FE
100
AcDbEntity
  8
0
100
AcDbLine
 62
7
  6
CONTINUOUS
 10
-20.55
 20
-22.3213883311
 11
-20.55
 21
-23.1226497308
  0
LINE
  5
2FF
100
AcDbEntity
  8
0
100
AcDbLine
 62
253
  6
CONTINUOUS
 10
-20.5368325431
 20
-23.5581814706
 11
-20.5368325431
 21
-22.2818538361
  0
LINE
  5
300
100
AcDbEntity
  8
0
100
AcDbLine
 62
253
  6
CONTINUOUS
 10
-20.5368325431
 20
22.2818538361
 11
-20.5368325431
 21
23.5581814706
  0
LINE
  5
301
100
AcDbEntity
  8
0
100
AcDbLine
 62
253
  6
CONTINUOUS
 10
-20.2868706193
 20
-23.8443375673
 11
-20.2868706193
 21
-22.2689805518
  0
LINE
  5
302
100
AcDbEntity
  8
0
100
AcDbLine
 62
253
  6
CONTINUOUS
 10
-20.2868706193
 20
22.2689805518
 11
-20.2868706193
 21
23.8443375673
  0
LINE
  5
303
100
AcDbEntity
  8
0
100
AcDbLine
 62
253
  6
CONTINUOUS
 10
-20.0131293807
 20
-23.8443375673
 11
-20.0131293807
 21
-22.2689805518
  0
LINE
  5
304
100
AcDbEntity
  8
0
100
AcDbLine
 62
253
  6
CONTINUOUS
 10
-20.0131293807
 20
22.2689805518
 11
-20.0131293807
 21
23.8443375673
  0
LINE
  5
305
100
AcDbEntity
  8
0
100
AcDbLine
 62
253
  6
CONTINUOUS
 10
-19.7631674569
 20
-23.5581814706
 11
-19.7631674569
 21
-22.2818538361
  0
LINE
  5
306
100
AcDbEntity
  8
0
100
AcDbLine
 62
253
  6
CONTINUOUS
 10
-19.7631674569
 20
22.2818538361
 11
-19.7631674569
 21
23.5581814706
  0
LINE
  5
307
100
AcDbEntity
  8
0
100
AcDbLine
 62
7
  6
CONTINUOUS
 10
-19.75
 20
23.1226497308
 11
-19.75
 21
22.3213883311
  0
LINE
  5
308
100
AcDbEntity
  8
0
100
AcDbLine
 62
7
  6
CONTINUOUS
 10
-19.75
 20
-22.3213883311
 11
-19.75
 21
-23.1226497308
  0
LINE
  5
309
100
AcDbEntity
  8
0
100
AcDbLine
 62
253
  6
CONTINUOUS
 10
-21.6571022175
 20
-6.9614292807
 11
-21.6571022107
 21
6.9614044013
  0
LINE
  5
30A
100
AcDbEntity
  8
0
100
AcDbLine
 62
253
  6
CONTINUOUS
 10
-21.6631990165
 20
20.8779306383
 11
-21.6633096
 21
22.018144292
  0
LINE
  5
30B
100
AcDbEntity
  8
0
100
AcDbLine
 62
253
  6
CONTINUOUS
 10
-21.6099395365
 20
23.7193369962
 11
-21.6099866653
 21
24.3562184296
  0
LINE
  5
30C
100
AcDbEntity
  8
0
100
AcDbLine
 62
253
  6
CONTINUOUS
 10
-21.6098853303
 20
-23.7514885464
 11
-21.6100262185
 21
-24.3710868448
  0
LINE
  5
30D
100
AcDbEntity
  8
0
100
AcDbLine
 62
253
  6
CONTINUOUS
 10
-21.8097938336
 20
-23.8415720623
 11
-21.8098183048
 21
-24.2227805841
  0
LINE
  5
30E
100
AcDbEntity
  8
0
100
AcDbLine
 62
253
  6
CONTINUOUS
 10
-21.6102592155
 20
23.627839573
 11
-21.6099395365
 21
23.7193369962
  0
LINE
  5
30F
100
AcDbEntity
  8
0
100
AcDbLine
 62
253
  6
CONTINUOUS
 10
-21.6100262185
 20
-24.3710868448
 11
-21.6103168437
 21
-24.4359123199
  0
LINE
  5
310
100
AcDbEntity
  8
0
100
AcDbLine
 62
253
  6
CONTINUOUS
 10
-21.8098183048
 20
-24.2227805841
 11
-21.8098844252
 21
-24.2330326118
  0
LWPOLYLINE
  5
311
100
AcDbEntity
  8
0
100
AcDbPolyline
 62
253
  6
CONTINUOUS
 90
6
 70
0
 10
-21.6103168437
 20
-24.4359123199
 10
-21.6104678317
 20
-24.4520261152
 10
-21.610520143
 20
-24.4555901408
 10
-21.610572901
 20
-24.458219303
 10
-21.6106263222
 20
-24.459907582
 10
-21.6106804067
 20
-24.4606499457
  0
LINE
  5
312
100
AcDbEntity
  8
0
100
AcDbLine
 62
253
  6
CONTINUOUS
 10
-21.8098844252
 20
-24.2330326118
 11
-21.809963752
 21
-24.2404400048
  0
LWPOLYLINE
  5
313
100
AcDbEntity
  8
0
100
AcDbPolyline
 62
253
  6
CONTINUOUS
 90
3
 70
0
 10
-21.6634048794
 20
-22.0255253078
 10
-21.6633095937
 20
-22.0181442719
 10
-21.6571022175
 20
-6.9614292807
  0
LINE
  5
314
100
AcDbEntity
  8
0
100
AcDbLine
 62
253
  6
CONTINUOUS
 10
-21.809963752
 20
-24.2404400048
 11
-21.8100676227
 21
-24.2471301053
  0
LINE
  5
315
100
AcDbEntity
  8
0
100
AcDbLine
 62
253
  6
CONTINUOUS
 10
-22.1498591774
 20
-21.2644160396
 11
-22.1483910109
 21
-21.1832811699
  0
LWPOLYLINE
  5
316
100
AcDbEntity
  8
0
100
AcDbPolyline
 62
253
  6
CONTINUOUS
 90
3
 70
0
 10
-21.8100676227
 20
-24.2471301053
 10
-21.8101491128
 20
-24.2510087986
 10
-21.8101929576
 20
-24.2527367359
  0
LINE
  5
317
100
AcDbEntity
  8
0
100
AcDbLine
 62
7
  6
CONTINUOUS
 10
-20.5368325431
 20
23.5581814706
 11
-20.55
 21
23.1226497308
  0
LWPOLYLINE
  5
318
100
AcDbEntity
  8
0
100
AcDbPolyline
 62
253
  6
CONTINUOUS
 90
9
 70
0
 10
-21.8102387472
 20
-24.2543105479
 10
-21.8102864441
 20
-24.2557331433
 10
-21.8103354589
 20
-24.2569824166
 10
-21.8103858213
 20
-24.2580552094
 10
-21.8104375017
 20
-24.2589546801
 10
-21.8104898221
 20
-24.2596681982
 10
-21.8105425566
 20
-24.2601915536
 10
-21.8105959311
 20
-24.2605289564
 10
-21.8106499457
 20
-24.2606804067
  0
LWPOLYLINE
  5
319
100
AcDbEntity
  8
0
100
AcDbPolyline
 62
7
  6
CONTINUOUS
 90
16
 70
0
 10
-18.4718949894
 20
23.2097560788
 10
-18.4735362889
 20
23.1986731069
 10
-18.4775359736
 20
23.1877110063
 10
-18.4837973879
 20
23.177084755
 10
-18.4922101465
 20
23.1670301929
 10
-18.502624989
 20
23.1576969207
 10
-18.5148369132
 20
23.1491376597
 10
-18.5285964412
 20
23.1414971582
 10
-18.5437464997
 20
23.1348681954
 10
-18.5602262534
 20
23.1292182849
 10
-18.5779793256
 20
23.1246030251
 10
-18.5967018786
 20
23.1211856161
 10
-18.6159511631
 20
23.1190440682
 10
-18.6354174702
 20
23.1181640071
 10
-18.6549633985
 20
23.1185067845
 10
-18.6743881721
 20
23.1200239821
  0
LINE
  5
31A
100
AcDbEntity
  8
0
100
AcDbLine
 62
253
  6
CONTINUOUS
 10
-6.8044399245
 20
23.7455981518
 11
-6.8
 21
23.7500380762
  0
LWPOLYLINE
  5
31B
100
AcDbEntity
  8
0
100
AcDbPolyline
 62
7
  6
CONTINUOUS
 90
16
 70
0
 10
-18.6743881721
 20
-23.1200239821
 10
-18.6549633985
 20
-23.1185067845
 10
-18.6354174702
 20
-23.1181640071
 10
-18.6159511631
 20
-23.1190440682
 10
-18.5967018786
 20
-23.1211856161
 10
-18.5779793256
 20
-23.1246030251
 10
-18.5602262534
 20
-23.1292182849
 10
-18.5437464997
 20
-23.1348681954
 10
-18.5285964412
 20
-23.1414971582
 10
-18.5148369132
 20
-23.1491376597
 10
-18.502624989
 20
-23.1576969207
 10
-18.4922101465
 20
-23.1670301929
 10
-18.4837973879
 20
-23.1770847549
 10
-18.4775359736
 20
-23.1877110063
 10
-18.4735362889
 20
-23.1986731069
 10
-18.4718949894
 20
-23.2097560788
  0
LINE
  5
31C
100
AcDbEntity
  8
0
100
AcDbLine
 62
253
  6
CONTINUOUS
 10
21.7627978942
 20
-20.8772454736
 11
21.6631985913
 21
-20.8779301418
  0
LINE
  5
31D
100
AcDbEntity
  8
0
100
AcDbLine
 62
253
  6
CONTINUOUS
 10
-21.6631990492
 20
-20.8779306379
 11
-8.1741585263
 21
-20.8712752329
  0
LINE
  5
31E
100
AcDbEntity
  8
0
100
AcDbLine
 62
253
  6
CONTINUOUS
 10
-8.1741585263
 20
-20.8712752329
 11
10.6813157314
 21
-20.8720454187
  0
LINE
  5
31F
100
AcDbEntity
  8
0
100
AcDbLine
 62
253
  6
CONTINUOUS
 10
10.6813157314
 20
-20.8720454187
 11
21.6631990437
 21
-20.8779306675
  0
LINE
  5
320
100
AcDbEntity
  8
0
100
AcDbLine
 62
253
  6
CONTINUOUS
 10
-6.8
 20
-23.7500380762
 11
-6.8044399245
 21
-23.7455981518
  0
LINE
  5
321
100
AcDbEntity
  8
0
100
AcDbLine
 62
7
  6
CONTINUOUS
 10
-19.7631674569
 20
23.5581814706
 11
-19.75
 21
23.1226497308
  0
LINE
  5
322
100
AcDbEntity
  8
0
100
AcDbLine
 62
253
  6
CONTINUOUS
 10
-18.6743881721
 20
23.1200239821
 11
-18.6897407424
 21
23.6278313505
  0
LINE
  5
323
100
AcDbEntity
  8
0
100
AcDbLine
 62
253
  6
CONTINUOUS
 10
-18.4718949894
 20
23.2097560788
 11
-18.4898330094
 21
23.8032718425
  0
LINE
  5
324
100
AcDbEntity
  8
0
100
AcDbLine
 62
253
  6
CONTINUOUS
 10
-18.4898278693
 20
-24.2519439791
 11
-18.4899090024
 21
-24.2483386784
  0
LINE
  5
325
100
AcDbEntity
  8
0
100
AcDbLine
 62
253
  6
CONTINUOUS
 10
-18.4898330094
 20
23.8032718425
 11
-18.4899243222
 21
23.8074653245
  0
LINE
  5
326
100
AcDbEntity
  8
0
100
AcDbLine
 62
253
  6
CONTINUOUS
 10
-18.4899243222
 20
23.8074653245
 11
-18.4900103125
 21
23.8126755772
  0
LINE
  5
327
100
AcDbEntity
  8
0
100
AcDbLine
 62
253
  6
CONTINUOUS
 10
-18.4899090024
 20
-24.2483386784
 11
-18.4900174226
 21
-24.2418398188
  0
LINE
  5
328
100
AcDbEntity
  8
0
100
AcDbLine
 62
253
  6
CONTINUOUS
 10
-18.6894446434
 20
-24.4574410389
 11
-18.6895327315
 21
-24.4519903411
  0
LINE
  5
329
100
AcDbEntity
  8
0
100
AcDbLine
 62
253
  6
CONTINUOUS
 10
-18.4900174226
 20
-24.2418398188
 11
-18.4901047578
 21
-24.2342276182
  0
LINE
  5
32A
100
AcDbEntity
  8
0
100
AcDbLine
 62
253
  6
CONTINUOUS
 10
-18.4900103125
 20
23.8126755772
 11
-18.4901076916
 21
23.8211108441
  0
LINE
  5
32B
100
AcDbEntity
  8
0
100
AcDbLine
 62
253
  6
CONTINUOUS
 10
-18.6895327315
 20
-24.4519903411
 11
-18.6896669391
 21
-24.4381137577
  0
LINE
  5
32C
100
AcDbEntity
  8
0
100
AcDbLine
 62
253
  6
CONTINUOUS
 10
-18.4901047578
 20
-24.2342276182
 11
-18.4901814979
 21
-24.2228110223
  0
LINE
  5
32D
100
AcDbEntity
  8
0
100
AcDbLine
 62
253
  6
CONTINUOUS
 10
-18.4901076916
 20
23.8211108441
 11
-18.4901870253
 21
23.8335562699
  0
LINE
  5
32E
100
AcDbEntity
  8
0
100
AcDbLine
 62
253
  6
CONTINUOUS
 10
-18.6896669391
 20
-24.4381137577
 11
-18.6899869582
 21
-24.366452455
  0
LINE
  5
32F
100
AcDbEntity
  8
0
100
AcDbLine
 62
253
  6
CONTINUOUS
 10
-18.6897407391
 20
23.6278313505
 11
-18.6901154661
 21
23.7520369771
  0
LINE
  5
330
100
AcDbEntity
  8
0
100
AcDbLine
 62
253
  6
CONTINUOUS
 10
-18.7218569132
 20
-23.1226497308
 11
-18.7218569132
 21
-22.3213883311
  0
LINE
  5
331
100
AcDbEntity
  8
0
100
AcDbLine
 62
253
  6
CONTINUOUS
 10
-18.7218569132
 20
22.3213883311
 11
-18.7218569132
 21
23.1226497308
  0
LINE
  5
332
100
AcDbEntity
  8
0
100
AcDbLine
 62
253
  6
CONTINUOUS
 10
-18.4718949894
 20
23.2097560788
 11
-18.4718949894
 21
22.3342616154
  0
LINE
  5
333
100
AcDbEntity
  8
0
100
AcDbLine
 62
253
  6
CONTINUOUS
 10
-18.4718949894
 20
-22.3342616154
 11
-18.4718949894
 21
-23.2097560788
  0
LINE
  5
334
100
AcDbEntity
  8
0
100
AcDbLine
 62
7
  6
CONTINUOUS
 10
-18.45
 20
-24.300030461
 11
-18.45
 21
-22.4
  0
LINE
  5
335
100
AcDbEntity
  8
0
100
AcDbLine
 62
7
  6
CONTINUOUS
 10
-18.45
 20
22.4
 11
-18.45
 21
24.300030461
  0
LINE
  5
336
100
AcDbEntity
  8
0
100
AcDbLine
 62
253
  6
CONTINUOUS
 10
-18.4901870253
 20
23.8335562699
 11
-18.4902069109
 21
24.2130270919
  0
LINE
  5
337
100
AcDbEntity
  8
0
100
AcDbLine
 62
253
  6
CONTINUOUS
 10
-18.4901814979
 20
-24.2228110223
 11
-18.4902070378
 21
-23.8422674847
  0
LINE
  5
338
100
AcDbEntity
  8
0
100
AcDbLine
 62
253
  6
CONTINUOUS
 10
-18.6899869582
 20
-24.366452455
 11
-18.6900858378
 21
-23.7330790773
  0
LINE
  5
339
100
AcDbEntity
  8
0
100
AcDbLine
 62
253
  6
CONTINUOUS
 10
-18.6901154661
 20
23.7520369771
 11
-18.6898599153
 21
24.4034842606
  0
LINE
  5
33A
100
AcDbEntity
  8
0
100
AcDbLine
 62
253
  6
CONTINUOUS
 10
-18.4902069109
 20
24.2130270919
 11
-18.4901684436
 21
24.2254919476
  0
LINE
  5
33B
100
AcDbEntity
  8
0
100
AcDbLine
 62
253
  6
CONTINUOUS
 10
-18.4902070378
 20
-23.8422674847
 11
-18.4901652242
 21
-23.8289620206
  0
LINE
  5
33C
100
AcDbEntity
  8
0
100
AcDbLine
 62
253
  6
CONTINUOUS
 10
-18.6900858378
 20
-23.7330790773
 11
-18.6897407383
 21
-23.6278312164
  0
LINE
  5
33D
100
AcDbEntity
  8
0
100
AcDbLine
 62
253
  6
CONTINUOUS
 10
-18.6898599153
 20
24.4034842606
 11
-18.6896322543
 21
24.4423703471
  0
LINE
  5
33E
100
AcDbEntity
  8
0
100
AcDbLine
 62
253
  6
CONTINUOUS
 10
-18.4901684436
 20
24.2254919476
 11
-18.49009013
 21
24.2357302518
  0
LINE
  5
33F
100
AcDbEntity
  8
0
100
AcDbLine
 62
253
  6
CONTINUOUS
 10
-18.4901652242
 20
-23.8289620206
 11
-18.4900723654
 21
-23.8176054476
  0
LWPOLYLINE
  5
340
100
AcDbEntity
  8
0
100
AcDbPolyline
 62
253
  6
CONTINUOUS
 90
6
 70
0
 10
-18.6896322543
 20
24.4423703471
 10
-18.6895307418
 20
24.4521268337
 10
-18.6894787236
 20
24.4556495538
 10
-18.6894263024
 20
24.4582475396
 10
-18.6893732589
 20
24.4599157043
 10
-18.6893195933
 20
24.4606499457
  0
LINE
  5
341
100
AcDbEntity
  8
0
100
AcDbLine
 62
253
  6
CONTINUOUS
 10
-18.49009013
 20
24.2357302518
 11
-18.4900019364
 21
24.2429207671
  0
LINE
  5
342
100
AcDbEntity
  8
0
100
AcDbLine
 62
253
  6
CONTINUOUS
 10
-18.4900723654
 20
-23.8176054476
 11
-18.48998963
 21
-23.8112815968
  0
LINE
  5
343
100
AcDbEntity
  8
0
100
AcDbLine
 62
253
  6
CONTINUOUS
 10
-18.4900019364
 20
24.2429207671
 11
-18.4898904073
 21
24.2492446222
  0
LWPOLYLINE
  5
344
100
AcDbEntity
  8
0
100
AcDbPolyline
 62
253
  6
CONTINUOUS
 90
3
 70
0
 10
-18.48998963
 20
-23.8112815968
 10
-18.4898882579
 20
-23.8056762915
 10
-18.4898509813
 20
-23.80402237
  0
LWPOLYLINE
  5
345
100
AcDbEntity
  8
0
100
AcDbPolyline
 62
253
  6
CONTINUOUS
 90
11
 70
0
 10
-18.4898904073
 20
24.2492446222
 10
-18.4898047505
 20
24.2528209116
 10
-18.4897590802
 20
24.2543801098
 10
-18.4897115403
 20
24.2557885231
 10
-18.4896627182
 20
24.2570248701
 10
-18.4896125867
 20
24.2580860049
 10
-18.4895611731
 20
24.2589750735
 10
-18.4895091462
 20
24.2596802323
 10
-18.4894567289
 20
24.2601975335
 10
-18.4894036983
 20
24.260530925
 10
-18.4893500543
 20
24.2606804067
  0
LINE
  5
346
100
AcDbEntity
  8
0
100
AcDbLine
 62
7
  6
CONTINUOUS
 10
-19.75
 20
-23.1226497308
 11
-19.7631674569
 21
-23.5581814706
  0
LINE
  5
347
100
AcDbEntity
  8
0
100
AcDbLine
 62
253
  6
CONTINUOUS
 10
-18.6897407383
 20
-23.6278312164
 11
-18.6743881721
 21
-23.1200239821
  0
LINE
  5
348
100
AcDbEntity
  8
0
100
AcDbLine
 62
253
  6
CONTINUOUS
 10
-18.4898119618
 20
-23.8024757052
 11
-18.4718949894
 21
-23.2097560788
  0
LWPOLYLINE
  5
349
100
AcDbEntity
  8
0
100
AcDbPolyline
 62
7
  6
CONTINUOUS
 90
16
 70
0
 10
-21.8281050106
 20
-23.2097560788
 10
-21.8264637702
 20
-23.1986733423
 10
-21.8224642075
 20
-23.187711389
 10
-21.816202926
 20
-23.1770851947
 10
-21.8077902427
 20
-23.1670305911
 10
-21.7973753825
 20
-23.1576972142
 10
-21.7851633854
 20
-23.1491378456
 10
-21.7714037136
 20
-23.1414972273
 10
-21.7562534502
 20
-23.1348681662
 10
-21.7397735837
 20
-23.1292182361
 10
-21.7220206643
 20
-23.1246030369
 10
-21.7032984279
 20
-23.121185675
 10
-21.6840493488
 20
-23.1190441086
 10
-21.6645830178
 20
-23.1181640019
 10
-21.6450369191
 20
-23.1185067539
 10
-21.6256118279
 20
-23.1200239821
  0
LWPOLYLINE
  5
34A
100
AcDbEntity
  8
0
100
AcDbPolyline
 62
7
  6
CONTINUOUS
 90
6
 70
0
 10
-2.7033769702
 20
23.6278312164
 10
-2.6898115433
 20
23.6418841347
 10
-2.674703113
 20
23.6568894062
 10
-2.6583611558
 20
23.6728470308
 10
-2.6411615849
 20
23.6899070152
 10
-2.6233076959
 20
23.7079193528
  0
LINE
  5
34B
100
AcDbEntity
  8
0
100
AcDbLine
 62
7
  6
CONTINUOUS
 10
-2.5067523025
 20
23.8242182101
 11
-2.4868706193
 21
23.8443375673
  0
LINE
  5
34C
100
AcDbEntity
  8
0
100
AcDbLine
 62
253
  6
CONTINUOUS
 10
-0.849969539
 20
24.5
 11
-0.8893195933
 21
24.4606499457
  0
LINE
  5
34D
100
AcDbEntity
  8
0
100
AcDbLine
 62
253
  6
CONTINUOUS
 10
-0.65
 20
24.300030461
 11
-0.6893500543
 21
24.2606804067
  0
LINE
  5
34E
100
AcDbEntity
  8
0
100
AcDbLine
 62
7
  6
CONTINUOUS
 10
-2.6233076959
 20
23.7079193528
 11
-2.5067523025
 21
23.8242182101
  0
LWPOLYLINE
  5
34F
100
AcDbEntity
  8
0
100
AcDbPolyline
 62
7
  6
CONTINUOUS
 90
7
 70
0
 10
21.8157454716
 20
-22.3304155561
 10
21.8193212287
 20
-22.3310198445
 10
21.8222989776
 20
-22.3316315522
 10
21.8246713442
 20
-22.3322506793
 10
21.8264324556
 20
-22.3328772259
 10
21.8275779546
 20
-22.3335111918
 10
21.8281050106
 20
-22.3341525772
  0
LWPOLYLINE
  5
350
100
AcDbEntity
  8
0
100
AcDbPolyline
 62
7
  6
CONTINUOUS
 90
6
 70
0
 10
-2.7033769702
 20
-23.6278312164
 10
-2.6893240519
 20
-23.6413966433
 10
-2.6743187804
 20
-23.6565050736
 10
-2.6583611558
 20
-23.6728470308
 10
-2.6413011713
 20
-23.6900466017
 10
-2.6232888338
 20
-23.7079004907
  0
LINE
  5
351
100
AcDbEntity
  8
0
100
AcDbLine
 62
7
  6
CONTINUOUS
 10
-2.5069899765
 20
-23.8244558841
 11
-2.4868706193
 21
-23.8443375673
  0
LINE
  5
352
100
AcDbEntity
  8
0
100
AcDbLine
 62
253
  6
CONTINUOUS
 10
-0.849969539
 20
-24.5
 11
-0.889319642
 21
-24.4606498971
  0
LINE
  5
353
100
AcDbEntity
  8
0
100
AcDbLine
 62
253
  6
CONTINUOUS
 10
-0.65
 20
-24.300030461
 11
-0.6893500543
 21
-24.2606804067
  0
LINE
  5
354
100
AcDbEntity
  8
0
100
AcDbLine
 62
7
  6
CONTINUOUS
 10
-2.6232888338
 20
-23.7079004907
 11
-2.5069899765
 21
-23.8244558841
  0
LINE
  5
355
100
AcDbEntity
  8
0
100
AcDbLine
 62
7
  6
CONTINUOUS
 10
-12.05
 20
-22.4
 11
-12.0544399245
 21
-22.3866693947
  0
LWPOLYLINE
  5
356
100
AcDbEntity
  8
0
100
AcDbPolyline
 62
253
  6
CONTINUOUS
 90
16
 70
0
 10
-15.6955600755
 20
-23.7455981518
 10
-15.694183331
 20
-23.771721248
 10
-15.6900840882
 20
-23.7975582479
 10
-15.683307241
 20
-23.8228261851
 10
-15.673927007
 20
-23.8472483288
 10
-15.6620461181
 20
-23.8705572044
 10
-15.6477946991
 20
-23.8924975241
 10
-15.6313288367
 20
-23.9128289957
 10
-15.6128288638
 20
-23.9313289555
 10
-15.5924973893
 20
-23.947794797
 10
-15.570557083
 20
-23.9620461882
 10
-15.547248235
 20
-23.9739270488
 10
-15.5228261198
 20
-23.9833072623
 10
-15.4975582063
 20
-23.990084097
 10
-15.4717212285
 20
-23.994183333
 10
-15.4455981518
 20
-23.9955600755
  0
LWPOLYLINE
  5
357
100
AcDbEntity
  8
0
100
AcDbPolyline
 62
7
  6
CONTINUOUS
 90
16
 70
0
 10
-18.45
 20
24.300030461
 10
-18.4510795298
 20
24.3207847865
 10
-18.4543245465
 20
24.3413984138
 10
-18.4597261485
 20
24.3616428676
 10
-18.4672828719
 20
24.3813607905
 10
-18.4769195741
 20
24.4002459569
 10
-18.4884134851
 20
24.4178836728
 10
-18.501478612
 20
24.4339720091
 10
-18.5160279909
 20
24.448521388
 10
-18.5321163272
 20
24.4615865149
 10
-18.5497540431
 20
24.4730804259
 10
-18.5686392095
 20
24.4827171281
 10
-18.5883571324
 20
24.4902738515
 10
-18.6086015862
 20
24.4956754535
 10
-18.6292152135
 20
24.4989204702
 10
-18.649969539
 20
24.5
  0
LINE
  5
358
100
AcDbEntity
  8
0
100
AcDbLine
 62
253
  6
CONTINUOUS
 10
-15.6955600755
 20
23.7455981518
 11
-15.6955600755
 21
22.3866693947
  0
LINE
  5
359
100
AcDbEntity
  8
0
100
AcDbLine
 62
253
  6
CONTINUOUS
 10
-15.6955600755
 20
-22.3866693947
 11
-15.6955600755
 21
-23.7455981518
  0
LINE
  5
35A
100
AcDbEntity
  8
0
100
AcDbLine
 62
253
  6
CONTINUOUS
 10
-15.4455981518
 20
-22.3737961104
 11
-15.4455981518
 21
-23.9955600755
  0
LINE
  5
35B
100
AcDbEntity
  8
0
100
AcDbLine
 62
253
  6
CONTINUOUS
 10
-15.4455981518
 20
22.3737961104
 11
-15.4455981518
 21
23.9955600755
  0
LWPOLYLINE
  5
35C
100
AcDbEntity
  8
0
100
AcDbPolyline
 62
7
  6
CONTINUOUS
 90
16
 70
0
 10
-18.45
 20
-24.300030461
 10
-18.4510795298
 20
-24.3207847865
 10
-18.4543245465
 20
-24.3413984138
 10
-18.4597261485
 20
-24.3616428676
 10
-18.4672828719
 20
-24.3813607905
 10
-18.4769195741
 20
-24.4002459569
 10
-18.4884134851
 20
-24.4178836728
 10
-18.501478612
 20
-24.4339720091
 10
-18.5160279909
 20
-24.448521388
 10
-18.5321163272
 20
-24.4615865149
 10
-18.5497540431
 20
-24.4730804259
 10
-18.5686392095
 20
-24.4827171281
 10
-18.5883571324
 20
-24.4902738515
 10
-18.6086015862
 20
-24.4956754535
 10
-18.6292152135
 20
-24.4989204702
 10
-18.649969539
 20
-24.5
  0
LINE
  5
35D
100
AcDbEntity
  8
0
100
AcDbLine
 62
7
  6
CONTINUOUS
 10
2.0766923041
 20
23.7079193528
 11
2.1932476975
 21
23.8242182101
  0
LWPOLYLINE
  5
35E
100
AcDbEntity
  8
0
100
AcDbPolyline
 62
7
  6
CONTINUOUS
 90
6
 70
0
 10
1.9966230298
 20
-23.6278312164
 10
2.0106759481
 20
-23.6413966433
 10
2.0256812196
 20
-23.6565050736
 10
2.0416388442
 20
-23.6728470308
 10
2.0586988287
 20
-23.6900466017
 10
2.0767111662
 20
-23.7079004907
  0
LINE
  5
35F
100
AcDbEntity
  8
0
100
AcDbLine
 62
7
  6
CONTINUOUS
 10
2.1930100235
 20
-23.8244558841
 11
2.2131293807
 21
-23.8443375673
  0
LINE
  5
360
100
AcDbEntity
  8
0
100
AcDbLine
 62
7
  6
CONTINUOUS
 10
2.0767111662
 20
-23.7079004907
 11
2.1930100235
 21
-23.8244558841
  0
LWPOLYLINE
  5
361
100
AcDbEntity
  8
0
100
AcDbPolyline
 62
253
  6
CONTINUOUS
 90
12
 70
0
 10
-22.1632335419
 20
-21.5262105404
 10
-22.1619440846
 20
-21.5218712631
 10
-22.1606762061
 20
-21.5141921333
 10
-22.1594299064
 20
-21.5031731511
 10
-22.1581986325
 20
-21.4887260401
 10
-22.1569889375
 20
-21.4709390766
 10
-22.1558204804
 20
-21.4500770898
 10
-22.1546944768
 20
-21.4260966265
 10
-22.1536097112
 20
-21.3990411399
 10
-22.1525821971
 20
-21.369305819
 10
-22.1516127519
 20
-21.3368486698
 10
-22.1498591774
 20
-21.2644160396
  0
LINE
  5
362
100
AcDbEntity
  8
0
100
AcDbLine
 62
7
  6
CONTINUOUS
 10
-6.8
 20
22.4
 11
-6.8044399245
 21
22.3866693947
  0
LWPOLYLINE
  5
363
100
AcDbEntity
  8
0
100
AcDbPolyline
 62
7
  6
CONTINUOUS
 90
6
 70
0
 10
1.9966230298
 20
23.6278312164
 10
2.0101884567
 20
23.6418841347
 10
2.025296887
 20
23.6568894062
 10
2.0416388442
 20
23.6728470308
 10
2.0588384151
 20
23.6899070152
 10
2.0766923041
 20
23.7079193528
  0
LINE
  5
364
100
AcDbEntity
  8
0
100
AcDbLine
 62
7
  6
CONTINUOUS
 10
2.1932476975
 20
23.8242182101
 11
2.2131293807
 21
23.8443375673
  0
LINE
  5
365
100
AcDbEntity
  8
0
100
AcDbLine
 62
253
  6
CONTINUOUS
 10
3.8106804067
 20
24.4606499457
 11
3.850030461
 21
24.5
  0
LINE
  5
366
100
AcDbEntity
  8
0
100
AcDbLine
 62
253
  6
CONTINUOUS
 10
4.0106499457
 20
24.2606804067
 11
4.05
 21
24.300030461
  0
LINE
  5
367
100
AcDbEntity
  8
0
100
AcDbLine
 62
253
  6
CONTINUOUS
 10
3.850030461
 20
-24.5
 11
3.810680358
 21
-24.4606498971
  0
LINE
  5
368
100
AcDbEntity
  8
0
100
AcDbLine
 62
253
  6
CONTINUOUS
 10
4.05
 20
-24.300030461
 11
4.0106499457
 21
-24.2606804067
  0
LINE
  5
369
100
AcDbEntity
  8
0
100
AcDbLine
 62
7
  6
CONTINUOUS
 10
-6.8
 20
-22.4
 11
-6.8044399245
 21
-22.3866693947
  0
LWPOLYLINE
  5
36A
100
AcDbEntity
  8
0
100
AcDbPolyline
 62
253
  6
CONTINUOUS
 90
16
 70
0
 10
-10.4455600755
 20
-23.7455981518
 10
-10.444183331
 20
-23.771721248
 10
-10.4400840882
 20
-23.7975582479
 10
-10.433307241
 20
-23.8228261851
 10
-10.423927007
 20
-23.8472483288
 10
-10.4120461181
 20
-23.8705572044
 10
-10.3977946991
 20
-23.8924975241
 10
-10.3813288367
 20
-23.9128289957
 10
-10.3628288638
 20
-23.9313289555
 10
-10.3424973893
 20
-23.947794797
 10
-10.320557083
 20
-23.9620461882
 10
-10.297248235
 20
-23.9739270488
 10
-10.2728261198
 20
-23.9833072623
 10
-10.2475582063
 20
-23.990084097
 10
-10.2217212285
 20
-23.994183333
 10
-10.1955981518
 20
-23.9955600755
  0
LWPOLYLINE
  5
36B
100
AcDbEntity
  8
0
100
AcDbPolyline
 62
253
  6
CONTINUOUS
 90
16
 70
0
 10
-12.0544399245
 20
23.7455981518
 10
-12.055816669
 20
23.771721248
 10
-12.0599159118
 20
23.7975582479
 10
-12.066692759
 20
23.8228261851
 10
-12.076072993
 20
23.8472483288
 10
-12.0879538819
 20
23.8705572044
 10
-12.1022053009
 20
23.8924975241
 10
-12.1186711633
 20
23.9128289957
 10
-12.1371711362
 20
23.9313289555
 10
-12.1575026107
 20
23.947794797
 10
-12.179442917
 20
23.9620461882
 10
-12.202751765
 20
23.9739270488
 10
-12.2271738802
 20
23.9833072623
 10
-12.2524417937
 20
23.990084097
 10
-12.2782787715
 20
23.994183333
 10
-12.3044018482
 20
23.9955600755
  0
LWPOLYLINE
  5
36C
100
AcDbEntity
  8
0
100
AcDbPolyline
 62
7
  6
CONTINUOUS
 90
16
 70
0
 10
-10.45
 20
-23.7500380762
 10
-10.4486505878
 20
-23.7759809831
 10
-10.4445943169
 20
-23.8017480173
 10
-10.4378423144
 20
-23.8270535846
 10
-10.4283964102
 20
-23.8517009881
 10
-10.4163505324
 20
-23.8753074461
 10
-10.4019831437
 20
-23.897354591
 10
-10.385651735
 20
-23.9174650114
 10
-10.3674650114
 20
-23.935651735
 10
-10.347354591
 20
-23.9519831437
 10
-10.3253074461
 20
-23.9663505324
 10
-10.3017009881
 20
-23.9783964102
 10
-10.2770535846
 20
-23.9878423144
 10
-10.2517480173
 20
-23.9945943169
 10
-10.2259809831
 20
-23.9986505878
 10
-10.2000380762
 20
-24.0
  0
LWPOLYLINE
  5
36D
100
AcDbEntity
  8
0
100
AcDbPolyline
 62
7
  6
CONTINUOUS
 90
16
 70
0
 10
-12.05
 20
23.7500380762
 10
-12.0513494122
 20
23.7759809831
 10
-12.0554056831
 20
23.8017480173
 10
-12.0621576856
 20
23.8270535846
 10
-12.0716035898
 20
23.8517009881
 10
-12.0836494676
 20
23.8753074461
 10
-12.0980168563
 20
23.897354591
 10
-12.114348265
 20
23.9174650114
 10
-12.1325349886
 20
23.935651735
 10
-12.152645409
 20
23.9519831437
 10
-12.1746925539
 20
23.9663505324
 10
-12.1982990119
 20
23.9783964102
 10
-12.2229464154
 20
23.9878423144
 10
-12.2482519827
 20
23.9945943169
 10
-12.2740190169
 20
23.9986505878
 10
-12.2999619238
 20
24.0
  0
LINE
  5
36E
100
AcDbEntity
  8
0
100
AcDbLine
 62
253
  6
CONTINUOUS
 10
-12.3044018482
 20
-22.3737961104
 11
-12.3044018482
 21
-23.9955600755
  0
LINE
  5
36F
100
AcDbEntity
  8
0
100
AcDbLine
 62
253
  6
CONTINUOUS
 10
-12.3044018482
 20
22.3737961104
 11
-12.3044018482
 21
23.9955600755
  0
LINE
  5
370
100
AcDbEntity
  8
0
100
AcDbLine
 62
253
  6
CONTINUOUS
 10
-12.0544399245
 20
-23.7455981518
 11
-12.0544399245
 21
-22.3866693947
  0
LINE
  5
371
100
AcDbEntity
  8
0
100
AcDbLine
 62
253
  6
CONTINUOUS
 10
-12.0544399245
 20
22.3866693947
 11
-12.0544399245
 21
23.7455981518
  0
LWPOLYLINE
  5
372
100
AcDbEntity
  8
0
100
AcDbPolyline
 62
7
  6
CONTINUOUS
 90
16
 70
0
 10
-10.45
 20
23.7500380762
 10
-10.4486505878
 20
23.7759809831
 10
-10.4445943169
 20
23.8017480173
 10
-10.4378423144
 20
23.8270535846
 10
-10.4283964102
 20
23.8517009881
 10
-10.4163505324
 20
23.8753074461
 10
-10.4019831437
 20
23.897354591
 10
-10.385651735
 20
23.9174650114
 10
-10.3674650114
 20
23.935651735
 10
-10.347354591
 20
23.9519831437
 10
-10.3253074461
 20
23.9663505324
 10
-10.3017009881
 20
23.9783964102
 10
-10.2770535846
 20
23.9878423144
 10
-10.2517480173
 20
23.9945943169
 10
-10.2259809831
 20
23.9986505878
 10
-10.2000380762
 20
24.0
  0
LWPOLYLINE
  5
373
100
AcDbEntity
  8
0
100
AcDbPolyline
 62
7
  6
CONTINUOUS
 90
16
 70
0
 10
-12.05
 20
-23.7500380762
 10
-12.0513494122
 20
-23.7759809831
 10
-12.0554056831
 20
-23.8017480173
 10
-12.0621576856
 20
-23.8270535846
 10
-12.0716035898
 20
-23.8517009881
 10
-12.0836494676
 20
-23.8753074461
 10
-12.0980168563
 20
-23.897354591
 10
-12.114348265
 20
-23.9174650114
 10
-12.1325349886
 20
-23.935651735
 10
-12.152645409
 20
-23.9519831437
 10
-12.1746925539
 20
-23.9663505324
 10
-12.1982990119
 20
-23.9783964102
 10
-12.2229464154
 20
-23.9878423144
 10
-12.2482519827
 20
-23.9945943169
 10
-12.2740190169
 20
-23.9986505878
 10
-12.2999619238
 20
-24.0
  0
LINE
  5
374
100
AcDbEntity
  8
0
100
AcDbLine
 62
7
  6
CONTINUOUS
 10
-20.55
 20
-22.3213883311
 11
-20.5368325431
 21
-22.2818538361
  0
LWPOLYLINE
  5
375
100
AcDbEntity
  8
0
100
AcDbPolyline
 62
253
  6
CONTINUOUS
 90
11
 70
0
 10
-0.6893500543
 20
-24.2606804067
 10
-0.6893908651
 20
-24.2606014902
 10
-0.6894325302
 20
-24.2603874805
 10
-0.6894750498
 20
-24.2600383775
 10
-0.6895186667
 20
-24.2595608589
 10
-0.6895631381
 20
-24.2589482471
 10
-0.6896077347
 20
-24.2581805094
 10
-0.6896524834
 20
-24.2572530754
 10
-0.6896973572
 20
-24.2561705156
 10
-0.6897415469
 20
-24.2549265087
 10
-0.6897850502
 20
-24.2535159675
  0
LINE
  5
376
100
AcDbEntity
  8
0
100
AcDbLine
 62
7
  6
CONTINUOUS
 10
-20.55
 20
22.3213883311
 11
-20.5368325431
 21
22.2818538361
  0
LINE
  5
377
100
AcDbEntity
  8
0
100
AcDbLine
 62
253
  6
CONTINUOUS
 10
-10.4455600755
 20
23.7455981518
 11
-10.4455600755
 21
22.3866693947
  0
LINE
  5
378
100
AcDbEntity
  8
0
100
AcDbLine
 62
253
  6
CONTINUOUS
 10
-10.4455600755
 20
-22.3866693947
 11
-10.4455600755
 21
-23.7455981518
  0
LINE
  5
379
100
AcDbEntity
  8
0
100
AcDbLine
 62
253
  6
CONTINUOUS
 10
-10.1955981518
 20
-22.3737961104
 11
-10.1955981518
 21
-23.9955600755
  0
LINE
  5
37A
100
AcDbEntity
  8
0
100
AcDbLine
 62
253
  6
CONTINUOUS
 10
-10.1955981518
 20
22.3737961104
 11
-10.1955981518
 21
23.9955600755
  0
LINE
  5
37B
100
AcDbEntity
  8
0
100
AcDbLine
 62
7
  6
CONTINUOUS
 10
-1.95
 20
22.3213883311
 11
-1.9631674569
 21
22.2818538361
  0
LINE
  5
37C
100
AcDbEntity
  8
0
100
AcDbLine
 62
253
  6
CONTINUOUS
 10
-22.35
 20
-21.8999997649
 11
-22.1632335419
 21
-21.5262105404
  0
LINE
  5
37D
100
AcDbEntity
  8
0
100
AcDbLine
 62
253
  6
CONTINUOUS
 10
-21.8157454716
 20
-22.3304155561
 11
-21.6634048796
 21
-22.0255253083
  0
LINE
  5
37E
100
AcDbEntity
  8
0
100
AcDbLine
 62
253
  6
CONTINUOUS
 10
10.1955981518
 20
23.9955600755
 11
10.2000380762
 21
24.0
  0
LINE
  5
37F
100
AcDbEntity
  8
0
100
AcDbLine
 62
253
  6
CONTINUOUS
 10
10.4455600755
 20
23.7455981518
 11
10.45
 21
23.7500380762
  0
LINE
  5
380
100
AcDbEntity
  8
0
100
AcDbLine
 62
253
  6
CONTINUOUS
 10
10.2000380762
 20
-24.0
 11
10.1955981518
 21
-23.9955600755
  0
LINE
  5
381
100
AcDbEntity
  8
0
100
AcDbLine
 62
253
  6
CONTINUOUS
 10
10.45
 20
-23.7500380762
 11
10.4455600755
 21
-23.7455981518
  0
LINE
  5
382
100
AcDbEntity
  8
0
100
AcDbLine
 62
253
  6
CONTINUOUS
 10
-22.163233552
 20
21.5262105606
 11
-22.35
 21
21.8999997649
  0
LINE
  5
383
100
AcDbEntity
  8
0
100
AcDbLine
 62
253
  6
CONTINUOUS
 10
-21.8157454716
 20
22.3304155561
 11
-21.6634048895
 21
22.025525328
  0
LINE
  5
384
100
AcDbEntity
  8
0
100
AcDbLine
 62
7
  6
CONTINUOUS
 10
-1.95
 20
-22.3213883311
 11
-1.9631674569
 21
-22.2818538361
  0
LINE
  5
385
100
AcDbEntity
  8
0
100
AcDbLine
 62
253
  6
CONTINUOUS
 10
-7.0544018482
 20
-22.3737961104
 11
-7.0544018482
 21
-23.9955600755
  0
LINE
  5
386
100
AcDbEntity
  8
0
100
AcDbLine
 62
253
  6
CONTINUOUS
 10
-7.0544018482
 20
22.3737961104
 11
-7.0544018482
 21
23.9955600755
  0
LINE
  5
387
100
AcDbEntity
  8
0
100
AcDbLine
 62
253
  6
CONTINUOUS
 10
-6.8044399245
 20
-23.7455981518
 11
-6.8044399245
 21
-22.3866693947
  0
LINE
  5
388
100
AcDbEntity
  8
0
100
AcDbLine
 62
253
  6
CONTINUOUS
 10
-6.8044399245
 20
22.3866693947
 11
-6.8044399245
 21
23.7455981518
  0
LINE
  5
389
100
AcDbEntity
  8
0
100
AcDbLine
 62
7
  6
CONTINUOUS
 10
-15.7
 20
-22.4
 11
-15.6955600755
 21
-22.3866693947
  0
LINE
  5
38A
100
AcDbEntity
  8
0
100
AcDbLine
 62
7
  6
CONTINUOUS
 10
-0.65
 20
22.4
 11
-0.6718949894
 21
22.3342616154
  0
LWPOLYLINE
  5
38B
100
AcDbEntity
  8
0
100
AcDbPolyline
 62
253
  6
CONTINUOUS
 90
11
 70
0
 10
4.0106499457
 20
-24.2606804067
 10
4.0106091349
 20
-24.2606014902
 10
4.0105674698
 20
-24.2603874805
 10
4.0105249502
 20
-24.2600383775
 10
4.0104813333
 20
-24.2595608589
 10
4.0104368619
 20
-24.2589482471
 10
4.0103922653
 20
-24.2581805094
 10
4.0103475166
 20
-24.2572530754
 10
4.0103026428
 20
-24.2561705156
 10
4.0102584531
 20
-24.2549265087
 10
4.0102149498
 20
-24.2535159675
  0
LINE
  5
38C
100
AcDbEntity
  8
0
100
AcDbLine
 62
7
  6
CONTINUOUS
 10
-15.7
 20
22.4
 11
-15.6955600755
 21
22.3866693947
  0
LINE
  5
38D
100
AcDbEntity
  8
0
100
AcDbLine
 62
7
  6
CONTINUOUS
 10
-0.65
 20
-22.4
 11
-0.6718949894
 21
-22.3342616154
  0
LWPOLYLINE
  5
38E
100
AcDbEntity
  8
0
100
AcDbPolyline
 62
253
  6
CONTINUOUS
 90
16
 70
0
 10
-6.8044399245
 20
23.7455981518
 10
-6.805816669
 20
23.771721248
 10
-6.8099159118
 20
23.7975582479
 10
-6.816692759
 20
23.8228261851
 10
-6.826072993
 20
23.8472483288
 10
-6.8379538819
 20
23.8705572044
 10
-6.8522053009
 20
23.8924975241
 10
-6.8686711633
 20
23.9128289957
 10
-6.8871711362
 20
23.9313289555
 10
-6.9075026107
 20
23.947794797
 10
-6.929442917
 20
23.9620461882
 10
-6.952751765
 20
23.9739270488
 10
-6.9771738802
 20
23.9833072623
 10
-7.0024417937
 20
23.990084097
 10
-7.0282787715
 20
23.994183333
 10
-7.0544018482
 20
23.9955600755
  0
LWPOLYLINE
  5
38F
100
AcDbEntity
  8
0
100
AcDbPolyline
 62
7
  6
CONTINUOUS
 90
16
 70
0
 10
-4.05
 20
-24.300030461
 10
-4.0489204702
 20
-24.3207847865
 10
-4.0456754535
 20
-24.3413984138
 10
-4.0402738515
 20
-24.3616428676
 10
-4.0327171281
 20
-24.3813607905
 10
-4.0230804259
 20
-24.4002459569
 10
-4.0115865149
 20
-24.4178836728
 10
-3.998521388
 20
-24.4339720091
 10
-3.9839720091
 20
-24.448521388
 10
-3.9678836728
 20
-24.4615865149
 10
-3.9502459569
 20
-24.4730804259
 10
-3.9313607905
 20
-24.4827171281
 10
-3.9116428676
 20
-24.4902738515
 10
-3.8913984138
 20
-24.4956754535
 10
-3.8707847865
 20
-24.4989204702
 10
-3.850030461
 20
-24.5
  0
LINE
  5
390
100
AcDbEntity
  8
0
100
AcDbLine
 62
253
  6
CONTINUOUS
 10
-3.8256118279
 20
-23.1200239821
 11
-3.8102592617
 21
-23.6278312164
  0
LINE
  5
391
100
AcDbEntity
  8
0
100
AcDbLine
 62
253
  6
CONTINUOUS
 10
-4.0281050106
 20
-23.2097560788
 11
-4.0101677384
 21
-23.8032415964
  0
LINE
  5
392
100
AcDbEntity
  8
0
100
AcDbLine
 62
253
  6
CONTINUOUS
 10
-4.0101677384
 20
-23.8032415964
 11
-4.0100770651
 21
-23.8073925323
  0
LINE
  5
393
100
AcDbEntity
  8
0
100
AcDbLine
 62
253
  6
CONTINUOUS
 10
-4.0100770651
 20
-23.8073925323
 11
-4.0099912008
 21
-23.8125697289
  0
LINE
  5
394
100
AcDbEntity
  8
0
100
AcDbLine
 62
253
  6
CONTINUOUS
 10
-4.0099912008
 20
-23.8125697289
 11
-4.0098934234
 21
-23.8209894879
  0
LINE
  5
395
100
AcDbEntity
  8
0
100
AcDbLine
 62
253
  6
CONTINUOUS
 10
-4.0098934234
 20
-23.8209894879
 11
-4.0098248659
 21
-23.8308419528
  0
LINE
  5
396
100
AcDbEntity
  8
0
100
AcDbLine
 62
253
  6
CONTINUOUS
 10
-4.0098222923
 20
23.8313691429
 11
-4.0099033382
 21
23.8199434323
  0
LINE
  5
397
100
AcDbEntity
  8
0
100
AcDbLine
 62
253
  6
CONTINUOUS
 10
-4.0099033382
 20
23.8199434323
 11
-4.0100090942
 21
23.811364705
  0
LWPOLYLINE
  5
398
100
AcDbEntity
  8
0
100
AcDbPolyline
 62
253
  6
CONTINUOUS
 90
3
 70
0
 10
-4.0100090942
 20
23.811364705
 10
-4.0101108786
 20
23.8057168424
 10
-4.0101483929
 20
23.804049181
  0
LINE
  5
399
100
AcDbEntity
  8
0
100
AcDbLine
 62
253
  6
CONTINUOUS
 10
-4.0101877003
 20
23.8024889992
 11
-4.0281050106
 21
23.2097560788
  0
LINE
  5
39A
100
AcDbEntity
  8
0
100
AcDbLine
 62
253
  6
CONTINUOUS
 10
-3.8102592221
 20
23.6278325252
 11
-3.8256118279
 21
23.1200239821
  0
LWPOLYLINE
  5
39B
100
AcDbEntity
  8
0
100
AcDbPolyline
 62
7
  6
CONTINUOUS
 90
16
 70
0
 10
-4.05
 20
24.300030461
 10
-4.0489204702
 20
24.3207847865
 10
-4.0456754535
 20
24.3413984138
 10
-4.0402738515
 20
24.3616428676
 10
-4.0327171281
 20
24.3813607905
 10
-4.0230804259
 20
24.4002459569
 10
-4.0115865149
 20
24.4178836728
 10
-3.998521388
 20
24.4339720091
 10
-3.9839720091
 20
24.448521388
 10
-3.9678836728
 20
24.4615865149
 10
-3.9502459569
 20
24.4730804259
 10
-3.9313607905
 20
24.4827171281
 10
-3.9116428676
 20
24.4902738515
 10
-3.8913984138
 20
24.4956754535
 10
-3.8707847865
 20
24.4989204702
 10
-3.850030461
 20
24.5
  0
LWPOLYLINE
  5
39C
100
AcDbEntity
  8
0
100
AcDbPolyline
 62
7
  6
CONTINUOUS
 90
13
 70
0
 10
-0.6718949894
 20
23.2097560788
 10
-0.6743192571
 20
23.1959910348
 10
-0.6803738639
 20
23.1824705833
 10
-0.6898328279
 20
23.1695975658
 10
-0.702389929
 20
23.157834077
 10
-0.7177369235
 20
23.1473843587
 10
-0.7356320309
 20
23.138227442
 10
-0.7558335136
 20
23.1305311145
 10
-0.777892498
 20
23.1246120381
 10
-0.8012241334
 20
23.1205831002
 10
-0.825329685
 20
23.1184751566
 10
-0.8498507074
 20
23.1183029672
 10
-0.8743881721
 20
23.1200239821
  0
LWPOLYLINE
  5
39D
100
AcDbEntity
  8
0
100
AcDbPolyline
 62
253
  6
CONTINUOUS
 90
8
 70
0
 10
-0.6893500543
 20
24.2606804067
 10
-0.6894416843
 20
24.2602969456
 10
-0.6895303298
 20
24.2594103737
 10
-0.689615991
 20
24.2580206908
 10
-0.6896995164
 20
24.2561026168
 10
-0.6897800575
 20
24.253681432
 10
-0.6898550682
 20
24.2508329765
 10
-0.6899881446
 20
24.2438266488
  0
LINE
  5
39E
100
AcDbEntity
  8
0
100
AcDbLine
 62
7
  6
CONTINUOUS
 10
2.75
 20
22.3213883311
 11
2.7368325431
 21
22.2818538361
  0
LINE
  5
39F
100
AcDbEntity
  8
0
100
AcDbLine
 62
253
  6
CONTINUOUS
 10
15.4455981518
 20
23.9955600755
 11
15.4500380762
 21
24.0
  0
LINE
  5
3A0
100
AcDbEntity
  8
0
100
AcDbLine
 62
253
  6
CONTINUOUS
 10
15.6955600755
 20
23.7455981518
 11
15.7
 21
23.7500380762
  0
LINE
  5
3A1
100
AcDbEntity
  8
0
100
AcDbLine
 62
253
  6
CONTINUOUS
 10
15.4500380762
 20
-24.0
 11
15.4455981518
 21
-23.9955600755
  0
LINE
  5
3A2
100
AcDbEntity
  8
0
100
AcDbLine
 62
253
  6
CONTINUOUS
 10
15.7
 20
-23.7500380762
 11
15.6955600755
 21
-23.7455981518
  0
LINE
  5
3A3
100
AcDbEntity
  8
0
100
AcDbLine
 62
7
  6
CONTINUOUS
 10
2.75
 20
-22.3213883311
 11
2.7368325431
 21
-22.2818538361
  0
LWPOLYLINE
  5
3A4
100
AcDbEntity
  8
0
100
AcDbPolyline
 62
253
  6
CONTINUOUS
 90
4
 70
0
 10
-0.889319603
 20
-24.460649897
 10
-0.8893604342
 20
-24.4601760916
 10
-0.8894021143
 20
-24.4591225867
 10
-0.8894446434
 20
-24.4574410389
  0
LINE
  5
3A5
100
AcDbEntity
  8
0
100
AcDbLine
 62
7
  6
CONTINUOUS
 10
-2.75
 20
-23.1226497308
 11
-2.7368325431
 21
-23.5581814706
  0
LINE
  5
3A6
100
AcDbEntity
  8
0
100
AcDbLine
 62
253
  6
CONTINUOUS
 10
-4.0101751593
 20
24.252062408
 11
-4.010093705
 21
24.2484732039
  0
LINE
  5
3A7
100
AcDbEntity
  8
0
100
AcDbLine
 62
253
  6
CONTINUOUS
 10
-4.010093705
 20
24.2484732039
 11
-4.0099845413
 21
24.2419802661
  0
LINE
  5
3A8
100
AcDbEntity
  8
0
100
AcDbLine
 62
253
  6
CONTINUOUS
 10
-3.8105571107
 20
24.4575201098
 11
-3.8104698043
 21
24.4521810092
  0
LINE
  5
3A9
100
AcDbEntity
  8
0
100
AcDbLine
 62
253
  6
CONTINUOUS
 10
-4.0099845413
 20
24.2419802661
 11
-4.009896418
 21
24.2343532539
  0
LINE
  5
3AA
100
AcDbEntity
  8
0
100
AcDbLine
 62
253
  6
CONTINUOUS
 10
-3.8104698043
 20
24.4521810092
 11
-3.8103361933
 21
24.4385106077
  0
LINE
  5
3AB
100
AcDbEntity
  8
0
100
AcDbLine
 62
253
  6
CONTINUOUS
 10
-4.009896418
 20
24.2343532539
 11
-4.0098188348
 21
24.2228872656
  0
LINE
  5
3AC
100
AcDbEntity
  8
0
100
AcDbLine
 62
253
  6
CONTINUOUS
 10
-3.8103361933
 20
24.4385106077
 11
-3.8100150548
 21
24.3671450848
  0
LINE
  5
3AD
100
AcDbEntity
  8
0
100
AcDbLine
 62
253
  6
CONTINUOUS
 10
-3.8102592617
 20
-23.6278312164
 11
-3.8098853303
 21
-23.7514885464
  0
LINE
  5
3AE
100
AcDbEntity
  8
0
100
AcDbLine
 62
253
  6
CONTINUOUS
 10
-4.0098248659
 20
-23.8308419528
 11
-4.0097924241
 21
-23.8443375673
  0
LINE
  5
3AF
100
AcDbEntity
  8
0
100
AcDbLine
 62
7
  6
CONTINUOUS
 10
-4.05
 20
-22.4
 11
-4.05
 21
-24.300030461
  0
LINE
  5
3B0
100
AcDbEntity
  8
0
100
AcDbLine
 62
7
  6
CONTINUOUS
 10
-4.05
 20
22.4
 11
-4.05
 21
24.300030461
  0
LINE
  5
3B1
100
AcDbEntity
  8
0
100
AcDbLine
 62
253
  6
CONTINUOUS
 10
-4.0281050106
 20
-23.2097560788
 11
-4.0281050106
 21
-22.3342616154
  0
LINE
  5
3B2
100
AcDbEntity
  8
0
100
AcDbLine
 62
253
  6
CONTINUOUS
 10
-4.0281050106
 20
22.3342616154
 11
-4.0281050106
 21
23.2097560788
  0
LINE
  5
3B3
100
AcDbEntity
  8
0
100
AcDbLine
 62
253
  6
CONTINUOUS
 10
-3.7781430868
 20
23.1226497308
 11
-3.7781430868
 21
22.3213883311
  0
LINE
  5
3B4
100
AcDbEntity
  8
0
100
AcDbLine
 62
253
  6
CONTINUOUS
 10
-3.7781430868
 20
-22.3213883311
 11
-3.7781430868
 21
-23.1226497308
  0
LINE
  5
3B5
100
AcDbEntity
  8
0
100
AcDbLine
 62
7
  6
CONTINUOUS
 10
-2.75
 20
23.1226497308
 11
-2.75
 21
22.3213883311
  0
LINE
  5
3B6
100
AcDbEntity
  8
0
100
AcDbLine
 62
7
  6
CONTINUOUS
 10
-2.75
 20
-22.3213883311
 11
-2.75
 21
-23.1226497308
  0
LINE
  5
3B7
100
AcDbEntity
  8
0
100
AcDbLine
 62
253
  6
CONTINUOUS
 10
-2.7368325431
 20
-23.5581814706
 11
-2.7368325431
 21
-22.2818538361
  0
LINE
  5
3B8
100
AcDbEntity
  8
0
100
AcDbLine
 62
253
  6
CONTINUOUS
 10
-2.7368325431
 20
22.2818538361
 11
-2.7368325431
 21
23.5581814706
  0
LINE
  5
3B9
100
AcDbEntity
  8
0
100
AcDbLine
 62
253
  6
CONTINUOUS
 10
-2.4868706193
 20
-23.8443375673
 11
-2.4868706193
 21
-22.2689805518
  0
LINE
  5
3BA
100
AcDbEntity
  8
0
100
AcDbLine
 62
253
  6
CONTINUOUS
 10
-2.4868706193
 20
22.2689805518
 11
-2.4868706193
 21
23.8443375673
  0
LINE
  5
3BB
100
AcDbEntity
  8
0
100
AcDbLine
 62
253
  6
CONTINUOUS
 10
-2.2131293807
 20
-23.8443375673
 11
-2.2131293807
 21
-22.2689805518
  0
LINE
  5
3BC
100
AcDbEntity
  8
0
100
AcDbLine
 62
253
  6
CONTINUOUS
 10
-2.2131293807
 20
22.2689805518
 11
-2.2131293807
 21
23.8443375673
  0
LINE
  5
3BD
100
AcDbEntity
  8
0
100
AcDbLine
 62
253
  6
CONTINUOUS
 10
-1.9631674569
 20
-23.5581814706
 11
-1.9631674569
 21
-22.2818538361
  0
LINE
  5
3BE
100
AcDbEntity
  8
0
100
AcDbLine
 62
253
  6
CONTINUOUS
 10
-1.9631674569
 20
22.2818538361
 11
-1.9631674569
 21
23.5581814706
  0
LINE
  5
3BF
100
AcDbEntity
  8
0
100
AcDbLine
 62
7
  6
CONTINUOUS
 10
-1.95
 20
23.1226497308
 11
-1.95
 21
22.3213883311
  0
LINE
  5
3C0
100
AcDbEntity
  8
0
100
AcDbLine
 62
7
  6
CONTINUOUS
 10
-1.95
 20
-22.3213883311
 11
-1.95
 21
-23.1226497308
  0
LINE
  5
3C1
100
AcDbEntity
  8
0
100
AcDbLine
 62
253
  6
CONTINUOUS
 10
-4.0098188348
 20
24.2228872656
 11
-4.0097929329
 21
23.842295279
  0
LINE
  5
3C2
100
AcDbEntity
  8
0
100
AcDbLine
 62
253
  6
CONTINUOUS
 10
-3.8098853303
 20
-23.7514885464
 11
-3.8100262185
 21
-24.3710868448
  0
LINE
  5
3C3
100
AcDbEntity
  8
0
100
AcDbLine
 62
253
  6
CONTINUOUS
 10
-4.0097924241
 20
-23.8443375673
 11
-4.0098183048
 21
-24.2227805841
  0
LINE
  5
3C4
100
AcDbEntity
  8
0
100
AcDbLine
 62
253
  6
CONTINUOUS
 10
-4.0097929329
 20
23.842295279
 11
-4.0098222923
 21
23.8313691429
  0
LINE
  5
3C5
100
AcDbEntity
  8
0
100
AcDbLine
 62
253
  6
CONTINUOUS
 10
-3.8100150548
 20
24.3671450848
 11
-3.8101787693
 21
23.6428510193
  0
LINE
  5
3C6
100
AcDbEntity
  8
0
100
AcDbLine
 62
253
  6
CONTINUOUS
 10
-3.8101787693
 20
23.6428510193
 11
-3.8102592542
 21
23.6278325252
  0
LINE
  5
3C7
100
AcDbEntity
  8
0
100
AcDbLine
 62
253
  6
CONTINUOUS
 10
-3.8100262185
 20
-24.3710868448
 11
-3.8103168437
 21
-24.4359123199
  0
LINE
  5
3C8
100
AcDbEntity
  8
0
100
AcDbLine
 62
253
  6
CONTINUOUS
 10
-4.0098183048
 20
-24.2227805841
 11
-4.0098844252
 21
-24.2330326118
  0
LWPOLYLINE
  5
3C9
100
AcDbEntity
  8
0
100
AcDbPolyline
 62
253
  6
CONTINUOUS
 90
6
 70
0
 10
-3.8103168437
 20
-24.4359123199
 10
-3.8104678317
 20
-24.4520261152
 10
-3.810520143
 20
-24.4555901408
 10
-3.810572901
 20
-24.458219303
 10
-3.8106263222
 20
-24.459907582
 10
-3.8106804067
 20
-24.4606499457
  0
LINE
  5
3CA
100
AcDbEntity
  8
0
100
AcDbLine
 62
253
  6
CONTINUOUS
 10
-4.0098844252
 20
-24.2330326118
 11
-4.009963752
 21
-24.2404400048
  0
LINE
  5
3CB
100
AcDbEntity
  8
0
100
AcDbLine
 62
253
  6
CONTINUOUS
 10
-4.009963752
 20
-24.2404400048
 11
-4.0100676227
 21
-24.2471301053
  0
LWPOLYLINE
  5
3CC
100
AcDbEntity
  8
0
100
AcDbPolyline
 62
253
  6
CONTINUOUS
 90
3
 70
0
 10
-4.0100676227
 20
-24.2471301053
 10
-4.0101491128
 20
-24.2510087986
 10
-4.0101929576
 20
-24.2527367359
  0
LINE
  5
3CD
100
AcDbEntity
  8
0
100
AcDbLine
 62
7
  6
CONTINUOUS
 10
-2.7368325431
 20
23.5581814706
 11
-2.75
 21
23.1226497308
  0
LWPOLYLINE
  5
3CE
100
AcDbEntity
  8
0
100
AcDbPolyline
 62
253
  6
CONTINUOUS
 90
9
 70
0
 10
-4.0102387472
 20
-24.2543105479
 10
-4.0102864441
 20
-24.2557331433
 10
-4.0103354589
 20
-24.2569824166
 10
-4.0103858213
 20
-24.2580552094
 10
-4.0104375017
 20
-24.2589546801
 10
-4.0104898221
 20
-24.2596681982
 10
-4.0105425566
 20
-24.2601915536
 10
-4.0105959311
 20
-24.2605289564
 10
-4.0106499457
 20
-24.2606804067
  0
LWPOLYLINE
  5
3CF
100
AcDbEntity
  8
0
100
AcDbPolyline
 62
253
  6
CONTINUOUS
 90
4
 70
0
 10
-0.8893195933
 20
24.4606499457
 10
-0.8894108219
 20
24.4588598397
 10
-0.8894991934
 20
24.4544107356
 10
-0.8896682711
 20
24.4377541514
  0
LWPOLYLINE
  5
3D0
100
AcDbEntity
  8
0
100
AcDbPolyline
 62
253
  6
CONTINUOUS
 90
13
 70
0
 10
-0.6897711993
 20
23.8010362971
 10
-0.6916895536
 20
23.7785525233
 10
-0.6969591253
 20
23.7564491967
 10
-0.7054907481
 20
23.7351003269
 10
-0.7171400588
 20
23.7148671574
 10
-0.7317099398
 20
23.696092053
 10
-0.7489538545
 20
23.6790927066
 10
-0.7685800193
 20
23.6641567635
 10
-0.7902563405
 20
23.6515369545
 10
-0.8136160339
 20
23.6414468187
 10
-0.8382638308
 20
23.6340570911
 10
-0.8637826667
 20
23.629492813
 10
-0.8897407383
 20
23.6278312164
  0
LINE
  5
3D1
100
AcDbEntity
  8
0
100
AcDbLine
 62
7
  6
CONTINUOUS
 10
4.0281050106
 20
22.3342616154
 11
4.05
 21
22.4
  0
LINE
  5
3D2
100
AcDbEntity
  8
0
100
AcDbLine
 62
7
  6
CONTINUOUS
 10
-10.45
 20
-22.4
 11
-10.4455600755
 21
-22.3866693947
  0
LWPOLYLINE
  5
3D3
100
AcDbEntity
  8
0
100
AcDbPolyline
 62
7
  6
CONTINUOUS
 90
7
 70
0
 10
-21.8281050106
 20
-22.3341525772
 10
-21.8275779546
 20
-22.3335111918
 10
-21.8264324556
 20
-22.3328772259
 10
-21.8246713442
 20
-22.3322506793
 10
-21.8222989776
 20
-22.3316315522
 10
-21.8193212287
 20
-22.3310198445
 10
-21.8157454716
 20
-22.3304155561
  0
LWPOLYLINE
  5
3D4
100
AcDbEntity
  8
0
100
AcDbPolyline
 62
7
  6
CONTINUOUS
 90
6
 70
0
 10
19.7966230298
 20
23.6278312164
 10
19.8101884567
 20
23.6418841347
 10
19.825296887
 20
23.6568894062
 10
19.8416388442
 20
23.6728470308
 10
19.8588384151
 20
23.6899070152
 10
19.8766923041
 20
23.7079193528
  0
LINE
  5
3D5
100
AcDbEntity
  8
0
100
AcDbLine
 62
7
  6
CONTINUOUS
 10
19.9932476975
 20
23.8242182101
 11
20.0131293807
 21
23.8443375673
  0
LINE
  5
3D6
100
AcDbEntity
  8
0
100
AcDbLine
 62
253
  6
CONTINUOUS
 10
21.650030461
 20
24.5
 11
21.6106804067
 21
24.4606499457
  0
LINE
  5
3D7
100
AcDbEntity
  8
0
100
AcDbLine
 62
7
  6
CONTINUOUS
 10
19.8766923041
 20
23.7079193528
 11
19.9932476975
 21
23.8242182101
  0
LWPOLYLINE
  5
3D8
100
AcDbEntity
  8
0
100
AcDbPolyline
 62
7
  6
CONTINUOUS
 90
6
 70
0
 10
19.7966230298
 20
-23.6278312164
 10
19.8106759481
 20
-23.6413966433
 10
19.8256812196
 20
-23.6565050736
 10
19.8416388442
 20
-23.6728470308
 10
19.8586988287
 20
-23.6900466017
 10
19.8767111662
 20
-23.7079004907
  0
LINE
  5
3D9
100
AcDbEntity
  8
0
100
AcDbLine
 62
7
  6
CONTINUOUS
 10
19.9930100235
 20
-23.8244558841
 11
20.0131293807
 21
-23.8443375673
  0
LINE
  5
3DA
100
AcDbEntity
  8
0
100
AcDbLine
 62
253
  6
CONTINUOUS
 10
21.650030461
 20
-24.5
 11
21.610680358
 21
-24.4606498971
  0
LINE
  5
3DB
100
AcDbEntity
  8
0
100
AcDbLine
 62
7
  6
CONTINUOUS
 10
19.8767111662
 20
-23.7079004907
 11
19.9930100235
 21
-23.8244558841
  0
LINE
  5
3DC
100
AcDbEntity
  8
0
100
AcDbLine
 62
7
  6
CONTINUOUS
 10
4.05
 20
-22.4
 11
4.0281050106
 21
-22.3342616154
  0
LINE
  5
3DD
100
AcDbEntity
  8
0
100
AcDbLine
 62
7
  6
CONTINUOUS
 10
-10.4455600755
 20
22.3866693947
 11
-10.45
 21
22.4
  0
LWPOLYLINE
  5
3DE
100
AcDbEntity
  8
0
100
AcDbPolyline
 62
253
  6
CONTINUOUS
 90
4
 70
0
 10
-3.8106804067
 20
24.4606499457
 10
-3.8106402331
 20
24.4601878499
 10
-3.8105991345
 20
24.459161344
 10
-3.8105571107
 20
24.4575201098
  0
LINE
  5
3DF
100
AcDbEntity
  8
0
100
AcDbLine
 62
7
  6
CONTINUOUS
 10
-1.9631674569
 20
23.5581814706
 11
-1.95
 21
23.1226497308
  0
LINE
  5
3E0
100
AcDbEntity
  8
0
100
AcDbLine
 62
253
  6
CONTINUOUS
 10
-0.8897409909
 20
23.6278395719
 11
-0.8743881721
 21
23.1200239821
  0
LINE
  5
3E1
100
AcDbEntity
  8
0
100
AcDbLine
 62
253
  6
CONTINUOUS
 10
0.8743881721
 20
-23.1200239821
 11
0.8897407383
 21
-23.6278312164
  0
LINE
  5
3E2
100
AcDbEntity
  8
0
100
AcDbLine
 62
253
  6
CONTINUOUS
 10
-0.6898362301
 20
23.8034223138
 11
-0.6718949894
 21
23.2097560788
  0
LINE
  5
3E3
100
AcDbEntity
  8
0
100
AcDbLine
 62
253
  6
CONTINUOUS
 10
0.6718949894
 20
-23.2097560788
 11
0.6898322616
 21
-23.8032415964
  0
LINE
  5
3E4
100
AcDbEntity
  8
0
100
AcDbLine
 62
253
  6
CONTINUOUS
 10
-0.6898278693
 20
-24.2519439791
 11
-0.6899090024
 21
-24.2483386784
  0
LINE
  5
3E5
100
AcDbEntity
  8
0
100
AcDbLine
 62
253
  6
CONTINUOUS
 10
0.6898322616
 20
-23.8032415964
 11
0.6899229349
 21
-23.8073925323
  0
LINE
  5
3E6
100
AcDbEntity
  8
0
100
AcDbLine
 62
253
  6
CONTINUOUS
 10
-0.6899521824
 20
23.8089953425
 11
-0.6898362301
 21
23.8034223138
  0
LINE
  5
3E7
100
AcDbEntity
  8
0
100
AcDbLine
 62
253
  6
CONTINUOUS
 10
0.6899229349
 20
-23.8073925323
 11
0.6899809243
 21
-23.8107291372
  0
LINE
  5
3E8
100
AcDbEntity
  8
0
100
AcDbLine
 62
253
  6
CONTINUOUS
 10
-0.6899090024
 20
-24.2483386784
 11
-0.6900174226
 21
-24.2418398188
  0
LINE
  5
3E9
100
AcDbEntity
  8
0
100
AcDbLine
 62
253
  6
CONTINUOUS
 10
-0.8894446434
 20
-24.4574410389
 11
-0.8895327315
 21
-24.4519903411
  0
LINE
  5
3EA
100
AcDbEntity
  8
0
100
AcDbLine
 62
253
  6
CONTINUOUS
 10
-0.6900500097
 20
23.8156890628
 11
-0.6899521824
 21
23.8089953425
  0
LINE
  5
3EB
100
AcDbEntity
  8
0
100
AcDbLine
 62
253
  6
CONTINUOUS
 10
-0.6900174226
 20
-24.2418398188
 11
-0.6901047578
 21
-24.2342276182
  0
LINE
  5
3EC
100
AcDbEntity
  8
0
100
AcDbLine
 62
253
  6
CONTINUOUS
 10
-0.8895327315
 20
-24.4519903411
 11
-0.8896669391
 21
-24.4381137577
  0
LINE
  5
3ED
100
AcDbEntity
  8
0
100
AcDbLine
 62
253
  6
CONTINUOUS
 10
-0.690155029
 20
23.8272657837
 11
-0.6900500097
 21
23.8156890628
  0
LINE
  5
3EE
100
AcDbEntity
  8
0
100
AcDbLine
 62
253
  6
CONTINUOUS
 10
-0.6901047578
 20
-24.2342276182
 11
-0.6901814979
 21
-24.2228110223
  0
LINE
  5
3EF
100
AcDbEntity
  8
0
100
AcDbLine
 62
253
  6
CONTINUOUS
 10
-0.8896669391
 20
-24.4381137577
 11
-0.8899869582
 21
-24.366452455
  0
LINE
  5
3F0
100
AcDbEntity
  8
0
100
AcDbLine
 62
253
  6
CONTINUOUS
 10
-0.6902040517
 20
23.839931699
 11
-0.690155029
 21
23.8272657837
  0
LINE
  5
3F1
100
AcDbEntity
  8
0
100
AcDbLine
 62
253
  6
CONTINUOUS
 10
-0.8901245329
 20
23.7588328698
 11
-0.8897407845
 21
23.6278395724
  0
LINE
  5
3F2
100
AcDbEntity
  8
0
100
AcDbLine
 62
253
  6
CONTINUOUS
 10
-0.9218569132
 20
23.1226497308
 11
-0.9218569132
 21
22.3213883311
  0
LINE
  5
3F3
100
AcDbEntity
  8
0
100
AcDbLine
 62
253
  6
CONTINUOUS
 10
-0.9218569132
 20
-22.3213883311
 11
-0.9218569132
 21
-23.1226497308
  0
LINE
  5
3F4
100
AcDbEntity
  8
0
100
AcDbLine
 62
253
  6
CONTINUOUS
 10
-0.6718949894
 20
23.2097560788
 11
-0.6718949894
 21
22.3342616154
  0
LINE
  5
3F5
100
AcDbEntity
  8
0
100
AcDbLine
 62
253
  6
CONTINUOUS
 10
-0.6718949894
 20
-22.3342616154
 11
-0.6718949894
 21
-23.2097560788
  0
LINE
  5
3F6
100
AcDbEntity
  8
0
100
AcDbLine
 62
7
  6
CONTINUOUS
 10
-0.65
 20
-24.300030461
 11
-0.65
 21
-22.4
  0
LINE
  5
3F7
100
AcDbEntity
  8
0
100
AcDbLine
 62
7
  6
CONTINUOUS
 10
-0.65
 20
22.4
 11
-0.65
 21
24.300030461
  0
LINE
  5
3F8
100
AcDbEntity
  8
0
100
AcDbLine
 62
253
  6
CONTINUOUS
 10
-0.6901814979
 20
-24.2228110223
 11
-0.6902070378
 21
-23.8422674847
  0
LINE
  5
3F9
100
AcDbEntity
  8
0
100
AcDbLine
 62
253
  6
CONTINUOUS
 10
-0.8899869582
 20
-24.366452455
 11
-0.8900858378
 21
-23.7330790773
  0
LINE
  5
3FA
100
AcDbEntity
  8
0
100
AcDbLine
 62
253
  6
CONTINUOUS
 10
-0.8899571011
 20
24.3764517167
 11
-0.8901245329
 21
23.7588328698
  0
LINE
  5
3FB
100
AcDbEntity
  8
0
100
AcDbLine
 62
253
  6
CONTINUOUS
 10
-0.6901885553
 20
24.2210431087
 11
-0.6902040517
 21
23.839931699
  0
LINE
  5
3FC
100
AcDbEntity
  8
0
100
AcDbLine
 62
253
  6
CONTINUOUS
 10
-0.6902070378
 20
-23.8422674847
 11
-0.6901652242
 21
-23.8289620206
  0
LINE
  5
3FD
100
AcDbEntity
  8
0
100
AcDbLine
 62
253
  6
CONTINUOUS
 10
-0.8900858378
 20
-23.7330790773
 11
-0.8897407383
 21
-23.6278312164
  0
LINE
  5
3FE
100
AcDbEntity
  8
0
100
AcDbLine
 62
253
  6
CONTINUOUS
 10
-0.8896682711
 20
24.4377541514
 11
-0.8899571011
 21
24.3764517167
  0
LINE
  5
3FF
100
AcDbEntity
  8
0
100
AcDbLine
 62
253
  6
CONTINUOUS
 10
-0.6900928193
 20
24.2354529858
 11
-0.6901885553
 21
24.2210431087
  0
LINE
  5
400
100
AcDbEntity
  8
0
100
AcDbLine
 62
253
  6
CONTINUOUS
 10
-0.6901652242
 20
-23.8289620206
 11
-0.6900723654
 21
-23.8176054476
  0
LINE
  5
401
100
AcDbEntity
  8
0
100
AcDbLine
 62
253
  6
CONTINUOUS
 10
-0.6899881446
 20
24.2438266488
 11
-0.6900928193
 21
24.2354529858
  0
LINE
  5
402
100
AcDbEntity
  8
0
100
AcDbLine
 62
253
  6
CONTINUOUS
 10
-0.6900723654
 20
-23.8176054476
 11
-0.68998963
 21
-23.8112815968
  0
LWPOLYLINE
  5
403
100
AcDbEntity
  8
0
100
AcDbPolyline
 62
253
  6
CONTINUOUS
 90
3
 70
0
 10
-0.68998963
 20
-23.8112815968
 10
-0.6898882579
 20
-23.8056762915
 10
-0.6898509813
 20
-23.80402237
  0
LINE
  5
404
100
AcDbEntity
  8
0
100
AcDbLine
 62
253
  6
CONTINUOUS
 10
0.6898362323
 20
23.8034224493
 11
0.6899521859
 21
23.8089955466
  0
LINE
  5
405
100
AcDbEntity
  8
0
100
AcDbLine
 62
7
  6
CONTINUOUS
 10
-1.95
 20
-23.1226497308
 11
-1.9631674569
 21
-23.5581814706
  0
LINE
  5
406
100
AcDbEntity
  8
0
100
AcDbLine
 62
253
  6
CONTINUOUS
 10
-0.8897407383
 20
-23.6278312164
 11
-0.8743881721
 21
-23.1200239821
  0
LINE
  5
407
100
AcDbEntity
  8
0
100
AcDbLine
 62
253
  6
CONTINUOUS
 10
0.6718949894
 20
23.2097560788
 11
0.6898362323
 21
23.8034224493
  0
LINE
  5
408
100
AcDbEntity
  8
0
100
AcDbLine
 62
253
  6
CONTINUOUS
 10
-0.6898119618
 20
-23.8024757052
 11
-0.6718949894
 21
-23.2097560788
  0
LINE
  5
409
100
AcDbEntity
  8
0
100
AcDbLine
 62
253
  6
CONTINUOUS
 10
0.8743881721
 20
23.1200239821
 11
0.889740991
 21
23.6278395725
  0
LWPOLYLINE
  5
40A
100
AcDbEntity
  8
0
100
AcDbPolyline
 62
253
  6
CONTINUOUS
 90
13
 70
0
 10
0.6893500543
 20
24.2606804067
 10
0.6910681076
 20
24.2867766381
 10
0.6961769852
 20
24.3124265287
 10
0.7045893067
 20
24.3371913716
 10
0.7161611908
 20
24.3606475977
 10
0.7306947158
 20
24.3823940197
 10
0.7479413056
 20
24.4020586944
 10
0.7676059803
 20
24.4193052842
 10
0.7893524023
 20
24.4338388092
 10
0.8128086284
 20
24.4454106933
 10
0.8375734713
 20
24.4538230148
 10
0.8632233619
 20
24.4589318924
 10
0.8893195933
 20
24.4606499457
  0
LWPOLYLINE
  5
40B
100
AcDbEntity
  8
0
100
AcDbPolyline
 62
7
  6
CONTINUOUS
 90
16
 70
0
 10
-4.0281050106
 20
-23.2097560788
 10
-4.0264637111
 20
-23.1986731069
 10
-4.0224640264
 20
-23.1877110063
 10
-4.0162026121
 20
-23.177084755
 10
-4.0077898535
 20
-23.1670301929
 10
-3.997375011
 20
-23.1576969207
 10
-3.9851630868
 20
-23.1491376597
 10
-3.9714035588
 20
-23.1414971582
 10
-3.9562535003
 20
-23.1348681954
 10
-3.9397737466
 20
-23.1292182849
 10
-3.9220206744
 20
-23.1246030251
 10
-3.9032981214
 20
-23.1211856161
 10
-3.8840488369
 20
-23.1190440682
 10
-3.8645825298
 20
-23.1181640071
 10
-3.8450366015
 20
-23.1185067845
 10
-3.8256118279
 20
-23.1200239821
  0
LINE
  5
40C
100
AcDbEntity
  8
0
100
AcDbLine
 62
253
  6
CONTINUOUS
 10
21.85
 20
24.300030461
 11
21.8106499457
 21
24.2606804067
  0
LINE
  5
40D
100
AcDbEntity
  8
0
100
AcDbLine
 62
253
  6
CONTINUOUS
 10
21.85
 20
-24.300030461
 11
21.8106499457
 21
-24.2606804067
  0
LWPOLYLINE
  5
40E
100
AcDbEntity
  8
0
100
AcDbPolyline
 62
253
  6
CONTINUOUS
 90
4
 70
0
 10
3.810680397
 20
-24.460649897
 10
3.8106395658
 20
-24.4601760916
 10
3.8105978857
 20
-24.4591225867
 10
3.8105553566
 20
-24.4574410389
  0
LWPOLYLINE
  5
40F
100
AcDbEntity
  8
0
100
AcDbPolyline
 62
253
  6
CONTINUOUS
 90
13
 70
0
 10
-0.6893500543
 20
24.2606804067
 10
-0.6910680894
 20
24.2867764962
 10
-0.6961769183
 20
24.312426275
 10
-0.7045891711
 20
24.3371910402
 10
-0.7161609758
 20
24.3606472215
 10
-0.7306944223
 20
24.3823936336
 10
-0.7479409509
 20
24.4020583366
 10
-0.7676055979
 20
24.419304988
 10
-0.7893520301
 20
24.4338385922
 10
-0.8128083009
 20
24.445410556
 10
-0.8375732208
 20
24.4538229467
 10
-0.8632232219
 20
24.4589318735
 10
-0.8893195933
 20
24.4606499457
  0
LINE
  5
410
100
AcDbEntity
  8
0
100
AcDbLine
 62
7
  6
CONTINUOUS
 10
1.95
 20
-23.1226497308
 11
1.9631674569
 21
-23.5581814706
  0
LWPOLYLINE
  5
411
100
AcDbEntity
  8
0
100
AcDbPolyline
 62
253
  6
CONTINUOUS
 90
7
 70
0
 10
0.6898550691
 20
24.2508329384
 10
0.689780058
 20
24.2536814063
 10
0.6896995164
 20
24.2561026103
 10
0.6896159907
 20
24.2580206976
 10
0.6895303294
 20
24.2594103839
 10
0.689441684
 20
24.2602969536
 10
0.6893500543
 20
24.2606804067
  0
LWPOLYLINE
  5
412
100
AcDbEntity
  8
0
100
AcDbPolyline
 62
253
  6
CONTINUOUS
 90
3
 70
0
 10
0.8894991931
 20
24.4544107637
 10
0.8894108217
 20
24.4588598509
 10
0.8893195933
 20
24.4606499457
  0
LINE
  5
413
100
AcDbEntity
  8
0
100
AcDbLine
 62
253
  6
CONTINUOUS
 10
0.6899881452
 20
24.2438266124
 11
0.6898550691
 21
24.2508329384
  0
LINE
  5
414
100
AcDbEntity
  8
0
100
AcDbLine
 62
253
  6
CONTINUOUS
 10
0.6900928193
 20
24.2354529965
 11
0.6899881452
 21
24.2438266124
  0
LINE
  5
415
100
AcDbEntity
  8
0
100
AcDbLine
 62
253
  6
CONTINUOUS
 10
0.6899809243
 20
-23.8107291372
 11
0.6900844975
 21
-23.8187363855
  0
LINE
  5
416
100
AcDbEntity
  8
0
100
AcDbLine
 62
253
  6
CONTINUOUS
 10
0.8896682711
 20
24.4377541411
 11
0.8894991931
 21
24.4544107637
  0
LINE
  5
417
100
AcDbEntity
  8
0
100
AcDbLine
 62
253
  6
CONTINUOUS
 10
0.6900844975
 20
-23.8187363855
 11
0.6901612999
 21
-23.8282728054
  0
LINE
  5
418
100
AcDbEntity
  8
0
100
AcDbLine
 62
253
  6
CONTINUOUS
 10
0.6901885549
 20
24.2210431797
 11
0.6900928193
 21
24.2354529965
  0
LINE
  5
419
100
AcDbEntity
  8
0
100
AcDbLine
 62
253
  6
CONTINUOUS
 10
0.8900133347
 20
24.3562184296
 11
0.8896682711
 21
24.4377541411
  0
LINE
  5
41A
100
AcDbEntity
  8
0
100
AcDbLine
 62
253
  6
CONTINUOUS
 10
0.6901612999
 20
-23.8282728054
 11
0.6902061664
 21
-23.8415720623
  0
LINE
  5
41B
100
AcDbEntity
  8
0
100
AcDbLine
 62
253
  6
CONTINUOUS
 10
0.8897407383
 20
-23.6278312164
 11
0.8901146697
 21
-23.7514885464
  0
LINE
  5
41C
100
AcDbEntity
  8
0
100
AcDbLine
 62
7
  6
CONTINUOUS
 10
0.65
 20
-22.4
 11
0.65
 21
-24.300030461
  0
LINE
  5
41D
100
AcDbEntity
  8
0
100
AcDbLine
 62
7
  6
CONTINUOUS
 10
0.65
 20
22.4
 11
0.65
 21
24.300030461
  0
LINE
  5
41E
100
AcDbEntity
  8
0
100
AcDbLine
 62
253
  6
CONTINUOUS
 10
0.6718949894
 20
-23.2097560788
 11
0.6718949894
 21
-22.3342616154
  0
LINE
  5
41F
100
AcDbEntity
  8
0
100
AcDbLine
 62
253
  6
CONTINUOUS
 10
0.6718949894
 20
22.3342616154
 11
0.6718949894
 21
23.2097560788
  0
LINE
  5
420
100
AcDbEntity
  8
0
100
AcDbLine
 62
253
  6
CONTINUOUS
 10
0.9218569132
 20
-23.1226497308
 11
0.9218569132
 21
-22.3213883311
  0
LINE
  5
421
100
AcDbEntity
  8
0
100
AcDbLine
 62
253
  6
CONTINUOUS
 10
0.9218569132
 20
22.3213883311
 11
0.9218569132
 21
23.1226497308
  0
LINE
  5
422
100
AcDbEntity
  8
0
100
AcDbLine
 62
7
  6
CONTINUOUS
 10
1.95
 20
23.1226497308
 11
1.95
 21
22.3213883311
  0
LINE
  5
423
100
AcDbEntity
  8
0
100
AcDbLine
 62
7
  6
CONTINUOUS
 10
1.95
 20
-22.3213883311
 11
1.95
 21
-23.1226497308
  0
LINE
  5
424
100
AcDbEntity
  8
0
100
AcDbLine
 62
253
  6
CONTINUOUS
 10
1.9631674569
 20
-23.5581814706
 11
1.9631674569
 21
-22.2818538361
  0
LINE
  5
425
100
AcDbEntity
  8
0
100
AcDbLine
 62
253
  6
CONTINUOUS
 10
1.9631674569
 20
22.2818538361
 11
1.9631674569
 21
23.5581814706
  0
LINE
  5
426
100
AcDbEntity
  8
0
100
AcDbLine
 62
253
  6
CONTINUOUS
 10
2.2131293807
 20
-23.8443375673
 11
2.2131293807
 21
-22.2689805518
  0
LINE
  5
427
100
AcDbEntity
  8
0
100
AcDbLine
 62
253
  6
CONTINUOUS
 10
2.2131293807
 20
22.2689805518
 11
2.2131293807
 21
23.8443375673
  0
LINE
  5
428
100
AcDbEntity
  8
0
100
AcDbLine
 62
253
  6
CONTINUOUS
 10
2.4868706193
 20
-23.8443375673
 11
2.4868706193
 21
-22.2689805518
  0
LINE
  5
429
100
AcDbEntity
  8
0
100
AcDbLine
 62
253
  6
CONTINUOUS
 10
2.4868706193
 20
22.2689805518
 11
2.4868706193
 21
23.8443375673
  0
LINE
  5
42A
100
AcDbEntity
  8
0
100
AcDbLine
 62
253
  6
CONTINUOUS
 10
0.690204052
 20
23.8399317403
 11
0.6901885549
 21
24.2210431797
  0
LINE
  5
42B
100
AcDbEntity
  8
0
100
AcDbLine
 62
253
  6
CONTINUOUS
 10
0.8900604635
 20
23.7193369962
 11
0.8900133347
 21
24.3562184296
  0
LINE
  5
42C
100
AcDbEntity
  8
0
100
AcDbLine
 62
253
  6
CONTINUOUS
 10
0.8901146697
 20
-23.7514885464
 11
0.8899737815
 21
-24.3710868448
  0
LINE
  5
42D
100
AcDbEntity
  8
0
100
AcDbLine
 62
253
  6
CONTINUOUS
 10
0.6902061664
 20
-23.8415720623
 11
0.6901816952
 21
-24.2227805841
  0
LINE
  5
42E
100
AcDbEntity
  8
0
100
AcDbLine
 62
253
  6
CONTINUOUS
 10
0.6901550283
 20
23.8272657371
 11
0.690204052
 21
23.8399317403
  0
LINE
  5
42F
100
AcDbEntity
  8
0
100
AcDbLine
 62
253
  6
CONTINUOUS
 10
0.8897407845
 20
23.627839573
 11
0.8900604635
 21
23.7193369962
  0
LINE
  5
430
100
AcDbEntity
  8
0
100
AcDbLine
 62
253
  6
CONTINUOUS
 10
0.8899737815
 20
-24.3710868448
 11
0.8896831563
 21
-24.4359123199
  0
LINE
  5
431
100
AcDbEntity
  8
0
100
AcDbLine
 62
253
  6
CONTINUOUS
 10
0.6901816952
 20
-24.2227805841
 11
0.6901155748
 21
-24.2330326118
  0
LINE
  5
432
100
AcDbEntity
  8
0
100
AcDbLine
 62
253
  6
CONTINUOUS
 10
0.6900500093
 20
23.8156889741
 11
0.6901550283
 21
23.8272657371
  0
LWPOLYLINE
  5
433
100
AcDbEntity
  8
0
100
AcDbPolyline
 62
253
  6
CONTINUOUS
 90
6
 70
0
 10
0.8896831563
 20
-24.4359123199
 10
0.8895321683
 20
-24.4520261152
 10
0.889479857
 20
-24.4555901408
 10
0.889427099
 20
-24.458219303
 10
0.8893736778
 20
-24.459907582
 10
0.8893195933
 20
-24.4606499457
  0
LINE
  5
434
100
AcDbEntity
  8
0
100
AcDbLine
 62
253
  6
CONTINUOUS
 10
0.6901155748
 20
-24.2330326118
 11
0.690036248
 21
-24.2404400048
  0
LINE
  5
435
100
AcDbEntity
  8
0
100
AcDbLine
 62
253
  6
CONTINUOUS
 10
0.6899521859
 20
23.8089955466
 11
0.6900500093
 21
23.8156889741
  0
LINE
  5
436
100
AcDbEntity
  8
0
100
AcDbLine
 62
253
  6
CONTINUOUS
 10
0.690036248
 20
-24.2404400048
 11
0.6899323773
 21
-24.2471301053
  0
LWPOLYLINE
  5
437
100
AcDbEntity
  8
0
100
AcDbPolyline
 62
253
  6
CONTINUOUS
 90
3
 70
0
 10
0.6899323773
 20
-24.2471301053
 10
0.6898508872
 20
-24.2510087986
 10
0.6898070424
 20
-24.2527367359
  0
LINE
  5
438
100
AcDbEntity
  8
0
100
AcDbLine
 62
7
  6
CONTINUOUS
 10
1.9631674569
 20
23.5581814706
 11
1.95
 21
23.1226497308
  0
LWPOLYLINE
  5
439
100
AcDbEntity
  8
0
100
AcDbPolyline
 62
253
  6
CONTINUOUS
 90
9
 70
0
 10
0.6897612528
 20
-24.2543105479
 10
0.6897135559
 20
-24.2557331433
 10
0.6896645411
 20
-24.2569824166
 10
0.6896141787
 20
-24.2580552094
 10
0.6895624983
 20
-24.2589546801
 10
0.6895101779
 20
-24.2596681982
 10
0.6894574434
 20
-24.2601915536
 10
0.6894040689
 20
-24.2605289564
 10
0.6893500543
 20
-24.2606804067
  0
LWPOLYLINE
  5
43A
100
AcDbEntity
  8
0
100
AcDbPolyline
 62
7
  6
CONTINUOUS
 90
16
 70
0
 10
4.0281050106
 20
23.2097560788
 10
4.0264637111
 20
23.1986731069
 10
4.0224640264
 20
23.1877110063
 10
4.0162026121
 20
23.177084755
 10
4.0077898535
 20
23.1670301929
 10
3.997375011
 20
23.1576969207
 10
3.9851630868
 20
23.1491376597
 10
3.9714035588
 20
23.1414971582
 10
3.9562535003
 20
23.1348681954
 10
3.9397737466
 20
23.1292182849
 10
3.9220206744
 20
23.1246030251
 10
3.9032981214
 20
23.1211856161
 10
3.8840488369
 20
23.1190440682
 10
3.8645825298
 20
23.1181640071
 10
3.8450366015
 20
23.1185067845
 10
3.8256118279
 20
23.1200239821
  0
LWPOLYLINE
  5
43B
100
AcDbEntity
  8
0
100
AcDbPolyline
 62
7
  6
CONTINUOUS
 90
6
 70
0
 10
-19.7966230298
 20
-23.6278312164
 10
-19.8101884567
 20
-23.6418841347
 10
-19.825296887
 20
-23.6568894062
 10
-19.8416388442
 20
-23.6728470308
 10
-19.8588384151
 20
-23.6899070152
 10
-19.8766923041
 20
-23.7079193528
  0
LINE
  5
43C
100
AcDbEntity
  8
0
100
AcDbLine
 62
253
  6
CONTINUOUS
 10
-21.8106499457
 20
-24.2606804067
 11
-21.85
 21
-24.300030461
  0
LINE
  5
43D
100
AcDbEntity
  8
0
100
AcDbLine
 62
253
  6
CONTINUOUS
 10
-21.6106804067
 20
-24.4606499457
 11
-21.650030461
 21
-24.5
  0
LINE
  5
43E
100
AcDbEntity
  8
0
100
AcDbLine
 62
253
  6
CONTINUOUS
 10
-21.8106499457
 20
24.2606804067
 11
-21.85
 21
24.300030461
  0
LINE
  5
43F
100
AcDbEntity
  8
0
100
AcDbLine
 62
253
  6
CONTINUOUS
 10
-21.6106804067
 20
24.4606499457
 11
-21.650030461
 21
24.5
  0
LWPOLYLINE
  5
440
100
AcDbEntity
  8
0
100
AcDbPolyline
 62
253
  6
CONTINUOUS
 90
13
 70
0
 10
0.6897711993
 20
23.8010362971
 10
0.69168956
 20
23.7785524849
 10
0.6969591478
 20
23.7564491282
 10
0.7054907929
 20
23.7351002378
 10
0.7171401287
 20
23.7148670569
 10
0.731710034
 20
23.6960919507
 10
0.7489539675
 20
23.6790926125
 10
0.7685801406
 20
23.6641566862
 10
0.7902564581
 20
23.6515368983
 10
0.8136161371
 20
23.6414467836
 10
0.8382639096
 20
23.6340570741
 10
0.8637827107
 20
23.6294928086
 10
0.8897407383
 20
23.6278312163
  0
LINE
  5
441
100
AcDbEntity
  8
0
100
AcDbLine
 62
7
  6
CONTINUOUS
 10
2.7368325431
 20
23.5581814706
 11
2.75
 21
23.1226497308
  0
LINE
  5
442
100
AcDbEntity
  8
0
100
AcDbLine
 62
253
  6
CONTINUOUS
 10
3.8256118279
 20
23.1200239821
 11
3.8102592576
 21
23.6278313505
  0
LINE
  5
443
100
AcDbEntity
  8
0
100
AcDbLine
 62
253
  6
CONTINUOUS
 10
4.0102288007
 20
23.8010362971
 11
4.0101977772
 21
23.8020980396
  0
LINE
  5
444
100
AcDbEntity
  8
0
100
AcDbLine
 62
253
  6
CONTINUOUS
 10
4.0101721307
 20
-24.2519439791
 11
4.0100909976
 21
-24.2483386784
  0
LINE
  5
445
100
AcDbEntity
  8
0
100
AcDbLine
 62
253
  6
CONTINUOUS
 10
4.0101669906
 20
23.8032718425
 11
4.0100756778
 21
23.8074653245
  0
LINE
  5
446
100
AcDbEntity
  8
0
100
AcDbLine
 62
253
  6
CONTINUOUS
 10
4.0100756778
 20
23.8074653245
 11
4.0099896875
 21
23.8126755772
  0
LINE
  5
447
100
AcDbEntity
  8
0
100
AcDbLine
 62
253
  6
CONTINUOUS
 10
4.0100909976
 20
-24.2483386784
 11
4.0099825774
 21
-24.2418398188
  0
LINE
  5
448
100
AcDbEntity
  8
0
100
AcDbLine
 62
253
  6
CONTINUOUS
 10
3.8105553566
 20
-24.4574410389
 11
3.8104672685
 21
-24.4519903411
  0
LINE
  5
449
100
AcDbEntity
  8
0
100
AcDbLine
 62
253
  6
CONTINUOUS
 10
4.0099825774
 20
-24.2418398188
 11
4.0098952422
 21
-24.2342276182
  0
LINE
  5
44A
100
AcDbEntity
  8
0
100
AcDbLine
 62
253
  6
CONTINUOUS
 10
4.0099896875
 20
23.8126755772
 11
4.0098923084
 21
23.8211108441
  0
LINE
  5
44B
100
AcDbEntity
  8
0
100
AcDbLine
 62
253
  6
CONTINUOUS
 10
3.8104672685
 20
-24.4519903411
 11
3.8103330609
 21
-24.4381137577
  0
LINE
  5
44C
100
AcDbEntity
  8
0
100
AcDbLine
 62
253
  6
CONTINUOUS
 10
4.0098952422
 20
-24.2342276182
 11
4.0098185021
 21
-24.2228110223
  0
LINE
  5
44D
100
AcDbEntity
  8
0
100
AcDbLine
 62
253
  6
CONTINUOUS
 10
4.0098923084
 20
23.8211108441
 11
4.0098129747
 21
23.8335562699
  0
LINE
  5
44E
100
AcDbEntity
  8
0
100
AcDbLine
 62
253
  6
CONTINUOUS
 10
3.8103330609
 20
-24.4381137577
 11
3.8100130418
 21
-24.366452455
  0
LINE
  5
44F
100
AcDbEntity
  8
0
100
AcDbLine
 62
253
  6
CONTINUOUS
 10
3.8102592609
 20
23.6278313505
 11
3.8098845339
 21
23.7520369771
  0
LINE
  5
450
100
AcDbEntity
  8
0
100
AcDbLine
 62
253
  6
CONTINUOUS
 10
2.7368325431
 20
-23.5581814706
 11
2.7368325431
 21
-22.2818538361
  0
LINE
  5
451
100
AcDbEntity
  8
0
100
AcDbLine
 62
253
  6
CONTINUOUS
 10
2.7368325431
 20
22.2818538361
 11
2.7368325431
 21
23.5581814706
  0
LINE
  5
452
100
AcDbEntity
  8
0
100
AcDbLine
 62
7
  6
CONTINUOUS
 10
2.75
 20
23.1226497308
 11
2.75
 21
22.3213883311
  0
LINE
  5
453
100
AcDbEntity
  8
0
100
AcDbLine
 62
7
  6
CONTINUOUS
 10
2.75
 20
-22.3213883311
 11
2.75
 21
-23.1226497308
  0
LINE
  5
454
100
AcDbEntity
  8
0
100
AcDbLine
 62
253
  6
CONTINUOUS
 10
3.7781430868
 20
-23.1226497308
 11
3.7781430868
 21
-22.3213883311
  0
LINE
  5
455
100
AcDbEntity
  8
0
100
AcDbLine
 62
253
  6
CONTINUOUS
 10
3.7781430868
 20
22.3213883311
 11
3.7781430868
 21
23.1226497308
  0
LINE
  5
456
100
AcDbEntity
  8
0
100
AcDbLine
 62
253
  6
CONTINUOUS
 10
4.0281050106
 20
23.2097560788
 11
4.0281050106
 21
22.3342616154
  0
LINE
  5
457
100
AcDbEntity
  8
0
100
AcDbLine
 62
253
  6
CONTINUOUS
 10
4.0281050106
 20
-22.3342616154
 11
4.0281050106
 21
-23.2097560788
  0
LINE
  5
458
100
AcDbEntity
  8
0
100
AcDbLine
 62
7
  6
CONTINUOUS
 10
4.05
 20
-24.300030461
 11
4.05
 21
-22.4
  0
LINE
  5
459
100
AcDbEntity
  8
0
100
AcDbLine
 62
7
  6
CONTINUOUS
 10
4.05
 20
22.4
 11
4.05
 21
24.300030461
  0
LINE
  5
45A
100
AcDbEntity
  8
0
100
AcDbLine
 62
253
  6
CONTINUOUS
 10
4.0098129747
 20
23.8335562699
 11
4.0097930891
 21
24.2130270919
  0
LINE
  5
45B
100
AcDbEntity
  8
0
100
AcDbLine
 62
253
  6
CONTINUOUS
 10
4.0098185021
 20
-24.2228110223
 11
4.0097929622
 21
-23.8422674847
  0
LINE
  5
45C
100
AcDbEntity
  8
0
100
AcDbLine
 62
253
  6
CONTINUOUS
 10
3.8100130418
 20
-24.366452455
 11
3.8099141622
 21
-23.7330790773
  0
LINE
  5
45D
100
AcDbEntity
  8
0
100
AcDbLine
 62
253
  6
CONTINUOUS
 10
3.8098845339
 20
23.7520369771
 11
3.8101400847
 21
24.4034842606
  0
LINE
  5
45E
100
AcDbEntity
  8
0
100
AcDbLine
 62
253
  6
CONTINUOUS
 10
4.0097930891
 20
24.2130270919
 11
4.0098315564
 21
24.2254919476
  0
LINE
  5
45F
100
AcDbEntity
  8
0
100
AcDbLine
 62
253
  6
CONTINUOUS
 10
4.0097929622
 20
-23.8422674847
 11
4.0098347758
 21
-23.8289620206
  0
LINE
  5
460
100
AcDbEntity
  8
0
100
AcDbLine
 62
253
  6
CONTINUOUS
 10
3.8099141622
 20
-23.7330790773
 11
3.8102592617
 21
-23.6278312164
  0
LINE
  5
461
100
AcDbEntity
  8
0
100
AcDbLine
 62
253
  6
CONTINUOUS
 10
3.8101400847
 20
24.4034842606
 11
3.8103677457
 21
24.4423703471
  0
LINE
  5
462
100
AcDbEntity
  8
0
100
AcDbLine
 62
253
  6
CONTINUOUS
 10
4.0098315564
 20
24.2254919476
 11
4.00990987
 21
24.2357302518
  0
LINE
  5
463
100
AcDbEntity
  8
0
100
AcDbLine
 62
253
  6
CONTINUOUS
 10
4.0098347758
 20
-23.8289620206
 11
4.0099276346
 21
-23.8176054476
  0
LWPOLYLINE
  5
464
100
AcDbEntity
  8
0
100
AcDbPolyline
 62
253
  6
CONTINUOUS
 90
6
 70
0
 10
3.8103677457
 20
24.4423703471
 10
3.8104692582
 20
24.4521268337
 10
3.8105212764
 20
24.4556495538
 10
3.8105736976
 20
24.4582475396
 10
3.8106267411
 20
24.4599157043
 10
3.8106804067
 20
24.4606499457
  0
LINE
  5
465
100
AcDbEntity
  8
0
100
AcDbLine
 62
253
  6
CONTINUOUS
 10
4.00990987
 20
24.2357302518
 11
4.0099980636
 21
24.2429207671
  0
LINE
  5
466
100
AcDbEntity
  8
0
100
AcDbLine
 62
253
  6
CONTINUOUS
 10
4.0099276346
 20
-23.8176054476
 11
4.01001037
 21
-23.8112815968
  0
LINE
  5
467
100
AcDbEntity
  8
0
100
AcDbLine
 62
253
  6
CONTINUOUS
 10
4.0099980636
 20
24.2429207671
 11
4.0101095927
 21
24.2492446222
  0
LWPOLYLINE
  5
468
100
AcDbEntity
  8
0
100
AcDbPolyline
 62
253
  6
CONTINUOUS
 90
3
 70
0
 10
4.01001037
 20
-23.8112815968
 10
4.0101117421
 20
-23.8056762915
 10
4.0101490187
 20
-23.80402237
  0
LWPOLYLINE
  5
469
100
AcDbEntity
  8
0
100
AcDbPolyline
 62
253
  6
CONTINUOUS
 90
11
 70
0
 10
4.0101095927
 20
24.2492446222
 10
4.0101952495
 20
24.2528209116
 10
4.0102409198
 20
24.2543801098
 10
4.0102884597
 20
24.2557885231
 10
4.0103372818
 20
24.2570248701
 10
4.0103874133
 20
24.2580860049
 10
4.0104388269
 20
24.2589750735
 10
4.0104908538
 20
24.2596802323
 10
4.0105432711
 20
24.2601975335
 10
4.0105963017
 20
24.260530925
 10
4.0106499457
 20
24.2606804067
  0
LINE
  5
46A
100
AcDbEntity
  8
0
100
AcDbLine
 62
253
  6
CONTINUOUS
 10
4.0101880382
 20
-23.8024757052
 11
4.0102288007
 21
-23.8010362971
  0
LINE
  5
46B
100
AcDbEntity
  8
0
100
AcDbLine
 62
7
  6
CONTINUOUS
 10
2.75
 20
-23.1226497308
 11
2.7368325431
 21
-23.5581814706
  0
LINE
  5
46C
100
AcDbEntity
  8
0
100
AcDbLine
 62
253
  6
CONTINUOUS
 10
3.8102592617
 20
-23.6278312164
 11
3.8256118279
 21
-23.1200239821
  0
LWPOLYLINE
  5
46D
100
AcDbEntity
  8
0
100
AcDbPolyline
 62
7
  6
CONTINUOUS
 90
16
 70
0
 10
0.6718949894
 20
-23.2097560788
 10
0.6735362298
 20
-23.1986733423
 10
0.6775357925
 20
-23.187711389
 10
0.683797074
 20
-23.1770851947
 10
0.6922097573
 20
-23.1670305911
 10
0.7026246176
 20
-23.1576972142
 10
0.7148366146
 20
-23.1491378456
 10
0.7285962864
 20
-23.1414972273
 10
0.7437465498
 20
-23.1348681662
 10
0.7602264163
 20
-23.1292182361
 10
0.7779793357
 20
-23.1246030369
 10
0.7967015721
 20
-23.121185675
 10
0.8159506512
 20
-23.1190441086
 10
0.8354169822
 20
-23.1181640019
 10
0.8549630809
 20
-23.1185067539
 10
0.8743881721
 20
-23.1200239821
  0
LINE
  5
46E
100
AcDbEntity
  8
0
100
AcDbLine
 62
7
  6
CONTINUOUS
 10
10.4455600755
 20
22.3866693947
 11
10.45
 21
22.4
  0
LINE
  5
46F
100
AcDbEntity
  8
0
100
AcDbLine
 62
7
  6
CONTINUOUS
 10
-4.05
 20
-22.4
 11
-4.0281050106
 21
-22.3342616154
  0
LINE
  5
470
100
AcDbEntity
  8
0
100
AcDbLine
 62
7
  6
CONTINUOUS
 10
-2.75
 20
-22.3213883311
 11
-2.7368325431
 21
-22.2818538361
  0
LWPOLYLINE
  5
471
100
AcDbEntity
  8
0
100
AcDbPolyline
 62
7
  6
CONTINUOUS
 90
7
 70
0
 10
21.8281050106
 20
22.3341525772
 10
21.8275779546
 20
22.3335111918
 10
21.8264324556
 20
22.3328772259
 10
21.8246713442
 20
22.3322506793
 10
21.8222989776
 20
22.3316315522
 10
21.8193212287
 20
22.3310198445
 10
21.8157454716
 20
22.3304155561
  0
LINE
  5
472
100
AcDbEntity
  8
0
100
AcDbLine
 62
7
  6
CONTINUOUS
 10
-19.9932476975
 20
-23.8242182101
 11
-20.0131293807
 21
-23.8443375673
  0
LINE
  5
473
100
AcDbEntity
  8
0
100
AcDbLine
 62
7
  6
CONTINUOUS
 10
-19.8766923041
 20
-23.7079193528
 11
-19.9932476975
 21
-23.8242182101
  0
LWPOLYLINE
  5
474
100
AcDbEntity
  8
0
100
AcDbPolyline
 62
7
  6
CONTINUOUS
 90
6
 70
0
 10
-19.7966230298
 20
23.6278312164
 10
-19.8106759481
 20
23.6413966433
 10
-19.8256812196
 20
23.6565050736
 10
-19.8416388442
 20
23.6728470308
 10
-19.8586988287
 20
23.6900466017
 10
-19.8767111662
 20
23.7079004907
  0
LINE
  5
475
100
AcDbEntity
  8
0
100
AcDbLine
 62
7
  6
CONTINUOUS
 10
-19.9930100235
 20
23.8244558841
 11
-20.0131293807
 21
23.8443375673
  0
LINE
  5
476
100
AcDbEntity
  8
0
100
AcDbLine
 62
7
  6
CONTINUOUS
 10
-19.8767111662
 20
23.7079004907
 11
-19.9930100235
 21
23.8244558841
  0
LINE
  5
477
100
AcDbEntity
  8
0
100
AcDbLine
 62
7
  6
CONTINUOUS
 10
10.45
 20
-22.4
 11
10.4455600755
 21
-22.3866693947
  0
LINE
  5
478
100
AcDbEntity
  8
0
100
AcDbLine
 62
7
  6
CONTINUOUS
 10
-4.0281050106
 20
22.3342616154
 11
-4.05
 21
22.4
  0
LINE
  5
479
100
AcDbEntity
  8
0
100
AcDbLine
 62
7
  6
CONTINUOUS
 10
-2.75
 20
22.3213883311
 11
-2.7368325431
 21
22.2818538361
  0
LWPOLYLINE
  5
47A
100
AcDbEntity
  8
0
100
AcDbPolyline
 62
253
  6
CONTINUOUS
 90
16
 70
0
 10
6.8044399245
 20
-23.7455981518
 10
6.805816669
 20
-23.771721248
 10
6.8099159118
 20
-23.7975582479
 10
6.816692759
 20
-23.8228261851
 10
6.826072993
 20
-23.8472483288
 10
6.8379538819
 20
-23.8705572044
 10
6.8522053009
 20
-23.8924975241
 10
6.8686711633
 20
-23.9128289957
 10
6.8871711362
 20
-23.9313289555
 10
6.9075026107
 20
-23.947794797
 10
6.929442917
 20
-23.9620461882
 10
6.952751765
 20
-23.9739270488
 10
6.9771738802
 20
-23.9833072623
 10
7.0024417937
 20
-23.990084097
 10
7.0282787715
 20
-23.994183333
 10
7.0544018482
 20
-23.9955600755
  0
LWPOLYLINE
  5
47B
100
AcDbEntity
  8
0
100
AcDbPolyline
 62
7
  6
CONTINUOUS
 90
16
 70
0
 10
4.05
 20
24.300030461
 10
4.0489204702
 20
24.3207847865
 10
4.0456754535
 20
24.3413984138
 10
4.0402738515
 20
24.3616428676
 10
4.0327171281
 20
24.3813607905
 10
4.0230804259
 20
24.4002459569
 10
4.0115865149
 20
24.4178836728
 10
3.998521388
 20
24.4339720091
 10
3.9839720091
 20
24.448521388
 10
3.9678836728
 20
24.4615865149
 10
3.9502459569
 20
24.4730804259
 10
3.9313607905
 20
24.4827171281
 10
3.9116428676
 20
24.4902738515
 10
3.8913984138
 20
24.4956754535
 10
3.8707847865
 20
24.4989204702
 10
3.850030461
 20
24.5
  0
LWPOLYLINE
  5
47C
100
AcDbEntity
  8
0
100
AcDbPolyline
 62
7
  6
CONTINUOUS
 90
16
 70
0
 10
6.8
 20
-23.7500380762
 10
6.8013494122
 20
-23.7759809831
 10
6.8054056831
 20
-23.8017480173
 10
6.8121576856
 20
-23.8270535846
 10
6.8216035898
 20
-23.8517009881
 10
6.8336494676
 20
-23.8753074461
 10
6.8480168563
 20
-23.897354591
 10
6.864348265
 20
-23.9174650114
 10
6.8825349886
 20
-23.935651735
 10
6.902645409
 20
-23.9519831437
 10
6.9246925539
 20
-23.9663505324
 10
6.9482990119
 20
-23.9783964102
 10
6.9729464154
 20
-23.9878423144
 10
6.9982519827
 20
-23.9945943169
 10
7.0240190169
 20
-23.9986505878
 10
7.0499619238
 20
-24.0
  0
LINE
  5
47D
100
AcDbEntity
  8
0
100
AcDbLine
 62
253
  6
CONTINUOUS
 10
4.0281050106
 20
23.2097560788
 11
4.0102288007
 21
23.8010362971
  0
LINE
  5
47E
100
AcDbEntity
  8
0
100
AcDbLine
 62
253
  6
CONTINUOUS
 10
6.8044399245
 20
23.7455981518
 11
6.8044399245
 21
22.3866693947
  0
LINE
  5
47F
100
AcDbEntity
  8
0
100
AcDbLine
 62
253
  6
CONTINUOUS
 10
6.8044399245
 20
-22.3866693947
 11
6.8044399245
 21
-23.7455981518
  0
LINE
  5
480
100
AcDbEntity
  8
0
100
AcDbLine
 62
253
  6
CONTINUOUS
 10
4.0102288007
 20
-23.8010362971
 11
4.0281050106
 21
-23.2097560788
  0
LWPOLYLINE
  5
481
100
AcDbEntity
  8
0
100
AcDbPolyline
 62
7
  6
CONTINUOUS
 90
16
 70
0
 10
4.05
 20
-24.300030461
 10
4.0489204702
 20
-24.3207847865
 10
4.0456754535
 20
-24.3413984138
 10
4.0402738515
 20
-24.3616428676
 10
4.0327171281
 20
-24.3813607905
 10
4.0230804259
 20
-24.4002459569
 10
4.0115865149
 20
-24.4178836728
 10
3.998521388
 20
-24.4339720091
 10
3.9839720091
 20
-24.448521388
 10
3.9678836728
 20
-24.4615865149
 10
3.9502459569
 20
-24.4730804259
 10
3.9313607905
 20
-24.4827171281
 10
3.9116428676
 20
-24.4902738515
 10
3.8913984138
 20
-24.4956754535
 10
3.8707847865
 20
-24.4989204702
 10
3.850030461
 20
-24.5
  0
LWPOLYLINE
  5
482
100
AcDbEntity
  8
0
100
AcDbPolyline
 62
7
  6
CONTINUOUS
 90
16
 70
0
 10
6.8
 20
23.7500380762
 10
6.8013494122
 20
23.7759809831
 10
6.8054056831
 20
23.8017480173
 10
6.8121576856
 20
23.8270535846
 10
6.8216035898
 20
23.8517009881
 10
6.8336494676
 20
23.8753074461
 10
6.8480168563
 20
23.897354591
 10
6.864348265
 20
23.9174650114
 10
6.8825349886
 20
23.935651735
 10
6.902645409
 20
23.9519831437
 10
6.9246925539
 20
23.9663505324
 10
6.9482990119
 20
23.9783964102
 10
6.9729464154
 20
23.9878423144
 10
6.9982519827
 20
23.9945943169
 10
7.0240190169
 20
23.9986505878
 10
7.0499619238
 20
24.0
  0
LINE
  5
483
100
AcDbEntity
  8
0
100
AcDbLine
 62
253
  6
CONTINUOUS
 10
-15.6955600755
 20
-23.7455981518
 11
-15.7
 21
-23.7500380762
  0
LINE
  5
484
100
AcDbEntity
  8
0
100
AcDbLine
 62
253
  6
CONTINUOUS
 10
-15.4455981518
 20
-23.9955600755
 11
-15.4500380762
 21
-24.0
  0
LINE
  5
485
100
AcDbEntity
  8
0
100
AcDbLine
 62
253
  6
CONTINUOUS
 10
-15.7
 20
23.7500380762
 11
-15.6955600755
 21
23.7455981518
  0
LINE
  5
486
100
AcDbEntity
  8
0
100
AcDbLine
 62
253
  6
CONTINUOUS
 10
-15.4500380762
 20
24.0
 11
-15.4455981518
 21
23.9955600755
  0
LINE
  5
487
100
AcDbEntity
  8
0
100
AcDbLine
 62
253
  6
CONTINUOUS
 10
7.0544018482
 20
-22.3737961104
 11
7.0544018482
 21
-23.9955600755
  0
LINE
  5
488
100
AcDbEntity
  8
0
100
AcDbLine
 62
253
  6
CONTINUOUS
 10
7.0544018482
 20
22.3737961104
 11
7.0544018482
 21
23.9955600755
  0
LINE
  5
489
100
AcDbEntity
  8
0
100
AcDbLine
 62
7
  6
CONTINUOUS
 10
0.65
 20
-22.4
 11
0.6718949894
 21
-22.3342616154
  0
LINE
  5
48A
100
AcDbEntity
  8
0
100
AcDbLine
 62
7
  6
CONTINUOUS
 10
15.7
 20
22.4
 11
15.6955600755
 21
22.3866693947
  0
LINE
  5
48B
100
AcDbEntity
  8
0
100
AcDbLine
 62
7
  6
CONTINUOUS
 10
1.95
 20
-22.3213883311
 11
1.9631674569
 21
-22.2818538361
  0
LWPOLYLINE
  5
48C
100
AcDbEntity
  8
0
100
AcDbPolyline
 62
253
  6
CONTINUOUS
 90
11
 70
0
 10
-4.0106499457
 20
24.2606804067
 10
-4.0106097824
 20
24.2606045628
 10
-4.0105686901
 20
24.2603958513
 10
-4.0105266688
 20
24.2600542723
 10
-4.0104834755
 20
24.2595870129
 10
-4.0104393533
 20
24.2589868859
 10
-4.0103950303
 20
24.2582323298
 10
-4.0103504768
 20
24.257318806
 10
-4.0103057225
 20
24.2562508532
 10
-4.0102615853
 20
24.2550205249
 10
-4.0102180638
 20
24.2536226541
  0
LWPOLYLINE
  5
48D
100
AcDbEntity
  8
0
100
AcDbPolyline
 62
253
  6
CONTINUOUS
 90
11
 70
0
 10
21.8106499457
 20
-24.2606804067
 10
21.8106091349
 20
-24.2606014902
 10
21.8105674698
 20
-24.2603874805
 10
21.8105249502
 20
-24.2600383775
 10
21.8104813333
 20
-24.2595608589
 10
21.8104368619
 20
-24.2589482471
 10
21.8103922653
 20
-24.2581805094
 10
21.8103475166
 20
-24.2572530754
 10
21.8103026428
 20
-24.2561705156
 10
21.8102584531
 20
-24.2549265087
 10
21.8102149498
 20
-24.2535159675
  0
LINE
  5
48E
100
AcDbEntity
  8
0
100
AcDbLine
 62
7
  6
CONTINUOUS
 10
0.65
 20
22.4
 11
0.6718949894
 21
22.3342616154
  0
LINE
  5
48F
100
AcDbEntity
  8
0
100
AcDbLine
 62
7
  6
CONTINUOUS
 10
15.7
 20
-22.4
 11
15.6955600755
 21
-22.3866693947
  0
LINE
  5
490
100
AcDbEntity
  8
0
100
AcDbLine
 62
7
  6
CONTINUOUS
 10
1.95
 20
22.3213883311
 11
1.9631674569
 21
22.2818538361
  0
LWPOLYLINE
  5
491
100
AcDbEntity
  8
0
100
AcDbPolyline
 62
253
  6
CONTINUOUS
 90
16
 70
0
 10
12.0544399245
 20
-23.7455981518
 10
12.055816669
 20
-23.771721248
 10
12.0599159118
 20
-23.7975582479
 10
12.066692759
 20
-23.8228261851
 10
12.076072993
 20
-23.8472483288
 10
12.0879538819
 20
-23.8705572044
 10
12.1022053009
 20
-23.8924975241
 10
12.1186711633
 20
-23.9128289957
 10
12.1371711362
 20
-23.9313289555
 10
12.1575026107
 20
-23.947794797
 10
12.179442917
 20
-23.9620461882
 10
12.202751765
 20
-23.9739270488
 10
12.2271738802
 20
-23.9833072623
 10
12.2524417937
 20
-23.990084097
 10
12.2782787715
 20
-23.994183333
 10
12.3044018482
 20
-23.9955600755
  0
LWPOLYLINE
  5
492
100
AcDbEntity
  8
0
100
AcDbPolyline
 62
7
  6
CONTINUOUS
 90
16
 70
0
 10
12.05
 20
-23.7500380762
 10
12.0513494122
 20
-23.7759809831
 10
12.0554056831
 20
-23.8017480173
 10
12.0621576856
 20
-23.8270535846
 10
12.0716035898
 20
-23.8517009881
 10
12.0836494676
 20
-23.8753074461
 10
12.0980168563
 20
-23.897354591
 10
12.114348265
 20
-23.9174650114
 10
12.1325349886
 20
-23.935651735
 10
12.152645409
 20
-23.9519831437
 10
12.1746925539
 20
-23.9663505324
 10
12.1982990119
 20
-23.9783964102
 10
12.2229464154
 20
-23.9878423144
 10
12.2482519827
 20
-23.9945943169
 10
12.2740190169
 20
-23.9986505878
 10
12.2999619238
 20
-24.0
  0
LINE
  5
493
100
AcDbEntity
  8
0
100
AcDbLine
 62
253
  6
CONTINUOUS
 10
10.1955981518
 20
-22.3737961104
 11
10.1955981518
 21
-23.9955600755
  0
LINE
  5
494
100
AcDbEntity
  8
0
100
AcDbLine
 62
253
  6
CONTINUOUS
 10
10.1955981518
 20
22.3737961104
 11
10.1955981518
 21
23.9955600755
  0
LINE
  5
495
100
AcDbEntity
  8
0
100
AcDbLine
 62
253
  6
CONTINUOUS
 10
10.4455600755
 20
-23.7455981518
 11
10.4455600755
 21
-22.3866693947
  0
LINE
  5
496
100
AcDbEntity
  8
0
100
AcDbLine
 62
253
  6
CONTINUOUS
 10
10.4455600755
 20
22.3866693947
 11
10.4455600755
 21
23.7455981518
  0
LWPOLYLINE
  5
497
100
AcDbEntity
  8
0
100
AcDbPolyline
 62
7
  6
CONTINUOUS
 90
16
 70
0
 10
12.05
 20
23.7500380762
 10
12.0513494122
 20
23.7759809831
 10
12.0554056831
 20
23.8017480173
 10
12.0621576856
 20
23.8270535846
 10
12.0716035898
 20
23.8517009881
 10
12.0836494676
 20
23.8753074461
 10
12.0980168563
 20
23.897354591
 10
12.114348265
 20
23.9174650114
 10
12.1325349886
 20
23.935651735
 10
12.152645409
 20
23.9519831437
 10
12.1746925539
 20
23.9663505324
 10
12.1982990119
 20
23.9783964102
 10
12.2229464154
 20
23.9878423144
 10
12.2482519827
 20
23.9945943169
 10
12.2740190169
 20
23.9986505878
 10
12.2999619238
 20
24.0
  0
LINE
  5
498
100
AcDbEntity
  8
0
100
AcDbLine
 62
253
  6
CONTINUOUS
 10
21.6634048796
 20
22.0255253081
 11
21.8157454716
 21
22.3304155561
  0
LINE
  5
499
100
AcDbEntity
  8
0
100
AcDbLine
 62
253
  6
CONTINUOUS
 10
22.35
 20
21.8999997649
 11
22.1632335418
 21
21.5262105403
  0
LINE
  5
49A
100
AcDbEntity
  8
0
100
AcDbLine
 62
253
  6
CONTINUOUS
 10
-10.4455600755
 20
-23.7455981518
 11
-10.45
 21
-23.7500380762
  0
LINE
  5
49B
100
AcDbEntity
  8
0
100
AcDbLine
 62
253
  6
CONTINUOUS
 10
-10.1955981518
 20
-23.9955600755
 11
-10.2000380762
 21
-24.0
  0
LINE
  5
49C
100
AcDbEntity
  8
0
100
AcDbLine
 62
253
  6
CONTINUOUS
 10
-10.45
 20
23.7500380762
 11
-10.4455600755
 21
23.7455981518
  0
LINE
  5
49D
100
AcDbEntity
  8
0
100
AcDbLine
 62
253
  6
CONTINUOUS
 10
-10.2000380762
 20
24.0
 11
-10.1955981518
 21
23.9955600755
  0
LINE
  5
49E
100
AcDbEntity
  8
0
100
AcDbLine
 62
253
  6
CONTINUOUS
 10
21.6634048895
 20
-22.0255253279
 11
21.8157454716
 21
-22.3304155561
  0
LINE
  5
49F
100
AcDbEntity
  8
0
100
AcDbLine
 62
253
  6
CONTINUOUS
 10
22.1632335519
 20
-21.5262105606
 11
22.35
 21
-21.8999997649
  0
LWPOLYLINE
  5
4A0
100
AcDbEntity
  8
0
100
AcDbPolyline
 62
253
  6
CONTINUOUS
 90
16
 70
0
 10
10.4455600755
 20
23.7455981518
 10
10.444183331
 20
23.771721248
 10
10.4400840882
 20
23.7975582479
 10
10.433307241
 20
23.8228261851
 10
10.423927007
 20
23.8472483288
 10
10.4120461181
 20
23.8705572044
 10
10.3977946991
 20
23.8924975241
 10
10.3813288367
 20
23.9128289957
 10
10.3628288638
 20
23.9313289555
 10
10.3424973893
 20
23.947794797
 10
10.320557083
 20
23.9620461882
 10
10.297248235
 20
23.9739270488
 10
10.2728261198
 20
23.9833072623
 10
10.2475582063
 20
23.990084097
 10
10.2217212285
 20
23.994183333
 10
10.1955981518
 20
23.9955600755
  0
LWPOLYLINE
  5
4A1
100
AcDbEntity
  8
0
100
AcDbPolyline
 62
7
  6
CONTINUOUS
 90
16
 70
0
 10
10.45
 20
23.7500380762
 10
10.4486505878
 20
23.7759809831
 10
10.4445943169
 20
23.8017480173
 10
10.4378423144
 20
23.8270535846
 10
10.4283964102
 20
23.8517009881
 10
10.4163505324
 20
23.8753074461
 10
10.4019831437
 20
23.897354591
 10
10.385651735
 20
23.9174650114
 10
10.3674650114
 20
23.935651735
 10
10.347354591
 20
23.9519831437
 10
10.3253074461
 20
23.9663505324
 10
10.3017009881
 20
23.9783964102
 10
10.2770535846
 20
23.9878423144
 10
10.2517480173
 20
23.9945943169
 10
10.2259809831
 20
23.9986505878
 10
10.2000380762
 20
24.0
  0
LINE
  5
4A2
100
AcDbEntity
  8
0
100
AcDbLine
 62
253
  6
CONTINUOUS
 10
12.0544399245
 20
23.7455981518
 11
12.0544399245
 21
22.3866693947
  0
LINE
  5
4A3
100
AcDbEntity
  8
0
100
AcDbLine
 62
253
  6
CONTINUOUS
 10
12.0544399245
 20
-22.3866693947
 11
12.0544399245
 21
-23.7455981518
  0
LINE
  5
4A4
100
AcDbEntity
  8
0
100
AcDbLine
 62
253
  6
CONTINUOUS
 10
12.3044018482
 20
-22.3737961104
 11
12.3044018482
 21
-23.9955600755
  0
LINE
  5
4A5
100
AcDbEntity
  8
0
100
AcDbLine
 62
253
  6
CONTINUOUS
 10
12.3044018482
 20
22.3737961104
 11
12.3044018482
 21
23.9955600755
  0
LWPOLYLINE
  5
4A6
100
AcDbEntity
  8
0
100
AcDbPolyline
 62
7
  6
CONTINUOUS
 90
16
 70
0
 10
10.45
 20
-23.7500380762
 10
10.4486505878
 20
-23.7759809831
 10
10.4445943169
 20
-23.8017480173
 10
10.4378423144
 20
-23.8270535846
 10
10.4283964102
 20
-23.8517009881
 10
10.4163505324
 20
-23.8753074461
 10
10.4019831437
 20
-23.897354591
 10
10.385651735
 20
-23.9174650114
 10
10.3674650114
 20
-23.935651735
 10
10.347354591
 20
-23.9519831437
 10
10.3253074461
 20
-23.9663505324
 10
10.3017009881
 20
-23.9783964102
 10
10.2770535846
 20
-23.9878423144
 10
10.2517480173
 20
-23.9945943169
 10
10.2259809831
 20
-23.9986505878
 10
10.2000380762
 20
-24.0
  0
LINE
  5
4A7
100
AcDbEntity
  8
0
100
AcDbLine
 62
7
  6
CONTINUOUS
 10
20.55
 20
22.3213883311
 11
20.5368325431
 21
22.2818538361
  0
LINE
  5
4A8
100
AcDbEntity
  8
0
100
AcDbLine
 62
7
  6
CONTINUOUS
 10
6.8
 20
-22.4
 11
6.8044399245
 21
-22.3866693947
  0
LINE
  5
4A9
100
AcDbEntity
  8
0
100
AcDbLine
 62
7
  6
CONTINUOUS
 10
20.55
 20
-22.3213883311
 11
20.5368325431
 21
-22.2818538361
  0
LINE
  5
4AA
100
AcDbEntity
  8
0
100
AcDbLine
 62
7
  6
CONTINUOUS
 10
6.8
 20
22.4
 11
6.8044399245
 21
22.3866693947
  0
LINE
  5
4AB
100
AcDbEntity
  8
0
100
AcDbLine
 62
253
  6
CONTINUOUS
 10
15.4455981518
 20
-22.3737961104
 11
15.4455981518
 21
-23.9955600755
  0
LINE
  5
4AC
100
AcDbEntity
  8
0
100
AcDbLine
 62
253
  6
CONTINUOUS
 10
15.4455981518
 20
22.3737961104
 11
15.4455981518
 21
23.9955600755
  0
LINE
  5
4AD
100
AcDbEntity
  8
0
100
AcDbLine
 62
253
  6
CONTINUOUS
 10
15.6955600755
 20
-23.7455981518
 11
15.6955600755
 21
-22.3866693947
  0
LINE
  5
4AE
100
AcDbEntity
  8
0
100
AcDbLine
 62
253
  6
CONTINUOUS
 10
15.6955600755
 20
22.3866693947
 11
15.6955600755
 21
23.7455981518
  0
LWPOLYLINE
  5
4AF
100
AcDbEntity
  8
0
100
AcDbPolyline
 62
253
  6
CONTINUOUS
 90
8
 70
0
 10
21.8106499457
 20
24.2606804067
 10
21.8105583157
 20
24.2602969456
 10
21.8104696702
 20
24.2594103737
 10
21.810384009
 20
24.2580206908
 10
21.8103004836
 20
24.2561026168
 10
21.8102199425
 20
24.253681432
 10
21.8101449318
 20
24.2508329765
 10
21.8100118554
 20
24.2438266488
  0
LWPOLYLINE
  5
4B0
100
AcDbEntity
  8
0
100
AcDbPolyline
 62
253
  6
CONTINUOUS
 90
12
 70
0
 10
22.1632335418
 20
21.5262105403
 10
22.1619440845
 20
21.5218712629
 10
22.160676206
 20
21.5141921332
 10
22.1594299064
 20
21.503173151
 10
22.1581986325
 20
21.4887260399
 10
22.1569889374
 20
21.4709390765
 10
22.1558204804
 20
21.4500770897
 10
22.1546944767
 20
21.4260966264
 10
22.1536097111
 20
21.3990411398
 10
22.152582197
 20
21.3693058189
 10
22.1516127518
 20
21.3368486696
 10
22.1498591774
 20
21.2644160394
  0
LWPOLYLINE
  5
4B1
100
AcDbEntity
  8
0
100
AcDbPolyline
 62
7
  6
CONTINUOUS
 90
6
 70
0
 10
-1.9966230298
 20
-23.6278312164
 10
-2.0101884567
 20
-23.6418841347
 10
-2.025296887
 20
-23.6568894062
 10
-2.0416388442
 20
-23.6728470308
 10
-2.0588384151
 20
-23.6899070152
 10
-2.0766923041
 20
-23.7079193528
  0
LINE
  5
4B2
100
AcDbEntity
  8
0
100
AcDbLine
 62
7
  6
CONTINUOUS
 10
-2.1932476975
 20
-23.8242182101
 11
-2.2131293807
 21
-23.8443375673
  0
LINE
  5
4B3
100
AcDbEntity
  8
0
100
AcDbLine
 62
253
  6
CONTINUOUS
 10
-4.0106499457
 20
-24.2606804067
 11
-4.05
 21
-24.300030461
  0
LINE
  5
4B4
100
AcDbEntity
  8
0
100
AcDbLine
 62
253
  6
CONTINUOUS
 10
-3.8106804067
 20
-24.4606499457
 11
-3.850030461
 21
-24.5
  0
LINE
  5
4B5
100
AcDbEntity
  8
0
100
AcDbLine
 62
7
  6
CONTINUOUS
 10
-2.0766923041
 20
-23.7079193528
 11
-2.1932476975
 21
-23.8242182101
  0
LWPOLYLINE
  5
4B6
100
AcDbEntity
  8
0
100
AcDbPolyline
 62
7
  6
CONTINUOUS
 90
6
 70
0
 10
-1.9966230298
 20
23.6278312164
 10
-2.0106759481
 20
23.6413966433
 10
-2.0256812196
 20
23.6565050736
 10
-2.0416388442
 20
23.6728470308
 10
-2.0586988287
 20
23.6900466017
 10
-2.0767111662
 20
23.7079004907
  0
LINE
  5
4B7
100
AcDbEntity
  8
0
100
AcDbLine
 62
7
  6
CONTINUOUS
 10
-2.1930100235
 20
23.8244558841
 11
-2.2131293807
 21
23.8443375673
  0
LINE
  5
4B8
100
AcDbEntity
  8
0
100
AcDbLine
 62
253
  6
CONTINUOUS
 10
-4.05
 20
24.300030461
 11
-4.0106499457
 21
24.2606804067
  0
LINE
  5
4B9
100
AcDbEntity
  8
0
100
AcDbLine
 62
253
  6
CONTINUOUS
 10
-3.850030461
 20
24.5
 11
-3.8106804067
 21
24.4606499457
  0
LINE
  5
4BA
100
AcDbEntity
  8
0
100
AcDbLine
 62
7
  6
CONTINUOUS
 10
-2.0767111662
 20
23.7079004907
 11
-2.1930100235
 21
23.8244558841
  0
LWPOLYLINE
  5
4BB
100
AcDbEntity
  8
0
100
AcDbPolyline
 62
253
  6
CONTINUOUS
 90
16
 70
0
 10
15.6955600755
 20
23.7455981518
 10
15.694183331
 20
23.771721248
 10
15.6900840882
 20
23.7975582479
 10
15.683307241
 20
23.8228261851
 10
15.673927007
 20
23.8472483288
 10
15.6620461181
 20
23.8705572044
 10
15.6477946991
 20
23.8924975241
 10
15.6313288367
 20
23.9128289957
 10
15.6128288638
 20
23.9313289555
 10
15.5924973893
 20
23.947794797
 10
15.570557083
 20
23.9620461882
 10
15.547248235
 20
23.9739270488
 10
15.5228261198
 20
23.9833072623
 10
15.4975582063
 20
23.990084097
 10
15.4717212285
 20
23.994183333
 10
15.4455981518
 20
23.9955600755
  0
LWPOLYLINE
  5
4BC
100
AcDbEntity
  8
0
100
AcDbPolyline
 62
7
  6
CONTINUOUS
 90
16
 70
0
 10
15.7
 20
23.7500380762
 10
15.6986505878
 20
23.7759809831
 10
15.6945943169
 20
23.8017480173
 10
15.6878423144
 20
23.8270535846
 10
15.6783964102
 20
23.8517009881
 10
15.6663505324
 20
23.8753074461
 10
15.6519831437
 20
23.897354591
 10
15.635651735
 20
23.9174650114
 10
15.6174650114
 20
23.935651735
 10
15.597354591
 20
23.9519831437
 10
15.5753074461
 20
23.9663505324
 10
15.5517009881
 20
23.9783964102
 10
15.5270535846
 20
23.9878423144
 10
15.5017480173
 20
23.9945943169
 10
15.4759809831
 20
23.9986505878
 10
15.4500380762
 20
24.0
  0
LWPOLYLINE
  5
4BD
100
AcDbEntity
  8
0
100
AcDbPolyline
 62
7
  6
CONTINUOUS
 90
16
 70
0
 10
18.45
 20
-24.300030461
 10
18.4510795298
 20
-24.3207847865
 10
18.4543245465
 20
-24.3413984138
 10
18.4597261485
 20
-24.3616428676
 10
18.4672828719
 20
-24.3813607905
 10
18.4769195741
 20
-24.4002459569
 10
18.4884134851
 20
-24.4178836728
 10
18.501478612
 20
-24.4339720091
 10
18.5160279909
 20
-24.448521388
 10
18.5321163272
 20
-24.4615865149
 10
18.5497540431
 20
-24.4730804259
 10
18.5686392095
 20
-24.4827171281
 10
18.5883571324
 20
-24.4902738515
 10
18.6086015862
 20
-24.4956754535
 10
18.6292152135
 20
-24.4989204702
 10
18.649969539
 20
-24.5
  0
LINE
  5
4BE
100
AcDbEntity
  8
0
100
AcDbLine
 62
253
  6
CONTINUOUS
 10
18.6743881721
 20
-23.1200239821
 11
18.6897407383
 21
-23.6278312164
  0
LWPOLYLINE
  5
4BF
100
AcDbEntity
  8
0
100
AcDbPolyline
 62
253
  6
CONTINUOUS
 90
3
 70
0
 10
18.4718949894
 20
-23.2097560788
 10
18.4898322616
 20
-23.8032415964
 10
18.4898625324
 20
-23.8045130255
  0
LINE
  5
4C0
100
AcDbEntity
  8
0
100
AcDbLine
 62
253
  6
CONTINUOUS
 10
18.4898122997
 20
23.8024889992
 11
18.4718949894
 21
23.2097560788
  0
LINE
  5
4C1
100
AcDbEntity
  8
0
100
AcDbLine
 62
253
  6
CONTINUOUS
 10
18.6897407779
 20
23.6278325252
 11
18.6743881721
 21
23.1200239821
  0
LWPOLYLINE
  5
4C2
100
AcDbEntity
  8
0
100
AcDbPolyline
 62
7
  6
CONTINUOUS
 90
16
 70
0
 10
15.7
 20
-23.7500380762
 10
15.6986505878
 20
-23.7759809831
 10
15.6945943169
 20
-23.8017480173
 10
15.6878423144
 20
-23.8270535846
 10
15.6783964102
 20
-23.8517009881
 10
15.6663505324
 20
-23.8753074461
 10
15.6519831437
 20
-23.897354591
 10
15.635651735
 20
-23.9174650114
 10
15.6174650114
 20
-23.935651735
 10
15.597354591
 20
-23.9519831437
 10
15.5753074461
 20
-23.9663505324
 10
15.5517009881
 20
-23.9783964102
 10
15.5270535846
 20
-23.9878423144
 10
15.5017480173
 20
-23.9945943169
 10
15.4759809831
 20
-23.9986505878
 10
15.4500380762
 20
-24.0
  0
LWPOLYLINE
  5
4C3
100
AcDbEntity
  8
0
100
AcDbPolyline
 62
7
  6
CONTINUOUS
 90
16
 70
0
 10
18.45
 20
24.300030461
 10
18.4510795298
 20
24.3207847865
 10
18.4543245465
 20
24.3413984138
 10
18.4597261485
 20
24.3616428676
 10
18.4672828719
 20
24.3813607905
 10
18.4769195741
 20
24.4002459569
 10
18.4884134851
 20
24.4178836728
 10
18.501478612
 20
24.4339720091
 10
18.5160279909
 20
24.448521388
 10
18.5321163272
 20
24.4615865149
 10
18.5497540431
 20
24.4730804259
 10
18.5686392095
 20
24.4827171281
 10
18.5883571324
 20
24.4902738515
 10
18.6086015862
 20
24.4956754535
 10
18.6292152135
 20
24.4989204702
 10
18.649969539
 20
24.5
  0
LWPOLYLINE
  5
4C4
100
AcDbEntity
  8
0
100
AcDbPolyline
 62
7
  6
CONTINUOUS
 90
13
 70
0
 10
21.8281050106
 20
23.2097560788
 10
21.8256807429
 20
23.1959910348
 10
21.8196261361
 20
23.1824705834
 10
21.8101671721
 20
23.1695975658
 10
21.797610071
 20
23.157834077
 10
21.7822630765
 20
23.1473843587
 10
21.7643679691
 20
23.138227442
 10
21.7441664864
 20
23.1305311145
 10
21.722107502
 20
23.1246120381
 10
21.6987758666
 20
23.1205831002
 10
21.674670315
 20
23.1184751566
 10
21.6501492926
 20
23.1183029672
 10
21.6256118279
 20
23.1200239821
  0
LINE
  5
4C5
100
AcDbEntity
  8
0
100
AcDbLine
 62
253
  6
CONTINUOUS
 10
0.6893500543
 20
-24.2606804067
 11
0.65
 21
-24.300030461
  0
LINE
  5
4C6
100
AcDbEntity
  8
0
100
AcDbLine
 62
253
  6
CONTINUOUS
 10
0.8893195933
 20
-24.4606499457
 11
0.849969539
 21
-24.5
  0
LINE
  5
4C7
100
AcDbEntity
  8
0
100
AcDbLine
 62
253
  6
CONTINUOUS
 10
0.6893500543
 20
24.2606804067
 11
0.65
 21
24.300030461
  0
LINE
  5
4C8
100
AcDbEntity
  8
0
100
AcDbLine
 62
253
  6
CONTINUOUS
 10
0.8893195933
 20
24.4606499457
 11
0.849969539
 21
24.5
  0
LWPOLYLINE
  5
4C9
100
AcDbEntity
  8
0
100
AcDbPolyline
 62
253
  6
CONTINUOUS
 90
4
 70
0
 10
21.610680397
 20
-24.460649897
 10
21.6106395658
 20
-24.4601760916
 10
21.6105978857
 20
-24.4591225867
 10
21.6105553566
 20
-24.4574410389
  0
LINE
  5
4CA
100
AcDbEntity
  8
0
100
AcDbLine
 62
7
  6
CONTINUOUS
 10
19.75
 20
-23.1226497308
 11
19.7631674569
 21
-23.5581814706
  0
LINE
  5
4CB
100
AcDbEntity
  8
0
100
AcDbLine
 62
253
  6
CONTINUOUS
 10
18.4898248407
 20
24.252062408
 11
18.489906295
 21
24.2484732039
  0
LINE
  5
4CC
100
AcDbEntity
  8
0
100
AcDbLine
 62
253
  6
CONTINUOUS
 10
18.4898928205
 20
-23.8058965191
 11
18.4899809243
 21
-23.8107291372
  0
LINE
  5
4CD
100
AcDbEntity
  8
0
100
AcDbLine
 62
253
  6
CONTINUOUS
 10
18.489906295
 20
24.2484732039
 11
18.4900154587
 21
24.2419802661
  0
LINE
  5
4CE
100
AcDbEntity
  8
0
100
AcDbLine
 62
253
  6
CONTINUOUS
 10
18.6894428893
 20
24.4575201098
 11
18.6895301957
 21
24.4521810092
  0
LINE
  5
4CF
100
AcDbEntity
  8
0
100
AcDbLine
 62
253
  6
CONTINUOUS
 10
18.4899809243
 20
-23.8107291372
 11
18.4900844975
 21
-23.8187363855
  0
LINE
  5
4D0
100
AcDbEntity
  8
0
100
AcDbLine
 62
253
  6
CONTINUOUS
 10
18.4900154587
 20
24.2419802661
 11
18.490103582
 21
24.2343532539
  0
LINE
  5
4D1
100
AcDbEntity
  8
0
100
AcDbLine
 62
253
  6
CONTINUOUS
 10
18.6895301957
 20
24.4521810092
 11
18.6896638067
 21
24.4385106077
  0
LINE
  5
4D2
100
AcDbEntity
  8
0
100
AcDbLine
 62
253
  6
CONTINUOUS
 10
18.4900844975
 20
-23.8187363855
 11
18.4901612999
 21
-23.8282728054
  0
LINE
  5
4D3
100
AcDbEntity
  8
0
100
AcDbLine
 62
253
  6
CONTINUOUS
 10
18.490103582
 20
24.2343532539
 11
18.4901811652
 21
24.2228872656
  0
LINE
  5
4D4
100
AcDbEntity
  8
0
100
AcDbLine
 62
253
  6
CONTINUOUS
 10
18.6896638067
 20
24.4385106077
 11
18.6899849452
 21
24.3671450848
  0
LINE
  5
4D5
100
AcDbEntity
  8
0
100
AcDbLine
 62
253
  6
CONTINUOUS
 10
18.4901612999
 20
-23.8282728054
 11
18.4902061664
 21
-23.8415720623
  0
LINE
  5
4D6
100
AcDbEntity
  8
0
100
AcDbLine
 62
253
  6
CONTINUOUS
 10
18.6897407383
 20
-23.6278312164
 11
18.6901146697
 21
-23.7514885464
  0
LINE
  5
4D7
100
AcDbEntity
  8
0
100
AcDbLine
 62
7
  6
CONTINUOUS
 10
18.45
 20
-22.4
 11
18.45
 21
-24.300030461
  0
LINE
  5
4D8
100
AcDbEntity
  8
0
100
AcDbLine
 62
7
  6
CONTINUOUS
 10
18.45
 20
22.4
 11
18.45
 21
24.300030461
  0
LINE
  5
4D9
100
AcDbEntity
  8
0
100
AcDbLine
 62
253
  6
CONTINUOUS
 10
18.4718949894
 20
-23.2097560788
 11
18.4718949894
 21
-22.3342616154
  0
LINE
  5
4DA
100
AcDbEntity
  8
0
100
AcDbLine
 62
253
  6
CONTINUOUS
 10
18.4718949894
 20
22.3342616154
 11
18.4718949894
 21
23.2097560788
  0
LINE
  5
4DB
100
AcDbEntity
  8
0
100
AcDbLine
 62
253
  6
CONTINUOUS
 10
18.7218569132
 20
23.1226497308
 11
18.7218569132
 21
22.3213883311
  0
LINE
  5
4DC
100
AcDbEntity
  8
0
100
AcDbLine
 62
253
  6
CONTINUOUS
 10
18.7218569132
 20
-22.3213883311
 11
18.7218569132
 21
-23.1226497308
  0
LINE
  5
4DD
100
AcDbEntity
  8
0
100
AcDbLine
 62
7
  6
CONTINUOUS
 10
19.75
 20
23.1226497308
 11
19.75
 21
22.3213883311
  0
LINE
  5
4DE
100
AcDbEntity
  8
0
100
AcDbLine
 62
7
  6
CONTINUOUS
 10
19.75
 20
-22.3213883311
 11
19.75
 21
-23.1226497308
  0
LINE
  5
4DF
100
AcDbEntity
  8
0
100
AcDbLine
 62
253
  6
CONTINUOUS
 10
19.7631674569
 20
-23.5581814706
 11
19.7631674569
 21
-22.2818538361
  0
LINE
  5
4E0
100
AcDbEntity
  8
0
100
AcDbLine
 62
253
  6
CONTINUOUS
 10
19.7631674569
 20
22.2818538361
 11
19.7631674569
 21
23.5581814706
  0
LINE
  5
4E1
100
AcDbEntity
  8
0
100
AcDbLine
 62
253
  6
CONTINUOUS
 10
20.0131293807
 20
-23.8443375673
 11
20.0131293807
 21
-22.2689805518
  0
LINE
  5
4E2
100
AcDbEntity
  8
0
100
AcDbLine
 62
253
  6
CONTINUOUS
 10
20.0131293807
 20
22.2689805518
 11
20.0131293807
 21
23.8443375673
  0
LINE
  5
4E3
100
AcDbEntity
  8
0
100
AcDbLine
 62
253
  6
CONTINUOUS
 10
18.4901811652
 20
24.2228872656
 11
18.4902070671
 21
23.842295279
  0
LINE
  5
4E4
100
AcDbEntity
  8
0
100
AcDbLine
 62
253
  6
CONTINUOUS
 10
18.6901146697
 20
-23.7514885464
 11
18.6899737815
 21
-24.3710868448
  0
LINE
  5
4E5
100
AcDbEntity
  8
0
100
AcDbLine
 62
253
  6
CONTINUOUS
 10
18.4902061664
 20
-23.8415720623
 11
18.4901816952
 21
-24.2227805841
  0
LINE
  5
4E6
100
AcDbEntity
  8
0
100
AcDbLine
 62
253
  6
CONTINUOUS
 10
18.6899849452
 20
24.3671450848
 11
18.6898212307
 21
23.6428510193
  0
LINE
  5
4E7
100
AcDbEntity
  8
0
100
AcDbLine
 62
253
  6
CONTINUOUS
 10
18.4902070671
 20
23.842295279
 11
18.4901659165
 21
23.829085776
  0
LINE
  5
4E8
100
AcDbEntity
  8
0
100
AcDbLine
 62
253
  6
CONTINUOUS
 10
18.6898212307
 20
23.6428510193
 11
18.6897407458
 21
23.6278325252
  0
LINE
  5
4E9
100
AcDbEntity
  8
0
100
AcDbLine
 62
253
  6
CONTINUOUS
 10
18.6899737815
 20
-24.3710868448
 11
18.6896831563
 21
-24.4359123199
  0
LINE
  5
4EA
100
AcDbEntity
  8
0
100
AcDbLine
 62
253
  6
CONTINUOUS
 10
18.4901816952
 20
-24.2227805841
 11
18.4901155748
 21
-24.2330326118
  0
LINE
  5
4EB
100
AcDbEntity
  8
0
100
AcDbLine
 62
253
  6
CONTINUOUS
 10
18.4901659165
 20
23.829085776
 11
18.4900736423
 21
23.8177214431
  0
LWPOLYLINE
  5
4EC
100
AcDbEntity
  8
0
100
AcDbPolyline
 62
253
  6
CONTINUOUS
 90
6
 70
0
 10
18.6896831563
 20
-24.4359123199
 10
18.6895321683
 20
-24.4520261152
 10
18.689479857
 20
-24.4555901408
 10
18.689427099
 20
-24.458219303
 10
18.6893736778
 20
-24.459907582
 10
18.6893195933
 20
-24.4606499457
  0
LINE
  5
4ED
100
AcDbEntity
  8
0
100
AcDbLine
 62
253
  6
CONTINUOUS
 10
18.4901155748
 20
-24.2330326118
 11
18.490036248
 21
-24.2404400048
  0
LINE
  5
4EE
100
AcDbEntity
  8
0
100
AcDbLine
 62
253
  6
CONTINUOUS
 10
18.4900736423
 20
23.8177214431
 11
18.4899909058
 21
23.811364705
  0
LINE
  5
4EF
100
AcDbEntity
  8
0
100
AcDbLine
 62
253
  6
CONTINUOUS
 10
18.490036248
 20
-24.2404400048
 11
18.4899323773
 21
-24.2471301053
  0
LWPOLYLINE
  5
4F0
100
AcDbEntity
  8
0
100
AcDbPolyline
 62
253
  6
CONTINUOUS
 90
3
 70
0
 10
18.4899909058
 20
23.811364705
 10
18.4898891214
 20
23.8057168424
 10
18.4898516071
 20
23.804049181
  0
LWPOLYLINE
  5
4F1
100
AcDbEntity
  8
0
100
AcDbPolyline
 62
253
  6
CONTINUOUS
 90
3
 70
0
 10
18.4899323773
 20
-24.2471301053
 10
18.4898508872
 20
-24.2510087986
 10
18.4898070424
 20
-24.2527367359
  0
LINE
  5
4F2
100
AcDbEntity
  8
0
100
AcDbLine
 62
7
  6
CONTINUOUS
 10
19.7631674569
 20
23.5581814706
 11
19.75
 21
23.1226497308
  0
LWPOLYLINE
  5
4F3
100
AcDbEntity
  8
0
100
AcDbPolyline
 62
253
  6
CONTINUOUS
 90
9
 70
0
 10
18.4897612528
 20
-24.2543105479
 10
18.4897135559
 20
-24.2557331433
 10
18.4896645411
 20
-24.2569824166
 10
18.4896141787
 20
-24.2580552094
 10
18.4895624983
 20
-24.2589546801
 10
18.4895101779
 20
-24.2596681982
 10
18.4894574434
 20
-24.2601915536
 10
18.4894040689
 20
-24.2605289564
 10
18.4893500543
 20
-24.2606804067
  0
LWPOLYLINE
  5
4F4
100
AcDbEntity
  8
0
100
AcDbPolyline
 62
253
  6
CONTINUOUS
 90
13
 70
0
 10
21.8102288007
 20
23.8010362971
 10
21.8083104464
 20
23.7785525233
 10
21.8030408747
 20
23.7564491967
 10
21.7945092519
 20
23.7351003269
 10
21.7828599412
 20
23.7148671574
 10
21.7682900602
 20
23.696092053
 10
21.7510461455
 20
23.6790927066
 10
21.7314199807
 20
23.6641567635
 10
21.7097436595
 20
23.6515369545
 10
21.6863839661
 20
23.6414468187
 10
21.6617361692
 20
23.6340570911
 10
21.6362173333
 20
23.629492813
 10
21.6102592617
 20
23.6278312164
  0
LINE
  5
4F5
100
AcDbEntity
  8
0
100
AcDbLine
 62
7
  6
CONTINUOUS
 10
12.05
 20
-22.4
 11
12.0544399245
 21
-22.3866693947
  0
LINE
  5
4F6
100
AcDbEntity
  8
0
100
AcDbLine
 62
7
  6
CONTINUOUS
 10
2.4868706193
 20
-23.8443375673
 11
2.5067523025
 21
-23.8242182101
  0
LWPOLYLINE
  5
4F7
100
AcDbEntity
  8
0
100
AcDbPolyline
 62
7
  6
CONTINUOUS
 90
6
 70
0
 10
2.6233076959
 20
-23.7079193528
 10
2.6411615849
 20
-23.6899070152
 10
2.6583611558
 20
-23.6728470308
 10
2.674703113
 20
-23.6568894062
 10
2.6898115433
 20
-23.6418841347
 10
2.7033769702
 20
-23.6278312164
  0
LINE
  5
4F8
100
AcDbEntity
  8
0
100
AcDbLine
 62
7
  6
CONTINUOUS
 10
2.5067523025
 20
-23.8242182101
 11
2.6233076959
 21
-23.7079193528
  0
LWPOLYLINE
  5
4F9
100
AcDbEntity
  8
0
100
AcDbPolyline
 62
7
  6
CONTINUOUS
 90
7
 70
0
 10
-21.8157454716
 20
22.3304155561
 10
-21.8193212287
 20
22.3310198445
 10
-21.8222989776
 20
22.3316315522
 10
-21.8246713442
 20
22.3322506793
 10
-21.8264324556
 20
22.3328772259
 10
-21.8275779546
 20
22.3335111918
 10
-21.8281050106
 20
22.3341525772
  0
LWPOLYLINE
  5
4FA
100
AcDbEntity
  8
0
100
AcDbPolyline
 62
7
  6
CONTINUOUS
 90
6
 70
0
 10
2.7033769702
 20
23.6278312164
 10
2.6893240519
 20
23.6413966433
 10
2.6743187804
 20
23.6565050736
 10
2.6583611558
 20
23.6728470308
 10
2.6413011713
 20
23.6900466017
 10
2.6232888338
 20
23.7079004907
  0
LINE
  5
4FB
100
AcDbEntity
  8
0
100
AcDbLine
 62
7
  6
CONTINUOUS
 10
2.5069899765
 20
23.8244558841
 11
2.4868706193
 21
23.8443375673
  0
LINE
  5
4FC
100
AcDbEntity
  8
0
100
AcDbLine
 62
7
  6
CONTINUOUS
 10
2.6232888338
 20
23.7079004907
 11
2.5069899765
 21
23.8244558841
  0
LINE
  5
4FD
100
AcDbEntity
  8
0
100
AcDbLine
 62
7
  6
CONTINUOUS
 10
12.0544399245
 20
22.3866693947
 11
12.05
 21
22.4
  0
LWPOLYLINE
  5
4FE
100
AcDbEntity
  8
0
100
AcDbPolyline
 62
253
  6
CONTINUOUS
 90
4
 70
0
 10
18.6893195933
 20
24.4606499457
 10
18.6893597669
 20
24.4601878499
 10
18.6894008655
 20
24.459161344
 10
18.6894428893
 20
24.4575201098
  0
LWPOLYLINE
  5
4FF
100
AcDbEntity
  8
0
100
AcDbPolyline
 62
253
  6
CONTINUOUS
 90
10
 70
0
 10
22.1525822073
 20
-21.3693058407
 10
22.1536097214
 20
-21.3990411613
 10
22.154694487
 20
-21.4260966477
 10
22.1558204906
 20
-21.4500771108
 10
22.1569889476
 20
-21.4709390974
 10
22.1581986427
 20
-21.4887260607
 10
22.1594299166
 20
-21.5031731717
 10
22.1606762162
 20
-21.5141921537
 10
22.1619440947
 20
-21.5218712834
 10
22.1632335519
 20
-21.5262105606
  0
LINE
  5
500
100
AcDbEntity
  8
0
100
AcDbLine
 62
7
  6
CONTINUOUS
 10
20.5368325431
 20
23.5581814706
 11
20.55
 21
23.1226497308
  0
LINE
  5
501
100
AcDbEntity
  8
0
100
AcDbLine
 62
253
  6
CONTINUOUS
 10
21.6102590091
 20
23.6278395719
 11
21.6256118279
 21
23.1200239821
  0
LINE
  5
502
100
AcDbEntity
  8
0
100
AcDbLine
 62
253
  6
CONTINUOUS
 10
22.1507005685
 20
-21.3017117081
 11
22.1525822073
 21
-21.3693058407
  0
LINE
  5
503
100
AcDbEntity
  8
0
100
AcDbLine
 62
253
  6
CONTINUOUS
 10
21.8101721307
 20
-24.2519439791
 11
21.8100909976
 21
-24.2483386784
  0
LINE
  5
504
100
AcDbEntity
  8
0
100
AcDbLine
 62
253
  6
CONTINUOUS
 10
22.149089698
 20
-21.2249279583
 11
22.1507005685
 21
-21.3017117081
  0
LINE
  5
505
100
AcDbEntity
  8
0
100
AcDbLine
 62
253
  6
CONTINUOUS
 10
21.8100478176
 20
23.8089953425
 11
21.8101637699
 21
23.8034223138
  0
LINE
  5
506
100
AcDbEntity
  8
0
100
AcDbLine
 62
253
  6
CONTINUOUS
 10
21.8100909976
 20
-24.2483386784
 11
21.8099825774
 21
-24.2418398188
  0
LINE
  5
507
100
AcDbEntity
  8
0
100
AcDbLine
 62
253
  6
CONTINUOUS
 10
21.6105553566
 20
-24.4574410389
 11
21.6104672685
 21
-24.4519903411
  0
LINE
  5
508
100
AcDbEntity
  8
0
100
AcDbLine
 62
253
  6
CONTINUOUS
 10
22.1477734842
 20
-21.1400983146
 11
22.149089698
 21
-21.2249279583
  0
LINE
  5
509
100
AcDbEntity
  8
0
100
AcDbLine
 62
253
  6
CONTINUOUS
 10
21.8099499903
 20
23.8156890628
 11
21.8100478176
 21
23.8089953425
  0
LINE
  5
50A
100
AcDbEntity
  8
0
100
AcDbLine
 62
253
  6
CONTINUOUS
 10
21.6633096001
 20
-22.0181442919
 11
21.6634048895
 21
-22.0255253279
  0
LINE
  5
50B
100
AcDbEntity
  8
0
100
AcDbLine
 62
253
  6
CONTINUOUS
 10
21.8099825774
 20
-24.2418398188
 11
21.8098952422
 21
-24.2342276182
  0
LINE
  5
50C
100
AcDbEntity
  8
0
100
AcDbLine
 62
253
  6
CONTINUOUS
 10
21.6104672685
 20
-24.4519903411
 11
21.6103330609
 21
-24.4381137577
  0
LINE
  5
50D
100
AcDbEntity
  8
0
100
AcDbLine
 62
253
  6
CONTINUOUS
 10
22.1464180391
 20
-21.0019555686
 11
22.1477734842
 21
-21.1400983146
  0
LINE
  5
50E
100
AcDbEntity
  8
0
100
AcDbLine
 62
253
  6
CONTINUOUS
 10
21.809844971
 20
23.8272657837
 11
21.8099499903
 21
23.8156890628
  0
LINE
  5
50F
100
AcDbEntity
  8
0
100
AcDbLine
 62
253
  6
CONTINUOUS
 10
21.8098952422
 20
-24.2342276182
 11
21.8098185021
 21
-24.2228110223
  0
LINE
  5
510
100
AcDbEntity
  8
0
100
AcDbLine
 62
253
  6
CONTINUOUS
 10
21.6103330609
 20
-24.4381137577
 11
21.6100130418
 21
-24.366452455
  0
LINE
  5
511
100
AcDbEntity
  8
0
100
AcDbLine
 62
253
  6
CONTINUOUS
 10
21.8097959483
 20
23.839931699
 11
21.809844971
 21
23.8272657837
  0
LINE
  5
512
100
AcDbEntity
  8
0
100
AcDbLine
 62
253
  6
CONTINUOUS
 10
22.1458525722
 20
-20.8567491348
 11
22.1464180391
 21
-21.0019555686
  0
LINE
  5
513
100
AcDbEntity
  8
0
100
AcDbLine
 62
253
  6
CONTINUOUS
 10
21.6098754671
 20
23.7588328698
 11
21.6102592155
 21
23.6278395724
  0
LINE
  5
514
100
AcDbEntity
  8
0
100
AcDbLine
 62
253
  6
CONTINUOUS
 10
22.137837778
 20
-11.5892032254
 11
22.1458525722
 21
-20.8567491348
  0
LINE
  5
515
100
AcDbEntity
  8
0
100
AcDbLine
 62
253
  6
CONTINUOUS
 10
21.6571022176
 20
-6.9614293186
 11
21.6631990437
 21
-20.8779306675
  0
LINE
  5
516
100
AcDbEntity
  8
0
100
AcDbLine
 62
253
  6
CONTINUOUS
 10
22.1344028654
 20
-2.3183605694
 11
22.137837778
 21
-11.5892032254
  0
LINE
  5
517
100
AcDbEntity
  8
0
100
AcDbLine
 62
253
  6
CONTINUOUS
 10
20.2868706193
 20
-23.8443375673
 11
20.2868706193
 21
-22.2689805518
  0
LINE
  5
518
100
AcDbEntity
  8
0
100
AcDbLine
 62
253
  6
CONTINUOUS
 10
20.2868706193
 20
22.2689805518
 11
20.2868706193
 21
23.8443375673
  0
LINE
  5
519
100
AcDbEntity
  8
0
100
AcDbLine
 62
253
  6
CONTINUOUS
 10
20.5368325431
 20
-23.5581814706
 11
20.5368325431
 21
-22.2818538361
  0
LINE
  5
51A
100
AcDbEntity
  8
0
100
AcDbLine
 62
253
  6
CONTINUOUS
 10
20.5368325431
 20
22.2818538361
 11
20.5368325431
 21
23.5581814706
  0
LINE
  5
51B
100
AcDbEntity
  8
0
100
AcDbLine
 62
7
  6
CONTINUOUS
 10
20.55
 20
23.1226497308
 11
20.55
 21
22.3213883311
  0
LINE
  5
51C
100
AcDbEntity
  8
0
100
AcDbLine
 62
7
  6
CONTINUOUS
 10
20.55
 20
-22.3213883311
 11
20.55
 21
-23.1226497308
  0
LINE
  5
51D
100
AcDbEntity
  8
0
100
AcDbLine
 62
253
  6
CONTINUOUS
 10
21.5781430868
 20
23.1226497308
 11
21.5781430868
 21
22.3213883311
  0
LINE
  5
51E
100
AcDbEntity
  8
0
100
AcDbLine
 62
253
  6
CONTINUOUS
 10
21.5781430868
 20
-22.3213883311
 11
21.5781430868
 21
-23.1226497308
  0
LINE
  5
51F
100
AcDbEntity
  8
0
100
AcDbLine
 62
253
  6
CONTINUOUS
 10
21.8281050106
 20
23.2097560788
 11
21.8281050106
 21
22.3341525772
  0
LINE
  5
520
100
AcDbEntity
  8
0
100
AcDbLine
 62
253
  6
CONTINUOUS
 10
21.8281050106
 20
-22.3341525772
 11
21.8281050106
 21
-23.2097560788
  0
LINE
  5
521
100
AcDbEntity
  8
0
100
AcDbLine
 62
7
  6
CONTINUOUS
 10
21.85
 20
-24.300030461
 11
21.85
 21
-22.3999997358
  0
LINE
  5
522
100
AcDbEntity
  8
0
100
AcDbLine
 62
7
  6
CONTINUOUS
 10
21.8500000646
 20
22.3999999296
 11
21.85
 21
24.300030461
  0
LINE
  5
523
100
AcDbEntity
  8
0
100
AcDbLine
 62
7
  6
CONTINUOUS
 10
22.35
 20
21.9000761524
 11
22.35
 21
21.0
  0
LINE
  5
524
100
AcDbEntity
  8
0
100
AcDbLine
 62
7
  6
CONTINUOUS
 10
22.35
 20
-21.9000761524
 11
22.35
 21
-21.0
  0
LINE
  5
525
100
AcDbEntity
  8
0
100
AcDbLine
 62
7
  6
CONTINUOUS
 10
22.3761859216
 20
-20.4226497308
 11
22.3761859216
 21
20.4226497308
  0
LINE
  5
526
100
AcDbEntity
  8
0
100
AcDbLine
 62
253
  6
CONTINUOUS
 10
21.6571022107
 20
6.9614043633
 11
21.6571022176
 21
-6.9614293186
  0
LINE
  5
527
100
AcDbEntity
  8
0
100
AcDbLine
 62
253
  6
CONTINUOUS
 10
21.8098185021
 20
-24.2228110223
 11
21.8097929622
 21
-23.8422674847
  0
LINE
  5
528
100
AcDbEntity
  8
0
100
AcDbLine
 62
253
  6
CONTINUOUS
 10
22.1355478344
 20
6.9543663402
 11
22.1344028654
 21
-2.3183605694
  0
LINE
  5
529
100
AcDbEntity
  8
0
100
AcDbLine
 62
253
  6
CONTINUOUS
 10
21.6631990182
 20
-20.8779306483
 11
21.6633096001
 21
-22.0181442919
  0
LINE
  5
52A
100
AcDbEntity
  8
0
100
AcDbLine
 62
253
  6
CONTINUOUS
 10
22.1412726856
 20
16.223327531
 11
22.1355478344
 21
6.9543663402
  0
LINE
  5
52B
100
AcDbEntity
  8
0
100
AcDbLine
 62
253
  6
CONTINUOUS
 10
21.6100130418
 20
-24.366452455
 11
21.6099141622
 21
-23.7330790773
  0
LINE
  5
52C
100
AcDbEntity
  8
0
100
AcDbLine
 62
253
  6
CONTINUOUS
 10
21.6100428989
 20
24.3764517167
 11
21.6098754671
 21
23.7588328698
  0
LINE
  5
52D
100
AcDbEntity
  8
0
100
AcDbLine
 62
253
  6
CONTINUOUS
 10
21.8098114447
 20
24.2210431087
 11
21.8097959483
 21
23.839931699
  0
LINE
  5
52E
100
AcDbEntity
  8
0
100
AcDbLine
 62
253
  6
CONTINUOUS
 10
22.1461417656
 20
20.9543382546
 11
22.1412726856
 21
16.223327531
  0
LINE
  5
52F
100
AcDbEntity
  8
0
100
AcDbLine
 62
253
  6
CONTINUOUS
 10
21.8097929622
 20
-23.8422674847
 11
21.8098347758
 21
-23.8289620206
  0
LINE
  5
530
100
AcDbEntity
  8
0
100
AcDbLine
 62
253
  6
CONTINUOUS
 10
21.6099141622
 20
-23.7330790773
 11
21.6102592617
 21
-23.6278312164
  0
LINE
  5
531
100
AcDbEntity
  8
0
100
AcDbLine
 62
253
  6
CONTINUOUS
 10
21.6103317289
 20
24.4377541514
 11
21.6100428989
 21
24.3764517167
  0
LINE
  5
532
100
AcDbEntity
  8
0
100
AcDbLine
 62
253
  6
CONTINUOUS
 10
21.8099071807
 20
24.2354529858
 11
21.8098114447
 21
24.2210431087
  0
LINE
  5
533
100
AcDbEntity
  8
0
100
AcDbLine
 62
253
  6
CONTINUOUS
 10
22.1472383069
 20
21.0953364028
 11
22.1461417656
 21
20.9543382546
  0
LINE
  5
534
100
AcDbEntity
  8
0
100
AcDbLine
 62
253
  6
CONTINUOUS
 10
21.8098347758
 20
-23.8289620206
 11
21.8099276346
 21
-23.8176054476
  0
LWPOLYLINE
  5
535
100
AcDbEntity
  8
0
100
AcDbPolyline
 62
253
  6
CONTINUOUS
 90
4
 70
0
 10
21.6634048793
 20
22.0255253076
 10
21.6633095937
 20
22.0181442718
 10
21.6632480665
 20
22.0048748581
 10
21.6571022107
 20
6.9614043633
  0
LINE
  5
536
100
AcDbEntity
  8
0
100
AcDbLine
 62
253
  6
CONTINUOUS
 10
21.8100118554
 20
24.2438266488
 11
21.8099071807
 21
24.2354529858
  0
LINE
  5
537
100
AcDbEntity
  8
0
100
AcDbLine
 62
253
  6
CONTINUOUS
 10
22.1483910108
 20
21.1832811697
 11
22.1472383069
 21
21.0953364028
  0
LINE
  5
538
100
AcDbEntity
  8
0
100
AcDbLine
 62
253
  6
CONTINUOUS
 10
21.8099276346
 20
-23.8176054476
 11
21.81001037
 21
-23.8112815968
  0
LINE
  5
539
100
AcDbEntity
  8
0
100
AcDbLine
 62
253
  6
CONTINUOUS
 10
22.1498591774
 20
21.2644160394
 11
22.1483910108
 21
21.1832811697
  0
LWPOLYLINE
  5
53A
100
AcDbEntity
  8
0
100
AcDbPolyline
 62
253
  6
CONTINUOUS
 90
3
 70
0
 10
21.81001037
 20
-23.8112815968
 10
21.8101117421
 20
-23.8056762915
 10
21.8101490187
 20
-23.80402237
  0
LINE
  5
53B
100
AcDbEntity
  8
0
100
AcDbLine
 62
7
  6
CONTINUOUS
 10
20.55
 20
-23.1226497308
 11
20.5368325431
 21
-23.5581814706
  0
LINE
  5
53C
100
AcDbEntity
  8
0
100
AcDbLine
 62
253
  6
CONTINUOUS
 10
21.6102592617
 20
-23.6278312164
 11
21.6256118279
 21
-23.1200239821
  0
LWPOLYLINE
  5
53D
100
AcDbEntity
  8
0
100
AcDbPolyline
 62
253
  6
CONTINUOUS
 90
4
 70
0
 10
21.6106804067
 20
24.4606499457
 10
21.6105891781
 20
24.4588598397
 10
21.6105008066
 20
24.4544107356
 10
21.6103317289
 20
24.4377541514
  0
LWPOLYLINE
  5
53E
100
AcDbEntity
  8
0
100
AcDbPolyline
 62
7
  6
CONTINUOUS
 90
16
 70
0
 10
18.4718949894
 20
-23.2097560788
 10
18.4735362889
 20
-23.1986731069
 10
18.4775359736
 20
-23.1877110063
 10
18.4837973879
 20
-23.177084755
 10
18.4922101465
 20
-23.1670301929
 10
18.502624989
 20
-23.1576969207
 10
18.5148369132
 20
-23.1491376597
 10
18.5285964412
 20
-23.1414971582
 10
18.5437464997
 20
-23.1348681954
 10
18.5602262534
 20
-23.1292182849
 10
18.5779793256
 20
-23.1246030251
 10
18.5967018786
 20
-23.1211856161
 10
18.6159511631
 20
-23.1190440682
 10
18.6354174702
 20
-23.1181640071
 10
18.6549633985
 20
-23.1185067845
 10
18.6743881721
 20
-23.1200239821
  0
LINE
  5
53F
100
AcDbEntity
  8
0
100
AcDbLine
 62
253
  6
CONTINUOUS
 10
6.8044399245
 20
-23.7455981518
 11
6.8
 21
-23.7500380762
  0
LINE
  5
540
100
AcDbEntity
  8
0
100
AcDbLine
 62
253
  6
CONTINUOUS
 10
7.0544018482
 20
-23.9955600755
 11
7.0499619238
 21
-24.0
  0
LWPOLYLINE
  5
541
100
AcDbEntity
  8
0
100
AcDbPolyline
 62
7
  6
CONTINUOUS
 90
16
 70
0
 10
18.6743881721
 20
23.1200239821
 10
18.6549633985
 20
23.1185067845
 10
18.6354174702
 20
23.1181640071
 10
18.6159511631
 20
23.1190440682
 10
18.5967018786
 20
23.1211856161
 10
18.5779793256
 20
23.1246030251
 10
18.5602262534
 20
23.1292182849
 10
18.5437464997
 20
23.1348681954
 10
18.5285964412
 20
23.1414971582
 10
18.5148369132
 20
23.1491376597
 10
18.502624989
 20
23.1576969207
 10
18.4922101465
 20
23.1670301929
 10
18.4837973879
 20
23.1770847549
 10
18.4775359736
 20
23.1877110063
 10
18.4735362889
 20
23.1986731069
 10
18.4718949894
 20
23.2097560788
  0
LINE
  5
542
100
AcDbEntity
  8
0
100
AcDbLine
 62
253
  6
CONTINUOUS
 10
-21.7627978927
 20
20.8772454737
 11
-21.6631985896
 21
20.8779301419
  0
LINE
  5
543
100
AcDbEntity
  8
0
100
AcDbLine
 62
253
  6
CONTINUOUS
 10
21.6634048796
 20
22.0255253081
 11
14.9060136444
 21
22.0151993015
  0
LINE
  5
544
100
AcDbEntity
  8
0
100
AcDbLine
 62
253
  6
CONTINUOUS
 10
14.9060136444
 20
22.0151993015
 11
8.1755188616
 21
22.0087072171
  0
LINE
  5
545
100
AcDbEntity
  8
0
100
AcDbLine
 62
253
  6
CONTINUOUS
 10
21.6631990494
 20
20.8779306277
 11
10.4219366347
 21
20.8719651182
  0
LINE
  5
546
100
AcDbEntity
  8
0
100
AcDbLine
 62
253
  6
CONTINUOUS
 10
8.1755188616
 20
22.0087072171
 11
1.3795071434
 21
22.0059933934
  0
LINE
  5
547
100
AcDbEntity
  8
0
100
AcDbLine
 62
253
  6
CONTINUOUS
 10
10.4219366347
 20
20.8719651182
 11
1.3775116567
 21
20.8702004651
  0
LINE
  5
548
100
AcDbEntity
  8
0
100
AcDbLine
 62
7
  6
CONTINUOUS
 10
20.2868706193
 20
22.2689805518
 11
20.0131293807
 21
22.2689805518
  0
LINE
  5
549
100
AcDbEntity
  8
0
100
AcDbLine
 62
7
  6
CONTINUOUS
 10
2.4868706193
 20
22.2689805518
 11
2.2131293807
 21
22.2689805518
  0
LINE
  5
54A
100
AcDbEntity
  8
0
100
AcDbLine
 62
7
  6
CONTINUOUS
 10
-2.2131293807
 20
22.2689805518
 11
-2.4868706193
 21
22.2689805518
  0
LINE
  5
54B
100
AcDbEntity
  8
0
100
AcDbLine
 62
7
  6
CONTINUOUS
 10
-20.0131293807
 20
22.2689805518
 11
-20.2868706193
 21
22.2689805518
  0
LINE
  5
54C
100
AcDbEntity
  8
0
100
AcDbLine
 62
7
  6
CONTINUOUS
 10
-21.5781430868
 20
22.3213883311
 11
-20.55
 21
22.3213883311
  0
LINE
  5
54D
100
AcDbEntity
  8
0
100
AcDbLine
 62
7
  6
CONTINUOUS
 10
-19.75
 20
22.3213883311
 11
-18.7218569132
 21
22.3213883311
  0
LINE
  5
54E
100
AcDbEntity
  8
0
100
AcDbLine
 62
7
  6
CONTINUOUS
 10
-3.7781430868
 20
22.3213883311
 11
-2.75
 21
22.3213883311
  0
LINE
  5
54F
100
AcDbEntity
  8
0
100
AcDbLine
 62
7
  6
CONTINUOUS
 10
-1.95
 20
22.3213883311
 11
-0.9218569132
 21
22.3213883311
  0
LINE
  5
550
100
AcDbEntity
  8
0
100
AcDbLine
 62
7
  6
CONTINUOUS
 10
0.9218569132
 20
22.3213883311
 11
1.95
 21
22.3213883311
  0
LINE
  5
551
100
AcDbEntity
  8
0
100
AcDbLine
 62
7
  6
CONTINUOUS
 10
2.75
 20
22.3213883311
 11
3.7781430868
 21
22.3213883311
  0
LINE
  5
552
100
AcDbEntity
  8
0
100
AcDbLine
 62
7
  6
CONTINUOUS
 10
18.7218569132
 20
22.3213883311
 11
19.75
 21
22.3213883311
  0
LINE
  5
553
100
AcDbEntity
  8
0
100
AcDbLine
 62
7
  6
CONTINUOUS
 10
20.55
 20
22.3213883311
 11
21.5781430868
 21
22.3213883311
  0
LINE
  5
554
100
AcDbEntity
  8
0
100
AcDbLine
 62
7
  6
CONTINUOUS
 10
15.4455981518
 20
22.3737961104
 11
12.3044018482
 21
22.3737961104
  0
LINE
  5
555
100
AcDbEntity
  8
0
100
AcDbLine
 62
7
  6
CONTINUOUS
 10
10.1955981518
 20
22.3737961104
 11
7.0544018482
 21
22.3737961104
  0
LINE
  5
556
100
AcDbEntity
  8
0
100
AcDbLine
 62
7
  6
CONTINUOUS
 10
-7.0544018482
 20
22.3737961104
 11
-10.1955981518
 21
22.3737961104
  0
LINE
  5
557
100
AcDbEntity
  8
0
100
AcDbLine
 62
7
  6
CONTINUOUS
 10
-12.3044018482
 20
22.3737961104
 11
-15.4455981518
 21
22.3737961104
  0
LINE
  5
558
100
AcDbEntity
  8
0
100
AcDbLine
 62
7
  6
CONTINUOUS
 10
-18.45
 20
22.4
 11
-15.7
 21
22.4
  0
LINE
  5
559
100
AcDbEntity
  8
0
100
AcDbLine
 62
7
  6
CONTINUOUS
 10
-12.05
 20
22.4
 11
-10.45
 21
22.4
  0
LINE
  5
55A
100
AcDbEntity
  8
0
100
AcDbLine
 62
7
  6
CONTINUOUS
 10
-6.8
 20
22.4
 11
-4.05
 21
22.4
  0
LINE
  5
55B
100
AcDbEntity
  8
0
100
AcDbLine
 62
7
  6
CONTINUOUS
 10
0.65
 20
22.4
 11
-0.65
 21
22.4
  0
LINE
  5
55C
100
AcDbEntity
  8
0
100
AcDbLine
 62
7
  6
CONTINUOUS
 10
4.05
 20
22.4
 11
6.8
 21
22.4
  0
LINE
  5
55D
100
AcDbEntity
  8
0
100
AcDbLine
 62
7
  6
CONTINUOUS
 10
10.45
 20
22.4
 11
12.05
 21
22.4
  0
LINE
  5
55E
100
AcDbEntity
  8
0
100
AcDbLine
 62
7
  6
CONTINUOUS
 10
15.7
 20
22.4
 11
18.45
 21
22.4
  0
LINE
  5
55F
100
AcDbEntity
  8
0
100
AcDbLine
 62
253
  6
CONTINUOUS
 10
1.3775116567
 20
20.8702004651
 11
-10.6807341683
 21
20.8720451976
  0
LINE
  5
560
100
AcDbEntity
  8
0
100
AcDbLine
 62
253
  6
CONTINUOUS
 10
1.3795071434
 20
22.0059933934
 11
-5.6855052825
 21
22.0072648117
  0
LINE
  5
561
100
AcDbEntity
  8
0
100
AcDbLine
 62
253
  6
CONTINUOUS
 10
-10.6807341683
 20
20.8720451976
 11
-21.6631990429
 21
20.8779306575
  0
LINE
  5
562
100
AcDbEntity
  8
0
100
AcDbLine
 62
253
  6
CONTINUOUS
 10
-5.6855052825
 20
22.0072648117
 11
-13.2896301412
 21
22.0132947571
  0
LINE
  5
563
100
AcDbEntity
  8
0
100
AcDbLine
 62
253
  6
CONTINUOUS
 10
-13.2896301412
 20
22.0132947571
 11
-21.6634048895
 21
22.025525328
  0
LINE
  5
564
100
AcDbEntity
  8
0
100
AcDbLine
 62
253
  6
CONTINUOUS
 10
6.8
 20
23.7500380762
 11
6.8044399245
 21
23.7455981518
  0
LINE
  5
565
100
AcDbEntity
  8
0
100
AcDbLine
 62
253
  6
CONTINUOUS
 10
7.0499619238
 20
24.0
 11
7.0544018482
 21
23.9955600755
  0
LWPOLYLINE
  5
566
100
AcDbEntity
  8
0
100
AcDbPolyline
 62
253
  6
CONTINUOUS
 90
13
 70
0
 10
21.8106499457
 20
24.2606804067
 10
21.8089319106
 20
24.2867764962
 10
21.8038230817
 20
24.312426275
 10
21.7954108289
 20
24.3371910402
 10
21.7838390242
 20
24.3606472215
 10
21.7693055777
 20
24.3823936336
 10
21.7520590491
 20
24.4020583366
 10
21.7323944021
 20
24.419304988
 10
21.7106479699
 20
24.4338385922
 10
21.6871916991
 20
24.445410556
 10
21.6624267792
 20
24.4538229467
 10
21.6367767781
 20
24.4589318735
 10
21.6106804067
 20
24.4606499457
  0
LWPOLYLINE
  5
567
100
AcDbEntity
  8
0
100
AcDbPolyline
 62
253
  6
CONTINUOUS
 90
16
 70
0
 10
22.1632335418
 20
21.5262105403
 10
22.1604288222
 20
21.5783565307
 10
22.1521883247
 20
21.6299324065
 10
22.1386021146
 20
21.680374091
 10
22.1198187277
 20
21.7291298938
 10
22.0960435374
 20
21.77566657
 10
22.0675365019
 20
21.8194751484
 10
22.0346093336
 20
21.8600764728
 10
21.997622116
 20
21.8970264256
 10
21.9569793586
 20
21.9299208162
 10
21.9131255291
 20
21.9583998335
 10
21.8665402519
 20
21.9821519327
 10
21.8177330966
 20
22.0009172509
 10
21.7672379022
 20
22.014490506
 10
21.7156069265
 20
22.0227232181
 10
21.6634048794
 20
22.0255253078
  0
LINE
  5
568
100
AcDbEntity
  8
0
100
AcDbLine
 62
7
  6
CONTINUOUS
 10
22.3761859216
 20
20.4226497308
 11
22.35
 21
21.0
  0
LINE
  5
569
100
AcDbEntity
  8
0
100
AcDbLine
 62
253
  6
CONTINUOUS
 10
21.8101637699
 20
23.8034223138
 11
21.8281050106
 21
23.2097560788
  0
LINE
  5
56A
100
AcDbEntity
  8
0
100
AcDbLine
 62
253
  6
CONTINUOUS
 10
21.8101880382
 20
-23.8024757052
 11
21.8281050106
 21
-23.2097560788
  0
LINE
  5
56B
100
AcDbEntity
  8
0
100
AcDbLine
 62
7
  6
CONTINUOUS
 10
22.35
 20
-21.0
 11
22.3761859216
 21
-20.4226497308
  0
LWPOLYLINE
  5
56C
100
AcDbEntity
  8
0
100
AcDbPolyline
 62
253
  6
CONTINUOUS
 90
16
 70
0
 10
22.1632335519
 20
-21.5262105606
 10
22.1604286929
 20
-21.5783578604
 10
22.152187823
 20
-21.6299348188
 10
22.1386010737
 20
-21.6803773321
 10
22.1198170449
 20
-21.7291337044
 10
22.0960411799
 20
-21.7756706812
 10
22.0675335183
 20
-21.8194792817
 10
22.0346058519
 20
-21.860080366
 10
21.9976183146
 20
-21.897029875
 10
21.9569754437
 20
-21.9299236872
 10
21.9131217553
 20
-21.958402039
 10
21.8665368826
 20
-21.9821534591
 10
21.8177303301
 20
-22.0009181753
 10
21.7672359012
 20
-22.0144909556
 10
21.7156058596
 20
-22.0227233527
 10
21.6634048895
 20
-22.0255253279
  0
LINE
  5
56D
100
AcDbEntity
  8
0
100
AcDbLine
 62
7
  6
CONTINUOUS
 10
18.45
 20
-22.4
 11
18.4718949894
 21
-22.3342616154
  0
LWPOLYLINE
  5
56E
100
AcDbEntity
  8
0
100
AcDbPolyline
 62
7
  6
CONTINUOUS
 90
16
 70
0
 10
-3.8256118279
 20
23.1200239821
 10
-3.8450366015
 20
23.1185067845
 10
-3.8645825298
 20
23.1181640071
 10
-3.8840488369
 20
23.1190440682
 10
-3.9032981214
 20
23.1211856161
 10
-3.9220206744
 20
23.1246030251
 10
-3.9397737466
 20
23.1292182849
 10
-3.9562535003
 20
23.1348681954
 10
-3.9714035588
 20
23.1414971582
 10
-3.9851630868
 20
23.1491376597
 10
-3.997375011
 20
23.1576969207
 10
-4.0077898535
 20
23.1670301929
 10
-4.0162026121
 20
23.1770847549
 10
-4.0224640264
 20
23.1877110063
 10
-4.0264637111
 20
23.1986731069
 10
-4.0281050106
 20
23.2097560788
  0
LWPOLYLINE
  5
56F
100
AcDbEntity
  8
0
100
AcDbPolyline
 62
7
  6
CONTINUOUS
 90
13
 70
0
 10
0.8743881721
 20
23.1200239821
 10
0.8498507074
 20
23.1183029672
 10
0.825329685
 20
23.1184751566
 10
0.8012241334
 20
23.1205831002
 10
0.777892498
 20
23.1246120381
 10
0.7558335136
 20
23.1305311145
 10
0.7356320309
 20
23.138227442
 10
0.7177369235
 20
23.1473843587
 10
0.702389929
 20
23.157834077
 10
0.6898328279
 20
23.1695975658
 10
0.6803738639
 20
23.1824705833
 10
0.6743192571
 20
23.1959910348
 10
0.6718949894
 20
23.2097560788
  0
LWPOLYLINE
  5
570
100
AcDbEntity
  8
0
100
AcDbPolyline
 62
7
  6
CONTINUOUS
 90
13
 70
0
 10
-21.6256118279
 20
23.1200239821
 10
-21.6501492926
 20
23.1183029672
 10
-21.674670315
 20
23.1184751566
 10
-21.6987758666
 20
23.1205831002
 10
-21.722107502
 20
23.1246120381
 10
-21.7441664864
 20
23.1305311145
 10
-21.7643679691
 20
23.138227442
 10
-21.7822630765
 20
23.1473843587
 10
-21.797610071
 20
23.157834077
 10
-21.8101671721
 20
23.1695975658
 10
-21.8196261361
 20
23.1824705833
 10
-21.8256807429
 20
23.1959910348
 10
-21.8281050106
 20
23.2097560788
  0
LWPOLYLINE
  5
571
100
AcDbEntity
  8
0
100
AcDbPolyline
 62
253
  6
CONTINUOUS
 90
13
 70
0
 10
18.6893195933
 20
24.4606499457
 10
18.6632233343
 20
24.4589318888
 10
18.6375734219
 20
24.4538230016
 10
18.6128085636
 20
24.4454106664
 10
18.5893523286
 20
24.4338387666
 10
18.5676059043
 20
24.4193052258
 10
18.5479412349
 20
24.4020586237
 10
18.530694657
 20
24.3823939431
 10
18.5161611474
 20
24.3606475226
 10
18.5045892792
 20
24.3371913052
 10
18.4961769715
 20
24.3124264776
 10
18.4910681038
 20
24.2867766095
 10
18.4893500543
 20
24.2606804067
  0
LWPOLYLINE
  5
572
100
AcDbEntity
  8
0
100
AcDbPolyline
 62
253
  6
CONTINUOUS
 90
13
 70
0
 10
3.8102592617
 20
23.6278312164
 10
3.8362173332
 20
23.629492813
 10
3.8617361692
 20
23.6340570911
 10
3.8863839661
 20
23.6414468187
 10
3.9097436594
 20
23.6515369545
 10
3.9314199807
 20
23.6641567635
 10
3.9510461455
 20
23.6790927066
 10
3.9682900602
 20
23.6960920529
 10
3.9828599412
 20
23.7148671573
 10
3.9945092519
 20
23.7351003268
 10
4.0030408747
 20
23.7564491967
 10
4.0083104464
 20
23.7785525233
 10
4.0102288007
 20
23.8010362971
  0
LWPOLYLINE
  5
573
100
AcDbEntity
  8
0
100
AcDbPolyline
 62
253
  6
CONTINUOUS
 90
16
 70
0
 10
12.3044018482
 20
23.9955600755
 10
12.2782787572
 20
23.9941833315
 10
12.252441762
 20
23.9900840903
 10
12.2271738287
 20
23.9833072455
 10
12.2027516896
 20
23.9739270152
 10
12.1794428176
 20
23.9620461308
 10
12.1575024959
 20
23.9477947136
 10
12.1371710135
 20
23.931328845
 10
12.1186710406
 20
23.9128288594
 10
12.1022051922
 20
23.8924973746
 10
12.0879538024
 20
23.8705570668
 10
12.0760729457
 20
23.8472482227
 10
12.0666927352
 20
23.8228261119
 10
12.0599159018
 20
23.7975582011
 10
12.0558166667
 20
23.7717212259
 10
12.0544399245
 20
23.7455981518
  0
LWPOLYLINE
  5
574
100
AcDbEntity
  8
0
100
AcDbPolyline
 62
253
  6
CONTINUOUS
 90
16
 70
0
 10
7.0544018482
 20
23.9955600755
 10
7.0282787572
 20
23.9941833315
 10
7.002441762
 20
23.9900840903
 10
6.9771738287
 20
23.9833072455
 10
6.9527516896
 20
23.9739270152
 10
6.9294428176
 20
23.9620461308
 10
6.9075024959
 20
23.9477947136
 10
6.8871710135
 20
23.931328845
 10
6.8686710406
 20
23.9128288594
 10
6.8522051922
 20
23.8924973746
 10
6.8379538024
 20
23.8705570668
 10
6.8260729457
 20
23.8472482227
 10
6.8166927352
 20
23.8228261119
 10
6.8099159018
 20
23.7975582011
 10
6.8058166667
 20
23.7717212259
 10
6.8044399245
 20
23.7455981518
  0
LWPOLYLINE
  5
575
100
AcDbEntity
  8
0
100
AcDbPolyline
 62
253
  6
CONTINUOUS
 90
16
 70
0
 10
-10.1955981518
 20
23.9955600755
 10
-10.2217212428
 20
23.9941833315
 10
-10.247558238
 20
23.9900840903
 10
-10.2728261713
 20
23.9833072455
 10
-10.2972483104
 20
23.9739270152
 10
-10.3205571824
 20
23.9620461308
 10
-10.3424975041
 20
23.9477947136
 10
-10.3628289865
 20
23.931328845
 10
-10.3813289594
 20
23.9128288594
 10
-10.3977948078
 20
23.8924973746
 10
-10.4120461976
 20
23.8705570668
 10
-10.4239270543
 20
23.8472482227
 10
-10.4333072648
 20
23.8228261119
 10
-10.4400840982
 20
23.7975582011
 10
-10.4441833333
 20
23.7717212259
 10
-10.4455600755
 20
23.7455981518
  0
LWPOLYLINE
  5
576
100
AcDbEntity
  8
0
100
AcDbPolyline
 62
7
  6
CONTINUOUS
 90
16
 70
0
 10
0.849969539
 20
24.5
 10
0.8292152135
 20
24.4989204702
 10
0.8086015862
 20
24.4956754535
 10
0.7883571324
 20
24.4902738515
 10
0.7686392095
 20
24.4827171281
 10
0.7497540431
 20
24.4730804259
 10
0.7321163272
 20
24.4615865149
 10
0.7160279909
 20
24.448521388
 10
0.701478612
 20
24.4339720091
 10
0.6884134851
 20
24.4178836728
 10
0.6769195741
 20
24.4002459569
 10
0.6672828719
 20
24.3813607905
 10
0.6597261485
 20
24.3616428676
 10
0.6543245465
 20
24.3413984138
 10
0.6510795298
 20
24.3207847865
 10
0.65
 20
24.300030461
  0
LWPOLYLINE
  5
577
100
AcDbEntity
  8
0
100
AcDbPolyline
 62
7
  6
CONTINUOUS
 90
19
 70
0
 10
-21.85
 20
22.3999997358
 10
-21.8930916243
 20
22.3981567964
 10
-21.9361079064
 20
22.3925627732
 10
-21.9787168678
 20
22.3831960379
 10
-22.0207361893
 20
22.3700085713
 10
-22.0616569716
 20
22.3530685037
 10
-22.1007024339
 20
22.3326961103
 10
-22.1373981014
 20
22.3092486335
 10
-22.171723667
 20
22.282854265
 10
-22.2036318653
 20
22.2535904109
 10
-22.2328832257
 20
22.2216792103
 10
-22.2592611602
 20
22.1873591234
 10
-22.2826934596
 20
22.1506724919
 10
-22.3030539929
 20
22.1116397351
 10
-22.3199864328
 20
22.0707349562
 10
-22.3331715324
 20
22.0287272978
 10
-22.3425410715
 20
21.986122062
 10
-22.3481433117
 20
21.9431026395
 10
-22.35
 20
21.8999997649
  0
LINE
  5
578
100
AcDbEntity
  8
0
100
AcDbLine
 62
7
  6
CONTINUOUS
 10
-21.5781430868
 20
23.1226497308
 11
-20.55
 21
23.1226497308
  0
LINE
  5
579
100
AcDbEntity
  8
0
100
AcDbLine
 62
7
  6
CONTINUOUS
 10
-19.75
 20
23.1226497308
 11
-18.7218569132
 21
23.1226497308
  0
LINE
  5
57A
100
AcDbEntity
  8
0
100
AcDbLine
 62
7
  6
CONTINUOUS
 10
-3.7781430868
 20
23.1226497308
 11
-2.75
 21
23.1226497308
  0
LINE
  5
57B
100
AcDbEntity
  8
0
100
AcDbLine
 62
7
  6
CONTINUOUS
 10
-1.95
 20
23.1226497308
 11
-0.9218569132
 21
23.1226497308
  0
LINE
  5
57C
100
AcDbEntity
  8
0
100
AcDbLine
 62
7
  6
CONTINUOUS
 10
0.9218569132
 20
23.1226497308
 11
1.95
 21
23.1226497308
  0
LINE
  5
57D
100
AcDbEntity
  8
0
100
AcDbLine
 62
7
  6
CONTINUOUS
 10
2.75
 20
23.1226497308
 11
3.7781430868
 21
23.1226497308
  0
LINE
  5
57E
100
AcDbEntity
  8
0
100
AcDbLine
 62
7
  6
CONTINUOUS
 10
18.7218569132
 20
23.1226497308
 11
19.75
 21
23.1226497308
  0
LINE
  5
57F
100
AcDbEntity
  8
0
100
AcDbLine
 62
7
  6
CONTINUOUS
 10
20.55
 20
23.1226497308
 11
21.5781430868
 21
23.1226497308
  0
LINE
  5
580
100
AcDbEntity
  8
0
100
AcDbLine
 62
253
  6
CONTINUOUS
 10
-21.610259009
 20
23.6278395725
 11
-20.5033769702
 21
23.6278312164
  0
LINE
  5
581
100
AcDbEntity
  8
0
100
AcDbLine
 62
253
  6
CONTINUOUS
 10
20.5033769702
 20
23.6278312164
 11
21.6102590091
 21
23.6278395719
  0
LINE
  5
582
100
AcDbEntity
  8
0
100
AcDbLine
 62
253
  6
CONTINUOUS
 10
-3.8102592221
 20
23.6278325252
 11
-2.7033769702
 21
23.6278312164
  0
LINE
  5
583
100
AcDbEntity
  8
0
100
AcDbLine
 62
253
  6
CONTINUOUS
 10
2.7033769702
 20
23.6278312164
 11
3.8102592576
 21
23.6278313505
  0
LINE
  5
584
100
AcDbEntity
  8
0
100
AcDbLine
 62
253
  6
CONTINUOUS
 10
-19.7966230298
 20
23.6278312164
 11
-18.6897407424
 21
23.6278313505
  0
LINE
  5
585
100
AcDbEntity
  8
0
100
AcDbLine
 62
253
  6
CONTINUOUS
 10
-1.9966230298
 20
23.6278312164
 11
-0.8897409909
 21
23.6278395719
  0
LINE
  5
586
100
AcDbEntity
  8
0
100
AcDbLine
 62
253
  6
CONTINUOUS
 10
0.889740991
 20
23.6278395725
 11
1.9966230298
 21
23.6278312164
  0
LINE
  5
587
100
AcDbEntity
  8
0
100
AcDbLine
 62
253
  6
CONTINUOUS
 10
18.6897407779
 20
23.6278325252
 11
19.7966230298
 21
23.6278312164
  0
LINE
  5
588
100
AcDbEntity
  8
0
100
AcDbLine
 62
253
  6
CONTINUOUS
 10
6.8044399245
 20
23.7455981518
 11
10.4455600755
 21
23.7455981518
  0
LINE
  5
589
100
AcDbEntity
  8
0
100
AcDbLine
 62
253
  6
CONTINUOUS
 10
-6.8044399245
 20
23.7455981518
 11
-10.4455600755
 21
23.7455981518
  0
LINE
  5
58A
100
AcDbEntity
  8
0
100
AcDbLine
 62
253
  6
CONTINUOUS
 10
-12.0544399245
 20
23.7455981518
 11
-15.6955600755
 21
23.7455981518
  0
LINE
  5
58B
100
AcDbEntity
  8
0
100
AcDbLine
 62
253
  6
CONTINUOUS
 10
12.0544399245
 20
23.7455981518
 11
15.6955600755
 21
23.7455981518
  0
LINE
  5
58C
100
AcDbEntity
  8
0
100
AcDbLine
 62
253
  6
CONTINUOUS
 10
21.8097924241
 20
23.8443375673
 11
20.2868706193
 21
23.8443375673
  0
LINE
  5
58D
100
AcDbEntity
  8
0
100
AcDbLine
 62
253
  6
CONTINUOUS
 10
20.0131293807
 20
23.8443375673
 11
18.4902075759
 21
23.8443375673
  0
LINE
  5
58E
100
AcDbEntity
  8
0
100
AcDbLine
 62
253
  6
CONTINUOUS
 10
0.6902075759
 20
23.8443375673
 11
2.2131293807
 21
23.8443375673
  0
LINE
  5
58F
100
AcDbEntity
  8
0
100
AcDbLine
 62
253
  6
CONTINUOUS
 10
-0.6902075759
 20
23.8443375673
 11
-2.2131293807
 21
23.8443375673
  0
LINE
  5
590
100
AcDbEntity
  8
0
100
AcDbLine
 62
253
  6
CONTINUOUS
 10
2.4868706193
 20
23.8443375673
 11
4.0097924241
 21
23.8443375673
  0
LINE
  5
591
100
AcDbEntity
  8
0
100
AcDbLine
 62
253
  6
CONTINUOUS
 10
-2.4868706193
 20
23.8443375673
 11
-4.0097924241
 21
23.8443375673
  0
LINE
  5
592
100
AcDbEntity
  8
0
100
AcDbLine
 62
253
  6
CONTINUOUS
 10
-18.4902075759
 20
23.8443375673
 11
-20.0131293807
 21
23.8443375673
  0
LINE
  5
593
100
AcDbEntity
  8
0
100
AcDbLine
 62
253
  6
CONTINUOUS
 10
-20.2868706193
 20
23.8443375673
 11
-21.8097924241
 21
23.8443375673
  0
LINE
  5
594
100
AcDbEntity
  8
0
100
AcDbLine
 62
253
  6
CONTINUOUS
 10
15.4455981518
 20
23.9955600755
 11
12.3044018482
 21
23.9955600755
  0
LINE
  5
595
100
AcDbEntity
  8
0
100
AcDbLine
 62
253
  6
CONTINUOUS
 10
10.1955981518
 20
23.9955600755
 11
7.0544018482
 21
23.9955600755
  0
LINE
  5
596
100
AcDbEntity
  8
0
100
AcDbLine
 62
253
  6
CONTINUOUS
 10
-7.0544018482
 20
23.9955600755
 11
-10.1955981518
 21
23.9955600755
  0
LINE
  5
597
100
AcDbEntity
  8
0
100
AcDbLine
 62
253
  6
CONTINUOUS
 10
-12.3044018482
 20
23.9955600755
 11
-15.4455981518
 21
23.9955600755
  0
LINE
  5
598
100
AcDbEntity
  8
0
100
AcDbLine
 62
253
  6
CONTINUOUS
 10
21.8097924241
 20
24.2106880219
 11
18.4902075759
 21
24.2106880219
  0
LINE
  5
599
100
AcDbEntity
  8
0
100
AcDbLine
 62
253
  6
CONTINUOUS
 10
-21.8097924241
 20
24.2106880219
 11
-18.4902075759
 21
24.2106880219
  0
LINE
  5
59A
100
AcDbEntity
  8
0
100
AcDbLine
 62
253
  6
CONTINUOUS
 10
4.0097924241
 20
24.2106880219
 11
0.6902075759
 21
24.2106880219
  0
LINE
  5
59B
100
AcDbEntity
  8
0
100
AcDbLine
 62
253
  6
CONTINUOUS
 10
-0.6902075759
 20
24.2106880219
 11
-4.0097924241
 21
24.2106880219
  0
LINE
  5
59C
100
AcDbEntity
  8
0
100
AcDbLine
 62
253
  6
CONTINUOUS
 10
21.6106804067
 20
24.4606499457
 11
18.6893195933
 21
24.4606499457
  0
LINE
  5
59D
100
AcDbEntity
  8
0
100
AcDbLine
 62
253
  6
CONTINUOUS
 10
3.8106804067
 20
24.4606499457
 11
0.8893195933
 21
24.4606499457
  0
LINE
  5
59E
100
AcDbEntity
  8
0
100
AcDbLine
 62
253
  6
CONTINUOUS
 10
-0.8893195933
 20
24.4606499457
 11
-3.8106804067
 21
24.4606499457
  0
LINE
  5
59F
100
AcDbEntity
  8
0
100
AcDbLine
 62
253
  6
CONTINUOUS
 10
-18.6893195933
 20
24.4606499457
 11
-21.6106804067
 21
24.4606499457
  0
LINE
  5
5A0
100
AcDbEntity
  8
0
100
AcDbLine
 62
7
  6
CONTINUOUS
 10
-21.650030461
 20
24.5
 11
-18.649969539
 21
24.5
  0
LINE
  5
5A1
100
AcDbEntity
  8
0
100
AcDbLine
 62
7
  6
CONTINUOUS
 10
-3.850030461
 20
24.5
 11
-0.849969539
 21
24.5
  0
LINE
  5
5A2
100
AcDbEntity
  8
0
100
AcDbLine
 62
7
  6
CONTINUOUS
 10
0.849969539
 20
24.5
 11
3.850030461
 21
24.5
  0
LINE
  5
5A3
100
AcDbEntity
  8
0
100
AcDbLine
 62
7
  6
CONTINUOUS
 10
18.649969539
 20
24.5
 11
21.650030461
 21
24.5
  0
LWPOLYLINE
  5
5A4
100
AcDbEntity
  8
0
100
AcDbPolyline
 62
7
  6
CONTINUOUS
 90
19
 70
0
 10
21.8500000646
 20
22.3999999296
 10
21.893087363
 20
22.3981561164
 10
21.9360989521
 20
22.392563459
 10
21.9787030582
 20
22.3831997117
 10
22.0207173804
 20
22.3700158257
 10
22.0616331967
 20
22.3530797118
 10
22.1006741885
 20
22.3327124691
 10
22.1373647088
 20
22.3092721538
 10
22.1716858887
 20
22.282885844
 10
22.2035941169
 20
22.2536281654
 10
22.2328500341
 20
22.2217186093
 10
22.2592345718
 20
22.1873963179
 10
22.2826744617
 20
22.1507052997
 10
22.3030428752
 20
22.1116631807
 10
22.3199812455
 20
22.0707466641
 10
22.333169191
 20
22.0287360949
 10
22.3425397442
 20
21.9861417101
 10
22.3481423919
 20
21.9431445024
 10
22.35
 20
21.9000761524
  0
LWPOLYLINE
  5
5A5
100
AcDbEntity
  8
0
100
AcDbPolyline
 62
7
  6
CONTINUOUS
 90
16
 70
0
 10
-7.0499619238
 20
24.0
 10
-7.0240190169
 20
23.9986505878
 10
-6.9982519827
 20
23.9945943169
 10
-6.9729464154
 20
23.9878423144
 10
-6.9482990119
 20
23.9783964102
 10
-6.9246925539
 20
23.9663505324
 10
-6.902645409
 20
23.9519831437
 10
-6.8825349886
 20
23.935651735
 10
-6.864348265
 20
23.9174650114
 10
-6.8480168563
 20
23.897354591
 10
-6.8336494676
 20
23.8753074461
 10
-6.8216035898
 20
23.8517009881
 10
-6.8121576856
 20
23.8270535846
 10
-6.8054056831
 20
23.8017480173
 10
-6.8013494122
 20
23.7759809831
 10
-6.8
 20
23.7500380762
  0
LWPOLYLINE
  5
5A6
100
AcDbEntity
  8
0
100
AcDbPolyline
 62
7
  6
CONTINUOUS
 90
16
 70
0
 10
-0.849969539
 20
24.5
 10
-0.8292152135
 20
24.4989204702
 10
-0.8086015862
 20
24.4956754535
 10
-0.7883571324
 20
24.4902738515
 10
-0.7686392095
 20
24.4827171281
 10
-0.7497540431
 20
24.4730804259
 10
-0.7321163272
 20
24.4615865149
 10
-0.7160279909
 20
24.448521388
 10
-0.701478612
 20
24.4339720091
 10
-0.6884134851
 20
24.4178836728
 10
-0.6769195741
 20
24.4002459569
 10
-0.6672828719
 20
24.3813607905
 10
-0.6597261485
 20
24.3616428676
 10
-0.6543245465
 20
24.3413984138
 10
-0.6510795298
 20
24.3207847865
 10
-0.65
 20
24.300030461
  0
LWPOLYLINE
  5
5A7
100
AcDbEntity
  8
0
100
AcDbPolyline
 62
253
  6
CONTINUOUS
 90
13
 70
0
 10
-3.8102592617
 20
23.6278312164
 10
-3.8362173333
 20
23.629492813
 10
-3.8617361692
 20
23.6340570911
 10
-3.8863839661
 20
23.6414468187
 10
-3.9097436595
 20
23.6515369545
 10
-3.9314199807
 20
23.6641567636
 10
-3.9510461455
 20
23.6790927066
 10
-3.9682900602
 20
23.696092053
 10
-3.9828599412
 20
23.7148671574
 10
-3.9945092519
 20
23.7351003269
 10
-4.0030408747
 20
23.7564491967
 10
-4.0083104464
 20
23.7785525233
 10
-4.0102288007
 20
23.8010362971
  0
LWPOLYLINE
  5
5A8
100
AcDbEntity
  8
0
100
AcDbPolyline
 62
253
  6
CONTINUOUS
 90
13
 70
0
 10
-18.6893195933
 20
24.4606499457
 10
-18.6632233619
 20
24.4589318924
 10
-18.6375734713
 20
24.4538230148
 10
-18.6128086284
 20
24.4454106933
 10
-18.5893524023
 20
24.4338388092
 10
-18.5676059803
 20
24.4193052842
 10
-18.5479413056
 20
24.4020586944
 10
-18.5306947158
 20
24.3823940197
 10
-18.5161611908
 20
24.3606475977
 10
-18.5045893067
 20
24.3371913716
 10
-18.4961769852
 20
24.3124265287
 10
-18.4910681076
 20
24.2867766381
 10
-18.4893500543
 20
24.2606804067
  0
LINE
  5
5A9
100
AcDbEntity
  8
0
100
AcDbLine
 62
7
  6
CONTINUOUS
 10
18.4718949894
 20
22.3342616154
 11
18.45
 21
22.4
  0
LINE
  5
5AA
100
AcDbEntity
  8
0
100
AcDbLine
 62
7
  6
CONTINUOUS
 10
19.75
 20
-22.3213883311
 11
19.7631674569
 21
-22.2818538361
  0
LINE
  5
5AB
100
AcDbEntity
  8
0
100
AcDbLine
 62
253
  6
CONTINUOUS
 10
12.0544399245
 20
-23.7455981518
 11
12.05
 21
-23.7500380762
  0
LINE
  5
5AC
100
AcDbEntity
  8
0
100
AcDbLine
 62
253
  6
CONTINUOUS
 10
12.3044018482
 20
-23.9955600755
 11
12.2999619238
 21
-24.0
  0
LWPOLYLINE
  5
5AD
100
AcDbEntity
  8
0
100
AcDbPolyline
 62
253
  6
CONTINUOUS
 90
13
 70
0
 10
-3.8106804067
 20
24.4606499457
 10
-3.8367766657
 20
24.4589318888
 10
-3.8624265781
 20
24.4538230016
 10
-3.8871914364
 20
24.4454106664
 10
-3.9106476714
 20
24.4338387666
 10
-3.9323940957
 20
24.4193052258
 10
-3.9520587651
 20
24.4020586237
 10
-3.969305343
 20
24.3823939431
 10
-3.9838388526
 20
24.3606475226
 10
-3.9954107208
 20
24.3371913052
 10
-4.0038230285
 20
24.3124264776
 10
-4.0089318962
 20
24.2867766095
 10
-4.0106499457
 20
24.2606804067
  0
LWPOLYLINE
  5
5AE
100
AcDbEntity
  8
0
100
AcDbPolyline
 62
253
  6
CONTINUOUS
 90
13
 70
0
 10
-18.6897407383
 20
23.6278312164
 10
-18.6637826668
 20
23.629492813
 10
-18.6382638308
 20
23.6340570911
 10
-18.6136160339
 20
23.6414468187
 10
-18.5902563406
 20
23.6515369545
 10
-18.5685800193
 20
23.6641567635
 10
-18.5489538545
 20
23.6790927066
 10
-18.5317099398
 20
23.6960920529
 10
-18.5171400588
 20
23.7148671573
 10
-18.5054907481
 20
23.7351003268
 10
-18.4969591253
 20
23.7564491967
 10
-18.4916895536
 20
23.7785525233
 10
-18.4897711993
 20
23.8010362971
  0
LWPOLYLINE
  5
5AF
100
AcDbEntity
  8
0
100
AcDbPolyline
 62
253
  6
CONTINUOUS
 90
16
 70
0
 10
-15.4455981518
 20
23.9955600755
 10
-15.4717212428
 20
23.9941833315
 10
-15.497558238
 20
23.9900840903
 10
-15.5228261713
 20
23.9833072455
 10
-15.5472483104
 20
23.9739270152
 10
-15.5705571824
 20
23.9620461308
 10
-15.5924975041
 20
23.9477947136
 10
-15.6128289865
 20
23.931328845
 10
-15.6313289594
 20
23.9128288594
 10
-15.6477948078
 20
23.8924973746
 10
-15.6620461976
 20
23.8705570668
 10
-15.6739270543
 20
23.8472482227
 10
-15.6833072648
 20
23.8228261119
 10
-15.6900840982
 20
23.7975582011
 10
-15.6941833333
 20
23.7717212259
 10
-15.6955600755
 20
23.7455981518
  0
LWPOLYLINE
  5
5B0
100
AcDbEntity
  8
0
100
AcDbPolyline
 62
7
  6
CONTINUOUS
 90
16
 70
0
 10
-15.4500380762
 20
24.0
 10
-15.4759809831
 20
23.9986505878
 10
-15.5017480173
 20
23.9945943169
 10
-15.5270535846
 20
23.9878423144
 10
-15.5517009881
 20
23.9783964102
 10
-15.5753074461
 20
23.9663505324
 10
-15.597354591
 20
23.9519831437
 10
-15.6174650114
 20
23.935651735
 10
-15.635651735
 20
23.9174650114
 10
-15.6519831437
 20
23.897354591
 10
-15.6663505324
 20
23.8753074461
 10
-15.6783964102
 20
23.8517009881
 10
-15.6878423144
 20
23.8270535846
 10
-15.6945943169
 20
23.8017480173
 10
-15.6986505878
 20
23.7759809831
 10
-15.7
 20
23.7500380762
  0
LWPOLYLINE
  5
5B1
100
AcDbEntity
  8
0
100
AcDbPolyline
 62
7
  6
CONTINUOUS
 90
16
 70
0
 10
-21.650030461
 20
24.5
 10
-21.6707847865
 20
24.4989204702
 10
-21.6913984138
 20
24.4956754535
 10
-21.7116428676
 20
24.4902738515
 10
-21.7313607905
 20
24.4827171281
 10
-21.7502459569
 20
24.4730804259
 10
-21.7678836728
 20
24.4615865149
 10
-21.7839720091
 20
24.448521388
 10
-21.798521388
 20
24.4339720091
 10
-21.8115865149
 20
24.4178836728
 10
-21.8230804259
 20
24.4002459569
 10
-21.8327171281
 20
24.3813607905
 10
-21.8402738515
 20
24.3616428676
 10
-21.8456754535
 20
24.3413984138
 10
-21.8489204702
 20
24.3207847865
 10
-21.85
 20
24.300030461
  0
LWPOLYLINE
  5
5B2
100
AcDbEntity
  8
0
100
AcDbPolyline
 62
7
  6
CONTINUOUS
 90
16
 70
0
 10
21.650030461
 20
24.5
 10
21.6707847865
 20
24.4989204702
 10
21.6913984138
 20
24.4956754535
 10
21.7116428676
 20
24.4902738515
 10
21.7313607905
 20
24.4827171281
 10
21.7502459569
 20
24.4730804259
 10
21.7678836728
 20
24.4615865149
 10
21.7839720091
 20
24.448521388
 10
21.798521388
 20
24.4339720091
 10
21.8115865149
 20
24.4178836728
 10
21.8230804259
 20
24.4002459569
 10
21.8327171281
 20
24.3813607905
 10
21.8402738515
 20
24.3616428676
 10
21.8456754535
 20
24.3413984138
 10
21.8489204702
 20
24.3207847865
 10
21.85
 20
24.300030461
  0
LWPOLYLINE
  5
5B3
100
AcDbEntity
  8
0
100
AcDbPolyline
 62
253
  6
CONTINUOUS
 90
13
 70
0
 10
18.6897407383
 20
23.6278312164
 10
18.6637826667
 20
23.629492813
 10
18.6382638308
 20
23.6340570911
 10
18.6136160339
 20
23.6414468187
 10
18.5902563405
 20
23.6515369545
 10
18.5685800193
 20
23.6641567636
 10
18.5489538545
 20
23.6790927066
 10
18.5317099398
 20
23.696092053
 10
18.5171400588
 20
23.7148671574
 10
18.5054907481
 20
23.7351003269
 10
18.4969591253
 20
23.7564491967
 10
18.4916895536
 20
23.7785525233
 10
18.4897711993
 20
23.8010362971
  0
LWPOLYLINE
  5
5B4
100
AcDbEntity
  8
0
100
AcDbPolyline
 62
253
  6
CONTINUOUS
 90
13
 70
0
 10
3.8106804067
 20
24.4606499457
 10
3.8367766381
 20
24.4589318924
 10
3.8624265287
 20
24.4538230148
 10
3.8871913716
 20
24.4454106933
 10
3.9106475977
 20
24.4338388092
 10
3.9323940197
 20
24.4193052842
 10
3.9520586944
 20
24.4020586944
 10
3.9693052842
 20
24.3823940197
 10
3.9838388092
 20
24.3606475977
 10
3.9954106933
 20
24.3371913716
 10
4.0038230148
 20
24.3124265287
 10
4.0089318924
 20
24.2867766381
 10
4.0106499457
 20
24.2606804067
  0
LINE
  5
5B5
100
AcDbEntity
  8
0
100
AcDbLine
 62
253
  6
CONTINUOUS
 10
12.05
 20
23.7500380762
 11
12.0544399245
 21
23.7455981518
  0
LINE
  5
5B6
100
AcDbEntity
  8
0
100
AcDbLine
 62
253
  6
CONTINUOUS
 10
12.2999619238
 20
24.0
 11
12.3044018482
 21
23.9955600755
  0
LINE
  5
5B7
100
AcDbEntity
  8
0
100
AcDbLine
 62
7
  6
CONTINUOUS
 10
19.75
 20
22.3213883311
 11
19.7631674569
 21
22.2818538361
  0
LWPOLYLINE
  5
5B8
100
AcDbEntity
  8
0
100
AcDbPolyline
 62
253
  6
CONTINUOUS
 90
14
 70
0
 10
22.1458525721
 20
-20.8567491348
 10
22.1420059886
 20
-20.8588820725
 10
22.133135702
 20
-20.8609934023
 10
22.1193315578
 20
-20.8630617387
 10
22.1007333755
 20
-20.8650661321
 10
22.0775295323
 20
-20.8669862804
 10
22.0499550556
 20
-20.8688027347
 10
22.0182892417
 20
-20.8704970965
 10
21.9828528275
 20
-20.872052204
 10
21.9440047415
 20
-20.8734523058
 10
21.9021384682
 20
-20.8746832205
 10
21.8576780631
 20
-20.8757324804
 10
21.8110738568
 20
-20.8765894581
 10
21.7627978942
 20
-20.8772454736
  0
LWPOLYLINE
  5
5B9
100
AcDbEntity
  8
0
100
AcDbPolyline
 62
253
  6
CONTINUOUS
 90
15
 70
0
 10
22.145852567
 20
20.8567491052
 10
22.1420067745
 20
20.8588820831
 10
22.1331371643
 20
20.8609934559
 10
22.1193335768
 20
20.8630618377
 10
22.1007358287
 20
20.8650662778
 10
22.0775322969
 20
20.866986473
 10
22.0499580103
 20
20.8688029739
 10
22.0182922692
 20
20.8704973809
 10
21.9828558164
 20
20.8720525315
 10
21.9440075882
 20
20.8734526734
 10
21.902141079
 20
20.8746836246
 10
21.8576803552
 20
20.8757329168
 10
21.81107576
 20
20.8765899218
 10
21.7627993523
 20
20.8772459588
 10
21.6631990493
 20
20.8779306519
  0
LWPOLYLINE
  5
5BA
100
AcDbEntity
  8
0
100
AcDbPolyline
 62
253
  6
CONTINUOUS
 90
11
 70
0
 10
18.4893500543
 20
24.2606804067
 10
18.4893902176
 20
24.2606045628
 10
18.4894313099
 20
24.2603958513
 10
18.4894733312
 20
24.2600542723
 10
18.4895165245
 20
24.2595870129
 10
18.4895606467
 20
24.2589868859
 10
18.4896049697
 20
24.2582323298
 10
18.4896495232
 20
24.257318806
 10
18.4896942775
 20
24.2562508532
 10
18.4897384147
 20
24.2550205249
 10
18.4897819362
 20
24.2536226541
  0
LINE
  5
5BB
100
AcDbEntity
  8
0
100
AcDbLine
 62
7
  6
CONTINUOUS
 10
20.2868706193
 20
-23.8443375673
 11
20.3067523025
 21
-23.8242182101
  0
LWPOLYLINE
  5
5BC
100
AcDbEntity
  8
0
100
AcDbPolyline
 62
7
  6
CONTINUOUS
 90
6
 70
0
 10
20.4233076959
 20
-23.7079193528
 10
20.4411615849
 20
-23.6899070152
 10
20.4583611558
 20
-23.6728470308
 10
20.474703113
 20
-23.6568894062
 10
20.4898115433
 20
-23.6418841347
 10
20.5033769702
 20
-23.6278312164
  0
LINE
  5
5BD
100
AcDbEntity
  8
0
100
AcDbLine
 62
253
  6
CONTINUOUS
 10
18.4893500543
 20
-24.2606804067
 11
18.45
 21
-24.300030461
  0
LINE
  5
5BE
100
AcDbEntity
  8
0
100
AcDbLine
 62
253
  6
CONTINUOUS
 10
18.6893195933
 20
-24.4606499457
 11
18.649969539
 21
-24.5
  0
LINE
  5
5BF
100
AcDbEntity
  8
0
100
AcDbLine
 62
7
  6
CONTINUOUS
 10
20.3067523025
 20
-23.8242182101
 11
20.4233076959
 21
-23.7079193528
  0
LWPOLYLINE
  5
5C0
100
AcDbEntity
  8
0
100
AcDbPolyline
 62
7
  6
CONTINUOUS
 90
6
 70
0
 10
20.5033769702
 20
23.6278312164
 10
20.4893240519
 20
23.6413966433
 10
20.4743187804
 20
23.6565050736
 10
20.4583611558
 20
23.6728470308
 10
20.4413011713
 20
23.6900466017
 10
20.4232888338
 20
23.7079004907
  0
LINE
  5
5C1
100
AcDbEntity
  8
0
100
AcDbLine
 62
7
  6
CONTINUOUS
 10
20.3069899765
 20
23.8244558841
 11
20.2868706193
 21
23.8443375673
  0
LINE
  5
5C2
100
AcDbEntity
  8
0
100
AcDbLine
 62
253
  6
CONTINUOUS
 10
18.45
 20
24.300030461
 11
18.4893500543
 21
24.2606804067
  0
LINE
  5
5C3
100
AcDbEntity
  8
0
100
AcDbLine
 62
253
  6
CONTINUOUS
 10
18.649969539
 20
24.5
 11
18.6893195933
 21
24.4606499457
  0
LINE
  5
5C4
100
AcDbEntity
  8
0
100
AcDbLine
 62
7
  6
CONTINUOUS
 10
20.4232888338
 20
23.7079004907
 11
20.3069899765
 21
23.8244558841
  0
LINE
  5
5C5
100
AcDbEntity
  8
0
100
AcDbLine
 62
7
  6
CONTINUOUS
 10
-40.8793022145
 20
-24.5
 11
-43.1336681019
 21
-24.4606498971
  0
LWPOLYLINE
  5
5C6
100
AcDbEntity
  8
0
100
AcDbPolyline
 62
253
  6
CONTINUOUS
 90
18
 70
0
 10
-48.3551227993
 20
21.9609757415
 10
-48.433836368
 20
21.9305695576
 10
-48.5102181519
 20
21.8947136775
 10
-48.583896804
 20
21.8535819168
 10
-48.6545030087
 20
21.8073799877
 10
-48.7216835111
 20
21.7563391765
 10
-48.7851061057
 20
21.7007136713
 10
-48.8444602546
 20
21.6407778578
 10
-48.8994534546
 20
21.5768277605
 10
-48.9498156213
 20
21.5091789019
 10
-48.9952985606
 20
21.4381664352
 10
-49.0356770453
 20
21.3641430962
 10
-49.0707507979
 20
21.2874802109
 10
-49.1003511643
 20
21.2085515683
 10
-49.1243367964
 20
21.1277319875
 10
-49.1425883033
 20
21.0454146337
 10
-49.1550122741
 20
20.9620103373
 10
-49.1615454518
 20
20.8779306252
  0
LWPOLYLINE
  5
5C7
100
AcDbEntity
  8
0
100
AcDbPolyline
 62
253
  6
CONTINUOUS
 90
16
 70
0
 10
-40.1249391129
 20
-24.2868630041
 10
-40.1196896362
 20
-24.286479543
 10
-40.114611135
 20
-24.285592971
 10
-40.1097036092
 20
-24.2842032882
 10
-40.1049184412
 20
-24.2822852142
 10
-40.1003042487
 20
-24.2798640294
 10
-40.0960068842
 20
-24.2770155739
 10
-40.0920364994
 20
-24.2737260454
 10
-40.0883829426
 20
-24.2700092462
 10
-40.0851616112
 20
-24.2659824241
 10
-40.0823861346
 20
-24.2616355832
 10
-40.0800428834
 20
-24.2569787194
 10
-40.0782063668
 20
-24.2521590676
 10
-40.076901421
 20
-24.2472257061
 10
-40.0761032098
 20
-24.2421295567
 10
-40.0758117332
 20
-24.2368706193
  0
LINE
  5
5C8
100
AcDbEntity
  8
0
100
AcDbLine
 62
7
  6
CONTINUOUS
 10
-40.8793022145
 20
-24.5
 11
-40.1249391129
 21
-24.4868325431
  0
LINE
  5
5C9
100
AcDbEntity
  8
0
100
AcDbLine
 62
253
  6
CONTINUOUS
 10
-40.8793022145
 20
-24.300030461
 11
-40.1249391129
 21
-24.2868630041
  0
LINE
  5
5CA
100
AcDbEntity
  8
0
100
AcDbLine
 62
7
  6
CONTINUOUS
 10
-35.1249615964
 20
-23.8995576109
 11
-39.8793022145
 21
-23.9825449351
  0
LINE
  5
5CB
100
AcDbEntity
  8
0
100
AcDbLine
 62
253
  6
CONTINUOUS
 10
-35.2582416343
 20
-23.6519220988
 11
-39.8793022145
 21
-23.7325830113
  0
LINE
  5
5CC
100
AcDbEntity
  8
0
100
AcDbLine
 62
253
  6
CONTINUOUS
 10
-34.8793022145
 20
-23.6495958445
 11
-35.2582416343
 21
-23.6519220988
  0
LINE
  5
5CD
100
AcDbEntity
  8
0
100
AcDbLine
 62
253
  6
CONTINUOUS
 10
-40.0758117332
 20
-24.2368706193
 11
-39.8793022145
 21
-24.2368706193
  0
LINE
  5
5CE
100
AcDbEntity
  8
0
100
AcDbLine
 62
253
  6
CONTINUOUS
 10
-43.3793022145
 20
-24.2106880219
 11
-43.1827926958
 21
-24.2106880219
  0
LINE
  5
5CF
100
AcDbEntity
  8
0
100
AcDbLine
 62
253
  6
CONTINUOUS
 10
-43.3793022145
 20
-23.8443375673
 11
-43.1827926958
 21
-23.8443375673
  0
LINE
  5
5D0
100
AcDbEntity
  8
0
100
AcDbLine
 62
253
  6
CONTINUOUS
 10
-40.0758117332
 20
-23.8443375673
 11
-39.8793022145
 21
-23.8443375674
  0
LINE
  5
5D1
100
AcDbEntity
  8
0
100
AcDbLine
 62
253
  6
CONTINUOUS
 10
-40.8793022145
 20
-24.300030461
 11
-43.1336653161
 21
-24.2606804067
  0
LWPOLYLINE
  5
5D2
100
AcDbEntity
  8
0
100
AcDbPolyline
 62
253
  6
CONTINUOUS
 90
28
 70
0
 10
-43.1336653161
 20
-24.2606804067
 10
-43.1360033628
 20
-24.2606014902
 10
-43.1383903577
 20
-24.2603874805
 10
-43.1408263007
 20
-24.2600383775
 10
-43.1433251162
 20
-24.2595608589
 10
-43.1458728799
 20
-24.2589482471
 10
-43.1484278185
 20
-24.2581805094
 10
-43.1509914644
 20
-24.2572530754
 10
-43.1535622852
 20
-24.2561705156
 10
-43.1560939106
 20
-24.2549265087
 10
-43.158586213
 20
-24.2535159675
 10
-43.1610393201
 20
-24.2519439791
 10
-43.1634072438
 20
-24.2502194838
 10
-43.1656874335
 20
-24.2483386784
 10
-43.16788244
 20
-24.2463053661
 10
-43.1699539275
 20
-24.2441398958
 10
-43.1718988212
 20
-24.2418398188
 10
-43.1737201961
 20
-24.2394075837
 10
-43.175388941
 20
-24.236870886
 10
-43.1769022501
 20
-24.2342276182
 10
-43.1782629293
 20
-24.2314798876
 10
-43.179450286
 20
-24.2286617118
 10
-43.1804611474
 20
-24.2257715897
 10
-43.1812986863
 20
-24.2228110223
 10
-43.1819517281
 20
-24.2198185298
 10
-43.1824165478
 20
-24.2168069523
 10
-43.1826968704
 20
-24.2137634496
 10
-43.1827926958
 20
-24.2106880219
  0
LINE
  5
5D3
100
AcDbEntity
  8
0
100
AcDbLine
 62
253
  6
CONTINUOUS
 10
-48.1088335396
 20
-22.0181442919
 11
-48.0656595063
 21
-22.0226766531
  0
LWPOLYLINE
  5
5D4
100
AcDbEntity
  8
0
100
AcDbPolyline
 62
253
  6
CONTINUOUS
 90
4
 70
0
 10
-48.3551224118
 20
-21.9609757614
 10
-48.2744527942
 20
-21.9857857334
 10
-48.1922200458
 20
-22.004874878
 10
-48.1088335396
 20
-22.0181442919
  0
LWPOLYLINE
  5
5D5
100
AcDbEntity
  8
0
100
AcDbPolyline
 62
7
  6
CONTINUOUS
 90
3
 70
0
 10
-42.1336653161
 20
23.2097560788
 10
-42.1645703678
 20
23.1959910348
 10
-42.2223872501
 20
23.1695975658
  0
LWPOLYLINE
  5
5D6
100
AcDbEntity
  8
0
100
AcDbPolyline
 62
7
  6
CONTINUOUS
 90
10
 70
0
 10
-42.2223872501
 20
23.1695975658
 10
-42.2489501478
 20
23.157834077
 10
-42.2736555637
 20
23.1473843587
 10
-42.2960963787
 20
23.138227442
 10
-42.3161289153
 20
23.1305311145
 10
-42.3336292087
 20
23.1246120381
 10
-42.3482719212
 20
23.1205831002
 10
-42.3599578202
 20
23.1184751566
 10
-42.3687747641
 20
23.1183029672
 10
-42.3747542844
 20
23.1200239821
  0
LINE
  5
5D7
100
AcDbEntity
  8
0
100
AcDbLine
 62
7
  6
CONTINUOUS
 10
-30.8618498081
 20
-22.2251447178
 11
-40.8793022099
 21
-22.3999999999
  0
LINE
  5
5D8
100
AcDbEntity
  8
0
100
AcDbLine
 62
253
  6
CONTINUOUS
 10
-40.8793022145
 20
-21.9000761524
 11
-39.8793022145
 21
-21.8826210875
  0
LINE
  5
5D9
100
AcDbEntity
  8
0
100
AcDbLine
 62
7
  6
CONTINUOUS
 10
-30.0314125268
 20
-21.7554697091
 11
-39.8793022145
 21
-21.7051134101
  0
LWPOLYLINE
  5
5DA
100
AcDbEntity
  8
0
100
AcDbPolyline
 62
253
  6
CONTINUOUS
 90
3
 70
0
 10
-49.5344762132
 20
-20.8701702141
 10
-49.5259074887
 20
-20.870338166
 10
-49.1615455063
 20
-20.8779306675
  0
LINE
  5
5DB
100
AcDbEntity
  8
0
100
AcDbLine
 62
7
  6
CONTINUOUS
 10
-40.938155131
 20
-22.3969156492
 11
-40.8793022145
 21
-22.3999997358
  0
LINE
  5
5DC
100
AcDbEntity
  8
0
100
AcDbLine
 62
7
  6
CONTINUOUS
 10
-48.3988629799
 20
-22.0059165191
 11
-42.1336653161
 21
-22.3341525772
  0
LINE
  5
5DD
100
AcDbEntity
  8
0
100
AcDbLine
 62
253
  6
CONTINUOUS
 10
-48.0116251143
 20
-21.5262105606
 11
-40.8793022145
 21
-21.8999997649
  0
LINE
  5
5DE
100
AcDbEntity
  8
0
100
AcDbLine
 62
7
  6
CONTINUOUS
 10
-48.0656595063
 20
-22.0226766531
 11
-48.0247046183
 21
-22.0255253279
  0
LWPOLYLINE
  5
5DF
100
AcDbEntity
  8
0
100
AcDbPolyline
 62
7
  6
CONTINUOUS
 90
9
 70
0
 10
-42.3337075084
 20
-23.1246030369
 10
-42.3200260527
 20
-23.1292182361
 10
-42.3047422403
 20
-23.1348681662
 10
-42.287866665
 20
-23.1414972273
 10
-42.2694542605
 20
-23.1491378456
 10
-42.2494601498
 20
-23.1576972142
 10
-42.2280592626
 20
-23.1670305911
 10
-42.2056403634
 20
-23.1770851947
 10
-42.1583753708
 20
-23.1986733423
  0
LINE
  5
5E0
100
AcDbEntity
  8
0
100
AcDbLine
 62
7
  6
CONTINUOUS
 10
-42.1583753708
 20
-23.1986733423
 11
-42.1336653161
 21
-23.2097560788
  0
LWPOLYLINE
  5
5E1
100
AcDbEntity
  8
0
100
AcDbPolyline
 62
253
  6
CONTINUOUS
 90
13
 70
0
 10
-40.1008117332
 20
23.8010362971
 10
-40.0970970756
 20
23.8034140945
 10
-40.093648978
 20
23.8060595778
 10
-40.0904674403
 20
23.8089727471
 10
-40.0875323061
 20
23.8121793235
 10
-40.0848637319
 20
23.8156535859
 10
-40.0825221872
 20
23.8193183705
 10
-40.0805148559
 20
23.8231781836
 10
-40.0788345542
 20
23.8272285188
 10
-40.0775201993
 20
23.8313786931
 10
-40.0765847638
 20
23.8355984788
 10
-40.0760152751
 20
23.8399181035
 10
-40.0758117332
 20
23.8443375673
  0
LINE
  5
5E2
100
AcDbEntity
  8
0
100
AcDbLine
 62
253
  6
CONTINUOUS
 10
-40.8793022145
 20
23.3515746082
 11
-40.1008117332
 21
23.8010362971
  0
LINE
  5
5E3
100
AcDbEntity
  8
0
100
AcDbLine
 62
7
  6
CONTINUOUS
 10
-40.8793022145
 20
23.1226497308
 11
-40.0043022145
 21
23.6278312164
  0
LINE
  5
5E4
100
AcDbEntity
  8
0
100
AcDbLine
 62
253
  6
CONTINUOUS
 10
-49.1572819063
 20
-20.8776938821
 11
-49.1615326431
 21
-20.8779301418
  0
LINE
  5
5E5
100
AcDbEntity
  8
0
100
AcDbLine
 62
253
  6
CONTINUOUS
 10
-49.0634367345
 20
-20.8734523058
 11
-49.1572819063
 21
-20.8776938821
  0
LINE
  5
5E6
100
AcDbEntity
  8
0
100
AcDbLine
 62
253
  6
CONTINUOUS
 10
-48.6753779518
 20
-20.8567491348
 11
-49.0634367345
 21
-20.8734523058
  0
LINE
  5
5E7
100
AcDbEntity
  8
0
100
AcDbLine
 62
7
  6
CONTINUOUS
 10
-29.8793022145
 20
-20.9872686779
 11
-39.8793022145
 21
-20.9
  0
LINE
  5
5E8
100
AcDbEntity
  8
0
100
AcDbLine
 62
253
  6
CONTINUOUS
 10
-40.1008117332
 20
-23.8010362971
 11
-40.8793022145
 21
-23.3515746082
  0
LINE
  5
5E9
100
AcDbEntity
  8
0
100
AcDbLine
 62
7
  6
CONTINUOUS
 10
-40.0042877423
 20
-23.6278395719
 11
-40.8793022145
 21
-23.1226497308
  0
LINE
  5
5EA
100
AcDbEntity
  8
0
100
AcDbLine
 62
7
  6
CONTINUOUS
 10
-29.8793022145
 20
-19.0
 11
-39.8793022145
 21
-17.2367301929
  0
LWPOLYLINE
  5
5EB
100
AcDbEntity
  8
0
100
AcDbPolyline
 62
253
  6
CONTINUOUS
 90
6
 70
0
 10
-43.2354445182
 20
23.6641567635
 10
-43.2423522068
 20
23.6515369545
 10
-43.2477700044
 20
23.6414468187
 10
-43.2516062368
 20
23.6340570911
 10
-43.253795991
 20
23.629492813
 10
-43.2543022145
 20
23.6278312164
  0
LINE
  5
5EC
100
AcDbEntity
  8
0
100
AcDbLine
 62
253
  6
CONTINUOUS
 10
-43.2176502399
 20
23.696092053
 11
-43.2354445182
 21
23.6641567635
  0
LINE
  5
5ED
100
AcDbEntity
  8
0
100
AcDbLine
 62
253
  6
CONTINUOUS
 10
-43.1955864602
 20
23.7351003269
 11
-43.2176502399
 21
23.696092053
  0
LINE
  5
5EE
100
AcDbEntity
  8
0
100
AcDbLine
 62
253
  6
CONTINUOUS
 10
-43.1577926958
 20
23.8010362971
 11
-43.1955864602
 21
23.7351003269
  0
LINE
  5
5EF
100
AcDbEntity
  8
0
100
AcDbLine
 62
253
  6
CONTINUOUS
 10
-43.1955864602
 20
-23.7351003269
 11
-43.1577926958
 21
-23.8010362971
  0
LINE
  5
5F0
100
AcDbEntity
  8
0
100
AcDbLine
 62
253
  6
CONTINUOUS
 10
-43.2176502399
 20
-23.696092053
 11
-43.1955864602
 21
-23.7351003269
  0
LWPOLYLINE
  5
5F1
100
AcDbEntity
  8
0
100
AcDbPolyline
 62
253
  6
CONTINUOUS
 90
18
 70
0
 10
-49.161545058
 20
-20.8779306483
 10
-49.1550118801
 20
-20.9620103621
 10
-49.1425879089
 20
-21.0454146595
 10
-49.1243364017
 20
-21.1277320137
 10
-49.1003507694
 20
-21.2085515942
 10
-49.0707504031
 20
-21.2874802359
 10
-49.0356766507
 20
-21.3641431204
 10
-48.9952981662
 20
-21.4381664591
 10
-48.949815227
 20
-21.5091789255
 10
-48.8994530606
 20
-21.5768277837
 10
-48.844459861
 20
-21.6407778805
 10
-48.7851057126
 20
-21.7007136936
 10
-48.7216831185
 20
-21.7563391983
 10
-48.6545026167
 20
-21.8073800092
 10
-48.5838964128
 20
-21.8535819379
 10
-48.5102177615
 20
-21.8947136983
 10
-48.433835979
 20
-21.9305695779
 10
-48.3551224118
 20
-21.9609757614
  0
LWPOLYLINE
  5
5F2
100
AcDbEntity
  8
0
100
AcDbPolyline
 62
7
  6
CONTINUOUS
 90
13
 70
0
 10
-49.5344762731
 20
20.8701690675
 10
-49.6979661544
 20
17.4620883625
 10
-49.8352610455
 20
13.9706030679
 10
-49.9420532907
 20
10.4780518045
 10
-50.0183316956
 20
6.9847009608
 10
-50.0640878046
 20
3.4908169859
 10
-50.0793204279
 20
-0.0033334585
 10
-50.0640295661
 20
-3.4974836232
 10
-50.0182152198
 20
-6.9913667592
 10
-49.9418785883
 20
-10.4847162048
 10
-49.8350281416
 20
-13.9772655117
 10
-49.6976750756
 20
-17.4687482912
 10
-49.5344762732
 20
-20.8701690661
  0
LWPOLYLINE
  5
5F3
100
AcDbEntity
  8
0
100
AcDbPolyline
 62
253
  6
CONTINUOUS
 90
22
 70
0
 10
-48.6753779518
 20
-20.8567491348
 10
-48.6715318539
 20
-20.9059361336
 10
-48.6643337506
 20
-20.9543382782
 10
-48.6537836418
 20
-21.0019555686
 10
-48.6397970608
 20
-21.0490384237
 10
-48.6224584743
 20
-21.0953364246
 10
-48.6020212827
 20
-21.1400983146
 10
-48.5784384963
 20
-21.1832811919
 10
-48.5517571049
 20
-21.2249279583
 10
-48.5223714781
 20
-21.2644160616
 10
-48.4902404432
 20
-21.3017117081
 10
-48.4554051729
 20
-21.3368486916
 10
-48.418383555
 20
-21.3693058407
 10
-48.3791443757
 20
-21.3990411613
 10
-48.3377188488
 20
-21.4260966477
 10
-48.2947185036
 20
-21.4500771108
 10
-48.2500969313
 20
-21.4709390974
 10
-48.2039005407
 20
-21.4887260607
 10
-48.1568800881
 20
-21.5031731717
 10
-48.1092858256
 20
-21.5141921537
 10
-48.060867501
 20
-21.5218712834
 10
-48.0116251143
 20
-21.5262105606
  0
LWPOLYLINE
  5
5F4
100
AcDbEntity
  8
0
100
AcDbPolyline
 62
253
  6
CONTINUOUS
 90
10
 70
0
 10
-49.1615455078
 20
20.8779306277
 10
-49.3365173031
 20
16.2404780633
 10
-49.4677795896
 20
11.601498386
 10
-49.5553044878
 20
6.9614043633
 10
-49.5990713889
 20
2.3205546741
 10
-49.5990712581
 20
-2.3205824002
 10
-49.5553041347
 20
-6.9614293186
 10
-49.4677791319
 20
-11.601517801
 10
-49.3365169366
 20
-16.2404891717
 10
-49.1615455063
 20
-20.8779306675
  0
LWPOLYLINE
  5
5F5
100
AcDbEntity
  8
0
100
AcDbPolyline
 62
253
  6
CONTINUOUS
 90
10
 70
0
 10
-48.6753781503
 20
20.8567491052
 10
-48.8502767636
 20
16.223327531
 10
-48.9814507168
 20
11.5891999427
 10
-49.0689000101
 20
6.9543663402
 10
-49.1126246417
 20
2.3183558925
 10
-49.1126246133
 20
-2.3183605694
 10
-49.0688999297
 20
-6.9543705523
 10
-48.9814505923
 20
-11.5892032254
 10
-48.8502765997
 20
-16.2233294195
 10
-48.6753779518
 20
-20.8567491348
  0
LWPOLYLINE
  5
5F6
100
AcDbEntity
  8
0
100
AcDbPolyline
 62
253
  6
CONTINUOUS
 90
7
 70
0
 10
-43.2543022145
 20
-23.6278312164
 10
-43.2537959911
 20
-23.629492813
 10
-43.2516062368
 20
-23.6340570911
 10
-43.2477700045
 20
-23.6414468187
 10
-43.2423522068
 20
-23.6515369545
 10
-43.2354445183
 20
-23.6641567636
 10
-43.2176502399
 20
-23.696092053
  0
LWPOLYLINE
  5
5F7
100
AcDbEntity
  8
0
100
AcDbPolyline
 62
253
  6
CONTINUOUS
 90
7
 70
0
 10
-43.1336653161
 20
-24.4606499457
 10
-43.1340908389
 20
-24.4589318909
 10
-43.1344493837
 20
-24.4538230091
 10
-43.134734818
 20
-24.4454106817
 10
-43.1349422599
 20
-24.4338387909
 10
-43.1350681614
 20
-24.419305259
 10
-43.1351103691
 20
-24.402058664
  0
LINE
  5
5F8
100
AcDbEntity
  8
0
100
AcDbLine
 62
253
  6
CONTINUOUS
 10
-48.0116255014
 20
21.5262105403
 11
-48.0167721035
 21
21.6299324065
  0
LINE
  5
5F9
100
AcDbEntity
  8
0
100
AcDbLine
 62
253
  6
CONTINUOUS
 10
-48.0167721035
 20
21.6299324065
 11
-48.0211231947
 21
21.7291298938
  0
LWPOLYLINE
  5
5FA
100
AcDbEntity
  8
0
100
AcDbPolyline
 62
253
  6
CONTINUOUS
 90
11
 70
0
 10
-48.0211231947
 20
21.7291298938
 10
-48.0244889297
 20
21.8194751484
 10
-48.0257545263
 20
21.8600764728
 10
-48.0267224467
 20
21.8970264256
 10
-48.0273821004
 20
21.9299208162
 10
-48.0277262694
 20
21.9583998335
 10
-48.0277511858
 20
21.9821519327
 10
-48.0274565743
 20
22.0009172509
 10
-48.0268456557
 20
22.014490506
 10
-48.0259251099
 20
22.0227232181
 10
-48.0247050034
 20
22.0255253078
  0
LWPOLYLINE
  5
5FB
100
AcDbEntity
  8
0
100
AcDbPolyline
 62
253
  6
CONTINUOUS
 90
9
 70
0
 10
-48.0257542534
 20
-21.860080366
 10
-48.026722142
 20
-21.897029875
 10
-48.0273817623
 20
-21.9299236872
 10
-48.0277258998
 20
-21.958402039
 10
-48.0277507908
 20
-21.9821534591
 10
-48.0274561633
 20
-22.0009181753
 10
-48.0268452399
 20
-22.0144909556
 10
-48.0259247022
 20
-22.0227233527
 10
-48.0247046183
 20
-22.0255253279
  0
LINE
  5
5FC
100
AcDbEntity
  8
0
100
AcDbLine
 62
253
  6
CONTINUOUS
 10
-48.0229392705
 20
-21.7756706812
 11
-48.0257542534
 21
-21.860080366
  0
LINE
  5
5FD
100
AcDbEntity
  8
0
100
AcDbLine
 62
253
  6
CONTINUOUS
 10
-48.0190596281
 20
-21.6803773321
 11
-48.0229392705
 21
-21.7756706812
  0
LWPOLYLINE
  5
5FE
100
AcDbEntity
  8
0
100
AcDbPolyline
 62
253
  6
CONTINUOUS
 90
3
 70
0
 10
-48.0116251143
 20
-21.5262105606
 10
-48.0142845907
 20
-21.5783578604
 10
-48.0190596281
 20
-21.6803773321
  0
LWPOLYLINE
  5
5FF
100
AcDbEntity
  8
0
100
AcDbPolyline
 62
7
  6
CONTINUOUS
 90
7
 70
0
 10
-40.8792985149
 20
22.3999999296
 10
-40.879791685
 20
22.3981561164
 10
-40.8801903814
 20
22.392563459
 10
-40.8805007834
 20
22.3831997117
 10
-40.8807265944
 20
22.3700158257
 10
-40.8808758437
 20
22.3530797118
 10
-40.8809667844
 20
22.3092721538
  0
LWPOLYLINE
  5
600
100
AcDbEntity
  8
0
100
AcDbPolyline
 62
7
  6
CONTINUOUS
 90
6
 70
0
 10
-40.8793022145
 20
-22.3999997358
 10
-40.8797702465
 20
-22.3981567964
 10
-40.8801730744
 20
-22.3925627732
 10
-40.8805008716
 20
-22.3831960379
 10
-40.8807394027
 20
-22.3700085713
 10
-40.8808858569
 20
-22.3530685037
  0
LINE
  5
601
100
AcDbEntity
  8
0
100
AcDbLine
 62
7
  6
CONTINUOUS
 10
-43.3793022145
 20
-24.2106880219
 11
-43.3793022145
 21
-22.2689805518
  0
LINE
  5
602
100
AcDbEntity
  8
0
100
AcDbLine
 62
7
  6
CONTINUOUS
 10
-43.3793022145
 20
22.2689805518
 11
-43.3793022145
 21
24.2107431148
  0
LWPOLYLINE
  5
603
100
AcDbEntity
  8
0
100
AcDbPolyline
 62
253
  6
CONTINUOUS
 90
13
 70
0
 10
-43.1827926958
 20
23.8443375673
 10
-43.1825907946
 20
23.839931699
 10
-43.1820237915
 20
23.8356228317
 10
-43.1810916865
 20
23.8314109655
 10
-43.1797822836
 20
23.8272657837
 10
-43.1781077788
 20
23.8232176029
 10
-43.1761047602
 20
23.8193573734
 10
-43.1737657329
 20
23.8156890628
 10
-43.1710981918
 20
23.8122087034
 10
-43.1681612102
 20
23.8089953425
 10
-43.1649744792
 20
23.806075329
 10
-43.1615183077
 20
23.8034223138
 10
-43.1577926958
 20
23.8010362971
  0
LINE
  5
604
100
AcDbEntity
  8
0
100
AcDbLine
 62
253
  6
CONTINUOUS
 10
-43.1336653161
 20
24.2606804067
 11
-43.1344494337
 21
24.312426275
  0
LINE
  5
605
100
AcDbEntity
  8
0
100
AcDbLine
 62
253
  6
CONTINUOUS
 10
-43.1344494337
 20
24.312426275
 11
-43.1349423405
 21
24.3606472215
  0
LWPOLYLINE
  5
606
100
AcDbEntity
  8
0
100
AcDbPolyline
 62
253
  6
CONTINUOUS
 90
8
 70
0
 10
-43.1349423405
 20
24.3606472215
 10
-43.1351104596
 20
24.4020583366
 10
-43.1350682483
 20
24.419304988
 10
-43.1349423376
 20
24.4338385922
 10
-43.1347348823
 20
24.445410556
 10
-43.1344494309
 20
24.4538229467
 10
-43.1340908647
 20
24.4589318735
 10
-43.1336653159
 20
24.4606499457
  0
LINE
  5
607
100
AcDbEntity
  8
0
100
AcDbLine
 62
253
  6
CONTINUOUS
 10
-43.1827926958
 20
24.2106880219
 11
-43.1827926958
 21
23.8443375673
  0
LINE
  5
608
100
AcDbEntity
  8
0
100
AcDbLine
 62
253
  6
CONTINUOUS
 10
-43.1827926958
 20
-24.2106880219
 11
-43.1827926958
 21
-23.8443375673
  0
LINE
  5
609
100
AcDbEntity
  8
0
100
AcDbLine
 62
253
  6
CONTINUOUS
 10
-43.1336653161
 20
-23.5581814706
 11
-43.1336653161
 21
-22.2818538361
  0
LINE
  5
60A
100
AcDbEntity
  8
0
100
AcDbLine
 62
253
  6
CONTINUOUS
 10
-43.1336653161
 20
22.2818538361
 11
-43.1336653161
 21
23.5581814706
  0
LINE
  5
60B
100
AcDbEntity
  8
0
100
AcDbLine
 62
7
  6
CONTINUOUS
 10
-42.3793022145
 20
23.1226497308
 11
-42.3793022145
 21
22.3213883311
  0
LINE
  5
60C
100
AcDbEntity
  8
0
100
AcDbLine
 62
7
  6
CONTINUOUS
 10
-42.3793022145
 20
-22.3213883311
 11
-42.3793022145
 21
-23.1226497308
  0
LINE
  5
60D
100
AcDbEntity
  8
0
100
AcDbLine
 62
253
  6
CONTINUOUS
 10
-42.1336653161
 20
23.2097560788
 11
-42.1336653161
 21
22.3341525772
  0
LINE
  5
60E
100
AcDbEntity
  8
0
100
AcDbLine
 62
253
  6
CONTINUOUS
 10
-42.1336653161
 20
-22.3341525772
 11
-42.1336653161
 21
-23.2097560788
  0
LINE
  5
60F
100
AcDbEntity
  8
0
100
AcDbLine
 62
253
  6
CONTINUOUS
 10
-43.1351103691
 20
-24.402058664
 11
-43.1349422594
 21
-24.3606475653
  0
LINE
  5
610
100
AcDbEntity
  8
0
100
AcDbLine
 62
253
  6
CONTINUOUS
 10
-43.1349422594
 20
-24.3606475653
 11
-43.1344493831
 21
-24.3124265067
  0
LWPOLYLINE
  5
611
100
AcDbEntity
  8
0
100
AcDbPolyline
 62
253
  6
CONTINUOUS
 90
22
 70
0
 10
-43.1827926958
 20
-23.8443375673
 10
-43.1827618673
 20
-23.8422674847
 10
-43.182627206
 20
-23.8401531269
 10
-43.1823887117
 20
-23.8379944942
 10
-43.1820518753
 20
-23.8357823647
 10
-43.1816112061
 20
-23.8335259601
 10
-43.1810502311
 20
-23.8312529453
 10
-43.1803663679
 20
-23.8289620206
 10
-43.179562199
 20
-23.8266544857
 10
-43.1786289994
 20
-23.8243619046
 10
-43.1775637173
 20
-23.8220837606
 10
-43.1763694045
 20
-23.8198205704
 10
-43.1750464916
 20
-23.8176054476
 10
-43.1735917998
 20
-23.8154388397
 10
-43.1720085079
 20
-23.8133202991
 10
-43.1703065832
 20
-23.8112815968
 10
-43.1684830882
 20
-23.8093241839
 10
-43.1665409605
 20
-23.8074466093
 10
-43.1644989794
 20
-23.8056762915
 10
-43.1623634048
 20
-23.80402237
 10
-43.160127977
 20
-23.8024757052
 10
-43.1577926958
 20
-23.8010362971
  0
LINE
  5
612
100
AcDbEntity
  8
0
100
AcDbLine
 62
253
  6
CONTINUOUS
 10
-43.1344493831
 20
-24.3124265067
 11
-43.1336653161
 21
-24.2606804067
  0
LWPOLYLINE
  5
613
100
AcDbEntity
  8
0
100
AcDbPolyline
 62
253
  6
CONTINUOUS
 90
13
 70
0
 10
-40.0758117332
 20
-23.8443375673
 10
-40.0760136344
 20
-23.839931699
 10
-40.0765806375
 20
-23.8356228317
 10
-40.0775127425
 20
-23.8314109655
 10
-40.0788221454
 20
-23.8272657837
 10
-40.0804966502
 20
-23.8232176029
 10
-40.0824996687
 20
-23.8193573734
 10
-40.0848386961
 20
-23.8156890628
 10
-40.0875062372
 20
-23.8122087034
 10
-40.0904432188
 20
-23.8089953425
 10
-40.0936299498
 20
-23.806075329
 10
-40.0970861212
 20
-23.8034223138
 10
-40.1008117332
 20
-23.8010362971
  0
LINE
  5
614
100
AcDbEntity
  8
0
100
AcDbLine
 62
253
  6
CONTINUOUS
 10
-40.1249391129
 20
-24.2868630041
 11
-40.1241549952
 21
-24.3386088724
  0
LINE
  5
615
100
AcDbEntity
  8
0
100
AcDbLine
 62
253
  6
CONTINUOUS
 10
-40.1241549952
 20
-24.3386088724
 11
-40.1236620885
 21
-24.3868298189
  0
LWPOLYLINE
  5
616
100
AcDbEntity
  8
0
100
AcDbPolyline
 62
253
  6
CONTINUOUS
 90
7
 70
0
 10
-40.1234940595
 20
24.4282412918
 10
-40.1235362671
 20
24.4454878815
 10
-40.1236621686
 20
24.4600214066
 10
-40.1238696105
 20
24.4715932907
 10
-40.1241550449
 20
24.4800056122
 10
-40.1245135899
 20
24.4851144898
 10
-40.1249391129
 20
24.4868325431
  0
LINE
  5
617
100
AcDbEntity
  8
0
100
AcDbLine
 62
7
  6
CONTINUOUS
 10
-40.8809667844
 20
22.3092721538
 11
-40.8793980149
 21
21.9861417101
  0
LWPOLYLINE
  5
618
100
AcDbEntity
  8
0
100
AcDbPolyline
 62
253
  6
CONTINUOUS
 90
8
 70
0
 10
-40.1236620885
 20
-24.3868298189
 10
-40.1234939694
 20
-24.428240934
 10
-40.1235361806
 20
-24.4454875854
 10
-40.1236620914
 20
-24.4600211896
 10
-40.1238695467
 20
-24.4715931534
 10
-40.124154998
 20
-24.480005544
 10
-40.1245135642
 20
-24.4851144709
 10
-40.124939113
 20
-24.4868325431
  0
LINE
  5
619
100
AcDbEntity
  8
0
100
AcDbLine
 62
7
  6
CONTINUOUS
 10
-40.8808858569
 20
-22.3530685037
 11
-40.8809651054
 21
-22.3092486335
  0
LINE
  5
61A
100
AcDbEntity
  8
0
100
AcDbLine
 62
7
  6
CONTINUOUS
 10
-40.8793980149
 20
21.9861417101
 11
-40.8793022145
 21
21.0
  0
LINE
  5
61B
100
AcDbEntity
  8
0
100
AcDbLine
 62
7
  6
CONTINUOUS
 10
-40.8793022145
 20
-24.5
 11
-40.8793022145
 21
-22.3999997358
  0
LINE
  5
61C
100
AcDbEntity
  8
0
100
AcDbLine
 62
7
  6
CONTINUOUS
 10
-40.8793022145
 20
22.3999999296
 11
-40.8793022145
 21
24.5
  0
LINE
  5
61D
100
AcDbEntity
  8
0
100
AcDbLine
 62
253
  6
CONTINUOUS
 10
-40.1249391129
 20
-23.5581814706
 11
-40.1249391129
 21
-22.3868325431
  0
LINE
  5
61E
100
AcDbEntity
  8
0
100
AcDbLine
 62
253
  6
CONTINUOUS
 10
-40.1249391129
 20
22.3868325431
 11
-40.1249391129
 21
23.5581814706
  0
LINE
  5
61F
100
AcDbEntity
  8
0
100
AcDbLine
 62
253
  6
CONTINUOUS
 10
-40.0758117332
 20
-24.2368706193
 11
-40.0758117332
 21
-23.8443375673
  0
LINE
  5
620
100
AcDbEntity
  8
0
100
AcDbLine
 62
253
  6
CONTINUOUS
 10
-40.0758117332
 20
23.8443375673
 11
-40.0758117332
 21
24.2368706193
  0
LINE
  5
621
100
AcDbEntity
  8
0
100
AcDbLine
 62
7
  6
CONTINUOUS
 10
-39.8793022145
 20
-24.2369257122
 11
-39.8793022145
 21
24.2368706193
  0
LINE
  5
622
100
AcDbEntity
  8
0
100
AcDbLine
 62
7
  6
CONTINUOUS
 10
-40.8795177509
 20
-22.0287272978
 11
-40.8793022145
 21
-21.0
  0
LINE
  5
623
100
AcDbEntity
  8
0
100
AcDbLine
 62
253
  6
CONTINUOUS
 10
-40.1236621691
 20
24.3868301951
 11
-40.1234940595
 21
24.4282412918
  0
LINE
  5
624
100
AcDbEntity
  8
0
100
AcDbLine
 62
7
  6
CONTINUOUS
 10
-40.8809651054
 20
-22.3092486335
 11
-40.8795177509
 21
-22.0287272978
  0
LINE
  5
625
100
AcDbEntity
  8
0
100
AcDbLine
 62
253
  6
CONTINUOUS
 10
-40.1241550455
 20
24.3386091261
 11
-40.1236621691
 21
24.3868301951
  0
LINE
  5
626
100
AcDbEntity
  8
0
100
AcDbLine
 62
253
  6
CONTINUOUS
 10
-40.1249391129
 20
24.2868630041
 11
-40.1241550455
 21
24.3386091261
  0
LWPOLYLINE
  5
627
100
AcDbEntity
  8
0
100
AcDbPolyline
 62
253
  6
CONTINUOUS
 90
16
 70
0
 10
-40.0758117332
 20
24.2368706193
 10
-40.0761035144
 20
24.2421259559
 10
-40.0769013106
 20
24.2472191292
 10
-40.0782051218
 20
24.2521501393
 10
-40.0800393738
 20
24.2569680369
 10
-40.0823796408
 20
24.2616237712
 10
-40.0851526453
 20
24.2659701895
 10
-40.0883723655
 20
24.2699973841
 10
-40.0920248232
 20
24.2737152627
 10
-40.095994807
 20
24.2770063954
 10
-40.1002925506
 20
24.2798573297
 10
-40.1049078203
 20
24.2822815181
 10
-40.1096947026
 20
24.284201887
 10
-40.11460456
 20
24.2855927454
 10
-40.1196860301
 20
24.2864797844
 10
-40.1249391129
 20
24.2868630041
  0
LINE
  5
628
100
AcDbEntity
  8
0
100
AcDbLine
 62
253
  6
CONTINUOUS
 10
-35.2572615463
 20
-23.7166047517
 11
-35.2582416343
 21
-23.6519220988
  0
LINE
  5
629
100
AcDbEntity
  8
0
100
AcDbLine
 62
253
  6
CONTINUOUS
 10
-35.2566454504
 20
-23.7768810881
 11
-35.2572615463
 21
-23.7166047517
  0
LINE
  5
62A
100
AcDbEntity
  8
0
100
AcDbLine
 62
7
  6
CONTINUOUS
 10
-35.3793022145
 20
23.5393800954
 11
-35.3793022145
 21
22.8606199046
  0
LINE
  5
62B
100
AcDbEntity
  8
0
100
AcDbLine
 62
7
  6
CONTINUOUS
 10
-35.3793022145
 20
-22.8606199046
 11
-35.3793022145
 21
-23.5393800954
  0
LINE
  5
62C
100
AcDbEntity
  8
0
100
AcDbLine
 62
253
  6
CONTINUOUS
 10
-35.2582416343
 20
-23.6519220988
 11
-35.2582416343
 21
-22.3018840226
  0
LINE
  5
62D
100
AcDbEntity
  8
0
100
AcDbLine
 62
253
  6
CONTINUOUS
 10
-35.2582416343
 20
22.3018840226
 11
-35.2582416343
 21
23.6519220988
  0
LINE
  5
62E
100
AcDbEntity
  8
0
100
AcDbLine
 62
7
  6
CONTINUOUS
 10
-34.8793022145
 20
-23.6495953493
 11
-34.8793022145
 21
-22.2952696104
  0
LINE
  5
62F
100
AcDbEntity
  8
0
100
AcDbLine
 62
7
  6
CONTINUOUS
 10
-34.8793022145
 20
22.2952696104
 11
-34.8793022145
 21
23.6495953493
  0
LINE
  5
630
100
AcDbEntity
  8
0
100
AcDbLine
 62
253
  6
CONTINUOUS
 10
-35.2564353721
 20
23.8286486818
 11
-35.2566454705
 21
23.7768849397
  0
LINE
  5
631
100
AcDbEntity
  8
0
100
AcDbLine
 62
253
  6
CONTINUOUS
 10
-35.2566454705
 20
23.7768849397
 11
-35.2572615418
 21
23.7166073176
  0
LINE
  5
632
100
AcDbEntity
  8
0
100
AcDbLine
 62
253
  6
CONTINUOUS
 10
-35.2572615418
 20
23.7166073176
 11
-35.2582416306
 21
23.6519220988
  0
LINE
  5
633
100
AcDbEntity
  8
0
100
AcDbLine
 62
7
  6
CONTINUOUS
 10
-29.8793022145
 20
21.2252970227
 11
-29.8793022145
 21
19.0
  0
LINE
  5
634
100
AcDbEntity
  8
0
100
AcDbLine
 62
7
  6
CONTINUOUS
 10
-29.8793022145
 20
-19.0
 11
-29.8793022145
 21
-21.2252970227
  0
LWPOLYLINE
  5
635
100
AcDbEntity
  8
0
100
AcDbPolyline
 62
253
  6
CONTINUOUS
 90
8
 70
0
 10
-35.2582416343
 20
-23.9018840226
 10
-35.2577097309
 20
-23.8997364561
 10
-35.2572615498
 20
-23.8933503591
 10
-35.2569047566
 20
-23.8828349572
 10
-35.2566454537
 20
-23.8683701022
 10
-35.2564880761
 20
-23.850203196
 10
-35.2564353156
 20
-23.8286449589
 10
-35.2566454504
 20
-23.7768810881
  0
LWPOLYLINE
  5
636
100
AcDbEntity
  8
0
100
AcDbPolyline
 62
253
  6
CONTINUOUS
 90
7
 70
0
 10
-35.2582416343
 20
23.9018840226
 10
-35.2577097722
 20
23.8997366613
 10
-35.2572616173
 20
23.8933510999
 10
-35.2569048365
 20
23.8828364407
 10
-35.2566455343
 20
23.8683724195
 10
-35.2564881479
 20
23.8502063109
 10
-35.2564353721
 20
23.8286486818
  0
LWPOLYLINE
  5
637
100
AcDbEntity
  8
0
100
AcDbPolyline
 62
253
  6
CONTINUOUS
 90
6
 70
0
 10
-40.0231599107
 20
-23.6641567635
 10
-40.0162522222
 20
-23.6515369545
 10
-40.0108344245
 20
-23.6414468187
 10
-40.0069981922
 20
-23.6340570911
 10
-40.0048084379
 20
-23.629492813
 10
-40.0043022145
 20
-23.6278312164
  0
LINE
  5
638
100
AcDbEntity
  8
0
100
AcDbLine
 62
253
  6
CONTINUOUS
 10
-40.0409541891
 20
-23.696092053
 11
-40.0231599107
 21
-23.6641567635
  0
LINE
  5
639
100
AcDbEntity
  8
0
100
AcDbLine
 62
253
  6
CONTINUOUS
 10
-40.0630179688
 20
-23.7351003269
 11
-40.0409541891
 21
-23.696092053
  0
LINE
  5
63A
100
AcDbEntity
  8
0
100
AcDbLine
 62
253
  6
CONTINUOUS
 10
-40.1008117332
 20
-23.8010362971
 11
-40.0630179688
 21
-23.7351003269
  0
LINE
  5
63B
100
AcDbEntity
  8
0
100
AcDbLine
 62
253
  6
CONTINUOUS
 10
-40.1008117332
 20
23.8010362971
 11
-40.0630181673
 21
23.7351007915
  0
LINE
  5
63C
100
AcDbEntity
  8
0
100
AcDbLine
 62
253
  6
CONTINUOUS
 10
-40.0630181673
 20
23.7351007915
 11
-40.0409544114
 21
23.6960925952
  0
LWPOLYLINE
  5
63D
100
AcDbEntity
  8
0
100
AcDbPolyline
 62
253
  6
CONTINUOUS
 90
7
 70
0
 10
-40.0409544114
 20
23.6960925952
 10
-40.0231600657
 20
23.6641571864
 10
-40.016252325
 20
23.65153727
 10
-40.010834478
 20
23.6414470244
 10
-40.0069982071
 20
23.6340571995
 10
-40.0048084325
 20
23.6294928482
 10
-40.0043022146
 20
23.6278312163
  0
LINE
  5
63E
100
AcDbEntity
  8
0
100
AcDbLine
 62
7
  6
CONTINUOUS
 10
-40.8793022145
 20
-21.0
 11
-39.8793022145
 21
-20.4226497308
  0
LINE
  5
63F
100
AcDbEntity
  8
0
100
AcDbLine
 62
7
  6
CONTINUOUS
 10
-39.8793022145
 20
17.2367301929
 11
-29.8793022145
 21
19.0
  0
LINE
  5
640
100
AcDbEntity
  8
0
100
AcDbLine
 62
7
  6
CONTINUOUS
 10
-39.8793022145
 20
20.4226497308
 11
-40.8793022145
 21
21.0
  0
LINE
  5
641
100
AcDbEntity
  8
0
100
AcDbLine
 62
7
  6
CONTINUOUS
 10
-43.2543022145
 20
-23.6278312164
 11
-42.3747542844
 21
-23.1200239821
  0
LINE
  5
642
100
AcDbEntity
  8
0
100
AcDbLine
 62
253
  6
CONTINUOUS
 10
-43.1577926958
 20
-23.8010362971
 11
-42.1336653161
 21
-23.2097560788
  0
LINE
  5
643
100
AcDbEntity
  8
0
100
AcDbLine
 62
7
  6
CONTINUOUS
 10
-43.2543166867
 20
23.6278395719
 11
-42.3747542844
 21
23.1200239821
  0
LINE
  5
644
100
AcDbEntity
  8
0
100
AcDbLine
 62
253
  6
CONTINUOUS
 10
-43.1577926958
 20
23.8010362971
 11
-42.1336653161
 21
23.2097560788
  0
LWPOLYLINE
  5
645
100
AcDbEntity
  8
0
100
AcDbPolyline
 62
7
  6
CONTINUOUS
 90
6
 70
0
 10
-42.3747542844
 20
-23.1200239821
 10
-42.37024938
 20
-23.1185067539
 10
-42.3639289723
 20
-23.1181640019
 10
-42.3557616229
 20
-23.1190441086
 10
-42.3456772199
 20
-23.121185675
 10
-42.3337075084
 20
-23.1246030369
  0
LINE
  5
646
100
AcDbEntity
  8
0
100
AcDbLine
 62
253
  6
CONTINUOUS
 10
-49.1615455078
 20
20.8779306277
 11
-49.534476213
 21
20.8701702169
  0
LINE
  5
647
100
AcDbEntity
  8
0
100
AcDbLine
 62
7
  6
CONTINUOUS
 10
-29.8793022145
 20
20.9872686779
 11
-39.8793022145
 21
20.9
  0
LWPOLYLINE
  5
648
100
AcDbEntity
  8
0
100
AcDbPolyline
 62
253
  6
CONTINUOUS
 90
4
 70
0
 10
-48.6753781503
 20
20.8567491052
 10
-49.1480297286
 20
20.8772459588
 10
-49.1572945723
 20
20.8776943828
 10
-49.1615455044
 20
20.8779306519
  0
LWPOLYLINE
  5
649
100
AcDbEntity
  8
0
100
AcDbPolyline
 62
253
  6
CONTINUOUS
 90
4
 70
0
 10
-48.1088339259
 20
22.0181442718
 10
-48.1922204319
 20
22.0048748581
 10
-48.2744531806
 20
21.9857857136
 10
-48.3551227993
 20
21.9609757415
  0
LINE
  5
64A
100
AcDbEntity
  8
0
100
AcDbLine
 62
253
  6
CONTINUOUS
 10
-48.0656674501
 20
22.0226759772
 11
-48.1088339259
 21
22.0181442718
  0
LWPOLYLINE
  5
64B
100
AcDbEntity
  8
0
100
AcDbPolyline
 62
253
  6
CONTINUOUS
 90
22
 70
0
 10
-48.0116255014
 20
21.5262105403
 10
-48.0608678889
 20
21.5218712629
 10
-48.1092862143
 20
21.5141921332
 10
-48.1568804777
 20
21.503173151
 10
-48.2039009311
 20
21.4887260399
 10
-48.2500973224
 20
21.4709390765
 10
-48.2947188955
 20
21.4500770897
 10
-48.3377192412
 20
21.4260966264
 10
-48.3791447687
 20
21.3990411398
 10
-48.4183839485
 20
21.3693058189
 10
-48.4554055668
 20
21.3368486696
 10
-48.4902408374
 20
21.3017116861
 10
-48.5223718726
 20
21.2644160394
 10
-48.5517574997
 20
21.2249279361
 10
-48.5784388913
 20
21.1832811697
 10
-48.6020216778
 20
21.1400982924
 10
-48.6224588767
 20
21.0953364028
 10
-48.6397974705
 20
21.0490384023
 10
-48.653784037
 20
21.0019555467
 10
-48.6643341021
 20
20.9543382546
 10
-48.6715321398
 20
20.9059361075
 10
-48.6753781503
 20
20.8567491052
  0
LINE
  5
64C
100
AcDbEntity
  8
0
100
AcDbLine
 62
7
  6
CONTINUOUS
 10
-48.0247050053
 20
22.0255253076
 11
-48.0656674501
 21
22.0226759772
  0
LINE
  5
64D
100
AcDbEntity
  8
0
100
AcDbLine
 62
253
  6
CONTINUOUS
 10
-40.8793022145
 20
21.8999997649
 11
-48.0116255014
 21
21.5262105403
  0
LINE
  5
64E
100
AcDbEntity
  8
0
100
AcDbLine
 62
7
  6
CONTINUOUS
 10
-40.938155131
 20
22.3969156492
 11
-40.8792985149
 21
22.3999999296
  0
LINE
  5
64F
100
AcDbEntity
  8
0
100
AcDbLine
 62
7
  6
CONTINUOUS
 10
-42.1336653161
 20
22.3341525772
 11
-48.3988628943
 21
22.0059165236
  0
LINE
  5
650
100
AcDbEntity
  8
0
100
AcDbLine
 62
7
  6
CONTINUOUS
 10
-30.0314125268
 20
21.7554697091
 11
-39.8793022145
 21
21.7051134101
  0
LINE
  5
651
100
AcDbEntity
  8
0
100
AcDbLine
 62
253
  6
CONTINUOUS
 10
-39.8793022145
 20
21.8826210875
 11
-40.8793022145
 21
21.9000761524
  0
LINE
  5
652
100
AcDbEntity
  8
0
100
AcDbLine
 62
7
  6
CONTINUOUS
 10
-30.8618498081
 20
22.2251447178
 11
-40.8792985148
 21
22.3999999354
  0
LWPOLYLINE
  5
653
100
AcDbEntity
  8
0
100
AcDbPolyline
 62
253
  6
CONTINUOUS
 90
16
 70
0
 10
-43.1336653161
 20
24.2606804067
 10
-43.1389147927
 20
24.2602969456
 10
-43.143993294
 20
24.2594103737
 10
-43.1489008198
 20
24.2580206908
 10
-43.1536859877
 20
24.2561026168
 10
-43.1583001803
 20
24.253681432
 10
-43.1625975448
 20
24.2508329765
 10
-43.1665679296
 20
24.247543448
 10
-43.1702214863
 20
24.2438266488
 10
-43.1734428177
 20
24.2397998267
 10
-43.1762182943
 20
24.2354529858
 10
-43.1785615456
 20
24.230796122
 10
-43.1803980622
 20
24.2259764702
 10
-43.181703008
 20
24.2210431087
 10
-43.1825012191
 20
24.2159469593
 10
-43.1827926958
 20
24.2106880219
  0
LINE
  5
654
100
AcDbEntity
  8
0
100
AcDbLine
 62
253
  6
CONTINUOUS
 10
-40.8793022145
 20
24.300030461
 11
-43.1336653161
 21
24.2606804067
  0
LINE
  5
655
100
AcDbEntity
  8
0
100
AcDbLine
 62
7
  6
CONTINUOUS
 10
-40.8793022145
 20
24.5
 11
-43.1336653161
 21
24.4606499457
  0
LINE
  5
656
100
AcDbEntity
  8
0
100
AcDbLine
 62
253
  6
CONTINUOUS
 10
-40.0758117332
 20
23.8443375673
 11
-39.8793022145
 21
23.8443375673
  0
LINE
  5
657
100
AcDbEntity
  8
0
100
AcDbLine
 62
253
  6
CONTINUOUS
 10
-43.1827926958
 20
23.8443375673
 11
-43.3793022145
 21
23.8443375674
  0
LINE
  5
658
100
AcDbEntity
  8
0
100
AcDbLine
 62
253
  6
CONTINUOUS
 10
-43.1827926958
 20
24.2106880219
 11
-43.3793022145
 21
24.2106880219
  0
LINE
  5
659
100
AcDbEntity
  8
0
100
AcDbLine
 62
253
  6
CONTINUOUS
 10
-40.0758117332
 20
24.2368706193
 11
-39.8793022145
 21
24.2368706191
  0
LINE
  5
65A
100
AcDbEntity
  8
0
100
AcDbLine
 62
253
  6
CONTINUOUS
 10
-35.2582416343
 20
23.6519220988
 11
-34.8793022145
 21
23.6495958445
  0
LINE
  5
65B
100
AcDbEntity
  8
0
100
AcDbLine
 62
253
  6
CONTINUOUS
 10
-39.8793022145
 20
23.7325830113
 11
-35.2582416343
 21
23.6519220988
  0
LINE
  5
65C
100
AcDbEntity
  8
0
100
AcDbLine
 62
7
  6
CONTINUOUS
 10
-39.8793022145
 20
23.9825449351
 11
-35.1249615964
 21
23.8995576109
  0
LINE
  5
65D
100
AcDbEntity
  8
0
100
AcDbLine
 62
253
  6
CONTINUOUS
 10
-40.1249391129
 20
24.2868630041
 11
-40.8793022145
 21
24.300030461
  0
LINE
  5
65E
100
AcDbEntity
  8
0
100
AcDbLine
 62
7
  6
CONTINUOUS
 10
-40.124884127
 20
24.4868315833
 11
-40.8793022145
 21
24.5
  0
ARC
  5
65F
100
AcDbEntity
  8
0
100
AcDbCircle
 62
7
  6
CONTINUOUS
 10
7.25
 20
-23.2
 40
0.5
100
AcDbArc
 50
154.1580672368
 51
205.8419327632
  0
ARC
  5
660
100
AcDbEntity
  8
0
100
AcDbCircle
 62
7
  6
CONTINUOUS
 10
15.25
 20
-23.2
 40
0.5
100
AcDbArc
 50
334.1580672368
 51
25.8419327632
  0
ARC
  5
661
100
AcDbEntity
  8
0
100
AcDbCircle
 62
7
  6
CONTINUOUS
 10
7.25
 20
23.2
 40
0.5
100
AcDbArc
 50
154.1580672368
 51
205.8419327632
  0
ARC
  5
662
100
AcDbEntity
  8
0
100
AcDbCircle
 62
7
  6
CONTINUOUS
 10
15.25
 20
23.2
 40
0.5
100
AcDbArc
 50
334.1580672368
 51
25.8419327632
  0
ARC
  5
663
100
AcDbEntity
  8
0
100
AcDbCircle
 62
7
  6
CONTINUOUS
 10
-7.25
 20
-23.2
 40
0.5
100
AcDbArc
 50
334.1580672368
 51
25.8419327632
  0
ARC
  5
664
100
AcDbEntity
  8
0
100
AcDbCircle
 62
7
  6
CONTINUOUS
 10
-7.25
 20
23.2
 40
0.5
100
AcDbArc
 50
334.1580672368
 51
25.8419327632
  0
ARC
  5
665
100
AcDbEntity
  8
0
100
AcDbCircle
 62
7
  6
CONTINUOUS
 10
-15.25
 20
-23.2
 40
0.5
100
AcDbArc
 50
154.1580672368
 51
205.8419327632
  0
ARC
  5
666
100
AcDbEntity
  8
0
100
AcDbCircle
 62
7
  6
CONTINUOUS
 10
-15.25
 20
23.2
 40
0.5
100
AcDbArc
 50
154.1580672368
 51
205.8419327632
  0
ARC
  5
667
100
AcDbEntity
  8
0
100
AcDbCircle
 62
7
  6
CONTINUOUS
 10
-48.3361103931
 20
-20.8075584276
 40
1.2
100
AcDbArc
 50
182.9907948862
 51
267.0
  0
ARC
  5
668
100
AcDbEntity
  8
0
100
AcDbCircle
 62
7
  6
CONTINUOUS
 10
-43.1293022145
 20
-23.8443375673
 40
0.25
100
AcDbArc
 50
120.0
 51
179.9999381375
  0
ARC
  5
669
100
AcDbEntity
  8
0
100
AcDbCircle
 62
7
  6
CONTINUOUS
 10
-40.1293022145
 20
-23.8443375673
 40
0.25
100
AcDbArc
 50
0.0
 51
59.9961701128
  0
ARC
  5
66A
100
AcDbEntity
  8
0
100
AcDbCircle
 62
7
  6
CONTINUOUS
 10
-40.1293022145
 20
-24.2368706193
 40
0.25
100
AcDbArc
 50
271.0
 51
360.0
  0
ARC
  5
66B
100
AcDbEntity
  8
0
100
AcDbCircle
 62
7
  6
CONTINUOUS
 10
-43.1293022145
 20
-24.2106880219
 40
0.25
100
AcDbArc
 50
180.0
 51
268.9993614401
  0
ARC
  5
66C
100
AcDbEntity
  8
0
100
AcDbCircle
 62
7
  6
CONTINUOUS
 10
-48.3361103796
 20
20.8075584283
 40
1.2
100
AcDbArc
 50
93.0
 51
177.0092051129
  0
ARC
  5
66D
100
AcDbEntity
  8
0
100
AcDbCircle
 62
7
  6
CONTINUOUS
 10
-43.1293022145
 20
23.8443375673
 40
0.25
100
AcDbArc
 50
180.0
 51
239.9961701128
  0
ARC
  5
66E
100
AcDbEntity
  8
0
100
AcDbCircle
 62
7
  6
CONTINUOUS
 10
-40.1293022145
 20
23.8443375673
 40
0.25
100
AcDbArc
 50
300.0
 51
359.9961942425
  0
ARC
  5
66F
100
AcDbEntity
  8
0
100
AcDbCircle
 62
7
  6
CONTINUOUS
 10
-40.1293022145
 20
24.2368706193
 40
0.25
100
AcDbArc
 50
0.0
 51
88.9873962307
  0
ARC
  5
670
100
AcDbEntity
  8
0
100
AcDbCircle
 62
7
  6
CONTINUOUS
 10
-43.1293022145
 20
24.2106880219
 40
0.25
100
AcDbArc
 50
91.0
 51
180.0
  0
ARC
  5
671
100
AcDbEntity
  8
0
100
AcDbCircle
 62
7
  6
CONTINUOUS
 10
-30.8793022145
 20
-21.2252970227
 40
1.0
100
AcDbArc
 50
271.0
 51
360.0
  0
ARC
  5
672
100
AcDbEntity
  8
0
100
AcDbCircle
 62
7
  6
CONTINUOUS
 10
-35.129302879
 20
-23.6495953063
 40
0.25
100
AcDbArc
 50
270.999999995
 51
359.9999902296
  0
ARC
  5
673
100
AcDbEntity
  8
0
100
AcDbCircle
 62
7
  6
CONTINUOUS
 10
-30.8793022145
 20
21.2252970227
 40
1.0
100
AcDbArc
 50
0.0
 51
89.0
  0
ARC
  5
674
100
AcDbEntity
  8
0
100
AcDbCircle
 62
7
  6
CONTINUOUS
 10
-35.129302879
 20
23.6495953063
 40
0.25
100
AcDbArc
 50
0.0000097897
 51
89.0000000243
  0
ELLIPSE
  5
675
100
AcDbEntity
  8
0
100
AcDbEllipse
 62
7
  6
CONTINUOUS
 10
-3.7781430868
 20
22.3344902759
 30
0.0
 11
0.25
 21
0.0
 31
0.0
 40
0.0524077793
 41
-3.1241393611
 42
-1.5707963268
  0
ELLIPSE
  5
676
100
AcDbEntity
  8
0
100
AcDbEllipse
 62
7
  6
CONTINUOUS
 10
-3.7781430868
 20
22.9783121635
 30
0.0
 11
0.25
 21
0.0
 31
0.0
 40
0.5773502692
 41
1.5707963268
 42
1.7618311193
  0
ELLIPSE
  5
677
100
AcDbEntity
  8
0
100
AcDbEllipse
 62
7
  6
CONTINUOUS
 10
-2.4868706193
 20
22.2820824966
 30
0.0
 11
0.25
 21
-0.0
 31
0.0
 40
0.0524077793
 41
-3.1241393611
 42
-1.5707963268
  0
ELLIPSE
  5
678
100
AcDbEntity
  8
0
100
AcDbEllipse
 62
7
  6
CONTINUOUS
 10
-2.2131293807
 20
22.2820824966
 30
0.0
 11
0.25
 21
0.0
 31
0.0
 40
0.0524077793
 41
-1.5707963268
 42
-0.0174532925
  0
ELLIPSE
  5
679
100
AcDbEntity
  8
0
100
AcDbEllipse
 62
7
  6
CONTINUOUS
 10
-2.2131293807
 20
23.5556624327
 30
0.0
 11
0.25
 21
0.0
 31
0.0
 40
0.5773502692
 41
0.0174532925
 42
0.5235987756
  0
ELLIPSE
  5
67A
100
AcDbEntity
  8
0
100
AcDbEllipse
 62
7
  6
CONTINUOUS
 10
-0.9218569132
 20
22.3344902759
 30
0.0
 11
0.25
 21
0.0
 31
0.0
 40
0.0524077793
 41
-1.5707963268
 42
-0.0174532925
  0
ELLIPSE
  5
67B
100
AcDbEntity
  8
0
100
AcDbEllipse
 62
7
  6
CONTINUOUS
 10
-0.9218569132
 20
22.9783121635
 30
0.0
 11
0.25
 21
-0.0
 31
0.0
 40
0.5773502692
 41
1.3797615343
 42
1.5707963268
  0
ELLIPSE
  5
67C
100
AcDbEntity
  8
0
100
AcDbEllipse
 62
7
  6
CONTINUOUS
 10
-21.5781430868
 20
22.3344902759
 30
0.0
 11
0.25
 21
0.0
 31
0.0
 40
0.0524077793
 41
-2.8253464262
 42
-1.5707963268
  0
ELLIPSE
  5
67D
100
AcDbEntity
  8
0
100
AcDbEllipse
 62
7
  6
CONTINUOUS
 10
-21.5781430868
 20
22.9783121635
 30
0.0
 11
0.25
 21
0.0
 31
0.0
 40
0.5773502692
 41
1.5707963268
 42
1.7618311193
  0
ELLIPSE
  5
67E
100
AcDbEntity
  8
0
100
AcDbEllipse
 62
7
  6
CONTINUOUS
 10
-20.2868706193
 20
22.2820824966
 30
0.0
 11
0.25
 21
0.0
 31
0.0
 40
0.0524077793
 41
-3.1241393611
 42
-1.5707963268
  0
ELLIPSE
  5
67F
100
AcDbEntity
  8
0
100
AcDbEllipse
 62
7
  6
CONTINUOUS
 10
-20.0131293807
 20
22.2820824966
 30
0.0
 11
0.25
 21
0.0
 31
0.0
 40
0.0524077793
 41
-1.5707963268
 42
-0.0174532925
  0
ELLIPSE
  5
680
100
AcDbEntity
  8
0
100
AcDbEllipse
 62
7
  6
CONTINUOUS
 10
-20.0131293807
 20
23.5556624327
 30
0.0
 11
0.25
 21
0.0
 31
0.0
 40
0.5773502692
 41
0.0174532925
 42
0.5235987756
  0
ELLIPSE
  5
681
100
AcDbEntity
  8
0
100
AcDbEllipse
 62
7
  6
CONTINUOUS
 10
-18.7218569132
 20
22.3344902759
 30
0.0
 11
0.25
 21
0.0
 31
0.0
 40
0.0524077793
 41
-1.5707963268
 42
-0.0174532925
  0
ELLIPSE
  5
682
100
AcDbEntity
  8
0
100
AcDbEllipse
 62
7
  6
CONTINUOUS
 10
-18.7218569132
 20
22.9783121635
 30
0.0
 11
0.25
 21
0.0
 31
0.0
 40
0.5773502692
 41
1.3797615343
 42
1.5707963268
  0
ELLIPSE
  5
683
100
AcDbEntity
  8
0
100
AcDbEllipse
 62
7
  6
CONTINUOUS
 10
-21.5781430868
 20
-22.3344902759
 30
0.0
 11
0.25
 21
-0.0
 31
0.0
 40
0.0524077793
 41
1.5707963268
 42
2.8253464262
  0
ELLIPSE
  5
684
100
AcDbEntity
  8
0
100
AcDbEllipse
 62
7
  6
CONTINUOUS
 10
-21.5781430868
 20
-22.9783121635
 30
0.0
 11
0.25
 21
0.0
 31
0.0
 40
0.5773502692
 41
-1.7618311193
 42
-1.5707963268
  0
ELLIPSE
  5
685
100
AcDbEntity
  8
0
100
AcDbEllipse
 62
7
  6
CONTINUOUS
 10
-18.7218569132
 20
-22.3344902759
 30
0.0
 11
0.25
 21
-0.0
 31
0.0
 40
0.0524077793
 41
0.0174532925
 42
1.5707963268
  0
ELLIPSE
  5
686
100
AcDbEntity
  8
0
100
AcDbEllipse
 62
7
  6
CONTINUOUS
 10
-18.7218569132
 20
-22.9783121635
 30
0.0
 11
0.25
 21
0.0
 31
0.0
 40
0.5773502692
 41
-1.5707963268
 42
-1.3797615343
  0
ELLIPSE
  5
687
100
AcDbEntity
  8
0
100
AcDbEllipse
 62
7
  6
CONTINUOUS
 10
-20.2868706193
 20
-22.2820824966
 30
0.0
 11
0.25
 21
0.0
 31
0.0
 40
0.0524077793
 41
1.5707963268
 42
3.1241393611
  0
ELLIPSE
  5
688
100
AcDbEntity
  8
0
100
AcDbEllipse
 62
7
  6
CONTINUOUS
 10
-20.2868706193
 20
-23.5556624327
 30
0.0
 11
0.25
 21
-0.0
 31
0.0
 40
0.5773502692
 41
-3.1241393611
 42
-2.617993878
  0
ELLIPSE
  5
689
100
AcDbEntity
  8
0
100
AcDbEllipse
 62
7
  6
CONTINUOUS
 10
-20.0131293807
 20
-22.2820824966
 30
0.0
 11
0.25
 21
0.0
 31
0.0
 40
0.0524077793
 41
0.0174532925
 42
1.5707963268
  0
ELLIPSE
  5
68A
100
AcDbEntity
  8
0
100
AcDbEllipse
 62
7
  6
CONTINUOUS
 10
-3.7781430868
 20
-22.3344902759
 30
0.0
 11
0.25
 21
-0.0
 31
0.0
 40
0.0524077793
 41
1.5707963268
 42
3.1241393611
  0
ELLIPSE
  5
68B
100
AcDbEntity
  8
0
100
AcDbEllipse
 62
7
  6
CONTINUOUS
 10
-3.7781430868
 20
-22.9783121635
 30
0.0
 11
0.25
 21
0.0
 31
0.0
 40
0.5773502692
 41
-1.7618311193
 42
-1.5707963268
  0
ELLIPSE
  5
68C
100
AcDbEntity
  8
0
100
AcDbEllipse
 62
7
  6
CONTINUOUS
 10
-0.9218569132
 20
-22.3344902759
 30
0.0
 11
0.25
 21
0.0
 31
0.0
 40
0.0524077793
 41
0.0174532925
 42
1.5707963268
  0
ELLIPSE
  5
68D
100
AcDbEntity
  8
0
100
AcDbEllipse
 62
7
  6
CONTINUOUS
 10
-0.9218569132
 20
-22.9783121635
 30
0.0
 11
0.25
 21
-0.0
 31
0.0
 40
0.5773502692
 41
-1.5707963268
 42
-1.3797615343
  0
ELLIPSE
  5
68E
100
AcDbEntity
  8
0
100
AcDbEllipse
 62
7
  6
CONTINUOUS
 10
-2.4868706193
 20
-22.2820824966
 30
0.0
 11
0.25
 21
0.0
 31
0.0
 40
0.0524077793
 41
1.5707963268
 42
3.1241393611
  0
ELLIPSE
  5
68F
100
AcDbEntity
  8
0
100
AcDbEllipse
 62
7
  6
CONTINUOUS
 10
-2.4868706193
 20
-23.5556624327
 30
0.0
 11
0.25
 21
-0.0
 31
0.0
 40
0.5773502692
 41
-3.1241393611
 42
-2.617993878
  0
ELLIPSE
  5
690
100
AcDbEntity
  8
0
100
AcDbEllipse
 62
7
  6
CONTINUOUS
 10
-2.2131293807
 20
-22.2820824966
 30
0.0
 11
0.25
 21
0.0
 31
0.0
 40
0.0524077793
 41
0.0174532925
 42
1.5707963268
  0
ELLIPSE
  5
691
100
AcDbEntity
  8
0
100
AcDbEllipse
 62
7
  6
CONTINUOUS
 10
-7.0544018482
 20
22.3868980552
 30
0.0
 11
0.25
 21
0.0
 31
0.0
 40
0.0524077793
 41
-1.5707963268
 42
-0.0174532925
  0
ELLIPSE
  5
692
100
AcDbEntity
  8
0
100
AcDbEllipse
 62
7
  6
CONTINUOUS
 10
-15.4455981518
 20
22.3868980552
 30
0.0
 11
0.25
 21
0.0
 31
0.0
 40
0.0524077793
 41
-3.1241393611
 42
-1.5707963268
  0
ELLIPSE
  5
693
100
AcDbEntity
  8
0
100
AcDbEllipse
 62
7
  6
CONTINUOUS
 10
-15.4455981518
 20
-22.3868980552
 30
0.0
 11
0.25
 21
0.0
 31
0.0
 40
0.0524077793
 41
1.5707963268
 42
3.1241393611
  0
ELLIPSE
  5
694
100
AcDbEntity
  8
0
100
AcDbEllipse
 62
7
  6
CONTINUOUS
 10
12.3044018482
 20
-22.3868980552
 30
0.0
 11
0.25
 21
-0.0
 31
0.0
 40
0.0524077793
 41
1.5707963268
 42
3.1241393611
  0
ELLIPSE
  5
695
100
AcDbEntity
  8
0
100
AcDbEllipse
 62
7
  6
CONTINUOUS
 10
15.4455981518
 20
-22.3868980552
 30
0.0
 11
0.25
 21
0.0
 31
0.0
 40
0.0524077793
 41
0.0174532925
 42
1.5707963268
  0
ELLIPSE
  5
696
100
AcDbEntity
  8
0
100
AcDbEllipse
 62
7
  6
CONTINUOUS
 10
7.0544018482
 20
-22.3868980552
 30
0.0
 11
0.25
 21
0.0
 31
0.0
 40
0.0524077793
 41
1.5707963268
 42
3.1241393611
  0
ELLIPSE
  5
697
100
AcDbEntity
  8
0
100
AcDbEllipse
 62
7
  6
CONTINUOUS
 10
-10.1955981518
 20
-22.3868980552
 30
0.0
 11
0.25
 21
0.0
 31
0.0
 40
0.0524077793
 41
1.5707963268
 42
3.1241393611
  0
ELLIPSE
  5
698
100
AcDbEntity
  8
0
100
AcDbEllipse
 62
7
  6
CONTINUOUS
 10
-7.0544018482
 20
-22.3868980552
 30
0.0
 11
0.25
 21
0.0
 31
0.0
 40
0.0524077793
 41
0.0174532925
 42
1.5707963268
  0
ELLIPSE
  5
699
100
AcDbEntity
  8
0
100
AcDbEllipse
 62
7
  6
CONTINUOUS
 10
10.1955981518
 20
22.3868980552
 30
0.0
 11
0.25
 21
0.0
 31
0.0
 40
0.0524077793
 41
-1.5707963268
 42
-0.0174532925
  0
ELLIPSE
  5
69A
100
AcDbEntity
  8
0
100
AcDbEllipse
 62
7
  6
CONTINUOUS
 10
-12.3044018482
 20
22.3868980552
 30
0.0
 11
0.25
 21
0.0
 31
0.0
 40
0.0524077793
 41
-1.5707963268
 42
-0.0174532925
  0
ELLIPSE
  5
69B
100
AcDbEntity
  8
0
100
AcDbEllipse
 62
7
  6
CONTINUOUS
 10
-12.3044018482
 20
-22.3868980552
 30
0.0
 11
0.25
 21
0.0
 31
0.0
 40
0.0524077793
 41
0.0174532925
 42
1.5707963268
  0
ELLIPSE
  5
69C
100
AcDbEntity
  8
0
100
AcDbEllipse
 62
7
  6
CONTINUOUS
 10
10.1955981518
 20
-22.3868980552
 30
0.0
 11
0.25
 21
0.0
 31
0.0
 40
0.0524077793
 41
0.0174532925
 42
1.5707963268
  0
ELLIPSE
  5
69D
100
AcDbEntity
  8
0
100
AcDbEllipse
 62
7
  6
CONTINUOUS
 10
-20.0131293807
 20
-23.5556624327
 30
0.0
 11
0.25
 21
0.0
 31
0.0
 40
0.5773502692
 41
-0.5235987756
 42
-0.0174532925
  0
ELLIPSE
  5
69E
100
AcDbEntity
  8
0
100
AcDbEllipse
 62
7
  6
CONTINUOUS
 10
-2.2131293807
 20
-23.5556624327
 30
0.0
 11
0.25
 21
-0.0
 31
0.0
 40
0.5773502692
 41
-0.5235987756
 42
-0.0174532925
  0
ELLIPSE
  5
69F
100
AcDbEntity
  8
0
100
AcDbEllipse
 62
7
  6
CONTINUOUS
 10
-2.4868706193
 20
23.5556624327
 30
0.0
 11
0.25
 21
-0.0
 31
0.0
 40
0.5773502692
 41
2.617993878
 42
3.1241393611
  0
ELLIPSE
  5
6A0
100
AcDbEntity
  8
0
100
AcDbEllipse
 62
7
  6
CONTINUOUS
 10
-20.2868706193
 20
23.5556624327
 30
0.0
 11
0.25
 21
0.0
 31
0.0
 40
0.5773502692
 41
2.617993878
 42
3.1241393611
  0
ELLIPSE
  5
6A1
100
AcDbEntity
  8
0
100
AcDbEllipse
 62
7
  6
CONTINUOUS
 10
2.4868706193
 20
22.2820824966
 30
0.0
 11
0.25
 21
0.0
 31
0.0
 40
0.0524077793
 41
-1.5707963268
 42
-0.0174532925
  0
ELLIPSE
  5
6A2
100
AcDbEntity
  8
0
100
AcDbEllipse
 62
7
  6
CONTINUOUS
 10
2.4868706193
 20
23.5556624327
 30
0.0
 11
0.25
 21
0.0
 31
0.0
 40
0.5773502692
 41
0.0174532925
 42
0.5235987756
  0
ELLIPSE
  5
6A3
100
AcDbEntity
  8
0
100
AcDbEllipse
 62
7
  6
CONTINUOUS
 10
20.2868706193
 20
22.2820824966
 30
0.0
 11
0.25
 21
-0.0
 31
0.0
 40
0.0524077793
 41
-1.5707963268
 42
-0.0174532925
  0
ELLIPSE
  5
6A4
100
AcDbEntity
  8
0
100
AcDbEllipse
 62
7
  6
CONTINUOUS
 10
20.2868706193
 20
23.5556624327
 30
0.0
 11
0.25
 21
0.0
 31
0.0
 40
0.5773502692
 41
0.0174532925
 42
0.5235987756
  0
ELLIPSE
  5
6A5
100
AcDbEntity
  8
0
100
AcDbEllipse
 62
7
  6
CONTINUOUS
 10
2.2131293807
 20
-22.2820824966
 30
0.0
 11
0.25
 21
0.0
 31
0.0
 40
0.0524077793
 41
1.5707963268
 42
3.1241393611
  0
ELLIPSE
  5
6A6
100
AcDbEntity
  8
0
100
AcDbEllipse
 62
7
  6
CONTINUOUS
 10
2.2131293807
 20
-23.5556624327
 30
0.0
 11
0.25
 21
0.0
 31
0.0
 40
0.5773502692
 41
-3.1241393611
 42
-2.617993878
  0
ELLIPSE
  5
6A7
100
AcDbEntity
  8
0
100
AcDbEllipse
 62
7
  6
CONTINUOUS
 10
20.0131293807
 20
-22.2820824966
 30
0.0
 11
0.25
 21
0.0
 31
0.0
 40
0.0524077793
 41
1.5707963268
 42
3.1241393611
  0
ELLIPSE
  5
6A8
100
AcDbEntity
  8
0
100
AcDbEllipse
 62
7
  6
CONTINUOUS
 10
20.0131293807
 20
-23.5556624327
 30
0.0
 11
0.25
 21
0.0
 31
0.0
 40
0.5773502692
 41
-3.1241393611
 42
-2.617993878
  0
ELLIPSE
  5
6A9
100
AcDbEntity
  8
0
100
AcDbEllipse
 62
7
  6
CONTINUOUS
 10
0.9218569132
 20
-22.3344902759
 30
0.0
 11
0.25
 21
-0.0
 31
0.0
 40
0.0524077793
 41
1.5707963268
 42
3.1241393611
  0
ELLIPSE
  5
6AA
100
AcDbEntity
  8
0
100
AcDbEllipse
 62
7
  6
CONTINUOUS
 10
0.9218569132
 20
-22.9783121635
 30
0.0
 11
0.25
 21
0.0
 31
0.0
 40
0.5773502692
 41
-1.7618311193
 42
-1.5707963268
  0
ELLIPSE
  5
6AB
100
AcDbEntity
  8
0
100
AcDbEllipse
 62
7
  6
CONTINUOUS
 10
3.7781430868
 20
-22.3344902759
 30
0.0
 11
0.25
 21
-0.0
 31
0.0
 40
0.0524077793
 41
0.0174532925
 42
1.5707963268
  0
ELLIPSE
  5
6AC
100
AcDbEntity
  8
0
100
AcDbEllipse
 62
7
  6
CONTINUOUS
 10
3.7781430868
 20
-22.9783121635
 30
0.0
 11
0.25
 21
0.0
 31
0.0
 40
0.5773502692
 41
-1.5707963268
 42
-1.3797615343
  0
ELLIPSE
  5
6AD
100
AcDbEntity
  8
0
100
AcDbEllipse
 62
7
  6
CONTINUOUS
 10
18.7218569132
 20
-22.3344902759
 30
0.0
 11
0.25
 21
0.0
 31
0.0
 40
0.0524077793
 41
1.5707963268
 42
3.1241393611
  0
ELLIPSE
  5
6AE
100
AcDbEntity
  8
0
100
AcDbEllipse
 62
7
  6
CONTINUOUS
 10
18.7218569132
 20
-22.9783121635
 30
0.0
 11
0.25
 21
0.0
 31
0.0
 40
0.5773502692
 41
-1.7618311193
 42
-1.5707963268
  0
ELLIPSE
  5
6AF
100
AcDbEntity
  8
0
100
AcDbEllipse
 62
7
  6
CONTINUOUS
 10
21.5781430868
 20
-22.3344902759
 30
0.0
 11
0.25
 21
-0.0
 31
0.0
 40
0.0524077793
 41
0.3162462274
 42
1.5707963268
  0
ELLIPSE
  5
6B0
100
AcDbEntity
  8
0
100
AcDbEllipse
 62
7
  6
CONTINUOUS
 10
21.5781430868
 20
-22.9783121635
 30
0.0
 11
0.25
 21
0.0
 31
0.0
 40
0.5773502692
 41
-1.5707963268
 42
-1.3797615343
  0
ELLIPSE
  5
6B1
100
AcDbEntity
  8
0
100
AcDbEllipse
 62
7
  6
CONTINUOUS
 10
3.7781430868
 20
22.3344902759
 30
0.0
 11
0.25
 21
0.0
 31
0.0
 40
0.0524077793
 41
-1.5707963268
 42
-0.0174532925
  0
ELLIPSE
  5
6B2
100
AcDbEntity
  8
0
100
AcDbEllipse
 62
7
  6
CONTINUOUS
 10
3.7781430868
 20
22.9783121635
 30
0.0
 11
0.25
 21
0.0
 31
0.0
 40
0.5773502692
 41
1.3797615343
 42
1.5707963268
  0
ELLIPSE
  5
6B3
100
AcDbEntity
  8
0
100
AcDbEllipse
 62
7
  6
CONTINUOUS
 10
0.9218569132
 20
22.3344902759
 30
0.0
 11
0.25
 21
-0.0
 31
0.0
 40
0.0524077793
 41
-3.1241393611
 42
-1.5707963268
  0
ELLIPSE
  5
6B4
100
AcDbEntity
  8
0
100
AcDbEllipse
 62
7
  6
CONTINUOUS
 10
0.9218569132
 20
22.9783121635
 30
0.0
 11
0.25
 21
-0.0
 31
0.0
 40
0.5773502692
 41
1.5707963268
 42
1.7618311193
  0
ELLIPSE
  5
6B5
100
AcDbEntity
  8
0
100
AcDbEllipse
 62
7
  6
CONTINUOUS
 10
18.7218569132
 20
22.3344902759
 30
0.0
 11
0.25
 21
0.0
 31
0.0
 40
0.0524077793
 41
-3.1241393611
 42
-1.5707963268
  0
ELLIPSE
  5
6B6
100
AcDbEntity
  8
0
100
AcDbEllipse
 62
7
  6
CONTINUOUS
 10
18.7218569132
 20
22.9783121635
 30
0.0
 11
0.25
 21
-0.0
 31
0.0
 40
0.5773502692
 41
1.5707963268
 42
1.7618311193
  0
ELLIPSE
  5
6B7
100
AcDbEntity
  8
0
100
AcDbEllipse
 62
7
  6
CONTINUOUS
 10
21.5781430868
 20
22.3344902759
 30
0.0
 11
0.25
 21
-0.0
 31
0.0
 40
0.0524077793
 41
-1.5707963268
 42
-0.3162462274
  0
ELLIPSE
  5
6B8
100
AcDbEntity
  8
0
100
AcDbEllipse
 62
7
  6
CONTINUOUS
 10
21.5781430868
 20
22.9783121635
 30
0.0
 11
0.25
 21
0.0
 31
0.0
 40
0.5773502692
 41
1.3797615343
 42
1.5707963268
  0
ELLIPSE
  5
6B9
100
AcDbEntity
  8
0
100
AcDbEllipse
 62
7
  6
CONTINUOUS
 10
2.4868706193
 20
-22.2820824966
 30
0.0
 11
0.25
 21
0.0
 31
0.0
 40
0.0524077793
 41
0.0174532925
 42
1.5707963268
  0
ELLIPSE
  5
6BA
100
AcDbEntity
  8
0
100
AcDbEllipse
 62
7
  6
CONTINUOUS
 10
20.2868706193
 20
-22.2820824966
 30
0.0
 11
0.25
 21
0.0
 31
0.0
 40
0.0524077793
 41
0.0174532925
 42
1.5707963268
  0
ELLIPSE
  5
6BB
100
AcDbEntity
  8
0
100
AcDbEllipse
 62
7
  6
CONTINUOUS
 10
2.2131293807
 20
22.2820824966
 30
0.0
 11
0.25
 21
0.0
 31
0.0
 40
0.0524077793
 41
-3.1241393611
 42
-1.5707963268
  0
ELLIPSE
  5
6BC
100
AcDbEntity
  8
0
100
AcDbEllipse
 62
7
  6
CONTINUOUS
 10
20.0131293807
 20
22.2820824966
 30
0.0
 11
0.25
 21
-0.0
 31
0.0
 40
0.0524077793
 41
-3.1241393611
 42
-1.5707963268
  0
ELLIPSE
  5
6BD
100
AcDbEntity
  8
0
100
AcDbEllipse
 62
7
  6
CONTINUOUS
 10
12.3044018482
 20
22.3868980552
 30
0.0
 11
0.25
 21
0.0
 31
0.0
 40
0.0524077793
 41
-3.1241393611
 42
-1.5707963268
  0
ELLIPSE
  5
6BE
100
AcDbEntity
  8
0
100
AcDbEllipse
 62
7
  6
CONTINUOUS
 10
21.850342662
 20
21.9003426489
 30
0.0
 11
0.9888246763
 21
3.0427267403
 31
0.0
 40
0.0489125227
 41
1.4217508045
 42
1.4436485256
  0
ELLIPSE
  5
6BF
100
AcDbEntity
  8
0
100
AcDbEllipse
 62
7
  6
CONTINUOUS
 10
21.850342662
 20
-21.9003426489
 30
0.0
 11
-0.9888246763
 21
3.0427267403
 31
0.0
 40
0.0489125227
 41
-4.5852411792
 42
-4.5633435227
  0
ELLIPSE
  5
6C0
100
AcDbEntity
  8
0
100
AcDbEllipse
 62
7
  6
CONTINUOUS
 10
15.4455981518
 20
22.3868980552
 30
0.0
 11
0.25
 21
0.0
 31
0.0
 40
0.0524077793
 41
-1.5707963268
 42
-0.0174532925
  0
ELLIPSE
  5
6C1
100
AcDbEntity
  8
0
100
AcDbEllipse
 62
7
  6
CONTINUOUS
 10
-21.850342662
 20
21.9003426489
 30
0.0
 11
-0.9888246763
 21
3.0427267403
 31
0.0
 40
0.0489125227
 41
-1.4436485256
 42
-1.4217508691
  0
ELLIPSE
  5
6C2
100
AcDbEntity
  8
0
100
AcDbEllipse
 62
7
  6
CONTINUOUS
 10
-21.850342662
 20
-21.9003426489
 30
0.0
 11
0.9888246763
 21
3.0427267403
 31
0.0
 40
0.0489125227
 41
-1.7198418491
 42
-1.697944128
  0
ELLIPSE
  5
6C3
100
AcDbEntity
  8
0
100
AcDbEllipse
 62
7
  6
CONTINUOUS
 10
7.0544018482
 20
22.3868980552
 30
0.0
 11
0.25
 21
0.0
 31
0.0
 40
0.0524077793
 41
-3.1241393611
 42
-1.5707963268
  0
ELLIPSE
  5
6C4
100
AcDbEntity
  8
0
100
AcDbEllipse
 62
7
  6
CONTINUOUS
 10
2.2131293807
 20
23.5556624327
 30
0.0
 11
0.25
 21
0.0
 31
0.0
 40
0.5773502692
 41
2.617993878
 42
3.1241393611
  0
ELLIPSE
  5
6C5
100
AcDbEntity
  8
0
100
AcDbEllipse
 62
7
  6
CONTINUOUS
 10
20.0131293807
 20
23.5556624327
 30
0.0
 11
0.25
 21
0.0
 31
0.0
 40
0.5773502692
 41
2.617993878
 42
3.1241393611
  0
ELLIPSE
  5
6C6
100
AcDbEntity
  8
0
100
AcDbEllipse
 62
7
  6
CONTINUOUS
 10
20.2868706193
 20
-23.5556624327
 30
0.0
 11
0.25
 21
0.0
 31
0.0
 40
0.5773502692
 41
-0.5235987756
 42
-0.0174532925
  0
ELLIPSE
  5
6C7
100
AcDbEntity
  8
0
100
AcDbEllipse
 62
7
  6
CONTINUOUS
 10
2.4868706193
 20
-23.5556624327
 30
0.0
 11
0.25
 21
0.0
 31
0.0
 40
0.5773502692
 41
-0.5235987756
 42
-0.0174532925
  0
ELLIPSE
  5
6C8
100
AcDbEntity
  8
0
100
AcDbEllipse
 62
7
  6
CONTINUOUS
 10
-10.1955981518
 20
22.3868980552
 30
0.0
 11
0.25
 21
-0.0
 31
0.0
 40
0.0524077793
 41
-3.1241393611
 42
-1.5707963268
  0
ELLIPSE
  5
6C9
100
AcDbEntity
  8
0
100
AcDbEllipse
 62
7
  6
CONTINUOUS
 10
-40.859671123
 20
-21.9003426489
 30
0.0
 11
57.2877742299
 21
-3.0018677586
 31
0.0
 40
0.0087159045
 41
-1.5925799468
 42
-1.5717096112
  0
ELLIPSE
  5
6CA
100
AcDbEntity
  8
0
100
AcDbEllipse
 62
7
  6
CONTINUOUS
 10
-40.859671123
 20
21.9003426489
 30
0.0
 11
57.2877742299
 21
3.0018677586
 31
0.0
 40
0.0087159045
 41
1.5717096112
 42
1.5925799468
  0
ELLIPSE
  5
6CB
100
AcDbEntity
  8
0
100
AcDbEllipse
 62
7
  6
CONTINUOUS
 10
-17.7315991114
 20
-23.2
 30
0.0
 11
26.3304431995
 21
-0.0
 31
0.0
 40
0.017367588
 41
-2.5701928713
 42
-2.3053277814
  0
ELLIPSE
  5
6CC
100
AcDbEntity
  8
0
100
AcDbEllipse
 62
7
  6
CONTINUOUS
 10
-17.7315991114
 20
-23.2
 30
0.0
 11
26.3304431995
 21
0.0
 31
0.0
 40
0.017367588
 41
2.3053277814
 42
2.5701928713
  0
ELLIPSE
  5
6CD
100
AcDbEntity
  8
0
100
AcDbEllipse
 62
7
  6
CONTINUOUS
 10
-17.7315991114
 20
23.2
 30
0.0
 11
26.3304431995
 21
-0.0
 31
0.0
 40
0.017367588
 41
-2.5701928713
 42
-2.3053277814
  0
ELLIPSE
  5
6CE
100
AcDbEntity
  8
0
100
AcDbEllipse
 62
7
  6
CONTINUOUS
 10
-17.7315991114
 20
23.2
 30
0.0
 11
26.3304431995
 21
0.0
 31
0.0
 40
0.017367588
 41
2.3053277814
 42
2.5701928713
  0
ENDSEC
  0
SECTION
  2
OBJECTS
  0
DICTIONARY
  5
C
100
AcDbDictionary
280
0
281
1
  3
ACAD_GROUP
350
D
  3
ACAD_MLINESTYLE
350
17
  3
ACAD_LAYOUT
350
1A
  3
ACAD_PLOTSETTINGS
350
19
  3
ACAD_PLOTSTYLENAME
350
E
  0
DICTIONARY
  5
D
102
{ACAD_REACTORS
330
C
102
}
100
AcDbDictionary
280
0
281
1
  0
ACDBDICTIONARYWDFLT
  5
E
102
{ACAD_REACTORS
330
C
102
}
100
AcDbDictionary
281
1
  3
Normal
350
F
100
AcDbDictionaryWithDefault
340
F
  0
DICTIONARY
  5
17
102
{ACAD_REACTORS
330
C
102
}
100
AcDbDictionary
280
0
281
1
  3
Standard
350
18
  0
DICTIONARY
  5
19
102
{ACAD_REACTORS
330
C
102
}
100
AcDbDictionary
281
1
  0
DICTIONARY
  5
1A
102
{ACAD_REACTORS
330
C
102
}
100
AcDbDictionary
281
1
  3
Model
350
6CF
  3
Layout1
350
6D0
  0
ACDBPLACEHOLDER
  5
F
102
{ACAD_REACTORS
330
E
102
}
  0
MLINESTYLE
  5
18
102
{ACAD_REACTORS
330
17
102
}
100
AcDbMlineStyle
  2
STANDARD
 70
0
  3

 62
256
 51
90.0
 52
90.0
 71
2
 49
0.5
 62
256
  6
BYLAYER
 49
-0.5
 62
256
  6
BYLAYER
  0
LAYOUT
  5
6CF
102
{ACAD_REACTORS
330
1A
102
}
100
AcDbPlotSettings
  1

  2
none_device
  4
ISO_A4_(297.00_x_210.00_MM)
  6

 40
0.0
 41
0.0
 42
0.0
 43
0.0
 44
297.0
 45
210.0
 46
0.0
 47
0.0
 48
0.0
 49
0.0
140
0.0
141
0.0
142
1.0
143
1.0
 70
1024
 72
1
 73
0
 74
0
  7

 75
0
147
1.0
148
0.0
149
0.0
100
AcDbLayout
  1
Model
 70
0
 71
0
 10
0.0
 20
0.0
 11
297.0
 21
210.0
 12
0.0
 22
0.0
 32
0.0
 14
0.0
 24
0.0
 34
0.0
 15
0.0
 25
0.0
 35
0.0
146
0.0
 13
0.0
 23
0.0
 33
0.0
 16
1.0
 26
0.0
 36
0.0
 17
0.0
 27
1.0
 37
0.0
 76
0
330
215
345
0
346
0
  0
LAYOUT
  5
6D0
102
{ACAD_REACTORS
330
1A
102
}
100
AcDbPlotSettings
  1

  2
none_device
  4
ISO_A4_(297.00_x_210.00_MM)
  6

 40
0.0
 41
0.0
 42
0.0
 43
0.0
 44
297.0
 45
210.0
 46
0.0
 47
0.0
 48
0.0
 49
0.0
140
0.0
141
0.0
142
1.0
143
1.0
 70
0
 72
1
 73
0
 74
0
  7

 75
0
147
1.0
148
0.0
149
0.0
100
AcDbLayout
  1
Layout1
 70
0
 71
1
 10
0.0
 20
0.0
 11
297.0
 21
210.0
 12
0.0
 22
0.0
 32
0.0
 14
0.0
 24
0.0
 34
0.0
 15
0.0
 25
0.0
 35
0.0
146
0.0
 13
0.0
 23
0.0
 33
0.0
 16
1.0
 26
0.0
 36
0.0
 17
0.0
 27
1.0
 37
0.0
 76
0
330
216
345
0
346
0
  0
ENDSEC
  0
EOF
